0
SECTION
2
HEADER
9
$ACADVER
1
AC1015
9
$DWGCODEPAGE
3
ANSI_1252
9
$HANDSEED
5
238
9
$ANGBASE
50
0
9
$ANGDIR
70
0
9
$ATTMODE
70
1
9
$AUNITS
70
0
9
$AUPREC
70
0
9
$CECOLOR
62
256
9
$CELTSCALE
40
1
9
$CELTYPE
6
ByLayer
9
$CELWEIGHT
370
18
9
$CLAYER
8
0
9
$CMLJUST
70
0
9
$CMLSCALE
40
1
9
$CMLSTYLE
2
Standard
9
$DIMSTYLE
2
Standard
9
$TEXTSIZE
40
0.2
9
$TEXTSTYLE
7
Standard
9
$LUNITS
70
2
9
$LUPREC
70
4
9
$EXTNAMES
290
1
9
$INSUNITS
70
4
9
$LTSCALE
40
1
9
$LWDISPLAY
290
1
9
$PDMODE
70
0
9
$PDSIZE
40
0
9
$PLINEGEN
70
0
0
ENDSEC
0
SECTION
2
CLASSES
0
CLASS
1
RASTERVARIABLES
2
AcDbRasterVariables
3
ISM
90
0
280
0
281
0
0
ENDSEC
0
SECTION
2
TABLES
0
TABLE
2
VPORT
5
22e
100
AcDbSymbolTable
0
VPORT
5
1
100
AcDbSymbolTableRecord
100
AcDbViewportTableRecord
2
*Active
70
0
10
0
20
0
11
1
21
1
12
-1
22
1
13
0
23
0
14
0.5
24
0.5
15
10
25
10
16
0
26
0
36
1
17
0
27
0
37
0
0
ENDTAB
0
TABLE
2
LTYPE
5
22f
100
AcDbSymbolTable
0
LTYPE
5
14
100
AcDbSymbolTableRecord
100
AcDbLinetypeTableRecord
70
0
2
ByBlock
3

72
65
73
0
40
0
0
LTYPE
5
15
100
AcDbSymbolTableRecord
100
AcDbLinetypeTableRecord
70
0
2
ByLayer
3

72
65
73
0
40
0
0
LTYPE
5
16
100
AcDbSymbolTableRecord
100
AcDbLinetypeTableRecord
70
0
2
Continuous
3
Solid line
72
65
73
0
40
0
0
LTYPE
5
6E
100
AcDbSymbolTableRecord
100
AcDbLinetypeTableRecord
70
0
2
CENTER
3
____ _ ____ _ ____ _ ____
72
65
73
4
40
47.5
49
22
74
0
49
-8.5
74
0
49
8.5
74
0
49
-8.5
74
0
0
LTYPE
5
6F
100
AcDbSymbolTableRecord
100
AcDbLinetypeTableRecord
70
0
2
DASHED
3
__ __ __ __ __ __ __ __ __
72
65
73
2
40
25.72
49
12.86
74
0
49
-12.86
74
0
0
ENDTAB
0
TABLE
2
LAYER
5
230
100
AcDbSymbolTable
0
LAYER
5
10
100
AcDbSymbolTableRecord
100
AcDbLayerTableRecord
2
0
70
0
62
7
6
Continuous
290
1
370
-3
390
0
0
LAYER
5
71
100
AcDbSymbolTableRecord
100
AcDbLayerTableRecord
2
80
70
0
62
-6
6
Continuous
290
1
370
-3
390
0
0
LAYER
5
73
100
AcDbSymbolTableRecord
100
AcDbLayerTableRecord
2
81
70
0
62
-3
6
Continuous
290
1
370
-3
390
0
0
LAYER
5
75
100
AcDbSymbolTableRecord
100
AcDbLayerTableRecord
2
1
70
0
62
4
6
Continuous
290
1
370
-3
390
0
0
LAYER
5
8D
100
AcDbSymbolTableRecord
100
AcDbLayerTableRecord
2
4
70
0
62
-2
6
CENTER
290
1
370
-3
390
0
0
LAYER
5
98
100
AcDbSymbolTableRecord
100
AcDbLayerTableRecord
2
2
70
0
62
7
6
Continuous
290
1
370
-3
390
0
0
LAYER
5
12B
100
AcDbSymbolTableRecord
100
AcDbLayerTableRecord
2
Defpoints
70
0
62
7
6
Continuous
290
0
370
-3
390
0
0
LAYER
5
21a
100
AcDbSymbolTableRecord
100
AcDbLayerTableRecord
2
SK1
70
0
62
4
6
Continuous
290
1
370
-3
390
0
0
LAYER
5
21b
100
AcDbSymbolTableRecord
100
AcDbLayerTableRecord
2
SK4
70
0
62
2
6
CENTER
290
1
370
-3
390
0
0
LAYER
5
21c
100
AcDbSymbolTableRecord
100
AcDbLayerTableRecord
2
SK2
70
0
62
7
6
Continuous
290
1
370
-3
390
0
0
LAYER
5
21d
100
AcDbSymbolTableRecord
100
AcDbLayerTableRecord
2
SK6
70
0
62
5
6
Continuous
290
1
370
-3
390
0
0
ENDTAB
0
TABLE
2
STYLE
5
231
100
AcDbSymbolTable
0
STYLE
5
11
100
AcDbSymbolTableRecord
100
AcDbTextStyleTableRecord
2
Standard
3
txt
70
0
71
0
40
0
41
1
42
0
50
0
0
STYLE
5
FD
100
AcDbSymbolTableRecord
100
AcDbTextStyleTableRecord
2
iso_b_vert
3
simplex.shx
70
0
71
0
40
0
41
1
42
0
50
0
0
STYLE
5
FE
100
AcDbSymbolTableRecord
100
AcDbTextStyleTableRecord
2
DWGDirectTextStyle
3
simplex
70
0
71
0
40
0
41
1
42
0
50
0
0
ENDTAB
0
TABLE
2
DIMSTYLE
5
232
100
AcDbSymbolTable
100
AcDbDimStyleTable
0
DIMSTYLE
105
27
100
AcDbSymbolTableRecord
100
AcDbDimStyleTableRecord
2
Standard
70
0
3
<>
41
0.18
42
0.0625
44
0.18
140
0.18
147
0.09
73
0
74
0
77
1
271
2
275
0
278
52
280
0
340
11
0
ENDTAB
0
TABLE
2
VIEW
5
233
100
AcDbSymbolTable
0
ENDTAB
0
TABLE
2
UCS
5
234
100
AcDbSymbolTable
0
ENDTAB
0
TABLE
2
APPID
5
235
100
AcDbSymbolTable
0
APPID
5
12
100
AcDbSymbolTableRecord
100
AcDbRegAppTableRecord
2
ACAD
70
0
0
APPID
5
127
100
AcDbSymbolTableRecord
100
AcDbRegAppTableRecord
2
ACAD_DSTYLE_DIMBREAK
70
0
0
APPID
5
1D9
100
AcDbSymbolTableRecord
100
AcDbRegAppTableRecord
2
ACAD_DSTYLE_DIM_LINETYPE
70
0
0
APPID
5
1DA
100
AcDbSymbolTableRecord
100
AcDbRegAppTableRecord
2
ACAD_DSTYLE_DIM_EXT1_LINETYPE
70
0
0
APPID
5
1DB
100
AcDbSymbolTableRecord
100
AcDbRegAppTableRecord
2
ACAD_DSTYLE_DIM_EXT2_LINETYPE
70
0
0
APPID
5
216
100
AcDbSymbolTableRecord
100
AcDbRegAppTableRecord
2
ACAD_MLEADERVER
70
0
0
ENDTAB
0
TABLE
2
BLOCK_RECORD
5
236
100
AcDbSymbolTable
0
BLOCK_RECORD
5
1F
100
AcDbSymbolTableRecord
100
AcDbBlockTableRecord
2
*Model_Space
340
0
70
0
0
BLOCK_RECORD
5
1B
100
AcDbSymbolTableRecord
100
AcDbBlockTableRecord
2
*Paper_Space
340
0
70
0
0
BLOCK_RECORD
5
23
100
AcDbSymbolTableRecord
100
AcDbBlockTableRecord
2
*Paper_Space0
340
0
70
0
0
BLOCK_RECORD
5
12C
100
AcDbSymbolTableRecord
100
AcDbBlockTableRecord
2
*D1
340
0
70
0
0
BLOCK_RECORD
5
138
100
AcDbSymbolTableRecord
100
AcDbBlockTableRecord
2
_U0
340
0
70
0
0
BLOCK_RECORD
5
144
100
AcDbSymbolTableRecord
100
AcDbBlockTableRecord
2
*D3
340
0
70
0
0
BLOCK_RECORD
5
150
100
AcDbSymbolTableRecord
100
AcDbBlockTableRecord
2
_U1
340
0
70
0
0
BLOCK_RECORD
5
15C
100
AcDbSymbolTableRecord
100
AcDbBlockTableRecord
2
*D5
340
0
70
0
0
BLOCK_RECORD
5
168
100
AcDbSymbolTableRecord
100
AcDbBlockTableRecord
2
_U2
340
0
70
0
0
BLOCK_RECORD
5
174
100
AcDbSymbolTableRecord
100
AcDbBlockTableRecord
2
*D7
340
0
70
0
0
BLOCK_RECORD
5
182
100
AcDbSymbolTableRecord
100
AcDbBlockTableRecord
2
_U3
340
0
70
0
0
BLOCK_RECORD
5
18E
100
AcDbSymbolTableRecord
100
AcDbBlockTableRecord
2
*D9
340
0
70
0
0
BLOCK_RECORD
5
19A
100
AcDbSymbolTableRecord
100
AcDbBlockTableRecord
2
_U4
340
0
70
0
0
BLOCK_RECORD
5
1A6
100
AcDbSymbolTableRecord
100
AcDbBlockTableRecord
2
*D11
340
0
70
0
0
BLOCK_RECORD
5
1B2
100
AcDbSymbolTableRecord
100
AcDbBlockTableRecord
2
_U5
340
0
70
0
0
ENDTAB
0
ENDSEC
0
SECTION
2
BLOCKS
0
BLOCK
5
20
100
AcDbEntity
8
0
100
AcDbBlockBegin
2
*Model_Space
70
0
10
0
20
0
30
0
3
*Model_Space
0
ENDBLK
5
21
100
AcDbEntity
8
0
100
AcDbBlockEnd
0
BLOCK
5
1C
100
AcDbEntity
8
0
100
AcDbBlockBegin
2
*Paper_Space
70
0
10
0
20
0
30
0
3
*Paper_Space
0
ENDBLK
5
1D
100
AcDbEntity
8
0
100
AcDbBlockEnd
0
BLOCK
5
24
100
AcDbEntity
8
0
100
AcDbBlockBegin
2
*Paper_Space0
70
0
10
0
20
0
30
0
3
*Paper_Space0
0
ENDBLK
5
25
100
AcDbEntity
8
0
100
AcDbBlockEnd
0
BLOCK
5
12D
100
AcDbEntity
8
0
100
AcDbBlockBegin
2
*D1
70
1
10
0
20
0
30
0
3
*D1
0
LINE
5
12F
100
AcDbEntity
8
0
62
256
6
ByLayer
370
-2
48
1
60
0
100
AcDbLine
10
0
20
-1.5875
30
0
11
0
21
-22.302503
31
0
39
0
210
0
220
0
230
1
0
LINE
5
130
100
AcDbEntity
8
0
62
256
6
ByLayer
370
-2
48
1
60
0
100
AcDbLine
10
89.1749
20
-9.0875
30
0
11
89.1749
21
-22.302503
31
0
39
0
210
0
220
0
230
1
0
LINE
5
131
100
AcDbEntity
8
0
62
256
6
ByLayer
370
-2
48
1
60
0
100
AcDbLine
10
3.5
20
-20.302503
30
0
11
85.6749
21
-20.302503
31
0
39
0
210
0
220
0
230
1
0
SOLID
5
132
100
AcDbEntity
8
0
62
256
6
ByLayer
370
-1
48
1
60
0
100
AcDbTrace
10
3.5
20
-19.71917
30
0
11
3.5
21
-20.885837
31
0
12
0
22
-20.302503
32
0
13
0
23
-20.302503
33
0
39
0
210
0
220
0
230
1
0
SOLID
5
133
100
AcDbEntity
8
0
62
256
6
ByLayer
370
-1
48
1
60
0
100
AcDbTrace
10
85.6749
20
-20.885837
30
0
11
85.6749
21
-19.71917
31
0
12
89.1749
22
-20.302503
32
0
13
89.1749
23
-20.302503
33
0
39
0
210
0
220
0
230
1
0
MTEXT
5
134
100
AcDbEntity
8
0
62
256
6
ByLayer
370
18
48
1
60
0
100
AcDbMText
10
44.58745
20
-13.302503
30
0
210
0
220
0
230
1
1
\A1;89.17
40
3.5
41
0
44
1
50
0
71
5
72
5
7
iso_b_vert
0
POINT
5
135
100
AcDbEntity
8
Defpoints
62
0
6
ByLayer
370
-1
48
1
60
0
100
AcDbPoint
10
0
20
0
30
0
39
0
210
0
220
0
230
1
50
360
0
POINT
5
136
100
AcDbEntity
8
Defpoints
62
0
6
ByLayer
370
-1
48
1
60
0
100
AcDbPoint
10
89.1749
20
-7.5
30
0
39
0
210
0
220
0
230
1
50
360
0
POINT
5
137
100
AcDbEntity
8
Defpoints
62
0
6
ByLayer
370
-1
48
1
60
0
100
AcDbPoint
10
89.1749
20
-20.302503
30
0
39
0
210
0
220
0
230
1
50
360
0
ENDBLK
5
12E
100
AcDbEntity
8
0
100
AcDbBlockEnd
0
BLOCK
5
13F
100
AcDbEntity
8
0
100
AcDbBlockBegin
2
_U0
70
0
10
0
20
0
30
0
3
_U0
0
MTEXT
5
139
100
AcDbEntity
8
2
62
256
6
ByLayer
370
13
48
1
60
0
100
AcDbMText
10
39.887585
20
-19.26987
30
0
210
0
220
0
230
1
1
\W0.6713;89,17
40
3.5
41
0
44
1.084337
50
0
71
7
72
5
7
iso_b_vert
0
LINE
5
13A
100
AcDbEntity
8
2
62
256
6
ByLayer
370
13
48
1
60
0
100
AcDbLine
10
0
20
-1.5875
30
0
11
0
21
-22.302503
31
0
39
0
210
0
220
0
230
1
0
LINE
5
13B
100
AcDbEntity
8
2
62
256
6
ByLayer
370
13
48
1
60
0
100
AcDbLine
10
89.1749
20
-9.0875
30
0
11
89.1749
21
-22.302503
31
0
39
0
210
0
220
0
230
1
0
LINE
5
13C
100
AcDbEntity
8
2
62
256
6
ByLayer
370
13
48
1
60
0
100
AcDbLine
10
0
20
-20.302503
30
0
11
89.1749
21
-20.302503
31
0
39
0
210
0
220
0
230
1
0
SOLID
5
13D
100
AcDbEntity
8
2
62
256
6
ByLayer
370
18
48
1
60
0
100
AcDbTrace
10
0
20
-20.302503
30
0
11
3.499998
21
-19.841719
31
0
12
3.500002
22
-20.763287
32
0
13
3.500002
23
-20.763287
33
0
39
0
210
0
220
0
230
1
0
SOLID
5
13E
100
AcDbEntity
8
2
62
256
6
ByLayer
370
18
48
1
60
0
100
AcDbTrace
10
89.1749
20
-20.302503
30
0
11
85.674902
21
-20.763287
31
0
12
85.674898
22
-19.841719
32
0
13
85.674898
23
-19.841719
33
0
39
0
210
0
220
0
230
1
0
ENDBLK
5
140
100
AcDbEntity
8
0
100
AcDbBlockEnd
0
BLOCK
5
145
100
AcDbEntity
8
0
100
AcDbBlockBegin
2
*D3
70
1
10
0
20
0
30
0
3
*D3
0
LINE
5
147
100
AcDbEntity
8
0
62
256
6
ByLayer
370
-2
48
1
60
0
100
AcDbLine
10
-50
20
-11.5875
30
0
11
-50
21
-43.192985
31
0
39
0
210
0
220
0
230
1
0
LINE
5
148
100
AcDbEntity
8
0
62
256
6
ByLayer
370
-2
48
1
60
0
100
AcDbLine
10
92
20
-1.5875
30
0
11
92
21
-43.192985
31
0
39
0
210
0
220
0
230
1
0
LINE
5
149
100
AcDbEntity
8
0
62
256
6
ByLayer
370
-2
48
1
60
0
100
AcDbLine
10
-46.5
20
-41.192985
30
0
11
88.5
21
-41.192985
31
0
39
0
210
0
220
0
230
1
0
SOLID
5
14A
100
AcDbEntity
8
0
62
256
6
ByLayer
370
-1
48
1
60
0
100
AcDbTrace
10
-46.5
20
-40.609652
30
0
11
-46.5
21
-41.776319
31
0
12
-50
22
-41.192985
32
0
13
-50
23
-41.192985
33
0
39
0
210
0
220
0
230
1
0
SOLID
5
14B
100
AcDbEntity
8
0
62
256
6
ByLayer
370
-1
48
1
60
0
100
AcDbTrace
10
88.5
20
-41.776319
30
0
11
88.5
21
-40.609652
31
0
12
92
22
-41.192985
32
0
13
92
23
-41.192985
33
0
39
0
210
0
220
0
230
1
0
MTEXT
5
14C
100
AcDbEntity
8
0
62
256
6
ByLayer
370
18
48
1
60
0
100
AcDbMText
10
21
20
-34.192985
30
0
210
0
220
0
230
1
1
\A1;142.00
40
3.5
41
0
44
1
50
0
71
5
72
5
7
iso_b_vert
0
POINT
5
14D
100
AcDbEntity
8
Defpoints
62
0
6
ByLayer
370
-1
48
1
60
0
100
AcDbPoint
10
-50
20
-10
30
0
39
0
210
0
220
0
230
1
50
360
0
POINT
5
14E
100
AcDbEntity
8
Defpoints
62
0
6
ByLayer
370
-1
48
1
60
0
100
AcDbPoint
10
92
20
0
30
0
39
0
210
0
220
0
230
1
50
360
0
POINT
5
14F
100
AcDbEntity
8
Defpoints
62
0
6
ByLayer
370
-1
48
1
60
0
100
AcDbPoint
10
92
20
-41.192985
30
0
39
0
210
0
220
0
230
1
50
360
0
ENDBLK
5
146
100
AcDbEntity
8
0
100
AcDbBlockEnd
0
BLOCK
5
157
100
AcDbEntity
8
0
100
AcDbBlockBegin
2
_U1
70
0
10
0
20
0
30
0
3
_U1
0
MTEXT
5
151
100
AcDbEntity
8
SK2
62
256
6
ByLayer
370
13
48
1
60
0
100
AcDbMText
10
14.808135
20
-40.160352
30
0
210
0
220
0
230
1
1
\W0.7145;142,00
40
3.5
41
0
44
1.084337
50
0
71
7
72
5
7
iso_b_vert
0
LINE
5
152
100
AcDbEntity
8
SK2
62
256
6
ByLayer
370
13
48
1
60
0
100
AcDbLine
10
-50
20
-11.5875
30
0
11
-50
21
-43.192985
31
0
39
0
210
0
220
0
230
1
0
LINE
5
153
100
AcDbEntity
8
SK2
62
256
6
ByLayer
370
13
48
1
60
0
100
AcDbLine
10
92
20
-1.5875
30
0
11
92
21
-43.192985
31
0
39
0
210
0
220
0
230
1
0
LINE
5
154
100
AcDbEntity
8
SK2
62
256
6
ByLayer
370
13
48
1
60
0
100
AcDbLine
10
-50
20
-41.192985
30
0
11
92
21
-41.192985
31
0
39
0
210
0
220
0
230
1
0
SOLID
5
155
100
AcDbEntity
8
SK2
62
256
6
ByLayer
370
18
48
1
60
0
100
AcDbTrace
10
-50
20
-41.192985
30
0
11
-46.500002
21
-40.732202
31
0
12
-46.499998
22
-41.653769
32
0
13
-46.499998
23
-41.653769
33
0
39
0
210
0
220
0
230
1
0
SOLID
5
156
100
AcDbEntity
8
SK2
62
256
6
ByLayer
370
18
48
1
60
0
100
AcDbTrace
10
92
20
-41.192985
30
0
11
88.500002
21
-41.653769
31
0
12
88.499998
22
-40.732202
32
0
13
88.499998
23
-40.732202
33
0
39
0
210
0
220
0
230
1
0
ENDBLK
5
158
100
AcDbEntity
8
0
100
AcDbBlockEnd
0
BLOCK
5
15D
100
AcDbEntity
8
0
100
AcDbBlockBegin
2
*D5
70
1
10
0
20
0
30
0
3
*D5
0
LINE
5
15F
100
AcDbEntity
8
0
62
256
6
ByLayer
370
-2
48
1
60
0
100
AcDbLine
10
41.87
20
11.3875
30
0
11
41.87
21
21.109119
31
0
39
0
210
0
220
0
230
1
0
LINE
5
160
100
AcDbEntity
8
0
62
256
6
ByLayer
370
-2
48
1
60
0
100
AcDbLine
10
92
20
1.5875
30
0
11
92
21
21.109119
31
0
39
0
210
0
220
0
230
1
0
LINE
5
161
100
AcDbEntity
8
0
62
256
6
ByLayer
370
-2
48
1
60
0
100
AcDbLine
10
45.37
20
19.109119
30
0
11
88.5
21
19.109119
31
0
39
0
210
0
220
0
230
1
0
SOLID
5
162
100
AcDbEntity
8
0
62
256
6
ByLayer
370
-1
48
1
60
0
100
AcDbTrace
10
45.37
20
19.692453
30
0
11
45.37
21
18.525786
31
0
12
41.87
22
19.109119
32
0
13
41.87
23
19.109119
33
0
39
0
210
0
220
0
230
1
0
SOLID
5
163
100
AcDbEntity
8
0
62
256
6
ByLayer
370
-1
48
1
60
0
100
AcDbTrace
10
88.5
20
18.525786
30
0
11
88.5
21
19.692453
31
0
12
92
22
19.109119
32
0
13
92
23
19.109119
33
0
39
0
210
0
220
0
230
1
0
MTEXT
5
164
100
AcDbEntity
8
0
62
256
6
ByLayer
370
18
48
1
60
0
100
AcDbMText
10
66.935
20
26.109119
30
0
210
0
220
0
230
1
1
\A1;50.13
40
3.5
41
0
44
1
50
0
71
5
72
5
7
iso_b_vert
0
POINT
5
165
100
AcDbEntity
8
Defpoints
62
0
6
ByLayer
370
-1
48
1
60
0
100
AcDbPoint
10
41.87
20
9.8
30
0
39
0
210
0
220
0
230
1
50
360
0
POINT
5
166
100
AcDbEntity
8
Defpoints
62
0
6
ByLayer
370
-1
48
1
60
0
100
AcDbPoint
10
92
20
0
30
0
39
0
210
0
220
0
230
1
50
360
0
POINT
5
167
100
AcDbEntity
8
Defpoints
62
0
6
ByLayer
370
-1
48
1
60
0
100
AcDbPoint
10
92
20
19.109119
30
0
39
0
210
0
220
0
230
1
50
360
0
ENDBLK
5
15E
100
AcDbEntity
8
0
100
AcDbBlockEnd
0
BLOCK
5
16F
100
AcDbEntity
8
0
100
AcDbBlockBegin
2
_U2
70
0
10
0
20
0
30
0
3
_U2
0
MTEXT
5
169
100
AcDbEntity
8
SK2
62
256
6
ByLayer
370
13
48
1
60
0
100
AcDbMText
10
62.235135
20
20.141753
30
0
210
0
220
0
230
1
1
\W0.6713;50,13
40
3.5
41
0
44
1.084337
50
0
71
7
72
5
7
iso_b_vert
0
LINE
5
16A
100
AcDbEntity
8
SK2
62
256
6
ByLayer
370
13
48
1
60
0
100
AcDbLine
10
41.87
20
11.3875
30
0
11
41.87
21
21.109119
31
0
39
0
210
0
220
0
230
1
0
LINE
5
16B
100
AcDbEntity
8
SK2
62
256
6
ByLayer
370
13
48
1
60
0
100
AcDbLine
10
92
20
1.5875
30
0
11
92
21
21.109119
31
0
39
0
210
0
220
0
230
1
0
LINE
5
16C
100
AcDbEntity
8
SK2
62
256
6
ByLayer
370
13
48
1
60
0
100
AcDbLine
10
41.87
20
19.109119
30
0
11
92
21
19.109119
31
0
39
0
210
0
220
0
230
1
0
SOLID
5
16D
100
AcDbEntity
8
SK2
62
256
6
ByLayer
370
18
48
1
60
0
100
AcDbTrace
10
41.87
20
19.109119
30
0
11
45.369998
21
19.569903
31
0
12
45.370002
22
18.648335
32
0
13
45.370002
23
18.648335
33
0
39
0
210
0
220
0
230
1
0
SOLID
5
16E
100
AcDbEntity
8
SK2
62
256
6
ByLayer
370
18
48
1
60
0
100
AcDbTrace
10
92
20
19.109119
30
0
11
88.500002
21
18.648335
31
0
12
88.499998
22
19.569903
32
0
13
88.499998
23
19.569903
33
0
39
0
210
0
220
0
230
1
0
ENDBLK
5
170
100
AcDbEntity
8
0
100
AcDbBlockEnd
0
BLOCK
5
175
100
AcDbEntity
8
0
100
AcDbBlockBegin
2
*D7
70
1
10
0
20
0
30
0
3
*D7
0
LINE
5
177
100
AcDbEntity
8
0
62
256
6
ByLayer
370
-2
48
1
60
0
100
AcDbLine
10
92
20
-1.5875
30
0
11
92
21
-22.302503
31
0
39
0
210
0
220
0
230
1
0
LINE
5
178
100
AcDbEntity
8
0
62
256
6
ByLayer
370
-2
48
1
60
0
100
AcDbLine
10
89.1749
20
-9.0875
30
0
11
89.1749
21
-22.302503
31
0
39
0
210
0
220
0
230
1
0
LINE
5
179
100
AcDbEntity
8
0
62
256
6
ByLayer
370
-2
48
1
60
0
100
AcDbLine
10
92
20
-20.302503
30
0
11
120.166667
21
-20.302503
31
0
39
0
210
0
220
0
230
1
0
LINE
5
17A
100
AcDbEntity
8
0
62
256
6
ByLayer
370
-2
48
1
60
0
100
AcDbLine
10
95.5
20
-20.302503
30
0
11
99
21
-20.302503
31
0
39
0
210
0
220
0
230
1
0
LINE
5
17B
100
AcDbEntity
8
0
62
256
6
ByLayer
370
-2
48
1
60
0
100
AcDbLine
10
85.6749
20
-20.302503
30
0
11
82.1749
21
-20.302503
31
0
39
0
210
0
220
0
230
1
0
SOLID
5
17C
100
AcDbEntity
8
0
62
256
6
ByLayer
370
-1
48
1
60
0
100
AcDbTrace
10
95.5
20
-19.71917
30
0
11
95.5
21
-20.885837
31
0
12
92
22
-20.302503
32
0
13
92
23
-20.302503
33
0
39
0
210
0
220
0
230
1
0
SOLID
5
17D
100
AcDbEntity
8
0
62
256
6
ByLayer
370
-1
48
1
60
0
100
AcDbTrace
10
85.6749
20
-20.885837
30
0
11
85.6749
21
-19.71917
31
0
12
89.1749
22
-20.302503
32
0
13
89.1749
23
-20.302503
33
0
39
0
210
0
220
0
230
1
0
MTEXT
5
17E
100
AcDbEntity
8
0
62
256
6
ByLayer
370
18
48
1
60
0
100
AcDbMText
10
109.583333
20
-13.302503
30
0
210
0
220
0
230
1
1
\A1;2.83
40
3.5
41
0
44
1
50
0
71
5
72
5
7
iso_b_vert
0
POINT
5
17F
100
AcDbEntity
8
Defpoints
62
0
6
ByLayer
370
-1
48
1
60
0
100
AcDbPoint
10
92
20
0
30
0
39
0
210
0
220
0
230
1
50
360
0
POINT
5
180
100
AcDbEntity
8
Defpoints
62
0
6
ByLayer
370
-1
48
1
60
0
100
AcDbPoint
10
89.1749
20
-7.5
30
0
39
0
210
0
220
0
230
1
50
360
0
POINT
5
181
100
AcDbEntity
8
Defpoints
62
0
6
ByLayer
370
-1
48
1
60
0
100
AcDbPoint
10
89.1749
20
-20.302503
30
0
39
0
210
0
220
0
230
1
50
360
0
ENDBLK
5
176
100
AcDbEntity
8
0
100
AcDbBlockEnd
0
BLOCK
5
189
100
AcDbEntity
8
0
100
AcDbBlockBegin
2
_U3
70
0
10
0
20
0
30
0
3
_U3
0
MTEXT
5
183
100
AcDbEntity
8
SK2
62
256
6
ByLayer
370
13
48
1
60
0
100
AcDbMText
10
98.15186
20
-19.26987
30
0
210
0
220
0
230
1
1
\W0.7150;2,83
40
3.5
41
0
44
1.084337
50
0
71
7
72
5
7
iso_b_vert
0
LINE
5
184
100
AcDbEntity
8
SK2
62
256
6
ByLayer
370
13
48
1
60
0
100
AcDbLine
10
92
20
-1.5875
30
0
11
92
21
-22.302503
31
0
39
0
210
0
220
0
230
1
0
LINE
5
185
100
AcDbEntity
8
SK2
62
256
6
ByLayer
370
13
48
1
60
0
100
AcDbLine
10
89.1749
20
-9.0875
30
0
11
89.1749
21
-22.302503
31
0
39
0
210
0
220
0
230
1
0
LINE
5
186
100
AcDbEntity
8
SK2
62
256
6
ByLayer
370
13
48
1
60
0
100
AcDbLine
10
80.4249
20
-20.302503
30
0
11
105.996491
21
-20.302503
31
0
39
0
210
0
220
0
230
1
0
SOLID
5
187
100
AcDbEntity
8
SK2
62
256
6
ByLayer
370
18
48
1
60
0
100
AcDbTrace
10
92
20
-20.302503
30
0
11
95.499998
21
-19.841719
31
0
12
95.500002
22
-20.763287
32
0
13
95.500002
23
-20.763287
33
0
39
0
210
0
220
0
230
1
0
SOLID
5
188
100
AcDbEntity
8
SK2
62
256
6
ByLayer
370
18
48
1
60
0
100
AcDbTrace
10
89.1749
20
-20.302503
30
0
11
85.674902
21
-20.763287
31
0
12
85.674898
22
-19.841719
32
0
13
85.674898
23
-19.841719
33
0
39
0
210
0
220
0
230
1
0
ENDBLK
5
18A
100
AcDbEntity
8
0
100
AcDbBlockEnd
0
BLOCK
5
18F
100
AcDbEntity
8
0
100
AcDbBlockBegin
2
*D9
70
1
10
0
20
0
30
0
3
*D9
0
LINE
5
191
100
AcDbEntity
8
0
62
256
6
ByLayer
370
-2
48
1
60
0
100
AcDbLine
10
89.1749
20
9.0875
30
0
11
89.1749
21
13.635371
31
0
39
0
210
0
220
0
230
1
0
LINE
5
192
100
AcDbEntity
8
0
62
256
6
ByLayer
370
-2
48
1
60
0
100
AcDbLine
10
44.1749
20
9.0875
30
0
11
44.1749
21
13.635371
31
0
39
0
210
0
220
0
230
1
0
LINE
5
193
100
AcDbEntity
8
0
62
256
6
ByLayer
370
-2
48
1
60
0
100
AcDbLine
10
85.6749
20
11.635371
30
0
11
47.6749
21
11.635371
31
0
39
0
210
0
220
0
230
1
0
SOLID
5
194
100
AcDbEntity
8
0
62
256
6
ByLayer
370
-1
48
1
60
0
100
AcDbTrace
10
85.6749
20
11.052038
30
0
11
85.6749
21
12.218705
31
0
12
89.1749
22
11.635371
32
0
13
89.1749
23
11.635371
33
0
39
0
210
0
220
0
230
1
0
SOLID
5
195
100
AcDbEntity
8
0
62
256
6
ByLayer
370
-1
48
1
60
0
100
AcDbTrace
10
47.6749
20
12.218705
30
0
11
47.6749
21
11.052038
31
0
12
44.1749
22
11.635371
32
0
13
44.1749
23
11.635371
33
0
39
0
210
0
220
0
230
1
0
MTEXT
5
196
100
AcDbEntity
8
0
62
256
6
ByLayer
370
18
48
1
60
0
100
AcDbMText
10
66.6749
20
18.635371
30
0
210
0
220
0
230
1
1
\A1;45.00
40
3.5
41
0
44
1
50
0
71
5
72
5
7
iso_b_vert
0
POINT
5
197
100
AcDbEntity
8
Defpoints
62
0
6
ByLayer
370
-1
48
1
60
0
100
AcDbPoint
10
89.1749
20
7.5
30
0
39
0
210
0
220
0
230
1
50
360
0
POINT
5
198
100
AcDbEntity
8
Defpoints
62
0
6
ByLayer
370
-1
48
1
60
0
100
AcDbPoint
10
44.1749
20
7.5
30
0
39
0
210
0
220
0
230
1
50
360
0
POINT
5
199
100
AcDbEntity
8
Defpoints
62
0
6
ByLayer
370
-1
48
1
60
0
100
AcDbPoint
10
44.1749
20
11.635371
30
0
39
0
210
0
220
0
230
1
50
360
0
ENDBLK
5
190
100
AcDbEntity
8
0
100
AcDbBlockEnd
0
BLOCK
5
1A1
100
AcDbEntity
8
0
100
AcDbBlockBegin
2
_U4
70
0
10
0
20
0
30
0
3
_U4
0
MTEXT
5
19B
100
AcDbEntity
8
SK2
62
256
6
ByLayer
370
13
48
1
60
0
100
AcDbMText
10
61.353335
20
12.668005
30
0
210
0
220
0
230
1
1
\W0.7581;45,00
40
3.5
41
0
44
1.084337
50
0
71
7
72
5
7
iso_b_vert
0
LINE
5
19C
100
AcDbEntity
8
SK2
62
256
6
ByLayer
370
13
48
1
60
0
100
AcDbLine
10
89.1749
20
9.0875
30
0
11
89.1749
21
13.635371
31
0
39
0
210
0
220
0
230
1
0
LINE
5
19D
100
AcDbEntity
8
SK2
62
256
6
ByLayer
370
13
48
1
60
0
100
AcDbLine
10
44.1749
20
9.0875
30
0
11
44.1749
21
13.635371
31
0
39
0
210
0
220
0
230
1
0
LINE
5
19E
100
AcDbEntity
8
SK2
62
256
6
ByLayer
370
13
48
1
60
0
100
AcDbLine
10
89.1749
20
11.635371
30
0
11
44.1749
21
11.635371
31
0
39
0
210
0
220
0
230
1
0
SOLID
5
19F
100
AcDbEntity
8
SK2
62
256
6
ByLayer
370
18
48
1
60
0
100
AcDbTrace
10
89.1749
20
11.635371
30
0
11
85.674902
21
11.174588
31
0
12
85.674898
22
12.096155
32
0
13
85.674898
23
12.096155
33
0
39
0
210
0
220
0
230
1
0
SOLID
5
1A0
100
AcDbEntity
8
SK2
62
256
6
ByLayer
370
18
48
1
60
0
100
AcDbTrace
10
44.1749
20
11.635371
30
0
11
47.674898
21
12.096155
31
0
12
47.674902
22
11.174588
32
0
13
47.674902
23
11.174588
33
0
39
0
210
0
220
0
230
1
0
ENDBLK
5
1A2
100
AcDbEntity
8
0
100
AcDbBlockEnd
0
BLOCK
5
1A7
100
AcDbEntity
8
0
100
AcDbBlockBegin
2
*D11
70
1
10
0
20
0
30
0
3
*D11
0
LINE
5
1A9
100
AcDbEntity
8
0
62
256
6
ByLayer
370
-2
48
1
60
0
100
AcDbLine
10
-50
20
-11.5875
30
0
11
-50
21
-32.690158
31
0
39
0
210
0
220
0
230
1
0
LINE
5
1AA
100
AcDbEntity
8
0
62
256
6
ByLayer
370
-2
48
1
60
0
100
AcDbLine
10
89.1749
20
-9.0875
30
0
11
89.1749
21
-32.690158
31
0
39
0
210
0
220
0
230
1
0
LINE
5
1AB
100
AcDbEntity
8
0
62
256
6
ByLayer
370
-2
48
1
60
0
100
AcDbLine
10
-46.5
20
-30.690158
30
0
11
85.6749
21
-30.690158
31
0
39
0
210
0
220
0
230
1
0
SOLID
5
1AC
100
AcDbEntity
8
0
62
256
6
ByLayer
370
-1
48
1
60
0
100
AcDbTrace
10
-46.5
20
-30.106825
30
0
11
-46.5
21
-31.273491
31
0
12
-50
22
-30.690158
32
0
13
-50
23
-30.690158
33
0
39
0
210
0
220
0
230
1
0
SOLID
5
1AD
100
AcDbEntity
8
0
62
256
6
ByLayer
370
-1
48
1
60
0
100
AcDbTrace
10
85.6749
20
-31.273491
30
0
11
85.6749
21
-30.106825
31
0
12
89.1749
22
-30.690158
32
0
13
89.1749
23
-30.690158
33
0
39
0
210
0
220
0
230
1
0
MTEXT
5
1AE
100
AcDbEntity
8
0
62
256
6
ByLayer
370
18
48
1
60
0
100
AcDbMText
10
19.58745
20
-23.690158
30
0
210
0
220
0
230
1
1
\A1;139.17
40
3.5
41
0
44
1
50
0
71
5
72
5
7
iso_b_vert
0
POINT
5
1AF
100
AcDbEntity
8
Defpoints
62
0
6
ByLayer
370
-1
48
1
60
0
100
AcDbPoint
10
-50
20
-10
30
0
39
0
210
0
220
0
230
1
50
360
0
POINT
5
1B0
100
AcDbEntity
8
Defpoints
62
0
6
ByLayer
370
-1
48
1
60
0
100
AcDbPoint
10
89.1749
20
-7.5
30
0
39
0
210
0
220
0
230
1
50
360
0
POINT
5
1B1
100
AcDbEntity
8
Defpoints
62
0
6
ByLayer
370
-1
48
1
60
0
100
AcDbPoint
10
89.1749
20
-30.690158
30
0
39
0
210
0
220
0
230
1
50
360
0
ENDBLK
5
1A8
100
AcDbEntity
8
0
100
AcDbBlockEnd
0
BLOCK
5
1B9
100
AcDbEntity
8
0
100
AcDbBlockBegin
2
_U5
70
0
10
0
20
0
30
0
3
_U5
0
MTEXT
5
1B3
100
AcDbEntity
8
SK2
62
256
6
ByLayer
370
13
48
1
60
0
100
AcDbMText
10
14.017285
20
-29.657524
30
0
210
0
220
0
230
1
1
\W0.6440;139,17
40
3.5
41
0
44
1.084337
50
0
71
7
72
5
7
iso_b_vert
0
LINE
5
1B4
100
AcDbEntity
8
SK2
62
256
6
ByLayer
370
13
48
1
60
0
100
AcDbLine
10
-50
20
-11.5875
30
0
11
-50
21
-32.690158
31
0
39
0
210
0
220
0
230
1
0
LINE
5
1B5
100
AcDbEntity
8
SK2
62
256
6
ByLayer
370
13
48
1
60
0
100
AcDbLine
10
89.1749
20
-9.0875
30
0
11
89.1749
21
-32.690158
31
0
39
0
210
0
220
0
230
1
0
LINE
5
1B6
100
AcDbEntity
8
SK2
62
256
6
ByLayer
370
13
48
1
60
0
100
AcDbLine
10
-50
20
-30.690158
30
0
11
89.1749
21
-30.690158
31
0
39
0
210
0
220
0
230
1
0
SOLID
5
1B7
100
AcDbEntity
8
SK2
62
256
6
ByLayer
370
18
48
1
60
0
100
AcDbTrace
10
-50
20
-30.690158
30
0
11
-46.500002
21
-30.229374
31
0
12
-46.499998
22
-31.150942
32
0
13
-46.499998
23
-31.150942
33
0
39
0
210
0
220
0
230
1
0
SOLID
5
1B8
100
AcDbEntity
8
SK2
62
256
6
ByLayer
370
18
48
1
60
0
100
AcDbTrace
10
89.1749
20
-30.690158
30
0
11
85.674902
21
-31.150942
31
0
12
85.674898
22
-30.229374
32
0
13
85.674898
23
-30.229374
33
0
39
0
210
0
220
0
230
1
0
ENDBLK
5
1BA
100
AcDbEntity
8
0
100
AcDbBlockEnd
0
ENDSEC
0
SECTION
2
ENTITIES
0
ARC
5
BC
100
AcDbEntity
8
1
62
256
6
ByLayer
370
18
48
1
60
0
100
AcDbCircle
39
0
10
0.8
20
-10.65
30
0
40
0.849999999999999
210
0
220
0
230
1
100
AcDbArc
50
90
51
118.072487
0
ARC
5
BD
100
AcDbEntity
8
1
62
256
6
ByLayer
370
18
48
1
60
0
100
AcDbCircle
39
0
10
0.8
20
10.65
30
0
40
0.849999999999999
210
0
220
0
230
1
100
AcDbArc
50
241.927513
51
270
0
ARC
5
BE
100
AcDbEntity
8
1
62
256
6
ByLayer
370
18
48
1
60
0
100
AcDbCircle
39
0
10
0
20
-9.15
30
0
40
0.849999999999998
210
0
220
0
230
1
100
AcDbArc
50
270
51
298.072487
0
ARC
5
BF
100
AcDbEntity
8
1
62
256
6
ByLayer
370
18
48
1
60
0
100
AcDbCircle
39
0
10
0
20
9.15
30
0
40
0.849999999999998
210
0
220
0
230
1
100
AcDbArc
50
61.927513
51
90
0
ARC
5
C0
100
AcDbEntity
8
SK2
62
256
6
ByLayer
370
13
48
1
60
0
100
AcDbCircle
39
0
10
51.6749
20
0
30
0
40
22.8065269408353
210
0
220
0
230
1
100
AcDbArc
50
182.699904
51
225
0
ARC
5
C1
100
AcDbEntity
8
SK2
62
256
6
ByLayer
370
13
48
1
60
0
100
AcDbCircle
39
0
10
51.6749
20
0
30
0
40
22.8065269408353
210
0
220
0
230
1
100
AcDbArc
50
135
51
166.237291
0
ELLIPSE
5
C2
100
AcDbEntity
8
1
62
256
6
ByLayer
370
13
48
1
60
0
100
AcDbEllipse
10
31.793207
20
-74.78659
30
0
11
-24.8102037548103
21
69.6968074190329
31
0
210
0
220
0
230
1
40
0.819625
41
-0.296529321996088
42
-0.148831051468483
0
ELLIPSE
5
C3
100
AcDbEntity
8
1
62
256
6
ByLayer
370
13
48
1
60
0
100
AcDbEllipse
10
136.194174
20
40.892771
30
0
11
-59.4999999999999
21
7.28640780524313E-15
31
0
210
0
220
0
230
1
40
0.99863
41
0.671964589854577
42
0.719068709661484
0
POINT
5
70
100
AcDbEntity
8
80
62
256
6
ByLayer
370
18
48
1
60
0
100
AcDbPoint
10
0
20
0
30
0
39
0
210
0
220
0
230
1
50
360
0
POINT
5
72
100
AcDbEntity
8
81
62
256
6
ByLayer
370
18
48
1
60
0
100
AcDbPoint
10
92
20
0
30
0
39
0
210
0
220
0
230
1
50
360
0
POINT
5
74
100
AcDbEntity
8
1
62
256
6
ByLayer
370
18
48
1
60
1
100
AcDbPoint
10
89.1749
20
-7.5
30
0
39
0
210
0
220
0
230
1
50
360
0
POINT
5
76
100
AcDbEntity
8
1
62
256
6
ByLayer
370
18
48
1
60
1
100
AcDbPoint
10
-50
20
-10
30
0
39
0
210
0
220
0
230
1
50
360
0
POINT
5
77
100
AcDbEntity
8
1
62
256
6
ByLayer
370
18
48
1
60
1
100
AcDbPoint
10
41.87
20
9.8
30
0
39
0
210
0
220
0
230
1
50
360
0
POINT
5
78
100
AcDbEntity
8
1
62
256
6
ByLayer
370
18
48
1
60
1
100
AcDbPoint
10
89.1749
20
-7.5
30
0
39
0
210
0
220
0
230
1
50
360
0
POINT
5
79
100
AcDbEntity
8
1
62
256
6
ByLayer
370
18
48
1
60
1
100
AcDbPoint
10
89.1749
20
7.5
30
0
39
0
210
0
220
0
230
1
50
360
0
POINT
5
7A
100
AcDbEntity
8
1
62
256
6
ByLayer
370
18
48
1
60
1
100
AcDbPoint
10
44.1749
20
7.5
30
0
39
0
210
0
220
0
230
1
50
360
0
POINT
5
7B
100
AcDbEntity
8
1
62
256
6
ByLayer
370
18
48
1
60
1
100
AcDbPoint
10
-50
20
-10
30
0
39
0
210
0
220
0
230
1
50
360
0
POINT
5
7C
100
AcDbEntity
8
1
62
256
6
ByLayer
370
18
48
1
60
1
100
AcDbPoint
10
89.1749
20
-7.5
30
0
39
0
210
0
220
0
230
1
50
360
0
SPLINE
5
C4
100
AcDbEntity
8
1
62
256
6
ByLayer
370
18
48
1
60
0
100
AcDbSpline
70
4
71
1
72
4
73
2
40
0
40
0
40
1
40
1
41
1
10
90.9665689761756
20
-1.63191406167769
30
0
41
1
10
90.9826598293017
20
-1.5775922519027
30
0
0
SPLINE
5
C5
100
AcDbEntity
8
1
62
256
6
ByLayer
370
18
48
1
60
0
100
AcDbSpline
70
4
71
3
72
8
73
4
40
0
40
0
40
0
40
0
40
1
40
1
40
1
40
1
41
1
10
90.9759286753809
20
-1.57072871836573
30
0
41
1
10
90.9781722125399
20
-1.57301674019132
30
0
41
1
10
90.9804159305312
20
-1.57530458471436
30
0
41
1
10
90.9826598293122
20
-1.5775922518927
30
0
0
SPLINE
5
C6
100
AcDbEntity
8
1
62
256
6
ByLayer
370
18
48
1
60
0
100
AcDbSpline
70
4
71
3
72
22
73
18
40
0
40
0
40
0
40
0
40
0.124999999999993
40
0.124999999999993
40
0.187499999999989
40
0.187499999999989
40
0.249999999999985
40
0.249999999999985
40
0.374999999999986
40
0.374999999999986
40
0.499999999999986
40
0.499999999999986
40
0.749999999999993
40
0.749999999999993
40
0.874999999999997
40
0.874999999999997
40
1
40
1
40
1
40
1
41
1
10
90.9759286753759
20
-1.57072871836073
30
0
41
1
10
90.8928010718611
20
-1.59786119086644
30
0
41
1
10
90.8125535836463
20
-1.60406555768463
30
0
41
1
10
90.6958599367277
20
-1.58664925552745
30
0
41
1
10
90.657580730842
20
-1.57634826342857
30
0
41
1
10
90.5822074960039
20
-1.54713429479861
30
0
41
1
10
90.5450113498559
20
-1.52811427702889
30
0
41
1
10
90.4372657426313
20
-1.45998527262498
30
0
41
1
10
90.3698047469498
20
-1.39973276469161
30
0
41
1
10
90.2423631764669
20
-1.25383338459764
30
0
41
1
10
90.1822472286876
20
-1.16764217522606
30
0
41
1
10
90.0167809156972
20
-0.882830311658608
30
0
41
1
10
89.9240457082064
20
-0.65666621609202
30
0
41
1
10
89.8064103057906
20
-0.273095045331075
30
0
41
1
10
89.7714234276142
20
-0.139545996486476
30
0
41
1
10
89.7092850202956
20
0.136447770367909
30
0
41
1
10
89.6820764510025
20
0.27910717692896
30
0
41
1
10
89.6584653588055
20
0.426111289202567
30
0
0
SPLINE
5
C7
100
AcDbEntity
8
1
62
256
6
ByLayer
370
18
48
1
60
0
100
AcDbSpline
70
4
71
3
72
12
73
8
40
0
40
0
40
0
40
0
40
0.5
40
0.5
40
0.75
40
0.75
40
1
40
1
40
1
40
1
41
1
10
44.174899999942
20
-7.19832696316107
30
0
41
1
10
43.763998280365
20
-7.52931858900018
30
0
41
1
10
43.365019231143
20
-7.82172148258758
30
0
41
1
10
42.7774550797731
20
-8.20234605874413
30
0
41
1
10
42.5832059671571
20
-8.3199629206706
30
0
41
1
10
42.1974556887843
20
-8.53548313901626
30
0
41
1
10
42.0059689639933
20
-8.63332249242478
30
0
41
1
10
41.8151537953391
20
-8.72157534914584
30
0
0
SPLINE
5
C8
100
AcDbEntity
8
1
62
256
6
ByLayer
370
18
48
1
60
0
100
AcDbSpline
70
4
71
3
72
8
73
4
40
0
40
0
40
0
40
0
40
1
40
1
40
1
40
1
41
1
10
91.425214668642
20
-1.75477028759303
30
0
41
1
10
90.9680607504953
20
-3.09039405490546
30
0
41
1
10
90.5154308973328
20
-4.42754555077707
30
0
41
1
10
90.0673563366042
20
-5.76623532038511
30
0
0
SPLINE
5
C9
100
AcDbEntity
8
1
62
256
6
ByLayer
370
18
48
1
60
0
100
AcDbSpline
70
4
71
3
72
14
73
10
40
0
40
0
40
0
40
0
40
0.25
40
0.25
40
0.5
40
0.5
40
0.75
40
0.75
40
1
40
1
40
1
40
1
41
1
10
41.8151537953391
20
-8.72157534914587
30
0
41
1
10
41.3792637145404
20
-8.58107419860568
30
0
41
1
10
40.9446255353474
20
-8.42808572852158
30
0
41
1
10
40.0768812693324
20
-8.09809930259436
30
0
41
1
10
39.6432788914614
20
-7.92150634705038
30
0
41
1
10
38.7770171286566
20
-7.54485531341933
30
0
41
1
10
38.3436765937786
20
-7.34537053575349
30
0
41
1
10
37.4757302154312
20
-6.92483293721159
30
0
41
1
10
37.0408828675943
20
-6.70404478362053
30
0
41
1
10
36.6054945455315
20
-6.47215962057325
30
0
0
SPLINE
5
CA
100
AcDbEntity
8
1
62
256
6
ByLayer
370
18
48
1
60
0
100
AcDbSpline
70
4
71
3
72
10
73
6
40
0
40
0
40
0
40
0
40
0.832831479450402
40
0.832831479450402
40
1
40
1
40
1
40
1
41
1
10
49.3617048304764
20
-7.25285660864429
30
0
41
1
10
48.5790211284406
20
-7.25187552382752
30
0
41
1
10
47.7947363812844
20
-7.21607435338234
30
0
41
1
10
46.8482757439045
20
-7.13124262256164
30
0
41
1
10
46.6897879827398
20
-7.11563676418098
30
0
41
1
10
46.5313630469537
20
-7.09865035788067
30
0
0
SPLINE
5
CB
100
AcDbEntity
8
1
62
256
6
ByLayer
370
13
48
1
60
0
100
AcDbSpline
70
4
71
3
72
12
73
8
40
0
40
0
40
0
40
0
40
0.0993669688539487
40
0.0993669688539487
40
0.399577979235964
40
0.399577979235964
40
1
40
1
40
1
40
1
41
1
10
46.5313630467124
20
-7.09865035785481
30
0
41
1
10
46.4529827992918
20
-7.09024638582787
30
0
41
1
10
46.3746179299221
20
-7.08150449086759
30
0
41
1
10
46.0597179321344
20
-7.04501388839671
30
0
41
1
10
45.8234851808476
20
-7.01455485653847
30
0
41
1
10
45.1156670378671
20
-6.91420723453928
30
0
41
1
10
44.6449565259533
20
-6.83531146329861
30
0
41
1
10
44.174900000019
20
-6.74495904513745
30
0
0
SPLINE
5
CC
100
AcDbEntity
8
1
62
256
6
ByLayer
370
13
48
1
60
0
100
AcDbSpline
70
4
71
3
72
36
73
32
40
0
40
0
40
0
40
0
40
0.170049996913587
40
0.170049996913587
40
0.340099993827175
40
0.340099993827175
40
0.382612493055571
40
0.382612493055571
40
0.425124992283968
40
0.425124992283968
40
0.510149990740759
40
0.510149990740759
40
0.59517498919755
40
0.59517498919755
40
0.637687488425945
40
0.637687488425945
40
0.658943738040143
40
0.658943738040143
40
0.680199987654341
40
0.680199987654341
40
0.765224986111131
40
0.765224986111131
40
0.807737485339526
40
0.807737485339526
40
0.850249984567921
40
0.850249984567921
40
0.935274983024711
40
0.935274983024711
40
0.977787482253105
40
0.977787482253105
40
1
40
1
40
1
40
1
41
1
10
89.2819907090208
20
-7.07773043540013
30
0
41
1
10
87.3949636138228
20
-6.8175603117032
30
0
41
1
10
85.5392126767046
20
-6.36529259386057
30
0
41
1
10
81.8251605191436
20
-5.1514817682762
30
0
41
1
10
79.9673849371125
20
-4.3894664246925
30
0
41
1
10
77.602856189874
20
-3.29495129526859
30
0
41
1
10
77.1311252005617
20
-3.07058180578423
30
0
41
1
10
76.190951764011
20
-2.61373254877898
30
0
41
1
10
75.7221893191507
20
-2.38111272376807
30
0
41
1
10
74.3183561292595
20
-1.67355444450675
30
0
41
1
10
73.3854951152573
20
-1.18936302156968
30
0
41
1
10
71.5181771007393
20
-0.210841898815545
30
0
41
1
10
70.5837870768984
20
0.283648477262005
30
0
41
1
10
69.1743027312037
20
1.02009085079476
30
0
41
1
10
68.7032652358772
20
1.26488804848489
30
0
41
1
10
67.9940514394318
20
1.62942626532745
30
0
41
1
10
67.7572788277149
20
1.75045698920269
30
0
41
1
10
67.2846023337178
20
1.99043283299031
30
0
41
1
10
67.0484710980475
20
2.10950372312598
30
0
41
1
10
65.8684339543051
20
2.69951579055638
30
0
41
1
10
64.9263511741394
20
3.15434746089011
30
0
41
1
10
63.5100510732034
20
3.80037045483181
30
0
41
1
10
63.0370096374594
20
4.00982405660341
30
0
41
1
10
62.090573449694
20
4.41410160691271
30
0
41
1
10
61.6182968054663
20
4.60841489104024
30
0
41
1
10
60.2027676584589
20
5.16556417436598
30
0
41
1
10
59.2606473529606
20
5.50237301702253
30
0
41
1
10
57.8436796627052
20
5.94843012433455
30
0
41
1
10
57.370264067727
20
6.08729332500309
30
0
41
1
10
56.649474039575
20
6.28191032951923
30
0
41
1
10
56.4021690756421
20
6.34565029749984
30
0
41
1
10
56.1548538778169
20
6.40632770076746
30
0
0
SPLINE
5
CD
100
AcDbEntity
8
1
62
256
6
ByLayer
370
18
48
1
60
0
100
AcDbSpline
70
4
71
3
72
46
73
42
40
0
40
0
40
0
40
0
40
0.034791664668374
40
0.034791664668374
40
0.069583329336748
40
0.069583329336748
40
0.139166658673498
40
0.139166658673498
40
0.208749988010247
40
0.208749988010247
40
0.243541652678623
40
0.243541652678623
40
0.278333317346999
40
0.278333317346999
40
0.417499976020504
40
0.417499976020504
40
0.452291640688881
40
0.452291640688881
40
0.487083305357257
40
0.487083305357257
40
0.556666634694011
40
0.556666634694011
40
0.695833293367519
40
0.695833293367519
40
0.713229125701708
40
0.713229125701708
40
0.730624958035897
40
0.730624958035897
40
0.765416622704275
40
0.765416622704275
40
0.834999952041032
40
0.834999952041032
40
0.904583281377788
40
0.904583281377788
40
0.939374946046166
40
0.939374946046166
40
0.956770778380355
40
0.956770778380355
40
0.974166610714544
40
0.974166610714544
40
1
40
1
40
1
40
1
41
1
10
89.3000975439834
20
-7.32266009484215
30
0
41
1
10
88.827154695896
20
-7.26650213586234
30
0
41
1
10
88.3547864996032
20
-7.19752081591022
30
0
41
1
10
87.4092980467377
20
-7.0348740303229
30
0
41
1
10
86.936006003657
20
-6.94104732152391
30
0
41
1
10
85.5220611348323
20
-6.62526725416123
30
0
41
1
10
84.5847634312711
20
-6.36860636314955
30
0
41
1
10
82.7119540140168
20
-5.77314690883773
30
0
41
1
10
81.7764474459868
20
-5.43435635650093
30
0
41
1
10
80.3681528835604
20
-4.87220178698161
30
0
41
1
10
79.8978626498576
20
-4.67585159266281
30
0
41
1
10
78.954488780256
20
-4.26654297655369
30
0
41
1
10
78.4806001786239
20
-4.05313803740989
30
0
41
1
10
76.1220642334076
20
-2.95810312475089
30
0
41
1
10
74.2567046051524
20
-1.98720447942065
30
0
41
1
10
71.9089924494706
20
-0.732655558047128
30
0
41
1
10
71.4386712656953
20
-0.479662476583485
30
0
41
1
10
70.4953623849176
20
0.0284651207557545
30
0
41
1
10
70.0212133957589
20
0.284077504880798
30
0
41
1
10
68.6052966189425
20
1.0441579840263
30
0
41
1
10
67.6679809939322
20
1.54329911421533
30
0
41
1
10
64.8629640223987
20
2.99489603906403
30
0
41
1
10
63.0018814316079
20
3.90088134234523
30
0
41
1
10
60.880356474354
20
4.7847343126351
30
0
41
1
10
60.6442394602585
20
4.88105195959804
30
0
41
1
10
60.1710760283854
20
5.06966348650616
30
0
41
1
10
59.9341314146006
20
5.1618989360594
30
0
41
1
10
59.2255034157725
20
5.43085629814459
30
0
41
1
10
58.7548043756963
20
5.60035128655997
30
0
41
1
10
57.3460768878383
20
6.07769594905636
30
0
41
1
10
56.4114040020959
20
6.35440918351659
30
0
41
1
10
54.5428930707416
20
6.81776879304314
30
0
41
1
10
53.6089392595577
20
7.00429120168198
30
0
41
1
10
52.2021279704642
20
7.21121438273613
30
0
41
1
10
51.732259938383
20
7.26807251968745
30
0
41
1
10
51.0251790246718
20
7.33451037279605
30
0
41
1
10
50.7891002775176
20
7.35351376507489
30
0
41
1
10
50.3160356200656
20
7.38513557449963
30
0
41
1
10
50.0788845172949
20
7.39775488226721
30
0
41
1
10
49.4907059120727
20
7.42099005560419
30
0
41
1
10
49.1397695325693
20
7.42769696804544
30
0
41
1
10
48.7891631490253
20
7.42727764812759
30
0
0
SPLINE
5
CE
100
AcDbEntity
8
1
62
256
6
ByLayer
370
18
48
1
60
0
100
AcDbSpline
70
4
71
3
72
14
73
10
40
0
40
0
40
0
40
0
40
0.0391081944564324
40
0.0391081944564324
40
0.13519737501079
40
0.13519737501079
40
0.231286555565148
40
0.231286555565148
40
1
40
1
40
1
40
1
41
1
10
51.5484700566107
20
-7.28376689816733
30
0
41
1
10
51.4526638683291
20
-7.29381727130126
30
0
41
1
10
51.3567997229387
20
-7.30335104320307
30
0
41
1
10
51.0251790246718
20
-7.33451037279605
30
0
41
1
10
50.7891002775175
20
-7.35351376507489
30
0
41
1
10
50.3160356200655
20
-7.38513557449963
30
0
41
1
10
50.0788845172948
20
-7.39775488226718
30
0
41
1
10
47.9486886881577
20
-7.48190528980041
30
0
41
1
10
46.0712529460276
20
-7.34838893500685
30
0
41
1
10
44.1748999999419
20
-7.01468276299576
30
0
0
SPLINE
5
CF
100
AcDbEntity
8
1
62
256
6
ByLayer
370
18
48
1
60
0
100
AcDbSpline
70
4
71
4
72
10
73
5
40
0
40
0
40
0
40
0
40
0
40
1
40
1
40
1
40
1
40
1
41
1
10
36.6054945455316
20
6.47215962057322
30
0
41
1
10
36.5519110605768
20
6.37397660906359
30
0
41
1
10
36.4983275756219
20
6.27579359755396
30
0
41
1
10
36.4447440906671
20
6.17761058604435
30
0
41
1
10
36.3911606057123
20
6.07942757453475
30
0
0
SPLINE
5
D0
100
AcDbEntity
8
1
62
256
6
ByLayer
370
18
48
1
60
0
100
AcDbSpline
70
4
71
3
72
16
73
12
40
0
40
0
40
0
40
0
40
0.576535132316405
40
0.576535132316405
40
0.720668915395505
40
0.720668915395505
40
0.792735806935051
40
0.792735806935051
40
0.864802698474598
40
0.864802698474598
40
1
40
1
40
1
40
1
41
1
10
89.3902014343094
20
7.44059414807654
30
0
41
1
10
87.5067893359852
20
7.30899744483452
30
0
41
1
10
85.6434733773121
20
6.97255142371273
30
0
41
1
10
83.2942601530534
20
6.32590513151015
30
0
41
1
10
82.8236866852942
20
6.18502514362416
30
0
41
1
10
82.1152575338749
20
5.95767686283975
30
0
41
1
10
81.8788109461096
20
5.87908353501373
30
0
41
1
10
81.4050710381546
20
5.71647487904877
30
0
41
1
10
81.1673305388582
20
5.6325860849862
30
0
41
1
10
80.4856223605627
20
5.38480026939894
30
0
41
1
10
80.0426646858347
20
5.21503043575783
30
0
41
1
10
79.6006814064712
20
5.03826420159717
30
0
0
SPLINE
5
D1
100
AcDbEntity
8
1
62
256
6
ByLayer
370
18
48
1
60
0
100
AcDbSpline
70
4
71
3
72
8
73
4
40
0
40
0
40
0
40
0
40
1
40
1
40
1
40
1
41
1
10
47.5819351888666
20
-7.42514572233574
30
0
41
1
10
46.4491599052911
20
-7.42379047961387
30
0
41
1
10
45.3158759787151
20
-7.34818270484578
30
0
41
1
10
44.1748999999418
20
-7.19832696316047
30
0
0
SPLINE
5
D2
100
AcDbEntity
8
1
62
256
6
ByLayer
370
18
48
1
60
0
100
AcDbSpline
70
4
71
3
72
10
73
6
40
0
40
0
40
0
40
0
40
0.5
40
0.5
40
1
40
1
40
1
40
1
41
1
10
89.7141293969657
20
3.01643156904274
30
0
41
1
10
89.6686511914693
20
3.15963899630688
30
0
41
1
10
89.6358156801187
20
3.30495376979573
30
0
41
1
10
89.6032681729563
20
3.60157085048289
30
0
41
1
10
89.6036975041546
20
3.75390530950486
30
0
41
1
10
89.6294636334814
20
3.90331561724184
30
0
0
SPLINE
5
D3
100
AcDbEntity
8
1
62
256
6
ByLayer
370
18
48
1
60
0
100
AcDbSpline
70
4
71
3
72
70
73
66
40
0
40
0
40
0
40
0
40
0.0391680170714917
40
0.0391680170714917
40
0.0783360341429834
40
0.0783360341429834
40
0.117504051214475
40
0.117504051214475
40
0.156672068285967
40
0.156672068285967
40
0.195840085357459
40
0.195840085357459
40
0.215424093893205
40
0.215424093893205
40
0.235008102428951
40
0.235008102428951
40
0.274176119500444
40
0.274176119500444
40
0.313344136571937
40
0.313344136571937
40
0.332928145107683
40
0.332928145107683
40
0.352512153643429
40
0.352512153643429
40
0.391680170714921
40
0.391680170714921
40
0.430848187786413
40
0.430848187786413
40
0.450432196322159
40
0.450432196322159
40
0.470016204857905
40
0.470016204857905
40
0.509184221929397
40
0.509184221929397
40
0.54835223900089
40
0.54835223900089
40
0.587520256072383
40
0.587520256072383
40
0.607104264608128
40
0.607104264608128
40
0.626688273143874
40
0.626688273143874
40
0.665856290215367
40
0.665856290215367
40
0.70502430728686
40
0.70502430728686
40
0.744192324358352
40
0.744192324358352
40
0.783360341429845
40
0.783360341429845
40
0.822528358501338
40
0.822528358501338
40
0.842112367037084
40
0.842112367037084
40
0.86169637557283
40
0.86169637557283
40
0.900864392644321
40
0.900864392644321
40
0.940032409715813
40
0.940032409715813
40
0.959616418251559
40
0.959616418251559
40
0.979200426787305
40
0.979200426787305
40
1
40
1
40
1
40
1
41
1
10
44.1749000000001
20
1.24637036344134
30
0
41
1
10
44.6381976012733
20
1.00817248332484
30
0
41
1
10
45.1003482668012
20
0.767531422014798
30
0
41
1
10
46.0248097590424
20
0.286102959914928
30
0
41
1
10
46.4864112741794
20
0.0439672493154433
30
0
41
1
10
47.4106343574741
20
-0.438777612526764
30
0
41
1
10
47.8726187107323
20
-0.680613850939267
30
0
41
1
10
48.7981350340989
20
-1.16169428973976
30
0
41
1
10
49.261631133828
20
-1.40127498592094
30
0
41
1
10
50.1868722106923
20
-1.87243768511638
30
0
41
1
10
50.6486107577315
20
-2.10549008609914
30
0
41
1
10
51.3415686173832
20
-2.44874827596107
30
0
41
1
10
51.5724748216217
20
-2.56237436633774
30
0
41
1
10
52.0341782295147
20
-2.78805965928527
30
0
41
1
10
52.2650006753069
20
-2.90016966922573
30
0
41
1
10
52.9581170692012
20
-3.23192959431037
30
0
41
1
10
53.4207755663114
20
-3.44755647617575
30
0
41
1
10
54.34756764901
20
-3.86655548632626
30
0
41
1
10
54.8097858206488
20
-4.07007312093333
30
0
41
1
10
55.5030441925582
20
-4.36445442609235
30
0
41
1
10
55.7339855705646
20
-4.46100453890139
30
0
41
1
10
56.1955717043969
20
-4.6515804976199
30
0
41
1
10
56.4262880029726
20
-4.74513024580142
30
0
41
1
10
57.1190800223685
20
-5.01710399388764
30
0
41
1
10
57.580866663864
20
-5.18974834655447
30
0
41
1
10
58.5063792924121
20
-5.51745644163643
30
0
41
1
10
58.9698229050218
20
-5.67320835283078
30
0
41
1
10
59.6638470863006
20
-5.89237396818723
30
0
41
1
10
59.894965963054
20
-5.96362249879178
30
0
41
1
10
60.3568524820657
20
-6.1011124348735
30
0
41
1
10
60.587679239921
20
-6.16690274015741
30
0
41
1
10
61.2804643207156
20
-6.35532796458398
30
0
41
1
10
61.741807783947
20
-6.47093468487014
30
0
41
1
10
62.6659983339839
20
-6.67906358366605
30
0
41
1
10
63.1281636158707
20
-6.7721330791791
30
0
41
1
10
64.0547496127251
20
-6.93636035460886
30
0
41
1
10
64.5171229558514
20
-7.00720849253531
30
0
41
1
10
65.210268694059
20
-7.09610135356368
30
0
41
1
10
65.4411706523804
20
-7.12294166267992
30
0
41
1
10
65.9027035040276
20
-7.17128706746661
30
0
41
1
10
66.1333519303524
20
-7.19269106226164
30
0
41
1
10
66.8258714861071
20
-7.24588777730162
30
0
41
1
10
67.2874105302234
20
-7.26778546136637
30
0
41
1
10
68.2123687039095
20
-7.28782441178947
30
0
41
1
10
68.6756247794956
20
-7.28594668016632
30
0
41
1
10
69.6009899365795
20
-7.26002071461039
30
0
41
1
10
70.0625053488496
20
-7.23702694168435
30
0
41
1
10
70.9859403312353
20
-7.16234981104208
30
0
41
1
10
71.4472074317922
20
-7.11167160662649
30
0
41
1
10
72.3709827795367
20
-6.98804790669294
30
0
41
1
10
72.8328684748836
20
-6.91431338812475
30
0
41
1
10
73.5270775833412
20
-6.78839451031911
30
0
41
1
10
73.7586374101527
20
-6.74378736876133
30
0
41
1
10
74.2209534620487
20
-6.64863592979947
30
0
41
1
10
74.4518543519512
20
-6.5978918208134
30
0
41
1
10
75.1446818533329
20
-6.43712363441028
30
0
41
1
10
75.6058164086398
20
-6.31824785766091
30
0
41
1
10
76.5287591583214
20
-6.06126348391638
30
0
41
1
10
76.989939836204
20
-5.92244232793965
30
0
41
1
10
77.6827455114212
20
-5.70094729568339
30
0
41
1
10
77.9137823103598
20
-5.62475995323575
30
0
41
1
10
78.3761097150617
20
-5.46719641425548
30
0
41
1
10
78.6074857814081
20
-5.3857500616694
30
0
41
1
10
79.0842304039474
20
-5.213861217687
30
0
41
1
10
79.3294683061648
20
-5.12287583025304
30
0
41
1
10
79.5745696207252
20
-5.02952961276159
30
0
0
SPLINE
5
D4
100
AcDbEntity
8
1
62
256
6
ByLayer
370
18
48
1
60
0
100
AcDbSpline
70
4
71
3
72
8
73
4
40
0
40
0
40
0
40
0
40
1
40
1
40
1
40
1
41
1
10
88.5172623587214
20
0.831959329599243
30
0
41
1
10
88.895076800969
20
0.682898897267052
30
0
41
1
10
89.2753906797943
20
0.547152150817425
30
0
41
1
10
89.6584653588055
20
0.426111289202567
30
0
0
SPLINE
5
D5
100
AcDbEntity
8
1
62
256
6
ByLayer
370
18
48
1
60
0
100
AcDbSpline
70
4
71
3
72
8
73
4
40
0
40
0
40
0
40
0
40
1
40
1
40
1
40
1
41
1
10
91.9995861168567
20
0.149700333248575
30
0
41
1
10
92.00013796105
20
0.0499001110828488
30
0
41
1
10
92.00013796105
20
-0.0499001110828772
30
0
41
1
10
91.9995861168567
20
-0.149700333248603
30
0
0
SPLINE
5
D6
100
AcDbEntity
8
1
62
256
6
ByLayer
370
18
48
1
60
0
100
AcDbSpline
70
4
71
3
72
8
73
4
40
0
40
0
40
0
40
0
40
1
40
1
40
1
40
1
41
1
10
91.425214668642
20
1.754770287593
30
0
41
1
10
90.9680627485911
20
3.09038821725639
30
0
41
1
10
90.515432860258
20
4.42753968624453
30
0
41
1
10
90.0673563366042
20
5.76623532038499
30
0
0
SPLINE
5
D7
100
AcDbEntity
8
1
62
256
6
ByLayer
370
18
48
1
60
0
100
AcDbSpline
70
4
71
3
72
8
73
4
40
0
40
0
40
0
40
0
40
1
40
1
40
1
40
1
41
1
10
89.3000975439834
20
-7.32266009484215
30
0
41
1
10
89.3273750251477
20
-7.37266043687714
30
0
41
1
10
89.3573283488392
20
-7.41182956445721
30
0
41
1
10
89.3902014343096
20
-7.44059414807654
30
0
0
SPLINE
5
D8
100
AcDbEntity
8
1
62
256
6
ByLayer
370
18
48
1
60
0
100
AcDbSpline
70
4
71
3
72
8
73
4
40
0
40
0
40
0
40
0
40
1
40
1
40
1
40
1
41
1
10
91.9995861168567
20
-0.149700333248603
30
0
41
1
10
91.8008075689015
20
-0.679527757037562
30
0
41
1
10
91.6100245311434
20
-1.21482862901243
30
0
41
1
10
91.425214668642
20
-1.75477028759303
30
0
0
SPLINE
5
D9
100
AcDbEntity
8
1
62
256
6
ByLayer
370
18
48
1
60
0
100
AcDbSpline
70
4
71
3
72
8
73
4
40
0
40
0
40
0
40
0
40
1
40
1
40
1
40
1
41
1
10
91.9995861168567
20
0.149700333248575
30
0
41
1
10
91.8012172002956
20
0.678435919168493
30
0
41
1
10
91.6103984805098
20
1.21373609618772
30
0
41
1
10
91.425214668642
20
1.75477028759309
30
0
0
SPLINE
5
DA
100
AcDbEntity
8
1
62
256
6
ByLayer
370
18
48
1
60
0
100
AcDbSpline
70
4
71
3
72
52
73
48
40
0
40
0
40
0
40
0
40
0.0312500000000005
40
0.0312500000000005
40
0.062500000000001
40
0.062500000000001
40
0.0937500000000015
40
0.0937500000000015
40
0.125000000000002
40
0.125000000000002
40
0.156250000000002
40
0.156250000000002
40
0.187500000000003
40
0.187500000000003
40
0.203125000000003
40
0.203125000000003
40
0.218750000000002
40
0.218750000000002
40
0.250000000000003
40
0.250000000000003
40
0.375000000000006
40
0.375000000000006
40
0.406250000000007
40
0.406250000000007
40
0.421875000000007
40
0.421875000000007
40
0.437500000000007
40
0.437500000000007
40
0.500000000000007
40
0.500000000000007
40
0.625000000000005
40
0.625000000000005
40
0.640625000000005
40
0.640625000000005
40
0.656250000000005
40
0.656250000000005
40
0.687500000000004
40
0.687500000000004
40
0.750000000000002
40
0.750000000000002
40
0.812500000000001
40
0.812500000000001
40
0.84375
40
0.84375
40
0.875
40
0.875
40
1
40
1
40
1
40
1
41
1
10
89.3902014343096
20
-7.44059414807654
30
0
41
1
10
88.9165301723742
20
-7.40749805798208
30
0
41
1
10
88.4448573614033
20
-7.36144526225945
30
0
41
1
10
87.5033768305273
20
-7.24464245993147
30
0
41
1
10
87.0340626081435
20
-7.17367896180997
30
0
41
1
10
86.0962496737347
20
-7.00800151166843
30
0
41
1
10
85.6282290616197
20
-6.91299385752586
30
0
41
1
10
84.6919592932211
20
-6.70017424722826
30
0
41
1
10
84.2241644234226
20
-6.58200445721229
30
0
41
1
10
83.2872807318751
20
-6.32384842713662
30
0
41
1
10
82.8186307554887
20
-6.18344166208806
30
0
41
1
10
81.8789843862287
20
-5.88181307402363
30
0
41
1
10
81.408398485302
20
-5.72012668560842
30
0
41
1
10
80.699968397224
20
-5.46275067658658
30
0
41
1
10
80.463523572529
20
-5.3743254503712
30
0
41
1
10
79.9897668241023
20
-5.19248225071311
30
0
41
1
10
79.7520481071571
20
-5.09921682847664
30
0
41
1
10
79.0411691115932
20
-4.81338719420538
30
0
41
1
10
78.5691659449607
20
-4.61461539682151
30
0
41
1
10
76.2144168335352
20
-3.58679734925579
30
0
41
1
10
74.3503121788506
20
-2.65132536651564
30
0
41
1
10
72.0008623483272
20
-1.4173199232506
30
0
41
1
10
71.5301302174016
20
-1.167062177893
30
0
41
1
10
70.8216701930704
20
-0.788482331646065
30
0
41
1
10
70.5852430020485
20
-0.661522058782396
30
0
41
1
10
70.1113981350597
20
-0.406910429425949
30
0
41
1
10
69.8735687726257
20
-0.279293664613334
30
0
41
1
10
68.6876847966563
20
0.358690560851272
30
0
41
1
10
67.7462436168839
20
0.866081560097996
30
0
41
1
10
64.9299927460155
20
2.3541628359242
30
0
41
1
10
63.0637115137076
20
3.30156667915722
30
0
41
1
10
60.9383085050345
20
4.24818986764822
30
0
41
1
10
60.7019066189334
20
4.3518980999126
30
0
41
1
10
60.2279687527628
20
4.5553104751107
30
0
41
1
10
59.9901942112455
20
4.65523195726649
30
0
41
1
10
59.2779518921349
20
4.94884178510648
30
0
41
1
10
58.8049004998448
20
5.13531387700343
30
0
41
1
10
57.3897664768794
20
5.66572658591474
30
0
41
1
10
56.4512776474893
20
5.98007520145774
30
0
41
1
10
54.5762709331823
20
6.52258962455267
30
0
41
1
10
53.6393828705719
20
6.75038129845976
30
0
41
1
10
52.2292481377193
20
7.02146785684758
30
0
41
1
10
51.7582201496822
20
7.09994142118541
30
0
41
1
10
50.8136244564837
20
7.23245473913107
30
0
41
1
10
50.3395547926577
20
7.28637271517783
30
0
41
1
10
47.9625169425641
20
7.49220268418415
30
0
41
1
10
46.0773189312916
20
7.44819059329166
30
0
41
1
10
44.1749
20
7.19832696316811
30
0
0
SPLINE
5
DB
100
AcDbEntity
8
1
62
256
6
ByLayer
370
18
48
1
60
0
100
AcDbSpline
70
4
71
3
72
10
73
6
40
0
40
0
40
0
40
0
40
0.5
40
0.5
40
1
40
1
40
1
40
1
41
1
10
89.3318038746991
20
-7.15078855348159
30
0
41
1
10
89.3259888302611
20
-7.13330889475978
30
0
41
1
10
89.3185181244156
20
-7.11876603283778
30
0
41
1
10
89.3017014878092
20
-7.09484162697535
30
0
41
1
10
89.2922700166069
20
-7.08528806864814
30
0
41
1
10
89.2819907090208
20
-7.07773043540013
30
0
0
SPLINE
5
DC
100
AcDbEntity
8
1
62
256
6
ByLayer
370
18
48
1
60
0
100
AcDbSpline
70
4
71
3
72
12
73
8
40
0
40
0
40
0
40
0
40
0.5
40
0.5
40
0.75
40
0.75
40
1
40
1
40
1
40
1
41
1
10
44.174899999942
20
7.19832696316104
30
0
41
1
10
43.7639982803649
20
7.52931858900021
30
0
41
1
10
43.3650192311429
20
7.82172148258769
30
0
41
1
10
42.7774550797728
20
8.2023460587443
30
0
41
1
10
42.5832059671568
20
8.31996292067078
30
0
41
1
10
42.1974556887839
20
8.53548313901644
30
0
41
1
10
42.0059689639929
20
8.63332249242492
30
0
41
1
10
41.8151537953386
20
8.72157534914601
30
0
0
SPLINE
5
DD
100
AcDbEntity
8
1
62
256
6
ByLayer
370
18
48
1
60
0
100
AcDbSpline
70
4
71
3
72
50
73
46
40
0
40
0
40
0
40
0
40
0.0312500000000003
40
0.0312500000000003
40
0.0468750000000007
40
0.0468750000000007
40
0.0625000000000011
40
0.0625000000000011
40
0.125000000000002
40
0.125000000000002
40
0.156250000000003
40
0.156250000000003
40
0.187500000000004
40
0.187500000000004
40
0.218750000000004
40
0.218750000000004
40
0.234375000000005
40
0.234375000000005
40
0.250000000000005
40
0.250000000000005
40
0.312500000000005
40
0.312500000000005
40
0.328125000000004
40
0.328125000000004
40
0.343750000000004
40
0.343750000000004
40
0.375000000000002
40
0.375000000000002
40
0.4375
40
0.4375
40
0.46875
40
0.46875
40
0.499999999999999
40
0.499999999999999
40
0.5625
40
0.5625
40
0.625
40
0.625
40
0.687500000000001
40
0.687500000000001
40
0.750000000000001
40
0.750000000000001
40
0.875000000000001
40
0.875000000000001
40
1
40
1
40
1
40
1
41
1
10
15.7279401281028
20
-2.84494482800537
30
0
41
1
10
15.6264950802682
20
-3.05964620204586
30
0
41
1
10
15.5344877705074
20
-3.2756716309442
30
0
41
1
10
15.4121203619183
20
-3.60186363865722
30
0
41
1
10
15.3739436928198
20
-3.71095408989908
30
0
41
1
10
15.3031398163774
20
-3.92989436849422
30
0
41
1
10
15.2704758785857
20
-4.03995285338274
30
0
41
1
10
15.1238183822079
20
-4.58479766436713
30
0
41
1
10
15.0574789584731
20
-5.00870188528611
30
0
41
1
10
15.0407701840696
20
-5.62523445232236
30
0
41
1
10
15.0493978708715
20
-5.82867344596428
30
0
41
1
10
15.0944819905098
20
-6.21674708080783
30
0
41
1
10
15.1307308108339
20
-6.40274248497144
30
0
41
1
10
15.2293675009182
20
-6.75958637324109
30
0
41
1
10
15.2917598518758
20
-6.93043219071109
30
0
41
1
10
15.4044682662847
20
-7.17580144760157
30
0
41
1
10
15.4450403072477
20
-7.2553243275479
30
0
41
1
10
15.5312818968531
20
-7.40900569263022
30
0
41
1
10
15.5770360581075
20
-7.48335033451244
30
0
41
1
10
15.8182269351316
20
-7.84340657214867
30
0
41
1
10
16.0505849416243
20
-8.09444979006065
30
0
41
1
10
16.3824054227538
20
-8.37102256357085
30
0
41
1
10
16.4509342871127
20
-8.42449719561014
30
0
41
1
10
16.5906986637586
20
-8.52692914583767
30
0
41
1
10
16.6620835269092
20
-8.57601941947269
30
0
41
1
10
16.8804570126336
20
-8.71739829513314
30
0
41
1
10
17.031653850165
20
-8.80381213940527
30
0
41
1
10
17.5002515721663
20
-9.04265402997257
30
0
41
1
10
17.8325699253422
20
-9.17482863964457
30
0
41
1
10
18.3560202438247
20
-9.3410392868831
30
0
41
1
10
18.5350701868781
20
-9.39114816377818
30
0
41
1
10
18.8992015359409
20
-9.48118767069874
30
0
41
1
10
19.0836946340695
20
-9.52100466395947
30
0
41
1
10
19.6437777002733
20
-9.62680504828637
30
0
41
1
10
20.0259415421624
20
-9.67922486744848
30
0
41
1
10
20.8052121492514
20
-9.7553573261832
30
0
41
1
10
21.2023341571121
20
-9.77902660101375
30
0
41
1
10
22.0097559590926
20
-9.80272054773494
30
0
41
1
10
22.4200634496627
20
-9.80272316911461
30
0
41
1
10
23.2525556210498
20
-9.78276538871063
30
0
41
1
10
23.6754055657706
20
-9.76272013916179
30
0
41
1
10
24.9496542054063
20
-9.6776875818118
30
0
41
1
10
25.8098205643319
20
-9.58813144052459
30
0
41
1
10
27.5483168415864
20
-9.36143824618438
30
0
41
1
10
28.4266673378052
20
-9.22414378859034
30
0
41
1
10
29.3130113230062
20
-9.06831967178121
30
0
0
SPLINE
5
DE
100
AcDbEntity
8
1
62
256
6
ByLayer
370
13
48
1
60
0
100
AcDbSpline
70
4
71
3
72
66
73
62
40
0
40
0
40
0
40
0
40
0.0122967741702287
40
0.0377118306426744
40
0.0504193588788965
40
0.06312688711512
40
0.0885419435875664
40
0.101249471823789
40
0.113957000060013
40
0.139372056532458
40
0.152079584768681
40
0.164787113004904
40
0.19020216947735
40
0.202909697713572
40
0.215617225949797
40
0.241032282422242
40
0.253739810658466
40
0.266447338894689
40
0.291862395367134
40
0.304569923603357
40
0.317277451839581
40
0.342692508312026
40
0.355400036548249
40
0.368107564784472
40
0.393522621256918
40
0.406230149493142
40
0.418937677729365
40
0.44435273420181
40
0.457060262438033
40
0.469767790674257
40
0.495182847146703
40
0.507890375382925
40
0.520597903619149
40
0.546012960091595
40
0.558720488327818
40
0.571428016564041
40
0.596843073036487
40
0.60955060127271
40
0.622258129508933
40
0.647673185981379
40
0.660380714217602
40
0.673088242453825
40
0.698503298926271
40
0.711210827162494
40
0.723918355398717
40
0.749333411871163
40
0.762040940107386
40
0.774748468343609
40
0.800163524816055
40
0.812871053052278
40
0.825578581288501
40
0.850993637760947
40
0.86370116599717
40
0.876408694233393
40
0.901823750705839
40
0.914531278942062
40
0.927238807178285
40
0.952653863650731
40
0.965361391886954
40
0.978068920123177
40
1
40
1
40
1
40
1
41
1
10
74.666795091093
20
-2.81426287931026
30
0
41
1
10
74.5543336858934
20
-2.82306366925789
30
0
41
1
10
74.2094728091958
20
-2.84916225125326
30
0
41
1
10
73.7483529899995
20
-2.88058819459849
30
0
41
1
10
73.2834249479245
20
-2.90869579459621
30
0
41
1
10
72.818602956999
20
-2.93419660147109
30
0
41
1
10
72.3537263614508
20
-2.95607189992103
30
0
41
1
10
71.8887981200971
20
-2.97430204330559
30
0
41
1
10
71.4239758557266
20
-2.98983421648683
30
0
41
1
10
70.959098652257
20
-3.0016807851834
30
0
41
1
10
70.4941693973597
20
-3.00983256680087
30
0
41
1
10
70.0293464504873
20
-3.01521858749581
30
0
41
1
10
69.5644692308839
20
-3.01690002785662
30
0
41
1
10
69.0995408612788
20
-3.01489753074898
30
0
41
1
10
68.6347188701606
20
-3.01009844155888
30
0
41
1
10
68.1698426030709
20
-3.00161754331498
30
0
41
1
10
67.7049146376361
20
-2.98948656746092
30
0
41
1
10
67.2400926135358
20
-2.97455032606459
30
0
41
1
10
66.7752158578097
20
-2.95598811079108
30
0
41
1
10
66.3102874216941
20
-2.93385262247847
30
0
41
1
10
65.8454650148606
20
-2.90893282689302
30
0
41
1
10
65.3805877632601
20
-2.88047697007607
30
0
41
1
10
64.9156585686661
20
-2.84854934956201
30
0
41
1
10
64.450835678811
20
-2.81388365328965
30
0
41
1
10
63.9859584976956
20
-2.77581025261745
30
0
41
1
10
63.5210301477145
20
-2.73441823253225
30
0
41
1
10
63.0562082199216
20
-2.69036857911684
30
0
41
1
10
62.5913320456081
20
-2.64307757267412
30
0
41
1
10
62.1264041041507
20
-2.59264549741107
30
0
41
1
10
61.6615819990481
20
-2.53965866213278
30
0
41
1
10
61.1967050465999
20
-2.48362555399288
30
0
41
1
10
60.7317764026158
20
-2.42466215373813
30
0
41
1
10
60.2669538725805
20
-2.36327291336121
30
0
41
1
10
59.8020766376786
20
-2.29906173038225
30
0
41
1
10
59.3371476064311
20
-2.23215547298869
30
0
41
1
10
58.8723248862049
20
-2.16297578665493
30
0
41
1
10
58.4074478660875
20
-2.09122928049163
30
0
41
1
10
57.9425196482887
20
-2.01705987087735
30
0
41
1
10
57.4776978780318
20
-1.94079675880147
30
0
41
1
10
57.0128218576453
20
-1.86225150878724
30
0
41
1
10
56.547893971442
20
-1.78157762769192
30
0
41
1
10
56.0830718206776
20
-1.69900842048131
30
0
41
1
10
55.6181947085195
20
-1.61446002508555
30
0
41
1
10
55.1532658752565
20
-1.52809226306488
30
0
41
1
10
54.6884431988046
20
-1.44004424795574
30
0
41
1
10
54.2235659001524
20
-1.35033814413282
30
0
41
1
10
53.7586369158765
20
-1.25914223818145
30
0
41
1
10
53.293814261771
20
-1.16649975264221
30
0
41
1
10
52.8289373206559
20
-1.07254035801014
30
0
41
1
10
52.3640091614911
20
-0.977440715518782
30
0
41
1
10
51.8991874427691
20
-0.881145980075104
30
0
41
1
10
51.4343114364214
20
-0.78389365440708
30
0
41
1
10
50.9693834815881
20
-0.685866878707003
30
0
41
1
10
50.5045612229496
20
-0.586907889213649
30
0
41
1
10
50.0396839699781
20
-0.487353890419769
30
0
41
1
10
49.5747550167684
20
-0.387382174162269
30
0
41
1
10
49.1099322533085
20
-0.28674396332562
30
0
41
1
10
48.645054941197
20
-0.185875581625083
30
0
41
1
10
48.1801260614995
20
-0.0849590000852913
30
0
41
1
10
47.7471632361263
20
0.0094033268734961
30
0
41
1
10
47.4303724535509
20
0.0783508316942232
30
0
41
1
10
47.2297867956947
20
0.121929834536814
30
0
0
SPLINE
5
DF
100
AcDbEntity
8
1
62
256
6
ByLayer
370
18
48
1
60
0
100
AcDbSpline
70
4
71
3
72
10
73
6
40
0
40
0
40
0
40
0
40
0.5
40
0.5
40
1
40
1
40
1
40
1
41
1
10
89.6294636334815
20
3.90331561724204
30
0
41
1
10
89.6837665098927
20
4.2182022411765
30
0
41
1
10
89.7516367804476
20
4.52989298437649
30
0
41
1
10
89.9006267334896
20
5.15015349265136
30
0
41
1
10
89.982026888311
20
5.45865719079251
30
0
41
1
10
90.0673563366042
20
5.76623532038499
30
0
0
SPLINE
5
E0
100
AcDbEntity
8
1
62
256
6
ByLayer
370
18
48
1
60
0
100
AcDbSpline
70
4
71
3
72
26
73
22
40
0
40
0
40
0
40
0
40
0.0923353369784393
40
0.0923353369784393
40
0.183101803280594
40
0.183101803280594
40
0.273868269582749
40
0.273868269582749
40
0.364634735884903
40
0.364634735884903
40
0.455401202187058
40
0.455401202187058
40
0.636934134791376
40
0.636934134791376
40
0.727700601093532
40
0.727700601093532
40
0.818467067395688
40
0.818467067395688
40
0.909233533697844
40
0.909233533697844
40
1
40
1
40
1
40
1
41
1
10
88.96954566025
20
0.67263047089682
30
0
41
1
10
89.0025578410086
20
0.70231911491129
30
0
41
1
10
89.0369045593765
20
0.736939515052399
30
0
41
1
10
89.1075033541124
20
0.815599291164347
30
0
41
1
10
89.1435966659444
20
0.859436385601128
30
0
41
1
10
89.2160524333993
20
0.954865212908942
30
0
41
1
10
89.2526291007699
20
1.00668403893459
30
0
41
1
10
89.325976446168
20
1.11858109455903
30
0
41
1
10
89.3627520044598
20
1.17865720494942
30
0
41
1
10
89.4357872300798
20
1.30748002085448
30
0
41
1
10
89.471984724323
20
1.37619495758153
30
0
41
1
10
89.5755156067501
20
1.59054874188499
30
0
41
1
10
89.6391802815773
20
1.74578489947083
30
0
41
1
10
89.7155731957905
20
1.99997752757207
30
0
41
1
10
89.7376791482252
20
2.08843844254363
30
0
41
1
10
89.7709025825875
20
2.26791458686233
30
0
41
1
10
89.7822264205997
20
2.35953004775192
30
0
41
1
10
89.7906073477036
20
2.54661856682011
30
0
41
1
10
89.787419806563
20
2.64257688794868
30
0
41
1
10
89.7637627282613
20
2.83102517955308
30
0
41
1
10
89.7433855981785
20
2.9243060055673
30
0
41
1
10
89.7141293969657
20
3.01643156904274
30
0
0
SPLINE
5
E1
100
AcDbEntity
8
1
62
256
6
ByLayer
370
18
48
1
60
0
100
AcDbSpline
70
4
71
3
72
14
73
10
40
0
40
0
40
0
40
0
40
0.25
40
0.25
40
0.5
40
0.5
40
0.75
40
0.75
40
1
40
1
40
1
40
1
41
1
10
41.8151537953392
20
8.72157534914587
30
0
41
1
10
41.3792637145405
20
8.58107419860568
30
0
41
1
10
40.9446255353473
20
8.42808572852161
30
0
41
1
10
40.0768812693324
20
8.09809930259436
30
0
41
1
10
39.6432788914614
20
7.92150634705038
30
0
41
1
10
38.7770171286566
20
7.5448553134193
30
0
41
1
10
38.3436765937786
20
7.34537053575349
30
0
41
1
10
37.4757302154312
20
6.92483293721156
30
0
41
1
10
37.0408828675943
20
6.70404478362053
30
0
41
1
10
36.6054945455316
20
6.47215962057325
30
0
0
SPLINE
5
E2
100
AcDbEntity
8
1
62
256
6
ByLayer
370
18
48
1
60
0
100
AcDbSpline
70
4
71
3
72
28
73
24
40
0
40
0
40
0
40
0
40
0.125000000000001
40
0.125000000000001
40
0.250000000000001
40
0.250000000000001
40
0.312500000000001
40
0.312500000000001
40
0.375000000000002
40
0.375000000000002
40
0.5
40
0.5
40
0.624999999999998
40
0.624999999999998
40
0.687499999999999
40
0.687499999999999
40
0.749999999999999
40
0.749999999999999
40
0.812499999999999
40
0.812499999999999
40
0.874999999999999
40
0.874999999999999
40
1
40
1
40
1
40
1
41
1
10
29.3130113230062
20
9.06831967178121
30
0
41
1
10
29.8381831732499
20
8.92801170386605
30
0
41
1
10
30.3595199259163
20
8.76846570103686
30
0
41
1
10
31.3996731038406
20
8.41485302351117
30
0
41
1
10
31.9181662130262
20
8.22063791151513
30
0
41
1
10
32.6946325488675
20
7.90436259976181
30
0
41
1
10
32.9530847972086
20
7.79463378264222
30
0
41
1
10
33.470432350453
20
7.56761136779483
30
0
41
1
10
33.7291686746604
20
7.45019108038574
30
0
41
1
10
34.5051730684094
20
7.08580706069861
30
0
41
1
10
35.0232080795251
20
6.82765509922959
30
0
41
1
10
36.0615864037679
20
6.28143382777947
30
0
41
1
10
36.5827314506312
20
5.99424506738291
30
0
41
1
10
37.3676586559006
20
5.54206081090774
30
0
41
1
10
37.6303848107032
20
5.38811644741028
30
0
41
1
10
38.1542626317127
20
5.07507034597086
30
0
41
1
10
38.4157039029177
20
4.91569911259521
30
0
41
1
10
38.9384906394438
20
4.59238194359122
30
0
41
1
10
39.1999510960366
20
4.42858783567607
30
0
41
1
10
39.7223873523208
20
4.09595975887495
30
0
41
1
10
39.9833823069018
20
3.92713976647062
30
0
41
1
10
40.767547921107
20
3.41556791923424
30
0
41
1
10
41.2903243632185
20
3.06563862930443
30
0
41
1
10
41.8151537953393
20
2.70949908655709
30
0
0
SPLINE
5
E3
100
AcDbEntity
8
1
62
256
6
ByLayer
370
13
48
1
60
0
100
AcDbSpline
70
4
71
3
72
66
73
62
40
0
40
0
40
0
40
0
40
0.0120775265238784
40
0.0378951640788996
40
0.05080398285641
40
0.0637128016339203
40
0.0895304391889414
40
0.102439257966452
40
0.115348076743963
40
0.141165714298984
40
0.154074533076494
40
0.166983351854005
40
0.192800989409026
40
0.205709808186536
40
0.218618626964047
40
0.244436264519068
40
0.257345083296578
40
0.270253902074089
40
0.29607153962911
40
0.30898035840662
40
0.321889177184131
40
0.347706814739152
40
0.360615633516662
40
0.373524452294173
40
0.399342089849194
40
0.412250908626704
40
0.425159727404215
40
0.450977364959236
40
0.463886183736747
40
0.476795002514257
40
0.502612640069278
40
0.515521458846788
40
0.528430277624299
40
0.55424791517932
40
0.56715673395683
40
0.580065552734341
40
0.605883190289362
40
0.618792009066873
40
0.631700827844383
40
0.657518465399404
40
0.670427284176914
40
0.683336102954425
40
0.709153740509446
40
0.722062559286957
40
0.734971378064467
40
0.760789015619488
40
0.773697834396999
40
0.786606653174509
40
0.81242429072953
40
0.825333109507041
40
0.838241928284551
40
0.864059565839572
40
0.876968384617083
40
0.889877203394593
40
0.915694840949615
40
0.928603659727125
40
0.941512478504635
40
0.967330116059657
40
0.980238934837167
40
0.993147753614677
40
1
40
1
40
1
40
1
41
1
10
68.6199275864072
20
-0.120889552478701
30
0
41
1
10
68.5111911561724
20
-0.0972532296019607
30
0
41
1
10
68.1699800175127
20
-0.023153318058263
30
0
41
1
10
67.7125896470522
20
0.0763963374604656
30
0
41
1
10
67.2477670791637
20
0.177622338579254
30
0
41
1
10
66.7828381689939
20
0.278367351329365
30
0
41
1
10
66.3179635692819
20
0.37895717769328
30
0
41
1
10
65.8531401565579
20
0.479214221715267
30
0
41
1
10
65.3882102840791
20
0.578712971275165
30
0
41
1
10
64.923334677305
20
0.677683035613454
30
0
41
1
10
64.4585108559336
20
0.775951534478536
30
0
41
1
10
63.9935811607912
20
0.873195783906708
30
0
41
1
10
63.5287063323419
20
0.969546300251322
30
0
41
1
10
63.0638832136944
20
1.06483210483702
30
0
41
1
10
62.5989539436174
20
1.15883860222536
30
0
41
1
10
62.1340793977213
20
1.25159770475707
30
0
41
1
10
61.6692566664479
20
1.34294525144614
30
0
41
1
10
61.2043275866141
20
1.43277255968829
30
0
41
1
10
60.7394528258772
20
1.52100964291838
30
0
41
1
10
60.2746292809548
20
1.60749349645294
30
0
41
1
10
59.8096992509161
20
1.69222711141506
30
0
41
1
10
59.3448234901865
20
1.77503985536663
30
0
41
1
10
58.8799996135457
20
1.8557768302638
30
0
41
1
10
58.4150699640704
20
1.9345528344306
30
0
41
1
10
57.9501952953612
20
2.01110040511437
30
0
41
1
10
57.4853723660328
20
2.08527725769147
30
0
41
1
10
57.0204432424024
20
2.15730579663957
30
0
41
1
10
56.5555687602675
20
2.22682396329443
30
0
41
1
10
56.0907459820084
20
2.29369911248454
30
0
41
1
10
55.625816836038
20
2.35825869933927
30
0
41
1
10
55.1609419962835
20
2.42004818120972
30
0
41
1
10
54.6961183927197
20
2.47894423830607
30
0
41
1
10
54.2311883111404
20
2.53537751592594
30
0
41
1
10
53.7663125363728
20
2.58880384270838
30
0
41
1
10
53.301488728375
20
2.63911017388684
30
0
41
1
10
52.8365591867929
20
2.68683131478025
30
0
41
1
10
52.371684658922
20
2.7313445642608
30
0
41
1
10
51.9068618495625
20
2.77255987557578
30
0
41
1
10
51.4419328129568
20
2.81110136530119
30
0
41
1
10
50.9770583442835
20
2.84627140030292
30
0
41
1
10
50.512235461424
20
2.87799088563764
30
0
41
1
10
50.0473061581783
20
2.90697026160415
30
0
41
1
10
49.5824311093706
20
2.93244300717623
30
0
41
1
10
49.1176073143553
20
2.95434427409776
30
0
41
1
10
48.652677086821
20
2.97346328430649
30
0
41
1
10
48.187801260089
20
2.98896862314702
30
0
41
1
10
47.7229775244413
20
3.000806283087
30
0
41
1
10
47.2580480831109
20
3.00984656450802
30
0
41
1
10
46.7931736788593
20
3.01521091626125
30
0
41
1
10
46.3283509826491
20
3.01687671318705
30
0
41
1
10
45.8634220633431
20
3.01577042261666
30
0
41
1
10
45.3985476880505
20
3.01097071871916
30
0
41
1
10
44.9337248160509
20
3.00246548984233
30
0
41
1
10
44.4687954680498
20
2.99123408623591
30
0
41
1
10
44.0039203134835
20
2.97632059046409
30
0
41
1
10
43.5390964196453
20
2.95772852236345
30
0
41
1
10
43.0741661502143
20
2.93647931165204
30
0
41
1
10
42.609290380286
20
2.9115869350019
30
0
41
1
10
42.1444667949184
20
2.88306457322738
30
0
41
1
10
41.8503038116847
20
2.86339678092315
30
0
41
1
10
41.6723838964952
20
2.85080570747385
30
0
41
1
10
41.6106905628174
20
2.84635647775718
30
0
0
SPLINE
5
E4
100
AcDbEntity
8
1
62
256
6
ByLayer
370
13
48
1
60
0
100
AcDbSpline
70
4
71
3
72
19
73
15
40
0
40
0
40
0
40
0
40
0.0302297206134262
40
0.099414930906552
40
0.237785351492804
40
0.306970561785929
40
0.376155772079055
40
0.514526192665307
40
0.583711402958432
40
0.652896613251558
40
0.791267033837811
40
0.860452244130937
40
0.929637454424063
40
1
40
1
40
1
40
1
41
1
10
89.7141293969657
20
3.01643156904276
30
0
41
1
10
89.6633523609846
20
3.016338587782
30
0
41
1
10
89.4963610614193
20
3.01582496833717
30
0
41
1
10
89.0968780876899
20
3.01288304330589
30
0
41
1
10
88.6320042933865
20
3.00575362521362
30
0
41
1
10
88.16718200813
20
2.9949214415183
30
0
41
1
10
87.7022534154867
20
2.98137857489143
30
0
41
1
10
87.2373791052392
20
2.96416603236414
30
0
41
1
10
86.77255590438
20
2.94329654839594
30
0
41
1
10
86.3076261289024
20
2.91979852203203
30
0
41
1
10
85.8427504567542
20
2.89268844562812
30
0
41
1
10
85.3779262195042
20
2.86198849594524
30
0
41
1
10
85.0272505392843
20
2.83692431752416
30
0
41
1
10
84.7928260906343
20
2.81896962359297
30
0
41
1
10
84.6746296030814
20
2.80961330114618
30
0
0
SPLINE
5
E5
100
AcDbEntity
8
1
62
256
6
ByLayer
370
18
48
1
60
0
100
AcDbSpline
70
4
71
3
72
18
73
14
40
0
40
0
40
0
40
0
40
0.250000000000003
40
0.250000000000003
40
0.375000000000005
40
0.375000000000005
40
0.500000000000006
40
0.500000000000006
40
0.625000000000008
40
0.625000000000008
40
0.750000000000009
40
0.750000000000009
40
1
40
1
40
1
40
1
41
1
10
90.9826598093034
20
-1.57759226877639
30
0
41
1
10
91.0594224373563
20
-1.51276686969814
30
0
41
1
10
91.139771315911
20
-1.42348546450768
30
0
41
1
10
91.2659608358559
20
-1.25577697418956
30
0
41
1
10
91.3092425355545
20
-1.19375893215704
30
0
41
1
10
91.3964344852203
20
-1.06025617786861
30
0
41
1
10
91.4401238351272
20
-0.989172381139895
30
0
41
1
10
91.5276925989377
20
-0.838881381774002
30
0
41
1
10
91.5715718621795
20
-0.75967162046652
30
0
41
1
10
91.6594929318761
20
-0.59333590061658
30
0
41
1
10
91.7037361698303
20
-0.505764768482607
30
0
41
1
10
91.833963830531
20
-0.236741553138444
30
0
41
1
10
91.9181530367457
20
-0.0479134696969652
30
0
41
1
10
91.9995861168567
20
0.149700333248631
30
0
0
SPLINE
5
E6
100
AcDbEntity
8
1
62
256
6
ByLayer
370
18
48
1
60
0
100
AcDbSpline
70
4
71
3
72
14
73
10
40
0
40
0
40
0
40
0
40
0.25
40
0.25
40
0.5
40
0.5
40
0.75
40
0.75
40
1
40
1
40
1
40
1
41
1
10
36.6054945455316
20
-6.47215962057328
30
0
41
1
10
35.4722353837857
20
-6.07757940106004
30
0
41
1
10
34.333335435794
20
-5.67471164809837
30
0
41
1
10
32.045412251357
20
-4.85874591058626
30
0
41
1
10
30.8963894723781
20
-4.44558128299224
30
0
41
1
10
28.5894514920705
20
-3.61119776749914
30
0
41
1
10
27.4315346646018
20
-3.18995954215743
30
0
41
1
10
25.1081250917723
20
-2.33889117927296
30
0
41
1
10
23.9426281054429
20
-1.90907409788076
30
0
41
1
10
22.774086331161
20
-1.47336755843287
30
0
0
SPLINE
5
E7
100
AcDbEntity
8
1
62
256
6
ByLayer
370
18
48
1
60
0
100
AcDbSpline
70
4
71
3
72
10
73
6
40
0
40
0
40
0
40
0
40
0.5
40
0.5
40
1
40
1
40
1
40
1
41
1
10
89.3000975439834
20
-7.32266009484215
30
0
41
1
10
89.309254689378
20
-7.28957136635049
30
0
41
1
10
89.3168915904752
20
-7.25665262517947
30
0
41
1
10
89.3275815757708
20
-7.19798446245548
30
0
41
1
10
89.3306924224662
20
-7.17228386428147
30
0
41
1
10
89.3318038756536
20
-7.15078853502246
30
0
0
SPLINE
5
E8
100
AcDbEntity
8
1
62
256
6
ByLayer
370
18
48
1
60
0
100
AcDbSpline
70
4
71
1
72
4
73
2
40
0
40
0
40
1
40
1
41
1
10
89.3318038746995
20
-7.15078855348182
30
0
41
1
10
90.9665689761749
20
-1.63191406167752
30
0
0
SPLINE
5
E9
100
AcDbEntity
8
1
62
256
6
ByLayer
370
18
48
1
60
0
100
AcDbSpline
70
4
71
4
72
10
73
5
40
0
40
0
40
0
40
0
40
0
40
1
40
1
40
1
40
1
40
1
41
1
10
31.1019298154495
20
-4.51680331208254
30
0
41
1
10
30.6547001923387
20
-5.65468240200715
30
0
41
1
10
30.2074705692279
20
-6.79256149193179
30
0
41
1
10
29.7602409461171
20
-7.93044058185643
30
0
41
1
10
29.3130113230063
20
-9.06831967178107
30
0
0
SPLINE
5
EA
100
AcDbEntity
8
1
62
256
6
ByLayer
370
18
48
1
60
0
100
AcDbSpline
70
4
71
3
72
20
73
16
40
0
40
0
40
0
40
0
40
0.249999999999999
40
0.249999999999999
40
0.375
40
0.375
40
0.437500000000001
40
0.437500000000001
40
0.500000000000002
40
0.500000000000002
40
0.750000000000002
40
0.750000000000002
40
0.875000000000001
40
0.875000000000001
40
1
40
1
40
1
40
1
41
1
10
89.2819907090208
20
-7.07773043540013
30
0
41
1
10
89.1219425844428
20
-6.96005859636782
30
0
41
1
10
88.9791532217897
20
-6.80180458822292
30
0
41
1
10
88.7918782905095
20
-6.5011496188701
30
0
41
1
10
88.733966223975
20
-6.39031965974522
30
0
41
1
10
88.6542960728845
20
-6.2071494993564
30
0
41
1
10
88.6289594702272
20
-6.1432622626308
30
0
41
1
10
88.5813364639678
20
-6.01130885520416
30
0
41
1
10
88.5589668440742
20
-5.94306161683681
30
0
41
1
10
88.4542884675608
20
-5.59053525668085
30
0
41
1
10
88.3932789657296
20
-5.27271618179714
30
0
41
1
10
88.3375713549887
20
-4.73960282243249
30
0
41
1
10
88.3250387339583
20
-4.55151457933817
30
0
41
1
10
88.3128987063936
20
-4.16385226117526
30
0
41
1
10
88.3131576659333
20
-3.96357398242247
30
0
41
1
10
88.3197159136826
20
-3.75687882325886
30
0
0
SPLINE
5
EB
100
AcDbEntity
8
1
62
256
6
ByLayer
370
18
48
1
60
0
100
AcDbSpline
70
4
71
3
72
18
73
14
40
0
40
0
40
0
40
0
40
0.232322278794508
40
0.232322278794508
40
0.464644557589015
40
0.464644557589015
40
0.580805696986269
40
0.580805696986269
40
0.696966836383522
40
0.696966836383522
40
0.92928911517803
40
0.92928911517803
40
1
40
1
40
1
40
1
41
1
10
29.3130113230062
20
-9.06831967178121
30
0
41
1
10
29.8381831732499
20
-8.92801170386605
30
0
41
1
10
30.3595199259163
20
-8.76846570103689
30
0
41
1
10
31.3996731038405
20
-8.41485302351114
30
0
41
1
10
31.9181662130261
20
-8.22063791151507
30
0
41
1
10
32.6946325488675
20
-7.90436259976181
30
0
41
1
10
32.9530847972086
20
-7.79463378264222
30
0
41
1
10
33.470432350453
20
-7.5676113677948
30
0
41
1
10
33.7291686746604
20
-7.45019108038574
30
0
41
1
10
34.5051730684094
20
-7.08580706069861
30
0
41
1
10
35.0232080795251
20
-6.82765509922959
30
0
41
1
10
35.7004205067164
20
-6.47141901033399
30
0
41
1
10
35.8586249617276
20
-6.38698938287953
30
0
41
1
10
36.0170157911173
20
-6.301250244051
30
0
0
SPLINE
5
EC
100
AcDbEntity
8
1
62
256
6
ByLayer
370
18
48
1
60
0
100
AcDbSpline
70
4
71
3
72
8
73
4
40
0
40
0
40
0
40
0
40
1
40
1
40
1
40
1
41
1
10
41.8151537953387
20
2.70949908655751
30
0
41
1
10
42.5953201322815
20
2.14829053930987
30
0
41
1
10
43.3794067824839
20
1.65811421977727
30
0
41
1
10
44.1748999999419
20
1.24568032016319
30
0
0
SPLINE
5
ED
100
AcDbEntity
8
1
62
256
6
ByLayer
370
18
48
1
60
0
100
AcDbSpline
70
4
71
3
72
8
73
4
40
0
40
0
40
0
40
0
40
1
40
1
40
1
40
1
41
1
10
89.6584653588055
20
0.426111289202595
30
0
41
1
10
89.607617427432
20
0.444677442908187
30
0
41
1
10
89.5572467094875
20
0.462662327431247
30
0
41
1
10
89.5076489546861
20
0.479921470087817
30
0
0
SPLINE
5
EE
100
AcDbEntity
8
1
62
256
6
ByLayer
370
18
48
1
60
0
100
AcDbSpline
70
4
71
3
72
8
73
4
40
0
40
0
40
0
40
0
40
1
40
1
40
1
40
1
41
1
10
89.3902014343096
20
-7.44059414807654
30
0
41
1
10
89.6128030890212
20
-6.89902380102251
30
0
41
1
10
89.8398175418579
20
-6.34193871295403
30
0
41
1
10
90.0673563366042
20
-5.76623532038508
30
0
0
SPLINE
5
EF
100
AcDbEntity
8
1
62
256
6
ByLayer
370
18
48
1
60
0
100
AcDbSpline
70
4
71
3
72
8
73
4
40
0
40
0
40
0
40
0
40
1
40
1
40
1
40
1
41
1
10
89.3902014343096
20
7.44059414807657
30
0
41
1
10
89.6127942877372
20
6.8990452137763
30
0
41
1
10
89.8398082595122
20
6.34196219852257
30
0
41
1
10
90.0673563366042
20
5.76623532038502
30
0
0
SPLINE
5
F0
100
AcDbEntity
8
1
62
256
6
ByLayer
370
18
48
1
60
0
100
AcDbSpline
70
4
71
3
72
36
73
32
40
0
40
0
40
0
40
0
40
0.124999999999993
40
0.124999999999993
40
0.187499999999993
40
0.187499999999993
40
0.249999999999992
40
0.249999999999992
40
0.374999999999991
40
0.374999999999991
40
0.43749999999999
40
0.43749999999999
40
0.499999999999989
40
0.499999999999989
40
0.624999999999993
40
0.624999999999993
40
0.687499999999995
40
0.687499999999995
40
0.749999999999997
40
0.749999999999997
40
0.812499999999999
40
0.812499999999999
40
0.84375
40
0.84375
40
0.875000000000001
40
0.875000000000001
40
0.937499999999999
40
0.937499999999999
40
0.968749999999999
40
0.968749999999999
40
1
40
1
40
1
40
1
41
1
10
22.774086331161
20
-1.47336755843281
30
0
41
1
10
22.4757944121537
20
-1.36214539878355
30
0
41
1
10
22.170114505631
20
-1.27217658405817
30
0
41
1
10
21.7014622777766
20
-1.16672446158054
30
0
41
1
10
21.543126851349
20
-1.13645328628078
30
0
41
1
10
21.2251300536469
20
-1.0859932736557
30
0
41
1
10
21.065989222989
20
-1.06585434023381
30
0
41
1
10
20.5881603110895
20
-1.01999416318304
30
0
41
1
10
20.2690690483038
20
-1.00871794999739
30
0
41
1
10
19.7896473635234
20
-1.01995201080351
30
0
41
1
10
19.6297085469736
20
-1.02841525014586
30
0
41
1
10
19.3095608737606
20
-1.0550164681398
30
0
41
1
10
19.1490196323355
20
-1.07322277421781
30
0
41
1
10
18.6722741351385
20
-1.14227812440146
30
0
41
1
10
18.3594242903882
20
-1.20737489507206
30
0
41
1
10
17.8986261455514
20
-1.33720889479068
30
0
41
1
10
17.746452154598
20
-1.38589834339859
30
0
41
1
10
17.4453723774058
20
-1.49562235934431
30
0
41
1
10
17.2958574105928
20
-1.55692948786432
30
0
41
1
10
17.0041408122315
20
-1.69295981000352
30
0
41
1
10
16.8621171712077
20
-1.76749906297272
30
0
41
1
10
16.6562090969401
20
-1.89133014966839
30
0
41
1
10
16.5887687202604
20
-1.93462367358427
30
0
41
1
10
16.4566532813787
20
-2.02585521894838
30
0
41
1
10
16.3920101233254
20
-2.07379979851399
30
0
41
1
10
16.2055339727269
20
-2.22368034615962
30
0
41
1
10
16.0901324458862
20
-2.33205547278496
30
0
41
1
10
15.9357567315877
20
-2.51217800408978
30
0
41
1
10
15.8871698772666
20
-2.57566142255891
30
0
41
1
10
15.7999379074649
20
-2.70687542926333
30
0
41
1
10
15.7611489801217
20
-2.7746606070308
30
0
41
1
10
15.7279401281027
20
-2.84494482800534
30
0
0
SPLINE
5
F1
100
AcDbEntity
8
1
62
256
6
ByLayer
370
18
48
1
60
0
100
AcDbSpline
70
4
71
3
72
36
73
32
40
0
40
0
40
0
40
0
40
0.0687500166158636
40
0.0687500166158636
40
0.137500033231727
40
0.137500033231727
40
0.206250049847591
40
0.206250049847591
40
0.240625058155524
40
0.240625058155524
40
0.275000066463457
40
0.275000066463457
40
0.412500099695191
40
0.412500099695191
40
0.481250116311058
40
0.481250116311058
40
0.550000132926924
40
0.550000132926924
40
0.687500166158658
40
0.687500166158658
40
0.756250182774525
40
0.756250182774525
40
0.825000199390391
40
0.825000199390391
40
0.893750216006258
40
0.893750216006258
40
0.928125224314192
40
0.928125224314192
40
0.962500232622127
40
0.962500232622127
40
1
40
1
40
1
40
1
41
1
10
88.5172623587214
20
0.831959329599215
30
0
41
1
10
88.0556445686376
20
1.07411635866504
30
0
41
1
10
87.594506105521
20
1.3148145655903
30
0
41
1
10
86.671742703277
20
1.79045749121573
30
0
41
1
10
86.2105546829872
20
2.02610966537694
30
0
41
1
10
85.2867963940979
20
2.48935280014916
30
0
41
1
10
84.8243370822134
20
2.71793131592048
30
0
41
1
10
84.1297006283061
20
3.05294610944594
30
0
41
1
10
83.8985110490174
20
3.16356537161423
30
0
41
1
10
83.4364000661716
20
3.38100406436544
30
0
41
1
10
83.2054352068886
20
3.48795172084178
30
0
41
1
10
82.0507902899365
20
4.0162277689106
30
0
41
1
10
81.1284134920568
20
4.41741334718108
30
0
41
1
10
79.7405996909418
20
4.96867510391624
30
0
41
1
10
79.2771923013855
20
5.14457492414874
30
0
41
1
10
78.3519283027071
20
5.47758969706928
30
0
41
1
10
77.890221333107
20
5.63490973923967
30
0
41
1
10
76.5044520040656
20
6.07704530064993
30
0
41
1
10
75.5813445099997
20
6.33673263471965
30
0
41
1
10
74.1908335046533
20
6.65797140341618
30
0
41
1
10
73.7285320715321
20
6.75227471460616
30
0
41
1
10
72.8039903443701
20
6.91910276774746
30
0
41
1
10
72.3422541095393
20
6.99235673068364
30
0
41
1
10
71.4180176652853
20
7.11508363949261
30
0
41
1
10
70.9561074084168
20
7.16534884186484
30
0
41
1
10
70.261923250094
20
7.22057663822105
30
0
41
1
10
70.0305331916439
20
7.23535266176322
30
0
41
1
10
69.5671283654066
20
7.25874336500459
30
0
41
1
10
69.3353869158842
20
7.26771727441275
30
0
41
1
10
68.8511882485872
20
7.28070664086832
30
0
41
1
10
68.5988050004948
20
7.28417387731793
30
0
41
1
10
68.3465064431595
20
7.28420412241667
30
0
0
SPLINE
5
F2
100
AcDbEntity
8
1
62
256
6
ByLayer
370
18
48
1
60
0
100
AcDbSpline
70
4
71
3
72
8
73
4
40
0
40
0
40
0
40
0
40
1
40
1
40
1
40
1
41
1
10
36.6054945455316
20
6.47215962057325
30
0
41
1
10
36.4168764153477
20
6.40648621970925
30
0
41
1
10
36.2281020250862
20
6.34058323903784
30
0
41
1
10
36.0391740449708
20
6.27446530548107
30
0
0
SPLINE
5
F3
100
AcDbEntity
8
1
62
256
6
ByLayer
370
18
48
1
60
0
100
AcDbSpline
70
4
71
3
72
14
73
10
40
0
40
0
40
0
40
0
40
0.0843744838744427
40
0.0843744838744427
40
0.267499587099556
40
0.267499587099556
40
0.633749793549778
40
0.633749793549778
40
1
40
1
40
1
40
1
41
1
10
22.2648026077033
20
9.7999984454182
30
0
41
1
10
22.4540013151319
20
9.7998208215858
30
0
41
1
10
22.6445250774822
20
9.79734203037108
30
0
41
1
10
23.2525556210498
20
9.78276538871063
30
0
41
1
10
23.6754055657706
20
9.76272013916179
30
0
41
1
10
24.9496542054063
20
9.6776875818118
30
0
41
1
10
25.8098205643319
20
9.58813144052459
30
0
41
1
10
27.5483168415864
20
9.36143824618438
30
0
41
1
10
28.4266673378051
20
9.22414378859037
30
0
41
1
10
29.3130113230062
20
9.06831967178121
30
0
0
SPLINE
5
F4
100
AcDbEntity
8
1
62
256
6
ByLayer
370
18
48
1
60
0
100
AcDbSpline
70
4
71
3
72
18
73
14
40
0
40
0
40
0
40
0
40
0.249999999999999
40
0.249999999999999
40
0.374999999999999
40
0.374999999999999
40
0.5
40
0.5
40
0.75
40
0.75
40
0.875
40
0.875
40
1
40
1
40
1
40
1
41
1
10
88.5172623587214
20
0.831959329599215
30
0
41
1
10
88.4346236188313
20
0.4397480945224
30
0
41
1
10
88.3679113087463
20
0.0462459187347974
30
0
41
1
10
88.2918444376812
20
-0.545952830236104
30
0
41
1
10
88.2705079715564
20
-0.743678192084928
30
0
41
1
10
88.2361349339632
20
-1.13980167622148
30
0
41
1
10
88.2230743114862
20
-1.33921465075383
30
0
41
1
10
88.1973478239107
20
-1.92803013114133
30
0
41
1
10
88.1977270190898
20
-2.30951274529241
30
0
41
1
10
88.223976688534
20
-2.86553277825149
30
0
41
1
10
88.2370282087197
20
-3.04815858524947
30
0
41
1
10
88.2718919937732
20
-3.40788242347014
30
0
41
1
10
88.2937388918481
20
-3.58492350977582
30
0
41
1
10
88.3197159136826
20
-3.75687882325886
30
0
0
SPLINE
5
F5
100
AcDbEntity
8
1
62
256
6
ByLayer
370
18
48
1
60
0
100
AcDbSpline
70
4
71
3
72
8
73
4
40
0
40
0
40
0
40
0
40
1
40
1
40
1
40
1
41
1
10
89.5100771295039
20
0.482178107877729
30
0
41
1
10
89.4525615163865
20
0.500707014043996
30
0
41
1
10
89.3953377724621
20
0.519793986748994
30
0
41
1
10
89.3382999128927
20
0.539697616727949
30
0
0
SPLINE
5
F6
100
AcDbEntity
8
1
62
256
6
ByLayer
370
18
48
1
60
0
100
AcDbSpline
70
4
71
3
72
14
73
10
40
0
40
0
40
0
40
0
40
0.22240441656391
40
0.382506301874389
40
0.532769133216971
40
0.681903109212424
40
0.829907752256615
40
0.98086806462989
40
1
40
1
40
1
40
1
41
1
10
89.3041863427995
20
0.551708376511016
30
0
41
1
10
89.1807764890364
20
0.595545643023996
30
0
41
1
10
88.9700246452605
20
0.677540375623266
30
0
41
1
10
88.685527614738
20
0.794234356527909
30
0
41
1
10
88.4421716920987
20
0.900382445846788
30
0
41
1
10
88.2070823542165
20
1.00796219556207
30
0
41
1
10
87.9729565496666
20
1.12104395114315
30
0
41
1
10
87.8093837429479
20
1.20186554762782
30
0
41
1
10
87.7202903742677
20
1.24902888247846
30
0
41
1
10
87.7102630186167
20
1.25436124602598
30
0
0
SPLINE
5
F7
100
AcDbEntity
8
1
62
256
6
ByLayer
370
18
48
1
60
0
100
AcDbSpline
70
4
71
3
72
39
73
35
40
0
40
0
40
0
40
0
40
0.0525480302869113
40
0.0968298401040612
40
0.127577384867216
40
0.155540499048266
40
0.183042953146549
40
0.210675533794172
40
0.237452576779981
40
0.264568474932423
40
0.297299050639908
40
0.335921719351812
40
0.3704856179092
40
0.398136791813885
40
0.426890706071937
40
0.460043187336746
40
0.494207612763343
40
0.520232197122754
40
0.53798260017482
40
0.558356269786626
40
0.586926601257927
40
0.620857990572186
40
0.650154572017091
40
0.674013761272841
40
0.696898848265148
40
0.724746702337675
40
0.757333581546509
40
0.787898270661603
40
0.817767005039686
40
0.844224972389304
40
0.877014468235941
40
0.916411261556657
40
0.958761988778328
40
1
40
1
40
1
40
1
41
1
10
49.3486676555652
20
-7.25282486845248
30
0
41
1
10
49.6825274160536
20
-7.25341494451334
30
0
41
1
10
50.2977632573317
20
-7.25444642620411
30
0
41
1
10
51.1085319500726
20
-7.25550357440972
30
0
41
1
10
51.7629985909508
20
-7.25649964349518
30
0
41
1
10
52.310860060573
20
-7.25787161084932
30
0
41
1
10
52.8389167326296
20
-7.25929114014787
30
0
41
1
10
53.3594437853902
20
-7.26005142699722
30
0
41
1
10
53.8775277662319
20
-7.26074594983416
30
0
41
1
10
54.4279835447271
20
-7.26133367487725
30
0
41
1
10
55.0537391203096
20
-7.26207914896617
30
0
41
1
10
55.7268206951371
20
-7.26288571075867
30
0
41
1
10
56.3675798209522
20
-7.26610519725259
30
0
41
1
10
56.9455728883833
20
-7.26714719647057
30
0
41
1
10
57.5147111997956
20
-7.26753357211169
30
0
41
1
10
58.1252104183436
20
-7.26784388179735
30
0
41
1
10
58.7183361927676
20
-7.26829134051337
30
0
41
1
10
59.2136046849121
20
-7.26885917947391
30
0
41
1
10
59.6212853941735
20
-7.26957956562291
30
0
41
1
10
60.0449686077845
20
-7.27134780442191
30
0
41
1
10
60.5710347805964
20
-7.27342306996832
30
0
41
1
10
61.1535230871912
20
-7.27363669682276
30
0
41
1
10
61.707271413001
20
-7.27440002937465
30
0
41
1
10
62.1899731525626
20
-7.27524204034131
30
0
41
1
10
62.6625429894583
20
-7.27562740953886
30
0
41
1
10
63.1921612951305
20
-7.27581230826024
30
0
41
1
10
63.7703545958388
20
-7.27655330326684
30
0
41
1
10
64.3616529148184
20
-7.27753689093839
30
0
41
1
10
64.9131942716667
20
-7.27863323268855
30
0
41
1
10
65.4803954606724
20
-7.2800396271042
30
0
41
1
10
66.1033385081837
20
-7.28363315289346
30
0
41
1
10
66.8115282200084
20
-7.28117149801318
30
0
41
1
10
67.6041052040754
20
-7.28153757643116
30
0
41
1
10
68.1205833247684
20
-7.28294144418754
30
0
41
1
10
68.3736260424358
20
-7.28399179660855
30
0
0
SPLINE
5
F8
100
AcDbEntity
8
1
62
256
6
ByLayer
370
18
48
1
60
0
100
AcDbSpline
70
4
71
3
72
18
73
14
40
0
40
0
40
0
40
0
40
0.195947310713119
40
0.356186773001298
40
0.480619286467166
40
0.569131870795812
40
0.639150927460038
40
0.709998986761613
40
0.763688342495591
40
0.817852271167662
40
0.874828659256954
40
0.954412508081642
40
1
40
1
40
1
40
1
41
1
10
68.6040247407389
20
-0.11743286388753
30
0
41
1
10
68.8148471989831
20
-0.163323015451368
30
0
41
1
10
69.1976639413016
20
-0.258429588309752
30
0
41
1
10
69.7133826416962
20
-0.415660819373414
30
0
41
1
10
70.1129613194891
20
-0.555221720555437
30
0
41
1
10
70.4153763203311
20
-0.670850507377168
30
0
41
1
10
70.6593588728811
20
-0.770104531327178
30
0
41
1
10
70.8651016858062
20
-0.858229418591378
30
0
41
1
10
71.0531937481016
20
-0.942359290174778
30
0
41
1
10
71.2260234365407
20
-1.02244093673818
30
0
41
1
10
71.4250190254033
20
-1.11818463143328
30
0
41
1
10
71.6167777222917
20
-1.21350486115912
30
0
41
1
10
71.7487246637854
20
-1.28347290321386
30
0
41
1
10
71.7968492768184
20
-1.30944337039205
30
0
0
SPLINE
5
F9
100
AcDbEntity
8
1
62
256
6
ByLayer
370
18
48
1
60
0
100
AcDbSpline
70
4
71
3
72
37
73
33
40
0
40
0
40
0
40
0
40
0.0442725632669995
40
0.090137502119842
40
0.133133153008184
40
0.169667513023804
40
0.199115261299507
40
0.229384584600691
40
0.266933900511141
40
0.308847516024588
40
0.341154098758453
40
0.367623464072037
40
0.39454669700428
40
0.427631821674239
40
0.465998011193117
40
0.498339743198857
40
0.521391284364653
40
0.54425561520233
40
0.578791440753146
40
0.622601877809422
40
0.66205786383935
40
0.695876798814859
40
0.737152954314721
40
0.787982494955033
40
0.826478592635609
40
0.858103127620722
40
0.888867863279838
40
0.920638573041316
40
0.941892621571456
40
0.962666342244432
40
0.984519545619226
40
1
40
1
40
1
40
1
41
1
10
68.373872077866
20
7.28399175241185
30
0
41
1
10
68.1334082124828
20
7.28303776889837
30
0
41
1
10
67.640127792082
20
7.28177056451025
30
0
41
1
10
66.8807890683497
20
7.28083266881097
30
0
41
1
10
66.1910572486467
20
7.28383474717828
30
0
41
1
10
65.5839601420042
20
7.28051459474517
30
0
41
1
10
65.0406217209774
20
7.27889903069712
30
0
41
1
10
64.4938274344755
20
7.27777739339908
30
0
41
1
10
63.8756180973856
20
7.27671574585139
30
0
41
1
10
63.2463393800947
20
7.27584132999004
30
0
41
1
10
62.6791548203217
20
7.27563322035076
30
0
41
1
10
62.1979804613308
20
7.27525629287649
30
0
41
1
10
61.7115635727828
20
7.27440672907716
30
0
41
1
10
61.1572407858434
20
7.2736388146707
30
0
41
1
10
60.5736195237076
20
7.27342893349604
30
0
41
1
10
60.0462227496824
20
7.27135378287352
30
0
41
1
10
59.6056779246533
20
7.26951557761299
30
0
41
1
10
59.1525927258835
20
7.26877457238112
30
0
41
1
10
58.5826700261361
20
7.26815169851258
30
0
41
1
10
57.9193369125216
20
7.26775442760498
30
0
41
1
10
57.2599673536794
20
7.26734156703168
30
0
41
1
10
56.6149387225934
20
7.26690374250995
30
0
41
1
10
55.9059077811444
20
7.26358029982322
30
0
41
1
10
55.1704424878882
20
7.26213928366448
30
0
41
1
10
54.4893268316588
20
7.26141390581986
30
0
41
1
10
53.9212267781208
20
7.26079277718082
30
0
41
1
10
53.3909754767187
20
7.26010423809299
30
0
41
1
10
52.919134360747
20
7.25939602440951
30
0
41
1
10
52.5035619225399
20
7.2584503307265
30
0
41
1
10
52.1438340749373
20
7.25739864181563
30
0
41
1
10
51.8166163443632
20
7.25667620008261
30
0
41
1
10
51.6063853398875
20
7.25630017499142
30
0
41
1
10
51.5192125038371
20
7.25615468024017
30
0
0
SPLINE
5
FA
100
AcDbEntity
8
1
62
256
6
ByLayer
370
18
48
1
60
0
100
AcDbSpline
70
4
71
3
72
15
73
11
40
0
40
0
40
0
40
0
40
0.206514011717989
40
0.374156727754564
40
0.502867029371094
40
0.613268938061374
40
0.730164031652998
40
0.847622820918863
40
0.973770320598313
40
1
40
1
40
1
40
1
41
1
10
47.2490355485319
20
0.117747637587598
30
0
41
1
10
47.0417972709435
20
0.162620349602321
30
0
41
1
10
46.6633931799977
20
0.256535381822715
30
0
41
1
10
46.1513406028587
20
0.411771154545704
30
0
41
1
10
45.7273288929737
20
0.559457677368215
30
0
41
1
10
45.3518363131957
20
0.704154836896976
30
0
41
1
10
44.9985308040883
20
0.852210810000372
30
0
41
1
10
44.632955658236
20
1.01872121282187
30
0
41
1
10
44.358054685104
20
1.1512013670887
30
0
41
1
10
44.2021786311973
20
1.2329304609836
30
0
41
1
10
44.175330307214
20
1.24714835273608
30
0
0
SPLINE
5
FB
100
AcDbEntity
8
1
62
256
6
ByLayer
370
18
48
1
60
0
100
AcDbSpline
70
4
71
2
72
6
73
3
40
0
40
0
40
0
40
1
40
1
40
1
41
1
10
44.175330307214
20
1.24714835273608
30
0
41
1
10
44.1569131941066
20
1.25639531996128
30
0
41
1
10
44.1385240789007
20
1.26573930485699
30
0
0
LINE
5
7D
100
AcDbEntity
8
SK1
62
256
6
ByLayer
370
18
48
1
60
0
100
AcDbLine
10
-50
20
4
30
0
11
-50
21
-4
31
0
39
0
210
0
220
0
230
1
0
LINE
5
7F
100
AcDbEntity
8
SK1
62
256
6
ByLayer
370
18
48
1
60
0
100
AcDbLine
10
0
20
-10
30
0
11
0
21
10
31
0
39
0
210
0
220
0
230
1
0
LINE
5
80
100
AcDbEntity
8
SK1
62
256
6
ByLayer
370
18
48
1
60
0
100
AcDbLine
10
-46.535898
20
10
30
0
11
-46.535898
21
-10
31
0
39
0
210
0
220
0
230
1
0
LINE
5
81
100
AcDbEntity
8
1
62
256
6
ByLayer
370
18
48
1
60
0
100
AcDbLine
10
44.1749
20
1.24568
30
0
11
44.1749
21
-7.014683
31
0
39
0
210
0
220
0
230
1
0
LINE
5
82
100
AcDbEntity
8
1
62
256
6
ByLayer
370
18
48
1
60
0
100
AcDbLine
10
44.1749
20
-7.014683
30
0
11
44.1749
21
-7.198327
31
0
39
0
210
0
220
0
230
1
0
LINE
5
83
100
AcDbEntity
8
1
62
256
6
ByLayer
370
18
48
1
60
0
100
AcDbLine
10
41.815154
20
2.709499
30
0
11
41.815154
21
-8.721575
31
0
39
0
210
0
220
0
230
1
0
LINE
5
84
100
AcDbEntity
8
1
62
256
6
ByLayer
370
13
48
1
60
0
100
AcDbLine
10
0.4
20
9.9
30
0
11
0.4
21
-9.9
31
0
39
0
210
0
220
0
230
1
0
LINE
5
85
100
AcDbEntity
8
1
62
256
6
ByLayer
370
18
48
1
60
0
100
AcDbLine
10
0
20
-10
30
0
11
0
21
10
31
0
39
0
210
0
220
0
230
1
0
LINE
5
86
100
AcDbEntity
8
1
62
256
6
ByLayer
370
18
48
1
60
0
100
AcDbLine
10
88.319716
20
-3.756879
30
0
11
90.966569
21
-1.631914
31
0
39
0
210
0
220
0
230
1
0
LINE
5
87
100
AcDbEntity
8
1
62
256
6
ByLayer
370
13
48
1
60
0
100
AcDbLine
10
0.8
20
9.8
30
0
11
0.8
21
-9.8
31
0
39
0
210
0
220
0
230
1
0
LINE
5
88
100
AcDbEntity
8
1
62
256
6
ByLayer
370
18
48
1
60
0
100
AcDbLine
10
90.966569
20
-1.631914
30
0
11
90.975929
21
-1.570729
31
0
39
0
210
0
220
0
230
1
0
LINE
5
89
100
AcDbEntity
8
80
62
256
6
ByLayer
370
18
48
1
60
0
100
AcDbLine
10
0
20
0
30
0
11
-5
21
0
31
0
39
0
210
0
220
0
230
1
0
LINE
5
8A
100
AcDbEntity
8
SK4
62
256
6
ByLayer
370
18
48
0.05
60
0
100
AcDbLine
10
97
20
0
30
0
11
-55
21
0
31
0
39
0
210
0
220
0
230
1
0
LINE
5
8C
100
AcDbEntity
8
4
62
256
6
ByLayer
370
18
48
0.05
60
0
100
AcDbLine
10
92
20
0
30
0
11
0
21
0
31
0
39
0
210
0
220
0
230
1
0
LINE
5
8E
100
AcDbEntity
8
SK1
62
256
6
ByLayer
370
18
48
1
60
0
100
AcDbLine
10
-46.535898
20
-10
30
0
11
0
21
-10
31
0
39
0
210
0
220
0
230
1
0
LINE
5
8F
100
AcDbEntity
8
SK1
62
256
6
ByLayer
370
18
48
1
60
0
100
AcDbLine
10
0
20
10
30
0
11
-46.535898
21
10
31
0
39
0
210
0
220
0
230
1
0
LINE
5
90
100
AcDbEntity
8
SK1
62
256
6
ByLayer
370
18
48
1
60
0
100
AcDbLine
10
-50
20
-4
30
0
11
-46.535898
21
-10
31
0
39
0
210
0
220
0
230
1
0
LINE
5
91
100
AcDbEntity
8
SK1
62
256
6
ByLayer
370
18
48
1
60
0
100
AcDbLine
10
-46.535898
20
10
30
0
11
-50
21
4
31
0
39
0
210
0
220
0
230
1
0
LINE
5
92
100
AcDbEntity
8
1
62
256
6
ByLayer
370
18
48
1
60
0
100
AcDbLine
10
47.566832
20
-7.425105
30
0
11
48.772475
21
-7.427276
31
0
39
0
210
0
220
0
230
1
0
LINE
5
93
100
AcDbEntity
8
1
62
256
6
ByLayer
370
18
48
1
60
0
100
AcDbLine
10
48.772475
20
7.427276
30
0
11
47.566208
21
7.425104
31
0
39
0
210
0
220
0
230
1
0
LINE
5
94
100
AcDbEntity
8
1
62
256
6
ByLayer
370
18
48
1
60
0
100
AcDbLine
10
0.8
20
-9.8
30
0
11
22.246165
21
-9.8
31
0
39
0
210
0
220
0
230
1
0
LINE
5
95
100
AcDbEntity
8
1
62
256
6
ByLayer
370
18
48
1
60
0
100
AcDbLine
10
22.246165
20
9.8
30
0
11
0.8
21
9.8
31
0
39
0
210
0
220
0
230
1
0
LINE
5
96
100
AcDbEntity
8
81
62
256
6
ByLayer
370
18
48
1
60
0
100
AcDbLine
10
92
20
0
30
0
11
97
21
0
31
0
39
0
210
0
220
0
230
1
0
LINE
5
97
100
AcDbEntity
8
2
62
256
6
ByLayer
370
13
48
1
60
0
100
AcDbLine
10
114.236431
20
-9.8
30
0
11
114.236431
21
37.195947
31
0
39
0
210
0
220
0
230
1
0
LINE
5
99
100
AcDbEntity
8
2
62
256
6
ByLayer
370
13
48
1
60
0
100
AcDbLine
10
43.4624
20
9.8
30
0
11
116.236431
21
9.8
31
0
39
0
210
0
220
0
230
1
0
LINE
5
9A
100
AcDbEntity
8
2
62
256
6
ByLayer
370
13
48
1
60
0
100
AcDbLine
10
43.4624
20
-9.8
30
0
11
116.236431
21
-9.8
31
0
39
0
210
0
220
0
230
1
0
LINE
5
9B
100
AcDbEntity
8
1
62
256
6
ByLayer
370
18
48
1
60
1
100
AcDbLine
10
114.236431
20
9.8
30
0
11
114.697214
21
6.300002
31
0
39
0
210
0
220
0
230
1
0
LINE
5
9C
100
AcDbEntity
8
1
62
256
6
ByLayer
370
18
48
1
60
1
100
AcDbLine
10
114.697214
20
6.300002
30
0
11
113.775647
21
6.299998
31
0
39
0
210
0
220
0
230
1
0
LINE
5
9D
100
AcDbEntity
8
1
62
256
6
ByLayer
370
18
48
1
60
1
100
AcDbLine
10
113.775647
20
6.299998
30
0
11
114.236431
21
9.8
31
0
39
0
210
0
220
0
230
1
0
LINE
5
9E
100
AcDbEntity
8
1
62
256
6
ByLayer
370
18
48
1
60
1
100
AcDbLine
10
114.236431
20
-9.8
30
0
11
113.775647
21
-6.300002
31
0
39
0
210
0
220
0
230
1
0
LINE
5
9F
100
AcDbEntity
8
1
62
256
6
ByLayer
370
18
48
1
60
1
100
AcDbLine
10
113.775647
20
-6.300002
30
0
11
114.697214
21
-6.299998
31
0
39
0
210
0
220
0
230
1
0
LINE
5
A0
100
AcDbEntity
8
1
62
256
6
ByLayer
370
18
48
1
60
1
100
AcDbLine
10
114.697214
20
-6.299998
30
0
11
114.236431
21
-9.8
31
0
39
0
210
0
220
0
230
1
0
LINE
5
A1
100
AcDbEntity
8
SK2
62
256
6
ByLayer
370
13
48
1
60
0
100
AcDbLine
10
-58.625163
20
-10
30
0
11
-58.625163
21
41.732039
31
0
39
0
210
0
220
0
230
1
0
LINE
5
A3
100
AcDbEntity
8
SK2
62
256
6
ByLayer
370
13
48
1
60
0
100
AcDbLine
10
-51.5875
20
10
30
0
11
-60.625163
21
10
31
0
39
0
210
0
220
0
230
1
0
LINE
5
A4
100
AcDbEntity
8
SK2
62
256
6
ByLayer
370
13
48
1
60
0
100
AcDbLine
10
-51.5875
20
-10
30
0
11
-60.625163
21
-10
31
0
39
0
210
0
220
0
230
1
0
LINE
5
A5
100
AcDbEntity
8
1
62
256
6
ByLayer
370
18
48
1
60
1
100
AcDbLine
10
-58.625163
20
10
30
0
11
-58.164379
21
6.500002
31
0
39
0
210
0
220
0
230
1
0
LINE
5
A6
100
AcDbEntity
8
1
62
256
6
ByLayer
370
18
48
1
60
1
100
AcDbLine
10
-58.164379
20
6.500002
30
0
11
-59.085946
21
6.499998
31
0
39
0
210
0
220
0
230
1
0
LINE
5
A7
100
AcDbEntity
8
1
62
256
6
ByLayer
370
18
48
1
60
1
100
AcDbLine
10
-59.085946
20
6.499998
30
0
11
-58.625163
21
10
31
0
39
0
210
0
220
0
230
1
0
LINE
5
A8
100
AcDbEntity
8
1
62
256
6
ByLayer
370
18
48
1
60
1
100
AcDbLine
10
-58.625163
20
-10
30
0
11
-59.085946
21
-6.500002
31
0
39
0
210
0
220
0
230
1
0
LINE
5
A9
100
AcDbEntity
8
1
62
256
6
ByLayer
370
18
48
1
60
1
100
AcDbLine
10
-59.085946
20
-6.500002
30
0
11
-58.164379
21
-6.499998
31
0
39
0
210
0
220
0
230
1
0
LINE
5
AA
100
AcDbEntity
8
1
62
256
6
ByLayer
370
18
48
1
60
1
100
AcDbLine
10
-58.164379
20
-6.499998
30
0
11
-58.625163
21
-10
31
0
39
0
210
0
220
0
230
1
0
LINE
5
AB
100
AcDbEntity
8
2
62
256
6
ByLayer
370
13
48
1
60
0
100
AcDbLine
10
105.970081
20
-7.5
30
0
11
105.970081
21
37.704896
31
0
39
0
210
0
220
0
230
1
0
LINE
5
AC
100
AcDbEntity
8
2
62
256
6
ByLayer
370
13
48
1
60
0
100
AcDbLine
10
90.7624
20
7.5
30
0
11
107.970081
21
7.5
31
0
39
0
210
0
220
0
230
1
0
LINE
5
AD
100
AcDbEntity
8
2
62
256
6
ByLayer
370
13
48
1
60
0
100
AcDbLine
10
90.7624
20
-7.5
30
0
11
107.970081
21
-7.5
31
0
39
0
210
0
220
0
230
1
0
LINE
5
AE
100
AcDbEntity
8
1
62
256
6
ByLayer
370
18
48
1
60
1
100
AcDbLine
10
105.970081
20
7.5
30
0
11
106.430865
21
4.000002
31
0
39
0
210
0
220
0
230
1
0
LINE
5
AF
100
AcDbEntity
8
1
62
256
6
ByLayer
370
18
48
1
60
1
100
AcDbLine
10
106.430865
20
4.000002
30
0
11
105.509297
21
3.999998
31
0
39
0
210
0
220
0
230
1
0
LINE
5
B0
100
AcDbEntity
8
1
62
256
6
ByLayer
370
18
48
1
60
1
100
AcDbLine
10
105.509297
20
3.999998
30
0
11
105.970081
21
7.5
31
0
39
0
210
0
220
0
230
1
0
LINE
5
B1
100
AcDbEntity
8
1
62
256
6
ByLayer
370
18
48
1
60
1
100
AcDbLine
10
105.970081
20
-7.5
30
0
11
105.509297
21
-4.000002
31
0
39
0
210
0
220
0
230
1
0
LINE
5
B2
100
AcDbEntity
8
1
62
256
6
ByLayer
370
18
48
1
60
1
100
AcDbLine
10
105.509297
20
-4.000002
30
0
11
106.430865
21
-3.999998
31
0
39
0
210
0
220
0
230
1
0
LINE
5
B3
100
AcDbEntity
8
1
62
256
6
ByLayer
370
18
48
1
60
1
100
AcDbLine
10
106.430865
20
-3.999998
30
0
11
105.970081
21
-7.5
31
0
39
0
210
0
220
0
230
1
0
LINE
5
B4
100
AcDbEntity
8
SK2
62
256
6
ByLayer
370
13
48
1
60
0
100
AcDbLine
10
40.752368
20
-10.922532
30
0
11
34.134037
21
-17.540863
31
0
39
0
210
0
220
0
230
1
0
LINE
5
B5
100
AcDbEntity
8
SK2
62
256
6
ByLayer
370
13
48
1
60
0
100
AcDbLine
10
40.752368
20
10.922532
30
0
11
34.134037
21
17.540863
31
0
39
0
210
0
220
0
230
1
0
LINE
5
B6
100
AcDbEntity
8
1
62
256
6
ByLayer
370
18
48
1
60
1
100
AcDbLine
10
35.54825
20
-16.12665
30
0
11
32.831877
21
-13.87196
31
0
39
0
210
0
220
0
230
1
0
LINE
5
B7
100
AcDbEntity
8
1
62
256
6
ByLayer
370
18
48
1
60
1
100
AcDbLine
10
32.831877
20
-13.87196
30
0
11
33.50799
21
-13.245735
31
0
39
0
210
0
220
0
230
1
0
LINE
5
B8
100
AcDbEntity
8
1
62
256
6
ByLayer
370
18
48
1
60
1
100
AcDbLine
10
33.50799
20
-13.245735
30
0
11
35.54825
21
-16.12665
31
0
39
0
210
0
220
0
230
1
0
LINE
5
B9
100
AcDbEntity
8
1
62
256
6
ByLayer
370
18
48
1
60
1
100
AcDbLine
10
35.54825
20
16.12665
30
0
11
33.507992
21
13.245737
31
0
39
0
210
0
220
0
230
1
0
LINE
5
BA
100
AcDbEntity
8
1
62
256
6
ByLayer
370
18
48
1
60
1
100
AcDbLine
10
33.507992
20
13.245737
30
0
11
32.831874
21
13.871958
31
0
39
0
210
0
220
0
230
1
0
LINE
5
BB
100
AcDbEntity
8
1
62
256
6
ByLayer
370
18
48
1
60
1
100
AcDbLine
10
32.831874
20
13.871958
30
0
11
35.54825
21
16.12665
31
0
39
0
210
0
220
0
230
1
0
LINE
5
102
100
AcDbEntity
8
1
62
256
6
ByLayer
370
18
48
1
60
1
100
AcDbLine
10
114.236431
20
9.8
30
0
11
114.697214
21
6.300002
31
0
39
0
210
0
220
0
230
1
0
LINE
5
103
100
AcDbEntity
8
1
62
256
6
ByLayer
370
18
48
1
60
1
100
AcDbLine
10
114.697214
20
6.300002
30
0
11
113.775647
21
6.299998
31
0
39
0
210
0
220
0
230
1
0
LINE
5
104
100
AcDbEntity
8
1
62
256
6
ByLayer
370
18
48
1
60
1
100
AcDbLine
10
113.775647
20
6.299998
30
0
11
114.236431
21
9.8
31
0
39
0
210
0
220
0
230
1
0
LINE
5
106
100
AcDbEntity
8
1
62
256
6
ByLayer
370
18
48
1
60
1
100
AcDbLine
10
114.236431
20
-9.8
30
0
11
113.775647
21
-6.300002
31
0
39
0
210
0
220
0
230
1
0
LINE
5
107
100
AcDbEntity
8
1
62
256
6
ByLayer
370
18
48
1
60
1
100
AcDbLine
10
113.775647
20
-6.300002
30
0
11
114.697214
21
-6.299998
31
0
39
0
210
0
220
0
230
1
0
LINE
5
108
100
AcDbEntity
8
1
62
256
6
ByLayer
370
18
48
1
60
1
100
AcDbLine
10
114.697214
20
-6.299998
30
0
11
114.236431
21
-9.8
31
0
39
0
210
0
220
0
230
1
0
LINE
5
10C
100
AcDbEntity
8
1
62
256
6
ByLayer
370
18
48
1
60
1
100
AcDbLine
10
-58.625163
20
10
30
0
11
-58.164379
21
6.500002
31
0
39
0
210
0
220
0
230
1
0
LINE
5
10D
100
AcDbEntity
8
1
62
256
6
ByLayer
370
18
48
1
60
1
100
AcDbLine
10
-58.164379
20
6.500002
30
0
11
-59.085946
21
6.499998
31
0
39
0
210
0
220
0
230
1
0
LINE
5
10E
100
AcDbEntity
8
1
62
256
6
ByLayer
370
18
48
1
60
1
100
AcDbLine
10
-59.085946
20
6.499998
30
0
11
-58.625163
21
10
31
0
39
0
210
0
220
0
230
1
0
LINE
5
110
100
AcDbEntity
8
1
62
256
6
ByLayer
370
18
48
1
60
1
100
AcDbLine
10
-58.625163
20
-10
30
0
11
-59.085946
21
-6.500002
31
0
39
0
210
0
220
0
230
1
0
LINE
5
111
100
AcDbEntity
8
1
62
256
6
ByLayer
370
18
48
1
60
1
100
AcDbLine
10
-59.085946
20
-6.500002
30
0
11
-58.164379
21
-6.499998
31
0
39
0
210
0
220
0
230
1
0
LINE
5
112
100
AcDbEntity
8
1
62
256
6
ByLayer
370
18
48
1
60
1
100
AcDbLine
10
-58.164379
20
-6.499998
30
0
11
-58.625163
21
-10
31
0
39
0
210
0
220
0
230
1
0
LINE
5
116
100
AcDbEntity
8
1
62
256
6
ByLayer
370
18
48
1
60
1
100
AcDbLine
10
105.970081
20
7.5
30
0
11
106.430865
21
4.000002
31
0
39
0
210
0
220
0
230
1
0
LINE
5
117
100
AcDbEntity
8
1
62
256
6
ByLayer
370
18
48
1
60
1
100
AcDbLine
10
106.430865
20
4.000002
30
0
11
105.509297
21
3.999998
31
0
39
0
210
0
220
0
230
1
0
LINE
5
118
100
AcDbEntity
8
1
62
256
6
ByLayer
370
18
48
1
60
1
100
AcDbLine
10
105.509297
20
3.999998
30
0
11
105.970081
21
7.5
31
0
39
0
210
0
220
0
230
1
0
LINE
5
11A
100
AcDbEntity
8
1
62
256
6
ByLayer
370
18
48
1
60
1
100
AcDbLine
10
105.970081
20
-7.5
30
0
11
105.509297
21
-4.000002
31
0
39
0
210
0
220
0
230
1
0
LINE
5
11B
100
AcDbEntity
8
1
62
256
6
ByLayer
370
18
48
1
60
1
100
AcDbLine
10
105.509297
20
-4.000002
30
0
11
106.430865
21
-3.999998
31
0
39
0
210
0
220
0
230
1
0
LINE
5
11C
100
AcDbEntity
8
1
62
256
6
ByLayer
370
18
48
1
60
1
100
AcDbLine
10
106.430865
20
-3.999998
30
0
11
105.970081
21
-7.5
31
0
39
0
210
0
220
0
230
1
0
LINE
5
11F
100
AcDbEntity
8
1
62
256
6
ByLayer
370
18
48
1
60
1
100
AcDbLine
10
35.54825
20
-16.12665
30
0
11
32.831877
21
-13.87196
31
0
39
0
210
0
220
0
230
1
0
LINE
5
120
100
AcDbEntity
8
1
62
256
6
ByLayer
370
18
48
1
60
1
100
AcDbLine
10
32.831877
20
-13.87196
30
0
11
33.50799
21
-13.245735
31
0
39
0
210
0
220
0
230
1
0
LINE
5
121
100
AcDbEntity
8
1
62
256
6
ByLayer
370
18
48
1
60
1
100
AcDbLine
10
33.50799
20
-13.245735
30
0
11
35.54825
21
-16.12665
31
0
39
0
210
0
220
0
230
1
0
LINE
5
123
100
AcDbEntity
8
1
62
256
6
ByLayer
370
18
48
1
60
1
100
AcDbLine
10
35.54825
20
16.12665
30
0
11
33.507992
21
13.245737
31
0
39
0
210
0
220
0
230
1
0
LINE
5
124
100
AcDbEntity
8
1
62
256
6
ByLayer
370
18
48
1
60
1
100
AcDbLine
10
33.507992
20
13.245737
30
0
11
32.831874
21
13.871958
31
0
39
0
210
0
220
0
230
1
0
LINE
5
125
100
AcDbEntity
8
1
62
256
6
ByLayer
370
18
48
1
60
1
100
AcDbLine
10
32.831874
20
13.871958
30
0
11
35.54825
21
16.12665
31
0
39
0
210
0
220
0
230
1
0
MTEXT
5
FC
100
AcDbEntity
8
SK6
62
256
6
ByLayer
370
13
48
1
60
0
100
AcDbMText
10
-7.293293
20
40.040328
30
0
210
0
220
0
230
1
1
\W0.7433;860.2-1500-045A1-PM P1BM
40
3.5
41
0
44
1.084337
50
0
71
7
72
5
7
iso_b_vert
0
MTEXT
5
100
100
AcDbEntity
8
2
62
256
6
ByLayer
370
18
48
1
60
0
100
AcDbMText
10
112.671797
20
19.747798
30
0
210
0
220
0
230
1
1
%%c
40
3.5
41
0
44
1.084337
50
90
71
7
72
5
7
iso_b_vert
0
MTEXT
5
101
100
AcDbEntity
8
2
62
256
6
ByLayer
370
18
48
1
60
0
100
AcDbMText
10
112.671797
20
24.970454
30
0
210
0
220
0
230
1
1
\W0.6930;19,600
40
3.5
41
0
44
1.084337
50
90
71
7
72
5
7
iso_b_vert
0
MTEXT
5
10A
100
AcDbEntity
8
SK2
62
256
6
ByLayer
370
18
48
1
60
0
100
AcDbMText
10
-60.189796
20
23.409024
30
0
210
0
220
0
230
1
1
%%c
40
3.5
41
0
44
1.084337
50
90
71
7
72
5
7
iso_b_vert
0
MTEXT
5
10B
100
AcDbEntity
8
SK2
62
256
6
ByLayer
370
18
48
1
60
0
100
AcDbMText
10
-60.189796
20
28.63168
30
0
210
0
220
0
230
1
1
\W0.7421;20,000
40
3.5
41
0
44
1.084337
50
90
71
7
72
5
7
iso_b_vert
0
MTEXT
5
114
100
AcDbEntity
8
2
62
256
6
ByLayer
370
18
48
1
60
0
100
AcDbMText
10
104.405448
20
20.256747
30
0
210
0
220
0
230
1
1
%%c
40
3.5
41
0
44
1.084337
50
90
71
7
72
5
7
iso_b_vert
0
MTEXT
5
115
100
AcDbEntity
8
2
62
256
6
ByLayer
370
18
48
1
60
0
100
AcDbMText
10
104.405448
20
25.479403
30
0
210
0
220
0
230
1
1
\W0.6930;15,000
40
3.5
41
0
44
1.084337
50
90
71
7
72
5
7
iso_b_vert
0
MTEXT
5
11E
100
AcDbEntity
8
SK2
62
256
6
ByLayer
370
13
48
1
60
0
100
AcDbMText
10
24.031775
20
-0.291663
30
0
210
0
220
0
230
1
1
\W0.8181;90,0%%d
40
3.5
41
0
44
1.084337
50
0
71
7
72
5
7
iso_b_vert
0
HATCH
5
105
100
AcDbEntity
8
2
62
256
6
ByLayer
370
13
48
1
60
0
100
AcDbHatch
10
0
20
0
30
0
210
0
220
0
230
1
2
ANSI31
70
0
71
0
91
1
92
5
93
3
72
1
10
114.236430604616
20
9.80000000000001
11
114.697214346169
21
6.3000016925532
72
1
10
114.697214346169
20
6.3000016925532
11
113.775646863064
21
6.29999830744683
72
1
10
113.775646863064
20
6.29999830744683
11
114.236430604616
21
9.80000000000001
97
0
75
0
76
1
52
0
41
0.0062
77
0
78
1
53
45
43
0
44
0
45
-0.0139193969876572
46
0.0139193969876572
79
0
47
0
98
1
10
0
20
0
0
HATCH
5
109
100
AcDbEntity
8
2
62
256
6
ByLayer
370
13
48
1
60
0
100
AcDbHatch
10
0
20
0
30
0
210
0
220
0
230
1
2
ANSI31
70
0
71
0
91
1
92
5
93
3
72
1
10
114.236430604616
20
-9.79999999999998
11
113.775646863064
21
-6.30000169255317
72
1
10
113.775646863064
20
-6.30000169255317
11
114.697214346169
21
-6.2999983074468
72
1
10
114.697214346169
20
-6.2999983074468
11
114.236430604616
21
-9.79999999999998
97
0
75
0
76
1
52
0
41
0.0062
77
0
78
1
53
45
43
0
44
0
45
-0.0139193969876572
46
0.0139193969876572
79
0
47
0
98
1
10
0
20
0
0
HATCH
5
10F
100
AcDbEntity
8
SK2
62
256
6
ByLayer
370
13
48
1
60
0
100
AcDbHatch
10
0
20
0
30
0
210
0
220
0
230
1
2
ANSI31
70
0
71
0
91
1
92
5
93
3
72
1
10
-58.6251625675374
20
10
11
-58.1643788259847
21
6.50000169255318
72
1
10
-58.1643788259847
20
6.50000169255318
11
-59.0859463090902
21
6.49999830744682
72
1
10
-59.0859463090902
20
6.49999830744682
11
-58.6251625675374
21
10
97
0
75
0
76
1
52
0
41
0.0062
77
0
78
1
53
45
43
0
44
0
45
-0.0139193969876572
46
0.0139193969876572
79
0
47
0
98
1
10
0
20
0
0
HATCH
5
113
100
AcDbEntity
8
SK2
62
256
6
ByLayer
370
13
48
1
60
0
100
AcDbHatch
10
0
20
0
30
0
210
0
220
0
230
1
2
ANSI31
70
0
71
0
91
1
92
5
93
3
72
1
10
-58.6251625675374
20
-9.99999999999999
11
-59.0859463090902
21
-6.50000169255318
72
1
10
-59.0859463090902
20
-6.50000169255318
11
-58.1643788259847
21
-6.49999830744682
72
1
10
-58.1643788259847
20
-6.49999830744682
11
-58.6251625675374
21
-9.99999999999999
97
0
75
0
76
1
52
0
41
0.0062
77
0
78
1
53
45
43
0
44
0
45
-0.0139193969876572
46
0.0139193969876572
79
0
47
0
98
1
10
0
20
0
0
HATCH
5
119
100
AcDbEntity
8
2
62
256
6
ByLayer
370
13
48
1
60
0
100
AcDbHatch
10
0
20
0
30
0
210
0
220
0
230
1
2
ANSI31
70
0
71
0
91
1
92
5
93
3
72
1
10
105.970081101161
20
7.5
11
106.430864842714
21
4.00000169255318
72
1
10
106.430864842714
20
4.00000169255318
11
105.509297359609
21
3.99999830744682
72
1
10
105.509297359609
20
3.99999830744682
11
105.970081101161
21
7.5
97
0
75
0
76
1
52
0
41
0.0062
77
0
78
1
53
45
43
0
44
0
45
-0.0139193969876572
46
0.0139193969876572
79
0
47
0
98
1
10
0
20
0
0
HATCH
5
11D
100
AcDbEntity
8
2
62
256
6
ByLayer
370
13
48
1
60
0
100
AcDbHatch
10
0
20
0
30
0
210
0
220
0
230
1
2
ANSI31
70
0
71
0
91
1
92
5
93
3
72
1
10
105.970081101161
20
-7.5
11
105.509297359609
21
-4.00000169255318
72
1
10
105.509297359609
20
-4.00000169255318
11
106.430864842714
21
-3.99999830744682
72
1
10
106.430864842714
20
-3.99999830744682
11
105.970081101161
21
-7.5
97
0
75
0
76
1
52
0
41
0.0062
77
0
78
1
53
45
43
0
44
0
45
-0.0139193969876572
46
0.0139193969876572
79
0
47
0
98
1
10
0
20
0
0
HATCH
5
122
100
AcDbEntity
8
SK2
62
256
6
ByLayer
370
13
48
1
60
0
100
AcDbHatch
10
0
20
0
30
0
210
0
220
0
230
1
2
ANSI31
70
0
71
0
91
1
92
5
93
3
72
1
10
35.5482501448216
20
-16.1266498551783
11
32.8318767740087
21
-13.8719601827514
72
1
10
32.8318767740087
20
-13.8719601827514
11
33.5079896404593
21
-13.2457349694703
72
1
10
33.5079896404593
20
-13.2457349694703
11
35.5482501448216
21
-16.1266498551783
97
0
75
0
76
1
52
0
41
0.0062
77
0
78
1
53
45
43
0
44
0
45
-0.0139193969876572
46
0.0139193969876572
79
0
47
0
98
1
10
0
20
0
0
HATCH
5
126
100
AcDbEntity
8
SK2
62
256
6
ByLayer
370
13
48
1
60
0
100
AcDbHatch
10
0
20
0
30
0
210
0
220
0
230
1
2
ANSI31
70
0
71
0
91
1
92
5
93
3
72
1
10
35.5482501448217
20
16.1266498551783
11
33.5079919407039
21
13.24573745298
72
1
10
33.5079919407039
20
13.24573745298
11
32.8318744737643
21
13.8719576992417
72
1
10
32.8318744737643
20
13.8719576992417
11
35.5482501448217
21
16.1266498551783
97
0
75
0
76
1
52
0
41
0.0062
77
0
78
1
53
45
43
0
44
0
45
-0.0139193969876572
46
0.0139193969876572
79
0
47
0
98
1
10
0
20
0
0
DIMENSION
5
128
100
AcDbEntity
8
2
62
256
6
ByLayer
370
13
48
1
60
0
100
AcDbDimension
2
_U0
10
89.1749
20
-20.302503
30
0
11
44.58745
21
-20.302503
31
0
70
32
71
1
72
1
41
1
210
0
220
0
230
1
3
Standard
100
AcDbAlignedDimension
13
0
23
0
33
0
14
89.1749
24
-7.5
34
0
50
0
100
AcDbRotatedDimension
1001
ACAD
1000
DSTYLE
1002
{
1070
   371
1070
    13
1070
   372
1070
    13
1070
   170
1070
     0
1070
   144
1040
1.0
1070
   277
1070
     2
1070
   278
1070
    44
1070
   146
1040
1.0
1070
   345
1005
16
1070
   347
1005
16
1070
   346
1005
16
1070
   344
1005
0
1070
   343
1005
0
1070
   172
1070
     1
1070
    76
1070
     0
1070
    75
1070
     0
1070
   282
1070
     0
1070
   281
1070
     0
1070
    71
1070
     0
1070
    74
1070
     0
1070
   279
1070
     0
1070
   173
1070
     1
1070
   340
1005
FD
1070
   271
1070
     2
1070
   272
1070
     2
1070
    77
1070
     1
1070
    73
1070
     1
1070
   171
1070
     3
1070
   274
1070
     4
1070
   177
1070
    35
1070
   176
1070
    35
1070
   178
1070
    35
1070
    48
1040
-0.1
1070
    41
1040
3.5
1070
   147
1040
1.75
1070
    42
1040
1.5875
1070
    44
1040
2.0
1070
   140
1040
3.5
1002
}
1001
ACAD_DSTYLE_DIM_LINETYPE
1070
   380
1005
16
1001
ACAD_DSTYLE_DIM_EXT1_LINETYPE
1070
   381
1005
16
1001
ACAD_DSTYLE_DIM_EXT2_LINETYPE
1070
   382
1005
16
0
DIMENSION
5
141
100
AcDbEntity
8
SK2
62
256
6
ByLayer
370
13
48
1
60
0
100
AcDbDimension
2
_U1
10
92
20
-41.192985
30
0
11
21
21
-41.192985
31
0
70
32
71
1
72
1
41
1
210
0
220
0
230
1
3
Standard
100
AcDbAlignedDimension
13
-50
23
-10
33
0
14
92
24
0
34
0
50
0
100
AcDbRotatedDimension
1001
ACAD
1000
DSTYLE
1002
{
1070
   371
1070
    13
1070
   372
1070
    13
1070
   170
1070
     0
1070
   144
1040
1.0
1070
   277
1070
     2
1070
   278
1070
    44
1070
   146
1040
1.0
1070
   345
1005
16
1070
   347
1005
16
1070
   346
1005
16
1070
   344
1005
0
1070
   343
1005
0
1070
   172
1070
     1
1070
    76
1070
     0
1070
    75
1070
     0
1070
   282
1070
     0
1070
   281
1070
     0
1070
    71
1070
     0
1070
    74
1070
     0
1070
   279
1070
     0
1070
   173
1070
     1
1070
   340
1005
FD
1070
   271
1070
     2
1070
   272
1070
     2
1070
    77
1070
     1
1070
    73
1070
     1
1070
   171
1070
     3
1070
   274
1070
     4
1070
   177
1070
    35
1070
   176
1070
    35
1070
   178
1070
    35
1070
    48
1040
-0.1
1070
    41
1040
3.5
1070
   147
1040
1.75
1070
    42
1040
1.5875
1070
    44
1040
2.0
1070
   140
1040
3.5
1002
}
1001
ACAD_DSTYLE_DIM_LINETYPE
1070
   380
1005
16
1001
ACAD_DSTYLE_DIM_EXT1_LINETYPE
1070
   381
1005
16
1001
ACAD_DSTYLE_DIM_EXT2_LINETYPE
1070
   382
1005
16
0
DIMENSION
5
159
100
AcDbEntity
8
SK2
62
256
6
ByLayer
370
13
48
1
60
0
100
AcDbDimension
2
_U2
10
92
20
19.109119
30
0
11
66.935
21
19.109119
31
0
70
32
71
1
72
1
41
1
210
0
220
0
230
1
3
Standard
100
AcDbAlignedDimension
13
41.87
23
9.8
33
0
14
92
24
0
34
0
50
0
100
AcDbRotatedDimension
1001
ACAD
1000
DSTYLE
1002
{
1070
   371
1070
    13
1070
   372
1070
    13
1070
   170
1070
     0
1070
   144
1040
1.0
1070
   277
1070
     2
1070
   278
1070
    44
1070
   146
1040
1.0
1070
   345
1005
16
1070
   347
1005
16
1070
   346
1005
16
1070
   344
1005
0
1070
   343
1005
0
1070
   172
1070
     1
1070
    76
1070
     0
1070
    75
1070
     0
1070
   282
1070
     0
1070
   281
1070
     0
1070
    71
1070
     0
1070
    74
1070
     0
1070
   279
1070
     0
1070
   173
1070
     1
1070
   340
1005
FD
1070
   271
1070
     2
1070
   272
1070
     2
1070
    77
1070
     1
1070
    73
1070
     1
1070
   171
1070
     3
1070
   274
1070
     4
1070
   177
1070
    35
1070
   176
1070
    35
1070
   178
1070
    35
1070
    48
1040
-0.1
1070
    41
1040
3.5
1070
   147
1040
1.75
1070
    42
1040
1.5875
1070
    44
1040
2.0
1070
   140
1040
3.5
1002
}
1001
ACAD_DSTYLE_DIM_LINETYPE
1070
   380
1005
16
1001
ACAD_DSTYLE_DIM_EXT1_LINETYPE
1070
   381
1005
16
1001
ACAD_DSTYLE_DIM_EXT2_LINETYPE
1070
   382
1005
16
0
DIMENSION
5
171
100
AcDbEntity
8
SK2
62
256
6
ByLayer
370
13
48
1
60
0
100
AcDbDimension
2
_U3
10
89.1749
20
-20.302503
30
0
11
109.583333
21
-20.302503
31
0
70
32
71
1
72
1
41
1
210
0
220
0
230
1
3
Standard
100
AcDbAlignedDimension
13
92
23
0
33
0
14
89.1749
24
-7.5
34
0
50
0
100
AcDbRotatedDimension
1001
ACAD
1000
DSTYLE
1002
{
1070
   371
1070
    13
1070
   372
1070
    13
1070
   170
1070
     0
1070
   144
1040
1.0
1070
   277
1070
     2
1070
   278
1070
    44
1070
   146
1040
1.0
1070
   345
1005
16
1070
   347
1005
16
1070
   346
1005
16
1070
   344
1005
0
1070
   343
1005
0
1070
   172
1070
     1
1070
    76
1070
     0
1070
    75
1070
     0
1070
   282
1070
     0
1070
   281
1070
     0
1070
    71
1070
     0
1070
    74
1070
     0
1070
   279
1070
     0
1070
   173
1070
     1
1070
   340
1005
FD
1070
   271
1070
     2
1070
   272
1070
     2
1070
    77
1070
     1
1070
    73
1070
     1
1070
   171
1070
     3
1070
   274
1070
     4
1070
   177
1070
    35
1070
   176
1070
    35
1070
   178
1070
    35
1070
    48
1040
-0.1
1070
    41
1040
3.5
1070
   147
1040
1.75
1070
    42
1040
1.5875
1070
    44
1040
2.0
1070
   140
1040
3.5
1002
}
1001
ACAD_DSTYLE_DIM_LINETYPE
1070
   380
1005
16
1001
ACAD_DSTYLE_DIM_EXT1_LINETYPE
1070
   381
1005
16
1001
ACAD_DSTYLE_DIM_EXT2_LINETYPE
1070
   382
1005
16
0
DIMENSION
5
18B
100
AcDbEntity
8
SK2
62
256
6
ByLayer
370
13
48
1
60
0
100
AcDbDimension
2
_U4
10
44.1749
20
11.635371
30
0
11
66.6749
21
11.635371
31
0
70
32
71
1
72
1
41
1
210
0
220
0
230
1
3
Standard
100
AcDbAlignedDimension
13
89.1749
23
7.5
33
0
14
44.1749
24
7.5
34
0
50
0
100
AcDbRotatedDimension
1001
ACAD
1000
DSTYLE
1002
{
1070
   371
1070
    13
1070
   372
1070
    13
1070
   170
1070
     0
1070
   144
1040
1.0
1070
   277
1070
     2
1070
   278
1070
    44
1070
   146
1040
1.0
1070
   345
1005
16
1070
   347
1005
16
1070
   346
1005
16
1070
   344
1005
0
1070
   343
1005
0
1070
   172
1070
     1
1070
    76
1070
     0
1070
    75
1070
     0
1070
   282
1070
     0
1070
   281
1070
     0
1070
    71
1070
     0
1070
    74
1070
     0
1070
   279
1070
     0
1070
   173
1070
     1
1070
   340
1005
FD
1070
   271
1070
     2
1070
   272
1070
     2
1070
    77
1070
     1
1070
    73
1070
     1
1070
   171
1070
     3
1070
   274
1070
     4
1070
   177
1070
    35
1070
   176
1070
    35
1070
   178
1070
    35
1070
    48
1040
-0.1
1070
    41
1040
3.5
1070
   147
1040
1.75
1070
    42
1040
1.5875
1070
    44
1040
2.0
1070
   140
1040
3.5
1002
}
1001
ACAD_DSTYLE_DIM_LINETYPE
1070
   380
1005
16
1001
ACAD_DSTYLE_DIM_EXT1_LINETYPE
1070
   381
1005
16
1001
ACAD_DSTYLE_DIM_EXT2_LINETYPE
1070
   382
1005
16
0
DIMENSION
5
1A3
100
AcDbEntity
8
SK2
62
256
6
ByLayer
370
13
48
1
60
0
100
AcDbDimension
2
_U5
10
89.1749
20
-30.690158
30
0
11
19.58745
21
-30.690158
31
0
70
32
71
1
72
1
41
1
210
0
220
0
230
1
3
Standard
100
AcDbAlignedDimension
13
-50
23
-10
33
0
14
89.1749
24
-7.5
34
0
50
0
100
AcDbRotatedDimension
1001
ACAD
1000
DSTYLE
1002
{
1070
   371
1070
    13
1070
   372
1070
    13
1070
   170
1070
     0
1070
   144
1040
1.0
1070
   277
1070
     2
1070
   278
1070
    44
1070
   146
1040
1.0
1070
   345
1005
16
1070
   347
1005
16
1070
   346
1005
16
1070
   344
1005
0
1070
   343
1005
0
1070
   172
1070
     1
1070
    76
1070
     0
1070
    75
1070
     0
1070
   282
1070
     0
1070
   281
1070
     0
1070
    71
1070
     0
1070
    74
1070
     0
1070
   279
1070
     0
1070
   173
1070
     1
1070
   340
1005
FD
1070
   271
1070
     2
1070
   272
1070
     2
1070
    77
1070
     1
1070
    73
1070
     1
1070
   171
1070
     3
1070
   274
1070
     4
1070
   177
1070
    35
1070
   176
1070
    35
1070
   178
1070
    35
1070
    48
1040
-0.1
1070
    41
1040
3.5
1070
   147
1040
1.75
1070
    42
1040
1.5875
1070
    44
1040
2.0
1070
   140
1040
3.5
1002
}
1001
ACAD_DSTYLE_DIM_LINETYPE
1070
   380
1005
16
1001
ACAD_DSTYLE_DIM_EXT1_LINETYPE
1070
   381
1005
16
1001
ACAD_DSTYLE_DIM_EXT2_LINETYPE
1070
   382
1005
16
0
ENDSEC
0
SECTION
2
OBJECTS
0
DICTIONARY
5
22b
330
0
100
AcDbDictionary
280
0
281
1
3
ACAD_GROUP
350
22c
3
ACAD_MLINESTYLE
350
22d
0
DICTIONARY
5
22c
330
0
100
AcDbDictionary
280
0
281
1
0
DICTIONARY
5
22d
330
0
100
AcDbDictionary
280
0
281
1
3
Standard
350
18
0
MLINESTYLE
5
18
330
22d
100
AcDbMlineStyle
2
Standard
70
0
3

62
256
51
90
52
90
71
2
49
-0.5
62
256
6
ByLayer
49
0.5
62
256
6
ByLayer
0
RASTERVARIABLES
5
219
330

100
AcDbRasterVariables
90
0
70
1
71
1
72
1
0
ENDSEC
0
EOF
