0
SECTION
2
HEADER
9
$ACADVER
1
AC1015
9
$DWGCODEPAGE
3
ANSI_1252
9
$HANDSEED
5
234
9
$ANGBASE
50
0
9
$ANGDIR
70
0
9
$ATTMODE
70
1
9
$AUNITS
70
0
9
$AUPREC
70
0
9
$CECOLOR
62
256
9
$CELTSCALE
40
1
9
$CELTYPE
6
ByLayer
9
$CELWEIGHT
370
18
9
$CLAYER
8
0
9
$CMLJUST
70
0
9
$CMLSCALE
40
1
9
$CMLSTYLE
2
Standard
9
$DIMSTYLE
2
Standard
9
$TEXTSIZE
40
0.2
9
$TEXTSTYLE
7
Standard
9
$LUNITS
70
2
9
$LUPREC
70
4
9
$EXTNAMES
290
1
9
$INSUNITS
70
4
9
$LTSCALE
40
1
9
$LWDISPLAY
290
1
9
$PDMODE
70
0
9
$PDSIZE
40
0
9
$PLINEGEN
70
0
0
ENDSEC
0
SECTION
2
CLASSES
0
CLASS
1
RASTERVARIABLES
2
AcDbRasterVariables
3
ISM
90
0
280
0
281
0
0
ENDSEC
0
SECTION
2
TABLES
0
TABLE
2
VPORT
5
22a
100
AcDbSymbolTable
0
VPORT
5
1
100
AcDbSymbolTableRecord
100
AcDbViewportTableRecord
2
*Active
70
0
10
0
20
0
11
1
21
1
12
-1
22
1
13
0
23
0
14
0.5
24
0.5
15
10
25
10
16
0
26
0
36
1
17
0
27
0
37
0
0
ENDTAB
0
TABLE
2
LTYPE
5
22b
100
AcDbSymbolTable
0
LTYPE
5
14
100
AcDbSymbolTableRecord
100
AcDbLinetypeTableRecord
70
0
2
ByBlock
3

72
65
73
0
40
0
0
LTYPE
5
15
100
AcDbSymbolTableRecord
100
AcDbLinetypeTableRecord
70
0
2
ByLayer
3

72
65
73
0
40
0
0
LTYPE
5
16
100
AcDbSymbolTableRecord
100
AcDbLinetypeTableRecord
70
0
2
Continuous
3
Solid line
72
65
73
0
40
0
0
LTYPE
5
6E
100
AcDbSymbolTableRecord
100
AcDbLinetypeTableRecord
70
0
2
CENTER
3
____ _ ____ _ ____ _ ____
72
65
73
4
40
47.5
49
22
74
0
49
-8.5
74
0
49
8.5
74
0
49
-8.5
74
0
0
LTYPE
5
6F
100
AcDbSymbolTableRecord
100
AcDbLinetypeTableRecord
70
0
2
DASHED
3
__ __ __ __ __ __ __ __ __
72
65
73
2
40
25.72
49
12.86
74
0
49
-12.86
74
0
0
ENDTAB
0
TABLE
2
LAYER
5
22c
100
AcDbSymbolTable
0
LAYER
5
10
100
AcDbSymbolTableRecord
100
AcDbLayerTableRecord
2
0
70
0
62
7
6
Continuous
290
1
370
-3
390
0
0
LAYER
5
71
100
AcDbSymbolTableRecord
100
AcDbLayerTableRecord
2
80
70
0
62
-6
6
Continuous
290
1
370
-3
390
0
0
LAYER
5
73
100
AcDbSymbolTableRecord
100
AcDbLayerTableRecord
2
81
70
0
62
-3
6
Continuous
290
1
370
-3
390
0
0
LAYER
5
75
100
AcDbSymbolTableRecord
100
AcDbLayerTableRecord
2
1
70
0
62
4
6
Continuous
290
1
370
-3
390
0
0
LAYER
5
8D
100
AcDbSymbolTableRecord
100
AcDbLayerTableRecord
2
4
70
0
62
-2
6
CENTER
290
1
370
-3
390
0
0
LAYER
5
98
100
AcDbSymbolTableRecord
100
AcDbLayerTableRecord
2
2
70
0
62
7
6
Continuous
290
1
370
-3
390
0
0
LAYER
5
127
100
AcDbSymbolTableRecord
100
AcDbLayerTableRecord
2
Defpoints
70
0
62
7
6
Continuous
290
0
370
-3
390
0
0
LAYER
5
216
100
AcDbSymbolTableRecord
100
AcDbLayerTableRecord
2
SK1
70
0
62
4
6
Continuous
290
1
370
-3
390
0
0
LAYER
5
217
100
AcDbSymbolTableRecord
100
AcDbLayerTableRecord
2
SK4
70
0
62
2
6
CENTER
290
1
370
-3
390
0
0
LAYER
5
218
100
AcDbSymbolTableRecord
100
AcDbLayerTableRecord
2
SK2
70
0
62
7
6
Continuous
290
1
370
-3
390
0
0
LAYER
5
219
100
AcDbSymbolTableRecord
100
AcDbLayerTableRecord
2
SK6
70
0
62
5
6
Continuous
290
1
370
-3
390
0
0
ENDTAB
0
TABLE
2
STYLE
5
22d
100
AcDbSymbolTable
0
STYLE
5
11
100
AcDbSymbolTableRecord
100
AcDbTextStyleTableRecord
2
Standard
3
txt
70
0
71
0
40
0
41
1
42
0
50
0
0
STYLE
5
F9
100
AcDbSymbolTableRecord
100
AcDbTextStyleTableRecord
2
iso_b_vert
3
simplex.shx
70
0
71
0
40
0
41
1
42
0
50
0
0
STYLE
5
FA
100
AcDbSymbolTableRecord
100
AcDbTextStyleTableRecord
2
DWGDirectTextStyle
3
simplex
70
0
71
0
40
0
41
1
42
0
50
0
0
ENDTAB
0
TABLE
2
DIMSTYLE
5
22e
100
AcDbSymbolTable
100
AcDbDimStyleTable
0
DIMSTYLE
105
27
100
AcDbSymbolTableRecord
100
AcDbDimStyleTableRecord
2
Standard
70
0
3
<>
41
0.18
42
0.0625
44
0.18
140
0.18
147
0.09
73
0
74
0
77
1
271
2
275
0
278
52
280
0
340
11
0
ENDTAB
0
TABLE
2
VIEW
5
22f
100
AcDbSymbolTable
0
ENDTAB
0
TABLE
2
UCS
5
230
100
AcDbSymbolTable
0
ENDTAB
0
TABLE
2
APPID
5
231
100
AcDbSymbolTable
0
APPID
5
12
100
AcDbSymbolTableRecord
100
AcDbRegAppTableRecord
2
ACAD
70
0
0
APPID
5
123
100
AcDbSymbolTableRecord
100
AcDbRegAppTableRecord
2
ACAD_DSTYLE_DIMBREAK
70
0
0
APPID
5
1D5
100
AcDbSymbolTableRecord
100
AcDbRegAppTableRecord
2
ACAD_DSTYLE_DIM_LINETYPE
70
0
0
APPID
5
1D6
100
AcDbSymbolTableRecord
100
AcDbRegAppTableRecord
2
ACAD_DSTYLE_DIM_EXT1_LINETYPE
70
0
0
APPID
5
1D7
100
AcDbSymbolTableRecord
100
AcDbRegAppTableRecord
2
ACAD_DSTYLE_DIM_EXT2_LINETYPE
70
0
0
APPID
5
212
100
AcDbSymbolTableRecord
100
AcDbRegAppTableRecord
2
ACAD_MLEADERVER
70
0
0
ENDTAB
0
TABLE
2
BLOCK_RECORD
5
232
100
AcDbSymbolTable
0
BLOCK_RECORD
5
1F
100
AcDbSymbolTableRecord
100
AcDbBlockTableRecord
2
*Model_Space
340
0
70
0
0
BLOCK_RECORD
5
1B
100
AcDbSymbolTableRecord
100
AcDbBlockTableRecord
2
*Paper_Space
340
0
70
0
0
BLOCK_RECORD
5
23
100
AcDbSymbolTableRecord
100
AcDbBlockTableRecord
2
*Paper_Space0
340
0
70
0
0
BLOCK_RECORD
5
128
100
AcDbSymbolTableRecord
100
AcDbBlockTableRecord
2
*D1
340
0
70
0
0
BLOCK_RECORD
5
134
100
AcDbSymbolTableRecord
100
AcDbBlockTableRecord
2
_U0
340
0
70
0
0
BLOCK_RECORD
5
140
100
AcDbSymbolTableRecord
100
AcDbBlockTableRecord
2
*D3
340
0
70
0
0
BLOCK_RECORD
5
14C
100
AcDbSymbolTableRecord
100
AcDbBlockTableRecord
2
_U1
340
0
70
0
0
BLOCK_RECORD
5
158
100
AcDbSymbolTableRecord
100
AcDbBlockTableRecord
2
*D5
340
0
70
0
0
BLOCK_RECORD
5
164
100
AcDbSymbolTableRecord
100
AcDbBlockTableRecord
2
_U2
340
0
70
0
0
BLOCK_RECORD
5
170
100
AcDbSymbolTableRecord
100
AcDbBlockTableRecord
2
*D7
340
0
70
0
0
BLOCK_RECORD
5
17E
100
AcDbSymbolTableRecord
100
AcDbBlockTableRecord
2
_U3
340
0
70
0
0
BLOCK_RECORD
5
18A
100
AcDbSymbolTableRecord
100
AcDbBlockTableRecord
2
*D9
340
0
70
0
0
BLOCK_RECORD
5
196
100
AcDbSymbolTableRecord
100
AcDbBlockTableRecord
2
_U4
340
0
70
0
0
BLOCK_RECORD
5
1A2
100
AcDbSymbolTableRecord
100
AcDbBlockTableRecord
2
*D11
340
0
70
0
0
BLOCK_RECORD
5
1AE
100
AcDbSymbolTableRecord
100
AcDbBlockTableRecord
2
_U5
340
0
70
0
0
ENDTAB
0
ENDSEC
0
SECTION
2
BLOCKS
0
BLOCK
5
20
100
AcDbEntity
8
0
100
AcDbBlockBegin
2
*Model_Space
70
0
10
0
20
0
30
0
3
*Model_Space
0
ENDBLK
5
21
100
AcDbEntity
8
0
100
AcDbBlockEnd
0
BLOCK
5
1C
100
AcDbEntity
8
0
100
AcDbBlockBegin
2
*Paper_Space
70
0
10
0
20
0
30
0
3
*Paper_Space
0
ENDBLK
5
1D
100
AcDbEntity
8
0
100
AcDbBlockEnd
0
BLOCK
5
24
100
AcDbEntity
8
0
100
AcDbBlockBegin
2
*Paper_Space0
70
0
10
0
20
0
30
0
3
*Paper_Space0
0
ENDBLK
5
25
100
AcDbEntity
8
0
100
AcDbBlockEnd
0
BLOCK
5
129
100
AcDbEntity
8
0
100
AcDbBlockBegin
2
*D1
70
1
10
0
20
0
30
0
3
*D1
0
LINE
5
12B
100
AcDbEntity
8
0
62
256
6
ByLayer
370
-2
48
1
60
0
100
AcDbLine
10
0
20
-1.5875
30
0
11
0
21
-22.352503
31
0
39
0
210
0
220
0
230
1
0
LINE
5
12C
100
AcDbEntity
8
0
62
256
6
ByLayer
370
-2
48
1
60
0
100
AcDbLine
10
89.1586
20
-9.1375
30
0
11
89.1586
21
-22.352503
31
0
39
0
210
0
220
0
230
1
0
LINE
5
12D
100
AcDbEntity
8
0
62
256
6
ByLayer
370
-2
48
1
60
0
100
AcDbLine
10
3.5
20
-20.352503
30
0
11
85.6586
21
-20.352503
31
0
39
0
210
0
220
0
230
1
0
SOLID
5
12E
100
AcDbEntity
8
0
62
256
6
ByLayer
370
-1
48
1
60
0
100
AcDbTrace
10
3.5
20
-19.76917
30
0
11
3.5
21
-20.935837
31
0
12
0
22
-20.352503
32
0
13
0
23
-20.352503
33
0
39
0
210
0
220
0
230
1
0
SOLID
5
12F
100
AcDbEntity
8
0
62
256
6
ByLayer
370
-1
48
1
60
0
100
AcDbTrace
10
85.6586
20
-20.935837
30
0
11
85.6586
21
-19.76917
31
0
12
89.1586
22
-20.352503
32
0
13
89.1586
23
-20.352503
33
0
39
0
210
0
220
0
230
1
0
MTEXT
5
130
100
AcDbEntity
8
0
62
256
6
ByLayer
370
18
48
1
60
0
100
AcDbMText
10
44.5793
20
-13.352503
30
0
210
0
220
0
230
1
1
\A1;89.16
40
3.5
41
0
44
1
50
0
71
5
72
5
7
iso_b_vert
0
POINT
5
131
100
AcDbEntity
8
Defpoints
62
0
6
ByLayer
370
-1
48
1
60
0
100
AcDbPoint
10
0
20
0
30
0
39
0
210
0
220
0
230
1
50
360
0
POINT
5
132
100
AcDbEntity
8
Defpoints
62
0
6
ByLayer
370
-1
48
1
60
0
100
AcDbPoint
10
89.1586
20
-7.55
30
0
39
0
210
0
220
0
230
1
50
360
0
POINT
5
133
100
AcDbEntity
8
Defpoints
62
0
6
ByLayer
370
-1
48
1
60
0
100
AcDbPoint
10
89.1586
20
-20.352503
30
0
39
0
210
0
220
0
230
1
50
360
0
ENDBLK
5
12A
100
AcDbEntity
8
0
100
AcDbBlockEnd
0
BLOCK
5
13B
100
AcDbEntity
8
0
100
AcDbBlockBegin
2
_U0
70
0
10
0
20
0
30
0
3
_U0
0
MTEXT
5
135
100
AcDbEntity
8
2
62
256
6
ByLayer
370
13
48
1
60
0
100
AcDbMText
10
39.879435
20
-19.31987
30
0
210
0
220
0
230
1
1
\W0.6713;89,16
40
3.5
41
0
44
1.084337
50
0
71
7
72
5
7
iso_b_vert
0
LINE
5
136
100
AcDbEntity
8
2
62
256
6
ByLayer
370
13
48
1
60
0
100
AcDbLine
10
0
20
-1.5875
30
0
11
0
21
-22.352503
31
0
39
0
210
0
220
0
230
1
0
LINE
5
137
100
AcDbEntity
8
2
62
256
6
ByLayer
370
13
48
1
60
0
100
AcDbLine
10
89.1586
20
-9.1375
30
0
11
89.1586
21
-22.352503
31
0
39
0
210
0
220
0
230
1
0
LINE
5
138
100
AcDbEntity
8
2
62
256
6
ByLayer
370
13
48
1
60
0
100
AcDbLine
10
0
20
-20.352503
30
0
11
89.1586
21
-20.352503
31
0
39
0
210
0
220
0
230
1
0
SOLID
5
139
100
AcDbEntity
8
2
62
256
6
ByLayer
370
18
48
1
60
0
100
AcDbTrace
10
0
20
-20.352503
30
0
11
3.499998
21
-19.891719
31
0
12
3.500002
22
-20.813287
32
0
13
3.500002
23
-20.813287
33
0
39
0
210
0
220
0
230
1
0
SOLID
5
13A
100
AcDbEntity
8
2
62
256
6
ByLayer
370
18
48
1
60
0
100
AcDbTrace
10
89.1586
20
-20.352503
30
0
11
85.658602
21
-20.813287
31
0
12
85.658598
22
-19.891719
32
0
13
85.658598
23
-19.891719
33
0
39
0
210
0
220
0
230
1
0
ENDBLK
5
13C
100
AcDbEntity
8
0
100
AcDbBlockEnd
0
BLOCK
5
141
100
AcDbEntity
8
0
100
AcDbBlockBegin
2
*D3
70
1
10
0
20
0
30
0
3
*D3
0
LINE
5
143
100
AcDbEntity
8
0
62
256
6
ByLayer
370
-2
48
1
60
0
100
AcDbLine
10
-50
20
-11.5875
30
0
11
-50
21
-43.192985
31
0
39
0
210
0
220
0
230
1
0
LINE
5
144
100
AcDbEntity
8
0
62
256
6
ByLayer
370
-2
48
1
60
0
100
AcDbLine
10
92
20
-1.5875
30
0
11
92
21
-43.192985
31
0
39
0
210
0
220
0
230
1
0
LINE
5
145
100
AcDbEntity
8
0
62
256
6
ByLayer
370
-2
48
1
60
0
100
AcDbLine
10
-46.5
20
-41.192985
30
0
11
88.5
21
-41.192985
31
0
39
0
210
0
220
0
230
1
0
SOLID
5
146
100
AcDbEntity
8
0
62
256
6
ByLayer
370
-1
48
1
60
0
100
AcDbTrace
10
-46.5
20
-40.609652
30
0
11
-46.5
21
-41.776319
31
0
12
-50
22
-41.192985
32
0
13
-50
23
-41.192985
33
0
39
0
210
0
220
0
230
1
0
SOLID
5
147
100
AcDbEntity
8
0
62
256
6
ByLayer
370
-1
48
1
60
0
100
AcDbTrace
10
88.5
20
-41.776319
30
0
11
88.5
21
-40.609652
31
0
12
92
22
-41.192985
32
0
13
92
23
-41.192985
33
0
39
0
210
0
220
0
230
1
0
MTEXT
5
148
100
AcDbEntity
8
0
62
256
6
ByLayer
370
18
48
1
60
0
100
AcDbMText
10
21
20
-34.192985
30
0
210
0
220
0
230
1
1
\A1;142.00
40
3.5
41
0
44
1
50
0
71
5
72
5
7
iso_b_vert
0
POINT
5
149
100
AcDbEntity
8
Defpoints
62
0
6
ByLayer
370
-1
48
1
60
0
100
AcDbPoint
10
-50
20
-10
30
0
39
0
210
0
220
0
230
1
50
360
0
POINT
5
14A
100
AcDbEntity
8
Defpoints
62
0
6
ByLayer
370
-1
48
1
60
0
100
AcDbPoint
10
92
20
0
30
0
39
0
210
0
220
0
230
1
50
360
0
POINT
5
14B
100
AcDbEntity
8
Defpoints
62
0
6
ByLayer
370
-1
48
1
60
0
100
AcDbPoint
10
92
20
-41.192985
30
0
39
0
210
0
220
0
230
1
50
360
0
ENDBLK
5
142
100
AcDbEntity
8
0
100
AcDbBlockEnd
0
BLOCK
5
153
100
AcDbEntity
8
0
100
AcDbBlockBegin
2
_U1
70
0
10
0
20
0
30
0
3
_U1
0
MTEXT
5
14D
100
AcDbEntity
8
SK2
62
256
6
ByLayer
370
13
48
1
60
0
100
AcDbMText
10
14.808135
20
-40.160352
30
0
210
0
220
0
230
1
1
\W0.7145;142,00
40
3.5
41
0
44
1.084337
50
0
71
7
72
5
7
iso_b_vert
0
LINE
5
14E
100
AcDbEntity
8
SK2
62
256
6
ByLayer
370
13
48
1
60
0
100
AcDbLine
10
-50
20
-11.5875
30
0
11
-50
21
-43.192985
31
0
39
0
210
0
220
0
230
1
0
LINE
5
14F
100
AcDbEntity
8
SK2
62
256
6
ByLayer
370
13
48
1
60
0
100
AcDbLine
10
92
20
-1.5875
30
0
11
92
21
-43.192985
31
0
39
0
210
0
220
0
230
1
0
LINE
5
150
100
AcDbEntity
8
SK2
62
256
6
ByLayer
370
13
48
1
60
0
100
AcDbLine
10
-50
20
-41.192985
30
0
11
92
21
-41.192985
31
0
39
0
210
0
220
0
230
1
0
SOLID
5
151
100
AcDbEntity
8
SK2
62
256
6
ByLayer
370
18
48
1
60
0
100
AcDbTrace
10
-50
20
-41.192985
30
0
11
-46.500002
21
-40.732202
31
0
12
-46.499998
22
-41.653769
32
0
13
-46.499998
23
-41.653769
33
0
39
0
210
0
220
0
230
1
0
SOLID
5
152
100
AcDbEntity
8
SK2
62
256
6
ByLayer
370
18
48
1
60
0
100
AcDbTrace
10
92
20
-41.192985
30
0
11
88.500002
21
-41.653769
31
0
12
88.499998
22
-40.732202
32
0
13
88.499998
23
-40.732202
33
0
39
0
210
0
220
0
230
1
0
ENDBLK
5
154
100
AcDbEntity
8
0
100
AcDbBlockEnd
0
BLOCK
5
159
100
AcDbEntity
8
0
100
AcDbBlockBegin
2
*D5
70
1
10
0
20
0
30
0
3
*D5
0
LINE
5
15B
100
AcDbEntity
8
0
62
256
6
ByLayer
370
-2
48
1
60
0
100
AcDbLine
10
40.91
20
11.3875
30
0
11
40.91
21
21.159119
31
0
39
0
210
0
220
0
230
1
0
LINE
5
15C
100
AcDbEntity
8
0
62
256
6
ByLayer
370
-2
48
1
60
0
100
AcDbLine
10
92
20
1.5875
30
0
11
92
21
21.159119
31
0
39
0
210
0
220
0
230
1
0
LINE
5
15D
100
AcDbEntity
8
0
62
256
6
ByLayer
370
-2
48
1
60
0
100
AcDbLine
10
44.41
20
19.159119
30
0
11
88.5
21
19.159119
31
0
39
0
210
0
220
0
230
1
0
SOLID
5
15E
100
AcDbEntity
8
0
62
256
6
ByLayer
370
-1
48
1
60
0
100
AcDbTrace
10
44.41
20
19.742453
30
0
11
44.41
21
18.575786
31
0
12
40.91
22
19.159119
32
0
13
40.91
23
19.159119
33
0
39
0
210
0
220
0
230
1
0
SOLID
5
15F
100
AcDbEntity
8
0
62
256
6
ByLayer
370
-1
48
1
60
0
100
AcDbTrace
10
88.5
20
18.575786
30
0
11
88.5
21
19.742453
31
0
12
92
22
19.159119
32
0
13
92
23
19.159119
33
0
39
0
210
0
220
0
230
1
0
MTEXT
5
160
100
AcDbEntity
8
0
62
256
6
ByLayer
370
18
48
1
60
0
100
AcDbMText
10
66.455
20
26.159119
30
0
210
0
220
0
230
1
1
\A1;51.09
40
3.5
41
0
44
1
50
0
71
5
72
5
7
iso_b_vert
0
POINT
5
161
100
AcDbEntity
8
Defpoints
62
0
6
ByLayer
370
-1
48
1
60
0
100
AcDbPoint
10
40.91
20
9.8
30
0
39
0
210
0
220
0
230
1
50
360
0
POINT
5
162
100
AcDbEntity
8
Defpoints
62
0
6
ByLayer
370
-1
48
1
60
0
100
AcDbPoint
10
92
20
0
30
0
39
0
210
0
220
0
230
1
50
360
0
POINT
5
163
100
AcDbEntity
8
Defpoints
62
0
6
ByLayer
370
-1
48
1
60
0
100
AcDbPoint
10
92
20
19.159119
30
0
39
0
210
0
220
0
230
1
50
360
0
ENDBLK
5
15A
100
AcDbEntity
8
0
100
AcDbBlockEnd
0
BLOCK
5
16B
100
AcDbEntity
8
0
100
AcDbBlockBegin
2
_U2
70
0
10
0
20
0
30
0
3
_U2
0
MTEXT
5
165
100
AcDbEntity
8
SK2
62
256
6
ByLayer
370
13
48
1
60
0
100
AcDbMText
10
61.755135
20
20.191753
30
0
210
0
220
0
230
1
1
\W0.6791;51,09
40
3.5
41
0
44
1.084337
50
0
71
7
72
5
7
iso_b_vert
0
LINE
5
166
100
AcDbEntity
8
SK2
62
256
6
ByLayer
370
13
48
1
60
0
100
AcDbLine
10
40.91
20
11.3875
30
0
11
40.91
21
21.159119
31
0
39
0
210
0
220
0
230
1
0
LINE
5
167
100
AcDbEntity
8
SK2
62
256
6
ByLayer
370
13
48
1
60
0
100
AcDbLine
10
92
20
1.5875
30
0
11
92
21
21.159119
31
0
39
0
210
0
220
0
230
1
0
LINE
5
168
100
AcDbEntity
8
SK2
62
256
6
ByLayer
370
13
48
1
60
0
100
AcDbLine
10
40.91
20
19.159119
30
0
11
92
21
19.159119
31
0
39
0
210
0
220
0
230
1
0
SOLID
5
169
100
AcDbEntity
8
SK2
62
256
6
ByLayer
370
18
48
1
60
0
100
AcDbTrace
10
40.91
20
19.159119
30
0
11
44.409998
21
19.619903
31
0
12
44.410002
22
18.698335
32
0
13
44.410002
23
18.698335
33
0
39
0
210
0
220
0
230
1
0
SOLID
5
16A
100
AcDbEntity
8
SK2
62
256
6
ByLayer
370
18
48
1
60
0
100
AcDbTrace
10
92
20
19.159119
30
0
11
88.500002
21
18.698335
31
0
12
88.499998
22
19.619903
32
0
13
88.499998
23
19.619903
33
0
39
0
210
0
220
0
230
1
0
ENDBLK
5
16C
100
AcDbEntity
8
0
100
AcDbBlockEnd
0
BLOCK
5
171
100
AcDbEntity
8
0
100
AcDbBlockBegin
2
*D7
70
1
10
0
20
0
30
0
3
*D7
0
LINE
5
173
100
AcDbEntity
8
0
62
256
6
ByLayer
370
-2
48
1
60
0
100
AcDbLine
10
92
20
-1.5875
30
0
11
92
21
-22.352503
31
0
39
0
210
0
220
0
230
1
0
LINE
5
174
100
AcDbEntity
8
0
62
256
6
ByLayer
370
-2
48
1
60
0
100
AcDbLine
10
89.1586
20
-9.1375
30
0
11
89.1586
21
-22.352503
31
0
39
0
210
0
220
0
230
1
0
LINE
5
175
100
AcDbEntity
8
0
62
256
6
ByLayer
370
-2
48
1
60
0
100
AcDbLine
10
92
20
-20.352503
30
0
11
120.333333
21
-20.352503
31
0
39
0
210
0
220
0
230
1
0
LINE
5
176
100
AcDbEntity
8
0
62
256
6
ByLayer
370
-2
48
1
60
0
100
AcDbLine
10
95.5
20
-20.352503
30
0
11
99
21
-20.352503
31
0
39
0
210
0
220
0
230
1
0
LINE
5
177
100
AcDbEntity
8
0
62
256
6
ByLayer
370
-2
48
1
60
0
100
AcDbLine
10
85.6586
20
-20.352503
30
0
11
82.1586
21
-20.352503
31
0
39
0
210
0
220
0
230
1
0
SOLID
5
178
100
AcDbEntity
8
0
62
256
6
ByLayer
370
-1
48
1
60
0
100
AcDbTrace
10
95.5
20
-19.76917
30
0
11
95.5
21
-20.935837
31
0
12
92
22
-20.352503
32
0
13
92
23
-20.352503
33
0
39
0
210
0
220
0
230
1
0
SOLID
5
179
100
AcDbEntity
8
0
62
256
6
ByLayer
370
-1
48
1
60
0
100
AcDbTrace
10
85.6586
20
-20.935837
30
0
11
85.6586
21
-19.76917
31
0
12
89.1586
22
-20.352503
32
0
13
89.1586
23
-20.352503
33
0
39
0
210
0
220
0
230
1
0
MTEXT
5
17A
100
AcDbEntity
8
0
62
256
6
ByLayer
370
18
48
1
60
0
100
AcDbMText
10
109.666667
20
-13.352503
30
0
210
0
220
0
230
1
1
\A1;2.84
40
3.5
41
0
44
1
50
0
71
5
72
5
7
iso_b_vert
0
POINT
5
17B
100
AcDbEntity
8
Defpoints
62
0
6
ByLayer
370
-1
48
1
60
0
100
AcDbPoint
10
92
20
0
30
0
39
0
210
0
220
0
230
1
50
360
0
POINT
5
17C
100
AcDbEntity
8
Defpoints
62
0
6
ByLayer
370
-1
48
1
60
0
100
AcDbPoint
10
89.1586
20
-7.55
30
0
39
0
210
0
220
0
230
1
50
360
0
POINT
5
17D
100
AcDbEntity
8
Defpoints
62
0
6
ByLayer
370
-1
48
1
60
0
100
AcDbPoint
10
89.1586
20
-20.352503
30
0
39
0
210
0
220
0
230
1
50
360
0
ENDBLK
5
172
100
AcDbEntity
8
0
100
AcDbBlockEnd
0
BLOCK
5
185
100
AcDbEntity
8
0
100
AcDbBlockBegin
2
_U3
70
0
10
0
20
0
30
0
3
_U3
0
MTEXT
5
17F
100
AcDbEntity
8
SK2
62
256
6
ByLayer
370
13
48
1
60
0
100
AcDbMText
10
97.967593
20
-19.31987
30
0
210
0
220
0
230
1
1
\W0.7383;2,84
40
3.5
41
0
44
1.084337
50
0
71
7
72
5
7
iso_b_vert
0
LINE
5
180
100
AcDbEntity
8
SK2
62
256
6
ByLayer
370
13
48
1
60
0
100
AcDbLine
10
92
20
-1.5875
30
0
11
92
21
-22.352503
31
0
39
0
210
0
220
0
230
1
0
LINE
5
181
100
AcDbEntity
8
SK2
62
256
6
ByLayer
370
13
48
1
60
0
100
AcDbLine
10
89.1586
20
-9.1375
30
0
11
89.1586
21
-22.352503
31
0
39
0
210
0
220
0
230
1
0
LINE
5
182
100
AcDbEntity
8
SK2
62
256
6
ByLayer
370
13
48
1
60
0
100
AcDbLine
10
80.4086
20
-20.352503
30
0
11
106.180758
21
-20.352503
31
0
39
0
210
0
220
0
230
1
0
SOLID
5
183
100
AcDbEntity
8
SK2
62
256
6
ByLayer
370
18
48
1
60
0
100
AcDbTrace
10
92
20
-20.352503
30
0
11
95.499998
21
-19.891719
31
0
12
95.500002
22
-20.813287
32
0
13
95.500002
23
-20.813287
33
0
39
0
210
0
220
0
230
1
0
SOLID
5
184
100
AcDbEntity
8
SK2
62
256
6
ByLayer
370
18
48
1
60
0
100
AcDbTrace
10
89.1586
20
-20.352503
30
0
11
85.658602
21
-20.813287
31
0
12
85.658598
22
-19.891719
32
0
13
85.658598
23
-19.891719
33
0
39
0
210
0
220
0
230
1
0
ENDBLK
5
186
100
AcDbEntity
8
0
100
AcDbBlockEnd
0
BLOCK
5
18B
100
AcDbEntity
8
0
100
AcDbBlockBegin
2
*D9
70
1
10
0
20
0
30
0
3
*D9
0
LINE
5
18D
100
AcDbEntity
8
0
62
256
6
ByLayer
370
-2
48
1
60
0
100
AcDbLine
10
89.1586
20
9.1375
30
0
11
89.1586
21
13.685371
31
0
39
0
210
0
220
0
230
1
0
LINE
5
18E
100
AcDbEntity
8
0
62
256
6
ByLayer
370
-2
48
1
60
0
100
AcDbLine
10
43.1586
20
9.1375
30
0
11
43.1586
21
13.685371
31
0
39
0
210
0
220
0
230
1
0
LINE
5
18F
100
AcDbEntity
8
0
62
256
6
ByLayer
370
-2
48
1
60
0
100
AcDbLine
10
85.6586
20
11.685371
30
0
11
46.6586
21
11.685371
31
0
39
0
210
0
220
0
230
1
0
SOLID
5
190
100
AcDbEntity
8
0
62
256
6
ByLayer
370
-1
48
1
60
0
100
AcDbTrace
10
85.6586
20
11.102038
30
0
11
85.6586
21
12.268705
31
0
12
89.1586
22
11.685371
32
0
13
89.1586
23
11.685371
33
0
39
0
210
0
220
0
230
1
0
SOLID
5
191
100
AcDbEntity
8
0
62
256
6
ByLayer
370
-1
48
1
60
0
100
AcDbTrace
10
46.6586
20
12.268705
30
0
11
46.6586
21
11.102038
31
0
12
43.1586
22
11.685371
32
0
13
43.1586
23
11.685371
33
0
39
0
210
0
220
0
230
1
0
MTEXT
5
192
100
AcDbEntity
8
0
62
256
6
ByLayer
370
18
48
1
60
0
100
AcDbMText
10
66.1586
20
18.685371
30
0
210
0
220
0
230
1
1
\A1;46.00
40
3.5
41
0
44
1
50
0
71
5
72
5
7
iso_b_vert
0
POINT
5
193
100
AcDbEntity
8
Defpoints
62
0
6
ByLayer
370
-1
48
1
60
0
100
AcDbPoint
10
89.1586
20
7.55
30
0
39
0
210
0
220
0
230
1
50
360
0
POINT
5
194
100
AcDbEntity
8
Defpoints
62
0
6
ByLayer
370
-1
48
1
60
0
100
AcDbPoint
10
43.1586
20
7.55
30
0
39
0
210
0
220
0
230
1
50
360
0
POINT
5
195
100
AcDbEntity
8
Defpoints
62
0
6
ByLayer
370
-1
48
1
60
0
100
AcDbPoint
10
43.1586
20
11.685371
30
0
39
0
210
0
220
0
230
1
50
360
0
ENDBLK
5
18C
100
AcDbEntity
8
0
100
AcDbBlockEnd
0
BLOCK
5
19D
100
AcDbEntity
8
0
100
AcDbBlockBegin
2
_U4
70
0
10
0
20
0
30
0
3
_U4
0
MTEXT
5
197
100
AcDbEntity
8
SK2
62
256
6
ByLayer
370
13
48
1
60
0
100
AcDbMText
10
60.837035
20
12.718005
30
0
210
0
220
0
230
1
1
\W0.7581;46,00
40
3.5
41
0
44
1.084337
50
0
71
7
72
5
7
iso_b_vert
0
LINE
5
198
100
AcDbEntity
8
SK2
62
256
6
ByLayer
370
13
48
1
60
0
100
AcDbLine
10
89.1586
20
9.1375
30
0
11
89.1586
21
13.685371
31
0
39
0
210
0
220
0
230
1
0
LINE
5
199
100
AcDbEntity
8
SK2
62
256
6
ByLayer
370
13
48
1
60
0
100
AcDbLine
10
43.1586
20
9.1375
30
0
11
43.1586
21
13.685371
31
0
39
0
210
0
220
0
230
1
0
LINE
5
19A
100
AcDbEntity
8
SK2
62
256
6
ByLayer
370
13
48
1
60
0
100
AcDbLine
10
89.1586
20
11.685371
30
0
11
43.1586
21
11.685371
31
0
39
0
210
0
220
0
230
1
0
SOLID
5
19B
100
AcDbEntity
8
SK2
62
256
6
ByLayer
370
18
48
1
60
0
100
AcDbTrace
10
89.1586
20
11.685371
30
0
11
85.658602
21
11.224588
31
0
12
85.658598
22
12.146155
32
0
13
85.658598
23
12.146155
33
0
39
0
210
0
220
0
230
1
0
SOLID
5
19C
100
AcDbEntity
8
SK2
62
256
6
ByLayer
370
18
48
1
60
0
100
AcDbTrace
10
43.1586
20
11.685371
30
0
11
46.658598
21
12.146155
31
0
12
46.658602
22
11.224588
32
0
13
46.658602
23
11.224588
33
0
39
0
210
0
220
0
230
1
0
ENDBLK
5
19E
100
AcDbEntity
8
0
100
AcDbBlockEnd
0
BLOCK
5
1A3
100
AcDbEntity
8
0
100
AcDbBlockBegin
2
*D11
70
1
10
0
20
0
30
0
3
*D11
0
LINE
5
1A5
100
AcDbEntity
8
0
62
256
6
ByLayer
370
-2
48
1
60
0
100
AcDbLine
10
-50
20
-11.5875
30
0
11
-50
21
-32.690158
31
0
39
0
210
0
220
0
230
1
0
LINE
5
1A6
100
AcDbEntity
8
0
62
256
6
ByLayer
370
-2
48
1
60
0
100
AcDbLine
10
89.1586
20
-9.1375
30
0
11
89.1586
21
-32.690158
31
0
39
0
210
0
220
0
230
1
0
LINE
5
1A7
100
AcDbEntity
8
0
62
256
6
ByLayer
370
-2
48
1
60
0
100
AcDbLine
10
-46.5
20
-30.690158
30
0
11
85.6586
21
-30.690158
31
0
39
0
210
0
220
0
230
1
0
SOLID
5
1A8
100
AcDbEntity
8
0
62
256
6
ByLayer
370
-1
48
1
60
0
100
AcDbTrace
10
-46.5
20
-30.106825
30
0
11
-46.5
21
-31.273491
31
0
12
-50
22
-30.690158
32
0
13
-50
23
-30.690158
33
0
39
0
210
0
220
0
230
1
0
SOLID
5
1A9
100
AcDbEntity
8
0
62
256
6
ByLayer
370
-1
48
1
60
0
100
AcDbTrace
10
85.6586
20
-31.273491
30
0
11
85.6586
21
-30.106825
31
0
12
89.1586
22
-30.690158
32
0
13
89.1586
23
-30.690158
33
0
39
0
210
0
220
0
230
1
0
MTEXT
5
1AA
100
AcDbEntity
8
0
62
256
6
ByLayer
370
18
48
1
60
0
100
AcDbMText
10
19.5793
20
-23.690158
30
0
210
0
220
0
230
1
1
\A1;139.16
40
3.5
41
0
44
1
50
0
71
5
72
5
7
iso_b_vert
0
POINT
5
1AB
100
AcDbEntity
8
Defpoints
62
0
6
ByLayer
370
-1
48
1
60
0
100
AcDbPoint
10
-50
20
-10
30
0
39
0
210
0
220
0
230
1
50
360
0
POINT
5
1AC
100
AcDbEntity
8
Defpoints
62
0
6
ByLayer
370
-1
48
1
60
0
100
AcDbPoint
10
89.1586
20
-7.55
30
0
39
0
210
0
220
0
230
1
50
360
0
POINT
5
1AD
100
AcDbEntity
8
Defpoints
62
0
6
ByLayer
370
-1
48
1
60
0
100
AcDbPoint
10
89.1586
20
-30.690158
30
0
39
0
210
0
220
0
230
1
50
360
0
ENDBLK
5
1A4
100
AcDbEntity
8
0
100
AcDbBlockEnd
0
BLOCK
5
1B5
100
AcDbEntity
8
0
100
AcDbBlockBegin
2
_U5
70
0
10
0
20
0
30
0
3
_U5
0
MTEXT
5
1AF
100
AcDbEntity
8
SK2
62
256
6
ByLayer
370
13
48
1
60
0
100
AcDbMText
10
14.009135
20
-29.657524
30
0
210
0
220
0
230
1
1
\W0.6440;139,16
40
3.5
41
0
44
1.084337
50
0
71
7
72
5
7
iso_b_vert
0
LINE
5
1B0
100
AcDbEntity
8
SK2
62
256
6
ByLayer
370
13
48
1
60
0
100
AcDbLine
10
-50
20
-11.5875
30
0
11
-50
21
-32.690158
31
0
39
0
210
0
220
0
230
1
0
LINE
5
1B1
100
AcDbEntity
8
SK2
62
256
6
ByLayer
370
13
48
1
60
0
100
AcDbLine
10
89.1586
20
-9.1375
30
0
11
89.1586
21
-32.690158
31
0
39
0
210
0
220
0
230
1
0
LINE
5
1B2
100
AcDbEntity
8
SK2
62
256
6
ByLayer
370
13
48
1
60
0
100
AcDbLine
10
-50
20
-30.690158
30
0
11
89.1586
21
-30.690158
31
0
39
0
210
0
220
0
230
1
0
SOLID
5
1B3
100
AcDbEntity
8
SK2
62
256
6
ByLayer
370
18
48
1
60
0
100
AcDbTrace
10
-50
20
-30.690158
30
0
11
-46.500002
21
-30.229374
31
0
12
-46.499998
22
-31.150942
32
0
13
-46.499998
23
-31.150942
33
0
39
0
210
0
220
0
230
1
0
SOLID
5
1B4
100
AcDbEntity
8
SK2
62
256
6
ByLayer
370
18
48
1
60
0
100
AcDbTrace
10
89.1586
20
-30.690158
30
0
11
85.658602
21
-31.150942
31
0
12
85.658598
22
-30.229374
32
0
13
85.658598
23
-30.229374
33
0
39
0
210
0
220
0
230
1
0
ENDBLK
5
1B6
100
AcDbEntity
8
0
100
AcDbBlockEnd
0
ENDSEC
0
SECTION
2
ENTITIES
0
ARC
5
BC
100
AcDbEntity
8
1
62
256
6
ByLayer
370
18
48
1
60
0
100
AcDbCircle
39
0
10
0.8
20
-10.65
30
0
40
0.849999999999999
210
0
220
0
230
1
100
AcDbArc
50
90
51
118.072487
0
ARC
5
BD
100
AcDbEntity
8
1
62
256
6
ByLayer
370
18
48
1
60
0
100
AcDbCircle
39
0
10
0.8
20
10.65
30
0
40
0.849999999999999
210
0
220
0
230
1
100
AcDbArc
50
241.927513
51
270
0
ARC
5
BE
100
AcDbEntity
8
1
62
256
6
ByLayer
370
18
48
1
60
0
100
AcDbCircle
39
0
10
0
20
-9.15
30
0
40
0.849999999999998
210
0
220
0
230
1
100
AcDbArc
50
270
51
298.072487
0
ARC
5
BF
100
AcDbEntity
8
1
62
256
6
ByLayer
370
18
48
1
60
0
100
AcDbCircle
39
0
10
0
20
9.15
30
0
40
0.849999999999998
210
0
220
0
230
1
100
AcDbArc
50
61.927513
51
90
0
ARC
5
C0
100
AcDbEntity
8
SK2
62
256
6
ByLayer
370
13
48
1
60
0
100
AcDbCircle
39
0
10
50.7086
20
0
30
0
40
22.8562993977201
210
0
220
0
230
1
100
AcDbArc
50
182.694021
51
225
0
ARC
5
C1
100
AcDbEntity
8
SK2
62
256
6
ByLayer
370
13
48
1
60
0
100
AcDbCircle
39
0
10
50.7086
20
0
30
0
40
22.8562993977201
210
0
220
0
230
1
100
AcDbArc
50
135
51
166.267849
0
ELLIPSE
5
C2
100
AcDbEntity
8
1
62
256
6
ByLayer
370
13
48
1
60
0
100
AcDbEllipse
10
136.194174
20
40.892771
30
0
11
-59.4999999999999
21
7.28640780524313E-15
31
0
210
0
220
0
230
1
40
0.99863
41
0.670640868197833
42
0.71908050749243
0
ELLIPSE
5
C3
100
AcDbEntity
8
1
62
256
6
ByLayer
370
13
48
1
60
0
100
AcDbEllipse
10
30.791602
20
-73.525324
30
0
11
-30.8671785999096
21
67.2339829256177
31
0
210
0
220
0
230
1
40
0.803479
41
-0.430749965608482
42
-0.258852824835009
0
POINT
5
70
100
AcDbEntity
8
80
62
256
6
ByLayer
370
18
48
1
60
0
100
AcDbPoint
10
0
20
0
30
0
39
0
210
0
220
0
230
1
50
360
0
POINT
5
72
100
AcDbEntity
8
81
62
256
6
ByLayer
370
18
48
1
60
0
100
AcDbPoint
10
92
20
0
30
0
39
0
210
0
220
0
230
1
50
360
0
POINT
5
74
100
AcDbEntity
8
1
62
256
6
ByLayer
370
18
48
1
60
1
100
AcDbPoint
10
89.1586
20
-7.55
30
0
39
0
210
0
220
0
230
1
50
360
0
POINT
5
76
100
AcDbEntity
8
1
62
256
6
ByLayer
370
18
48
1
60
1
100
AcDbPoint
10
-50
20
-10
30
0
39
0
210
0
220
0
230
1
50
360
0
POINT
5
77
100
AcDbEntity
8
1
62
256
6
ByLayer
370
18
48
1
60
1
100
AcDbPoint
10
40.91
20
9.8
30
0
39
0
210
0
220
0
230
1
50
360
0
POINT
5
78
100
AcDbEntity
8
1
62
256
6
ByLayer
370
18
48
1
60
1
100
AcDbPoint
10
89.1586
20
-7.55
30
0
39
0
210
0
220
0
230
1
50
360
0
POINT
5
79
100
AcDbEntity
8
1
62
256
6
ByLayer
370
18
48
1
60
1
100
AcDbPoint
10
89.1586
20
7.55
30
0
39
0
210
0
220
0
230
1
50
360
0
POINT
5
7A
100
AcDbEntity
8
1
62
256
6
ByLayer
370
18
48
1
60
1
100
AcDbPoint
10
43.1586
20
7.55
30
0
39
0
210
0
220
0
230
1
50
360
0
POINT
5
7B
100
AcDbEntity
8
1
62
256
6
ByLayer
370
18
48
1
60
1
100
AcDbPoint
10
-50
20
-10
30
0
39
0
210
0
220
0
230
1
50
360
0
POINT
5
7C
100
AcDbEntity
8
1
62
256
6
ByLayer
370
18
48
1
60
1
100
AcDbPoint
10
89.1586
20
-7.55
30
0
39
0
210
0
220
0
230
1
50
360
0
SPLINE
5
C4
100
AcDbEntity
8
1
62
256
6
ByLayer
370
13
48
1
60
0
100
AcDbSpline
70
4
71
3
72
19
73
15
40
0
40
0
40
0
40
0
40
0.0260701385670354
40
0.096366948470261
40
0.166663758373488
40
0.307257378179939
40
0.377554188083166
40
0.447850997986391
40
0.588444617792843
40
0.658741427696069
40
0.729038237599295
40
0.869631857405746
40
0.939928667308973
40
1
40
1
40
1
40
1
41
1
10
89.6702533279126
20
3.0222580031264
30
0
41
1
10
89.6266718791476
20
3.02219249035488
30
0
41
1
10
89.4655775340024
20
3.02178923938106
30
0
41
1
10
89.1869840789314
20
3.02006063949659
30
0
41
1
10
88.7168458894536
20
3.01431894013168
30
0
41
1
10
88.2467630953406
20
3.00478802971477
30
0
41
1
10
87.7767324888739
20
2.99146679749907
30
0
41
1
10
87.3065933411241
20
2.97538294440883
30
0
41
1
10
86.8365095509973
20
2.95553948578623
30
0
41
1
10
86.366478498718
20
2.93194553452323
30
0
41
1
10
85.8963393686982
20
2.90567502351248
30
0
41
1
10
85.4262560781422
20
2.87571403518148
30
0
41
1
10
84.9733183276365
20
2.84332116533752
30
0
41
1
10
84.755349350631
20
2.82663669995747
30
0
41
1
10
84.6549145746091
20
2.81872851746905
30
0
0
SPLINE
5
C5
100
AcDbEntity
8
1
62
256
6
ByLayer
370
18
48
1
60
0
100
AcDbSpline
70
4
71
3
72
32
73
28
40
0
40
0
40
0
40
0
40
0.124999999999997
40
0.124999999999997
40
0.187499999999998
40
0.187499999999998
40
0.249999999999999
40
0.249999999999999
40
0.375000000000001
40
0.375000000000001
40
0.500000000000003
40
0.500000000000003
40
0.625000000000006
40
0.625000000000006
40
0.687500000000004
40
0.687500000000004
40
0.750000000000003
40
0.750000000000003
40
0.812500000000001
40
0.812500000000001
40
0.875
40
0.875
40
0.937499999999998
40
0.937499999999998
40
0.968749999999999
40
0.968749999999999
40
1
40
1
40
1
40
1
41
1
10
21.8154092448517
20
-0.800093224884904
30
0
41
1
10
21.5178419773638
20
-0.687768275686011
30
0
41
1
10
21.2122893752169
20
-0.596737331865285
30
0
41
1
10
20.7428827320879
20
-0.489938861078628
30
0
41
1
10
20.5844237762767
20
-0.459340227341158
30
0
41
1
10
20.2679282765977
20
-0.408541181457082
30
0
41
1
10
20.1093869215409
20
-0.388211860601018
30
0
41
1
10
19.6329202321098
20
-0.34178646075182
30
0
41
1
10
19.3141590140082
20
-0.330138154860094
30
0
41
1
10
18.674443576946
20
-0.344762902412441
30
0
41
1
10
18.3522074832815
20
-0.371360390952759
30
0
41
1
10
17.719708726855
20
-0.463227117853705
30
0
41
1
10
17.4078933961778
20
-0.528288059329896
30
0
41
1
10
16.9477917642219
20
-0.658641693725826
30
0
41
1
10
16.7957061835795
20
-0.707601692877631
30
0
41
1
10
16.4944910383473
20
-0.818198566651603
30
0
41
1
10
16.3449116059138
20
-0.880070980614477
30
0
41
1
10
16.0539925705939
20
-1.01702737271847
30
0
41
1
10
15.9121866223856
20
-1.09220409540143
30
0
41
1
10
15.6376984141807
20
-1.25920206846831
30
0
41
1
10
15.5045240470441
20
-1.35150304003776
30
0
41
1
10
15.2574726937128
20
-1.55279725303373
30
0
41
1
10
15.1427075536894
20
-1.66208550064712
30
0
41
1
10
14.9889839564634
20
-1.84405269030415
30
0
41
1
10
14.9405917277351
20
-1.90814554152661
30
0
41
1
10
14.8528405922324
20
-2.04214728778962
30
0
41
1
10
14.8139199605182
20
-2.11130394200606
30
0
41
1
10
14.7806532424035
20
-2.18290569804128
30
0
0
SPLINE
5
C6
100
AcDbEntity
8
1
62
256
6
ByLayer
370
18
48
1
60
0
100
AcDbSpline
70
4
71
3
72
26
73
22
40
0
40
0
40
0
40
0
40
0.097109121342773
40
0.097109121342773
40
0.187398209208494
40
0.187398209208494
40
0.277687297074216
40
0.277687297074216
40
0.367976384939937
40
0.367976384939937
40
0.458265472805658
40
0.458265472805658
40
0.638843648537101
40
0.638843648537101
40
0.729132736402826
40
0.729132736402826
40
0.819421824268551
40
0.819421824268551
40
0.909710912134275
40
0.909710912134275
40
1
40
1
40
1
40
1
41
1
10
88.9553779241999
20
0.671401538529324
30
0
41
1
10
88.9894361184735
20
0.702419582816958
30
0
41
1
10
89.0249680567227
20
0.738932107624436
30
0
41
1
10
89.0961749967307
20
0.820264528532675
30
0
41
1
10
89.1315628265316
20
0.864303684112002
30
0
41
1
10
89.2025513651392
20
0.960120094145651
30
0
41
1
10
89.238364703479
20
1.01212789506729
30
0
41
1
10
89.3100977504488
20
1.12439864020922
30
0
41
1
10
89.3460224754721
20
1.18465949309748
30
0
41
1
10
89.4172317079008
20
1.31385172464084
30
0
41
1
10
89.4524692232976
20
1.38278027054042
30
0
41
1
10
89.5529277270369
20
1.59773446083426
30
0
41
1
10
89.6142708415924
20
1.75334550966187
30
0
41
1
10
89.6865730738984
20
2.00791711066862
30
0
41
1
10
89.7072178513237
20
2.09650487725878
30
0
41
1
10
89.7374178070237
20
2.27603009177068
30
0
41
1
10
89.7471707817288
20
2.36757633336219
30
0
41
1
10
89.7524858685384
20
2.55424426818908
30
0
41
1
10
89.747807016662
20
2.6499100141879
30
0
41
1
10
89.7216168644094
20
2.83771594121981
30
0
41
1
10
89.7001915927345
20
2.93059391074249
30
0
41
1
10
89.6702533279127
20
3.02225800312641
30
0
0
SPLINE
5
C7
100
AcDbEntity
8
1
62
256
6
ByLayer
370
18
48
1
60
0
100
AcDbSpline
70
4
71
3
72
22
73
18
40
0
40
0
40
0
40
0
40
0.125000000000004
40
0.125000000000004
40
0.187500000000006
40
0.187500000000006
40
0.250000000000009
40
0.250000000000009
40
0.375000000000005
40
0.375000000000005
40
0.500000000000002
40
0.500000000000002
40
0.750000000000001
40
0.750000000000001
40
0.875000000000001
40
0.875000000000001
40
1
40
1
40
1
40
1
41
1
10
90.9748560918592
20
-1.57143763110741
30
0
41
1
10
90.8919336611486
20
-1.59828789422991
30
0
41
1
10
90.8118887308015
20
-1.60431711900964
30
0
41
1
10
90.6954954923491
20
-1.58677546337719
30
0
41
1
10
90.6573158275356
20
-1.5764559273361
30
0
41
1
10
90.5821403350394
20
-1.54725083781548
30
0
41
1
10
90.545035361819
20
-1.52825567146905
30
0
41
1
10
90.4375375680291
20
-1.46024656261471
30
0
41
1
10
90.3702296710364
20
-1.40014646526311
30
0
41
1
10
90.2430714649381
20
-1.25468310704767
30
0
41
1
10
90.1830662383444
20
-1.16875358462761
30
0
41
1
10
90.0178633986754
20
-0.884797604490018
30
0
41
1
10
89.9252541133899
20
-0.659370250368426
30
0
41
1
10
89.8077230972151
20
-0.277156106678092
30
0
41
1
10
89.7727108176604
20
-0.143925051012502
30
0
41
1
10
89.7105434911676
20
0.131242183453821
30
0
41
1
10
89.6833088474539
20
0.273464360492426
30
0
41
1
10
89.6596582130032
20
0.420005726137049
30
0
0
SPLINE
5
C8
100
AcDbEntity
8
1
62
256
6
ByLayer
370
18
48
1
60
0
100
AcDbSpline
70
4
71
3
72
48
73
44
40
0
40
0
40
0
40
0
40
0.0624999999999977
40
0.0624999999999977
40
0.0781249999999973
40
0.0781249999999973
40
0.0937499999999969
40
0.0937499999999969
40
0.124999999999996
40
0.124999999999996
40
0.156249999999995
40
0.156249999999995
40
0.187499999999994
40
0.187499999999994
40
0.218749999999993
40
0.218749999999993
40
0.249999999999993
40
0.249999999999993
40
0.312499999999992
40
0.312499999999992
40
0.328124999999991
40
0.328124999999991
40
0.343749999999991
40
0.343749999999991
40
0.374999999999991
40
0.374999999999991
40
0.437499999999991
40
0.437499999999991
40
0.468749999999991
40
0.468749999999991
40
0.499999999999991
40
0.499999999999991
40
0.562499999999992
40
0.562499999999992
40
0.624999999999992
40
0.624999999999992
40
0.749999999999994
40
0.749999999999994
40
0.812499999999995
40
0.812499999999995
40
0.874999999999996
40
0.874999999999996
40
1
40
1
40
1
40
1
41
1
10
14.7806532424036
20
-2.1829056980412
30
0
41
1
10
14.5771990645379
20
-2.62081112525263
30
0
41
1
10
14.41235533811
20
-3.06371913714386
30
0
41
1
10
14.2645467845445
20
-3.62469513145379
30
0
41
1
10
14.2379004344892
20
-3.73749368415625
30
0
41
1
10
14.1914632183339
20
-3.96069086118433
30
0
41
1
10
14.171564560369
20
-4.0714483334506
30
0
41
1
10
14.1218760093846
20
-4.40118638976449
30
0
41
1
10
14.102073657652
20
-4.61763609075797
30
0
41
1
10
14.0898266142752
20
-5.0436451700518
30
0
41
1
10
14.0974197482786
20
-5.25358487340535
30
0
41
1
10
14.1411788964102
20
-5.66474888901587
30
0
41
1
10
14.1768434134117
20
-5.86182899622685
30
0
41
1
10
14.2738892084731
20
-6.24030730918187
30
0
41
1
10
14.3352773122074
20
-6.42170134729807
30
0
41
1
10
14.4826309543973
20
-6.76972619169416
30
0
41
1
10
14.5691459495063
20
-6.93697957064771
30
0
41
1
10
14.8569717794533
20
-7.40660406939529
30
0
41
1
10
15.0874617053967
20
-7.68121827477029
30
0
41
1
10
15.4149815034572
20
-7.98677037907225
30
0
41
1
10
15.4824772814821
20
-8.04597255936145
30
0
41
1
10
15.6213049207615
20
-8.16074252325794
30
0
41
1
10
15.6927821520357
20
-8.21640873657569
30
0
41
1
10
15.9110233876875
20
-8.37695576586697
30
0
41
1
10
16.0619314127077
20
-8.47574799111237
30
0
41
1
10
16.5289776697231
20
-8.75088730888652
30
0
41
1
10
16.8593437390562
20
-8.90616313774419
30
0
41
1
10
17.3783381477201
20
-9.10619624192773
30
0
41
1
10
17.5552722156928
20
-9.16734406499344
30
0
41
1
10
17.9164284850864
20
-9.27968048412433
30
0
41
1
10
18.1010887789253
20
-9.3309703049475
30
0
41
1
10
18.661816757795
20
-9.47041436980581
30
0
41
1
10
19.0437643169838
20
-9.54418483133568
30
0
41
1
10
19.821387434539
20
-9.66156621392165
30
0
41
1
10
20.2170786513394
20
-9.70512641279359
30
0
41
1
10
21.422209128332
20
-9.79873929935724
30
0
41
1
10
22.2495840530461
20
-9.8121408671669
30
0
41
1
10
23.5199969364454
20
-9.77941369565838
30
0
41
1
10
23.9484561848626
20
-9.7595319187254
30
0
41
1
10
24.8084542075594
20
-9.70469469942117
30
0
41
1
10
25.2407836047943
20
-9.66972270940951
30
0
41
1
10
26.5442573427409
20
-9.54529870967386
30
0
41
1
10
27.4218692643932
20
-9.43649661968317
30
0
41
1
10
28.3070611200803
20
-9.30761926054078
30
0
0
SPLINE
5
C9
100
AcDbEntity
8
1
62
256
6
ByLayer
370
18
48
1
60
0
100
AcDbSpline
70
4
71
3
72
68
73
64
40
0
40
0
40
0
40
0
40
0.0194677546934065
40
0.0194677546934065
40
0.038935509386813
40
0.038935509386813
40
0.0778710187736261
40
0.0778710187736261
40
0.116806528160439
40
0.116806528160439
40
0.136274282853846
40
0.136274282853846
40
0.155742037547253
40
0.155742037547253
40
0.23361305632088
40
0.23361305632088
40
0.253080811014287
40
0.253080811014287
40
0.272548565707694
40
0.272548565707694
40
0.311484075094509
40
0.311484075094509
40
0.330951829787916
40
0.330951829787916
40
0.350419584481323
40
0.350419584481323
40
0.389355093868137
40
0.389355093868137
40
0.428290603254952
40
0.428290603254952
40
0.467226112641766
40
0.467226112641766
40
0.506161622028581
40
0.506161622028581
40
0.545097131415395
40
0.545097131415395
40
0.564564886108803
40
0.564564886108803
40
0.58403264080221
40
0.58403264080221
40
0.603500395495618
40
0.603500395495618
40
0.622968150189026
40
0.622968150189026
40
0.661903659575841
40
0.661903659575841
40
0.700839168962656
40
0.700839168962656
40
0.739774678349471
40
0.739774678349471
40
0.778710187736287
40
0.778710187736287
40
0.817645697123102
40
0.817645697123102
40
0.856581206509917
40
0.856581206509917
40
0.895516715896732
40
0.895516715896732
40
0.934452225283548
40
0.934452225283548
40
0.973387734670363
40
0.973387734670363
40
1
40
1
40
1
40
1
41
1
10
43.1586
20
1.7571001263166
30
0
41
1
10
43.395879405637
20
1.63617694033761
30
0
41
1
10
43.6329159167119
20
1.51456335960322
30
0
41
1
10
44.1065618450872
20
1.26985520799516
30
0
41
1
10
44.3431953738802
20
1.14680052914966
30
0
41
1
10
45.0533348808573
20
0.77726797221456
30
0
41
1
10
45.5261360074574
20
0.528596550000401
30
0
41
1
10
46.4728668035067
20
0.0311792659169612
30
0
41
1
10
46.9461979557092
20
-0.218770855676382
30
0
41
1
10
47.6574475985503
20
-0.592754581459872
30
0
41
1
10
47.8947802459737
20
-0.717597102948304
30
0
41
1
10
48.3687794608858
20
-0.966004909214888
30
0
41
1
10
48.605538468837
20
-1.08970046354207
30
0
41
1
10
49.7893820249168
20
-1.70396054853083
30
0
41
1
10
50.7339680715179
20
-2.18614427354137
30
0
41
1
10
51.9171639473093
20
-2.77001507949439
30
0
41
1
10
52.153923936506
20
-2.88562724531846
30
0
41
1
10
52.627928203077
20
-3.11391931175802
30
0
41
1
10
52.8651681082083
20
-3.22679763415769
30
0
41
1
10
53.5762230983063
20
-3.55992993309837
30
0
41
1
10
54.0491828441951
20
-3.7763348408231
30
0
41
1
10
54.7587644178413
20
-4.09041196771059
30
0
41
1
10
54.9951784586109
20
-4.19355183554723
30
0
41
1
10
55.4678390747667
20
-4.39677196595841
30
0
41
1
10
55.7040832709328
20
-4.49715499815608
30
0
41
1
10
56.4135848257124
20
-4.79007426038874
30
0
41
1
10
56.8867519388986
20
-4.97646894786772
30
0
41
1
10
57.8355761946062
20
-5.33120107113754
30
0
41
1
10
58.3092794907503
20
-5.49998439712127
30
0
41
1
10
59.2559419407753
20
-5.81764050251948
30
0
41
1
10
59.7282922946471
20
-5.96937633406469
30
0
41
1
10
60.674148515633
20
-6.2463122241513
30
0
41
1
10
61.1468976366393
20
-6.37377066969245
30
0
41
1
10
62.0943355018992
20
-6.60631200912721
30
0
41
1
10
62.5690220908767
20
-6.71148830903351
30
0
41
1
10
63.2781592126056
20
-6.85122520031595
30
0
41
1
10
63.5141148995059
20
-6.89535340693121
30
0
41
1
10
63.9852330273264
20
-6.97705813978874
30
0
41
1
10
64.2204951089357
20
-7.01448833515687
30
0
41
1
10
64.690632649264
20
-7.08295194478632
30
0
41
1
10
64.9253932063755
20
-7.114022939622
30
0
41
1
10
65.3944208765573
20
-7.170493226508
30
0
41
1
10
65.6287737985962
20
-7.19600989081596
30
0
41
1
10
66.331642080957
20
-7.26229292227458
30
0
41
1
10
66.7994233959453
20
-7.29310092276143
30
0
41
1
10
67.7355629699995
20
-7.33154302010146
30
0
41
1
10
68.2032628595894
20
-7.33856119270698
30
0
41
1
10
69.1405139966834
20
-7.32624092693726
30
0
41
1
10
69.6091554063822
20
-7.30869082443922
30
0
41
1
10
70.549533029056
20
-7.2460249820397
30
0
41
1
10
71.0205898667788
20
-7.20117697884697
30
0
41
1
10
71.9662659780348
20
-7.0878920698857
30
0
41
1
10
72.4408779048867
20
-7.01782308382229
30
0
41
1
10
73.3876902575084
20
-6.85605259355691
30
0
41
1
10
73.86001559615
20
-6.76387986876713
30
0
41
1
10
74.8052773130232
20
-6.55346259142331
30
0
41
1
10
75.2775544862931
20
-6.43564980329856
30
0
41
1
10
76.2236076312049
20
-6.17901026066144
30
0
41
1
10
76.6969523961826
20
-6.03941312466313
30
0
41
1
10
77.6450053563119
20
-5.74128813035742
30
0
41
1
10
78.1177635404592
20
-5.58195891800582
30
0
41
1
10
78.9135379625957
20
-5.29778038675775
30
0
41
1
10
79.2362812018355
20
-5.17798752200753
30
0
41
1
10
79.5590836229567
20
-5.05399406598573
30
0
0
SPLINE
5
CA
100
AcDbEntity
8
1
62
256
6
ByLayer
370
18
48
1
60
0
100
AcDbSpline
70
4
71
3
72
12
73
8
40
0
40
0
40
0
40
0
40
0.135546222255675
40
0.135546222255675
40
0.308436977804542
40
0.308436977804542
40
1
40
1
40
1
40
1
41
1
10
51.5273084617552
20
-7.33289626860903
30
0
41
1
10
51.1497462485621
20
-7.37275042527861
30
0
41
1
10
50.7712598579286
20
-7.40453913560725
30
0
41
1
10
49.9071714728231
20
-7.45798679809906
30
0
41
1
10
49.4238302706536
20
-7.47424690874195
30
0
41
1
10
47.0124459173052
20
-7.48759910083047
30
0
41
1
10
45.0972413346328
20
-7.28075213831227
30
0
41
1
10
43.1586000000028
20
-6.86737503995667
30
0
0
SPLINE
5
CB
100
AcDbEntity
8
1
62
256
6
ByLayer
370
18
48
1
60
0
100
AcDbSpline
70
4
71
3
72
20
73
16
40
0
40
0
40
0
40
0
40
0.200767925961761
40
0.200767925961761
40
0.401535851923523
40
0.401535851923523
40
0.501919814904402
40
0.501919814904402
40
0.602303777885281
40
0.602303777885281
40
0.702687740866159
40
0.702687740866159
40
0.803071703847038
40
0.803071703847038
40
1
40
1
40
1
40
1
41
1
10
28.3070611200803
20
-9.3076192605408
30
0
41
1
10
28.8338028374466
20
-9.19144335900128
30
0
41
1
10
29.3566892940243
20
-9.05535813579809
30
0
41
1
10
30.3999388777557
20
-8.74689932277988
30
0
41
1
10
30.9199724806025
20
-8.57440721931874
30
0
41
1
10
31.6987785867183
20
-8.28939002463937
30
0
41
1
10
31.9580100111846
20
-8.18986850544428
30
0
41
1
10
32.4768682613058
20
-7.98269911512858
30
0
41
1
10
32.7364035316718
20
-7.87499357118705
30
0
41
1
10
33.2553169522558
20
-7.6510101506932
30
0
41
1
10
33.5147279718365
20
-7.53474447461602
30
0
41
1
10
34.0345962545002
20
-7.29469055265412
30
0
41
1
10
34.2947484866654
20
-7.17062659846633
30
0
41
1
10
35.0659991582031
20
-6.79118174988358
30
0
41
1
10
35.5787188567472
20
-6.52521181506822
30
0
41
1
10
36.093529024976
20
-6.24442679770775
30
0
0
SPLINE
5
CC
100
AcDbEntity
8
1
62
256
6
ByLayer
370
18
48
1
60
0
100
AcDbSpline
70
4
71
3
72
20
73
16
40
0
40
0
40
0
40
0
40
0.250000000000002
40
0.250000000000002
40
0.375000000000004
40
0.375000000000004
40
0.437500000000003
40
0.437500000000003
40
0.500000000000002
40
0.500000000000002
40
0.75
40
0.75
40
0.875
40
0.875
40
1
40
1
40
1
40
1
41
1
10
89.2632274736231
20
-7.12546478570744
30
0
41
1
10
89.1018865611593
20
-7.00696187349487
30
0
41
1
10
88.9579599139689
20
-6.84750971781406
30
0
41
1
10
88.7692218034774
20
-6.54448451054276
30
0
41
1
10
88.7108627749604
20
-6.4327682463456
30
0
41
1
10
88.6305878975139
20
-6.24811350842401
30
0
41
1
10
88.6050627079073
20
-6.18370992930536
30
0
41
1
10
88.5570895705782
20
-6.05068607151534
30
0
41
1
10
88.5345578236969
20
-5.98188315391587
30
0
41
1
10
88.4291333102934
20
-5.62647643611137
30
0
41
1
10
88.3677308441899
20
-5.30603066565382
30
0
41
1
10
88.311764271205
20
-4.76845486930219
30
0
41
1
10
88.2992034990376
20
-4.5787993540668
30
0
41
1
10
88.2871222755361
20
-4.18795283151607
30
0
41
1
10
88.2874663955105
20
-3.98603068269082
30
0
41
1
10
88.2941654105427
20
-3.77764001644743
30
0
0
SPLINE
5
CD
100
AcDbEntity
8
1
62
256
6
ByLayer
370
18
48
1
60
0
100
AcDbSpline
70
4
71
1
72
4
73
2
40
0
40
0
40
1
40
1
41
1
10
89.3151011871662
20
-7.20448473579398
30
0
41
1
10
90.9654265042597
20
-1.63307983642002
30
0
0
SPLINE
5
CE
100
AcDbEntity
8
1
62
256
6
ByLayer
370
18
48
1
60
0
100
AcDbSpline
70
4
71
3
72
12
73
8
40
0
40
0
40
0
40
0
40
0.5
40
0.5
40
0.75
40
0.75
40
1
40
1
40
1
40
1
41
1
10
89.6702533279127
20
3.02225800312641
30
0
41
1
10
89.6206306917865
20
3.17419112046866
30
0
41
1
10
89.5848963609149
20
3.32855507943219
30
0
41
1
10
89.5587778105252
20
3.56534067417991
30
0
41
1
10
89.5547289115191
20
3.64565003533795
30
0
41
1
10
89.5582896861303
20
3.80584145954381
30
0
41
1
10
89.565800731578
20
3.88557792174336
30
0
41
1
10
89.5804735050347
20
3.96490224804717
30
0
0
SPLINE
5
CF
100
AcDbEntity
8
1
62
256
6
ByLayer
370
18
48
1
60
0
100
AcDbSpline
70
4
71
3
72
8
73
4
40
0
40
0
40
0
40
0
40
1
40
1
40
1
40
1
41
1
10
89.6596582130034
20
0.420005726137049
30
0
41
1
10
89.6023397057511
20
0.441029740641966
30
0
41
1
10
89.5456304362201
20
0.461299797737979
30
0
41
1
10
89.4899569314535
20
0.480611275468959
30
0
0
SPLINE
5
D0
100
AcDbEntity
8
1
62
256
6
ByLayer
370
18
48
1
60
0
100
AcDbSpline
70
4
71
3
72
12
73
8
40
0
40
0
40
0
40
0
40
0.5
40
0.5
40
0.75
40
0.75
40
1
40
1
40
1
40
1
41
1
10
43.1586000000001
20
7.09834065926447
30
0
41
1
10
42.7564458572135
20
7.39381005484441
30
0
41
1
10
42.3656007585616
20
7.65014152913662
30
0
41
1
10
41.7897957117895
20
7.97619928450777
30
0
41
1
10
41.5994142476786
20
8.0755341269477
30
0
41
1
10
41.2213525318883
20
8.2542865217309
30
0
41
1
10
41.0336678773484
20
8.33367622265376
30
0
41
1
10
40.8466235421107
20
8.40352290201574
30
0
0
SPLINE
5
D1
100
AcDbEntity
8
1
62
256
6
ByLayer
370
18
48
1
60
0
100
AcDbSpline
70
4
71
3
72
14
73
10
40
0
40
0
40
0
40
0
40
0.25
40
0.25
40
0.5
40
0.5
40
0.75
40
0.75
40
1
40
1
40
1
40
1
41
1
10
35.6142288036262
20
-5.95332523740308
30
0
41
1
10
34.4840110381837
20
-5.53570467026267
30
0
41
1
10
33.3480459002462
20
-5.11304703452049
30
0
41
1
10
31.0658264250673
20
-4.26265580692069
30
0
41
1
10
29.9195722064749
20
-3.83486493325199
30
0
41
1
10
27.6180339434387
20
-2.97559290860895
30
0
41
1
10
26.4627481350529
20
-2.54409595871516
30
0
41
1
10
24.1444808505958
20
-1.67642509263047
30
0
41
1
10
22.9814950968039
20
-1.24026440092814
30
0
41
1
10
21.8154092448517
20
-0.800093224884932
30
0
0
SPLINE
5
D2
100
AcDbEntity
8
1
62
256
6
ByLayer
370
18
48
1
60
0
100
AcDbSpline
70
4
71
3
72
8
73
4
40
0
40
0
40
0
40
0
40
1
40
1
40
1
40
1
41
1
10
90.9748560918637
20
-1.57143763111188
30
0
41
1
10
90.9771163311915
20
-1.57374290172055
30
0
41
1
10
90.9793767540736
20
-1.57604799237487
30
0
41
1
10
90.9816373604663
20
-1.57835290303169
30
0
0
SPLINE
5
D3
100
AcDbEntity
8
1
62
256
6
ByLayer
370
18
48
1
60
0
100
AcDbSpline
70
4
71
3
72
8
73
4
40
0
40
0
40
0
40
0
40
1
40
1
40
1
40
1
41
1
10
88.4921035579785
20
0.829991066525082
30
0
41
1
10
88.8786171073247
20
0.679039076664509
30
0
41
1
10
89.2677058179215
20
0.541862815135573
30
0
41
1
10
89.6596582130032
20
0.420005726137077
30
0
0
SPLINE
5
D4
100
AcDbEntity
8
1
62
256
6
ByLayer
370
18
48
1
60
0
100
AcDbSpline
70
4
71
3
72
10
73
6
40
0
40
0
40
0
40
0
40
0.5
40
0.5
40
1
40
1
40
1
40
1
41
1
10
89.3151011871659
20
-7.20448473579364
30
0
41
1
10
89.3093227050219
20
-7.18531764788429
30
0
41
1
10
89.3016003617839
20
-7.16948595705617
30
0
41
1
10
89.284045187779
20
-7.14366411565521
30
0
41
1
10
89.2741099723772
20
-7.13345784695113
30
0
41
1
10
89.2632274736233
20
-7.12546478570746
30
0
0
SPLINE
5
D5
100
AcDbEntity
8
1
62
256
6
ByLayer
370
18
48
1
60
0
100
AcDbSpline
70
4
71
3
72
8
73
4
40
0
40
0
40
0
40
0
40
1
40
1
40
1
40
1
41
1
10
91.9995887247418
20
0.149761372451877
30
0
41
1
10
91.8013829974125
20
0.678301842481488
30
0
41
1
10
91.6107134622464
20
1.21340430081639
30
0
41
1
10
91.4256770489513
20
1.75424283755279
30
0
0
SPLINE
5
D6
100
AcDbEntity
8
1
62
256
6
ByLayer
370
18
48
1
60
0
100
AcDbSpline
70
4
71
3
72
40
73
36
40
0
40
0
40
0
40
0
40
0.0701630437469682
40
0.0701630437469682
40
0.140326087493936
40
0.140326087493936
40
0.210489131240904
40
0.210489131240904
40
0.245570653114389
40
0.245570653114389
40
0.280652174987873
40
0.280652174987873
40
0.350815218734841
40
0.350815218734841
40
0.420978262481809
40
0.420978262481809
40
0.491141306228777
40
0.491141306228777
40
0.561304349975746
40
0.561304349975746
40
0.631467393722714
40
0.631467393722714
40
0.701630437469682
40
0.701630437469682
40
0.77179348121665
40
0.77179348121665
40
0.841956524963618
40
0.841956524963618
40
0.912119568710586
40
0.912119568710586
40
0.947201090584071
40
0.947201090584071
40
0.982282612457555
40
0.982282612457555
40
1
40
1
40
1
40
1
41
1
10
88.4921035579784
20
0.82999106652511
30
0
41
1
10
88.0198828773141
20
1.07932165073848
30
0
41
1
10
87.5482251545409
20
1.32725053104002
30
0
41
1
10
86.6042238033082
20
1.81680449859965
30
0
41
1
10
86.1324725262411
20
2.05940983620923
30
0
41
1
10
85.1873443078688
20
2.53591372696334
30
0
41
1
10
84.7139674018931
20
2.7711393824469
30
0
41
1
10
84.0036276032974
20
3.11507516049318
30
0
41
1
10
83.7670718182974
20
3.22834329355109
30
0
41
1
10
83.2945862123644
20
3.4515032462084
30
0
41
1
10
83.0584471936771
20
3.5612933710072
30
0
41
1
10
82.3498329647722
20
3.88607845867398
30
0
41
1
10
81.8778316378922
20
4.09701136007206
30
0
41
1
10
80.9327819432061
20
4.50352865411247
30
0
41
1
10
80.4603405729861
20
4.70011902540782
30
0
41
1
10
79.5133238141525
20
5.07443253977371
30
0
41
1
10
79.0395614657689
20
5.25310272670689
30
0
41
1
10
78.0935760498467
20
5.59025307289048
30
0
41
1
10
77.6214904811715
20
5.74898991984426
30
0
41
1
10
76.6764828699833
20
6.04552803101723
30
0
41
1
10
76.2041974201779
20
6.18457395884025
30
0
41
1
10
75.2579231757719
20
6.44066448256572
30
0
41
1
10
74.7839663415973
20
6.55859813323411
30
0
41
1
10
73.8366314135044
20
6.76867463314247
30
0
41
1
10
73.3643013312849
20
6.86039338459398
30
0
41
1
10
72.4190378774784
20
7.02119312870505
30
0
41
1
10
71.9468905358141
20
7.09054503963301
30
0
41
1
10
71.0013520587887
20
7.20313574096187
30
0
41
1
10
70.5286056863413
20
7.24789444557027
30
0
41
1
10
69.8177236096912
20
7.29453558242358
30
0
41
1
10
69.5806723174361
20
7.30640300207281
30
0
41
1
10
69.1072158950712
20
7.32416440613977
30
0
41
1
10
68.8705739829744
20
7.33009963368778
30
0
41
1
10
68.5145173932665
20
7.33427236925746
30
0
41
1
10
68.3950949114295
20
7.33480866725259
30
0
41
1
10
68.2757071682036
20
7.33450185888861
30
0
0
SPLINE
5
D7
100
AcDbEntity
8
1
62
256
6
ByLayer
370
18
48
1
60
0
100
AcDbSpline
70
4
71
3
72
8
73
4
40
0
40
0
40
0
40
0
40
1
40
1
40
1
40
1
41
1
10
89.3751403469095
20
-7.49118081361991
30
0
41
1
10
89.5935850697948
20
-6.96060461691386
30
0
41
1
10
89.8163620573966
20
-6.41482686025472
30
0
41
1
10
90.0398418601409
20
-5.85082031880273
30
0
0
SPLINE
5
D8
100
AcDbEntity
8
1
62
256
6
ByLayer
370
18
48
1
60
0
100
AcDbSpline
70
4
71
3
72
10
73
6
40
0
40
0
40
0
40
0
40
0.5
40
0.5
40
1
40
1
40
1
40
1
41
1
10
89.5804735050348
20
3.96490224804717
30
0
41
1
10
89.6394010684725
20
4.28347796136919
30
0
41
1
10
89.711101973166
20
4.59897074894363
30
0
41
1
10
89.8670613216398
20
5.22692548354729
30
0
41
1
10
89.9515822137234
20
5.53932408703815
30
0
41
1
10
90.0398418601409
20
5.85082031880273
30
0
0
SPLINE
5
D9
100
AcDbEntity
8
1
62
256
6
ByLayer
370
18
48
1
60
0
100
AcDbSpline
70
4
71
3
72
8
73
4
40
0
40
0
40
0
40
0
40
1
40
1
40
1
40
1
41
1
10
91.4256770489513
20
-1.75424283755271
30
0
41
1
10
90.9590339097043
20
-3.11818298378711
30
0
41
1
10
90.4970779103339
20
-4.48370511963765
30
0
41
1
10
90.0398418601409
20
-5.85082031880273
30
0
0
SPLINE
5
DA
100
AcDbEntity
8
1
62
256
6
ByLayer
370
18
48
1
60
0
100
AcDbSpline
70
4
71
3
72
8
73
4
40
0
40
0
40
0
40
0
40
1
40
1
40
1
40
1
41
1
10
91.9995887247438
20
-0.149761372446619
30
0
41
1
10
91.8009724572269
20
-0.679396599457164
30
0
41
1
10
91.6103386547306
20
-1.21449981680035
30
0
41
1
10
91.4256770489513
20
-1.75424283755268
30
0
0
SPLINE
5
DB
100
AcDbEntity
8
1
62
256
6
ByLayer
370
18
48
1
60
0
100
AcDbSpline
70
4
71
3
72
8
73
4
40
0
40
0
40
0
40
0
40
1
40
1
40
1
40
1
41
1
10
89.3751403469095
20
7.49118081361993
30
0
41
1
10
89.5935765932649
20
6.96062520539473
30
0
41
1
10
89.8163531022014
20
6.41484946090426
30
0
41
1
10
90.0398418601409
20
5.8508203188027
30
0
0
SPLINE
5
DC
100
AcDbEntity
8
1
62
256
6
ByLayer
370
18
48
1
60
0
100
AcDbSpline
70
4
71
3
72
18
73
14
40
0
40
0
40
0
40
0
40
0.249999999999997
40
0.249999999999997
40
0.374999999999995
40
0.374999999999995
40
0.499999999999993
40
0.499999999999993
40
0.624999999999992
40
0.624999999999992
40
0.74999999999999
40
0.74999999999999
40
1
40
1
40
1
40
1
41
1
10
90.9816373417514
20
-1.57835291877691
30
0
41
1
10
91.058468302594
20
-1.51371105884419
30
0
41
1
10
91.1388985354204
20
-1.42453751648961
30
0
41
1
10
91.2652293513266
20
-1.25687490096598
30
0
41
1
10
91.3085645752255
20
-1.19484772100878
30
0
41
1
10
91.3958469560156
20
-1.06132013128021
30
0
41
1
10
91.4395824591184
20
-0.990207316815543
30
0
41
1
10
91.5272454852794
20
-0.839826052780097
30
0
41
1
10
91.5711728589256
20
-0.760555040116515
30
0
41
1
10
91.6591923254798
20
-0.594063924194359
30
0
41
1
10
91.7034810689217
20
-0.506407334408379
30
0
41
1
10
91.8338210181623
20
-0.237140111536007
30
0
41
1
10
91.9180835432131
20
-0.0481044412482845
30
0
41
1
10
91.9995887247418
20
0.149761372451877
30
0
0
SPLINE
5
DD
100
AcDbEntity
8
1
62
256
6
ByLayer
370
18
48
1
60
0
100
AcDbSpline
70
4
71
3
72
14
73
10
40
0
40
0
40
0
40
0
40
0.124339685957059
40
0.124339685957059
40
0.343254764467795
40
0.343254764467795
40
0.562169842978532
40
0.562169842978532
40
1
40
1
40
1
40
1
41
1
10
22.3797898974666
20
9.80007391355906
30
0
41
1
10
22.6170568351795
20
9.79987454294562
30
0
41
1
10
22.8560023591347
20
9.79651889405201
30
0
41
1
10
23.5199969364455
20
9.77941369565838
30
0
41
1
10
23.9484561848626
20
9.7595319187254
30
0
41
1
10
24.8084542075594
20
9.70469469942117
30
0
41
1
10
25.2407836047943
20
9.66972270940951
30
0
41
1
10
26.5442573427409
20
9.54529870967386
30
0
41
1
10
27.4218692643931
20
9.4364966196832
30
0
41
1
10
28.3070611200803
20
9.3076192605408
30
0
0
SPLINE
5
DE
100
AcDbEntity
8
1
62
256
6
ByLayer
370
13
48
1
60
0
100
AcDbSpline
70
4
71
3
72
66
73
62
40
0
40
0
40
0
40
0
40
0.0074327103050702
40
0.0204709682331925
40
0.0335092261613156
40
0.0595857420175611
40
0.072623999945684
40
0.0856622578738065
40
0.111738773730052
40
0.124777031658175
40
0.137815289586298
40
0.163891805442543
40
0.176930063370666
40
0.189968321298789
40
0.216044837155034
40
0.229083095083157
40
0.24212135301128
40
0.268197868867525
40
0.281236126795648
40
0.294274384723771
40
0.320350900580017
40
0.333389158508139
40
0.346427416436262
40
0.372503932292508
40
0.38554219022063
40
0.398580448148753
40
0.424656964004999
40
0.437695221933121
40
0.450733479861244
40
0.47680999571749
40
0.489848253645613
40
0.502886511573736
40
0.528963027429981
40
0.542001285358104
40
0.555039543286227
40
0.581116059142472
40
0.594154317070595
40
0.607192574998717
40
0.633269090854963
40
0.646307348783086
40
0.659345606711209
40
0.685422122567454
40
0.698460380495577
40
0.711498638423699
40
0.737575154279945
40
0.750613412208068
40
0.76365167013619
40
0.789728185992436
40
0.802766443920559
40
0.815804701848682
40
0.841881217704927
40
0.85491947563305
40
0.867957733561173
40
0.894034249417418
40
0.907072507345541
40
0.920110765273664
40
0.946187281129909
40
0.959225539058032
40
0.972263796986155
40
0.998340312842401
40
1
40
1
40
1
40
1
41
1
10
68.5866943139752
20
-0.128466536064223
30
0
41
1
10
68.5197015197369
20
-0.113865778635812
30
0
41
1
10
68.3351957946583
20
-0.0736283930913258
30
0
41
1
10
68.0331934089744
20
-0.007670821922602
30
0
41
1
10
67.5630551235281
20
0.0946621897191731
30
0
41
1
10
67.0929724556576
20
0.197063944535983
30
0
41
1
10
66.6229422765169
20
0.299355481390932
30
0
41
1
10
66.1528034642283
20
0.40103888375691
30
0
41
1
10
65.682719877318
20
0.502405846568535
30
0
41
1
10
65.212688579901
20
0.603275108085426
30
0
41
1
10
64.7425488493777
20
0.703255682668469
30
0
41
1
10
64.2724647986161
20
0.802539975690989
30
0
41
1
10
63.8024340626867
20
0.900952191152781
30
0
41
1
10
63.332295482392
20
0.998206596003568
30
0
41
1
10
62.862212956945
20
1.09439091463474
30
0
41
1
10
62.3921830637263
20
1.18932774763769
30
0
41
1
10
61.9220448336018
20
1.28284565061369
30
0
41
1
10
61.4519621733807
20
1.37492841264031
30
0
41
1
10
60.9819318878724
20
1.46540629076531
30
0
41
1
10
60.5117928948711
20
1.55422087248965
30
0
41
1
10
60.0417090490219
20
1.64125115023111
30
0
41
1
10
59.5716775219812
20
1.72633243953603
30
0
41
1
10
59.1015376658434
20
1.80952146379814
30
0
41
1
10
58.6314536647065
20
1.89059396111648
30
0
41
1
10
58.1614231376186
20
1.96939435066312
30
0
41
1
10
57.6912847441335
20
2.04609458633663
30
0
41
1
10
57.221202368237
20
2.12037140300074
30
0
41
1
10
56.7511725653292
20
2.19208235731301
30
0
41
1
10
56.2810344191784
20
2.26150950997205
30
0
41
1
10
55.8109517977075
20
2.32823304197253
30
0
41
1
10
55.3409214694154
20
2.39212097100229
30
0
41
1
10
54.8707824067953
20
2.45356303306536
30
0
41
1
10
54.4006984639541
20
2.51204536827245
30
0
41
1
10
53.9306668695009
20
2.56744600206931
30
0
41
1
10
53.4605270072886
20
2.6202597603669
30
0
41
1
10
52.9904431040524
20
2.66988189260905
30
0
41
1
10
52.5204127569255
20
2.71620161531902
30
0
41
1
10
52.0502745110522
20
2.75982111456602
30
0
41
1
10
51.5801922368086
20
2.80005887145358
30
0
41
1
10
51.1101624564573
20
2.83683127803308
30
0
41
1
10
50.640024268345
20
2.87082810143965
30
0
41
1
10
50.1699414937088
20
2.90129479037372
30
0
41
1
10
49.6999109367604
20
2.92815918870488
30
0
41
1
10
49.2297716910428
20
2.95219502621239
30
0
41
1
10
48.7596876304348
20
2.97257948952997
30
0
41
1
10
48.289655988844
20
2.98925278264527
30
0
41
1
10
47.8195160964045
20
3.00306690189282
30
0
41
1
10
47.349432209799
20
3.01313502350163
30
0
41
1
10
46.8794019432739
20
3.01940870330329
30
0
41
1
10
46.4092638058095
20
3.02282245043875
30
0
41
1
10
45.9391816770715
20
3.02244767836421
30
0
41
1
10
45.4691520100578
20
3.01827366659847
30
0
41
1
10
44.9990138350992
20
3.01128550381997
30
0
41
1
10
44.5289309268102
20
3.00051727407196
30
0
41
1
10
44.0589001775618
20
2.98596880493587
30
0
41
1
10
43.5887608500284
20
2.96867134009454
30
0
41
1
10
43.118676841732
20
2.94762766388888
30
0
41
1
10
42.6486453308611
20
2.92284996936248
30
0
41
1
10
42.1785055377132
20
2.89540814080095
30
0
41
1
10
41.8109830039395
20
2.87107015445246
30
0
41
1
10
41.5610016329888
20
2.85313209814839
30
0
41
1
10
41.5460432087652
20
2.85205373725861
30
0
0
SPLINE
5
DF
100
AcDbEntity
8
1
62
256
6
ByLayer
370
18
48
1
60
0
100
AcDbSpline
70
4
71
3
72
32
73
28
40
0
40
0
40
0
40
0
40
0.124999999999998
40
0.124999999999998
40
0.249999999999996
40
0.249999999999996
40
0.312499999999997
40
0.312499999999997
40
0.374999999999997
40
0.374999999999997
40
0.437499999999997
40
0.437499999999997
40
0.499999999999997
40
0.499999999999997
40
0.624999999999998
40
0.624999999999998
40
0.687499999999998
40
0.687499999999998
40
0.749999999999999
40
0.749999999999999
40
0.812499999999999
40
0.812499999999999
40
0.874999999999999
40
0.874999999999999
40
0.9375
40
0.9375
40
1
40
1
40
1
40
1
41
1
10
28.3070611200803
20
9.3076192605408
30
0
41
1
10
28.8338028374466
20
9.19144335900131
30
0
41
1
10
29.3566892940243
20
9.05535813579812
30
0
41
1
10
30.3999388777556
20
8.74689932277988
30
0
41
1
10
30.9199724806025
20
8.57440721931872
30
0
41
1
10
31.6987785867183
20
8.2893900246394
30
0
41
1
10
31.9580100111847
20
8.18986850544428
30
0
41
1
10
32.4768682613058
20
7.98269911512855
30
0
41
1
10
32.7364035316718
20
7.87499357118705
30
0
41
1
10
33.2553169522558
20
7.6510101506932
30
0
41
1
10
33.5147279718366
20
7.53474447461599
30
0
41
1
10
34.0345962545003
20
7.29469055265412
30
0
41
1
10
34.2947484866654
20
7.1706265984663
30
0
41
1
10
35.0759594507155
20
6.78628142133454
30
0
41
1
10
35.5987131792938
20
6.5148346969317
30
0
41
1
10
36.3861095665111
20
6.08456164488268
30
0
41
1
10
36.6495668982331
20
5.93759014927826
30
0
41
1
10
37.1750071916766
20
5.63801631800814
30
0
41
1
10
37.4372564459098
20
5.48510110630806
30
0
41
1
10
37.9614827832754
20
5.1738134185984
30
0
41
1
10
38.223711551529
20
5.01575053451842
30
0
41
1
10
38.7477174965447
20
4.69397868843612
30
0
41
1
10
39.009481428283
20
4.53024128793766
30
0
41
1
10
39.5337010447585
20
4.19852754443795
30
0
41
1
10
39.7960557597639
20
4.03043267681409
30
0
41
1
10
40.3208926164845
20
3.68927012971045
30
0
41
1
10
40.5834210715927
20
3.51625339799932
30
0
41
1
10
40.8466235421117
20
3.34154156069201
30
0
0
SPLINE
5
E0
100
AcDbEntity
8
1
62
256
6
ByLayer
370
18
48
1
60
0
100
AcDbSpline
70
4
71
3
72
22
73
18
40
0
40
0
40
0
40
0
40
0.147005371432783
40
0.147005371432783
40
0.294010742865567
40
0.294010742865567
40
0.44101611429835
40
0.44101611429835
40
0.588021485731133
40
0.588021485731133
40
0.735026857163916
40
0.735026857163916
40
0.808529542880308
40
0.808529542880308
40
0.8820322285967
40
0.8820322285967
40
1
40
1
40
1
40
1
41
1
10
89.3751403469096
20
7.49118081361991
30
0
41
1
10
88.8938431961991
20
7.45759283234401
30
0
41
1
10
88.4139847825283
20
7.41051859037293
30
0
41
1
10
87.4551850251779
20
7.2904021498795
30
0
41
1
10
86.9766954058229
20
7.21715996143647
30
0
41
1
10
86.0193704562204
20
7.04559048255166
30
0
41
1
10
85.5410848072944
20
6.9469221753653
30
0
41
1
10
84.5829456624594
20
6.7254184511259
30
0
41
1
10
84.1037112419211
20
6.60208657315792
30
0
41
1
10
83.1424375625679
20
6.33224236953961
30
0
41
1
10
82.6610793796182
20
6.18505851244913
30
0
41
1
10
81.936014665059
20
5.94767263857446
30
0
41
1
10
81.6939344069647
20
5.86565691226511
30
0
41
1
10
81.2089370027649
20
5.6958129644637
30
0
41
1
10
80.9663260532135
20
5.60813325047323
30
0
41
1
10
80.3358312494221
20
5.37439198423837
30
0
41
1
10
79.9486227767391
20
5.22418345425405
30
0
41
1
10
79.5622596445713
20
5.0684162116508
30
0
0
SPLINE
5
E1
100
AcDbEntity
8
1
62
256
6
ByLayer
370
18
48
1
60
0
100
AcDbSpline
70
4
71
3
72
8
73
4
40
0
40
0
40
0
40
0
40
1
40
1
40
1
40
1
41
1
10
47.5464654413951
20
-7.47512654036228
30
0
41
1
10
46.0886996075481
20
-7.47309244678044
30
0
41
1
10
44.6311412429908
20
-7.34723267618531
30
0
41
1
10
43.1586
20
-7.09834065926418
30
0
0
SPLINE
5
E2
100
AcDbEntity
8
1
62
256
6
ByLayer
370
18
48
1
60
0
100
AcDbSpline
70
4
71
3
72
8
73
4
40
0
40
0
40
0
40
0
40
1
40
1
40
1
40
1
41
1
10
89.2834856011415
20
-7.37184290606794
30
0
41
1
10
89.3112138543311
20
-7.42257657400177
30
0
41
1
10
89.3416815150016
20
-7.46220813382948
30
0
41
1
10
89.3751403469095
20
-7.49118081361991
30
0
0
SPLINE
5
E3
100
AcDbEntity
8
1
62
256
6
ByLayer
370
18
48
1
60
0
100
AcDbSpline
70
4
71
3
72
8
73
4
40
0
40
0
40
0
40
0
40
1
40
1
40
1
40
1
41
1
10
40.8466235421108
20
3.34154156069272
30
0
41
1
10
41.6111014646871
20
2.7500755238793
30
0
41
1
10
42.3793978696239
20
2.22351246582349
30
0
41
1
10
43.1585999999998
20
1.76865019358178
30
0
0
SPLINE
5
E4
100
AcDbEntity
8
1
62
256
6
ByLayer
370
18
48
1
60
0
100
AcDbSpline
70
4
71
3
72
12
73
8
40
0
40
0
40
0
40
0
40
0.5
40
0.5
40
0.75
40
0.75
40
1
40
1
40
1
40
1
41
1
10
43.1586000000001
20
-7.09834065926449
30
0
41
1
10
42.7564458572136
20
-7.39381005484427
30
0
41
1
10
42.3656007585618
20
-7.65014152913656
30
0
41
1
10
41.7897957117899
20
-7.9761992845076
30
0
41
1
10
41.5994142476789
20
-8.0755341269475
30
0
41
1
10
41.2213525318887
20
-8.25428652173071
30
0
41
1
10
41.033667877349
20
-8.33367622265362
30
0
41
1
10
40.8466235421114
20
-8.40352290201562
30
0
0
SPLINE
5
E5
100
AcDbEntity
8
1
62
256
6
ByLayer
370
18
48
1
60
0
100
AcDbSpline
70
4
71
3
72
18
73
14
40
0
40
0
40
0
40
0
40
0.249999999999999
40
0.249999999999999
40
0.374999999999999
40
0.374999999999999
40
0.499999999999999
40
0.499999999999999
40
0.75
40
0.75
40
0.875
40
0.875
40
1
40
1
40
1
40
1
41
1
10
88.4921035579785
20
0.829991066525054
30
0
41
1
10
88.4093254652375
20
0.436109328021104
30
0
41
1
10
88.3425067271264
20
0.0409771903336207
30
0
41
1
10
88.2663232852816
20
-0.553604891240497
30
0
41
1
10
88.2449550893609
20
-0.752114373737641
30
0
41
1
10
88.2105308854603
20
-1.14978459019261
30
0
41
1
10
88.1974493157081
20
-1.34997200261324
30
0
41
1
10
88.1716733518037
20
-1.9412207675214
30
0
41
1
10
88.1720496368844
20
-2.32426347029795
30
0
41
1
10
88.1983234605314
20
-2.8825425031996
30
0
41
1
10
88.2113877279978
20
-3.06590777157453
30
0
41
1
10
88.2462825024861
20
-3.42708553697912
30
0
41
1
10
88.2681551040455
20
-3.60490897588357
30
0
41
1
10
88.2941654105427
20
-3.77764001644743
30
0
0
SPLINE
5
E6
100
AcDbEntity
8
1
62
256
6
ByLayer
370
18
48
1
60
0
100
AcDbSpline
70
4
71
4
72
10
73
5
40
0
40
0
40
0
40
0
40
0
40
1
40
1
40
1
40
1
40
1
41
1
10
30.3494309598121
20
-3.99493888732246
30
0
41
1
10
29.8388384998791
20
-5.32310898062707
30
0
41
1
10
29.3282460399462
20
-6.65127907393168
30
0
41
1
10
28.8176535800132
20
-7.97944916723623
30
0
41
1
10
28.3070611200803
20
-9.3076192605408
30
0
0
SPLINE
5
E7
100
AcDbEntity
8
1
62
256
6
ByLayer
370
18
48
1
60
0
100
AcDbSpline
70
4
71
3
72
14
73
10
40
0
40
0
40
0
40
0
40
0.25
40
0.25
40
0.5
40
0.5
40
0.75
40
0.75
40
1
40
1
40
1
40
1
41
1
10
40.8466235421114
20
-8.40352290201565
30
0
41
1
10
40.4087728058281
20
-8.24435331630428
30
0
41
1
10
39.9723081287366
20
-8.07302875431759
30
0
41
1
10
39.1007185740402
20
-7.70746750707934
30
0
41
1
10
38.6652637214551
20
-7.51353741460224
30
0
41
1
10
37.7952351022359
20
-7.10325189677246
30
0
41
1
10
37.3600163652926
20
-6.88748964963878
30
0
41
1
10
36.488281952191
20
-6.43558011534017
30
0
41
1
10
36.0515362931259
20
-6.19970072724635
30
0
41
1
10
35.6142288036263
20
-5.95332523740305
30
0
0
SPLINE
5
E8
100
AcDbEntity
8
1
62
256
6
ByLayer
370
18
48
1
60
0
100
AcDbSpline
70
4
71
1
72
4
73
2
40
0
40
0
40
1
40
1
41
1
10
90.9654265042602
20
-1.63307983642022
30
0
41
1
10
90.9816373604687
20
-1.57835290302907
30
0
0
SPLINE
5
E9
100
AcDbEntity
8
1
62
256
6
ByLayer
370
18
48
1
60
0
100
AcDbSpline
70
4
71
3
72
48
73
44
40
0
40
0
40
0
40
0
40
0.035558715790205
40
0.035558715790205
40
0.07111743158041
40
0.07111743158041
40
0.142234863160818
40
0.142234863160818
40
0.213352294741227
40
0.213352294741227
40
0.248911010531431
40
0.248911010531431
40
0.266690368426534
40
0.266690368426534
40
0.284469726321637
40
0.284469726321637
40
0.426704589482465
40
0.426704589482465
40
0.462263305272672
40
0.462263305272672
40
0.480042663167775
40
0.480042663167775
40
0.497822021062878
40
0.497822021062878
40
0.568939452643291
40
0.568939452643291
40
0.711174315804117
40
0.711174315804117
40
0.72895367369922
40
0.72895367369922
40
0.746733031594323
40
0.746733031594323
40
0.782291747384529
40
0.782291747384529
40
0.853409178964941
40
0.853409178964941
40
0.924526610545353
40
0.924526610545353
40
0.960085326335559
40
0.960085326335559
40
0.995644042125764
40
0.995644042125764
40
1
40
1
40
1
40
1
41
1
10
89.2834856011415
20
-7.37184290606794
30
0
41
1
10
88.8000197337982
20
-7.3141118868582
30
0
41
1
10
88.3171383001507
20
-7.2428966577103
30
0
41
1
10
87.3505594247113
20
-7.07450266431155
30
0
41
1
10
86.8668146647769
20
-6.97718104711893
30
0
41
1
10
85.4218490362218
20
-6.64925541694163
30
0
41
1
10
84.4640333498471
20
-6.38222275897735
30
0
41
1
10
82.5498298310158
20
-5.76219365991597
30
0
41
1
10
81.593434766501
20
-5.40922111177957
30
0
41
1
10
80.1530298006086
20
-4.82347348455048
30
0
41
1
10
79.671902921547
20
-4.61887731948485
30
0
41
1
10
78.9478580047928
20
-4.29901477502074
30
0
41
1
10
78.7058318537856
20
-4.19009159034474
30
0
41
1
10
78.222692564034
20
-3.9689620176153
30
0
41
1
10
77.9815289169624
20
-3.85674112301749
30
0
41
1
10
75.8139839919586
20
-2.83313792252321
30
0
41
1
10
73.9081546941474
20
-1.82629282791618
30
0
41
1
10
71.5056655974934
20
-0.529889657527491
30
0
41
1
10
71.0241404711231
20
-0.268754354597093
30
0
41
1
10
70.2994680376877
20
0.124201251561857
30
0
41
1
10
70.0572620096929
20
0.255519963507879
30
0
41
1
10
69.5741920290303
20
0.516984627717108
30
0
41
1
10
69.3331091376975
20
0.647256179966433
30
0
41
1
10
68.1296626704049
20
1.29580568144021
30
0
41
1
10
67.1730378161379
20
1.80532735869755
30
0
41
1
10
64.3076592086285
20
3.28143560524052
30
0
41
1
10
62.4035096474465
20
4.19565420186592
30
0
41
1
10
60.2267228463758
20
5.07382976305576
30
0
41
1
10
59.9845387828268
20
5.16923865732701
30
0
41
1
10
59.5016762357687
20
5.35462296841229
30
0
41
1
10
59.2606767116949
20
5.44472370609074
30
0
41
1
10
58.5388123261959
20
5.70712953872896
30
0
41
1
10
58.0590524883762
20
5.87149361657023
30
0
41
1
10
56.6223431257667
20
6.33113235865142
30
0
41
1
10
55.6679626911714
20
6.59298123837425
30
0
41
1
10
53.7574932702319
20
7.02011864512176
30
0
41
1
10
52.8011061974455
20
7.1851629793205
30
0
41
1
10
51.3582062213911
20
7.35460405605977
30
0
41
1
10
50.8758808333237
20
7.39806786868729
30
0
41
1
10
49.9071714728232
20
7.45798679809906
30
0
41
1
10
49.4238302706536
20
7.47424690874195
30
0
41
1
10
48.8824742773083
20
7.47724447700659
30
0
41
1
10
48.8234081941232
20
7.47736758728706
30
0
41
1
10
48.7643540779144
20
7.47728699391547
30
0
0
SPLINE
5
EA
100
AcDbEntity
8
1
62
256
6
ByLayer
370
13
48
1
60
0
100
AcDbSpline
70
4
71
3
72
67
73
63
40
0
40
0
40
0
40
0
40
0.0041607737309254
40
0.0170146165826636
40
0.0298684594344012
40
0.055576145137876
40
0.0684299879896131
40
0.0812838308413511
40
0.106991516544827
40
0.119845359396565
40
0.132699202248303
40
0.158406887951778
40
0.171260730803515
40
0.184114573655252
40
0.209822259358728
40
0.222676102210465
40
0.235529945062204
40
0.261237630765679
40
0.274091473617416
40
0.286945316469155
40
0.31265300217263
40
0.325506845024367
40
0.338360687876105
40
0.36406837357958
40
0.376922216431318
40
0.389776059283056
40
0.415483744986531
40
0.428337587838269
40
0.441191430690007
40
0.466899116393482
40
0.479752959245219
40
0.492606802096958
40
0.518314487800433
40
0.53116833065217
40
0.544022173503908
40
0.569729859207383
40
0.582583702059121
40
0.595437544910859
40
0.621145230614334
40
0.633999073466072
40
0.64685291631781
40
0.672560602021285
40
0.685414444873022
40
0.69826828772476
40
0.723975973428235
40
0.736829816279973
40
0.749683659131711
40
0.775391344835186
40
0.788245187686924
40
0.801099030538661
40
0.826806716242137
40
0.839660559093874
40
0.852514401945613
40
0.878222087649088
40
0.891075930500825
40
0.903929773352563
40
0.929637459056038
40
0.942491301907776
40
0.955345144759513
40
0.981052830462989
40
0.993906673314727
40
1
40
1
40
1
40
1
41
1
10
74.6236469097614
20
-2.82330398700438
30
0
41
1
10
74.5856034917179
20
-2.82627110839752
30
0
41
1
10
74.4300309813821
20
-2.83827653834925
30
0
41
1
10
74.1569164387423
20
-2.85843068071262
30
0
41
1
10
73.6868875043285
20
-2.89052623991645
30
0
41
1
10
73.2168031410031
20
-2.91895642915591
30
0
41
1
10
72.7466657411283
20
-2.9436808814049
30
0
41
1
10
72.2766362577041
20
-2.96569209814788
30
0
41
1
10
71.8065506478746
20
-2.98395616961594
30
0
41
1
10
71.3364122711611
20
-2.99846417638193
30
0
41
1
10
70.8663823021028
20
-3.01018118235498
30
0
41
1
10
70.3962966397042
20
-3.01811243844841
30
0
41
1
10
69.926158332018
20
-3.02226017637318
30
0
41
1
10
69.4561286491217
20
-3.02356112022787
30
0
41
1
10
68.9860436160799
20
-3.02107232545853
30
0
41
1
10
68.5159062729513
20
-3.01481868072994
30
0
41
1
10
68.0458775243313
20
-3.00569295095332
30
0
41
1
10
67.5757932123776
20
-2.99280900600431
30
0
41
1
10
67.105655690025
20
-2.97620342618049
30
0
41
1
10
66.6356260517276
20
-2.95672624078369
30
0
41
1
10
66.1655402641217
20
-2.93356412730566
30
0
41
1
10
65.6954017333771
20
-2.9067827552031
30
0
41
1
10
65.2253716069182
20
-2.87716876078269
30
0
41
1
10
64.7552858259426
20
-2.84398631392375
30
0
41
1
10
64.285147521354
20
-2.80731333580366
30
0
41
1
10
63.8151179219119
20
-2.76787104805035
30
0
41
1
10
63.3450330603497
20
-2.72501001464073
30
0
41
1
10
62.8748958745049
20
-2.67882699105246
30
0
41
1
10
62.404867193688
20
-2.6299668787035
30
0
41
1
10
61.9347827962156
20
-2.57787052452375
30
0
41
1
10
61.4646450487649
20
-2.5226464699017
30
0
41
1
10
60.9946152173577
20
-2.46486254135533
30
0
41
1
10
60.5245292940187
20
-2.40405895628879
30
0
41
1
10
60.0543907034844
20
-2.3403643753291
30
0
41
1
10
59.5843605216969
20
-2.2742580873221
30
0
41
1
10
59.1142747330776
20
-2.20538286441561
30
0
41
1
10
58.6441365348993
20
-2.13387868599486
30
0
41
1
10
58.1741071162406
20
-2.06013423804768
30
0
41
1
10
57.7040225137192
20
-1.98389968467342
30
0
41
1
10
57.2338855575881
20
-1.90532861613255
30
0
41
1
10
56.7638570024267
20
-1.82471295498294
30
0
41
1
10
56.2937725552909
20
-1.74191236590951
30
0
41
1
10
55.8236345988954
20
-1.65709039686374
30
0
41
1
10
55.3536045805961
20
-1.57043914995231
30
0
41
1
10
54.8835185076551
20
-1.48192743700528
30
0
41
1
10
54.413379826795
20
-1.39172504132833
30
0
41
1
10
53.9433495610218
20
-1.29992536584035
30
0
41
1
10
53.4732637336571
20
-1.20660749520817
30
0
41
1
10
53.0031255782896
20
-1.11194969290878
30
0
41
1
10
52.5330962292819
20
-1.01594551881448
30
0
41
1
10
52.0630117237916
20
-0.918785447803629
30
0
41
1
10
51.5928748351021
20
-0.8206556622888
30
0
41
1
10
51.1228462860153
20
-0.721447812713222
30
0
41
1
10
50.6527617409287
20
-0.621463765841838
30
0
41
1
10
50.1826236044803
20
-0.520896176840267
30
0
41
1
10
49.7125934384952
20
-0.419529369090071
30
0
41
1
10
49.2425072638542
20
-0.317765902530169
30
0
41
1
10
48.7723685604377
20
-0.215788380610149
30
0
41
1
10
48.3023383366591
20
-0.113288837181301
30
0
41
1
10
47.8322526625432
20
-0.0107694319074199
30
0
41
1
10
47.4239323396263
20
0.0781248771847913
30
0
41
1
10
47.25071051964
20
0.115906270917094
30
0
41
1
10
47.1950042581085
20
0.128056791127193
30
0
0
SPLINE
5
EB
100
AcDbEntity
8
1
62
256
6
ByLayer
370
18
48
1
60
0
100
AcDbSpline
70
4
71
3
72
12
73
8
40
0
40
0
40
0
40
0
40
0.138328204911728
40
0.138328204911728
40
0.654477017890594
40
0.654477017890594
40
1
40
1
40
1
40
1
41
1
10
49.3236509203061
20
-7.30175109247185
30
0
41
1
10
49.1951422132951
20
-7.30152355082691
30
0
41
1
10
49.0666023363819
20
-7.3003526308641
30
0
41
1
10
48.4582375612837
20
-7.29033615690037
30
0
41
1
10
47.9778677383114
20
-7.26920682725924
30
0
41
1
10
47.1740516438182
20
-7.21201286686522
30
0
41
1
10
46.8511430342604
20
-7.18320382683586
30
0
41
1
10
46.5276669009963
20
-7.14850890399623
30
0
0
SPLINE
5
EC
100
AcDbEntity
8
1
62
256
6
ByLayer
370
13
48
1
60
0
100
AcDbSpline
70
4
71
3
72
10
73
6
40
0
40
0
40
0
40
0
40
0.141842633430272
40
0.141842633430272
40
1
40
1
40
1
40
1
41
1
10
46.5276669011991
20
-7.148508904018
30
0
41
1
10
46.3679282242202
20
-7.13137589016634
30
0
41
1
10
46.2080511524685
20
-7.11280756109159
30
0
41
1
10
45.0799465332634
20
-6.97177108983996
30
0
41
1
10
44.118263571577
20
-6.79966285965273
30
0
41
1
10
43.1586000000175
20
-6.58085753759934
30
0
0
SPLINE
5
ED
100
AcDbEntity
8
1
62
256
6
ByLayer
370
18
48
1
60
0
100
AcDbSpline
70
4
71
3
72
8
73
4
40
0
40
0
40
0
40
0
40
1
40
1
40
1
40
1
41
1
10
91.9995887247419
20
0.149761372451877
30
0
41
1
10
92.000137091755
20
0.049920457487957
30
0
41
1
10
92.0001370917549
20
-0.0499204574760199
30
0
41
1
10
91.9995887247419
20
-0.149761372439969
30
0
0
SPLINE
5
EE
100
AcDbEntity
8
1
62
256
6
ByLayer
370
18
48
1
60
0
100
AcDbSpline
70
4
71
3
72
66
73
62
40
0
40
0
40
0
40
0
40
0.0312500000000015
40
0.0312500000000015
40
0.062500000000003
40
0.062500000000003
40
0.0937500000000045
40
0.0937500000000045
40
0.125000000000006
40
0.125000000000006
40
0.156250000000007
40
0.156250000000007
40
0.187500000000009
40
0.187500000000009
40
0.21875000000001
40
0.21875000000001
40
0.250000000000012
40
0.250000000000012
40
0.312500000000013
40
0.312500000000013
40
0.343750000000014
40
0.343750000000014
40
0.375000000000014
40
0.375000000000014
40
0.406250000000014
40
0.406250000000014
40
0.421875000000014
40
0.421875000000014
40
0.437500000000014
40
0.437500000000014
40
0.468750000000013
40
0.468750000000013
40
0.500000000000013
40
0.500000000000013
40
0.625000000000011
40
0.625000000000011
40
0.64062500000001
40
0.64062500000001
40
0.65625000000001
40
0.65625000000001
40
0.687500000000009
40
0.687500000000009
40
0.718750000000008
40
0.718750000000008
40
0.750000000000007
40
0.750000000000007
40
0.781250000000006
40
0.781250000000006
40
0.812500000000005
40
0.812500000000005
40
0.843750000000004
40
0.843750000000004
40
0.859375000000003
40
0.859375000000003
40
0.875000000000003
40
0.875000000000003
40
0.906250000000002
40
0.906250000000002
40
0.937500000000001
40
0.937500000000001
40
1
40
1
40
1
40
1
41
1
10
89.3751403469095
20
-7.49118081361991
30
0
41
1
10
88.8910124297413
20
-7.45739528342725
30
0
41
1
10
88.4089022933504
20
-7.41000277333271
30
0
41
1
10
87.4467150190985
20
-7.28921842359017
30
0
41
1
10
86.9671054727133
20
-7.21561495135799
30
0
41
1
10
86.0086253960909
20
-7.04348738066952
30
0
41
1
10
85.5303312825835
20
-6.9446026916865
30
0
41
1
10
84.5732559539474
20
-6.72300825003182
30
0
41
1
10
84.0951204454275
20
-6.59978235791246
30
0
41
1
10
83.1371439750293
20
-6.3306474593189
30
0
41
1
10
82.6580048556382
20
-6.18405612594304
30
0
41
1
10
81.6968248602376
20
-5.86935778611266
30
0
41
1
10
81.215517236236
20
-5.70040714006336
30
0
41
1
10
80.2487801749613
20
-5.34222602218688
30
0
41
1
10
79.7628909391229
20
-5.15147015594849
30
0
41
1
10
78.7952567979039
20
-4.75495608897094
30
0
41
1
10
78.3135433841922
20
-4.54788094042675
30
0
41
1
10
76.8706855686152
20
-3.90668895135252
30
0
41
1
10
75.9140319835721
20
-3.44913132703042
30
0
41
1
10
74.4778645870136
20
-2.73312307052825
30
0
41
1
10
73.9994414102689
20
-2.48865220469378
30
0
41
1
10
73.0407727542956
20
-1.99235521150692
30
0
41
1
10
72.561133120919
20
-1.73943621617801
30
0
41
1
10
71.5989306501949
20
-1.22821498055998
30
0
41
1
10
71.116913545551
20
-0.96888563421038
30
0
41
1
10
70.390861098707
20
-0.577349357755224
30
0
41
1
10
70.1482379391712
20
-0.446027885492867
30
0
41
1
10
69.6630807009292
20
-0.183032561922943
30
0
41
1
10
69.4208364223093
20
-0.0519878067871105
30
0
41
1
10
68.6955138663415
20
0.340653163329051
30
0
41
1
10
68.2137942744943
20
0.601636592901286
30
0
41
1
10
67.2521145460663
20
1.11851013958946
30
0
41
1
10
66.7724785626251
20
1.3750217430507
30
0
41
1
10
64.3759584023242
20
2.63996717444587
30
0
41
1
10
62.466894303926
20
3.60074994047892
30
0
41
1
10
60.2858220109883
20
4.54815044218969
30
0
41
1
10
60.0428145126024
20
4.6518857932881
30
0
41
1
10
59.5577557858303
20
4.85408146424342
30
0
41
1
10
59.3155854932838
20
4.95262330392421
30
0
41
1
10
58.5906044507041
20
5.24136306374666
30
0
41
1
10
58.1088204077163
20
5.42391644377753
30
0
41
1
10
57.147299120538
20
5.7681371315287
30
0
41
1
10
56.66744855128
20
5.92966300718456
30
0
41
1
10
55.708701511007
20
6.23073454351476
30
0
41
1
10
55.2296327041307
20
6.37009242036441
30
0
41
1
10
54.2713796247865
20
6.62576146472844
30
0
41
1
10
53.7919743347268
20
6.74186633761491
30
0
41
1
10
52.8319466372431
20
6.9499342139903
30
0
41
1
10
52.3510456325102
20
7.04168526471943
30
0
41
1
10
51.3869063153012
20
7.19995409282947
30
0
41
1
10
50.9033328198081
20
7.26627555116977
30
0
41
1
10
50.175370316355
20
7.34601224046034
30
0
41
1
10
49.9322341208872
20
7.36928293081309
30
0
41
1
10
49.4468394252614
20
7.40882508058786
30
0
41
1
10
49.2044840745035
20
7.42519569671205
30
0
41
1
10
48.4783295975911
20
7.46410162026348
30
0
41
1
10
47.9948914123585
20
7.47635244434511
30
0
41
1
10
47.0292285810408
20
7.47369682609838
30
0
41
1
10
46.5464201617162
20
7.45879645946238
30
0
41
1
10
45.098153367388
20
7.37342271698262
30
0
41
1
10
44.1308942670127
20
7.26267988053189
30
0
41
1
10
43.1585999999999
20
7.09834065926415
30
0
0
SPLINE
5
EF
100
AcDbEntity
8
1
62
256
6
ByLayer
370
18
48
1
60
0
100
AcDbSpline
70
4
71
3
72
14
73
10
40
0
40
0
40
0
40
0
40
0.276422953710832
40
0.276422953710832
40
0.552845907421665
40
0.552845907421665
40
0.829268861132497
40
0.829268861132497
40
1
40
1
40
1
40
1
41
1
10
40.8466235421115
20
8.40352290201568
30
0
41
1
10
40.4087728058282
20
8.24435331630428
30
0
41
1
10
39.9723081287368
20
8.07302875431759
30
0
41
1
10
39.1007185740402
20
7.70746750707937
30
0
41
1
10
38.6652637214551
20
7.51353741460233
30
0
41
1
10
37.795235102236
20
7.10325189677241
30
0
41
1
10
37.3600163652926
20
6.88748964963884
30
0
41
1
10
36.6549381414569
20
6.52197514546307
30
0
41
1
10
36.3853920078674
20
6.37862931614299
30
0
41
1
10
36.115585361112
20
6.23136274105917
30
0
0
SPLINE
5
F0
100
AcDbEntity
8
1
62
256
6
ByLayer
370
18
48
1
60
0
100
AcDbSpline
70
4
71
3
72
10
73
6
40
0
40
0
40
0
40
0
40
0.5
40
0.5
40
1
40
1
40
1
40
1
41
1
10
89.2834856011415
20
-7.37184290606791
30
0
41
1
10
89.2923244817678
20
-7.33998908887187
30
0
41
1
10
89.2997781920766
20
-7.30820061700672
30
0
41
1
10
89.3104288906146
20
-7.25124121340829
30
0
41
1
10
89.3137144095649
20
-7.22587383667971
30
0
41
1
10
89.3151011883493
20
-7.20448471753832
30
0
0
SPLINE
5
F1
100
AcDbEntity
8
1
62
256
6
ByLayer
370
13
48
1
60
0
100
AcDbSpline
70
4
71
3
72
40
73
36
40
0
40
0
40
0
40
0
40
0.173754397074445
40
0.173754397074445
40
0.217192996343057
40
0.217192996343057
40
0.238912295977361
40
0.238912295977361
40
0.260631595611666
40
0.260631595611666
40
0.347508794148886
40
0.347508794148886
40
0.521263191223325
40
0.521263191223325
40
0.54298249085763
40
0.54298249085763
40
0.564701790491935
40
0.564701790491935
40
0.608140389760544
40
0.608140389760544
40
0.695017588297761
40
0.695017588297761
40
0.781894786834979
40
0.781894786834979
40
0.825333386103588
40
0.825333386103588
40
0.847052685737893
40
0.847052685737893
40
0.868771985372197
40
0.868771985372197
40
0.955649183909414
40
0.955649183909414
40
0.999087783178022
40
0.999087783178022
40
1
40
1
40
1
40
1
41
1
10
89.263227473623
20
-7.12546478570744
30
0
41
1
10
87.3342007703953
20
-6.85795984371626
30
0
41
1
10
85.4299975428215
20
-6.38709104041149
30
0
41
1
10
83.0361832359401
20
-5.58914899980107
30
0
41
1
10
82.5567391339171
20
-5.41911582760108
30
0
41
1
10
81.8357499073433
20
-5.14926194423501
30
0
41
1
10
81.5951148037708
20
-5.05684736649553
30
0
41
1
10
81.1130888969275
20
-4.86724942767722
30
0
41
1
10
80.8714256619601
20
-4.76995173052572
30
0
41
1
10
79.6642481570507
20
-4.27338305307822
30
0
41
1
10
78.705869568638
20
-3.84545779251243
30
0
41
1
10
75.8392215352364
20
-2.49417709784657
30
0
41
1
10
73.9395850212168
20
-1.50305237952668
30
0
41
1
10
71.7756935107948
20
-0.358885741256415
30
0
41
1
10
71.5348799193226
20
-0.231371162849598
30
0
41
1
10
71.0523630407702
20
0.0241911764464646
30
0
41
1
10
70.8103781023501
20
0.152398242478114
30
0
41
1
10
70.0863070361715
20
0.535588554550912
30
0
41
1
10
69.605332090289
20
0.789405182299703
30
0
41
1
10
68.1660954518173
20
1.54321866804548
30
0
41
1
10
67.2114492669311
20
2.03538569363681
30
0
41
1
10
65.3029742758131
20
2.98296022396386
30
0
41
1
10
64.349163340733
20
3.43836828878526
30
0
41
1
10
62.9123512029421
20
4.08194077606947
30
0
41
1
10
62.4324613958496
20
4.29001335099463
30
0
41
1
10
61.7102724364611
20
4.59077535569165
30
0
41
1
10
61.4691519234001
20
4.68914126296869
30
0
41
1
10
60.9859869092526
20
4.88184077138948
30
0
41
1
10
60.7439447893013
20
4.97617068080763
30
0
41
1
10
59.535701622139
20
5.43535792095287
30
0
41
1
10
58.5715303655897
20
5.76425329587951
30
0
41
1
10
57.122258636636
20
6.19251176277973
30
0
41
1
10
56.6382674737379
20
6.32444681921896
30
0
41
1
10
56.1444313763081
20
6.44684622815598
30
0
41
1
10
56.1342740995482
20
6.4493584628604
30
0
41
1
10
56.1241168656008
20
6.45186539539091
30
0
0
SPLINE
5
F2
100
AcDbEntity
8
1
62
256
6
ByLayer
370
18
48
1
60
0
100
AcDbSpline
70
4
71
3
72
8
73
4
40
0
40
0
40
0
40
0
40
1
40
1
40
1
40
1
41
1
10
91.4256770489513
20
1.75424283755277
30
0
41
1
10
90.9590359700394
20
3.11817696168276
30
0
41
1
10
90.4970799338519
20
4.48369906940999
30
0
41
1
10
90.0398418601409
20
5.8508203188027
30
0
0
SPLINE
5
F3
100
AcDbEntity
8
1
62
256
6
ByLayer
370
18
48
1
60
0
100
AcDbSpline
70
4
71
3
72
15
73
11
40
0
40
0
40
0
40
0
40
0.0778880773296618
40
0.278562460971041
40
0.419174263692973
40
0.551268581405344
40
0.682264604256857
40
0.812165682622567
40
0.944610240131177
40
1
40
1
40
1
40
1
41
1
10
89.4921039380681
20
0.48263256772745
30
0
41
1
10
89.4411745849652
20
0.498888847030315
30
0
41
1
10
89.2600528816916
20
0.558580199956765
30
0
41
1
10
88.9911023653013
20
0.662048569192876
30
0
41
1
10
88.6986787763607
20
0.780280252351474
30
0
41
1
10
88.4513070672601
20
0.886947911270681
30
0
41
1
10
88.2122589040214
20
0.995343602225319
30
0
41
1
10
87.974460371075
20
1.10903313782535
30
0
41
1
10
87.7848005858541
20
1.20278364093082
30
0
41
1
10
87.6709923593205
20
1.26270731904714
30
0
41
1
10
87.63738278913
20
1.28063669076471
30
0
0
SPLINE
5
F4
100
AcDbEntity
8
1
62
256
6
ByLayer
370
18
48
1
60
0
100
AcDbSpline
70
4
71
3
72
18
73
14
40
0
40
0
40
0
40
0
40
0.208728380935124
40
0.379558456361515
40
0.512339291165929
40
0.586866149319318
40
0.644201987596593
40
0.700209792402032
40
0.756355568672115
40
0.812641356431115
40
0.869068633639873
40
0.927565190179213
40
1
40
1
40
1
40
1
41
1
10
68.5713925530147
20
-0.125131432020936
30
0
41
1
10
68.8022863687199
20
-0.175584703819425
30
0
41
1
10
69.2205199160942
20
-0.280767660117817
30
0
41
1
10
69.7820849185695
20
-0.456414871524316
30
0
41
1
10
70.1928459056044
20
-0.604625778325271
30
0
41
1
10
70.4770176062412
20
-0.71647488600226
30
0
41
1
10
70.6745745513832
20
-0.798254164854569
30
0
41
1
10
70.8528585989301
20
-0.875113663663996
30
0
41
1
10
71.0296597537148
20
-0.954340325727173
30
0
41
1
10
71.2066206475365
20
-1.03661899635202
30
0
41
1
10
71.3857867400071
20
-1.12295862733248
30
0
41
1
10
71.5813213573511
20
-1.22046513750175
30
0
41
1
10
71.7199970696108
20
-1.29247583775862
30
0
41
1
10
71.7971059074486
20
-1.33336039218162
30
0
0
SPLINE
5
F5
100
AcDbEntity
8
1
62
256
6
ByLayer
370
18
48
1
60
0
100
AcDbSpline
70
4
71
3
72
32
73
28
40
0
40
0
40
0
40
0
40
0.0663575370530736
40
0.126105226773384
40
0.173077531386443
40
0.206259476256833
40
0.224611295077577
40
0.24913239475412
40
0.282399742363066
40
0.320063480607955
40
0.357708368510233
40
0.387842628086131
40
0.422089204375197
40
0.464303606064816
40
0.507833538111974
40
0.545390207696463
40
0.583690533785618
40
0.631592145665405
40
0.681372927007479
40
0.727997041671032
40
0.769286512699119
40
0.806405024058794
40
0.85280693403835
40
0.894966440509765
40
0.930412025970785
40
0.970337009166423
40
1
40
1
40
1
40
1
41
1
10
68.3140367956564
20
7.33450162985184
30
0
41
1
10
67.9443986485077
20
7.33306627714137
30
0
41
1
10
67.2418483356823
20
7.33092605061611
30
0
41
1
10
66.2648968706412
20
7.33064128227281
30
0
41
1
10
65.4930421000771
20
7.32984183946914
30
0
41
1
10
64.9401091358633
20
7.32834743984753
30
0
41
1
10
64.5146941541945
20
7.32822730067136
30
0
41
1
10
64.0876745641195
20
7.32770784361716
30
0
41
1
10
63.5521246844573
20
7.32619592863139
30
0
41
1
10
62.9430827295455
20
7.32443288779928
30
0
41
1
10
62.3514883985961
20
7.32402643074567
30
0
41
1
10
61.7792368774569
20
7.3233918442298
30
0
41
1
10
61.1811791185963
20
7.32267531668973
30
0
41
1
10
60.5081346321853
20
7.32210051517754
30
0
41
1
10
59.8164942478663
20
7.32085954258477
30
0
41
1
10
59.1466578221172
20
7.31734192768721
30
0
41
1
10
58.4528471936042
20
7.31664138692847
30
0
41
1
10
57.689890226902
20
7.31591973030888
30
0
41
1
10
56.8803467813527
20
7.3155806044274
30
0
41
1
10
56.1078730399731
20
7.31489162222212
30
0
41
1
10
55.4064382034078
20
7.31191736331039
30
0
41
1
10
54.7062586669189
20
7.31037402761152
30
0
41
1
10
54.0012377575719
20
7.30942963915848
30
0
41
1
10
53.3053655257371
20
7.30873822183301
30
0
41
1
10
52.6468087548242
20
7.3076813293126
30
0
41
1
10
52.0568801331739
20
7.30684042832038
30
0
41
1
10
51.6690712104697
20
7.30564051177603
30
0
41
1
10
51.5036008729657
20
7.30515050436154
30
0
0
SPLINE
5
F6
100
AcDbEntity
8
1
62
256
6
ByLayer
370
18
48
1
60
0
100
AcDbSpline
70
4
71
3
72
33
73
29
40
0
40
0
40
0
40
0
40
0.0567424601245773
40
0.108314184126616
40
0.15177152439913
40
0.188309114112681
40
0.224248529894727
40
0.267349809778803
40
0.303157139308745
40
0.351074425295098
40
0.407940312269857
40
0.468747168419367
40
0.517461361069532
40
0.549059040961615
40
0.585473098436991
40
0.621854951866696
40
0.65184149320808
40
0.676938560750735
40
0.706971682291838
40
0.743690038758294
40
0.778188469858687
40
0.800650968494493
40
0.817247834643697
40
0.839731698469883
40
0.87009056458988
40
0.907936516082386
40
0.953098831004336
40
1
40
1
40
1
40
1
41
1
10
49.3134332833815
20
-7.30168100933298
30
0
41
1
10
49.6719065858906
20
-7.30189396267156
30
0
41
1
10
50.356331116646
20
-7.30265412992227
30
0
41
1
10
51.3208402600638
20
-7.30447949867261
30
0
41
1
10
52.1490994397105
20
-7.307078032135
30
0
41
1
10
52.885726270231
20
-7.30807174387229
30
0
41
1
10
53.6177659468352
20
-7.30908216765147
30
0
41
1
10
54.3464270635874
20
-7.30985536483894
30
0
41
1
10
55.1506749981821
20
-7.31107186845605
30
0
41
1
10
56.0423298148223
20
-7.31490545898734
30
0
41
1
10
57.0924484514053
20
-7.31568297882063
30
0
41
1
10
58.147843405803
20
-7.31636392984794
30
0
41
1
10
59.0423244317161
20
-7.31690608706154
30
0
41
1
10
59.782613561397
20
-7.32065247729267
30
0
41
1
10
60.4446407723713
20
-7.32207826568478
30
0
41
1
10
61.0963416401772
20
-7.32256568300892
30
0
41
1
10
61.6764803598918
20
-7.32328410083142
30
0
41
1
10
62.216173780974
20
-7.3238653185208
30
0
41
1
10
62.7987156846523
20
-7.32437204108635
30
0
41
1
10
63.4407935967153
20
-7.32567336785931
30
0
41
1
10
64.0349306559141
20
-7.32766242227387
30
0
41
1
10
64.5014032441018
20
-7.32820797504516
30
0
41
1
10
64.8904154421191
20
-7.32835573701783
30
0
41
1
10
65.3313727517359
20
-7.32918471436176
30
0
41
1
10
65.8987976903292
20
-7.33091020651688
30
0
41
1
10
66.6146973117802
20
-7.33007921843424
30
0
41
1
10
67.4405651455655
20
-7.33201679757161
30
0
41
1
10
68.0206571959138
20
-7.33352411954365
30
0
41
1
10
68.3156492864583
20
-7.33450939046014
30
0
0
SPLINE
5
F7
100
AcDbEntity
8
1
62
256
6
ByLayer
370
18
48
1
60
0
100
AcDbSpline
70
4
71
3
72
15
73
11
40
0
40
0
40
0
40
0
40
0.234308742064826
40
0.426084174068668
40
0.575158817829358
40
0.684611608497601
40
0.784897125997147
40
0.867208704345126
40
0.95086019737798
40
1
40
1
40
1
40
1
41
1
10
47.2110493608197
20
0.124557088618332
30
0
41
1
10
46.9649135375916
20
0.178421052345897
30
0
41
1
10
46.51921775701
20
0.291607884878147
30
0
41
1
10
45.9216391924564
20
0.482433926477086
30
0
41
1
10
45.4575324181685
20
0.654373753166965
30
0
41
1
10
45.0959276638332
20
0.802086348177141
30
0
41
1
10
44.8008872965575
20
0.931446053793991
30
0
41
1
10
44.5307176415975
20
1.05746718476968
30
0
41
1
10
44.311210481597
20
1.16424989975397
30
0
41
1
10
44.1764395495366
20
1.23422416206785
30
0
41
1
10
44.1265969652926
20
1.2605887899193
30
0
0
LINE
5
7D
100
AcDbEntity
8
SK1
62
256
6
ByLayer
370
18
48
1
60
0
100
AcDbLine
10
0
20
-10
30
0
11
0
21
10
31
0
39
0
210
0
220
0
230
1
0
LINE
5
7F
100
AcDbEntity
8
SK1
62
256
6
ByLayer
370
18
48
1
60
0
100
AcDbLine
10
-50
20
4
30
0
11
-50
21
-4
31
0
39
0
210
0
220
0
230
1
0
LINE
5
80
100
AcDbEntity
8
SK1
62
256
6
ByLayer
370
18
48
1
60
0
100
AcDbLine
10
-46.535898
20
10
30
0
11
-46.535898
21
-10
31
0
39
0
210
0
220
0
230
1
0
LINE
5
81
100
AcDbEntity
8
1
62
256
6
ByLayer
370
18
48
1
60
0
100
AcDbLine
10
43.1586
20
1.76865
30
0
11
43.1586
21
-6.867375
31
0
39
0
210
0
220
0
230
1
0
LINE
5
82
100
AcDbEntity
8
1
62
256
6
ByLayer
370
18
48
1
60
0
100
AcDbLine
10
40.846624
20
3.341542
30
0
11
40.846624
21
-8.403523
31
0
39
0
210
0
220
0
230
1
0
LINE
5
83
100
AcDbEntity
8
1
62
256
6
ByLayer
370
13
48
1
60
0
100
AcDbLine
10
0.4
20
9.9
30
0
11
0.4
21
-9.9
31
0
39
0
210
0
220
0
230
1
0
LINE
5
84
100
AcDbEntity
8
1
62
256
6
ByLayer
370
18
48
1
60
0
100
AcDbLine
10
43.1586
20
-6.867375
30
0
11
43.1586
21
-7.098341
31
0
39
0
210
0
220
0
230
1
0
LINE
5
85
100
AcDbEntity
8
1
62
256
6
ByLayer
370
13
48
1
60
0
100
AcDbLine
10
0.8
20
9.8
30
0
11
0.8
21
-9.8
31
0
39
0
210
0
220
0
230
1
0
LINE
5
86
100
AcDbEntity
8
1
62
256
6
ByLayer
370
18
48
1
60
0
100
AcDbLine
10
88.294165
20
-3.77764
30
0
11
90.965426
21
-1.63308
31
0
39
0
210
0
220
0
230
1
0
LINE
5
87
100
AcDbEntity
8
1
62
256
6
ByLayer
370
18
48
1
60
0
100
AcDbLine
10
90.965426
20
-1.63308
30
0
11
90.974856
21
-1.571438
31
0
39
0
210
0
220
0
230
1
0
LINE
5
88
100
AcDbEntity
8
1
62
256
6
ByLayer
370
18
48
1
60
0
100
AcDbLine
10
0
20
-10
30
0
11
0
21
10
31
0
39
0
210
0
220
0
230
1
0
LINE
5
89
100
AcDbEntity
8
80
62
256
6
ByLayer
370
18
48
1
60
0
100
AcDbLine
10
0
20
0
30
0
11
-5
21
0
31
0
39
0
210
0
220
0
230
1
0
LINE
5
8A
100
AcDbEntity
8
SK4
62
256
6
ByLayer
370
18
48
0.05
60
0
100
AcDbLine
10
97
20
0
30
0
11
-55
21
0
31
0
39
0
210
0
220
0
230
1
0
LINE
5
8C
100
AcDbEntity
8
4
62
256
6
ByLayer
370
18
48
0.05
60
0
100
AcDbLine
10
92
20
0
30
0
11
0
21
0
31
0
39
0
210
0
220
0
230
1
0
LINE
5
8E
100
AcDbEntity
8
SK1
62
256
6
ByLayer
370
18
48
1
60
0
100
AcDbLine
10
-46.535898
20
-10
30
0
11
0
21
-10
31
0
39
0
210
0
220
0
230
1
0
LINE
5
8F
100
AcDbEntity
8
SK1
62
256
6
ByLayer
370
18
48
1
60
0
100
AcDbLine
10
0
20
10
30
0
11
-46.535898
21
10
31
0
39
0
210
0
220
0
230
1
0
LINE
5
90
100
AcDbEntity
8
SK1
62
256
6
ByLayer
370
18
48
1
60
0
100
AcDbLine
10
-50
20
-4
30
0
11
-46.535898
21
-10
31
0
39
0
210
0
220
0
230
1
0
LINE
5
91
100
AcDbEntity
8
SK1
62
256
6
ByLayer
370
18
48
1
60
0
100
AcDbLine
10
-46.535898
20
10
30
0
11
-50
21
4
31
0
39
0
210
0
220
0
230
1
0
LINE
5
92
100
AcDbEntity
8
1
62
256
6
ByLayer
370
18
48
1
60
0
100
AcDbLine
10
47.536317
20
-7.47508
30
0
11
48.752636
21
-7.477269
31
0
39
0
210
0
220
0
230
1
0
LINE
5
93
100
AcDbEntity
8
1
62
256
6
ByLayer
370
18
48
1
60
0
100
AcDbLine
10
48.752636
20
7.477269
30
0
11
47.536433
21
7.47508
31
0
39
0
210
0
220
0
230
1
0
LINE
5
94
100
AcDbEntity
8
1
62
256
6
ByLayer
370
18
48
1
60
0
100
AcDbLine
10
0.8
20
-9.8
30
0
11
22.369761
21
-9.8
31
0
39
0
210
0
220
0
230
1
0
LINE
5
95
100
AcDbEntity
8
1
62
256
6
ByLayer
370
18
48
1
60
0
100
AcDbLine
10
22.369761
20
9.8
30
0
11
0.8
21
9.8
31
0
39
0
210
0
220
0
230
1
0
LINE
5
96
100
AcDbEntity
8
81
62
256
6
ByLayer
370
18
48
1
60
0
100
AcDbLine
10
92
20
0
30
0
11
97
21
0
31
0
39
0
210
0
220
0
230
1
0
LINE
5
97
100
AcDbEntity
8
2
62
256
6
ByLayer
370
13
48
1
60
0
100
AcDbLine
10
114.236431
20
-9.8
30
0
11
114.236431
21
37.245947
31
0
39
0
210
0
220
0
230
1
0
LINE
5
99
100
AcDbEntity
8
2
62
256
6
ByLayer
370
13
48
1
60
0
100
AcDbLine
10
42.4961
20
9.8
30
0
11
116.236431
21
9.8
31
0
39
0
210
0
220
0
230
1
0
LINE
5
9A
100
AcDbEntity
8
2
62
256
6
ByLayer
370
13
48
1
60
0
100
AcDbLine
10
42.4961
20
-9.8
30
0
11
116.236431
21
-9.8
31
0
39
0
210
0
220
0
230
1
0
LINE
5
9B
100
AcDbEntity
8
1
62
256
6
ByLayer
370
18
48
1
60
1
100
AcDbLine
10
114.236431
20
9.8
30
0
11
114.697214
21
6.300002
31
0
39
0
210
0
220
0
230
1
0
LINE
5
9C
100
AcDbEntity
8
1
62
256
6
ByLayer
370
18
48
1
60
1
100
AcDbLine
10
114.697214
20
6.300002
30
0
11
113.775647
21
6.299998
31
0
39
0
210
0
220
0
230
1
0
LINE
5
9D
100
AcDbEntity
8
1
62
256
6
ByLayer
370
18
48
1
60
1
100
AcDbLine
10
113.775647
20
6.299998
30
0
11
114.236431
21
9.8
31
0
39
0
210
0
220
0
230
1
0
LINE
5
9E
100
AcDbEntity
8
1
62
256
6
ByLayer
370
18
48
1
60
1
100
AcDbLine
10
114.236431
20
-9.8
30
0
11
113.775647
21
-6.300002
31
0
39
0
210
0
220
0
230
1
0
LINE
5
9F
100
AcDbEntity
8
1
62
256
6
ByLayer
370
18
48
1
60
1
100
AcDbLine
10
113.775647
20
-6.300002
30
0
11
114.697214
21
-6.299998
31
0
39
0
210
0
220
0
230
1
0
LINE
5
A0
100
AcDbEntity
8
1
62
256
6
ByLayer
370
18
48
1
60
1
100
AcDbLine
10
114.697214
20
-6.299998
30
0
11
114.236431
21
-9.8
31
0
39
0
210
0
220
0
230
1
0
LINE
5
A1
100
AcDbEntity
8
SK2
62
256
6
ByLayer
370
13
48
1
60
0
100
AcDbLine
10
-58.625163
20
-10
30
0
11
-58.625163
21
41.732039
31
0
39
0
210
0
220
0
230
1
0
LINE
5
A3
100
AcDbEntity
8
SK2
62
256
6
ByLayer
370
13
48
1
60
0
100
AcDbLine
10
-51.5875
20
10
30
0
11
-60.625163
21
10
31
0
39
0
210
0
220
0
230
1
0
LINE
5
A4
100
AcDbEntity
8
SK2
62
256
6
ByLayer
370
13
48
1
60
0
100
AcDbLine
10
-51.5875
20
-10
30
0
11
-60.625163
21
-10
31
0
39
0
210
0
220
0
230
1
0
LINE
5
A5
100
AcDbEntity
8
1
62
256
6
ByLayer
370
18
48
1
60
1
100
AcDbLine
10
-58.625163
20
10
30
0
11
-58.164379
21
6.500002
31
0
39
0
210
0
220
0
230
1
0
LINE
5
A6
100
AcDbEntity
8
1
62
256
6
ByLayer
370
18
48
1
60
1
100
AcDbLine
10
-58.164379
20
6.500002
30
0
11
-59.085946
21
6.499998
31
0
39
0
210
0
220
0
230
1
0
LINE
5
A7
100
AcDbEntity
8
1
62
256
6
ByLayer
370
18
48
1
60
1
100
AcDbLine
10
-59.085946
20
6.499998
30
0
11
-58.625163
21
10
31
0
39
0
210
0
220
0
230
1
0
LINE
5
A8
100
AcDbEntity
8
1
62
256
6
ByLayer
370
18
48
1
60
1
100
AcDbLine
10
-58.625163
20
-10
30
0
11
-59.085946
21
-6.500002
31
0
39
0
210
0
220
0
230
1
0
LINE
5
A9
100
AcDbEntity
8
1
62
256
6
ByLayer
370
18
48
1
60
1
100
AcDbLine
10
-59.085946
20
-6.500002
30
0
11
-58.164379
21
-6.499998
31
0
39
0
210
0
220
0
230
1
0
LINE
5
AA
100
AcDbEntity
8
1
62
256
6
ByLayer
370
18
48
1
60
1
100
AcDbLine
10
-58.164379
20
-6.499998
30
0
11
-58.625163
21
-10
31
0
39
0
210
0
220
0
230
1
0
LINE
5
AB
100
AcDbEntity
8
2
62
256
6
ByLayer
370
13
48
1
60
0
100
AcDbLine
10
105.970081
20
-7.55
30
0
11
105.970081
21
36.880029
31
0
39
0
210
0
220
0
230
1
0
LINE
5
AC
100
AcDbEntity
8
2
62
256
6
ByLayer
370
13
48
1
60
0
100
AcDbLine
10
90.7461
20
7.55
30
0
11
107.970081
21
7.55
31
0
39
0
210
0
220
0
230
1
0
LINE
5
AD
100
AcDbEntity
8
2
62
256
6
ByLayer
370
13
48
1
60
0
100
AcDbLine
10
90.7461
20
-7.55
30
0
11
107.970081
21
-7.55
31
0
39
0
210
0
220
0
230
1
0
LINE
5
AE
100
AcDbEntity
8
1
62
256
6
ByLayer
370
18
48
1
60
1
100
AcDbLine
10
105.970081
20
7.55
30
0
11
106.430865
21
4.050002
31
0
39
0
210
0
220
0
230
1
0
LINE
5
AF
100
AcDbEntity
8
1
62
256
6
ByLayer
370
18
48
1
60
1
100
AcDbLine
10
106.430865
20
4.050002
30
0
11
105.509297
21
4.049998
31
0
39
0
210
0
220
0
230
1
0
LINE
5
B0
100
AcDbEntity
8
1
62
256
6
ByLayer
370
18
48
1
60
1
100
AcDbLine
10
105.509297
20
4.049998
30
0
11
105.970081
21
7.55
31
0
39
0
210
0
220
0
230
1
0
LINE
5
B1
100
AcDbEntity
8
1
62
256
6
ByLayer
370
18
48
1
60
1
100
AcDbLine
10
105.970081
20
-7.55
30
0
11
105.509297
21
-4.050002
31
0
39
0
210
0
220
0
230
1
0
LINE
5
B2
100
AcDbEntity
8
1
62
256
6
ByLayer
370
18
48
1
60
1
100
AcDbLine
10
105.509297
20
-4.050002
30
0
11
106.430865
21
-4.049998
31
0
39
0
210
0
220
0
230
1
0
LINE
5
B3
100
AcDbEntity
8
1
62
256
6
ByLayer
370
18
48
1
60
1
100
AcDbLine
10
106.430865
20
-4.049998
30
0
11
105.970081
21
-7.55
31
0
39
0
210
0
220
0
230
1
0
LINE
5
B4
100
AcDbEntity
8
SK2
62
256
6
ByLayer
370
13
48
1
60
0
100
AcDbLine
10
39.786068
20
-10.922532
30
0
11
33.132542
21
-17.576058
31
0
39
0
210
0
220
0
230
1
0
LINE
5
B5
100
AcDbEntity
8
SK2
62
256
6
ByLayer
370
13
48
1
60
0
100
AcDbLine
10
39.786068
20
10.922532
30
0
11
33.132542
21
17.576058
31
0
39
0
210
0
220
0
230
1
0
LINE
5
B6
100
AcDbEntity
8
1
62
256
6
ByLayer
370
18
48
1
60
1
100
AcDbLine
10
34.546756
20
-16.161844
30
0
11
31.830195
21
-13.90738
31
0
39
0
210
0
220
0
230
1
0
LINE
5
B7
100
AcDbEntity
8
1
62
256
6
ByLayer
370
18
48
1
60
1
100
AcDbLine
10
31.830195
20
-13.90738
30
0
11
32.506256
21
-13.281099
31
0
39
0
210
0
220
0
230
1
0
LINE
5
B8
100
AcDbEntity
8
1
62
256
6
ByLayer
370
18
48
1
60
1
100
AcDbLine
10
32.506256
20
-13.281099
30
0
11
34.546756
21
-16.161844
31
0
39
0
210
0
220
0
230
1
0
LINE
5
B9
100
AcDbEntity
8
1
62
256
6
ByLayer
370
18
48
1
60
1
100
AcDbLine
10
34.546756
20
16.161844
30
0
11
32.506258
21
13.281101
31
0
39
0
210
0
220
0
230
1
0
LINE
5
BA
100
AcDbEntity
8
1
62
256
6
ByLayer
370
18
48
1
60
1
100
AcDbLine
10
32.506258
20
13.281101
30
0
11
31.830193
21
13.907378
31
0
39
0
210
0
220
0
230
1
0
LINE
5
BB
100
AcDbEntity
8
1
62
256
6
ByLayer
370
18
48
1
60
1
100
AcDbLine
10
31.830193
20
13.907378
30
0
11
34.546756
21
16.161844
31
0
39
0
210
0
220
0
230
1
0
LINE
5
FE
100
AcDbEntity
8
1
62
256
6
ByLayer
370
18
48
1
60
1
100
AcDbLine
10
114.236431
20
9.8
30
0
11
114.697214
21
6.300002
31
0
39
0
210
0
220
0
230
1
0
LINE
5
FF
100
AcDbEntity
8
1
62
256
6
ByLayer
370
18
48
1
60
1
100
AcDbLine
10
114.697214
20
6.300002
30
0
11
113.775647
21
6.299998
31
0
39
0
210
0
220
0
230
1
0
LINE
5
100
100
AcDbEntity
8
1
62
256
6
ByLayer
370
18
48
1
60
1
100
AcDbLine
10
113.775647
20
6.299998
30
0
11
114.236431
21
9.8
31
0
39
0
210
0
220
0
230
1
0
LINE
5
102
100
AcDbEntity
8
1
62
256
6
ByLayer
370
18
48
1
60
1
100
AcDbLine
10
114.236431
20
-9.8
30
0
11
113.775647
21
-6.300002
31
0
39
0
210
0
220
0
230
1
0
LINE
5
103
100
AcDbEntity
8
1
62
256
6
ByLayer
370
18
48
1
60
1
100
AcDbLine
10
113.775647
20
-6.300002
30
0
11
114.697214
21
-6.299998
31
0
39
0
210
0
220
0
230
1
0
LINE
5
104
100
AcDbEntity
8
1
62
256
6
ByLayer
370
18
48
1
60
1
100
AcDbLine
10
114.697214
20
-6.299998
30
0
11
114.236431
21
-9.8
31
0
39
0
210
0
220
0
230
1
0
LINE
5
108
100
AcDbEntity
8
1
62
256
6
ByLayer
370
18
48
1
60
1
100
AcDbLine
10
-58.625163
20
10
30
0
11
-58.164379
21
6.500002
31
0
39
0
210
0
220
0
230
1
0
LINE
5
109
100
AcDbEntity
8
1
62
256
6
ByLayer
370
18
48
1
60
1
100
AcDbLine
10
-58.164379
20
6.500002
30
0
11
-59.085946
21
6.499998
31
0
39
0
210
0
220
0
230
1
0
LINE
5
10A
100
AcDbEntity
8
1
62
256
6
ByLayer
370
18
48
1
60
1
100
AcDbLine
10
-59.085946
20
6.499998
30
0
11
-58.625163
21
10
31
0
39
0
210
0
220
0
230
1
0
LINE
5
10C
100
AcDbEntity
8
1
62
256
6
ByLayer
370
18
48
1
60
1
100
AcDbLine
10
-58.625163
20
-10
30
0
11
-59.085946
21
-6.500002
31
0
39
0
210
0
220
0
230
1
0
LINE
5
10D
100
AcDbEntity
8
1
62
256
6
ByLayer
370
18
48
1
60
1
100
AcDbLine
10
-59.085946
20
-6.500002
30
0
11
-58.164379
21
-6.499998
31
0
39
0
210
0
220
0
230
1
0
LINE
5
10E
100
AcDbEntity
8
1
62
256
6
ByLayer
370
18
48
1
60
1
100
AcDbLine
10
-58.164379
20
-6.499998
30
0
11
-58.625163
21
-10
31
0
39
0
210
0
220
0
230
1
0
LINE
5
112
100
AcDbEntity
8
1
62
256
6
ByLayer
370
18
48
1
60
1
100
AcDbLine
10
105.970081
20
7.55
30
0
11
106.430865
21
4.050002
31
0
39
0
210
0
220
0
230
1
0
LINE
5
113
100
AcDbEntity
8
1
62
256
6
ByLayer
370
18
48
1
60
1
100
AcDbLine
10
106.430865
20
4.050002
30
0
11
105.509297
21
4.049998
31
0
39
0
210
0
220
0
230
1
0
LINE
5
114
100
AcDbEntity
8
1
62
256
6
ByLayer
370
18
48
1
60
1
100
AcDbLine
10
105.509297
20
4.049998
30
0
11
105.970081
21
7.55
31
0
39
0
210
0
220
0
230
1
0
LINE
5
116
100
AcDbEntity
8
1
62
256
6
ByLayer
370
18
48
1
60
1
100
AcDbLine
10
105.970081
20
-7.55
30
0
11
105.509297
21
-4.050002
31
0
39
0
210
0
220
0
230
1
0
LINE
5
117
100
AcDbEntity
8
1
62
256
6
ByLayer
370
18
48
1
60
1
100
AcDbLine
10
105.509297
20
-4.050002
30
0
11
106.430865
21
-4.049998
31
0
39
0
210
0
220
0
230
1
0
LINE
5
118
100
AcDbEntity
8
1
62
256
6
ByLayer
370
18
48
1
60
1
100
AcDbLine
10
106.430865
20
-4.049998
30
0
11
105.970081
21
-7.55
31
0
39
0
210
0
220
0
230
1
0
LINE
5
11B
100
AcDbEntity
8
1
62
256
6
ByLayer
370
18
48
1
60
1
100
AcDbLine
10
34.546756
20
-16.161844
30
0
11
31.830195
21
-13.90738
31
0
39
0
210
0
220
0
230
1
0
LINE
5
11C
100
AcDbEntity
8
1
62
256
6
ByLayer
370
18
48
1
60
1
100
AcDbLine
10
31.830195
20
-13.90738
30
0
11
32.506256
21
-13.281099
31
0
39
0
210
0
220
0
230
1
0
LINE
5
11D
100
AcDbEntity
8
1
62
256
6
ByLayer
370
18
48
1
60
1
100
AcDbLine
10
32.506256
20
-13.281099
30
0
11
34.546756
21
-16.161844
31
0
39
0
210
0
220
0
230
1
0
LINE
5
11F
100
AcDbEntity
8
1
62
256
6
ByLayer
370
18
48
1
60
1
100
AcDbLine
10
34.546756
20
16.161844
30
0
11
32.506258
21
13.281101
31
0
39
0
210
0
220
0
230
1
0
LINE
5
120
100
AcDbEntity
8
1
62
256
6
ByLayer
370
18
48
1
60
1
100
AcDbLine
10
32.506258
20
13.281101
30
0
11
31.830193
21
13.907378
31
0
39
0
210
0
220
0
230
1
0
LINE
5
121
100
AcDbEntity
8
1
62
256
6
ByLayer
370
18
48
1
60
1
100
AcDbLine
10
31.830193
20
13.907378
30
0
11
34.546756
21
16.161844
31
0
39
0
210
0
220
0
230
1
0
MTEXT
5
F8
100
AcDbEntity
8
SK6
62
256
6
ByLayer
370
13
48
1
60
0
100
AcDbMText
10
-6.85586
20
40.090328
30
0
210
0
220
0
230
1
1
\W0.7326;860.2-1510-046A1-PM P1BM
40
3.5
41
0
44
1.084337
50
0
71
7
72
5
7
iso_b_vert
0
MTEXT
5
FC
100
AcDbEntity
8
2
62
256
6
ByLayer
370
18
48
1
60
0
100
AcDbMText
10
112.671797
20
19.797798
30
0
210
0
220
0
230
1
1
%%c
40
3.5
41
0
44
1.084337
50
90
71
7
72
5
7
iso_b_vert
0
MTEXT
5
FD
100
AcDbEntity
8
2
62
256
6
ByLayer
370
18
48
1
60
0
100
AcDbMText
10
112.671797
20
25.020454
30
0
210
0
220
0
230
1
1
\W0.6930;19,600
40
3.5
41
0
44
1.084337
50
90
71
7
72
5
7
iso_b_vert
0
MTEXT
5
106
100
AcDbEntity
8
SK2
62
256
6
ByLayer
370
18
48
1
60
0
100
AcDbMText
10
-60.189796
20
23.409024
30
0
210
0
220
0
230
1
1
%%c
40
3.5
41
0
44
1.084337
50
90
71
7
72
5
7
iso_b_vert
0
MTEXT
5
107
100
AcDbEntity
8
SK2
62
256
6
ByLayer
370
18
48
1
60
0
100
AcDbMText
10
-60.189796
20
28.63168
30
0
210
0
220
0
230
1
1
\W0.7421;20,000
40
3.5
41
0
44
1.084337
50
90
71
7
72
5
7
iso_b_vert
0
MTEXT
5
110
100
AcDbEntity
8
2
62
256
6
ByLayer
370
18
48
1
60
0
100
AcDbMText
10
104.405448
20
20.306747
30
0
210
0
220
0
230
1
1
%%c
40
3.5
41
0
44
1.084337
50
90
71
7
72
5
7
iso_b_vert
0
MTEXT
5
111
100
AcDbEntity
8
2
62
256
6
ByLayer
370
18
48
1
60
0
100
AcDbMText
10
104.405448
20
25.529403
30
0
210
0
220
0
230
1
1
\W0.6440;15,100
40
3.5
41
0
44
1.084337
50
90
71
7
72
5
7
iso_b_vert
0
MTEXT
5
11A
100
AcDbEntity
8
SK2
62
256
6
ByLayer
370
13
48
1
60
0
100
AcDbMText
10
23.015475
20
-0.291663
30
0
210
0
220
0
230
1
1
\W0.8181;90,0%%d
40
3.5
41
0
44
1.084337
50
0
71
7
72
5
7
iso_b_vert
0
HATCH
5
101
100
AcDbEntity
8
2
62
256
6
ByLayer
370
13
48
1
60
0
100
AcDbHatch
10
0
20
0
30
0
210
0
220
0
230
1
2
ANSI31
70
0
71
0
91
1
92
5
93
3
72
1
10
114.236430604616
20
9.80000000000001
11
114.697214346169
21
6.3000016925532
72
1
10
114.697214346169
20
6.3000016925532
11
113.775646863064
21
6.29999830744683
72
1
10
113.775646863064
20
6.29999830744683
11
114.236430604616
21
9.80000000000001
97
0
75
0
76
1
52
0
41
0.0062
77
0
78
1
53
45
43
0
44
0
45
-0.0139193969876572
46
0.0139193969876572
79
0
47
0
98
1
10
0
20
0
0
HATCH
5
105
100
AcDbEntity
8
2
62
256
6
ByLayer
370
13
48
1
60
0
100
AcDbHatch
10
0
20
0
30
0
210
0
220
0
230
1
2
ANSI31
70
0
71
0
91
1
92
5
93
3
72
1
10
114.236430604616
20
-9.79999999999998
11
113.775646863064
21
-6.30000169255317
72
1
10
113.775646863064
20
-6.30000169255317
11
114.697214346169
21
-6.2999983074468
72
1
10
114.697214346169
20
-6.2999983074468
11
114.236430604616
21
-9.79999999999998
97
0
75
0
76
1
52
0
41
0.0062
77
0
78
1
53
45
43
0
44
0
45
-0.0139193969876572
46
0.0139193969876572
79
0
47
0
98
1
10
0
20
0
0
HATCH
5
10B
100
AcDbEntity
8
SK2
62
256
6
ByLayer
370
13
48
1
60
0
100
AcDbHatch
10
0
20
0
30
0
210
0
220
0
230
1
2
ANSI31
70
0
71
0
91
1
92
5
93
3
72
1
10
-58.6251625675374
20
10
11
-58.1643788259847
21
6.50000169255318
72
1
10
-58.1643788259847
20
6.50000169255318
11
-59.0859463090902
21
6.49999830744682
72
1
10
-59.0859463090902
20
6.49999830744682
11
-58.6251625675374
21
10
97
0
75
0
76
1
52
0
41
0.0062
77
0
78
1
53
45
43
0
44
0
45
-0.0139193969876572
46
0.0139193969876572
79
0
47
0
98
1
10
0
20
0
0
HATCH
5
10F
100
AcDbEntity
8
SK2
62
256
6
ByLayer
370
13
48
1
60
0
100
AcDbHatch
10
0
20
0
30
0
210
0
220
0
230
1
2
ANSI31
70
0
71
0
91
1
92
5
93
3
72
1
10
-58.6251625675374
20
-9.99999999999999
11
-59.0859463090902
21
-6.50000169255318
72
1
10
-59.0859463090902
20
-6.50000169255318
11
-58.1643788259847
21
-6.49999830744682
72
1
10
-58.1643788259847
20
-6.49999830744682
11
-58.6251625675374
21
-9.99999999999999
97
0
75
0
76
1
52
0
41
0.0062
77
0
78
1
53
45
43
0
44
0
45
-0.0139193969876572
46
0.0139193969876572
79
0
47
0
98
1
10
0
20
0
0
HATCH
5
115
100
AcDbEntity
8
2
62
256
6
ByLayer
370
13
48
1
60
0
100
AcDbHatch
10
0
20
0
30
0
210
0
220
0
230
1
2
ANSI31
70
0
71
0
91
1
92
5
93
3
72
1
10
105.970081101161
20
7.55000000000001
11
106.430864842714
21
4.0500016925532
72
1
10
106.430864842714
20
4.0500016925532
11
105.509297359609
21
4.04999830744683
72
1
10
105.509297359609
20
4.04999830744683
11
105.970081101161
21
7.55000000000001
97
0
75
0
76
1
52
0
41
0.0062
77
0
78
1
53
45
43
0
44
0
45
-0.0139193969876572
46
0.0139193969876572
79
0
47
0
98
1
10
0
20
0
0
HATCH
5
119
100
AcDbEntity
8
2
62
256
6
ByLayer
370
13
48
1
60
0
100
AcDbHatch
10
0
20
0
30
0
210
0
220
0
230
1
2
ANSI31
70
0
71
0
91
1
92
5
93
3
72
1
10
105.970081101161
20
-7.54999999999998
11
105.509297359609
21
-4.05000169255317
72
1
10
105.509297359609
20
-4.05000169255317
11
106.430864842714
21
-4.0499983074468
72
1
10
106.430864842714
20
-4.0499983074468
11
105.970081101161
21
-7.54999999999998
97
0
75
0
76
1
52
0
41
0.0062
77
0
78
1
53
45
43
0
44
0
45
-0.0139193969876572
46
0.0139193969876572
79
0
47
0
98
1
10
0
20
0
0
HATCH
5
11E
100
AcDbEntity
8
SK2
62
256
6
ByLayer
370
13
48
1
60
0
100
AcDbHatch
10
0
20
0
30
0
210
0
220
0
230
1
2
ANSI31
70
0
71
0
91
1
92
5
93
3
72
1
10
34.5467557030421
20
-16.1618442969578
11
31.8301950687578
21
-13.907380252253
72
1
10
31.8301950687578
20
-13.907380252253
11
32.5062559190773
21
-13.2810988837021
72
1
10
32.5062559190773
20
-13.2810988837021
11
34.5467557030421
21
-16.1618442969578
97
0
75
0
76
1
52
0
41
0.0062
77
0
78
1
53
45
43
0
44
0
45
-0.0139193969876572
46
0.0139193969876572
79
0
47
0
98
1
10
0
20
0
0
HATCH
5
122
100
AcDbEntity
8
SK2
62
256
6
ByLayer
370
13
48
1
60
0
100
AcDbHatch
10
0
20
0
30
0
210
0
220
0
230
1
2
ANSI31
70
0
71
0
91
1
92
5
93
3
72
1
10
34.5467557030422
20
16.1618442969578
11
32.5062582195281
21
13.2811013670207
72
1
10
32.5062582195281
20
13.2811013670207
11
31.830192768307
21
13.9073777689345
72
1
10
31.830192768307
20
13.9073777689345
11
34.5467557030422
21
16.1618442969578
97
0
75
0
76
1
52
0
41
0.0062
77
0
78
1
53
45
43
0
44
0
45
-0.0139193969876572
46
0.0139193969876572
79
0
47
0
98
1
10
0
20
0
0
DIMENSION
5
124
100
AcDbEntity
8
2
62
256
6
ByLayer
370
13
48
1
60
0
100
AcDbDimension
2
_U0
10
89.1586
20
-20.352503
30
0
11
44.5793
21
-20.352503
31
0
70
32
71
1
72
1
41
1
210
0
220
0
230
1
3
Standard
100
AcDbAlignedDimension
13
0
23
0
33
0
14
89.1586
24
-7.55
34
0
50
0
100
AcDbRotatedDimension
1001
ACAD
1000
DSTYLE
1002
{
1070
   371
1070
    13
1070
   372
1070
    13
1070
   170
1070
     0
1070
   144
1040
1.0
1070
   277
1070
     2
1070
   278
1070
    44
1070
   146
1040
1.0
1070
   345
1005
16
1070
   347
1005
16
1070
   346
1005
16
1070
   344
1005
0
1070
   343
1005
0
1070
   172
1070
     1
1070
    76
1070
     0
1070
    75
1070
     0
1070
   282
1070
     0
1070
   281
1070
     0
1070
    71
1070
     0
1070
    74
1070
     0
1070
   279
1070
     0
1070
   173
1070
     1
1070
   340
1005
F9
1070
   271
1070
     2
1070
   272
1070
     2
1070
    77
1070
     1
1070
    73
1070
     1
1070
   171
1070
     3
1070
   274
1070
     4
1070
   177
1070
    35
1070
   176
1070
    35
1070
   178
1070
    35
1070
    48
1040
-0.1
1070
    41
1040
3.5
1070
   147
1040
1.75
1070
    42
1040
1.5875
1070
    44
1040
2.0
1070
   140
1040
3.5
1002
}
1001
ACAD_DSTYLE_DIM_LINETYPE
1070
   380
1005
16
1001
ACAD_DSTYLE_DIM_EXT1_LINETYPE
1070
   381
1005
16
1001
ACAD_DSTYLE_DIM_EXT2_LINETYPE
1070
   382
1005
16
0
DIMENSION
5
13D
100
AcDbEntity
8
SK2
62
256
6
ByLayer
370
13
48
1
60
0
100
AcDbDimension
2
_U1
10
92
20
-41.192985
30
0
11
21
21
-41.192985
31
0
70
32
71
1
72
1
41
1
210
0
220
0
230
1
3
Standard
100
AcDbAlignedDimension
13
-50
23
-10
33
0
14
92
24
0
34
0
50
0
100
AcDbRotatedDimension
1001
ACAD
1000
DSTYLE
1002
{
1070
   371
1070
    13
1070
   372
1070
    13
1070
   170
1070
     0
1070
   144
1040
1.0
1070
   277
1070
     2
1070
   278
1070
    44
1070
   146
1040
1.0
1070
   345
1005
16
1070
   347
1005
16
1070
   346
1005
16
1070
   344
1005
0
1070
   343
1005
0
1070
   172
1070
     1
1070
    76
1070
     0
1070
    75
1070
     0
1070
   282
1070
     0
1070
   281
1070
     0
1070
    71
1070
     0
1070
    74
1070
     0
1070
   279
1070
     0
1070
   173
1070
     1
1070
   340
1005
F9
1070
   271
1070
     2
1070
   272
1070
     2
1070
    77
1070
     1
1070
    73
1070
     1
1070
   171
1070
     3
1070
   274
1070
     4
1070
   177
1070
    35
1070
   176
1070
    35
1070
   178
1070
    35
1070
    48
1040
-0.1
1070
    41
1040
3.5
1070
   147
1040
1.75
1070
    42
1040
1.5875
1070
    44
1040
2.0
1070
   140
1040
3.5
1002
}
1001
ACAD_DSTYLE_DIM_LINETYPE
1070
   380
1005
16
1001
ACAD_DSTYLE_DIM_EXT1_LINETYPE
1070
   381
1005
16
1001
ACAD_DSTYLE_DIM_EXT2_LINETYPE
1070
   382
1005
16
0
DIMENSION
5
155
100
AcDbEntity
8
SK2
62
256
6
ByLayer
370
13
48
1
60
0
100
AcDbDimension
2
_U2
10
92
20
19.159119
30
0
11
66.455
21
19.159119
31
0
70
32
71
1
72
1
41
1
210
0
220
0
230
1
3
Standard
100
AcDbAlignedDimension
13
40.91
23
9.8
33
0
14
92
24
0
34
0
50
0
100
AcDbRotatedDimension
1001
ACAD
1000
DSTYLE
1002
{
1070
   371
1070
    13
1070
   372
1070
    13
1070
   170
1070
     0
1070
   144
1040
1.0
1070
   277
1070
     2
1070
   278
1070
    44
1070
   146
1040
1.0
1070
   345
1005
16
1070
   347
1005
16
1070
   346
1005
16
1070
   344
1005
0
1070
   343
1005
0
1070
   172
1070
     1
1070
    76
1070
     0
1070
    75
1070
     0
1070
   282
1070
     0
1070
   281
1070
     0
1070
    71
1070
     0
1070
    74
1070
     0
1070
   279
1070
     0
1070
   173
1070
     1
1070
   340
1005
F9
1070
   271
1070
     2
1070
   272
1070
     2
1070
    77
1070
     1
1070
    73
1070
     1
1070
   171
1070
     3
1070
   274
1070
     4
1070
   177
1070
    35
1070
   176
1070
    35
1070
   178
1070
    35
1070
    48
1040
-0.1
1070
    41
1040
3.5
1070
   147
1040
1.75
1070
    42
1040
1.5875
1070
    44
1040
2.0
1070
   140
1040
3.5
1002
}
1001
ACAD_DSTYLE_DIM_LINETYPE
1070
   380
1005
16
1001
ACAD_DSTYLE_DIM_EXT1_LINETYPE
1070
   381
1005
16
1001
ACAD_DSTYLE_DIM_EXT2_LINETYPE
1070
   382
1005
16
0
DIMENSION
5
16D
100
AcDbEntity
8
SK2
62
256
6
ByLayer
370
13
48
1
60
0
100
AcDbDimension
2
_U3
10
89.1586
20
-20.352503
30
0
11
109.666667
21
-20.352503
31
0
70
32
71
1
72
1
41
1
210
0
220
0
230
1
3
Standard
100
AcDbAlignedDimension
13
92
23
0
33
0
14
89.1586
24
-7.55
34
0
50
0
100
AcDbRotatedDimension
1001
ACAD
1000
DSTYLE
1002
{
1070
   371
1070
    13
1070
   372
1070
    13
1070
   170
1070
     0
1070
   144
1040
1.0
1070
   277
1070
     2
1070
   278
1070
    44
1070
   146
1040
1.0
1070
   345
1005
16
1070
   347
1005
16
1070
   346
1005
16
1070
   344
1005
0
1070
   343
1005
0
1070
   172
1070
     1
1070
    76
1070
     0
1070
    75
1070
     0
1070
   282
1070
     0
1070
   281
1070
     0
1070
    71
1070
     0
1070
    74
1070
     0
1070
   279
1070
     0
1070
   173
1070
     1
1070
   340
1005
F9
1070
   271
1070
     2
1070
   272
1070
     2
1070
    77
1070
     1
1070
    73
1070
     1
1070
   171
1070
     3
1070
   274
1070
     4
1070
   177
1070
    35
1070
   176
1070
    35
1070
   178
1070
    35
1070
    48
1040
-0.1
1070
    41
1040
3.5
1070
   147
1040
1.75
1070
    42
1040
1.5875
1070
    44
1040
2.0
1070
   140
1040
3.5
1002
}
1001
ACAD_DSTYLE_DIM_LINETYPE
1070
   380
1005
16
1001
ACAD_DSTYLE_DIM_EXT1_LINETYPE
1070
   381
1005
16
1001
ACAD_DSTYLE_DIM_EXT2_LINETYPE
1070
   382
1005
16
0
DIMENSION
5
187
100
AcDbEntity
8
SK2
62
256
6
ByLayer
370
13
48
1
60
0
100
AcDbDimension
2
_U4
10
43.1586
20
11.685371
30
0
11
66.1586
21
11.685371
31
0
70
32
71
1
72
1
41
1
210
0
220
0
230
1
3
Standard
100
AcDbAlignedDimension
13
89.1586
23
7.55
33
0
14
43.1586
24
7.55
34
0
50
0
100
AcDbRotatedDimension
1001
ACAD
1000
DSTYLE
1002
{
1070
   371
1070
    13
1070
   372
1070
    13
1070
   170
1070
     0
1070
   144
1040
1.0
1070
   277
1070
     2
1070
   278
1070
    44
1070
   146
1040
1.0
1070
   345
1005
16
1070
   347
1005
16
1070
   346
1005
16
1070
   344
1005
0
1070
   343
1005
0
1070
   172
1070
     1
1070
    76
1070
     0
1070
    75
1070
     0
1070
   282
1070
     0
1070
   281
1070
     0
1070
    71
1070
     0
1070
    74
1070
     0
1070
   279
1070
     0
1070
   173
1070
     1
1070
   340
1005
F9
1070
   271
1070
     2
1070
   272
1070
     2
1070
    77
1070
     1
1070
    73
1070
     1
1070
   171
1070
     3
1070
   274
1070
     4
1070
   177
1070
    35
1070
   176
1070
    35
1070
   178
1070
    35
1070
    48
1040
-0.1
1070
    41
1040
3.5
1070
   147
1040
1.75
1070
    42
1040
1.5875
1070
    44
1040
2.0
1070
   140
1040
3.5
1002
}
1001
ACAD_DSTYLE_DIM_LINETYPE
1070
   380
1005
16
1001
ACAD_DSTYLE_DIM_EXT1_LINETYPE
1070
   381
1005
16
1001
ACAD_DSTYLE_DIM_EXT2_LINETYPE
1070
   382
1005
16
0
DIMENSION
5
19F
100
AcDbEntity
8
SK2
62
256
6
ByLayer
370
13
48
1
60
0
100
AcDbDimension
2
_U5
10
89.1586
20
-30.690158
30
0
11
19.5793
21
-30.690158
31
0
70
32
71
1
72
1
41
1
210
0
220
0
230
1
3
Standard
100
AcDbAlignedDimension
13
-50
23
-10
33
0
14
89.1586
24
-7.55
34
0
50
0
100
AcDbRotatedDimension
1001
ACAD
1000
DSTYLE
1002
{
1070
   371
1070
    13
1070
   372
1070
    13
1070
   170
1070
     0
1070
   144
1040
1.0
1070
   277
1070
     2
1070
   278
1070
    44
1070
   146
1040
1.0
1070
   345
1005
16
1070
   347
1005
16
1070
   346
1005
16
1070
   344
1005
0
1070
   343
1005
0
1070
   172
1070
     1
1070
    76
1070
     0
1070
    75
1070
     0
1070
   282
1070
     0
1070
   281
1070
     0
1070
    71
1070
     0
1070
    74
1070
     0
1070
   279
1070
     0
1070
   173
1070
     1
1070
   340
1005
F9
1070
   271
1070
     2
1070
   272
1070
     2
1070
    77
1070
     1
1070
    73
1070
     1
1070
   171
1070
     3
1070
   274
1070
     4
1070
   177
1070
    35
1070
   176
1070
    35
1070
   178
1070
    35
1070
    48
1040
-0.1
1070
    41
1040
3.5
1070
   147
1040
1.75
1070
    42
1040
1.5875
1070
    44
1040
2.0
1070
   140
1040
3.5
1002
}
1001
ACAD_DSTYLE_DIM_LINETYPE
1070
   380
1005
16
1001
ACAD_DSTYLE_DIM_EXT1_LINETYPE
1070
   381
1005
16
1001
ACAD_DSTYLE_DIM_EXT2_LINETYPE
1070
   382
1005
16
0
ENDSEC
0
SECTION
2
OBJECTS
0
DICTIONARY
5
227
330
0
100
AcDbDictionary
280
0
281
1
3
ACAD_GROUP
350
228
3
ACAD_MLINESTYLE
350
229
0
DICTIONARY
5
228
330
0
100
AcDbDictionary
280
0
281
1
0
DICTIONARY
5
229
330
0
100
AcDbDictionary
280
0
281
1
3
Standard
350
18
0
MLINESTYLE
5
18
330
229
100
AcDbMlineStyle
2
Standard
70
0
3

62
256
51
90
52
90
71
2
49
-0.5
62
256
6
ByLayer
49
0.5
62
256
6
ByLayer
0
RASTERVARIABLES
5
215
330

100
AcDbRasterVariables
90
0
70
1
71
1
72
1
0
ENDSEC
0
EOF
