0
SECTION
2
HEADER
9
$ACADVER
1
AC1015
9
$DWGCODEPAGE
3
ANSI_1252
9
$HANDSEED
5
239
9
$ANGBASE
50
0
9
$ANGDIR
70
0
9
$ATTMODE
70
1
9
$AUNITS
70
0
9
$AUPREC
70
0
9
$CECOLOR
62
256
9
$CELTSCALE
40
1
9
$CELTYPE
6
ByLayer
9
$CELWEIGHT
370
18
9
$CLAYER
8
0
9
$CMLJUST
70
0
9
$CMLSCALE
40
1
9
$CMLSTYLE
2
Standard
9
$DIMSTYLE
2
Standard
9
$TEXTSIZE
40
0.2
9
$TEXTSTYLE
7
Standard
9
$LUNITS
70
2
9
$LUPREC
70
4
9
$EXTNAMES
290
1
9
$INSUNITS
70
4
9
$LTSCALE
40
1
9
$LWDISPLAY
290
1
9
$PDMODE
70
0
9
$PDSIZE
40
0
9
$PLINEGEN
70
0
0
ENDSEC
0
SECTION
2
CLASSES
0
CLASS
1
RASTERVARIABLES
2
AcDbRasterVariables
3
ISM
90
0
280
0
281
0
0
ENDSEC
0
SECTION
2
TABLES
0
TABLE
2
VPORT
5
22f
100
AcDbSymbolTable
0
VPORT
5
1
100
AcDbSymbolTableRecord
100
AcDbViewportTableRecord
2
*Active
70
0
10
0
20
0
11
1
21
1
12
-1
22
1
13
0
23
0
14
0.5
24
0.5
15
10
25
10
16
0
26
0
36
1
17
0
27
0
37
0
0
ENDTAB
0
TABLE
2
LTYPE
5
230
100
AcDbSymbolTable
0
LTYPE
5
14
100
AcDbSymbolTableRecord
100
AcDbLinetypeTableRecord
70
0
2
ByBlock
3

72
65
73
0
40
0
0
LTYPE
5
15
100
AcDbSymbolTableRecord
100
AcDbLinetypeTableRecord
70
0
2
ByLayer
3

72
65
73
0
40
0
0
LTYPE
5
16
100
AcDbSymbolTableRecord
100
AcDbLinetypeTableRecord
70
0
2
Continuous
3
Solid line
72
65
73
0
40
0
0
LTYPE
5
6E
100
AcDbSymbolTableRecord
100
AcDbLinetypeTableRecord
70
0
2
CENTER
3
____ _ ____ _ ____ _ ____
72
65
73
4
40
47.5
49
22
74
0
49
-8.5
74
0
49
8.5
74
0
49
-8.5
74
0
0
LTYPE
5
6F
100
AcDbSymbolTableRecord
100
AcDbLinetypeTableRecord
70
0
2
DASHED
3
__ __ __ __ __ __ __ __ __
72
65
73
2
40
25.72
49
12.86
74
0
49
-12.86
74
0
0
ENDTAB
0
TABLE
2
LAYER
5
231
100
AcDbSymbolTable
0
LAYER
5
10
100
AcDbSymbolTableRecord
100
AcDbLayerTableRecord
2
0
70
0
62
7
6
Continuous
290
1
370
-3
390
0
0
LAYER
5
71
100
AcDbSymbolTableRecord
100
AcDbLayerTableRecord
2
80
70
0
62
-6
6
Continuous
290
1
370
-3
390
0
0
LAYER
5
73
100
AcDbSymbolTableRecord
100
AcDbLayerTableRecord
2
81
70
0
62
-3
6
Continuous
290
1
370
-3
390
0
0
LAYER
5
75
100
AcDbSymbolTableRecord
100
AcDbLayerTableRecord
2
1
70
0
62
4
6
Continuous
290
1
370
-3
390
0
0
LAYER
5
8D
100
AcDbSymbolTableRecord
100
AcDbLayerTableRecord
2
4
70
0
62
-2
6
CENTER
290
1
370
-3
390
0
0
LAYER
5
98
100
AcDbSymbolTableRecord
100
AcDbLayerTableRecord
2
2
70
0
62
7
6
Continuous
290
1
370
-3
390
0
0
LAYER
5
12A
100
AcDbSymbolTableRecord
100
AcDbLayerTableRecord
2
Defpoints
70
0
62
7
6
Continuous
290
0
370
-3
390
0
0
LAYER
5
21b
100
AcDbSymbolTableRecord
100
AcDbLayerTableRecord
2
SK1
70
0
62
4
6
Continuous
290
1
370
-3
390
0
0
LAYER
5
21c
100
AcDbSymbolTableRecord
100
AcDbLayerTableRecord
2
SK4
70
0
62
2
6
CENTER
290
1
370
-3
390
0
0
LAYER
5
21d
100
AcDbSymbolTableRecord
100
AcDbLayerTableRecord
2
SK2
70
0
62
7
6
Continuous
290
1
370
-3
390
0
0
LAYER
5
21e
100
AcDbSymbolTableRecord
100
AcDbLayerTableRecord
2
SK6
70
0
62
5
6
Continuous
290
1
370
-3
390
0
0
ENDTAB
0
TABLE
2
STYLE
5
232
100
AcDbSymbolTable
0
STYLE
5
11
100
AcDbSymbolTableRecord
100
AcDbTextStyleTableRecord
2
Standard
3
txt
70
0
71
0
40
0
41
1
42
0
50
0
0
STYLE
5
FC
100
AcDbSymbolTableRecord
100
AcDbTextStyleTableRecord
2
iso_b_vert
3
simplex.shx
70
0
71
0
40
0
41
1
42
0
50
0
0
STYLE
5
FD
100
AcDbSymbolTableRecord
100
AcDbTextStyleTableRecord
2
DWGDirectTextStyle
3
simplex
70
0
71
0
40
0
41
1
42
0
50
0
0
ENDTAB
0
TABLE
2
DIMSTYLE
5
233
100
AcDbSymbolTable
100
AcDbDimStyleTable
0
DIMSTYLE
105
27
100
AcDbSymbolTableRecord
100
AcDbDimStyleTableRecord
2
Standard
70
0
3
<>
41
0.18
42
0.0625
44
0.18
140
0.18
147
0.09
73
0
74
0
77
1
271
2
275
0
278
52
280
0
340
11
0
ENDTAB
0
TABLE
2
VIEW
5
234
100
AcDbSymbolTable
0
ENDTAB
0
TABLE
2
UCS
5
235
100
AcDbSymbolTable
0
ENDTAB
0
TABLE
2
APPID
5
236
100
AcDbSymbolTable
0
APPID
5
12
100
AcDbSymbolTableRecord
100
AcDbRegAppTableRecord
2
ACAD
70
0
0
APPID
5
126
100
AcDbSymbolTableRecord
100
AcDbRegAppTableRecord
2
ACAD_DSTYLE_DIMBREAK
70
0
0
APPID
5
1DA
100
AcDbSymbolTableRecord
100
AcDbRegAppTableRecord
2
ACAD_DSTYLE_DIM_LINETYPE
70
0
0
APPID
5
1DB
100
AcDbSymbolTableRecord
100
AcDbRegAppTableRecord
2
ACAD_DSTYLE_DIM_EXT1_LINETYPE
70
0
0
APPID
5
1DC
100
AcDbSymbolTableRecord
100
AcDbRegAppTableRecord
2
ACAD_DSTYLE_DIM_EXT2_LINETYPE
70
0
0
APPID
5
217
100
AcDbSymbolTableRecord
100
AcDbRegAppTableRecord
2
ACAD_MLEADERVER
70
0
0
ENDTAB
0
TABLE
2
BLOCK_RECORD
5
237
100
AcDbSymbolTable
0
BLOCK_RECORD
5
1F
100
AcDbSymbolTableRecord
100
AcDbBlockTableRecord
2
*Model_Space
340
0
70
0
0
BLOCK_RECORD
5
1B
100
AcDbSymbolTableRecord
100
AcDbBlockTableRecord
2
*Paper_Space
340
0
70
0
0
BLOCK_RECORD
5
23
100
AcDbSymbolTableRecord
100
AcDbBlockTableRecord
2
*Paper_Space0
340
0
70
0
0
BLOCK_RECORD
5
12B
100
AcDbSymbolTableRecord
100
AcDbBlockTableRecord
2
*D1
340
0
70
0
0
BLOCK_RECORD
5
137
100
AcDbSymbolTableRecord
100
AcDbBlockTableRecord
2
_U0
340
0
70
0
0
BLOCK_RECORD
5
143
100
AcDbSymbolTableRecord
100
AcDbBlockTableRecord
2
*D3
340
0
70
0
0
BLOCK_RECORD
5
14F
100
AcDbSymbolTableRecord
100
AcDbBlockTableRecord
2
_U1
340
0
70
0
0
BLOCK_RECORD
5
15B
100
AcDbSymbolTableRecord
100
AcDbBlockTableRecord
2
*D5
340
0
70
0
0
BLOCK_RECORD
5
168
100
AcDbSymbolTableRecord
100
AcDbBlockTableRecord
2
_U2
340
0
70
0
0
BLOCK_RECORD
5
174
100
AcDbSymbolTableRecord
100
AcDbBlockTableRecord
2
*D7
340
0
70
0
0
BLOCK_RECORD
5
182
100
AcDbSymbolTableRecord
100
AcDbBlockTableRecord
2
_U3
340
0
70
0
0
BLOCK_RECORD
5
18E
100
AcDbSymbolTableRecord
100
AcDbBlockTableRecord
2
*D9
340
0
70
0
0
BLOCK_RECORD
5
19B
100
AcDbSymbolTableRecord
100
AcDbBlockTableRecord
2
_U4
340
0
70
0
0
BLOCK_RECORD
5
1A7
100
AcDbSymbolTableRecord
100
AcDbBlockTableRecord
2
*D11
340
0
70
0
0
BLOCK_RECORD
5
1B3
100
AcDbSymbolTableRecord
100
AcDbBlockTableRecord
2
_U5
340
0
70
0
0
ENDTAB
0
ENDSEC
0
SECTION
2
BLOCKS
0
BLOCK
5
20
100
AcDbEntity
8
0
100
AcDbBlockBegin
2
*Model_Space
70
0
10
0
20
0
30
0
3
*Model_Space
0
ENDBLK
5
21
100
AcDbEntity
8
0
100
AcDbBlockEnd
0
BLOCK
5
1C
100
AcDbEntity
8
0
100
AcDbBlockBegin
2
*Paper_Space
70
0
10
0
20
0
30
0
3
*Paper_Space
0
ENDBLK
5
1D
100
AcDbEntity
8
0
100
AcDbBlockEnd
0
BLOCK
5
24
100
AcDbEntity
8
0
100
AcDbBlockBegin
2
*Paper_Space0
70
0
10
0
20
0
30
0
3
*Paper_Space0
0
ENDBLK
5
25
100
AcDbEntity
8
0
100
AcDbBlockEnd
0
BLOCK
5
12C
100
AcDbEntity
8
0
100
AcDbBlockBegin
2
*D1
70
1
10
0
20
0
30
0
3
*D1
0
LINE
5
12E
100
AcDbEntity
8
0
62
256
6
ByLayer
370
-2
48
1
60
0
100
AcDbLine
10
0
20
-1.5875
30
0
11
0
21
-17.127503
31
0
39
0
210
0
220
0
230
1
0
LINE
5
12F
100
AcDbEntity
8
0
62
256
6
ByLayer
370
-2
48
1
60
0
100
AcDbLine
10
37.0539
20
-3.9125
30
0
11
37.0539
21
-17.127503
31
0
39
0
210
0
220
0
230
1
0
LINE
5
130
100
AcDbEntity
8
0
62
256
6
ByLayer
370
-2
48
1
60
0
100
AcDbLine
10
3.5
20
-15.127503
30
0
11
33.5539
21
-15.127503
31
0
39
0
210
0
220
0
230
1
0
SOLID
5
131
100
AcDbEntity
8
0
62
256
6
ByLayer
370
-1
48
1
60
0
100
AcDbTrace
10
3.5
20
-14.54417
30
0
11
3.5
21
-15.710837
31
0
12
0
22
-15.127503
32
0
13
0
23
-15.127503
33
0
39
0
210
0
220
0
230
1
0
SOLID
5
132
100
AcDbEntity
8
0
62
256
6
ByLayer
370
-1
48
1
60
0
100
AcDbTrace
10
33.5539
20
-15.710837
30
0
11
33.5539
21
-14.54417
31
0
12
37.0539
22
-15.127503
32
0
13
37.0539
23
-15.127503
33
0
39
0
210
0
220
0
230
1
0
MTEXT
5
133
100
AcDbEntity
8
0
62
256
6
ByLayer
370
18
48
1
60
0
100
AcDbMText
10
18.52695
20
-8.127503
30
0
210
0
220
0
230
1
1
\A1;37.05
40
3.5
41
0
44
1
50
0
71
5
72
5
7
iso_b_vert
0
POINT
5
134
100
AcDbEntity
8
Defpoints
62
0
6
ByLayer
370
-1
48
1
60
0
100
AcDbPoint
10
0
20
0
30
0
39
0
210
0
220
0
230
1
50
360
0
POINT
5
135
100
AcDbEntity
8
Defpoints
62
0
6
ByLayer
370
-1
48
1
60
0
100
AcDbPoint
10
37.0539
20
-2.325
30
0
39
0
210
0
220
0
230
1
50
360
0
POINT
5
136
100
AcDbEntity
8
Defpoints
62
0
6
ByLayer
370
-1
48
1
60
0
100
AcDbPoint
10
37.0539
20
-15.127503
30
0
39
0
210
0
220
0
230
1
50
360
0
ENDBLK
5
12D
100
AcDbEntity
8
0
100
AcDbBlockEnd
0
BLOCK
5
13E
100
AcDbEntity
8
0
100
AcDbBlockBegin
2
_U0
70
0
10
0
20
0
30
0
3
_U0
0
MTEXT
5
138
100
AcDbEntity
8
2
62
256
6
ByLayer
370
13
48
1
60
0
100
AcDbMText
10
13.389651
20
-14.09487
30
0
210
0
220
0
230
1
1
\W0.7317;37,05
40
3.5
41
0
44
1.084337
50
0
71
7
72
5
7
iso_b_vert
0
LINE
5
139
100
AcDbEntity
8
2
62
256
6
ByLayer
370
13
48
1
60
0
100
AcDbLine
10
0
20
-1.5875
30
0
11
0
21
-17.127503
31
0
39
0
210
0
220
0
230
1
0
LINE
5
13A
100
AcDbEntity
8
2
62
256
6
ByLayer
370
13
48
1
60
0
100
AcDbLine
10
37.0539
20
-3.9125
30
0
11
37.0539
21
-17.127503
31
0
39
0
210
0
220
0
230
1
0
LINE
5
13B
100
AcDbEntity
8
2
62
256
6
ByLayer
370
13
48
1
60
0
100
AcDbLine
10
0
20
-15.127503
30
0
11
37.0539
21
-15.127503
31
0
39
0
210
0
220
0
230
1
0
SOLID
5
13C
100
AcDbEntity
8
2
62
256
6
ByLayer
370
18
48
1
60
0
100
AcDbTrace
10
0
20
-15.127503
30
0
11
3.499998
21
-14.666719
31
0
12
3.500002
22
-15.588287
32
0
13
3.500002
23
-15.588287
33
0
39
0
210
0
220
0
230
1
0
SOLID
5
13D
100
AcDbEntity
8
2
62
256
6
ByLayer
370
18
48
1
60
0
100
AcDbTrace
10
37.0539
20
-15.127503
30
0
11
33.553902
21
-15.588287
31
0
12
33.553898
22
-14.666719
32
0
13
33.553898
23
-14.666719
33
0
39
0
210
0
220
0
230
1
0
ENDBLK
5
13F
100
AcDbEntity
8
0
100
AcDbBlockEnd
0
BLOCK
5
144
100
AcDbEntity
8
0
100
AcDbBlockBegin
2
*D3
70
1
10
0
20
0
30
0
3
*D3
0
LINE
5
146
100
AcDbEntity
8
0
62
256
6
ByLayer
370
-2
48
1
60
0
100
AcDbLine
10
-36
20
-4.5875
30
0
11
-36
21
-36.192985
31
0
39
0
210
0
220
0
230
1
0
LINE
5
147
100
AcDbEntity
8
0
62
256
6
ByLayer
370
-2
48
1
60
0
100
AcDbLine
10
38
20
-1.5875
30
0
11
38
21
-36.192985
31
0
39
0
210
0
220
0
230
1
0
LINE
5
148
100
AcDbEntity
8
0
62
256
6
ByLayer
370
-2
48
1
60
0
100
AcDbLine
10
-32.5
20
-34.192985
30
0
11
34.5
21
-34.192985
31
0
39
0
210
0
220
0
230
1
0
SOLID
5
149
100
AcDbEntity
8
0
62
256
6
ByLayer
370
-1
48
1
60
0
100
AcDbTrace
10
-32.5
20
-33.609652
30
0
11
-32.5
21
-34.776319
31
0
12
-36
22
-34.192985
32
0
13
-36
23
-34.192985
33
0
39
0
210
0
220
0
230
1
0
SOLID
5
14A
100
AcDbEntity
8
0
62
256
6
ByLayer
370
-1
48
1
60
0
100
AcDbTrace
10
34.5
20
-34.776319
30
0
11
34.5
21
-33.609652
31
0
12
38
22
-34.192985
32
0
13
38
23
-34.192985
33
0
39
0
210
0
220
0
230
1
0
MTEXT
5
14B
100
AcDbEntity
8
0
62
256
6
ByLayer
370
18
48
1
60
0
100
AcDbMText
10
1
20
-27.192985
30
0
210
0
220
0
230
1
1
\A1;74.00
40
3.5
41
0
44
1
50
0
71
5
72
5
7
iso_b_vert
0
POINT
5
14C
100
AcDbEntity
8
Defpoints
62
0
6
ByLayer
370
-1
48
1
60
0
100
AcDbPoint
10
-36
20
-3
30
0
39
0
210
0
220
0
230
1
50
360
0
POINT
5
14D
100
AcDbEntity
8
Defpoints
62
0
6
ByLayer
370
-1
48
1
60
0
100
AcDbPoint
10
38
20
0
30
0
39
0
210
0
220
0
230
1
50
360
0
POINT
5
14E
100
AcDbEntity
8
Defpoints
62
0
6
ByLayer
370
-1
48
1
60
0
100
AcDbPoint
10
38
20
-34.192985
30
0
39
0
210
0
220
0
230
1
50
360
0
ENDBLK
5
145
100
AcDbEntity
8
0
100
AcDbBlockEnd
0
BLOCK
5
156
100
AcDbEntity
8
0
100
AcDbBlockBegin
2
_U1
70
0
10
0
20
0
30
0
3
_U1
0
MTEXT
5
150
100
AcDbEntity
8
SK2
62
256
6
ByLayer
370
13
48
1
60
0
100
AcDbMText
10
-4.321565
20
-33.160352
30
0
210
0
220
0
230
1
1
\W0.7581;74,00
40
3.5
41
0
44
1.084337
50
0
71
7
72
5
7
iso_b_vert
0
LINE
5
151
100
AcDbEntity
8
SK2
62
256
6
ByLayer
370
13
48
1
60
0
100
AcDbLine
10
-36
20
-4.5875
30
0
11
-36
21
-36.192985
31
0
39
0
210
0
220
0
230
1
0
LINE
5
152
100
AcDbEntity
8
SK2
62
256
6
ByLayer
370
13
48
1
60
0
100
AcDbLine
10
38
20
-1.5875
30
0
11
38
21
-36.192985
31
0
39
0
210
0
220
0
230
1
0
LINE
5
153
100
AcDbEntity
8
SK2
62
256
6
ByLayer
370
13
48
1
60
0
100
AcDbLine
10
-36
20
-34.192985
30
0
11
38
21
-34.192985
31
0
39
0
210
0
220
0
230
1
0
SOLID
5
154
100
AcDbEntity
8
SK2
62
256
6
ByLayer
370
18
48
1
60
0
100
AcDbTrace
10
-36
20
-34.192985
30
0
11
-32.500002
21
-33.732202
31
0
12
-32.499998
22
-34.653769
32
0
13
-32.499998
23
-34.653769
33
0
39
0
210
0
220
0
230
1
0
SOLID
5
155
100
AcDbEntity
8
SK2
62
256
6
ByLayer
370
18
48
1
60
0
100
AcDbTrace
10
38
20
-34.192985
30
0
11
34.500002
21
-34.653769
31
0
12
34.499998
22
-33.732202
32
0
13
34.499998
23
-33.732202
33
0
39
0
210
0
220
0
230
1
0
ENDBLK
5
157
100
AcDbEntity
8
0
100
AcDbBlockEnd
0
BLOCK
5
15C
100
AcDbEntity
8
0
100
AcDbBlockBegin
2
*D5
70
1
10
0
20
0
30
0
3
*D5
0
LINE
5
15E
100
AcDbEntity
8
0
62
256
6
ByLayer
370
-2
48
1
60
0
100
AcDbLine
10
22.43
20
4.5375
30
0
11
22.43
21
15.934119
31
0
39
0
210
0
220
0
230
1
0
LINE
5
15F
100
AcDbEntity
8
0
62
256
6
ByLayer
370
-2
48
1
60
0
100
AcDbLine
10
38
20
1.5875
30
0
11
38
21
15.934119
31
0
39
0
210
0
220
0
230
1
0
LINE
5
160
100
AcDbEntity
8
0
62
256
6
ByLayer
370
-2
48
1
60
0
100
AcDbLine
10
18.93
20
13.934119
30
0
11
15.43
21
13.934119
31
0
39
0
210
0
220
0
230
1
0
LINE
5
161
100
AcDbEntity
8
0
62
256
6
ByLayer
370
-2
48
1
60
0
100
AcDbLine
10
41.5
20
13.934119
30
0
11
45
21
13.934119
31
0
39
0
210
0
220
0
230
1
0
SOLID
5
162
100
AcDbEntity
8
0
62
256
6
ByLayer
370
-1
48
1
60
0
100
AcDbTrace
10
18.93
20
13.350786
30
0
11
18.93
21
14.517453
31
0
12
22.43
22
13.934119
32
0
13
22.43
23
13.934119
33
0
39
0
210
0
220
0
230
1
0
SOLID
5
163
100
AcDbEntity
8
0
62
256
6
ByLayer
370
-1
48
1
60
0
100
AcDbTrace
10
41.5
20
14.517453
30
0
11
41.5
21
13.350786
31
0
12
38
22
13.934119
32
0
13
38
23
13.934119
33
0
39
0
210
0
220
0
230
1
0
MTEXT
5
164
100
AcDbEntity
8
0
62
256
6
ByLayer
370
18
48
1
60
0
100
AcDbMText
10
30.215
20
20.934119
30
0
210
0
220
0
230
1
1
\A1;15.57
40
3.5
41
0
44
1
50
0
71
5
72
5
7
iso_b_vert
0
POINT
5
165
100
AcDbEntity
8
Defpoints
62
0
6
ByLayer
370
-1
48
1
60
0
100
AcDbPoint
10
22.43
20
2.95
30
0
39
0
210
0
220
0
230
1
50
360
0
POINT
5
166
100
AcDbEntity
8
Defpoints
62
0
6
ByLayer
370
-1
48
1
60
0
100
AcDbPoint
10
38
20
0
30
0
39
0
210
0
220
0
230
1
50
360
0
POINT
5
167
100
AcDbEntity
8
Defpoints
62
0
6
ByLayer
370
-1
48
1
60
0
100
AcDbPoint
10
38
20
13.934119
30
0
39
0
210
0
220
0
230
1
50
360
0
ENDBLK
5
15D
100
AcDbEntity
8
0
100
AcDbBlockEnd
0
BLOCK
5
16F
100
AcDbEntity
8
0
100
AcDbBlockBegin
2
_U2
70
0
10
0
20
0
30
0
3
_U2
0
MTEXT
5
169
100
AcDbEntity
8
SK2
62
256
6
ByLayer
370
13
48
1
60
0
100
AcDbMText
10
25.515135
20
14.966753
30
0
210
0
220
0
230
1
1
\W0.6713;15,57
40
3.5
41
0
44
1.084337
50
0
71
7
72
5
7
iso_b_vert
0
LINE
5
16A
100
AcDbEntity
8
SK2
62
256
6
ByLayer
370
13
48
1
60
0
100
AcDbLine
10
22.43
20
4.5375
30
0
11
22.43
21
15.934119
31
0
39
0
210
0
220
0
230
1
0
LINE
5
16B
100
AcDbEntity
8
SK2
62
256
6
ByLayer
370
13
48
1
60
0
100
AcDbLine
10
38
20
1.5875
30
0
11
38
21
15.934119
31
0
39
0
210
0
220
0
230
1
0
LINE
5
16C
100
AcDbEntity
8
SK2
62
256
6
ByLayer
370
13
48
1
60
0
100
AcDbLine
10
22.43
20
13.934119
30
0
11
38
21
13.934119
31
0
39
0
210
0
220
0
230
1
0
SOLID
5
16D
100
AcDbEntity
8
SK2
62
256
6
ByLayer
370
18
48
1
60
0
100
AcDbTrace
10
22.43
20
13.934119
30
0
11
25.929998
21
14.394903
31
0
12
25.930002
22
13.473335
32
0
13
25.930002
23
13.473335
33
0
39
0
210
0
220
0
230
1
0
SOLID
5
16E
100
AcDbEntity
8
SK2
62
256
6
ByLayer
370
18
48
1
60
0
100
AcDbTrace
10
38
20
13.934119
30
0
11
34.500002
21
13.473335
31
0
12
34.499998
22
14.394903
32
0
13
34.499998
23
14.394903
33
0
39
0
210
0
220
0
230
1
0
ENDBLK
5
170
100
AcDbEntity
8
0
100
AcDbBlockEnd
0
BLOCK
5
175
100
AcDbEntity
8
0
100
AcDbBlockBegin
2
*D7
70
1
10
0
20
0
30
0
3
*D7
0
LINE
5
177
100
AcDbEntity
8
0
62
256
6
ByLayer
370
-2
48
1
60
0
100
AcDbLine
10
38
20
-1.5875
30
0
11
38
21
-17.127503
31
0
39
0
210
0
220
0
230
1
0
LINE
5
178
100
AcDbEntity
8
0
62
256
6
ByLayer
370
-2
48
1
60
0
100
AcDbLine
10
37.0539
20
-3.9125
30
0
11
37.0539
21
-17.127503
31
0
39
0
210
0
220
0
230
1
0
LINE
5
179
100
AcDbEntity
8
0
62
256
6
ByLayer
370
-2
48
1
60
0
100
AcDbLine
10
38
20
-15.127503
30
0
11
66.166667
21
-15.127503
31
0
39
0
210
0
220
0
230
1
0
LINE
5
17A
100
AcDbEntity
8
0
62
256
6
ByLayer
370
-2
48
1
60
0
100
AcDbLine
10
41.5
20
-15.127503
30
0
11
45
21
-15.127503
31
0
39
0
210
0
220
0
230
1
0
LINE
5
17B
100
AcDbEntity
8
0
62
256
6
ByLayer
370
-2
48
1
60
0
100
AcDbLine
10
33.5539
20
-15.127503
30
0
11
30.0539
21
-15.127503
31
0
39
0
210
0
220
0
230
1
0
SOLID
5
17C
100
AcDbEntity
8
0
62
256
6
ByLayer
370
-1
48
1
60
0
100
AcDbTrace
10
41.5
20
-14.54417
30
0
11
41.5
21
-15.710837
31
0
12
38
22
-15.127503
32
0
13
38
23
-15.127503
33
0
39
0
210
0
220
0
230
1
0
SOLID
5
17D
100
AcDbEntity
8
0
62
256
6
ByLayer
370
-1
48
1
60
0
100
AcDbTrace
10
33.5539
20
-15.710837
30
0
11
33.5539
21
-14.54417
31
0
12
37.0539
22
-15.127503
32
0
13
37.0539
23
-15.127503
33
0
39
0
210
0
220
0
230
1
0
MTEXT
5
17E
100
AcDbEntity
8
0
62
256
6
ByLayer
370
18
48
1
60
0
100
AcDbMText
10
55.583333
20
-8.127503
30
0
210
0
220
0
230
1
1
\A1;0.95
40
3.5
41
0
44
1
50
0
71
5
72
5
7
iso_b_vert
0
POINT
5
17F
100
AcDbEntity
8
Defpoints
62
0
6
ByLayer
370
-1
48
1
60
0
100
AcDbPoint
10
38
20
0
30
0
39
0
210
0
220
0
230
1
50
360
0
POINT
5
180
100
AcDbEntity
8
Defpoints
62
0
6
ByLayer
370
-1
48
1
60
0
100
AcDbPoint
10
37.0539
20
-2.325
30
0
39
0
210
0
220
0
230
1
50
360
0
POINT
5
181
100
AcDbEntity
8
Defpoints
62
0
6
ByLayer
370
-1
48
1
60
0
100
AcDbPoint
10
37.0539
20
-15.127503
30
0
39
0
210
0
220
0
230
1
50
360
0
ENDBLK
5
176
100
AcDbEntity
8
0
100
AcDbBlockEnd
0
BLOCK
5
189
100
AcDbEntity
8
0
100
AcDbBlockBegin
2
_U3
70
0
10
0
20
0
30
0
3
_U3
0
MTEXT
5
183
100
AcDbEntity
8
SK2
62
256
6
ByLayer
370
13
48
1
60
0
100
AcDbMText
10
44.15186
20
-14.09487
30
0
210
0
220
0
230
1
1
\W0.7150;0,95
40
3.5
41
0
44
1.084337
50
0
71
7
72
5
7
iso_b_vert
0
LINE
5
184
100
AcDbEntity
8
SK2
62
256
6
ByLayer
370
13
48
1
60
0
100
AcDbLine
10
38
20
-1.5875
30
0
11
38
21
-17.127503
31
0
39
0
210
0
220
0
230
1
0
LINE
5
185
100
AcDbEntity
8
SK2
62
256
6
ByLayer
370
13
48
1
60
0
100
AcDbLine
10
37.0539
20
-3.9125
30
0
11
37.0539
21
-17.127503
31
0
39
0
210
0
220
0
230
1
0
LINE
5
186
100
AcDbEntity
8
SK2
62
256
6
ByLayer
370
13
48
1
60
0
100
AcDbLine
10
28.3039
20
-15.127503
30
0
11
51.996491
21
-15.127503
31
0
39
0
210
0
220
0
230
1
0
SOLID
5
187
100
AcDbEntity
8
SK2
62
256
6
ByLayer
370
18
48
1
60
0
100
AcDbTrace
10
38
20
-15.127503
30
0
11
41.499998
21
-14.666719
31
0
12
41.500002
22
-15.588287
32
0
13
41.500002
23
-15.588287
33
0
39
0
210
0
220
0
230
1
0
SOLID
5
188
100
AcDbEntity
8
SK2
62
256
6
ByLayer
370
18
48
1
60
0
100
AcDbTrace
10
37.0539
20
-15.127503
30
0
11
33.553902
21
-15.588287
31
0
12
33.553898
22
-14.666719
32
0
13
33.553898
23
-14.666719
33
0
39
0
210
0
220
0
230
1
0
ENDBLK
5
18A
100
AcDbEntity
8
0
100
AcDbBlockEnd
0
BLOCK
5
18F
100
AcDbEntity
8
0
100
AcDbBlockBegin
2
*D9
70
1
10
0
20
0
30
0
3
*D9
0
LINE
5
191
100
AcDbEntity
8
0
62
256
6
ByLayer
370
-2
48
1
60
0
100
AcDbLine
10
37.0539
20
3.9125
30
0
11
37.0539
21
8.460371
31
0
39
0
210
0
220
0
230
1
0
LINE
5
192
100
AcDbEntity
8
0
62
256
6
ByLayer
370
-2
48
1
60
0
100
AcDbLine
10
23.0539
20
3.9125
30
0
11
23.0539
21
8.460371
31
0
39
0
210
0
220
0
230
1
0
LINE
5
193
100
AcDbEntity
8
0
62
256
6
ByLayer
370
-2
48
1
60
0
100
AcDbLine
10
40.5539
20
6.460371
30
0
11
44.0539
21
6.460371
31
0
39
0
210
0
220
0
230
1
0
LINE
5
194
100
AcDbEntity
8
0
62
256
6
ByLayer
370
-2
48
1
60
0
100
AcDbLine
10
19.5539
20
6.460371
30
0
11
16.0539
21
6.460371
31
0
39
0
210
0
220
0
230
1
0
SOLID
5
195
100
AcDbEntity
8
0
62
256
6
ByLayer
370
-1
48
1
60
0
100
AcDbTrace
10
40.5539
20
7.043705
30
0
11
40.5539
21
5.877038
31
0
12
37.0539
22
6.460371
32
0
13
37.0539
23
6.460371
33
0
39
0
210
0
220
0
230
1
0
SOLID
5
196
100
AcDbEntity
8
0
62
256
6
ByLayer
370
-1
48
1
60
0
100
AcDbTrace
10
19.5539
20
5.877038
30
0
11
19.5539
21
7.043705
31
0
12
23.0539
22
6.460371
32
0
13
23.0539
23
6.460371
33
0
39
0
210
0
220
0
230
1
0
MTEXT
5
197
100
AcDbEntity
8
0
62
256
6
ByLayer
370
18
48
1
60
0
100
AcDbMText
10
30.0539
20
13.460371
30
0
210
0
220
0
230
1
1
\A1;14.00
40
3.5
41
0
44
1
50
0
71
5
72
5
7
iso_b_vert
0
POINT
5
198
100
AcDbEntity
8
Defpoints
62
0
6
ByLayer
370
-1
48
1
60
0
100
AcDbPoint
10
37.0539
20
2.325
30
0
39
0
210
0
220
0
230
1
50
360
0
POINT
5
199
100
AcDbEntity
8
Defpoints
62
0
6
ByLayer
370
-1
48
1
60
0
100
AcDbPoint
10
23.0539
20
2.325
30
0
39
0
210
0
220
0
230
1
50
360
0
POINT
5
19A
100
AcDbEntity
8
Defpoints
62
0
6
ByLayer
370
-1
48
1
60
0
100
AcDbPoint
10
23.0539
20
6.460371
30
0
39
0
210
0
220
0
230
1
50
360
0
ENDBLK
5
190
100
AcDbEntity
8
0
100
AcDbBlockEnd
0
BLOCK
5
1A2
100
AcDbEntity
8
0
100
AcDbBlockBegin
2
_U4
70
0
10
0
20
0
30
0
3
_U4
0
MTEXT
5
19C
100
AcDbEntity
8
SK2
62
256
6
ByLayer
370
13
48
1
60
0
100
AcDbMText
10
25.169768
20
7.493005
30
0
210
0
220
0
230
1
1
\W0.6977;14,00
40
3.5
41
0
44
1.084337
50
0
71
7
72
5
7
iso_b_vert
0
LINE
5
19D
100
AcDbEntity
8
SK2
62
256
6
ByLayer
370
13
48
1
60
0
100
AcDbLine
10
37.0539
20
3.9125
30
0
11
37.0539
21
8.460371
31
0
39
0
210
0
220
0
230
1
0
LINE
5
19E
100
AcDbEntity
8
SK2
62
256
6
ByLayer
370
13
48
1
60
0
100
AcDbLine
10
23.0539
20
3.9125
30
0
11
23.0539
21
8.460371
31
0
39
0
210
0
220
0
230
1
0
LINE
5
19F
100
AcDbEntity
8
SK2
62
256
6
ByLayer
370
13
48
1
60
0
100
AcDbLine
10
37.0539
20
6.460371
30
0
11
23.0539
21
6.460371
31
0
39
0
210
0
220
0
230
1
0
SOLID
5
1A0
100
AcDbEntity
8
SK2
62
256
6
ByLayer
370
18
48
1
60
0
100
AcDbTrace
10
37.0539
20
6.460371
30
0
11
33.553902
21
5.999588
31
0
12
33.553898
22
6.921155
32
0
13
33.553898
23
6.921155
33
0
39
0
210
0
220
0
230
1
0
SOLID
5
1A1
100
AcDbEntity
8
SK2
62
256
6
ByLayer
370
18
48
1
60
0
100
AcDbTrace
10
23.0539
20
6.460371
30
0
11
26.553898
21
6.921155
31
0
12
26.553902
22
5.999588
32
0
13
26.553902
23
5.999588
33
0
39
0
210
0
220
0
230
1
0
ENDBLK
5
1A3
100
AcDbEntity
8
0
100
AcDbBlockEnd
0
BLOCK
5
1A8
100
AcDbEntity
8
0
100
AcDbBlockBegin
2
*D11
70
1
10
0
20
0
30
0
3
*D11
0
LINE
5
1AA
100
AcDbEntity
8
0
62
256
6
ByLayer
370
-2
48
1
60
0
100
AcDbLine
10
-36
20
-4.5875
30
0
11
-36
21
-25.690158
31
0
39
0
210
0
220
0
230
1
0
LINE
5
1AB
100
AcDbEntity
8
0
62
256
6
ByLayer
370
-2
48
1
60
0
100
AcDbLine
10
37.0539
20
-3.9125
30
0
11
37.0539
21
-25.690158
31
0
39
0
210
0
220
0
230
1
0
LINE
5
1AC
100
AcDbEntity
8
0
62
256
6
ByLayer
370
-2
48
1
60
0
100
AcDbLine
10
-32.5
20
-23.690158
30
0
11
33.5539
21
-23.690158
31
0
39
0
210
0
220
0
230
1
0
SOLID
5
1AD
100
AcDbEntity
8
0
62
256
6
ByLayer
370
-1
48
1
60
0
100
AcDbTrace
10
-32.5
20
-23.106825
30
0
11
-32.5
21
-24.273491
31
0
12
-36
22
-23.690158
32
0
13
-36
23
-23.690158
33
0
39
0
210
0
220
0
230
1
0
SOLID
5
1AE
100
AcDbEntity
8
0
62
256
6
ByLayer
370
-1
48
1
60
0
100
AcDbTrace
10
33.5539
20
-24.273491
30
0
11
33.5539
21
-23.106825
31
0
12
37.0539
22
-23.690158
32
0
13
37.0539
23
-23.690158
33
0
39
0
210
0
220
0
230
1
0
MTEXT
5
1AF
100
AcDbEntity
8
0
62
256
6
ByLayer
370
18
48
1
60
0
100
AcDbMText
10
0.52695
20
-16.690158
30
0
210
0
220
0
230
1
1
\A1;73.05
40
3.5
41
0
44
1
50
0
71
5
72
5
7
iso_b_vert
0
POINT
5
1B0
100
AcDbEntity
8
Defpoints
62
0
6
ByLayer
370
-1
48
1
60
0
100
AcDbPoint
10
-36
20
-3
30
0
39
0
210
0
220
0
230
1
50
360
0
POINT
5
1B1
100
AcDbEntity
8
Defpoints
62
0
6
ByLayer
370
-1
48
1
60
0
100
AcDbPoint
10
37.0539
20
-2.325
30
0
39
0
210
0
220
0
230
1
50
360
0
POINT
5
1B2
100
AcDbEntity
8
Defpoints
62
0
6
ByLayer
370
-1
48
1
60
0
100
AcDbPoint
10
37.0539
20
-23.690158
30
0
39
0
210
0
220
0
230
1
50
360
0
ENDBLK
5
1A9
100
AcDbEntity
8
0
100
AcDbBlockEnd
0
BLOCK
5
1BA
100
AcDbEntity
8
0
100
AcDbBlockBegin
2
_U5
70
0
10
0
20
0
30
0
3
_U5
0
MTEXT
5
1B4
100
AcDbEntity
8
SK2
62
256
6
ByLayer
370
13
48
1
60
0
100
AcDbMText
10
-4.610349
20
-22.657524
30
0
210
0
220
0
230
1
1
\W0.7317;73,05
40
3.5
41
0
44
1.084337
50
0
71
7
72
5
7
iso_b_vert
0
LINE
5
1B5
100
AcDbEntity
8
SK2
62
256
6
ByLayer
370
13
48
1
60
0
100
AcDbLine
10
-36
20
-4.5875
30
0
11
-36
21
-25.690158
31
0
39
0
210
0
220
0
230
1
0
LINE
5
1B6
100
AcDbEntity
8
SK2
62
256
6
ByLayer
370
13
48
1
60
0
100
AcDbLine
10
37.0539
20
-3.9125
30
0
11
37.0539
21
-25.690158
31
0
39
0
210
0
220
0
230
1
0
LINE
5
1B7
100
AcDbEntity
8
SK2
62
256
6
ByLayer
370
13
48
1
60
0
100
AcDbLine
10
-36
20
-23.690158
30
0
11
37.0539
21
-23.690158
31
0
39
0
210
0
220
0
230
1
0
SOLID
5
1B8
100
AcDbEntity
8
SK2
62
256
6
ByLayer
370
18
48
1
60
0
100
AcDbTrace
10
-36
20
-23.690158
30
0
11
-32.500002
21
-23.229374
31
0
12
-32.499998
22
-24.150942
32
0
13
-32.499998
23
-24.150942
33
0
39
0
210
0
220
0
230
1
0
SOLID
5
1B9
100
AcDbEntity
8
SK2
62
256
6
ByLayer
370
18
48
1
60
0
100
AcDbTrace
10
37.0539
20
-23.690158
30
0
11
33.553902
21
-24.150942
31
0
12
33.553898
22
-23.229374
32
0
13
33.553898
23
-23.229374
33
0
39
0
210
0
220
0
230
1
0
ENDBLK
5
1BB
100
AcDbEntity
8
0
100
AcDbBlockEnd
0
ENDSEC
0
SECTION
2
ENTITIES
0
ARC
5
BC
100
AcDbEntity
8
1
62
256
6
ByLayer
370
18
48
1
60
0
100
AcDbCircle
39
0
10
0.409268
20
-3.8
30
0
40
0.850000000000001
210
0
220
0
230
1
100
AcDbArc
50
90
51
103.930555
0
ARC
5
BD
100
AcDbEntity
8
1
62
256
6
ByLayer
370
18
48
1
60
0
100
AcDbCircle
39
0
10
0.409268
20
3.8
30
0
40
0.850000000000001
210
0
220
0
230
1
100
AcDbArc
50
256.069445
51
270
0
ARC
5
BE
100
AcDbEntity
8
1
62
256
6
ByLayer
370
18
48
1
60
0
100
AcDbCircle
39
0
10
0
20
-2.15
30
0
40
0.85
210
0
220
0
230
1
100
AcDbArc
50
270
51
283.930555
0
ARC
5
BF
100
AcDbEntity
8
1
62
256
6
ByLayer
370
18
48
1
60
0
100
AcDbCircle
39
0
10
0
20
2.15
30
0
40
0.85
210
0
220
0
230
1
100
AcDbArc
50
76.069445
51
90
0
ARC
5
C0
100
AcDbEntity
8
SK2
62
256
6
ByLayer
370
13
48
1
60
0
100
AcDbCircle
39
0
10
25.3789
20
0
30
0
40
17.662030231329
210
0
220
0
230
1
100
AcDbArc
50
183.48718
51
225
0
ARC
5
C1
100
AcDbEntity
8
SK2
62
256
6
ByLayer
370
13
48
1
60
0
100
AcDbCircle
39
0
10
25.3789
20
0
30
0
40
17.662030231329
210
0
220
0
230
1
100
AcDbArc
50
135
51
162.109676
0
ELLIPSE
5
C2
100
AcDbEntity
8
1
62
256
6
ByLayer
370
13
48
1
60
0
100
AcDbEllipse
10
21.279125
20
-68.555668
30
0
11
-37.0314733134029
21
64.7422375152074
31
0
210
0
220
0
230
1
40
0.726109
41
-0.667218685142878
42
-0.589863345849699
0
ELLIPSE
5
C3
100
AcDbEntity
8
1
62
256
6
ByLayer
370
13
48
1
60
0
100
AcDbEllipse
10
82.194174
20
43.317348
30
0
11
-61.7
21
7.55582120308407E-15
31
0
210
0
220
0
230
1
40
0.99863
41
0.760495968055989
42
0.768613799981152
0
POINT
5
70
100
AcDbEntity
8
80
62
256
6
ByLayer
370
18
48
1
60
0
100
AcDbPoint
10
0
20
0
30
0
39
0
210
0
220
0
230
1
50
360
0
POINT
5
72
100
AcDbEntity
8
81
62
256
6
ByLayer
370
18
48
1
60
0
100
AcDbPoint
10
38
20
0
30
0
39
0
210
0
220
0
230
1
50
360
0
POINT
5
74
100
AcDbEntity
8
1
62
256
6
ByLayer
370
18
48
1
60
1
100
AcDbPoint
10
37.0539
20
-2.325
30
0
39
0
210
0
220
0
230
1
50
360
0
POINT
5
76
100
AcDbEntity
8
1
62
256
6
ByLayer
370
18
48
1
60
1
100
AcDbPoint
10
-36
20
-3
30
0
39
0
210
0
220
0
230
1
50
360
0
POINT
5
77
100
AcDbEntity
8
1
62
256
6
ByLayer
370
18
48
1
60
1
100
AcDbPoint
10
22.43
20
2.95
30
0
39
0
210
0
220
0
230
1
50
360
0
POINT
5
78
100
AcDbEntity
8
1
62
256
6
ByLayer
370
18
48
1
60
1
100
AcDbPoint
10
37.0539
20
-2.325
30
0
39
0
210
0
220
0
230
1
50
360
0
POINT
5
79
100
AcDbEntity
8
1
62
256
6
ByLayer
370
18
48
1
60
1
100
AcDbPoint
10
37.0539
20
2.325
30
0
39
0
210
0
220
0
230
1
50
360
0
POINT
5
7A
100
AcDbEntity
8
1
62
256
6
ByLayer
370
18
48
1
60
1
100
AcDbPoint
10
23.0539
20
2.325
30
0
39
0
210
0
220
0
230
1
50
360
0
POINT
5
7B
100
AcDbEntity
8
1
62
256
6
ByLayer
370
18
48
1
60
1
100
AcDbPoint
10
-36
20
-3
30
0
39
0
210
0
220
0
230
1
50
360
0
POINT
5
7C
100
AcDbEntity
8
1
62
256
6
ByLayer
370
18
48
1
60
1
100
AcDbPoint
10
37.0539
20
-2.325
30
0
39
0
210
0
220
0
230
1
50
360
0
SPLINE
5
C4
100
AcDbEntity
8
1
62
256
6
ByLayer
370
18
48
1
60
0
100
AcDbSpline
70
4
71
3
72
8
73
4
40
0
40
0
40
0
40
0
40
1
40
1
40
1
40
1
41
1
10
21.2791246019289
20
-1.05873129009805
30
0
41
1
10
21.3327133731071
20
-0.925928516256533
30
0
41
1
10
21.3997395710213
20
-0.801744776482792
30
0
41
1
10
21.4750262501988
20
-0.695413054555502
30
0
0
SPLINE
5
C5
100
AcDbEntity
8
1
62
256
6
ByLayer
370
18
48
1
60
0
100
AcDbSpline
70
4
71
3
72
14
73
10
40
0
40
0
40
0
40
0
40
0.346077833412288
40
0.346077833412288
40
0.692155666824576
40
0.692155666824576
40
0.865194583530714
40
0.865194583530714
40
1
40
1
40
1
40
1
41
1
10
37.1271631203099
20
2.2770617776267
30
0
41
1
10
36.8345984710889
20
2.23816640994443
30
0
41
1
10
36.5412996075574
20
2.1762351806978
30
0
41
1
10
35.9564095608575
20
2.01057498225126
30
0
41
1
10
35.6630003096768
20
1.90645859491417
30
0
41
1
10
35.2240220114254
20
1.7240312017297
30
0
41
1
10
35.0778147333344
20
1.65872184329058
30
0
41
1
10
34.8170923125488
20
1.5353667307356
30
0
41
1
10
34.7028229771442
20
1.47887417753662
30
0
41
1
10
34.5887077817758
20
1.42029119566848
30
0
0
SPLINE
5
C6
100
AcDbEntity
8
1
62
256
6
ByLayer
370
18
48
1
60
0
100
AcDbSpline
70
4
71
3
72
22
73
18
40
0
40
0
40
0
40
0
40
0.0068897616495917
40
0.0068897616495917
40
0.131028541443393
40
0.131028541443393
40
0.255167321237195
40
0.255167321237195
40
0.379306101030997
40
0.379306101030997
40
0.503444880824799
40
0.503444880824799
40
0.6275836606186
40
0.6275836606186
40
0.751722440412402
40
0.751722440412402
40
1
40
1
40
1
40
1
41
1
10
26.6007687582947
20
-2.30618389338306
30
0
41
1
10
26.5926317187459
20
-2.30616978865751
30
0
41
1
10
26.5844952612224
20
-2.30613770400385
30
0
41
1
10
26.4297689626159
20
-2.30518525984638
30
0
41
1
10
26.2832094123617
20
-2.29849919398552
30
0
41
1
10
25.9896558147916
20
-2.27355690919055
30
0
41
1
10
25.8425801606783
20
-2.25530925231661
30
0
41
1
10
25.5492942657512
20
-2.20764441145045
30
0
41
1
10
25.4027631010603
20
-2.17823399029626
30
0
41
1
10
25.1092353107816
20
-2.10861325691582
30
0
41
1
10
24.9621499278139
20
-2.06825866373595
30
0
41
1
10
24.6685416803653
20
-1.97766616154726
30
0
41
1
10
24.5219677957755
20
-1.92733480843825
30
0
41
1
10
24.2285866951236
20
-1.81718102243849
30
0
41
1
10
24.0814941909576
20
-1.75731395139968
30
0
41
1
10
23.6409096365287
20
-1.56488238146173
30
0
41
1
10
23.3482796186214
20
-1.42005788605678
30
0
41
1
10
23.0539000000451
20
-1.26214951571686
30
0
0
SPLINE
5
C7
100
AcDbEntity
8
1
62
256
6
ByLayer
370
18
48
1
60
0
100
AcDbSpline
70
4
71
3
72
8
73
4
40
0
40
0
40
0
40
0
40
1
40
1
40
1
40
1
41
1
10
37.8395886544376
20
0.486026093218129
30
0
41
1
10
37.7428412622211
20
0.753715831482765
30
0
41
1
10
37.6466728104517
20
1.02161320226392
30
0
41
1
10
37.5510860039466
20
1.28971917562345
30
0
0
SPLINE
5
C8
100
AcDbEntity
8
1
62
256
6
ByLayer
370
13
48
1
60
0
100
AcDbSpline
70
4
71
3
72
93
73
89
40
0
40
0
40
0
40
0
40
0.0074850613887155
40
0.013360534588119
40
0.025111480986925
40
0.0368624273857311
40
0.0544888469839401
40
0.0603643201833432
40
0.0721152665821492
40
0.0838662129809552
40
0.101492632579164
40
0.107368105778567
40
0.119119052177374
40
0.130869998576181
40
0.148496418174388
40
0.154371891373792
40
0.166122837772597
40
0.177873784171402
40
0.195500203769613
40
0.201375676969016
40
0.213126623367821
40
0.224877569766628
40
0.242503989364837
40
0.24837946256424
40
0.260130408963045
40
0.271881355361851
40
0.289507774960061
40
0.295383248159464
40
0.30713419455827
40
0.318885140957076
40
0.336511560555286
40
0.342387033754688
40
0.354137980153493
40
0.365888926552302
40
0.383515346150509
40
0.389390819349912
40
0.401141765748718
40
0.412892712147525
40
0.430519131745734
40
0.436394604945136
40
0.448145551343942
40
0.459896497742749
40
0.477522917340958
40
0.483398390540361
40
0.495149336939167
40
0.506900283337973
40
0.524526702936182
40
0.530402176135585
40
0.542153122534391
40
0.553904068933197
40
0.571530488531406
40
0.577405961730809
40
0.589156908129615
40
0.600907854528422
40
0.61853427412663
40
0.624409747326033
40
0.636160693724839
40
0.647911640123645
40
0.665538059721854
40
0.671413532921257
40
0.683164479320063
40
0.69491542571887
40
0.712541845317079
40
0.718417318516481
40
0.730168264915287
40
0.741919211314093
40
0.759545630912302
40
0.765421104111706
40
0.777172050510512
40
0.788922996909318
40
0.806549416507527
40
0.81242488970693
40
0.824175836105736
40
0.835926782504542
40
0.853553202102751
40
0.859428675302154
40
0.871179621700961
40
0.882930568099766
40
0.900556987697975
40
0.906432460897378
40
0.918183407296184
40
0.92993435369499
40
0.9475607732932
40
0.953436246492602
40
0.965187192891408
40
0.976938139290214
40
0.994564558888424
40
1
40
1
40
1
40
1
41
1
10
33.6751242645865
20
-0.921535708457185
30
0
41
1
10
33.6559313236721
20
-0.924668907570549
30
0
41
1
10
33.6216725118066
20
-0.930191697024924
30
0
41
1
10
33.557282679017
20
-0.940335581498346
30
0
41
1
10
33.481959695939
20
-0.951820265995565
30
0
41
1
10
33.3765064346226
20
-0.967186417583719
30
0
41
1
10
33.2861113421039
20
-0.979604517313902
30
0
41
1
10
33.1957175268857
20
-0.991404356176531
30
0
41
1
10
33.1203945952972
20
-1.00082819657985
30
0
41
1
10
33.0149413706166
20
-1.01327044818683
30
0
41
1
10
32.9245462628982
20
-1.02314858805684
30
0
41
1
10
32.83415238284
20
-1.03237745356532
30
0
41
1
10
32.7588293709717
20
-1.03963437022679
30
0
41
1
10
32.6533760190163
20
-1.04901179610408
30
0
41
1
10
32.5629808136438
20
-1.05624041225789
30
0
41
1
10
32.4725868799628
20
-1.0628018739288
30
0
41
1
10
32.3972638505413
20
-1.06782082333805
30
0
41
1
10
32.2918105072014
20
-1.07404806287107
30
0
41
1
10
32.2014153355851
20
-1.07856557920746
30
0
41
1
10
32.1110214435734
20
-1.08240366398999
30
0
41
1
10
32.0356984598936
20
-1.0851410273678
30
0
41
1
10
31.9302452013748
20
-1.08816230772231
30
0
41
1
10
31.8398501139415
20
-1.08992625907524
30
0
41
1
10
31.7494563046584
20
-1.09100306074186
30
0
41
1
10
31.6741333780072
20
-1.09143047224802
30
0
41
1
10
31.5686801608634
20
-1.09121162712304
30
0
41
1
10
31.4782850612938
20
-1.09019827625266
30
0
41
1
10
31.387891191987
20
-1.0884948204581
30
0
41
1
10
31.3125681900933
20
-1.08659987427828
30
0
41
1
10
31.2071148516695
20
-1.08313167784348
30
0
41
1
10
31.1167196560364
20
-1.0793438925437
30
0
41
1
10
31.0263257287057
20
-1.07487504158388
30
0
41
1
10
30.951002702766
20
-1.07067870446289
30
0
41
1
10
30.8455493629128
20
-1.06400351337618
30
0
41
1
10
30.7551541940553
20
-1.05748849760087
30
0
41
1
10
30.6647603063814
20
-1.05030754018128
30
0
41
1
10
30.5894373263149
20
-1.04385789342695
30
0
41
1
10
30.4839840700554
20
-1.03404912728163
30
0
41
1
10
30.3935889802675
20
-1.02487577431128
30
0
41
1
10
30.3031951632453
20
-1.01505678182218
30
0
41
1
10
30.2278722282581
20
-1.0064193012191
30
0
41
1
10
30.122418999621
20
-0.993574763461254
30
0
41
1
10
30.0320238919902
20
-0.981832841799928
30
0
41
1
10
29.941630018479
20
-0.969470744414537
30
0
41
1
10
29.8663070141973
20
-0.958728309887022
30
0
41
1
10
29.7608536712803
20
-0.942971498170834
30
0
41
1
10
29.6704584693478
20
-0.928775624734897
30
0
41
1
10
29.5800645317133
20
-0.913994212677352
30
0
41
1
10
29.5047414972733
20
-0.901256632517971
30
0
41
1
10
29.3992881501824
20
-0.882751356062357
30
0
41
1
10
29.3088929811592
20
-0.866250584346204
30
0
41
1
10
29.2184991002208
20
-0.849204546642028
30
0
41
1
10
29.1431761272521
20
-0.834604460864796
30
0
41
1
10
29.0377228795263
20
-0.813542340982167
30
0
41
1
10
28.9473277951458
20
-0.794906527422626
30
0
41
1
10
28.8569339806133
20
-0.775770665477808
30
0
41
1
10
28.7816110491315
20
-0.759457409339831
30
0
41
1
10
28.6761578314813
20
-0.736053261898803
30
0
41
1
10
28.5857627390064
20
-0.715471917992431
30
0
41
1
10
28.4953688853101
20
-0.69444049423123
30
0
41
1
10
28.4200458962169
20
-0.67657949048035
30
0
41
1
10
28.3145925682991
20
-0.651070381656496
30
0
41
1
10
28.2241973737613
20
-0.628751796674095
30
0
41
1
10
28.1338034396018
20
-0.606037624127481
30
0
41
1
10
28.058480409022
20
-0.586809619967482
30
0
41
1
10
27.9530270711359
20
-0.559453797474077
30
0
41
1
10
27.8626319120816
20
-0.535624104731227
30
0
41
1
10
27.772238041249
20
-0.511457572621623
30
0
41
1
10
27.6969150733794
20
-0.491057763102333
30
0
41
1
10
27.5914618250123
20
-0.46213330218518
30
0
41
1
10
27.5010667339179
20
-0.437035207108863
30
0
41
1
10
27.4106729096016
20
-0.411662924562762
30
0
41
1
10
27.3353499708748
20
-0.390299802505211
30
0
41
1
10
27.2298967459569
20
-0.36010301318629
30
0
41
1
10
27.1395016485538
20
-0.3339944553544
30
0
41
1
10
27.0491077893699
20
-0.307677942773864
30
0
41
1
10
26.9737847938873
20
-0.285572184187743
30
0
41
1
10
26.8683314541383
20
-0.254414746492529
30
0
41
1
10
26.7779362483135
20
-0.22756374037732
30
0
41
1
10
26.6875423039823
20
-0.200570513478567
30
0
41
1
10
26.612219267343
20
-0.177944902369802
30
0
41
1
10
26.5067659255762
20
-0.146138536119821
30
0
41
1
10
26.4163707666004
20
-0.11881264394313
30
0
41
1
10
26.325976897015
20
-0.0914124901617299
30
0
41
1
10
26.2506539299569
20
-0.0684940060133954
30
0
41
1
10
26.1452006827816
20
-0.0363593951511234
30
0
41
1
10
26.0559339213304
20
-0.0091794531759035
30
0
41
1
10
25.9967996709156
20
0.0088285918832014
30
0
41
1
10
25.982862622609
20
0.0130748629331094
30
0
0
SPLINE
5
C9
100
AcDbEntity
8
1
62
256
6
ByLayer
370
18
48
1
60
0
100
AcDbSpline
70
4
71
3
72
12
73
8
40
0
40
0
40
0
40
0
40
0.249999999999998
40
0.249999999999998
40
0.499999999999997
40
0.499999999999997
40
1
40
1
40
1
40
1
41
1
10
20.5334552670926
20
-2.90663624961803
30
0
41
1
10
20.6914311499299
20
-2.88447503851705
30
0
41
1
10
20.8479286427346
20
-2.85392928909806
30
0
41
1
10
21.1603215244136
20
-2.7771794735562
30
0
41
1
10
21.3159258788172
20
-2.73089627979891
30
0
41
1
10
21.782692448243
20
-2.56927388048658
30
0
41
1
10
22.0938588997596
20
-2.43126516209753
30
0
41
1
10
22.4095039553673
20
-2.26476044310931
30
0
0
SPLINE
5
CA
100
AcDbEntity
8
1
62
256
6
ByLayer
370
13
48
1
60
0
100
AcDbSpline
70
4
71
3
72
22
73
18
40
0
40
0
40
0
40
0
40
0.0182122791381836
40
0.0182122791381836
40
0.214569823310547
40
0.214569823310547
40
0.312748595396729
40
0.312748595396729
40
0.410927367482911
40
0.410927367482911
40
0.607284911655272
40
0.607284911655272
40
0.705463683741454
40
0.705463683741454
40
0.803642455827636
40
0.803642455827636
40
1
40
1
40
1
40
1
41
1
10
27.5157909455918
20
-2.23634669409688
30
0
41
1
10
27.4887380535062
20
-2.23632379015464
30
0
41
1
10
27.4616957066813
20
-2.2361081216539
30
0
41
1
10
27.1431950298978
20
-2.23129148801195
30
0
41
1
10
26.8525226131106
20
-2.20445263029188
30
0
41
1
10
26.414268579905
20
-2.13206646274145
30
0
41
1
10
26.2676241176933
20
-2.10244489818916
30
0
41
1
10
25.9739091414191
20
-2.03218279137104
30
0
41
1
10
25.8274726247799
20
-1.9920011869217
30
0
41
1
10
25.3893311000278
20
-1.85775077505414
30
0
41
1
10
25.0988002711849
20
-1.74929323839436
30
0
41
1
10
24.6609072715891
20
-1.56150073465315
30
0
41
1
10
24.5147095666186
20
-1.49475011185706
30
0
41
1
10
24.2210478737491
20
-1.35353595667314
30
0
41
1
10
24.0738451779921
20
-1.27929249945683
30
0
41
1
10
23.6351374439844
20
-1.04893432695008
30
0
41
1
10
23.3449166112625
20
-0.884081275131365
30
0
41
1
10
23.0539
20
-0.712348747486857
30
0
0
SPLINE
5
CB
100
AcDbEntity
8
1
62
256
6
ByLayer
370
18
48
1
60
0
100
AcDbSpline
70
4
71
3
72
8
73
4
40
0
40
0
40
0
40
0
40
1
40
1
40
1
40
1
41
1
10
37.6075556941954
20
-0.379715190572483
30
0
41
1
10
37.6109681468054
20
-0.38318264230702
30
0
41
1
10
37.614381047464
20
-0.386649653156525
30
0
41
1
10
37.6177943959713
20
-0.390116222976246
30
0
0
SPLINE
5
CC
100
AcDbEntity
8
1
62
256
6
ByLayer
370
18
48
1
60
0
100
AcDbSpline
70
4
71
3
72
8
73
4
40
0
40
0
40
0
40
0
40
1
40
1
40
1
40
1
41
1
10
37.9997537042585
20
-0.0626440927644296
30
0
41
1
10
37.9444383861339
20
-0.202241641599784
30
0
41
1
10
37.891143555372
20
-0.343379168880375
30
0
41
1
10
37.8395886544376
20
-0.486026093218129
30
0
0
SPLINE
5
CD
100
AcDbEntity
8
1
62
256
6
ByLayer
370
13
48
1
60
0
100
AcDbSpline
70
4
71
3
72
94
73
90
40
0
40
0
40
0
40
0
40
0.0027140980698613
40
0.0144275535102007
40
0.0319977366707044
40
0.0378544643908724
40
0.0495679198312092
40
0.0612813752715464
40
0.0788515584320512
40
0.0847082861522194
40
0.0964217415925551
40
0.108135197032893
40
0.125705380193398
40
0.131562107913566
40
0.143275563353903
40
0.15498901879424
40
0.172559201954745
40
0.178415929674913
40
0.19012938511525
40
0.201842840555587
40
0.219413023716092
40
0.22526975143626
40
0.236983206876596
40
0.248696662316934
40
0.266266845477438
40
0.272123573197607
40
0.283837028637943
40
0.29555048407828
40
0.313120667238785
40
0.318977394958954
40
0.33069085039929
40
0.342404305839627
40
0.359974489000132
40
0.3658312167203
40
0.377544672160637
40
0.389258127600974
40
0.406828310761479
40
0.412685038481647
40
0.424398493921984
40
0.436111949362321
40
0.453682132522826
40
0.459538860242994
40
0.471252315683331
40
0.482965771123668
40
0.500535954284173
40
0.506392682004341
40
0.518106137444678
40
0.529819592885015
40
0.547389776045519
40
0.553246503765688
40
0.564959959206025
40
0.576673414646361
40
0.594243597806867
40
0.600100325527035
40
0.611813780967371
40
0.623527236407708
40
0.641097419568213
40
0.646954147288382
40
0.658667602728718
40
0.670381058169055
40
0.687951241329561
40
0.693807969049729
40
0.705521424490065
40
0.717234879930402
40
0.734805063090907
40
0.740661790811075
40
0.752375246251412
40
0.764088701691749
40
0.781658884852254
40
0.787515612572422
40
0.799229068012759
40
0.810942523453096
40
0.828512706613601
40
0.834369434333769
40
0.846082889774106
40
0.857796345214443
40
0.875366528374948
40
0.881223256095116
40
0.892936711535453
40
0.904650166975789
40
0.922220350136294
40
0.928077077856463
40
0.9397905332968
40
0.951503988737136
40
0.969074171897641
40
0.97493089961781
40
0.986644355058146
40
0.998357810498483
40
1
40
1
40
1
40
1
41
1.00000000000001
10
31.9995425643237
20
-0.0121477067008867
30
0
41
1.00000000000001
10
31.9925608621322
20
-0.0100207919644219
30
0
41
1.00000000000001
10
31.9554475976687
20
0.001284835102922
30
0
41
1.00000000000001
10
31.8731375372471
20
0.0263579890957997
30
0
41
1.00000000000001
10
31.782750066153
20
0.0539288956204014
30
0
41
1.00000000000001
10
31.692361312352
20
0.0814639185475976
30
0
41
1.00000000000001
10
31.6170320849152
20
0.104331151191587
30
0
41
1.00000000000001
10
31.5115722519953
20
0.136261892808021
30
0
41
1.00000000000001
10
31.4211847018045
20
0.163582594872791
30
0
41
1.00000000000001
10
31.3307958773192
20
0.190797488965073
30
0
41
1.00000000000001
10
31.2554666047789
20
0.213351835558283
30
0
41
1.00000000000001
10
31.1500067442184
20
0.244765239070743
30
0
41
1.00000000000001
10
31.0596192118753
20
0.271561107247917
30
0
41
1.00000000000001
10
30.9692304439059
20
0.298183698423086
30
0
41
1.00000000000001
10
30.8939012406937
20
0.320200466984287
30
0
41
1.00000000000001
10
30.7884414944658
20
0.350783817060599
30
0
41
1.00000000000001
10
30.6980540564643
20
0.376786848840706
30
0
41
1.00000000000001
10
30.6076653526393
20
0.402548080062186
30
0
41
1.00000000000001
10
30.5323361795902
20
0.423802637255474
30
0
41
1.00000000000001
10
30.4268764375263
20
0.453241146777
30
0
41
1.00000000000001
10
30.3364889665946
20
0.478182069813439
30
0
41
1.00000000000001
10
30.2461002060494
20
0.502815448218878
30
0
41
1.00000000000001
10
30.1707709715083
20
0.523088419716738
30
0
41
1.00000000000001
10
30.0653111300502
20
0.551079116044941
30
0
41
1.00000000000001
10
29.9749235744527
20
0.574702107310936
30
0
41
1.00000000000001
10
29.8845347474818
20
0.597955553557535
30
0
41
1.00000000000001
10
29.8092054714377
20
0.61703983043446
30
0
41
1.00000000000001
10
29.703745599885
20
0.643297339788314
30
0
41
1.00000000000001
10
29.6133580523742
20
0.665362095349758
30
0
41
1.00000000000001
10
29.5229692645717
20
0.686999396627692
30
0
41
1.00000000000001
10
29.4476400461566
20
0.704701303228399
30
0
41
1.00000000000001
10
29.3421802849163
20
0.72895942960323
30
0
41
1.00000000000001
10
29.2517928395158
20
0.749242486019676
30
0
41
1.00000000000001
10
29.1614041322181
20
0.769044608294615
30
0
41
1.00000000000001
10
29.0860749553111
20
0.785185005381259
30
0
41
1.00000000000001
10
28.9806152040421
20
0.807198278562446
30
0
41
1.00000000000001
10
28.8902277231374
20
0.825494303016392
30
0
41
1.00000000000001
10
28.7998389524785
20
0.843260596955837
30
0
41
1.00000000000001
10
28.7245097128323
20
0.857675788963143
30
0
41
1.00000000000001
10
28.619049872013
20
0.877220576427043
30
0
41
1.00000000000001
10
28.528662323133
20
0.893343207081919
30
0
41
1.00000000000001
10
28.4382735059554
20
0.908892201859622
30
0
41
1.00000000000001
10
28.3629442371652
20
0.921434610281629
30
0
41
1.00000000000001
10
28.2574843728913
20
0.93831010356228
30
0
41
1.00000000000001
10
28.167096830316
20
0.952092815141433
30
0
41
1.00000000000001
10
28.076708048006
20
0.965263065275671
30
0
41
1.00000000000001
10
28.0013788359838
20
0.975801871431052
30
0
41
1.00000000000001
10
27.8959190865803
20
0.989832075526912
30
0
41
1.00000000000001
10
27.8055316524729
20
1.00113238829413
30
0
41
1.00000000000001
10
27.7151429553546
20
1.01179026306547
30
0
41
1.00000000000001
10
27.6398137845133
20
1.02022050041096
30
0
41
1.00000000000001
10
27.5343540371313
20
1.0312681875707
30
0
41
1.00000000000001
10
27.4439665561506
20
1.03997699693433
30
0
41
1.00000000000001
10
27.3535777842439
20
1.04801917655879
30
0
41
1.00000000000001
10
27.2782485437844
20
1.05425851112797
30
0
41
1.00000000000001
10
27.1727887017694
20
1.06221447136573
30
0
41
1.00000000000001
10
27.0824011505065
20
1.06824410115401
30
0
41
1.00000000000001
10
26.9920123284418
20
1.07358815965317
30
0
41
1.00000000000001
10
26.9166830535124
20
1.07757164361921
30
0
41
1.00000000000001
10
26.8112231778519
20
1.08235102091921
30
0
41
1.00000000000001
10
26.7208356239199
20
1.08563471357089
30
0
41
1.00000000000001
10
26.6304468305871
20
1.08821914081323
30
0
41
1.00000000000001
10
26.5551176103286
20
1.08989919265797
30
0
41
1.00000000000001
10
26.4496578508459
20
1.09144369023149
30
0
41
1.00000000000001
10
26.3592704088019
20
1.09194240099938
30
0
41
1.00000000000001
10
26.2688817032867
20
1.0917403085927
30
0
41
1.00000000000001
10
26.193552525766
20
1.09110310548055
30
0
41
1.00000000000001
10
26.0880927713839
20
1.08940623263194
30
0
41
1.00000000000001
10
25.9977052877711
20
1.08712520976373
30
0
41
1.00000000000001
10
25.9073165171898
20
1.0841478431042
30
0
41
1.00000000000001
10
25.8319872794231
20
1.08120617325135
30
0
41
1.00000000000001
10
25.7265274421725
20
1.07629144288349
30
0
41
1.00000000000001
10
25.6361398953767
20
1.07125643681464
30
0
41
1.00000000000001
10
25.5457510769041
20
1.06553431785729
30
0
41
1.00000000000001
10
25.4704218057861
20
1.0603168484591
30
0
41
1.00000000000001
10
25.3649619390677
20
1.05222975374882
30
0
41
1.00000000000001
10
25.2745743968781
20
1.04448514787185
30
0
41
1.00000000000001
10
25.1841856193215
20
1.03606722529761
30
0
41
1.00000000000001
10
25.108856412244
20
1.02861778948397
30
0
41
1.00000000000001
10
25.0033966678944
20
1.01742776685011
30
0
41
1.00000000000001
10
24.9130092349518
20
1.00704463075279
30
0
41
1.00000000000001
10
24.8226205344059
20
0.9960152504756
30
0
41
1.00000000000001
10
24.7472913602862
20
0.986413363240778
30
0
41
1.00000000000001
10
24.6418316117952
20
0.972245421568793
30
0
41
1.00000000000001
10
24.5514441345619
20
0.95934209553868
30
0
41
1.00000000000001
10
24.46105537214
20
0.945824800830585
30
0
41
1.00000000000001
10
24.3857261401355
20
0.9341759280314
30
0
41
1.00000000000001
10
24.3212390534994
20
0.923784382344529
30
0
41
1.00000000000001
10
24.2868844910502
20
0.918122978835207
30
0
41
1.00000000000001
10
24.2826603223191
20
0.917424967406695
30
0
0
SPLINE
5
CE
100
AcDbEntity
8
1
62
256
6
ByLayer
370
18
48
1
60
0
100
AcDbSpline
70
4
71
3
72
8
73
4
40
0
40
0
40
0
40
0
40
1
40
1
40
1
40
1
41
1
10
23.0539000000451
20
-1.26214951571686
30
0
41
1
10
22.9907958088947
20
-1.25257674687185
30
0
41
1
10
22.9286639605262
20
-1.23805012917489
30
0
41
1
10
22.8672006139501
20
-1.21874270965338
30
0
0
SPLINE
5
CF
100
AcDbEntity
8
1
62
256
6
ByLayer
370
18
48
1
60
0
100
AcDbSpline
70
4
71
1
72
4
73
2
40
0
40
0
40
1
40
1
41
1
10
37.090724492225
20
-2.16947439779429
30
0
41
1
10
37.5933310416623
20
-0.472703123059489
30
0
0
SPLINE
5
D0
100
AcDbEntity
8
1
62
256
6
ByLayer
370
18
48
1
60
0
100
AcDbSpline
70
4
71
3
72
52
73
48
40
0
40
0
40
0
40
0
40
0.0637591231072866
40
0.0637591231072866
40
0.127518246214573
40
0.127518246214573
40
0.19127736932186
40
0.19127736932186
40
0.223156930875503
40
0.223156930875503
40
0.255036492429147
40
0.255036492429147
40
0.28691605398279
40
0.28691605398279
40
0.318795615536433
40
0.318795615536433
40
0.38255473864372
40
0.38255473864372
40
0.446313861751006
40
0.446313861751006
40
0.478193423304649
40
0.478193423304649
40
0.510072984858291
40
0.510072984858291
40
0.541952546411933
40
0.541952546411933
40
0.573832107965575
40
0.573832107965575
40
0.605711669519218
40
0.605711669519218
40
0.63759123107286
40
0.63759123107286
40
0.701350354180144
40
0.701350354180144
40
0.765109477287429
40
0.765109477287429
40
0.828868600394715
40
0.828868600394715
40
0.860748161948358
40
0.860748161948358
40
0.892627723502
40
0.892627723502
40
0.924507285055643
40
0.924507285055643
40
0.956386846609286
40
0.956386846609286
40
1
40
1
40
1
40
1
41
1
10
37.1271631203099
20
-2.2770617776267
30
0
41
1
10
36.8341734690733
20
-2.23810990752784
30
0
41
1
10
36.5419729679365
20
-2.17642920032281
30
0
41
1
10
35.9555987843352
20
-2.01034204105747
30
0
41
1
10
35.6636350925073
20
-1.90672495118722
30
0
41
1
10
35.0769338870232
20
-1.66290283547568
30
0
41
1
10
34.784552567389
20
-1.5234275821619
30
0
41
1
10
34.344981330729
20
-1.29309300439667
30
0
41
1
10
34.1981194972824
20
-1.21282304052073
30
0
41
1
10
33.9053293694161
20
-1.04686083431071
30
0
41
1
10
33.7590235947122
20
-0.961227779972745
30
0
41
1
10
33.4660381047614
20
-0.785444708010999
30
0
41
1
10
33.3191890309616
20
-0.695071087346832
30
0
41
1
10
33.0260076513961
20
-0.511973459100034
30
0
41
1
10
32.8796974330388
20
-0.418978614581619
30
0
41
1
10
32.4403579087536
20
-0.137559922694834
30
0
41
1
10
32.1466700905352
20
0.0536709016280668
30
0
41
1
10
31.5609973395176
20
0.430232736702038
30
0
41
1
10
31.2671885889088
20
0.616380872503413
30
0
41
1
10
30.8276731589408
20
0.882573045816258
30
0
41
1
10
30.6812462101655
20
0.969323064830547
30
0
41
1
10
30.3878079590507
20
1.13778098315115
30
0
41
1
10
30.2408906891421
20
1.21934198874837
30
0
41
1
10
29.9478711886931
20
1.37570967626701
30
0
41
1
10
29.8014159586331
20
1.4504819652511
30
0
41
1
10
29.5081297021911
20
1.59260803019589
30
0
41
1
10
29.3611308993378
20
1.66000316120619
30
0
41
1
10
29.0677706279302
20
1.78560098253638
30
0
41
1
10
28.9213441812954
20
1.84404644115824
30
0
41
1
10
28.6280994776213
20
1.95137175742482
30
0
41
1
10
28.481113791857
20
2.00038940370661
30
0
41
1
10
28.0408732403867
20
2.1317729859216
30
0
41
1
10
27.7481602480411
20
2.1984190798984
30
0
41
1
10
27.1603131448424
20
2.28668294629443
30
0
41
1
10
26.8677634981008
20
2.30800934849103
30
0
41
1
10
26.2800893687324
20
2.30413487934007
30
0
41
1
10
25.9870144160905
20
2.27890899660005
30
0
41
1
10
25.54659722175
20
2.20714212612705
30
0
41
1
10
25.3994799930935
20
2.17753396291954
30
0
41
1
10
25.1059370592773
20
2.10775049302003
30
0
41
1
10
24.9593894741008
20
2.06747076339838
30
0
41
1
10
24.6658051578932
20
1.97675676953213
30
0
41
1
10
24.5185795140495
20
1.92613601308017
30
0
41
1
10
24.2251935309546
20
1.81583191853332
30
0
41
1
10
24.0788581473159
20
1.75620007888787
30
0
41
1
10
23.7327177786301
20
1.60492905551158
30
0
41
1
10
23.5329124317517
20
1.50972309260976
30
0
41
1
10
23.3323690028431
20
1.40773065713171
30
0
0
SPLINE
5
D1
100
AcDbEntity
8
1
62
256
6
ByLayer
370
18
48
1
60
0
100
AcDbSpline
70
4
71
3
72
8
73
4
40
0
40
0
40
0
40
0
40
1
40
1
40
1
40
1
41
1
10
37.9997537042584
20
0.0626440927644865
30
0
41
1
10
37.9446545870623
20
0.201696022037055
30
0
41
1
10
37.8913515087054
20
0.3428037841378
30
0
41
1
10
37.8395886544376
20
0.486026093218129
30
0
0
SPLINE
5
D2
100
AcDbEntity
8
1
62
256
6
ByLayer
370
18
48
1
60
0
100
AcDbSpline
70
4
71
3
72
22
73
18
40
0
40
0
40
0
40
0
40
0.125000000000001
40
0.125000000000001
40
0.250000000000001
40
0.250000000000001
40
0.499999999999996
40
0.499999999999996
40
0.624999999999997
40
0.624999999999997
40
0.749999999999998
40
0.749999999999998
40
0.874999999999999
40
0.874999999999999
40
0.9375
40
0.9375
40
1
40
1
40
1
40
1
41
1
10
19.4718470846852
20
0.350496083031629
30
0
41
1
10
19.362223904423
20
0.411324879320517
30
0
41
1
10
19.2489623568106
20
0.463851907029948
30
0
41
1
10
19.015516419207
20
0.55345400402598
30
0
41
1
10
18.89453246966
20
0.590692014483579
30
0
41
1
10
18.528163006441
20
0.678243549828437
30
0
41
1
10
18.2799110307301
20
0.705681114773739
30
0
41
1
10
17.9015508299995
20
0.701533112654658
30
0
41
1
10
17.775840588742
20
0.692386047451549
30
0
41
1
10
17.5281396806241
20
0.657343046077727
30
0
41
1
10
17.4057040684189
20
0.631571571221343
30
0
41
1
10
17.1645577207947
20
0.557950746907892
30
0
41
1
10
17.0471689307068
20
0.510728237338554
30
0
41
1
10
16.8830624045255
20
0.415701020001734
30
0
41
1
10
16.8310332788298
20
0.380229557603059
30
0
41
1
10
16.7355806908183
20
0.299995656119847
30
0
41
1
10
16.6917052707409
20
0.254997274349478
30
0
41
1
10
16.6545127288931
20
0.203093543534521
30
0
0
SPLINE
5
D3
100
AcDbEntity
8
1
62
256
6
ByLayer
370
18
48
1
60
0
100
AcDbSpline
70
4
71
3
72
8
73
4
40
0
40
0
40
0
40
0
40
1
40
1
40
1
40
1
41
1
10
37.9997537042586
20
0.0626440927643728
30
0
41
1
10
38.0000820985768
20
0.0208813642548193
30
0
41
1
10
38.0000820985768
20
-0.0208813642547625
30
0
41
1
10
37.9997537042586
20
-0.0626440927643159
30
0
0
SPLINE
5
D4
100
AcDbEntity
8
1
62
256
6
ByLayer
370
18
48
1
60
0
100
AcDbSpline
70
4
71
3
72
8
73
4
40
0
40
0
40
0
40
0
40
1
40
1
40
1
40
1
41
1
10
22.8672006139502
20
-1.21874270965344
30
0
41
1
10
22.7173410134503
20
-1.20138159930329
30
0
41
1
10
22.5643976562754
20
-1.18204351468773
30
0
41
1
10
22.4095039553673
20
-1.16177654647811
30
0
0
SPLINE
5
D5
100
AcDbEntity
8
1
62
256
6
ByLayer
370
18
48
1
60
0
100
AcDbSpline
70
4
71
3
72
39
73
35
40
0
40
0
40
0
40
0
40
0.0220892284516516
40
0.0220892284516516
40
0.0441784569033033
40
0.0883569138066065
40
0.0883569138066065
40
0.176713827613213
40
0.176713827613213
40
0.220892284516518
40
0.220892284516518
40
0.265070741419823
40
0.265070741419823
40
0.353427655226435
40
0.353427655226435
40
0.39760611212974
40
0.39760611212974
40
0.441784569033045
40
0.441784569033045
40
0.530141482839654
40
0.530141482839654
40
0.618498396646264
40
0.618498396646264
40
0.662676853549569
40
0.662676853549569
40
0.706855310452874
40
0.706855310452874
40
0.795212224259483
40
0.795212224259483
40
0.839390681162788
40
0.839390681162788
40
0.883569138066093
40
0.883569138066093
40
1
40
1
40
1
40
1
41
1
10
37.0890557020489
20
-2.16750280910833
30
0
41
1
10
37.0149786868284
20
-2.15038596965383
30
0
41
1
10
36.941717131007
20
-2.13143920638731
30
0
41
1
10
36.7950666855036
20
-2.09134585498532
30
0
41
1
10
36.5755125406015
20
-2.02738287427849
30
0
41
1
10
36.3569038194883
20
-1.95233102293224
30
0
41
1
10
35.9201310205541
20
-1.78830406814049
30
0
41
1
10
35.6296122111136
20
-1.66031260744902
30
0
41
1
10
35.1907860299895
20
-1.44416684373226
30
0
41
1
10
35.0435543129816
20
-1.36782859872258
30
0
41
1
10
34.7496440499725
20
-1.2090658141004
30
0
41
1
10
34.6033275723207
20
-1.12686970704851
30
0
41
1
10
34.1654889390246
20
-0.873075123565798
30
0
41
1
10
33.8750154866344
20
-0.694355865818949
30
0
41
1
10
33.4375585386256
20
-0.417735251592802
30
0
41
1
10
33.2914870321192
20
-0.324041568603832
30
0
41
1
10
32.9978881296934
20
-0.135117144589572
30
0
41
1
10
32.8501331834044
20
-0.0396210081546258
30
0
41
1
10
32.410467162849
20
0.244677918497587
30
0
41
1
10
32.120139201491
20
0.432304682325565
30
0
41
1
10
31.5387799501514
20
0.794268472501187
30
0
41
1
10
31.248277655117
20
0.969415423516409
30
0
41
1
10
30.8084395972219
20
1.2167673168575
30
0
41
1
10
30.6606357169117
20
1.29685877986097
30
0
41
1
10
30.3670963908125
20
1.44910851803866
30
0
41
1
10
30.2210254060975
20
1.52144231957948
30
0
41
1
10
29.7838143108135
20
1.72600399361451
30
0
41
1
10
29.4936645659695
20
1.84580549994496
30
0
41
1
10
29.0567646479387
20
1.99709099652227
30
0
41
1
10
28.9108287715156
20
2.04276097487505
30
0
41
1
10
28.6177882078185
20
2.1239829898513
30
0
41
1
10
28.4701208540726
20
2.15962227847047
30
0
41
1
10
27.9357184040826
20
2.26826463635999
30
0
41
1
10
27.5531776938629
20
2.307629058765
30
0
41
1
10
27.1697110576123
20
2.30725104397786
30
0
0
SPLINE
5
D6
100
AcDbEntity
8
1
62
256
6
ByLayer
370
18
48
1
60
0
100
AcDbSpline
70
4
71
1
72
4
73
2
40
0
40
0
40
1
40
1
41
1
10
37.5933310416601
20
-0.472703123058807
30
0
41
1
10
37.6177943959714
20
-0.390116222976417
30
0
0
SPLINE
5
D7
100
AcDbEntity
8
1
62
256
6
ByLayer
370
13
48
1
60
0
100
AcDbSpline
70
4
71
3
72
34
73
30
40
0
40
0
40
0
40
0
40
0.102136334829957
40
0.102136334829957
40
0.204272669659914
40
0.204272669659914
40
0.255340837074892
40
0.255340837074892
40
0.30640900448987
40
0.30640900448987
40
0.408545339319827
40
0.408545339319827
40
0.459613506734807
40
0.459613506734807
40
0.510681674149787
40
0.510681674149787
40
0.612818008979751
40
0.612818008979751
40
0.714954343809715
40
0.714954343809715
40
0.766022511224695
40
0.766022511224695
40
0.817090678639675
40
0.817090678639675
40
0.919227013469636
40
0.919227013469636
40
0.970295180884616
40
0.970295180884616
40
1
40
1
40
1
40
1
41
1
10
37.0526896984042
20
-2.00194430325772
30
0
41
1
10
36.7598000457116
20
-1.91676823915626
30
0
41
1
10
36.4695099590721
20
-1.81261288307431
30
0
41
1
10
35.8899103304943
20
-1.57150570789437
30
0
41
1
10
35.6006113306539
20
-1.43448426812301
30
0
41
1
10
35.1634646692266
20
-1.20816998907887
30
0
41
1
10
35.0167933059362
20
-1.1289910393875
30
0
41
1
10
34.7238177705703
20
-0.965989454954865
30
0
41
1
10
34.5779923722359
20
-0.882315754357364
30
0
41
1
10
34.1417326944032
20
-0.626021253315059
30
0
41
1
10
33.8524180111662
20
-0.448273227887228
30
0
41
1
10
33.4172597378976
20
-0.176688417569466
30
0
41
1
10
33.2720437051456
20
-0.0852513841706752
30
0
41
1
10
32.9801353790414
20
0.0975249851191506
30
0
41
1
10
32.8331902594347
20
0.189460086705679
30
0
41
1
10
32.3937265619526
20
0.462861958885327
30
0
41
1
10
32.103561683535
20
0.640806576994947
30
0
41
1
10
31.5228617296779
20
0.979318357580723
30
0
41
1
10
31.2331324691737
20
1.14114001221805
30
0
41
1
10
30.794525636893
20
1.36504918431837
30
0
41
1
10
30.6472491823472
20
1.43683761016214
30
0
41
1
10
30.3545603537159
20
1.57232038691095
30
0
41
1
10
30.2088541613734
20
1.63609343198806
30
0
41
1
10
29.7726041460494
20
1.814252517699
30
0
41
1
10
29.4828778713746
20
1.91545230740701
30
0
41
1
10
29.0461731619833
20
2.03809316110664
30
0
41
1
10
28.9002654589658
20
2.07416022007791
30
0
41
1
10
28.6686067183522
20
2.12313557981312
30
0
41
1
10
28.5832048964962
20
2.13939301267126
30
0
41
1
10
28.4977677611163
20
2.15379496974978
30
0
0
SPLINE
5
D8
100
AcDbEntity
8
1
62
256
6
ByLayer
370
18
48
1
60
0
100
AcDbSpline
70
4
71
3
72
12
73
8
40
0
40
0
40
0
40
0
40
0.250000000000002
40
0.250000000000002
40
0.500000000000003
40
0.500000000000003
40
1
40
1
40
1
40
1
41
1
10
20.5334552670926
20
2.90663624961803
30
0
41
1
10
20.6914311499299
20
2.88447503851705
30
0
41
1
10
20.8479286427346
20
2.85392928909806
30
0
41
1
10
21.1603215244136
20
2.7771794735562
30
0
41
1
10
21.3159258788171
20
2.73089627979891
30
0
41
1
10
21.782692448243
20
2.56927388048663
30
0
41
1
10
22.0938588997596
20
2.43126516209756
30
0
41
1
10
22.4095039553673
20
2.26476044310934
30
0
0
SPLINE
5
D9
100
AcDbEntity
8
1
62
256
6
ByLayer
370
18
48
1
60
0
100
AcDbSpline
70
4
71
3
72
22
73
18
40
0
40
0
40
0
40
0
40
0.125
40
0.125
40
0.25
40
0.25
40
0.375
40
0.375
40
0.5
40
0.5
40
0.625
40
0.625
40
0.75
40
0.75
40
0.875
40
0.875
40
1
40
1
40
1
40
1
41
1
10
37.6177943959672
20
-0.390116222972637
30
0
41
1
10
37.6275706591767
20
-0.399594848312887
30
0
41
1
10
37.63839491997
20
-0.405232060911516
30
0
41
1
10
37.6623066846847
20
-0.408792198012122
30
0
41
1
10
37.6755220776092
20
-0.406655787515632
30
0
41
1
10
37.7039559104703
20
-0.394305843531441
30
0
41
1
10
37.718992942697
20
-0.384241610413852
30
0
41
1
10
37.7507970650881
20
-0.356534834858195
30
0
41
1
10
37.7677544429948
20
-0.338636001431667
30
0
41
1
10
37.8023652343774
20
-0.296402632684732
30
0
41
1
10
37.8200476164427
20
-0.272115534959227
30
0
41
1
10
37.8561788826106
20
-0.217456744061224
30
0
41
1
10
37.8746895300795
20
-0.186925461571462
30
0
41
1
10
37.9111187327676
20
-0.122162269652335
30
0
41
1
10
37.9292057250757
20
-0.0876924000704946
30
0
41
1
10
37.9650905004009
20
-0.0147291563420708
30
0
41
1
10
37.9827782182056
20
0.0235811651534164
30
0
41
1
10
37.9997537042588
20
0.0626440927648275
30
0
0
SPLINE
5
DA
100
AcDbEntity
8
1
62
256
6
ByLayer
370
18
48
1
60
0
100
AcDbSpline
70
4
71
3
72
8
73
4
40
0
40
0
40
0
40
0
40
1
40
1
40
1
40
1
41
1
10
36.9518782851406
20
0.0464560586296159
30
0
41
1
10
37.1175652131363
20
0.0016337325464804
30
0
41
1
10
37.2844952434801
20
-0.0357008225797699
30
0
41
1
10
37.4528789984696
20
-0.0642789328333606
30
0
0
SPLINE
5
DB
100
AcDbEntity
8
1
62
256
6
ByLayer
370
18
48
1
60
0
100
AcDbSpline
70
4
71
3
72
8
73
4
40
0
40
0
40
0
40
0
40
1
40
1
40
1
40
1
41
1
10
37.8395886544436
20
-0.486026093201588
30
0
41
1
10
37.7428408618926
20
-0.753716939149172
30
0
41
1
10
37.6466724143118
20
-1.0216143133741
30
0
41
1
10
37.5510860039465
20
-1.2897191756237
30
0
0
SPLINE
5
DC
100
AcDbEntity
8
1
62
256
6
ByLayer
370
18
48
1
60
0
100
AcDbSpline
70
4
71
3
72
10
73
6
40
0
40
0
40
0
40
0
40
0.5
40
0.5
40
1
40
1
40
1
40
1
41
1
10
37.1271631203099
20
2.27706177762681
30
0
41
1
10
37.1946347453493
20
2.12931470995116
30
0
41
1
10
37.2644810000669
20
1.9739301282768
30
0
41
1
10
37.4071782006092
20
1.64457098581084
30
0
41
1
10
37.4805340308941
20
1.46940922130753
30
0
41
1
10
37.5510860039466
20
1.28971917562345
30
0
0
SPLINE
5
DD
100
AcDbEntity
8
1
62
256
6
ByLayer
370
18
48
1
60
0
100
AcDbSpline
70
4
71
3
72
12
73
8
40
0
40
0
40
0
40
0
40
0.5
40
0.5
40
0.75
40
0.75
40
1
40
1
40
1
40
1
41
1
10
36.9518782851407
20
0.0464560586296159
30
0
41
1
10
36.9220481823622
20
-0.136857193672654
30
0
41
1
10
36.9036486265899
20
-0.318483375496584
30
0
41
1
10
36.8935403371467
20
-0.588341089859483
30
0
41
1
10
36.8931680394466
20
-0.678080206193243
30
0
41
1
10
36.8984772362425
20
-0.851923311709129
30
0
41
1
10
36.9041171544751
20
-0.936621903901965
30
0
41
1
10
36.9127497086793
20
-1.01909208770996
30
0
0
SPLINE
5
DE
100
AcDbEntity
8
1
62
256
6
ByLayer
370
13
48
1
60
0
100
AcDbSpline
70
4
71
3
72
31
73
27
40
0
40
0
40
0
40
0
40
0.0116445005253503
40
0.0339629308172525
40
0.078599791401056
40
0.123236651984858
40
0.190191942860568
40
0.212510373152466
40
0.257147233736271
40
0.30178409432007
40
0.368739385195781
40
0.391057815487681
40
0.435694676071485
40
0.480331536655288
40
0.547286827530995
40
0.569605257822896
40
0.614242118406697
40
0.658878978990503
40
0.725834269866209
40
0.748152700158111
40
0.792789560741915
40
0.837426421325718
40
0.904381712201424
40
0.926700142493326
40
0.97133700307713
40
1
40
1
40
1
40
1
41
1.00000000000001
10
37.5612447657547
20
1.09179284334831
30
0
41
1.00000000000001
10
37.5533848483532
20
1.09177887784516
30
0
41
1.00000000000001
10
37.5304602166083
20
1.09171523858398
30
0
41
1.00000000000001
10
37.4774058725479
20
1.09141175438955
30
0
41
1.00000000000001
10
37.4020766390615
20
1.09051333769189
30
0
41
1.00000000000001
10
37.2966168051043
20
1.08845172908251
30
0
41
1.00000000000001
10
37.2062292582751
20
1.08585793716343
30
0
41
1.00000000000001
10
37.1158404370363
20
1.08256758540249
30
0
41
1.00000000000001
10
37.0405111637275
20
1.07936544642128
30
0
41
1.00000000000001
10
36.9350512963233
20
1.07408527914168
30
0
41
1.00000000000001
10
36.8446637560254
20
1.06873500028401
30
0
41
1.00000000000001
10
36.7542749827614
20
1.06269591369959
30
0
41
1.00000000000001
10
36.6789457790139
20
1.05721375919375
30
0
41
1.00000000000001
10
36.5734860368418
20
1.04875647283727
30
0
41
1.00000000000001
10
36.4830986032285
20
1.04069681269816
30
0
41
1.00000000000001
10
36.3927098996266
20
1.03196932063928
30
0
41
1.00000000000001
10
36.3173807234428
20
1.02426664227246
30
0
41
1.00000000000001
10
36.211920974989
20
1.01272922260775
30
0
41
1.00000000000001
10
36.1215335005403
20
1.00205457466233
30
0
41
1.00000000000001
10
36.0311447431904
20
0.990738523219725
30
0
41
1.00000000000001
10
35.9558155148123
20
0.980901279363216
30
0
41
1.00000000000001
10
35.8503556830096
20
0.966408692831428
30
0
41
1.00000000000001
10
35.7599681331036
20
0.95323087745492
30
0
41
1.00000000000001
10
35.669579304712
20
0.939441954145927
30
0
41
1.00000000000001
10
35.6050330384532
20
0.929268576688166
30
0
41
1.00000000000001
10
35.5555530585279
20
0.921206664789643
30
0
41
1.00000000000001
10
35.5362047859988
20
0.918014286484542
30
0
0
SPLINE
5
DF
100
AcDbEntity
8
1
62
256
6
ByLayer
370
18
48
1
60
0
100
AcDbSpline
70
4
71
3
72
40
73
36
40
0
40
0
40
0
40
0
40
0.0312500000000002
40
0.0312500000000002
40
0.0625000000000003
40
0.0625000000000003
40
0.0937500000000005
40
0.0937500000000005
40
0.125000000000001
40
0.125000000000001
40
0.187500000000001
40
0.187500000000001
40
0.250000000000001
40
0.250000000000001
40
0.281250000000001
40
0.281250000000001
40
0.312500000000002
40
0.312500000000002
40
0.343750000000002
40
0.343750000000002
40
0.375000000000002
40
0.375000000000002
40
0.437500000000002
40
0.437500000000002
40
0.500000000000003
40
0.500000000000003
40
0.625000000000003
40
0.625000000000003
40
0.687500000000003
40
0.687500000000003
40
0.750000000000004
40
0.750000000000004
40
0.875000000000002
40
0.875000000000002
40
1
40
1
40
1
40
1
41
1
10
16.654512728893
20
0.203093543534351
30
0
41
1
10
16.6084037293006
20
0.138746527059766
30
0
41
1
10
16.564131753585
20
0.0721710725100593
30
0
41
1
10
16.481733197918
20
-0.0632235336078395
30
0
41
1
10
16.4435170723596
20
-0.132113863779864
30
0
41
1
10
16.373774782111
20
-0.272568745645941
30
0
41
1
10
16.3422443021351
20
-0.344131565566073
30
0
41
1
10
16.2868879568746
20
-0.490336357975622
30
0
41
1
10
16.2629155199644
20
-0.565575744953378
30
0
41
1
10
16.2058320949847
20
-0.792342893164914
30
0
41
1
10
16.1877313126031
20
-0.942940454823599
30
0
41
1
10
16.1962246752305
20
-1.24050144127685
30
0
41
1
10
16.2224910288084
20
-1.38005994996587
30
0
41
1
10
16.2911343514186
20
-1.57725752157592
30
0
41
1
10
16.3186497224436
20
-1.64004885235161
30
0
41
1
10
16.3809077128502
20
-1.75881687952381
30
0
41
1
10
16.4157650182063
20
-1.8151102854188
30
0
41
1
10
16.4920060934786
20
-1.92231499375126
30
0
41
1
10
16.5335384094237
20
-1.97337888443113
30
0
41
1
10
16.6218204693002
20
-2.06999890740008
30
0
41
1
10
16.6681834874827
20
-2.11518292026591
30
0
41
1
10
16.8128873071715
20
-2.24288580228088
30
0
41
1
10
16.9167887609755
20
-2.31763387587202
30
0
41
1
10
17.1360142066851
20
-2.45137800503881
30
0
41
1
10
17.2519440357053
20
-2.5105172233277
30
0
41
1
10
17.6071584497961
20
-2.66584601458913
30
0
41
1
10
17.8551837032085
20
-2.74168031212349
30
0
41
1
10
18.2387697410478
20
-2.82785266732168
30
0
41
1
10
18.3686085044781
20
-2.85184189688707
30
0
41
1
10
18.6317769470085
20
-2.89157562984619
30
0
41
1
10
18.7653281214857
20
-2.90731944764454
30
0
41
1
10
19.1670722630164
20
-2.94319817858164
30
0
41
1
10
19.4374342809031
20
-2.95231356577361
30
0
41
1
10
19.9823797134279
20
-2.94672067731526
30
0
41
1
10
20.2569713961699
20
-2.93195165272161
30
0
41
1
10
20.5334552670926
20
-2.90663624961803
30
0
0
SPLINE
5
E0
100
AcDbEntity
8
1
62
256
6
ByLayer
370
18
48
1
60
0
100
AcDbSpline
70
4
71
3
72
30
73
26
40
0
40
0
40
0
40
0
40
0.15636033419749
40
0.15636033419749
40
0.234540501296235
40
0.234540501296235
40
0.31272066839498
40
0.31272066839498
40
0.390900835493726
40
0.390900835493726
40
0.469081002592471
40
0.469081002592471
40
0.547261169691216
40
0.547261169691216
40
0.625441336789961
40
0.625441336789961
40
0.703621503888706
40
0.703621503888706
40
0.781801670987451
40
0.781801670987451
40
0.859981838086196
40
0.859981838086196
40
0.938162005184941
40
0.938162005184941
40
1
40
1
40
1
40
1
41
1
10
36.9518782851407
20
0.0464560586295875
30
0
41
1
10
36.6624294400344
20
0.229055538383506
30
0
41
1
10
36.3720250029303
20
0.410580443609064
30
0
41
1
10
35.9371627408779
20
0.674077911996875
30
0
41
1
10
35.7923545478303
20
0.760648302265253
30
0
41
1
10
35.5022897104219
20
0.929498126957242
30
0
41
1
10
35.3570404710141
20
1.01182802112751
30
0
41
1
10
35.067283981293
20
1.17085879933683
30
0
41
1
10
34.9225395209967
20
1.24712311009767
30
0
41
1
10
34.6327063299515
20
1.39347686181603
30
0
41
1
10
34.4873623698778
20
1.4637213598393
30
0
41
1
10
34.1972165786593
20
1.59680310061668
30
0
41
1
10
34.0523236692056
20
1.65980258835239
30
0
41
1
10
33.7622092247008
20
1.7773376809406
30
0
41
1
10
33.6168691472935
20
1.83207780753457
30
0
41
1
10
33.3267015303164
20
1.93100719317846
30
0
41
1
10
33.1819644218027
20
1.9747205052698
30
0
41
1
10
32.8921761742011
20
2.05374413885986
30
0
41
1
10
32.746817988587
20
2.08922220825053
30
0
41
1
10
32.4566611202916
20
2.14966493285982
30
0
41
1
10
32.3122308342246
20
2.17440897420272
30
0
41
1
10
32.0242104556979
20
2.21124063992431
30
0
41
1
10
31.8805643401774
20
2.22380397752801
30
0
41
1
10
31.6229816079422
20
2.23849317436006
30
0
41
1
10
31.5092496394019
20
2.24193438319449
30
0
41
1
10
31.3953835852457
20
2.24194492155391
30
0
0
SPLINE
5
E1
100
AcDbEntity
8
1
62
256
6
ByLayer
370
18
48
1
60
0
100
AcDbSpline
70
4
71
3
72
8
73
4
40
0
40
0
40
0
40
0
40
1
40
1
40
1
40
1
41
1
10
23.334286425721
20
-1.40848712917699
30
0
41
1
10
23.2409100192405
20
-1.4533962696994
30
0
41
1
10
23.1474975667688
20
-1.49673991576284
30
0
41
1
10
23.0539
20
-1.53845051203462
30
0
0
SPLINE
5
E2
100
AcDbEntity
8
1
62
256
6
ByLayer
370
18
48
1
60
0
100
AcDbSpline
70
4
71
3
72
10
73
6
40
0
40
0
40
0
40
0
40
0.5
40
0.5
40
1
40
1
40
1
40
1
41
1
10
22.4095039553673
20
-1.16177654647811
30
0
41
1
10
21.9136451389738
20
-0.923703193762321
30
0
41
1
10
21.4207504507435
20
-0.678923155125773
30
0
41
1
10
20.441116692993
20
-0.175652108993034
30
0
41
1
10
19.954341671053
20
0.0827647069259001
30
0
41
1
10
19.4718470846851
20
0.350496083031487
30
0
0
SPLINE
5
E3
100
AcDbEntity
8
1
62
256
6
ByLayer
370
18
48
1
60
0
100
AcDbSpline
70
4
71
3
72
8
73
4
40
0
40
0
40
0
40
0
40
1
40
1
40
1
40
1
41
1
10
22.4095039553673
20
2.26476044310934
30
0
41
1
10
22.6224094870004
20
2.02698346940878
30
0
41
1
10
22.836528198224
20
1.79722186755711
30
0
41
1
10
23.053900000045
20
1.57748620477665
30
0
0
SPLINE
5
E4
100
AcDbEntity
8
1
62
256
6
ByLayer
370
18
48
1
60
0
100
AcDbSpline
70
4
71
3
72
8
73
4
40
0
40
0
40
0
40
0
40
1
40
1
40
1
40
1
41
1
10
37.4528789984771
20
-0.0642789328362028
30
0
41
1
10
37.400149257425
20
-0.0424544994888265
30
0
41
1
10
37.3514758781093
20
-0.0239176354040751
30
0
41
1
10
37.311456883941
20
-0.0108507520546937
30
0
0
SPLINE
5
E5
100
AcDbEntity
8
1
62
256
6
ByLayer
370
18
48
1
60
0
100
AcDbSpline
70
4
71
3
72
20
73
16
40
0
40
0
40
0
40
0
40
0.0702914727976521
40
0.0702914727976521
40
0.225242893998044
40
0.225242893998044
40
0.380194315198435
40
0.380194315198435
40
0.535145736398826
40
0.535145736398826
40
0.690097157599218
40
0.690097157599218
40
0.845048578799609
40
0.845048578799609
40
1
40
1
40
1
40
1
41
1
10
37.1847138649965
20
0.0543859904142323
30
0
41
1
10
37.1771364227816
20
0.062236318874227
30
0
41
1
10
37.1709864661153
20
0.0706755416318288
30
0
41
1
10
37.1559188904353
20
0.0999079540496552
30
0
41
1
10
37.1521846355585
20
0.123461340749401
30
0
41
1
10
37.1561611495387
20
0.180542788078583
30
0
41
1
10
37.1637585559162
20
0.213043361460336
30
0
41
1
10
37.1878370099344
20
0.287386883906066
30
0
41
1
10
37.2045781261109
20
0.329709397520333
30
0
41
1
10
37.2444085799182
20
0.420665079795242
30
0
41
1
10
37.2676031027298
20
0.469733850222525
30
0
41
1
10
37.3206210453591
20
0.574645357030505
30
0
41
1
10
37.3494464467648
20
0.628690448286136
30
0
41
1
10
37.4141443998338
20
0.738498796307823
30
0
41
1
10
37.4501031547748
20
0.795028260606699
30
0
41
1
10
37.4928793040255
20
0.84700302466922
30
0
0
SPLINE
5
E6
100
AcDbEntity
8
1
62
256
6
ByLayer
370
18
48
1
60
0
100
AcDbSpline
70
4
71
3
72
8
73
4
40
0
40
0
40
0
40
0
40
1
40
1
40
1
40
1
41
1
10
37.0907244922237
20
-2.16947439778187
30
0
41
1
10
37.100179232593
20
-2.21579836374082
30
0
41
1
10
37.1121848168302
20
-2.251473006027
30
0
41
1
10
37.1271631203099
20
-2.2770617776267
30
0
0
SPLINE
5
E7
100
AcDbEntity
8
1
62
256
6
ByLayer
370
13
48
1
60
0
100
AcDbSpline
70
4
71
3
72
10
73
6
40
0
40
0
40
0
40
0
40
0.554871117216733
40
0.875329405210769
40
1
40
1
40
1
40
1
41
1
10
37.3114568839352
20
-0.0108507520529315
30
0
41
1
10
37.2853709103002
20
-0.0029057377586525
30
0
41
1
10
37.2442188370453
20
0.0096243538719136
30
0
41
1
10
37.1972060337452
20
0.0239368445768662
30
0
41
1
10
37.176279948517
20
0.0303115952737869
30
0
41
1
10
37.1704190636222
20
0.0320972142712321
30
0
0
SPLINE
5
E8
100
AcDbEntity
8
1
62
256
6
ByLayer
370
13
48
1
60
0
100
AcDbSpline
70
4
71
3
72
15
73
11
40
0
40
0
40
0
40
0
40
0.010051859859957
40
0.133795377377462
40
0.257538894894967
40
0.443154171171226
40
0.505025929929979
40
0.566897688688731
40
0.752512964964988
40
1
40
1
40
1
40
1
41
1
10
22.0096021652456
20
-0.983033466026399
30
0
41
1
10
22.0071545973751
20
-0.983357607731733
30
0
41
1
10
21.9745763279105
20
-0.987662683659977
30
0
41
1
10
21.9118705051462
20
-0.995706011352127
30
0
41
1
10
21.8064172513431
20
-1.00848777955099
30
0
41
1
10
21.716022175459
20
-1.01866378077807
30
0
41
1
10
21.6406913318656
20
-1.02661758883309
30
0
41
1
10
21.5653712534942
20
-1.03426143352564
30
0
41
1
10
21.4448617963509
20
-1.04558662120661
30
0
41
1
10
21.3393933827789
20
-1.05422792549703
30
0
41
1
10
21.279124601929
20
-1.05873129009811
30
0
0
SPLINE
5
E9
100
AcDbEntity
8
1
62
256
6
ByLayer
370
18
48
1
60
0
100
AcDbSpline
70
4
71
3
72
16
73
12
40
0
40
0
40
0
40
0
40
0.250000000000004
40
0.250000000000004
40
0.375000000000003
40
0.375000000000003
40
0.500000000000003
40
0.500000000000003
40
0.750000000000001
40
0.750000000000001
40
1
40
1
40
1
40
1
41
1
10
37.0526896984043
20
-2.00194430325772
30
0
41
1
10
37.0230567343224
20
-1.94892336762467
30
0
41
1
10
36.9976523562364
20
-1.88825830343143
30
0
41
1
10
36.9659653743714
20
-1.7856558503141
30
0
41
1
10
36.9564775399347
20
-1.7495126430004
30
0
41
1
10
36.9397230774711
20
-1.67321089384441
30
0
41
1
10
36.932429539021
20
-1.63284952416603
30
0
41
1
10
36.9142700001532
20
-1.50699401200026
30
0
41
1
10
36.9071207690439
20
-1.41733149768984
30
0
41
1
10
36.902531025225
20
-1.22672756931002
30
0
41
1
10
36.9051368755628
20
-1.12519194102941
30
0
41
1
10
36.9127497086793
20
-1.01909208770996
30
0
0
SPLINE
5
EA
100
AcDbEntity
8
1
62
256
6
ByLayer
370
18
48
1
60
0
100
AcDbSpline
70
4
71
3
72
10
73
6
40
0
40
0
40
0
40
0
40
0.5
40
0.5
40
1
40
1
40
1
40
1
41
1
10
37.0890557020441
20
-2.16750280912009
30
0
41
1
10
37.0901493522839
20
-2.13008421011952
30
0
41
1
10
37.0861042455622
20
-2.09828765517625
30
0
41
1
10
37.0727631977857
20
-2.04392737700189
30
0
41
1
10
37.0635625796906
20
-2.02139866284327
30
0
41
1
10
37.0526896984042
20
-2.00194430325772
30
0
0
SPLINE
5
EB
100
AcDbEntity
8
1
62
256
6
ByLayer
370
18
48
1
60
0
100
AcDbSpline
70
4
71
3
72
10
73
6
40
0
40
0
40
0
40
0
40
0.5
40
0.5
40
1
40
1
40
1
40
1
41
1
10
37.1271631203099
20
-2.27706177762678
30
0
41
1
10
37.1946491140639
20
-2.12928324582896
30
0
41
1
10
37.2644993786077
20
-1.97388815334182
30
0
41
1
10
37.4071759546134
20
-1.64457572519837
30
0
41
1
10
37.4805287981825
20
-1.46942254859158
30
0
41
1
10
37.5510860039466
20
-1.2897191756237
30
0
0
SPLINE
5
EC
100
AcDbEntity
8
1
62
256
6
ByLayer
370
18
48
1
60
0
100
AcDbSpline
70
4
71
3
72
10
73
6
40
0
40
0
40
0
40
0
40
0.5
40
0.5
40
1
40
1
40
1
40
1
41
1
10
37.6075556941914
20
-0.37971519056839
30
0
41
1
10
37.5735584373338
20
-0.345911011510964
30
0
41
1
10
37.5443721160289
20
-0.300854744710222
30
0
41
1
10
37.4931001233831
20
-0.194134810000634
30
0
41
1
10
37.4709442664275
20
-0.131541927963525
30
0
41
1
10
37.452878998471
20
-0.0642789328342417
30
0
0
SPLINE
5
ED
100
AcDbEntity
8
1
62
256
6
ByLayer
370
18
48
1
60
0
100
AcDbSpline
70
4
71
3
72
18
73
14
40
0
40
0
40
0
40
0
40
0.271042647143599
40
0.271042647143599
40
0.362162316250648
40
0.362162316250648
40
0.453281985357697
40
0.453281985357697
40
0.635521323571798
40
0.635521323571798
40
0.817760661785899
40
0.817760661785899
40
1
40
1
40
1
40
1
41
1
10
27.8727910278752
20
-2.26352566006665
30
0
41
1
10
27.4388204015965
20
-2.31775882405611
30
0
41
1
10
27.0081768556414
20
-2.32163527090251
30
0
41
1
10
26.426079175679
20
-2.25885959809284
30
0
41
1
10
26.2785675601011
20
-2.23721242715635
30
0
41
1
10
25.9840048266702
20
-2.18276580633682
30
0
41
1
10
25.8374350628618
20
-2.1501135116811
30
0
41
1
10
25.3991184037851
20
-2.036645817079
30
0
41
1
10
25.1087652681188
20
-1.94027489486686
30
0
41
1
10
24.5260592019472
20
-1.71106283167268
30
0
41
1
10
24.2334761340653
20
-1.57797555819963
30
0
41
1
10
23.6430276954307
20
-1.27994053512057
30
0
41
1
10
23.3492880816863
20
-1.116754412722
30
0
41
1
10
23.0539000000451
20
-0.943576787686538
30
0
0
SPLINE
5
EE
100
AcDbEntity
8
1
62
256
6
ByLayer
370
18
48
1
60
0
100
AcDbSpline
70
4
71
4
72
10
73
5
40
0
40
0
40
0
40
0
40
0
40
1
40
1
40
1
40
1
40
1
41
1
10
21.279124601929
20
-1.05873129009811
30
0
41
1
10
21.0927072682199
20
-1.5207075299781
30
0
41
1
10
20.9062899345108
20
-1.98268376985809
30
0
41
1
10
20.7198726008017
20
-2.44466000973807
30
0
41
1
10
20.5334552670926
20
-2.90663624961809
30
0
0
SPLINE
5
EF
100
AcDbEntity
8
1
62
256
6
ByLayer
370
18
48
1
60
0
100
AcDbSpline
70
4
71
3
72
56
73
52
40
0
40
0
40
0
40
0
40
0.0376875343386818
40
0.0376875343386818
40
0.0753750686773635
40
0.0753750686773635
40
0.113062603016045
40
0.113062603016045
40
0.150750137354727
40
0.150750137354727
40
0.188437671693409
40
0.188437671693409
40
0.226125206032091
40
0.226125206032091
40
0.244968973201432
40
0.244968973201432
40
0.263812740370774
40
0.263812740370774
40
0.301500274709455
40
0.301500274709455
40
0.339187809048137
40
0.339187809048137
40
0.376875343386819
40
0.376875343386819
40
0.414562877725501
40
0.414562877725501
40
0.452250412064182
40
0.452250412064182
40
0.527625480741546
40
0.527625480741546
40
0.565313015080229
40
0.565313015080229
40
0.603000549418912
40
0.603000549418912
40
0.678375618096278
40
0.678375618096278
40
0.716063152434961
40
0.716063152434961
40
0.753750686773644
40
0.753750686773644
40
0.791438221112328
40
0.791438221112328
40
0.829125755451011
40
0.829125755451011
40
0.866813289789694
40
0.866813289789694
40
0.904500824128377
40
0.904500824128377
40
0.979875892805743
40
0.979875892805743
40
1
40
1
40
1
40
1
41
1
10
23.0539
20
1.53845051203462
30
0
41
1
10
23.1990477062474
20
1.47376723463697
30
0
41
1
10
23.3438038473469
20
1.40513274494705
30
0
41
1
10
23.6336619929679
20
1.26043976336462
30
0
41
1
10
23.7786942459641
20
1.18458749442877
30
0
41
1
10
24.0692642236983
20
1.02724596632217
30
0
41
1
10
24.2142915758788
20
0.946299606857053
30
0
41
1
10
24.5040730396539
20
0.779993158876977
30
0
41
1
10
24.6490513218144
20
0.694656301604397
30
0
41
1
10
24.9393025937999
20
0.520807872322848
30
0
41
1
10
25.0843057478202
20
0.432250864593783
30
0
41
1
10
25.3741386106393
20
0.253865860724261
30
0
41
1
10
25.518961471341
20
0.163806030500751
30
0
41
1
10
25.7365303106544
20
0.0283128819352498
30
0
41
1
10
25.8090845675444
20
-0.0170397864667109
30
0
41
1
10
25.9540614093734
20
-0.107644918198702
30
0
41
1
10
26.0264785127958
20
-0.152906873784787
30
0
41
1
10
26.2436247910044
20
-0.288019458164939
30
0
41
1
10
26.3883906411728
20
-0.377269526200593
30
0
41
1
10
26.6781156078029
20
-0.554073177208778
30
0
41
1
10
26.8233207643194
20
-0.641582682275356
30
0
41
1
10
27.1129823471301
20
-0.812928500784523
30
0
41
1
10
27.2575797541005
20
-0.896793064050229
30
0
41
1
10
27.5472401734918
20
-1.0592767396312
30
0
41
1
10
27.6923813387608
20
-1.13821927421964
30
0
41
1
10
27.9822266092988
20
-1.290522114521
30
0
41
1
10
28.1268470404071
20
-1.36416557441365
30
0
41
1
10
28.5609215575168
20
-1.57339381013247
30
0
41
1
10
28.8513222593574
20
-1.69714461229137
30
0
41
1
10
29.2855663057101
20
-1.85907534680618
30
0
41
1
10
29.4302886149842
20
-1.90853518646159
30
0
41
1
10
29.7204665997619
20
-1.99801159010613
30
0
41
1
10
29.8651179922145
20
-2.03831702895178
30
0
41
1
10
30.2992596918092
20
-2.14129531309376
30
0
41
1
10
30.58962343937
20
-2.18826067729219
30
0
41
1
10
31.0235205791837
20
-2.23104576901048
30
0
41
1
10
31.1681087557762
20
-2.23923121897477
30
0
41
1
10
31.4579359521389
20
-2.24346722681508
30
0
41
1
10
31.6030806452325
20
-2.23987151116853
30
0
41
1
10
31.8927630011028
20
-2.22284532089188
30
0
41
1
10
32.0373114062709
20
-2.20994796340705
30
0
41
1
10
32.3268498621802
20
-2.17211847961011
30
0
41
1
10
32.4721672420869
20
-2.14677955222601
30
0
41
1
10
32.7612389088713
20
-2.0858357634792
30
0
41
1
10
32.9053785937104
20
-2.05035817278795
30
0
41
1
10
33.192960944873
20
-1.97148872716201
30
0
41
1
10
33.3364699664592
20
-1.92785829916374
30
0
41
1
10
33.7675024671683
20
-1.78034167175591
30
0
41
1
10
34.0557170399515
20
-1.66182720691094
30
0
41
1
10
34.4233407107358
20
-1.49305270303495
30
0
41
1
10
34.5007075243564
20
-1.45652034848999
30
0
41
1
10
34.5779995678701
20
-1.41907602575625
30
0
0
SPLINE
5
F0
100
AcDbEntity
8
1
62
256
6
ByLayer
370
18
48
1
60
0
100
AcDbSpline
70
4
71
3
72
12
73
8
40
0
40
0
40
0
40
0
40
0.25000000000001
40
0.25000000000001
40
0.500000000000021
40
0.500000000000021
40
1
40
1
40
1
40
1
41
1
10
37.4928793040255
20
0.847003024669249
30
0
41
1
10
37.5067123972869
20
0.863810796549387
30
0
41
1
10
37.5192021840928
20
0.882130529932255
30
0
41
1
10
37.5396924513184
20
0.920460620911285
30
0
41
1
10
37.5478413590955
20
0.940609441773489
30
0
41
1
10
37.5654155157247
20
1.0042812542938
30
0
41
1
10
37.5670606139596
20
1.04822081639128
30
0
41
1
10
37.5612447645827
20
1.0917928521288
30
0
0
SPLINE
5
F1
100
AcDbEntity
8
1
62
256
6
ByLayer
370
18
48
1
60
0
100
AcDbSpline
70
4
71
3
72
8
73
4
40
0
40
0
40
0
40
0
40
1
40
1
40
1
40
1
41
1
10
22.4095039553673
20
-2.26476044310934
30
0
41
1
10
22.6224094869997
20
-2.02698346940954
30
0
41
1
10
22.8365281982248
20
-1.79722186755637
30
0
41
1
10
23.0539000000451
20
-1.57748620477668
30
0
0
SPLINE
5
F2
100
AcDbEntity
8
1
62
256
6
ByLayer
370
18
48
1
60
0
100
AcDbSpline
70
4
71
3
72
8
73
4
40
0
40
0
40
0
40
0
40
1
40
1
40
1
40
1
41
1
10
23.0539
20
-1.57748620480072
30
0
41
1
10
23.0539
20
-1.56463452385952
30
0
41
1
10
23.0539
20
-1.55162273090551
30
0
41
1
10
23.0539
20
-1.53845051203459
30
0
0
SPLINE
5
F3
100
AcDbEntity
8
1
62
256
6
ByLayer
370
18
48
1
60
0
100
AcDbSpline
70
4
71
3
72
10
73
6
40
0
40
0
40
0
40
0
40
0.0976763854272444
40
0.0976763854272444
40
1
40
1
40
1
40
1
41
1
10
19.6214963495094
20
2.95000284760064
30
0
41
1
10
19.6509414754005
20
2.9499829676478
30
0
41
1
10
19.6804118696722
20
2.94981983618024
30
0
41
1
10
19.9823797134279
20
2.94672067731526
30
0
41
1
10
20.2569713961699
20
2.93195165272161
30
0
41
1
10
20.5334552670926
20
2.90663624961806
30
0
0
SPLINE
5
F4
100
AcDbEntity
8
1
62
256
6
ByLayer
370
18
48
1
60
0
100
AcDbSpline
70
4
71
2
72
6
73
3
40
0
40
0
40
0
40
1
40
1
40
1
41
0.500000171341803
10
37.089055702048
20
-2.16750280911156
30
0
41
0.499999828658197
10
37.0898887015657
20
-2.16849158712029
30
0
41
0.500000171341803
10
37.0907244922263
20
-2.169474397795
30
0
0
SPLINE
5
F5
100
AcDbEntity
8
1
62
256
6
ByLayer
370
18
48
1
60
0
100
AcDbSpline
70
4
71
3
72
8
73
4
40
0
40
0
40
0
40
0
40
1
40
1
40
1
40
1
41
1
10
37.5612446376679
20
1.09179284414259
30
0
41
1
10
37.5523458704915
20
1.1584619913192
30
0
41
1
10
37.549911356222
20
1.22431767365021
30
0
41
1
10
37.5510860039466
20
1.28971917562345
30
0
0
SPLINE
5
F6
100
AcDbEntity
8
1
62
256
6
ByLayer
370
18
48
1
60
0
100
AcDbSpline
70
4
71
2
72
6
73
3
40
0
40
0
40
0
40
1
40
1
40
1
41
1
10
31.9774946427514
20
-0.0054312554857745
30
0
41
1
10
32.4755101449671
20
-0.154841880795544
30
0
41
1
10
32.9386242110896
20
-0.467695369987013
30
0
0
SPLINE
5
F7
100
AcDbEntity
8
1
62
256
6
ByLayer
370
18
48
1
60
0
100
AcDbSpline
70
4
71
3
72
20
73
16
40
0
40
0
40
0
40
0
40
0.120727993156083
40
0.202536819502757
40
0.266799750643286
40
0.335773911693203
40
0.405641387211003
40
0.475444115278628
40
0.535217110743787
40
0.594928603147521
40
0.654528895425158
40
0.711680577942915
40
0.768205629376075
40
0.860552707070506
40
1
40
1
40
1
40
1
41
1
10
27.4907280642728
20
-2.23631393342393
30
0
41
1
10
27.6493891596483
20
-2.23638748773797
30
0
41
1
10
27.9155941986842
20
-2.2366435860464
30
0
41
1
10
28.2664891393611
20
-2.23756403684951
30
0
41
1
10
28.5491290196229
20
-2.2380592922614
30
0
41
1
10
28.8162577746708
20
-2.23792408973648
30
0
41
1
10
29.0906235654882
20
-2.23803339018241
30
0
41
1
10
29.3529009308696
20
-2.23896811082284
30
0
41
1
10
29.6018203459746
20
-2.23932583071274
30
0
41
1
10
29.8373251811856
20
-2.24030156024347
30
0
41
1
10
30.0693738900459
20
-2.24046056155501
30
0
41
1
10
30.2972716123859
20
-2.24007183226962
30
0
41
1
10
30.5675360103642
20
-2.23929740213543
30
0
41
1
10
30.9470462802124
20
-2.24143482441229
30
0
41
1
10
31.2515812947421
20
-2.24169687861027
30
0
41
1
10
31.4348076372839
20
-2.24189337307078
30
0
0
SPLINE
5
F8
100
AcDbEntity
8
1
62
256
6
ByLayer
370
18
48
1
60
0
100
AcDbSpline
70
4
71
3
72
20
73
16
40
0
40
0
40
0
40
0
40
0.154420922931794
40
0.256675879565612
40
0.319255167841663
40
0.382527200327725
40
0.448510082539864
40
0.514616087431156
40
0.580790203182386
40
0.658068177667245
40
0.73541788208309
40
0.811778700516988
40
0.882923875336583
40
0.973493926422069
40
1
40
1
40
1
40
1
41
1
10
31.4350193312956
20
2.24189305487963
30
0
41
1
10
31.2517450676155
20
2.24169728256794
30
0
41
1
10
30.9471400979191
20
2.24143597219782
30
0
41
1
10
30.5675611495777
20
2.23929770679425
30
0
41
1
10
30.2972721153556
20
2.240071790359
30
0
41
1
10
30.0693739454894
20
2.24046057203293
30
0
41
1
10
29.8373257937405
20
2.24030155874053
30
0
41
1
10
29.6018215007624
20
2.23932583483554
30
0
41
1
10
29.3529025571258
20
2.23896811370423
30
0
41
1
10
29.090625565572
20
2.23803339639406
30
0
41
1
10
28.8162599578184
20
2.23792408773653
30
0
41
1
10
28.5491310685867
20
2.23805929315992
30
0
41
1
10
28.266490849575
20
2.23756404422136
30
0
41
1
10
28.0428884500558
20
2.23697749936727
30
0
41
1
10
27.9038515164914
20
2.23673333606405
30
0
41
1
10
27.8723755694571
20
2.23668363314383
30
0
0
SPLINE
5
F9
100
AcDbEntity
8
1
62
256
6
ByLayer
370
18
48
1
60
0
100
AcDbSpline
70
4
71
2
72
6
73
3
40
0
40
0
40
0
40
1
40
1
40
1
41
1
10
26.0058107684966
20
0.0060846729899993
30
0
41
1
10
25.551033758998
20
0.112548396443231
30
0
41
1
10
25.1134686164338
20
0.426632835686235
30
0
0
SPLINE
5
FA
100
AcDbEntity
8
1
62
256
6
ByLayer
370
18
48
1
60
0
100
AcDbSpline
70
4
71
2
72
6
73
3
40
0
40
0
40
0
40
1
40
1
40
1
41
1
10
37.1919867346056
20
0.0255273903525222
30
0
41
1
10
36.7645887385276
20
0.133089128736714
30
0
41
1
10
36.3325897207265
20
0.443995631472489
30
0
0
LINE
5
7D
100
AcDbEntity
8
SK1
62
256
6
ByLayer
370
18
48
1
60
0
100
AcDbLine
10
-34.989637
20
3
30
0
11
-34.989637
21
-3
31
0
39
0
210
0
220
0
230
1
0
LINE
5
7F
100
AcDbEntity
8
SK1
62
256
6
ByLayer
370
18
48
1
60
0
100
AcDbLine
10
0
20
-3
30
0
11
0
21
3
31
0
39
0
210
0
220
0
230
1
0
LINE
5
80
100
AcDbEntity
8
SK1
62
256
6
ByLayer
370
18
48
1
60
0
100
AcDbLine
10
-36
20
1.25
30
0
11
-36
21
-1.25
31
0
39
0
210
0
220
0
230
1
0
LINE
5
81
100
AcDbEntity
8
1
62
256
6
ByLayer
370
18
48
1
60
0
100
AcDbLine
10
23.0539
20
-0.943577
30
0
11
23.0539
21
-1.26215
31
0
39
0
210
0
220
0
230
1
0
LINE
5
82
100
AcDbEntity
8
1
62
256
6
ByLayer
370
18
48
1
60
0
100
AcDbLine
10
0
20
-3
30
0
11
0
21
3
31
0
39
0
210
0
220
0
230
1
0
LINE
5
83
100
AcDbEntity
8
1
62
256
6
ByLayer
370
18
48
1
60
0
100
AcDbLine
10
36.91275
20
-1.019092
30
0
11
37.593331
21
-0.472703
31
0
39
0
210
0
220
0
230
1
0
LINE
5
84
100
AcDbEntity
8
1
62
256
6
ByLayer
370
13
48
1
60
0
100
AcDbLine
10
0.204634
20
2.975
30
0
11
0.204634
21
-2.975
31
0
39
0
210
0
220
0
230
1
0
LINE
5
85
100
AcDbEntity
8
1
62
256
6
ByLayer
370
18
48
1
60
0
100
AcDbLine
10
37.593331
20
-0.472703
30
0
11
37.607556
21
-0.379715
31
0
39
0
210
0
220
0
230
1
0
LINE
5
86
100
AcDbEntity
8
1
62
256
6
ByLayer
370
13
48
1
60
0
100
AcDbLine
10
0.409268
20
2.95
30
0
11
0.409268
21
-2.95
31
0
39
0
210
0
220
0
230
1
0
LINE
5
87
100
AcDbEntity
8
1
62
256
6
ByLayer
370
18
48
1
60
0
100
AcDbLine
10
23.0539
20
1.577486
30
0
11
23.0539
21
-0.943577
31
0
39
0
210
0
220
0
230
1
0
LINE
5
88
100
AcDbEntity
8
1
62
256
6
ByLayer
370
18
48
1
60
0
100
AcDbLine
10
22.409504
20
2.26476
30
0
11
22.409504
21
-1.161777
31
0
39
0
210
0
220
0
230
1
0
LINE
5
89
100
AcDbEntity
8
80
62
256
6
ByLayer
370
18
48
1
60
0
100
AcDbLine
10
0
20
0
30
0
11
-5
21
0
31
0
39
0
210
0
220
0
230
1
0
LINE
5
8A
100
AcDbEntity
8
SK4
62
256
6
ByLayer
370
18
48
0.05
60
0
100
AcDbLine
10
43
20
0
30
0
11
-41
21
0
31
0
39
0
210
0
220
0
230
1
0
LINE
5
8C
100
AcDbEntity
8
4
62
256
6
ByLayer
370
18
48
0.05
60
0
100
AcDbLine
10
38
20
0
30
0
11
0
21
0
31
0
39
0
210
0
220
0
230
1
0
LINE
5
8E
100
AcDbEntity
8
SK1
62
256
6
ByLayer
370
18
48
1
60
0
100
AcDbLine
10
-34.989637
20
-3
30
0
11
0
21
-3
31
0
39
0
210
0
220
0
230
1
0
LINE
5
8F
100
AcDbEntity
8
SK1
62
256
6
ByLayer
370
18
48
1
60
0
100
AcDbLine
10
0
20
3
30
0
11
-34.989637
21
3
31
0
39
0
210
0
220
0
230
1
0
LINE
5
90
100
AcDbEntity
8
SK1
62
256
6
ByLayer
370
18
48
1
60
0
100
AcDbLine
10
-36
20
-1.25
30
0
11
-34.989637
21
-3
31
0
39
0
210
0
220
0
230
1
0
LINE
5
91
100
AcDbEntity
8
SK1
62
256
6
ByLayer
370
18
48
1
60
0
100
AcDbLine
10
-34.989637
20
3
30
0
11
-36
21
1.25
31
0
39
0
210
0
220
0
230
1
0
LINE
5
92
100
AcDbEntity
8
1
62
256
6
ByLayer
370
18
48
1
60
0
100
AcDbLine
10
26.600739
20
-2.306184
30
0
11
27.165609
21
-2.307201
31
0
39
0
210
0
220
0
230
1
0
LINE
5
93
100
AcDbEntity
8
1
62
256
6
ByLayer
370
18
48
1
60
0
100
AcDbLine
10
27.165609
20
2.307201
30
0
11
26.600144
21
2.306183
31
0
39
0
210
0
220
0
230
1
0
LINE
5
94
100
AcDbEntity
8
1
62
256
6
ByLayer
370
18
48
1
60
0
100
AcDbLine
10
0.409268
20
-2.95
30
0
11
19.616821
21
-2.95
31
0
39
0
210
0
220
0
230
1
0
LINE
5
95
100
AcDbEntity
8
1
62
256
6
ByLayer
370
18
48
1
60
0
100
AcDbLine
10
19.616821
20
2.95
30
0
11
0.409268
21
2.95
31
0
39
0
210
0
220
0
230
1
0
LINE
5
96
100
AcDbEntity
8
81
62
256
6
ByLayer
370
18
48
1
60
0
100
AcDbLine
10
38
20
0
30
0
11
43
21
0
31
0
39
0
210
0
220
0
230
1
0
LINE
5
97
100
AcDbEntity
8
2
62
256
6
ByLayer
370
13
48
1
60
0
100
AcDbLine
10
60.236431
20
30.280881
30
0
11
60.236431
21
-11.7
31
0
39
0
210
0
220
0
230
1
0
LINE
5
99
100
AcDbEntity
8
2
62
256
6
ByLayer
370
13
48
1
60
0
100
AcDbLine
10
24.0164
20
2.95
30
0
11
62.236431
21
2.95
31
0
39
0
210
0
220
0
230
1
0
LINE
5
9A
100
AcDbEntity
8
2
62
256
6
ByLayer
370
13
48
1
60
0
100
AcDbLine
10
24.0164
20
-2.95
30
0
11
62.236431
21
-2.95
31
0
39
0
210
0
220
0
230
1
0
LINE
5
9B
100
AcDbEntity
8
1
62
256
6
ByLayer
370
18
48
1
60
1
100
AcDbLine
10
60.236431
20
2.95
30
0
11
59.775647
21
6.449998
31
0
39
0
210
0
220
0
230
1
0
LINE
5
9C
100
AcDbEntity
8
1
62
256
6
ByLayer
370
18
48
1
60
1
100
AcDbLine
10
59.775647
20
6.449998
30
0
11
60.697214
21
6.450002
31
0
39
0
210
0
220
0
230
1
0
LINE
5
9D
100
AcDbEntity
8
1
62
256
6
ByLayer
370
18
48
1
60
1
100
AcDbLine
10
60.697214
20
6.450002
30
0
11
60.236431
21
2.95
31
0
39
0
210
0
220
0
230
1
0
LINE
5
9E
100
AcDbEntity
8
1
62
256
6
ByLayer
370
18
48
1
60
1
100
AcDbLine
10
60.236431
20
-2.95
30
0
11
60.697214
21
-6.449998
31
0
39
0
210
0
220
0
230
1
0
LINE
5
9F
100
AcDbEntity
8
1
62
256
6
ByLayer
370
18
48
1
60
1
100
AcDbLine
10
60.697214
20
-6.449998
30
0
11
59.775647
21
-6.450002
31
0
39
0
210
0
220
0
230
1
0
LINE
5
A0
100
AcDbEntity
8
1
62
256
6
ByLayer
370
18
48
1
60
1
100
AcDbLine
10
59.775647
20
-6.450002
30
0
11
60.236431
21
-2.95
31
0
39
0
210
0
220
0
230
1
0
LINE
5
A1
100
AcDbEntity
8
SK2
62
256
6
ByLayer
370
13
48
1
60
0
100
AcDbLine
10
-44.625163
20
32.117107
30
0
11
-44.625163
21
-11.75
31
0
39
0
210
0
220
0
230
1
0
LINE
5
A3
100
AcDbEntity
8
SK2
62
256
6
ByLayer
370
13
48
1
60
0
100
AcDbLine
10
-37.5875
20
3
30
0
11
-46.625163
21
3
31
0
39
0
210
0
220
0
230
1
0
LINE
5
A4
100
AcDbEntity
8
SK2
62
256
6
ByLayer
370
13
48
1
60
0
100
AcDbLine
10
-37.5875
20
-3
30
0
11
-46.625163
21
-3
31
0
39
0
210
0
220
0
230
1
0
LINE
5
A5
100
AcDbEntity
8
1
62
256
6
ByLayer
370
18
48
1
60
1
100
AcDbLine
10
-44.625163
20
3
30
0
11
-45.085946
21
6.499998
31
0
39
0
210
0
220
0
230
1
0
LINE
5
A6
100
AcDbEntity
8
1
62
256
6
ByLayer
370
18
48
1
60
1
100
AcDbLine
10
-45.085946
20
6.499998
30
0
11
-44.164379
21
6.500002
31
0
39
0
210
0
220
0
230
1
0
LINE
5
A7
100
AcDbEntity
8
1
62
256
6
ByLayer
370
18
48
1
60
1
100
AcDbLine
10
-44.164379
20
6.500002
30
0
11
-44.625163
21
3
31
0
39
0
210
0
220
0
230
1
0
LINE
5
A8
100
AcDbEntity
8
1
62
256
6
ByLayer
370
18
48
1
60
1
100
AcDbLine
10
-44.625163
20
-3
30
0
11
-44.164379
21
-6.499998
31
0
39
0
210
0
220
0
230
1
0
LINE
5
A9
100
AcDbEntity
8
1
62
256
6
ByLayer
370
18
48
1
60
1
100
AcDbLine
10
-44.164379
20
-6.499998
30
0
11
-45.085946
21
-6.500002
31
0
39
0
210
0
220
0
230
1
0
LINE
5
AA
100
AcDbEntity
8
1
62
256
6
ByLayer
370
18
48
1
60
1
100
AcDbLine
10
-45.085946
20
-6.500002
30
0
11
-44.625163
21
-3
31
0
39
0
210
0
220
0
230
1
0
LINE
5
AB
100
AcDbEntity
8
2
62
256
6
ByLayer
370
13
48
1
60
0
100
AcDbLine
10
51.970081
20
31.158364
30
0
11
51.970081
21
-11.075
31
0
39
0
210
0
220
0
230
1
0
LINE
5
AC
100
AcDbEntity
8
2
62
256
6
ByLayer
370
13
48
1
60
0
100
AcDbLine
10
38.6414
20
2.325
30
0
11
53.970081
21
2.325
31
0
39
0
210
0
220
0
230
1
0
LINE
5
AD
100
AcDbEntity
8
2
62
256
6
ByLayer
370
13
48
1
60
0
100
AcDbLine
10
38.6414
20
-2.325
30
0
11
53.970081
21
-2.325
31
0
39
0
210
0
220
0
230
1
0
LINE
5
AE
100
AcDbEntity
8
1
62
256
6
ByLayer
370
18
48
1
60
1
100
AcDbLine
10
51.970081
20
2.325
30
0
11
51.509297
21
5.824998
31
0
39
0
210
0
220
0
230
1
0
LINE
5
AF
100
AcDbEntity
8
1
62
256
6
ByLayer
370
18
48
1
60
1
100
AcDbLine
10
51.509297
20
5.824998
30
0
11
52.430865
21
5.825002
31
0
39
0
210
0
220
0
230
1
0
LINE
5
B0
100
AcDbEntity
8
1
62
256
6
ByLayer
370
18
48
1
60
1
100
AcDbLine
10
52.430865
20
5.825002
30
0
11
51.970081
21
2.325
31
0
39
0
210
0
220
0
230
1
0
LINE
5
B1
100
AcDbEntity
8
1
62
256
6
ByLayer
370
18
48
1
60
1
100
AcDbLine
10
51.970081
20
-2.325
30
0
11
52.430865
21
-5.824998
31
0
39
0
210
0
220
0
230
1
0
LINE
5
B2
100
AcDbEntity
8
1
62
256
6
ByLayer
370
18
48
1
60
1
100
AcDbLine
10
52.430865
20
-5.824998
30
0
11
51.509297
21
-5.825002
31
0
39
0
210
0
220
0
230
1
0
LINE
5
B3
100
AcDbEntity
8
1
62
256
6
ByLayer
370
18
48
1
60
1
100
AcDbLine
10
51.509297
20
-5.825002
30
0
11
51.970081
21
-2.325
31
0
39
0
210
0
220
0
230
1
0
LINE
5
B4
100
AcDbEntity
8
SK2
62
256
6
ByLayer
370
13
48
1
60
0
100
AcDbLine
10
21.306368
20
-4.072532
30
0
11
11.475745
21
-13.903155
31
0
39
0
210
0
220
0
230
1
0
LINE
5
B5
100
AcDbEntity
8
SK2
62
256
6
ByLayer
370
13
48
1
60
0
100
AcDbLine
10
21.306368
20
4.072532
30
0
11
11.475745
21
13.903155
31
0
39
0
210
0
220
0
230
1
0
LINE
5
B6
100
AcDbEntity
8
1
62
256
6
ByLayer
370
18
48
1
60
1
100
AcDbLine
10
12.889959
20
-12.488941
30
0
11
10.198754
21
-10.204269
31
0
39
0
210
0
220
0
230
1
0
LINE
5
B7
100
AcDbEntity
8
1
62
256
6
ByLayer
370
18
48
1
60
1
100
AcDbLine
10
10.198754
20
-10.204269
30
0
11
10.881769
21
-9.58558
31
0
39
0
210
0
220
0
230
1
0
LINE
5
B8
100
AcDbEntity
8
1
62
256
6
ByLayer
370
18
48
1
60
1
100
AcDbLine
10
10.881769
20
-9.58558
30
0
11
12.889959
21
-12.488941
31
0
39
0
210
0
220
0
230
1
0
LINE
5
B9
100
AcDbEntity
8
1
62
256
6
ByLayer
370
18
48
1
60
1
100
AcDbLine
10
12.889959
20
12.488941
30
0
11
10.881772
21
9.585582
31
0
39
0
210
0
220
0
230
1
0
LINE
5
BA
100
AcDbEntity
8
1
62
256
6
ByLayer
370
18
48
1
60
1
100
AcDbLine
10
10.881772
20
9.585582
30
0
11
10.198752
21
10.204267
31
0
39
0
210
0
220
0
230
1
0
LINE
5
BB
100
AcDbEntity
8
1
62
256
6
ByLayer
370
18
48
1
60
1
100
AcDbLine
10
10.198752
20
10.204267
30
0
11
12.889959
21
12.488941
31
0
39
0
210
0
220
0
230
1
0
LINE
5
101
100
AcDbEntity
8
1
62
256
6
ByLayer
370
18
48
1
60
1
100
AcDbLine
10
60.236431
20
2.95
30
0
11
59.775647
21
6.449998
31
0
39
0
210
0
220
0
230
1
0
LINE
5
102
100
AcDbEntity
8
1
62
256
6
ByLayer
370
18
48
1
60
1
100
AcDbLine
10
59.775647
20
6.449998
30
0
11
60.697214
21
6.450002
31
0
39
0
210
0
220
0
230
1
0
LINE
5
103
100
AcDbEntity
8
1
62
256
6
ByLayer
370
18
48
1
60
1
100
AcDbLine
10
60.697214
20
6.450002
30
0
11
60.236431
21
2.95
31
0
39
0
210
0
220
0
230
1
0
LINE
5
105
100
AcDbEntity
8
1
62
256
6
ByLayer
370
18
48
1
60
1
100
AcDbLine
10
60.236431
20
-2.95
30
0
11
60.697214
21
-6.449998
31
0
39
0
210
0
220
0
230
1
0
LINE
5
106
100
AcDbEntity
8
1
62
256
6
ByLayer
370
18
48
1
60
1
100
AcDbLine
10
60.697214
20
-6.449998
30
0
11
59.775647
21
-6.450002
31
0
39
0
210
0
220
0
230
1
0
LINE
5
107
100
AcDbEntity
8
1
62
256
6
ByLayer
370
18
48
1
60
1
100
AcDbLine
10
59.775647
20
-6.450002
30
0
11
60.236431
21
-2.95
31
0
39
0
210
0
220
0
230
1
0
LINE
5
10B
100
AcDbEntity
8
1
62
256
6
ByLayer
370
18
48
1
60
1
100
AcDbLine
10
-44.625163
20
3
30
0
11
-45.085946
21
6.499998
31
0
39
0
210
0
220
0
230
1
0
LINE
5
10C
100
AcDbEntity
8
1
62
256
6
ByLayer
370
18
48
1
60
1
100
AcDbLine
10
-45.085946
20
6.499998
30
0
11
-44.164379
21
6.500002
31
0
39
0
210
0
220
0
230
1
0
LINE
5
10D
100
AcDbEntity
8
1
62
256
6
ByLayer
370
18
48
1
60
1
100
AcDbLine
10
-44.164379
20
6.500002
30
0
11
-44.625163
21
3
31
0
39
0
210
0
220
0
230
1
0
LINE
5
10F
100
AcDbEntity
8
1
62
256
6
ByLayer
370
18
48
1
60
1
100
AcDbLine
10
-44.625163
20
-3
30
0
11
-44.164379
21
-6.499998
31
0
39
0
210
0
220
0
230
1
0
LINE
5
110
100
AcDbEntity
8
1
62
256
6
ByLayer
370
18
48
1
60
1
100
AcDbLine
10
-44.164379
20
-6.499998
30
0
11
-45.085946
21
-6.500002
31
0
39
0
210
0
220
0
230
1
0
LINE
5
111
100
AcDbEntity
8
1
62
256
6
ByLayer
370
18
48
1
60
1
100
AcDbLine
10
-45.085946
20
-6.500002
30
0
11
-44.625163
21
-3
31
0
39
0
210
0
220
0
230
1
0
LINE
5
115
100
AcDbEntity
8
1
62
256
6
ByLayer
370
18
48
1
60
1
100
AcDbLine
10
51.970081
20
2.325
30
0
11
51.509297
21
5.824998
31
0
39
0
210
0
220
0
230
1
0
LINE
5
116
100
AcDbEntity
8
1
62
256
6
ByLayer
370
18
48
1
60
1
100
AcDbLine
10
51.509297
20
5.824998
30
0
11
52.430865
21
5.825002
31
0
39
0
210
0
220
0
230
1
0
LINE
5
117
100
AcDbEntity
8
1
62
256
6
ByLayer
370
18
48
1
60
1
100
AcDbLine
10
52.430865
20
5.825002
30
0
11
51.970081
21
2.325
31
0
39
0
210
0
220
0
230
1
0
LINE
5
119
100
AcDbEntity
8
1
62
256
6
ByLayer
370
18
48
1
60
1
100
AcDbLine
10
51.970081
20
-2.325
30
0
11
52.430865
21
-5.824998
31
0
39
0
210
0
220
0
230
1
0
LINE
5
11A
100
AcDbEntity
8
1
62
256
6
ByLayer
370
18
48
1
60
1
100
AcDbLine
10
52.430865
20
-5.824998
30
0
11
51.509297
21
-5.825002
31
0
39
0
210
0
220
0
230
1
0
LINE
5
11B
100
AcDbEntity
8
1
62
256
6
ByLayer
370
18
48
1
60
1
100
AcDbLine
10
51.509297
20
-5.825002
30
0
11
51.970081
21
-2.325
31
0
39
0
210
0
220
0
230
1
0
LINE
5
11E
100
AcDbEntity
8
1
62
256
6
ByLayer
370
18
48
1
60
1
100
AcDbLine
10
12.889959
20
-12.488941
30
0
11
10.198754
21
-10.204269
31
0
39
0
210
0
220
0
230
1
0
LINE
5
11F
100
AcDbEntity
8
1
62
256
6
ByLayer
370
18
48
1
60
1
100
AcDbLine
10
10.198754
20
-10.204269
30
0
11
10.881769
21
-9.58558
31
0
39
0
210
0
220
0
230
1
0
LINE
5
120
100
AcDbEntity
8
1
62
256
6
ByLayer
370
18
48
1
60
1
100
AcDbLine
10
10.881769
20
-9.58558
30
0
11
12.889959
21
-12.488941
31
0
39
0
210
0
220
0
230
1
0
LINE
5
122
100
AcDbEntity
8
1
62
256
6
ByLayer
370
18
48
1
60
1
100
AcDbLine
10
12.889959
20
12.488941
30
0
11
10.881772
21
9.585582
31
0
39
0
210
0
220
0
230
1
0
LINE
5
123
100
AcDbEntity
8
1
62
256
6
ByLayer
370
18
48
1
60
1
100
AcDbLine
10
10.881772
20
9.585582
30
0
11
10.198752
21
10.204267
31
0
39
0
210
0
220
0
230
1
0
LINE
5
124
100
AcDbEntity
8
1
62
256
6
ByLayer
370
18
48
1
60
1
100
AcDbLine
10
10.198752
20
10.204267
30
0
11
12.889959
21
12.488941
31
0
39
0
210
0
220
0
230
1
0
MTEXT
5
FB
100
AcDbEntity
8
SK6
62
256
6
ByLayer
370
13
48
1
60
0
100
AcDbMText
10
-27.47756
20
34.865328
30
0
210
0
220
0
230
1
1
\W0.7479;860.2-0465-014A1-PM P1BM
40
3.5
41
0
44
1.084337
50
0
71
7
72
5
7
iso_b_vert
0
MTEXT
5
FF
100
AcDbEntity
8
2
62
256
6
ByLayer
370
18
48
1
60
0
100
AcDbMText
10
58.671797
20
14.572798
30
0
210
0
220
0
230
1
1
%%c
40
3.5
41
0
44
1.084337
50
90
71
7
72
5
7
iso_b_vert
0
MTEXT
5
100
100
AcDbEntity
8
2
62
256
6
ByLayer
370
18
48
1
60
0
100
AcDbMText
10
58.671797
20
19.795454
30
0
210
0
220
0
230
1
1
\W0.7317;5,900
40
3.5
41
0
44
1.084337
50
90
71
7
72
5
7
iso_b_vert
0
MTEXT
5
109
100
AcDbEntity
8
SK2
62
256
6
ByLayer
370
18
48
1
60
0
100
AcDbMText
10
-46.189796
20
16.409024
30
0
210
0
220
0
230
1
1
%%c
40
3.5
41
0
44
1.084337
50
90
71
7
72
5
7
iso_b_vert
0
MTEXT
5
10A
100
AcDbEntity
8
SK2
62
256
6
ByLayer
370
18
48
1
60
0
100
AcDbMText
10
-46.189796
20
21.63168
30
0
210
0
220
0
230
1
1
\W0.7317;6,000
40
3.5
41
0
44
1.084337
50
90
71
7
72
5
7
iso_b_vert
0
MTEXT
5
113
100
AcDbEntity
8
2
62
256
6
ByLayer
370
18
48
1
60
0
100
AcDbMText
10
50.405448
20
15.081747
30
0
210
0
220
0
230
1
1
%%c
40
3.5
41
0
44
1.084337
50
90
71
7
72
5
7
iso_b_vert
0
MTEXT
5
114
100
AcDbEntity
8
2
62
256
6
ByLayer
370
18
48
1
60
0
100
AcDbMText
10
50.405448
20
20.304403
30
0
210
0
220
0
230
1
1
\W0.7581;4,650
40
3.5
41
0
44
1.084337
50
90
71
7
72
5
7
iso_b_vert
0
MTEXT
5
11D
100
AcDbEntity
8
SK2
62
256
6
ByLayer
370
13
48
1
60
0
100
AcDbMText
10
2.910775
20
-0.291663
30
0
210
0
220
0
230
1
1
\W0.8181;90,0%%d
40
3.5
41
0
44
1.084337
50
0
71
7
72
5
7
iso_b_vert
0
HATCH
5
104
100
AcDbEntity
8
2
62
256
6
ByLayer
370
13
48
1
60
0
100
AcDbHatch
10
0
20
0
30
0
210
0
220
0
230
1
2
ANSI31
70
0
71
0
91
1
92
5
93
3
72
1
10
60.2364306046164
20
2.95000000000002
11
59.7756468630637
21
6.44999830744683
72
1
10
59.7756468630637
20
6.44999830744683
11
60.6972143461692
21
6.4500016925532
72
1
10
60.6972143461692
20
6.4500016925532
11
60.2364306046164
21
2.95000000000002
97
0
75
0
76
1
52
0
41
0.0062
77
0
78
1
53
45
43
0
44
0
45
-0.0139193969876572
46
0.0139193969876572
79
0
47
0
98
1
10
0
20
0
0
HATCH
5
108
100
AcDbEntity
8
2
62
256
6
ByLayer
370
13
48
1
60
0
100
AcDbHatch
10
0
20
0
30
0
210
0
220
0
230
1
2
ANSI31
70
0
71
0
91
1
92
5
93
3
72
1
10
60.2364306046164
20
-2.94999999999999
11
60.6972143461692
21
-6.4499983074468
72
1
10
60.6972143461692
20
-6.4499983074468
11
59.7756468630637
21
-6.45000169255317
72
1
10
59.7756468630637
20
-6.45000169255317
11
60.2364306046164
21
-2.94999999999999
97
0
75
0
76
1
52
0
41
0.0062
77
0
78
1
53
45
43
0
44
0
45
-0.0139193969876572
46
0.0139193969876572
79
0
47
0
98
1
10
0
20
0
0
HATCH
5
10E
100
AcDbEntity
8
SK2
62
256
6
ByLayer
370
13
48
1
60
0
100
AcDbHatch
10
0
20
0
30
0
210
0
220
0
230
1
2
ANSI31
70
0
71
0
91
1
92
5
93
3
72
1
10
-44.6251625675374
20
3
11
-45.0859463090902
21
6.49999830744682
72
1
10
-45.0859463090902
20
6.49999830744682
11
-44.1643788259847
21
6.50000169255318
72
1
10
-44.1643788259847
20
6.50000169255318
11
-44.6251625675374
21
3
97
0
75
0
76
1
52
0
41
0.0062
77
0
78
1
53
45
43
0
44
0
45
-0.0139193969876572
46
0.0139193969876572
79
0
47
0
98
1
10
0
20
0
0
HATCH
5
112
100
AcDbEntity
8
SK2
62
256
6
ByLayer
370
13
48
1
60
0
100
AcDbHatch
10
0
20
0
30
0
210
0
220
0
230
1
2
ANSI31
70
0
71
0
91
1
92
5
93
3
72
1
10
-44.6251625675374
20
-3
11
-44.1643788259847
21
-6.49999830744682
72
1
10
-44.1643788259847
20
-6.49999830744682
11
-45.0859463090902
21
-6.50000169255318
72
1
10
-45.0859463090902
20
-6.50000169255318
11
-44.6251625675374
21
-3
97
0
75
0
76
1
52
0
41
0.0062
77
0
78
1
53
45
43
0
44
0
45
-0.0139193969876572
46
0.0139193969876572
79
0
47
0
98
1
10
0
20
0
0
HATCH
5
118
100
AcDbEntity
8
2
62
256
6
ByLayer
370
13
48
1
60
0
100
AcDbHatch
10
0
20
0
30
0
210
0
220
0
230
1
2
ANSI31
70
0
71
0
91
1
92
5
93
3
72
1
10
51.9700811011615
20
2.32500000000002
11
51.5092973596088
21
5.82499830744683
72
1
10
51.5092973596088
20
5.82499830744683
11
52.4308648427142
21
5.8250016925532
72
1
10
52.4308648427142
20
5.8250016925532
11
51.9700811011615
21
2.32500000000002
97
0
75
0
76
1
52
0
41
0.0062
77
0
78
1
53
45
43
0
44
0
45
-0.0139193969876572
46
0.0139193969876572
79
0
47
0
98
1
10
0
20
0
0
HATCH
5
11C
100
AcDbEntity
8
2
62
256
6
ByLayer
370
13
48
1
60
0
100
AcDbHatch
10
0
20
0
30
0
210
0
220
0
230
1
2
ANSI31
70
0
71
0
91
1
92
5
93
3
72
1
10
51.9700811011615
20
-2.32499999999999
11
52.4308648427142
21
-5.8249983074468
72
1
10
52.4308648427142
20
-5.8249983074468
11
51.5092973596088
21
-5.82500169255317
72
1
10
51.5092973596088
20
-5.82500169255317
11
51.9700811011615
21
-2.32499999999999
97
0
75
0
76
1
52
0
41
0.0062
77
0
78
1
53
45
43
0
44
0
45
-0.0139193969876572
46
0.0139193969876572
79
0
47
0
98
1
10
0
20
0
0
HATCH
5
121
100
AcDbEntity
8
SK2
62
256
6
ByLayer
370
13
48
1
60
0
100
AcDbHatch
10
0
20
0
30
0
210
0
220
0
230
1
2
ANSI31
70
0
71
0
91
1
92
5
93
3
72
1
10
12.8899586539055
20
-12.4889413460945
11
10.1987539276458
21
-10.2042691748701
72
1
10
10.1987539276458
20
-10.2042691748701
11
10.8817692655281
21
-9.58557969367108
72
1
10
10.8817692655281
20
-9.58557969367108
11
12.8899586539055
21
-12.4889413460945
97
0
75
0
76
1
52
0
41
0.0062
77
0
78
1
53
45
43
0
44
0
45
-0.0139193969876572
46
0.0139193969876572
79
0
47
0
98
1
10
0
20
0
0
HATCH
5
125
100
AcDbEntity
8
SK2
62
256
6
ByLayer
370
13
48
1
60
0
100
AcDbHatch
10
0
20
0
30
0
210
0
220
0
230
1
2
ANSI31
70
0
71
0
91
1
92
5
93
3
72
1
10
12.8899586539055
20
12.4889413460945
11
10.8817715380922
21
9.58558220253485
72
1
10
10.8817715380922
20
9.58558220253485
11
10.1987516550816
21
10.2042666660063
72
1
10
10.1987516550816
20
10.2042666660063
11
12.8899586539055
21
12.4889413460945
97
0
75
0
76
1
52
0
41
0.0062
77
0
78
1
53
45
43
0
44
0
45
-0.0139193969876572
46
0.0139193969876572
79
0
47
0
98
1
10
0
20
0
0
DIMENSION
5
127
100
AcDbEntity
8
2
62
256
6
ByLayer
370
13
48
1
60
0
100
AcDbDimension
2
_U0
10
37.0539
20
-15.127503
30
0
11
18.52695
21
-15.127503
31
0
70
32
71
1
72
1
41
1
210
0
220
0
230
1
3
Standard
100
AcDbAlignedDimension
13
0
23
0
33
0
14
37.0539
24
-2.325
34
0
50
0
100
AcDbRotatedDimension
1001
ACAD
1000
DSTYLE
1002
{
1070
   371
1070
    13
1070
   372
1070
    13
1070
   170
1070
     0
1070
   144
1040
1.0
1070
   277
1070
     2
1070
   278
1070
    44
1070
   146
1040
1.0
1070
   345
1005
16
1070
   347
1005
16
1070
   346
1005
16
1070
   344
1005
0
1070
   343
1005
0
1070
   172
1070
     1
1070
    76
1070
     0
1070
    75
1070
     0
1070
   282
1070
     0
1070
   281
1070
     0
1070
    71
1070
     0
1070
    74
1070
     0
1070
   279
1070
     0
1070
   173
1070
     1
1070
   340
1005
FC
1070
   271
1070
     2
1070
   272
1070
     2
1070
    77
1070
     1
1070
    73
1070
     1
1070
   171
1070
     3
1070
   274
1070
     4
1070
   177
1070
    35
1070
   176
1070
    35
1070
   178
1070
    35
1070
    48
1040
-0.1
1070
    41
1040
3.5
1070
   147
1040
1.75
1070
    42
1040
1.5875
1070
    44
1040
2.0
1070
   140
1040
3.5
1002
}
1001
ACAD_DSTYLE_DIM_LINETYPE
1070
   380
1005
16
1001
ACAD_DSTYLE_DIM_EXT1_LINETYPE
1070
   381
1005
16
1001
ACAD_DSTYLE_DIM_EXT2_LINETYPE
1070
   382
1005
16
0
DIMENSION
5
140
100
AcDbEntity
8
SK2
62
256
6
ByLayer
370
13
48
1
60
0
100
AcDbDimension
2
_U1
10
38
20
-34.192985
30
0
11
1
21
-34.192985
31
0
70
32
71
1
72
1
41
1
210
0
220
0
230
1
3
Standard
100
AcDbAlignedDimension
13
-36
23
-3
33
0
14
38
24
0
34
0
50
0
100
AcDbRotatedDimension
1001
ACAD
1000
DSTYLE
1002
{
1070
   371
1070
    13
1070
   372
1070
    13
1070
   170
1070
     0
1070
   144
1040
1.0
1070
   277
1070
     2
1070
   278
1070
    44
1070
   146
1040
1.0
1070
   345
1005
16
1070
   347
1005
16
1070
   346
1005
16
1070
   344
1005
0
1070
   343
1005
0
1070
   172
1070
     1
1070
    76
1070
     0
1070
    75
1070
     0
1070
   282
1070
     0
1070
   281
1070
     0
1070
    71
1070
     0
1070
    74
1070
     0
1070
   279
1070
     0
1070
   173
1070
     1
1070
   340
1005
FC
1070
   271
1070
     2
1070
   272
1070
     2
1070
    77
1070
     1
1070
    73
1070
     1
1070
   171
1070
     3
1070
   274
1070
     4
1070
   177
1070
    35
1070
   176
1070
    35
1070
   178
1070
    35
1070
    48
1040
-0.1
1070
    41
1040
3.5
1070
   147
1040
1.75
1070
    42
1040
1.5875
1070
    44
1040
2.0
1070
   140
1040
3.5
1002
}
1001
ACAD_DSTYLE_DIM_LINETYPE
1070
   380
1005
16
1001
ACAD_DSTYLE_DIM_EXT1_LINETYPE
1070
   381
1005
16
1001
ACAD_DSTYLE_DIM_EXT2_LINETYPE
1070
   382
1005
16
0
DIMENSION
5
158
100
AcDbEntity
8
SK2
62
256
6
ByLayer
370
13
48
1
60
0
100
AcDbDimension
2
_U2
10
38
20
13.934119
30
0
11
30.215
21
13.934119
31
0
70
32
71
1
72
1
41
1
210
0
220
0
230
1
3
Standard
100
AcDbAlignedDimension
13
22.43
23
2.95
33
0
14
38
24
0
34
0
50
0
100
AcDbRotatedDimension
1001
ACAD
1000
DSTYLE
1002
{
1070
   371
1070
    13
1070
   372
1070
    13
1070
   170
1070
     0
1070
   144
1040
1.0
1070
   277
1070
     2
1070
   278
1070
    44
1070
   146
1040
1.0
1070
   345
1005
16
1070
   347
1005
16
1070
   346
1005
16
1070
   344
1005
0
1070
   343
1005
0
1070
   172
1070
     1
1070
    76
1070
     0
1070
    75
1070
     0
1070
   282
1070
     0
1070
   281
1070
     0
1070
    71
1070
     0
1070
    74
1070
     0
1070
   279
1070
     0
1070
   173
1070
     1
1070
   340
1005
FC
1070
   271
1070
     2
1070
   272
1070
     2
1070
    77
1070
     1
1070
    73
1070
     1
1070
   171
1070
     3
1070
   274
1070
     4
1070
   177
1070
    35
1070
   176
1070
    35
1070
   178
1070
    35
1070
    48
1040
-0.1
1070
    41
1040
3.5
1070
   147
1040
1.75
1070
    42
1040
1.5875
1070
    44
1040
2.0
1070
   140
1040
3.5
1002
}
1001
ACAD_DSTYLE_DIM_LINETYPE
1070
   380
1005
16
1001
ACAD_DSTYLE_DIM_EXT1_LINETYPE
1070
   381
1005
16
1001
ACAD_DSTYLE_DIM_EXT2_LINETYPE
1070
   382
1005
16
0
DIMENSION
5
171
100
AcDbEntity
8
SK2
62
256
6
ByLayer
370
13
48
1
60
0
100
AcDbDimension
2
_U3
10
37.0539
20
-15.127503
30
0
11
55.583333
21
-15.127503
31
0
70
32
71
1
72
1
41
1
210
0
220
0
230
1
3
Standard
100
AcDbAlignedDimension
13
38
23
0
33
0
14
37.0539
24
-2.325
34
0
50
0
100
AcDbRotatedDimension
1001
ACAD
1000
DSTYLE
1002
{
1070
   371
1070
    13
1070
   372
1070
    13
1070
   170
1070
     0
1070
   144
1040
1.0
1070
   277
1070
     2
1070
   278
1070
    44
1070
   146
1040
1.0
1070
   345
1005
16
1070
   347
1005
16
1070
   346
1005
16
1070
   344
1005
0
1070
   343
1005
0
1070
   172
1070
     1
1070
    76
1070
     0
1070
    75
1070
     0
1070
   282
1070
     0
1070
   281
1070
     0
1070
    71
1070
     0
1070
    74
1070
     0
1070
   279
1070
     0
1070
   173
1070
     1
1070
   340
1005
FC
1070
   271
1070
     2
1070
   272
1070
     2
1070
    77
1070
     1
1070
    73
1070
     1
1070
   171
1070
     3
1070
   274
1070
     4
1070
   177
1070
    35
1070
   176
1070
    35
1070
   178
1070
    35
1070
    48
1040
-0.1
1070
    41
1040
3.5
1070
   147
1040
1.75
1070
    42
1040
1.5875
1070
    44
1040
2.0
1070
   140
1040
3.5
1002
}
1001
ACAD_DSTYLE_DIM_LINETYPE
1070
   380
1005
16
1001
ACAD_DSTYLE_DIM_EXT1_LINETYPE
1070
   381
1005
16
1001
ACAD_DSTYLE_DIM_EXT2_LINETYPE
1070
   382
1005
16
0
DIMENSION
5
18B
100
AcDbEntity
8
SK2
62
256
6
ByLayer
370
13
48
1
60
0
100
AcDbDimension
2
_U4
10
23.0539
20
6.460371
30
0
11
30.0539
21
6.460371
31
0
70
32
71
1
72
1
41
1
210
0
220
0
230
1
3
Standard
100
AcDbAlignedDimension
13
37.0539
23
2.325
33
0
14
23.0539
24
2.325
34
0
50
0
100
AcDbRotatedDimension
1001
ACAD
1000
DSTYLE
1002
{
1070
   371
1070
    13
1070
   372
1070
    13
1070
   170
1070
     0
1070
   144
1040
1.0
1070
   277
1070
     2
1070
   278
1070
    44
1070
   146
1040
1.0
1070
   345
1005
16
1070
   347
1005
16
1070
   346
1005
16
1070
   344
1005
0
1070
   343
1005
0
1070
   172
1070
     1
1070
    76
1070
     0
1070
    75
1070
     0
1070
   282
1070
     0
1070
   281
1070
     0
1070
    71
1070
     0
1070
    74
1070
     0
1070
   279
1070
     0
1070
   173
1070
     1
1070
   340
1005
FC
1070
   271
1070
     2
1070
   272
1070
     2
1070
    77
1070
     1
1070
    73
1070
     1
1070
   171
1070
     3
1070
   274
1070
     4
1070
   177
1070
    35
1070
   176
1070
    35
1070
   178
1070
    35
1070
    48
1040
-0.1
1070
    41
1040
3.5
1070
   147
1040
1.75
1070
    42
1040
1.5875
1070
    44
1040
2.0
1070
   140
1040
3.5
1002
}
1001
ACAD_DSTYLE_DIM_LINETYPE
1070
   380
1005
16
1001
ACAD_DSTYLE_DIM_EXT1_LINETYPE
1070
   381
1005
16
1001
ACAD_DSTYLE_DIM_EXT2_LINETYPE
1070
   382
1005
16
0
DIMENSION
5
1A4
100
AcDbEntity
8
SK2
62
256
6
ByLayer
370
13
48
1
60
0
100
AcDbDimension
2
_U5
10
37.0539
20
-23.690158
30
0
11
0.52695
21
-23.690158
31
0
70
32
71
1
72
1
41
1
210
0
220
0
230
1
3
Standard
100
AcDbAlignedDimension
13
-36
23
-3
33
0
14
37.0539
24
-2.325
34
0
50
0
100
AcDbRotatedDimension
1001
ACAD
1000
DSTYLE
1002
{
1070
   371
1070
    13
1070
   372
1070
    13
1070
   170
1070
     0
1070
   144
1040
1.0
1070
   277
1070
     2
1070
   278
1070
    44
1070
   146
1040
1.0
1070
   345
1005
16
1070
   347
1005
16
1070
   346
1005
16
1070
   344
1005
0
1070
   343
1005
0
1070
   172
1070
     1
1070
    76
1070
     0
1070
    75
1070
     0
1070
   282
1070
     0
1070
   281
1070
     0
1070
    71
1070
     0
1070
    74
1070
     0
1070
   279
1070
     0
1070
   173
1070
     1
1070
   340
1005
FC
1070
   271
1070
     2
1070
   272
1070
     2
1070
    77
1070
     1
1070
    73
1070
     1
1070
   171
1070
     3
1070
   274
1070
     4
1070
   177
1070
    35
1070
   176
1070
    35
1070
   178
1070
    35
1070
    48
1040
-0.1
1070
    41
1040
3.5
1070
   147
1040
1.75
1070
    42
1040
1.5875
1070
    44
1040
2.0
1070
   140
1040
3.5
1002
}
1001
ACAD_DSTYLE_DIM_LINETYPE
1070
   380
1005
16
1001
ACAD_DSTYLE_DIM_EXT1_LINETYPE
1070
   381
1005
16
1001
ACAD_DSTYLE_DIM_EXT2_LINETYPE
1070
   382
1005
16
0
ENDSEC
0
SECTION
2
OBJECTS
0
DICTIONARY
5
22c
330
0
100
AcDbDictionary
280
0
281
1
3
ACAD_GROUP
350
22d
3
ACAD_MLINESTYLE
350
22e
0
DICTIONARY
5
22d
330
0
100
AcDbDictionary
280
0
281
1
0
DICTIONARY
5
22e
330
0
100
AcDbDictionary
280
0
281
1
3
Standard
350
18
0
MLINESTYLE
5
18
330
22e
100
AcDbMlineStyle
2
Standard
70
0
3

62
256
51
90
52
90
71
2
49
-0.5
62
256
6
ByLayer
49
0.5
62
256
6
ByLayer
0
RASTERVARIABLES
5
21a
330

100
AcDbRasterVariables
90
0
70
1
71
1
72
1
0
ENDSEC
0
EOF
