0
SECTION
2
HEADER
9
$ACADVER
1
AC1015
9
$DWGCODEPAGE
3
ANSI_1252
9
$HANDSEED
5
235
9
$ANGBASE
50
0
9
$ANGDIR
70
0
9
$ATTMODE
70
1
9
$AUNITS
70
0
9
$AUPREC
70
0
9
$CECOLOR
62
256
9
$CELTSCALE
40
1
9
$CELTYPE
6
ByLayer
9
$CELWEIGHT
370
18
9
$CLAYER
8
0
9
$CMLJUST
70
0
9
$CMLSCALE
40
1
9
$CMLSTYLE
2
Standard
9
$DIMSTYLE
2
Standard
9
$TEXTSIZE
40
0.2
9
$TEXTSTYLE
7
Standard
9
$LUNITS
70
2
9
$LUPREC
70
4
9
$EXTNAMES
290
1
9
$INSUNITS
70
4
9
$LTSCALE
40
1
9
$LWDISPLAY
290
1
9
$PDMODE
70
0
9
$PDSIZE
40
0
9
$PLINEGEN
70
0
0
ENDSEC
0
SECTION
2
CLASSES
0
CLASS
1
RASTERVARIABLES
2
AcDbRasterVariables
3
ISM
90
0
280
0
281
0
0
ENDSEC
0
SECTION
2
TABLES
0
TABLE
2
VPORT
5
22b
100
AcDbSymbolTable
0
VPORT
5
1
100
AcDbSymbolTableRecord
100
AcDbViewportTableRecord
2
*Active
70
0
10
0
20
0
11
1
21
1
12
-1
22
1
13
0
23
0
14
0.5
24
0.5
15
10
25
10
16
0
26
0
36
1
17
0
27
0
37
0
0
ENDTAB
0
TABLE
2
LTYPE
5
22c
100
AcDbSymbolTable
0
LTYPE
5
14
100
AcDbSymbolTableRecord
100
AcDbLinetypeTableRecord
70
0
2
ByBlock
3

72
65
73
0
40
0
0
LTYPE
5
15
100
AcDbSymbolTableRecord
100
AcDbLinetypeTableRecord
70
0
2
ByLayer
3

72
65
73
0
40
0
0
LTYPE
5
16
100
AcDbSymbolTableRecord
100
AcDbLinetypeTableRecord
70
0
2
Continuous
3
Solid line
72
65
73
0
40
0
0
LTYPE
5
6E
100
AcDbSymbolTableRecord
100
AcDbLinetypeTableRecord
70
0
2
CENTER
3
____ _ ____ _ ____ _ ____
72
65
73
4
40
47.5
49
22
74
0
49
-8.5
74
0
49
8.5
74
0
49
-8.5
74
0
0
LTYPE
5
6F
100
AcDbSymbolTableRecord
100
AcDbLinetypeTableRecord
70
0
2
DASHED
3
__ __ __ __ __ __ __ __ __
72
65
73
2
40
25.72
49
12.86
74
0
49
-12.86
74
0
0
ENDTAB
0
TABLE
2
LAYER
5
22d
100
AcDbSymbolTable
0
LAYER
5
10
100
AcDbSymbolTableRecord
100
AcDbLayerTableRecord
2
0
70
0
62
7
6
Continuous
290
1
370
-3
390
0
0
LAYER
5
71
100
AcDbSymbolTableRecord
100
AcDbLayerTableRecord
2
80
70
0
62
-6
6
Continuous
290
1
370
-3
390
0
0
LAYER
5
73
100
AcDbSymbolTableRecord
100
AcDbLayerTableRecord
2
81
70
0
62
-3
6
Continuous
290
1
370
-3
390
0
0
LAYER
5
75
100
AcDbSymbolTableRecord
100
AcDbLayerTableRecord
2
1
70
0
62
4
6
Continuous
290
1
370
-3
390
0
0
LAYER
5
8C
100
AcDbSymbolTableRecord
100
AcDbLayerTableRecord
2
4
70
0
62
-2
6
CENTER
290
1
370
-3
390
0
0
LAYER
5
97
100
AcDbSymbolTableRecord
100
AcDbLayerTableRecord
2
2
70
0
62
7
6
Continuous
290
1
370
-3
390
0
0
LAYER
5
128
100
AcDbSymbolTableRecord
100
AcDbLayerTableRecord
2
Defpoints
70
0
62
7
6
Continuous
290
0
370
-3
390
0
0
LAYER
5
217
100
AcDbSymbolTableRecord
100
AcDbLayerTableRecord
2
SK1
70
0
62
4
6
Continuous
290
1
370
-3
390
0
0
LAYER
5
218
100
AcDbSymbolTableRecord
100
AcDbLayerTableRecord
2
SK4
70
0
62
2
6
CENTER
290
1
370
-3
390
0
0
LAYER
5
219
100
AcDbSymbolTableRecord
100
AcDbLayerTableRecord
2
SK2
70
0
62
7
6
Continuous
290
1
370
-3
390
0
0
LAYER
5
21a
100
AcDbSymbolTableRecord
100
AcDbLayerTableRecord
2
SK6
70
0
62
5
6
Continuous
290
1
370
-3
390
0
0
ENDTAB
0
TABLE
2
STYLE
5
22e
100
AcDbSymbolTable
0
STYLE
5
11
100
AcDbSymbolTableRecord
100
AcDbTextStyleTableRecord
2
Standard
3
txt
70
0
71
0
40
0
41
1
42
0
50
0
0
STYLE
5
FA
100
AcDbSymbolTableRecord
100
AcDbTextStyleTableRecord
2
iso_b_vert
3
simplex.shx
70
0
71
0
40
0
41
1
42
0
50
0
0
STYLE
5
FB
100
AcDbSymbolTableRecord
100
AcDbTextStyleTableRecord
2
DWGDirectTextStyle
3
simplex
70
0
71
0
40
0
41
1
42
0
50
0
0
ENDTAB
0
TABLE
2
DIMSTYLE
5
22f
100
AcDbSymbolTable
100
AcDbDimStyleTable
0
DIMSTYLE
105
27
100
AcDbSymbolTableRecord
100
AcDbDimStyleTableRecord
2
Standard
70
0
3
<>
41
0.18
42
0.0625
44
0.18
140
0.18
147
0.09
73
0
74
0
77
1
271
2
275
0
278
52
280
0
340
11
0
ENDTAB
0
TABLE
2
VIEW
5
230
100
AcDbSymbolTable
0
ENDTAB
0
TABLE
2
UCS
5
231
100
AcDbSymbolTable
0
ENDTAB
0
TABLE
2
APPID
5
232
100
AcDbSymbolTable
0
APPID
5
12
100
AcDbSymbolTableRecord
100
AcDbRegAppTableRecord
2
ACAD
70
0
0
APPID
5
124
100
AcDbSymbolTableRecord
100
AcDbRegAppTableRecord
2
ACAD_DSTYLE_DIMBREAK
70
0
0
APPID
5
1D6
100
AcDbSymbolTableRecord
100
AcDbRegAppTableRecord
2
ACAD_DSTYLE_DIM_LINETYPE
70
0
0
APPID
5
1D7
100
AcDbSymbolTableRecord
100
AcDbRegAppTableRecord
2
ACAD_DSTYLE_DIM_EXT1_LINETYPE
70
0
0
APPID
5
1D8
100
AcDbSymbolTableRecord
100
AcDbRegAppTableRecord
2
ACAD_DSTYLE_DIM_EXT2_LINETYPE
70
0
0
APPID
5
213
100
AcDbSymbolTableRecord
100
AcDbRegAppTableRecord
2
ACAD_MLEADERVER
70
0
0
ENDTAB
0
TABLE
2
BLOCK_RECORD
5
233
100
AcDbSymbolTable
0
BLOCK_RECORD
5
1F
100
AcDbSymbolTableRecord
100
AcDbBlockTableRecord
2
*Model_Space
340
0
70
0
0
BLOCK_RECORD
5
1B
100
AcDbSymbolTableRecord
100
AcDbBlockTableRecord
2
*Paper_Space
340
0
70
0
0
BLOCK_RECORD
5
23
100
AcDbSymbolTableRecord
100
AcDbBlockTableRecord
2
*Paper_Space0
340
0
70
0
0
BLOCK_RECORD
5
129
100
AcDbSymbolTableRecord
100
AcDbBlockTableRecord
2
*D1
340
0
70
0
0
BLOCK_RECORD
5
135
100
AcDbSymbolTableRecord
100
AcDbBlockTableRecord
2
_U0
340
0
70
0
0
BLOCK_RECORD
5
141
100
AcDbSymbolTableRecord
100
AcDbBlockTableRecord
2
*D3
340
0
70
0
0
BLOCK_RECORD
5
14D
100
AcDbSymbolTableRecord
100
AcDbBlockTableRecord
2
_U1
340
0
70
0
0
BLOCK_RECORD
5
159
100
AcDbSymbolTableRecord
100
AcDbBlockTableRecord
2
*D5
340
0
70
0
0
BLOCK_RECORD
5
165
100
AcDbSymbolTableRecord
100
AcDbBlockTableRecord
2
_U2
340
0
70
0
0
BLOCK_RECORD
5
171
100
AcDbSymbolTableRecord
100
AcDbBlockTableRecord
2
*D7
340
0
70
0
0
BLOCK_RECORD
5
17F
100
AcDbSymbolTableRecord
100
AcDbBlockTableRecord
2
_U3
340
0
70
0
0
BLOCK_RECORD
5
18B
100
AcDbSymbolTableRecord
100
AcDbBlockTableRecord
2
*D9
340
0
70
0
0
BLOCK_RECORD
5
197
100
AcDbSymbolTableRecord
100
AcDbBlockTableRecord
2
_U4
340
0
70
0
0
BLOCK_RECORD
5
1A3
100
AcDbSymbolTableRecord
100
AcDbBlockTableRecord
2
*D11
340
0
70
0
0
BLOCK_RECORD
5
1AF
100
AcDbSymbolTableRecord
100
AcDbBlockTableRecord
2
_U5
340
0
70
0
0
ENDTAB
0
ENDSEC
0
SECTION
2
BLOCKS
0
BLOCK
5
20
100
AcDbEntity
8
0
100
AcDbBlockBegin
2
*Model_Space
70
0
10
0
20
0
30
0
3
*Model_Space
0
ENDBLK
5
21
100
AcDbEntity
8
0
100
AcDbBlockEnd
0
BLOCK
5
1C
100
AcDbEntity
8
0
100
AcDbBlockBegin
2
*Paper_Space
70
0
10
0
20
0
30
0
3
*Paper_Space
0
ENDBLK
5
1D
100
AcDbEntity
8
0
100
AcDbBlockEnd
0
BLOCK
5
24
100
AcDbEntity
8
0
100
AcDbBlockBegin
2
*Paper_Space0
70
0
10
0
20
0
30
0
3
*Paper_Space0
0
ENDBLK
5
25
100
AcDbEntity
8
0
100
AcDbBlockEnd
0
BLOCK
5
12A
100
AcDbEntity
8
0
100
AcDbBlockBegin
2
*D1
70
1
10
0
20
0
30
0
3
*D1
0
LINE
5
12C
100
AcDbEntity
8
0
62
256
6
ByLayer
370
-2
48
1
60
0
100
AcDbLine
10
0
20
-1.5875
30
0
11
0
21
-19.052503
31
0
39
0
210
0
220
0
230
1
0
LINE
5
12D
100
AcDbEntity
8
0
62
256
6
ByLayer
370
-2
48
1
60
0
100
AcDbLine
10
55.3639
20
-5.8375
30
0
11
55.3639
21
-19.052503
31
0
39
0
210
0
220
0
230
1
0
LINE
5
12E
100
AcDbEntity
8
0
62
256
6
ByLayer
370
-2
48
1
60
0
100
AcDbLine
10
3.5
20
-17.052503
30
0
11
51.8639
21
-17.052503
31
0
39
0
210
0
220
0
230
1
0
SOLID
5
12F
100
AcDbEntity
8
0
62
256
6
ByLayer
370
-1
48
1
60
0
100
AcDbTrace
10
3.5
20
-16.46917
30
0
11
3.5
21
-17.635837
31
0
12
0
22
-17.052503
32
0
13
0
23
-17.052503
33
0
39
0
210
0
220
0
230
1
0
SOLID
5
130
100
AcDbEntity
8
0
62
256
6
ByLayer
370
-1
48
1
60
0
100
AcDbTrace
10
51.8639
20
-17.635837
30
0
11
51.8639
21
-16.46917
31
0
12
55.3639
22
-17.052503
32
0
13
55.3639
23
-17.052503
33
0
39
0
210
0
220
0
230
1
0
MTEXT
5
131
100
AcDbEntity
8
0
62
256
6
ByLayer
370
18
48
1
60
0
100
AcDbMText
10
27.68195
20
-10.052503
30
0
210
0
220
0
230
1
1
\A1;55.36
40
3.5
41
0
44
1
50
0
71
5
72
5
7
iso_b_vert
0
POINT
5
132
100
AcDbEntity
8
Defpoints
62
0
6
ByLayer
370
-1
48
1
60
0
100
AcDbPoint
10
0
20
0
30
0
39
0
210
0
220
0
230
1
50
360
0
POINT
5
133
100
AcDbEntity
8
Defpoints
62
0
6
ByLayer
370
-1
48
1
60
0
100
AcDbPoint
10
55.3639
20
-4.25
30
0
39
0
210
0
220
0
230
1
50
360
0
POINT
5
134
100
AcDbEntity
8
Defpoints
62
0
6
ByLayer
370
-1
48
1
60
0
100
AcDbPoint
10
55.3639
20
-17.052503
30
0
39
0
210
0
220
0
230
1
50
360
0
ENDBLK
5
12B
100
AcDbEntity
8
0
100
AcDbBlockEnd
0
BLOCK
5
13C
100
AcDbEntity
8
0
100
AcDbBlockBegin
2
_U0
70
0
10
0
20
0
30
0
3
_U0
0
MTEXT
5
136
100
AcDbEntity
8
2
62
256
6
ByLayer
370
13
48
1
60
0
100
AcDbMText
10
22.544651
20
-16.01987
30
0
210
0
220
0
230
1
1
\W0.7317;55,36
40
3.5
41
0
44
1.084337
50
0
71
7
72
5
7
iso_b_vert
0
LINE
5
137
100
AcDbEntity
8
2
62
256
6
ByLayer
370
13
48
1
60
0
100
AcDbLine
10
0
20
-1.5875
30
0
11
0
21
-19.052503
31
0
39
0
210
0
220
0
230
1
0
LINE
5
138
100
AcDbEntity
8
2
62
256
6
ByLayer
370
13
48
1
60
0
100
AcDbLine
10
55.3639
20
-5.8375
30
0
11
55.3639
21
-19.052503
31
0
39
0
210
0
220
0
230
1
0
LINE
5
139
100
AcDbEntity
8
2
62
256
6
ByLayer
370
13
48
1
60
0
100
AcDbLine
10
0
20
-17.052503
30
0
11
55.3639
21
-17.052503
31
0
39
0
210
0
220
0
230
1
0
SOLID
5
13A
100
AcDbEntity
8
2
62
256
6
ByLayer
370
18
48
1
60
0
100
AcDbTrace
10
0
20
-17.052503
30
0
11
3.499998
21
-16.591719
31
0
12
3.500002
22
-17.513287
32
0
13
3.500002
23
-17.513287
33
0
39
0
210
0
220
0
230
1
0
SOLID
5
13B
100
AcDbEntity
8
2
62
256
6
ByLayer
370
18
48
1
60
0
100
AcDbTrace
10
55.3639
20
-17.052503
30
0
11
51.863902
21
-17.513287
31
0
12
51.863898
22
-16.591719
32
0
13
51.863898
23
-16.591719
33
0
39
0
210
0
220
0
230
1
0
ENDBLK
5
13D
100
AcDbEntity
8
0
100
AcDbBlockEnd
0
BLOCK
5
142
100
AcDbEntity
8
0
100
AcDbBlockBegin
2
*D3
70
1
10
0
20
0
30
0
3
*D3
0
LINE
5
144
100
AcDbEntity
8
0
62
256
6
ByLayer
370
-2
48
1
60
0
100
AcDbLine
10
-45
20
-7.5875
30
0
11
-45
21
-39.192985
31
0
39
0
210
0
220
0
230
1
0
LINE
5
145
100
AcDbEntity
8
0
62
256
6
ByLayer
370
-2
48
1
60
0
100
AcDbLine
10
57
20
-1.5875
30
0
11
57
21
-39.192985
31
0
39
0
210
0
220
0
230
1
0
LINE
5
146
100
AcDbEntity
8
0
62
256
6
ByLayer
370
-2
48
1
60
0
100
AcDbLine
10
-41.5
20
-37.192985
30
0
11
53.5
21
-37.192985
31
0
39
0
210
0
220
0
230
1
0
SOLID
5
147
100
AcDbEntity
8
0
62
256
6
ByLayer
370
-1
48
1
60
0
100
AcDbTrace
10
-41.5
20
-36.609652
30
0
11
-41.5
21
-37.776319
31
0
12
-45
22
-37.192985
32
0
13
-45
23
-37.192985
33
0
39
0
210
0
220
0
230
1
0
SOLID
5
148
100
AcDbEntity
8
0
62
256
6
ByLayer
370
-1
48
1
60
0
100
AcDbTrace
10
53.5
20
-37.776319
30
0
11
53.5
21
-36.609652
31
0
12
57
22
-37.192985
32
0
13
57
23
-37.192985
33
0
39
0
210
0
220
0
230
1
0
MTEXT
5
149
100
AcDbEntity
8
0
62
256
6
ByLayer
370
18
48
1
60
0
100
AcDbMText
10
6
20
-30.192985
30
0
210
0
220
0
230
1
1
\A1;102.00
40
3.5
41
0
44
1
50
0
71
5
72
5
7
iso_b_vert
0
POINT
5
14A
100
AcDbEntity
8
Defpoints
62
0
6
ByLayer
370
-1
48
1
60
0
100
AcDbPoint
10
-45
20
-6
30
0
39
0
210
0
220
0
230
1
50
360
0
POINT
5
14B
100
AcDbEntity
8
Defpoints
62
0
6
ByLayer
370
-1
48
1
60
0
100
AcDbPoint
10
57
20
0
30
0
39
0
210
0
220
0
230
1
50
360
0
POINT
5
14C
100
AcDbEntity
8
Defpoints
62
0
6
ByLayer
370
-1
48
1
60
0
100
AcDbPoint
10
57
20
-37.192985
30
0
39
0
210
0
220
0
230
1
50
360
0
ENDBLK
5
143
100
AcDbEntity
8
0
100
AcDbBlockEnd
0
BLOCK
5
154
100
AcDbEntity
8
0
100
AcDbBlockBegin
2
_U1
70
0
10
0
20
0
30
0
3
_U1
0
MTEXT
5
14E
100
AcDbEntity
8
SK2
62
256
6
ByLayer
370
13
48
1
60
0
100
AcDbMText
10
-0.007599
20
-36.160352
30
0
210
0
220
0
230
1
1
\W0.6930;102,00
40
3.5
41
0
44
1.084337
50
0
71
7
72
5
7
iso_b_vert
0
LINE
5
14F
100
AcDbEntity
8
SK2
62
256
6
ByLayer
370
13
48
1
60
0
100
AcDbLine
10
-45
20
-7.5875
30
0
11
-45
21
-39.192985
31
0
39
0
210
0
220
0
230
1
0
LINE
5
150
100
AcDbEntity
8
SK2
62
256
6
ByLayer
370
13
48
1
60
0
100
AcDbLine
10
57
20
-1.5875
30
0
11
57
21
-39.192985
31
0
39
0
210
0
220
0
230
1
0
LINE
5
151
100
AcDbEntity
8
SK2
62
256
6
ByLayer
370
13
48
1
60
0
100
AcDbLine
10
-45
20
-37.192985
30
0
11
57
21
-37.192985
31
0
39
0
210
0
220
0
230
1
0
SOLID
5
152
100
AcDbEntity
8
SK2
62
256
6
ByLayer
370
18
48
1
60
0
100
AcDbTrace
10
-45
20
-37.192985
30
0
11
-41.500002
21
-36.732202
31
0
12
-41.499998
22
-37.653769
32
0
13
-41.499998
23
-37.653769
33
0
39
0
210
0
220
0
230
1
0
SOLID
5
153
100
AcDbEntity
8
SK2
62
256
6
ByLayer
370
18
48
1
60
0
100
AcDbTrace
10
57
20
-37.192985
30
0
11
53.500002
21
-37.653769
31
0
12
53.499998
22
-36.732202
32
0
13
53.499998
23
-36.732202
33
0
39
0
210
0
220
0
230
1
0
ENDBLK
5
155
100
AcDbEntity
8
0
100
AcDbBlockEnd
0
BLOCK
5
15A
100
AcDbEntity
8
0
100
AcDbBlockBegin
2
*D5
70
1
10
0
20
0
30
0
3
*D5
0
LINE
5
15C
100
AcDbEntity
8
0
62
256
6
ByLayer
370
-2
48
1
60
0
100
AcDbLine
10
27.86
20
7.3375
30
0
11
27.86
21
17.859119
31
0
39
0
210
0
220
0
230
1
0
LINE
5
15D
100
AcDbEntity
8
0
62
256
6
ByLayer
370
-2
48
1
60
0
100
AcDbLine
10
57
20
1.5875
30
0
11
57
21
17.859119
31
0
39
0
210
0
220
0
230
1
0
LINE
5
15E
100
AcDbEntity
8
0
62
256
6
ByLayer
370
-2
48
1
60
0
100
AcDbLine
10
31.36
20
15.859119
30
0
11
53.5
21
15.859119
31
0
39
0
210
0
220
0
230
1
0
SOLID
5
15F
100
AcDbEntity
8
0
62
256
6
ByLayer
370
-1
48
1
60
0
100
AcDbTrace
10
31.36
20
16.442453
30
0
11
31.36
21
15.275786
31
0
12
27.86
22
15.859119
32
0
13
27.86
23
15.859119
33
0
39
0
210
0
220
0
230
1
0
SOLID
5
160
100
AcDbEntity
8
0
62
256
6
ByLayer
370
-1
48
1
60
0
100
AcDbTrace
10
53.5
20
15.275786
30
0
11
53.5
21
16.442453
31
0
12
57
22
15.859119
32
0
13
57
23
15.859119
33
0
39
0
210
0
220
0
230
1
0
MTEXT
5
161
100
AcDbEntity
8
0
62
256
6
ByLayer
370
18
48
1
60
0
100
AcDbMText
10
42.43
20
22.859119
30
0
210
0
220
0
230
1
1
\A1;29.14
40
3.5
41
0
44
1
50
0
71
5
72
5
7
iso_b_vert
0
POINT
5
162
100
AcDbEntity
8
Defpoints
62
0
6
ByLayer
370
-1
48
1
60
0
100
AcDbPoint
10
27.86
20
5.75
30
0
39
0
210
0
220
0
230
1
50
360
0
POINT
5
163
100
AcDbEntity
8
Defpoints
62
0
6
ByLayer
370
-1
48
1
60
0
100
AcDbPoint
10
57
20
0
30
0
39
0
210
0
220
0
230
1
50
360
0
POINT
5
164
100
AcDbEntity
8
Defpoints
62
0
6
ByLayer
370
-1
48
1
60
0
100
AcDbPoint
10
57
20
15.859119
30
0
39
0
210
0
220
0
230
1
50
360
0
ENDBLK
5
15B
100
AcDbEntity
8
0
100
AcDbBlockEnd
0
BLOCK
5
16C
100
AcDbEntity
8
0
100
AcDbBlockBegin
2
_U2
70
0
10
0
20
0
30
0
3
_U2
0
MTEXT
5
166
100
AcDbEntity
8
SK2
62
256
6
ByLayer
370
13
48
1
60
0
100
AcDbMText
10
37.545868
20
16.891753
30
0
210
0
220
0
230
1
1
\W0.6898;29,14
40
3.5
41
0
44
1.084337
50
0
71
7
72
5
7
iso_b_vert
0
LINE
5
167
100
AcDbEntity
8
SK2
62
256
6
ByLayer
370
13
48
1
60
0
100
AcDbLine
10
27.86
20
7.3375
30
0
11
27.86
21
17.859119
31
0
39
0
210
0
220
0
230
1
0
LINE
5
168
100
AcDbEntity
8
SK2
62
256
6
ByLayer
370
13
48
1
60
0
100
AcDbLine
10
57
20
1.5875
30
0
11
57
21
17.859119
31
0
39
0
210
0
220
0
230
1
0
LINE
5
169
100
AcDbEntity
8
SK2
62
256
6
ByLayer
370
13
48
1
60
0
100
AcDbLine
10
27.86
20
15.859119
30
0
11
57
21
15.859119
31
0
39
0
210
0
220
0
230
1
0
SOLID
5
16A
100
AcDbEntity
8
SK2
62
256
6
ByLayer
370
18
48
1
60
0
100
AcDbTrace
10
27.86
20
15.859119
30
0
11
31.359998
21
16.319903
31
0
12
31.360002
22
15.398335
32
0
13
31.360002
23
15.398335
33
0
39
0
210
0
220
0
230
1
0
SOLID
5
16B
100
AcDbEntity
8
SK2
62
256
6
ByLayer
370
18
48
1
60
0
100
AcDbTrace
10
57
20
15.859119
30
0
11
53.500002
21
15.398335
31
0
12
53.499998
22
16.319903
32
0
13
53.499998
23
16.319903
33
0
39
0
210
0
220
0
230
1
0
ENDBLK
5
16D
100
AcDbEntity
8
0
100
AcDbBlockEnd
0
BLOCK
5
172
100
AcDbEntity
8
0
100
AcDbBlockBegin
2
*D7
70
1
10
0
20
0
30
0
3
*D7
0
LINE
5
174
100
AcDbEntity
8
0
62
256
6
ByLayer
370
-2
48
1
60
0
100
AcDbLine
10
57
20
-1.5875
30
0
11
57
21
-19.052503
31
0
39
0
210
0
220
0
230
1
0
LINE
5
175
100
AcDbEntity
8
0
62
256
6
ByLayer
370
-2
48
1
60
0
100
AcDbLine
10
55.3639
20
-5.8375
30
0
11
55.3639
21
-19.052503
31
0
39
0
210
0
220
0
230
1
0
LINE
5
176
100
AcDbEntity
8
0
62
256
6
ByLayer
370
-2
48
1
60
0
100
AcDbLine
10
57
20
-17.052503
30
0
11
84.833333
21
-17.052503
31
0
39
0
210
0
220
0
230
1
0
LINE
5
177
100
AcDbEntity
8
0
62
256
6
ByLayer
370
-2
48
1
60
0
100
AcDbLine
10
60.5
20
-17.052503
30
0
11
64
21
-17.052503
31
0
39
0
210
0
220
0
230
1
0
LINE
5
178
100
AcDbEntity
8
0
62
256
6
ByLayer
370
-2
48
1
60
0
100
AcDbLine
10
51.8639
20
-17.052503
30
0
11
48.3639
21
-17.052503
31
0
39
0
210
0
220
0
230
1
0
SOLID
5
179
100
AcDbEntity
8
0
62
256
6
ByLayer
370
-1
48
1
60
0
100
AcDbTrace
10
60.5
20
-16.46917
30
0
11
60.5
21
-17.635837
31
0
12
57
22
-17.052503
32
0
13
57
23
-17.052503
33
0
39
0
210
0
220
0
230
1
0
SOLID
5
17A
100
AcDbEntity
8
0
62
256
6
ByLayer
370
-1
48
1
60
0
100
AcDbTrace
10
51.8639
20
-17.635837
30
0
11
51.8639
21
-16.46917
31
0
12
55.3639
22
-17.052503
32
0
13
55.3639
23
-17.052503
33
0
39
0
210
0
220
0
230
1
0
MTEXT
5
17B
100
AcDbEntity
8
0
62
256
6
ByLayer
370
18
48
1
60
0
100
AcDbMText
10
74.416667
20
-10.052503
30
0
210
0
220
0
230
1
1
\A1;1.64
40
3.5
41
0
44
1
50
0
71
5
72
5
7
iso_b_vert
0
POINT
5
17C
100
AcDbEntity
8
Defpoints
62
0
6
ByLayer
370
-1
48
1
60
0
100
AcDbPoint
10
57
20
0
30
0
39
0
210
0
220
0
230
1
50
360
0
POINT
5
17D
100
AcDbEntity
8
Defpoints
62
0
6
ByLayer
370
-1
48
1
60
0
100
AcDbPoint
10
55.3639
20
-4.25
30
0
39
0
210
0
220
0
230
1
50
360
0
POINT
5
17E
100
AcDbEntity
8
Defpoints
62
0
6
ByLayer
370
-1
48
1
60
0
100
AcDbPoint
10
55.3639
20
-17.052503
30
0
39
0
210
0
220
0
230
1
50
360
0
ENDBLK
5
173
100
AcDbEntity
8
0
100
AcDbBlockEnd
0
BLOCK
5
186
100
AcDbEntity
8
0
100
AcDbBlockBegin
2
_U3
70
0
10
0
20
0
30
0
3
_U3
0
MTEXT
5
180
100
AcDbEntity
8
SK2
62
256
6
ByLayer
370
13
48
1
60
0
100
AcDbMText
10
63.405026
20
-16.01987
30
0
210
0
220
0
230
1
1
\W0.6611;1,64
40
3.5
41
0
44
1.084337
50
0
71
7
72
5
7
iso_b_vert
0
LINE
5
181
100
AcDbEntity
8
SK2
62
256
6
ByLayer
370
13
48
1
60
0
100
AcDbLine
10
57
20
-1.5875
30
0
11
57
21
-19.052503
31
0
39
0
210
0
220
0
230
1
0
LINE
5
182
100
AcDbEntity
8
SK2
62
256
6
ByLayer
370
13
48
1
60
0
100
AcDbLine
10
55.3639
20
-5.8375
30
0
11
55.3639
21
-19.052503
31
0
39
0
210
0
220
0
230
1
0
LINE
5
183
100
AcDbEntity
8
SK2
62
256
6
ByLayer
370
13
48
1
60
0
100
AcDbLine
10
46.6139
20
-17.052503
30
0
11
70.743324
21
-17.052503
31
0
39
0
210
0
220
0
230
1
0
SOLID
5
184
100
AcDbEntity
8
SK2
62
256
6
ByLayer
370
18
48
1
60
0
100
AcDbTrace
10
57
20
-17.052503
30
0
11
60.499998
21
-16.591719
31
0
12
60.500002
22
-17.513287
32
0
13
60.500002
23
-17.513287
33
0
39
0
210
0
220
0
230
1
0
SOLID
5
185
100
AcDbEntity
8
SK2
62
256
6
ByLayer
370
18
48
1
60
0
100
AcDbTrace
10
55.3639
20
-17.052503
30
0
11
51.863902
21
-17.513287
31
0
12
51.863898
22
-16.591719
32
0
13
51.863898
23
-16.591719
33
0
39
0
210
0
220
0
230
1
0
ENDBLK
5
187
100
AcDbEntity
8
0
100
AcDbBlockEnd
0
BLOCK
5
18C
100
AcDbEntity
8
0
100
AcDbBlockBegin
2
*D9
70
1
10
0
20
0
30
0
3
*D9
0
LINE
5
18E
100
AcDbEntity
8
0
62
256
6
ByLayer
370
-2
48
1
60
0
100
AcDbLine
10
55.3639
20
5.8375
30
0
11
55.3639
21
10.385371
31
0
39
0
210
0
220
0
230
1
0
LINE
5
18F
100
AcDbEntity
8
0
62
256
6
ByLayer
370
-2
48
1
60
0
100
AcDbLine
10
29.3639
20
5.8375
30
0
11
29.3639
21
10.385371
31
0
39
0
210
0
220
0
230
1
0
LINE
5
190
100
AcDbEntity
8
0
62
256
6
ByLayer
370
-2
48
1
60
0
100
AcDbLine
10
51.8639
20
8.385371
30
0
11
32.8639
21
8.385371
31
0
39
0
210
0
220
0
230
1
0
SOLID
5
191
100
AcDbEntity
8
0
62
256
6
ByLayer
370
-1
48
1
60
0
100
AcDbTrace
10
51.8639
20
7.802038
30
0
11
51.8639
21
8.968705
31
0
12
55.3639
22
8.385371
32
0
13
55.3639
23
8.385371
33
0
39
0
210
0
220
0
230
1
0
SOLID
5
192
100
AcDbEntity
8
0
62
256
6
ByLayer
370
-1
48
1
60
0
100
AcDbTrace
10
32.8639
20
8.968705
30
0
11
32.8639
21
7.802038
31
0
12
29.3639
22
8.385371
32
0
13
29.3639
23
8.385371
33
0
39
0
210
0
220
0
230
1
0
MTEXT
5
193
100
AcDbEntity
8
0
62
256
6
ByLayer
370
18
48
1
60
0
100
AcDbMText
10
42.3639
20
15.385371
30
0
210
0
220
0
230
1
1
\A1;26.00
40
3.5
41
0
44
1
50
0
71
5
72
5
7
iso_b_vert
0
POINT
5
194
100
AcDbEntity
8
Defpoints
62
0
6
ByLayer
370
-1
48
1
60
0
100
AcDbPoint
10
55.3639
20
4.25
30
0
39
0
210
0
220
0
230
1
50
360
0
POINT
5
195
100
AcDbEntity
8
Defpoints
62
0
6
ByLayer
370
-1
48
1
60
0
100
AcDbPoint
10
29.3639
20
4.25
30
0
39
0
210
0
220
0
230
1
50
360
0
POINT
5
196
100
AcDbEntity
8
Defpoints
62
0
6
ByLayer
370
-1
48
1
60
0
100
AcDbPoint
10
29.3639
20
8.385371
30
0
39
0
210
0
220
0
230
1
50
360
0
ENDBLK
5
18D
100
AcDbEntity
8
0
100
AcDbBlockEnd
0
BLOCK
5
19E
100
AcDbEntity
8
0
100
AcDbBlockBegin
2
_U4
70
0
10
0
20
0
30
0
3
_U4
0
MTEXT
5
198
100
AcDbEntity
8
SK2
62
256
6
ByLayer
370
13
48
1
60
0
100
AcDbMText
10
37.226601
20
9.418005
30
0
210
0
220
0
230
1
1
\W0.7317;26,00
40
3.5
41
0
44
1.084337
50
0
71
7
72
5
7
iso_b_vert
0
LINE
5
199
100
AcDbEntity
8
SK2
62
256
6
ByLayer
370
13
48
1
60
0
100
AcDbLine
10
55.3639
20
5.8375
30
0
11
55.3639
21
10.385371
31
0
39
0
210
0
220
0
230
1
0
LINE
5
19A
100
AcDbEntity
8
SK2
62
256
6
ByLayer
370
13
48
1
60
0
100
AcDbLine
10
29.3639
20
5.8375
30
0
11
29.3639
21
10.385371
31
0
39
0
210
0
220
0
230
1
0
LINE
5
19B
100
AcDbEntity
8
SK2
62
256
6
ByLayer
370
13
48
1
60
0
100
AcDbLine
10
55.3639
20
8.385371
30
0
11
29.3639
21
8.385371
31
0
39
0
210
0
220
0
230
1
0
SOLID
5
19C
100
AcDbEntity
8
SK2
62
256
6
ByLayer
370
18
48
1
60
0
100
AcDbTrace
10
55.3639
20
8.385371
30
0
11
51.863902
21
7.924588
31
0
12
51.863898
22
8.846155
32
0
13
51.863898
23
8.846155
33
0
39
0
210
0
220
0
230
1
0
SOLID
5
19D
100
AcDbEntity
8
SK2
62
256
6
ByLayer
370
18
48
1
60
0
100
AcDbTrace
10
29.3639
20
8.385371
30
0
11
32.863898
21
8.846155
31
0
12
32.863902
22
7.924588
32
0
13
32.863902
23
7.924588
33
0
39
0
210
0
220
0
230
1
0
ENDBLK
5
19F
100
AcDbEntity
8
0
100
AcDbBlockEnd
0
BLOCK
5
1A4
100
AcDbEntity
8
0
100
AcDbBlockBegin
2
*D11
70
1
10
0
20
0
30
0
3
*D11
0
LINE
5
1A6
100
AcDbEntity
8
0
62
256
6
ByLayer
370
-2
48
1
60
0
100
AcDbLine
10
-45
20
-7.5875
30
0
11
-45
21
-28.690158
31
0
39
0
210
0
220
0
230
1
0
LINE
5
1A7
100
AcDbEntity
8
0
62
256
6
ByLayer
370
-2
48
1
60
0
100
AcDbLine
10
55.3639
20
-5.8375
30
0
11
55.3639
21
-28.690158
31
0
39
0
210
0
220
0
230
1
0
LINE
5
1A8
100
AcDbEntity
8
0
62
256
6
ByLayer
370
-2
48
1
60
0
100
AcDbLine
10
-41.5
20
-26.690158
30
0
11
51.8639
21
-26.690158
31
0
39
0
210
0
220
0
230
1
0
SOLID
5
1A9
100
AcDbEntity
8
0
62
256
6
ByLayer
370
-1
48
1
60
0
100
AcDbTrace
10
-41.5
20
-26.106825
30
0
11
-41.5
21
-27.273491
31
0
12
-45
22
-26.690158
32
0
13
-45
23
-26.690158
33
0
39
0
210
0
220
0
230
1
0
SOLID
5
1AA
100
AcDbEntity
8
0
62
256
6
ByLayer
370
-1
48
1
60
0
100
AcDbTrace
10
51.8639
20
-27.273491
30
0
11
51.8639
21
-26.106825
31
0
12
55.3639
22
-26.690158
32
0
13
55.3639
23
-26.690158
33
0
39
0
210
0
220
0
230
1
0
MTEXT
5
1AB
100
AcDbEntity
8
0
62
256
6
ByLayer
370
18
48
1
60
0
100
AcDbMText
10
5.18195
20
-19.690158
30
0
210
0
220
0
230
1
1
\A1;100.36
40
3.5
41
0
44
1
50
0
71
5
72
5
7
iso_b_vert
0
POINT
5
1AC
100
AcDbEntity
8
Defpoints
62
0
6
ByLayer
370
-1
48
1
60
0
100
AcDbPoint
10
-45
20
-6
30
0
39
0
210
0
220
0
230
1
50
360
0
POINT
5
1AD
100
AcDbEntity
8
Defpoints
62
0
6
ByLayer
370
-1
48
1
60
0
100
AcDbPoint
10
55.3639
20
-4.25
30
0
39
0
210
0
220
0
230
1
50
360
0
POINT
5
1AE
100
AcDbEntity
8
Defpoints
62
0
6
ByLayer
370
-1
48
1
60
0
100
AcDbPoint
10
55.3639
20
-26.690158
30
0
39
0
210
0
220
0
230
1
50
360
0
ENDBLK
5
1A5
100
AcDbEntity
8
0
100
AcDbBlockEnd
0
BLOCK
5
1B6
100
AcDbEntity
8
0
100
AcDbBlockBegin
2
_U5
70
0
10
0
20
0
30
0
3
_U5
0
MTEXT
5
1B0
100
AcDbEntity
8
SK2
62
256
6
ByLayer
370
13
48
1
60
0
100
AcDbMText
10
-0.825649
20
-25.657524
30
0
210
0
220
0
230
1
1
\W0.6930;100,36
40
3.5
41
0
44
1.084337
50
0
71
7
72
5
7
iso_b_vert
0
LINE
5
1B1
100
AcDbEntity
8
SK2
62
256
6
ByLayer
370
13
48
1
60
0
100
AcDbLine
10
-45
20
-7.5875
30
0
11
-45
21
-28.690158
31
0
39
0
210
0
220
0
230
1
0
LINE
5
1B2
100
AcDbEntity
8
SK2
62
256
6
ByLayer
370
13
48
1
60
0
100
AcDbLine
10
55.3639
20
-5.8375
30
0
11
55.3639
21
-28.690158
31
0
39
0
210
0
220
0
230
1
0
LINE
5
1B3
100
AcDbEntity
8
SK2
62
256
6
ByLayer
370
13
48
1
60
0
100
AcDbLine
10
-45
20
-26.690158
30
0
11
55.3639
21
-26.690158
31
0
39
0
210
0
220
0
230
1
0
SOLID
5
1B4
100
AcDbEntity
8
SK2
62
256
6
ByLayer
370
18
48
1
60
0
100
AcDbTrace
10
-45
20
-26.690158
30
0
11
-41.500002
21
-26.229374
31
0
12
-41.499998
22
-27.150942
32
0
13
-41.499998
23
-27.150942
33
0
39
0
210
0
220
0
230
1
0
SOLID
5
1B5
100
AcDbEntity
8
SK2
62
256
6
ByLayer
370
18
48
1
60
0
100
AcDbTrace
10
55.3639
20
-26.690158
30
0
11
51.863902
21
-27.150942
31
0
12
51.863898
22
-26.229374
32
0
13
51.863898
23
-26.229374
33
0
39
0
210
0
220
0
230
1
0
ENDBLK
5
1B7
100
AcDbEntity
8
0
100
AcDbBlockEnd
0
ENDSEC
0
SECTION
2
ENTITIES
0
ARC
5
BB
100
AcDbEntity
8
1
62
256
6
ByLayer
370
18
48
1
60
0
100
AcDbCircle
39
0
10
0.887412
20
-6.6
30
0
40
0.85
210
0
220
0
230
1
100
AcDbArc
50
90
51
121.466976
0
ARC
5
BC
100
AcDbEntity
8
1
62
256
6
ByLayer
370
18
48
1
60
0
100
AcDbCircle
39
0
10
0.887412
20
6.6
30
0
40
0.85
210
0
220
0
230
1
100
AcDbArc
50
238.533024
51
270
0
ARC
5
BD
100
AcDbEntity
8
1
62
256
6
ByLayer
370
18
48
1
60
0
100
AcDbCircle
39
0
10
0
20
-5.15
30
0
40
0.85
210
0
220
0
230
1
100
AcDbArc
50
270
51
301.466976
0
ARC
5
BE
100
AcDbEntity
8
1
62
256
6
ByLayer
370
18
48
1
60
0
100
AcDbCircle
39
0
10
0
20
5.15
30
0
40
0.85
210
0
220
0
230
1
100
AcDbArc
50
58.533024
51
90
0
ARC
5
BF
100
AcDbEntity
8
SK2
62
256
6
ByLayer
370
13
48
1
60
0
100
AcDbCircle
39
0
10
33.6139
20
0
30
0
40
19.573805264093
210
0
220
0
230
1
100
AcDbArc
50
183.146225
51
225
0
ARC
5
C0
100
AcDbEntity
8
SK2
62
256
6
ByLayer
370
13
48
1
60
0
100
AcDbCircle
39
0
10
33.6139
20
0
30
0
40
19.573805264093
210
0
220
0
230
1
100
AcDbArc
50
135
51
163.90731
0
ELLIPSE
5
C1
100
AcDbEntity
8
1
62
256
6
ByLayer
370
13
48
1
60
0
100
AcDbEllipse
10
26.282653
20
71.286602
30
0
11
-38.1329859250539
21
63.7040011006317
31
0
210
0
220
0
230
1
40
0.802734
41
2.47717390944259
42
2.50085126615164
0
ELLIPSE
5
C2
100
AcDbEntity
8
1
62
256
6
ByLayer
370
13
48
1
60
0
100
AcDbEllipse
10
24.680901
20
-70.327799
30
0
11
38.132985925054
21
63.7040011006315
31
0
210
0
220
0
230
1
40
0.802734
41
0.777318444851751
42
0.811663005996367
0
ELLIPSE
5
C3
100
AcDbEntity
8
1
62
256
6
ByLayer
370
13
48
1
60
0
100
AcDbEllipse
10
101.194174
20
42.140273
30
0
11
-60.7999999999999
21
7.44560663124004E-15
31
0
210
0
220
0
230
1
40
0.99863
41
0.735109656273508
42
0.75202425197998
0
POINT
5
70
100
AcDbEntity
8
80
62
256
6
ByLayer
370
18
48
1
60
0
100
AcDbPoint
10
0
20
0
30
0
39
0
210
0
220
0
230
1
50
360
0
POINT
5
72
100
AcDbEntity
8
81
62
256
6
ByLayer
370
18
48
1
60
0
100
AcDbPoint
10
57
20
0
30
0
39
0
210
0
220
0
230
1
50
360
0
POINT
5
74
100
AcDbEntity
8
1
62
256
6
ByLayer
370
18
48
1
60
1
100
AcDbPoint
10
55.3639
20
-4.25
30
0
39
0
210
0
220
0
230
1
50
360
0
POINT
5
76
100
AcDbEntity
8
1
62
256
6
ByLayer
370
18
48
1
60
1
100
AcDbPoint
10
-45
20
-6
30
0
39
0
210
0
220
0
230
1
50
360
0
POINT
5
77
100
AcDbEntity
8
1
62
256
6
ByLayer
370
18
48
1
60
1
100
AcDbPoint
10
27.86
20
5.75
30
0
39
0
210
0
220
0
230
1
50
360
0
POINT
5
78
100
AcDbEntity
8
1
62
256
6
ByLayer
370
18
48
1
60
1
100
AcDbPoint
10
55.3639
20
-4.25
30
0
39
0
210
0
220
0
230
1
50
360
0
POINT
5
79
100
AcDbEntity
8
1
62
256
6
ByLayer
370
18
48
1
60
1
100
AcDbPoint
10
55.3639
20
4.25
30
0
39
0
210
0
220
0
230
1
50
360
0
POINT
5
7A
100
AcDbEntity
8
1
62
256
6
ByLayer
370
18
48
1
60
1
100
AcDbPoint
10
29.3639
20
4.25
30
0
39
0
210
0
220
0
230
1
50
360
0
POINT
5
7B
100
AcDbEntity
8
1
62
256
6
ByLayer
370
18
48
1
60
1
100
AcDbPoint
10
-45
20
-6
30
0
39
0
210
0
220
0
230
1
50
360
0
POINT
5
7C
100
AcDbEntity
8
1
62
256
6
ByLayer
370
18
48
1
60
1
100
AcDbPoint
10
55.3639
20
-4.25
30
0
39
0
210
0
220
0
230
1
50
360
0
SPLINE
5
C4
100
AcDbEntity
8
1
62
256
6
ByLayer
370
18
48
1
60
0
100
AcDbSpline
70
4
71
3
72
8
73
4
40
0
40
0
40
0
40
0
40
1
40
1
40
1
40
1
41
1
10
27.8309073795173
20
5.58231220532051
30
0
41
1
10
27.7307426633674
20
5.56634043172085
30
0
41
1
10
27.630634637079
20
5.54922873873562
30
0
41
1
10
27.5305469411252
20
5.53098530141443
30
0
0
SPLINE
5
C5
100
AcDbEntity
8
1
62
256
6
ByLayer
370
18
48
1
60
0
100
AcDbSpline
70
4
71
3
72
8
73
4
40
0
40
0
40
0
40
0
40
1
40
1
40
1
40
1
41
1
10
32.3113755377815
20
-4.11534246995649
30
0
41
1
10
31.328638644817
20
-4.21347302781894
30
0
41
1
10
30.349809962343
20
-4.23156907266866
30
0
41
1
10
29.363899999921
20
-4.16793093468974
30
0
0
SPLINE
5
C6
100
AcDbEntity
8
1
62
256
6
ByLayer
370
13
48
1
60
0
100
AcDbSpline
70
4
71
3
72
59
73
55
40
0
40
0
40
0
40
0
40
0.0124521664474473
40
0.0271916863512165
40
0.0566707261587555
40
0.0714102460625249
40
0.0861497659662946
40
0.115628805773833
40
0.130368325677602
40
0.145107845581372
40
0.174586885388911
40
0.18932640529268
40
0.20406592519645
40
0.233544965003989
40
0.248284484907759
40
0.263024004811528
40
0.292503044619067
40
0.307242564522836
40
0.321982084426605
40
0.351461124234144
40
0.366200644137914
40
0.380940164041683
40
0.410419203849222
40
0.425158723752992
40
0.439898243656761
40
0.4693772834643
40
0.48411680336807
40
0.498856323271839
40
0.528335363079378
40
0.543074882983147
40
0.557814402886916
40
0.587293442694456
40
0.602032962598225
40
0.616772482501994
40
0.646251522309533
40
0.660991042213303
40
0.675730562117072
40
0.705209601924611
40
0.719949121828381
40
0.73468864173215
40
0.764167681539689
40
0.778907201443458
40
0.793646721347228
40
0.823125761154767
40
0.837865281058536
40
0.852604800962306
40
0.882083840769844
40
0.896823360673614
40
0.911562880577383
40
0.929987280457095
40
0.941041920384922
40
0.952096560312749
40
0.970520960192461
40
1
40
1
40
1
40
1
41
1
10
42.6189970589917
20
0.0753038496481508
30
0
41
1
10
42.5511953410031
20
0.0913379141814517
30
0
41
1
10
42.4031391035469
20
0.126344316183406
30
0
41
1
10
42.094502534223
20
0.198901768856302
30
0
41
1
10
41.7734491216901
20
0.274265287730827
30
0
41
1
10
41.4524336154323
20
0.349348794243554
30
0
41
1
10
41.1313395988968
20
0.423722828660374
30
0
41
1
10
40.8102860610872
20
0.497638237063569
30
0
41
1
10
40.4892704569108
20
0.570939365641806
30
0
41
1
10
40.1681763743167
20
0.643283917395422
30
0
41
1
10
39.8471229326938
20
0.714843971120047
30
0
41
1
10
39.5261077323985
20
0.78546973625015
30
0
41
1
10
39.2050140752714
20
0.854904874381901
30
0
41
1
10
38.8839609447542
20
0.923236355703068
30
0
41
1
10
38.5629456519499
20
0.990312401990934
30
0
41
1
10
38.2418517509165
20
1.05597266659873
30
0
41
1
10
37.9207982311323
20
1.12021907913018
30
0
41
1
10
37.5997827039533
20
1.18290778527148
30
0
41
1
10
37.278688764786
20
1.24397535825676
30
0
41
1
10
36.9576353969253
20
1.30334001823832
30
0
41
1
10
36.63661998699
20
1.36086811400949
30
0
41
1
10
36.3155260917778
20
1.41659200213553
30
0
41
1
10
35.9944727714494
20
1.47034725926812
30
0
41
1
10
35.6734574723698
20
1.52201004414871
30
0
41
1
10
35.3523635578512
20
1.57170709395538
30
0
41
1
10
35.0313100191509
20
1.61919156712992
30
0
41
1
10
34.7102943467089
20
1.664347981811
30
0
41
1
10
34.3892001800514
20
1.70739798007264
30
0
41
1
10
34.0681466351591
20
1.74801430932072
30
0
41
1
10
33.7471314513601
20
1.78609261571847
30
0
41
1
10
33.4260379946901
20
1.82195092906181
30
0
41
1
10
33.1049852296841
20
1.85519079104765
30
0
41
1
10
32.7839703259668
20
1.88572958989937
30
0
41
1
10
32.4628767939418
20
1.91396908413651
30
0
41
1
10
32.1418235454848
20
1.93944250364754
30
0
41
1
10
31.8208079791371
20
1.96207913372143
30
0
41
1
10
31.4997137598448
20
1.98236119242793
30
0
41
1
10
31.1786598794733
20
1.99975682006613
30
0
41
1
10
30.8576439100239
20
2.0142073314544
30
0
41
1
10
30.5365494611632
20
2.02627179960862
30
0
41
1
10
30.2154957052251
20
2.03535683653777
30
0
41
1
10
29.8944803910711
20
2.04141579266093
30
0
41
1
10
29.5733867746828
20
2.04508711187191
30
0
41
1
10
29.2523338398735
20
2.04573299936007
30
0
41
1
10
28.9313188051943
20
2.04333858169275
30
0
41
1
10
28.6102252027776
20
2.03859713413425
30
0
41
1
10
28.2891719710721
20
2.03083043711976
30
0
41
1
10
27.9681564752846
20
2.02003514099414
30
0
41
1
10
27.7072925636087
20
2.00946790191648
30
0
41
1
10
27.4665105620605
20
1.99800518507036
30
0
41
1
10
27.2457983633793
20
1.98609360010769
30
0
41
1
10
27.0250577967584
20
1.97306255384154
30
0
41
1
10
26.703953559383
20
1.95201993988212
30
0
41
1
10
26.4431401713213
20
1.93241557807946
30
0
41
1
10
26.282652839504
20
1.91937056107568
30
0
0
SPLINE
5
C7
100
AcDbEntity
8
1
62
256
6
ByLayer
370
18
48
1
60
0
100
AcDbSpline
70
4
71
3
72
14
73
10
40
0
40
0
40
0
40
0
40
0.291247817515723
40
0.291247817515723
40
0.582495635031446
40
0.582495635031446
40
0.873743452547169
40
0.873743452547169
40
1
40
1
40
1
40
1
41
1
10
27.5305469411252
20
5.53098530141443
30
0
41
1
10
26.859333066035
20
5.45035263277819
30
0
41
1
10
26.1879016494069
20
5.35060306502714
30
0
41
1
10
24.844509199314
20
5.11832362942963
30
0
41
1
10
24.1725501762731
20
4.98576040606832
30
0
41
1
10
22.8282973217043
20
4.69000982164681
30
0
41
1
10
22.1560022049627
20
4.52682350753068
30
0
41
1
10
21.1923579264048
20
4.27055824871991
30
0
41
1
10
20.9009554793578
20
4.19014072664751
30
0
41
1
10
20.6095982634217
20
4.10664437729656
30
0
0
SPLINE
5
C8
100
AcDbEntity
8
1
62
256
6
ByLayer
370
13
48
1
60
0
100
AcDbSpline
70
4
71
3
72
21
73
17
40
0
40
0
40
0
40
0
40
0.0396221933275828
40
0.0970739810205438
40
0.154525768713502
40
0.269429344099417
40
0.326881131792372
40
0.384332919485332
40
0.499236494871251
40
0.55668828256421
40
0.61414007025717
40
0.729043645643086
40
0.786495433336042
40
0.843947221029001
40
0.95885079641492
40
1
40
1
40
1
40
1
41
1
10
56.3066927040654
20
2.04448970092554
30
0
41
1
10
56.2513397182724
20
2.04414111861971
30
0
41
1
10
56.1157292283872
20
2.04299202423334
30
0
41
1
10
55.8998740524088
20
2.0400108836337
30
0
41
1
10
55.5787806528098
20
2.03324303564165
30
0
41
1
10
55.2577276049873
20
2.02345487000488
30
0
41
1
10
54.9367122726999
20
2.0106487570398
30
0
41
1
10
54.6156182804517
20
1.99557889374714
30
0
41
1
10
54.2945646021888
20
1.97752616273937
30
0
41
1
10
53.9735487734335
20
1.95650392379042
30
0
41
1
10
53.6524544240642
20
1.9333079891629
30
0
41
1
10
53.331400699886
20
1.90719057686016
30
0
41
1
10
53.0103853014466
20
1.87817564554862
30
0
41
1
10
52.6892915089964
20
1.84710252065383
30
0
41
1
10
52.3910139246315
20
1.81561827854767
30
0
41
1
10
52.1730229372679
20
1.79090976538623
30
0
41
1
10
52.1155382388675
20
1.78427349675536
30
0
0
SPLINE
5
C9
100
AcDbEntity
8
1
62
256
6
ByLayer
370
18
48
1
60
0
100
AcDbSpline
70
4
71
3
72
10
73
6
40
0
40
0
40
0
40
0
40
0.5
40
0.5
40
1
40
1
40
1
40
1
41
1
10
55.4416732975685
20
-4.03635143973776
30
0
41
1
10
55.438647443372
20
-4.00891755525239
30
0
41
1
10
55.4324438223152
20
-3.98676827775907
30
0
41
1
10
55.4158732442159
20
-3.94948544464228
30
0
41
1
10
55.4057450522534
20
-3.935041749721
30
0
41
1
10
55.3942441313901
20
-3.92372482494517
30
0
0
SPLINE
5
CA
100
AcDbEntity
8
1
62
256
6
ByLayer
370
18
48
1
60
0
100
AcDbSpline
70
4
71
3
72
18
73
14
40
0
40
0
40
0
40
0
40
0.25
40
0.25
40
0.375
40
0.375
40
0.5
40
0.5
40
0.75
40
0.75
40
0.875
40
0.875
40
1
40
1
40
1
40
1
41
1
10
55.0381243512149
20
0.423692039835942
30
0
41
1
10
54.9929968360809
20
0.203296696961132
30
0
41
1
10
54.9567743784378
20
-0.0176011358913115
30
0
41
1
10
54.9158511259157
20
-0.349704602199438
30
0
41
1
10
54.9044555284081
20
-0.460532464795534
30
0
41
1
10
54.8862977636236
20
-0.682449642791994
30
0
41
1
10
54.879524118496
20
-0.794107456016377
30
0
41
1
10
54.8666783837982
20
-1.12375512610615
30
0
41
1
10
54.8678639779594
20
-1.33714995350633
30
0
41
1
10
54.8839036889876
20
-1.64792382378047
30
0
41
1
10
54.8916389479329
20
-1.74995434063916
30
0
41
1
10
54.9119684612384
20
-1.95084049841245
30
0
41
1
10
54.9245896955799
20
-2.04973381027065
30
0
41
1
10
54.9395001672304
20
-2.14576445416597
30
0
0
SPLINE
5
CB
100
AcDbEntity
8
1
62
256
6
ByLayer
370
18
48
1
60
0
100
AcDbSpline
70
4
71
3
72
46
73
42
40
0
40
0
40
0
40
0
40
0.0782992684654036
40
0.0782992684654036
40
0.0978740855817542
40
0.0978740855817542
40
0.117448902698105
40
0.117448902698105
40
0.156598536930806
40
0.156598536930806
40
0.176173354047156
40
0.176173354047156
40
0.195748171163507
40
0.195748171163507
40
0.234897805396208
40
0.234897805396208
40
0.254472622512558
40
0.254472622512558
40
0.274047439628909
40
0.274047439628909
40
0.31319707386161
40
0.31319707386161
40
0.352346708094311
40
0.352346708094311
40
0.391496342327012
40
0.391496342327012
40
0.469795610792412
40
0.469795610792412
40
0.508945245025112
40
0.508945245025112
40
0.548094879257813
40
0.548094879257813
40
0.626394147723213
40
0.626394147723213
40
0.782992684654014
40
0.782992684654014
40
0.861291953119413
40
0.861291953119413
40
0.939591221584812
40
0.939591221584812
40
1
40
1
40
1
40
1
41
1
10
13.8308302625317
20
-4.27480821571916
30
0
41
1
10
13.677841489374
20
-4.46535940710305
30
0
41
1
10
13.5542202552284
20
-4.64792368671829
30
0
41
1
10
13.4486896057494
20
-4.8624910923057
30
0
41
1
10
13.4301331064105
20
-4.90464680743639
30
0
41
1
10
13.3989522986579
20
-4.98591456051321
30
0
41
1
10
13.3862248820324
20
-5.02522576291901
30
0
41
1
10
13.3567891648908
20
-5.1391219083425
30
0
41
1
10
13.3488035189334
20
-5.20967834456565
30
0
41
1
10
13.3553040433823
20
-5.30702711092934
30
0
41
1
10
13.3605921388122
20
-5.33800440595485
30
0
41
1
10
13.3770799666262
20
-5.39597306094925
30
0
41
1
10
13.3882825027936
20
-5.42312795880173
30
0
41
1
10
13.4304060133452
20
-5.49935266872211
30
0
41
1
10
13.4698228900769
20
-5.54319384650151
30
0
41
1
10
13.544933075593
20
-5.59924343163132
30
0
41
1
10
13.5726445032494
20
-5.61627362480368
30
0
41
1
10
13.6322049987958
20
-5.64676262876793
30
0
41
1
10
13.6641545406921
20
-5.66030392221359
30
0
41
1
10
13.7659855210431
20
-5.69626918904777
30
0
41
1
10
13.8418267474297
20
-5.7140529225218
30
0
41
1
10
14.0073174711254
20
-5.73906766581405
30
0
41
1
10
14.0974524806221
20
-5.74629542980151
30
0
41
1
10
14.2876616358137
20
-5.75147609743325
30
0
41
1
10
14.3873438930352
20
-5.74948349221822
30
0
41
1
10
14.6979271818037
20
-5.73224346072558
30
0
41
1
10
14.9202526510667
20
-5.70585824405799
30
0
41
1
10
15.2713218329538
20
-5.65006719520414
30
0
41
1
10
15.3915470022131
20
-5.62868222589637
30
0
41
1
10
15.6362751181547
20
-5.58131442924389
30
0
41
1
10
15.7602854373529
20
-5.55543657111195
30
0
41
1
10
16.1366629095681
20
-5.47222326544946
30
0
41
1
10
16.3933481943363
20
-5.4093560337729
30
0
41
1
10
17.1774909287093
20
-5.20403196626086
30
0
41
1
10
17.7188773409854
20
-5.04512390136927
30
0
41
1
10
18.5519879685058
20
-4.78545165320341
30
0
41
1
10
18.8331439197393
20
-4.69527031664239
30
0
41
1
10
19.3968605513817
20
-4.51047131229774
30
0
41
1
10
19.6800896629113
20
-4.41564393378633
30
0
41
1
10
20.1840462002128
20
-4.24411975282354
30
0
41
1
10
20.4042654762169
20
-4.16824165513552
30
0
41
1
10
20.6251874495986
20
-4.0913107005681
30
0
0
SPLINE
5
CC
100
AcDbEntity
8
1
62
256
6
ByLayer
370
18
48
1
60
0
100
AcDbSpline
70
4
71
3
72
8
73
4
40
0
40
0
40
0
40
0
40
1
40
1
40
1
40
1
41
1
10
56.3044831580972
20
-1.04991946547449
30
0
41
1
10
56.3120486163339
20
-1.04895517144328
30
0
41
1
10
56.3196998794142
20
-1.04767011319507
30
0
41
1
10
56.3274392061356
20
-1.04605584666845
30
0
0
SPLINE
5
CD
100
AcDbEntity
8
1
62
256
6
ByLayer
370
18
48
1
60
0
100
AcDbSpline
70
4
71
3
72
20
73
16
40
0
40
0
40
0
40
0
40
0.124999999999999
40
0.124999999999999
40
0.249999999999997
40
0.249999999999997
40
0.374999999999996
40
0.374999999999996
40
0.499999999999995
40
0.499999999999995
40
0.749999999999997
40
0.749999999999997
40
0.874999999999999
40
0.874999999999999
40
1
40
1
40
1
40
1
41
1
10
56.3044831580972
20
-1.04991946547454
30
0
41
1
10
56.2608541679494
20
-1.05057673077022
30
0
41
1
10
56.2190500721279
20
-1.04148265551515
30
0
41
1
10
56.1385584320642
20
-1.00664118137882
30
0
41
1
10
56.0995855662168
20
-0.980576311207813
30
0
41
1
10
56.0260463743849
20
-0.914408885429822
30
0
41
1
10
55.9916183621386
20
-0.874613926794808
30
0
41
1
10
55.9267913299978
20
-0.783476458124909
30
0
41
1
10
55.8962270669571
20
-0.731743332485365
30
0
41
1
10
55.8116411185147
20
-0.563759416215447
30
0
41
1
10
55.7644618547328
20
-0.435348695247086
30
0
41
1
10
55.7049550784371
20
-0.222655221789694
30
0
41
1
10
55.6869616279553
20
-0.147978767024512
30
0
41
1
10
55.6551012410629
20
0.0059690058354249
30
0
41
1
10
55.6412276520957
20
0.0851249326229322
30
0
41
1
10
55.6292825326924
20
0.16632694968186
30
0
0
SPLINE
5
CE
100
AcDbEntity
8
1
62
256
6
ByLayer
370
18
48
1
60
0
100
AcDbSpline
70
4
71
3
72
8
73
4
40
0
40
0
40
0
40
0
40
1
40
1
40
1
40
1
41
1
10
27.8309073795173
20
-5.58231220532051
30
0
41
1
10
27.7307426633674
20
-5.56634043172085
30
0
41
1
10
27.630634637079
20
-5.54922873873565
30
0
41
1
10
27.5305469411252
20
-5.53098530141443
30
0
0
SPLINE
5
CF
100
AcDbEntity
8
1
62
256
6
ByLayer
370
13
48
1
60
0
100
AcDbSpline
70
4
71
3
72
32
73
28
40
0
40
0
40
0
40
0
40
0.158513151711761
40
0.158513151711761
40
0.237769727567641
40
0.237769727567641
40
0.31702630342352
40
0.31702630342352
40
0.3962828792794
40
0.3962828792794
40
0.435911167207341
40
0.435911167207341
40
0.475539455135281
40
0.475539455135281
40
0.63405260684704
40
0.63405260684704
40
0.71330918270292
40
0.71330918270292
40
0.75293747063086
40
0.75293747063086
40
0.7925657585588
40
0.7925657585588
40
0.871822334414678
40
0.871822334414678
40
0.951078910270556
40
0.951078910270556
40
1
40
1
40
1
40
1
41
1
10
55.3942441313901
20
-3.92372482494517
30
0
41
1
10
54.3038129601112
20
-3.75531836653454
30
0
41
1
10
53.2269604081708
20
-3.49611631335557
30
0
41
1
10
51.6109743973906
20
-2.99732959805195
30
0
41
1
10
51.072302222635
20
-2.8127154054429
30
0
41
1
10
49.991443676958
20
-2.41169521012537
30
0
41
1
10
49.4487997032596
20
-2.19528377437038
30
0
41
1
10
48.3579698664751
20
-1.73712287080926
30
0
41
1
10
47.8142103164654
20
-1.49713952342415
30
0
41
1
10
46.9984198180893
20
-1.12603846899609
30
0
41
1
10
46.7264264772598
20
-1.00055696473922
30
0
41
1
10
46.1818753559192
20
-0.746931209091429
30
0
41
1
10
45.9089989863819
20
-0.618568418713863
30
0
41
1
10
44.5464569628136
20
0.0260642618400482
30
0
41
1
10
43.4693502656497
20
0.546404082256913
30
0
41
1
10
41.8522651031527
20
1.28960773688968
30
0
41
1
10
41.3129564377466
20
1.53109896039408
30
0
41
1
10
40.5011942877573
20
1.87905137947291
30
0
41
1
10
40.2301281406049
20
1.9926224468177
30
0
41
1
10
39.6865915232793
20
2.21401396352323
30
0
41
1
10
39.4137590204468
20
2.32195688254404
30
0
41
1
10
38.5952375117704
20
2.63476579429724
30
0
41
1
10
38.0503597836087
20
2.82836652211802
30
0
41
1
10
36.9588453545554
20
3.1802793374838
30
0
41
1
10
36.4137444432292
20
3.33774342479134
30
0
41
1
10
35.5335338645233
20
3.55870460676323
30
0
41
1
10
35.1976719844818
20
3.63510370050452
30
0
41
1
10
34.8614866102979
20
3.7031557556129
30
0
0
SPLINE
5
D0
100
AcDbEntity
8
1
62
256
6
ByLayer
370
18
48
1
60
0
100
AcDbSpline
70
4
71
1
72
4
73
2
40
0
40
0
40
1
40
1
41
1
10
55.4416732975634
20
-4.03635143973625
30
0
41
1
10
56.3274392061449
20
-1.04605584666464
30
0
0
SPLINE
5
D1
100
AcDbEntity
8
1
62
256
6
ByLayer
370
18
48
1
60
0
100
AcDbSpline
70
4
71
3
72
36
73
32
40
0
40
0
40
0
40
0
40
0.126294590430462
40
0.126294590430462
40
0.189441885645693
40
0.189441885645693
40
0.252589180860924
40
0.252589180860924
40
0.315736476076155
40
0.315736476076155
40
0.378883771291386
40
0.378883771291386
40
0.442031066506617
40
0.442031066506617
40
0.505178361721847
40
0.505178361721847
40
0.568325656937078
40
0.568325656937078
40
0.631472952152309
40
0.631472952152309
40
0.69462024736754
40
0.69462024736754
40
0.757767542582771
40
0.757767542582771
40
0.820914837798002
40
0.820914837798002
40
0.884062133013233
40
0.884062133013233
40
0.947209428228464
40
0.947209428228464
40
1
40
1
40
1
40
1
41
1
10
55.0381243512149
20
0.423692039835942
30
0
41
1
10
54.5025822670184
20
0.678213877586586
30
0
41
1
10
53.9675034772288
20
0.929028920496563
30
0
41
1
10
53.1647372844269
20
1.29709592659668
30
0
41
1
10
52.8968636880151
20
1.41789686409248
30
0
41
1
10
52.3605697683645
20
1.6552488741824
30
0
41
1
10
52.0918562072571
20
1.77180279821249
30
0
41
1
10
51.5549654260414
20
1.99875159458708
30
0
41
1
10
51.2870377178246
20
2.1099094569035
30
0
41
1
10
50.7510318581265
20
2.32532352512945
30
0
41
1
10
50.4832635128927
20
2.43024227913165
30
0
41
1
10
49.947538063383
20
2.63164991320042
30
0
41
1
10
49.6795488390766
20
2.72845598420346
30
0
41
1
10
49.1431654448409
20
2.91469095781647
30
0
41
1
10
48.8742211410249
20
3.00308690946073
30
0
41
1
10
48.3369943281342
20
3.17186486191099
30
0
41
1
10
48.0685057557865
20
3.25184930364361
30
0
41
1
10
47.532164753607
20
3.40268450683826
30
0
41
1
10
47.264253835789
20
3.47350736283076
30
0
41
1
10
46.7281224999049
20
3.6035878222693
30
0
41
1
10
46.4602664656593
20
3.6629287754034
30
0
41
1
10
45.9235858455343
20
3.77184372374828
30
0
41
1
10
45.6550718883355
20
3.82155917298795
30
0
41
1
10
45.1171836094124
20
3.90987967747182
30
0
41
1
10
44.8490467343731
20
3.94844591892493
30
0
41
1
10
44.3144591460713
20
4.01240071640993
30
0
41
1
10
44.0476913485927
20
4.03789605164042
30
0
41
1
10
43.5151728490662
20
4.07944704756736
30
0
41
1
10
43.2491054066793
20
4.09489554857402
30
0
41
1
10
42.7613264735613
20
4.11248443528885
30
0
41
1
10
42.5394590636189
20
4.11632099405952
30
0
41
1
10
42.3175799935132
20
4.11529566490032
30
0
0
SPLINE
5
D2
100
AcDbEntity
8
1
62
256
6
ByLayer
370
13
48
1
60
0
100
AcDbSpline
70
4
71
3
72
64
73
60
40
0
40
0
40
0
40
0
40
0.0033332607134685
40
0.0169658112500207
40
0.0305983617865731
40
0.057863462859677
40
0.0714960133962288
40
0.0851285639327814
40
0.112393665005885
40
0.126026215542437
40
0.139658766078989
40
0.166923867152094
40
0.180556417688646
40
0.194188968225198
40
0.221454069298302
40
0.235086619834854
40
0.248719170371406
40
0.27598427144451
40
0.289616821981062
40
0.303249372517614
40
0.330514473590719
40
0.344147024127271
40
0.357779574663823
40
0.385044675736927
40
0.398677226273479
40
0.412309776810031
40
0.439574877883135
40
0.453207428419687
40
0.46683997895624
40
0.494105080029344
40
0.507737630565896
40
0.521370181102448
40
0.548635282175552
40
0.562267832712105
40
0.575900383248656
40
0.60316548432176
40
0.616798034858312
40
0.630430585394864
40
0.657695686467969
40
0.671328237004521
40
0.684960787541073
40
0.712225888614177
40
0.725858439150729
40
0.739490989687281
40
0.766756090760385
40
0.780388641296937
40
0.79402119183349
40
0.821286292906594
40
0.834918843443146
40
0.848551393979698
40
0.875816495052802
40
0.889449045589354
40
0.903081596125906
40
0.93034669719901
40
0.943979247735562
40
0.957611798272115
40
0.984876899345219
40
0.998509449881771
40
1
40
1
40
1
40
1
41
1
10
46.8925792455805
20
-1.78923375288048
30
0
41
1
10
46.8729529965337
20
-1.79148131611311
30
0
41
1
10
46.773057281984
20
-1.80285222638645
30
0
41
1
10
46.5928834860954
20
-1.82272605195635
30
0
41
1
10
46.2718692213383
20
-1.85615887583748
30
0
41
1
10
45.9508144145577
20
-1.88678144407777
30
0
41
1
10
45.6297213529838
20
-1.91453831483983
30
0
41
1
10
45.308706599174
20
-1.94016919870072
30
0
41
1
10
44.9876511788383
20
-1.96287847417784
30
0
41
1
10
44.6665578410235
20
-1.98264155718112
30
0
41
1
10
44.3455430673203
20
-2.0001748280182
30
0
41
1
10
44.0244878929238
20
-2.01471783048976
30
0
41
1
10
43.7033948642113
20
-2.02625725519005
30
0
41
1
10
43.3823804122246
20
-2.03548373094631
30
0
41
1
10
43.0613255596545
20
-2.04168096576529
30
0
41
1
10
42.74023280206
20
-2.04485319483743
30
0
41
1
10
42.419218523245
20
-2.04565534274809
30
0
41
1
10
42.0981636120417
20
-2.04342014219714
30
0
41
1
10
41.7770704150499
20
-2.0381639253701
30
0
41
1
10
41.456055611023
20
-2.03050778581138
30
0
41
1
10
41.1350002428188
20
-2.01984970897539
30
0
41
1
10
40.8139070264075
20
-2.00623585533077
30
0
41
1
10
40.4928923745738
20
-1.99023228703436
30
0
41
1
10
40.1718373288606
20
-1.9713065462297
30
0
41
1
10
39.8507443810401
20
-1.94951737928355
30
0
41
1
10
39.5297299348703
20
-1.92537306929071
30
0
41
1
10
39.2086750144281
20
-1.89841638376933
30
0
41
1
10
38.8875821645298
20
-1.86872133139667
30
0
41
1
10
38.5665677844255
20
-1.83673244106436
30
0
41
1
10
38.2455127678134
20
-1.80207119676916
30
0
41
1
10
37.9244195140615
20
-1.76482403749887
30
0
41
1
10
37.6034047085129
20
-1.72537162982596
30
0
41
1
10
37.2823493808041
20
-1.6834231608124
30
0
41
1
10
36.9612562195448
20
-1.63908607280038
30
0
41
1
10
36.6402416578781
20
-1.59266536980351
30
0
41
1
10
36.3191867194043
20
-1.54396032700285
30
0
41
1
10
35.998093792502
20
-1.49308978530826
30
0
41
1
10
35.67707926897
20
-1.44028043128057
30
0
41
1
10
35.3560241785916
20
-1.38542274448591
30
0
41
1
10
35.0349311344619
20
-1.32864544572664
30
0
41
1
10
34.7139165669843
20
-1.27009617178214
30
0
41
1
10
34.3928614290839
20
-1.20975783644582
30
0
41
1
10
34.0717682741141
20
-1.14776921537586
30
0
41
1
10
33.7507537259463
20
-1.0841982218266
30
0
41
1
10
33.4296988064018
20
-1.01912237875152
30
0
41
1
10
33.1086060247635
20
-0.952691744736853
30
0
41
1
10
32.7875917287113
20
-0.884891110733548
30
0
41
1
10
32.4665368153484
20
-0.815892618822005
30
0
41
1
10
32.1454435450827
20
-0.745854458874589
30
0
41
1
10
31.8244285390736
20
-0.674674527353517
30
0
41
1
10
31.5033728458646
20
-0.602612289106588
30
0
41
1
10
31.182279295538
20
-0.529822922632064
30
0
41
1
10
30.8612643648859
20
-0.456127493023871
30
0
41
1
10
30.5402091551072
20
-0.381871620906168
30
0
41
1
10
30.2191162673771
20
-0.307216289625984
30
0
41
1
10
29.8981020239562
20
-0.231906057615077
30
0
41
1
10
29.5770474460587
20
-0.156370928469727
30
0
41
1
10
29.3274512135681
20
-0.0976087182357048
30
0
41
1
10
29.2384132944639
20
-0.0765837121157631
30
0
41
1
10
29.2296377152071
20
-0.074510957139978
30
0
0
SPLINE
5
D3
100
AcDbEntity
8
1
62
256
6
ByLayer
370
18
48
1
60
0
100
AcDbSpline
70
4
71
3
72
8
73
4
40
0
40
0
40
0
40
0
40
1
40
1
40
1
40
1
41
1
10
27.8309073795173
20
0.327870877163491
30
0
41
1
10
28.3376277296711
20
0.0550364027330943
30
0
41
1
10
28.8469044418513
20
-0.16029477289598
30
0
41
1
10
29.363899999921
20
-0.316371554476319
30
0
0
SPLINE
5
D4
100
AcDbEntity
8
1
62
256
6
ByLayer
370
18
48
1
60
0
100
AcDbSpline
70
4
71
4
72
10
73
5
40
0
40
0
40
0
40
0
40
0
40
1
40
1
40
1
40
1
40
1
41
1
10
27.5305469411252
20
5.5309853014144
30
0
41
1
10
27.2185734157199
20
4.62808161632972
30
0
41
1
10
26.9065998903146
20
3.72517793124504
30
0
41
1
10
26.5946263649093
20
2.82227424616036
30
0
41
1
10
26.2826528395039
20
1.91937056107568
30
0
0
SPLINE
5
D5
100
AcDbEntity
8
1
62
256
6
ByLayer
370
18
48
1
60
0
100
AcDbSpline
70
4
71
3
72
8
73
4
40
0
40
0
40
0
40
0
40
1
40
1
40
1
40
1
41
1
10
55.0381243512149
20
0.42369203983597
30
0
41
1
10
55.0480275195044
20
0.418976714251926
30
0
41
1
10
55.0579343992102
20
0.414279578633853
30
0
41
1
10
55.0678450087902
20
0.409600723445834
30
0
0
SPLINE
5
D6
100
AcDbEntity
8
1
62
256
6
ByLayer
370
18
48
1
60
0
100
AcDbSpline
70
4
71
3
72
8
73
4
40
0
40
0
40
0
40
0
40
1
40
1
40
1
40
1
41
1
10
55.1307162299584
20
0.380188217981356
30
0
41
1
10
55.2958338573934
20
0.303651379860298
30
0
41
1
10
55.461994307108
20
0.232225502176561
30
0
41
1
10
55.6292825326924
20
0.166326949681888
30
0
0
SPLINE
5
D7
100
AcDbEntity
8
1
62
256
6
ByLayer
370
18
48
1
60
0
100
AcDbSpline
70
4
71
3
72
32
73
28
40
0
40
0
40
0
40
0
40
0.124999999999992
40
0.124999999999992
40
0.187499999999991
40
0.187499999999991
40
0.249999999999991
40
0.249999999999991
40
0.37499999999999
40
0.37499999999999
40
0.437499999999989
40
0.437499999999989
40
0.499999999999988
40
0.499999999999988
40
0.62499999999999
40
0.62499999999999
40
0.749999999999993
40
0.749999999999993
40
0.812499999999994
40
0.812499999999994
40
0.874999999999995
40
0.874999999999995
40
0.937499999999996
40
0.937499999999996
40
0.968749999999998
40
0.968749999999998
40
1
40
1
40
1
40
1
41
1
10
19.4676749206221
20
-3.76318124222641
30
0
41
1
10
19.2369673635871
20
-3.6904363450663
30
0
41
1
10
19.0000615757651
20
-3.62794821612809
30
0
41
1
10
18.6360529617455
20
-3.55022673663126
30
0
41
1
10
18.5129063433255
20
-3.52693313526194
30
0
41
1
10
18.2657338523948
20
-3.48612572621224
30
0
41
1
10
18.1418439749953
20
-3.4686119558082
30
0
41
1
10
17.7693076365641
20
-3.42453278751711
30
0
41
1
10
17.5198005556639
20
-3.40639154037194
30
0
41
1
10
17.1438833578898
20
-3.39582007880085
30
0
41
1
10
17.0183000657106
20
-3.39507827962336
30
0
41
1
10
16.7665694172715
20
-3.39925433699659
30
0
41
1
10
16.6400949098886
20
-3.40419591488919
30
0
41
1
10
16.2627089673846
20
-3.42763373950467
30
0
41
1
10
16.0138335788671
20
-3.45455694936061
30
0
41
1
10
15.5221607314141
20
-3.53270660411138
30
0
41
1
10
15.2791576377441
20
-3.58378706363106
30
0
41
1
10
14.9213574123095
20
-3.68368553049641
30
0
41
1
10
14.8043927913981
20
-3.72059803310589
30
0
41
1
10
14.576283301537
20
-3.80312656862299
30
0
41
1
10
14.4644957657357
20
-3.84902174351279
30
0
41
1
10
14.2532713082643
20
-3.95046062742043
30
0
41
1
10
14.1535495840732
20
-4.00591718668821
30
0
41
1
10
14.0175636626607
20
-4.09938984257693
30
0
41
1
10
13.9742912967982
20
-4.13254089951141
30
0
41
1
10
13.8961022844096
20
-4.20143659412756
30
0
41
1
10
13.8609638025638
20
-4.23727616787528
30
0
41
1
10
13.8308302625317
20
-4.27480821571916
30
0
0
SPLINE
5
D8
100
AcDbEntity
8
1
62
256
6
ByLayer
370
18
48
1
60
0
100
AcDbSpline
70
4
71
3
72
8
73
4
40
0
40
0
40
0
40
0
40
1
40
1
40
1
40
1
41
1
10
56.3066927040742
20
2.04448970092559
30
0
41
1
10
56.3401206089027
20
1.94857091403165
30
0
41
1
10
56.3745528665045
20
1.85434108049091
30
0
41
1
10
56.4100088549374
20
1.76166292146965
30
0
0
SPLINE
5
D9
100
AcDbEntity
8
1
62
256
6
ByLayer
370
18
48
1
60
0
100
AcDbSpline
70
4
71
3
72
8
73
4
40
0
40
0
40
0
40
0
40
1
40
1
40
1
40
1
41
1
10
29.3639
20
-0.29677678062555
30
0
41
1
10
29.3639
20
-0.303150420363238
30
0
41
1
10
29.3639
20
-0.309682113963845
30
0
41
1
10
29.3639
20
-0.316371554514689
30
0
0
SPLINE
5
DA
100
AcDbEntity
8
1
62
256
6
ByLayer
370
18
48
1
60
0
100
AcDbSpline
70
4
71
3
72
8
73
4
40
0
40
0
40
0
40
0
40
1
40
1
40
1
40
1
41
1
10
55.4288311984153
20
-4.10655947351736
30
0
41
1
10
55.4344173063723
20
-4.08142789576686
30
0
41
1
10
55.4387348442248
20
-4.0577195768627
30
0
41
1
10
55.4416732975782
20
-4.03635143966758
30
0
0
SPLINE
5
DB
100
AcDbEntity
8
1
62
256
6
ByLayer
370
18
48
1
60
0
100
AcDbSpline
70
4
71
3
72
8
73
4
40
0
40
0
40
0
40
0
40
1
40
1
40
1
40
1
41
1
10
26.0888962939729
20
1.46262210897768
30
0
41
1
10
26.1612713618175
20
1.60342161176146
30
0
41
1
10
26.226666783058
20
1.75733752762275
30
0
41
1
10
26.2826528395039
20
1.91937056107571
30
0
0
SPLINE
5
DC
100
AcDbEntity
8
1
62
256
6
ByLayer
370
18
48
1
60
0
100
AcDbSpline
70
4
71
3
72
20
73
16
40
0
40
0
40
0
40
0
40
0.134616397268021
40
0.134616397268021
40
0.269232794536042
40
0.269232794536042
40
0.403849191804063
40
0.403849191804063
40
0.538465589072084
40
0.538465589072084
40
0.807698383608127
40
0.807698383608127
40
0.942314780876148
40
0.942314780876148
40
1
40
1
40
1
40
1
41
1
10
55.488033108198
20
4.20511056534102
30
0
41
1
10
55.2162376252012
20
4.18527617828221
30
0
41
1
10
54.9448373938943
20
4.15917313925536
30
0
41
1
10
54.401525698595
20
4.09494286930291
30
0
41
1
10
54.1297981288272
20
4.05675998373334
30
0
41
1
10
53.5859670645815
20
3.96829729003159
30
0
41
1
10
53.3132332348945
20
3.91821409605703
30
0
41
1
10
52.7686214456174
20
3.80628696565202
30
0
41
1
10
52.4965338595693
20
3.74486398820278
30
0
41
1
10
51.6812180889868
20
3.54408826226313
30
0
41
1
10
51.1384085199361
20
3.38865985709714
30
0
41
1
10
50.3221002201009
20
3.12705340420743
30
0
41
1
10
50.0496749423439
20
3.03459870469544
30
0
41
1
10
49.6603466360772
20
2.89690331273977
30
0
41
1
10
49.5436598577945
20
2.85479172064737
30
0
41
1
10
49.4270408079065
20
2.81192626225379
30
0
0
SPLINE
5
DD
100
AcDbEntity
8
1
62
256
6
ByLayer
370
18
48
1
60
0
100
AcDbSpline
70
4
71
3
72
8
73
4
40
0
40
0
40
0
40
0
40
1
40
1
40
1
40
1
41
1
10
29.5400162898397
20
-4.20351585882506
30
0
41
1
10
29.4813384999371
20
-4.20340983139857
30
0
41
1
10
29.422633904624
20
-4.20301456094964
30
0
41
1
10
29.363899999921
20
-4.20232934641098
30
0
0
SPLINE
5
DE
100
AcDbEntity
8
1
62
256
6
ByLayer
370
18
48
1
60
0
100
AcDbSpline
70
4
71
3
72
8
73
4
40
0
40
0
40
0
40
0
40
1
40
1
40
1
40
1
41
1
10
56.9997603403429
20
-0.0850941485240924
30
0
41
1
10
56.9285787678385
20
-0.276735214233355
30
0
41
1
10
56.8592244694296
20
-0.469586261904311
30
0
41
1
10
56.7914740469906
20
-0.663589837845336
30
0
0
SPLINE
5
DF
100
AcDbEntity
8
1
62
256
6
ByLayer
370
18
48
1
60
0
100
AcDbSpline
70
4
71
3
72
8
73
4
40
0
40
0
40
0
40
0
40
1
40
1
40
1
40
1
41
1
10
30.9616154170589
20
-4.09572655340477
30
0
41
1
10
30.429289967387
20
-4.09339504695581
30
0
41
1
10
29.8972622554363
20
-4.06787160529512
30
0
41
1
10
29.3639000000004
20
-4.01921520560768
30
0
0
SPLINE
5
E0
100
AcDbEntity
8
1
62
256
6
ByLayer
370
18
48
1
60
0
100
AcDbSpline
70
4
71
3
72
8
73
4
40
0
40
0
40
0
40
0
40
1
40
1
40
1
40
1
41
1
10
55.4288311984148
20
-4.10655947351864
30
0
41
1
10
55.4461219185729
20
-4.14888885121707
30
0
41
1
10
55.4657649154151
20
-4.18159417493348
30
0
41
1
10
55.4880331081979
20
-4.20511056534102
30
0
0
SPLINE
5
E1
100
AcDbEntity
8
1
62
256
6
ByLayer
370
18
48
1
60
0
100
AcDbSpline
70
4
71
3
72
10
73
6
40
0
40
0
40
0
40
0
40
0.5
40
0.5
40
1
40
1
40
1
40
1
41
1
10
55.4880331081979
20
4.20511056534102
30
0
41
1
10
55.6245174296432
20
3.86208393449519
30
0
41
1
10
55.7628989255204
20
3.51168912996545
30
0
41
1
10
56.0378005017904
20
2.79262134479563
30
0
41
1
10
56.174393606389
20
2.42411172696123
30
0
41
1
10
56.3066927040742
20
2.04448970092559
30
0
0
SPLINE
5
E2
100
AcDbEntity
8
1
62
256
6
ByLayer
370
18
48
1
60
0
100
AcDbSpline
70
4
71
3
72
10
73
6
40
0
40
0
40
0
40
0
40
0.5
40
0.5
40
1
40
1
40
1
40
1
41
1
10
29.363899999921
20
4.20232934641098
30
0
41
1
10
29.0969596865831
20
4.46840291619998
30
0
41
1
10
28.8380910676025
20
4.71676656785519
30
0
41
1
10
28.3291012881135
20
5.17736484705034
30
0
41
1
10
28.0789489039836
20
5.38979476583114
30
0
41
1
10
27.8309073795172
20
5.58231220532051
30
0
0
SPLINE
5
E3
100
AcDbEntity
8
1
62
256
6
ByLayer
370
18
48
1
60
0
100
AcDbSpline
70
4
71
3
72
8
73
4
40
0
40
0
40
0
40
0
40
1
40
1
40
1
40
1
41
1
10
56.9997603403427
20
0.0850941485245471
30
0
41
1
10
56.9286965148582
20
0.27641820572191
30
0
41
1
10
56.8593378362401
20
0.469261635638873
30
0
41
1
10
56.7914740469906
20
0.663589837845251
30
0
0
SPLINE
5
E4
100
AcDbEntity
8
1
62
256
6
ByLayer
370
18
48
1
60
0
100
AcDbSpline
70
4
71
3
72
18
73
14
40
0
40
0
40
0
40
0
40
0.250000000000001
40
0.250000000000001
40
0.375000000000001
40
0.375000000000001
40
0.500000000000001
40
0.500000000000001
40
0.750000000000001
40
0.750000000000001
40
0.875
40
0.875
40
1
40
1
40
1
40
1
41
1
10
55.3942441313901
20
-3.92372482494517
30
0
41
1
10
55.3178072907471
20
-3.8485108498262
30
0
41
1
10
55.2499943116807
20
-3.75456137602353
30
0
41
1
10
55.1615689540909
20
-3.58475546341512
30
0
41
1
10
55.1343212338872
20
-3.52331442706063
30
0
41
1
10
55.0845004407892
20
-3.39027659666394
30
0
41
1
10
55.0618878855603
20
-3.31838332870495
30
0
41
1
10
55.0027414197864
20
-3.09162410565611
30
0
41
1
10
54.9742743479559
20
-2.92458318089504
30
0
41
1
10
54.9482756492113
20
-2.64984904593831
30
0
41
1
10
54.9424085245112
20
-2.55421983907797
30
0
41
1
10
54.9365216472182
20
-2.35449849747775
30
0
41
1
10
54.9365431249284
20
-2.25146720626
30
0
41
1
10
54.9395001672304
20
-2.14576445416594
30
0
0
SPLINE
5
E5
100
AcDbEntity
8
1
62
256
6
ByLayer
370
18
48
1
60
0
100
AcDbSpline
70
4
71
3
72
22
73
18
40
0
40
0
40
0
40
0
40
0.0538237714723963
40
0.0538237714723963
40
0.158954463531017
40
0.158954463531017
40
0.264085155589638
40
0.264085155589638
40
0.369215847648258
40
0.369215847648258
40
0.5794772317655
40
0.5794772317655
40
0.684607923824121
40
0.684607923824121
40
0.789738615882742
40
0.789738615882742
40
1
40
1
40
1
40
1
41
1
10
55.1052022215907
20
0.392687769760812
30
0
41
1
10
55.115590678852
20
0.404127746378151
30
0
41
1
10
55.1264041545604
20
0.416181921287148
30
0
41
1
10
55.1594164908228
20
0.453401278236583
30
0
41
1
10
55.1827451172376
20
0.480220338969588
30
0
41
1
10
55.2323955939567
20
0.538153203032692
30
0
41
1
10
55.2587164632035
20
0.569267616987304
30
0
41
1
10
55.3145391646491
20
0.635759134765266
30
0
41
1
10
55.3440429771857
20
0.671142464513224
30
0
41
1
10
55.4355774919119
20
0.780864480257179
30
0
41
1
10
55.5011281186398
20
0.859603842871934
30
0
41
1
10
55.6091513992843
20
0.983700899001008
30
0
41
1
10
55.6469438040906
20
1.0261897178261
30
0
41
1
10
55.7250901858042
20
1.11046266315995
30
0
41
1
10
55.7656155465696
20
1.15247279895706
30
0
41
1
10
55.8935482124091
20
1.27613768419556
30
0
41
1
10
55.9880855858733
20
1.35676205408026
30
0
41
1
10
56.0953351610449
20
1.41951166792774
30
0
0
SPLINE
5
E6
100
AcDbEntity
8
1
62
256
6
ByLayer
370
18
48
1
60
0
100
AcDbSpline
70
4
71
3
72
40
73
36
40
0
40
0
40
0
40
0
40
0.0326553215316014
40
0.0326553215316014
40
0.0653106430632029
40
0.0653106430632029
40
0.0979659645948043
40
0.0979659645948043
40
0.130621286126406
40
0.130621286126406
40
0.261242572252812
40
0.261242572252812
40
0.326553215316015
40
0.326553215316015
40
0.359208536847618
40
0.359208536847618
40
0.39186385837922
40
0.39186385837922
40
0.52248514450563
40
0.52248514450563
40
0.587795787568835
40
0.587795787568835
40
0.620451109100437
40
0.620451109100437
40
0.653106430632039
40
0.653106430632039
40
0.783727716758445
40
0.783727716758445
40
0.849038359821648
40
0.849038359821648
40
0.88169368135325
40
0.88169368135325
40
0.914349002884852
40
0.914349002884852
40
1
40
1
40
1
40
1
41
1
10
55.4288311984143
20
-4.1065594735191
30
0
41
1
10
55.1553256887266
20
-4.07159892015855
30
0
41
1
10
54.8824759428899
20
-4.03031994203445
30
0
41
1
10
54.3365282910815
20
-3.9361954304336
30
0
41
1
10
54.0636087694935
20
-3.88323802610679
30
0
41
1
10
53.5174629924549
20
-3.76587247957326
30
0
41
1
10
53.2438273996898
20
-3.70134503942566
30
0
41
1
10
52.6982628376163
20
-3.56184997111748
30
0
41
1
10
52.4263266150032
20
-3.4869365371261
30
0
41
1
10
51.0696140799163
20
-3.08846663872154
30
0
41
1
10
49.9940803559201
20
-2.69263600135312
30
0
41
1
10
48.3740780589048
20
-2.0180692046676
30
0
41
1
10
47.8329080942545
20
-1.779876223278
30
0
41
1
10
47.0168291538549
20
-1.40699985502081
30
0
41
1
10
46.7437071891025
20
-1.27997826739343
30
0
41
1
10
46.1970561948082
20
-1.02247841200961
30
0
41
1
10
45.9246217903689
20
-0.892490011337657
30
0
41
1
10
44.5658347888989
20
-0.238609420272553
30
0
41
1
10
43.4894276544555
20
0.296616885965506
30
0
41
1
10
41.8690653151651
20
1.07225357934627
30
0
41
1
10
41.3279906055113
20
1.32628207826781
30
0
41
1
10
40.5123130577762
20
1.69508152901042
30
0
41
1
10
40.2397237704737
20
1.8159355189801
30
0
41
1
10
39.6927272446511
20
2.05260719797062
30
0
41
1
10
39.4195162570289
20
2.1678632782498
30
0
41
1
10
38.0585263140679
20
2.72480602729382
30
0
41
1
10
36.981303878711
20
3.1108603012577
30
0
41
1
10
35.3611566173723
20
3.57033286832413
30
0
41
1
10
34.8203534937771
20
3.70357086274848
30
0
41
1
10
34.0054572553008
20
3.87033224548395
30
0
41
1
10
33.7332223829179
20
3.9204130331274
30
0
41
1
10
33.187010082463
20
4.00895265522931
30
0
41
1
10
32.9128818251703
20
4.04741072007903
30
0
41
1
10
31.9227459379461
20
4.16408434735311
30
0
41
1
10
31.2086352454523
20
4.20615726394078
30
0
41
1
10
30.4929970198758
20
4.20517650588997
30
0
0
SPLINE
5
E7
100
AcDbEntity
8
1
62
256
6
ByLayer
370
18
48
1
60
0
100
AcDbSpline
70
4
71
3
72
8
73
4
40
0
40
0
40
0
40
0
40
1
40
1
40
1
40
1
41
1
10
56.3066927040741
20
-2.04448970092559
30
0
41
1
10
56.3401206089026
20
-1.94857091403168
30
0
41
1
10
56.3745528665045
20
-1.854341080491
30
0
41
1
10
56.4100088549374
20
-1.76166292146976
30
0
0
SPLINE
5
E8
100
AcDbEntity
8
1
62
256
6
ByLayer
370
18
48
1
60
0
100
AcDbSpline
70
4
71
3
72
26
73
22
40
0
40
0
40
0
40
0
40
0.0279030400892606
40
0.0279030400892606
40
0.116275490990234
40
0.116275490990234
40
0.16046171644072
40
0.16046171644072
40
0.204647941891207
40
0.204647941891207
40
0.293020392792181
40
0.293020392792181
40
0.469765294594132
40
0.469765294594132
40
0.558137745495109
40
0.558137745495109
40
0.646510196396086
40
0.646510196396086
40
0.823255098198043
40
0.823255098198043
40
1
40
1
40
1
40
1
41
1
10
14.2995271204462
20
5.74992384517597
30
0
41
1
10
14.361652217719
20
5.74949768774462
30
0
41
1
10
14.4254951887501
20
5.74736576868511
30
0
41
1
10
14.6979271818032
20
5.73224346072561
30
0
41
1
10
14.9202526510662
20
5.70585824405805
30
0
41
1
10
15.2713218329533
20
5.6500671952042
30
0
41
1
10
15.3915470022126
20
5.62868222589643
30
0
41
1
10
15.6362751181543
20
5.581314429244
30
0
41
1
10
15.7602854373524
20
5.55543657111207
30
0
41
1
10
16.1366629095678
20
5.47222326544957
30
0
41
1
10
16.3933481943358
20
5.40935603377301
30
0
41
1
10
17.1774909287089
20
5.20403196626097
30
0
41
1
10
17.7188773409851
20
5.04512390136938
30
0
41
1
10
18.5519879685054
20
4.7854516532035
30
0
41
1
10
18.833143919739
20
4.69527031664251
30
0
41
1
10
19.3968605513815
20
4.51047131229782
30
0
41
1
10
19.680089662911
20
4.41564393378641
30
0
41
1
10
20.5335245377394
20
4.12517301600877
30
0
41
1
10
21.107460913685
20
3.92361245157957
30
0
41
1
10
22.2639576861212
20
3.50900941566729
30
0
41
1
10
22.8465272993649
20
3.29592936506765
30
0
41
1
10
23.4329821290106
20
3.07825346499345
30
0
0
SPLINE
5
E9
100
AcDbEntity
8
1
62
256
6
ByLayer
370
18
48
1
60
0
100
AcDbSpline
70
4
71
3
72
10
73
6
40
0
40
0
40
0
40
0
40
0.5
40
0.5
40
1
40
1
40
1
40
1
41
1
10
29.363899999921
20
-4.20232934641098
30
0
41
1
10
29.0969596865831
20
-4.46840291619998
30
0
41
1
10
28.8380910676025
20
-4.71676656785516
30
0
41
1
10
28.3291012881134
20
-5.17736484705031
30
0
41
1
10
28.0789489039836
20
-5.38979476583114
30
0
41
1
10
27.8309073795172
20
-5.58231220532051
30
0
0
SPLINE
5
EA
100
AcDbEntity
8
1
62
256
6
ByLayer
370
18
48
1
60
0
100
AcDbSpline
70
4
71
3
72
10
73
6
40
0
40
0
40
0
40
0
40
0.5
40
0.5
40
1
40
1
40
1
40
1
41
1
10
55.4880331081979
20
-4.20511056534102
30
0
41
1
10
55.6245285508122
20
-3.86205598361357
30
0
41
1
10
55.7629161261918
20
-3.5116451122949
30
0
41
1
10
56.0378178183696
20
-2.79257507460048
30
0
41
1
10
56.1744050066716
20
-2.42407901473217
30
0
41
1
10
56.3066927040742
20
-2.04448970092559
30
0
0
SPLINE
5
EB
100
AcDbEntity
8
1
62
256
6
ByLayer
370
18
48
1
60
0
100
AcDbSpline
70
4
71
3
72
8
73
4
40
0
40
0
40
0
40
0
40
1
40
1
40
1
40
1
41
1
10
56.7914740469906
20
-0.663589837845308
30
0
41
1
10
56.6637217376635
20
-1.0294090305814
30
0
41
1
10
56.5365660033438
20
-1.39543316152432
30
0
41
1
10
56.4100088549374
20
-1.76166292146979
30
0
0
SPLINE
5
EC
100
AcDbEntity
8
1
62
256
6
ByLayer
370
18
48
1
60
0
100
AcDbSpline
70
4
71
3
72
18
73
14
40
0
40
0
40
0
40
0
40
0.249999999999996
40
0.249999999999996
40
0.374999999999998
40
0.374999999999998
40
0.5
40
0.5
40
0.625000000000002
40
0.625000000000002
40
0.750000000000005
40
0.750000000000005
40
1
40
1
40
1
40
1
41
1
10
56.3274392061164
20
-1.04605584667536
30
0
41
1
10
56.3756607284968
20
-1.01582154172795
30
0
41
1
10
56.4274190789574
20
-0.965519473748941
30
0
41
1
10
56.5108512044177
20
-0.861680094749914
30
0
41
1
10
56.5396199699375
20
-0.822213767340401
30
0
41
1
10
56.5972892105739
20
-0.7364420383702
30
0
41
1
10
56.6264197608104
20
-0.689863455162993
30
0
41
1
10
56.6852684330343
20
-0.589602342844927
30
0
41
1
10
56.7151901250954
20
-0.535511872603252
30
0
41
1
10
56.7742490271388
20
-0.422788980908877
30
0
41
1
10
56.803445509891
20
-0.36410212715208
30
0
41
1
10
56.8900113932266
20
-0.181464451777003
30
0
41
1
10
56.9468006011881
20
-0.0497648918887421
30
0
41
1
10
56.9997603403434
20
0.0850941485253429
30
0
0
SPLINE
5
ED
100
AcDbEntity
8
1
62
256
6
ByLayer
370
18
48
1
60
0
100
AcDbSpline
70
4
71
3
72
54
73
50
40
0
40
0
40
0
40
0
40
0.0799632172635093
40
0.0799632172635093
40
0.119944825895265
40
0.119944825895265
40
0.15992643452702
40
0.15992643452702
40
0.199908043158776
40
0.199908043158776
40
0.239889651790531
40
0.239889651790531
40
0.279871260422287
40
0.279871260422287
40
0.319852869054042
40
0.319852869054042
40
0.359834477685798
40
0.359834477685798
40
0.399816086317553
40
0.399816086317553
40
0.439797694949309
40
0.439797694949309
40
0.479779303581064
40
0.479779303581064
40
0.51976091221282
40
0.51976091221282
40
0.559742520844575
40
0.559742520844575
40
0.639705738108086
40
0.639705738108086
40
0.679687346739842
40
0.679687346739842
40
0.719668955371597
40
0.719668955371597
40
0.759650564003353
40
0.759650564003353
40
0.799632172635108
40
0.799632172635108
40
0.839613781266864
40
0.839613781266864
40
0.879595389898619
40
0.879595389898619
40
0.919576998530375
40
0.919576998530375
40
0.95955860716213
40
0.95955860716213
40
0.999540215793886
40
0.999540215793886
40
1
40
1
40
1
40
1
41
1
10
29.3639000000001
20
-0.296776780625578
30
0
41
1
10
29.9000085392897
20
-0.550137047579881
30
0
41
1
10
30.4348028891094
20
-0.800523114873158
30
0
41
1
10
31.2369626957134
20
-1.16730415147947
30
0
41
1
10
31.5043416633065
20
-1.28815556963332
30
0
41
1
10
32.0396178846997
20
-1.52634822759913
30
0
41
1
10
32.3072004508593
20
-1.64462480437351
30
0
41
1
10
32.8437592890664
20
-1.873947343075
30
0
41
1
10
33.1114317744148
20
-1.98614889643474
30
0
41
1
10
33.6465574721864
20
-2.20408592794396
30
0
41
1
10
33.9139993524658
20
-2.30988596168615
30
0
41
1
10
34.4484850001336
20
-2.51561718868515
30
0
41
1
10
34.7159042665167
20
-2.61496338442171
30
0
41
1
10
35.2507962717131
20
-2.80596066402296
30
0
41
1
10
35.5185809108814
20
-2.89717244314122
30
0
41
1
10
36.054792231311
20
-3.07195681453669
30
0
41
1
10
36.3227484669105
20
-3.15560083069346
30
0
41
1
10
36.8579749140508
20
-3.31316076176665
30
0
41
1
10
37.1251207442597
20
-3.38734026955942
30
0
41
1
10
37.6598021413835
20
-3.52453527141262
30
0
41
1
10
37.9269405211144
20
-3.58812074275443
30
0
41
1
10
38.4617362139518
20
-3.70537631672582
30
0
41
1
10
38.7293292299551
20
-3.7594298289635
30
0
41
1
10
39.2649437473954
20
-3.85658493978772
30
0
41
1
10
39.533276240414
20
-3.89922266477842
30
0
41
1
10
40.0683523042524
20
-3.97403113802179
30
0
41
1
10
40.335698533266
20
-4.00499823814454
30
0
41
1
10
41.1373802610136
20
-4.08050213111721
30
0
41
1
10
41.6714476767352
20
-4.10785882318567
30
0
41
1
10
42.4745504070895
20
-4.11763917402271
30
0
41
1
10
42.742667571651
20
-4.11353214801957
30
0
41
1
10
43.277903466215
20
-4.09344257656258
30
0
41
1
10
43.5453035681505
20
-4.07747826385773
30
0
41
1
10
44.0795417109322
20
-4.03498145235966
30
0
41
1
10
44.3467284204772
20
-4.00903782978389
30
0
41
1
10
44.8809113499722
20
-3.94407267059501
30
0
41
1
10
45.148253274419
20
-3.90516784639132
30
0
41
1
10
45.6834228856156
20
-3.81646836693915
30
0
41
1
10
45.9515251077152
20
-3.7664957863733
30
0
41
1
10
46.4869587257448
20
-3.65715503639461
30
0
41
1
10
46.754109395968
20
-3.59761499700522
30
0
41
1
10
47.2885615155353
20
-3.46724452041889
30
0
41
1
10
47.5554794602909
20
-3.3963495502806
30
0
41
1
10
48.0896997994076
20
-3.24564771940729
30
0
41
1
10
48.3569736647967
20
-3.16576877660029
30
0
41
1
10
48.8916089920755
20
-2.99743041804763
30
0
41
1
10
49.1596666325503
20
-2.90913215604374
30
0
41
1
10
49.430394933105
20
-2.81495618916162
30
0
41
1
10
49.4334728466387
20
-2.81388501425505
30
0
41
1
10
49.4365507234738
20
-2.81281336455328
30
0
0
SPLINE
5
EE
100
AcDbEntity
8
1
62
256
6
ByLayer
370
18
48
1
60
0
100
AcDbSpline
70
4
71
3
72
14
73
10
40
0
40
0
40
0
40
0
40
0.25
40
0.25
40
0.5
40
0.5
40
0.75
40
0.75
40
1
40
1
40
1
40
1
41
1
10
23.4329821290106
20
3.07825346499345
30
0
41
1
10
23.8022973989118
20
2.87192252032139
30
0
41
1
10
24.1689488655436
20
2.65710495811382
30
0
41
1
10
24.9014578350888
20
2.21680625995293
30
0
41
1
10
25.2668650072043
20
1.99073041333844
30
0
41
1
10
25.9973843541621
20
1.52876323552843
30
0
41
1
10
26.3627723015469
20
1.29327435545193
30
0
41
1
10
27.0949280030548
20
0.814865290824798
30
0
41
1
10
27.4621997538706
20
0.572712759254614
30
0
41
1
10
27.8309073795172
20
0.327870877163491
30
0
0
SPLINE
5
EF
100
AcDbEntity
8
1
62
256
6
ByLayer
370
18
48
1
60
0
100
AcDbSpline
70
4
71
3
72
12
73
8
40
0
40
0
40
0
40
0
40
0.5
40
0.5
40
0.75
40
0.75
40
1
40
1
40
1
40
1
41
1
10
56.0953351610449
20
1.41951166792779
30
0
41
1
10
56.1639202948966
20
1.45963947876507
30
0
41
1
10
56.2290855225705
20
1.50581088111386
30
0
41
1
10
56.3130689144722
20
1.59053342588268
30
0
41
1
10
56.3382313031884
20
1.62092993291645
30
0
41
1
10
56.3809470226892
20
1.68751464779135
30
0
41
1
10
56.398367737723
20
1.72395403539241
30
0
41
1
10
56.4100088549375
20
1.76166292146956
30
0
0
SPLINE
5
F0
100
AcDbEntity
8
1
62
256
6
ByLayer
370
18
48
1
60
0
100
AcDbSpline
70
4
71
3
72
8
73
4
40
0
40
0
40
0
40
0
40
1
40
1
40
1
40
1
41
1
10
56.791474046995
20
0.663589837832689
30
0
41
1
10
56.6637220482783
20
1.02940814113492
30
0
41
1
10
56.5365663113981
20
1.39543227008005
30
0
41
1
10
56.4100088549374
20
1.76166292146962
30
0
0
SPLINE
5
F1
100
AcDbEntity
8
1
62
256
6
ByLayer
370
18
48
1
60
0
100
AcDbSpline
70
4
71
3
72
14
73
10
40
0
40
0
40
0
40
0
40
0.25
40
0.25
40
0.5
40
0.5
40
0.75
40
0.75
40
1
40
1
40
1
40
1
41
1
10
27.5305469411252
20
-5.53098530141443
30
0
41
1
10
26.859333066035
20
-5.45035263277819
30
0
41
1
10
26.1879016494069
20
-5.35060306502717
30
0
41
1
10
24.844509199314
20
-5.11832362942963
30
0
41
1
10
24.1725501762731
20
-4.98576040606832
30
0
41
1
10
22.8282973217042
20
-4.69000982164684
30
0
41
1
10
22.1560022049627
20
-4.52682350753071
30
0
41
1
10
20.8115406062792
20
-4.16928618051685
30
0
41
1
10
20.1393685123909
20
-3.9749743966606
30
0
41
1
10
19.4676749206194
20
-3.76318124222553
30
0
0
SPLINE
5
F2
100
AcDbEntity
8
1
62
256
6
ByLayer
370
18
48
1
60
0
100
AcDbSpline
70
4
71
3
72
56
73
52
40
0
40
0
40
0
40
0
40
0.0312499999999997
40
0.0312499999999997
40
0.0624999999999993
40
0.0624999999999993
40
0.093749999999999
40
0.093749999999999
40
0.124999999999999
40
0.124999999999999
40
0.187499999999998
40
0.187499999999998
40
0.218749999999998
40
0.218749999999998
40
0.249999999999997
40
0.249999999999997
40
0.312499999999997
40
0.312499999999997
40
0.343749999999996
40
0.343749999999996
40
0.374999999999996
40
0.374999999999996
40
0.437499999999996
40
0.437499999999996
40
0.468749999999995
40
0.468749999999995
40
0.499999999999995
40
0.499999999999995
40
0.562499999999994
40
0.562499999999994
40
0.593749999999995
40
0.593749999999995
40
0.624999999999995
40
0.624999999999995
40
0.656249999999995
40
0.656249999999995
40
0.687499999999996
40
0.687499999999996
40
0.718749999999996
40
0.718749999999996
40
0.749999999999996
40
0.749999999999996
40
0.812499999999998
40
0.812499999999998
40
0.843749999999998
40
0.843749999999998
40
0.874999999999999
40
0.874999999999999
40
0.937499999999999
40
0.937499999999999
40
1
40
1
40
1
40
1
41
1
10
55.488033108198
20
-4.20511056534102
30
0
41
1
10
55.2157290394439
20
-4.1852390640276
30
0
41
1
10
54.944047011406
20
-4.15909193636691
30
0
41
1
10
54.4006246878138
20
-4.09482407765623
30
0
41
1
10
54.1290693582458
20
-4.05664612094438
30
0
41
1
10
53.5860360197875
20
-3.96830381775669
30
0
41
1
10
53.3142108950528
20
-3.91839496395505
30
0
41
1
10
52.7704414782568
20
-3.80668096901826
30
0
41
1
10
52.4977720735528
20
-3.74515904495181
30
0
41
1
10
51.6809003485448
20
-3.54402969770246
30
0
41
1
10
51.1379637997903
20
-3.38850935487281
30
0
41
1
10
50.322819837236
20
-3.12728801015729
30
0
41
1
10
50.0512787657898
20
-3.03514523283414
30
0
41
1
10
49.5071076720418
20
-2.84272718573629
30
0
41
1
10
49.2345813062742
20
-2.74178220975551
30
0
41
1
10
48.4174070534453
20
-2.42769176559108
30
0
41
1
10
47.8739962506357
20
-2.20383707618333
30
0
41
1
10
47.0589810177459
20
-1.84989412974218
30
0
41
1
10
46.7871373152461
20
-1.72922869367935
30
0
41
1
10
46.2430027702234
20
-1.48271742931922
30
0
41
1
10
45.9704209696525
20
-1.35678797044272
30
0
41
1
10
45.1527825921839
20
-0.974332040402743
30
0
41
1
10
44.6096264151203
20
-0.712406868051659
30
0
41
1
10
43.7941314303368
20
-0.316553053010125
30
0
41
1
10
43.5222566459825
20
-0.183939407723017
30
0
41
1
10
42.9781242561335
20
0.0820129615215421
30
0
41
1
10
42.7052931332537
20
0.21478721909989
30
0
41
1
10
41.8877096005552
20
0.61283688121668
30
0
41
1
10
41.3440293841586
20
0.87454173016846
30
0
41
1
10
40.528377801162
20
1.25727315755185
30
0
41
1
10
40.256562492283
20
1.38338552233233
30
0
41
1
10
39.7120642426501
20
1.63070601546079
30
0
41
1
10
39.439550162197
20
1.75276083916285
30
0
41
1
10
38.8940199154498
20
1.99027423814482
30
0
41
1
10
38.6218301456592
20
2.10631373299171
30
0
41
1
10
38.0776890365289
20
2.33132261864887
30
0
41
1
10
37.8056729628269
20
2.44019954002093
30
0
41
1
10
37.2619554835411
20
2.65104657393439
30
0
41
1
10
36.9898072757509
20
2.75228529410322
30
0
41
1
10
36.4454029586455
20
2.94713465156033
30
0
41
1
10
36.1726125696566
20
3.04027443210291
30
0
41
1
10
35.3542677681943
20
3.3060478388615
30
0
41
1
10
34.8105592560021
20
3.46408462008435
30
0
41
1
10
33.9942943886245
20
3.66855088590435
30
0
41
1
10
33.7224108239545
20
3.73161146220971
30
0
41
1
10
33.1776811246677
20
3.84614289988841
30
0
41
1
10
32.9049002012577
20
3.89789885960144
30
0
41
1
10
32.086469848655
20
4.0356272550398
30
0
41
1
10
31.5422316596359
20
4.10335874397751
30
0
41
1
10
30.4541945672896
20
4.19000365441974
30
0
41
1
10
29.9100984190744
20
4.20870152785452
30
0
41
1
10
29.3639000000001
20
4.20232934641189
30
0
0
SPLINE
5
F3
100
AcDbEntity
8
1
62
256
6
ByLayer
370
18
48
1
60
0
100
AcDbSpline
70
4
71
3
72
8
73
4
40
0
40
0
40
0
40
0
40
1
40
1
40
1
40
1
41
1
10
56.9997603403429
20
0.0850941485240924
30
0
41
1
10
57.0000798865351
20
0.0283647161747069
30
0
41
1
10
57.0000798865351
20
-0.0283647161747069
30
0
41
1
10
56.9997603403429
20
-0.0850941485241208
30
0
0
SPLINE
5
F4
100
AcDbEntity
8
1
62
256
6
ByLayer
370
18
48
1
60
0
100
AcDbSpline
70
4
71
3
72
23
73
19
40
0
40
0
40
0
40
0
40
0.0752080338189254
40
0.139883678113927
40
0.196629340844093
40
0.246380338110823
40
0.289170844012123
40
0.34334592829581
40
0.409262258973683
40
0.483600835959113
40
0.538705919168304
40
0.584097573634046
40
0.626796534762177
40
0.677255997442495
40
0.736019010269191
40
0.808639728687437
40
0.898542600191974
40
1
40
1
40
1
40
1
41
1
10
30.9281995778767
20
-4.09581698405131
30
0
41
1
10
31.2061784315713
20
-4.09422174199554
30
0
41
1
10
31.7269081804178
20
-4.09284531118627
30
0
41
1
10
32.4856538790021
20
-4.09061566897549
30
0
41
1
10
33.1255343501508
20
-4.09909573850911
30
0
41
1
10
33.6865563042579
20
-4.10035053454911
30
0
41
1
10
34.2469128391515
20
-4.10080672047997
30
0
41
1
10
34.8692496652756
20
-4.1025038459743
30
0
41
1
10
35.6120815594366
20
-4.10308764534022
30
0
41
1
10
36.3584405914836
20
-4.10422636619097
30
0
41
1
10
37.0264204826486
20
-4.10619748970763
30
0
41
1
10
37.5718035980255
20
-4.1064913597034
30
0
41
1
10
38.1006817402512
20
-4.10604066790617
30
0
41
1
10
38.6815962334537
20
-4.10809223048963
30
0
41
1
10
39.3690618871922
20
-4.11016446995598
30
0
41
1
10
40.2144104876269
20
-4.11112939746894
30
0
41
1
10
41.2233269615209
20
-4.11079425947392
30
0
41
1
10
41.9531171891901
20
-4.11353590749928
30
0
41
1
10
42.3397797647076
20
-4.11544632845101
30
0
0
SPLINE
5
F5
100
AcDbEntity
8
1
62
256
6
ByLayer
370
18
48
1
60
0
100
AcDbSpline
70
4
71
3
72
10
73
6
40
0
40
0
40
0
40
0
40
0.346439568923062
40
0.746734115113687
40
1
40
1
40
1
40
1
41
1
10
42.6040130638781
20
0.0788472693427025
30
0
41
1
10
42.7738003707051
20
0.0386261308210578
30
0
41
1
10
43.1390005245679
20
-0.0645441175710744
30
0
41
1
10
43.6262629069796
20
-0.241707847921532
30
0
41
1
10
43.9430046041591
20
-0.393826587576314
30
0
41
1
10
44.0655290956031
20
-0.457431281535946
30
0
0
SPLINE
5
F6
100
AcDbEntity
8
1
62
256
6
ByLayer
370
18
48
1
60
0
100
AcDbSpline
70
4
71
3
72
21
73
17
40
0
40
0
40
0
40
0
40
0.128708732570401
40
0.23933120758734
40
0.325628600437648
40
0.395959901876505
40
0.457344089334437
40
0.515204279883294
40
0.587672234925138
40
0.668549953125256
40
0.741062749005391
40
0.801069008065767
40
0.861438515939942
40
0.91755609864072
40
0.981322394557361
40
1
40
1
40
1
40
1
41
1
10
42.338946650973
20
4.11545712957474
30
0
41
1
10
41.9079512745378
20
4.11344239797504
30
0
41
1
10
41.1064271635634
20
4.11063029828213
30
0
41
1
10
40.0112692252386
20
4.11084687435516
30
0
41
1
10
39.1186749940621
20
4.11016771982841
30
0
41
1
10
38.3913089936278
20
4.10653255801174
30
0
41
1
10
37.7533220993397
20
4.10618985939928
30
0
41
1
10
37.112798735479
20
4.10651283090709
30
0
41
1
10
36.4036240357329
20
4.10431081298239
30
0
41
1
10
35.6456474897924
20
4.10309318986091
30
0
41
1
10
34.9292484498756
20
4.10262785625446
30
0
41
1
10
34.282077610147
20
4.10084014343911
30
0
41
1
10
33.68887395719
20
4.10042027063039
30
0
41
1
10
33.0947933647759
20
4.09880551219459
30
0
41
1
10
32.6386792199656
20
4.09281143888563
30
0
41
1
10
32.3625616844977
20
4.09196640878076
30
0
41
1
10
32.2998935776735
20
4.09187703741461
30
0
0
SPLINE
5
F7
100
AcDbEntity
8
1
62
256
6
ByLayer
370
18
48
1
60
0
100
AcDbSpline
70
4
71
1
72
4
73
2
40
0
40
0
40
1
40
1
41
1
10
55.0719243716455
20
0.41994057428704
30
0
41
1
10
55.0296970250456
20
0.43808890828646
30
0
0
SPLINE
5
F8
100
AcDbEntity
8
1
62
256
6
ByLayer
370
18
48
1
60
0
100
AcDbSpline
70
4
71
3
72
11
73
7
40
0
40
0
40
0
40
0
40
0.202430871573531
40
0.436259268446069
40
0.701936341389896
40
1
40
1
40
1
40
1
41
1
10
29.2468886580532
20
-0.0785848520079355
30
0
41
1
10
29.0767949927743
20
-0.0382714332563694
30
0
41
1
10
28.7110235874283
20
0.0640754801537184
30
0
41
1
10
28.1253458212551
20
0.283030187169942
30
0
41
1
10
27.4632851213639
20
0.600023163740133
30
0
41
1
10
26.9982354400738
20
0.876905537728334
30
0
41
1
10
26.753148812543
20
1.03820914186829
30
0
0
LINE
5
7D
100
AcDbEntity
8
SK1
62
256
6
ByLayer
370
18
48
1
60
0
100
AcDbLine
10
0
20
-6
30
0
11
0
21
6
31
0
39
0
210
0
220
0
230
1
0
LINE
5
7F
100
AcDbEntity
8
SK1
62
256
6
ByLayer
370
18
48
1
60
0
100
AcDbLine
10
-45
20
3
30
0
11
-45
21
-3
31
0
39
0
210
0
220
0
230
1
0
LINE
5
80
100
AcDbEntity
8
SK1
62
256
6
ByLayer
370
18
48
1
60
0
100
AcDbLine
10
-43.267949
20
6
30
0
11
-43.267949
21
-6
31
0
39
0
210
0
220
0
230
1
0
LINE
5
81
100
AcDbEntity
8
1
62
256
6
ByLayer
370
18
48
1
60
0
100
AcDbLine
10
54.9395
20
-2.145764
30
0
11
56.304483
21
-1.049919
31
0
39
0
210
0
220
0
230
1
0
LINE
5
82
100
AcDbEntity
8
1
62
256
6
ByLayer
370
18
48
1
60
0
100
AcDbLine
10
29.3639
20
-4.167931
30
0
11
29.3639
21
-4.202329
31
0
39
0
210
0
220
0
230
1
0
LINE
5
83
100
AcDbEntity
8
1
62
256
6
ByLayer
370
18
48
1
60
0
100
AcDbLine
10
29.3639
20
-0.316372
30
0
11
29.3639
21
-4.167931
31
0
39
0
210
0
220
0
230
1
0
LINE
5
84
100
AcDbEntity
8
1
62
256
6
ByLayer
370
13
48
1
60
0
100
AcDbLine
10
0.443706
20
5.875
30
0
11
0.443706
21
-5.875
31
0
39
0
210
0
220
0
230
1
0
LINE
5
85
100
AcDbEntity
8
1
62
256
6
ByLayer
370
18
48
1
60
0
100
AcDbLine
10
27.830907
20
0.327871
30
0
11
27.830907
21
-5.582312
31
0
39
0
210
0
220
0
230
1
0
LINE
5
86
100
AcDbEntity
8
1
62
256
6
ByLayer
370
18
48
1
60
0
100
AcDbLine
10
0
20
-6
30
0
11
0
21
6
31
0
39
0
210
0
220
0
230
1
0
LINE
5
87
100
AcDbEntity
8
1
62
256
6
ByLayer
370
13
48
1
60
0
100
AcDbLine
10
0.887412
20
5.75
30
0
11
0.887412
21
-5.75
31
0
39
0
210
0
220
0
230
1
0
LINE
5
88
100
AcDbEntity
8
80
62
256
6
ByLayer
370
18
48
1
60
0
100
AcDbLine
10
0
20
0
30
0
11
-5
21
0
31
0
39
0
210
0
220
0
230
1
0
LINE
5
89
100
AcDbEntity
8
SK4
62
256
6
ByLayer
370
18
48
0.05
60
0
100
AcDbLine
10
62
20
0
30
0
11
-50
21
0
31
0
39
0
210
0
220
0
230
1
0
LINE
5
8B
100
AcDbEntity
8
4
62
256
6
ByLayer
370
18
48
0.05
60
0
100
AcDbLine
10
57
20
0
30
0
11
0
21
0
31
0
39
0
210
0
220
0
230
1
0
LINE
5
8D
100
AcDbEntity
8
SK1
62
256
6
ByLayer
370
18
48
1
60
0
100
AcDbLine
10
-45
20
-3
30
0
11
-43.267949
21
-6
31
0
39
0
210
0
220
0
230
1
0
LINE
5
8E
100
AcDbEntity
8
SK1
62
256
6
ByLayer
370
18
48
1
60
0
100
AcDbLine
10
-43.267949
20
6
30
0
11
-45
21
3
31
0
39
0
210
0
220
0
230
1
0
LINE
5
8F
100
AcDbEntity
8
SK1
62
256
6
ByLayer
370
18
48
1
60
0
100
AcDbLine
10
-43.267949
20
-6
30
0
11
0
21
-6
31
0
39
0
210
0
220
0
230
1
0
LINE
5
90
100
AcDbEntity
8
SK1
62
256
6
ByLayer
370
18
48
1
60
0
100
AcDbLine
10
0
20
6
30
0
11
-43.267949
21
6
31
0
39
0
210
0
220
0
230
1
0
LINE
5
91
100
AcDbEntity
8
1
62
256
6
ByLayer
370
18
48
1
60
0
100
AcDbLine
10
29.539405
20
-4.203516
30
0
11
30.486389
21
-4.20522
31
0
39
0
210
0
220
0
230
1
0
LINE
5
92
100
AcDbEntity
8
1
62
256
6
ByLayer
370
18
48
1
60
0
100
AcDbLine
10
30.486389
20
4.20522
30
0
11
29.539661
21
4.203516
31
0
39
0
210
0
220
0
230
1
0
LINE
5
93
100
AcDbEntity
8
1
62
256
6
ByLayer
370
18
48
1
60
0
100
AcDbLine
10
0.887412
20
-5.75
30
0
11
14.293831
21
-5.75
31
0
39
0
210
0
220
0
230
1
0
LINE
5
94
100
AcDbEntity
8
1
62
256
6
ByLayer
370
18
48
1
60
0
100
AcDbLine
10
14.293831
20
5.75
30
0
11
0.887412
21
5.75
31
0
39
0
210
0
220
0
230
1
0
LINE
5
95
100
AcDbEntity
8
81
62
256
6
ByLayer
370
18
48
1
60
0
100
AcDbLine
10
57
20
0
30
0
11
62
21
0
31
0
39
0
210
0
220
0
230
1
0
LINE
5
96
100
AcDbEntity
8
2
62
256
6
ByLayer
370
13
48
1
60
0
100
AcDbLine
10
79.236431
20
-5.75
30
0
11
79.236431
21
33.07108
31
0
39
0
210
0
220
0
230
1
0
LINE
5
98
100
AcDbEntity
8
2
62
256
6
ByLayer
370
13
48
1
60
0
100
AcDbLine
10
29.4514
20
5.75
30
0
11
81.236431
21
5.75
31
0
39
0
210
0
220
0
230
1
0
LINE
5
99
100
AcDbEntity
8
2
62
256
6
ByLayer
370
13
48
1
60
0
100
AcDbLine
10
29.4514
20
-5.75
30
0
11
81.236431
21
-5.75
31
0
39
0
210
0
220
0
230
1
0
LINE
5
9A
100
AcDbEntity
8
1
62
256
6
ByLayer
370
18
48
1
60
1
100
AcDbLine
10
79.236431
20
5.75
30
0
11
79.697214
21
2.250002
31
0
39
0
210
0
220
0
230
1
0
LINE
5
9B
100
AcDbEntity
8
1
62
256
6
ByLayer
370
18
48
1
60
1
100
AcDbLine
10
79.697214
20
2.250002
30
0
11
78.775647
21
2.249998
31
0
39
0
210
0
220
0
230
1
0
LINE
5
9C
100
AcDbEntity
8
1
62
256
6
ByLayer
370
18
48
1
60
1
100
AcDbLine
10
78.775647
20
2.249998
30
0
11
79.236431
21
5.75
31
0
39
0
210
0
220
0
230
1
0
LINE
5
9D
100
AcDbEntity
8
1
62
256
6
ByLayer
370
18
48
1
60
1
100
AcDbLine
10
79.236431
20
-5.75
30
0
11
78.775647
21
-2.250002
31
0
39
0
210
0
220
0
230
1
0
LINE
5
9E
100
AcDbEntity
8
1
62
256
6
ByLayer
370
18
48
1
60
1
100
AcDbLine
10
78.775647
20
-2.250002
30
0
11
79.697214
21
-2.249998
31
0
39
0
210
0
220
0
230
1
0
LINE
5
9F
100
AcDbEntity
8
1
62
256
6
ByLayer
370
18
48
1
60
1
100
AcDbLine
10
79.697214
20
-2.249998
30
0
11
79.236431
21
-5.75
31
0
39
0
210
0
220
0
230
1
0
LINE
5
A0
100
AcDbEntity
8
SK2
62
256
6
ByLayer
370
13
48
1
60
0
100
AcDbLine
10
-53.625163
20
-6
30
0
11
-53.625163
21
36.857173
31
0
39
0
210
0
220
0
230
1
0
LINE
5
A2
100
AcDbEntity
8
SK2
62
256
6
ByLayer
370
13
48
1
60
0
100
AcDbLine
10
-46.5875
20
6
30
0
11
-55.625163
21
6
31
0
39
0
210
0
220
0
230
1
0
LINE
5
A3
100
AcDbEntity
8
SK2
62
256
6
ByLayer
370
13
48
1
60
0
100
AcDbLine
10
-46.5875
20
-6
30
0
11
-55.625163
21
-6
31
0
39
0
210
0
220
0
230
1
0
LINE
5
A4
100
AcDbEntity
8
1
62
256
6
ByLayer
370
18
48
1
60
1
100
AcDbLine
10
-53.625163
20
6
30
0
11
-53.164379
21
2.500002
31
0
39
0
210
0
220
0
230
1
0
LINE
5
A5
100
AcDbEntity
8
1
62
256
6
ByLayer
370
18
48
1
60
1
100
AcDbLine
10
-53.164379
20
2.500002
30
0
11
-54.085946
21
2.499998
31
0
39
0
210
0
220
0
230
1
0
LINE
5
A6
100
AcDbEntity
8
1
62
256
6
ByLayer
370
18
48
1
60
1
100
AcDbLine
10
-54.085946
20
2.499998
30
0
11
-53.625163
21
6
31
0
39
0
210
0
220
0
230
1
0
LINE
5
A7
100
AcDbEntity
8
1
62
256
6
ByLayer
370
18
48
1
60
1
100
AcDbLine
10
-53.625163
20
-6
30
0
11
-54.085946
21
-2.500002
31
0
39
0
210
0
220
0
230
1
0
LINE
5
A8
100
AcDbEntity
8
1
62
256
6
ByLayer
370
18
48
1
60
1
100
AcDbLine
10
-54.085946
20
-2.500002
30
0
11
-53.164379
21
-2.499998
31
0
39
0
210
0
220
0
230
1
0
LINE
5
A9
100
AcDbEntity
8
1
62
256
6
ByLayer
370
18
48
1
60
1
100
AcDbLine
10
-53.164379
20
-2.499998
30
0
11
-53.625163
21
-6
31
0
39
0
210
0
220
0
230
1
0
LINE
5
AA
100
AcDbEntity
8
2
62
256
6
ByLayer
370
13
48
1
60
0
100
AcDbLine
10
70.970081
20
-4.25
30
0
11
70.970081
21
32.71483
31
0
39
0
210
0
220
0
230
1
0
LINE
5
AB
100
AcDbEntity
8
2
62
256
6
ByLayer
370
13
48
1
60
0
100
AcDbLine
10
56.9514
20
4.25
30
0
11
72.970081
21
4.25
31
0
39
0
210
0
220
0
230
1
0
LINE
5
AC
100
AcDbEntity
8
2
62
256
6
ByLayer
370
13
48
1
60
0
100
AcDbLine
10
56.9514
20
-4.25
30
0
11
72.970081
21
-4.25
31
0
39
0
210
0
220
0
230
1
0
LINE
5
AD
100
AcDbEntity
8
1
62
256
6
ByLayer
370
18
48
1
60
1
100
AcDbLine
10
70.970081
20
4.25
30
0
11
71.430865
21
0.750002
31
0
39
0
210
0
220
0
230
1
0
LINE
5
AE
100
AcDbEntity
8
1
62
256
6
ByLayer
370
18
48
1
60
1
100
AcDbLine
10
71.430865
20
0.750002
30
0
11
70.509297
21
0.749998
31
0
39
0
210
0
220
0
230
1
0
LINE
5
AF
100
AcDbEntity
8
1
62
256
6
ByLayer
370
18
48
1
60
1
100
AcDbLine
10
70.509297
20
0.749998
30
0
11
70.970081
21
4.25
31
0
39
0
210
0
220
0
230
1
0
LINE
5
B0
100
AcDbEntity
8
1
62
256
6
ByLayer
370
18
48
1
60
1
100
AcDbLine
10
70.970081
20
-4.25
30
0
11
70.509297
21
-0.750002
31
0
39
0
210
0
220
0
230
1
0
LINE
5
B1
100
AcDbEntity
8
1
62
256
6
ByLayer
370
18
48
1
60
1
100
AcDbLine
10
70.509297
20
-0.750002
30
0
11
71.430865
21
-0.749998
31
0
39
0
210
0
220
0
230
1
0
LINE
5
B2
100
AcDbEntity
8
1
62
256
6
ByLayer
370
18
48
1
60
1
100
AcDbLine
10
71.430865
20
-0.749998
30
0
11
70.970081
21
-4.25
31
0
39
0
210
0
220
0
230
1
0
LINE
5
B3
100
AcDbEntity
8
SK2
62
256
6
ByLayer
370
13
48
1
60
0
100
AcDbLine
10
26.741368
20
-6.872532
30
0
11
18.358916
21
-15.254984
31
0
39
0
210
0
220
0
230
1
0
LINE
5
B4
100
AcDbEntity
8
SK2
62
256
6
ByLayer
370
13
48
1
60
0
100
AcDbLine
10
26.741368
20
6.872532
30
0
11
18.358916
21
15.254984
31
0
39
0
210
0
220
0
230
1
0
LINE
5
B5
100
AcDbEntity
8
1
62
256
6
ByLayer
370
18
48
1
60
1
100
AcDbLine
10
19.77313
20
-13.84077
30
0
11
17.070998
21
-11.569032
31
0
39
0
210
0
220
0
230
1
0
LINE
5
B6
100
AcDbEntity
8
1
62
256
6
ByLayer
370
18
48
1
60
1
100
AcDbLine
10
17.070998
20
-11.569032
30
0
11
17.751039
21
-10.947074
31
0
39
0
210
0
220
0
230
1
0
LINE
5
B7
100
AcDbEntity
8
1
62
256
6
ByLayer
370
18
48
1
60
1
100
AcDbLine
10
17.751039
20
-10.947074
30
0
11
19.77313
21
-13.84077
31
0
39
0
210
0
220
0
230
1
0
LINE
5
B8
100
AcDbEntity
8
1
62
256
6
ByLayer
370
18
48
1
60
1
100
AcDbLine
10
19.77313
20
13.84077
30
0
11
17.751041
21
10.947076
31
0
39
0
210
0
220
0
230
1
0
LINE
5
B9
100
AcDbEntity
8
1
62
256
6
ByLayer
370
18
48
1
60
1
100
AcDbLine
10
17.751041
20
10.947076
30
0
11
17.070996
21
11.569029
31
0
39
0
210
0
220
0
230
1
0
LINE
5
BA
100
AcDbEntity
8
1
62
256
6
ByLayer
370
18
48
1
60
1
100
AcDbLine
10
17.070996
20
11.569029
30
0
11
19.77313
21
13.84077
31
0
39
0
210
0
220
0
230
1
0
LINE
5
FF
100
AcDbEntity
8
1
62
256
6
ByLayer
370
18
48
1
60
1
100
AcDbLine
10
79.236431
20
5.75
30
0
11
79.697214
21
2.250002
31
0
39
0
210
0
220
0
230
1
0
LINE
5
100
100
AcDbEntity
8
1
62
256
6
ByLayer
370
18
48
1
60
1
100
AcDbLine
10
79.697214
20
2.250002
30
0
11
78.775647
21
2.249998
31
0
39
0
210
0
220
0
230
1
0
LINE
5
101
100
AcDbEntity
8
1
62
256
6
ByLayer
370
18
48
1
60
1
100
AcDbLine
10
78.775647
20
2.249998
30
0
11
79.236431
21
5.75
31
0
39
0
210
0
220
0
230
1
0
LINE
5
103
100
AcDbEntity
8
1
62
256
6
ByLayer
370
18
48
1
60
1
100
AcDbLine
10
79.236431
20
-5.75
30
0
11
78.775647
21
-2.250002
31
0
39
0
210
0
220
0
230
1
0
LINE
5
104
100
AcDbEntity
8
1
62
256
6
ByLayer
370
18
48
1
60
1
100
AcDbLine
10
78.775647
20
-2.250002
30
0
11
79.697214
21
-2.249998
31
0
39
0
210
0
220
0
230
1
0
LINE
5
105
100
AcDbEntity
8
1
62
256
6
ByLayer
370
18
48
1
60
1
100
AcDbLine
10
79.697214
20
-2.249998
30
0
11
79.236431
21
-5.75
31
0
39
0
210
0
220
0
230
1
0
LINE
5
109
100
AcDbEntity
8
1
62
256
6
ByLayer
370
18
48
1
60
1
100
AcDbLine
10
-53.625163
20
6
30
0
11
-53.164379
21
2.500002
31
0
39
0
210
0
220
0
230
1
0
LINE
5
10A
100
AcDbEntity
8
1
62
256
6
ByLayer
370
18
48
1
60
1
100
AcDbLine
10
-53.164379
20
2.500002
30
0
11
-54.085946
21
2.499998
31
0
39
0
210
0
220
0
230
1
0
LINE
5
10B
100
AcDbEntity
8
1
62
256
6
ByLayer
370
18
48
1
60
1
100
AcDbLine
10
-54.085946
20
2.499998
30
0
11
-53.625163
21
6
31
0
39
0
210
0
220
0
230
1
0
LINE
5
10D
100
AcDbEntity
8
1
62
256
6
ByLayer
370
18
48
1
60
1
100
AcDbLine
10
-53.625163
20
-6
30
0
11
-54.085946
21
-2.500002
31
0
39
0
210
0
220
0
230
1
0
LINE
5
10E
100
AcDbEntity
8
1
62
256
6
ByLayer
370
18
48
1
60
1
100
AcDbLine
10
-54.085946
20
-2.500002
30
0
11
-53.164379
21
-2.499998
31
0
39
0
210
0
220
0
230
1
0
LINE
5
10F
100
AcDbEntity
8
1
62
256
6
ByLayer
370
18
48
1
60
1
100
AcDbLine
10
-53.164379
20
-2.499998
30
0
11
-53.625163
21
-6
31
0
39
0
210
0
220
0
230
1
0
LINE
5
113
100
AcDbEntity
8
1
62
256
6
ByLayer
370
18
48
1
60
1
100
AcDbLine
10
70.970081
20
4.25
30
0
11
71.430865
21
0.750002
31
0
39
0
210
0
220
0
230
1
0
LINE
5
114
100
AcDbEntity
8
1
62
256
6
ByLayer
370
18
48
1
60
1
100
AcDbLine
10
71.430865
20
0.750002
30
0
11
70.509297
21
0.749998
31
0
39
0
210
0
220
0
230
1
0
LINE
5
115
100
AcDbEntity
8
1
62
256
6
ByLayer
370
18
48
1
60
1
100
AcDbLine
10
70.509297
20
0.749998
30
0
11
70.970081
21
4.25
31
0
39
0
210
0
220
0
230
1
0
LINE
5
117
100
AcDbEntity
8
1
62
256
6
ByLayer
370
18
48
1
60
1
100
AcDbLine
10
70.970081
20
-4.25
30
0
11
70.509297
21
-0.750002
31
0
39
0
210
0
220
0
230
1
0
LINE
5
118
100
AcDbEntity
8
1
62
256
6
ByLayer
370
18
48
1
60
1
100
AcDbLine
10
70.509297
20
-0.750002
30
0
11
71.430865
21
-0.749998
31
0
39
0
210
0
220
0
230
1
0
LINE
5
119
100
AcDbEntity
8
1
62
256
6
ByLayer
370
18
48
1
60
1
100
AcDbLine
10
71.430865
20
-0.749998
30
0
11
70.970081
21
-4.25
31
0
39
0
210
0
220
0
230
1
0
LINE
5
11C
100
AcDbEntity
8
1
62
256
6
ByLayer
370
18
48
1
60
1
100
AcDbLine
10
19.77313
20
-13.84077
30
0
11
17.070998
21
-11.569032
31
0
39
0
210
0
220
0
230
1
0
LINE
5
11D
100
AcDbEntity
8
1
62
256
6
ByLayer
370
18
48
1
60
1
100
AcDbLine
10
17.070998
20
-11.569032
30
0
11
17.751039
21
-10.947074
31
0
39
0
210
0
220
0
230
1
0
LINE
5
11E
100
AcDbEntity
8
1
62
256
6
ByLayer
370
18
48
1
60
1
100
AcDbLine
10
17.751039
20
-10.947074
30
0
11
19.77313
21
-13.84077
31
0
39
0
210
0
220
0
230
1
0
LINE
5
120
100
AcDbEntity
8
1
62
256
6
ByLayer
370
18
48
1
60
1
100
AcDbLine
10
19.77313
20
13.84077
30
0
11
17.751041
21
10.947076
31
0
39
0
210
0
220
0
230
1
0
LINE
5
121
100
AcDbEntity
8
1
62
256
6
ByLayer
370
18
48
1
60
1
100
AcDbLine
10
17.751041
20
10.947076
30
0
11
17.070996
21
11.569029
31
0
39
0
210
0
220
0
230
1
0
LINE
5
122
100
AcDbEntity
8
1
62
256
6
ByLayer
370
18
48
1
60
1
100
AcDbLine
10
17.070996
20
11.569029
30
0
11
19.77313
21
13.84077
31
0
39
0
210
0
220
0
230
1
0
MTEXT
5
F9
100
AcDbEntity
8
SK6
62
256
6
ByLayer
370
13
48
1
60
0
100
AcDbMText
10
-22.54646
20
36.790328
30
0
210
0
220
0
230
1
1
\W0.7492;860.2-0850-026A1-PM P1BM
40
3.5
41
0
44
1.084337
50
0
71
7
72
5
7
iso_b_vert
0
MTEXT
5
FD
100
AcDbEntity
8
2
62
256
6
ByLayer
370
18
48
1
60
0
100
AcDbMText
10
77.671797
20
16.497798
30
0
210
0
220
0
230
1
1
%%c
40
3.5
41
0
44
1.084337
50
90
71
7
72
5
7
iso_b_vert
0
MTEXT
5
FE
100
AcDbEntity
8
2
62
256
6
ByLayer
370
18
48
1
60
0
100
AcDbMText
10
77.671797
20
21.720454
30
0
210
0
220
0
230
1
1
\W0.6440;11,500
40
3.5
41
0
44
1.084337
50
90
71
7
72
5
7
iso_b_vert
0
MTEXT
5
107
100
AcDbEntity
8
SK2
62
256
6
ByLayer
370
18
48
1
60
0
100
AcDbMText
10
-55.189796
20
19.409024
30
0
210
0
220
0
230
1
1
%%c
40
3.5
41
0
44
1.084337
50
90
71
7
72
5
7
iso_b_vert
0
MTEXT
5
108
100
AcDbEntity
8
SK2
62
256
6
ByLayer
370
18
48
1
60
0
100
AcDbMText
10
-55.189796
20
24.63168
30
0
210
0
220
0
230
1
1
\W0.6930;12,000
40
3.5
41
0
44
1.084337
50
90
71
7
72
5
7
iso_b_vert
0
MTEXT
5
111
100
AcDbEntity
8
2
62
256
6
ByLayer
370
18
48
1
60
0
100
AcDbMText
10
69.405448
20
17.006747
30
0
210
0
220
0
230
1
1
%%c
40
3.5
41
0
44
1.084337
50
90
71
7
72
5
7
iso_b_vert
0
MTEXT
5
112
100
AcDbEntity
8
2
62
256
6
ByLayer
370
18
48
1
60
0
100
AcDbMText
10
69.405448
20
22.229403
30
0
210
0
220
0
230
1
1
\W0.7317;8,500
40
3.5
41
0
44
1.084337
50
90
71
7
72
5
7
iso_b_vert
0
MTEXT
5
11B
100
AcDbEntity
8
SK2
62
256
6
ByLayer
370
13
48
1
60
0
100
AcDbMText
10
9.220775
20
-0.291663
30
0
210
0
220
0
230
1
1
\W0.8181;90,0%%d
40
3.5
41
0
44
1.084337
50
0
71
7
72
5
7
iso_b_vert
0
HATCH
5
102
100
AcDbEntity
8
2
62
256
6
ByLayer
370
13
48
1
60
0
100
AcDbHatch
10
0
20
0
30
0
210
0
220
0
230
1
2
ANSI31
70
0
71
0
91
1
92
5
93
3
72
1
10
79.2364306046164
20
5.75
11
79.6972143461692
21
2.25000169255318
72
1
10
79.6972143461692
20
2.25000169255318
11
78.7756468630637
21
2.24999830744682
72
1
10
78.7756468630637
20
2.24999830744682
11
79.2364306046164
21
5.75
97
0
75
0
76
1
52
0
41
0.0062
77
0
78
1
53
45
43
0
44
0
45
-0.0139193969876572
46
0.0139193969876572
79
0
47
0
98
1
10
0
20
0
0
HATCH
5
106
100
AcDbEntity
8
2
62
256
6
ByLayer
370
13
48
1
60
0
100
AcDbHatch
10
0
20
0
30
0
210
0
220
0
230
1
2
ANSI31
70
0
71
0
91
1
92
5
93
3
72
1
10
79.2364306046164
20
-5.75
11
78.7756468630637
21
-2.25000169255318
72
1
10
78.7756468630637
20
-2.25000169255318
11
79.6972143461692
21
-2.24999830744682
72
1
10
79.6972143461692
20
-2.24999830744682
11
79.2364306046164
21
-5.75
97
0
75
0
76
1
52
0
41
0.0062
77
0
78
1
53
45
43
0
44
0
45
-0.0139193969876572
46
0.0139193969876572
79
0
47
0
98
1
10
0
20
0
0
HATCH
5
10C
100
AcDbEntity
8
SK2
62
256
6
ByLayer
370
13
48
1
60
0
100
AcDbHatch
10
0
20
0
30
0
210
0
220
0
230
1
2
ANSI31
70
0
71
0
91
1
92
5
93
3
72
1
10
-53.6251625675374
20
6
11
-53.1643788259847
21
2.50000169255318
72
1
10
-53.1643788259847
20
2.50000169255318
11
-54.0859463090902
21
2.49999830744682
72
1
10
-54.0859463090902
20
2.49999830744682
11
-53.6251625675374
21
6
97
0
75
0
76
1
52
0
41
0.0062
77
0
78
1
53
45
43
0
44
0
45
-0.0139193969876572
46
0.0139193969876572
79
0
47
0
98
1
10
0
20
0
0
HATCH
5
110
100
AcDbEntity
8
SK2
62
256
6
ByLayer
370
13
48
1
60
0
100
AcDbHatch
10
0
20
0
30
0
210
0
220
0
230
1
2
ANSI31
70
0
71
0
91
1
92
5
93
3
72
1
10
-53.6251625675374
20
-6
11
-54.0859463090902
21
-2.50000169255318
72
1
10
-54.0859463090902
20
-2.50000169255318
11
-53.1643788259847
21
-2.49999830744682
72
1
10
-53.1643788259847
20
-2.49999830744682
11
-53.6251625675374
21
-6
97
0
75
0
76
1
52
0
41
0.0062
77
0
78
1
53
45
43
0
44
0
45
-0.0139193969876572
46
0.0139193969876572
79
0
47
0
98
1
10
0
20
0
0
HATCH
5
116
100
AcDbEntity
8
2
62
256
6
ByLayer
370
13
48
1
60
0
100
AcDbHatch
10
0
20
0
30
0
210
0
220
0
230
1
2
ANSI31
70
0
71
0
91
1
92
5
93
3
72
1
10
70.9700811011614
20
4.25
11
71.4308648427142
21
0.750001692553184
72
1
10
71.4308648427142
20
0.750001692553184
11
70.5092973596087
21
0.749998307446816
72
1
10
70.5092973596087
20
0.749998307446816
11
70.9700811011614
21
4.25
97
0
75
0
76
1
52
0
41
0.0062
77
0
78
1
53
45
43
0
44
0
45
-0.0139193969876572
46
0.0139193969876572
79
0
47
0
98
1
10
0
20
0
0
HATCH
5
11A
100
AcDbEntity
8
2
62
256
6
ByLayer
370
13
48
1
60
0
100
AcDbHatch
10
0
20
0
30
0
210
0
220
0
230
1
2
ANSI31
70
0
71
0
91
1
92
5
93
3
72
1
10
70.9700811011614
20
-4.25
11
70.5092973596087
21
-0.750001692553184
72
1
10
70.5092973596087
20
-0.750001692553184
11
71.4308648427142
21
-0.749998307446816
72
1
10
71.4308648427142
20
-0.749998307446816
11
70.9700811011614
21
-4.25
97
0
75
0
76
1
52
0
41
0.0062
77
0
78
1
53
45
43
0
44
0
45
-0.0139193969876572
46
0.0139193969876572
79
0
47
0
98
1
10
0
20
0
0
HATCH
5
11F
100
AcDbEntity
8
SK2
62
256
6
ByLayer
370
13
48
1
60
0
100
AcDbHatch
10
0
20
0
30
0
210
0
220
0
230
1
2
ANSI31
70
0
71
0
91
1
92
5
93
3
72
1
10
19.7731295641349
20
-13.8407704358651
11
17.0709983875886
21
-11.5690316935476
72
1
10
17.0709983875886
20
-11.5690316935476
11
17.7510386043003
21
-10.947073552204
72
1
10
17.7510386043003
20
-10.947073552204
11
19.7731295641349
21
-13.8407704358651
97
0
75
0
76
1
52
0
41
0.0062
77
0
78
1
53
45
43
0
44
0
45
-0.0139193969876572
46
0.0139193969876572
79
0
47
0
98
1
10
0
20
0
0
HATCH
5
123
100
AcDbEntity
8
SK2
62
256
6
ByLayer
370
13
48
1
60
0
100
AcDbHatch
10
0
20
0
30
0
210
0
220
0
230
1
2
ANSI31
70
0
71
0
91
1
92
5
93
3
72
1
10
19.7731295641349
20
13.8407704358651
11
17.7510408888709
21
10.9470760501396
72
1
10
17.7510408888709
20
10.9470760501396
11
17.0709961030179
21
11.569029195612
72
1
10
17.0709961030179
20
11.569029195612
11
19.7731295641349
21
13.8407704358651
97
0
75
0
76
1
52
0
41
0.0062
77
0
78
1
53
45
43
0
44
0
45
-0.0139193969876572
46
0.0139193969876572
79
0
47
0
98
1
10
0
20
0
0
DIMENSION
5
125
100
AcDbEntity
8
2
62
256
6
ByLayer
370
13
48
1
60
0
100
AcDbDimension
2
_U0
10
55.3639
20
-17.052503
30
0
11
27.68195
21
-17.052503
31
0
70
32
71
1
72
1
41
1
210
0
220
0
230
1
3
Standard
100
AcDbAlignedDimension
13
0
23
0
33
0
14
55.3639
24
-4.25
34
0
50
0
100
AcDbRotatedDimension
1001
ACAD
1000
DSTYLE
1002
{
1070
   371
1070
    13
1070
   372
1070
    13
1070
   170
1070
     0
1070
   144
1040
1.0
1070
   277
1070
     2
1070
   278
1070
    44
1070
   146
1040
1.0
1070
   345
1005
16
1070
   347
1005
16
1070
   346
1005
16
1070
   344
1005
0
1070
   343
1005
0
1070
   172
1070
     1
1070
    76
1070
     0
1070
    75
1070
     0
1070
   282
1070
     0
1070
   281
1070
     0
1070
    71
1070
     0
1070
    74
1070
     0
1070
   279
1070
     0
1070
   173
1070
     1
1070
   340
1005
FA
1070
   271
1070
     2
1070
   272
1070
     2
1070
    77
1070
     1
1070
    73
1070
     1
1070
   171
1070
     3
1070
   274
1070
     4
1070
   177
1070
    35
1070
   176
1070
    35
1070
   178
1070
    35
1070
    48
1040
-0.1
1070
    41
1040
3.5
1070
   147
1040
1.75
1070
    42
1040
1.5875
1070
    44
1040
2.0
1070
   140
1040
3.5
1002
}
1001
ACAD_DSTYLE_DIM_LINETYPE
1070
   380
1005
16
1001
ACAD_DSTYLE_DIM_EXT1_LINETYPE
1070
   381
1005
16
1001
ACAD_DSTYLE_DIM_EXT2_LINETYPE
1070
   382
1005
16
0
DIMENSION
5
13E
100
AcDbEntity
8
SK2
62
256
6
ByLayer
370
13
48
1
60
0
100
AcDbDimension
2
_U1
10
57
20
-37.192985
30
0
11
6
21
-37.192985
31
0
70
32
71
1
72
1
41
1
210
0
220
0
230
1
3
Standard
100
AcDbAlignedDimension
13
-45
23
-6
33
0
14
57
24
0
34
0
50
0
100
AcDbRotatedDimension
1001
ACAD
1000
DSTYLE
1002
{
1070
   371
1070
    13
1070
   372
1070
    13
1070
   170
1070
     0
1070
   144
1040
1.0
1070
   277
1070
     2
1070
   278
1070
    44
1070
   146
1040
1.0
1070
   345
1005
16
1070
   347
1005
16
1070
   346
1005
16
1070
   344
1005
0
1070
   343
1005
0
1070
   172
1070
     1
1070
    76
1070
     0
1070
    75
1070
     0
1070
   282
1070
     0
1070
   281
1070
     0
1070
    71
1070
     0
1070
    74
1070
     0
1070
   279
1070
     0
1070
   173
1070
     1
1070
   340
1005
FA
1070
   271
1070
     2
1070
   272
1070
     2
1070
    77
1070
     1
1070
    73
1070
     1
1070
   171
1070
     3
1070
   274
1070
     4
1070
   177
1070
    35
1070
   176
1070
    35
1070
   178
1070
    35
1070
    48
1040
-0.1
1070
    41
1040
3.5
1070
   147
1040
1.75
1070
    42
1040
1.5875
1070
    44
1040
2.0
1070
   140
1040
3.5
1002
}
1001
ACAD_DSTYLE_DIM_LINETYPE
1070
   380
1005
16
1001
ACAD_DSTYLE_DIM_EXT1_LINETYPE
1070
   381
1005
16
1001
ACAD_DSTYLE_DIM_EXT2_LINETYPE
1070
   382
1005
16
0
DIMENSION
5
156
100
AcDbEntity
8
SK2
62
256
6
ByLayer
370
13
48
1
60
0
100
AcDbDimension
2
_U2
10
57
20
15.859119
30
0
11
42.43
21
15.859119
31
0
70
32
71
1
72
1
41
1
210
0
220
0
230
1
3
Standard
100
AcDbAlignedDimension
13
27.86
23
5.75
33
0
14
57
24
0
34
0
50
0
100
AcDbRotatedDimension
1001
ACAD
1000
DSTYLE
1002
{
1070
   371
1070
    13
1070
   372
1070
    13
1070
   170
1070
     0
1070
   144
1040
1.0
1070
   277
1070
     2
1070
   278
1070
    44
1070
   146
1040
1.0
1070
   345
1005
16
1070
   347
1005
16
1070
   346
1005
16
1070
   344
1005
0
1070
   343
1005
0
1070
   172
1070
     1
1070
    76
1070
     0
1070
    75
1070
     0
1070
   282
1070
     0
1070
   281
1070
     0
1070
    71
1070
     0
1070
    74
1070
     0
1070
   279
1070
     0
1070
   173
1070
     1
1070
   340
1005
FA
1070
   271
1070
     2
1070
   272
1070
     2
1070
    77
1070
     1
1070
    73
1070
     1
1070
   171
1070
     3
1070
   274
1070
     4
1070
   177
1070
    35
1070
   176
1070
    35
1070
   178
1070
    35
1070
    48
1040
-0.1
1070
    41
1040
3.5
1070
   147
1040
1.75
1070
    42
1040
1.5875
1070
    44
1040
2.0
1070
   140
1040
3.5
1002
}
1001
ACAD_DSTYLE_DIM_LINETYPE
1070
   380
1005
16
1001
ACAD_DSTYLE_DIM_EXT1_LINETYPE
1070
   381
1005
16
1001
ACAD_DSTYLE_DIM_EXT2_LINETYPE
1070
   382
1005
16
0
DIMENSION
5
16E
100
AcDbEntity
8
SK2
62
256
6
ByLayer
370
13
48
1
60
0
100
AcDbDimension
2
_U3
10
55.3639
20
-17.052503
30
0
11
74.416667
21
-17.052503
31
0
70
32
71
1
72
1
41
1
210
0
220
0
230
1
3
Standard
100
AcDbAlignedDimension
13
57
23
0
33
0
14
55.3639
24
-4.25
34
0
50
0
100
AcDbRotatedDimension
1001
ACAD
1000
DSTYLE
1002
{
1070
   371
1070
    13
1070
   372
1070
    13
1070
   170
1070
     0
1070
   144
1040
1.0
1070
   277
1070
     2
1070
   278
1070
    44
1070
   146
1040
1.0
1070
   345
1005
16
1070
   347
1005
16
1070
   346
1005
16
1070
   344
1005
0
1070
   343
1005
0
1070
   172
1070
     1
1070
    76
1070
     0
1070
    75
1070
     0
1070
   282
1070
     0
1070
   281
1070
     0
1070
    71
1070
     0
1070
    74
1070
     0
1070
   279
1070
     0
1070
   173
1070
     1
1070
   340
1005
FA
1070
   271
1070
     2
1070
   272
1070
     2
1070
    77
1070
     1
1070
    73
1070
     1
1070
   171
1070
     3
1070
   274
1070
     4
1070
   177
1070
    35
1070
   176
1070
    35
1070
   178
1070
    35
1070
    48
1040
-0.1
1070
    41
1040
3.5
1070
   147
1040
1.75
1070
    42
1040
1.5875
1070
    44
1040
2.0
1070
   140
1040
3.5
1002
}
1001
ACAD_DSTYLE_DIM_LINETYPE
1070
   380
1005
16
1001
ACAD_DSTYLE_DIM_EXT1_LINETYPE
1070
   381
1005
16
1001
ACAD_DSTYLE_DIM_EXT2_LINETYPE
1070
   382
1005
16
0
DIMENSION
5
188
100
AcDbEntity
8
SK2
62
256
6
ByLayer
370
13
48
1
60
0
100
AcDbDimension
2
_U4
10
29.3639
20
8.385371
30
0
11
42.3639
21
8.385371
31
0
70
32
71
1
72
1
41
1
210
0
220
0
230
1
3
Standard
100
AcDbAlignedDimension
13
55.3639
23
4.25
33
0
14
29.3639
24
4.25
34
0
50
0
100
AcDbRotatedDimension
1001
ACAD
1000
DSTYLE
1002
{
1070
   371
1070
    13
1070
   372
1070
    13
1070
   170
1070
     0
1070
   144
1040
1.0
1070
   277
1070
     2
1070
   278
1070
    44
1070
   146
1040
1.0
1070
   345
1005
16
1070
   347
1005
16
1070
   346
1005
16
1070
   344
1005
0
1070
   343
1005
0
1070
   172
1070
     1
1070
    76
1070
     0
1070
    75
1070
     0
1070
   282
1070
     0
1070
   281
1070
     0
1070
    71
1070
     0
1070
    74
1070
     0
1070
   279
1070
     0
1070
   173
1070
     1
1070
   340
1005
FA
1070
   271
1070
     2
1070
   272
1070
     2
1070
    77
1070
     1
1070
    73
1070
     1
1070
   171
1070
     3
1070
   274
1070
     4
1070
   177
1070
    35
1070
   176
1070
    35
1070
   178
1070
    35
1070
    48
1040
-0.1
1070
    41
1040
3.5
1070
   147
1040
1.75
1070
    42
1040
1.5875
1070
    44
1040
2.0
1070
   140
1040
3.5
1002
}
1001
ACAD_DSTYLE_DIM_LINETYPE
1070
   380
1005
16
1001
ACAD_DSTYLE_DIM_EXT1_LINETYPE
1070
   381
1005
16
1001
ACAD_DSTYLE_DIM_EXT2_LINETYPE
1070
   382
1005
16
0
DIMENSION
5
1A0
100
AcDbEntity
8
SK2
62
256
6
ByLayer
370
13
48
1
60
0
100
AcDbDimension
2
_U5
10
55.3639
20
-26.690158
30
0
11
5.18195
21
-26.690158
31
0
70
32
71
1
72
1
41
1
210
0
220
0
230
1
3
Standard
100
AcDbAlignedDimension
13
-45
23
-6
33
0
14
55.3639
24
-4.25
34
0
50
0
100
AcDbRotatedDimension
1001
ACAD
1000
DSTYLE
1002
{
1070
   371
1070
    13
1070
   372
1070
    13
1070
   170
1070
     0
1070
   144
1040
1.0
1070
   277
1070
     2
1070
   278
1070
    44
1070
   146
1040
1.0
1070
   345
1005
16
1070
   347
1005
16
1070
   346
1005
16
1070
   344
1005
0
1070
   343
1005
0
1070
   172
1070
     1
1070
    76
1070
     0
1070
    75
1070
     0
1070
   282
1070
     0
1070
   281
1070
     0
1070
    71
1070
     0
1070
    74
1070
     0
1070
   279
1070
     0
1070
   173
1070
     1
1070
   340
1005
FA
1070
   271
1070
     2
1070
   272
1070
     2
1070
    77
1070
     1
1070
    73
1070
     1
1070
   171
1070
     3
1070
   274
1070
     4
1070
   177
1070
    35
1070
   176
1070
    35
1070
   178
1070
    35
1070
    48
1040
-0.1
1070
    41
1040
3.5
1070
   147
1040
1.75
1070
    42
1040
1.5875
1070
    44
1040
2.0
1070
   140
1040
3.5
1002
}
1001
ACAD_DSTYLE_DIM_LINETYPE
1070
   380
1005
16
1001
ACAD_DSTYLE_DIM_EXT1_LINETYPE
1070
   381
1005
16
1001
ACAD_DSTYLE_DIM_EXT2_LINETYPE
1070
   382
1005
16
0
ENDSEC
0
SECTION
2
OBJECTS
0
DICTIONARY
5
228
330
0
100
AcDbDictionary
280
0
281
1
3
ACAD_GROUP
350
229
3
ACAD_MLINESTYLE
350
22a
0
DICTIONARY
5
229
330
0
100
AcDbDictionary
280
0
281
1
0
DICTIONARY
5
22a
330
0
100
AcDbDictionary
280
0
281
1
3
Standard
350
18
0
MLINESTYLE
5
18
330
22a
100
AcDbMlineStyle
2
Standard
70
0
3

62
256
51
90
52
90
71
2
49
-0.5
62
256
6
ByLayer
49
0.5
62
256
6
ByLayer
0
RASTERVARIABLES
5
216
330

100
AcDbRasterVariables
90
0
70
1
71
1
72
1
0
ENDSEC
0
EOF
