0
SECTION
2
HEADER
9
$ACADVER
1
AC1015
9
$DWGCODEPAGE
3
ANSI_1252
9
$HANDSEED
5
233
9
$ANGBASE
50
0
9
$ANGDIR
70
0
9
$ATTMODE
70
1
9
$AUNITS
70
0
9
$AUPREC
70
0
9
$CECOLOR
62
256
9
$CELTSCALE
40
1
9
$CELTYPE
6
ByLayer
9
$CELWEIGHT
370
18
9
$CLAYER
8
0
9
$CMLJUST
70
0
9
$CMLSCALE
40
1
9
$CMLSTYLE
2
Standard
9
$DIMSTYLE
2
Standard
9
$TEXTSIZE
40
0.2
9
$TEXTSTYLE
7
Standard
9
$LUNITS
70
2
9
$LUPREC
70
4
9
$EXTNAMES
290
1
9
$INSUNITS
70
4
9
$LTSCALE
40
1
9
$LWDISPLAY
290
1
9
$PDMODE
70
0
9
$PDSIZE
40
0
9
$PLINEGEN
70
0
0
ENDSEC
0
SECTION
2
CLASSES
0
CLASS
1
RASTERVARIABLES
2
AcDbRasterVariables
3
ISM
90
0
280
0
281
0
0
ENDSEC
0
SECTION
2
TABLES
0
TABLE
2
VPORT
5
229
100
AcDbSymbolTable
0
VPORT
5
1
100
AcDbSymbolTableRecord
100
AcDbViewportTableRecord
2
*Active
70
0
10
0
20
0
11
1
21
1
12
-1
22
1
13
0
23
0
14
0.5
24
0.5
15
10
25
10
16
0
26
0
36
1
17
0
27
0
37
0
0
ENDTAB
0
TABLE
2
LTYPE
5
22a
100
AcDbSymbolTable
0
LTYPE
5
14
100
AcDbSymbolTableRecord
100
AcDbLinetypeTableRecord
70
0
2
ByBlock
3

72
65
73
0
40
0
0
LTYPE
5
15
100
AcDbSymbolTableRecord
100
AcDbLinetypeTableRecord
70
0
2
ByLayer
3

72
65
73
0
40
0
0
LTYPE
5
16
100
AcDbSymbolTableRecord
100
AcDbLinetypeTableRecord
70
0
2
Continuous
3
Solid line
72
65
73
0
40
0
0
LTYPE
5
6E
100
AcDbSymbolTableRecord
100
AcDbLinetypeTableRecord
70
0
2
CENTER
3
____ _ ____ _ ____ _ ____
72
65
73
4
40
47.5
49
22
74
0
49
-8.5
74
0
49
8.5
74
0
49
-8.5
74
0
0
LTYPE
5
6F
100
AcDbSymbolTableRecord
100
AcDbLinetypeTableRecord
70
0
2
DASHED
3
__ __ __ __ __ __ __ __ __
72
65
73
2
40
25.72
49
12.86
74
0
49
-12.86
74
0
0
ENDTAB
0
TABLE
2
LAYER
5
22b
100
AcDbSymbolTable
0
LAYER
5
10
100
AcDbSymbolTableRecord
100
AcDbLayerTableRecord
2
0
70
0
62
7
6
Continuous
290
1
370
-3
390
0
0
LAYER
5
71
100
AcDbSymbolTableRecord
100
AcDbLayerTableRecord
2
80
70
0
62
-6
6
Continuous
290
1
370
-3
390
0
0
LAYER
5
73
100
AcDbSymbolTableRecord
100
AcDbLayerTableRecord
2
81
70
0
62
-3
6
Continuous
290
1
370
-3
390
0
0
LAYER
5
75
100
AcDbSymbolTableRecord
100
AcDbLayerTableRecord
2
1
70
0
62
4
6
Continuous
290
1
370
-3
390
0
0
LAYER
5
8C
100
AcDbSymbolTableRecord
100
AcDbLayerTableRecord
2
4
70
0
62
-2
6
CENTER
290
1
370
-3
390
0
0
LAYER
5
97
100
AcDbSymbolTableRecord
100
AcDbLayerTableRecord
2
2
70
0
62
7
6
Continuous
290
1
370
-3
390
0
0
LAYER
5
126
100
AcDbSymbolTableRecord
100
AcDbLayerTableRecord
2
Defpoints
70
0
62
7
6
Continuous
290
0
370
-3
390
0
0
LAYER
5
215
100
AcDbSymbolTableRecord
100
AcDbLayerTableRecord
2
SK1
70
0
62
4
6
Continuous
290
1
370
-3
390
0
0
LAYER
5
216
100
AcDbSymbolTableRecord
100
AcDbLayerTableRecord
2
SK4
70
0
62
2
6
CENTER
290
1
370
-3
390
0
0
LAYER
5
217
100
AcDbSymbolTableRecord
100
AcDbLayerTableRecord
2
SK2
70
0
62
7
6
Continuous
290
1
370
-3
390
0
0
LAYER
5
218
100
AcDbSymbolTableRecord
100
AcDbLayerTableRecord
2
SK6
70
0
62
5
6
Continuous
290
1
370
-3
390
0
0
ENDTAB
0
TABLE
2
STYLE
5
22c
100
AcDbSymbolTable
0
STYLE
5
11
100
AcDbSymbolTableRecord
100
AcDbTextStyleTableRecord
2
Standard
3
txt
70
0
71
0
40
0
41
1
42
0
50
0
0
STYLE
5
F8
100
AcDbSymbolTableRecord
100
AcDbTextStyleTableRecord
2
iso_b_vert
3
simplex.shx
70
0
71
0
40
0
41
1
42
0
50
0
0
STYLE
5
F9
100
AcDbSymbolTableRecord
100
AcDbTextStyleTableRecord
2
DWGDirectTextStyle
3
simplex
70
0
71
0
40
0
41
1
42
0
50
0
0
ENDTAB
0
TABLE
2
DIMSTYLE
5
22d
100
AcDbSymbolTable
100
AcDbDimStyleTable
0
DIMSTYLE
105
27
100
AcDbSymbolTableRecord
100
AcDbDimStyleTableRecord
2
Standard
70
0
3
<>
41
0.18
42
0.0625
44
0.18
140
0.18
147
0.09
73
0
74
0
77
1
271
2
275
0
278
52
280
0
340
11
0
ENDTAB
0
TABLE
2
VIEW
5
22e
100
AcDbSymbolTable
0
ENDTAB
0
TABLE
2
UCS
5
22f
100
AcDbSymbolTable
0
ENDTAB
0
TABLE
2
APPID
5
230
100
AcDbSymbolTable
0
APPID
5
12
100
AcDbSymbolTableRecord
100
AcDbRegAppTableRecord
2
ACAD
70
0
0
APPID
5
122
100
AcDbSymbolTableRecord
100
AcDbRegAppTableRecord
2
ACAD_DSTYLE_DIMBREAK
70
0
0
APPID
5
1D4
100
AcDbSymbolTableRecord
100
AcDbRegAppTableRecord
2
ACAD_DSTYLE_DIM_LINETYPE
70
0
0
APPID
5
1D5
100
AcDbSymbolTableRecord
100
AcDbRegAppTableRecord
2
ACAD_DSTYLE_DIM_EXT1_LINETYPE
70
0
0
APPID
5
1D6
100
AcDbSymbolTableRecord
100
AcDbRegAppTableRecord
2
ACAD_DSTYLE_DIM_EXT2_LINETYPE
70
0
0
APPID
5
211
100
AcDbSymbolTableRecord
100
AcDbRegAppTableRecord
2
ACAD_MLEADERVER
70
0
0
ENDTAB
0
TABLE
2
BLOCK_RECORD
5
231
100
AcDbSymbolTable
0
BLOCK_RECORD
5
1F
100
AcDbSymbolTableRecord
100
AcDbBlockTableRecord
2
*Model_Space
340
0
70
0
0
BLOCK_RECORD
5
1B
100
AcDbSymbolTableRecord
100
AcDbBlockTableRecord
2
*Paper_Space
340
0
70
0
0
BLOCK_RECORD
5
23
100
AcDbSymbolTableRecord
100
AcDbBlockTableRecord
2
*Paper_Space0
340
0
70
0
0
BLOCK_RECORD
5
127
100
AcDbSymbolTableRecord
100
AcDbBlockTableRecord
2
*D1
340
0
70
0
0
BLOCK_RECORD
5
133
100
AcDbSymbolTableRecord
100
AcDbBlockTableRecord
2
_U0
340
0
70
0
0
BLOCK_RECORD
5
13F
100
AcDbSymbolTableRecord
100
AcDbBlockTableRecord
2
*D3
340
0
70
0
0
BLOCK_RECORD
5
14B
100
AcDbSymbolTableRecord
100
AcDbBlockTableRecord
2
_U1
340
0
70
0
0
BLOCK_RECORD
5
157
100
AcDbSymbolTableRecord
100
AcDbBlockTableRecord
2
*D5
340
0
70
0
0
BLOCK_RECORD
5
163
100
AcDbSymbolTableRecord
100
AcDbBlockTableRecord
2
_U2
340
0
70
0
0
BLOCK_RECORD
5
16F
100
AcDbSymbolTableRecord
100
AcDbBlockTableRecord
2
*D7
340
0
70
0
0
BLOCK_RECORD
5
17D
100
AcDbSymbolTableRecord
100
AcDbBlockTableRecord
2
_U3
340
0
70
0
0
BLOCK_RECORD
5
189
100
AcDbSymbolTableRecord
100
AcDbBlockTableRecord
2
*D9
340
0
70
0
0
BLOCK_RECORD
5
195
100
AcDbSymbolTableRecord
100
AcDbBlockTableRecord
2
_U4
340
0
70
0
0
BLOCK_RECORD
5
1A1
100
AcDbSymbolTableRecord
100
AcDbBlockTableRecord
2
*D11
340
0
70
0
0
BLOCK_RECORD
5
1AD
100
AcDbSymbolTableRecord
100
AcDbBlockTableRecord
2
_U5
340
0
70
0
0
ENDTAB
0
ENDSEC
0
SECTION
2
BLOCKS
0
BLOCK
5
20
100
AcDbEntity
8
0
100
AcDbBlockBegin
2
*Model_Space
70
0
10
0
20
0
30
0
3
*Model_Space
0
ENDBLK
5
21
100
AcDbEntity
8
0
100
AcDbBlockEnd
0
BLOCK
5
1C
100
AcDbEntity
8
0
100
AcDbBlockBegin
2
*Paper_Space
70
0
10
0
20
0
30
0
3
*Paper_Space
0
ENDBLK
5
1D
100
AcDbEntity
8
0
100
AcDbBlockEnd
0
BLOCK
5
24
100
AcDbEntity
8
0
100
AcDbBlockBegin
2
*Paper_Space0
70
0
10
0
20
0
30
0
3
*Paper_Space0
0
ENDBLK
5
25
100
AcDbEntity
8
0
100
AcDbBlockEnd
0
BLOCK
5
128
100
AcDbEntity
8
0
100
AcDbBlockBegin
2
*D1
70
1
10
0
20
0
30
0
3
*D1
0
LINE
5
12A
100
AcDbEntity
8
0
62
256
6
ByLayer
370
-2
48
1
60
0
100
AcDbLine
10
0
20
-1.5875
30
0
11
0
21
-19.152503
31
0
39
0
210
0
220
0
230
1
0
LINE
5
12B
100
AcDbEntity
8
0
62
256
6
ByLayer
370
-2
48
1
60
0
100
AcDbLine
10
55.3283
20
-5.9375
30
0
11
55.3283
21
-19.152503
31
0
39
0
210
0
220
0
230
1
0
LINE
5
12C
100
AcDbEntity
8
0
62
256
6
ByLayer
370
-2
48
1
60
0
100
AcDbLine
10
3.5
20
-17.152503
30
0
11
51.8283
21
-17.152503
31
0
39
0
210
0
220
0
230
1
0
SOLID
5
12D
100
AcDbEntity
8
0
62
256
6
ByLayer
370
-1
48
1
60
0
100
AcDbTrace
10
3.5
20
-16.56917
30
0
11
3.5
21
-17.735837
31
0
12
0
22
-17.152503
32
0
13
0
23
-17.152503
33
0
39
0
210
0
220
0
230
1
0
SOLID
5
12E
100
AcDbEntity
8
0
62
256
6
ByLayer
370
-1
48
1
60
0
100
AcDbTrace
10
51.8283
20
-17.735837
30
0
11
51.8283
21
-16.56917
31
0
12
55.3283
22
-17.152503
32
0
13
55.3283
23
-17.152503
33
0
39
0
210
0
220
0
230
1
0
MTEXT
5
12F
100
AcDbEntity
8
0
62
256
6
ByLayer
370
18
48
1
60
0
100
AcDbMText
10
27.66415
20
-10.152503
30
0
210
0
220
0
230
1
1
\A1;55.33
40
3.5
41
0
44
1
50
0
71
5
72
5
7
iso_b_vert
0
POINT
5
130
100
AcDbEntity
8
Defpoints
62
0
6
ByLayer
370
-1
48
1
60
0
100
AcDbPoint
10
0
20
0
30
0
39
0
210
0
220
0
230
1
50
360
0
POINT
5
131
100
AcDbEntity
8
Defpoints
62
0
6
ByLayer
370
-1
48
1
60
0
100
AcDbPoint
10
55.3283
20
-4.35
30
0
39
0
210
0
220
0
230
1
50
360
0
POINT
5
132
100
AcDbEntity
8
Defpoints
62
0
6
ByLayer
370
-1
48
1
60
0
100
AcDbPoint
10
55.3283
20
-17.152503
30
0
39
0
210
0
220
0
230
1
50
360
0
ENDBLK
5
129
100
AcDbEntity
8
0
100
AcDbBlockEnd
0
BLOCK
5
13A
100
AcDbEntity
8
0
100
AcDbBlockBegin
2
_U0
70
0
10
0
20
0
30
0
3
_U0
0
MTEXT
5
134
100
AcDbEntity
8
2
62
256
6
ByLayer
370
13
48
1
60
0
100
AcDbMText
10
22.526851
20
-16.11987
30
0
210
0
220
0
230
1
1
\W0.7317;55,33
40
3.5
41
0
44
1.084337
50
0
71
7
72
5
7
iso_b_vert
0
LINE
5
135
100
AcDbEntity
8
2
62
256
6
ByLayer
370
13
48
1
60
0
100
AcDbLine
10
0
20
-1.5875
30
0
11
0
21
-19.152503
31
0
39
0
210
0
220
0
230
1
0
LINE
5
136
100
AcDbEntity
8
2
62
256
6
ByLayer
370
13
48
1
60
0
100
AcDbLine
10
55.3283
20
-5.9375
30
0
11
55.3283
21
-19.152503
31
0
39
0
210
0
220
0
230
1
0
LINE
5
137
100
AcDbEntity
8
2
62
256
6
ByLayer
370
13
48
1
60
0
100
AcDbLine
10
0
20
-17.152503
30
0
11
55.3283
21
-17.152503
31
0
39
0
210
0
220
0
230
1
0
SOLID
5
138
100
AcDbEntity
8
2
62
256
6
ByLayer
370
18
48
1
60
0
100
AcDbTrace
10
0
20
-17.152503
30
0
11
3.499998
21
-16.691719
31
0
12
3.500002
22
-17.613287
32
0
13
3.500002
23
-17.613287
33
0
39
0
210
0
220
0
230
1
0
SOLID
5
139
100
AcDbEntity
8
2
62
256
6
ByLayer
370
18
48
1
60
0
100
AcDbTrace
10
55.3283
20
-17.152503
30
0
11
51.828302
21
-17.613287
31
0
12
51.828298
22
-16.691719
32
0
13
51.828298
23
-16.691719
33
0
39
0
210
0
220
0
230
1
0
ENDBLK
5
13B
100
AcDbEntity
8
0
100
AcDbBlockEnd
0
BLOCK
5
140
100
AcDbEntity
8
0
100
AcDbBlockBegin
2
*D3
70
1
10
0
20
0
30
0
3
*D3
0
LINE
5
142
100
AcDbEntity
8
0
62
256
6
ByLayer
370
-2
48
1
60
0
100
AcDbLine
10
-45
20
-7.5875
30
0
11
-45
21
-39.192985
31
0
39
0
210
0
220
0
230
1
0
LINE
5
143
100
AcDbEntity
8
0
62
256
6
ByLayer
370
-2
48
1
60
0
100
AcDbLine
10
57
20
-1.5875
30
0
11
57
21
-39.192985
31
0
39
0
210
0
220
0
230
1
0
LINE
5
144
100
AcDbEntity
8
0
62
256
6
ByLayer
370
-2
48
1
60
0
100
AcDbLine
10
-41.5
20
-37.192985
30
0
11
53.5
21
-37.192985
31
0
39
0
210
0
220
0
230
1
0
SOLID
5
145
100
AcDbEntity
8
0
62
256
6
ByLayer
370
-1
48
1
60
0
100
AcDbTrace
10
-41.5
20
-36.609652
30
0
11
-41.5
21
-37.776319
31
0
12
-45
22
-37.192985
32
0
13
-45
23
-37.192985
33
0
39
0
210
0
220
0
230
1
0
SOLID
5
146
100
AcDbEntity
8
0
62
256
6
ByLayer
370
-1
48
1
60
0
100
AcDbTrace
10
53.5
20
-37.776319
30
0
11
53.5
21
-36.609652
31
0
12
57
22
-37.192985
32
0
13
57
23
-37.192985
33
0
39
0
210
0
220
0
230
1
0
MTEXT
5
147
100
AcDbEntity
8
0
62
256
6
ByLayer
370
18
48
1
60
0
100
AcDbMText
10
6
20
-30.192985
30
0
210
0
220
0
230
1
1
\A1;102.00
40
3.5
41
0
44
1
50
0
71
5
72
5
7
iso_b_vert
0
POINT
5
148
100
AcDbEntity
8
Defpoints
62
0
6
ByLayer
370
-1
48
1
60
0
100
AcDbPoint
10
-45
20
-6
30
0
39
0
210
0
220
0
230
1
50
360
0
POINT
5
149
100
AcDbEntity
8
Defpoints
62
0
6
ByLayer
370
-1
48
1
60
0
100
AcDbPoint
10
57
20
0
30
0
39
0
210
0
220
0
230
1
50
360
0
POINT
5
14A
100
AcDbEntity
8
Defpoints
62
0
6
ByLayer
370
-1
48
1
60
0
100
AcDbPoint
10
57
20
-37.192985
30
0
39
0
210
0
220
0
230
1
50
360
0
ENDBLK
5
141
100
AcDbEntity
8
0
100
AcDbBlockEnd
0
BLOCK
5
152
100
AcDbEntity
8
0
100
AcDbBlockBegin
2
_U1
70
0
10
0
20
0
30
0
3
_U1
0
MTEXT
5
14C
100
AcDbEntity
8
SK2
62
256
6
ByLayer
370
13
48
1
60
0
100
AcDbMText
10
-0.007599
20
-36.160352
30
0
210
0
220
0
230
1
1
\W0.6930;102,00
40
3.5
41
0
44
1.084337
50
0
71
7
72
5
7
iso_b_vert
0
LINE
5
14D
100
AcDbEntity
8
SK2
62
256
6
ByLayer
370
13
48
1
60
0
100
AcDbLine
10
-45
20
-7.5875
30
0
11
-45
21
-39.192985
31
0
39
0
210
0
220
0
230
1
0
LINE
5
14E
100
AcDbEntity
8
SK2
62
256
6
ByLayer
370
13
48
1
60
0
100
AcDbLine
10
57
20
-1.5875
30
0
11
57
21
-39.192985
31
0
39
0
210
0
220
0
230
1
0
LINE
5
14F
100
AcDbEntity
8
SK2
62
256
6
ByLayer
370
13
48
1
60
0
100
AcDbLine
10
-45
20
-37.192985
30
0
11
57
21
-37.192985
31
0
39
0
210
0
220
0
230
1
0
SOLID
5
150
100
AcDbEntity
8
SK2
62
256
6
ByLayer
370
18
48
1
60
0
100
AcDbTrace
10
-45
20
-37.192985
30
0
11
-41.500002
21
-36.732202
31
0
12
-41.499998
22
-37.653769
32
0
13
-41.499998
23
-37.653769
33
0
39
0
210
0
220
0
230
1
0
SOLID
5
151
100
AcDbEntity
8
SK2
62
256
6
ByLayer
370
18
48
1
60
0
100
AcDbTrace
10
57
20
-37.192985
30
0
11
53.500002
21
-37.653769
31
0
12
53.499998
22
-36.732202
32
0
13
53.499998
23
-36.732202
33
0
39
0
210
0
220
0
230
1
0
ENDBLK
5
153
100
AcDbEntity
8
0
100
AcDbBlockEnd
0
BLOCK
5
158
100
AcDbEntity
8
0
100
AcDbBlockBegin
2
*D5
70
1
10
0
20
0
30
0
3
*D5
0
LINE
5
15A
100
AcDbEntity
8
0
62
256
6
ByLayer
370
-2
48
1
60
0
100
AcDbLine
10
27.83
20
7.4375
30
0
11
27.83
21
17.959119
31
0
39
0
210
0
220
0
230
1
0
LINE
5
15B
100
AcDbEntity
8
0
62
256
6
ByLayer
370
-2
48
1
60
0
100
AcDbLine
10
57
20
1.5875
30
0
11
57
21
17.959119
31
0
39
0
210
0
220
0
230
1
0
LINE
5
15C
100
AcDbEntity
8
0
62
256
6
ByLayer
370
-2
48
1
60
0
100
AcDbLine
10
31.33
20
15.959119
30
0
11
53.5
21
15.959119
31
0
39
0
210
0
220
0
230
1
0
SOLID
5
15D
100
AcDbEntity
8
0
62
256
6
ByLayer
370
-1
48
1
60
0
100
AcDbTrace
10
31.33
20
16.542453
30
0
11
31.33
21
15.375786
31
0
12
27.83
22
15.959119
32
0
13
27.83
23
15.959119
33
0
39
0
210
0
220
0
230
1
0
SOLID
5
15E
100
AcDbEntity
8
0
62
256
6
ByLayer
370
-1
48
1
60
0
100
AcDbTrace
10
53.5
20
15.375786
30
0
11
53.5
21
16.542453
31
0
12
57
22
15.959119
32
0
13
57
23
15.959119
33
0
39
0
210
0
220
0
230
1
0
MTEXT
5
15F
100
AcDbEntity
8
0
62
256
6
ByLayer
370
18
48
1
60
0
100
AcDbMText
10
42.415
20
22.959119
30
0
210
0
220
0
230
1
1
\A1;29.17
40
3.5
41
0
44
1
50
0
71
5
72
5
7
iso_b_vert
0
POINT
5
160
100
AcDbEntity
8
Defpoints
62
0
6
ByLayer
370
-1
48
1
60
0
100
AcDbPoint
10
27.83
20
5.85
30
0
39
0
210
0
220
0
230
1
50
360
0
POINT
5
161
100
AcDbEntity
8
Defpoints
62
0
6
ByLayer
370
-1
48
1
60
0
100
AcDbPoint
10
57
20
0
30
0
39
0
210
0
220
0
230
1
50
360
0
POINT
5
162
100
AcDbEntity
8
Defpoints
62
0
6
ByLayer
370
-1
48
1
60
0
100
AcDbPoint
10
57
20
15.959119
30
0
39
0
210
0
220
0
230
1
50
360
0
ENDBLK
5
159
100
AcDbEntity
8
0
100
AcDbBlockEnd
0
BLOCK
5
16A
100
AcDbEntity
8
0
100
AcDbBlockBegin
2
_U2
70
0
10
0
20
0
30
0
3
_U2
0
MTEXT
5
164
100
AcDbEntity
8
SK2
62
256
6
ByLayer
370
13
48
1
60
0
100
AcDbMText
10
37.715135
20
16.991753
30
0
210
0
220
0
230
1
1
\W0.6713;29,17
40
3.5
41
0
44
1.084337
50
0
71
7
72
5
7
iso_b_vert
0
LINE
5
165
100
AcDbEntity
8
SK2
62
256
6
ByLayer
370
13
48
1
60
0
100
AcDbLine
10
27.83
20
7.4375
30
0
11
27.83
21
17.959119
31
0
39
0
210
0
220
0
230
1
0
LINE
5
166
100
AcDbEntity
8
SK2
62
256
6
ByLayer
370
13
48
1
60
0
100
AcDbLine
10
57
20
1.5875
30
0
11
57
21
17.959119
31
0
39
0
210
0
220
0
230
1
0
LINE
5
167
100
AcDbEntity
8
SK2
62
256
6
ByLayer
370
13
48
1
60
0
100
AcDbLine
10
27.83
20
15.959119
30
0
11
57
21
15.959119
31
0
39
0
210
0
220
0
230
1
0
SOLID
5
168
100
AcDbEntity
8
SK2
62
256
6
ByLayer
370
18
48
1
60
0
100
AcDbTrace
10
27.83
20
15.959119
30
0
11
31.329998
21
16.419903
31
0
12
31.330002
22
15.498335
32
0
13
31.330002
23
15.498335
33
0
39
0
210
0
220
0
230
1
0
SOLID
5
169
100
AcDbEntity
8
SK2
62
256
6
ByLayer
370
18
48
1
60
0
100
AcDbTrace
10
57
20
15.959119
30
0
11
53.500002
21
15.498335
31
0
12
53.499998
22
16.419903
32
0
13
53.499998
23
16.419903
33
0
39
0
210
0
220
0
230
1
0
ENDBLK
5
16B
100
AcDbEntity
8
0
100
AcDbBlockEnd
0
BLOCK
5
170
100
AcDbEntity
8
0
100
AcDbBlockBegin
2
*D7
70
1
10
0
20
0
30
0
3
*D7
0
LINE
5
172
100
AcDbEntity
8
0
62
256
6
ByLayer
370
-2
48
1
60
0
100
AcDbLine
10
57
20
-1.5875
30
0
11
57
21
-19.152503
31
0
39
0
210
0
220
0
230
1
0
LINE
5
173
100
AcDbEntity
8
0
62
256
6
ByLayer
370
-2
48
1
60
0
100
AcDbLine
10
55.3283
20
-5.9375
30
0
11
55.3283
21
-19.152503
31
0
39
0
210
0
220
0
230
1
0
LINE
5
174
100
AcDbEntity
8
0
62
256
6
ByLayer
370
-2
48
1
60
0
100
AcDbLine
10
57
20
-17.152503
30
0
11
84.666667
21
-17.152503
31
0
39
0
210
0
220
0
230
1
0
LINE
5
175
100
AcDbEntity
8
0
62
256
6
ByLayer
370
-2
48
1
60
0
100
AcDbLine
10
60.5
20
-17.152503
30
0
11
64
21
-17.152503
31
0
39
0
210
0
220
0
230
1
0
LINE
5
176
100
AcDbEntity
8
0
62
256
6
ByLayer
370
-2
48
1
60
0
100
AcDbLine
10
51.8283
20
-17.152503
30
0
11
48.3283
21
-17.152503
31
0
39
0
210
0
220
0
230
1
0
SOLID
5
177
100
AcDbEntity
8
0
62
256
6
ByLayer
370
-1
48
1
60
0
100
AcDbTrace
10
60.5
20
-16.56917
30
0
11
60.5
21
-17.735837
31
0
12
57
22
-17.152503
32
0
13
57
23
-17.152503
33
0
39
0
210
0
220
0
230
1
0
SOLID
5
178
100
AcDbEntity
8
0
62
256
6
ByLayer
370
-1
48
1
60
0
100
AcDbTrace
10
51.8283
20
-17.735837
30
0
11
51.8283
21
-16.56917
31
0
12
55.3283
22
-17.152503
32
0
13
55.3283
23
-17.152503
33
0
39
0
210
0
220
0
230
1
0
MTEXT
5
179
100
AcDbEntity
8
0
62
256
6
ByLayer
370
18
48
1
60
0
100
AcDbMText
10
74.333333
20
-10.152503
30
0
210
0
220
0
230
1
1
\A1;1.67
40
3.5
41
0
44
1
50
0
71
5
72
5
7
iso_b_vert
0
POINT
5
17A
100
AcDbEntity
8
Defpoints
62
0
6
ByLayer
370
-1
48
1
60
0
100
AcDbPoint
10
57
20
0
30
0
39
0
210
0
220
0
230
1
50
360
0
POINT
5
17B
100
AcDbEntity
8
Defpoints
62
0
6
ByLayer
370
-1
48
1
60
0
100
AcDbPoint
10
55.3283
20
-4.35
30
0
39
0
210
0
220
0
230
1
50
360
0
POINT
5
17C
100
AcDbEntity
8
Defpoints
62
0
6
ByLayer
370
-1
48
1
60
0
100
AcDbPoint
10
55.3283
20
-17.152503
30
0
39
0
210
0
220
0
230
1
50
360
0
ENDBLK
5
171
100
AcDbEntity
8
0
100
AcDbBlockEnd
0
BLOCK
5
184
100
AcDbEntity
8
0
100
AcDbBlockBegin
2
_U3
70
0
10
0
20
0
30
0
3
_U3
0
MTEXT
5
17E
100
AcDbEntity
8
SK2
62
256
6
ByLayer
370
13
48
1
60
0
100
AcDbMText
10
63.589293
20
-16.11987
30
0
210
0
220
0
230
1
1
\W0.6367;1,67
40
3.5
41
0
44
1.084337
50
0
71
7
72
5
7
iso_b_vert
0
LINE
5
17F
100
AcDbEntity
8
SK2
62
256
6
ByLayer
370
13
48
1
60
0
100
AcDbLine
10
57
20
-1.5875
30
0
11
57
21
-19.152503
31
0
39
0
210
0
220
0
230
1
0
LINE
5
180
100
AcDbEntity
8
SK2
62
256
6
ByLayer
370
13
48
1
60
0
100
AcDbLine
10
55.3283
20
-5.9375
30
0
11
55.3283
21
-19.152503
31
0
39
0
210
0
220
0
230
1
0
LINE
5
181
100
AcDbEntity
8
SK2
62
256
6
ByLayer
370
13
48
1
60
0
100
AcDbLine
10
46.5783
20
-17.152503
30
0
11
70.559058
21
-17.152503
31
0
39
0
210
0
220
0
230
1
0
SOLID
5
182
100
AcDbEntity
8
SK2
62
256
6
ByLayer
370
18
48
1
60
0
100
AcDbTrace
10
57
20
-17.152503
30
0
11
60.499998
21
-16.691719
31
0
12
60.500002
22
-17.613287
32
0
13
60.500002
23
-17.613287
33
0
39
0
210
0
220
0
230
1
0
SOLID
5
183
100
AcDbEntity
8
SK2
62
256
6
ByLayer
370
18
48
1
60
0
100
AcDbTrace
10
55.3283
20
-17.152503
30
0
11
51.828302
21
-17.613287
31
0
12
51.828298
22
-16.691719
32
0
13
51.828298
23
-16.691719
33
0
39
0
210
0
220
0
230
1
0
ENDBLK
5
185
100
AcDbEntity
8
0
100
AcDbBlockEnd
0
BLOCK
5
18A
100
AcDbEntity
8
0
100
AcDbBlockBegin
2
*D9
70
1
10
0
20
0
30
0
3
*D9
0
LINE
5
18C
100
AcDbEntity
8
0
62
256
6
ByLayer
370
-2
48
1
60
0
100
AcDbLine
10
55.3283
20
5.9375
30
0
11
55.3283
21
10.485371
31
0
39
0
210
0
220
0
230
1
0
LINE
5
18D
100
AcDbEntity
8
0
62
256
6
ByLayer
370
-2
48
1
60
0
100
AcDbLine
10
29.3283
20
5.9375
30
0
11
29.3283
21
10.485371
31
0
39
0
210
0
220
0
230
1
0
LINE
5
18E
100
AcDbEntity
8
0
62
256
6
ByLayer
370
-2
48
1
60
0
100
AcDbLine
10
51.8283
20
8.485371
30
0
11
32.8283
21
8.485371
31
0
39
0
210
0
220
0
230
1
0
SOLID
5
18F
100
AcDbEntity
8
0
62
256
6
ByLayer
370
-1
48
1
60
0
100
AcDbTrace
10
51.8283
20
7.902038
30
0
11
51.8283
21
9.068705
31
0
12
55.3283
22
8.485371
32
0
13
55.3283
23
8.485371
33
0
39
0
210
0
220
0
230
1
0
SOLID
5
190
100
AcDbEntity
8
0
62
256
6
ByLayer
370
-1
48
1
60
0
100
AcDbTrace
10
32.8283
20
9.068705
30
0
11
32.8283
21
7.902038
31
0
12
29.3283
22
8.485371
32
0
13
29.3283
23
8.485371
33
0
39
0
210
0
220
0
230
1
0
MTEXT
5
191
100
AcDbEntity
8
0
62
256
6
ByLayer
370
18
48
1
60
0
100
AcDbMText
10
42.3283
20
15.485371
30
0
210
0
220
0
230
1
1
\A1;26.00
40
3.5
41
0
44
1
50
0
71
5
72
5
7
iso_b_vert
0
POINT
5
192
100
AcDbEntity
8
Defpoints
62
0
6
ByLayer
370
-1
48
1
60
0
100
AcDbPoint
10
55.3283
20
4.35
30
0
39
0
210
0
220
0
230
1
50
360
0
POINT
5
193
100
AcDbEntity
8
Defpoints
62
0
6
ByLayer
370
-1
48
1
60
0
100
AcDbPoint
10
29.3283
20
4.35
30
0
39
0
210
0
220
0
230
1
50
360
0
POINT
5
194
100
AcDbEntity
8
Defpoints
62
0
6
ByLayer
370
-1
48
1
60
0
100
AcDbPoint
10
29.3283
20
8.485371
30
0
39
0
210
0
220
0
230
1
50
360
0
ENDBLK
5
18B
100
AcDbEntity
8
0
100
AcDbBlockEnd
0
BLOCK
5
19C
100
AcDbEntity
8
0
100
AcDbBlockBegin
2
_U4
70
0
10
0
20
0
30
0
3
_U4
0
MTEXT
5
196
100
AcDbEntity
8
SK2
62
256
6
ByLayer
370
13
48
1
60
0
100
AcDbMText
10
37.191001
20
9.518005
30
0
210
0
220
0
230
1
1
\W0.7317;26,00
40
3.5
41
0
44
1.084337
50
0
71
7
72
5
7
iso_b_vert
0
LINE
5
197
100
AcDbEntity
8
SK2
62
256
6
ByLayer
370
13
48
1
60
0
100
AcDbLine
10
55.3283
20
5.9375
30
0
11
55.3283
21
10.485371
31
0
39
0
210
0
220
0
230
1
0
LINE
5
198
100
AcDbEntity
8
SK2
62
256
6
ByLayer
370
13
48
1
60
0
100
AcDbLine
10
29.3283
20
5.9375
30
0
11
29.3283
21
10.485371
31
0
39
0
210
0
220
0
230
1
0
LINE
5
199
100
AcDbEntity
8
SK2
62
256
6
ByLayer
370
13
48
1
60
0
100
AcDbLine
10
55.3283
20
8.485371
30
0
11
29.3283
21
8.485371
31
0
39
0
210
0
220
0
230
1
0
SOLID
5
19A
100
AcDbEntity
8
SK2
62
256
6
ByLayer
370
18
48
1
60
0
100
AcDbTrace
10
55.3283
20
8.485371
30
0
11
51.828302
21
8.024588
31
0
12
51.828298
22
8.946155
32
0
13
51.828298
23
8.946155
33
0
39
0
210
0
220
0
230
1
0
SOLID
5
19B
100
AcDbEntity
8
SK2
62
256
6
ByLayer
370
18
48
1
60
0
100
AcDbTrace
10
29.3283
20
8.485371
30
0
11
32.828298
21
8.946155
31
0
12
32.828302
22
8.024588
32
0
13
32.828302
23
8.024588
33
0
39
0
210
0
220
0
230
1
0
ENDBLK
5
19D
100
AcDbEntity
8
0
100
AcDbBlockEnd
0
BLOCK
5
1A2
100
AcDbEntity
8
0
100
AcDbBlockBegin
2
*D11
70
1
10
0
20
0
30
0
3
*D11
0
LINE
5
1A4
100
AcDbEntity
8
0
62
256
6
ByLayer
370
-2
48
1
60
0
100
AcDbLine
10
-45
20
-7.5875
30
0
11
-45
21
-28.690158
31
0
39
0
210
0
220
0
230
1
0
LINE
5
1A5
100
AcDbEntity
8
0
62
256
6
ByLayer
370
-2
48
1
60
0
100
AcDbLine
10
55.3283
20
-5.9375
30
0
11
55.3283
21
-28.690158
31
0
39
0
210
0
220
0
230
1
0
LINE
5
1A6
100
AcDbEntity
8
0
62
256
6
ByLayer
370
-2
48
1
60
0
100
AcDbLine
10
-41.5
20
-26.690158
30
0
11
51.8283
21
-26.690158
31
0
39
0
210
0
220
0
230
1
0
SOLID
5
1A7
100
AcDbEntity
8
0
62
256
6
ByLayer
370
-1
48
1
60
0
100
AcDbTrace
10
-41.5
20
-26.106825
30
0
11
-41.5
21
-27.273491
31
0
12
-45
22
-26.690158
32
0
13
-45
23
-26.690158
33
0
39
0
210
0
220
0
230
1
0
SOLID
5
1A8
100
AcDbEntity
8
0
62
256
6
ByLayer
370
-1
48
1
60
0
100
AcDbTrace
10
51.8283
20
-27.273491
30
0
11
51.8283
21
-26.106825
31
0
12
55.3283
22
-26.690158
32
0
13
55.3283
23
-26.690158
33
0
39
0
210
0
220
0
230
1
0
MTEXT
5
1A9
100
AcDbEntity
8
0
62
256
6
ByLayer
370
18
48
1
60
0
100
AcDbMText
10
5.16415
20
-19.690158
30
0
210
0
220
0
230
1
1
\A1;100.33
40
3.5
41
0
44
1
50
0
71
5
72
5
7
iso_b_vert
0
POINT
5
1AA
100
AcDbEntity
8
Defpoints
62
0
6
ByLayer
370
-1
48
1
60
0
100
AcDbPoint
10
-45
20
-6
30
0
39
0
210
0
220
0
230
1
50
360
0
POINT
5
1AB
100
AcDbEntity
8
Defpoints
62
0
6
ByLayer
370
-1
48
1
60
0
100
AcDbPoint
10
55.3283
20
-4.35
30
0
39
0
210
0
220
0
230
1
50
360
0
POINT
5
1AC
100
AcDbEntity
8
Defpoints
62
0
6
ByLayer
370
-1
48
1
60
0
100
AcDbPoint
10
55.3283
20
-26.690158
30
0
39
0
210
0
220
0
230
1
50
360
0
ENDBLK
5
1A3
100
AcDbEntity
8
0
100
AcDbBlockEnd
0
BLOCK
5
1B4
100
AcDbEntity
8
0
100
AcDbBlockBegin
2
_U5
70
0
10
0
20
0
30
0
3
_U5
0
MTEXT
5
1AE
100
AcDbEntity
8
SK2
62
256
6
ByLayer
370
13
48
1
60
0
100
AcDbMText
10
-0.843449
20
-25.657524
30
0
210
0
220
0
230
1
1
\W0.6930;100,33
40
3.5
41
0
44
1.084337
50
0
71
7
72
5
7
iso_b_vert
0
LINE
5
1AF
100
AcDbEntity
8
SK2
62
256
6
ByLayer
370
13
48
1
60
0
100
AcDbLine
10
-45
20
-7.5875
30
0
11
-45
21
-28.690158
31
0
39
0
210
0
220
0
230
1
0
LINE
5
1B0
100
AcDbEntity
8
SK2
62
256
6
ByLayer
370
13
48
1
60
0
100
AcDbLine
10
55.3283
20
-5.9375
30
0
11
55.3283
21
-28.690158
31
0
39
0
210
0
220
0
230
1
0
LINE
5
1B1
100
AcDbEntity
8
SK2
62
256
6
ByLayer
370
13
48
1
60
0
100
AcDbLine
10
-45
20
-26.690158
30
0
11
55.3283
21
-26.690158
31
0
39
0
210
0
220
0
230
1
0
SOLID
5
1B2
100
AcDbEntity
8
SK2
62
256
6
ByLayer
370
18
48
1
60
0
100
AcDbTrace
10
-45
20
-26.690158
30
0
11
-41.500002
21
-26.229374
31
0
12
-41.499998
22
-27.150942
32
0
13
-41.499998
23
-27.150942
33
0
39
0
210
0
220
0
230
1
0
SOLID
5
1B3
100
AcDbEntity
8
SK2
62
256
6
ByLayer
370
18
48
1
60
0
100
AcDbTrace
10
55.3283
20
-26.690158
30
0
11
51.828302
21
-27.150942
31
0
12
51.828298
22
-26.229374
32
0
13
51.828298
23
-26.229374
33
0
39
0
210
0
220
0
230
1
0
ENDBLK
5
1B5
100
AcDbEntity
8
0
100
AcDbBlockEnd
0
ENDSEC
0
SECTION
2
ENTITIES
0
ARC
5
BB
100
AcDbEntity
8
1
62
256
6
ByLayer
370
18
48
1
60
0
100
AcDbCircle
39
0
10
0.698212
20
-6.7
30
0
40
0.849999999999998
210
0
220
0
230
1
100
AcDbArc
50
90
51
114.249629
0
ARC
5
BC
100
AcDbEntity
8
1
62
256
6
ByLayer
370
18
48
1
60
0
100
AcDbCircle
39
0
10
0.698212
20
6.7
30
0
40
0.849999999999998
210
0
220
0
230
1
100
AcDbArc
50
245.750371
51
270
0
ARC
5
BD
100
AcDbEntity
8
1
62
256
6
ByLayer
370
18
48
1
60
0
100
AcDbCircle
39
0
10
0
20
-5.15
30
0
40
0.850000000000001
210
0
220
0
230
1
100
AcDbArc
50
270
51
294.249629
0
ARC
5
BE
100
AcDbEntity
8
1
62
256
6
ByLayer
370
18
48
1
60
0
100
AcDbCircle
39
0
10
0
20
5.15
30
0
40
0.850000000000001
210
0
220
0
230
1
100
AcDbArc
50
65.750371
51
90
0
ARC
5
BF
100
AcDbEntity
8
SK2
62
256
6
ByLayer
370
13
48
1
60
0
100
AcDbCircle
39
0
10
33.6783
20
0
30
0
40
19.6731887254453
210
0
220
0
230
1
100
AcDbArc
50
183.130315
51
225
0
ARC
5
C0
100
AcDbEntity
8
SK2
62
256
6
ByLayer
370
13
48
1
60
0
100
AcDbCircle
39
0
10
33.6783
20
0
30
0
40
19.6731887254453
210
0
220
0
230
1
100
AcDbArc
50
135
51
163.990796
0
ELLIPSE
5
C1
100
AcDbEntity
8
1
62
256
6
ByLayer
370
13
48
1
60
0
100
AcDbEllipse
10
24.494316
20
-70.763412
30
0
11
36.5905033771878
21
64.602317562094
31
0
210
0
220
0
230
1
40
0.804026
41
0.750088941464131
42
0.785192682316779
0
ELLIPSE
5
C2
100
AcDbEntity
8
1
62
256
6
ByLayer
370
13
48
1
60
0
100
AcDbEllipse
10
26.113909
20
71.680744
30
0
11
-36.5905033771876
21
64.6023175620941
31
0
210
0
220
0
230
1
40
0.804026
41
2.5085083103384
42
2.5278860738495
0
ELLIPSE
5
C3
100
AcDbEntity
8
1
62
256
6
ByLayer
370
13
48
1
60
0
100
AcDbEllipse
10
101.194174
20
42.140273
30
0
11
-60.7999999999999
21
7.44560663124004E-15
31
0
210
0
220
0
230
1
40
0.99863
41
0.73377579258915
42
0.752034294163325
0
POINT
5
70
100
AcDbEntity
8
80
62
256
6
ByLayer
370
18
48
1
60
0
100
AcDbPoint
10
0
20
0
30
0
39
0
210
0
220
0
230
1
50
360
0
POINT
5
72
100
AcDbEntity
8
81
62
256
6
ByLayer
370
18
48
1
60
0
100
AcDbPoint
10
57
20
0
30
0
39
0
210
0
220
0
230
1
50
360
0
POINT
5
74
100
AcDbEntity
8
1
62
256
6
ByLayer
370
18
48
1
60
1
100
AcDbPoint
10
55.3283
20
-4.35
30
0
39
0
210
0
220
0
230
1
50
360
0
POINT
5
76
100
AcDbEntity
8
1
62
256
6
ByLayer
370
18
48
1
60
1
100
AcDbPoint
10
-45
20
-6
30
0
39
0
210
0
220
0
230
1
50
360
0
POINT
5
77
100
AcDbEntity
8
1
62
256
6
ByLayer
370
18
48
1
60
1
100
AcDbPoint
10
27.83
20
5.85
30
0
39
0
210
0
220
0
230
1
50
360
0
POINT
5
78
100
AcDbEntity
8
1
62
256
6
ByLayer
370
18
48
1
60
1
100
AcDbPoint
10
55.3283
20
-4.35
30
0
39
0
210
0
220
0
230
1
50
360
0
POINT
5
79
100
AcDbEntity
8
1
62
256
6
ByLayer
370
18
48
1
60
1
100
AcDbPoint
10
55.3283
20
4.35
30
0
39
0
210
0
220
0
230
1
50
360
0
POINT
5
7A
100
AcDbEntity
8
1
62
256
6
ByLayer
370
18
48
1
60
1
100
AcDbPoint
10
29.3283
20
4.35
30
0
39
0
210
0
220
0
230
1
50
360
0
POINT
5
7B
100
AcDbEntity
8
1
62
256
6
ByLayer
370
18
48
1
60
1
100
AcDbPoint
10
-45
20
-6
30
0
39
0
210
0
220
0
230
1
50
360
0
POINT
5
7C
100
AcDbEntity
8
1
62
256
6
ByLayer
370
18
48
1
60
1
100
AcDbPoint
10
55.3283
20
-4.35
30
0
39
0
210
0
220
0
230
1
50
360
0
SPLINE
5
C4
100
AcDbEntity
8
1
62
256
6
ByLayer
370
18
48
1
60
0
100
AcDbSpline
70
4
71
3
72
8
73
4
40
0
40
0
40
0
40
0
40
1
40
1
40
1
40
1
41
1
10
56.9997656614493
20
0.0851751464851702
30
0
41
1
10
57.000078112833
20
0.0283917154950757
30
0
41
1
10
57.000078112833
20
-0.0283917154950188
30
0
41
1
10
56.9997656614493
20
-0.0851751464851418
30
0
0
SPLINE
5
C5
100
AcDbEntity
8
1
62
256
6
ByLayer
370
18
48
1
60
0
100
AcDbSpline
70
4
71
3
72
8
73
4
40
0
40
0
40
0
40
0
40
1
40
1
40
1
40
1
41
1
10
56.7918911372927
20
-0.66314455097725
30
0
41
1
10
56.6131527877739
20
-1.17550178500815
30
0
41
1
10
56.4355580616696
20
-1.6882513986825
30
0
41
1
10
56.2591122341393
20
-2.20139520191879
30
0
0
SPLINE
5
C6
100
AcDbEntity
8
1
62
256
6
ByLayer
370
18
48
1
60
0
100
AcDbSpline
70
4
71
3
72
8
73
4
40
0
40
0
40
0
40
0
40
1
40
1
40
1
40
1
41
1
10
27.7953073795173
20
5.67872227929831
30
0
41
1
10
27.6659144251996
20
5.6577100608001
30
0
41
1
10
27.5366315299527
20
5.63476402368488
30
0
41
1
10
27.4073781387555
20
5.60990192337715
30
0
0
SPLINE
5
C7
100
AcDbEntity
8
1
62
256
6
ByLayer
370
18
48
1
60
0
100
AcDbSpline
70
4
71
3
72
14
73
10
40
0
40
0
40
0
40
0
40
0.25
40
0.25
40
0.5
40
0.5
40
0.75
40
0.75
40
1
40
1
40
1
40
1
41
1
10
27.4073781387555
20
-5.60990192337715
30
0
41
1
10
26.7272524294131
20
-5.52396687521781
30
0
41
1
10
26.0468389193465
20
-5.41839442770689
30
0
41
1
10
24.6853577377272
20
-5.17367622547371
30
0
41
1
10
24.0042921563624
20
-5.03449448191068
30
0
41
1
10
22.6417256115122
20
-4.72478640319972
30
0
41
1
10
21.9602232776732
20
-4.55426095102769
30
0
41
1
10
20.5972782964192
20
-4.18127185601244
30
0
41
1
10
19.9158297220592
20
-3.97884976266414
30
0
41
1
10
19.2348475813378
20
-3.75845529356579
30
0
0
SPLINE
5
C8
100
AcDbEntity
8
1
62
256
6
ByLayer
370
18
48
1
60
0
100
AcDbSpline
70
4
71
3
72
10
73
6
40
0
40
0
40
0
40
0
40
0.5
40
0.5
40
1
40
1
40
1
40
1
41
1
10
27.7953073795173
20
0.314829813871057
30
0
41
1
10
28.0486674235995
20
0.178855010063785
30
0
41
1
10
28.3027043352923
20
0.0572497326787413
30
0
41
1
10
28.8132464784233
20
-0.157599423979406
30
0
41
1
10
29.0697461492779
20
-0.250811220902705
30
0
41
1
10
29.3282999999829
20
-0.328781719162123
30
0
0
SPLINE
5
C9
100
AcDbEntity
8
1
62
256
6
ByLayer
370
18
48
1
60
0
100
AcDbSpline
70
4
71
3
72
8
73
4
40
0
40
0
40
0
40
0
40
1
40
1
40
1
40
1
41
1
10
55.395453069285
20
-4.20813957800402
30
0
41
1
10
55.401928332023
20
-4.17916416899229
30
0
41
1
10
55.4067060649977
20
-4.15208843924557
30
0
41
1
10
55.4096483290655
20
-4.12831904663972
30
0
0
SPLINE
5
CA
100
AcDbEntity
8
1
62
256
6
ByLayer
370
18
48
1
60
0
100
AcDbSpline
70
4
71
3
72
46
73
42
40
0
40
0
40
0
40
0
40
0.0766591187267674
40
0.0766591187267674
40
0.0958238984084597
40
0.0958238984084597
40
0.114988678090152
40
0.114988678090152
40
0.153318237453537
40
0.153318237453537
40
0.172483017135229
40
0.172483017135229
40
0.191647796816921
40
0.191647796816921
40
0.229977356180305
40
0.229977356180305
40
0.249142135861998
40
0.249142135861998
40
0.268306915543691
40
0.268306915543691
40
0.306636474907075
40
0.306636474907075
40
0.34496603427046
40
0.34496603427046
40
0.383295593633844
40
0.383295593633844
40
0.459954712360614
40
0.459954712360614
40
0.498284271723998
40
0.498284271723998
40
0.536613831087383
40
0.536613831087383
40
0.613272949814152
40
0.613272949814152
40
0.766591187267691
40
0.766591187267691
40
0.843250305994459
40
0.843250305994459
40
0.919909424721228
40
0.919909424721228
40
1
40
1
40
1
40
1
41
1
10
13.652092274279
20
-4.27469532056554
30
0
41
1
10
13.4967218444698
20
-4.47051467272618
30
0
41
1
10
13.3704664312141
20
-4.6583624862356
30
0
41
1
10
13.2602508292328
20
-4.87982825025281
30
0
41
1
10
13.240554527513
20
-4.92364134222285
30
0
41
1
10
13.2069215565166
20
-5.00850936395523
30
0
41
1
10
13.1929371765878
20
-5.04961281028042
30
0
41
1
10
13.1595944344132
20
-5.1688804409219
30
0
41
1
10
13.1488249484833
20
-5.24301008204256
30
0
41
1
10
13.1506744485873
20
-5.34579122732745
30
0
41
1
10
13.1543358157952
20
-5.37879144328335
30
0
41
1
10
13.1676698289035
20
-5.44109609614202
30
0
41
1
10
13.1772973265222
20
-5.47037989827786
30
0
41
1
10
13.2146671799764
20
-5.55289929629802
30
0
41
1
10
13.250876146132
20
-5.60081501980514
30
0
41
1
10
13.3210004153795
20
-5.66287529351791
30
0
41
1
10
13.3471188447165
20
-5.68198260786085
30
0
41
1
10
13.4039994703774
20
-5.71672823732786
30
0
41
1
10
13.4346462103183
20
-5.73232467708576
30
0
41
1
10
13.5326481653477
20
-5.77427239604242
30
0
41
1
10
13.6060409772296
20
-5.79580220010354
30
0
41
1
10
13.7667274428972
20
-5.82796008691395
30
0
41
1
10
13.8540314757221
20
-5.8385795458052
30
0
41
1
10
14.0410119682542
20
-5.85031270971177
30
0
41
1
10
14.1396312259226
20
-5.85134944355769
30
0
41
1
10
14.4466352820133
20
-5.84255471099178
30
0
41
1
10
14.6668590198571
20
-5.82100922819708
30
0
41
1
10
15.014935342505
20
-5.77176323162658
30
0
41
1
10
15.1339556595068
20
-5.75248322973377
30
0
41
1
10
15.3773878169633
20
-5.70891225989175
30
0
41
1
10
15.5017041486683
20
-5.68462614027834
30
0
41
1
10
15.878051813735
20
-5.60601046837763
30
0
41
1
10
16.1347889674346
20
-5.54574851637918
30
0
41
1
10
16.9191728883532
20
-5.34730189925622
30
0
41
1
10
17.4608292646105
20
-5.19174729128821
30
0
41
1
10
18.2943113076018
20
-4.9360478028006
30
0
41
1
10
18.5763082864071
20
-4.84678182417869
30
0
41
1
10
19.1429325484917
20
-4.66305199452358
30
0
41
1
10
19.4276370437804
20
-4.56857524364921
30
0
41
1
10
20.0123803905047
20
-4.37100108618526
30
0
41
1
10
20.3125304242972
20
-4.26772812903386
30
0
41
1
10
20.6139603963186
20
-4.16246353098643
30
0
0
SPLINE
5
CB
100
AcDbEntity
8
1
62
256
6
ByLayer
370
18
48
1
60
0
100
AcDbSpline
70
4
71
3
72
18
73
14
40
0
40
0
40
0
40
0
40
0.250000000000002
40
0.250000000000002
40
0.375000000000004
40
0.375000000000004
40
0.500000000000005
40
0.500000000000005
40
0.625000000000006
40
0.625000000000006
40
0.750000000000007
40
0.750000000000007
40
1
40
1
40
1
40
1
41
1
10
56.3218202035274
20
-1.04887840667283
30
0
41
1
10
56.3702179885713
20
-1.02002355099052
30
0
41
1
10
56.4222816475957
20
-0.970628802413046
30
0
41
1
10
56.5063938995479
20
-0.867375937210824
30
0
41
1
10
56.5353852490222
20
-0.828025524624252
30
0
41
1
10
56.5935439385192
20
-0.742255465767215
30
0
41
1
10
56.6229425474426
20
-0.695562711681987
30
0
41
1
10
56.6823757081985
20
-0.594835751666835
30
0
41
1
10
56.7126039450666
20
-0.540407288056343
30
0
41
1
10
56.7721885976897
20
-0.427027921323884
30
0
41
1
10
56.8016586217045
20
-0.367924197913766
30
0
41
1
10
56.8890737372029
20
-0.183770174255187
30
0
41
1
10
56.9463970171496
20
-0.0508410681285341
30
0
41
1
10
56.99976566145
20
0.0851751464868471
30
0
0
SPLINE
5
CC
100
AcDbEntity
8
1
62
256
6
ByLayer
370
13
48
1
60
0
100
AcDbSpline
70
4
71
3
72
60
73
56
40
0
40
0
40
0
40
0
40
0.0024615711797252
40
0.017131253956494
40
0.0318009367332627
40
0.0611403022868
40
0.0758099850635688
40
0.090479667840338
40
0.119819033393875
40
0.134488716170644
40
0.149158398947413
40
0.17849776450095
40
0.193167447277719
40
0.207837130054487
40
0.237176495608025
40
0.251846178384795
40
0.266515861161563
40
0.2958552267151
40
0.310524909491869
40
0.325194592268638
40
0.354533957822175
40
0.369203640598944
40
0.383873323375712
40
0.41321268892925
40
0.427882371706019
40
0.442552054482788
40
0.471891420036325
40
0.486561102813094
40
0.501230785589863
40
0.5305701511434
40
0.545239833920169
40
0.559909516696938
40
0.589248882250475
40
0.603918565027244
40
0.618588247804013
40
0.64792761335755
40
0.662597296134319
40
0.677266978911088
40
0.706606344464625
40
0.721276027241394
40
0.735945710018163
40
0.7652850755717
40
0.779954758348469
40
0.794624441125237
40
0.823963806678775
40
0.838633489455544
40
0.853303172232312
40
0.88264253778585
40
0.897312220562619
40
0.911981903339387
40
0.930319006810349
40
0.941321268892925
40
0.952323530975501
40
0.970660634446462
40
1
40
1
40
1
40
1
41
1
10
42.5760450500321
20
0.0608148794091505
30
0
41
1
10
42.5625383549763
20
0.0640253062531713
30
0
41
1
10
42.4685394099994
20
0.086369322633999
30
0
41
1
10
42.2940561034288
20
0.127858305265818
30
0
41
1
10
41.9720229090696
20
0.203954498843132
30
0
41
1
10
41.6500300827404
20
0.279920361260537
30
0
41
1
10
41.3280751833294
20
0.355595994809761
30
0
41
1
10
41.0060418610147
20
0.430551668303735
30
0
41
1
10
40.6840490561438
20
0.505035774255589
30
0
41
1
10
40.3620941732765
20
0.578889933774377
30
0
41
1
10
40.0400608156027
20
0.651773954328064
30
0
41
1
10
39.718068024876
20
0.723855303354014
30
0
41
1
10
39.3961133388174
20
0.794981602324185
30
0
41
1
10
39.0740801528284
20
0.864901179667271
30
0
41
1
10
38.7520874233575
20
0.933694804974635
30
0
41
1
10
38.4301325772618
20
1.00120900467499
30
0
41
1
10
38.1080992443389
20
1.0672897878593
30
0
41
1
10
37.7861064560971
20
1.13193131290754
30
0
41
1
10
37.4641518962296
20
1.19498816906622
30
0
41
1
10
37.1421190323881
20
1.25640453942819
30
0
41
1
10
36.8201267580519
20
1.31608843493663
30
0
41
1
10
36.4981722906471
20
1.37390336109505
30
0
41
1
10
36.1761392414562
20
1.42989185014702
30
0
41
1
10
35.8541464828157
20
1.48387692830397
30
0
41
1
10
35.5321914099734
20
1.53573207037002
30
0
41
1
10
35.2101577036875
20
1.58559726607905
30
0
41
1
10
34.8881643131493
20
1.63321217207905
30
0
41
1
10
34.5662088365315
20
1.67846087666706
30
0
41
1
10
34.2441749603995
20
1.72157941097422
30
0
41
1
10
33.9221818500655
20
1.76222622861061
30
0
41
1
10
33.6002273018502
20
1.80029678364579
30
0
41
1
10
33.2781945609756
20
1.83612423943609
30
0
41
1
10
32.9562025744338
20
1.86929485839482
30
0
41
1
10
32.6342484732206
20
1.8997254653265
30
0
41
1
10
32.3122157810355
20
1.92783395151113
30
0
41
1
10
31.9902233503611
20
1.95313729195166
30
0
41
1
10
31.6682685390119
20
1.97556425244321
30
0
41
1
10
31.3462350673811
20
1.99561424126986
30
0
41
1
10
31.0242418585311
20
2.01273830651669
30
0
41
1
10
30.7022865026836
20
2.02687744295722
30
0
41
1
10
30.3802527040833
20
2.03860875221619
30
0
41
1
10
30.0582595825768
20
2.04732097993949
30
0
41
1
10
29.7363048914218
20
2.05296723591735
30
0
41
1
10
29.4142719315326
20
2.05620517727277
30
0
41
1
10
29.0922796298268
20
2.05637922886129
30
0
41
1
10
28.770325189629
20
2.05347551696673
30
0
41
1
10
28.4482922041291
20
2.04820645769829
30
0
41
1
10
28.1262995638777
20
2.03987629467116
30
0
41
1
10
27.8043446498795
20
2.02848285933789
30
0
41
1
10
27.542717482827
20
2.01741522061127
30
0
41
1
10
27.3012309363538
20
2.00547242020224
30
0
41
1
10
27.0798729044064
20
1.99310654623989
30
0
41
1
10
26.8584865224209
20
1.97961296343357
30
0
41
1
10
26.5364429651533
20
1.95788076405336
30
0
41
1
10
26.2748664159869
20
1.93768632432406
30
0
41
1
10
26.113909482004
20
1.9242683230697
30
0
0
SPLINE
5
CD
100
AcDbEntity
8
1
62
256
6
ByLayer
370
18
48
1
60
0
100
AcDbSpline
70
4
71
3
72
10
73
6
40
0
40
0
40
0
40
0
40
0.482671448070833
40
0.482671448070833
40
1
40
1
40
1
40
1
41
1
10
30.9076059191151
20
-4.19376263987584
30
0
41
1
10
30.6533001451485
20
-4.19301337392557
30
0
41
1
10
30.3979978434426
20
-4.1868166224308
30
0
41
1
10
29.8712017746473
20
-4.16272844255829
30
0
41
1
10
29.5994632135739
20
-4.14405948457951
30
0
41
1
10
29.3283000000137
20
-4.11940017341433
30
0
0
SPLINE
5
CE
100
AcDbEntity
8
1
62
256
6
ByLayer
370
13
48
1
60
0
100
AcDbSpline
70
4
71
3
72
63
73
59
40
0
40
0
40
0
40
0
40
0.004950152052684
40
0.0186538326018908
40
0.0323575131510979
40
0.0597648742495112
40
0.0734685547987177
40
0.0871722353479251
40
0.114579596446338
40
0.128283276995545
40
0.141986957544752
40
0.169394318643166
40
0.183097999192372
40
0.196801679741579
40
0.224209040839993
40
0.2379127213892
40
0.251616401938406
40
0.27902376303682
40
0.292727443586027
40
0.306431124135234
40
0.333838485233647
40
0.347542165782854
40
0.361245846332061
40
0.388653207430474
40
0.402356887979681
40
0.416060568528888
40
0.443467929627302
40
0.457171610176508
40
0.470875290725715
40
0.498282651824129
40
0.511986332373335
40
0.525690012922542
40
0.553097374020956
40
0.566801054570163
40
0.580504735119369
40
0.607912096217783
40
0.62161577676699
40
0.635319457316196
40
0.66272681841461
40
0.676430498963817
40
0.690134179513023
40
0.717541540611437
40
0.731245221160644
40
0.744948901709851
40
0.772356262808264
40
0.786059943357472
40
0.799763623906678
40
0.827170985005092
40
0.840874665554298
40
0.854578346103505
40
0.881985707201919
40
0.895689387751126
40
0.909393068300333
40
0.936800429398746
40
0.950504109947953
40
0.96420779049716
40
0.991615151595573
40
1
40
1
40
1
40
1
41
1
10
46.7991722667546
20
-1.81024846387481
30
0
41
1
10
46.7700924837644
20
-1.81352054906353
30
0
41
1
10
46.6605085442165
20
-1.82573761608438
30
0
41
1
10
46.4704107411989
20
-1.84618633240299
30
0
41
1
10
46.1484570686665
20
-1.87880387280333
30
0
41
1
10
45.826462898104
20
-1.90855976063332
30
0
41
1
10
45.504430500499
20
-1.93539924975269
30
0
41
1
10
45.1824763066938
20
-1.9600758481441
30
0
41
1
10
44.860481487943
20
-1.98178261743314
30
0
41
1
10
44.5384487990479
20
-2.00049760419222
30
0
41
1
10
44.2164945823128
20
-2.01694940916377
30
0
41
1
10
43.894500028989
20
-2.03036794594823
30
0
41
1
10
43.5724676935534
20
-2.04074262607841
30
0
41
1
10
43.2505138493847
20
-2.0487746675131
30
0
41
1
10
42.9285196743387
20
-2.0537397296809
30
0
41
1
10
42.6064876464981
20
-2.05564467889266
30
0
41
1
10
42.2845339761808
20
-2.05515359557563
30
0
41
1
10
41.9625396862025
20
-2.0515927998251
30
0
41
1
10
41.6405071329649
20
-2.04498144804833
30
0
41
1
10
41.3185528891889
20
-2.03594839576095
30
0
41
1
10
40.9965581439025
20
-2.02388708102646
30
0
41
1
10
40.674525618879
20
-2.00884689457095
30
0
41
1
10
40.3525715782928
20
-1.99139993771081
30
0
41
1
10
40.0305772074179
20
-1.97101113744463
30
0
41
1
10
39.7085449450385
20
-1.94774262695009
30
0
41
1
10
39.3865910323129
20
-1.92210705974813
30
0
41
1
10
39.0645966400112
20
-1.89364683037283
30
0
41
1
10
38.7425643611911
20
-1.86243993168375
30
0
41
1
10
38.4206104839097
20
-1.82893315566537
30
0
41
1
10
38.0986160775842
20
-1.7927498536834
30
0
41
1
10
37.776583602137
20
-1.75398050271841
30
0
41
1
10
37.454629553288
20
-1.71300568412073
30
0
41
1
10
37.1326350856868
20
-1.66953825291785
30
0
41
1
10
36.8106027700665
20
-1.62368906315143
30
0
41
1
10
36.4886488679362
20
-1.57576127616579
30
0
41
1
10
36.1666544589308
20
-1.52555955882414
30
0
41
1
10
35.8446218571373
20
-1.47320615268507
30
0
41
1
10
35.5226674861278
20
-1.41892478536784
30
0
41
1
10
35.2006725635033
20
-1.36261405049564
30
0
41
1
10
34.8786398693422
20
-1.30440757477956
30
0
41
1
10
34.556685683634
20
-1.24444737546713
30
0
41
1
10
34.234691245114
20
-1.18272718592479
30
0
41
1
10
33.9126591561187
20
-1.11939066963001
30
0
41
1
10
33.5907056271992
20
-1.05449665207905
30
0
41
1
10
33.2687118202858
20
-0.988134593059897
30
0
41
1
10
32.9466801349214
20
-0.920457218826272
30
0
41
1
10
32.624726775829
20
-0.851439220134154
30
0
41
1
10
32.3027326889066
20
-0.781265810310771
30
0
41
1
10
31.9807000755986
20
-0.710097864364201
30
0
41
1
10
31.6587455817816
20
-0.637822251002518
30
0
41
1
10
31.3367503715739
20
-0.564712974096665
30
0
41
1
10
31.0147173114547
20
-0.490928309433741
30
0
41
1
10
30.6927627689536
20
-0.416276768736111
30
0
41
1
10
30.3707680026589
20
-0.341119863806028
30
0
41
1
10
30.0487356523538
20
-0.265621524335671
30
0
41
1
10
29.7267818889573
20
-0.189512368860477
30
0
41
1
10
29.4360319150142
20
-0.120640538997975
30
0
41
1
10
29.2257589393206
20
-0.0708395752471347
30
0
41
1
10
29.1765012064036
20
-0.0591632466490637
30
0
0
SPLINE
5
CF
100
AcDbEntity
8
1
62
256
6
ByLayer
370
18
48
1
60
0
100
AcDbSpline
70
4
71
3
72
8
73
4
40
0
40
0
40
0
40
0
40
1
40
1
40
1
40
1
41
1
10
56.791891137298
20
0.663144550962016
30
0
41
1
10
56.6131533781611
20
1.17550009265062
30
0
41
1
10
56.43555864538
20
1.68824970112254
30
0
41
1
10
56.2591122341353
20
2.2013952019305
30
0
0
SPLINE
5
D0
100
AcDbEntity
8
1
62
256
6
ByLayer
370
18
48
1
60
0
100
AcDbSpline
70
4
71
3
72
21
73
17
40
0
40
0
40
0
40
0
40
0.02095327171696
40
0.02095327171696
40
0.129736241526191
40
0.238519211335421
40
0.238519211335421
40
0.347302181144652
40
0.347302181144652
40
0.564868120763101
40
0.564868120763101
40
0.673651090572326
40
0.673651090572326
40
0.782434060381551
40
0.782434060381551
40
1
40
1
40
1
40
1
41
1
10
55.1065661663373
20
0.431653921052856
30
0
41
1
10
55.1105254317428
20
0.436378073399112
30
0
41
1
10
55.1145393386427
20
0.441184720360525
30
0
41
1
10
55.1397116620132
20
0.471436277071774
30
0
41
1
10
55.1848958764679
20
0.526651629181885
30
0
41
1
10
55.2359589048883
20
0.590671631139429
30
0
41
1
10
55.2901110331671
20
0.659098089775512
30
0
41
1
10
55.3186954125326
20
0.695472720824625
30
0
41
1
10
55.4073287498856
20
0.808373730408761
30
0
41
1
10
55.4707343948431
20
0.889501677271824
30
0
41
1
10
55.5748638064224
20
1.01799246200935
30
0
41
1
10
55.6111908943244
20
1.0620343390141
30
0
41
1
10
55.6861545787048
20
1.14973216779126
30
0
41
1
10
55.7249666240918
20
1.19363375093005
30
0
41
1
10
55.8473281901065
20
1.32374196079149
30
0
41
1
10
55.9373704966063
20
1.4099958395789
30
0
41
1
10
56.0409848114148
20
1.47962113694118
30
0
0
SPLINE
5
D1
100
AcDbEntity
8
1
62
256
6
ByLayer
370
13
48
1
60
0
100
AcDbSpline
70
4
71
3
72
36
73
32
40
0
40
0
40
0
40
0
40
0.0385148348781117
40
0.0385148348781117
40
0.0770296697562233
40
0.0770296697562233
40
0.154059339512445
40
0.154059339512445
40
0.30811867902489
40
0.30811867902489
40
0.346633513903001
40
0.346633513903001
40
0.385148348781112
40
0.385148348781112
40
0.462178018537332
40
0.462178018537332
40
0.539207688293552
40
0.539207688293552
40
0.616237358049773
40
0.616237358049773
40
0.693267027805993
40
0.693267027805993
40
0.770296697562213
40
0.770296697562213
40
0.847326367318433
40
0.847326367318433
40
0.885841202196544
40
0.885841202196544
40
0.924356037074655
40
0.924356037074655
40
1
40
1
40
1
40
1
41
1
10
55.3619989194245
20
-4.02363818035374
30
0
41
1
10
55.0892635903684
20
-3.98119781397222
30
0
41
1
10
54.8163071871845
20
-3.93275714435001
30
0
41
1
10
54.2724171312774
20
-3.82484335719747
30
0
41
1
10
54.001215555865
20
-3.76533647249667
30
0
41
1
10
53.1892170787433
20
-3.57097984373417
30
0
41
1
10
52.6500710661967
20
-3.420225141229
30
0
41
1
10
51.0330651367856
20
-2.91207580574593
30
0
41
1
10
49.9565029365149
20
-2.49783254886521
30
0
41
1
10
48.5940442000696
20
-1.91350921753804
30
0
41
1
10
48.3209360959609
20
-1.79340652923261
30
0
41
1
10
47.7761226927808
20
-1.54883888484636
30
0
41
1
10
47.5039981975339
20
-1.42419487764644
30
0
41
1
10
46.6877340981917
20
-1.0446167199772
30
0
41
1
10
46.1435453416715
20
-0.78433908768028
30
0
41
1
10
45.0518887697481
20
-0.255904319606657
30
0
41
1
10
44.5088667909549
20
0.0100279060060586
30
0
41
1
10
43.4268190294848
20
0.535694887783933
30
0
41
1
10
42.8876459311245
20
0.796207215448277
30
0
41
1
10
41.8090854383564
20
1.30432680901669
30
0
41
1
10
41.2696632823988
20
1.55194359132585
30
0
41
1
10
40.1873098014658
20
2.02784954659535
30
0
41
1
10
39.6438015567049
20
2.25615190159522
30
0
41
1
10
38.5515695812835
20
2.68483097874682
30
0
41
1
10
38.0064014345784
20
2.88381532055212
30
0
41
1
10
37.1874465102472
20
3.15531509816688
30
0
41
1
10
36.914160464854
20
3.24126180967335
30
0
41
1
10
36.3699027570322
20
3.40245024734287
30
0
41
1
10
36.0985383472565
20
3.47788318804154
30
0
41
1
10
35.2957641607948
20
3.68560155869449
30
0
41
1
10
34.7658918985158
20
3.80246955977529
30
0
41
1
10
34.2363952626808
20
3.89735214705004
30
0
0
SPLINE
5
D2
100
AcDbEntity
8
1
62
256
6
ByLayer
370
18
48
1
60
0
100
AcDbSpline
70
4
71
3
72
18
73
14
40
0
40
0
40
0
40
0
40
0.250000000000002
40
0.250000000000002
40
0.375000000000001
40
0.375000000000001
40
0.500000000000001
40
0.500000000000001
40
0.75
40
0.75
40
0.875
40
0.875
40
1
40
1
40
1
40
1
41
1
10
54.9921372693008
20
0.434740512593606
30
0
41
1
10
54.9460800965094
20
0.209927581164038
30
0
41
1
10
54.9090743443686
20
-0.0153976483960321
30
0
41
1
10
54.8671934989899
20
-0.354156806758198
30
0
41
1
10
54.8555150302407
20
-0.467205673735236
30
0
41
1
10
54.8368649660953
20
-0.693569810336129
30
0
41
1
10
54.8298800807407
20
-0.807470082856668
30
0
41
1
10
54.8165200559226
20
-1.14389521756476
30
0
41
1
10
54.8175283933493
20
-1.36170170868894
30
0
41
1
10
54.8335347810252
20
-1.67894339797999
30
0
41
1
10
54.8412978206675
20
-1.7831048265333
30
0
41
1
10
54.8617593018341
20
-1.98820365984602
30
0
41
1
10
54.8744903173315
20
-2.08922729492522
30
0
41
1
10
54.8895527795662
20
-2.18735493796009
30
0
0
SPLINE
5
D3
100
AcDbEntity
8
1
62
256
6
ByLayer
370
18
48
1
60
0
100
AcDbSpline
70
4
71
3
72
10
73
6
40
0
40
0
40
0
40
0
40
0.5
40
0.5
40
1
40
1
40
1
40
1
41
1
10
55.4550787480508
20
-4.30515126434193
30
0
41
1
10
55.5888851457415
20
-3.97100722348642
30
0
41
1
10
55.7245298851582
20
-3.62970478303598
30
0
41
1
10
55.994360183654
20
-2.92948911827816
30
0
41
1
10
56.1286149585934
20
-2.57073986831801
30
0
41
1
10
56.2591122341393
20
-2.20139520191859
30
0
0
SPLINE
5
D4
100
AcDbEntity
8
1
62
256
6
ByLayer
370
18
48
1
60
0
100
AcDbSpline
70
4
71
3
72
10
73
6
40
0
40
0
40
0
40
0
40
0.5
40
0.5
40
1
40
1
40
1
40
1
41
1
10
55.4096483290567
20
-4.12831904670998
30
0
41
1
10
55.4059907740833
20
-4.1031370264258
30
0
41
1
10
55.3995466385741
20
-4.08251798409427
30
0
41
1
10
55.3830272075002
20
-4.04790828855312
30
0
41
1
10
55.3731332251839
20
-4.034351096585
30
0
41
1
10
55.3619989194246
20
-4.02363818035374
30
0
0
SPLINE
5
D5
100
AcDbEntity
8
1
62
256
6
ByLayer
370
13
48
1
60
0
100
AcDbSpline
70
4
71
3
72
21
73
17
40
0
40
0
40
0
40
0
40
0.0563708626415166
40
0.114209572138949
40
0.172048281636379
40
0.287725700631237
40
0.345564410128664
40
0.403403119626096
40
0.519080538620958
40
0.576919248118388
40
0.63475795761582
40
0.750435376610679
40
0.808274086108107
40
0.866112795605538
40
0.9817902146004
40
1
40
1
40
1
40
1
41
1
10
56.294612164506
20
2.05576830928709
30
0
41
1
10
56.2161570979856
20
2.0554665266738
30
0
41
1
10
56.0572103677735
20
2.05436217068058
30
0
41
1
10
55.8177874168435
20
2.05119181883205
30
0
41
1
10
55.4957547152397
20
2.04457223926903
30
0
41
1
10
55.1737623289729
20
2.03489596663294
30
0
41
1
10
54.851807620931
20
2.02216522609171
30
0
41
1
10
54.5297742824879
20
2.00714902434442
30
0
41
1
10
54.2077812383745
20
1.98911361423464
30
0
41
1
10
53.8858260255622
20
1.96807232667882
30
0
41
1
10
53.5637923190449
20
1.94483606355362
30
0
41
1
10
53.2417992159534
20
1.91864217752024
30
0
41
1
10
52.9198444043625
20
1.88951462085902
30
0
41
1
10
52.5978112034483
20
1.85830813740049
30
0
41
1
10
52.3309728929499
20
1.83008458141313
30
0
41
1
10
52.1446496569892
20
1.80912755834603
30
0
41
1
10
52.1193080385535
20
1.80625390567465
30
0
0
SPLINE
5
D6
100
AcDbEntity
8
1
62
256
6
ByLayer
370
18
48
1
60
0
100
AcDbSpline
70
4
71
3
72
16
73
12
40
0
40
0
40
0
40
0
40
0.250000000000002
40
0.250000000000002
40
0.375000000000002
40
0.375000000000002
40
0.500000000000001
40
0.500000000000001
40
0.750000000000001
40
0.750000000000001
40
1
40
1
40
1
40
1
41
1
10
55.3619989194247
20
-4.02363818035374
30
0
41
1
10
55.2823875247462
20
-3.94703976275252
30
0
41
1
10
55.2117538829569
20
-3.85081494610841
30
0
41
1
10
55.1196568556721
20
-3.67619252008816
30
0
41
1
10
55.0912792090028
20
-3.61291027984288
30
0
41
1
10
55.0394020572212
20
-3.47568162158248
30
0
41
1
10
55.0158813352254
20
-3.40148160233232
30
0
41
1
10
54.9544122200126
20
-3.16731367964488
30
0
41
1
10
54.9248738819239
20
-2.99452881339619
30
0
41
1
10
54.8891077581701
20
-2.61498893173743
30
0
41
1
10
54.8830874646198
20
-2.40644968053937
30
0
41
1
10
54.8895527795662
20
-2.18735493796009
30
0
0
SPLINE
5
D7
100
AcDbEntity
8
1
62
256
6
ByLayer
370
18
48
1
60
0
100
AcDbSpline
70
4
71
3
72
20
73
16
40
0
40
0
40
0
40
0
40
0.134408299720065
40
0.134408299720065
40
0.268816599440129
40
0.268816599440129
40
0.403224899160194
40
0.403224899160194
40
0.537633198880259
40
0.537633198880259
40
0.806449798320383
40
0.806449798320383
40
0.940858098040442
40
0.940858098040442
40
1
40
1
40
1
40
1
41
1
10
55.4550787480507
20
4.30515126434193
30
0
41
1
10
55.1832198904096
20
4.28509276823007
30
0
41
1
10
54.9117434768483
20
4.25862108147572
30
0
41
1
10
54.3682811051535
20
4.19332816053267
30
0
41
1
10
54.0964261280927
20
4.15448099573277
30
0
41
1
10
53.5523546026523
20
4.06434836072259
30
0
41
1
10
53.2794245209984
20
4.01326974609154
30
0
41
1
10
52.7348161698131
20
3.899158438694
30
0
41
1
10
52.4627285789027
20
3.83648409291931
30
0
41
1
10
51.6472844903918
20
3.63159375761262
30
0
41
1
10
51.1043411968856
20
3.47280129364992
30
0
41
1
10
50.2874756983477
20
3.20540262064148
30
0
41
1
10
50.0147907203867
20
3.11084550090476
30
0
41
1
10
49.6224329361257
20
2.96900370956484
30
0
41
1
10
49.5026331587028
20
2.92480403591068
30
0
41
1
10
49.3828964292637
20
2.87978863587222
30
0
0
SPLINE
5
D8
100
AcDbEntity
8
1
62
256
6
ByLayer
370
18
48
1
60
0
100
AcDbSpline
70
4
71
3
72
8
73
4
40
0
40
0
40
0
40
0
40
1
40
1
40
1
40
1
41
1
10
29.4917639895888
20
-4.3034922032389
30
0
41
1
10
29.4373047964957
20
-4.30339559094489
30
0
41
1
10
29.382817603789
20
-4.3030437869397
30
0
41
1
10
29.3282999999829
20
-4.30243607167139
30
0
0
SPLINE
5
D9
100
AcDbEntity
8
1
62
256
6
ByLayer
370
18
48
1
60
0
100
AcDbSpline
70
4
71
3
72
34
73
30
40
0
40
0
40
0
40
0
40
0.126271035816056
40
0.126271035816056
40
0.189406553724082
40
0.189406553724082
40
0.252542071632109
40
0.252542071632109
40
0.315677589540135
40
0.315677589540135
40
0.378813107448162
40
0.378813107448162
40
0.441948625356188
40
0.441948625356188
40
0.505084143264215
40
0.505084143264215
40
0.631355179080271
40
0.631355179080271
40
0.694490696988298
40
0.694490696988298
40
0.757626214896326
40
0.757626214896326
40
0.820761732804354
40
0.820761732804354
40
0.883897250712382
40
0.883897250712382
40
0.947032768620409
40
0.947032768620409
40
1
40
1
40
1
40
1
41
1
10
54.9921372693008
20
0.434740512593635
30
0
41
1
10
54.4588890720487
20
0.694322206358351
30
0
41
1
10
53.9260643024322
20
0.949989160329409
30
0
41
1
10
53.1265898263094
20
1.32503347832474
30
0
41
1
10
52.859974090989
20
1.4484626628535
30
0
41
1
10
52.3258113996851
20
1.69030166941295
30
0
41
1
10
52.0582601313919
20
1.80933213096745
30
0
41
1
10
51.523465768062
20
2.04098217192546
30
0
41
1
10
51.256523517224
20
2.154304588651
30
0
41
1
10
50.7226835993744
20
2.37429506424229
30
0
41
1
10
50.4558831002083
20
2.48127166372566
30
0
41
1
10
49.9223478189365
20
2.68717346022046
30
0
41
1
10
49.6553402488237
20
2.78589745058912
30
0
41
1
10
49.1211495356973
20
2.9763682523251
30
0
41
1
10
48.8532699512213
20
3.06688244244947
30
0
41
1
10
48.0505289281678
20
3.32552587862489
30
0
41
1
10
47.5167162741574
20
3.48140736810373
30
0
41
1
10
46.7157201632747
20
3.68192594206513
30
0
41
1
10
46.4488400311739
20
3.74286680792147
30
0
41
1
10
45.9143098852511
20
3.85474876633788
30
0
41
1
10
45.6466190322984
20
3.90581054351165
30
0
41
1
10
45.111011362923
20
3.99694156260503
30
0
41
1
10
44.8434294570887
20
4.03685562559215
30
0
41
1
10
44.3092172349281
20
4.10385119494885
30
0
41
1
10
44.0421449306661
20
4.13043176481824
30
0
41
1
10
43.5080987633291
20
4.17388170192439
30
0
41
1
10
43.2410852982968
20
4.19032460304851
30
0
41
1
10
42.7493924666623
20
4.20943470784448
30
0
41
1
10
42.5249924059827
20
4.21406797318295
30
0
41
1
10
42.3003337565178
20
4.21353107717971
30
0
0
SPLINE
5
DA
100
AcDbEntity
8
1
62
256
6
ByLayer
370
18
48
1
60
0
100
AcDbSpline
70
4
71
3
72
10
73
6
40
0
40
0
40
0
40
0
40
0.5
40
0.5
40
1
40
1
40
1
40
1
41
1
10
55.4550787480507
20
4.30515126434193
30
0
41
1
10
55.5888742208509
20
3.97103450534382
30
0
41
1
10
55.7245129888277
20
3.62974772870479
30
0
41
1
10
55.9943431537129
20
2.9295342119307
30
0
41
1
10
56.128603710794
20
2.5707717028115
30
0
41
1
10
56.2591122341352
20
2.20139520193007
30
0
0
SPLINE
5
DB
100
AcDbEntity
8
1
62
256
6
ByLayer
370
18
48
1
60
0
100
AcDbSpline
70
4
71
3
72
8
73
4
40
0
40
0
40
0
40
0
40
1
40
1
40
1
40
1
41
1
10
56.9997656614493
20
-0.0851751464851418
30
0
41
1
10
56.9287275607477
20
-0.276643501450053
30
0
41
1
10
56.8595083598956
20
-0.469318361807637
30
0
41
1
10
56.7918911372927
20
-0.66314455097725
30
0
0
SPLINE
5
DC
100
AcDbEntity
8
1
62
256
6
ByLayer
370
18
48
1
60
0
100
AcDbSpline
70
4
71
3
72
8
73
4
40
0
40
0
40
0
40
0
40
1
40
1
40
1
40
1
41
1
10
56.2946120001718
20
2.05576830967573
30
0
41
1
10
56.2807750907813
20
2.10422858897309
30
0
41
1
10
56.269069634626
20
2.15277611841481
30
0
41
1
10
56.2591122341404
20
2.20139520192441
30
0
0
SPLINE
5
DD
100
AcDbEntity
8
1
62
256
6
ByLayer
370
18
48
1
60
0
100
AcDbSpline
70
4
71
3
72
8
73
4
40
0
40
0
40
0
40
0
40
1
40
1
40
1
40
1
41
1
10
32.1946369151141
20
-4.21759389683885
30
0
41
1
10
31.2397694810465
20
-4.31285621505316
30
0
41
1
10
30.2877681911707
20
-4.33078251215827
30
0
41
1
10
29.3282999999829
20
-4.26938333465236
30
0
0
SPLINE
5
DE
100
AcDbEntity
8
1
62
256
6
ByLayer
370
18
48
1
60
0
100
AcDbSpline
70
4
71
4
72
10
73
5
40
0
40
0
40
0
40
0
40
0
40
1
40
1
40
1
40
1
40
1
41
1
10
27.4073781387555
20
5.60990192337709
30
0
41
1
10
27.0840109745676
20
4.68849352330022
30
0
41
1
10
26.7606438103798
20
3.76708512322338
30
0
41
1
10
26.4372766461919
20
2.84567672314654
30
0
41
1
10
26.113909482004
20
1.9242683230697
30
0
0
SPLINE
5
DF
100
AcDbEntity
8
1
62
256
6
ByLayer
370
18
48
1
60
0
100
AcDbSpline
70
4
71
3
72
8
73
4
40
0
40
0
40
0
40
0
40
1
40
1
40
1
40
1
41
1
10
54.9921372693008
20
0.434740512593606
30
0
41
1
10
55.2034025392779
20
0.336095325850323
30
0
41
1
10
55.4162904725613
20
0.245478422803302
30
0
41
1
10
55.6309725641311
20
0.163738291458515
30
0
0
SPLINE
5
E0
100
AcDbEntity
8
1
62
256
6
ByLayer
370
18
48
1
60
0
100
AcDbSpline
70
4
71
3
72
56
73
52
40
0
40
0
40
0
40
0
40
0.031249999999999
40
0.031249999999999
40
0.062499999999998
40
0.062499999999998
40
0.0937499999999971
40
0.0937499999999971
40
0.124999999999996
40
0.124999999999996
40
0.187499999999995
40
0.187499999999995
40
0.218749999999995
40
0.218749999999995
40
0.249999999999995
40
0.249999999999995
40
0.312499999999994
40
0.312499999999994
40
0.343749999999994
40
0.343749999999994
40
0.374999999999995
40
0.374999999999995
40
0.437499999999995
40
0.437499999999995
40
0.468749999999996
40
0.468749999999996
40
0.499999999999997
40
0.499999999999997
40
0.562499999999998
40
0.562499999999998
40
0.593749999999998
40
0.593749999999998
40
0.624999999999999
40
0.624999999999999
40
0.656249999999999
40
0.656249999999999
40
0.687499999999999
40
0.687499999999999
40
0.71875
40
0.71875
40
0.75
40
0.75
40
0.812500000000001
40
0.812500000000001
40
0.843750000000001
40
0.843750000000001
40
0.875000000000001
40
0.875000000000001
40
0.937500000000001
40
0.937500000000001
40
1
40
1
40
1
40
1
41
1
10
55.4550787480508
20
-4.30515126434193
30
0
41
1
10
55.1827262407199
20
-4.28505634539482
30
0
41
1
10
54.9109973194601
20
-4.25854264438641
30
0
41
1
10
54.3675110993607
20
-4.19322441069627
30
0
41
1
10
54.0958858047221
20
-4.15439249594911
30
0
41
1
10
53.5527565725116
20
-4.0644139401617
30
0
41
1
10
53.2808573495487
20
-4.01354409746421
30
0
41
1
10
52.7369037843884
20
-3.89962155578962
30
0
41
1
10
52.4641141086415
20
-3.83681935340962
30
0
41
1
10
51.647264157134
20
-3.63161432545093
30
0
41
1
10
51.1043522486456
20
-3.47278013425665
30
0
41
1
10
50.2889761914538
20
-3.20590615721548
30
0
41
1
10
50.0173421894984
20
-3.11173960476774
30
0
41
1
10
49.4729171781728
20
-2.91498005740624
30
0
41
1
10
49.2001453487359
20
-2.81179820952121
30
0
41
1
10
48.3832493409444
20
-2.49072126244153
30
0
41
1
10
47.8398333857008
20
-2.26189010445324
30
0
41
1
10
47.0245518154371
20
-1.89987450193442
30
0
41
1
10
46.7526083325548
20
-1.77634775128055
30
0
41
1
10
46.2080867988203
20
-1.52406275923627
30
0
41
1
10
45.9352703193922
20
-1.39505130464329
30
0
41
1
10
45.1179758416807
20
-1.0040088864211
30
0
41
1
10
44.5748483989838
20
-0.736130242818433
30
0
41
1
10
43.7591716985557
20
-0.330650059696353
30
0
41
1
10
43.4870729329083
20
-0.194969324179027
30
0
41
1
10
42.942511022515
20
0.0775468795200993
30
0
41
1
10
42.6693560950184
20
0.213632335894374
30
0
41
1
10
41.8522873638713
20
0.620773779623192
30
0
41
1
10
41.3087929510091
20
0.888858375420767
30
0
41
1
10
40.492765021885
20
1.28087454008283
30
0
41
1
10
40.2208029418816
20
1.41020186944908
30
0
41
1
10
39.6757034275901
20
1.66371789752571
30
0
41
1
10
39.4028228993458
20
1.7888844930944
30
0
41
1
10
38.8578080314514
20
2.03206651639675
30
0
41
1
10
38.5856941181587
20
2.15073461448796
30
0
41
1
10
38.0417786979158
20
2.38138881834092
30
0
41
1
10
37.7696949934466
20
2.49290644541153
30
0
41
1
10
37.2257446775317
20
2.70910042179736
30
0
41
1
10
36.9534094691568
20
2.81301802387452
30
0
41
1
10
36.4083159552525
20
3.01293939432389
30
0
41
1
10
36.1351689611217
20
3.10862342558261
30
0
41
1
10
35.3177378847566
20
3.38068946385525
30
0
41
1
10
34.7744672542108
20
3.54274921131164
30
0
41
1
10
33.9582830130554
20
3.75256506936023
30
0
41
1
10
33.6862800646425
20
3.81724916651126
30
0
41
1
10
33.1413770300457
20
3.93503208640823
30
0
41
1
10
32.86810214372
20
3.98818607395279
30
0
41
1
10
32.0502660648112
20
4.12972224062611
30
0
41
1
10
31.5063343681541
20
4.19943111879559
30
0
41
1
10
30.4185664989581
20
4.28892022487454
30
0
41
1
10
29.8746648558566
20
4.30852647627034
30
0
41
1
10
29.3283
20
4.30243607167159
30
0
0
SPLINE
5
E1
100
AcDbEntity
8
1
62
256
6
ByLayer
370
18
48
1
60
0
100
AcDbSpline
70
4
71
3
72
8
73
4
40
0
40
0
40
0
40
0
40
1
40
1
40
1
40
1
41
1
10
29.3283000000001
20
-0.307654014747783
30
0
41
1
10
29.3283000000001
20
-0.314532862241947
30
0
41
1
10
29.3283
20
-0.321575287664814
30
0
41
1
10
29.3283
20
-0.328781719170593
30
0
0
SPLINE
5
E2
100
AcDbEntity
8
1
62
256
6
ByLayer
370
18
48
1
60
0
100
AcDbSpline
70
4
71
3
72
14
73
10
40
0
40
0
40
0
40
0
40
0.30012549145282
40
0.30012549145282
40
0.600250982905639
40
0.600250982905639
40
0.900376474358458
40
0.900376474358458
40
1
40
1
40
1
40
1
41
1
10
27.4073781387555
20
5.60990192337712
30
0
41
1
10
26.7272524294132
20
5.52396687521781
30
0
41
1
10
26.0468389193465
20
5.41839442770689
30
0
41
1
10
24.6853577377272
20
5.17367622547371
30
0
41
1
10
24.0042921563624
20
5.03449448191068
30
0
41
1
10
22.6417256115122
20
4.72478640319972
30
0
41
1
10
21.9602232776732
20
4.55426095102766
30
0
41
1
10
21.052543103669
20
4.30586148419548
30
0
41
1
10
20.8263380554789
20
4.2422016061341
30
0
41
1
10
20.6001518272777
20
4.17671198093319
30
0
0
SPLINE
5
E3
100
AcDbEntity
8
1
62
256
6
ByLayer
370
18
48
1
60
0
100
AcDbSpline
70
4
71
3
72
8
73
4
40
0
40
0
40
0
40
0
40
1
40
1
40
1
40
1
41
1
10
55.3954530692889
20
-4.20813957799143
30
0
41
1
10
55.4129407910009
20
-4.24972629716291
30
0
41
1
10
55.4327290828572
20
-4.28192528209476
30
0
41
1
10
55.4550787480508
20
-4.30515126434193
30
0
0
SPLINE
5
E4
100
AcDbEntity
8
1
62
256
6
ByLayer
370
18
48
1
60
0
100
AcDbSpline
70
4
71
3
72
12
73
8
40
0
40
0
40
0
40
0
40
0.500000000000006
40
0.500000000000006
40
0.750000000000003
40
0.750000000000003
40
1
40
1
40
1
40
1
41
1
10
29.3282999999829
20
4.30243607167139
30
0
41
1
10
29.0611806595019
20
4.56882873291437
30
0
41
1
10
28.802286726353
20
4.81695523593629
30
0
41
1
10
28.420541889266
20
5.16147553855586
30
0
41
1
10
28.2944947799581
20
5.2715828766153
30
0
41
1
10
28.0438658357594
20
5.48241369914342
30
0
41
1
10
27.9192880411412
20
5.58315475743001
30
0
41
1
10
27.7953073795172
20
5.67872227929831
30
0
0
SPLINE
5
E5
100
AcDbEntity
8
1
62
256
6
ByLayer
370
18
48
1
60
0
100
AcDbSpline
70
4
71
3
72
8
73
4
40
0
40
0
40
0
40
0
40
1
40
1
40
1
40
1
41
1
10
27.7953073795173
20
-5.67872227929831
30
0
41
1
10
27.6659144251996
20
-5.6577100608001
30
0
41
1
10
27.5366315299527
20
-5.63476402368488
30
0
41
1
10
27.4073781387555
20
-5.60990192337715
30
0
0
SPLINE
5
E6
100
AcDbEntity
8
1
62
256
6
ByLayer
370
18
48
1
60
0
100
AcDbSpline
70
4
71
3
72
12
73
8
40
0
40
0
40
0
40
0
40
0.5
40
0.5
40
0.75
40
0.75
40
1
40
1
40
1
40
1
41
1
10
29.3282999999829
20
-4.30243607167139
30
0
41
1
10
29.0611806595002
20
-4.56882873291605
30
0
41
1
10
28.8022867263593
20
-4.81695523593038
30
0
41
1
10
28.4205418892699
20
-5.16147553855242
30
0
41
1
10
28.2944947799612
20
-5.27158287661263
30
0
41
1
10
28.0438658357609
20
-5.4824136991422
30
0
41
1
10
27.919288041142
20
-5.58315475742944
30
0
41
1
10
27.7953073795173
20
-5.67872227929831
30
0
0
SPLINE
5
E7
100
AcDbEntity
8
1
62
256
6
ByLayer
370
18
48
1
60
0
100
AcDbSpline
70
4
71
3
72
54
73
50
40
0
40
0
40
0
40
0
40
0.0400160060444651
40
0.0400160060444651
40
0.0800320120889302
40
0.0800320120889302
40
0.120048018133395
40
0.120048018133395
40
0.140056021155628
40
0.140056021155628
40
0.160064024177861
40
0.160064024177861
40
0.240096036266792
40
0.240096036266792
40
0.280112042311258
40
0.280112042311258
40
0.320128048355723
40
0.320128048355723
40
0.360144054400188
40
0.360144054400188
40
0.400160060444653
40
0.400160060444653
40
0.440176066489118
40
0.440176066489118
40
0.480192072533583
40
0.480192072533583
40
0.520208078578048
40
0.520208078578048
40
0.560224084622513
40
0.560224084622513
40
0.600240090666978
40
0.600240090666978
40
0.640256096711443
40
0.640256096711443
40
0.680272102755909
40
0.680272102755909
40
0.720288108800374
40
0.720288108800374
40
0.760304114844839
40
0.760304114844839
40
0.800320120889304
40
0.800320120889304
40
0.840336126933769
40
0.840336126933769
40
0.880352132978234
40
0.880352132978234
40
0.960384145067166
40
0.960384145067166
40
1
40
1
40
1
40
1
41
1
10
29.3283
20
-0.307654014747783
30
0
41
1
10
29.5963952237984
20
-0.437156129529171
30
0
41
1
10
29.8641559874014
20
-0.56594131608415
30
0
41
1
10
30.3989806855162
20
-0.821901355984835
30
0
41
1
10
30.6664538365413
20
-0.948205826422168
30
0
41
1
10
31.201075669776
20
-1.19866541819678
30
0
41
1
10
31.4685460724609
20
-1.32216019636041
30
0
41
1
10
31.8698645805023
20
-1.50538064916671
30
0
41
1
10
32.0036005101072
20
-1.56627618060378
30
0
41
1
10
32.2713630591072
20
-1.68655751338159
30
0
41
1
10
32.4055411869785
20
-1.74579005861577
30
0
41
1
10
33.0759407219721
20
-2.03915189979546
30
0
41
1
10
33.6103727478998
20
-2.26291134316037
30
0
41
1
10
34.4122232239025
20
-2.57842740903209
30
0
41
1
10
34.6795884632896
20
-2.68010127031553
30
0
41
1
10
35.2145021485243
20
-2.87541934098073
30
0
41
1
10
35.4824977953595
20
-2.96859817928049
30
0
41
1
10
36.0187074629301
20
-3.14771419054898
30
0
41
1
10
36.2864729848161
20
-3.23317408141924
30
0
41
1
10
36.8213918882345
20
-3.39429631514082
30
0
41
1
10
37.08854998264
20
-3.4698943876601
30
0
41
1
10
37.6231121109491
20
-3.61010473172945
30
0
41
1
10
37.89020515954
20
-3.67516390653699
30
0
41
1
10
38.4252189839322
20
-3.79511903087427
30
0
41
1
10
38.6926955950726
20
-3.8506805532742
30
0
41
1
10
39.228741722522
20
-3.94968728078851
30
0
41
1
10
39.4966240861959
20
-3.99338363979337
30
0
41
1
10
40.0312994052672
20
-4.06958904897371
30
0
41
1
10
40.2986273750004
20
-4.10092993629601
30
0
41
1
10
40.83288091528
20
-4.15230565882604
30
0
41
1
10
41.1000811208052
20
-4.17217109422933
30
0
41
1
10
41.6347271999889
20
-4.20059588289107
30
0
41
1
10
41.9021010143498
20
-4.20956070835911
30
0
41
1
10
42.4377970802162
20
-4.21570226753309
30
0
41
1
10
42.705447629231
20
-4.21112998871644
30
0
41
1
10
43.2402746866854
20
-4.19036874477439
30
0
41
1
10
43.5073059729092
20
-4.17393596687438
30
0
41
1
10
44.0413506514234
20
-4.13050659330665
30
0
41
1
10
44.3084077916064
20
-4.10393869003534
30
0
41
1
10
44.84254299024
20
-4.03698077021406
30
0
41
1
10
45.1100645775291
20
-3.99708812689764
30
0
41
1
10
45.6455154212071
20
-3.90601278860936
30
0
41
1
10
45.9134094967287
20
-3.85492689002709
30
0
41
1
10
46.4481065426558
20
-3.74303063783106
30
0
41
1
10
46.7150577862341
20
-3.6820829651713
30
0
41
1
10
47.5162247008128
20
-3.48154798509592
30
0
41
1
10
48.0500972008197
20
-3.32565706435258
30
0
41
1
10
48.8501854226234
20
-3.06788019293438
30
0
41
1
10
49.1153968597359
20
-2.97831443334064
30
0
41
1
10
49.3798203534951
20
-2.88413506485503
30
0
0
SPLINE
5
E8
100
AcDbEntity
8
1
62
256
6
ByLayer
370
18
48
1
60
0
100
AcDbSpline
70
4
71
3
72
8
73
4
40
0
40
0
40
0
40
0
40
1
40
1
40
1
40
1
41
1
10
56.3042948384668
20
-1.0515620336449
30
0
41
1
10
56.3100863738753
20
-1.05085691829174
30
0
41
1
10
56.3159278433363
20
-1.04996357804285
30
0
41
1
10
56.3218202035449
20
-1.0488784066647
30
0
0
SPLINE
5
E9
100
AcDbEntity
8
1
62
256
6
ByLayer
370
18
48
1
60
0
100
AcDbSpline
70
4
71
3
72
26
73
22
40
0
40
0
40
0
40
0
40
0.0124290184845395
40
0.0124290184845395
40
0.102208198622311
40
0.102208198622311
40
0.147097788691196
40
0.147097788691196
40
0.191987378760081
40
0.191987378760081
40
0.281766558897849
40
0.281766558897849
40
0.461324919173384
40
0.461324919173384
40
0.551104099311153
40
0.551104099311153
40
0.640883279448923
40
0.640883279448923
40
0.820441639724461
40
0.820441639724461
40
1
40
1
40
1
40
1
41
1
10
14.157847210798
20
5.84992200141102
30
0
41
1
10
14.185581940636
20
5.84973703468185
30
0
41
1
10
14.2136315091661
20
5.84922956048769
30
0
41
1
10
14.4466352820127
20
5.84255471099181
30
0
41
1
10
14.6668590198566
20
5.82100922819714
30
0
41
1
10
15.0149353425044
20
5.77176323162666
30
0
41
1
10
15.1339556595063
20
5.75248322973385
30
0
41
1
10
15.3773878169627
20
5.70891225989186
30
0
41
1
10
15.5017041486678
20
5.68462614027845
30
0
41
1
10
15.8780518137344
20
5.60601046837775
30
0
41
1
10
16.1347889674341
20
5.54574851637932
30
0
41
1
10
16.9191728883527
20
5.34730189925637
30
0
41
1
10
17.4608292646101
20
5.19174729128835
30
0
41
1
10
18.2943113076015
20
4.93604780280074
30
0
41
1
10
18.5763082864067
20
4.84678182417881
30
0
41
1
10
19.1429325484914
20
4.6630519945237
30
0
41
1
10
19.4276370437801
20
4.56857524364932
30
0
41
1
10
20.2855508647725
20
4.27870174391853
30
0
41
1
10
20.8625430664477
20
4.07693881504525
30
0
41
1
10
22.025251492562
20
3.66103837298306
30
0
41
1
10
22.6109773629513
20
3.44685984968373
30
0
41
1
10
23.2006260370753
20
3.22771804229143
30
0
0
SPLINE
5
EA
100
AcDbEntity
8
1
62
256
6
ByLayer
370
18
48
1
60
0
100
AcDbSpline
70
4
71
3
72
8
73
4
40
0
40
0
40
0
40
0
40
1
40
1
40
1
40
1
41
1
10
25.9524804149662
20
1.53839867387717
30
0
41
1
10
26.0120377965848
20
1.65910082089482
30
0
41
1
10
26.066333595153
20
1.78870470795846
30
0
41
1
10
26.113909482004
20
1.92426832306973
30
0
0
SPLINE
5
EB
100
AcDbEntity
8
1
62
256
6
ByLayer
370
18
48
1
60
0
100
AcDbSpline
70
4
71
3
72
28
73
24
40
0
40
0
40
0
40
0
40
0.125
40
0.125
40
0.249999999999999
40
0.249999999999999
40
0.312500000000002
40
0.312500000000002
40
0.375000000000002
40
0.375000000000002
40
0.500000000000002
40
0.500000000000002
40
0.625000000000001
40
0.625000000000001
40
0.750000000000001
40
0.750000000000001
40
0.812500000000001
40
0.812500000000001
40
0.875
40
0.875
40
0.9375
40
0.9375
40
1
40
1
40
1
40
1
41
1
10
19.2348475813386
20
-3.75845529356604
30
0
41
1
10
19.0033343007416
20
-3.68352785639073
30
0
41
1
10
18.7676483958427
20
-3.62012538595491
30
0
41
1
10
18.289606953916
20
-3.51581106249856
30
0
41
1
10
18.0471293451612
20
-3.47485638378274
30
0
41
1
10
17.6785627576389
20
-3.43011338664365
30
0
41
1
10
17.5548952629629
20
-3.41798581059916
30
0
41
1
10
17.3059464967313
20
-3.39936713633745
30
0
41
1
10
17.1804922631522
20
-3.39288772365126
30
0
41
1
10
16.8061399931283
20
-3.38213867569553
30
0
41
1
10
16.5578308218807
20
-3.38635274175962
30
0
41
1
10
16.0637412524351
20
-3.41750615846553
30
0
41
1
10
15.8179533369467
20
-3.44438826976628
30
0
41
1
10
15.3292908231889
20
-3.52341246348013
30
0
41
1
10
15.0851298237845
20
-3.57590711413141
30
0
41
1
10
14.7331741516497
20
-3.67630767830599
30
0
41
1
10
14.6178989113401
20
-3.71345088837521
30
0
41
1
10
14.3925587607983
20
-3.79670540406559
30
0
41
1
10
14.2817839611849
20
-3.84311903417563
30
0
41
1
10
14.0716144186772
20
-3.94623536613827
30
0
41
1
10
13.9718604500838
20
-4.00296035683445
30
0
41
1
10
13.791355148816
20
-4.12989393962715
30
0
41
1
10
13.7125624899099
20
-4.19848237280956
30
0
41
1
10
13.652092274279
20
-4.27469532056563
30
0
0
SPLINE
5
EC
100
AcDbEntity
8
1
62
256
6
ByLayer
370
18
48
1
60
0
100
AcDbSpline
70
4
71
3
72
12
73
8
40
0
40
0
40
0
40
0
40
0.249999999999998
40
0.249999999999998
40
0.499999999999997
40
0.499999999999997
40
1
40
1
40
1
40
1
41
1
10
23.2006260370753
20
3.22771804229143
30
0
41
1
10
23.5867725675592
20
3.01098724504118
30
0
41
1
10
23.9699047256801
20
2.78469578925424
30
0
41
1
10
24.7351177784479
20
2.31979422319168
30
0
41
1
10
25.1167629034461
20
2.08062873177522
30
0
41
1
10
26.2609715446835
20
1.34607416407962
30
0
41
1
10
27.0239342161277
20
0.835233046038127
30
0
41
1
10
27.7953073795173
20
0.314829813871086
30
0
0
SPLINE
5
ED
100
AcDbEntity
8
1
62
256
6
ByLayer
370
18
48
1
60
0
100
AcDbSpline
70
4
71
3
72
8
73
4
40
0
40
0
40
0
40
0
40
1
40
1
40
1
40
1
41
1
10
56.999765661449
20
0.0851751464858808
30
0
41
1
10
56.9288471614178
20
0.276321142837873
30
0
41
1
10
56.8596235314109
20
0.46898822023968
30
0
41
1
10
56.7918911372927
20
0.663144550977165
30
0
0
SPLINE
5
EE
100
AcDbEntity
8
1
62
256
6
ByLayer
370
18
48
1
60
0
100
AcDbSpline
70
4
71
3
72
20
73
16
40
0
40
0
40
0
40
0
40
0.124999999999999
40
0.124999999999999
40
0.249999999999997
40
0.249999999999997
40
0.499999999999994
40
0.499999999999994
40
0.624999999999996
40
0.624999999999996
40
0.749999999999997
40
0.749999999999997
40
0.874999999999999
40
0.874999999999999
40
1
40
1
40
1
40
1
41
1
10
56.3042948384668
20
-1.0515620336449
30
0
41
1
10
56.2606779039465
20
-1.051957018455
30
0
41
1
10
56.218939365818
20
-1.04261302214658
30
0
41
1
10
56.1386514880941
20
-1.00738989113324
30
0
41
1
10
56.0998382132822
20
-0.981220582989465
30
0
41
1
10
55.9897546400539
20
-0.88158158904605
30
0
41
1
10
55.9259729373148
20
-0.789363941344902
30
0
41
1
10
55.8413656809439
20
-0.621331835867835
30
0
41
1
10
55.8152564971068
20
-0.560552485343294
30
0
41
1
10
55.767636743473
20
-0.432728564506362
30
0
41
1
10
55.7459683999074
20
-0.365365532360443
30
0
41
1
10
55.7065327986049
20
-0.224352884845814
30
0
41
1
10
55.6887678195442
20
-0.150699597400063
30
0
41
1
10
55.656974285988
20
0.0026282097889236
30
0
41
1
10
55.6429475193684
20
0.0824539742021955
30
0
41
1
10
55.6309725641311
20
0.163738291458515
30
0
0
SPLINE
5
EF
100
AcDbEntity
8
1
62
256
6
ByLayer
370
18
48
1
60
0
100
AcDbSpline
70
4
71
1
72
4
73
2
40
0
40
0
40
1
40
1
41
1
10
55.4096483290515
20
-4.12831904670844
30
0
41
1
10
56.3218202035553
20
-1.04887840666387
30
0
0
SPLINE
5
F0
100
AcDbEntity
8
1
62
256
6
ByLayer
370
18
48
1
60
0
100
AcDbSpline
70
4
71
3
72
38
73
34
40
0
40
0
40
0
40
0
40
0.0326068353018495
40
0.0326068353018495
40
0.065213670603699
40
0.065213670603699
40
0.0978205059055484
40
0.0978205059055484
40
0.130427341207398
40
0.130427341207398
40
0.260854682414794
40
0.260854682414794
40
0.326068353018493
40
0.326068353018493
40
0.358675188320341
40
0.358675188320341
40
0.39128202362219
40
0.39128202362219
40
0.521709364829585
40
0.521709364829585
40
0.586923035433283
40
0.586923035433283
40
0.619529870735132
40
0.619529870735132
40
0.652136706036982
40
0.652136706036982
40
0.782564047244378
40
0.782564047244378
40
0.847777717848076
40
0.847777717848076
40
0.912991388451773
40
0.912991388451773
40
1
40
1
40
1
40
1
41
1
10
55.3954530692885
20
-4.20813957799015
30
0
41
1
10
55.1218935356579
20
-4.17295434878855
30
0
41
1
10
54.849033736074
20
-4.13129135621531
30
0
41
1
10
54.3030306623878
20
-4.03610449232966
30
0
41
1
10
54.0300826964112
20
-3.98246554358485
30
0
41
1
10
53.4838624104816
20
-3.86343728197804
30
0
41
1
10
53.2101705835533
20
-3.79792415862684
30
0
41
1
10
52.6646005554954
20
-3.65620162070354
30
0
41
1
10
52.392677094881
20
-3.58003512580359
30
0
41
1
10
51.0360349082648
20
-3.17465071858408
30
0
41
1
10
49.9605886131172
20
-2.77123472655671
30
0
41
1
10
48.3399609878911
20
-2.08240366357578
30
0
41
1
10
47.7984514722984
20
-1.83897707613329
30
0
41
1
10
46.9815482072963
20
-1.45756762012013
30
0
41
1
10
46.7078348487585
20
-1.32744209101358
30
0
41
1
10
46.1617295292899
20
-1.06443126524573
30
0
41
1
10
45.8895489949074
20
-0.931631094389388
30
0
41
1
10
44.531905169341
20
-0.263418122792785
30
0
41
1
10
43.456014722769
20
0.284185103225667
30
0
41
1
10
41.8350715414503
20
1.07922903174906
30
0
41
1
10
41.2935508298188
20
1.3398112146601
30
0
41
1
10
40.4767518360688
20
1.71852656069595
30
0
41
1
10
40.2032353036063
20
1.84290414700138
30
0
41
1
10
39.6564088443901
20
2.08562254452104
30
0
41
1
10
39.3839095568532
20
2.20360279675552
30
0
41
1
10
38.0246678078205
20
2.77461235568643
30
0
41
1
10
36.9480010872134
20
3.17136356033922
30
0
41
1
10
35.3267109242785
20
3.64502791187323
30
0
41
1
10
34.7851894580115
20
3.78266624224631
30
0
41
1
10
33.6963324142178
20
4.01281870702962
30
0
41
1
10
33.1475939498673
20
4.10540173766677
30
0
41
1
10
31.8734963047161
20
4.26160770387634
30
0
41
1
10
31.1477514590539
20
4.30616845058168
30
0
41
1
10
30.4199527579584
20
4.30512453011559
30
0
0
SPLINE
5
F1
100
AcDbEntity
8
1
62
256
6
ByLayer
370
18
48
1
60
0
100
AcDbSpline
70
4
71
3
72
16
73
12
40
0
40
0
40
0
40
0
40
0.249999999999987
40
0.249999999999987
40
0.499999999999973
40
0.499999999999973
40
0.62499999999998
40
0.62499999999998
40
0.749999999999986
40
0.749999999999986
40
1
40
1
40
1
40
1
41
1
10
56.0409848114237
20
1.47962113694692
30
0
41
1
10
56.0880800173401
20
1.5112675144035
30
0
41
1
10
56.1327211582823
20
1.54652389138431
30
0
41
1
10
56.2124784310034
20
1.62768608787198
30
0
41
1
10
56.2464262367559
20
1.67238692966222
30
0
41
1
10
56.2841871086363
20
1.74858012808016
30
0
41
1
10
56.2944737651979
20
1.77560739503974
30
0
41
1
10
56.3090197737088
20
1.83029814994387
30
0
41
1
10
56.3134649143962
20
1.85827813595634
30
0
41
1
10
56.3183961518925
20
1.94410409992562
30
0
41
1
10
56.3103335291291
20
2.00070821261607
30
0
41
1
10
56.2946121535469
20
2.05576834766799
30
0
0
SPLINE
5
F2
100
AcDbEntity
8
1
62
256
6
ByLayer
370
18
48
1
60
0
100
AcDbSpline
70
4
71
3
72
23
73
19
40
0
40
0
40
0
40
0
40
0.0764076469824618
40
0.141491909522974
40
0.1979216645785
40
0.247246871431817
40
0.28965416582193
40
0.343349983355755
40
0.408669290286985
40
0.482346638385159
40
0.536982384201984
40
0.582004376401817
40
0.624302632178717
40
0.674312828577312
40
0.732600278213163
40
0.804538638488398
40
0.893565152697795
40
1
40
1
40
1
40
1
41
1
10
30.8590883896229
20
-4.19370500182268
30
0
41
1
10
31.1441167435778
20
-4.19225172309012
30
0
41
1
10
31.6755413314646
20
-4.19107485613694
30
0
41
1
10
32.4455725705472
20
-4.18887461052427
30
0
41
1
10
33.0892576085522
20
-4.19709753329701
30
0
41
1
10
33.6506242608038
20
-4.19823859675304
30
0
41
1
10
34.2109630736566
20
-4.19881129968147
30
0
41
1
10
34.832650625668
20
-4.20053129695486
30
0
41
1
10
35.574999936772
20
-4.20084038496799
30
0
41
1
10
36.3208757157441
20
-4.2023490769823
30
0
41
1
10
36.9886775129069
20
-4.20417359109103
30
0
41
1
10
37.5337451873699
20
-4.20429198260771
30
0
41
1
10
38.0622517058438
20
-4.20381082943373
30
0
41
1
10
38.6429133055407
20
-4.20628647098948
30
0
41
1
10
39.3293500170417
20
-4.20806304089206
30
0
41
1
10
40.1738177132993
20
-4.2089031251582
30
0
41
1
10
41.2042976373374
20
-4.20856214167702
30
0
41
1
10
41.9557645492241
20
-4.21154280493877
30
0
41
1
10
42.3646453266868
20
-4.21371141106451
30
0
0
SPLINE
5
F3
100
AcDbEntity
8
1
62
256
6
ByLayer
370
18
48
1
60
0
100
AcDbSpline
70
4
71
1
72
4
73
2
40
0
40
0
40
1
40
1
41
1
10
55.185289899035
20
0.367186759533581
30
0
41
1
10
54.9199606720665
20
0.478932760669665
30
0
0
SPLINE
5
F4
100
AcDbEntity
8
1
62
256
6
ByLayer
370
18
48
1
60
0
100
AcDbSpline
70
4
71
3
72
10
73
6
40
0
40
0
40
0
40
0
40
0.341369872648122
40
0.736058212259635
40
1
40
1
40
1
40
1
41
1
10
42.5615460629353
20
0.0642612339665334
30
0
41
1
10
42.7368556836755
20
0.0225198265275708
30
0
41
1
10
43.1142291185744
20
-0.0848244128888211
30
0
41
1
10
43.6255621046744
20
-0.273067935031975
30
0
41
1
10
43.9607354967446
20
-0.436215553638704
30
0
41
1
10
44.0948445066712
20
-0.507032747702112
30
0
0
SPLINE
5
F5
100
AcDbEntity
8
1
62
256
6
ByLayer
370
18
48
1
60
0
100
AcDbSpline
70
4
71
3
72
21
73
17
40
0
40
0
40
0
40
0
40
0.133583957887077
40
0.242487550805665
40
0.327518710371336
40
0.396867354590309
40
0.457333372435692
40
0.514382543328911
40
0.585826127595473
40
0.665529433746996
40
0.736976151549531
40
0.796111178140115
40
0.855599773054365
40
0.910922871394817
40
0.973995721685607
40
1
40
1
40
1
40
1
41
1
10
42.3646182273503
20
4.21371134716057
30
0
41
1
10
41.9111317303107
20
4.21139725698089
30
0
41
1
10
41.0878267418023
20
4.20831323256792
30
0
41
1
10
39.9706424305342
20
4.20878148102568
30
0
41
1
10
39.0793896850267
20
4.20820377893801
30
0
41
1
10
38.3528579606798
20
4.20451369861362
30
0
41
1
10
37.7150413607149
20
4.20391840284782
30
0
41
1
10
37.0750416041139
20
4.20445906422242
30
0
41
1
10
36.3660437252504
20
4.20244691666346
30
0
41
1
10
35.6085450800717
20
4.20086498119016
30
0
41
1
10
34.8926149367265
20
4.20061222326362
30
0
41
1
10
34.2461202931372
20
4.19887906921002
30
0
41
1
10
33.6529145225269
20
4.19829735840358
30
0
41
1
10
33.0584813283906
20
4.19681949065381
30
0
41
1
10
32.5766207767923
20
4.19072123417718
30
0
41
1
10
32.2736961691406
20
4.19007581094198
30
0
41
1
10
32.1851296407266
20
4.19005190037456
30
0
0
SPLINE
5
F6
100
AcDbEntity
8
1
62
256
6
ByLayer
370
18
48
1
60
0
100
AcDbSpline
70
4
71
3
72
14
73
10
40
0
40
0
40
0
40
0
40
0.221705925623938
40
0.388003614182982
40
0.498637409774771
40
0.576941915291515
40
0.686467067372591
40
0.827401752566249
40
1
40
1
40
1
40
1
41
1
10
29.1946625726671
20
-0.0634678783061702
30
0
41
1
10
29.0020294174885
20
-0.0176664108268483
30
0
41
1
10
28.6655383002781
20
0.0785667488247839
30
0
41
1
10
28.2341063365385
20
0.238897400139791
30
0
41
1
10
27.9279682253941
20
0.370911857393253
30
0
41
1
10
27.6714329797393
20
0.491907649981357
30
0
41
1
10
27.388897973605
20
0.636441012344051
30
0
41
1
10
27.0260519411075
20
0.841334972738593
30
0
41
1
10
26.7579017462329
20
1.01053089808721
30
0
41
1
10
26.6105082128417
20
1.1089474284199
30
0
0
LINE
5
7D
100
AcDbEntity
8
SK1
62
256
6
ByLayer
370
18
48
1
60
0
100
AcDbLine
10
0
20
-6
30
0
11
0
21
6
31
0
39
0
210
0
220
0
230
1
0
LINE
5
7F
100
AcDbEntity
8
SK1
62
256
6
ByLayer
370
18
48
1
60
0
100
AcDbLine
10
-45
20
3
30
0
11
-45
21
-3
31
0
39
0
210
0
220
0
230
1
0
LINE
5
80
100
AcDbEntity
8
SK1
62
256
6
ByLayer
370
18
48
1
60
0
100
AcDbLine
10
-43.267949
20
6
30
0
11
-43.267949
21
-6
31
0
39
0
210
0
220
0
230
1
0
LINE
5
81
100
AcDbEntity
8
1
62
256
6
ByLayer
370
18
48
1
60
0
100
AcDbLine
10
29.3283
20
-0.328782
30
0
11
29.3283
21
-4.269383
31
0
39
0
210
0
220
0
230
1
0
LINE
5
82
100
AcDbEntity
8
1
62
256
6
ByLayer
370
18
48
1
60
0
100
AcDbLine
10
0
20
-6
30
0
11
0
21
6
31
0
39
0
210
0
220
0
230
1
0
LINE
5
83
100
AcDbEntity
8
1
62
256
6
ByLayer
370
18
48
1
60
0
100
AcDbLine
10
29.3283
20
-4.269383
30
0
11
29.3283
21
-4.302436
31
0
39
0
210
0
220
0
230
1
0
LINE
5
84
100
AcDbEntity
8
1
62
256
6
ByLayer
370
18
48
1
60
0
100
AcDbLine
10
27.795307
20
0.31483
30
0
11
27.795307
21
-5.678722
31
0
39
0
210
0
220
0
230
1
0
LINE
5
85
100
AcDbEntity
8
1
62
256
6
ByLayer
370
13
48
1
60
0
100
AcDbLine
10
0.698212
20
5.85
30
0
11
0.698212
21
-5.85
31
0
39
0
210
0
220
0
230
1
0
LINE
5
86
100
AcDbEntity
8
1
62
256
6
ByLayer
370
13
48
1
60
0
100
AcDbLine
10
0.349106
20
5.925
30
0
11
0.349106
21
-5.925
31
0
39
0
210
0
220
0
230
1
0
LINE
5
87
100
AcDbEntity
8
1
62
256
6
ByLayer
370
18
48
1
60
0
100
AcDbLine
10
54.889553
20
-2.187355
30
0
11
56.304295
21
-1.051562
31
0
39
0
210
0
220
0
230
1
0
LINE
5
88
100
AcDbEntity
8
80
62
256
6
ByLayer
370
18
48
1
60
0
100
AcDbLine
10
0
20
0
30
0
11
-5
21
0
31
0
39
0
210
0
220
0
230
1
0
LINE
5
89
100
AcDbEntity
8
SK4
62
256
6
ByLayer
370
18
48
0.05
60
0
100
AcDbLine
10
62
20
0
30
0
11
-50
21
0
31
0
39
0
210
0
220
0
230
1
0
LINE
5
8B
100
AcDbEntity
8
4
62
256
6
ByLayer
370
18
48
0.05
60
0
100
AcDbLine
10
57
20
0
30
0
11
0
21
0
31
0
39
0
210
0
220
0
230
1
0
LINE
5
8D
100
AcDbEntity
8
SK1
62
256
6
ByLayer
370
18
48
1
60
0
100
AcDbLine
10
-45
20
-3
30
0
11
-43.267949
21
-6
31
0
39
0
210
0
220
0
230
1
0
LINE
5
8E
100
AcDbEntity
8
SK1
62
256
6
ByLayer
370
18
48
1
60
0
100
AcDbLine
10
-43.267949
20
6
30
0
11
-45
21
3
31
0
39
0
210
0
220
0
230
1
0
LINE
5
8F
100
AcDbEntity
8
SK1
62
256
6
ByLayer
370
18
48
1
60
0
100
AcDbLine
10
-43.267949
20
-6
30
0
11
0
21
-6
31
0
39
0
210
0
220
0
230
1
0
LINE
5
90
100
AcDbEntity
8
SK1
62
256
6
ByLayer
370
18
48
1
60
0
100
AcDbLine
10
0
20
6
30
0
11
-43.267949
21
6
31
0
39
0
210
0
220
0
230
1
0
LINE
5
91
100
AcDbEntity
8
1
62
256
6
ByLayer
370
18
48
1
60
0
100
AcDbLine
10
29.491307
20
-4.303493
30
0
11
30.414014
21
-4.305154
31
0
39
0
210
0
220
0
230
1
0
LINE
5
92
100
AcDbEntity
8
1
62
256
6
ByLayer
370
18
48
1
60
0
100
AcDbLine
10
30.414014
20
4.305154
30
0
11
29.49094
21
4.303493
31
0
39
0
210
0
220
0
230
1
0
LINE
5
93
100
AcDbEntity
8
1
62
256
6
ByLayer
370
18
48
1
60
0
100
AcDbLine
10
0.698212
20
-5.85
30
0
11
14.152975
21
-5.85
31
0
39
0
210
0
220
0
230
1
0
LINE
5
94
100
AcDbEntity
8
1
62
256
6
ByLayer
370
18
48
1
60
0
100
AcDbLine
10
14.152975
20
5.85
30
0
11
0.698212
21
5.85
31
0
39
0
210
0
220
0
230
1
0
LINE
5
95
100
AcDbEntity
8
81
62
256
6
ByLayer
370
18
48
1
60
0
100
AcDbLine
10
57
20
0
30
0
11
62
21
0
31
0
39
0
210
0
220
0
230
1
0
LINE
5
96
100
AcDbEntity
8
2
62
256
6
ByLayer
370
13
48
1
60
0
100
AcDbLine
10
79.236431
20
-5.85
30
0
11
79.236431
21
33.17108
31
0
39
0
210
0
220
0
230
1
0
LINE
5
98
100
AcDbEntity
8
2
62
256
6
ByLayer
370
13
48
1
60
0
100
AcDbLine
10
29.4158
20
5.85
30
0
11
81.236431
21
5.85
31
0
39
0
210
0
220
0
230
1
0
LINE
5
99
100
AcDbEntity
8
2
62
256
6
ByLayer
370
13
48
1
60
0
100
AcDbLine
10
29.4158
20
-5.85
30
0
11
81.236431
21
-5.85
31
0
39
0
210
0
220
0
230
1
0
LINE
5
9A
100
AcDbEntity
8
1
62
256
6
ByLayer
370
18
48
1
60
1
100
AcDbLine
10
79.236431
20
5.85
30
0
11
79.697214
21
2.350002
31
0
39
0
210
0
220
0
230
1
0
LINE
5
9B
100
AcDbEntity
8
1
62
256
6
ByLayer
370
18
48
1
60
1
100
AcDbLine
10
79.697214
20
2.350002
30
0
11
78.775647
21
2.349998
31
0
39
0
210
0
220
0
230
1
0
LINE
5
9C
100
AcDbEntity
8
1
62
256
6
ByLayer
370
18
48
1
60
1
100
AcDbLine
10
78.775647
20
2.349998
30
0
11
79.236431
21
5.85
31
0
39
0
210
0
220
0
230
1
0
LINE
5
9D
100
AcDbEntity
8
1
62
256
6
ByLayer
370
18
48
1
60
1
100
AcDbLine
10
79.236431
20
-5.85
30
0
11
78.775647
21
-2.350002
31
0
39
0
210
0
220
0
230
1
0
LINE
5
9E
100
AcDbEntity
8
1
62
256
6
ByLayer
370
18
48
1
60
1
100
AcDbLine
10
78.775647
20
-2.350002
30
0
11
79.697214
21
-2.349998
31
0
39
0
210
0
220
0
230
1
0
LINE
5
9F
100
AcDbEntity
8
1
62
256
6
ByLayer
370
18
48
1
60
1
100
AcDbLine
10
79.697214
20
-2.349998
30
0
11
79.236431
21
-5.85
31
0
39
0
210
0
220
0
230
1
0
LINE
5
A0
100
AcDbEntity
8
SK2
62
256
6
ByLayer
370
13
48
1
60
0
100
AcDbLine
10
-53.625163
20
-6
30
0
11
-53.625163
21
36.857173
31
0
39
0
210
0
220
0
230
1
0
LINE
5
A2
100
AcDbEntity
8
SK2
62
256
6
ByLayer
370
13
48
1
60
0
100
AcDbLine
10
-46.5875
20
6
30
0
11
-55.625163
21
6
31
0
39
0
210
0
220
0
230
1
0
LINE
5
A3
100
AcDbEntity
8
SK2
62
256
6
ByLayer
370
13
48
1
60
0
100
AcDbLine
10
-46.5875
20
-6
30
0
11
-55.625163
21
-6
31
0
39
0
210
0
220
0
230
1
0
LINE
5
A4
100
AcDbEntity
8
1
62
256
6
ByLayer
370
18
48
1
60
1
100
AcDbLine
10
-53.625163
20
6
30
0
11
-53.164379
21
2.500002
31
0
39
0
210
0
220
0
230
1
0
LINE
5
A5
100
AcDbEntity
8
1
62
256
6
ByLayer
370
18
48
1
60
1
100
AcDbLine
10
-53.164379
20
2.500002
30
0
11
-54.085946
21
2.499998
31
0
39
0
210
0
220
0
230
1
0
LINE
5
A6
100
AcDbEntity
8
1
62
256
6
ByLayer
370
18
48
1
60
1
100
AcDbLine
10
-54.085946
20
2.499998
30
0
11
-53.625163
21
6
31
0
39
0
210
0
220
0
230
1
0
LINE
5
A7
100
AcDbEntity
8
1
62
256
6
ByLayer
370
18
48
1
60
1
100
AcDbLine
10
-53.625163
20
-6
30
0
11
-54.085946
21
-2.500002
31
0
39
0
210
0
220
0
230
1
0
LINE
5
A8
100
AcDbEntity
8
1
62
256
6
ByLayer
370
18
48
1
60
1
100
AcDbLine
10
-54.085946
20
-2.500002
30
0
11
-53.164379
21
-2.499998
31
0
39
0
210
0
220
0
230
1
0
LINE
5
A9
100
AcDbEntity
8
1
62
256
6
ByLayer
370
18
48
1
60
1
100
AcDbLine
10
-53.164379
20
-2.499998
30
0
11
-53.625163
21
-6
31
0
39
0
210
0
220
0
230
1
0
LINE
5
AA
100
AcDbEntity
8
2
62
256
6
ByLayer
370
13
48
1
60
0
100
AcDbLine
10
70.970081
20
-4.35
30
0
11
70.970081
21
32.81483
31
0
39
0
210
0
220
0
230
1
0
LINE
5
AB
100
AcDbEntity
8
2
62
256
6
ByLayer
370
13
48
1
60
0
100
AcDbLine
10
56.9158
20
4.35
30
0
11
72.970081
21
4.35
31
0
39
0
210
0
220
0
230
1
0
LINE
5
AC
100
AcDbEntity
8
2
62
256
6
ByLayer
370
13
48
1
60
0
100
AcDbLine
10
56.9158
20
-4.35
30
0
11
72.970081
21
-4.35
31
0
39
0
210
0
220
0
230
1
0
LINE
5
AD
100
AcDbEntity
8
1
62
256
6
ByLayer
370
18
48
1
60
1
100
AcDbLine
10
70.970081
20
4.35
30
0
11
71.430865
21
0.850002
31
0
39
0
210
0
220
0
230
1
0
LINE
5
AE
100
AcDbEntity
8
1
62
256
6
ByLayer
370
18
48
1
60
1
100
AcDbLine
10
71.430865
20
0.850002
30
0
11
70.509297
21
0.849998
31
0
39
0
210
0
220
0
230
1
0
LINE
5
AF
100
AcDbEntity
8
1
62
256
6
ByLayer
370
18
48
1
60
1
100
AcDbLine
10
70.509297
20
0.849998
30
0
11
70.970081
21
4.35
31
0
39
0
210
0
220
0
230
1
0
LINE
5
B0
100
AcDbEntity
8
1
62
256
6
ByLayer
370
18
48
1
60
1
100
AcDbLine
10
70.970081
20
-4.35
30
0
11
70.509297
21
-0.850002
31
0
39
0
210
0
220
0
230
1
0
LINE
5
B1
100
AcDbEntity
8
1
62
256
6
ByLayer
370
18
48
1
60
1
100
AcDbLine
10
70.509297
20
-0.850002
30
0
11
71.430865
21
-0.849998
31
0
39
0
210
0
220
0
230
1
0
LINE
5
B2
100
AcDbEntity
8
1
62
256
6
ByLayer
370
18
48
1
60
1
100
AcDbLine
10
71.430865
20
-0.849998
30
0
11
70.970081
21
-4.35
31
0
39
0
210
0
220
0
230
1
0
LINE
5
B3
100
AcDbEntity
8
SK2
62
256
6
ByLayer
370
13
48
1
60
0
100
AcDbLine
10
26.705768
20
-6.972532
30
0
11
18.353041
21
-15.325259
31
0
39
0
210
0
220
0
230
1
0
LINE
5
B4
100
AcDbEntity
8
SK2
62
256
6
ByLayer
370
13
48
1
60
0
100
AcDbLine
10
26.705768
20
6.972532
30
0
11
18.353041
21
15.325259
31
0
39
0
210
0
220
0
230
1
0
LINE
5
B5
100
AcDbEntity
8
1
62
256
6
ByLayer
370
18
48
1
60
1
100
AcDbLine
10
19.767255
20
-13.911045
30
0
11
17.064615
21
-11.639912
31
0
39
0
210
0
220
0
230
1
0
LINE
5
B6
100
AcDbEntity
8
1
62
256
6
ByLayer
370
18
48
1
60
1
100
AcDbLine
10
17.064615
20
-11.639912
30
0
11
17.744516
21
-11.017801
31
0
39
0
210
0
220
0
230
1
0
LINE
5
B7
100
AcDbEntity
8
1
62
256
6
ByLayer
370
18
48
1
60
1
100
AcDbLine
10
17.744516
20
-11.017801
30
0
11
19.767255
21
-13.911045
31
0
39
0
210
0
220
0
230
1
0
LINE
5
B8
100
AcDbEntity
8
1
62
256
6
ByLayer
370
18
48
1
60
1
100
AcDbLine
10
19.767255
20
13.911045
30
0
11
17.744518
21
11.017804
31
0
39
0
210
0
220
0
230
1
0
LINE
5
B9
100
AcDbEntity
8
1
62
256
6
ByLayer
370
18
48
1
60
1
100
AcDbLine
10
17.744518
20
11.017804
30
0
11
17.064612
21
11.639909
31
0
39
0
210
0
220
0
230
1
0
LINE
5
BA
100
AcDbEntity
8
1
62
256
6
ByLayer
370
18
48
1
60
1
100
AcDbLine
10
17.064612
20
11.639909
30
0
11
19.767255
21
13.911045
31
0
39
0
210
0
220
0
230
1
0
LINE
5
FD
100
AcDbEntity
8
1
62
256
6
ByLayer
370
18
48
1
60
1
100
AcDbLine
10
79.236431
20
5.85
30
0
11
79.697214
21
2.350002
31
0
39
0
210
0
220
0
230
1
0
LINE
5
FE
100
AcDbEntity
8
1
62
256
6
ByLayer
370
18
48
1
60
1
100
AcDbLine
10
79.697214
20
2.350002
30
0
11
78.775647
21
2.349998
31
0
39
0
210
0
220
0
230
1
0
LINE
5
FF
100
AcDbEntity
8
1
62
256
6
ByLayer
370
18
48
1
60
1
100
AcDbLine
10
78.775647
20
2.349998
30
0
11
79.236431
21
5.85
31
0
39
0
210
0
220
0
230
1
0
LINE
5
101
100
AcDbEntity
8
1
62
256
6
ByLayer
370
18
48
1
60
1
100
AcDbLine
10
79.236431
20
-5.85
30
0
11
78.775647
21
-2.350002
31
0
39
0
210
0
220
0
230
1
0
LINE
5
102
100
AcDbEntity
8
1
62
256
6
ByLayer
370
18
48
1
60
1
100
AcDbLine
10
78.775647
20
-2.350002
30
0
11
79.697214
21
-2.349998
31
0
39
0
210
0
220
0
230
1
0
LINE
5
103
100
AcDbEntity
8
1
62
256
6
ByLayer
370
18
48
1
60
1
100
AcDbLine
10
79.697214
20
-2.349998
30
0
11
79.236431
21
-5.85
31
0
39
0
210
0
220
0
230
1
0
LINE
5
107
100
AcDbEntity
8
1
62
256
6
ByLayer
370
18
48
1
60
1
100
AcDbLine
10
-53.625163
20
6
30
0
11
-53.164379
21
2.500002
31
0
39
0
210
0
220
0
230
1
0
LINE
5
108
100
AcDbEntity
8
1
62
256
6
ByLayer
370
18
48
1
60
1
100
AcDbLine
10
-53.164379
20
2.500002
30
0
11
-54.085946
21
2.499998
31
0
39
0
210
0
220
0
230
1
0
LINE
5
109
100
AcDbEntity
8
1
62
256
6
ByLayer
370
18
48
1
60
1
100
AcDbLine
10
-54.085946
20
2.499998
30
0
11
-53.625163
21
6
31
0
39
0
210
0
220
0
230
1
0
LINE
5
10B
100
AcDbEntity
8
1
62
256
6
ByLayer
370
18
48
1
60
1
100
AcDbLine
10
-53.625163
20
-6
30
0
11
-54.085946
21
-2.500002
31
0
39
0
210
0
220
0
230
1
0
LINE
5
10C
100
AcDbEntity
8
1
62
256
6
ByLayer
370
18
48
1
60
1
100
AcDbLine
10
-54.085946
20
-2.500002
30
0
11
-53.164379
21
-2.499998
31
0
39
0
210
0
220
0
230
1
0
LINE
5
10D
100
AcDbEntity
8
1
62
256
6
ByLayer
370
18
48
1
60
1
100
AcDbLine
10
-53.164379
20
-2.499998
30
0
11
-53.625163
21
-6
31
0
39
0
210
0
220
0
230
1
0
LINE
5
111
100
AcDbEntity
8
1
62
256
6
ByLayer
370
18
48
1
60
1
100
AcDbLine
10
70.970081
20
4.35
30
0
11
71.430865
21
0.850002
31
0
39
0
210
0
220
0
230
1
0
LINE
5
112
100
AcDbEntity
8
1
62
256
6
ByLayer
370
18
48
1
60
1
100
AcDbLine
10
71.430865
20
0.850002
30
0
11
70.509297
21
0.849998
31
0
39
0
210
0
220
0
230
1
0
LINE
5
113
100
AcDbEntity
8
1
62
256
6
ByLayer
370
18
48
1
60
1
100
AcDbLine
10
70.509297
20
0.849998
30
0
11
70.970081
21
4.35
31
0
39
0
210
0
220
0
230
1
0
LINE
5
115
100
AcDbEntity
8
1
62
256
6
ByLayer
370
18
48
1
60
1
100
AcDbLine
10
70.970081
20
-4.35
30
0
11
70.509297
21
-0.850002
31
0
39
0
210
0
220
0
230
1
0
LINE
5
116
100
AcDbEntity
8
1
62
256
6
ByLayer
370
18
48
1
60
1
100
AcDbLine
10
70.509297
20
-0.850002
30
0
11
71.430865
21
-0.849998
31
0
39
0
210
0
220
0
230
1
0
LINE
5
117
100
AcDbEntity
8
1
62
256
6
ByLayer
370
18
48
1
60
1
100
AcDbLine
10
71.430865
20
-0.849998
30
0
11
70.970081
21
-4.35
31
0
39
0
210
0
220
0
230
1
0
LINE
5
11A
100
AcDbEntity
8
1
62
256
6
ByLayer
370
18
48
1
60
1
100
AcDbLine
10
19.767255
20
-13.911045
30
0
11
17.064615
21
-11.639912
31
0
39
0
210
0
220
0
230
1
0
LINE
5
11B
100
AcDbEntity
8
1
62
256
6
ByLayer
370
18
48
1
60
1
100
AcDbLine
10
17.064615
20
-11.639912
30
0
11
17.744516
21
-11.017801
31
0
39
0
210
0
220
0
230
1
0
LINE
5
11C
100
AcDbEntity
8
1
62
256
6
ByLayer
370
18
48
1
60
1
100
AcDbLine
10
17.744516
20
-11.017801
30
0
11
19.767255
21
-13.911045
31
0
39
0
210
0
220
0
230
1
0
LINE
5
11E
100
AcDbEntity
8
1
62
256
6
ByLayer
370
18
48
1
60
1
100
AcDbLine
10
19.767255
20
13.911045
30
0
11
17.744518
21
11.017804
31
0
39
0
210
0
220
0
230
1
0
LINE
5
11F
100
AcDbEntity
8
1
62
256
6
ByLayer
370
18
48
1
60
1
100
AcDbLine
10
17.744518
20
11.017804
30
0
11
17.064612
21
11.639909
31
0
39
0
210
0
220
0
230
1
0
LINE
5
120
100
AcDbEntity
8
1
62
256
6
ByLayer
370
18
48
1
60
1
100
AcDbLine
10
17.064612
20
11.639909
30
0
11
19.767255
21
13.911045
31
0
39
0
210
0
220
0
230
1
0
MTEXT
5
F7
100
AcDbEntity
8
SK6
62
256
6
ByLayer
370
13
48
1
60
0
100
AcDbMText
10
-22.54646
20
36.890328
30
0
210
0
220
0
230
1
1
\W0.7492;860.2-0870-026A1-PM P1BM
40
3.5
41
0
44
1.084337
50
0
71
7
72
5
7
iso_b_vert
0
MTEXT
5
FB
100
AcDbEntity
8
2
62
256
6
ByLayer
370
18
48
1
60
0
100
AcDbMText
10
77.671797
20
16.597798
30
0
210
0
220
0
230
1
1
%%c
40
3.5
41
0
44
1.084337
50
90
71
7
72
5
7
iso_b_vert
0
MTEXT
5
FC
100
AcDbEntity
8
2
62
256
6
ByLayer
370
18
48
1
60
0
100
AcDbMText
10
77.671797
20
21.820454
30
0
210
0
220
0
230
1
1
\W0.6440;11,700
40
3.5
41
0
44
1.084337
50
90
71
7
72
5
7
iso_b_vert
0
MTEXT
5
105
100
AcDbEntity
8
SK2
62
256
6
ByLayer
370
18
48
1
60
0
100
AcDbMText
10
-55.189796
20
19.409024
30
0
210
0
220
0
230
1
1
%%c
40
3.5
41
0
44
1.084337
50
90
71
7
72
5
7
iso_b_vert
0
MTEXT
5
106
100
AcDbEntity
8
SK2
62
256
6
ByLayer
370
18
48
1
60
0
100
AcDbMText
10
-55.189796
20
24.63168
30
0
210
0
220
0
230
1
1
\W0.6930;12,000
40
3.5
41
0
44
1.084337
50
90
71
7
72
5
7
iso_b_vert
0
MTEXT
5
10F
100
AcDbEntity
8
2
62
256
6
ByLayer
370
18
48
1
60
0
100
AcDbMText
10
69.405448
20
17.106747
30
0
210
0
220
0
230
1
1
%%c
40
3.5
41
0
44
1.084337
50
90
71
7
72
5
7
iso_b_vert
0
MTEXT
5
110
100
AcDbEntity
8
2
62
256
6
ByLayer
370
18
48
1
60
0
100
AcDbMText
10
69.405448
20
22.329403
30
0
210
0
220
0
230
1
1
\W0.7317;8,700
40
3.5
41
0
44
1.084337
50
90
71
7
72
5
7
iso_b_vert
0
MTEXT
5
119
100
AcDbEntity
8
SK2
62
256
6
ByLayer
370
13
48
1
60
0
100
AcDbMText
10
9.185175
20
-0.291663
30
0
210
0
220
0
230
1
1
\W0.8181;90,0%%d
40
3.5
41
0
44
1.084337
50
0
71
7
72
5
7
iso_b_vert
0
HATCH
5
100
100
AcDbEntity
8
2
62
256
6
ByLayer
370
13
48
1
60
0
100
AcDbHatch
10
0
20
0
30
0
210
0
220
0
230
1
2
ANSI31
70
0
71
0
91
1
92
5
93
3
72
1
10
79.2364306046164
20
5.85000000000002
11
79.6972143461692
21
2.35000169255321
72
1
10
79.6972143461692
20
2.35000169255321
11
78.7756468630637
21
2.34999830744684
72
1
10
78.7756468630637
20
2.34999830744684
11
79.2364306046164
21
5.85000000000002
97
0
75
0
76
1
52
0
41
0.0062
77
0
78
1
53
45
43
0
44
0
45
-0.0139193969876572
46
0.0139193969876572
79
0
47
0
98
1
10
0
20
0
0
HATCH
5
104
100
AcDbEntity
8
2
62
256
6
ByLayer
370
13
48
1
60
0
100
AcDbHatch
10
0
20
0
30
0
210
0
220
0
230
1
2
ANSI31
70
0
71
0
91
1
92
5
93
3
72
1
10
79.2364306046164
20
-5.84999999999999
11
78.7756468630637
21
-2.35000169255318
72
1
10
78.7756468630637
20
-2.35000169255318
11
79.6972143461692
21
-2.34999830744681
72
1
10
79.6972143461692
20
-2.34999830744681
11
79.2364306046164
21
-5.84999999999999
97
0
75
0
76
1
52
0
41
0.0062
77
0
78
1
53
45
43
0
44
0
45
-0.0139193969876572
46
0.0139193969876572
79
0
47
0
98
1
10
0
20
0
0
HATCH
5
10A
100
AcDbEntity
8
SK2
62
256
6
ByLayer
370
13
48
1
60
0
100
AcDbHatch
10
0
20
0
30
0
210
0
220
0
230
1
2
ANSI31
70
0
71
0
91
1
92
5
93
3
72
1
10
-53.6251625675374
20
6
11
-53.1643788259847
21
2.50000169255318
72
1
10
-53.1643788259847
20
2.50000169255318
11
-54.0859463090902
21
2.49999830744682
72
1
10
-54.0859463090902
20
2.49999830744682
11
-53.6251625675374
21
6
97
0
75
0
76
1
52
0
41
0.0062
77
0
78
1
53
45
43
0
44
0
45
-0.0139193969876572
46
0.0139193969876572
79
0
47
0
98
1
10
0
20
0
0
HATCH
5
10E
100
AcDbEntity
8
SK2
62
256
6
ByLayer
370
13
48
1
60
0
100
AcDbHatch
10
0
20
0
30
0
210
0
220
0
230
1
2
ANSI31
70
0
71
0
91
1
92
5
93
3
72
1
10
-53.6251625675374
20
-6
11
-54.0859463090902
21
-2.50000169255318
72
1
10
-54.0859463090902
20
-2.50000169255318
11
-53.1643788259847
21
-2.49999830744682
72
1
10
-53.1643788259847
20
-2.49999830744682
11
-53.6251625675374
21
-6
97
0
75
0
76
1
52
0
41
0.0062
77
0
78
1
53
45
43
0
44
0
45
-0.0139193969876572
46
0.0139193969876572
79
0
47
0
98
1
10
0
20
0
0
HATCH
5
114
100
AcDbEntity
8
2
62
256
6
ByLayer
370
13
48
1
60
0
100
AcDbHatch
10
0
20
0
30
0
210
0
220
0
230
1
2
ANSI31
70
0
71
0
91
1
92
5
93
3
72
1
10
70.9700811011614
20
4.35000000000002
11
71.4308648427142
21
0.850001692553207
72
1
10
71.4308648427142
20
0.850001692553207
11
70.5092973596087
21
0.849998307446839
72
1
10
70.5092973596087
20
0.849998307446839
11
70.9700811011614
21
4.35000000000002
97
0
75
0
76
1
52
0
41
0.0062
77
0
78
1
53
45
43
0
44
0
45
-0.0139193969876572
46
0.0139193969876572
79
0
47
0
98
1
10
0
20
0
0
HATCH
5
118
100
AcDbEntity
8
2
62
256
6
ByLayer
370
13
48
1
60
0
100
AcDbHatch
10
0
20
0
30
0
210
0
220
0
230
1
2
ANSI31
70
0
71
0
91
1
92
5
93
3
72
1
10
70.9700811011614
20
-4.34999999999999
11
70.5092973596087
21
-0.850001692553178
72
1
10
70.5092973596087
20
-0.850001692553178
11
71.4308648427142
21
-0.84999830744681
72
1
10
71.4308648427142
20
-0.84999830744681
11
70.9700811011614
21
-4.34999999999999
97
0
75
0
76
1
52
0
41
0.0062
77
0
78
1
53
45
43
0
44
0
45
-0.0139193969876572
46
0.0139193969876572
79
0
47
0
98
1
10
0
20
0
0
HATCH
5
11D
100
AcDbEntity
8
SK2
62
256
6
ByLayer
370
13
48
1
60
0
100
AcDbHatch
10
0
20
0
30
0
210
0
220
0
230
1
2
ANSI31
70
0
71
0
91
1
92
5
93
3
72
1
10
19.7672548446748
20
-13.911045155325
11
17.0646147682029
21
-11.6399118642878
72
1
10
17.0646147682029
20
-11.6399118642878
11
17.7445156223205
21
-11.0178013801301
72
1
10
17.7445156223205
20
-11.0178013801301
11
19.7672548446748
21
-13.911045155325
97
0
75
0
76
1
52
0
41
0.0062
77
0
78
1
53
45
43
0
44
0
45
-0.0139193969876572
46
0.0139193969876572
79
0
47
0
98
1
10
0
20
0
0
HATCH
5
121
100
AcDbEntity
8
SK2
62
256
6
ByLayer
370
13
48
1
60
0
100
AcDbHatch
10
0
20
0
30
0
210
0
220
0
230
1
2
ANSI31
70
0
71
0
91
1
92
5
93
3
72
1
10
19.7672548446751
20
13.9110451553251
11
17.7445179074509
21
11.0178038775539
72
1
10
17.7445179074509
20
11.0178038775539
11
17.0646124830728
21
11.6399093668643
72
1
10
17.0646124830728
20
11.6399093668643
11
19.7672548446751
21
13.9110451553251
97
0
75
0
76
1
52
0
41
0.0062
77
0
78
1
53
45
43
0
44
0
45
-0.0139193969876572
46
0.0139193969876572
79
0
47
0
98
1
10
0
20
0
0
DIMENSION
5
123
100
AcDbEntity
8
2
62
256
6
ByLayer
370
13
48
1
60
0
100
AcDbDimension
2
_U0
10
55.3283
20
-17.152503
30
0
11
27.66415
21
-17.152503
31
0
70
32
71
1
72
1
41
1
210
0
220
0
230
1
3
Standard
100
AcDbAlignedDimension
13
0
23
0
33
0
14
55.3283
24
-4.35
34
0
50
0
100
AcDbRotatedDimension
1001
ACAD
1000
DSTYLE
1002
{
1070
   371
1070
    13
1070
   372
1070
    13
1070
   170
1070
     0
1070
   144
1040
1.0
1070
   277
1070
     2
1070
   278
1070
    44
1070
   146
1040
1.0
1070
   345
1005
16
1070
   347
1005
16
1070
   346
1005
16
1070
   344
1005
0
1070
   343
1005
0
1070
   172
1070
     1
1070
    76
1070
     0
1070
    75
1070
     0
1070
   282
1070
     0
1070
   281
1070
     0
1070
    71
1070
     0
1070
    74
1070
     0
1070
   279
1070
     0
1070
   173
1070
     1
1070
   340
1005
F8
1070
   271
1070
     2
1070
   272
1070
     2
1070
    77
1070
     1
1070
    73
1070
     1
1070
   171
1070
     3
1070
   274
1070
     4
1070
   177
1070
    35
1070
   176
1070
    35
1070
   178
1070
    35
1070
    48
1040
-0.1
1070
    41
1040
3.5
1070
   147
1040
1.75
1070
    42
1040
1.5875
1070
    44
1040
2.0
1070
   140
1040
3.5
1002
}
1001
ACAD_DSTYLE_DIM_LINETYPE
1070
   380
1005
16
1001
ACAD_DSTYLE_DIM_EXT1_LINETYPE
1070
   381
1005
16
1001
ACAD_DSTYLE_DIM_EXT2_LINETYPE
1070
   382
1005
16
0
DIMENSION
5
13C
100
AcDbEntity
8
SK2
62
256
6
ByLayer
370
13
48
1
60
0
100
AcDbDimension
2
_U1
10
57
20
-37.192985
30
0
11
6
21
-37.192985
31
0
70
32
71
1
72
1
41
1
210
0
220
0
230
1
3
Standard
100
AcDbAlignedDimension
13
-45
23
-6
33
0
14
57
24
0
34
0
50
0
100
AcDbRotatedDimension
1001
ACAD
1000
DSTYLE
1002
{
1070
   371
1070
    13
1070
   372
1070
    13
1070
   170
1070
     0
1070
   144
1040
1.0
1070
   277
1070
     2
1070
   278
1070
    44
1070
   146
1040
1.0
1070
   345
1005
16
1070
   347
1005
16
1070
   346
1005
16
1070
   344
1005
0
1070
   343
1005
0
1070
   172
1070
     1
1070
    76
1070
     0
1070
    75
1070
     0
1070
   282
1070
     0
1070
   281
1070
     0
1070
    71
1070
     0
1070
    74
1070
     0
1070
   279
1070
     0
1070
   173
1070
     1
1070
   340
1005
F8
1070
   271
1070
     2
1070
   272
1070
     2
1070
    77
1070
     1
1070
    73
1070
     1
1070
   171
1070
     3
1070
   274
1070
     4
1070
   177
1070
    35
1070
   176
1070
    35
1070
   178
1070
    35
1070
    48
1040
-0.1
1070
    41
1040
3.5
1070
   147
1040
1.75
1070
    42
1040
1.5875
1070
    44
1040
2.0
1070
   140
1040
3.5
1002
}
1001
ACAD_DSTYLE_DIM_LINETYPE
1070
   380
1005
16
1001
ACAD_DSTYLE_DIM_EXT1_LINETYPE
1070
   381
1005
16
1001
ACAD_DSTYLE_DIM_EXT2_LINETYPE
1070
   382
1005
16
0
DIMENSION
5
154
100
AcDbEntity
8
SK2
62
256
6
ByLayer
370
13
48
1
60
0
100
AcDbDimension
2
_U2
10
57
20
15.959119
30
0
11
42.415
21
15.959119
31
0
70
32
71
1
72
1
41
1
210
0
220
0
230
1
3
Standard
100
AcDbAlignedDimension
13
27.83
23
5.85
33
0
14
57
24
0
34
0
50
0
100
AcDbRotatedDimension
1001
ACAD
1000
DSTYLE
1002
{
1070
   371
1070
    13
1070
   372
1070
    13
1070
   170
1070
     0
1070
   144
1040
1.0
1070
   277
1070
     2
1070
   278
1070
    44
1070
   146
1040
1.0
1070
   345
1005
16
1070
   347
1005
16
1070
   346
1005
16
1070
   344
1005
0
1070
   343
1005
0
1070
   172
1070
     1
1070
    76
1070
     0
1070
    75
1070
     0
1070
   282
1070
     0
1070
   281
1070
     0
1070
    71
1070
     0
1070
    74
1070
     0
1070
   279
1070
     0
1070
   173
1070
     1
1070
   340
1005
F8
1070
   271
1070
     2
1070
   272
1070
     2
1070
    77
1070
     1
1070
    73
1070
     1
1070
   171
1070
     3
1070
   274
1070
     4
1070
   177
1070
    35
1070
   176
1070
    35
1070
   178
1070
    35
1070
    48
1040
-0.1
1070
    41
1040
3.5
1070
   147
1040
1.75
1070
    42
1040
1.5875
1070
    44
1040
2.0
1070
   140
1040
3.5
1002
}
1001
ACAD_DSTYLE_DIM_LINETYPE
1070
   380
1005
16
1001
ACAD_DSTYLE_DIM_EXT1_LINETYPE
1070
   381
1005
16
1001
ACAD_DSTYLE_DIM_EXT2_LINETYPE
1070
   382
1005
16
0
DIMENSION
5
16C
100
AcDbEntity
8
SK2
62
256
6
ByLayer
370
13
48
1
60
0
100
AcDbDimension
2
_U3
10
55.3283
20
-17.152503
30
0
11
74.333333
21
-17.152503
31
0
70
32
71
1
72
1
41
1
210
0
220
0
230
1
3
Standard
100
AcDbAlignedDimension
13
57
23
0
33
0
14
55.3283
24
-4.35
34
0
50
0
100
AcDbRotatedDimension
1001
ACAD
1000
DSTYLE
1002
{
1070
   371
1070
    13
1070
   372
1070
    13
1070
   170
1070
     0
1070
   144
1040
1.0
1070
   277
1070
     2
1070
   278
1070
    44
1070
   146
1040
1.0
1070
   345
1005
16
1070
   347
1005
16
1070
   346
1005
16
1070
   344
1005
0
1070
   343
1005
0
1070
   172
1070
     1
1070
    76
1070
     0
1070
    75
1070
     0
1070
   282
1070
     0
1070
   281
1070
     0
1070
    71
1070
     0
1070
    74
1070
     0
1070
   279
1070
     0
1070
   173
1070
     1
1070
   340
1005
F8
1070
   271
1070
     2
1070
   272
1070
     2
1070
    77
1070
     1
1070
    73
1070
     1
1070
   171
1070
     3
1070
   274
1070
     4
1070
   177
1070
    35
1070
   176
1070
    35
1070
   178
1070
    35
1070
    48
1040
-0.1
1070
    41
1040
3.5
1070
   147
1040
1.75
1070
    42
1040
1.5875
1070
    44
1040
2.0
1070
   140
1040
3.5
1002
}
1001
ACAD_DSTYLE_DIM_LINETYPE
1070
   380
1005
16
1001
ACAD_DSTYLE_DIM_EXT1_LINETYPE
1070
   381
1005
16
1001
ACAD_DSTYLE_DIM_EXT2_LINETYPE
1070
   382
1005
16
0
DIMENSION
5
186
100
AcDbEntity
8
SK2
62
256
6
ByLayer
370
13
48
1
60
0
100
AcDbDimension
2
_U4
10
29.3283
20
8.485371
30
0
11
42.3283
21
8.485371
31
0
70
32
71
1
72
1
41
1
210
0
220
0
230
1
3
Standard
100
AcDbAlignedDimension
13
55.3283
23
4.35
33
0
14
29.3283
24
4.35
34
0
50
0
100
AcDbRotatedDimension
1001
ACAD
1000
DSTYLE
1002
{
1070
   371
1070
    13
1070
   372
1070
    13
1070
   170
1070
     0
1070
   144
1040
1.0
1070
   277
1070
     2
1070
   278
1070
    44
1070
   146
1040
1.0
1070
   345
1005
16
1070
   347
1005
16
1070
   346
1005
16
1070
   344
1005
0
1070
   343
1005
0
1070
   172
1070
     1
1070
    76
1070
     0
1070
    75
1070
     0
1070
   282
1070
     0
1070
   281
1070
     0
1070
    71
1070
     0
1070
    74
1070
     0
1070
   279
1070
     0
1070
   173
1070
     1
1070
   340
1005
F8
1070
   271
1070
     2
1070
   272
1070
     2
1070
    77
1070
     1
1070
    73
1070
     1
1070
   171
1070
     3
1070
   274
1070
     4
1070
   177
1070
    35
1070
   176
1070
    35
1070
   178
1070
    35
1070
    48
1040
-0.1
1070
    41
1040
3.5
1070
   147
1040
1.75
1070
    42
1040
1.5875
1070
    44
1040
2.0
1070
   140
1040
3.5
1002
}
1001
ACAD_DSTYLE_DIM_LINETYPE
1070
   380
1005
16
1001
ACAD_DSTYLE_DIM_EXT1_LINETYPE
1070
   381
1005
16
1001
ACAD_DSTYLE_DIM_EXT2_LINETYPE
1070
   382
1005
16
0
DIMENSION
5
19E
100
AcDbEntity
8
SK2
62
256
6
ByLayer
370
13
48
1
60
0
100
AcDbDimension
2
_U5
10
55.3283
20
-26.690158
30
0
11
5.16415
21
-26.690158
31
0
70
32
71
1
72
1
41
1
210
0
220
0
230
1
3
Standard
100
AcDbAlignedDimension
13
-45
23
-6
33
0
14
55.3283
24
-4.35
34
0
50
0
100
AcDbRotatedDimension
1001
ACAD
1000
DSTYLE
1002
{
1070
   371
1070
    13
1070
   372
1070
    13
1070
   170
1070
     0
1070
   144
1040
1.0
1070
   277
1070
     2
1070
   278
1070
    44
1070
   146
1040
1.0
1070
   345
1005
16
1070
   347
1005
16
1070
   346
1005
16
1070
   344
1005
0
1070
   343
1005
0
1070
   172
1070
     1
1070
    76
1070
     0
1070
    75
1070
     0
1070
   282
1070
     0
1070
   281
1070
     0
1070
    71
1070
     0
1070
    74
1070
     0
1070
   279
1070
     0
1070
   173
1070
     1
1070
   340
1005
F8
1070
   271
1070
     2
1070
   272
1070
     2
1070
    77
1070
     1
1070
    73
1070
     1
1070
   171
1070
     3
1070
   274
1070
     4
1070
   177
1070
    35
1070
   176
1070
    35
1070
   178
1070
    35
1070
    48
1040
-0.1
1070
    41
1040
3.5
1070
   147
1040
1.75
1070
    42
1040
1.5875
1070
    44
1040
2.0
1070
   140
1040
3.5
1002
}
1001
ACAD_DSTYLE_DIM_LINETYPE
1070
   380
1005
16
1001
ACAD_DSTYLE_DIM_EXT1_LINETYPE
1070
   381
1005
16
1001
ACAD_DSTYLE_DIM_EXT2_LINETYPE
1070
   382
1005
16
0
ENDSEC
0
SECTION
2
OBJECTS
0
DICTIONARY
5
226
330
0
100
AcDbDictionary
280
0
281
1
3
ACAD_GROUP
350
227
3
ACAD_MLINESTYLE
350
228
0
DICTIONARY
5
227
330
0
100
AcDbDictionary
280
0
281
1
0
DICTIONARY
5
228
330
0
100
AcDbDictionary
280
0
281
1
3
Standard
350
18
0
MLINESTYLE
5
18
330
228
100
AcDbMlineStyle
2
Standard
70
0
3

62
256
51
90
52
90
71
2
49
-0.5
62
256
6
ByLayer
49
0.5
62
256
6
ByLayer
0
RASTERVARIABLES
5
214
330

100
AcDbRasterVariables
90
0
70
1
71
1
72
1
0
ENDSEC
0
EOF
