0
SECTION
2
HEADER
9
$ACADVER
1
AC1015
9
$DWGCODEPAGE
3
ANSI_1252
9
$HANDSEED
5
236
9
$ANGBASE
50
0
9
$ANGDIR
70
0
9
$ATTMODE
70
1
9
$AUNITS
70
0
9
$AUPREC
70
0
9
$CECOLOR
62
256
9
$CELTSCALE
40
1
9
$CELTYPE
6
ByLayer
9
$CELWEIGHT
370
18
9
$CLAYER
8
0
9
$CMLJUST
70
0
9
$CMLSCALE
40
1
9
$CMLSTYLE
2
Standard
9
$DIMSTYLE
2
Standard
9
$TEXTSIZE
40
0.2
9
$TEXTSTYLE
7
Standard
9
$LUNITS
70
2
9
$LUPREC
70
4
9
$EXTNAMES
290
1
9
$INSUNITS
70
4
9
$LTSCALE
40
1
9
$LWDISPLAY
290
1
9
$PDMODE
70
0
9
$PDSIZE
40
0
9
$PLINEGEN
70
0
0
ENDSEC
0
SECTION
2
CLASSES
0
CLASS
1
RASTERVARIABLES
2
AcDbRasterVariables
3
ISM
90
0
280
0
281
0
0
ENDSEC
0
SECTION
2
TABLES
0
TABLE
2
VPORT
5
22c
100
AcDbSymbolTable
0
VPORT
5
1
100
AcDbSymbolTableRecord
100
AcDbViewportTableRecord
2
*Active
70
0
10
0
20
0
11
1
21
1
12
-1
22
1
13
0
23
0
14
0.5
24
0.5
15
10
25
10
16
0
26
0
36
1
17
0
27
0
37
0
0
ENDTAB
0
TABLE
2
LTYPE
5
22d
100
AcDbSymbolTable
0
LTYPE
5
14
100
AcDbSymbolTableRecord
100
AcDbLinetypeTableRecord
70
0
2
ByBlock
3

72
65
73
0
40
0
0
LTYPE
5
15
100
AcDbSymbolTableRecord
100
AcDbLinetypeTableRecord
70
0
2
ByLayer
3

72
65
73
0
40
0
0
LTYPE
5
16
100
AcDbSymbolTableRecord
100
AcDbLinetypeTableRecord
70
0
2
Continuous
3
Solid line
72
65
73
0
40
0
0
LTYPE
5
6E
100
AcDbSymbolTableRecord
100
AcDbLinetypeTableRecord
70
0
2
CENTER
3
____ _ ____ _ ____ _ ____
72
65
73
4
40
47.5
49
22
74
0
49
-8.5
74
0
49
8.5
74
0
49
-8.5
74
0
0
LTYPE
5
6F
100
AcDbSymbolTableRecord
100
AcDbLinetypeTableRecord
70
0
2
DASHED
3
__ __ __ __ __ __ __ __ __
72
65
73
2
40
25.72
49
12.86
74
0
49
-12.86
74
0
0
ENDTAB
0
TABLE
2
LAYER
5
22e
100
AcDbSymbolTable
0
LAYER
5
10
100
AcDbSymbolTableRecord
100
AcDbLayerTableRecord
2
0
70
0
62
7
6
Continuous
290
1
370
-3
390
0
0
LAYER
5
71
100
AcDbSymbolTableRecord
100
AcDbLayerTableRecord
2
80
70
0
62
-6
6
Continuous
290
1
370
-3
390
0
0
LAYER
5
73
100
AcDbSymbolTableRecord
100
AcDbLayerTableRecord
2
81
70
0
62
-3
6
Continuous
290
1
370
-3
390
0
0
LAYER
5
75
100
AcDbSymbolTableRecord
100
AcDbLayerTableRecord
2
1
70
0
62
4
6
Continuous
290
1
370
-3
390
0
0
LAYER
5
8D
100
AcDbSymbolTableRecord
100
AcDbLayerTableRecord
2
4
70
0
62
-2
6
CENTER
290
1
370
-3
390
0
0
LAYER
5
98
100
AcDbSymbolTableRecord
100
AcDbLayerTableRecord
2
2
70
0
62
7
6
Continuous
290
1
370
-3
390
0
0
LAYER
5
129
100
AcDbSymbolTableRecord
100
AcDbLayerTableRecord
2
Defpoints
70
0
62
7
6
Continuous
290
0
370
-3
390
0
0
LAYER
5
218
100
AcDbSymbolTableRecord
100
AcDbLayerTableRecord
2
SK1
70
0
62
4
6
Continuous
290
1
370
-3
390
0
0
LAYER
5
219
100
AcDbSymbolTableRecord
100
AcDbLayerTableRecord
2
SK4
70
0
62
2
6
CENTER
290
1
370
-3
390
0
0
LAYER
5
21a
100
AcDbSymbolTableRecord
100
AcDbLayerTableRecord
2
SK2
70
0
62
7
6
Continuous
290
1
370
-3
390
0
0
LAYER
5
21b
100
AcDbSymbolTableRecord
100
AcDbLayerTableRecord
2
SK6
70
0
62
5
6
Continuous
290
1
370
-3
390
0
0
ENDTAB
0
TABLE
2
STYLE
5
22f
100
AcDbSymbolTable
0
STYLE
5
11
100
AcDbSymbolTableRecord
100
AcDbTextStyleTableRecord
2
Standard
3
txt
70
0
71
0
40
0
41
1
42
0
50
0
0
STYLE
5
FB
100
AcDbSymbolTableRecord
100
AcDbTextStyleTableRecord
2
iso_b_vert
3
simplex.shx
70
0
71
0
40
0
41
1
42
0
50
0
0
STYLE
5
FC
100
AcDbSymbolTableRecord
100
AcDbTextStyleTableRecord
2
DWGDirectTextStyle
3
simplex
70
0
71
0
40
0
41
1
42
0
50
0
0
ENDTAB
0
TABLE
2
DIMSTYLE
5
230
100
AcDbSymbolTable
100
AcDbDimStyleTable
0
DIMSTYLE
105
27
100
AcDbSymbolTableRecord
100
AcDbDimStyleTableRecord
2
Standard
70
0
3
<>
41
0.18
42
0.0625
44
0.18
140
0.18
147
0.09
73
0
74
0
77
1
271
2
275
0
278
52
280
0
340
11
0
ENDTAB
0
TABLE
2
VIEW
5
231
100
AcDbSymbolTable
0
ENDTAB
0
TABLE
2
UCS
5
232
100
AcDbSymbolTable
0
ENDTAB
0
TABLE
2
APPID
5
233
100
AcDbSymbolTable
0
APPID
5
12
100
AcDbSymbolTableRecord
100
AcDbRegAppTableRecord
2
ACAD
70
0
0
APPID
5
125
100
AcDbSymbolTableRecord
100
AcDbRegAppTableRecord
2
ACAD_DSTYLE_DIMBREAK
70
0
0
APPID
5
1D7
100
AcDbSymbolTableRecord
100
AcDbRegAppTableRecord
2
ACAD_DSTYLE_DIM_LINETYPE
70
0
0
APPID
5
1D8
100
AcDbSymbolTableRecord
100
AcDbRegAppTableRecord
2
ACAD_DSTYLE_DIM_EXT1_LINETYPE
70
0
0
APPID
5
1D9
100
AcDbSymbolTableRecord
100
AcDbRegAppTableRecord
2
ACAD_DSTYLE_DIM_EXT2_LINETYPE
70
0
0
APPID
5
214
100
AcDbSymbolTableRecord
100
AcDbRegAppTableRecord
2
ACAD_MLEADERVER
70
0
0
ENDTAB
0
TABLE
2
BLOCK_RECORD
5
234
100
AcDbSymbolTable
0
BLOCK_RECORD
5
1F
100
AcDbSymbolTableRecord
100
AcDbBlockTableRecord
2
*Model_Space
340
0
70
0
0
BLOCK_RECORD
5
1B
100
AcDbSymbolTableRecord
100
AcDbBlockTableRecord
2
*Paper_Space
340
0
70
0
0
BLOCK_RECORD
5
23
100
AcDbSymbolTableRecord
100
AcDbBlockTableRecord
2
*Paper_Space0
340
0
70
0
0
BLOCK_RECORD
5
12A
100
AcDbSymbolTableRecord
100
AcDbBlockTableRecord
2
*D1
340
0
70
0
0
BLOCK_RECORD
5
136
100
AcDbSymbolTableRecord
100
AcDbBlockTableRecord
2
_U0
340
0
70
0
0
BLOCK_RECORD
5
142
100
AcDbSymbolTableRecord
100
AcDbBlockTableRecord
2
*D3
340
0
70
0
0
BLOCK_RECORD
5
14E
100
AcDbSymbolTableRecord
100
AcDbBlockTableRecord
2
_U1
340
0
70
0
0
BLOCK_RECORD
5
15A
100
AcDbSymbolTableRecord
100
AcDbBlockTableRecord
2
*D5
340
0
70
0
0
BLOCK_RECORD
5
166
100
AcDbSymbolTableRecord
100
AcDbBlockTableRecord
2
_U2
340
0
70
0
0
BLOCK_RECORD
5
172
100
AcDbSymbolTableRecord
100
AcDbBlockTableRecord
2
*D7
340
0
70
0
0
BLOCK_RECORD
5
180
100
AcDbSymbolTableRecord
100
AcDbBlockTableRecord
2
_U3
340
0
70
0
0
BLOCK_RECORD
5
18C
100
AcDbSymbolTableRecord
100
AcDbBlockTableRecord
2
*D9
340
0
70
0
0
BLOCK_RECORD
5
198
100
AcDbSymbolTableRecord
100
AcDbBlockTableRecord
2
_U4
340
0
70
0
0
BLOCK_RECORD
5
1A4
100
AcDbSymbolTableRecord
100
AcDbBlockTableRecord
2
*D11
340
0
70
0
0
BLOCK_RECORD
5
1B0
100
AcDbSymbolTableRecord
100
AcDbBlockTableRecord
2
_U5
340
0
70
0
0
ENDTAB
0
ENDSEC
0
SECTION
2
BLOCKS
0
BLOCK
5
20
100
AcDbEntity
8
0
100
AcDbBlockBegin
2
*Model_Space
70
0
10
0
20
0
30
0
3
*Model_Space
0
ENDBLK
5
21
100
AcDbEntity
8
0
100
AcDbBlockEnd
0
BLOCK
5
1C
100
AcDbEntity
8
0
100
AcDbBlockBegin
2
*Paper_Space
70
0
10
0
20
0
30
0
3
*Paper_Space
0
ENDBLK
5
1D
100
AcDbEntity
8
0
100
AcDbBlockEnd
0
BLOCK
5
24
100
AcDbEntity
8
0
100
AcDbBlockBegin
2
*Paper_Space0
70
0
10
0
20
0
30
0
3
*Paper_Space0
0
ENDBLK
5
25
100
AcDbEntity
8
0
100
AcDbBlockEnd
0
BLOCK
5
12B
100
AcDbEntity
8
0
100
AcDbBlockBegin
2
*D1
70
1
10
0
20
0
30
0
3
*D1
0
LINE
5
12D
100
AcDbEntity
8
0
62
256
6
ByLayer
370
-2
48
1
60
0
100
AcDbLine
10
0
20
-1.5875
30
0
11
0
21
-20.302503
31
0
39
0
210
0
220
0
230
1
0
LINE
5
12E
100
AcDbEntity
8
0
62
256
6
ByLayer
370
-2
48
1
60
0
100
AcDbLine
10
73.8878
20
-7.0875
30
0
11
73.8878
21
-20.302503
31
0
39
0
210
0
220
0
230
1
0
LINE
5
12F
100
AcDbEntity
8
0
62
256
6
ByLayer
370
-2
48
1
60
0
100
AcDbLine
10
3.5
20
-18.302503
30
0
11
70.3878
21
-18.302503
31
0
39
0
210
0
220
0
230
1
0
SOLID
5
130
100
AcDbEntity
8
0
62
256
6
ByLayer
370
-1
48
1
60
0
100
AcDbTrace
10
3.5
20
-17.71917
30
0
11
3.5
21
-18.885837
31
0
12
0
22
-18.302503
32
0
13
0
23
-18.302503
33
0
39
0
210
0
220
0
230
1
0
SOLID
5
131
100
AcDbEntity
8
0
62
256
6
ByLayer
370
-1
48
1
60
0
100
AcDbTrace
10
70.3878
20
-18.885837
30
0
11
70.3878
21
-17.71917
31
0
12
73.8878
22
-18.302503
32
0
13
73.8878
23
-18.302503
33
0
39
0
210
0
220
0
230
1
0
MTEXT
5
132
100
AcDbEntity
8
0
62
256
6
ByLayer
370
18
48
1
60
0
100
AcDbMText
10
36.9439
20
-11.302503
30
0
210
0
220
0
230
1
1
\A1;73.89
40
3.5
41
0
44
1
50
0
71
5
72
5
7
iso_b_vert
0
POINT
5
133
100
AcDbEntity
8
Defpoints
62
0
6
ByLayer
370
-1
48
1
60
0
100
AcDbPoint
10
0
20
0
30
0
39
0
210
0
220
0
230
1
50
360
0
POINT
5
134
100
AcDbEntity
8
Defpoints
62
0
6
ByLayer
370
-1
48
1
60
0
100
AcDbPoint
10
73.8878
20
-5.5
30
0
39
0
210
0
220
0
230
1
50
360
0
POINT
5
135
100
AcDbEntity
8
Defpoints
62
0
6
ByLayer
370
-1
48
1
60
0
100
AcDbPoint
10
73.8878
20
-18.302503
30
0
39
0
210
0
220
0
230
1
50
360
0
ENDBLK
5
12C
100
AcDbEntity
8
0
100
AcDbBlockEnd
0
BLOCK
5
13D
100
AcDbEntity
8
0
100
AcDbBlockBegin
2
_U0
70
0
10
0
20
0
30
0
3
_U0
0
MTEXT
5
137
100
AcDbEntity
8
2
62
256
6
ByLayer
370
13
48
1
60
0
100
AcDbMText
10
31.806601
20
-17.26987
30
0
210
0
220
0
230
1
1
\W0.7402;73,89
40
3.5
41
0
44
1.084337
50
0
71
7
72
5
7
iso_b_vert
0
LINE
5
138
100
AcDbEntity
8
2
62
256
6
ByLayer
370
13
48
1
60
0
100
AcDbLine
10
0
20
-1.5875
30
0
11
0
21
-20.302503
31
0
39
0
210
0
220
0
230
1
0
LINE
5
139
100
AcDbEntity
8
2
62
256
6
ByLayer
370
13
48
1
60
0
100
AcDbLine
10
73.8878
20
-7.0875
30
0
11
73.8878
21
-20.302503
31
0
39
0
210
0
220
0
230
1
0
LINE
5
13A
100
AcDbEntity
8
2
62
256
6
ByLayer
370
13
48
1
60
0
100
AcDbLine
10
0
20
-18.302503
30
0
11
73.8878
21
-18.302503
31
0
39
0
210
0
220
0
230
1
0
SOLID
5
13B
100
AcDbEntity
8
2
62
256
6
ByLayer
370
18
48
1
60
0
100
AcDbTrace
10
0
20
-18.302503
30
0
11
3.499998
21
-17.841719
31
0
12
3.500002
22
-18.763287
32
0
13
3.500002
23
-18.763287
33
0
39
0
210
0
220
0
230
1
0
SOLID
5
13C
100
AcDbEntity
8
2
62
256
6
ByLayer
370
18
48
1
60
0
100
AcDbTrace
10
73.8878
20
-18.302503
30
0
11
70.387802
21
-18.763287
31
0
12
70.387798
22
-17.841719
32
0
13
70.387798
23
-17.841719
33
0
39
0
210
0
220
0
230
1
0
ENDBLK
5
13E
100
AcDbEntity
8
0
100
AcDbBlockEnd
0
BLOCK
5
143
100
AcDbEntity
8
0
100
AcDbBlockBegin
2
*D3
70
1
10
0
20
0
30
0
3
*D3
0
LINE
5
145
100
AcDbEntity
8
0
62
256
6
ByLayer
370
-2
48
1
60
0
100
AcDbLine
10
-48
20
-9.5875
30
0
11
-48
21
-41.192985
31
0
39
0
210
0
220
0
230
1
0
LINE
5
146
100
AcDbEntity
8
0
62
256
6
ByLayer
370
-2
48
1
60
0
100
AcDbLine
10
76
20
-1.5875
30
0
11
76
21
-41.192985
31
0
39
0
210
0
220
0
230
1
0
LINE
5
147
100
AcDbEntity
8
0
62
256
6
ByLayer
370
-2
48
1
60
0
100
AcDbLine
10
-44.5
20
-39.192985
30
0
11
72.5
21
-39.192985
31
0
39
0
210
0
220
0
230
1
0
SOLID
5
148
100
AcDbEntity
8
0
62
256
6
ByLayer
370
-1
48
1
60
0
100
AcDbTrace
10
-44.5
20
-38.609652
30
0
11
-44.5
21
-39.776319
31
0
12
-48
22
-39.192985
32
0
13
-48
23
-39.192985
33
0
39
0
210
0
220
0
230
1
0
SOLID
5
149
100
AcDbEntity
8
0
62
256
6
ByLayer
370
-1
48
1
60
0
100
AcDbTrace
10
72.5
20
-39.776319
30
0
11
72.5
21
-38.609652
31
0
12
76
22
-39.192985
32
0
13
76
23
-39.192985
33
0
39
0
210
0
220
0
230
1
0
MTEXT
5
14A
100
AcDbEntity
8
0
62
256
6
ByLayer
370
18
48
1
60
0
100
AcDbMText
10
14
20
-32.192985
30
0
210
0
220
0
230
1
1
\A1;124.00
40
3.5
41
0
44
1
50
0
71
5
72
5
7
iso_b_vert
0
POINT
5
14B
100
AcDbEntity
8
Defpoints
62
0
6
ByLayer
370
-1
48
1
60
0
100
AcDbPoint
10
-48
20
-8
30
0
39
0
210
0
220
0
230
1
50
360
0
POINT
5
14C
100
AcDbEntity
8
Defpoints
62
0
6
ByLayer
370
-1
48
1
60
0
100
AcDbPoint
10
76
20
0
30
0
39
0
210
0
220
0
230
1
50
360
0
POINT
5
14D
100
AcDbEntity
8
Defpoints
62
0
6
ByLayer
370
-1
48
1
60
0
100
AcDbPoint
10
76
20
-39.192985
30
0
39
0
210
0
220
0
230
1
50
360
0
ENDBLK
5
144
100
AcDbEntity
8
0
100
AcDbBlockEnd
0
BLOCK
5
155
100
AcDbEntity
8
0
100
AcDbBlockBegin
2
_U1
70
0
10
0
20
0
30
0
3
_U1
0
MTEXT
5
14F
100
AcDbEntity
8
SK2
62
256
6
ByLayer
370
13
48
1
60
0
100
AcDbMText
10
7.808135
20
-38.160352
30
0
210
0
220
0
230
1
1
\W0.7145;124,00
40
3.5
41
0
44
1.084337
50
0
71
7
72
5
7
iso_b_vert
0
LINE
5
150
100
AcDbEntity
8
SK2
62
256
6
ByLayer
370
13
48
1
60
0
100
AcDbLine
10
-48
20
-9.5875
30
0
11
-48
21
-41.192985
31
0
39
0
210
0
220
0
230
1
0
LINE
5
151
100
AcDbEntity
8
SK2
62
256
6
ByLayer
370
13
48
1
60
0
100
AcDbLine
10
76
20
-1.5875
30
0
11
76
21
-41.192985
31
0
39
0
210
0
220
0
230
1
0
LINE
5
152
100
AcDbEntity
8
SK2
62
256
6
ByLayer
370
13
48
1
60
0
100
AcDbLine
10
-48
20
-39.192985
30
0
11
76
21
-39.192985
31
0
39
0
210
0
220
0
230
1
0
SOLID
5
153
100
AcDbEntity
8
SK2
62
256
6
ByLayer
370
18
48
1
60
0
100
AcDbTrace
10
-48
20
-39.192985
30
0
11
-44.500002
21
-38.732202
31
0
12
-44.499998
22
-39.653769
32
0
13
-44.499998
23
-39.653769
33
0
39
0
210
0
220
0
230
1
0
SOLID
5
154
100
AcDbEntity
8
SK2
62
256
6
ByLayer
370
18
48
1
60
0
100
AcDbTrace
10
76
20
-39.192985
30
0
11
72.500002
21
-39.653769
31
0
12
72.499998
22
-38.732202
32
0
13
72.499998
23
-38.732202
33
0
39
0
210
0
220
0
230
1
0
ENDBLK
5
156
100
AcDbEntity
8
0
100
AcDbBlockEnd
0
BLOCK
5
15B
100
AcDbEntity
8
0
100
AcDbBlockBegin
2
*D5
70
1
10
0
20
0
30
0
3
*D5
0
LINE
5
15D
100
AcDbEntity
8
0
62
256
6
ByLayer
370
-2
48
1
60
0
100
AcDbLine
10
38.94
20
9.0375
30
0
11
38.94
21
19.109119
31
0
39
0
210
0
220
0
230
1
0
LINE
5
15E
100
AcDbEntity
8
0
62
256
6
ByLayer
370
-2
48
1
60
0
100
AcDbLine
10
76
20
1.5875
30
0
11
76
21
19.109119
31
0
39
0
210
0
220
0
230
1
0
LINE
5
15F
100
AcDbEntity
8
0
62
256
6
ByLayer
370
-2
48
1
60
0
100
AcDbLine
10
42.44
20
17.109119
30
0
11
72.5
21
17.109119
31
0
39
0
210
0
220
0
230
1
0
SOLID
5
160
100
AcDbEntity
8
0
62
256
6
ByLayer
370
-1
48
1
60
0
100
AcDbTrace
10
42.44
20
17.692453
30
0
11
42.44
21
16.525786
31
0
12
38.94
22
17.109119
32
0
13
38.94
23
17.109119
33
0
39
0
210
0
220
0
230
1
0
SOLID
5
161
100
AcDbEntity
8
0
62
256
6
ByLayer
370
-1
48
1
60
0
100
AcDbTrace
10
72.5
20
16.525786
30
0
11
72.5
21
17.692453
31
0
12
76
22
17.109119
32
0
13
76
23
17.109119
33
0
39
0
210
0
220
0
230
1
0
MTEXT
5
162
100
AcDbEntity
8
0
62
256
6
ByLayer
370
18
48
1
60
0
100
AcDbMText
10
57.47
20
24.109119
30
0
210
0
220
0
230
1
1
\A1;37.06
40
3.5
41
0
44
1
50
0
71
5
72
5
7
iso_b_vert
0
POINT
5
163
100
AcDbEntity
8
Defpoints
62
0
6
ByLayer
370
-1
48
1
60
0
100
AcDbPoint
10
38.94
20
7.45
30
0
39
0
210
0
220
0
230
1
50
360
0
POINT
5
164
100
AcDbEntity
8
Defpoints
62
0
6
ByLayer
370
-1
48
1
60
0
100
AcDbPoint
10
76
20
0
30
0
39
0
210
0
220
0
230
1
50
360
0
POINT
5
165
100
AcDbEntity
8
Defpoints
62
0
6
ByLayer
370
-1
48
1
60
0
100
AcDbPoint
10
76
20
17.109119
30
0
39
0
210
0
220
0
230
1
50
360
0
ENDBLK
5
15C
100
AcDbEntity
8
0
100
AcDbBlockEnd
0
BLOCK
5
16D
100
AcDbEntity
8
0
100
AcDbBlockBegin
2
_U2
70
0
10
0
20
0
30
0
3
_U2
0
MTEXT
5
167
100
AcDbEntity
8
SK2
62
256
6
ByLayer
370
13
48
1
60
0
100
AcDbMText
10
52.332701
20
18.141753
30
0
210
0
220
0
230
1
1
\W0.7317;37,06
40
3.5
41
0
44
1.084337
50
0
71
7
72
5
7
iso_b_vert
0
LINE
5
168
100
AcDbEntity
8
SK2
62
256
6
ByLayer
370
13
48
1
60
0
100
AcDbLine
10
38.94
20
9.0375
30
0
11
38.94
21
19.109119
31
0
39
0
210
0
220
0
230
1
0
LINE
5
169
100
AcDbEntity
8
SK2
62
256
6
ByLayer
370
13
48
1
60
0
100
AcDbLine
10
76
20
1.5875
30
0
11
76
21
19.109119
31
0
39
0
210
0
220
0
230
1
0
LINE
5
16A
100
AcDbEntity
8
SK2
62
256
6
ByLayer
370
13
48
1
60
0
100
AcDbLine
10
38.94
20
17.109119
30
0
11
76
21
17.109119
31
0
39
0
210
0
220
0
230
1
0
SOLID
5
16B
100
AcDbEntity
8
SK2
62
256
6
ByLayer
370
18
48
1
60
0
100
AcDbTrace
10
38.94
20
17.109119
30
0
11
42.439998
21
17.569903
31
0
12
42.440002
22
16.648335
32
0
13
42.440002
23
16.648335
33
0
39
0
210
0
220
0
230
1
0
SOLID
5
16C
100
AcDbEntity
8
SK2
62
256
6
ByLayer
370
18
48
1
60
0
100
AcDbTrace
10
76
20
17.109119
30
0
11
72.500002
21
16.648335
31
0
12
72.499998
22
17.569903
32
0
13
72.499998
23
17.569903
33
0
39
0
210
0
220
0
230
1
0
ENDBLK
5
16E
100
AcDbEntity
8
0
100
AcDbBlockEnd
0
BLOCK
5
173
100
AcDbEntity
8
0
100
AcDbBlockBegin
2
*D7
70
1
10
0
20
0
30
0
3
*D7
0
LINE
5
175
100
AcDbEntity
8
0
62
256
6
ByLayer
370
-2
48
1
60
0
100
AcDbLine
10
76
20
-1.5875
30
0
11
76
21
-20.302503
31
0
39
0
210
0
220
0
230
1
0
LINE
5
176
100
AcDbEntity
8
0
62
256
6
ByLayer
370
-2
48
1
60
0
100
AcDbLine
10
73.8878
20
-7.0875
30
0
11
73.8878
21
-20.302503
31
0
39
0
210
0
220
0
230
1
0
LINE
5
177
100
AcDbEntity
8
0
62
256
6
ByLayer
370
-2
48
1
60
0
100
AcDbLine
10
76
20
-18.302503
30
0
11
103.166667
21
-18.302503
31
0
39
0
210
0
220
0
230
1
0
LINE
5
178
100
AcDbEntity
8
0
62
256
6
ByLayer
370
-2
48
1
60
0
100
AcDbLine
10
79.5
20
-18.302503
30
0
11
83
21
-18.302503
31
0
39
0
210
0
220
0
230
1
0
LINE
5
179
100
AcDbEntity
8
0
62
256
6
ByLayer
370
-2
48
1
60
0
100
AcDbLine
10
70.3878
20
-18.302503
30
0
11
66.8878
21
-18.302503
31
0
39
0
210
0
220
0
230
1
0
SOLID
5
17A
100
AcDbEntity
8
0
62
256
6
ByLayer
370
-1
48
1
60
0
100
AcDbTrace
10
79.5
20
-17.71917
30
0
11
79.5
21
-18.885837
31
0
12
76
22
-18.302503
32
0
13
76
23
-18.302503
33
0
39
0
210
0
220
0
230
1
0
SOLID
5
17B
100
AcDbEntity
8
0
62
256
6
ByLayer
370
-1
48
1
60
0
100
AcDbTrace
10
70.3878
20
-18.885837
30
0
11
70.3878
21
-17.71917
31
0
12
73.8878
22
-18.302503
32
0
13
73.8878
23
-18.302503
33
0
39
0
210
0
220
0
230
1
0
MTEXT
5
17C
100
AcDbEntity
8
0
62
256
6
ByLayer
370
18
48
1
60
0
100
AcDbMText
10
93.083333
20
-11.302503
30
0
210
0
220
0
230
1
1
\A1;2.11
40
3.5
41
0
44
1
50
0
71
5
72
5
7
iso_b_vert
0
POINT
5
17D
100
AcDbEntity
8
Defpoints
62
0
6
ByLayer
370
-1
48
1
60
0
100
AcDbPoint
10
76
20
0
30
0
39
0
210
0
220
0
230
1
50
360
0
POINT
5
17E
100
AcDbEntity
8
Defpoints
62
0
6
ByLayer
370
-1
48
1
60
0
100
AcDbPoint
10
73.8878
20
-5.5
30
0
39
0
210
0
220
0
230
1
50
360
0
POINT
5
17F
100
AcDbEntity
8
Defpoints
62
0
6
ByLayer
370
-1
48
1
60
0
100
AcDbPoint
10
73.8878
20
-18.302503
30
0
39
0
210
0
220
0
230
1
50
360
0
ENDBLK
5
174
100
AcDbEntity
8
0
100
AcDbBlockEnd
0
BLOCK
5
187
100
AcDbEntity
8
0
100
AcDbBlockBegin
2
_U3
70
0
10
0
20
0
30
0
3
_U3
0
MTEXT
5
181
100
AcDbEntity
8
SK2
62
256
6
ByLayer
370
13
48
1
60
0
100
AcDbMText
10
83.026726
20
-17.26987
30
0
210
0
220
0
230
1
1
\W0.6132;2,11
40
3.5
41
0
44
1.084337
50
0
71
7
72
5
7
iso_b_vert
0
LINE
5
182
100
AcDbEntity
8
SK2
62
256
6
ByLayer
370
13
48
1
60
0
100
AcDbLine
10
76
20
-1.5875
30
0
11
76
21
-20.302503
31
0
39
0
210
0
220
0
230
1
0
LINE
5
183
100
AcDbEntity
8
SK2
62
256
6
ByLayer
370
13
48
1
60
0
100
AcDbLine
10
73.8878
20
-7.0875
30
0
11
73.8878
21
-20.302503
31
0
39
0
210
0
220
0
230
1
0
LINE
5
184
100
AcDbEntity
8
SK2
62
256
6
ByLayer
370
13
48
1
60
0
100
AcDbLine
10
65.1378
20
-18.302503
30
0
11
89.121624
21
-18.302503
31
0
39
0
210
0
220
0
230
1
0
SOLID
5
185
100
AcDbEntity
8
SK2
62
256
6
ByLayer
370
18
48
1
60
0
100
AcDbTrace
10
76
20
-18.302503
30
0
11
79.499998
21
-17.841719
31
0
12
79.500002
22
-18.763287
32
0
13
79.500002
23
-18.763287
33
0
39
0
210
0
220
0
230
1
0
SOLID
5
186
100
AcDbEntity
8
SK2
62
256
6
ByLayer
370
18
48
1
60
0
100
AcDbTrace
10
73.8878
20
-18.302503
30
0
11
70.387802
21
-18.763287
31
0
12
70.387798
22
-17.841719
32
0
13
70.387798
23
-17.841719
33
0
39
0
210
0
220
0
230
1
0
ENDBLK
5
188
100
AcDbEntity
8
0
100
AcDbBlockEnd
0
BLOCK
5
18D
100
AcDbEntity
8
0
100
AcDbBlockBegin
2
*D9
70
1
10
0
20
0
30
0
3
*D9
0
LINE
5
18F
100
AcDbEntity
8
0
62
256
6
ByLayer
370
-2
48
1
60
0
100
AcDbLine
10
73.8878
20
7.0875
30
0
11
73.8878
21
11.635371
31
0
39
0
210
0
220
0
230
1
0
LINE
5
190
100
AcDbEntity
8
0
62
256
6
ByLayer
370
-2
48
1
60
0
100
AcDbLine
10
40.8878
20
7.0875
30
0
11
40.8878
21
11.635371
31
0
39
0
210
0
220
0
230
1
0
LINE
5
191
100
AcDbEntity
8
0
62
256
6
ByLayer
370
-2
48
1
60
0
100
AcDbLine
10
70.3878
20
9.635371
30
0
11
44.3878
21
9.635371
31
0
39
0
210
0
220
0
230
1
0
SOLID
5
192
100
AcDbEntity
8
0
62
256
6
ByLayer
370
-1
48
1
60
0
100
AcDbTrace
10
70.3878
20
9.052038
30
0
11
70.3878
21
10.218705
31
0
12
73.8878
22
9.635371
32
0
13
73.8878
23
9.635371
33
0
39
0
210
0
220
0
230
1
0
SOLID
5
193
100
AcDbEntity
8
0
62
256
6
ByLayer
370
-1
48
1
60
0
100
AcDbTrace
10
44.3878
20
10.218705
30
0
11
44.3878
21
9.052038
31
0
12
40.8878
22
9.635371
32
0
13
40.8878
23
9.635371
33
0
39
0
210
0
220
0
230
1
0
MTEXT
5
194
100
AcDbEntity
8
0
62
256
6
ByLayer
370
18
48
1
60
0
100
AcDbMText
10
57.3878
20
16.635371
30
0
210
0
220
0
230
1
1
\A1;33.00
40
3.5
41
0
44
1
50
0
71
5
72
5
7
iso_b_vert
0
POINT
5
195
100
AcDbEntity
8
Defpoints
62
0
6
ByLayer
370
-1
48
1
60
0
100
AcDbPoint
10
73.8878
20
5.5
30
0
39
0
210
0
220
0
230
1
50
360
0
POINT
5
196
100
AcDbEntity
8
Defpoints
62
0
6
ByLayer
370
-1
48
1
60
0
100
AcDbPoint
10
40.8878
20
5.5
30
0
39
0
210
0
220
0
230
1
50
360
0
POINT
5
197
100
AcDbEntity
8
Defpoints
62
0
6
ByLayer
370
-1
48
1
60
0
100
AcDbPoint
10
40.8878
20
9.635371
30
0
39
0
210
0
220
0
230
1
50
360
0
ENDBLK
5
18E
100
AcDbEntity
8
0
100
AcDbBlockEnd
0
BLOCK
5
19F
100
AcDbEntity
8
0
100
AcDbBlockBegin
2
_U4
70
0
10
0
20
0
30
0
3
_U4
0
MTEXT
5
199
100
AcDbEntity
8
SK2
62
256
6
ByLayer
370
13
48
1
60
0
100
AcDbMText
10
52.250501
20
10.668005
30
0
210
0
220
0
230
1
1
\W0.7317;33,00
40
3.5
41
0
44
1.084337
50
0
71
7
72
5
7
iso_b_vert
0
LINE
5
19A
100
AcDbEntity
8
SK2
62
256
6
ByLayer
370
13
48
1
60
0
100
AcDbLine
10
73.8878
20
7.0875
30
0
11
73.8878
21
11.635371
31
0
39
0
210
0
220
0
230
1
0
LINE
5
19B
100
AcDbEntity
8
SK2
62
256
6
ByLayer
370
13
48
1
60
0
100
AcDbLine
10
40.8878
20
7.0875
30
0
11
40.8878
21
11.635371
31
0
39
0
210
0
220
0
230
1
0
LINE
5
19C
100
AcDbEntity
8
SK2
62
256
6
ByLayer
370
13
48
1
60
0
100
AcDbLine
10
73.8878
20
9.635371
30
0
11
40.8878
21
9.635371
31
0
39
0
210
0
220
0
230
1
0
SOLID
5
19D
100
AcDbEntity
8
SK2
62
256
6
ByLayer
370
18
48
1
60
0
100
AcDbTrace
10
73.8878
20
9.635371
30
0
11
70.387802
21
9.174588
31
0
12
70.387798
22
10.096155
32
0
13
70.387798
23
10.096155
33
0
39
0
210
0
220
0
230
1
0
SOLID
5
19E
100
AcDbEntity
8
SK2
62
256
6
ByLayer
370
18
48
1
60
0
100
AcDbTrace
10
40.8878
20
9.635371
30
0
11
44.387798
21
10.096155
31
0
12
44.387802
22
9.174588
32
0
13
44.387802
23
9.174588
33
0
39
0
210
0
220
0
230
1
0
ENDBLK
5
1A0
100
AcDbEntity
8
0
100
AcDbBlockEnd
0
BLOCK
5
1A5
100
AcDbEntity
8
0
100
AcDbBlockBegin
2
*D11
70
1
10
0
20
0
30
0
3
*D11
0
LINE
5
1A7
100
AcDbEntity
8
0
62
256
6
ByLayer
370
-2
48
1
60
0
100
AcDbLine
10
-48
20
-9.5875
30
0
11
-48
21
-30.690158
31
0
39
0
210
0
220
0
230
1
0
LINE
5
1A8
100
AcDbEntity
8
0
62
256
6
ByLayer
370
-2
48
1
60
0
100
AcDbLine
10
73.8878
20
-7.0875
30
0
11
73.8878
21
-30.690158
31
0
39
0
210
0
220
0
230
1
0
LINE
5
1A9
100
AcDbEntity
8
0
62
256
6
ByLayer
370
-2
48
1
60
0
100
AcDbLine
10
-44.5
20
-28.690158
30
0
11
70.3878
21
-28.690158
31
0
39
0
210
0
220
0
230
1
0
SOLID
5
1AA
100
AcDbEntity
8
0
62
256
6
ByLayer
370
-1
48
1
60
0
100
AcDbTrace
10
-44.5
20
-28.106825
30
0
11
-44.5
21
-29.273491
31
0
12
-48
22
-28.690158
32
0
13
-48
23
-28.690158
33
0
39
0
210
0
220
0
230
1
0
SOLID
5
1AB
100
AcDbEntity
8
0
62
256
6
ByLayer
370
-1
48
1
60
0
100
AcDbTrace
10
70.3878
20
-29.273491
30
0
11
70.3878
21
-28.106825
31
0
12
73.8878
22
-28.690158
32
0
13
73.8878
23
-28.690158
33
0
39
0
210
0
220
0
230
1
0
MTEXT
5
1AC
100
AcDbEntity
8
0
62
256
6
ByLayer
370
18
48
1
60
0
100
AcDbMText
10
12.9439
20
-21.690158
30
0
210
0
220
0
230
1
1
\A1;121.89
40
3.5
41
0
44
1
50
0
71
5
72
5
7
iso_b_vert
0
POINT
5
1AD
100
AcDbEntity
8
Defpoints
62
0
6
ByLayer
370
-1
48
1
60
0
100
AcDbPoint
10
-48
20
-8
30
0
39
0
210
0
220
0
230
1
50
360
0
POINT
5
1AE
100
AcDbEntity
8
Defpoints
62
0
6
ByLayer
370
-1
48
1
60
0
100
AcDbPoint
10
73.8878
20
-5.5
30
0
39
0
210
0
220
0
230
1
50
360
0
POINT
5
1AF
100
AcDbEntity
8
Defpoints
62
0
6
ByLayer
370
-1
48
1
60
0
100
AcDbPoint
10
73.8878
20
-28.690158
30
0
39
0
210
0
220
0
230
1
50
360
0
ENDBLK
5
1A6
100
AcDbEntity
8
0
100
AcDbBlockEnd
0
BLOCK
5
1B7
100
AcDbEntity
8
0
100
AcDbBlockBegin
2
_U5
70
0
10
0
20
0
30
0
3
_U5
0
MTEXT
5
1B1
100
AcDbEntity
8
SK2
62
256
6
ByLayer
370
13
48
1
60
0
100
AcDbMText
10
7.373735
20
-27.657524
30
0
210
0
220
0
230
1
1
\W0.6501;121,89
40
3.5
41
0
44
1.084337
50
0
71
7
72
5
7
iso_b_vert
0
LINE
5
1B2
100
AcDbEntity
8
SK2
62
256
6
ByLayer
370
13
48
1
60
0
100
AcDbLine
10
-48
20
-9.5875
30
0
11
-48
21
-30.690158
31
0
39
0
210
0
220
0
230
1
0
LINE
5
1B3
100
AcDbEntity
8
SK2
62
256
6
ByLayer
370
13
48
1
60
0
100
AcDbLine
10
73.8878
20
-7.0875
30
0
11
73.8878
21
-30.690158
31
0
39
0
210
0
220
0
230
1
0
LINE
5
1B4
100
AcDbEntity
8
SK2
62
256
6
ByLayer
370
13
48
1
60
0
100
AcDbLine
10
-48
20
-28.690158
30
0
11
73.8878
21
-28.690158
31
0
39
0
210
0
220
0
230
1
0
SOLID
5
1B5
100
AcDbEntity
8
SK2
62
256
6
ByLayer
370
18
48
1
60
0
100
AcDbTrace
10
-48
20
-28.690158
30
0
11
-44.500002
21
-28.229374
31
0
12
-44.499998
22
-29.150942
32
0
13
-44.499998
23
-29.150942
33
0
39
0
210
0
220
0
230
1
0
SOLID
5
1B6
100
AcDbEntity
8
SK2
62
256
6
ByLayer
370
18
48
1
60
0
100
AcDbTrace
10
73.8878
20
-28.690158
30
0
11
70.387802
21
-29.150942
31
0
12
70.387798
22
-28.229374
32
0
13
70.387798
23
-28.229374
33
0
39
0
210
0
220
0
230
1
0
ENDBLK
5
1B8
100
AcDbEntity
8
0
100
AcDbBlockEnd
0
ENDSEC
0
SECTION
2
ENTITIES
0
ARC
5
BC
100
AcDbEntity
8
1
62
256
6
ByLayer
370
18
48
1
60
0
100
AcDbCircle
39
0
10
1.251998
20
-8.3
30
0
40
0.849999999999999
210
0
220
0
230
1
100
AcDbArc
50
90
51
137.431546
0
ARC
5
BD
100
AcDbEntity
8
1
62
256
6
ByLayer
370
18
48
1
60
0
100
AcDbCircle
39
0
10
1.251998
20
8.3
30
0
40
0.849999999999999
210
0
220
0
230
1
100
AcDbArc
50
222.568454
51
270
0
ARC
5
BE
100
AcDbEntity
8
1
62
256
6
ByLayer
370
18
48
1
60
0
100
AcDbCircle
39
0
10
0
20
-7.15
30
0
40
0.849999999999999
210
0
220
0
230
1
100
AcDbArc
50
270
51
317.431546
0
ARC
5
BF
100
AcDbEntity
8
1
62
256
6
ByLayer
370
18
48
1
60
0
100
AcDbCircle
39
0
10
0
20
7.15
30
0
40
0.849999999999999
210
0
220
0
230
1
100
AcDbArc
50
42.568454
51
90
0
ARC
5
C0
100
AcDbEntity
8
SK2
62
256
6
ByLayer
370
13
48
1
60
0
100
AcDbCircle
39
0
10
46.3878
20
0
30
0
40
20.8165229780581
210
0
220
0
230
1
100
AcDbArc
50
182.958228
51
225
0
ARC
5
C1
100
AcDbEntity
8
SK2
62
256
6
ByLayer
370
13
48
1
60
0
100
AcDbCircle
39
0
10
46.3878
20
0
30
0
40
20.8165229780581
210
0
220
0
230
1
100
AcDbArc
50
135
51
164.891717
0
ELLIPSE
5
C2
100
AcDbEntity
8
1
62
256
6
ByLayer
370
13
48
1
60
0
100
AcDbEllipse
10
120.194174
20
41.888784
30
0
11
-60.1999999999998
21
7.37213025001069E-15
31
0
210
0
220
0
230
1
40
0.99863
41
0.710301051197293
42
0.732214899465868
0
ELLIPSE
5
C3
100
AcDbEntity
8
1
62
256
6
ByLayer
370
13
48
1
60
0
100
AcDbEllipse
10
33.158399
20
-76.027292
30
0
11
-3.70767517721452
21
74.0546794168543
31
0
210
0
220
0
230
1
40
0.845235
41
0.0534784601552759
42
0.147389902479165
0
POINT
5
70
100
AcDbEntity
8
80
62
256
6
ByLayer
370
18
48
1
60
0
100
AcDbPoint
10
0
20
0
30
0
39
0
210
0
220
0
230
1
50
360
0
POINT
5
72
100
AcDbEntity
8
81
62
256
6
ByLayer
370
18
48
1
60
0
100
AcDbPoint
10
76
20
0
30
0
39
0
210
0
220
0
230
1
50
360
0
POINT
5
74
100
AcDbEntity
8
1
62
256
6
ByLayer
370
18
48
1
60
1
100
AcDbPoint
10
73.8878
20
-5.5
30
0
39
0
210
0
220
0
230
1
50
360
0
POINT
5
76
100
AcDbEntity
8
1
62
256
6
ByLayer
370
18
48
1
60
1
100
AcDbPoint
10
-48
20
-8
30
0
39
0
210
0
220
0
230
1
50
360
0
POINT
5
77
100
AcDbEntity
8
1
62
256
6
ByLayer
370
18
48
1
60
1
100
AcDbPoint
10
38.94
20
7.45
30
0
39
0
210
0
220
0
230
1
50
360
0
POINT
5
78
100
AcDbEntity
8
1
62
256
6
ByLayer
370
18
48
1
60
1
100
AcDbPoint
10
73.8878
20
-5.5
30
0
39
0
210
0
220
0
230
1
50
360
0
POINT
5
79
100
AcDbEntity
8
1
62
256
6
ByLayer
370
18
48
1
60
1
100
AcDbPoint
10
73.8878
20
5.5
30
0
39
0
210
0
220
0
230
1
50
360
0
POINT
5
7A
100
AcDbEntity
8
1
62
256
6
ByLayer
370
18
48
1
60
1
100
AcDbPoint
10
40.8878
20
5.5
30
0
39
0
210
0
220
0
230
1
50
360
0
POINT
5
7B
100
AcDbEntity
8
1
62
256
6
ByLayer
370
18
48
1
60
1
100
AcDbPoint
10
-48
20
-8
30
0
39
0
210
0
220
0
230
1
50
360
0
POINT
5
7C
100
AcDbEntity
8
1
62
256
6
ByLayer
370
18
48
1
60
1
100
AcDbPoint
10
73.8878
20
-5.5
30
0
39
0
210
0
220
0
230
1
50
360
0
SPLINE
5
C4
100
AcDbEntity
8
1
62
256
6
ByLayer
370
18
48
1
60
0
100
AcDbSpline
70
4
71
3
72
8
73
4
40
0
40
0
40
0
40
0
40
1
40
1
40
1
40
1
41
1
10
75.4237031273982
20
-1.69912559330336
30
0
41
1
10
75.1793717529267
20
-2.40835146483673
30
0
41
1
10
74.9367769591203
20
-3.11816949115922
30
0
41
1
10
74.6959274820378
20
-3.82858265117025
30
0
0
SPLINE
5
C5
100
AcDbEntity
8
1
62
256
6
ByLayer
370
18
48
1
60
0
100
AcDbSpline
70
4
71
1
72
4
73
2
40
0
40
0
40
1
40
1
41
1
10
75.2180577814096
20
-1.10583958045899
30
0
41
1
10
75.2263823999497
20
-1.07773613925295
30
0
0
SPLINE
5
C6
100
AcDbEntity
8
1
62
256
6
ByLayer
370
18
48
1
60
0
100
AcDbSpline
70
4
71
3
72
14
73
10
40
0
40
0
40
0
40
0
40
0.221404844499461
40
0.221404844499461
40
0.610702422249731
40
0.610702422249731
40
0.805351211124865
40
0.805351211124865
40
1
40
1
40
1
40
1
41
1
10
46.2070312713699
20
-5.33217571459997
30
0
41
1
10
45.8166851770463
20
-5.37405623660391
30
0
41
1
10
45.426598607511
20
-5.40450992420406
30
0
41
1
10
44.3498521365819
20
-5.45651760592486
30
0
41
1
10
43.6625644824327
20
-5.45387514498756
30
0
41
1
10
42.6261714067587
20
-5.39519905334052
30
0
41
1
10
42.2797205673678
20
-5.36653444134203
30
0
41
1
10
41.5841262565392
20
-5.29089990798784
30
0
41
1
10
41.2358794581448
20
-5.24402755614426
30
0
41
1
10
40.8877999999999
20
-5.18832468697798
30
0
0
SPLINE
5
C7
100
AcDbEntity
8
1
62
256
6
ByLayer
370
18
48
1
60
0
100
AcDbSpline
70
4
71
3
72
20
73
16
40
0
40
0
40
0
40
0
40
0.250000000000006
40
0.250000000000006
40
0.375000000000007
40
0.375000000000007
40
0.437500000000007
40
0.437500000000007
40
0.500000000000007
40
0.500000000000007
40
0.750000000000003
40
0.750000000000003
40
0.875000000000002
40
0.875000000000002
40
1
40
1
40
1
40
1
41
1
10
73.952570178314
20
-5.12177259994951
30
0
41
1
10
73.8427360963984
20
-5.02373586333141
30
0
41
1
10
73.7456190630381
20
-4.89724375316712
30
0
41
1
10
73.6197101737599
20
-4.66327616524407
30
0
41
1
10
73.5810550237616
20
-4.57787056606108
30
0
41
1
10
73.528342831952
20
-4.43796894419725
30
0
41
1
10
73.5116495676017
20
-4.38932171138944
30
0
41
1
10
73.4804469901917
20
-4.28919621088116
30
0
41
1
10
73.4658829298461
20
-4.23758317143745
30
0
41
1
10
73.3982122434587
20
-3.97182112240503
30
0
41
1
10
73.3604111976049
20
-3.73479568905574
30
0
41
1
10
73.3292100056222
20
-3.34114350359209
30
0
41
1
10
73.3231106584078
20
-3.20278711541039
30
0
41
1
10
73.3199610870186
20
-2.91844493291953
30
0
41
1
10
73.3228319994025
20
-2.77207203333416
30
0
41
1
10
73.3301034996464
20
-2.62153996089356
30
0
0
SPLINE
5
C8
100
AcDbEntity
8
1
62
256
6
ByLayer
370
18
48
1
60
0
100
AcDbSpline
70
4
71
3
72
42
73
38
40
0
40
0
40
0
40
0
40
0.0345482424744763
40
0.0345482424744763
40
0.0690964849489526
40
0.0690964849489526
40
0.138192969897905
40
0.138192969897905
40
0.27638593979581
40
0.27638593979581
40
0.310934182270287
40
0.310934182270287
40
0.328208303507526
40
0.328208303507526
40
0.345482424744765
40
0.345482424744765
40
0.414578909693721
40
0.414578909693721
40
0.552771879591632
40
0.552771879591632
40
0.587320122066111
40
0.587320122066111
40
0.621868364540589
40
0.621868364540589
40
0.690964849489546
40
0.690964849489546
40
0.760061334438503
40
0.760061334438503
40
0.794609576912982
40
0.794609576912982
40
0.811883698150222
40
0.811883698150222
40
0.829157819387461
40
0.829157819387461
40
0.967350789285372
40
0.967350789285372
40
1
40
1
40
1
40
1
41
1
10
73.9800703753256
20
-5.33131123621402
30
0
41
1
10
73.6326547975821
20
-5.28537522767044
30
0
41
1
10
73.2860331288095
20
-5.2302825091862
30
0
41
1
10
72.5922227164442
20
-5.10297005188792
30
0
41
1
10
72.2452738806057
20
-5.03063964350457
30
0
41
1
10
71.2032633285075
20
-4.78833269381354
30
0
41
1
10
70.5137535371986
20
-4.59453609103107
30
0
41
1
10
68.4525702246088
20
-3.92930949322025
30
0
41
1
10
67.0878796694653
20
-3.37353845282496
30
0
41
1
10
65.3644392364362
20
-2.58010867739679
30
0
41
1
10
65.0188508646302
20
-2.41653424636468
30
0
41
1
10
64.4985738113692
20
-2.16464181607913
30
0
41
1
10
64.3246569722356
20
-2.07950044204273
30
0
41
1
10
63.9777752824726
20
-1.90801523908888
30
0
41
1
10
63.8046481536611
20
-1.8215946856773
30
0
41
1
10
62.940343502734
20
-1.38655970609909
30
0
41
1
10
62.2530053062906
20
-1.02944240574701
30
0
41
1
10
60.1947270929827
20
0.0526290157604308
30
0
41
1
10
58.8275795961067
20
0.788420851588654
30
0
41
1
10
57.0953178375019
20
1.66896096707808
30
0
41
1
10
56.7470021308461
20
1.84330607679041
30
0
41
1
10
56.0541183085165
20
2.18329696727474
30
0
41
1
10
55.708839302256
20
2.3493108334568
30
0
41
1
10
54.6753154323633
20
2.83357021949456
30
0
41
1
10
53.9894004085354
20
3.13805479284767
30
0
41
1
10
52.6178265210908
20
3.70133383312378
30
0
41
1
10
51.9321435364196
20
3.96010320150353
30
0
41
1
10
50.8995413464405
20
4.30775322293636
30
0
41
1
10
50.5546489597043
20
4.41687031948865
30
0
41
1
10
50.0357033506802
20
4.5695878084918
30
0
41
1
10
49.86245680528
20
4.61867098902277
30
0
41
1
10
49.5153352683099
20
4.71305336136766
30
0
41
1
10
49.3412465721795
20
4.75840176344121
30
0
41
1
10
47.7783152982105
20
5.14731706992484
30
0
41
1
10
46.4089963828403
20
5.35705935696097
30
0
41
1
10
44.7119071918517
20
5.43903006861851
30
0
41
1
10
44.3873784943403
20
5.44670322740023
30
0
41
1
10
44.0623589370138
20
5.44631262222302
30
0
0
SPLINE
5
C9
100
AcDbEntity
8
1
62
256
6
ByLayer
370
18
48
1
60
0
100
AcDbSpline
70
4
71
3
72
10
73
6
40
0
40
0
40
0
40
0
40
0.5
40
0.5
40
1
40
1
40
1
40
1
41
1
10
38.8963367393341
20
-6.67071262595726
30
0
41
1
10
38.5578953385465
20
-6.56206718425386
30
0
41
1
10
38.2199496804828
20
-6.44290448515778
30
0
41
1
10
37.5437303017055
20
-6.18461980176252
30
0
41
1
10
37.2055246471631
20
-6.04547900079638
30
0
41
1
10
36.8673757762905
20
-5.89607831594495
30
0
0
SPLINE
5
CA
100
AcDbEntity
8
1
62
256
6
ByLayer
370
18
48
1
60
0
100
AcDbSpline
70
4
71
3
72
8
73
4
40
0
40
0
40
0
40
0
40
1
40
1
40
1
40
1
41
1
10
73.486373248827
20
0.576656765733361
30
0
41
1
10
73.7611346539708
20
0.4590144210365
30
0
41
1
10
74.0378566778395
20
0.351450315956782
30
0
41
1
10
74.3167438070187
20
0.255015580314733
30
0
0
SPLINE
5
CB
100
AcDbEntity
8
1
62
256
6
ByLayer
370
13
48
1
60
0
100
AcDbSpline
70
4
71
3
72
20
73
16
40
0
40
0
40
0
40
0
40
0.0266440699589214
40
0.0927063435097808
40
0.15876861706064
40
0.290893164162359
40
0.356955437713219
40
0.423017711264078
40
0.555142258365797
40
0.621204531916657
40
0.687266805467516
40
0.819391352569235
40
0.885453626120096
40
0.951515899670954
40
1
40
1
40
1
40
1
41
1
10
74.581480050195
20
2.40320544899973
30
0
41
1
10
74.5436453401524
20
2.40291717182168
30
0
41
1
10
74.4120040209147
20
2.40175204773385
30
0
41
1
10
74.1865680819249
20
2.39879001638369
30
0
41
1
10
73.8112676408061
20
2.39126649279689
30
0
41
1
10
73.4360149403926
20
2.3803213022253
30
0
41
1
10
73.0608071828917
20
2.36595178991885
30
0
41
1
10
72.6855067455706
20
2.34905836186155
30
0
41
1
10
72.3102537820402
20
2.32878166077296
30
0
41
1
10
71.9350454855652
20
2.3051395257439
30
0
41
1
10
71.5597445917575
20
2.27907191233413
30
0
41
1
10
71.1844914029762
20
2.24969297587069
30
0
41
1
10
70.8092835011265
20
2.21703128234705
30
0
41
1
10
70.5527738014821
20
2.19313554321548
30
0
41
1
10
70.3901011382849
20
2.17718107126049
30
0
41
1
10
70.3212486972441
20
2.17028589973799
30
0
0
SPLINE
5
CC
100
AcDbEntity
8
1
62
256
6
ByLayer
370
18
48
1
60
0
100
AcDbSpline
70
4
71
3
72
10
73
6
40
0
40
0
40
0
40
0
40
0.5
40
0.5
40
1
40
1
40
1
40
1
41
1
10
74.5526043254766
20
2.68844541475531
30
0
41
1
10
74.5579141412148
20
2.88175449427581
30
0
41
1
10
74.5764184939069
20
3.07272955340113
30
0
41
1
10
74.627039508892
20
3.45227175022595
30
0
41
1
10
74.6593960812353
20
3.64079644953208
30
0
41
1
10
74.6959274820379
20
3.82858265117019
30
0
0
SPLINE
5
CD
100
AcDbEntity
8
1
62
256
6
ByLayer
370
18
48
1
60
0
100
AcDbSpline
70
4
71
3
72
8
73
4
40
0
40
0
40
0
40
0
40
1
40
1
40
1
40
1
41
1
10
74.0012998128979
20
-5.21354564114611
30
0
41
1
10
73.9918824006314
20
-5.16966822414355
30
0
41
1
10
73.9740184513674
20
-5.14091710099493
30
0
41
1
10
73.9525701783097
20
-5.12177259994564
30
0
0
SPLINE
5
CE
100
AcDbEntity
8
1
62
256
6
ByLayer
370
18
48
1
60
0
100
AcDbSpline
70
4
71
3
72
12
73
8
40
0
40
0
40
0
40
0
40
0.25
40
0.25
40
0.5
40
0.5
40
1
40
1
40
1
40
1
41
1
10
40.8878
20
5.32210319780603
30
0
41
1
10
40.7132087045051
20
5.46978539925519
30
0
41
1
10
40.5418087679735
20
5.60837709789672
30
0
41
1
10
40.2033030787932
20
5.86854707148359
30
0
41
1
10
40.0364225092126
20
5.98979395872237
30
0
41
1
10
39.5410690684781
20
6.3268581533336
30
0
41
1
10
39.2172887048116
20
6.51716614988231
30
0
41
1
10
38.896336739334
20
6.67071262595732
30
0
0
SPLINE
5
CF
100
AcDbEntity
8
1
62
256
6
ByLayer
370
18
48
1
60
0
100
AcDbSpline
70
4
71
3
72
12
73
8
40
0
40
0
40
0
40
0
40
0.377994323361435
40
0.377994323361435
40
0.75598864672287
40
0.75598864672287
40
1
40
1
40
1
40
1
41
1
10
31.3572986910017
20
-6.17223666475277
30
0
41
1
10
31.6742024970981
20
-6.04489822070121
30
0
41
1
10
31.9892142744267
20
-5.90910169478482
30
0
41
1
10
32.6172439884734
20
-5.6223161284048
30
0
41
1
10
32.9305936243245
20
-5.47165361371452
30
0
41
1
10
33.4451596337754
20
-5.2119829721714
30
0
41
1
10
33.6468285550183
20
-5.10721413184808
30
0
41
1
10
33.8484026732293
20
-4.99965274527909
30
0
0
SPLINE
5
D0
100
AcDbEntity
8
1
62
256
6
ByLayer
370
18
48
1
60
0
100
AcDbSpline
70
4
71
3
72
12
73
8
40
0
40
0
40
0
40
0
40
0.250000000000002
40
0.250000000000002
40
0.500000000000004
40
0.500000000000004
40
1
40
1
40
1
40
1
41
1
10
40.8878
20
-5.32210319780603
30
0
41
1
10
40.713208704505
20
-5.46978539925519
30
0
41
1
10
40.5418087679735
20
-5.60837709789669
30
0
41
1
10
40.2033030787932
20
-5.86854707148359
30
0
41
1
10
40.0364225092126
20
-5.98979395872234
30
0
41
1
10
39.5410690684781
20
-6.32685815333349
30
0
41
1
10
39.2172887048116
20
-6.51716614988231
30
0
41
1
10
38.8963367393341
20
-6.67071262595726
30
0
0
SPLINE
5
D1
100
AcDbEntity
8
1
62
256
6
ByLayer
370
18
48
1
60
0
100
AcDbSpline
70
4
71
3
72
8
73
4
40
0
40
0
40
0
40
0
40
1
40
1
40
1
40
1
41
1
10
75.9996154225406
20
0.122839165974852
30
0
41
1
10
75.7986445960565
20
0.639346574108743
30
0
41
1
10
75.6076640674557
20
1.16513826432197
30
0
41
1
10
75.4237031274015
20
1.6991255932939
30
0
0
SPLINE
5
D2
100
AcDbEntity
8
1
62
256
6
ByLayer
370
18
48
1
60
0
100
AcDbSpline
70
4
71
4
72
10
73
5
40
0
40
0
40
0
40
0
40
0
40
1
40
1
40
1
40
1
40
1
41
1
10
32.0995769434653
20
-4.41849929255142
30
0
41
1
10
31.9140073803494
20
-4.85693363560176
30
0
41
1
10
31.7284378172335
20
-5.29536797865211
30
0
41
1
10
31.5428682541177
20
-5.73380232170246
30
0
41
1
10
31.3572986910018
20
-6.1722366647528
30
0
0
SPLINE
5
D3
100
AcDbEntity
8
1
62
256
6
ByLayer
370
18
48
1
60
0
100
AcDbSpline
70
4
71
3
72
20
73
16
40
0
40
0
40
0
40
0
40
0.25
40
0.25
40
0.375
40
0.375
40
0.5
40
0.5
40
0.625
40
0.625
40
0.75
40
0.75
40
0.875
40
0.875
40
1
40
1
40
1
40
1
41
1
10
75.2228952379622
20
-1.07421665803136
30
0
41
1
10
75.112977365746
20
-1.09012034966401
30
0
41
1
10
75.0111761546907
20
-1.06037417596303
30
0
41
1
10
74.8679642566603
20
-0.962381552231989
30
0
41
1
10
74.8226140415794
20
-0.921056633766199
30
0
41
1
10
74.73711493524
20
-0.824520508088256
30
0
41
1
10
74.696768872657
20
-0.7691524470155
30
0
41
1
10
74.620416993671
20
-0.645595080474465
30
0
41
1
10
74.584714675681
20
-0.57780336944063
30
0
41
1
10
74.5186639640273
20
-0.433671168109015
30
0
41
1
10
74.4881360594908
20
-0.35703034133104
30
0
41
1
10
74.4315955920491
20
-0.1954776751042
30
0
41
1
10
74.4055857823462
20
-0.11056079245563
30
0
41
1
10
74.3578366188091
20
0.0670954140837807
30
0
41
1
10
74.3360793745508
20
0.160066607742465
30
0
41
1
10
74.3167438070186
20
0.255015580314705
30
0
0
SPLINE
5
D4
100
AcDbEntity
8
1
62
256
6
ByLayer
370
18
48
1
60
0
100
AcDbSpline
70
4
71
3
72
8
73
4
40
0
40
0
40
0
40
0
40
1
40
1
40
1
40
1
41
1
10
74.048800934333
20
-5.44104146770965
30
0
41
1
10
74.2612309171287
20
-4.92377254796114
30
0
41
1
10
74.4790555773607
20
-4.38789598253891
30
0
41
1
10
74.6959274820378
20
-3.82858265117025
30
0
0
SPLINE
5
D5
100
AcDbEntity
8
1
62
256
6
ByLayer
370
18
48
1
60
0
100
AcDbSpline
70
4
71
3
72
10
73
6
40
0
40
0
40
0
40
0
40
0.5
40
0.5
40
1
40
1
40
1
40
1
41
1
10
38.896336739334
20
1.82667494362604
30
0
41
1
10
39.2251606135184
20
1.59006401929671
30
0
41
1
10
39.5549625815329
20
1.37157152483914
30
0
41
1
10
40.2181184022021
20
0.970389186452167
30
0
41
1
10
40.5514695083807
20
0.787771118728131
30
0
41
1
10
40.8878
20
0.624663733434403
30
0
0
SPLINE
5
D6
100
AcDbEntity
8
1
62
256
6
ByLayer
370
18
48
1
60
0
100
AcDbSpline
70
4
71
3
72
54
73
50
40
0
40
0
40
0
40
0
40
0.03125
40
0.03125
40
0.0625
40
0.0625
40
0.09375
40
0.09375
40
0.125
40
0.125
40
0.187500000000001
40
0.187500000000001
40
0.218750000000001
40
0.218750000000001
40
0.250000000000002
40
0.250000000000002
40
0.312500000000002
40
0.312500000000002
40
0.343750000000001
40
0.343750000000001
40
0.375000000000001
40
0.375000000000001
40
0.4375
40
0.4375
40
0.499999999999999
40
0.499999999999999
40
0.531249999999998
40
0.531249999999998
40
0.562499999999998
40
0.562499999999998
40
0.624999999999997
40
0.624999999999997
40
0.656249999999997
40
0.656249999999997
40
0.687499999999997
40
0.687499999999997
40
0.749999999999997
40
0.749999999999997
40
0.781249999999997
40
0.781249999999997
40
0.812499999999998
40
0.812499999999998
40
0.874999999999998
40
0.874999999999998
40
0.906249999999998
40
0.906249999999998
40
0.937499999999999
40
0.937499999999999
40
1
40
1
40
1
40
1
41
1
10
74.048800934333
20
-5.44104146770962
30
0
41
1
10
73.7032264772971
20
-5.41357614679578
30
0
41
1
10
73.3584261145681
20
-5.37700309137873
30
0
41
1
10
72.6688633520906
20
-5.28629885385129
30
0
41
1
10
72.3242553659576
20
-5.23212502504759
30
0
41
1
10
71.6348241807738
20
-5.10641130704164
30
0
41
1
10
71.2896825792714
20
-5.03510047673785
30
0
41
1
10
70.5987897474453
20
-4.87526660009931
30
0
41
1
10
70.2525673346489
20
-4.78725707988608
30
0
41
1
10
69.217386724709
20
-4.4995313546759
30
0
41
1
10
68.528251361505
20
-4.27756655857371
30
0
41
1
10
67.4930297698618
20
-3.9030058482281
30
0
41
1
10
67.1471634330397
20
-3.77135587089691
30
0
41
1
10
66.4555904552373
20
-3.49571455696832
30
0
41
1
10
66.1103899849627
20
-3.35211515015521
30
0
41
1
10
65.0753957380481
20
-2.90583263617032
30
0
41
1
10
64.3865028837439
20
-2.5871675376695
30
0
41
1
10
63.3494318304898
20
-2.0862758261471
30
0
41
1
10
63.0033276981458
20
-1.91474319274474
30
0
41
1
10
62.3122405380107
20
-1.56789822303406
30
0
41
1
10
61.9674682127313
20
-1.39122306740609
30
0
41
1
10
60.9323184822336
20
-0.857235559893979
30
0
41
1
10
60.2425998132195
20
-0.492729134574205
30
0
41
1
10
58.8581213430739
20
0.239519255229453
30
0
41
1
10
58.1681088485971
20
0.604219488497023
30
0
41
1
10
57.1332184311839
20
1.14309429066432
30
0
41
1
10
56.787814894442
20
1.32049477968437
30
0
41
1
10
56.0966582322457
20
1.67182261879177
30
0
41
1
10
55.749976471942
20
1.84487202688746
30
0
41
1
10
54.7129581766374
20
2.35376628251512
30
0
41
1
10
54.0232534473033
20
2.67790805666556
30
0
41
1
10
52.9872354643673
20
3.13499787745846
30
0
41
1
10
52.6416562239531
20
3.28250524510852
30
0
41
1
10
51.9490571549936
20
3.56626156775812
30
0
41
1
10
51.6031935747827
20
3.70240983205636
30
0
41
1
10
50.5665831479157
20
4.09025084845251
30
0
41
1
10
49.8772432565044
20
4.32315805434055
30
0
41
1
10
48.8396811296576
20
4.62659247211838
30
0
41
1
10
48.4932551299089
20
4.72068429187598
30
0
41
1
10
47.8010375185569
20
4.89175144902325
30
0
41
1
10
47.4556621855517
20
4.96924630327271
30
0
41
1
10
46.4195951808879
20
5.17597804545554
30
0
41
1
10
45.7293804782161
20
5.27989696141495
30
0
41
1
10
44.6910385575059
20
5.38236426690739
30
0
41
1
10
44.3442115540266
20
5.40744228341362
30
0
41
1
10
43.6529186852947
20
5.43945878851463
30
0
41
1
10
43.3073736766199
20
5.44632828097258
30
0
41
1
10
42.2717012830365
20
5.43972919153595
30
0
41
1
10
41.5810605021915
20
5.39898306532757
30
0
41
1
10
40.8878
20
5.32210319780603
30
0
0
SPLINE
5
D7
100
AcDbEntity
8
1
62
256
6
ByLayer
370
18
48
1
60
0
100
AcDbSpline
70
4
71
3
72
8
73
4
40
0
40
0
40
0
40
0
40
1
40
1
40
1
40
1
41
1
10
75.9996154225406
20
-0.122839165974881
30
0
41
1
10
75.798038718598
20
-0.640903716512042
30
0
41
1
10
75.6071172057122
20
-1.16672565152302
30
0
41
1
10
75.4237031274014
20
-1.6991255932939
30
0
0
SPLINE
5
D8
100
AcDbEntity
8
1
62
256
6
ByLayer
370
18
48
1
60
0
100
AcDbSpline
70
4
71
1
72
4
73
2
40
0
40
0
40
1
40
1
41
1
10
74.0012998128977
20
-5.21354564114603
30
0
41
1
10
75.21805778141
20
-1.1058395804591
30
0
0
SPLINE
5
D9
100
AcDbEntity
8
1
62
256
6
ByLayer
370
18
48
1
60
0
100
AcDbSpline
70
4
71
3
72
64
73
60
40
0
40
0
40
0
40
0
40
0.0392617757756039
40
0.0392617757756039
40
0.0785235515512079
40
0.0785235515512079
40
0.117785327326812
40
0.117785327326812
40
0.157047103102416
40
0.157047103102416
40
0.19630887887802
40
0.19630887887802
40
0.215939766765822
40
0.215939766765822
40
0.235570654653625
40
0.235570654653625
40
0.255201542541427
40
0.255201542541427
40
0.27483243042923
40
0.27483243042923
40
0.314094206204835
40
0.314094206204835
40
0.35335598198044
40
0.35335598198044
40
0.392617757756046
40
0.392617757756046
40
0.431879533531651
40
0.431879533531651
40
0.471141309307256
40
0.471141309307256
40
0.490772197195059
40
0.490772197195059
40
0.510403085082862
40
0.510403085082862
40
0.549664860858469
40
0.549664860858469
40
0.588926636634075
40
0.588926636634075
40
0.608557524521879
40
0.608557524521879
40
0.628188412409683
40
0.628188412409683
40
0.667450188185292
40
0.667450188185292
40
0.706711963960901
40
0.706711963960901
40
0.74597373973651
40
0.74597373973651
40
0.785235515512119
40
0.785235515512119
40
0.824497291287728
40
0.824497291287728
40
0.863759067063337
40
0.863759067063337
40
0.942282618614553
40
0.942282618614553
40
0.981544394390161
40
0.981544394390161
40
1
40
1
40
1
40
1
41
1
10
40.8878
20
0.628992610887678
30
0
41
1
10
41.2282455827996
20
0.455670062523524
30
0
41
1
10
41.5680749179408
20
0.281535568427358
30
0
41
1
10
42.247280153003
20
-0.0669585816015115
30
0
41
1
10
42.5869165121347
20
-0.240806856364458
30
0
41
1
10
43.2658652245779
20
-0.588522888839805
30
0
41
1
10
43.605689273304
20
-0.761408492098269
30
0
41
1
10
44.2853098813559
20
-1.10663913926385
30
0
41
1
10
44.6263111510668
20
-1.27716040470455
30
0
41
1
10
45.3061523242255
20
-1.61355611255118
30
0
41
1
10
45.645798493571
20
-1.77875467100702
30
0
41
1
10
46.1549250071459
20
-2.0224328585814
30
0
41
1
10
46.3245260072844
20
-2.10306573504593
30
0
41
1
10
46.6639135270688
20
-2.26254198132463
30
0
41
1
10
46.8336429408955
20
-2.34158545600169
30
0
41
1
10
47.173128466659
20
-2.49756620776384
30
0
41
1
10
47.3429318066807
20
-2.5743131365092
30
0
41
1
10
47.6827923850994
20
-2.72580076696283
30
0
41
1
10
47.8529442225871
20
-2.80033519411887
30
0
41
1
10
48.3636139461171
20
-3.0210951068544
30
0
41
1
10
48.7037393685733
20
-3.16392029012263
30
0
41
1
10
49.3832314820432
20
-3.43872808077748
30
0
41
1
10
49.7222690370369
20
-3.57248054490503
30
0
41
1
10
50.4010733711002
20
-3.82453650703977
30
0
41
1
10
50.7402661656209
20
-3.94414406916456
30
0
41
1
10
51.4199537019628
20
-4.17007931748429
30
0
41
1
10
51.7603685819132
20
-4.27687017221965
30
0
41
1
10
52.4408027878601
20
-4.47741054109645
30
0
41
1
10
52.7804966531866
20
-4.5713106781694
30
0
41
1
10
53.289510522632
20
-4.69952589760643
30
0
41
1
10
53.4592540583004
20
-4.74016877803075
30
0
41
1
10
53.798560029331
20
-4.81824580465897
30
0
41
1
10
53.9681274423792
20
-4.8557399532724
30
0
41
1
10
54.4769232732338
20
-4.96110763524342
30
0
41
1
10
54.8166478454456
20
-5.02211699291277
30
0
41
1
10
55.4965147157255
20
-5.12869935065771
30
0
41
1
10
55.8373207484623
20
-5.17396254385554
30
0
41
1
10
56.3470151581332
20
-5.2300087791204
30
0
41
1
10
56.5167400871834
20
-5.24667098498043
30
0
41
1
10
56.8562444689419
20
-5.27674121927808
30
0
41
1
10
57.0259293592623
20
-5.2898503034825
30
0
41
1
10
57.534806702164
20
-5.32061591027951
30
0
41
1
10
57.8740594002271
20
-5.3311018879682
30
0
41
1
10
58.553128779772
20
-5.33591034546549
30
0
41
1
10
58.8928248742295
20
-5.329848384911
30
0
41
1
10
59.5734525307304
20
-5.30197469056708
30
0
41
1
10
59.9131623366772
20
-5.28072521957444
30
0
41
1
10
60.5921509021482
20
-5.21793284403836
30
0
41
1
10
60.9310501821705
20
-5.17752732554501
30
0
41
1
10
61.6095348147064
20
-5.08086380120855
30
0
41
1
10
61.948602234569
20
-5.02368472772511
30
0
41
1
10
62.6276810646632
20
-4.89561736426265
30
0
41
1
10
62.9678720125373
20
-4.82364881204981
30
0
41
1
10
63.9875224707866
20
-4.58154115194418
30
0
41
1
10
64.66560383999
20
-4.38939104164515
30
0
41
1
10
65.6824989972247
20
-4.06288720271675
30
0
41
1
10
66.0218579270115
20
-3.94749429842003
30
0
41
1
10
66.5211719852405
20
-3.76749131172653
30
0
41
1
10
66.6809996828107
20
-3.70858666709555
30
0
41
1
10
66.8408137821389
20
-3.64836048404405
30
0
0
SPLINE
5
DA
100
AcDbEntity
8
1
62
256
6
ByLayer
370
18
48
1
60
0
100
AcDbSpline
70
4
71
3
72
14
73
10
40
0
40
0
40
0
40
0
40
0.25
40
0.25
40
0.5
40
0.5
40
0.75
40
0.75
40
1
40
1
40
1
40
1
41
1
10
36.8673757762905
20
-5.89607831594495
30
0
41
1
10
36.0032509039152
20
-5.65299374286676
30
0
41
1
10
35.1365232956
20
-5.39433494476472
30
0
41
1
10
33.3982963984868
20
-4.85197643558527
30
0
41
1
10
32.5267979955482
20
-4.56822905189946
30
0
41
1
10
30.779643044618
20
-3.97794612524444
30
0
41
1
10
29.9039848260996
20
-3.67140538029244
30
0
41
1
10
28.1493086888694
20
-3.03487068735277
30
0
41
1
10
27.2702855062231
20
-2.70491216913882
30
0
41
1
10
26.3901228317456
20
-2.36122160898975
30
0
0
SPLINE
5
DB
100
AcDbEntity
8
1
62
256
6
ByLayer
370
18
48
1
60
0
100
AcDbSpline
70
4
71
3
72
18
73
14
40
0
40
0
40
0
40
0
40
0.250000000000002
40
0.250000000000002
40
0.375000000000003
40
0.375000000000003
40
0.500000000000004
40
0.500000000000004
40
0.625000000000005
40
0.625000000000005
40
0.750000000000006
40
0.750000000000006
40
1
40
1
40
1
40
1
41
1
10
75.226382399955
20
-1.07773613923229
30
0
41
1
10
75.2823915585165
20
-1.04127990352899
30
0
41
1
10
75.3416255419153
20
-0.985781279728457
30
0
41
1
10
75.4356642384176
20
-0.875808448781896
30
0
41
1
10
75.4680886647159
20
-0.834354669212672
30
0
41
1
10
75.5337233291694
20
-0.743725020596912
30
0
41
1
10
75.5667746457873
20
-0.694819065009568
30
0
41
1
10
75.6333502616168
20
-0.590240382161284
30
0
41
1
10
75.6668744966673
20
-0.534565822925543
30
0
41
1
10
75.7343873235224
20
-0.416589372983566
30
0
41
1
10
75.7685340521451
20
-0.35396038196933
30
0
41
1
10
75.8694621288276
20
-0.160302040650009
30
0
41
1
10
75.9353150484291
20
-0.0226931152685665
30
0
41
1
10
75.9996154225406
20
0.122839165974824
30
0
0
SPLINE
5
DC
100
AcDbEntity
8
1
62
256
6
ByLayer
370
18
48
1
60
0
100
AcDbSpline
70
4
71
3
72
10
73
6
40
0
40
0
40
0
40
0
40
0.767887720003822
40
0.767887720003822
40
1
40
1
40
1
40
1
41
1
10
44.5624878403959
20
-5.3119643953757
30
0
41
1
10
44.0281665722625
20
-5.31039866786242
30
0
41
1
10
43.4936224988433
20
-5.28742963238935
30
0
41
1
10
42.7955786334127
20
-5.23021349946742
30
0
41
1
10
42.6334093010806
20
-5.21499912397329
30
0
41
1
10
42.471059043662
20
-5.19784992549089
30
0
0
SPLINE
5
DD
100
AcDbEntity
8
1
62
256
6
ByLayer
370
13
48
1
60
0
100
AcDbSpline
70
4
71
3
72
12
73
8
40
0
40
0
40
0
40
0
40
0.345549781654516
40
0.345549781654516
40
0.672774890827258
40
0.672774890827258
40
1
40
1
40
1
40
1
41
1
10
42.471060038122
20
-5.19785003053656
30
0
41
1
10
42.2894481834964
20
-5.17866622158854
30
0
41
1
10
42.1076099264639
20
-5.15706125166093
30
0
41
1
10
41.7530370721559
20
-5.11028034212336
30
0
41
1
10
41.5803290710193
20
-5.08535354873797
30
0
41
1
10
41.2343378964308
20
-5.03113328682639
30
0
41
1
10
41.0608689263474
20
-5.00180208612844
30
0
41
1
10
40.8878
20
-4.97046070818197
30
0
0
SPLINE
5
DE
100
AcDbEntity
8
1
62
256
6
ByLayer
370
18
48
1
60
0
100
AcDbSpline
70
4
71
3
72
16
73
12
40
0
40
0
40
0
40
0
40
0.0824245450078632
40
0.0824245450078632
40
0.213506752863884
40
0.213506752863884
40
0.475671168575923
40
0.475671168575923
40
0.737835584287961
40
0.737835584287961
40
1
40
1
40
1
40
1
41
1
10
23.5586842508132
20
7.44996811606583
30
0
41
1
10
23.7565444060036
20
7.44958076689156
30
0
41
1
10
23.9572720821823
20
7.44466664566539
30
0
41
1
10
24.4803405459665
20
7.42187039389754
30
0
41
1
10
24.8056087695293
20
7.39810490303452
30
0
41
1
10
25.7921195108516
20
7.30326903955708
30
0
41
1
10
26.4639856522388
20
7.20895696503288
30
0
41
1
10
27.8305892610298
20
6.97649196153048
30
0
41
1
10
28.5257528306782
20
6.83805387846496
30
0
41
1
10
29.9342815448379
20
6.52746176301557
30
0
41
1
10
30.6435606671614
20
6.35617900460159
30
0
41
1
10
31.3572986910017
20
6.17223666475277
30
0
0
SPLINE
5
DF
100
AcDbEntity
8
1
62
256
6
ByLayer
370
18
48
1
60
0
100
AcDbSpline
70
4
71
3
72
32
73
28
40
0
40
0
40
0
40
0
40
0.134679987714402
40
0.134679987714402
40
0.202019981571602
40
0.202019981571602
40
0.235689978500202
40
0.235689978500202
40
0.269359975428802
40
0.269359975428802
40
0.4040399631432
40
0.4040399631432
40
0.471379957000399
40
0.471379957000399
40
0.538719950857598
40
0.538719950857598
40
0.673399938571995
40
0.673399938571995
40
0.740739932429193
40
0.740739932429193
40
0.808079926286391
40
0.808079926286391
40
0.875419920143589
40
0.875419920143589
40
0.942759914000787
40
0.942759914000787
40
1
40
1
40
1
40
1
41
1
10
73.486373248827
20
0.576656765733361
30
0
41
1
10
72.8085614462088
20
0.925947890148365
30
0
41
1
10
72.1318444784991
20
1.27070237864646
30
0
41
1
10
71.1144974080044
20
1.77263989127852
30
0
41
1
10
70.7754022565697
20
1.93811812589024
30
0
41
1
10
70.2654073551529
20
2.18079027815634
30
0
41
1
10
70.0952596900846
20
2.26085043354266
30
0
41
1
10
69.7558034093325
20
2.41869942891086
30
0
41
1
10
69.58625433317
20
2.49629113071364
30
0
41
1
10
68.7382886454277
20
2.87927043937609
30
0
41
1
10
68.060757460658
20
3.17050133677495
30
0
41
1
10
67.0427730124479
20
3.57360188314755
30
0
41
1
10
66.7025961201023
20
3.70207191393752
30
0
41
1
10
66.0228935824243
20
3.94713678606081
30
0
41
1
10
65.6834029389619
20
4.06258587255161
30
0
41
1
10
64.6663020773217
20
4.3891889978695
30
0
41
1
10
63.9883090255288
20
4.5813201532209
30
0
41
1
10
62.9691728591277
20
4.82335701288093
30
0
41
1
10
62.6287560029016
20
4.89540272425552
30
0
41
1
10
61.9492536900718
20
5.0235737571866
30
0
41
1
10
61.6100299416514
20
5.08078660102231
30
0
41
1
10
60.9313641873135
20
5.17748924096389
30
0
41
1
10
60.5924357919559
20
5.21790051711474
30
0
41
1
10
59.9135215859392
20
5.28069797130721
30
0
41
1
10
59.5740758914783
20
5.30193956407717
30
0
41
1
10
58.9444853410179
20
5.32774087992235
30
0
41
1
10
58.6553622404887
20
5.33391041886128
30
0
41
1
10
58.3665299649725
20
5.33401796733531
30
0
0
SPLINE
5
E0
100
AcDbEntity
8
1
62
256
6
ByLayer
370
18
48
1
60
0
100
AcDbSpline
70
4
71
3
72
26
73
22
40
0
40
0
40
0
40
0
40
0.140404654134094
40
0.140404654134094
40
0.226364188720682
40
0.226364188720682
40
0.312323723307269
40
0.312323723307269
40
0.398283257893857
40
0.398283257893857
40
0.484242792480445
40
0.484242792480445
40
0.656161861653627
40
0.656161861653627
40
0.74212139624022
40
0.74212139624022
40
0.828080930826813
40
0.828080930826813
40
0.914040465413407
40
0.914040465413407
40
1
40
1
40
1
40
1
41
1
10
73.8347595533033
20
0.409552722437383
30
0
41
1
10
73.8708868162428
20
0.443285106866085
30
0
41
1
10
73.9110286824626
20
0.487236855431291
30
0
41
1
10
73.9816753452561
20
0.575381408888461
30
0
41
1
10
74.0095854389166
20
0.612547811600962
30
0
41
1
10
74.0665975333795
20
0.693289292869139
30
0
41
1
10
74.0957991624263
20
0.736985011929505
30
0
41
1
10
74.1552333910851
20
0.831074356868299
30
0
41
1
10
74.1854692934519
20
0.881466467375844
30
0
41
1
10
74.2465273109376
20
0.98926812396985
30
0
41
1
10
74.2769911252698
20
1.04606508912494
30
0
41
1
10
74.3663199343755
20
1.22343662508811
30
0
41
1
10
74.4238217045514
20
1.35150178608186
30
0
41
1
10
74.4997785986523
20
1.56062113404806
30
0
41
1
10
74.5230220734619
20
1.63248620591813
30
0
41
1
10
74.5627125295462
20
1.77924247720824
30
0
41
1
10
74.5792702229203
20
1.85436987945096
30
0
41
1
10
74.6023925132718
20
2.0086585075255
30
0
41
1
10
74.6088314572389
20
2.0882118112248
30
0
41
1
10
74.6069120937165
20
2.24593868570392
30
0
41
1
10
74.5986511186202
20
2.3247226926751
30
0
41
1
10
74.5814800550505
20
2.40320544903671
30
0
0
SPLINE
5
E1
100
AcDbEntity
8
1
62
256
6
ByLayer
370
18
48
1
60
0
100
AcDbSpline
70
4
71
3
72
8
73
4
40
0
40
0
40
0
40
0
40
1
40
1
40
1
40
1
41
1
10
73.9800703753257
20
-5.33131123621376
30
0
41
1
10
73.9910304103426
20
-5.28669259008012
30
0
41
1
10
73.9981209623267
20
-5.2463733957959
30
0
41
1
10
74.0012998128984
20
-5.21354564114071
30
0
0
SPLINE
5
E2
100
AcDbEntity
8
1
62
256
6
ByLayer
370
18
48
1
60
0
100
AcDbSpline
70
4
71
3
72
44
73
40
40
0
40
0
40
0
40
0
40
0.0312499999999997
40
0.0312499999999997
40
0.0624999999999994
40
0.0624999999999994
40
0.093749999999999
40
0.093749999999999
40
0.109374999999999
40
0.109374999999999
40
0.124999999999999
40
0.124999999999999
40
0.156249999999998
40
0.156249999999998
40
0.171874999999998
40
0.171874999999998
40
0.187499999999998
40
0.187499999999998
40
0.249999999999998
40
0.249999999999998
40
0.312499999999998
40
0.312499999999998
40
0.343749999999998
40
0.343749999999998
40
0.374999999999998
40
0.374999999999998
40
0.437499999999998
40
0.437499999999998
40
0.499999999999999
40
0.499999999999999
40
0.562499999999999
40
0.562499999999999
40
0.624999999999999
40
0.624999999999999
40
0.749999999999999
40
0.749999999999999
40
0.875
40
0.875
40
1
40
1
40
1
40
1
41
1
10
20.2986199256531
20
-3.23576021244398
30
0
41
1
10
20.2064946484139
20
-3.39446768718233
30
0
41
1
10
20.1223798845467
20
-3.55347916227814
30
0
41
1
10
19.9733835620806
20
-3.86866985042164
30
0
41
1
10
19.9081958288767
20
-4.02535893172137
30
0
41
1
10
19.7983451877325
20
-4.33669677315663
30
0
41
1
10
19.7536698574082
20
-4.49134637435452
30
0
41
1
10
19.7041245372762
20
-4.72157684393821
30
0
41
1
10
19.6905874633355
20
-4.79793540121059
30
0
41
1
10
19.6700544158476
20
-4.94699601496473
30
0
41
1
10
19.6629678158916
20
-5.02008348486495
30
0
41
1
10
19.6511684318539
20
-5.2350639483607
30
0
41
1
10
19.6558976045175
20
-5.37268161985244
30
0
41
1
10
19.6819064921448
20
-5.57061722841468
30
0
41
1
10
19.6937332720574
20
-5.63517894459122
30
0
41
1
10
19.7237607834851
20
-5.76145929357784
30
0
41
1
10
19.7420636942725
20
-5.82342365484507
30
0
41
1
10
19.8480940111837
20
-6.12181770951452
30
0
41
1
10
19.978752382206
20
-6.32608229846574
30
0
41
1
10
20.3165193896181
20
-6.6788727394661
30
0
41
1
10
20.5177162646006
20
-6.82139127048183
30
0
41
1
10
20.854877667003
20
-6.99774262908988
30
0
41
1
10
20.9733103629052
20
-7.05024334713787
30
0
41
1
10
21.2210534801717
20
-7.14418524746529
30
0
41
1
10
21.3505770321013
20
-7.18562689014791
30
0
41
1
10
21.7478451509102
20
-7.29369577149046
30
0
41
1
10
22.0261204233985
20
-7.34507110713471
30
0
41
1
10
22.6038003017417
20
-7.41704768825051
30
0
41
1
10
22.9032597146642
20
-7.43755124473256
30
0
41
1
10
23.519972783231
20
-7.45402830248557
30
0
41
1
10
23.8380660682463
20
-7.44986185526813
30
0
41
1
10
24.4803405459664
20
-7.42187039389754
30
0
41
1
10
24.8056087695293
20
-7.39810490303455
30
0
41
1
10
25.7921195108515
20
-7.30326903955708
30
0
41
1
10
26.4639856522388
20
-7.20895696503288
30
0
41
1
10
27.8305892610298
20
-6.97649196153048
30
0
41
1
10
28.5257528306782
20
-6.83805387846496
30
0
41
1
10
29.9342815448378
20
-6.52746176301557
30
0
41
1
10
30.6435606671614
20
-6.35617900460159
30
0
41
1
10
31.3572986910017
20
-6.17223666475277
30
0
0
SPLINE
5
E3
100
AcDbEntity
8
1
62
256
6
ByLayer
370
18
48
1
60
0
100
AcDbSpline
70
4
71
3
72
10
73
6
40
0
40
0
40
0
40
0
40
0.5
40
0.5
40
1
40
1
40
1
40
1
41
1
10
38.8963367393341
20
6.67071262595729
30
0
41
1
10
38.5578953385466
20
6.56206718425383
30
0
41
1
10
38.2199496804828
20
6.44290448515784
30
0
41
1
10
37.5437303017056
20
6.18461980176249
30
0
41
1
10
37.2055246471631
20
6.04547900079635
30
0
41
1
10
36.8673757762905
20
5.89607831594492
30
0
0
SPLINE
5
E4
100
AcDbEntity
8
1
62
256
6
ByLayer
370
18
48
1
60
0
100
AcDbSpline
70
4
71
3
72
18
73
14
40
0
40
0
40
0
40
0
40
0.250000000000001
40
0.250000000000001
40
0.375000000000001
40
0.375000000000001
40
0.500000000000001
40
0.500000000000001
40
0.75
40
0.75
40
0.875
40
0.875
40
1
40
1
40
1
40
1
41
1
10
73.4863732488269
20
0.576656765733361
30
0
41
1
10
73.4298541579269
20
0.30402975376245
30
0
41
1
10
73.3838447734761
20
0.0307076628594416
30
0
41
1
10
73.3306264588119
20
-0.380320155517694
30
0
41
1
10
73.315530883296
20
-0.517504285074637
30
0
41
1
10
73.290775407486
20
-0.792232042652699
30
0
41
1
10
73.2810896434294
20
-0.930353791410113
30
0
41
1
10
73.2607591130124
20
-1.34107983611682
30
0
41
1
10
73.2588132808845
20
-1.60741526367684
30
0
41
1
10
73.2727488119304
20
-1.99605484465562
30
0
41
1
10
73.280216054502
20
-2.12378238674384
30
0
41
1
10
73.3008551433022
20
-2.3755605230489
30
0
41
1
10
73.3140741487202
20
-2.4999414078344
30
0
41
1
10
73.3301034996463
20
-2.62153996089359
30
0
0
SPLINE
5
E5
100
AcDbEntity
8
1
62
256
6
ByLayer
370
18
48
1
60
0
100
AcDbSpline
70
4
71
3
72
8
73
4
40
0
40
0
40
0
40
0
40
1
40
1
40
1
40
1
41
1
10
75.9996154225406
20
0.122839165974881
30
0
41
1
10
76.0001281924852
20
0.0409463886583126
30
0
41
1
10
76.0001281924852
20
-0.0409463886582841
30
0
41
1
10
75.9996154225406
20
-0.122839165974852
30
0
0
SPLINE
5
E6
100
AcDbEntity
8
1
62
256
6
ByLayer
370
18
48
1
60
0
100
AcDbSpline
70
4
71
3
72
8
73
4
40
0
40
0
40
0
40
0
40
1
40
1
40
1
40
1
41
1
10
74.5814800550505
20
2.40320544903671
30
0
41
1
10
74.5609400426982
20
2.49708645871093
30
0
41
1
10
74.5499547015941
20
2.5919832437385
30
0
41
1
10
74.5526043254765
20
2.68844541475531
30
0
0
SPLINE
5
E7
100
AcDbEntity
8
1
62
256
6
ByLayer
370
13
48
1
60
0
100
AcDbSpline
70
4
71
3
72
38
73
34
40
0
40
0
40
0
40
0
40
0.0847170550562702
40
0.0847170550562702
40
0.16943411011254
40
0.16943411011254
40
0.254151165168811
40
0.254151165168811
40
0.338868220225081
40
0.338868220225081
40
0.381226747753217
40
0.381226747753217
40
0.423585275281352
40
0.423585275281352
40
0.508302330337623
40
0.508302330337623
40
0.593019385393893
40
0.593019385393893
40
0.635377912922028
40
0.635377912922028
40
0.677736440450163
40
0.677736440450163
40
0.762453495506435
40
0.762453495506435
40
0.80481202303457
40
0.80481202303457
40
0.847170550562705
40
0.847170550562705
40
0.931887605618974
40
0.931887605618974
40
0.974246133147107
40
0.974246133147107
40
1
40
1
40
1
40
1
41
1
10
73.952570178314
20
-5.12177259994951
30
0
41
1
10
73.2619855451437
20
-5.01392313995706
30
0
41
1
10
72.5745434712473
20
-4.87248732780182
30
0
41
1
10
71.2006819990048
20
-4.52786194823742
30
0
41
1
10
70.5142962436781
20
-4.32461402470261
30
0
41
1
10
69.1362641714348
20
-3.86241375170442
30
0
41
1
10
68.4433413312811
20
-3.60262403964069
30
0
41
1
10
67.0630891156738
20
-3.04057062914123
30
0
41
1
10
66.3739443901816
20
-2.73803413558116
30
0
41
1
10
65.337345867777
20
-2.25917381661014
30
0
41
1
10
64.9908168239375
20
-2.09509882077526
30
0
41
1
10
64.3008267199365
20
-1.76193380652006
30
0
41
1
10
63.9569235782557
20
-1.59267148585664
30
0
41
1
10
62.9273920620951
20
-1.07900044472751
30
0
41
1
10
62.2437284116904
20
-0.729118563721329
30
0
41
1
10
60.8766945691848
20
-0.0245521966724596
30
0
41
1
10
60.19330973015
20
0.330118742617969
30
0
41
1
10
59.1638651595195
20
0.856669377584609
30
0
41
1
10
58.8200637922921
20
1.03142154709215
30
0
41
1
10
58.1303897738525
20
1.37788965775502
30
0
41
1
10
57.7839169667594
20
1.54994187114758
30
0
41
1
10
56.7464817899913
20
2.05612016046754
30
0
41
1
10
56.0565965605058
20
2.38044618860678
30
0
41
1
10
55.02050230744
20
2.84083135020842
30
0
41
1
10
54.6749130391353
20
2.98989470926929
30
0
41
1
10
53.9824876927455
20
3.27781262752245
30
0
41
1
10
53.6364302274221
20
3.41629811783255
30
0
41
1
10
52.5999857588155
20
3.81324985622109
30
0
41
1
10
51.9101785421499
20
4.05323484938071
30
0
41
1
10
50.8731061200674
20
4.37131297636913
30
0
41
1
10
50.5266750183107
20
4.4703791942953
30
0
41
1
10
49.9699030425416
20
4.61706872921559
30
0
41
1
10
49.7594570413929
20
4.66961422306446
30
0
41
1
10
49.549018116618
20
4.71923499302775
30
0
0
SPLINE
5
E8
100
AcDbEntity
8
1
62
256
6
ByLayer
370
18
48
1
60
0
100
AcDbSpline
70
4
71
3
72
18
73
14
40
0
40
0
40
0
40
0
40
0.287520776573505
40
0.287520776573505
40
0.43128116486026
40
0.43128116486026
40
0.575041553147014
40
0.575041553147014
40
0.718801941433769
40
0.718801941433769
40
0.862562329720523
40
0.862562329720523
40
1
40
1
40
1
40
1
41
1
10
74.048800934333
20
5.44104146770962
30
0
41
1
10
73.3590092639969
20
5.38621869593428
30
0
41
1
10
72.6701563231387
20
5.29521491665423
30
0
41
1
10
71.6334432847031
20
5.10615105496379
30
0
41
1
10
71.2872454698849
20
5.03456944008633
30
0
41
1
10
70.5970273850932
20
4.87482591433107
30
0
41
1
10
70.2519688333142
20
4.78709465800054
30
0
41
1
10
69.5625306913242
20
4.59545927861512
30
0
41
1
10
69.2175029575783
20
4.49218902430306
30
0
41
1
10
68.5272666525386
20
4.27026121090933
30
0
41
1
10
68.1812146044962
20
4.15203903697574
30
0
41
1
10
67.5048135857347
20
3.90723449320936
30
0
41
1
10
67.1747297087031
20
3.78169334306727
30
0
41
1
10
66.8448449590852
20
3.6507343234903
30
0
0
SPLINE
5
E9
100
AcDbEntity
8
1
62
256
6
ByLayer
370
18
48
1
60
0
100
AcDbSpline
70
4
71
3
72
10
73
6
40
0
40
0
40
0
40
0
40
0.0414573927927556
40
0.0414573927927556
40
1
40
1
40
1
40
1
41
1
10
43.0496512433952
20
-5.44449188034224
30
0
41
1
10
43.0198516875464
20
-5.4444343217817
30
0
41
1
10
42.990052074099
20
-5.4443091618628
30
0
41
1
10
42.2712462274332
20
-5.43965961305966
30
0
41
1
10
41.5812348986734
20
-5.39900240521263
30
0
41
1
10
40.8878
20
-5.32210319780603
30
0
0
SPLINE
5
EA
100
AcDbEntity
8
1
62
256
6
ByLayer
370
18
48
1
60
0
100
AcDbSpline
70
4
71
4
72
10
73
5
40
0
40
0
40
0
40
0
40
0
40
1
40
1
40
1
40
1
40
1
41
1
10
36.8673757762905
20
5.89607831594489
30
0
41
1
10
36.6345081167479
20
5.36921337098448
30
0
41
1
10
36.4016404572053
20
4.84234842602407
30
0
41
1
10
36.1687727976626
20
4.31548348106367
30
0
41
1
10
35.93590513812
20
3.78861853610326
30
0
0
SPLINE
5
EB
100
AcDbEntity
8
1
62
256
6
ByLayer
370
13
48
1
60
0
100
AcDbSpline
70
4
71
3
72
63
73
59
40
0
40
0
40
0
40
0
40
0.0013710719374367
40
0.0151657001159339
40
0.0289603282944311
40
0.0565495846514255
40
0.0703442128299227
40
0.0841388410084199
40
0.111728097365414
40
0.125522725543912
40
0.139317353722409
40
0.166906610079403
40
0.1807012382579
40
0.194495866436397
40
0.222085122793392
40
0.235879750971889
40
0.249674379150386
40
0.277263635507381
40
0.291058263685878
40
0.304852891864375
40
0.33244214822137
40
0.346236776399866
40
0.360031404578364
40
0.387620660935358
40
0.401415289113855
40
0.415209917292352
40
0.442799173649347
40
0.456593801827845
40
0.470388430006341
40
0.497977686363336
40
0.511772314541833
40
0.52556694272033
40
0.553156199077325
40
0.566950827255822
40
0.580745455434319
40
0.608334711791313
40
0.622129339969811
40
0.635923968148308
40
0.663513224505302
40
0.677307852683799
40
0.691102480862297
40
0.718691737219291
40
0.732486365397788
40
0.746280993576285
40
0.77387024993328
40
0.787664878111777
40
0.801459506290274
40
0.829048762647269
40
0.842843390825766
40
0.856638019004263
40
0.884227275361257
40
0.898021903539754
40
0.911816531718252
40
0.939405788075246
40
0.953200416253743
40
0.96699504443224
40
0.994584300789235
40
1
40
1
40
1
40
1
41
1
10
58.7352907125716
20
-0.0138588865377756
30
0
41
1
10
58.7259671103341
20
-0.0116895990091734
30
0
41
1
10
58.6228372948785
20
0.0123070122859303
30
0
41
1
10
58.4259098257314
20
0.058164859198115
30
0
41
1
10
58.0506086660997
20
0.145146585714315
30
0
41
1
10
57.6753553768204
20
0.232112646606424
30
0
41
1
10
57.3001475031253
20
0.318897205298896
30
0
41
1
10
56.9248472305545
20
0.405014154296481
30
0
41
1
10
56.5495947233143
20
0.490745705981169
30
0
41
1
10
56.1743869239178
20
0.575912581038438
30
0
41
1
10
55.7990864535872
20
0.660131858783899
30
0
41
1
10
55.4238334536548
20
0.743591018887543
30
0
41
1
10
55.0486253100397
20
0.82611664777869
30
0
41
1
10
54.6733247595214
20
0.907430241912522
30
0
41
1
10
54.2980719544511
20
0.987623516905501
30
0
41
1
10
53.9228639944261
20
1.06652917516973
30
0
41
1
10
53.5475635188631
20
1.14397548346619
30
0
41
1
10
53.1723108053479
20
1.21995871960553
30
0
41
1
10
52.797103069632
20
1.2943198374434
30
0
41
1
10
52.4218026506045
20
1.36699239845657
30
0
41
1
10
52.0465496931524
20
1.43787460912745
30
0
41
1
10
51.6713413702274
20
1.5068111792628
30
0
41
1
10
51.2960404232776
20
1.57384570658624
30
0
41
1
10
50.9207871280811
20
1.63877964755528
30
0
41
1
10
50.5455790557463
20
1.7014677204032
30
0
41
1
10
50.170278709377
20
1.76206422724496
30
0
41
1
10
49.7950262473897
20
1.82027881393833
30
0
41
1
10
49.4198186079319
20
1.87598177116146
30
0
41
1
10
49.0445183852044
20
1.92943196305788
30
0
41
1
10
48.6692657651955
20
1.98024962313312
30
0
41
1
10
48.294057910059
20
2.0283165674694
30
0
41
1
10
47.9187573473462
20
2.07399395319325
30
0
41
1
10
47.5435042324592
20
2.11681569634777
30
0
41
1
10
47.1682958128064
20
2.15667587963179
30
0
41
1
10
46.7929948170212
20
2.19403455885757
30
0
41
1
10
46.4177415867785
20
2.2283424985188
30
0
41
1
10
46.0425337050747
20
2.25950600480812
30
0
41
1
10
45.6672335371378
20
2.28808571618987
30
0
41
1
10
45.2919812347533
20
2.31346286952746
30
0
41
1
10
44.9167736907862
20
2.33557132690891
30
0
41
1
10
44.5414734941104
20
2.35505324196751
30
0
41
1
10
44.1662207645712
20
2.37122409755733
30
0
41
1
10
43.7910126797458
20
2.38403005029622
30
0
41
1
10
43.4157119199413
20
2.39419196134236
30
0
41
1
10
43.0404586440641
20
2.40096670123597
30
0
41
1
10
42.665250143534
20
2.40431725342947
30
0
41
1
10
42.2899491491247
20
2.40503391054224
30
0
41
1
10
41.9146960472669
20
2.40231934227901
30
0
41
1
10
41.5394883374689
20
2.39614868550137
30
0
41
1
10
41.1641882447747
20
2.38738390228994
30
0
41
1
10
40.788935911055
20
2.37519279686256
30
0
41
1
10
40.4137282490567
20
2.35958425414736
30
0
41
1
10
40.0384279001389
20
2.34146421406177
30
0
41
1
10
39.6631749875628
20
2.31997032417675
30
0
41
1
10
39.2879668111351
20
2.29512269390597
30
0
41
1
10
38.9126660960963
20
2.26786856051879
30
0
41
1
10
38.5943956809685
20
2.24196416836361
30
0
41
1
10
38.3699599287464
20
2.22214573580422
30
0
41
1
10
38.3331324873415
20
2.21885123088592
30
0
0
SPLINE
5
EC
100
AcDbEntity
8
1
62
256
6
ByLayer
370
18
48
1
60
0
100
AcDbSpline
70
4
71
3
72
30
73
26
40
0
40
0
40
0
40
0
40
0.125000000000002
40
0.125000000000002
40
0.250000000000005
40
0.250000000000005
40
0.375000000000007
40
0.375000000000007
40
0.437500000000005
40
0.437500000000005
40
0.500000000000003
40
0.500000000000003
40
0.625000000000005
40
0.625000000000005
40
0.750000000000007
40
0.750000000000007
40
0.812500000000005
40
0.812500000000005
40
0.875000000000004
40
0.875000000000004
40
0.937500000000002
40
0.937500000000002
40
0.968750000000001
40
0.968750000000001
40
1
40
1
40
1
40
1
41
1
10
26.3901228317456
20
-2.36122160898978
30
0
41
1
10
26.1370863318057
20
-2.26241458282948
30
0
41
1
10
25.8734454080689
20
-2.17925223706357
30
0
41
1
10
25.3434649634829
20
-2.04743368591474
30
0
41
1
10
25.075942657922
20
-1.99808359996973
30
0
41
1
10
24.536286181261
20
-1.93007026327416
30
0
41
1
10
24.2641520970794
20
-1.91140249501097
30
0
41
1
10
23.8525215761121
20
-1.90636702897694
30
0
41
1
10
23.7143546499875
20
-1.90856850216332
30
0
41
1
10
23.4401492169169
20
-1.92071433170395
30
0
41
1
10
23.3038172660609
20
-1.93063260459354
30
0
41
1
10
22.8971481626117
20
-1.97195337867447
30
0
41
1
10
22.6290998500335
20
-2.01474834317995
30
0
41
1
10
22.0999419674085
20
-2.13433913052228
30
0
41
1
10
21.8387661369809
20
-2.21083142064981
30
0
41
1
10
21.4541982660197
20
-2.36003672181192
30
0
41
1
10
21.3288128678294
20
-2.41504464391357
30
0
41
1
10
21.0864813769607
20
-2.53705531373998
30
0
41
1
10
20.9692713450925
20
-2.60409133670012
30
0
41
1
10
20.7455764789851
20
-2.754215749217
30
0
41
1
10
20.6381952145943
20
-2.83813902674717
30
0
41
1
10
20.4951986649078
20
-2.97669053468195
30
0
41
1
10
20.4503973886842
20
-3.02507993955635
30
0
41
1
10
20.3678963541481
20
-3.12726810442894
30
0
41
1
10
20.3305225076406
20
-3.18080050565572
30
0
41
1
10
20.2986199256532
20
-3.23576021244401
30
0
0
SPLINE
5
ED
100
AcDbEntity
8
1
62
256
6
ByLayer
370
18
48
1
60
0
100
AcDbSpline
70
4
71
3
72
8
73
4
40
0
40
0
40
0
40
0
40
1
40
1
40
1
40
1
41
1
10
74.048800934333
20
5.44104146770962
30
0
41
1
10
74.2612078669277
20
4.92382867540775
30
0
41
1
10
74.479031100662
20
4.38795910802227
30
0
41
1
10
74.6959274820378
20
3.82858265117017
30
0
0
SPLINE
5
EE
100
AcDbEntity
8
1
62
256
6
ByLayer
370
18
48
1
60
0
100
AcDbSpline
70
4
71
3
72
8
73
4
40
0
40
0
40
0
40
0
40
1
40
1
40
1
40
1
41
1
10
75.2228952379622
20
-1.07421665803136
30
0
41
1
10
75.2240575771544
20
-1.07538986613153
30
0
41
1
10
75.2252199644903
20
-1.07656302653592
30
0
41
1
10
75.2263823999639
20
-1.07773613923879
30
0
0
SPLINE
5
EF
100
AcDbEntity
8
1
62
256
6
ByLayer
370
18
48
1
60
0
100
AcDbSpline
70
4
71
3
72
20
73
16
40
0
40
0
40
0
40
0
40
0.124999999999999
40
0.124999999999999
40
0.249999999999998
40
0.249999999999998
40
0.499999999999997
40
0.499999999999997
40
0.624999999999997
40
0.624999999999997
40
0.749999999999998
40
0.749999999999998
40
0.874999999999999
40
0.874999999999999
40
1
40
1
40
1
40
1
41
1
10
31.3572986910017
20
6.1722366647528
30
0
41
1
10
31.6742024970981
20
6.04489822070121
30
0
41
1
10
31.9892142744267
20
5.90910169478479
30
0
41
1
10
32.6172439884735
20
5.62231612840486
30
0
41
1
10
32.9305936243246
20
5.47165361371452
30
0
41
1
10
33.8687025735145
20
4.99824622146681
30
0
41
1
10
34.4922453909049
20
4.65479882496169
30
0
41
1
10
35.429194503652
20
4.10268682963351
30
0
41
1
10
35.7419291903843
20
3.91265071062241
30
0
41
1
10
36.3690297994586
20
3.52140899695033
30
0
41
1
10
36.6831368239196
20
3.31986623698822
30
0
41
1
10
37.3144934825162
20
2.90729491119777
30
0
41
1
10
37.6310894000453
20
2.69518391530667
30
0
41
1
10
38.2638072006005
20
2.26602178676541
30
0
41
1
10
38.5798832622466
20
2.04775994530925
30
0
41
1
10
38.8963367393341
20
1.82667494362593
30
0
0
SPLINE
5
F0
100
AcDbEntity
8
1
62
256
6
ByLayer
370
18
48
1
60
0
100
AcDbSpline
70
4
71
3
72
8
73
4
40
0
40
0
40
0
40
0
40
1
40
1
40
1
40
1
41
1
10
75.4237031274015
20
1.6991255932939
30
0
41
1
10
75.1793726104979
20
2.40834897554657
30
0
41
1
10
74.9367778058905
20
3.11816699351326
30
0
41
1
10
74.6959274820379
20
3.82858265117019
30
0
0
SPLINE
5
F1
100
AcDbEntity
8
1
62
256
6
ByLayer
370
18
48
1
60
0
100
AcDbSpline
70
4
71
3
72
8
73
4
40
0
40
0
40
0
40
0
40
1
40
1
40
1
40
1
41
1
10
73.9800703753256
20
-5.33131123621399
30
0
41
1
10
74.0005084715495
20
-5.37748073849158
30
0
41
1
10
74.0233377742719
20
-5.41392365570033
30
0
41
1
10
74.048800934333
20
-5.44104146770962
30
0
0
SPLINE
5
F2
100
AcDbEntity
8
1
62
256
6
ByLayer
370
13
48
1
60
0
100
AcDbSpline
70
4
71
3
72
64
73
60
40
0
40
0
40
0
40
0
40
0.0118983377821259
40
0.025380274342994
40
0.0523441474647248
40
0.0658260840255907
40
0.0793080205864575
40
0.106271893708188
40
0.119753830269053
40
0.13323576682992
40
0.160199639951651
40
0.173681576512517
40
0.187163513073383
40
0.214127386195115
40
0.227609322755981
40
0.241091259316847
40
0.268055132438578
40
0.281537068999444
40
0.29501900556031
40
0.321982878682041
40
0.335464815242907
40
0.348946751803773
40
0.375910624925504
40
0.38939256148637
40
0.402874498047236
40
0.429838371168968
40
0.443320307729834
40
0.456802244290699
40
0.483766117412431
40
0.497248053973297
40
0.510729990534163
40
0.537693863655894
40
0.55117580021676
40
0.564657736777626
40
0.591621609899358
40
0.605103546460223
40
0.61858548302109
40
0.645549356142821
40
0.659031292703687
40
0.672513229264553
40
0.699477102386284
40
0.71295903894715
40
0.726440975508016
40
0.753404848629748
40
0.766886785190614
40
0.780368721751479
40
0.807332594873211
40
0.820814531434077
40
0.834296467994942
40
0.861260341116674
40
0.87474227767754
40
0.888224214238406
40
0.915188087360137
40
0.928670023921003
40
0.942151960481869
40
0.969115833603601
40
0.982597770164466
40
0.996079706725332
40
1
40
1
40
1
40
1
41
1
10
63.5209620097785
20
-2.17377491152274
30
0
41
1
10
63.438160412653
20
-2.18199782867114
30
0
41
1
10
63.2615336127707
20
-2.19909752811321
30
0
41
1
10
62.8973440688782
20
-2.23228078854621
30
0
41
1
10
62.5220891579505
20
-2.26324233586021
30
0
41
1
10
62.1467898494886
20
-2.29093601857935
30
0
41
1
10
61.7715833146425
20
-2.31621836130688
30
0
41
1
10
61.3963294637757
20
-2.3381687981356
30
0
41
1
10
61.0210308897156
20
-2.35675619356442
30
0
41
1
10
60.6458247538546
20
-2.37281856964842
30
0
41
1
10
60.2705706701036
20
-2.38546596346225
30
0
41
1
10
59.8952709356534
20
-2.39467887382531
30
0
41
1
10
59.5200632914169
20
-2.4012824145745
30
0
41
1
10
59.1448076340558
20
-2.40444284139909
30
0
41
1
10
58.7695071991779
20
-2.40418323373964
30
0
41
1
10
58.3942993776355
20
-2.40128125871206
30
0
41
1
10
58.0190441668798
20
-2.39496477850653
30
0
41
1
10
57.6437445071011
20
-2.38526972334168
30
0
41
1
10
57.268537592502
20
-2.37292170195045
30
0
41
1
10
56.8932833463478
20
-2.35721507124447
30
0
41
1
10
56.5179844258321
20
-2.33819860374419
30
0
41
1
10
56.1427780019402
20
-2.31654174419307
30
0
41
1
10
55.7675237290957
20
-2.29160998544535
30
0
41
1
10
55.3922240608815
20
-2.2634651939799
30
0
41
1
10
55.0170167501253
20
-2.23272286553925
30
0
41
1
10
54.6417616953725
20
-2.19883625714718
30
0
41
1
10
54.2664619527929
20
-2.16189873000809
30
0
41
1
10
53.8912548396652
20
-2.12244946574765
30
0
41
1
10
53.5160002774071
20
-2.08003323770654
30
0
41
1
10
53.1407008789251
20
-2.03475602190272
30
0
41
1
10
52.7654938459737
20
-1.9870777431172
30
0
41
1
10
52.390239088958
20
-1.9366388186331
30
0
41
1
10
52.0149395069933
20
-1.88355907549726
30
0
41
1
10
51.6397323991552
20
-1.8282150213125
30
0
41
1
10
51.2644775506554
20
-1.77034549387841
30
0
41
1
10
50.8891777444863
20
-1.71008224362617
30
0
41
1
10
50.513970580151
20
-1.64771753729906
30
0
41
1
10
50.1387159755169
20
-1.58309465480383
30
0
41
1
10
49.7634167563768
20
-1.51636208153721
30
0
41
1
10
49.3882101197996
20
-1.44771975259584
30
0
41
1
10
49.012955852781
20
-1.37711701219803
30
0
41
1
10
48.6376563830515
20
-1.30471280179319
30
0
41
1
10
48.2624491459962
20
-1.23061143017364
30
0
41
1
10
47.8871940459635
20
-1.15486622247138
30
0
41
1
10
47.5118941435074
20
-1.07764115460912
30
0
41
1
10
47.1366867828957
20
-0.998948350803857
30
0
41
1
10
46.7614318409076
20
-0.918945615046738
30
0
41
1
10
46.3861321541106
20
-0.837805594489964
30
0
41
1
10
46.0109251334086
20
-0.755447023602159
30
0
41
1
10
45.6356706861576
20
-0.672131706806255
30
0
41
1
10
45.2603715637144
20
-0.588039194249063
30
0
41
1
10
44.8851649759596
20
-0.502994805751541
30
0
41
1
10
44.5099106440189
20
-0.417363530660794
30
0
41
1
10
44.1346109837438
20
-0.331331166941936
30
0
41
1
10
43.7594035683355
20
-0.244624828227217
30
0
41
1
10
43.3841483087601
20
-0.157701417061816
30
0
41
1
10
43.0088483108176
20
-0.0707369404628366
30
0
41
1
10
42.7939688068322
20
-0.020705550583898
30
0
41
1
10
42.6728845619974
20
0.0074646996658601
30
0
41
1
10
42.6456069359331
20
0.0138095218160288
30
0
0
SPLINE
5
F3
100
AcDbEntity
8
1
62
256
6
ByLayer
370
18
48
1
60
0
100
AcDbSpline
70
4
71
3
72
10
73
6
40
0
40
0
40
0
40
0
40
0.861836265203708
40
0.861836265203708
40
1
40
1
40
1
40
1
41
1
10
36.8673757762905
20
5.89607831594495
30
0
41
1
10
36.0032509039153
20
5.65299374286676
30
0
41
1
10
35.1365232956002
20
5.39433494476478
30
0
41
1
10
34.1280794836528
20
5.07968207444773
30
0
41
1
10
33.9886878261615
20
5.03588545372992
30
0
41
1
10
33.849236134834
20
4.99177066522444
30
0
0
SPLINE
5
F4
100
AcDbEntity
8
1
62
256
6
ByLayer
370
18
48
1
60
0
100
AcDbSpline
70
4
71
3
72
9
73
5
40
0
40
0
40
0
40
0
40
0.449391394041884
40
1
40
1
40
1
40
1
41
1
10
73.8166517017607
20
0.444195704294799
30
0
41
1
10
73.702307034578
20
0.491232993427104
30
0
41
1
10
73.4496178723975
20
0.602428260251173
30
0
41
1
10
73.1990656960471
20
0.726558144321388
30
0
41
1
10
73.0620371986194
20
0.799078066492172
30
0
0
SPLINE
5
F5
100
AcDbEntity
8
1
62
256
6
ByLayer
370
18
48
1
60
0
100
AcDbSpline
70
4
71
3
72
13
73
9
40
0
40
0
40
0
40
0
40
0.2854110565577
40
0.519161435437872
40
0.701027636777253
40
0.830761125352457
40
0.961374412955419
40
1
40
1
40
1
40
1
41
1
10
58.7135406588566
20
-0.0087980938456838
30
0
41
1
10
58.9198865472033
20
-0.0568890987837563
30
0
41
1
10
59.2948320036274
20
-0.159676419009145
30
0
41
1
10
59.8002718495559
20
-0.336619399911541
30
0
41
1
10
60.1926916745007
20
-0.496935189354133
30
0
41
1
10
60.510670117455
20
-0.642207479869739
30
0
41
1
10
60.7250227666546
20
-0.745413951447063
30
0
41
1
10
60.8457005805514
20
-0.810222128152844
30
0
41
1
10
60.8732183668026
20
-0.825242794145083
30
0
0
SPLINE
5
F6
100
AcDbEntity
8
1
62
256
6
ByLayer
370
18
48
1
60
0
100
AcDbSpline
70
4
71
3
72
30
73
26
40
0
40
0
40
0
40
0
40
0.0523978887478544
40
0.0997063956675164
40
0.140992475138232
40
0.171703987734121
40
0.19947434589676
40
0.247333898260396
40
0.292450805631602
40
0.329741899011761
40
0.368471072274618
40
0.408961430456805
40
0.442815412521892
40
0.482307982120877
40
0.530778712818891
40
0.574823105873966
40
0.615629202561256
40
0.65602183314435
40
0.704848064714969
40
0.757224725170051
40
0.793545220117011
40
0.830723679146157
40
0.874019249916655
40
0.931646925761784
40
1
40
1
40
1
40
1
41
1
10
44.5096406228951
20
-5.31188989981439
30
0
41
1
10
44.7502877579251
20
-5.31210538926098
30
0
41
1
10
45.2085560051041
20
-5.31263030024334
30
0
41
1
10
45.8629648611761
20
-5.31353131839018
30
0
41
1
10
46.4087909847761
20
-5.31476433865606
30
0
41
1
10
46.8704899189695
20
-5.31573504196678
30
0
41
1
10
47.3615130445779
20
-5.3168766098477
30
0
41
1
10
47.9199584909251
20
-5.31727671405309
30
0
41
1
10
48.5221090552257
20
-5.31799131238876
30
0
41
1
10
49.0821134430586
20
-5.31864170420232
30
0
41
1
10
49.6207294026152
20
-5.32032294240344
30
0
41
1
10
50.1434564316126
20
-5.32220828613671
30
0
41
1
10
50.6697129978664
20
-5.32255465800594
30
0
41
1
10
51.2328645011173
20
-5.32282871246085
30
0
41
1
10
51.8431246707718
20
-5.32289994484759
30
0
41
1
10
52.4594550689923
20
-5.32444943342318
30
0
41
1
10
53.0384344254038
20
-5.32644420423878
30
0
41
1
10
53.6395409357111
20
-5.32696029459896
30
0
41
1
10
54.2940711396631
20
-5.32969081869643
30
0
41
1
10
54.9300155868891
20
-5.32919423541858
30
0
41
1
10
55.5113525199385
20
-5.32898370755785
30
0
41
1
10
56.0518568035573
20
-5.32951610797482
30
0
41
1
10
56.6866865359373
20
-5.33074799492931
30
0
41
1
10
57.4707974481256
20
-5.33486643621828
30
0
41
1
10
58.0519970788639
20
-5.33460800311047
30
0
41
1
10
58.367373449629
20
-5.33402038660131
30
0
0
SPLINE
5
F7
100
AcDbEntity
8
1
62
256
6
ByLayer
370
18
48
1
60
0
100
AcDbSpline
70
4
71
3
72
27
73
23
40
0
40
0
40
0
40
0
40
0.0710033282897266
40
0.133140602867149
40
0.180328578170217
40
0.220658291890246
40
0.256417639580311
40
0.30051403957265
40
0.353597005710548
40
0.413795272237752
40
0.467857293787454
40
0.525418643156911
40
0.590072103205391
40
0.645559922854835
40
0.698071781126519
40
0.756333329542723
40
0.810976689353097
40
0.887715372463131
40
0.923575996316449
40
0.946170433025482
40
0.973328192526599
40
1
40
1
40
1
40
1
41
1
10
58.3679100864098
20
5.33402464326761
30
0
41
1
10
58.0805223652084
20
5.33448811195956
30
0
41
1
10
57.5415998379037
20
5.33460929580852
30
0
41
1
10
56.8087921402037
20
5.33166213294834
30
0
41
1
10
56.2046601886857
20
5.32969144662493
30
0
41
1
10
55.7049385010727
20
5.32910279431331
30
0
41
1
10
55.2174900483981
20
5.32907429441906
30
0
41
1
10
54.6784244674649
20
5.32940882779118
30
0
41
1
10
54.0400197177345
20
5.32893639008924
30
0
41
1
10
53.3612660017146
20
5.32653631970345
30
0
41
1
10
52.6643235185787
20
5.32546124759807
30
0
41
1
10
51.9493238354802
20
5.32281957724342
30
0
41
1
10
51.2285283498676
20
5.32283558899064
30
0
41
1
10
50.528217083255
20
5.32256221584271
30
0
41
1
10
49.8538328328853
20
5.32152854318582
30
0
41
1
10
49.1828796052246
20
5.31864845340794
30
0
41
1
10
48.4136459712135
20
5.31789180696137
30
0
41
1
10
47.7353858456935
20
5.31710705773858
30
0
41
1
10
47.1868041902488
20
5.31656818424008
30
0
41
1
10
46.8400382577572
20
5.31564604537445
30
0
41
1
10
46.5297765504043
20
5.31496666815173
30
0
41
1
10
46.3128976193045
20
5.31458511350598
30
0
41
1
10
46.2053852790128
20
5.31437550353184
30
0
0
SPLINE
5
F8
100
AcDbEntity
8
1
62
256
6
ByLayer
370
18
48
1
60
0
100
AcDbSpline
70
4
71
3
72
12
73
8
40
0
40
0
40
0
40
0
40
0.316674203784602
40
0.5759579338314
40
0.777589542450023
40
0.9212922493965
40
1
40
1
40
1
40
1
41
1
10
42.6662262612684
20
0.0090131836800253
30
0
41
1
10
42.4591257509729
20
0.0572520129188092
30
0
41
1
10
42.0829456613217
20
0.160396974314978
30
0
41
1
10
41.5760957321528
20
0.337814747562703
30
0
41
1
10
41.1829814704234
20
0.498860875371264
30
0
41
1
10
40.9077455607107
20
0.624137545708862
30
0
41
1
10
40.7639200603472
20
0.693573649280978
30
0
41
1
10
40.7130816221237
20
0.718661287602771
30
0
0
SPLINE
5
F9
100
AcDbEntity
8
1
62
256
6
ByLayer
370
18
48
1
60
0
100
AcDbSpline
70
4
71
3
72
9
73
5
40
0
40
0
40
0
40
0
40
0.693011238729442
40
1
40
1
40
1
40
1
41
1
10
39.8206950920219
20
1.20904596519239
30
0
41
1
10
39.7790634851824
20
1.23476660924393
30
0
41
1
10
39.7190554158883
20
1.27287093994332
30
0
41
1
10
39.6591655748003
20
1.3127661758306
30
0
41
1
10
39.6407869625705
20
1.3251177539218
30
0
0
LINE
5
7D
100
AcDbEntity
8
SK1
62
256
6
ByLayer
370
18
48
1
60
0
100
AcDbLine
10
-48
20
4
30
0
11
-48
21
-4
31
0
39
0
210
0
220
0
230
1
0
LINE
5
7F
100
AcDbEntity
8
SK1
62
256
6
ByLayer
370
18
48
1
60
0
100
AcDbLine
10
-45.690599
20
8
30
0
11
-45.690599
21
-8
31
0
39
0
210
0
220
0
230
1
0
LINE
5
80
100
AcDbEntity
8
SK1
62
256
6
ByLayer
370
18
48
1
60
0
100
AcDbLine
10
0
20
-8
30
0
11
0
21
8
31
0
39
0
210
0
220
0
230
1
0
LINE
5
81
100
AcDbEntity
8
1
62
256
6
ByLayer
370
18
48
1
60
0
100
AcDbLine
10
73.330103
20
-2.62154
30
0
11
75.218058
21
-1.10584
31
0
39
0
210
0
220
0
230
1
0
LINE
5
82
100
AcDbEntity
8
1
62
256
6
ByLayer
370
18
48
1
60
0
100
AcDbLine
10
38.896337
20
1.826675
30
0
11
38.896337
21
-6.670713
31
0
39
0
210
0
220
0
230
1
0
LINE
5
83
100
AcDbEntity
8
1
62
256
6
ByLayer
370
18
48
1
60
0
100
AcDbLine
10
40.8878
20
-5.188325
30
0
11
40.8878
21
-5.322103
31
0
39
0
210
0
220
0
230
1
0
LINE
5
84
100
AcDbEntity
8
1
62
256
6
ByLayer
370
18
48
1
60
0
100
AcDbLine
10
75.218058
20
-1.10584
30
0
11
75.222895
21
-1.074217
31
0
39
0
210
0
220
0
230
1
0
LINE
5
85
100
AcDbEntity
8
1
62
256
6
ByLayer
370
13
48
1
60
0
100
AcDbLine
10
1.251998
20
7.45
30
0
11
1.251998
21
-7.45
31
0
39
0
210
0
220
0
230
1
0
LINE
5
86
100
AcDbEntity
8
1
62
256
6
ByLayer
370
18
48
1
60
0
100
AcDbLine
10
40.8878
20
0.624664
30
0
11
40.8878
21
-5.188325
31
0
39
0
210
0
220
0
230
1
0
LINE
5
87
100
AcDbEntity
8
1
62
256
6
ByLayer
370
18
48
1
60
0
100
AcDbLine
10
0
20
-8
30
0
11
0
21
8
31
0
39
0
210
0
220
0
230
1
0
LINE
5
88
100
AcDbEntity
8
1
62
256
6
ByLayer
370
13
48
1
60
0
100
AcDbLine
10
0.625999
20
7.725
30
0
11
0.625999
21
-7.725
31
0
39
0
210
0
220
0
230
1
0
LINE
5
89
100
AcDbEntity
8
80
62
256
6
ByLayer
370
18
48
1
60
0
100
AcDbLine
10
0
20
0
30
0
11
-5
21
0
31
0
39
0
210
0
220
0
230
1
0
LINE
5
8A
100
AcDbEntity
8
SK4
62
256
6
ByLayer
370
18
48
0.05
60
0
100
AcDbLine
10
81
20
0
30
0
11
-53
21
0
31
0
39
0
210
0
220
0
230
1
0
LINE
5
8C
100
AcDbEntity
8
4
62
256
6
ByLayer
370
18
48
0.05
60
0
100
AcDbLine
10
76
20
0
30
0
11
0
21
0
31
0
39
0
210
0
220
0
230
1
0
LINE
5
8E
100
AcDbEntity
8
SK1
62
256
6
ByLayer
370
18
48
1
60
0
100
AcDbLine
10
-45.690599
20
-8
30
0
11
0
21
-8
31
0
39
0
210
0
220
0
230
1
0
LINE
5
8F
100
AcDbEntity
8
SK1
62
256
6
ByLayer
370
18
48
1
60
0
100
AcDbLine
10
0
20
8
30
0
11
-45.690599
21
8
31
0
39
0
210
0
220
0
230
1
0
LINE
5
90
100
AcDbEntity
8
SK1
62
256
6
ByLayer
370
18
48
1
60
0
100
AcDbLine
10
-48
20
-4
30
0
11
-45.690599
21
-8
31
0
39
0
210
0
220
0
230
1
0
LINE
5
91
100
AcDbEntity
8
SK1
62
256
6
ByLayer
370
18
48
1
60
0
100
AcDbLine
10
-45.690599
20
8
30
0
11
-48
21
4
31
0
39
0
210
0
220
0
230
1
0
LINE
5
92
100
AcDbEntity
8
1
62
256
6
ByLayer
370
18
48
1
60
0
100
AcDbLine
10
43.052025
20
-5.444496
30
0
11
44.049753
21
-5.446292
31
0
39
0
210
0
220
0
230
1
0
LINE
5
93
100
AcDbEntity
8
1
62
256
6
ByLayer
370
18
48
1
60
0
100
AcDbLine
10
44.049753
20
5.446292
30
0
11
43.051636
21
5.444495
31
0
39
0
210
0
220
0
230
1
0
LINE
5
94
100
AcDbEntity
8
1
62
256
6
ByLayer
370
18
48
1
60
0
100
AcDbLine
10
1.251998
20
-7.45
30
0
11
23.543599
21
-7.45
31
0
39
0
210
0
220
0
230
1
0
LINE
5
95
100
AcDbEntity
8
1
62
256
6
ByLayer
370
18
48
1
60
0
100
AcDbLine
10
23.543599
20
7.45
30
0
11
1.251998
21
7.45
31
0
39
0
210
0
220
0
230
1
0
LINE
5
96
100
AcDbEntity
8
81
62
256
6
ByLayer
370
18
48
1
60
0
100
AcDbLine
10
76
20
0
30
0
11
81
21
0
31
0
39
0
210
0
220
0
230
1
0
LINE
5
97
100
AcDbEntity
8
2
62
256
6
ByLayer
370
13
48
1
60
0
100
AcDbLine
10
98.236431
20
-7.45
30
0
11
98.236431
21
35.56448
31
0
39
0
210
0
220
0
230
1
0
LINE
5
99
100
AcDbEntity
8
2
62
256
6
ByLayer
370
13
48
1
60
0
100
AcDbLine
10
40.5253
20
7.45
30
0
11
100.236431
21
7.45
31
0
39
0
210
0
220
0
230
1
0
LINE
5
9A
100
AcDbEntity
8
2
62
256
6
ByLayer
370
13
48
1
60
0
100
AcDbLine
10
40.5253
20
-7.45
30
0
11
100.236431
21
-7.45
31
0
39
0
210
0
220
0
230
1
0
LINE
5
9B
100
AcDbEntity
8
1
62
256
6
ByLayer
370
18
48
1
60
1
100
AcDbLine
10
98.236431
20
7.45
30
0
11
98.697214
21
3.950002
31
0
39
0
210
0
220
0
230
1
0
LINE
5
9C
100
AcDbEntity
8
1
62
256
6
ByLayer
370
18
48
1
60
1
100
AcDbLine
10
98.697214
20
3.950002
30
0
11
97.775647
21
3.949998
31
0
39
0
210
0
220
0
230
1
0
LINE
5
9D
100
AcDbEntity
8
1
62
256
6
ByLayer
370
18
48
1
60
1
100
AcDbLine
10
97.775647
20
3.949998
30
0
11
98.236431
21
7.45
31
0
39
0
210
0
220
0
230
1
0
LINE
5
9E
100
AcDbEntity
8
1
62
256
6
ByLayer
370
18
48
1
60
1
100
AcDbLine
10
98.236431
20
-7.45
30
0
11
97.775647
21
-3.950002
31
0
39
0
210
0
220
0
230
1
0
LINE
5
9F
100
AcDbEntity
8
1
62
256
6
ByLayer
370
18
48
1
60
1
100
AcDbLine
10
97.775647
20
-3.950002
30
0
11
98.697214
21
-3.949998
31
0
39
0
210
0
220
0
230
1
0
LINE
5
A0
100
AcDbEntity
8
1
62
256
6
ByLayer
370
18
48
1
60
1
100
AcDbLine
10
98.697214
20
-3.949998
30
0
11
98.236431
21
-7.45
31
0
39
0
210
0
220
0
230
1
0
LINE
5
A1
100
AcDbEntity
8
SK2
62
256
6
ByLayer
370
13
48
1
60
0
100
AcDbLine
10
-56.625163
20
-8
30
0
11
-56.625163
21
38.857173
31
0
39
0
210
0
220
0
230
1
0
LINE
5
A3
100
AcDbEntity
8
SK2
62
256
6
ByLayer
370
13
48
1
60
0
100
AcDbLine
10
-49.5875
20
8
30
0
11
-58.625163
21
8
31
0
39
0
210
0
220
0
230
1
0
LINE
5
A4
100
AcDbEntity
8
SK2
62
256
6
ByLayer
370
13
48
1
60
0
100
AcDbLine
10
-49.5875
20
-8
30
0
11
-58.625163
21
-8
31
0
39
0
210
0
220
0
230
1
0
LINE
5
A5
100
AcDbEntity
8
1
62
256
6
ByLayer
370
18
48
1
60
1
100
AcDbLine
10
-56.625163
20
8
30
0
11
-56.164379
21
4.500002
31
0
39
0
210
0
220
0
230
1
0
LINE
5
A6
100
AcDbEntity
8
1
62
256
6
ByLayer
370
18
48
1
60
1
100
AcDbLine
10
-56.164379
20
4.500002
30
0
11
-57.085946
21
4.499998
31
0
39
0
210
0
220
0
230
1
0
LINE
5
A7
100
AcDbEntity
8
1
62
256
6
ByLayer
370
18
48
1
60
1
100
AcDbLine
10
-57.085946
20
4.499998
30
0
11
-56.625163
21
8
31
0
39
0
210
0
220
0
230
1
0
LINE
5
A8
100
AcDbEntity
8
1
62
256
6
ByLayer
370
18
48
1
60
1
100
AcDbLine
10
-56.625163
20
-8
30
0
11
-57.085946
21
-4.500002
31
0
39
0
210
0
220
0
230
1
0
LINE
5
A9
100
AcDbEntity
8
1
62
256
6
ByLayer
370
18
48
1
60
1
100
AcDbLine
10
-57.085946
20
-4.500002
30
0
11
-56.164379
21
-4.499998
31
0
39
0
210
0
220
0
230
1
0
LINE
5
AA
100
AcDbEntity
8
1
62
256
6
ByLayer
370
18
48
1
60
1
100
AcDbLine
10
-56.164379
20
-4.499998
30
0
11
-56.625163
21
-8
31
0
39
0
210
0
220
0
230
1
0
LINE
5
AB
100
AcDbEntity
8
2
62
256
6
ByLayer
370
13
48
1
60
0
100
AcDbLine
10
89.970081
20
-5.5
30
0
11
89.970081
21
34.830029
31
0
39
0
210
0
220
0
230
1
0
LINE
5
AC
100
AcDbEntity
8
2
62
256
6
ByLayer
370
13
48
1
60
0
100
AcDbLine
10
75.4753
20
5.5
30
0
11
91.970081
21
5.5
31
0
39
0
210
0
220
0
230
1
0
LINE
5
AD
100
AcDbEntity
8
2
62
256
6
ByLayer
370
13
48
1
60
0
100
AcDbLine
10
75.4753
20
-5.5
30
0
11
91.970081
21
-5.5
31
0
39
0
210
0
220
0
230
1
0
LINE
5
AE
100
AcDbEntity
8
1
62
256
6
ByLayer
370
18
48
1
60
1
100
AcDbLine
10
89.970081
20
5.5
30
0
11
90.430865
21
2.000002
31
0
39
0
210
0
220
0
230
1
0
LINE
5
AF
100
AcDbEntity
8
1
62
256
6
ByLayer
370
18
48
1
60
1
100
AcDbLine
10
90.430865
20
2.000002
30
0
11
89.509297
21
1.999998
31
0
39
0
210
0
220
0
230
1
0
LINE
5
B0
100
AcDbEntity
8
1
62
256
6
ByLayer
370
18
48
1
60
1
100
AcDbLine
10
89.509297
20
1.999998
30
0
11
89.970081
21
5.5
31
0
39
0
210
0
220
0
230
1
0
LINE
5
B1
100
AcDbEntity
8
1
62
256
6
ByLayer
370
18
48
1
60
1
100
AcDbLine
10
89.970081
20
-5.5
30
0
11
89.509297
21
-2.000002
31
0
39
0
210
0
220
0
230
1
0
LINE
5
B2
100
AcDbEntity
8
1
62
256
6
ByLayer
370
18
48
1
60
1
100
AcDbLine
10
89.509297
20
-2.000002
30
0
11
90.430865
21
-1.999998
31
0
39
0
210
0
220
0
230
1
0
LINE
5
B3
100
AcDbEntity
8
1
62
256
6
ByLayer
370
18
48
1
60
1
100
AcDbLine
10
90.430865
20
-1.999998
30
0
11
89.970081
21
-5.5
31
0
39
0
210
0
220
0
230
1
0
LINE
5
B4
100
AcDbEntity
8
SK2
62
256
6
ByLayer
370
13
48
1
60
0
100
AcDbLine
10
37.815268
20
-8.572532
30
0
11
30.254082
21
-16.133718
31
0
39
0
210
0
220
0
230
1
0
LINE
5
B5
100
AcDbEntity
8
SK2
62
256
6
ByLayer
370
13
48
1
60
0
100
AcDbLine
10
37.815268
20
8.572532
30
0
11
30.254082
21
16.133718
31
0
39
0
210
0
220
0
230
1
0
LINE
5
B6
100
AcDbEntity
8
1
62
256
6
ByLayer
370
18
48
1
60
1
100
AcDbLine
10
31.668295
20
-14.719505
30
0
11
28.960156
21
-12.454931
31
0
39
0
210
0
220
0
230
1
0
LINE
5
B7
100
AcDbEntity
8
1
62
256
6
ByLayer
370
18
48
1
60
1
100
AcDbLine
10
28.960156
20
-12.454931
30
0
11
29.638547
21
-11.831174
31
0
39
0
210
0
220
0
230
1
0
LINE
5
B8
100
AcDbEntity
8
1
62
256
6
ByLayer
370
18
48
1
60
1
100
AcDbLine
10
29.638547
20
-11.831174
30
0
11
31.668295
21
-14.719505
31
0
39
0
210
0
220
0
230
1
0
LINE
5
B9
100
AcDbEntity
8
1
62
256
6
ByLayer
370
18
48
1
60
1
100
AcDbLine
10
31.668295
20
14.719505
30
0
11
29.638549
21
11.831176
31
0
39
0
210
0
220
0
230
1
0
LINE
5
BA
100
AcDbEntity
8
1
62
256
6
ByLayer
370
18
48
1
60
1
100
AcDbLine
10
29.638549
20
11.831176
30
0
11
28.960154
21
12.454929
31
0
39
0
210
0
220
0
230
1
0
LINE
5
BB
100
AcDbEntity
8
1
62
256
6
ByLayer
370
18
48
1
60
1
100
AcDbLine
10
28.960154
20
12.454929
30
0
11
31.668295
21
14.719505
31
0
39
0
210
0
220
0
230
1
0
LINE
5
100
100
AcDbEntity
8
1
62
256
6
ByLayer
370
18
48
1
60
1
100
AcDbLine
10
98.236431
20
7.45
30
0
11
98.697214
21
3.950002
31
0
39
0
210
0
220
0
230
1
0
LINE
5
101
100
AcDbEntity
8
1
62
256
6
ByLayer
370
18
48
1
60
1
100
AcDbLine
10
98.697214
20
3.950002
30
0
11
97.775647
21
3.949998
31
0
39
0
210
0
220
0
230
1
0
LINE
5
102
100
AcDbEntity
8
1
62
256
6
ByLayer
370
18
48
1
60
1
100
AcDbLine
10
97.775647
20
3.949998
30
0
11
98.236431
21
7.45
31
0
39
0
210
0
220
0
230
1
0
LINE
5
104
100
AcDbEntity
8
1
62
256
6
ByLayer
370
18
48
1
60
1
100
AcDbLine
10
98.236431
20
-7.45
30
0
11
97.775647
21
-3.950002
31
0
39
0
210
0
220
0
230
1
0
LINE
5
105
100
AcDbEntity
8
1
62
256
6
ByLayer
370
18
48
1
60
1
100
AcDbLine
10
97.775647
20
-3.950002
30
0
11
98.697214
21
-3.949998
31
0
39
0
210
0
220
0
230
1
0
LINE
5
106
100
AcDbEntity
8
1
62
256
6
ByLayer
370
18
48
1
60
1
100
AcDbLine
10
98.697214
20
-3.949998
30
0
11
98.236431
21
-7.45
31
0
39
0
210
0
220
0
230
1
0
LINE
5
10A
100
AcDbEntity
8
1
62
256
6
ByLayer
370
18
48
1
60
1
100
AcDbLine
10
-56.625163
20
8
30
0
11
-56.164379
21
4.500002
31
0
39
0
210
0
220
0
230
1
0
LINE
5
10B
100
AcDbEntity
8
1
62
256
6
ByLayer
370
18
48
1
60
1
100
AcDbLine
10
-56.164379
20
4.500002
30
0
11
-57.085946
21
4.499998
31
0
39
0
210
0
220
0
230
1
0
LINE
5
10C
100
AcDbEntity
8
1
62
256
6
ByLayer
370
18
48
1
60
1
100
AcDbLine
10
-57.085946
20
4.499998
30
0
11
-56.625163
21
8
31
0
39
0
210
0
220
0
230
1
0
LINE
5
10E
100
AcDbEntity
8
1
62
256
6
ByLayer
370
18
48
1
60
1
100
AcDbLine
10
-56.625163
20
-8
30
0
11
-57.085946
21
-4.500002
31
0
39
0
210
0
220
0
230
1
0
LINE
5
10F
100
AcDbEntity
8
1
62
256
6
ByLayer
370
18
48
1
60
1
100
AcDbLine
10
-57.085946
20
-4.500002
30
0
11
-56.164379
21
-4.499998
31
0
39
0
210
0
220
0
230
1
0
LINE
5
110
100
AcDbEntity
8
1
62
256
6
ByLayer
370
18
48
1
60
1
100
AcDbLine
10
-56.164379
20
-4.499998
30
0
11
-56.625163
21
-8
31
0
39
0
210
0
220
0
230
1
0
LINE
5
114
100
AcDbEntity
8
1
62
256
6
ByLayer
370
18
48
1
60
1
100
AcDbLine
10
89.970081
20
5.5
30
0
11
90.430865
21
2.000002
31
0
39
0
210
0
220
0
230
1
0
LINE
5
115
100
AcDbEntity
8
1
62
256
6
ByLayer
370
18
48
1
60
1
100
AcDbLine
10
90.430865
20
2.000002
30
0
11
89.509297
21
1.999998
31
0
39
0
210
0
220
0
230
1
0
LINE
5
116
100
AcDbEntity
8
1
62
256
6
ByLayer
370
18
48
1
60
1
100
AcDbLine
10
89.509297
20
1.999998
30
0
11
89.970081
21
5.5
31
0
39
0
210
0
220
0
230
1
0
LINE
5
118
100
AcDbEntity
8
1
62
256
6
ByLayer
370
18
48
1
60
1
100
AcDbLine
10
89.970081
20
-5.5
30
0
11
89.509297
21
-2.000002
31
0
39
0
210
0
220
0
230
1
0
LINE
5
119
100
AcDbEntity
8
1
62
256
6
ByLayer
370
18
48
1
60
1
100
AcDbLine
10
89.509297
20
-2.000002
30
0
11
90.430865
21
-1.999998
31
0
39
0
210
0
220
0
230
1
0
LINE
5
11A
100
AcDbEntity
8
1
62
256
6
ByLayer
370
18
48
1
60
1
100
AcDbLine
10
90.430865
20
-1.999998
30
0
11
89.970081
21
-5.5
31
0
39
0
210
0
220
0
230
1
0
LINE
5
11D
100
AcDbEntity
8
1
62
256
6
ByLayer
370
18
48
1
60
1
100
AcDbLine
10
31.668295
20
-14.719505
30
0
11
28.960156
21
-12.454931
31
0
39
0
210
0
220
0
230
1
0
LINE
5
11E
100
AcDbEntity
8
1
62
256
6
ByLayer
370
18
48
1
60
1
100
AcDbLine
10
28.960156
20
-12.454931
30
0
11
29.638547
21
-11.831174
31
0
39
0
210
0
220
0
230
1
0
LINE
5
11F
100
AcDbEntity
8
1
62
256
6
ByLayer
370
18
48
1
60
1
100
AcDbLine
10
29.638547
20
-11.831174
30
0
11
31.668295
21
-14.719505
31
0
39
0
210
0
220
0
230
1
0
LINE
5
121
100
AcDbEntity
8
1
62
256
6
ByLayer
370
18
48
1
60
1
100
AcDbLine
10
31.668295
20
14.719505
30
0
11
29.638549
21
11.831176
31
0
39
0
210
0
220
0
230
1
0
LINE
5
122
100
AcDbEntity
8
1
62
256
6
ByLayer
370
18
48
1
60
1
100
AcDbLine
10
29.638549
20
11.831176
30
0
11
28.960154
21
12.454929
31
0
39
0
210
0
220
0
230
1
0
LINE
5
123
100
AcDbEntity
8
1
62
256
6
ByLayer
370
18
48
1
60
1
100
AcDbLine
10
28.960154
20
12.454929
30
0
11
31.668295
21
14.719505
31
0
39
0
210
0
220
0
230
1
0
MTEXT
5
FA
100
AcDbEntity
8
SK6
62
256
6
ByLayer
370
13
48
1
60
0
100
AcDbMText
10
-13.671593
20
38.040328
30
0
210
0
220
0
230
1
1
\W0.7280;860.2-1100-033A1-PM P1BM
40
3.5
41
0
44
1.084337
50
0
71
7
72
5
7
iso_b_vert
0
MTEXT
5
FE
100
AcDbEntity
8
2
62
256
6
ByLayer
370
18
48
1
60
0
100
AcDbMText
10
96.671797
20
17.747798
30
0
210
0
220
0
230
1
1
%%c
40
3.5
41
0
44
1.084337
50
90
71
7
72
5
7
iso_b_vert
0
MTEXT
5
FF
100
AcDbEntity
8
2
62
256
6
ByLayer
370
18
48
1
60
0
100
AcDbMText
10
96.671797
20
22.970454
30
0
210
0
220
0
230
1
1
\W0.7145;14,900
40
3.5
41
0
44
1.084337
50
90
71
7
72
5
7
iso_b_vert
0
MTEXT
5
108
100
AcDbEntity
8
SK2
62
256
6
ByLayer
370
18
48
1
60
0
100
AcDbMText
10
-58.189796
20
21.409024
30
0
210
0
220
0
230
1
1
%%c
40
3.5
41
0
44
1.084337
50
90
71
7
72
5
7
iso_b_vert
0
MTEXT
5
109
100
AcDbEntity
8
SK2
62
256
6
ByLayer
370
18
48
1
60
0
100
AcDbMText
10
-58.189796
20
26.63168
30
0
210
0
220
0
230
1
1
\W0.6930;16,000
40
3.5
41
0
44
1.084337
50
90
71
7
72
5
7
iso_b_vert
0
MTEXT
5
112
100
AcDbEntity
8
2
62
256
6
ByLayer
370
18
48
1
60
0
100
AcDbMText
10
88.405448
20
18.256747
30
0
210
0
220
0
230
1
1
%%c
40
3.5
41
0
44
1.084337
50
90
71
7
72
5
7
iso_b_vert
0
MTEXT
5
113
100
AcDbEntity
8
2
62
256
6
ByLayer
370
18
48
1
60
0
100
AcDbMText
10
88.405448
20
23.479403
30
0
210
0
220
0
230
1
1
\W0.6440;11,000
40
3.5
41
0
44
1.084337
50
90
71
7
72
5
7
iso_b_vert
0
MTEXT
5
11C
100
AcDbEntity
8
SK2
62
256
6
ByLayer
370
13
48
1
60
0
100
AcDbMText
10
20.744675
20
-0.291663
30
0
210
0
220
0
230
1
1
\W0.8181;90,0%%d
40
3.5
41
0
44
1.084337
50
0
71
7
72
5
7
iso_b_vert
0
HATCH
5
103
100
AcDbEntity
8
2
62
256
6
ByLayer
370
13
48
1
60
0
100
AcDbHatch
10
0
20
0
30
0
210
0
220
0
230
1
2
ANSI31
70
0
71
0
91
1
92
5
93
3
72
1
10
98.2364306046164
20
7.45000000000002
11
98.6972143461692
21
3.9500016925532
72
1
10
98.6972143461692
20
3.9500016925532
11
97.7756468630637
21
3.94999830744683
72
1
10
97.7756468630637
20
3.94999830744683
11
98.2364306046164
21
7.45000000000002
97
0
75
0
76
1
52
0
41
0.0062
77
0
78
1
53
45
43
0
44
0
45
-0.0139193969876572
46
0.0139193969876572
79
0
47
0
98
1
10
0
20
0
0
HATCH
5
107
100
AcDbEntity
8
2
62
256
6
ByLayer
370
13
48
1
60
0
100
AcDbHatch
10
0
20
0
30
0
210
0
220
0
230
1
2
ANSI31
70
0
71
0
91
1
92
5
93
3
72
1
10
98.2364306046164
20
-7.44999999999999
11
97.7756468630637
21
-3.95000169255317
72
1
10
97.7756468630637
20
-3.95000169255317
11
98.6972143461692
21
-3.9499983074468
72
1
10
98.6972143461692
20
-3.9499983074468
11
98.2364306046164
21
-7.44999999999999
97
0
75
0
76
1
52
0
41
0.0062
77
0
78
1
53
45
43
0
44
0
45
-0.0139193969876572
46
0.0139193969876572
79
0
47
0
98
1
10
0
20
0
0
HATCH
5
10D
100
AcDbEntity
8
SK2
62
256
6
ByLayer
370
13
48
1
60
0
100
AcDbHatch
10
0
20
0
30
0
210
0
220
0
230
1
2
ANSI31
70
0
71
0
91
1
92
5
93
3
72
1
10
-56.6251625675374
20
8
11
-56.1643788259847
21
4.50000169255318
72
1
10
-56.1643788259847
20
4.50000169255318
11
-57.0859463090902
21
4.49999830744682
72
1
10
-57.0859463090902
20
4.49999830744682
11
-56.6251625675374
21
8
97
0
75
0
76
1
52
0
41
0.0062
77
0
78
1
53
45
43
0
44
0
45
-0.0139193969876572
46
0.0139193969876572
79
0
47
0
98
1
10
0
20
0
0
HATCH
5
111
100
AcDbEntity
8
SK2
62
256
6
ByLayer
370
13
48
1
60
0
100
AcDbHatch
10
0
20
0
30
0
210
0
220
0
230
1
2
ANSI31
70
0
71
0
91
1
92
5
93
3
72
1
10
-56.6251625675374
20
-8
11
-57.0859463090902
21
-4.50000169255318
72
1
10
-57.0859463090902
20
-4.50000169255318
11
-56.1643788259847
21
-4.49999830744682
72
1
10
-56.1643788259847
20
-4.49999830744682
11
-56.6251625675374
21
-8
97
0
75
0
76
1
52
0
41
0.0062
77
0
78
1
53
45
43
0
44
0
45
-0.0139193969876572
46
0.0139193969876572
79
0
47
0
98
1
10
0
20
0
0
HATCH
5
117
100
AcDbEntity
8
2
62
256
6
ByLayer
370
13
48
1
60
0
100
AcDbHatch
10
0
20
0
30
0
210
0
220
0
230
1
2
ANSI31
70
0
71
0
91
1
92
5
93
3
72
1
10
89.9700811011615
20
5.5
11
90.4308648427142
21
2.00000169255318
72
1
10
90.4308648427142
20
2.00000169255318
11
89.5092973596088
21
1.99999830744682
72
1
10
89.5092973596088
20
1.99999830744682
11
89.9700811011615
21
5.5
97
0
75
0
76
1
52
0
41
0.0062
77
0
78
1
53
45
43
0
44
0
45
-0.0139193969876572
46
0.0139193969876572
79
0
47
0
98
1
10
0
20
0
0
HATCH
5
11B
100
AcDbEntity
8
2
62
256
6
ByLayer
370
13
48
1
60
0
100
AcDbHatch
10
0
20
0
30
0
210
0
220
0
230
1
2
ANSI31
70
0
71
0
91
1
92
5
93
3
72
1
10
89.9700811011615
20
-5.5
11
89.5092973596088
21
-2.00000169255318
72
1
10
89.5092973596088
20
-2.00000169255318
11
90.4308648427142
21
-1.99999830744682
72
1
10
90.4308648427142
20
-1.99999830744682
11
89.9700811011615
21
-5.5
97
0
75
0
76
1
52
0
41
0.0062
77
0
78
1
53
45
43
0
44
0
45
-0.0139193969876572
46
0.0139193969876572
79
0
47
0
98
1
10
0
20
0
0
HATCH
5
120
100
AcDbEntity
8
SK2
62
256
6
ByLayer
370
13
48
1
60
0
100
AcDbHatch
10
0
20
0
30
0
210
0
220
0
230
1
2
ANSI31
70
0
71
0
91
1
92
5
93
3
72
1
10
31.6682954414895
20
-14.7195045585105
11
28.9601564820538
21
-12.4549310478917
72
1
10
28.9601564820538
20
-12.4549310478917
11
29.6385469032971
21
-11.8311738336696
72
1
10
29.6385469032971
20
-11.8311738336696
11
31.6682954414895
21
-14.7195045585105
97
0
75
0
76
1
52
0
41
0.0062
77
0
78
1
53
45
43
0
44
0
45
-0.0139193969876572
46
0.0139193969876572
79
0
47
0
98
1
10
0
20
0
0
HATCH
5
124
100
AcDbEntity
8
SK2
62
256
6
ByLayer
370
13
48
1
60
0
100
AcDbHatch
10
0
20
0
30
0
210
0
220
0
230
1
2
ANSI31
70
0
71
0
91
1
92
5
93
3
72
1
10
31.6682954414896
20
14.7195045585106
11
29.6385491944762
21
11.8311763255452
72
1
10
29.6385491944762
20
11.8311763255452
11
28.9601541908749
21
12.4549285560162
72
1
10
28.9601541908749
20
12.4549285560162
11
31.6682954414896
21
14.7195045585106
97
0
75
0
76
1
52
0
41
0.0062
77
0
78
1
53
45
43
0
44
0
45
-0.0139193969876572
46
0.0139193969876572
79
0
47
0
98
1
10
0
20
0
0
DIMENSION
5
126
100
AcDbEntity
8
2
62
256
6
ByLayer
370
13
48
1
60
0
100
AcDbDimension
2
_U0
10
73.8878
20
-18.302503
30
0
11
36.9439
21
-18.302503
31
0
70
32
71
1
72
1
41
1
210
0
220
0
230
1
3
Standard
100
AcDbAlignedDimension
13
0
23
0
33
0
14
73.8878
24
-5.5
34
0
50
0
100
AcDbRotatedDimension
1001
ACAD
1000
DSTYLE
1002
{
1070
   371
1070
    13
1070
   372
1070
    13
1070
   170
1070
     0
1070
   144
1040
1.0
1070
   277
1070
     2
1070
   278
1070
    44
1070
   146
1040
1.0
1070
   345
1005
16
1070
   347
1005
16
1070
   346
1005
16
1070
   344
1005
0
1070
   343
1005
0
1070
   172
1070
     1
1070
    76
1070
     0
1070
    75
1070
     0
1070
   282
1070
     0
1070
   281
1070
     0
1070
    71
1070
     0
1070
    74
1070
     0
1070
   279
1070
     0
1070
   173
1070
     1
1070
   340
1005
FB
1070
   271
1070
     2
1070
   272
1070
     2
1070
    77
1070
     1
1070
    73
1070
     1
1070
   171
1070
     3
1070
   274
1070
     4
1070
   177
1070
    35
1070
   176
1070
    35
1070
   178
1070
    35
1070
    48
1040
-0.1
1070
    41
1040
3.5
1070
   147
1040
1.75
1070
    42
1040
1.5875
1070
    44
1040
2.0
1070
   140
1040
3.5
1002
}
1001
ACAD_DSTYLE_DIM_LINETYPE
1070
   380
1005
16
1001
ACAD_DSTYLE_DIM_EXT1_LINETYPE
1070
   381
1005
16
1001
ACAD_DSTYLE_DIM_EXT2_LINETYPE
1070
   382
1005
16
0
DIMENSION
5
13F
100
AcDbEntity
8
SK2
62
256
6
ByLayer
370
13
48
1
60
0
100
AcDbDimension
2
_U1
10
76
20
-39.192985
30
0
11
14
21
-39.192985
31
0
70
32
71
1
72
1
41
1
210
0
220
0
230
1
3
Standard
100
AcDbAlignedDimension
13
-48
23
-8
33
0
14
76
24
0
34
0
50
0
100
AcDbRotatedDimension
1001
ACAD
1000
DSTYLE
1002
{
1070
   371
1070
    13
1070
   372
1070
    13
1070
   170
1070
     0
1070
   144
1040
1.0
1070
   277
1070
     2
1070
   278
1070
    44
1070
   146
1040
1.0
1070
   345
1005
16
1070
   347
1005
16
1070
   346
1005
16
1070
   344
1005
0
1070
   343
1005
0
1070
   172
1070
     1
1070
    76
1070
     0
1070
    75
1070
     0
1070
   282
1070
     0
1070
   281
1070
     0
1070
    71
1070
     0
1070
    74
1070
     0
1070
   279
1070
     0
1070
   173
1070
     1
1070
   340
1005
FB
1070
   271
1070
     2
1070
   272
1070
     2
1070
    77
1070
     1
1070
    73
1070
     1
1070
   171
1070
     3
1070
   274
1070
     4
1070
   177
1070
    35
1070
   176
1070
    35
1070
   178
1070
    35
1070
    48
1040
-0.1
1070
    41
1040
3.5
1070
   147
1040
1.75
1070
    42
1040
1.5875
1070
    44
1040
2.0
1070
   140
1040
3.5
1002
}
1001
ACAD_DSTYLE_DIM_LINETYPE
1070
   380
1005
16
1001
ACAD_DSTYLE_DIM_EXT1_LINETYPE
1070
   381
1005
16
1001
ACAD_DSTYLE_DIM_EXT2_LINETYPE
1070
   382
1005
16
0
DIMENSION
5
157
100
AcDbEntity
8
SK2
62
256
6
ByLayer
370
13
48
1
60
0
100
AcDbDimension
2
_U2
10
76
20
17.109119
30
0
11
57.47
21
17.109119
31
0
70
32
71
1
72
1
41
1
210
0
220
0
230
1
3
Standard
100
AcDbAlignedDimension
13
38.94
23
7.45
33
0
14
76
24
0
34
0
50
0
100
AcDbRotatedDimension
1001
ACAD
1000
DSTYLE
1002
{
1070
   371
1070
    13
1070
   372
1070
    13
1070
   170
1070
     0
1070
   144
1040
1.0
1070
   277
1070
     2
1070
   278
1070
    44
1070
   146
1040
1.0
1070
   345
1005
16
1070
   347
1005
16
1070
   346
1005
16
1070
   344
1005
0
1070
   343
1005
0
1070
   172
1070
     1
1070
    76
1070
     0
1070
    75
1070
     0
1070
   282
1070
     0
1070
   281
1070
     0
1070
    71
1070
     0
1070
    74
1070
     0
1070
   279
1070
     0
1070
   173
1070
     1
1070
   340
1005
FB
1070
   271
1070
     2
1070
   272
1070
     2
1070
    77
1070
     1
1070
    73
1070
     1
1070
   171
1070
     3
1070
   274
1070
     4
1070
   177
1070
    35
1070
   176
1070
    35
1070
   178
1070
    35
1070
    48
1040
-0.1
1070
    41
1040
3.5
1070
   147
1040
1.75
1070
    42
1040
1.5875
1070
    44
1040
2.0
1070
   140
1040
3.5
1002
}
1001
ACAD_DSTYLE_DIM_LINETYPE
1070
   380
1005
16
1001
ACAD_DSTYLE_DIM_EXT1_LINETYPE
1070
   381
1005
16
1001
ACAD_DSTYLE_DIM_EXT2_LINETYPE
1070
   382
1005
16
0
DIMENSION
5
16F
100
AcDbEntity
8
SK2
62
256
6
ByLayer
370
13
48
1
60
0
100
AcDbDimension
2
_U3
10
73.8878
20
-18.302503
30
0
11
93.083333
21
-18.302503
31
0
70
32
71
1
72
1
41
1
210
0
220
0
230
1
3
Standard
100
AcDbAlignedDimension
13
76
23
0
33
0
14
73.8878
24
-5.5
34
0
50
0
100
AcDbRotatedDimension
1001
ACAD
1000
DSTYLE
1002
{
1070
   371
1070
    13
1070
   372
1070
    13
1070
   170
1070
     0
1070
   144
1040
1.0
1070
   277
1070
     2
1070
   278
1070
    44
1070
   146
1040
1.0
1070
   345
1005
16
1070
   347
1005
16
1070
   346
1005
16
1070
   344
1005
0
1070
   343
1005
0
1070
   172
1070
     1
1070
    76
1070
     0
1070
    75
1070
     0
1070
   282
1070
     0
1070
   281
1070
     0
1070
    71
1070
     0
1070
    74
1070
     0
1070
   279
1070
     0
1070
   173
1070
     1
1070
   340
1005
FB
1070
   271
1070
     2
1070
   272
1070
     2
1070
    77
1070
     1
1070
    73
1070
     1
1070
   171
1070
     3
1070
   274
1070
     4
1070
   177
1070
    35
1070
   176
1070
    35
1070
   178
1070
    35
1070
    48
1040
-0.1
1070
    41
1040
3.5
1070
   147
1040
1.75
1070
    42
1040
1.5875
1070
    44
1040
2.0
1070
   140
1040
3.5
1002
}
1001
ACAD_DSTYLE_DIM_LINETYPE
1070
   380
1005
16
1001
ACAD_DSTYLE_DIM_EXT1_LINETYPE
1070
   381
1005
16
1001
ACAD_DSTYLE_DIM_EXT2_LINETYPE
1070
   382
1005
16
0
DIMENSION
5
189
100
AcDbEntity
8
SK2
62
256
6
ByLayer
370
13
48
1
60
0
100
AcDbDimension
2
_U4
10
40.8878
20
9.635371
30
0
11
57.3878
21
9.635371
31
0
70
32
71
1
72
1
41
1
210
0
220
0
230
1
3
Standard
100
AcDbAlignedDimension
13
73.8878
23
5.5
33
0
14
40.8878
24
5.5
34
0
50
0
100
AcDbRotatedDimension
1001
ACAD
1000
DSTYLE
1002
{
1070
   371
1070
    13
1070
   372
1070
    13
1070
   170
1070
     0
1070
   144
1040
1.0
1070
   277
1070
     2
1070
   278
1070
    44
1070
   146
1040
1.0
1070
   345
1005
16
1070
   347
1005
16
1070
   346
1005
16
1070
   344
1005
0
1070
   343
1005
0
1070
   172
1070
     1
1070
    76
1070
     0
1070
    75
1070
     0
1070
   282
1070
     0
1070
   281
1070
     0
1070
    71
1070
     0
1070
    74
1070
     0
1070
   279
1070
     0
1070
   173
1070
     1
1070
   340
1005
FB
1070
   271
1070
     2
1070
   272
1070
     2
1070
    77
1070
     1
1070
    73
1070
     1
1070
   171
1070
     3
1070
   274
1070
     4
1070
   177
1070
    35
1070
   176
1070
    35
1070
   178
1070
    35
1070
    48
1040
-0.1
1070
    41
1040
3.5
1070
   147
1040
1.75
1070
    42
1040
1.5875
1070
    44
1040
2.0
1070
   140
1040
3.5
1002
}
1001
ACAD_DSTYLE_DIM_LINETYPE
1070
   380
1005
16
1001
ACAD_DSTYLE_DIM_EXT1_LINETYPE
1070
   381
1005
16
1001
ACAD_DSTYLE_DIM_EXT2_LINETYPE
1070
   382
1005
16
0
DIMENSION
5
1A1
100
AcDbEntity
8
SK2
62
256
6
ByLayer
370
13
48
1
60
0
100
AcDbDimension
2
_U5
10
73.8878
20
-28.690158
30
0
11
12.9439
21
-28.690158
31
0
70
32
71
1
72
1
41
1
210
0
220
0
230
1
3
Standard
100
AcDbAlignedDimension
13
-48
23
-8
33
0
14
73.8878
24
-5.5
34
0
50
0
100
AcDbRotatedDimension
1001
ACAD
1000
DSTYLE
1002
{
1070
   371
1070
    13
1070
   372
1070
    13
1070
   170
1070
     0
1070
   144
1040
1.0
1070
   277
1070
     2
1070
   278
1070
    44
1070
   146
1040
1.0
1070
   345
1005
16
1070
   347
1005
16
1070
   346
1005
16
1070
   344
1005
0
1070
   343
1005
0
1070
   172
1070
     1
1070
    76
1070
     0
1070
    75
1070
     0
1070
   282
1070
     0
1070
   281
1070
     0
1070
    71
1070
     0
1070
    74
1070
     0
1070
   279
1070
     0
1070
   173
1070
     1
1070
   340
1005
FB
1070
   271
1070
     2
1070
   272
1070
     2
1070
    77
1070
     1
1070
    73
1070
     1
1070
   171
1070
     3
1070
   274
1070
     4
1070
   177
1070
    35
1070
   176
1070
    35
1070
   178
1070
    35
1070
    48
1040
-0.1
1070
    41
1040
3.5
1070
   147
1040
1.75
1070
    42
1040
1.5875
1070
    44
1040
2.0
1070
   140
1040
3.5
1002
}
1001
ACAD_DSTYLE_DIM_LINETYPE
1070
   380
1005
16
1001
ACAD_DSTYLE_DIM_EXT1_LINETYPE
1070
   381
1005
16
1001
ACAD_DSTYLE_DIM_EXT2_LINETYPE
1070
   382
1005
16
0
ENDSEC
0
SECTION
2
OBJECTS
0
DICTIONARY
5
229
330
0
100
AcDbDictionary
280
0
281
1
3
ACAD_GROUP
350
22a
3
ACAD_MLINESTYLE
350
22b
0
DICTIONARY
5
22a
330
0
100
AcDbDictionary
280
0
281
1
0
DICTIONARY
5
22b
330
0
100
AcDbDictionary
280
0
281
1
3
Standard
350
18
0
MLINESTYLE
5
18
330
22b
100
AcDbMlineStyle
2
Standard
70
0
3

62
256
51
90
52
90
71
2
49
-0.5
62
256
6
ByLayer
49
0.5
62
256
6
ByLayer
0
RASTERVARIABLES
5
217
330

100
AcDbRasterVariables
90
0
70
1
71
1
72
1
0
ENDSEC
0
EOF
