0
SECTION
2
HEADER
9
$ACADVER
1
AC1015
9
$DWGCODEPAGE
3
ANSI_1252
9
$HANDSEED
5
233
9
$ANGBASE
50
0
9
$ANGDIR
70
0
9
$ATTMODE
70
1
9
$AUNITS
70
0
9
$AUPREC
70
0
9
$CECOLOR
62
256
9
$CELTSCALE
40
1
9
$CELTYPE
6
ByLayer
9
$CELWEIGHT
370
18
9
$CLAYER
8
0
9
$CMLJUST
70
0
9
$CMLSCALE
40
1
9
$CMLSTYLE
2
Standard
9
$DIMSTYLE
2
Standard
9
$TEXTSIZE
40
0.2
9
$TEXTSTYLE
7
Standard
9
$LUNITS
70
2
9
$LUPREC
70
4
9
$EXTNAMES
290
1
9
$INSUNITS
70
4
9
$LTSCALE
40
1
9
$LWDISPLAY
290
1
9
$PDMODE
70
0
9
$PDSIZE
40
0
9
$PLINEGEN
70
0
0
ENDSEC
0
SECTION
2
CLASSES
0
CLASS
1
RASTERVARIABLES
2
AcDbRasterVariables
3
ISM
90
0
280
0
281
0
0
ENDSEC
0
SECTION
2
TABLES
0
TABLE
2
VPORT
5
229
100
AcDbSymbolTable
0
VPORT
5
1
100
AcDbSymbolTableRecord
100
AcDbViewportTableRecord
2
*Active
70
0
10
0
20
0
11
1
21
1
12
-1
22
1
13
0
23
0
14
0.5
24
0.5
15
10
25
10
16
0
26
0
36
1
17
0
27
0
37
0
0
ENDTAB
0
TABLE
2
LTYPE
5
22a
100
AcDbSymbolTable
0
LTYPE
5
14
100
AcDbSymbolTableRecord
100
AcDbLinetypeTableRecord
70
0
2
ByBlock
3

72
65
73
0
40
0
0
LTYPE
5
15
100
AcDbSymbolTableRecord
100
AcDbLinetypeTableRecord
70
0
2
ByLayer
3

72
65
73
0
40
0
0
LTYPE
5
16
100
AcDbSymbolTableRecord
100
AcDbLinetypeTableRecord
70
0
2
Continuous
3
Solid line
72
65
73
0
40
0
0
LTYPE
5
6E
100
AcDbSymbolTableRecord
100
AcDbLinetypeTableRecord
70
0
2
CENTER
3
____ _ ____ _ ____ _ ____
72
65
73
4
40
47.5
49
22
74
0
49
-8.5
74
0
49
8.5
74
0
49
-8.5
74
0
0
LTYPE
5
6F
100
AcDbSymbolTableRecord
100
AcDbLinetypeTableRecord
70
0
2
DASHED
3
__ __ __ __ __ __ __ __ __
72
65
73
2
40
25.72
49
12.86
74
0
49
-12.86
74
0
0
ENDTAB
0
TABLE
2
LAYER
5
22b
100
AcDbSymbolTable
0
LAYER
5
10
100
AcDbSymbolTableRecord
100
AcDbLayerTableRecord
2
0
70
0
62
7
6
Continuous
290
1
370
-3
390
0
0
LAYER
5
71
100
AcDbSymbolTableRecord
100
AcDbLayerTableRecord
2
80
70
0
62
-6
6
Continuous
290
1
370
-3
390
0
0
LAYER
5
73
100
AcDbSymbolTableRecord
100
AcDbLayerTableRecord
2
81
70
0
62
-3
6
Continuous
290
1
370
-3
390
0
0
LAYER
5
75
100
AcDbSymbolTableRecord
100
AcDbLayerTableRecord
2
1
70
0
62
4
6
Continuous
290
1
370
-3
390
0
0
LAYER
5
8C
100
AcDbSymbolTableRecord
100
AcDbLayerTableRecord
2
4
70
0
62
-2
6
CENTER
290
1
370
-3
390
0
0
LAYER
5
97
100
AcDbSymbolTableRecord
100
AcDbLayerTableRecord
2
2
70
0
62
7
6
Continuous
290
1
370
-3
390
0
0
LAYER
5
126
100
AcDbSymbolTableRecord
100
AcDbLayerTableRecord
2
Defpoints
70
0
62
7
6
Continuous
290
0
370
-3
390
0
0
LAYER
5
215
100
AcDbSymbolTableRecord
100
AcDbLayerTableRecord
2
SK1
70
0
62
4
6
Continuous
290
1
370
-3
390
0
0
LAYER
5
216
100
AcDbSymbolTableRecord
100
AcDbLayerTableRecord
2
SK4
70
0
62
2
6
CENTER
290
1
370
-3
390
0
0
LAYER
5
217
100
AcDbSymbolTableRecord
100
AcDbLayerTableRecord
2
SK2
70
0
62
7
6
Continuous
290
1
370
-3
390
0
0
LAYER
5
218
100
AcDbSymbolTableRecord
100
AcDbLayerTableRecord
2
SK6
70
0
62
5
6
Continuous
290
1
370
-3
390
0
0
ENDTAB
0
TABLE
2
STYLE
5
22c
100
AcDbSymbolTable
0
STYLE
5
11
100
AcDbSymbolTableRecord
100
AcDbTextStyleTableRecord
2
Standard
3
txt
70
0
71
0
40
0
41
1
42
0
50
0
0
STYLE
5
F8
100
AcDbSymbolTableRecord
100
AcDbTextStyleTableRecord
2
iso_b_vert
3
simplex.shx
70
0
71
0
40
0
41
1
42
0
50
0
0
STYLE
5
F9
100
AcDbSymbolTableRecord
100
AcDbTextStyleTableRecord
2
DWGDirectTextStyle
3
simplex
70
0
71
0
40
0
41
1
42
0
50
0
0
ENDTAB
0
TABLE
2
DIMSTYLE
5
22d
100
AcDbSymbolTable
100
AcDbDimStyleTable
0
DIMSTYLE
105
27
100
AcDbSymbolTableRecord
100
AcDbDimStyleTableRecord
2
Standard
70
0
3
<>
41
0.18
42
0.0625
44
0.18
140
0.18
147
0.09
73
0
74
0
77
1
271
2
275
0
278
52
280
0
340
11
0
ENDTAB
0
TABLE
2
VIEW
5
22e
100
AcDbSymbolTable
0
ENDTAB
0
TABLE
2
UCS
5
22f
100
AcDbSymbolTable
0
ENDTAB
0
TABLE
2
APPID
5
230
100
AcDbSymbolTable
0
APPID
5
12
100
AcDbSymbolTableRecord
100
AcDbRegAppTableRecord
2
ACAD
70
0
0
APPID
5
122
100
AcDbSymbolTableRecord
100
AcDbRegAppTableRecord
2
ACAD_DSTYLE_DIMBREAK
70
0
0
APPID
5
1D4
100
AcDbSymbolTableRecord
100
AcDbRegAppTableRecord
2
ACAD_DSTYLE_DIM_LINETYPE
70
0
0
APPID
5
1D5
100
AcDbSymbolTableRecord
100
AcDbRegAppTableRecord
2
ACAD_DSTYLE_DIM_EXT1_LINETYPE
70
0
0
APPID
5
1D6
100
AcDbSymbolTableRecord
100
AcDbRegAppTableRecord
2
ACAD_DSTYLE_DIM_EXT2_LINETYPE
70
0
0
APPID
5
211
100
AcDbSymbolTableRecord
100
AcDbRegAppTableRecord
2
ACAD_MLEADERVER
70
0
0
ENDTAB
0
TABLE
2
BLOCK_RECORD
5
231
100
AcDbSymbolTable
0
BLOCK_RECORD
5
1F
100
AcDbSymbolTableRecord
100
AcDbBlockTableRecord
2
*Model_Space
340
0
70
0
0
BLOCK_RECORD
5
1B
100
AcDbSymbolTableRecord
100
AcDbBlockTableRecord
2
*Paper_Space
340
0
70
0
0
BLOCK_RECORD
5
23
100
AcDbSymbolTableRecord
100
AcDbBlockTableRecord
2
*Paper_Space0
340
0
70
0
0
BLOCK_RECORD
5
127
100
AcDbSymbolTableRecord
100
AcDbBlockTableRecord
2
*D1
340
0
70
0
0
BLOCK_RECORD
5
133
100
AcDbSymbolTableRecord
100
AcDbBlockTableRecord
2
_U0
340
0
70
0
0
BLOCK_RECORD
5
13F
100
AcDbSymbolTableRecord
100
AcDbBlockTableRecord
2
*D3
340
0
70
0
0
BLOCK_RECORD
5
14B
100
AcDbSymbolTableRecord
100
AcDbBlockTableRecord
2
_U1
340
0
70
0
0
BLOCK_RECORD
5
157
100
AcDbSymbolTableRecord
100
AcDbBlockTableRecord
2
*D5
340
0
70
0
0
BLOCK_RECORD
5
163
100
AcDbSymbolTableRecord
100
AcDbBlockTableRecord
2
_U2
340
0
70
0
0
BLOCK_RECORD
5
16F
100
AcDbSymbolTableRecord
100
AcDbBlockTableRecord
2
*D7
340
0
70
0
0
BLOCK_RECORD
5
17D
100
AcDbSymbolTableRecord
100
AcDbBlockTableRecord
2
_U3
340
0
70
0
0
BLOCK_RECORD
5
189
100
AcDbSymbolTableRecord
100
AcDbBlockTableRecord
2
*D9
340
0
70
0
0
BLOCK_RECORD
5
195
100
AcDbSymbolTableRecord
100
AcDbBlockTableRecord
2
_U4
340
0
70
0
0
BLOCK_RECORD
5
1A1
100
AcDbSymbolTableRecord
100
AcDbBlockTableRecord
2
*D11
340
0
70
0
0
BLOCK_RECORD
5
1AD
100
AcDbSymbolTableRecord
100
AcDbBlockTableRecord
2
_U5
340
0
70
0
0
ENDTAB
0
ENDSEC
0
SECTION
2
BLOCKS
0
BLOCK
5
20
100
AcDbEntity
8
0
100
AcDbBlockBegin
2
*Model_Space
70
0
10
0
20
0
30
0
3
*Model_Space
0
ENDBLK
5
21
100
AcDbEntity
8
0
100
AcDbBlockEnd
0
BLOCK
5
1C
100
AcDbEntity
8
0
100
AcDbBlockBegin
2
*Paper_Space
70
0
10
0
20
0
30
0
3
*Paper_Space
0
ENDBLK
5
1D
100
AcDbEntity
8
0
100
AcDbBlockEnd
0
BLOCK
5
24
100
AcDbEntity
8
0
100
AcDbBlockBegin
2
*Paper_Space0
70
0
10
0
20
0
30
0
3
*Paper_Space0
0
ENDBLK
5
25
100
AcDbEntity
8
0
100
AcDbBlockEnd
0
BLOCK
5
128
100
AcDbEntity
8
0
100
AcDbBlockBegin
2
*D1
70
1
10
0
20
0
30
0
3
*D1
0
LINE
5
12A
100
AcDbEntity
8
0
62
256
6
ByLayer
370
-2
48
1
60
0
100
AcDbLine
10
0
20
-1.5875
30
0
11
0
21
-19.452503
31
0
39
0
210
0
220
0
230
1
0
LINE
5
12B
100
AcDbEntity
8
0
62
256
6
ByLayer
370
-2
48
1
60
0
100
AcDbLine
10
65.2213
20
-6.2375
30
0
11
65.2213
21
-19.452503
31
0
39
0
210
0
220
0
230
1
0
LINE
5
12C
100
AcDbEntity
8
0
62
256
6
ByLayer
370
-2
48
1
60
0
100
AcDbLine
10
3.5
20
-17.452503
30
0
11
61.7213
21
-17.452503
31
0
39
0
210
0
220
0
230
1
0
SOLID
5
12D
100
AcDbEntity
8
0
62
256
6
ByLayer
370
-1
48
1
60
0
100
AcDbTrace
10
3.5
20
-16.86917
30
0
11
3.5
21
-18.035837
31
0
12
0
22
-17.452503
32
0
13
0
23
-17.452503
33
0
39
0
210
0
220
0
230
1
0
SOLID
5
12E
100
AcDbEntity
8
0
62
256
6
ByLayer
370
-1
48
1
60
0
100
AcDbTrace
10
61.7213
20
-18.035837
30
0
11
61.7213
21
-16.86917
31
0
12
65.2213
22
-17.452503
32
0
13
65.2213
23
-17.452503
33
0
39
0
210
0
220
0
230
1
0
MTEXT
5
12F
100
AcDbEntity
8
0
62
256
6
ByLayer
370
18
48
1
60
0
100
AcDbMText
10
32.61065
20
-10.452503
30
0
210
0
220
0
230
1
1
\A1;65.22
40
3.5
41
0
44
1
50
0
71
5
72
5
7
iso_b_vert
0
POINT
5
130
100
AcDbEntity
8
Defpoints
62
0
6
ByLayer
370
-1
48
1
60
0
100
AcDbPoint
10
0
20
0
30
0
39
0
210
0
220
0
230
1
50
360
0
POINT
5
131
100
AcDbEntity
8
Defpoints
62
0
6
ByLayer
370
-1
48
1
60
0
100
AcDbPoint
10
65.2213
20
-4.65
30
0
39
0
210
0
220
0
230
1
50
360
0
POINT
5
132
100
AcDbEntity
8
Defpoints
62
0
6
ByLayer
370
-1
48
1
60
0
100
AcDbPoint
10
65.2213
20
-17.452503
30
0
39
0
210
0
220
0
230
1
50
360
0
ENDBLK
5
129
100
AcDbEntity
8
0
100
AcDbBlockEnd
0
BLOCK
5
13A
100
AcDbEntity
8
0
100
AcDbBlockBegin
2
_U0
70
0
10
0
20
0
30
0
3
_U0
0
MTEXT
5
134
100
AcDbEntity
8
2
62
256
6
ByLayer
370
13
48
1
60
0
100
AcDbMText
10
27.473351
20
-16.41987
30
0
210
0
220
0
230
1
1
\W0.7317;65,22
40
3.5
41
0
44
1.084337
50
0
71
7
72
5
7
iso_b_vert
0
LINE
5
135
100
AcDbEntity
8
2
62
256
6
ByLayer
370
13
48
1
60
0
100
AcDbLine
10
0
20
-1.5875
30
0
11
0
21
-19.452503
31
0
39
0
210
0
220
0
230
1
0
LINE
5
136
100
AcDbEntity
8
2
62
256
6
ByLayer
370
13
48
1
60
0
100
AcDbLine
10
65.2213
20
-6.2375
30
0
11
65.2213
21
-19.452503
31
0
39
0
210
0
220
0
230
1
0
LINE
5
137
100
AcDbEntity
8
2
62
256
6
ByLayer
370
13
48
1
60
0
100
AcDbLine
10
0
20
-17.452503
30
0
11
65.2213
21
-17.452503
31
0
39
0
210
0
220
0
230
1
0
SOLID
5
138
100
AcDbEntity
8
2
62
256
6
ByLayer
370
18
48
1
60
0
100
AcDbTrace
10
0
20
-17.452503
30
0
11
3.499998
21
-16.991719
31
0
12
3.500002
22
-17.913287
32
0
13
3.500002
23
-17.913287
33
0
39
0
210
0
220
0
230
1
0
SOLID
5
139
100
AcDbEntity
8
2
62
256
6
ByLayer
370
18
48
1
60
0
100
AcDbTrace
10
65.2213
20
-17.452503
30
0
11
61.721302
21
-17.913287
31
0
12
61.721298
22
-16.991719
32
0
13
61.721298
23
-16.991719
33
0
39
0
210
0
220
0
230
1
0
ENDBLK
5
13B
100
AcDbEntity
8
0
100
AcDbBlockEnd
0
BLOCK
5
140
100
AcDbEntity
8
0
100
AcDbBlockBegin
2
*D3
70
1
10
0
20
0
30
0
3
*D3
0
LINE
5
142
100
AcDbEntity
8
0
62
256
6
ByLayer
370
-2
48
1
60
0
100
AcDbLine
10
-45
20
-8.5875
30
0
11
-45
21
-40.192985
31
0
39
0
210
0
220
0
230
1
0
LINE
5
143
100
AcDbEntity
8
0
62
256
6
ByLayer
370
-2
48
1
60
0
100
AcDbLine
10
67
20
-1.5875
30
0
11
67
21
-40.192985
31
0
39
0
210
0
220
0
230
1
0
LINE
5
144
100
AcDbEntity
8
0
62
256
6
ByLayer
370
-2
48
1
60
0
100
AcDbLine
10
-41.5
20
-38.192985
30
0
11
63.5
21
-38.192985
31
0
39
0
210
0
220
0
230
1
0
SOLID
5
145
100
AcDbEntity
8
0
62
256
6
ByLayer
370
-1
48
1
60
0
100
AcDbTrace
10
-41.5
20
-37.609652
30
0
11
-41.5
21
-38.776319
31
0
12
-45
22
-38.192985
32
0
13
-45
23
-38.192985
33
0
39
0
210
0
220
0
230
1
0
SOLID
5
146
100
AcDbEntity
8
0
62
256
6
ByLayer
370
-1
48
1
60
0
100
AcDbTrace
10
63.5
20
-38.776319
30
0
11
63.5
21
-37.609652
31
0
12
67
22
-38.192985
32
0
13
67
23
-38.192985
33
0
39
0
210
0
220
0
230
1
0
MTEXT
5
147
100
AcDbEntity
8
0
62
256
6
ByLayer
370
18
48
1
60
0
100
AcDbMText
10
11
20
-31.192985
30
0
210
0
220
0
230
1
1
\A1;112.00
40
3.5
41
0
44
1
50
0
71
5
72
5
7
iso_b_vert
0
POINT
5
148
100
AcDbEntity
8
Defpoints
62
0
6
ByLayer
370
-1
48
1
60
0
100
AcDbPoint
10
-45
20
-7
30
0
39
0
210
0
220
0
230
1
50
360
0
POINT
5
149
100
AcDbEntity
8
Defpoints
62
0
6
ByLayer
370
-1
48
1
60
0
100
AcDbPoint
10
67
20
0
30
0
39
0
210
0
220
0
230
1
50
360
0
POINT
5
14A
100
AcDbEntity
8
Defpoints
62
0
6
ByLayer
370
-1
48
1
60
0
100
AcDbPoint
10
67
20
-38.192985
30
0
39
0
210
0
220
0
230
1
50
360
0
ENDBLK
5
141
100
AcDbEntity
8
0
100
AcDbBlockEnd
0
BLOCK
5
152
100
AcDbEntity
8
0
100
AcDbBlockBegin
2
_U1
70
0
10
0
20
0
30
0
3
_U1
0
MTEXT
5
14C
100
AcDbEntity
8
SK2
62
256
6
ByLayer
370
13
48
1
60
0
100
AcDbMText
10
5.429835
20
-37.160352
30
0
210
0
220
0
230
1
1
\W0.6440;112,00
40
3.5
41
0
44
1.084337
50
0
71
7
72
5
7
iso_b_vert
0
LINE
5
14D
100
AcDbEntity
8
SK2
62
256
6
ByLayer
370
13
48
1
60
0
100
AcDbLine
10
-45
20
-8.5875
30
0
11
-45
21
-40.192985
31
0
39
0
210
0
220
0
230
1
0
LINE
5
14E
100
AcDbEntity
8
SK2
62
256
6
ByLayer
370
13
48
1
60
0
100
AcDbLine
10
67
20
-1.5875
30
0
11
67
21
-40.192985
31
0
39
0
210
0
220
0
230
1
0
LINE
5
14F
100
AcDbEntity
8
SK2
62
256
6
ByLayer
370
13
48
1
60
0
100
AcDbLine
10
-45
20
-38.192985
30
0
11
67
21
-38.192985
31
0
39
0
210
0
220
0
230
1
0
SOLID
5
150
100
AcDbEntity
8
SK2
62
256
6
ByLayer
370
18
48
1
60
0
100
AcDbTrace
10
-45
20
-38.192985
30
0
11
-41.500002
21
-37.732202
31
0
12
-41.499998
22
-38.653769
32
0
13
-41.499998
23
-38.653769
33
0
39
0
210
0
220
0
230
1
0
SOLID
5
151
100
AcDbEntity
8
SK2
62
256
6
ByLayer
370
18
48
1
60
0
100
AcDbTrace
10
67
20
-38.192985
30
0
11
63.500002
21
-38.653769
31
0
12
63.499998
22
-37.732202
32
0
13
63.499998
23
-37.732202
33
0
39
0
210
0
220
0
230
1
0
ENDBLK
5
153
100
AcDbEntity
8
0
100
AcDbBlockEnd
0
BLOCK
5
158
100
AcDbEntity
8
0
100
AcDbBlockBegin
2
*D5
70
1
10
0
20
0
30
0
3
*D5
0
LINE
5
15A
100
AcDbEntity
8
0
62
256
6
ByLayer
370
-2
48
1
60
0
100
AcDbLine
10
35.57
20
7.8875
30
0
11
35.57
21
18.259119
31
0
39
0
210
0
220
0
230
1
0
LINE
5
15B
100
AcDbEntity
8
0
62
256
6
ByLayer
370
-2
48
1
60
0
100
AcDbLine
10
67
20
1.5875
30
0
11
67
21
18.259119
31
0
39
0
210
0
220
0
230
1
0
LINE
5
15C
100
AcDbEntity
8
0
62
256
6
ByLayer
370
-2
48
1
60
0
100
AcDbLine
10
39.07
20
16.259119
30
0
11
63.5
21
16.259119
31
0
39
0
210
0
220
0
230
1
0
SOLID
5
15D
100
AcDbEntity
8
0
62
256
6
ByLayer
370
-1
48
1
60
0
100
AcDbTrace
10
39.07
20
16.842453
30
0
11
39.07
21
15.675786
31
0
12
35.57
22
16.259119
32
0
13
35.57
23
16.259119
33
0
39
0
210
0
220
0
230
1
0
SOLID
5
15E
100
AcDbEntity
8
0
62
256
6
ByLayer
370
-1
48
1
60
0
100
AcDbTrace
10
63.5
20
15.675786
30
0
11
63.5
21
16.842453
31
0
12
67
22
16.259119
32
0
13
67
23
16.259119
33
0
39
0
210
0
220
0
230
1
0
MTEXT
5
15F
100
AcDbEntity
8
0
62
256
6
ByLayer
370
18
48
1
60
0
100
AcDbMText
10
51.285
20
23.259119
30
0
210
0
220
0
230
1
1
\A1;31.43
40
3.5
41
0
44
1
50
0
71
5
72
5
7
iso_b_vert
0
POINT
5
160
100
AcDbEntity
8
Defpoints
62
0
6
ByLayer
370
-1
48
1
60
0
100
AcDbPoint
10
35.57
20
6.3
30
0
39
0
210
0
220
0
230
1
50
360
0
POINT
5
161
100
AcDbEntity
8
Defpoints
62
0
6
ByLayer
370
-1
48
1
60
0
100
AcDbPoint
10
67
20
0
30
0
39
0
210
0
220
0
230
1
50
360
0
POINT
5
162
100
AcDbEntity
8
Defpoints
62
0
6
ByLayer
370
-1
48
1
60
0
100
AcDbPoint
10
67
20
16.259119
30
0
39
0
210
0
220
0
230
1
50
360
0
ENDBLK
5
159
100
AcDbEntity
8
0
100
AcDbBlockEnd
0
BLOCK
5
16A
100
AcDbEntity
8
0
100
AcDbBlockBegin
2
_U2
70
0
10
0
20
0
30
0
3
_U2
0
MTEXT
5
164
100
AcDbEntity
8
SK2
62
256
6
ByLayer
370
13
48
1
60
0
100
AcDbMText
10
46.400868
20
17.291753
30
0
210
0
220
0
230
1
1
\W0.6977;31,43
40
3.5
41
0
44
1.084337
50
0
71
7
72
5
7
iso_b_vert
0
LINE
5
165
100
AcDbEntity
8
SK2
62
256
6
ByLayer
370
13
48
1
60
0
100
AcDbLine
10
35.57
20
7.8875
30
0
11
35.57
21
18.259119
31
0
39
0
210
0
220
0
230
1
0
LINE
5
166
100
AcDbEntity
8
SK2
62
256
6
ByLayer
370
13
48
1
60
0
100
AcDbLine
10
67
20
1.5875
30
0
11
67
21
18.259119
31
0
39
0
210
0
220
0
230
1
0
LINE
5
167
100
AcDbEntity
8
SK2
62
256
6
ByLayer
370
13
48
1
60
0
100
AcDbLine
10
35.57
20
16.259119
30
0
11
67
21
16.259119
31
0
39
0
210
0
220
0
230
1
0
SOLID
5
168
100
AcDbEntity
8
SK2
62
256
6
ByLayer
370
18
48
1
60
0
100
AcDbTrace
10
35.57
20
16.259119
30
0
11
39.069998
21
16.719903
31
0
12
39.070002
22
15.798335
32
0
13
39.070002
23
15.798335
33
0
39
0
210
0
220
0
230
1
0
SOLID
5
169
100
AcDbEntity
8
SK2
62
256
6
ByLayer
370
18
48
1
60
0
100
AcDbTrace
10
67
20
16.259119
30
0
11
63.500002
21
15.798335
31
0
12
63.499998
22
16.719903
32
0
13
63.499998
23
16.719903
33
0
39
0
210
0
220
0
230
1
0
ENDBLK
5
16B
100
AcDbEntity
8
0
100
AcDbBlockEnd
0
BLOCK
5
170
100
AcDbEntity
8
0
100
AcDbBlockBegin
2
*D7
70
1
10
0
20
0
30
0
3
*D7
0
LINE
5
172
100
AcDbEntity
8
0
62
256
6
ByLayer
370
-2
48
1
60
0
100
AcDbLine
10
67
20
-1.5875
30
0
11
67
21
-19.452503
31
0
39
0
210
0
220
0
230
1
0
LINE
5
173
100
AcDbEntity
8
0
62
256
6
ByLayer
370
-2
48
1
60
0
100
AcDbLine
10
65.2213
20
-6.2375
30
0
11
65.2213
21
-19.452503
31
0
39
0
210
0
220
0
230
1
0
LINE
5
174
100
AcDbEntity
8
0
62
256
6
ByLayer
370
-2
48
1
60
0
100
AcDbLine
10
67
20
-17.452503
30
0
11
94.666667
21
-17.452503
31
0
39
0
210
0
220
0
230
1
0
LINE
5
175
100
AcDbEntity
8
0
62
256
6
ByLayer
370
-2
48
1
60
0
100
AcDbLine
10
70.5
20
-17.452503
30
0
11
74
21
-17.452503
31
0
39
0
210
0
220
0
230
1
0
LINE
5
176
100
AcDbEntity
8
0
62
256
6
ByLayer
370
-2
48
1
60
0
100
AcDbLine
10
61.7213
20
-17.452503
30
0
11
58.2213
21
-17.452503
31
0
39
0
210
0
220
0
230
1
0
SOLID
5
177
100
AcDbEntity
8
0
62
256
6
ByLayer
370
-1
48
1
60
0
100
AcDbTrace
10
70.5
20
-16.86917
30
0
11
70.5
21
-18.035837
31
0
12
67
22
-17.452503
32
0
13
67
23
-17.452503
33
0
39
0
210
0
220
0
230
1
0
SOLID
5
178
100
AcDbEntity
8
0
62
256
6
ByLayer
370
-1
48
1
60
0
100
AcDbTrace
10
61.7213
20
-18.035837
30
0
11
61.7213
21
-16.86917
31
0
12
65.2213
22
-17.452503
32
0
13
65.2213
23
-17.452503
33
0
39
0
210
0
220
0
230
1
0
MTEXT
5
179
100
AcDbEntity
8
0
62
256
6
ByLayer
370
18
48
1
60
0
100
AcDbMText
10
84.333333
20
-10.452503
30
0
210
0
220
0
230
1
1
\A1;1.78
40
3.5
41
0
44
1
50
0
71
5
72
5
7
iso_b_vert
0
POINT
5
17A
100
AcDbEntity
8
Defpoints
62
0
6
ByLayer
370
-1
48
1
60
0
100
AcDbPoint
10
67
20
0
30
0
39
0
210
0
220
0
230
1
50
360
0
POINT
5
17B
100
AcDbEntity
8
Defpoints
62
0
6
ByLayer
370
-1
48
1
60
0
100
AcDbPoint
10
65.2213
20
-4.65
30
0
39
0
210
0
220
0
230
1
50
360
0
POINT
5
17C
100
AcDbEntity
8
Defpoints
62
0
6
ByLayer
370
-1
48
1
60
0
100
AcDbPoint
10
65.2213
20
-17.452503
30
0
39
0
210
0
220
0
230
1
50
360
0
ENDBLK
5
171
100
AcDbEntity
8
0
100
AcDbBlockEnd
0
BLOCK
5
184
100
AcDbEntity
8
0
100
AcDbBlockBegin
2
_U3
70
0
10
0
20
0
30
0
3
_U3
0
MTEXT
5
17E
100
AcDbEntity
8
SK2
62
256
6
ByLayer
370
13
48
1
60
0
100
AcDbMText
10
73.589293
20
-16.41987
30
0
210
0
220
0
230
1
1
\W0.6367;1,78
40
3.5
41
0
44
1.084337
50
0
71
7
72
5
7
iso_b_vert
0
LINE
5
17F
100
AcDbEntity
8
SK2
62
256
6
ByLayer
370
13
48
1
60
0
100
AcDbLine
10
67
20
-1.5875
30
0
11
67
21
-19.452503
31
0
39
0
210
0
220
0
230
1
0
LINE
5
180
100
AcDbEntity
8
SK2
62
256
6
ByLayer
370
13
48
1
60
0
100
AcDbLine
10
65.2213
20
-6.2375
30
0
11
65.2213
21
-19.452503
31
0
39
0
210
0
220
0
230
1
0
LINE
5
181
100
AcDbEntity
8
SK2
62
256
6
ByLayer
370
13
48
1
60
0
100
AcDbLine
10
56.4713
20
-17.452503
30
0
11
80.559058
21
-17.452503
31
0
39
0
210
0
220
0
230
1
0
SOLID
5
182
100
AcDbEntity
8
SK2
62
256
6
ByLayer
370
18
48
1
60
0
100
AcDbTrace
10
67
20
-17.452503
30
0
11
70.499998
21
-16.991719
31
0
12
70.500002
22
-17.913287
32
0
13
70.500002
23
-17.913287
33
0
39
0
210
0
220
0
230
1
0
SOLID
5
183
100
AcDbEntity
8
SK2
62
256
6
ByLayer
370
18
48
1
60
0
100
AcDbTrace
10
65.2213
20
-17.452503
30
0
11
61.721302
21
-17.913287
31
0
12
61.721298
22
-16.991719
32
0
13
61.721298
23
-16.991719
33
0
39
0
210
0
220
0
230
1
0
ENDBLK
5
185
100
AcDbEntity
8
0
100
AcDbBlockEnd
0
BLOCK
5
18A
100
AcDbEntity
8
0
100
AcDbBlockBegin
2
*D9
70
1
10
0
20
0
30
0
3
*D9
0
LINE
5
18C
100
AcDbEntity
8
0
62
256
6
ByLayer
370
-2
48
1
60
0
100
AcDbLine
10
65.2213
20
6.2375
30
0
11
65.2213
21
10.785371
31
0
39
0
210
0
220
0
230
1
0
LINE
5
18D
100
AcDbEntity
8
0
62
256
6
ByLayer
370
-2
48
1
60
0
100
AcDbLine
10
37.2213
20
6.2375
30
0
11
37.2213
21
10.785371
31
0
39
0
210
0
220
0
230
1
0
LINE
5
18E
100
AcDbEntity
8
0
62
256
6
ByLayer
370
-2
48
1
60
0
100
AcDbLine
10
61.7213
20
8.785371
30
0
11
40.7213
21
8.785371
31
0
39
0
210
0
220
0
230
1
0
SOLID
5
18F
100
AcDbEntity
8
0
62
256
6
ByLayer
370
-1
48
1
60
0
100
AcDbTrace
10
61.7213
20
8.202038
30
0
11
61.7213
21
9.368705
31
0
12
65.2213
22
8.785371
32
0
13
65.2213
23
8.785371
33
0
39
0
210
0
220
0
230
1
0
SOLID
5
190
100
AcDbEntity
8
0
62
256
6
ByLayer
370
-1
48
1
60
0
100
AcDbTrace
10
40.7213
20
9.368705
30
0
11
40.7213
21
8.202038
31
0
12
37.2213
22
8.785371
32
0
13
37.2213
23
8.785371
33
0
39
0
210
0
220
0
230
1
0
MTEXT
5
191
100
AcDbEntity
8
0
62
256
6
ByLayer
370
18
48
1
60
0
100
AcDbMText
10
51.2213
20
15.785371
30
0
210
0
220
0
230
1
1
\A1;28.00
40
3.5
41
0
44
1
50
0
71
5
72
5
7
iso_b_vert
0
POINT
5
192
100
AcDbEntity
8
Defpoints
62
0
6
ByLayer
370
-1
48
1
60
0
100
AcDbPoint
10
65.2213
20
4.65
30
0
39
0
210
0
220
0
230
1
50
360
0
POINT
5
193
100
AcDbEntity
8
Defpoints
62
0
6
ByLayer
370
-1
48
1
60
0
100
AcDbPoint
10
37.2213
20
4.65
30
0
39
0
210
0
220
0
230
1
50
360
0
POINT
5
194
100
AcDbEntity
8
Defpoints
62
0
6
ByLayer
370
-1
48
1
60
0
100
AcDbPoint
10
37.2213
20
8.785371
30
0
39
0
210
0
220
0
230
1
50
360
0
ENDBLK
5
18B
100
AcDbEntity
8
0
100
AcDbBlockEnd
0
BLOCK
5
19C
100
AcDbEntity
8
0
100
AcDbBlockBegin
2
_U4
70
0
10
0
20
0
30
0
3
_U4
0
MTEXT
5
196
100
AcDbEntity
8
SK2
62
256
6
ByLayer
370
13
48
1
60
0
100
AcDbMText
10
46.084001
20
9.818005
30
0
210
0
220
0
230
1
1
\W0.7317;28,00
40
3.5
41
0
44
1.084337
50
0
71
7
72
5
7
iso_b_vert
0
LINE
5
197
100
AcDbEntity
8
SK2
62
256
6
ByLayer
370
13
48
1
60
0
100
AcDbLine
10
65.2213
20
6.2375
30
0
11
65.2213
21
10.785371
31
0
39
0
210
0
220
0
230
1
0
LINE
5
198
100
AcDbEntity
8
SK2
62
256
6
ByLayer
370
13
48
1
60
0
100
AcDbLine
10
37.2213
20
6.2375
30
0
11
37.2213
21
10.785371
31
0
39
0
210
0
220
0
230
1
0
LINE
5
199
100
AcDbEntity
8
SK2
62
256
6
ByLayer
370
13
48
1
60
0
100
AcDbLine
10
65.2213
20
8.785371
30
0
11
37.2213
21
8.785371
31
0
39
0
210
0
220
0
230
1
0
SOLID
5
19A
100
AcDbEntity
8
SK2
62
256
6
ByLayer
370
18
48
1
60
0
100
AcDbTrace
10
65.2213
20
8.785371
30
0
11
61.721302
21
8.324588
31
0
12
61.721298
22
9.246155
32
0
13
61.721298
23
9.246155
33
0
39
0
210
0
220
0
230
1
0
SOLID
5
19B
100
AcDbEntity
8
SK2
62
256
6
ByLayer
370
18
48
1
60
0
100
AcDbTrace
10
37.2213
20
8.785371
30
0
11
40.721298
21
9.246155
31
0
12
40.721302
22
8.324588
32
0
13
40.721302
23
8.324588
33
0
39
0
210
0
220
0
230
1
0
ENDBLK
5
19D
100
AcDbEntity
8
0
100
AcDbBlockEnd
0
BLOCK
5
1A2
100
AcDbEntity
8
0
100
AcDbBlockBegin
2
*D11
70
1
10
0
20
0
30
0
3
*D11
0
LINE
5
1A4
100
AcDbEntity
8
0
62
256
6
ByLayer
370
-2
48
1
60
0
100
AcDbLine
10
-45
20
-8.5875
30
0
11
-45
21
-29.690158
31
0
39
0
210
0
220
0
230
1
0
LINE
5
1A5
100
AcDbEntity
8
0
62
256
6
ByLayer
370
-2
48
1
60
0
100
AcDbLine
10
65.2213
20
-6.2375
30
0
11
65.2213
21
-29.690158
31
0
39
0
210
0
220
0
230
1
0
LINE
5
1A6
100
AcDbEntity
8
0
62
256
6
ByLayer
370
-2
48
1
60
0
100
AcDbLine
10
-41.5
20
-27.690158
30
0
11
61.7213
21
-27.690158
31
0
39
0
210
0
220
0
230
1
0
SOLID
5
1A7
100
AcDbEntity
8
0
62
256
6
ByLayer
370
-1
48
1
60
0
100
AcDbTrace
10
-41.5
20
-27.106825
30
0
11
-41.5
21
-28.273491
31
0
12
-45
22
-27.690158
32
0
13
-45
23
-27.690158
33
0
39
0
210
0
220
0
230
1
0
SOLID
5
1A8
100
AcDbEntity
8
0
62
256
6
ByLayer
370
-1
48
1
60
0
100
AcDbTrace
10
61.7213
20
-28.273491
30
0
11
61.7213
21
-27.106825
31
0
12
65.2213
22
-27.690158
32
0
13
65.2213
23
-27.690158
33
0
39
0
210
0
220
0
230
1
0
MTEXT
5
1A9
100
AcDbEntity
8
0
62
256
6
ByLayer
370
18
48
1
60
0
100
AcDbMText
10
10.11065
20
-20.690158
30
0
210
0
220
0
230
1
1
\A1;110.22
40
3.5
41
0
44
1
50
0
71
5
72
5
7
iso_b_vert
0
POINT
5
1AA
100
AcDbEntity
8
Defpoints
62
0
6
ByLayer
370
-1
48
1
60
0
100
AcDbPoint
10
-45
20
-7
30
0
39
0
210
0
220
0
230
1
50
360
0
POINT
5
1AB
100
AcDbEntity
8
Defpoints
62
0
6
ByLayer
370
-1
48
1
60
0
100
AcDbPoint
10
65.2213
20
-4.65
30
0
39
0
210
0
220
0
230
1
50
360
0
POINT
5
1AC
100
AcDbEntity
8
Defpoints
62
0
6
ByLayer
370
-1
48
1
60
0
100
AcDbPoint
10
65.2213
20
-27.690158
30
0
39
0
210
0
220
0
230
1
50
360
0
ENDBLK
5
1A3
100
AcDbEntity
8
0
100
AcDbBlockEnd
0
BLOCK
5
1B4
100
AcDbEntity
8
0
100
AcDbBlockBegin
2
_U5
70
0
10
0
20
0
30
0
3
_U5
0
MTEXT
5
1AE
100
AcDbEntity
8
SK2
62
256
6
ByLayer
370
13
48
1
60
0
100
AcDbMText
10
4.540485
20
-26.657524
30
0
210
0
220
0
230
1
1
\W0.6440;110,22
40
3.5
41
0
44
1.084337
50
0
71
7
72
5
7
iso_b_vert
0
LINE
5
1AF
100
AcDbEntity
8
SK2
62
256
6
ByLayer
370
13
48
1
60
0
100
AcDbLine
10
-45
20
-8.5875
30
0
11
-45
21
-29.690158
31
0
39
0
210
0
220
0
230
1
0
LINE
5
1B0
100
AcDbEntity
8
SK2
62
256
6
ByLayer
370
13
48
1
60
0
100
AcDbLine
10
65.2213
20
-6.2375
30
0
11
65.2213
21
-29.690158
31
0
39
0
210
0
220
0
230
1
0
LINE
5
1B1
100
AcDbEntity
8
SK2
62
256
6
ByLayer
370
13
48
1
60
0
100
AcDbLine
10
-45
20
-27.690158
30
0
11
65.2213
21
-27.690158
31
0
39
0
210
0
220
0
230
1
0
SOLID
5
1B2
100
AcDbEntity
8
SK2
62
256
6
ByLayer
370
18
48
1
60
0
100
AcDbTrace
10
-45
20
-27.690158
30
0
11
-41.500002
21
-27.229374
31
0
12
-41.499998
22
-28.150942
32
0
13
-41.499998
23
-28.150942
33
0
39
0
210
0
220
0
230
1
0
SOLID
5
1B3
100
AcDbEntity
8
SK2
62
256
6
ByLayer
370
18
48
1
60
0
100
AcDbTrace
10
65.2213
20
-27.690158
30
0
11
61.721302
21
-28.150942
31
0
12
61.721298
22
-27.229374
32
0
13
61.721298
23
-27.229374
33
0
39
0
210
0
220
0
230
1
0
ENDBLK
5
1B5
100
AcDbEntity
8
0
100
AcDbBlockEnd
0
ENDSEC
0
SECTION
2
ENTITIES
0
ARC
5
BB
100
AcDbEntity
8
1
62
256
6
ByLayer
370
18
48
1
60
0
100
AcDbCircle
39
0
10
1.374773
20
-7.15
30
0
40
0.850000000000003
210
0
220
0
230
1
100
AcDbArc
50
90
51
143.968121
0
ARC
5
BC
100
AcDbEntity
8
1
62
256
6
ByLayer
370
18
48
1
60
0
100
AcDbCircle
39
0
10
1.374773
20
7.15
30
0
40
0.850000000000003
210
0
220
0
230
1
100
AcDbArc
50
216.031879
51
270
0
ARC
5
BD
100
AcDbEntity
8
1
62
256
6
ByLayer
370
18
48
1
60
0
100
AcDbCircle
39
0
10
0
20
-6.15
30
0
40
0.849999999999996
210
0
220
0
230
1
100
AcDbArc
50
270
51
323.968121
0
ARC
5
BE
100
AcDbEntity
8
1
62
256
6
ByLayer
370
18
48
1
60
0
100
AcDbCircle
39
0
10
0
20
6.15
30
0
40
0.849999999999996
210
0
220
0
230
1
100
AcDbArc
50
36.031879
51
90
0
ARC
5
BF
100
AcDbEntity
8
SK2
62
256
6
ByLayer
370
13
48
1
60
0
100
AcDbCircle
39
0
10
41.8713
20
0
30
0
40
19.9713760406748
210
0
220
0
230
1
100
AcDbArc
50
183.083532
51
225
0
ARC
5
C0
100
AcDbEntity
8
SK2
62
256
6
ByLayer
370
13
48
1
60
0
100
AcDbCircle
39
0
10
41.8713
20
0
30
0
40
19.9713760406748
210
0
220
0
230
1
100
AcDbArc
50
135
51
164.236096
0
ELLIPSE
5
C1
100
AcDbEntity
8
1
62
256
6
ByLayer
370
13
48
1
60
0
100
AcDbEllipse
10
111.194174
20
42.140273
30
0
11
-60.7999999999999
21
7.44560663124004E-15
31
0
210
0
220
0
230
1
40
0.99863
41
0.729187610663918
42
0.752061763558973
0
ELLIPSE
5
C2
100
AcDbEntity
8
1
62
256
6
ByLayer
370
13
48
1
60
0
100
AcDbEllipse
10
31.628751
20
-75.752719
30
0
11
4.5273745977592
21
74.1068637242273
31
0
210
0
220
0
230
1
40
0.844921
41
0.173151691855023
42
0.24918262351131
0
POINT
5
70
100
AcDbEntity
8
80
62
256
6
ByLayer
370
18
48
1
60
0
100
AcDbPoint
10
0
20
0
30
0
39
0
210
0
220
0
230
1
50
360
0
POINT
5
72
100
AcDbEntity
8
81
62
256
6
ByLayer
370
18
48
1
60
0
100
AcDbPoint
10
67
20
0
30
0
39
0
210
0
220
0
230
1
50
360
0
POINT
5
74
100
AcDbEntity
8
1
62
256
6
ByLayer
370
18
48
1
60
1
100
AcDbPoint
10
65.2213
20
-4.65
30
0
39
0
210
0
220
0
230
1
50
360
0
POINT
5
76
100
AcDbEntity
8
1
62
256
6
ByLayer
370
18
48
1
60
1
100
AcDbPoint
10
-45
20
-7
30
0
39
0
210
0
220
0
230
1
50
360
0
POINT
5
77
100
AcDbEntity
8
1
62
256
6
ByLayer
370
18
48
1
60
1
100
AcDbPoint
10
35.57
20
6.3
30
0
39
0
210
0
220
0
230
1
50
360
0
POINT
5
78
100
AcDbEntity
8
1
62
256
6
ByLayer
370
18
48
1
60
1
100
AcDbPoint
10
65.2213
20
-4.65
30
0
39
0
210
0
220
0
230
1
50
360
0
POINT
5
79
100
AcDbEntity
8
1
62
256
6
ByLayer
370
18
48
1
60
1
100
AcDbPoint
10
65.2213
20
4.65
30
0
39
0
210
0
220
0
230
1
50
360
0
POINT
5
7A
100
AcDbEntity
8
1
62
256
6
ByLayer
370
18
48
1
60
1
100
AcDbPoint
10
37.2213
20
4.65
30
0
39
0
210
0
220
0
230
1
50
360
0
POINT
5
7B
100
AcDbEntity
8
1
62
256
6
ByLayer
370
18
48
1
60
1
100
AcDbPoint
10
-45
20
-7
30
0
39
0
210
0
220
0
230
1
50
360
0
POINT
5
7C
100
AcDbEntity
8
1
62
256
6
ByLayer
370
18
48
1
60
1
100
AcDbPoint
10
65.2213
20
-4.65
30
0
39
0
210
0
220
0
230
1
50
360
0
SPLINE
5
C3
100
AcDbEntity
8
1
62
256
6
ByLayer
370
18
48
1
60
0
100
AcDbSpline
70
4
71
3
72
48
73
44
40
0
40
0
40
0
40
0
40
0.0624999999999984
40
0.0624999999999984
40
0.0781249999999979
40
0.0781249999999979
40
0.0937499999999975
40
0.0937499999999975
40
0.124999999999997
40
0.124999999999997
40
0.156249999999996
40
0.156249999999996
40
0.187499999999995
40
0.187499999999995
40
0.203124999999994
40
0.203124999999994
40
0.218749999999993
40
0.218749999999993
40
0.249999999999992
40
0.249999999999992
40
0.28124999999999
40
0.28124999999999
40
0.29687499999999
40
0.29687499999999
40
0.312499999999989
40
0.312499999999989
40
0.374999999999989
40
0.374999999999989
40
0.406249999999989
40
0.406249999999989
40
0.437499999999989
40
0.437499999999989
40
0.499999999999991
40
0.499999999999991
40
0.624999999999995
40
0.624999999999995
40
0.687499999999996
40
0.687499999999996
40
0.749999999999996
40
0.749999999999996
40
0.874999999999998
40
0.874999999999998
40
1
40
1
40
1
40
1
41
1
10
20.5748307362105
20
-2.99133810620634
30
0
41
1
10
20.4084130898587
20
-3.25424016083522
30
0
41
1
10
20.269461269243
20
-3.51680689693311
30
0
41
1
10
20.1404125238093
20
-3.84423162757386
30
0
41
1
10
20.1168257193772
20
-3.90985418632684
30
0
41
1
10
20.0751805392327
20
-4.03899237510157
30
0
41
1
10
20.057024990627
20
-4.10272315859422
30
0
41
1
10
20.0107313655258
20
-4.29134662651808
30
0
41
1
10
19.9907446954507
20
-4.41367576637199
30
0
41
1
10
19.9739072013192
20
-4.65109152632871
30
0
41
1
10
19.9773397412738
20
-4.7665563199252
30
0
41
1
10
20.0074737494904
20
-4.98203576428017
30
0
41
1
10
20.0339889977315
20
-5.08313714356984
30
0
41
1
10
20.0900850882787
20
-5.22542077220402
30
0
41
1
10
20.1115092403741
20
-5.2712846452421
30
0
41
1
10
20.159720309746
20
-5.35995468914081
30
0
41
1
10
20.1864479145767
20
-5.4026022637556
30
0
41
1
10
20.2730265759737
20
-5.5242958269655
30
0
41
1
10
20.3395891079762
20
-5.59777229297185
30
0
41
1
10
20.4881160622489
20
-5.7315879930313
30
0
41
1
10
20.5700908271407
20
-5.79191803458713
30
0
41
1
10
20.7034209577951
20
-5.87371444205166
30
0
41
1
10
20.749724711259
20
-5.89958604206336
30
0
41
1
10
20.8447666662943
20
-5.94815251273258
30
0
41
1
10
20.8935403296563
20
-5.97088404340198
30
0
41
1
10
21.1431585966812
20
-6.0774875500592
30
0
41
1
10
21.3610262691924
20
-6.1405014894101
30
0
41
1
10
21.7086008413936
20
-6.21062375490246
30
0
41
1
10
21.8279659137506
20
-6.22987138509276
30
0
41
1
10
22.0730195926735
20
-6.26108851025785
30
0
41
1
10
22.1987778398332
20
-6.27303620794538
30
0
41
1
10
22.5803117251773
20
-6.2989436660306
30
0
41
1
10
22.8417812052037
20
-6.30327898150782
30
0
41
1
10
23.6433844845573
20
-6.28672043780995
30
0
41
1
10
24.2005126024244
20
-6.23671351013039
30
0
41
1
10
25.0615877677083
20
-6.12270582385491
30
0
41
1
10
25.3531527440879
20
-6.07797304211277
30
0
41
1
10
25.9381165440259
20
-5.97820126791783
30
0
41
1
10
26.2322825264231
20
-5.92306582749697
30
0
41
1
10
27.1193495464283
20
-5.74438822015657
30
0
41
1
10
27.7167970778757
20
-5.60770811810377
30
0
41
1
10
28.9220846294679
20
-5.30757116699192
30
0
41
1
10
29.5299374018787
20
-5.14404111620536
30
0
41
1
10
30.142434403571
20
-4.96939092952056
30
0
0
SPLINE
5
C4
100
AcDbEntity
8
1
62
256
6
ByLayer
370
18
48
1
60
0
100
AcDbSpline
70
4
71
3
72
34
73
30
40
0
40
0
40
0
40
0
40
0.135772979283592
40
0.135772979283592
40
0.203659468925389
40
0.203659468925389
40
0.237602713746287
40
0.237602713746287
40
0.271545958567186
40
0.271545958567186
40
0.33943244820898
40
0.33943244820898
40
0.407318937850775
40
0.407318937850775
40
0.475205427492569
40
0.475205427492569
40
0.543091917134364
40
0.543091917134364
40
0.67886489641795
40
0.67886489641795
40
0.746751386059745
40
0.746751386059745
40
0.814637875701539
40
0.814637875701539
40
0.882524365343334
40
0.882524365343334
40
0.950410854985128
40
0.950410854985128
40
1
40
1
40
1
40
1
41
1
10
64.8523937470072
20
0.458572880599917
30
0
41
1
10
64.2779895983421
20
0.757616680282041
30
0
41
1
10
63.7043972028184
20
1.0527908466583
30
0
41
1
10
62.8420080985535
20
1.48286511403859
30
0
41
1
10
62.5544799872357
20
1.62457196457612
30
0
41
1
10
62.1220754752709
20
1.8325766126367
30
0
41
1
10
61.9779639557645
20
1.90099744736793
30
0
41
1
10
61.6902985825796
20
2.03586207419923
30
0
41
1
10
61.5466722914541
20
2.10237580508783
30
0
41
1
10
61.115594165201
20
2.29921461003673
30
0
41
1
10
60.8281776475233
20
2.42681532167018
30
0
41
1
10
60.2536025585445
20
2.67471554884625
30
0
41
1
10
59.9659892968962
20
2.7944263294404
30
0
41
1
10
59.390687752017
20
3.02428973166215
30
0
41
1
10
59.1021292631805
20
3.13390039090803
30
0
41
1
10
58.5261906034764
20
3.34271534251877
30
0
41
1
10
58.2388158785446
20
3.44136290517255
30
0
41
1
10
57.3762849485157
20
3.71891155179409
30
0
41
1
10
56.8020055096613
20
3.88300209745768
30
0
41
1
10
55.937345638117
20
4.08735227443231
30
0
41
1
10
55.6490766145017
20
4.14769986634423
30
0
41
1
10
55.0736268760837
20
4.25564848209316
30
0
41
1
10
54.7859492776123
20
4.30327554432603
30
0
41
1
10
54.2110874895178
20
4.38360062312637
30
0
41
1
10
53.9233704780219
20
4.41683290502499
30
0
41
1
10
53.3479261912557
20
4.46725887717636
30
0
41
1
10
53.0594189093403
20
4.4838213506973
30
0
41
1
10
52.5604486181159
20
4.50185775150138
30
0
41
1
10
52.3501252538185
20
4.50578672020444
30
0
41
1
10
52.1398657772498
20
4.50584253820747
30
0
0
SPLINE
5
C5
100
AcDbEntity
8
1
62
256
6
ByLayer
370
18
48
1
60
0
100
AcDbSpline
70
4
71
3
72
12
73
8
40
0
40
0
40
0
40
0
40
0.276605520813947
40
0.276605520813947
40
0.638302760406974
40
0.638302760406974
40
1
40
1
40
1
40
1
41
1
10
42.0769809162729
20
-4.50768946138388
30
0
41
1
10
41.63157695038
20
-4.55618397647331
30
0
41
1
10
41.1868948846238
20
-4.58670924788862
30
0
41
1
10
40.1592977437496
20
-4.61495421317017
30
0
41
1
10
39.5761661047099
20
-4.59977837178062
30
0
41
1
10
38.403093671726
20
-4.50618771611926
30
0
41
1
10
37.8117451278193
20
-4.42747765292131
30
0
41
1
10
37.2213
20
-4.31844223007363
30
0
0
SPLINE
5
C6
100
AcDbEntity
8
1
62
256
6
ByLayer
370
18
48
1
60
0
100
AcDbSpline
70
4
71
3
72
10
73
6
40
0
40
0
40
0
40
0
40
0.5
40
0.5
40
1
40
1
40
1
40
1
41
1
10
37.2213
20
-4.46151414462455
30
0
41
1
10
36.9256917267508
20
-4.70207042907086
30
0
41
1
10
36.6403131305677
20
-4.91177479192342
30
0
41
1
10
36.0814715495454
20
-5.26924301573723
30
0
41
1
10
35.807742173099
20
-5.41753177680897
30
0
41
1
10
35.5360784769402
20
-5.53465708492891
30
0
0
SPLINE
5
C7
100
AcDbEntity
8
1
62
256
6
ByLayer
370
18
48
1
60
0
100
AcDbSpline
70
4
71
3
72
8
73
4
40
0
40
0
40
0
40
0
40
1
40
1
40
1
40
1
41
1
10
35.5360784769402
20
5.53465708492891
30
0
41
1
10
35.2859420335426
20
5.44788089336478
30
0
41
1
10
35.0361666801996
20
5.35413404387126
30
0
41
1
10
34.7865497455891
20
5.25348046904364
30
0
0
SPLINE
5
C8
100
AcDbEntity
8
1
62
256
6
ByLayer
370
18
48
1
60
0
100
AcDbSpline
70
4
71
4
72
10
73
5
40
0
40
0
40
0
40
0
40
0
40
1
40
1
40
1
40
1
40
1
41
1
10
30.561064512787
20
-4.00994583757324
30
0
41
1
10
30.456406985483
20
-4.24980711056008
30
0
41
1
10
30.351749458179
20
-4.48966838354693
30
0
41
1
10
30.247091930875
20
-4.72952965653374
30
0
41
1
10
30.142434403571
20
-4.96939092952059
30
0
0
SPLINE
5
C9
100
AcDbEntity
8
1
62
256
6
ByLayer
370
18
48
1
60
0
100
AcDbSpline
70
4
71
3
72
8
73
4
40
0
40
0
40
0
40
0
40
1
40
1
40
1
40
1
41
1
10
66.793032069291
20
-0.661926534304655
30
0
41
1
10
66.5107746738033
20
-1.47336865778846
30
0
41
1
10
66.2312024857931
20
-2.28572896921969
30
0
41
1
10
65.9543338398258
20
-3.09901373797504
30
0
0
SPLINE
5
CA
100
AcDbEntity
8
1
62
256
6
ByLayer
370
18
48
1
60
0
100
AcDbSpline
70
4
71
3
72
8
73
4
40
0
40
0
40
0
40
0
40
1
40
1
40
1
40
1
41
1
10
66.3038082534767
20
-1.05642681748338
30
0
41
1
10
66.3042993051408
20
-1.05637535597995
30
0
41
1
10
66.3047906982564
20
-1.0563225370677
30
0
41
1
10
66.3052824332539
20
-1.05626835903544
30
0
0
SPLINE
5
CB
100
AcDbEntity
8
1
62
256
6
ByLayer
370
18
48
1
60
0
100
AcDbSpline
70
4
71
3
72
18
73
14
40
0
40
0
40
0
40
0
40
0.250000000000002
40
0.250000000000002
40
0.500000000000005
40
0.500000000000005
40
0.625000000000004
40
0.625000000000004
40
0.750000000000002
40
0.750000000000002
40
0.875000000000001
40
0.875000000000001
40
1
40
1
40
1
40
1
41
1
10
66.3038082534767
20
-1.05642681748338
30
0
41
1
10
66.2170347578156
20
-1.05566995612404
30
0
41
1
10
66.1381469416658
20
-1.01734503950434
30
0
41
1
10
65.9923300679465
20
-0.88372265208784
30
0
41
1
10
65.9291927936212
20
-0.791663806314432
30
0
41
1
10
65.8456993081825
20
-0.625423972247205
30
0
41
1
10
65.8196847719701
20
-0.564851939648435
30
0
41
1
10
65.7723016019112
20
-0.437616965230347
30
0
41
1
10
65.750775334951
20
-0.370702684308412
30
0
41
1
10
65.7116268423371
20
-0.230930044771498
30
0
41
1
10
65.6940072488042
20
-0.158067678634723
30
0
41
1
10
65.6624706916062
20
-0.0067055266017064
30
0
41
1
10
65.648510973152
20
0.072104708960552
30
0
41
1
10
65.6364903612065
20
0.152963670707606
30
0
0
SPLINE
5
CC
100
AcDbEntity
8
1
62
256
6
ByLayer
370
13
48
1
60
0
100
AcDbSpline
70
4
71
3
72
58
73
54
40
0
40
0
40
0
40
0
40
0.0118026651482067
40
0.0265841240997677
40
0.05614704200289
40
0.0709285009544513
40
0.0857099599060123
40
0.115272877809135
40
0.130054336760696
40
0.144835795712257
40
0.174398713615379
40
0.18918017256694
40
0.203961631518502
40
0.233524549421624
40
0.248306008373185
40
0.263087467324746
40
0.292650385227869
40
0.307431844179429
40
0.322213303130991
40
0.351776221034113
40
0.366557679985675
40
0.381339138937235
40
0.410902056840358
40
0.425683515791919
40
0.44046497474348
40
0.470027892646602
40
0.484809351598164
40
0.499590810549724
40
0.529153728452847
40
0.543935187404408
40
0.558716646355969
40
0.588279564259091
40
0.603061023210653
40
0.617842482162214
40
0.647405400065336
40
0.662186859016897
40
0.676968317968458
40
0.706531235871581
40
0.721312694823142
40
0.736094153774703
40
0.765657071677825
40
0.780438530629386
40
0.795219989580948
40
0.82478290748407
40
0.839564366435631
40
0.854345825387192
40
0.883908743290314
40
0.898690202241876
40
0.913471661193437
40
0.943034579096559
40
0.95781603804812
40
0.972597496999681
40
1
40
1
40
1
40
1
41
1
10
52.4481890656098
20
0.0142050448069426
30
0
41
1
10
52.380958359918
20
0.0304449077491711
30
0
41
1
10
52.2295298757014
20
0.0670248836625547
30
0
41
1
10
51.9096331827188
20
0.143926467873854
30
0
41
1
10
51.572808083091
20
0.224866383701283
30
0
41
1
10
51.2360236073886
20
0.305576813417815
30
0
41
1
10
50.8991551347036
20
0.385564006980275
30
0
41
1
10
50.562330135383
20
0.465109497210165
30
0
41
1
10
50.2255457892935
20
0.544027218564565
30
0
41
1
10
49.888677335583
20
0.621929741321566
30
0
41
1
10
49.5518523558544
20
0.699002413433817
30
0
41
1
10
49.2150681856426
20
0.775066214885726
30
0
41
1
10
48.8781998333452
20
0.849838868373411
30
0
41
1
10
48.5413747487959
20
0.923402874243266
30
0
41
1
10
48.2045901616325
20
0.995578067312749
30
0
41
1
10
47.8677214439414
20
1.06619798730287
30
0
41
1
10
47.5308961633783
20
1.1352425169967
30
0
41
1
10
47.1941118506491
20
1.20254123181536
30
0
41
1
10
46.8572436263902
20
1.26804410459968
30
0
41
1
10
46.5204189509143
20
1.33162931680391
30
0
41
1
10
46.1836348587537
20
1.39313748369025
30
0
41
1
10
45.8467665787526
20
1.4526347370396
30
0
41
1
10
45.5099415888182
20
1.50989914029944
30
0
41
1
10
45.1731571963697
20
1.56478329852433
30
0
41
1
10
44.8362886343636
20
1.61746839264916
30
0
41
1
10
44.4994633737856
20
1.66763487677548
30
0
41
1
10
44.1626787077675
20
1.71514873583581
30
0
41
1
10
43.8258099635216
20
1.76030367867847
30
0
41
1
10
43.4889847769707
20
1.80268522400283
30
0
41
1
10
43.1522006382858
20
1.8421728727466
30
0
41
1
10
42.8153324987567
20
1.87917334933522
30
0
41
1
10
42.4785078034639
20
1.91318675578987
30
0
41
1
10
42.1417236137415
20
1.94411594352687
30
0
41
1
10
41.8048552323115
20
1.97246770618483
30
0
41
1
10
41.4680301255136
20
1.99766045181576
30
0
41
1
10
41.1312457011095
20
2.01961137610223
30
0
41
1
10
40.7943772583135
20
2.03892670145478
30
0
41
1
10
40.4575522675467
20
2.05495431544659
30
0
41
1
10
40.1207678983461
20
2.06763646448769
30
0
41
1
10
39.7838993974516
20
2.07766358155874
30
0
41
1
10
39.4470743390718
20
2.08431762330503
30
0
41
1
10
39.1102900625114
20
2.0875552676946
30
0
41
1
10
38.77342159722
20
2.08814916335956
30
0
41
1
10
38.436596413892
20
2.08532713174816
30
0
41
1
10
38.0998117878533
20
2.07907020389106
30
0
41
1
10
37.7629430814852
20
2.07021693411676
30
0
41
1
10
37.4261179052019
20
2.05794608194543
30
0
41
1
10
37.0893338323597
20
2.04225229895582
30
0
41
1
10
36.7524659082774
20
2.02404377772982
30
0
41
1
10
36.415641561242
20
2.00247522263854
30
0
41
1
10
36.0788577199696
20
1.97758381352855
30
0
41
1
10
35.7542985343214
20
1.95130771744954
30
0
41
1
10
35.5139856405881
20
1.92964729259782
30
0
41
1
10
35.357891130546
20
1.9146604915035
30
0
0
SPLINE
5
CD
100
AcDbEntity
8
1
62
256
6
ByLayer
370
18
48
1
60
0
100
AcDbSpline
70
4
71
3
72
8
73
4
40
0
40
0
40
0
40
0
40
1
40
1
40
1
40
1
41
1
10
65.2919737198013
20
-4.50458837138126
30
0
41
1
10
65.298041164383
20
-4.47795799172872
30
0
41
1
10
65.3026893370764
20
-4.45289240025116
30
0
41
1
10
65.3058205846776
20
-4.4303950129021
30
0
0
SPLINE
5
CE
100
AcDbEntity
8
1
62
256
6
ByLayer
370
18
48
1
60
0
100
AcDbSpline
70
4
71
3
72
20
73
16
40
0
40
0
40
0
40
0
40
0.249999999999994
40
0.249999999999994
40
0.374999999999995
40
0.374999999999995
40
0.499999999999996
40
0.499999999999996
40
0.624999999999997
40
0.624999999999997
40
0.749999999999998
40
0.749999999999998
40
0.874999999999999
40
0.874999999999999
40
1
40
1
40
1
40
1
41
1
10
66.3052824332413
20
-1.05626835904161
30
0
41
1
10
66.3541328842997
20
-1.03170465344098
30
0
41
1
10
66.4070532662124
20
-0.985189169713323
30
0
41
1
10
66.4931534282678
20
-0.883890572487189
30
0
41
1
10
66.5227808479932
20
-0.844964897076494
30
0
41
1
10
66.5823911130888
20
-0.759290356232185
30
0
41
1
10
66.6125911496874
20
-0.712290523158487
30
0
41
1
10
66.6737849218245
20
-0.610208402068423
30
0
41
1
10
66.7048791035655
20
-0.554885916894165
30
0
41
1
10
66.7660562637936
20
-0.439547308321238
30
0
41
1
10
66.7963584033906
20
-0.379187399677164
30
0
41
1
10
66.8563641679725
20
-0.253347263507834
30
0
41
1
10
66.8862465862267
20
-0.187439918238653
30
0
41
1
10
66.9443201460226
20
-0.0528755229842375
30
0
41
1
10
66.9724833991934
20
0.0156655802875036
30
0
41
1
10
66.9997802955851
20
0.0853980411116311
30
0
0
SPLINE
5
CF
100
AcDbEntity
8
1
62
256
6
ByLayer
370
18
48
1
60
0
100
AcDbSpline
70
4
71
3
72
28
73
24
40
0
40
0
40
0
40
0
40
0.124999999999998
40
0.124999999999998
40
0.249999999999997
40
0.249999999999997
40
0.374999999999995
40
0.374999999999995
40
0.499999999999994
40
0.499999999999994
40
0.624999999999992
40
0.624999999999992
40
0.74999999999999
40
0.74999999999999
40
0.812499999999993
40
0.812499999999993
40
0.874999999999995
40
0.874999999999995
40
0.937499999999998
40
0.937499999999998
40
0.968749999999999
40
0.968749999999999
40
1
40
1
40
1
40
1
41
1
10
25.9992817029038
20
-2.34628407925129
30
0
41
1
10
25.7753172118032
20
-2.25565048400347
30
0
41
1
10
25.5469159614783
20
-2.18015879546562
30
0
41
1
10
25.0823571027434
20
-2.05670475031633
30
0
41
1
10
24.8461933447489
20
-2.00875495496911
30
0
41
1
10
24.3665672582831
20
-1.93941674280217
30
0
41
1
10
24.1221165564322
20
-1.91812128553124
30
0
41
1
10
23.6373546455588
20
-1.90269270807718
30
0
41
1
10
23.3957812153345
20
-1.90824919892194
30
0
41
1
10
22.9142746289174
20
-1.94624331632957
30
0
41
1
10
22.6743361809459
20
-1.97860006074745
30
0
41
1
10
22.1963734652502
20
-2.07420889830712
30
0
41
1
10
21.9611508014943
20
-2.13681469280715
30
0
41
1
10
21.6190472071242
20
-2.25846086538206
30
0
41
1
10
21.5062285513399
20
-2.30396211498345
30
0
41
1
10
21.2886259326407
20
-2.40506337170459
30
0
41
1
10
21.1835194896238
20
-2.46068675945608
30
0
41
1
10
20.9831205089659
20
-2.58509944489876
30
0
41
1
10
20.8874864867069
20
-2.65396628998022
30
0
41
1
10
20.7560529464602
20
-2.77144273721615
30
0
41
1
10
20.7149858583371
20
-2.81237784859198
30
0
41
1
10
20.6394787262888
20
-2.89847389774261
30
0
41
1
10
20.6048363393885
20
-2.94393607343639
30
0
41
1
10
20.5748307362105
20
-2.99133810620631
30
0
0
SPLINE
5
D0
100
AcDbEntity
8
1
62
256
6
ByLayer
370
18
48
1
60
0
100
AcDbSpline
70
4
71
3
72
22
73
18
40
0
40
0
40
0
40
0
40
0.0471018810036469
40
0.0471018810036469
40
0.237681504802917
40
0.237681504802917
40
0.428261128602188
40
0.428261128602188
40
0.618840752401459
40
0.618840752401459
40
0.714130564301094
40
0.714130564301094
40
0.809420376200729
40
0.809420376200729
40
0.904710188100365
40
0.904710188100365
40
1
40
1
40
1
40
1
41
1
10
64.9897420235497
20
0.390824012565616
30
0
41
1
10
64.9966116103117
20
0.400943915810331
30
0
41
1
10
65.0039531951687
20
0.411745472752074
30
0
41
1
10
65.0433210664235
20
0.469778415056737
30
0
41
1
10
65.0815036294487
20
0.526412531120826
30
0
41
1
10
65.1685346128326
20
0.658439334561564
30
0
41
1
10
65.2181565280232
20
0.735042572308231
30
0
41
1
10
65.3241341527177
20
0.9011917645621
30
0
41
1
10
65.3806476456261
20
0.991012450554535
30
0
41
1
10
65.4716772700876
20
1.13516792250323
30
0
41
1
10
65.5028975386746
20
1.18449536215479
30
0
41
1
10
65.5665395583561
20
1.28387918339016
30
0
41
1
10
65.5990891938351
20
1.33415893235198
30
0
41
1
10
65.6664186209921
20
1.43536448165523
30
0
41
1
10
65.7011723202298
20
1.48630621704393
30
0
41
1
10
65.7745241259333
20
1.58785762675771
30
0
41
1
10
65.8131343917128
20
1.63856342830235
30
0
41
1
10
65.8546462428328
20
1.68693551738951
30
0
0
SPLINE
5
D1
100
AcDbEntity
8
1
62
256
6
ByLayer
370
18
48
1
60
0
100
AcDbSpline
70
4
71
3
72
14
73
10
40
0
40
0
40
0
40
0
40
0.25
40
0.25
40
0.5
40
0.5
40
0.75
40
0.75
40
1
40
1
40
1
40
1
41
1
10
34.7865497455891
20
-5.25348046904364
30
0
41
1
10
34.0574416164788
20
-5.06679203215953
30
0
41
1
10
33.3273802748275
20
-4.86402678755329
30
0
41
1
10
31.8654360661176
20
-4.43148817567621
30
0
41
1
10
31.1335549881646
20
-4.20167740405944
30
0
41
1
10
29.6683372229624
20
-3.71672978809562
30
0
41
1
10
28.9349987082964
20
-3.46159498431118
30
0
41
1
10
27.4675033650459
20
-2.92487773258605
30
0
41
1
10
26.7333396478552
20
-2.64334148484122
30
0
41
1
10
25.999281702889
20
-2.34628407924532
30
0
0
SPLINE
5
D2
100
AcDbEntity
8
1
62
256
6
ByLayer
370
18
48
1
60
0
100
AcDbSpline
70
4
71
3
72
8
73
4
40
0
40
0
40
0
40
0
40
1
40
1
40
1
40
1
41
1
10
65.2919737198013
20
-4.50458837138117
30
0
41
1
10
65.3108740105112
20
-4.54792992033157
30
0
41
1
10
65.3322074531178
20
-4.58132030569999
30
0
41
1
10
65.3562475214933
20
-4.60520770899117
30
0
0
SPLINE
5
D3
100
AcDbEntity
8
1
62
256
6
ByLayer
370
18
48
1
60
0
100
AcDbSpline
70
4
71
3
72
18
73
14
40
0
40
0
40
0
40
0
40
0.250000000000001
40
0.250000000000001
40
0.375000000000001
40
0.375000000000001
40
0.500000000000001
40
0.500000000000001
40
0.75
40
0.75
40
0.875
40
0.875
40
1
40
1
40
1
40
1
41
1
10
64.8523937470072
20
0.458572880599917
30
0
41
1
10
64.803949304871
20
0.221187777964644
30
0
41
1
10
64.7649452600346
20
-0.0166855661161094
30
0
41
1
10
64.7206382549726
20
-0.37422993381486
30
0
41
1
10
64.7082464595656
20
-0.493534334818747
30
0
41
1
10
64.6883602569769
20
-0.732396421495594
30
0
41
1
10
64.680847783976
20
-0.85256936812101
30
0
41
1
10
64.6662016661805
20
-1.20813765668981
30
0
41
1
10
64.666784770575
20
-1.43837770918319
30
0
41
1
10
64.6827457550827
20
-1.77381531904004
30
0
41
1
10
64.6905926561241
20
-1.88396609669135
30
0
41
1
10
64.7114125627515
20
-2.10089614813128
30
0
41
1
10
64.7244324350146
20
-2.20790242169744
30
0
41
1
10
64.7398991923604
20
-2.31197499563712
30
0
0
SPLINE
5
D4
100
AcDbEntity
8
1
62
256
6
ByLayer
370
18
48
1
60
0
100
AcDbSpline
70
4
71
3
72
18
73
14
40
0
40
0
40
0
40
0
40
0.250000000000003
40
0.250000000000003
40
0.375000000000003
40
0.375000000000003
40
0.500000000000003
40
0.500000000000003
40
0.750000000000002
40
0.750000000000002
40
0.875000000000001
40
0.875000000000001
40
1
40
1
40
1
40
1
41
1
10
65.2538578497715
20
-4.31205603434313
30
0
41
1
10
65.1664752031008
20
-4.23034767883871
30
0
41
1
10
65.0889608469247
20
-4.12680799983087
30
0
41
1
10
64.9879711915265
20
-3.9376908384005
30
0
41
1
10
64.9568691270841
20
-3.86898582025094
30
0
41
1
10
64.9000642393215
20
-3.71963120452628
30
0
41
1
10
64.8744175452083
20
-3.6389285732202
30
0
41
1
10
64.8075307342633
20
-3.38398152239401
30
0
41
1
10
64.7755692979734
20
-3.19537044304369
30
0
41
1
10
64.7470677570473
20
-2.88375203335193
30
0
41
1
10
64.7408186680011
20
-2.7746426512808
30
0
41
1
10
64.7352197491375
20
-2.54826661926617
30
0
41
1
10
64.7358607266764
20
-2.43175959506579
30
0
41
1
10
64.7398991923604
20
-2.31197499563712
30
0
0
SPLINE
5
D5
100
AcDbEntity
8
1
62
256
6
ByLayer
370
18
48
1
60
0
100
AcDbSpline
70
4
71
3
72
10
73
6
40
0
40
0
40
0
40
0
40
0.994344718866467
40
0.994344718866467
40
1
40
1
40
1
40
1
41
1
10
30.1424344035711
20
-4.96939092952056
30
0
41
1
10
30.5974942228937
20
-4.76668644890819
30
0
41
1
10
31.0476331037039
20
-4.54417863621634
30
0
41
1
10
31.4990518644061
20
-4.30449027790596
30
0
41
1
10
31.5016047068806
20
-4.30313424686071
30
0
41
1
10
31.5041574921076
20
-4.3017776901516
30
0
0
SPLINE
5
D6
100
AcDbEntity
8
1
62
256
6
ByLayer
370
18
48
1
60
0
100
AcDbSpline
70
4
71
3
72
10
73
6
40
0
40
0
40
0
40
0
40
0.665639552653886
40
0.665639552653886
40
1
40
1
40
1
40
1
41
1
10
34.7865497455891
20
5.25348046904364
30
0
41
1
10
34.0574416164791
20
5.06679203215958
30
0
41
1
10
33.327380274828
20
4.86402678755343
30
0
41
1
10
32.2292302303478
20
4.53912225765251
30
0
41
1
10
31.8618229380678
20
4.42707025202117
30
0
41
1
10
31.4942092557067
20
4.31171280034616
30
0
0
SPLINE
5
D7
100
AcDbEntity
8
1
62
256
6
ByLayer
370
18
48
1
60
0
100
AcDbSpline
70
4
71
3
72
14
73
10
40
0
40
0
40
0
40
0
40
0.25
40
0.25
40
0.500000000000001
40
0.500000000000001
40
0.750000000000001
40
0.750000000000001
40
1
40
1
40
1
40
1
41
1
10
65.85464624283
20
1.68693551738593
30
0
41
1
10
65.8780537524793
20
1.71421134613118
30
0
41
1
10
65.8988015227972
20
1.74318067346056
30
0
41
1
10
65.93370607103
20
1.80531591842794
30
0
41
1
10
65.9479926035779
20
1.83911626251771
30
0
41
1
10
65.9673267976207
20
1.90821747975281
30
0
41
1
10
65.9725530697778
20
1.94345859657395
30
0
41
1
10
65.9746489684031
20
2.01524021323132
30
0
41
1
10
65.9714297596618
20
2.05170581906535
30
0
41
1
10
65.9647411201003
20
2.08739716645505
30
0
0
SPLINE
5
D8
100
AcDbEntity
8
1
62
256
6
ByLayer
370
13
48
1
60
0
100
AcDbSpline
70
4
71
3
72
36
73
32
40
0
40
0
40
0
40
0
40
0.0852206168761802
40
0.0852206168761802
40
0.17044123375236
40
0.17044123375236
40
0.213051542190451
40
0.213051542190451
40
0.255661850628542
40
0.255661850628542
40
0.340882467504724
40
0.340882467504724
40
0.511323701257086
40
0.511323701257086
40
0.553934009695176
40
0.553934009695176
40
0.596544318133267
40
0.596544318133267
40
0.681764935009451
40
0.681764935009451
40
0.766985551885634
40
0.766985551885634
40
0.809595860323727
40
0.809595860323727
40
0.852206168761819
40
0.852206168761819
40
0.937426785638002
40
0.937426785638002
40
0.980037094076093
40
0.980037094076093
40
1
40
1
40
1
40
1
41
1
10
65.2538578497714
20
-4.31205603434313
30
0
41
1
10
64.6677512857287
20
-4.21657287576301
30
0
41
1
10
64.0848707947118
20
-4.09217382522309
30
0
41
1
10
62.9209434166074
20
-3.79053296642107
30
0
41
1
10
62.3399242008967
20
-3.61322913665643
30
0
41
1
10
61.4655907856955
20
-3.31190515766434
30
0
41
1
10
61.1737230465187
20
-3.20555951392137
30
0
41
1
10
60.5885626661716
20
-2.98171234875673
30
0
41
1
10
60.2946093893643
20
-2.86394819340555
30
0
41
1
10
59.4145397327003
20
-2.49720703108898
30
0
41
1
10
58.8318877163484
20
-2.23574490703686
30
0
41
1
10
57.0883011209643
20
-1.41483295653663
30
0
41
1
10
55.9322265608637
20
-0.817775710692246
30
0
41
1
10
54.4700555800173
20
-0.0560734209172438
30
0
41
1
10
54.1761722029746
20
0.0973841739300099
30
0
41
1
10
53.5889667527241
20
0.40303454821813
30
0
41
1
10
53.2963379553094
20
0.554667911964572
30
0
41
1
10
52.4206163978236
20
1.00487272554858
30
0
41
1
10
51.8397668056903
20
1.29881359728782
30
0
41
1
10
50.6787347095795
20
1.86423076744776
30
0
41
1
10
50.0984326926557
20
2.13560230862078
30
0
41
1
10
49.2250063862989
20
2.5198557115796
30
0
41
1
10
48.9333674310788
20
2.64411803802983
30
0
41
1
10
48.3483580534496
20
2.88365412331572
30
0
41
1
10
48.0546444628441
20
2.99908454004239
30
0
41
1
10
47.1724032858345
20
3.32954955587382
30
0
41
1
10
46.5856311866504
20
3.52753771877738
30
0
41
1
10
45.7039147210004
20
3.78670396680718
30
0
41
1
10
45.4095532044319
20
3.86677588466742
30
0
41
1
10
44.9778696890882
20
3.97400757424938
30
0
41
1
10
44.8401811210896
20
4.00668857862371
30
0
41
1
10
44.702501070968
20
4.03783815576492
30
0
0
SPLINE
5
D9
100
AcDbEntity
8
1
62
256
6
ByLayer
370
18
48
1
60
0
100
AcDbSpline
70
4
71
3
72
10
73
6
40
0
40
0
40
0
40
0
40
0.5
40
0.5
40
1
40
1
40
1
40
1
41
1
10
65.9647410221993
20
2.08739716175637
30
0
41
1
10
65.9326810156139
20
2.2584730729609
30
0
41
1
10
65.9227907460809
20
2.42774096522345
30
0
41
1
10
65.9242955501493
20
2.76454085435375
30
0
41
1
10
65.9361786841212
20
2.9320330488149
30
0
41
1
10
65.9543338398283
20
3.09901373797575
30
0
0
SPLINE
5
DA
100
AcDbEntity
8
1
62
256
6
ByLayer
370
18
48
1
60
0
100
AcDbSpline
70
4
71
1
72
4
73
2
40
0
40
0
40
1
40
1
41
1
10
65.3058205846672
20
-4.43039501295019
30
0
41
1
10
66.3052824332593
20
-1.05626835903686
30
0
0
SPLINE
5
DB
100
AcDbEntity
8
1
62
256
6
ByLayer
370
13
48
1
60
0
100
AcDbSpline
70
4
71
3
72
60
73
56
40
0
40
0
40
0
40
0
40
0.0081450508693578
40
0.0369947855963974
40
0.0514196529599171
40
0.0658445203234367
40
0.0946942550504763
40
0.109119122413996
40
0.123543989777516
40
0.152393724504555
40
0.166818591868075
40
0.181243459231595
40
0.210093193958634
40
0.224518061322154
40
0.238942928685674
40
0.267792663412713
40
0.282217530776233
40
0.296642398139753
40
0.325492132866792
40
0.339917000230312
40
0.354341867593832
40
0.383191602320871
40
0.397616469684391
40
0.412041337047911
40
0.440891071774951
40
0.45531593913847
40
0.46974080650199
40
0.49859054122903
40
0.513015408592549
40
0.527440275956069
40
0.556290010683108
40
0.570714878046628
40
0.585139745410148
40
0.613989480137187
40
0.628414347500707
40
0.642839214864227
40
0.671688949591267
40
0.686113816954787
40
0.700538684318306
40
0.729388419045346
40
0.743813286408865
40
0.758238153772385
40
0.787087888499424
40
0.801512755862944
40
0.815937623226464
40
0.844787357953504
40
0.859212225317023
40
0.873637092680543
40
0.902486827407582
40
0.916911694771102
40
0.931336562134622
40
0.960186296861662
40
0.974611164225181
40
0.989036031588701
40
1
40
1
40
1
40
1
41
1
10
56.5281492274871
20
-1.87180795702488
30
0
41
1
10
56.4806055270932
20
-1.87688843399928
30
0
41
1
10
56.2646685602271
20
-1.89957091630851
30
0
41
1
10
55.9645010819742
20
-1.92868034055314
30
0
41
1
10
55.6276333109357
20
-1.95810336904972
30
0
41
1
10
55.290849340999
20
-1.98514769971146
30
0
41
1
10
54.9540216372465
20
-2.00889107078834
30
0
41
1
10
54.617153332482
20
-2.02930956872319
30
0
41
1
10
54.2803693456842
20
-2.04723686891165
30
0
41
1
10
53.9435422301128
20
-2.0617938637225
30
0
41
1
10
53.6066748316809
20
-2.0729701071237
30
0
41
1
10
53.2698918241789
20
-2.08156485852652
30
0
41
1
10
52.9330656700799
20
-2.08674854679623
30
0
41
1
10
52.5961989141061
20
-2.08852491112046
30
0
41
1
10
52.259416229145
20
-2.08765359015413
30
0
41
1
10
51.9225898026922
20
-2.08336052070533
30
0
41
1
10
51.585722075276
20
-2.07566403563698
30
0
41
1
10
51.248938355947
20
-2.0652885741429
30
0
41
1
10
50.9121110944175
20
-2.05153968413015
30
0
41
1
10
50.5752432944109
20
-2.03447820877958
30
0
41
1
10
50.2384597711098
20
-2.01476107696661
30
0
41
1
10
49.9016330056406
20
-1.99177875560602
30
0
41
1
10
49.5647655896168
20
-1.96560721389255
30
0
41
1
10
49.2279822256399
20
-1.93683257836565
30
0
41
1
10
48.8911553597932
20
-1.90493736725165
30
0
41
1
10
48.5542878140358
20
-1.87001638893435
30
0
41
1
10
48.2175044310131
20
-1.83257739971791
30
0
41
1
10
47.880677545501
20
-1.79219914788584
30
0
41
1
10
47.5438098237352
20
-1.7489912100562
30
0
41
1
10
47.2070263392222
20
-1.70338248175659
30
0
41
1
10
46.8701995585749
20
-1.65505806642355
30
0
41
1
10
46.533332253962
20
-1.60415158327254
30
0
41
1
10
46.196549135025
20
-1.55099982222148
30
0
41
1
10
45.8597225505234
20
-1.4953970157579
30
0
41
1
10
45.5228549714526
20
-1.43749034576877
30
0
41
1
10
45.1860713589692
20
-1.3775218942356
30
0
41
1
10
44.8492441691903
20
-1.3153971331248
30
0
41
1
10
44.5123763694375
20
-1.25127608192034
30
0
41
1
10
44.1755928126691
20
-1.18530396549323
30
0
41
1
10
43.8387659374027
20
-1.117498910861
30
0
41
1
10
43.5018984379973
20
-1.04803268223796
30
0
41
1
10
43.1651151632933
20
-0.976951682196415
30
0
41
1
10
42.8282885587408
20
-0.904386987344196
30
0
41
1
10
42.4914213330002
20
-0.830520427158518
30
0
41
1
10
42.1546382406078
20
-0.755298936868144
30
0
41
1
10
41.8178115620154
20
-0.678966326804726
30
0
41
1
10
41.4809438087678
20
-0.601713614222604
30
0
41
1
10
41.1441601114696
20
-0.523384815769873
30
0
41
1
10
40.8073329414837
20
-0.444329447368943
30
0
41
1
10
40.470465239327
20
-0.364737062767148
30
0
41
1
10
40.1336817840395
20
-0.28435788362944
30
0
41
1
10
39.7968550257288
20
-0.203645354144783
30
0
41
1
10
39.4599875583733
20
-0.122795128349026
30
0
41
1
10
39.2276007757409
20
-0.0666730158941675
30
0
41
1
10
39.0793986168612
20
-0.0309009554425188
30
0
41
1
10
39.0153966424135
20
-0.0154596217488177
30
0
0
SPLINE
5
DC
100
AcDbEntity
8
1
62
256
6
ByLayer
370
18
48
1
60
0
100
AcDbSpline
70
4
71
3
72
8
73
4
40
0
40
0
40
0
40
0
40
1
40
1
40
1
40
1
41
1
10
66.9997802955851
20
0.0853980411116027
30
0
41
1
10
66.929259785271
20
0.276055019218973
30
0
41
1
10
66.8604055427982
20
0.468239228734916
30
0
41
1
10
66.7930320692839
20
0.661926534325062
30
0
0
SPLINE
5
DD
100
AcDbEntity
8
1
62
256
6
ByLayer
370
18
48
1
60
0
100
AcDbSpline
70
4
71
3
72
10
73
6
40
0
40
0
40
0
40
0
40
0.013025895973186
40
0.013025895973186
40
1
40
1
40
1
40
1
41
1
10
40.7482745798115
20
-4.48775974545157
30
0
41
1
10
40.7407167918777
20
-4.48773876795906
30
0
41
1
10
40.7331590390323
20
-4.48771261112717
30
0
41
1
10
40.1529514675598
20
-4.48530681124927
30
0
41
1
10
39.5805638553476
20
-4.45313870146717
30
0
41
1
10
39.0060825249857
20
-4.39213305958995
30
0
0
SPLINE
5
DE
100
AcDbEntity
8
1
62
256
6
ByLayer
370
13
48
1
60
0
100
AcDbSpline
70
4
71
3
72
12
73
8
40
0
40
0
40
0
40
0
40
0.0147785510634215
40
0.0147785510634215
40
0.507389275531713
40
0.507389275531713
40
1
40
1
40
1
40
1
41
1
10
39.0060835194219
20
-4.39213316519167
30
0
41
1
10
38.997334940026
20
-4.39120413167143
30
0
41
1
10
38.988585875072
20
-4.39026841038103
30
0
41
1
10
38.6881888809251
20
-4.35791296936856
30
0
41
1
10
38.3959766987378
20
-4.3190052717992
30
0
41
1
10
37.8098044433505
20
-4.22614542138109
30
0
41
1
10
37.5151206630826
20
-4.17201614370478
30
0
41
1
10
37.2213
20
-4.11096940428146
30
0
0
SPLINE
5
DF
100
AcDbEntity
8
1
62
256
6
ByLayer
370
18
48
1
60
0
100
AcDbSpline
70
4
71
4
72
10
73
5
40
0
40
0
40
0
40
0
40
0
40
1
40
1
40
1
40
1
40
1
41
1
10
34.7865497455891
20
5.25348046904361
30
0
41
1
10
34.5453462154669
20
4.67120227574011
30
0
41
1
10
34.3041426853445
20
4.08892408243662
30
0
41
1
10
34.0629391552222
20
3.5066458891331
30
0
41
1
10
33.8217356250999
20
2.9243676958296
30
0
0
SPLINE
5
E0
100
AcDbEntity
8
1
62
256
6
ByLayer
370
18
48
1
60
0
100
AcDbSpline
70
4
71
3
72
8
73
4
40
0
40
0
40
0
40
0
40
1
40
1
40
1
40
1
41
1
10
66.9997802955851
20
0.0853980411116311
30
0
41
1
10
67.0000732347943
20
0.0284660137078276
30
0
41
1
10
67.0000732347943
20
-0.0284660136959474
30
0
41
1
10
66.9997802955851
20
-0.0853980410997508
30
0
0
SPLINE
5
E1
100
AcDbEntity
8
1
62
256
6
ByLayer
370
18
48
1
60
0
100
AcDbSpline
70
4
71
3
72
42
73
38
40
0
40
0
40
0
40
0
40
0.0350446338678202
40
0.0350446338678202
40
0.0700892677356404
40
0.0700892677356404
40
0.105133901603461
40
0.105133901603461
40
0.140178535471281
40
0.140178535471281
40
0.280357070942559
40
0.280357070942559
40
0.315401704810379
40
0.315401704810379
40
0.350446338678199
40
0.350446338678199
40
0.420535606413838
40
0.420535606413838
40
0.560714141885118
40
0.560714141885118
40
0.595758775752937
40
0.595758775752937
40
0.630803409620757
40
0.630803409620757
40
0.700892677356398
40
0.700892677356398
40
0.770981945092039
40
0.770981945092039
40
0.80602657895986
40
0.80602657895986
40
0.84107121282768
40
0.84107121282768
40
0.911160480563323
40
0.911160480563323
40
0.981249748298965
40
0.981249748298965
40
1
40
1
40
1
40
1
41
1
10
65.2919737197972
20
-4.50458837138311
30
0
41
1
10
64.997212089728
20
-4.46490251981953
30
0
41
1
10
64.7033542101775
20
-4.41720661986565
30
0
41
1
10
64.1151570466265
20
-4.30707508497167
30
0
41
1
10
63.8210896610188
20
-4.2445090091629
30
0
41
1
10
63.232413652688
20
-4.10480930171397
30
0
41
1
10
62.937598594922
20
-4.02758156941781
30
0
41
1
10
62.3509325548773
20
-3.86031598048638
30
0
41
1
10
62.0585270860063
20
-3.77022939291476
30
0
41
1
10
60.5997111724939
20
-3.28960806122589
30
0
41
1
10
59.4426577118647
20
-2.80867558928546
30
0
41
1
10
57.9828430234462
20
-2.12466434567779
30
0
41
1
10
57.6901899644794
20
-1.983754321438
30
0
41
1
10
57.1028684788751
20
-1.69466799314608
30
0
41
1
10
56.8076089748722
20
-1.54617051218361
30
0
41
1
10
55.9266151199311
20
-1.09589115080354
30
0
41
1
10
55.3431534550546
20
-0.788552235438715
30
0
41
1
10
53.5969707851405
20
0.140776675246343
30
0
41
1
10
52.4383228017083
20
0.769829152414246
30
0
41
1
10
50.9706876503769
20
1.51801241076743
30
0
41
1
10
50.6753645620648
20
1.66602848638561
30
0
41
1
10
50.0871120522332
20
1.95464272336594
30
0
41
1
10
49.7940240468058
20
2.09524131775507
30
0
41
1
10
48.9168820365913
20
2.50444898234443
30
0
41
1
10
48.334969718522
20
2.7604953616092
30
0
41
1
10
47.1716102494272
20
3.23147806963897
30
0
41
1
10
46.5901243140312
20
3.44636490442079
30
0
41
1
10
45.7144081169729
20
3.73249404218541
30
0
41
1
10
45.4219135058558
20
3.8218275344104
30
0
41
1
10
44.8350857374923
20
3.98750614035188
30
0
41
1
10
44.5400695819111
20
4.06400113794692
30
0
41
1
10
43.6563576694844
20
4.27159818277002
30
0
41
1
10
43.0714517752013
20
4.38001179869403
30
0
41
1
10
41.9051117342696
20
4.53567264677733
30
0
41
1
10
41.3238831797609
20
4.5829439302498
30
0
41
1
10
40.5858157564542
20
4.60323076048465
30
0
41
1
10
40.4299810123202
20
4.6052809283575
30
0
41
1
10
40.2740371085753
20
4.60509117995755
30
0
0
SPLINE
5
E2
100
AcDbEntity
8
1
62
256
6
ByLayer
370
18
48
1
60
0
100
AcDbSpline
70
4
71
3
72
8
73
4
40
0
40
0
40
0
40
0
40
1
40
1
40
1
40
1
41
1
10
65.3562475214933
20
4.60520770899117
30
0
41
1
10
65.5530314724203
20
4.12353922987504
30
0
41
1
10
65.7548119479554
20
3.623102754212
30
0
41
1
10
65.9543338398257
20
3.0990137379745
30
0
0
SPLINE
5
E3
100
AcDbEntity
8
1
62
256
6
ByLayer
370
18
48
1
60
0
100
AcDbSpline
70
4
71
3
72
8
73
4
40
0
40
0
40
0
40
0
40
1
40
1
40
1
40
1
41
1
10
35.5360784769402
20
-5.53465708492891
30
0
41
1
10
35.2859420335426
20
-5.44788089336478
30
0
41
1
10
35.0361666801996
20
-5.35413404387126
30
0
41
1
10
34.7865497455891
20
-5.25348046904367
30
0
0
SPLINE
5
E4
100
AcDbEntity
8
1
62
256
6
ByLayer
370
18
48
1
60
0
100
AcDbSpline
70
4
71
3
72
62
73
58
40
0
40
0
40
0
40
0
40
0.0624999999999991
40
0.0624999999999991
40
0.0937499999999987
40
0.0937499999999987
40
0.124999999999998
40
0.124999999999998
40
0.156249999999998
40
0.156249999999998
40
0.187499999999997
40
0.187499999999997
40
0.218749999999997
40
0.218749999999997
40
0.249999999999996
40
0.249999999999996
40
0.281249999999996
40
0.281249999999996
40
0.312499999999996
40
0.312499999999996
40
0.343749999999995
40
0.343749999999995
40
0.374999999999995
40
0.374999999999995
40
0.406249999999994
40
0.406249999999994
40
0.437499999999994
40
0.437499999999994
40
0.468749999999993
40
0.468749999999993
40
0.499999999999993
40
0.499999999999993
40
0.531249999999992
40
0.531249999999992
40
0.562499999999992
40
0.562499999999992
40
0.624999999999992
40
0.624999999999992
40
0.656249999999993
40
0.656249999999993
40
0.687499999999993
40
0.687499999999993
40
0.718749999999994
40
0.718749999999994
40
0.749999999999995
40
0.749999999999995
40
0.781249999999995
40
0.781249999999995
40
0.812499999999996
40
0.812499999999996
40
0.843749999999997
40
0.843749999999997
40
0.874999999999997
40
0.874999999999997
40
0.937499999999999
40
0.937499999999999
40
1
40
1
40
1
40
1
41
1
10
65.3562475214933
20
-4.60520770899117
30
0
41
1
10
64.7700580794854
20
-4.56043195937701
30
0
41
1
10
64.1853361769997
20
-4.48435875755101
30
0
41
1
10
63.3077843847475
20
-4.32485617459739
30
0
41
1
10
63.0149346727804
20
-4.26427195980835
30
0
41
1
10
62.4283714126095
20
-4.12834280150236
30
0
41
1
10
62.1349387875267
20
-4.05310329248675
30
0
41
1
10
61.5492107531107
20
-3.88951894985749
30
0
41
1
10
61.2568322406131
20
-3.80083940143231
30
0
41
1
10
60.6715509015362
20
-3.61135077429836
30
0
41
1
10
60.3791853220164
20
-3.50992517117365
30
0
41
1
10
59.7930980270982
20
-3.29597307221022
30
0
41
1
10
59.4995216297019
20
-3.18261568389212
30
0
41
1
10
58.9129580415853
20
-2.94609689102722
30
0
41
1
10
58.6200424831073
20
-2.82294768254562
30
0
41
1
10
58.0348724126913
20
-2.56700445122311
30
0
41
1
10
57.7421110668239
20
-2.43499607017361
30
0
41
1
10
57.1567958742261
20
-2.16202203255622
30
0
41
1
10
56.8636887702062
20
-2.02195339356939
30
0
41
1
10
56.2767804253965
20
-1.73426700210752
30
0
41
1
10
55.9832070095804
20
-1.58737170070083
30
0
41
1
10
55.397267921951
20
-1.28920830971793
30
0
41
1
10
55.1046594142471
20
-1.13772430717913
30
0
41
1
10
54.5191057203099
20
-0.831892874370624
30
0
41
1
10
54.2265262352829
20
-0.676869199200752
30
0
41
1
10
53.6400571699817
20
-0.36576590951023
30
0
41
1
10
53.3463736910447
20
-0.208369408589419
30
0
41
1
10
52.7594593713432
20
0.104852486776963
30
0
41
1
10
52.4665727133261
20
0.261492425756757
30
0
41
1
10
51.8810018780601
20
0.573063169533157
30
0
41
1
10
51.5881201849855
20
0.727628503600158
30
0
41
1
10
51.0024576972261
20
1.03486145923876
30
0
41
1
10
50.7090933825273
20
1.18644981167944
30
0
41
1
10
50.1218268828696
20
1.48652932896061
30
0
41
1
10
49.8281299137057
20
1.63380501446545
30
0
41
1
10
48.9489446693868
20
2.06635364578276
30
0
41
1
10
48.3639615477396
20
2.34182798458772
30
0
41
1
10
47.4837842102042
20
2.72844828713787
30
0
41
1
10
47.1899061710115
20
2.85353958652243
30
0
41
1
10
46.6027089223088
20
3.09196187674985
30
0
41
1
10
46.3098242920616
20
3.20623767558419
30
0
41
1
10
45.7237861574381
20
3.42261980906369
30
0
41
1
10
45.4308852887283
20
3.52508639577292
30
0
41
1
10
44.8447985339362
20
3.71787003976763
30
0
41
1
10
44.5512468223452
20
3.8077826160129
30
0
41
1
10
43.9636263418546
20
3.97509868738797
30
0
41
1
10
43.6698232272683
20
4.0516369601927
30
0
41
1
10
43.0835108735059
20
4.190760242626
30
0
41
1
10
42.7904686165644
20
4.25303452284822
30
0
41
1
10
42.2044227850678
20
4.36293230847141
30
0
41
1
10
41.9113417416752
20
4.4104845822614
30
0
41
1
10
41.3242326984238
20
4.49027930450899
30
0
41
1
10
41.0300633141087
20
4.52263754164818
30
0
41
1
10
40.1494021976694
20
4.59565395331708
30
0
41
1
10
39.5650027003493
20
4.61288299473105
30
0
41
1
10
38.3949687727693
20
4.58427901171967
30
0
41
1
10
37.809432311928
20
4.53860177226795
30
0
41
1
10
37.2213000000001
20
4.46151414462455
30
0
0
SPLINE
5
E5
100
AcDbEntity
8
1
62
256
6
ByLayer
370
18
48
1
60
0
100
AcDbSpline
70
4
71
3
72
8
73
4
40
0
40
0
40
0
40
0
40
1
40
1
40
1
40
1
41
1
10
66.9997802955884
20
-0.0853980411024793
30
0
41
1
10
66.9291346081724
20
-0.276393443987018
30
0
41
1
10
66.8602849425216
20
-0.468585934068699
30
0
41
1
10
66.7930320692838
20
-0.661926534325261
30
0
0
SPLINE
5
E6
100
AcDbEntity
8
1
62
256
6
ByLayer
370
18
48
1
60
0
100
AcDbSpline
70
4
71
3
72
10
73
6
40
0
40
0
40
0
40
0
40
0.5
40
0.5
40
1
40
1
40
1
40
1
41
1
10
65.3058205846707
20
-4.43039501295124
30
0
41
1
10
65.3025433129595
20
-4.40116876938922
30
0
41
1
10
65.2955516106317
20
-4.37753466514081
30
0
41
1
10
65.2774010057237
20
-4.33870641416146
30
0
41
1
10
65.2663553173927
20
-4.32374196474373
30
0
41
1
10
65.2538578497715
20
-4.31205603434313
30
0
0
SPLINE
5
E7
100
AcDbEntity
8
1
62
256
6
ByLayer
370
13
48
1
60
0
100
AcDbSpline
70
4
71
3
72
20
73
16
40
0
40
0
40
0
40
0
40
0.0848873768884891
40
0.149979057559251
40
0.215070738230008
40
0.345254099571529
40
0.410345780242291
40
0.475437460913051
40
0.605620822254568
40
0.670712502925325
40
0.735804183596087
40
0.865987544937608
40
0.931079225608368
40
0.99617090627913
40
1
40
1
40
1
40
1
41
1
10
65.9647411210223
20
2.08739716153386
30
0
41
1
10
65.8549231351553
20
2.0869522194304
30
0
41
1
10
65.6609072650674
20
2.08531039314491
30
0
41
1
10
65.3827132434446
20
2.08077932110695
30
0
41
1
10
65.0458446724074
20
2.07269789369633
30
0
41
1
10
64.7090193676561
20
2.06120957983546
30
0
41
1
10
64.3722346436637
20
2.04631603991487
30
0
41
1
10
64.0353658699554
20
2.02890703500319
30
0
41
1
10
63.6985406896794
20
2.00813297906271
30
0
41
1
10
63.3617565751709
20
1.98400865218275
30
0
41
1
10
63.0248884524906
20
1.95748019357785
30
0
41
1
10
62.6880637810065
20
1.92768075816369
30
0
41
1
10
62.3512796124462
20
1.89466140459825
30
0
41
1
10
62.1778912453901
20
1.87650884366889
30
0
41
1
10
62.0887240172383
20
1.86688107872368
30
0
41
1
10
62.0837700854444
20
1.86634527904195
30
0
0
SPLINE
5
E8
100
AcDbEntity
8
1
62
256
6
ByLayer
370
18
48
1
60
0
100
AcDbSpline
70
4
71
3
72
18
73
14
40
0
40
0
40
0
40
0
40
0.287769730568642
40
0.287769730568642
40
0.431654595852965
40
0.431654595852965
40
0.575539461137288
40
0.575539461137288
40
0.719424326421612
40
0.719424326421612
40
0.863309191705935
40
0.863309191705935
40
1
40
1
40
1
40
1
41
1
10
65.3562475214933
20
4.60520770899117
30
0
41
1
10
64.7711354744695
20
4.56051425558471
30
0
41
1
10
64.1861607615305
20
4.48453507273339
30
0
41
1
10
63.3062312182764
20
4.32456062758345
30
0
41
1
10
63.0125895373558
20
4.26376121442007
30
0
41
1
10
62.4267861664636
20
4.12794250682319
30
0
41
1
10
62.134209642481
20
4.0529081616755
30
0
41
1
10
61.5488655705428
20
3.88941402275711
30
0
41
1
10
61.2563457167711
20
3.80069614539116
30
0
41
1
10
60.6701182715207
20
3.6108726450808
30
0
41
1
10
60.3765569042735
20
3.50900414791818
30
0
41
1
10
59.8043186325228
20
3.30003222080543
30
0
41
1
10
59.5261581436238
20
3.19286704828571
30
0
41
1
10
59.2480212791434
20
3.08116941503155
30
0
0
SPLINE
5
E9
100
AcDbEntity
8
1
62
256
6
ByLayer
370
18
48
1
60
0
100
AcDbSpline
70
4
71
3
72
10
73
6
40
0
40
0
40
0
40
0
40
0.172841716000652
40
0.172841716000652
40
1
40
1
40
1
40
1
41
1
10
39.3445911518926
20
-4.60341289657205
30
0
41
1
10
39.2226546446638
20
-4.6031620775658
30
0
41
1
10
39.1006926044642
20
-4.60154162642888
30
0
41
1
10
38.3947429254421
20
-4.58422683635175
30
0
41
1
10
37.8096470199662
20
-4.53862991446141
30
0
41
1
10
37.2213
20
-4.46151414462455
30
0
0
SPLINE
5
EA
100
AcDbEntity
8
1
62
256
6
ByLayer
370
18
48
1
60
0
100
AcDbSpline
70
4
71
3
72
8
73
4
40
0
40
0
40
0
40
0
40
1
40
1
40
1
40
1
41
1
10
65.3562475214933
20
-4.60520770899117
30
0
41
1
10
65.5530554923595
20
-4.12348043622112
30
0
41
1
10
65.7548371758114
20
-3.623036487588
30
0
41
1
10
65.9543338398257
20
-3.09901373797462
30
0
0
SPLINE
5
EB
100
AcDbEntity
8
1
62
256
6
ByLayer
370
18
48
1
60
0
100
AcDbSpline
70
4
71
3
72
58
73
54
40
0
40
0
40
0
40
0
40
0.0392333158528531
40
0.0392333158528531
40
0.0784666317057062
40
0.0784666317057062
40
0.117699947558559
40
0.117699947558559
40
0.137316605484987
40
0.137316605484987
40
0.156933263411414
40
0.156933263411414
40
0.196166579264267
40
0.196166579264267
40
0.23539989511712
40
0.23539989511712
40
0.313866526822828
40
0.313866526822828
40
0.353099842675681
40
0.353099842675681
40
0.392333158528535
40
0.392333158528535
40
0.431566474381389
40
0.431566474381389
40
0.470799790234243
40
0.470799790234243
40
0.510033106087096
40
0.510033106087096
40
0.54926642193995
40
0.54926642193995
40
0.588499737792804
40
0.588499737792804
40
0.60811639571923
40
0.60811639571923
40
0.627733053645656
40
0.627733053645656
40
0.666966369498507
40
0.666966369498507
40
0.706199685351358
40
0.706199685351358
40
0.745433001204209
40
0.745433001204209
40
0.78466631705706
40
0.78466631705706
40
0.823899632909911
40
0.823899632909911
40
0.863132948762761
40
0.863132948762761
40
0.941599580468463
40
0.941599580468463
40
0.980832896321314
40
0.980832896321314
40
1
40
1
40
1
40
1
41
1
10
37.2213
20
0.681755502849796
30
0
41
1
10
37.5098880053306
20
0.534042862171361
30
0
41
1
10
37.7980310716325
20
0.385493236586058
30
0
41
1
10
38.3739267074227
20
0.0877017601979162
30
0
41
1
10
38.6616519270526
20
-0.0615955082362518
30
0
41
1
10
39.2376002274112
20
-0.359170206388285
30
0
41
1
10
39.5254912504627
20
-0.508090646711509
30
0
41
1
10
39.9580551203648
20
-0.730026873746425
30
0
41
1
10
40.1023423238415
20
-0.804052906753043
30
0
41
1
10
40.3908572314796
20
-0.951018663611819
30
0
41
1
10
40.5349166502772
20
-1.0240500349731
30
0
41
1
10
40.9671496404524
20
-1.24118028566414
30
0
41
1
10
41.254950049995
20
-1.38393946006622
30
0
41
1
10
41.8301993869681
20
-1.66500356242099
30
0
41
1
10
42.1180129232143
20
-1.80270853243849
30
0
41
1
10
42.9811444345798
20
-2.20886977462192
30
0
41
1
10
43.5591412696753
20
-2.46519890253512
30
0
41
1
10
44.4226924480001
20
-2.82382624750477
30
0
41
1
10
44.7101691224239
20
-2.93979873949058
30
0
41
1
10
45.2854740011587
20
-3.16104588866241
30
0
41
1
10
45.5730429998132
20
-3.26587580015948
30
0
41
1
10
46.1495645032866
20
-3.46397076456708
30
0
41
1
10
46.4382631565417
20
-3.55762970176349
30
0
41
1
10
47.0147167741213
20
-3.733555005959
30
0
41
1
10
47.302555983934
20
-3.81595912751499
30
0
41
1
10
47.8777720118306
20
-3.96748293281388
30
0
41
1
10
48.165559165458
20
-4.03654249950708
30
0
41
1
10
48.7409037652623
20
-4.16231432553866
30
0
41
1
10
49.0291146091236
20
-4.2170996387716
30
0
41
1
10
49.6063335777245
20
-4.31267871990656
30
0
41
1
10
49.8946512771914
20
-4.35337733787878
30
0
41
1
10
50.3265886603162
20
-4.40423395056186
30
0
41
1
10
50.470452307903
20
-4.41946484674287
30
0
41
1
10
50.7580951669425
20
-4.44689971437194
30
0
41
1
10
50.9019518632808
20
-4.45936216208759
30
0
41
1
10
51.3334996710355
20
-4.48960562545398
30
0
41
1
10
51.6211033802353
20
-4.50050307578331
30
0
41
1
10
52.1975953167255
20
-4.50818201814698
30
0
41
1
10
52.4862893744178
20
-4.50459322103231
30
0
41
1
10
53.0628720010079
20
-4.48364104305301
30
0
41
1
10
53.3507522189096
20
-4.46706435336503
30
0
41
1
10
53.9260031539568
20
-4.41654857805736
30
0
41
1
10
54.2138414341709
20
-4.38326775167971
30
0
41
1
10
54.7893171447346
20
-4.30275246342563
30
0
41
1
10
55.0775140992615
20
-4.25498482127907
30
0
41
1
10
55.6543443195039
20
-4.14664510596731
30
0
41
1
10
55.9426364328862
20
-4.08618447230901
30
0
41
1
10
56.8060844162863
20
-3.88187077782487
30
0
41
1
10
57.3804607224042
20
-3.71769554962415
30
0
41
1
10
58.244284584099
20
-3.43953847483937
30
0
41
1
10
58.5326657192069
20
-3.34043946296342
30
0
41
1
10
58.9615333009636
20
-3.18483920297609
30
0
41
1
10
59.1021948707644
20
-3.13261267823114
30
0
41
1
10
59.2427736224392
20
-3.07914973111153
30
0
0
SPLINE
5
EC
100
AcDbEntity
8
1
62
256
6
ByLayer
370
18
48
1
60
0
100
AcDbSpline
70
4
71
3
72
18
73
14
40
0
40
0
40
0
40
0
40
0.25
40
0.25
40
0.5
40
0.5
40
0.625
40
0.625
40
0.75
40
0.75
40
0.875
40
0.875
40
1
40
1
40
1
40
1
41
1
10
30.1424344035711
20
4.96939092952056
30
0
41
1
10
30.5974942228937
20
4.76668644890822
30
0
41
1
10
31.047633103704
20
4.5441786362164
30
0
41
1
10
31.9453648251068
20
4.06751292969687
30
0
41
1
10
32.3924522778291
20
3.81291909324034
30
0
41
1
10
33.0626887930347
20
3.4093331210756
30
0
41
1
10
33.2864177022107
20
3.2716370612963
30
0
41
1
10
33.7337852346397
20
2.98903795710007
30
0
41
1
10
33.9576212757091
20
2.84435702169773
30
0
41
1
10
34.4066385353453
20
2.5494880666887
30
0
41
1
10
34.6314001667299
20
2.39876498597914
30
0
41
1
10
35.0823857714484
20
2.09184558337063
30
0
41
1
10
35.3088930532687
20
1.93604719195929
30
0
41
1
10
35.5360784769402
20
1.77736872097944
30
0
0
SPLINE
5
ED
100
AcDbEntity
8
1
62
256
6
ByLayer
370
18
48
1
60
0
100
AcDbSpline
70
4
71
3
72
8
73
4
40
0
40
0
40
0
40
0
40
1
40
1
40
1
40
1
41
1
10
66.7930320692925
20
0.661926534300363
30
0
41
1
10
66.5107760276688
20
1.47336476565482
30
0
41
1
10
66.2312038168391
20
2.2857250593531
30
0
41
1
10
65.9543338398258
20
3.09901373797493
30
0
0
SPLINE
5
EE
100
AcDbEntity
8
1
62
256
6
ByLayer
370
18
48
1
60
0
100
AcDbSpline
70
4
71
3
72
10
73
6
40
0
40
0
40
0
40
0
40
0.5
40
0.5
40
1
40
1
40
1
40
1
41
1
10
37.2213
20
4.46151414462455
30
0
41
1
10
36.9256917267508
20
4.70207042907089
30
0
41
1
10
36.6403131305677
20
4.91177479192351
30
0
41
1
10
36.0814715495455
20
5.2692430157372
30
0
41
1
10
35.8077421730991
20
5.41753177680897
30
0
41
1
10
35.5360784769403
20
5.53465708492894
30
0
0
SPLINE
5
EF
100
AcDbEntity
8
1
62
256
6
ByLayer
370
18
48
1
60
0
100
AcDbSpline
70
4
71
3
72
18
73
14
40
0
40
0
40
0
40
0
40
0.0277094959640321
40
0.0277094959640321
40
0.270782121973021
40
0.270782121973021
40
0.392318434977518
40
0.392318434977518
40
0.513854747982014
40
0.513854747982014
40
0.756927373991007
40
0.756927373991007
40
1
40
1
40
1
40
1
41
1
10
22.9271321014935
20
6.29996139476961
30
0
41
1
10
22.9874399798479
20
6.29976402990923
30
0
41
1
10
23.0480621714208
20
6.29901788068511
30
0
41
1
10
23.6433844845576
20
6.28672043780992
30
0
41
1
10
24.2005126024247
20
6.23671351013036
30
0
41
1
10
25.0615877677085
20
6.12270582385489
30
0
41
1
10
25.3531527440881
20
6.07797304211272
30
0
41
1
10
25.9381165440262
20
5.97820126791777
30
0
41
1
10
26.2322825264234
20
5.92306582749694
30
0
41
1
10
27.1193495464284
20
5.74438822015654
30
0
41
1
10
27.7167970778758
20
5.60770811810374
30
0
41
1
10
28.922084629468
20
5.30757116699192
30
0
41
1
10
29.5299374018787
20
5.14404111620536
30
0
41
1
10
30.142434403571
20
4.96939092952056
30
0
0
SPLINE
5
F0
100
AcDbEntity
8
1
62
256
6
ByLayer
370
18
48
1
60
0
100
AcDbSpline
70
4
71
3
72
8
73
4
40
0
40
0
40
0
40
0
40
1
40
1
40
1
40
1
41
1
10
64.8523937470072
20
0.458572880599917
30
0
41
1
10
65.1115035011939
20
0.345201350818769
30
0
41
1
10
65.3727832449354
20
0.242894165995779
30
0
41
1
10
65.6364903612066
20
0.152963670707578
30
0
0
SPLINE
5
F1
100
AcDbEntity
8
1
62
256
6
ByLayer
370
18
48
1
60
0
100
AcDbSpline
70
4
71
3
72
8
73
4
40
0
40
0
40
0
40
0
40
1
40
1
40
1
40
1
41
1
10
35.5360784769402
20
1.77736872097941
30
0
41
1
10
36.0924714212269
20
1.35176275336641
30
0
41
1
10
36.6519474733298
20
0.985478515844335
30
0
41
1
10
37.2213
20
0.682971910185074
30
0
0
SPLINE
5
F2
100
AcDbEntity
8
1
62
256
6
ByLayer
370
18
48
1
60
0
100
AcDbSpline
70
4
71
3
72
13
73
9
40
0
40
0
40
0
40
0
40
0.288264099505635
40
0.524324940511881
40
0.707958775236878
40
0.838920479958259
40
0.970759714536543
40
1
40
1
40
1
40
1
41
1
10
52.4286322773378
20
0.0189290599202252
30
0
41
1
10
52.5992699198632
20
-0.0223388429203908
30
0
41
1
10
52.9092710290322
20
-0.110037589451139
30
0
41
1
10
53.327038700325
20
-0.259984583499886
30
0
41
1
10
53.6512602255979
20
-0.395245615740151
30
0
41
1
10
53.9136863697248
20
-0.517431176585148
30
0
41
1
10
54.0848391356253
20
-0.600912049757085
30
0
41
1
10
54.1787948834526
20
-0.652147156198396
30
0
41
1
10
54.1958397172962
20
-0.661559567472779
30
0
0
SPLINE
5
F3
100
AcDbEntity
8
1
62
256
6
ByLayer
370
18
48
1
60
0
100
AcDbSpline
70
4
71
3
72
28
73
24
40
0
40
0
40
0
40
0
40
0.0701444612426546
40
0.130145673060689
40
0.172737264882027
40
0.206654785124238
40
0.236788810143687
40
0.288844454096758
40
0.343295310414487
40
0.398348758313254
40
0.45576471247091
40
0.501129134519428
40
0.54836457819272
40
0.601344679454293
40
0.645253506429444
40
0.699670914811569
40
0.763712160673259
40
0.801519672655288
40
0.843261998579586
40
0.89877131836479
40
0.944224878242432
40
0.98159758385366
40
1
40
1
40
1
40
1
41
1
10
52.1409024790257
20
4.50585897013386
30
0
41
1
10
51.9057267469445
20
4.506336693847
30
0
41
1
10
51.4692956505296
20
4.50645408033535
30
0
41
1
10
50.8896231360512
20
4.50418878998201
30
0
41
1
10
50.4316571692292
20
4.50193153808718
30
0
41
1
10
50.0742269155918
20
4.50165224107593
30
0
41
1
10
49.6846845503948
20
4.5014687880421
30
0
41
1
10
49.2261514496993
20
4.50180006459516
30
0
41
1
10
48.6840324897047
20
4.50232188499723
30
0
41
1
10
48.1239217920614
20
4.49976490616982
30
0
41
1
10
47.5942992773585
20
4.49884783149088
30
0
41
1
10
47.090914555555
20
4.49741134818836
30
0
41
1
10
46.6024103896622
20
4.49633006866847
30
0
41
1
10
46.1187907113567
20
4.49653614803924
30
0
41
1
10
45.6110728875507
20
4.4963605792519
30
0
41
1
10
45.0662383238731
20
4.49575957030245
30
0
41
1
10
44.5418839379355
20
4.49336206736717
30
0
41
1
10
44.0600438192067
20
4.49273428074602
30
0
41
1
10
43.60688458242
20
4.49223037637847
30
0
41
1
10
43.12788792743
20
4.49175435738439
30
0
41
1
10
42.664110567119
20
4.49104146783895
30
0
41
1
10
42.3234969004879
20
4.49014495919917
30
0
41
1
10
42.1377017671676
20
4.48980549917152
30
0
41
1
10
42.0764733443198
20
4.4896889916522
30
0
0
SPLINE
5
F4
100
AcDbEntity
8
1
62
256
6
ByLayer
370
18
48
1
60
0
100
AcDbSpline
70
4
71
3
72
29
73
25
40
0
40
0
40
0
40
0
40
0.0555183822832456
40
0.103607701598821
40
0.143245544411479
40
0.178803186595054
40
0.223816588028635
40
0.270701179367728
40
0.301694621735281
40
0.336982132797178
40
0.391175901829094
40
0.435054445570363
40
0.471362799503969
40
0.529482311342379
40
0.577956423744564
40
0.636832375714578
40
0.698223958044031
40
0.739016423721965
40
0.777653729729867
40
0.820369364589967
40
0.849840318130332
40
0.887191145536004
40
0.939416292536739
40
1
40
1
40
1
40
1
41
1
10
40.7048230864055
20
-4.48769419509406
30
0
41
1
10
40.9137805575809
20
-4.48727217851089
30
0
41
1
10
41.3044775613857
20
-4.48698501812535
30
0
41
1
10
41.8474017787137
20
-4.48947178650238
30
0
41
1
10
42.3147528905382
20
-4.49005232146828
30
0
41
1
10
42.7742864190586
20
-4.49130228259531
30
0
41
1
10
43.260605811134
20
-4.49188693150583
30
0
41
1
10
43.7297988855123
20
-4.4923567993963
30
0
41
1
10
44.1617699507738
20
-4.49285082145656
30
0
41
1
10
44.6216770865352
20
-4.4936097473182
30
0
41
1
10
45.1307580146439
20
-4.49593870159634
30
0
41
1
10
45.6437400939199
20
-4.49636231446689
30
0
41
1
10
46.171709018223
20
-4.49654139649408
30
0
41
1
10
46.7172234292484
20
-4.49632644454195
30
0
41
1
10
47.3488818765256
20
-4.49827231692296
30
0
41
1
10
47.9930353990222
20
-4.49939703387483
30
0
41
1
10
48.6078590505219
20
-4.50214943439511
30
0
41
1
10
49.1454343792486
20
-4.50194926396458
30
0
41
1
10
49.6117000345625
20
-4.50146198610082
30
0
41
1
10
50.0348005510549
20
-4.50161877919354
30
0
41
1
10
50.4524327989762
20
-4.50196060762946
30
0
41
1
10
50.9068277582154
20
-4.50436601679459
30
0
41
1
10
51.4800573093202
20
-4.50639667129229
30
0
41
1
10
51.9104223075417
20
-4.50631044308361
30
0
41
1
10
52.1415005518554
20
-4.50585972783838
30
0
0
SPLINE
5
F5
100
AcDbEntity
8
1
62
256
6
ByLayer
370
18
48
1
60
0
100
AcDbSpline
70
4
71
3
72
11
73
7
40
0
40
0
40
0
40
0
40
0.330516562301839
40
0.600234810202147
40
0.805152848333338
40
1
40
1
40
1
40
1
41
1
10
65.5423479282744
20
0.185797176833205
30
0
41
1
10
65.4252209564307
20
0.227208964178004
30
0
41
1
10
65.2154870437184
20
0.306951122554779
30
0
41
1
10
64.937187443165
20
0.427586571178665
30
0
41
1
10
64.7167056902464
20
0.531328267843236
30
0
41
1
10
64.5847899285251
20
0.598043027218523
30
0
41
1
10
64.5208950282884
20
0.631447933852655
30
0
0
SPLINE
5
F6
100
AcDbEntity
8
1
62
256
6
ByLayer
370
18
48
1
60
0
100
AcDbSpline
70
4
71
3
72
12
73
8
40
0
40
0
40
0
40
0
40
0.304948695732362
40
0.554676449990796
40
0.748917433644327
40
0.887422386268948
40
1
40
1
40
1
40
1
41
1
10
39.0322062734919
20
-0.0195153300010986
30
0
41
1
10
38.8616303707516
20
0.0217089975110412
30
0
41
1
10
38.5517153665878
20
0.109380803808989
30
0
41
1
10
38.1339978097227
20
0.258989801859172
30
0
41
1
10
37.8098284516493
20
0.39464334548569
30
0
41
1
10
37.562086551536
20
0.509138454310545
30
0
41
1
10
37.42304232692
20
0.578731448802898
30
0
41
1
10
37.3607848313139
20
0.610915435578818
30
0
0
LINE
5
7D
100
AcDbEntity
8
SK1
62
256
6
ByLayer
370
18
48
1
60
0
100
AcDbLine
10
-45
20
3.5
30
0
11
-45
21
-3.5
31
0
39
0
210
0
220
0
230
1
0
LINE
5
7F
100
AcDbEntity
8
SK1
62
256
6
ByLayer
370
18
48
1
60
0
100
AcDbLine
10
0
20
-7
30
0
11
0
21
7
31
0
39
0
210
0
220
0
230
1
0
LINE
5
80
100
AcDbEntity
8
SK1
62
256
6
ByLayer
370
18
48
1
60
0
100
AcDbLine
10
-42.979274
20
7
30
0
11
-42.979274
21
-7
31
0
39
0
210
0
220
0
230
1
0
LINE
5
81
100
AcDbEntity
8
1
62
256
6
ByLayer
370
18
48
1
60
0
100
AcDbLine
10
35.536078
20
1.777369
30
0
11
35.536078
21
-5.534657
31
0
39
0
210
0
220
0
230
1
0
LINE
5
82
100
AcDbEntity
8
1
62
256
6
ByLayer
370
13
48
1
60
0
100
AcDbLine
10
1.374773
20
6.3
30
0
11
1.374773
21
-6.3
31
0
39
0
210
0
220
0
230
1
0
LINE
5
83
100
AcDbEntity
8
1
62
256
6
ByLayer
370
18
48
1
60
0
100
AcDbLine
10
37.2213
20
-4.318442
30
0
11
37.2213
21
-4.461514
31
0
39
0
210
0
220
0
230
1
0
LINE
5
84
100
AcDbEntity
8
1
62
256
6
ByLayer
370
13
48
1
60
0
100
AcDbLine
10
0.687386
20
6.65
30
0
11
0.687386
21
-6.65
31
0
39
0
210
0
220
0
230
1
0
LINE
5
85
100
AcDbEntity
8
1
62
256
6
ByLayer
370
18
48
1
60
0
100
AcDbLine
10
0
20
-7
30
0
11
0
21
7
31
0
39
0
210
0
220
0
230
1
0
LINE
5
86
100
AcDbEntity
8
1
62
256
6
ByLayer
370
18
48
1
60
0
100
AcDbLine
10
64.739899
20
-2.311975
30
0
11
66.303808
21
-1.056427
31
0
39
0
210
0
220
0
230
1
0
LINE
5
87
100
AcDbEntity
8
1
62
256
6
ByLayer
370
18
48
1
60
0
100
AcDbLine
10
37.2213
20
0.682972
30
0
11
37.2213
21
-4.318442
31
0
39
0
210
0
220
0
230
1
0
LINE
5
88
100
AcDbEntity
8
80
62
256
6
ByLayer
370
18
48
1
60
0
100
AcDbLine
10
0
20
0
30
0
11
-5
21
0
31
0
39
0
210
0
220
0
230
1
0
LINE
5
89
100
AcDbEntity
8
SK4
62
256
6
ByLayer
370
18
48
0.05
60
0
100
AcDbLine
10
72
20
0
30
0
11
-50
21
0
31
0
39
0
210
0
220
0
230
1
0
LINE
5
8B
100
AcDbEntity
8
4
62
256
6
ByLayer
370
18
48
0.05
60
0
100
AcDbLine
10
67
20
0
30
0
11
0
21
0
31
0
39
0
210
0
220
0
230
1
0
LINE
5
8D
100
AcDbEntity
8
SK1
62
256
6
ByLayer
370
18
48
1
60
0
100
AcDbLine
10
-42.979274
20
-7
30
0
11
0
21
-7
31
0
39
0
210
0
220
0
230
1
0
LINE
5
8E
100
AcDbEntity
8
SK1
62
256
6
ByLayer
370
18
48
1
60
0
100
AcDbLine
10
0
20
7
30
0
11
-42.979274
21
7
31
0
39
0
210
0
220
0
230
1
0
LINE
5
8F
100
AcDbEntity
8
SK1
62
256
6
ByLayer
370
18
48
1
60
0
100
AcDbLine
10
-45
20
-3.5
30
0
11
-42.979274
21
-7
31
0
39
0
210
0
220
0
230
1
0
LINE
5
90
100
AcDbEntity
8
SK1
62
256
6
ByLayer
370
18
48
1
60
0
100
AcDbLine
10
-42.979274
20
7
30
0
11
-45
21
3.5
31
0
39
0
210
0
220
0
230
1
0
LINE
5
91
100
AcDbEntity
8
1
62
256
6
ByLayer
370
18
48
1
60
0
100
AcDbLine
10
39.349041
20
-4.60343
30
0
11
40.263715
21
-4.605076
31
0
39
0
210
0
220
0
230
1
0
LINE
5
92
100
AcDbEntity
8
1
62
256
6
ByLayer
370
18
48
1
60
0
100
AcDbLine
10
40.263715
20
4.605076
30
0
11
39.348553
21
4.603429
31
0
39
0
210
0
220
0
230
1
0
LINE
5
93
100
AcDbEntity
8
1
62
256
6
ByLayer
370
18
48
1
60
0
100
AcDbLine
10
1.374773
20
-6.3
30
0
11
22.90114
21
-6.3
31
0
39
0
210
0
220
0
230
1
0
LINE
5
94
100
AcDbEntity
8
1
62
256
6
ByLayer
370
18
48
1
60
0
100
AcDbLine
10
22.90114
20
6.3
30
0
11
1.374773
21
6.3
31
0
39
0
210
0
220
0
230
1
0
LINE
5
95
100
AcDbEntity
8
81
62
256
6
ByLayer
370
18
48
1
60
0
100
AcDbLine
10
67
20
0
30
0
11
72
21
0
31
0
39
0
210
0
220
0
230
1
0
LINE
5
96
100
AcDbEntity
8
2
62
256
6
ByLayer
370
13
48
1
60
0
100
AcDbLine
10
89.236431
20
-6.3
30
0
11
89.236431
21
34.345947
31
0
39
0
210
0
220
0
230
1
0
LINE
5
98
100
AcDbEntity
8
2
62
256
6
ByLayer
370
13
48
1
60
0
100
AcDbLine
10
37.1588
20
6.3
30
0
11
91.236431
21
6.3
31
0
39
0
210
0
220
0
230
1
0
LINE
5
99
100
AcDbEntity
8
2
62
256
6
ByLayer
370
13
48
1
60
0
100
AcDbLine
10
37.1588
20
-6.3
30
0
11
91.236431
21
-6.3
31
0
39
0
210
0
220
0
230
1
0
LINE
5
9A
100
AcDbEntity
8
1
62
256
6
ByLayer
370
18
48
1
60
1
100
AcDbLine
10
89.236431
20
6.3
30
0
11
89.697214
21
2.800002
31
0
39
0
210
0
220
0
230
1
0
LINE
5
9B
100
AcDbEntity
8
1
62
256
6
ByLayer
370
18
48
1
60
1
100
AcDbLine
10
89.697214
20
2.800002
30
0
11
88.775647
21
2.799998
31
0
39
0
210
0
220
0
230
1
0
LINE
5
9C
100
AcDbEntity
8
1
62
256
6
ByLayer
370
18
48
1
60
1
100
AcDbLine
10
88.775647
20
2.799998
30
0
11
89.236431
21
6.3
31
0
39
0
210
0
220
0
230
1
0
LINE
5
9D
100
AcDbEntity
8
1
62
256
6
ByLayer
370
18
48
1
60
1
100
AcDbLine
10
89.236431
20
-6.3
30
0
11
88.775647
21
-2.800002
31
0
39
0
210
0
220
0
230
1
0
LINE
5
9E
100
AcDbEntity
8
1
62
256
6
ByLayer
370
18
48
1
60
1
100
AcDbLine
10
88.775647
20
-2.800002
30
0
11
89.697214
21
-2.799998
31
0
39
0
210
0
220
0
230
1
0
LINE
5
9F
100
AcDbEntity
8
1
62
256
6
ByLayer
370
18
48
1
60
1
100
AcDbLine
10
89.697214
20
-2.799998
30
0
11
89.236431
21
-6.3
31
0
39
0
210
0
220
0
230
1
0
LINE
5
A0
100
AcDbEntity
8
SK2
62
256
6
ByLayer
370
13
48
1
60
0
100
AcDbLine
10
-53.625163
20
-7
30
0
11
-53.625163
21
38.225706
31
0
39
0
210
0
220
0
230
1
0
LINE
5
A2
100
AcDbEntity
8
SK2
62
256
6
ByLayer
370
13
48
1
60
0
100
AcDbLine
10
-46.5875
20
7
30
0
11
-55.625163
21
7
31
0
39
0
210
0
220
0
230
1
0
LINE
5
A3
100
AcDbEntity
8
SK2
62
256
6
ByLayer
370
13
48
1
60
0
100
AcDbLine
10
-46.5875
20
-7
30
0
11
-55.625163
21
-7
31
0
39
0
210
0
220
0
230
1
0
LINE
5
A4
100
AcDbEntity
8
1
62
256
6
ByLayer
370
18
48
1
60
1
100
AcDbLine
10
-53.625163
20
7
30
0
11
-53.164379
21
3.500002
31
0
39
0
210
0
220
0
230
1
0
LINE
5
A5
100
AcDbEntity
8
1
62
256
6
ByLayer
370
18
48
1
60
1
100
AcDbLine
10
-53.164379
20
3.500002
30
0
11
-54.085946
21
3.499998
31
0
39
0
210
0
220
0
230
1
0
LINE
5
A6
100
AcDbEntity
8
1
62
256
6
ByLayer
370
18
48
1
60
1
100
AcDbLine
10
-54.085946
20
3.499998
30
0
11
-53.625163
21
7
31
0
39
0
210
0
220
0
230
1
0
LINE
5
A7
100
AcDbEntity
8
1
62
256
6
ByLayer
370
18
48
1
60
1
100
AcDbLine
10
-53.625163
20
-7
30
0
11
-54.085946
21
-3.500002
31
0
39
0
210
0
220
0
230
1
0
LINE
5
A8
100
AcDbEntity
8
1
62
256
6
ByLayer
370
18
48
1
60
1
100
AcDbLine
10
-54.085946
20
-3.500002
30
0
11
-53.164379
21
-3.499998
31
0
39
0
210
0
220
0
230
1
0
LINE
5
A9
100
AcDbEntity
8
1
62
256
6
ByLayer
370
18
48
1
60
1
100
AcDbLine
10
-53.164379
20
-3.499998
30
0
11
-53.625163
21
-7
31
0
39
0
210
0
220
0
230
1
0
LINE
5
AA
100
AcDbEntity
8
2
62
256
6
ByLayer
370
13
48
1
60
0
100
AcDbLine
10
80.970081
20
-4.65
30
0
11
80.970081
21
33.11483
31
0
39
0
210
0
220
0
230
1
0
LINE
5
AB
100
AcDbEntity
8
2
62
256
6
ByLayer
370
13
48
1
60
0
100
AcDbLine
10
66.8088
20
4.65
30
0
11
82.970081
21
4.65
31
0
39
0
210
0
220
0
230
1
0
LINE
5
AC
100
AcDbEntity
8
2
62
256
6
ByLayer
370
13
48
1
60
0
100
AcDbLine
10
66.8088
20
-4.65
30
0
11
82.970081
21
-4.65
31
0
39
0
210
0
220
0
230
1
0
LINE
5
AD
100
AcDbEntity
8
1
62
256
6
ByLayer
370
18
48
1
60
1
100
AcDbLine
10
80.970081
20
4.65
30
0
11
81.430865
21
1.150002
31
0
39
0
210
0
220
0
230
1
0
LINE
5
AE
100
AcDbEntity
8
1
62
256
6
ByLayer
370
18
48
1
60
1
100
AcDbLine
10
81.430865
20
1.150002
30
0
11
80.509297
21
1.149998
31
0
39
0
210
0
220
0
230
1
0
LINE
5
AF
100
AcDbEntity
8
1
62
256
6
ByLayer
370
18
48
1
60
1
100
AcDbLine
10
80.509297
20
1.149998
30
0
11
80.970081
21
4.65
31
0
39
0
210
0
220
0
230
1
0
LINE
5
B0
100
AcDbEntity
8
1
62
256
6
ByLayer
370
18
48
1
60
1
100
AcDbLine
10
80.970081
20
-4.65
30
0
11
80.509297
21
-1.150002
31
0
39
0
210
0
220
0
230
1
0
LINE
5
B1
100
AcDbEntity
8
1
62
256
6
ByLayer
370
18
48
1
60
1
100
AcDbLine
10
80.509297
20
-1.150002
30
0
11
81.430865
21
-1.149998
31
0
39
0
210
0
220
0
230
1
0
LINE
5
B2
100
AcDbEntity
8
1
62
256
6
ByLayer
370
18
48
1
60
1
100
AcDbLine
10
81.430865
20
-1.149998
30
0
11
80.970081
21
-4.65
31
0
39
0
210
0
220
0
230
1
0
LINE
5
B3
100
AcDbEntity
8
SK2
62
256
6
ByLayer
370
13
48
1
60
0
100
AcDbLine
10
34.448768
20
-7.422532
30
0
11
26.335191
21
-15.536109
31
0
39
0
210
0
220
0
230
1
0
LINE
5
B4
100
AcDbEntity
8
SK2
62
256
6
ByLayer
370
13
48
1
60
0
100
AcDbLine
10
34.448768
20
7.422532
30
0
11
26.335191
21
15.536109
31
0
39
0
210
0
220
0
230
1
0
LINE
5
B5
100
AcDbEntity
8
1
62
256
6
ByLayer
370
18
48
1
60
1
100
AcDbLine
10
27.749405
20
-14.121895
30
0
11
25.045269
21
-11.852543
31
0
39
0
210
0
220
0
230
1
0
LINE
5
B6
100
AcDbEntity
8
1
62
256
6
ByLayer
370
18
48
1
60
1
100
AcDbLine
10
25.045269
20
-11.852543
30
0
11
25.724759
21
-11.229985
31
0
39
0
210
0
220
0
230
1
0
LINE
5
B7
100
AcDbEntity
8
1
62
256
6
ByLayer
370
18
48
1
60
1
100
AcDbLine
10
25.724759
20
-11.229985
30
0
11
27.749405
21
-14.121895
31
0
39
0
210
0
220
0
230
1
0
LINE
5
B8
100
AcDbEntity
8
1
62
256
6
ByLayer
370
18
48
1
60
1
100
AcDbLine
10
27.749405
20
14.121895
30
0
11
25.724762
21
11.229988
31
0
39
0
210
0
220
0
230
1
0
LINE
5
B9
100
AcDbEntity
8
1
62
256
6
ByLayer
370
18
48
1
60
1
100
AcDbLine
10
25.724762
20
11.229988
30
0
11
25.045266
21
11.852541
31
0
39
0
210
0
220
0
230
1
0
LINE
5
BA
100
AcDbEntity
8
1
62
256
6
ByLayer
370
18
48
1
60
1
100
AcDbLine
10
25.045266
20
11.852541
30
0
11
27.749405
21
14.121895
31
0
39
0
210
0
220
0
230
1
0
LINE
5
FD
100
AcDbEntity
8
1
62
256
6
ByLayer
370
18
48
1
60
1
100
AcDbLine
10
89.236431
20
6.3
30
0
11
89.697214
21
2.800002
31
0
39
0
210
0
220
0
230
1
0
LINE
5
FE
100
AcDbEntity
8
1
62
256
6
ByLayer
370
18
48
1
60
1
100
AcDbLine
10
89.697214
20
2.800002
30
0
11
88.775647
21
2.799998
31
0
39
0
210
0
220
0
230
1
0
LINE
5
FF
100
AcDbEntity
8
1
62
256
6
ByLayer
370
18
48
1
60
1
100
AcDbLine
10
88.775647
20
2.799998
30
0
11
89.236431
21
6.3
31
0
39
0
210
0
220
0
230
1
0
LINE
5
101
100
AcDbEntity
8
1
62
256
6
ByLayer
370
18
48
1
60
1
100
AcDbLine
10
89.236431
20
-6.3
30
0
11
88.775647
21
-2.800002
31
0
39
0
210
0
220
0
230
1
0
LINE
5
102
100
AcDbEntity
8
1
62
256
6
ByLayer
370
18
48
1
60
1
100
AcDbLine
10
88.775647
20
-2.800002
30
0
11
89.697214
21
-2.799998
31
0
39
0
210
0
220
0
230
1
0
LINE
5
103
100
AcDbEntity
8
1
62
256
6
ByLayer
370
18
48
1
60
1
100
AcDbLine
10
89.697214
20
-2.799998
30
0
11
89.236431
21
-6.3
31
0
39
0
210
0
220
0
230
1
0
LINE
5
107
100
AcDbEntity
8
1
62
256
6
ByLayer
370
18
48
1
60
1
100
AcDbLine
10
-53.625163
20
7
30
0
11
-53.164379
21
3.500002
31
0
39
0
210
0
220
0
230
1
0
LINE
5
108
100
AcDbEntity
8
1
62
256
6
ByLayer
370
18
48
1
60
1
100
AcDbLine
10
-53.164379
20
3.500002
30
0
11
-54.085946
21
3.499998
31
0
39
0
210
0
220
0
230
1
0
LINE
5
109
100
AcDbEntity
8
1
62
256
6
ByLayer
370
18
48
1
60
1
100
AcDbLine
10
-54.085946
20
3.499998
30
0
11
-53.625163
21
7
31
0
39
0
210
0
220
0
230
1
0
LINE
5
10B
100
AcDbEntity
8
1
62
256
6
ByLayer
370
18
48
1
60
1
100
AcDbLine
10
-53.625163
20
-7
30
0
11
-54.085946
21
-3.500002
31
0
39
0
210
0
220
0
230
1
0
LINE
5
10C
100
AcDbEntity
8
1
62
256
6
ByLayer
370
18
48
1
60
1
100
AcDbLine
10
-54.085946
20
-3.500002
30
0
11
-53.164379
21
-3.499998
31
0
39
0
210
0
220
0
230
1
0
LINE
5
10D
100
AcDbEntity
8
1
62
256
6
ByLayer
370
18
48
1
60
1
100
AcDbLine
10
-53.164379
20
-3.499998
30
0
11
-53.625163
21
-7
31
0
39
0
210
0
220
0
230
1
0
LINE
5
111
100
AcDbEntity
8
1
62
256
6
ByLayer
370
18
48
1
60
1
100
AcDbLine
10
80.970081
20
4.65
30
0
11
81.430865
21
1.150002
31
0
39
0
210
0
220
0
230
1
0
LINE
5
112
100
AcDbEntity
8
1
62
256
6
ByLayer
370
18
48
1
60
1
100
AcDbLine
10
81.430865
20
1.150002
30
0
11
80.509297
21
1.149998
31
0
39
0
210
0
220
0
230
1
0
LINE
5
113
100
AcDbEntity
8
1
62
256
6
ByLayer
370
18
48
1
60
1
100
AcDbLine
10
80.509297
20
1.149998
30
0
11
80.970081
21
4.65
31
0
39
0
210
0
220
0
230
1
0
LINE
5
115
100
AcDbEntity
8
1
62
256
6
ByLayer
370
18
48
1
60
1
100
AcDbLine
10
80.970081
20
-4.65
30
0
11
80.509297
21
-1.150002
31
0
39
0
210
0
220
0
230
1
0
LINE
5
116
100
AcDbEntity
8
1
62
256
6
ByLayer
370
18
48
1
60
1
100
AcDbLine
10
80.509297
20
-1.150002
30
0
11
81.430865
21
-1.149998
31
0
39
0
210
0
220
0
230
1
0
LINE
5
117
100
AcDbEntity
8
1
62
256
6
ByLayer
370
18
48
1
60
1
100
AcDbLine
10
81.430865
20
-1.149998
30
0
11
80.970081
21
-4.65
31
0
39
0
210
0
220
0
230
1
0
LINE
5
11A
100
AcDbEntity
8
1
62
256
6
ByLayer
370
18
48
1
60
1
100
AcDbLine
10
27.749405
20
-14.121895
30
0
11
25.045269
21
-11.852543
31
0
39
0
210
0
220
0
230
1
0
LINE
5
11B
100
AcDbEntity
8
1
62
256
6
ByLayer
370
18
48
1
60
1
100
AcDbLine
10
25.045269
20
-11.852543
30
0
11
25.724759
21
-11.229985
31
0
39
0
210
0
220
0
230
1
0
LINE
5
11C
100
AcDbEntity
8
1
62
256
6
ByLayer
370
18
48
1
60
1
100
AcDbLine
10
25.724759
20
-11.229985
30
0
11
27.749405
21
-14.121895
31
0
39
0
210
0
220
0
230
1
0
LINE
5
11E
100
AcDbEntity
8
1
62
256
6
ByLayer
370
18
48
1
60
1
100
AcDbLine
10
27.749405
20
14.121895
30
0
11
25.724762
21
11.229988
31
0
39
0
210
0
220
0
230
1
0
LINE
5
11F
100
AcDbEntity
8
1
62
256
6
ByLayer
370
18
48
1
60
1
100
AcDbLine
10
25.724762
20
11.229988
30
0
11
25.045266
21
11.852541
31
0
39
0
210
0
220
0
230
1
0
LINE
5
120
100
AcDbEntity
8
1
62
256
6
ByLayer
370
18
48
1
60
1
100
AcDbLine
10
25.045266
20
11.852541
30
0
11
27.749405
21
14.121895
31
0
39
0
210
0
220
0
230
1
0
MTEXT
5
F7
100
AcDbEntity
8
SK6
62
256
6
ByLayer
370
13
48
1
60
0
100
AcDbMText
10
-17.54646
20
37.190328
30
0
210
0
220
0
230
1
1
\W0.7492;860.2-0930-028A1-PM P1BM
40
3.5
41
0
44
1.084337
50
0
71
7
72
5
7
iso_b_vert
0
MTEXT
5
FB
100
AcDbEntity
8
2
62
256
6
ByLayer
370
18
48
1
60
0
100
AcDbMText
10
87.671797
20
16.897798
30
0
210
0
220
0
230
1
1
%%c
40
3.5
41
0
44
1.084337
50
90
71
7
72
5
7
iso_b_vert
0
MTEXT
5
FC
100
AcDbEntity
8
2
62
256
6
ByLayer
370
18
48
1
60
0
100
AcDbMText
10
87.671797
20
22.120454
30
0
210
0
220
0
230
1
1
\W0.6930;12,600
40
3.5
41
0
44
1.084337
50
90
71
7
72
5
7
iso_b_vert
0
MTEXT
5
105
100
AcDbEntity
8
SK2
62
256
6
ByLayer
370
18
48
1
60
0
100
AcDbMText
10
-55.189796
20
20.409024
30
0
210
0
220
0
230
1
1
%%c
40
3.5
41
0
44
1.084337
50
90
71
7
72
5
7
iso_b_vert
0
MTEXT
5
106
100
AcDbEntity
8
SK2
62
256
6
ByLayer
370
18
48
1
60
0
100
AcDbMText
10
-55.189796
20
25.63168
30
0
210
0
220
0
230
1
1
\W0.7145;14,000
40
3.5
41
0
44
1.084337
50
90
71
7
72
5
7
iso_b_vert
0
MTEXT
5
10F
100
AcDbEntity
8
2
62
256
6
ByLayer
370
18
48
1
60
0
100
AcDbMText
10
79.405448
20
17.406747
30
0
210
0
220
0
230
1
1
%%c
40
3.5
41
0
44
1.084337
50
90
71
7
72
5
7
iso_b_vert
0
MTEXT
5
110
100
AcDbEntity
8
2
62
256
6
ByLayer
370
18
48
1
60
0
100
AcDbMText
10
79.405448
20
22.629403
30
0
210
0
220
0
230
1
1
\W0.7317;9,300
40
3.5
41
0
44
1.084337
50
90
71
7
72
5
7
iso_b_vert
0
MTEXT
5
119
100
AcDbEntity
8
SK2
62
256
6
ByLayer
370
13
48
1
60
0
100
AcDbMText
10
17.078175
20
-0.291663
30
0
210
0
220
0
230
1
1
\W0.8181;90,0%%d
40
3.5
41
0
44
1.084337
50
0
71
7
72
5
7
iso_b_vert
0
HATCH
5
100
100
AcDbEntity
8
2
62
256
6
ByLayer
370
13
48
1
60
0
100
AcDbHatch
10
0
20
0
30
0
210
0
220
0
230
1
2
ANSI31
70
0
71
0
91
1
92
5
93
3
72
1
10
89.2364306046164
20
6.30000000000001
11
89.6972143461692
21
2.8000016925532
72
1
10
89.6972143461692
20
2.8000016925532
11
88.7756468630637
21
2.79999830744683
72
1
10
88.7756468630637
20
2.79999830744683
11
89.2364306046164
21
6.30000000000001
97
0
75
0
76
1
52
0
41
0.0062
77
0
78
1
53
45
43
0
44
0
45
-0.0139193969876572
46
0.0139193969876572
79
0
47
0
98
1
10
0
20
0
0
HATCH
5
104
100
AcDbEntity
8
2
62
256
6
ByLayer
370
13
48
1
60
0
100
AcDbHatch
10
0
20
0
30
0
210
0
220
0
230
1
2
ANSI31
70
0
71
0
91
1
92
5
93
3
72
1
10
89.2364306046164
20
-6.29999999999998
11
88.7756468630637
21
-2.80000169255317
72
1
10
88.7756468630637
20
-2.80000169255317
11
89.6972143461692
21
-2.7999983074468
72
1
10
89.6972143461692
20
-2.7999983074468
11
89.2364306046164
21
-6.29999999999998
97
0
75
0
76
1
52
0
41
0.0062
77
0
78
1
53
45
43
0
44
0
45
-0.0139193969876572
46
0.0139193969876572
79
0
47
0
98
1
10
0
20
0
0
HATCH
5
10A
100
AcDbEntity
8
SK2
62
256
6
ByLayer
370
13
48
1
60
0
100
AcDbHatch
10
0
20
0
30
0
210
0
220
0
230
1
2
ANSI31
70
0
71
0
91
1
92
5
93
3
72
1
10
-53.6251625675374
20
7
11
-53.1643788259847
21
3.50000169255318
72
1
10
-53.1643788259847
20
3.50000169255318
11
-54.0859463090902
21
3.49999830744682
72
1
10
-54.0859463090902
20
3.49999830744682
11
-53.6251625675374
21
7
97
0
75
0
76
1
52
0
41
0.0062
77
0
78
1
53
45
43
0
44
0
45
-0.0139193969876572
46
0.0139193969876572
79
0
47
0
98
1
10
0
20
0
0
HATCH
5
10E
100
AcDbEntity
8
SK2
62
256
6
ByLayer
370
13
48
1
60
0
100
AcDbHatch
10
0
20
0
30
0
210
0
220
0
230
1
2
ANSI31
70
0
71
0
91
1
92
5
93
3
72
1
10
-53.6251625675374
20
-7
11
-54.0859463090902
21
-3.50000169255318
72
1
10
-54.0859463090902
20
-3.50000169255318
11
-53.1643788259847
21
-3.49999830744682
72
1
10
-53.1643788259847
20
-3.49999830744682
11
-53.6251625675374
21
-7
97
0
75
0
76
1
52
0
41
0.0062
77
0
78
1
53
45
43
0
44
0
45
-0.0139193969876572
46
0.0139193969876572
79
0
47
0
98
1
10
0
20
0
0
HATCH
5
114
100
AcDbEntity
8
2
62
256
6
ByLayer
370
13
48
1
60
0
100
AcDbHatch
10
0
20
0
30
0
210
0
220
0
230
1
2
ANSI31
70
0
71
0
91
1
92
5
93
3
72
1
10
80.9700811011615
20
4.65000000000001
11
81.4308648427142
21
1.15000169255319
72
1
10
81.4308648427142
20
1.15000169255319
11
80.5092973596088
21
1.14999830744682
72
1
10
80.5092973596088
20
1.14999830744682
11
80.9700811011615
21
4.65000000000001
97
0
75
0
76
1
52
0
41
0.0062
77
0
78
1
53
45
43
0
44
0
45
-0.0139193969876572
46
0.0139193969876572
79
0
47
0
98
1
10
0
20
0
0
HATCH
5
118
100
AcDbEntity
8
2
62
256
6
ByLayer
370
13
48
1
60
0
100
AcDbHatch
10
0
20
0
30
0
210
0
220
0
230
1
2
ANSI31
70
0
71
0
91
1
92
5
93
3
72
1
10
80.9700811011615
20
-4.64999999999998
11
80.5092973596088
21
-1.15000169255316
72
1
10
80.5092973596088
20
-1.15000169255316
11
81.4308648427142
21
-1.14999830744679
72
1
10
81.4308648427142
20
-1.14999830744679
11
80.9700811011615
21
-4.64999999999998
97
0
75
0
76
1
52
0
41
0.0062
77
0
78
1
53
45
43
0
44
0
45
-0.0139193969876572
46
0.0139193969876572
79
0
47
0
98
1
10
0
20
0
0
HATCH
5
11D
100
AcDbEntity
8
SK2
62
256
6
ByLayer
370
13
48
1
60
0
100
AcDbHatch
10
0
20
0
30
0
210
0
220
0
230
1
2
ANSI31
70
0
71
0
91
1
92
5
93
3
72
1
10
27.7494045720122
20
-14.1218954279876
11
25.0452685544795
21
-11.852543492458
72
1
10
25.0452685544795
20
-11.852543492458
11
25.7247593310092
21
-11.2299851333142
72
1
10
25.7247593310092
20
-11.2299851333142
11
27.7494045720122
21
-14.1218954279876
97
0
75
0
76
1
52
0
41
0.0062
77
0
78
1
53
45
43
0
44
0
45
-0.0139193969876572
46
0.0139193969876572
79
0
47
0
98
1
10
0
20
0
0
HATCH
5
121
100
AcDbEntity
8
SK2
62
256
6
ByLayer
370
13
48
1
60
0
100
AcDbHatch
10
0
20
0
30
0
210
0
220
0
230
1
2
ANSI31
70
0
71
0
91
1
92
5
93
3
72
1
10
27.7494045720123
20
14.1218954279877
11
25.7247616177847
21
11.2299876292316
72
1
10
25.7247616177847
20
11.2299876292316
11
25.0452662677042
21
11.8525409965407
72
1
10
25.0452662677042
20
11.8525409965407
11
27.7494045720123
21
14.1218954279877
97
0
75
0
76
1
52
0
41
0.0062
77
0
78
1
53
45
43
0
44
0
45
-0.0139193969876572
46
0.0139193969876572
79
0
47
0
98
1
10
0
20
0
0
DIMENSION
5
123
100
AcDbEntity
8
2
62
256
6
ByLayer
370
13
48
1
60
0
100
AcDbDimension
2
_U0
10
65.2213
20
-17.452503
30
0
11
32.61065
21
-17.452503
31
0
70
32
71
1
72
1
41
1
210
0
220
0
230
1
3
Standard
100
AcDbAlignedDimension
13
0
23
0
33
0
14
65.2213
24
-4.65
34
0
50
0
100
AcDbRotatedDimension
1001
ACAD
1000
DSTYLE
1002
{
1070
   371
1070
    13
1070
   372
1070
    13
1070
   170
1070
     0
1070
   144
1040
1.0
1070
   277
1070
     2
1070
   278
1070
    44
1070
   146
1040
1.0
1070
   345
1005
16
1070
   347
1005
16
1070
   346
1005
16
1070
   344
1005
0
1070
   343
1005
0
1070
   172
1070
     1
1070
    76
1070
     0
1070
    75
1070
     0
1070
   282
1070
     0
1070
   281
1070
     0
1070
    71
1070
     0
1070
    74
1070
     0
1070
   279
1070
     0
1070
   173
1070
     1
1070
   340
1005
F8
1070
   271
1070
     2
1070
   272
1070
     2
1070
    77
1070
     1
1070
    73
1070
     1
1070
   171
1070
     3
1070
   274
1070
     4
1070
   177
1070
    35
1070
   176
1070
    35
1070
   178
1070
    35
1070
    48
1040
-0.1
1070
    41
1040
3.5
1070
   147
1040
1.75
1070
    42
1040
1.5875
1070
    44
1040
2.0
1070
   140
1040
3.5
1002
}
1001
ACAD_DSTYLE_DIM_LINETYPE
1070
   380
1005
16
1001
ACAD_DSTYLE_DIM_EXT1_LINETYPE
1070
   381
1005
16
1001
ACAD_DSTYLE_DIM_EXT2_LINETYPE
1070
   382
1005
16
0
DIMENSION
5
13C
100
AcDbEntity
8
SK2
62
256
6
ByLayer
370
13
48
1
60
0
100
AcDbDimension
2
_U1
10
67
20
-38.192985
30
0
11
11
21
-38.192985
31
0
70
32
71
1
72
1
41
1
210
0
220
0
230
1
3
Standard
100
AcDbAlignedDimension
13
-45
23
-7
33
0
14
67
24
0
34
0
50
0
100
AcDbRotatedDimension
1001
ACAD
1000
DSTYLE
1002
{
1070
   371
1070
    13
1070
   372
1070
    13
1070
   170
1070
     0
1070
   144
1040
1.0
1070
   277
1070
     2
1070
   278
1070
    44
1070
   146
1040
1.0
1070
   345
1005
16
1070
   347
1005
16
1070
   346
1005
16
1070
   344
1005
0
1070
   343
1005
0
1070
   172
1070
     1
1070
    76
1070
     0
1070
    75
1070
     0
1070
   282
1070
     0
1070
   281
1070
     0
1070
    71
1070
     0
1070
    74
1070
     0
1070
   279
1070
     0
1070
   173
1070
     1
1070
   340
1005
F8
1070
   271
1070
     2
1070
   272
1070
     2
1070
    77
1070
     1
1070
    73
1070
     1
1070
   171
1070
     3
1070
   274
1070
     4
1070
   177
1070
    35
1070
   176
1070
    35
1070
   178
1070
    35
1070
    48
1040
-0.1
1070
    41
1040
3.5
1070
   147
1040
1.75
1070
    42
1040
1.5875
1070
    44
1040
2.0
1070
   140
1040
3.5
1002
}
1001
ACAD_DSTYLE_DIM_LINETYPE
1070
   380
1005
16
1001
ACAD_DSTYLE_DIM_EXT1_LINETYPE
1070
   381
1005
16
1001
ACAD_DSTYLE_DIM_EXT2_LINETYPE
1070
   382
1005
16
0
DIMENSION
5
154
100
AcDbEntity
8
SK2
62
256
6
ByLayer
370
13
48
1
60
0
100
AcDbDimension
2
_U2
10
67
20
16.259119
30
0
11
51.285
21
16.259119
31
0
70
32
71
1
72
1
41
1
210
0
220
0
230
1
3
Standard
100
AcDbAlignedDimension
13
35.57
23
6.3
33
0
14
67
24
0
34
0
50
0
100
AcDbRotatedDimension
1001
ACAD
1000
DSTYLE
1002
{
1070
   371
1070
    13
1070
   372
1070
    13
1070
   170
1070
     0
1070
   144
1040
1.0
1070
   277
1070
     2
1070
   278
1070
    44
1070
   146
1040
1.0
1070
   345
1005
16
1070
   347
1005
16
1070
   346
1005
16
1070
   344
1005
0
1070
   343
1005
0
1070
   172
1070
     1
1070
    76
1070
     0
1070
    75
1070
     0
1070
   282
1070
     0
1070
   281
1070
     0
1070
    71
1070
     0
1070
    74
1070
     0
1070
   279
1070
     0
1070
   173
1070
     1
1070
   340
1005
F8
1070
   271
1070
     2
1070
   272
1070
     2
1070
    77
1070
     1
1070
    73
1070
     1
1070
   171
1070
     3
1070
   274
1070
     4
1070
   177
1070
    35
1070
   176
1070
    35
1070
   178
1070
    35
1070
    48
1040
-0.1
1070
    41
1040
3.5
1070
   147
1040
1.75
1070
    42
1040
1.5875
1070
    44
1040
2.0
1070
   140
1040
3.5
1002
}
1001
ACAD_DSTYLE_DIM_LINETYPE
1070
   380
1005
16
1001
ACAD_DSTYLE_DIM_EXT1_LINETYPE
1070
   381
1005
16
1001
ACAD_DSTYLE_DIM_EXT2_LINETYPE
1070
   382
1005
16
0
DIMENSION
5
16C
100
AcDbEntity
8
SK2
62
256
6
ByLayer
370
13
48
1
60
0
100
AcDbDimension
2
_U3
10
65.2213
20
-17.452503
30
0
11
84.333333
21
-17.452503
31
0
70
32
71
1
72
1
41
1
210
0
220
0
230
1
3
Standard
100
AcDbAlignedDimension
13
67
23
0
33
0
14
65.2213
24
-4.65
34
0
50
0
100
AcDbRotatedDimension
1001
ACAD
1000
DSTYLE
1002
{
1070
   371
1070
    13
1070
   372
1070
    13
1070
   170
1070
     0
1070
   144
1040
1.0
1070
   277
1070
     2
1070
   278
1070
    44
1070
   146
1040
1.0
1070
   345
1005
16
1070
   347
1005
16
1070
   346
1005
16
1070
   344
1005
0
1070
   343
1005
0
1070
   172
1070
     1
1070
    76
1070
     0
1070
    75
1070
     0
1070
   282
1070
     0
1070
   281
1070
     0
1070
    71
1070
     0
1070
    74
1070
     0
1070
   279
1070
     0
1070
   173
1070
     1
1070
   340
1005
F8
1070
   271
1070
     2
1070
   272
1070
     2
1070
    77
1070
     1
1070
    73
1070
     1
1070
   171
1070
     3
1070
   274
1070
     4
1070
   177
1070
    35
1070
   176
1070
    35
1070
   178
1070
    35
1070
    48
1040
-0.1
1070
    41
1040
3.5
1070
   147
1040
1.75
1070
    42
1040
1.5875
1070
    44
1040
2.0
1070
   140
1040
3.5
1002
}
1001
ACAD_DSTYLE_DIM_LINETYPE
1070
   380
1005
16
1001
ACAD_DSTYLE_DIM_EXT1_LINETYPE
1070
   381
1005
16
1001
ACAD_DSTYLE_DIM_EXT2_LINETYPE
1070
   382
1005
16
0
DIMENSION
5
186
100
AcDbEntity
8
SK2
62
256
6
ByLayer
370
13
48
1
60
0
100
AcDbDimension
2
_U4
10
37.2213
20
8.785371
30
0
11
51.2213
21
8.785371
31
0
70
32
71
1
72
1
41
1
210
0
220
0
230
1
3
Standard
100
AcDbAlignedDimension
13
65.2213
23
4.65
33
0
14
37.2213
24
4.65
34
0
50
0
100
AcDbRotatedDimension
1001
ACAD
1000
DSTYLE
1002
{
1070
   371
1070
    13
1070
   372
1070
    13
1070
   170
1070
     0
1070
   144
1040
1.0
1070
   277
1070
     2
1070
   278
1070
    44
1070
   146
1040
1.0
1070
   345
1005
16
1070
   347
1005
16
1070
   346
1005
16
1070
   344
1005
0
1070
   343
1005
0
1070
   172
1070
     1
1070
    76
1070
     0
1070
    75
1070
     0
1070
   282
1070
     0
1070
   281
1070
     0
1070
    71
1070
     0
1070
    74
1070
     0
1070
   279
1070
     0
1070
   173
1070
     1
1070
   340
1005
F8
1070
   271
1070
     2
1070
   272
1070
     2
1070
    77
1070
     1
1070
    73
1070
     1
1070
   171
1070
     3
1070
   274
1070
     4
1070
   177
1070
    35
1070
   176
1070
    35
1070
   178
1070
    35
1070
    48
1040
-0.1
1070
    41
1040
3.5
1070
   147
1040
1.75
1070
    42
1040
1.5875
1070
    44
1040
2.0
1070
   140
1040
3.5
1002
}
1001
ACAD_DSTYLE_DIM_LINETYPE
1070
   380
1005
16
1001
ACAD_DSTYLE_DIM_EXT1_LINETYPE
1070
   381
1005
16
1001
ACAD_DSTYLE_DIM_EXT2_LINETYPE
1070
   382
1005
16
0
DIMENSION
5
19E
100
AcDbEntity
8
SK2
62
256
6
ByLayer
370
13
48
1
60
0
100
AcDbDimension
2
_U5
10
65.2213
20
-27.690158
30
0
11
10.11065
21
-27.690158
31
0
70
32
71
1
72
1
41
1
210
0
220
0
230
1
3
Standard
100
AcDbAlignedDimension
13
-45
23
-7
33
0
14
65.2213
24
-4.65
34
0
50
0
100
AcDbRotatedDimension
1001
ACAD
1000
DSTYLE
1002
{
1070
   371
1070
    13
1070
   372
1070
    13
1070
   170
1070
     0
1070
   144
1040
1.0
1070
   277
1070
     2
1070
   278
1070
    44
1070
   146
1040
1.0
1070
   345
1005
16
1070
   347
1005
16
1070
   346
1005
16
1070
   344
1005
0
1070
   343
1005
0
1070
   172
1070
     1
1070
    76
1070
     0
1070
    75
1070
     0
1070
   282
1070
     0
1070
   281
1070
     0
1070
    71
1070
     0
1070
    74
1070
     0
1070
   279
1070
     0
1070
   173
1070
     1
1070
   340
1005
F8
1070
   271
1070
     2
1070
   272
1070
     2
1070
    77
1070
     1
1070
    73
1070
     1
1070
   171
1070
     3
1070
   274
1070
     4
1070
   177
1070
    35
1070
   176
1070
    35
1070
   178
1070
    35
1070
    48
1040
-0.1
1070
    41
1040
3.5
1070
   147
1040
1.75
1070
    42
1040
1.5875
1070
    44
1040
2.0
1070
   140
1040
3.5
1002
}
1001
ACAD_DSTYLE_DIM_LINETYPE
1070
   380
1005
16
1001
ACAD_DSTYLE_DIM_EXT1_LINETYPE
1070
   381
1005
16
1001
ACAD_DSTYLE_DIM_EXT2_LINETYPE
1070
   382
1005
16
0
ENDSEC
0
SECTION
2
OBJECTS
0
DICTIONARY
5
226
330
0
100
AcDbDictionary
280
0
281
1
3
ACAD_GROUP
350
227
3
ACAD_MLINESTYLE
350
228
0
DICTIONARY
5
227
330
0
100
AcDbDictionary
280
0
281
1
0
DICTIONARY
5
228
330
0
100
AcDbDictionary
280
0
281
1
3
Standard
350
18
0
MLINESTYLE
5
18
330
228
100
AcDbMlineStyle
2
Standard
70
0
3

62
256
51
90
52
90
71
2
49
-0.5
62
256
6
ByLayer
49
0.5
62
256
6
ByLayer
0
RASTERVARIABLES
5
214
330

100
AcDbRasterVariables
90
0
70
1
71
1
72
1
0
ENDSEC
0
EOF
