0
SECTION
2
HEADER
9
$ACADVER
1
AC1015
9
$DWGCODEPAGE
3
ANSI_1252
9
$HANDSEED
5
1fe
9
$ANGBASE
50
0
9
$ANGDIR
70
0
9
$ATTMODE
70
1
9
$AUNITS
70
0
9
$AUPREC
70
0
9
$CECOLOR
62
256
9
$CELTSCALE
40
1
9
$CELTYPE
6
ByLayer
9
$CELWEIGHT
370
18
9
$CLAYER
8
0
9
$CMLJUST
70
0
9
$CMLSCALE
40
1
9
$CMLSTYLE
2
Standard
9
$DIMSTYLE
2
Standard
9
$TEXTSIZE
40
0.2
9
$TEXTSTYLE
7
Standard
9
$LUNITS
70
2
9
$LUPREC
70
4
9
$EXTNAMES
290
1
9
$INSUNITS
70
4
9
$LTSCALE
40
1
9
$LWDISPLAY
290
1
9
$PDMODE
70
0
9
$PDSIZE
40
0
9
$PLINEGEN
70
0
0
ENDSEC
0
SECTION
2
CLASSES
0
CLASS
1
RASTERVARIABLES
2
AcDbRasterVariables
3
ISM
90
0
280
0
281
0
0
ENDSEC
0
SECTION
2
TABLES
0
TABLE
2
VPORT
5
1f4
100
AcDbSymbolTable
0
VPORT
5
1
100
AcDbSymbolTableRecord
100
AcDbViewportTableRecord
2
*Active
70
0
10
0
20
0
11
1
21
1
12
-1
22
1
13
0
23
0
14
0.5
24
0.5
15
10
25
10
16
0
26
0
36
1
17
0
27
0
37
0
0
ENDTAB
0
TABLE
2
LTYPE
5
1f5
100
AcDbSymbolTable
0
LTYPE
5
14
100
AcDbSymbolTableRecord
100
AcDbLinetypeTableRecord
70
0
2
ByBlock
3

72
65
73
0
40
0
0
LTYPE
5
15
100
AcDbSymbolTableRecord
100
AcDbLinetypeTableRecord
70
0
2
ByLayer
3

72
65
73
0
40
0
0
LTYPE
5
16
100
AcDbSymbolTableRecord
100
AcDbLinetypeTableRecord
70
0
2
Continuous
3
Solid line
72
65
73
0
40
0
0
LTYPE
5
6E
100
AcDbSymbolTableRecord
100
AcDbLinetypeTableRecord
70
0
2
CENTER
3
____ _ ____ _ ____ _ ____
72
65
73
4
40
47.5
49
22
74
0
49
-8.5
74
0
49
8.5
74
0
49
-8.5
74
0
0
LTYPE
5
6F
100
AcDbSymbolTableRecord
100
AcDbLinetypeTableRecord
70
0
2
DASHED
3
__ __ __ __ __ __ __ __ __
72
65
73
2
40
25.72
49
12.86
74
0
49
-12.86
74
0
0
ENDTAB
0
TABLE
2
LAYER
5
1f6
100
AcDbSymbolTable
0
LAYER
5
10
100
AcDbSymbolTableRecord
100
AcDbLayerTableRecord
2
0
70
0
62
7
6
Continuous
290
1
370
-3
390
0
0
LAYER
5
71
100
AcDbSymbolTableRecord
100
AcDbLayerTableRecord
2
80
70
0
62
-6
6
Continuous
290
1
370
-3
390
0
0
LAYER
5
73
100
AcDbSymbolTableRecord
100
AcDbLayerTableRecord
2
81
70
0
62
-3
6
Continuous
290
1
370
-3
390
0
0
LAYER
5
75
100
AcDbSymbolTableRecord
100
AcDbLayerTableRecord
2
1
70
0
62
4
6
Continuous
290
1
370
-3
390
0
0
LAYER
5
86
100
AcDbSymbolTableRecord
100
AcDbLayerTableRecord
2
4
70
0
62
-2
6
CENTER
290
1
370
-3
390
0
0
LAYER
5
9D
100
AcDbSymbolTableRecord
100
AcDbLayerTableRecord
2
2
70
0
62
7
6
Continuous
290
1
370
-3
390
0
0
LAYER
5
109
100
AcDbSymbolTableRecord
100
AcDbLayerTableRecord
2
Defpoints
70
0
62
7
6
Continuous
290
0
370
-3
390
0
0
LAYER
5
1e0
100
AcDbSymbolTableRecord
100
AcDbLayerTableRecord
2
SK1
70
0
62
4
6
Continuous
290
1
370
-3
390
0
0
LAYER
5
1e1
100
AcDbSymbolTableRecord
100
AcDbLayerTableRecord
2
SK4
70
0
62
2
6
CENTER
290
1
370
-3
390
0
0
LAYER
5
1e2
100
AcDbSymbolTableRecord
100
AcDbLayerTableRecord
2
SK2
70
0
62
7
6
Continuous
290
1
370
-3
390
0
0
LAYER
5
1e3
100
AcDbSymbolTableRecord
100
AcDbLayerTableRecord
2
SK6
70
0
62
5
6
Continuous
290
1
370
-3
390
0
0
ENDTAB
0
TABLE
2
STYLE
5
1f7
100
AcDbSymbolTable
0
STYLE
5
11
100
AcDbSymbolTableRecord
100
AcDbTextStyleTableRecord
2
Standard
3
txt
70
0
71
0
40
0
41
1
42
0
50
0
0
STYLE
5
EE
100
AcDbSymbolTableRecord
100
AcDbTextStyleTableRecord
2
iso_b_vert
3
simplex.shx
70
0
71
0
40
0
41
1
42
0
50
0
0
STYLE
5
EF
100
AcDbSymbolTableRecord
100
AcDbTextStyleTableRecord
2
DWGDirectTextStyle
3
simplex
70
0
71
0
40
0
41
1
42
0
50
0
0
ENDTAB
0
TABLE
2
DIMSTYLE
5
1f8
100
AcDbSymbolTable
100
AcDbDimStyleTable
0
DIMSTYLE
105
27
100
AcDbSymbolTableRecord
100
AcDbDimStyleTableRecord
2
Standard
70
0
3
<>
41
0.18
42
0.0625
44
0.18
140
0.18
147
0.09
73
0
74
0
77
1
271
2
275
0
278
52
280
0
340
11
0
ENDTAB
0
TABLE
2
VIEW
5
1f9
100
AcDbSymbolTable
0
ENDTAB
0
TABLE
2
UCS
5
1fa
100
AcDbSymbolTable
0
ENDTAB
0
TABLE
2
APPID
5
1fb
100
AcDbSymbolTable
0
APPID
5
12
100
AcDbSymbolTableRecord
100
AcDbRegAppTableRecord
2
ACAD
70
0
0
APPID
5
105
100
AcDbSymbolTableRecord
100
AcDbRegAppTableRecord
2
ACAD_DSTYLE_DIMBREAK
70
0
0
APPID
5
19F
100
AcDbSymbolTableRecord
100
AcDbRegAppTableRecord
2
ACAD_DSTYLE_DIM_LINETYPE
70
0
0
APPID
5
1A0
100
AcDbSymbolTableRecord
100
AcDbRegAppTableRecord
2
ACAD_DSTYLE_DIM_EXT1_LINETYPE
70
0
0
APPID
5
1A1
100
AcDbSymbolTableRecord
100
AcDbRegAppTableRecord
2
ACAD_DSTYLE_DIM_EXT2_LINETYPE
70
0
0
APPID
5
1DC
100
AcDbSymbolTableRecord
100
AcDbRegAppTableRecord
2
ACAD_MLEADERVER
70
0
0
ENDTAB
0
TABLE
2
BLOCK_RECORD
5
1fc
100
AcDbSymbolTable
0
BLOCK_RECORD
5
1F
100
AcDbSymbolTableRecord
100
AcDbBlockTableRecord
2
*Model_Space
340
0
70
0
0
BLOCK_RECORD
5
1B
100
AcDbSymbolTableRecord
100
AcDbBlockTableRecord
2
*Paper_Space
340
0
70
0
0
BLOCK_RECORD
5
23
100
AcDbSymbolTableRecord
100
AcDbBlockTableRecord
2
*Paper_Space0
340
0
70
0
0
BLOCK_RECORD
5
10A
100
AcDbSymbolTableRecord
100
AcDbBlockTableRecord
2
*D1
340
0
70
0
0
BLOCK_RECORD
5
116
100
AcDbSymbolTableRecord
100
AcDbBlockTableRecord
2
_U0
340
0
70
0
0
BLOCK_RECORD
5
122
100
AcDbSymbolTableRecord
100
AcDbBlockTableRecord
2
*D3
340
0
70
0
0
BLOCK_RECORD
5
12E
100
AcDbSymbolTableRecord
100
AcDbBlockTableRecord
2
_U1
340
0
70
0
0
BLOCK_RECORD
5
13A
100
AcDbSymbolTableRecord
100
AcDbBlockTableRecord
2
*D5
340
0
70
0
0
BLOCK_RECORD
5
146
100
AcDbSymbolTableRecord
100
AcDbBlockTableRecord
2
_U2
340
0
70
0
0
BLOCK_RECORD
5
152
100
AcDbSymbolTableRecord
100
AcDbBlockTableRecord
2
*D7
340
0
70
0
0
BLOCK_RECORD
5
160
100
AcDbSymbolTableRecord
100
AcDbBlockTableRecord
2
_U3
340
0
70
0
0
BLOCK_RECORD
5
16C
100
AcDbSymbolTableRecord
100
AcDbBlockTableRecord
2
*D9
340
0
70
0
0
BLOCK_RECORD
5
178
100
AcDbSymbolTableRecord
100
AcDbBlockTableRecord
2
_U4
340
0
70
0
0
ENDTAB
0
ENDSEC
0
SECTION
2
BLOCKS
0
BLOCK
5
20
100
AcDbEntity
8
0
100
AcDbBlockBegin
2
*Model_Space
70
0
10
0
20
0
30
0
3
*Model_Space
0
ENDBLK
5
21
100
AcDbEntity
8
0
100
AcDbBlockEnd
0
BLOCK
5
1C
100
AcDbEntity
8
0
100
AcDbBlockBegin
2
*Paper_Space
70
0
10
0
20
0
30
0
3
*Paper_Space
0
ENDBLK
5
1D
100
AcDbEntity
8
0
100
AcDbBlockEnd
0
BLOCK
5
24
100
AcDbEntity
8
0
100
AcDbBlockBegin
2
*Paper_Space0
70
0
10
0
20
0
30
0
3
*Paper_Space0
0
ENDBLK
5
25
100
AcDbEntity
8
0
100
AcDbBlockEnd
0
BLOCK
5
10B
100
AcDbEntity
8
0
100
AcDbBlockBegin
2
*D1
70
1
10
0
20
0
30
0
3
*D1
0
LINE
5
10D
100
AcDbEntity
8
0
62
256
6
ByLayer
370
-2
48
1
60
0
100
AcDbLine
10
0
20
-1.5875
30
0
11
0
21
-18.763398
31
0
39
0
210
0
220
0
230
1
0
LINE
5
10E
100
AcDbEntity
8
0
62
256
6
ByLayer
370
-2
48
1
60
0
100
AcDbLine
10
59.4866
20
-8.1375
30
0
11
59.4866
21
-18.763398
31
0
39
0
210
0
220
0
230
1
0
LINE
5
10F
100
AcDbEntity
8
0
62
256
6
ByLayer
370
-2
48
1
60
0
100
AcDbLine
10
3.5
20
-16.763398
30
0
11
55.9866
21
-16.763398
31
0
39
0
210
0
220
0
230
1
0
SOLID
5
110
100
AcDbEntity
8
0
62
256
6
ByLayer
370
-1
48
1
60
0
100
AcDbTrace
10
3.5
20
-16.180065
30
0
11
3.5
21
-17.346732
31
0
12
0
22
-16.763398
32
0
13
0
23
-16.763398
33
0
39
0
210
0
220
0
230
1
0
SOLID
5
111
100
AcDbEntity
8
0
62
256
6
ByLayer
370
-1
48
1
60
0
100
AcDbTrace
10
55.9866
20
-17.346732
30
0
11
55.9866
21
-16.180065
31
0
12
59.4866
22
-16.763398
32
0
13
59.4866
23
-16.763398
33
0
39
0
210
0
220
0
230
1
0
MTEXT
5
112
100
AcDbEntity
8
0
62
256
6
ByLayer
370
18
48
1
60
0
100
AcDbMText
10
29.7433
20
-9.763398
30
0
210
0
220
0
230
1
1
\A1;59.49
40
3.5
41
0
44
1
50
0
71
5
72
5
7
iso_b_vert
0
POINT
5
113
100
AcDbEntity
8
Defpoints
62
0
6
ByLayer
370
-1
48
1
60
0
100
AcDbPoint
10
0
20
0
30
0
39
0
210
0
220
0
230
1
50
360
0
POINT
5
114
100
AcDbEntity
8
Defpoints
62
0
6
ByLayer
370
-1
48
1
60
0
100
AcDbPoint
10
59.4866
20
-6.55
30
0
39
0
210
0
220
0
230
1
50
360
0
POINT
5
115
100
AcDbEntity
8
Defpoints
62
0
6
ByLayer
370
-1
48
1
60
0
100
AcDbPoint
10
59.4866
20
-16.763398
30
0
39
0
210
0
220
0
230
1
50
360
0
ENDBLK
5
10C
100
AcDbEntity
8
0
100
AcDbBlockEnd
0
BLOCK
5
11D
100
AcDbEntity
8
0
100
AcDbBlockBegin
2
_U0
70
0
10
0
20
0
30
0
3
_U0
0
MTEXT
5
117
100
AcDbEntity
8
2
62
256
6
ByLayer
370
13
48
1
60
0
100
AcDbMText
10
24.421735
20
-15.730765
30
0
210
0
220
0
230
1
1
\W0.7669;59,49
40
3.5
41
0
44
1.084337
50
0
71
7
72
5
7
iso_b_vert
0
LINE
5
118
100
AcDbEntity
8
2
62
256
6
ByLayer
370
13
48
1
60
0
100
AcDbLine
10
0
20
-1.5875
30
0
11
0
21
-18.763398
31
0
39
0
210
0
220
0
230
1
0
LINE
5
119
100
AcDbEntity
8
2
62
256
6
ByLayer
370
13
48
1
60
0
100
AcDbLine
10
59.4866
20
-8.1375
30
0
11
59.4866
21
-18.763398
31
0
39
0
210
0
220
0
230
1
0
LINE
5
11A
100
AcDbEntity
8
2
62
256
6
ByLayer
370
13
48
1
60
0
100
AcDbLine
10
0
20
-16.763398
30
0
11
59.4866
21
-16.763398
31
0
39
0
210
0
220
0
230
1
0
SOLID
5
11B
100
AcDbEntity
8
2
62
256
6
ByLayer
370
18
48
1
60
0
100
AcDbTrace
10
0
20
-16.763398
30
0
11
3.499998
21
-16.302615
31
0
12
3.500002
22
-17.224182
32
0
13
3.500002
23
-17.224182
33
0
39
0
210
0
220
0
230
1
0
SOLID
5
11C
100
AcDbEntity
8
2
62
256
6
ByLayer
370
18
48
1
60
0
100
AcDbTrace
10
59.4866
20
-16.763398
30
0
11
55.986602
21
-17.224182
31
0
12
55.986598
22
-16.302615
32
0
13
55.986598
23
-16.302615
33
0
39
0
210
0
220
0
230
1
0
ENDBLK
5
11E
100
AcDbEntity
8
0
100
AcDbBlockEnd
0
BLOCK
5
123
100
AcDbEntity
8
0
100
AcDbBlockBegin
2
*D3
70
1
10
0
20
0
30
0
3
*D3
0
LINE
5
125
100
AcDbEntity
8
0
62
256
6
ByLayer
370
-2
48
1
60
0
100
AcDbLine
10
-45
20
-8.5875
30
0
11
-45
21
-37.692985
31
0
39
0
210
0
220
0
230
1
0
LINE
5
126
100
AcDbEntity
8
0
62
256
6
ByLayer
370
-2
48
1
60
0
100
AcDbLine
10
62
20
-1.5875
30
0
11
62
21
-37.692985
31
0
39
0
210
0
220
0
230
1
0
LINE
5
127
100
AcDbEntity
8
0
62
256
6
ByLayer
370
-2
48
1
60
0
100
AcDbLine
10
-41.5
20
-35.692985
30
0
11
58.5
21
-35.692985
31
0
39
0
210
0
220
0
230
1
0
SOLID
5
128
100
AcDbEntity
8
0
62
256
6
ByLayer
370
-1
48
1
60
0
100
AcDbTrace
10
-41.5
20
-35.109652
30
0
11
-41.5
21
-36.276319
31
0
12
-45
22
-35.692985
32
0
13
-45
23
-35.692985
33
0
39
0
210
0
220
0
230
1
0
SOLID
5
129
100
AcDbEntity
8
0
62
256
6
ByLayer
370
-1
48
1
60
0
100
AcDbTrace
10
58.5
20
-36.276319
30
0
11
58.5
21
-35.109652
31
0
12
62
22
-35.692985
32
0
13
62
23
-35.692985
33
0
39
0
210
0
220
0
230
1
0
MTEXT
5
12A
100
AcDbEntity
8
0
62
256
6
ByLayer
370
18
48
1
60
0
100
AcDbMText
10
8.5
20
-28.692985
30
0
210
0
220
0
230
1
1
\A1;107.00
40
3.5
41
0
44
1
50
0
71
5
72
5
7
iso_b_vert
0
POINT
5
12B
100
AcDbEntity
8
Defpoints
62
0
6
ByLayer
370
-1
48
1
60
0
100
AcDbPoint
10
-45
20
-7
30
0
39
0
210
0
220
0
230
1
50
360
0
POINT
5
12C
100
AcDbEntity
8
Defpoints
62
0
6
ByLayer
370
-1
48
1
60
0
100
AcDbPoint
10
62
20
0
30
0
39
0
210
0
220
0
230
1
50
360
0
POINT
5
12D
100
AcDbEntity
8
Defpoints
62
0
6
ByLayer
370
-1
48
1
60
0
100
AcDbPoint
10
62
20
-35.692985
30
0
39
0
210
0
220
0
230
1
50
360
0
ENDBLK
5
124
100
AcDbEntity
8
0
100
AcDbBlockEnd
0
BLOCK
5
135
100
AcDbEntity
8
0
100
AcDbBlockBegin
2
_U1
70
0
10
0
20
0
30
0
3
_U1
0
MTEXT
5
12F
100
AcDbEntity
8
SK2
62
256
6
ByLayer
370
13
48
1
60
0
100
AcDbMText
10
2.492401
20
-34.660352
30
0
210
0
220
0
230
1
1
\W0.6930;107,00
40
3.5
41
0
44
1.084337
50
0
71
7
72
5
7
iso_b_vert
0
LINE
5
130
100
AcDbEntity
8
SK2
62
256
6
ByLayer
370
13
48
1
60
0
100
AcDbLine
10
-45
20
-8.5875
30
0
11
-45
21
-37.692985
31
0
39
0
210
0
220
0
230
1
0
LINE
5
131
100
AcDbEntity
8
SK2
62
256
6
ByLayer
370
13
48
1
60
0
100
AcDbLine
10
62
20
-1.5875
30
0
11
62
21
-37.692985
31
0
39
0
210
0
220
0
230
1
0
LINE
5
132
100
AcDbEntity
8
SK2
62
256
6
ByLayer
370
13
48
1
60
0
100
AcDbLine
10
-45
20
-35.692985
30
0
11
62
21
-35.692985
31
0
39
0
210
0
220
0
230
1
0
SOLID
5
133
100
AcDbEntity
8
SK2
62
256
6
ByLayer
370
18
48
1
60
0
100
AcDbTrace
10
-45
20
-35.692985
30
0
11
-41.500002
21
-35.232202
31
0
12
-41.499998
22
-36.153769
32
0
13
-41.499998
23
-36.153769
33
0
39
0
210
0
220
0
230
1
0
SOLID
5
134
100
AcDbEntity
8
SK2
62
256
6
ByLayer
370
18
48
1
60
0
100
AcDbTrace
10
62
20
-35.692985
30
0
11
58.500002
21
-36.153769
31
0
12
58.499998
22
-35.232202
32
0
13
58.499998
23
-35.232202
33
0
39
0
210
0
220
0
230
1
0
ENDBLK
5
136
100
AcDbEntity
8
0
100
AcDbBlockEnd
0
BLOCK
5
13B
100
AcDbEntity
8
0
100
AcDbBlockBegin
2
*D5
70
1
10
0
20
0
30
0
3
*D5
0
LINE
5
13D
100
AcDbEntity
8
0
62
256
6
ByLayer
370
-2
48
1
60
0
100
AcDbLine
10
20.19
20
8.1375
30
0
11
20.19
21
20.159119
31
0
39
0
210
0
220
0
230
1
0
LINE
5
13E
100
AcDbEntity
8
0
62
256
6
ByLayer
370
-2
48
1
60
0
100
AcDbLine
10
62
20
1.5875
30
0
11
62
21
20.159119
31
0
39
0
210
0
220
0
230
1
0
LINE
5
13F
100
AcDbEntity
8
0
62
256
6
ByLayer
370
-2
48
1
60
0
100
AcDbLine
10
23.69
20
18.159119
30
0
11
58.5
21
18.159119
31
0
39
0
210
0
220
0
230
1
0
SOLID
5
140
100
AcDbEntity
8
0
62
256
6
ByLayer
370
-1
48
1
60
0
100
AcDbTrace
10
23.69
20
18.742453
30
0
11
23.69
21
17.575786
31
0
12
20.19
22
18.159119
32
0
13
20.19
23
18.159119
33
0
39
0
210
0
220
0
230
1
0
SOLID
5
141
100
AcDbEntity
8
0
62
256
6
ByLayer
370
-1
48
1
60
0
100
AcDbTrace
10
58.5
20
17.575786
30
0
11
58.5
21
18.742453
31
0
12
62
22
18.159119
32
0
13
62
23
18.159119
33
0
39
0
210
0
220
0
230
1
0
MTEXT
5
142
100
AcDbEntity
8
0
62
256
6
ByLayer
370
18
48
1
60
0
100
AcDbMText
10
41.095
20
25.159119
30
0
210
0
220
0
230
1
1
\A1;41.81
40
3.5
41
0
44
1
50
0
71
5
72
5
7
iso_b_vert
0
POINT
5
143
100
AcDbEntity
8
Defpoints
62
0
6
ByLayer
370
-1
48
1
60
0
100
AcDbPoint
10
20.19
20
6.55
30
0
39
0
210
0
220
0
230
1
50
360
0
POINT
5
144
100
AcDbEntity
8
Defpoints
62
0
6
ByLayer
370
-1
48
1
60
0
100
AcDbPoint
10
62
20
0
30
0
39
0
210
0
220
0
230
1
50
360
0
POINT
5
145
100
AcDbEntity
8
Defpoints
62
0
6
ByLayer
370
-1
48
1
60
0
100
AcDbPoint
10
62
20
18.159119
30
0
39
0
210
0
220
0
230
1
50
360
0
ENDBLK
5
13C
100
AcDbEntity
8
0
100
AcDbBlockEnd
0
BLOCK
5
14D
100
AcDbEntity
8
0
100
AcDbBlockBegin
2
_U2
70
0
10
0
20
0
30
0
3
_U2
0
MTEXT
5
147
100
AcDbEntity
8
SK2
62
256
6
ByLayer
370
13
48
1
60
0
100
AcDbMText
10
36.648301
20
19.191753
30
0
210
0
220
0
230
1
1
\W0.6846;41,81
40
3.5
41
0
44
1.084337
50
0
71
7
72
5
7
iso_b_vert
0
LINE
5
148
100
AcDbEntity
8
SK2
62
256
6
ByLayer
370
13
48
1
60
0
100
AcDbLine
10
20.19
20
8.1375
30
0
11
20.19
21
20.159119
31
0
39
0
210
0
220
0
230
1
0
LINE
5
149
100
AcDbEntity
8
SK2
62
256
6
ByLayer
370
13
48
1
60
0
100
AcDbLine
10
62
20
1.5875
30
0
11
62
21
20.159119
31
0
39
0
210
0
220
0
230
1
0
LINE
5
14A
100
AcDbEntity
8
SK2
62
256
6
ByLayer
370
13
48
1
60
0
100
AcDbLine
10
20.19
20
18.159119
30
0
11
62
21
18.159119
31
0
39
0
210
0
220
0
230
1
0
SOLID
5
14B
100
AcDbEntity
8
SK2
62
256
6
ByLayer
370
18
48
1
60
0
100
AcDbTrace
10
20.19
20
18.159119
30
0
11
23.689998
21
18.619903
31
0
12
23.690002
22
17.698335
32
0
13
23.690002
23
17.698335
33
0
39
0
210
0
220
0
230
1
0
SOLID
5
14C
100
AcDbEntity
8
SK2
62
256
6
ByLayer
370
18
48
1
60
0
100
AcDbTrace
10
62
20
18.159119
30
0
11
58.500002
21
17.698335
31
0
12
58.499998
22
18.619903
32
0
13
58.499998
23
18.619903
33
0
39
0
210
0
220
0
230
1
0
ENDBLK
5
14E
100
AcDbEntity
8
0
100
AcDbBlockEnd
0
BLOCK
5
153
100
AcDbEntity
8
0
100
AcDbBlockBegin
2
*D7
70
1
10
0
20
0
30
0
3
*D7
0
LINE
5
155
100
AcDbEntity
8
0
62
256
6
ByLayer
370
-2
48
1
60
0
100
AcDbLine
10
62
20
-1.5875
30
0
11
62
21
-21.352503
31
0
39
0
210
0
220
0
230
1
0
LINE
5
156
100
AcDbEntity
8
0
62
256
6
ByLayer
370
-2
48
1
60
0
100
AcDbLine
10
59.4866
20
-8.1375
30
0
11
59.4866
21
-21.352503
31
0
39
0
210
0
220
0
230
1
0
LINE
5
157
100
AcDbEntity
8
0
62
256
6
ByLayer
370
-2
48
1
60
0
100
AcDbLine
10
62
20
-19.352503
30
0
11
89.166667
21
-19.352503
31
0
39
0
210
0
220
0
230
1
0
LINE
5
158
100
AcDbEntity
8
0
62
256
6
ByLayer
370
-2
48
1
60
0
100
AcDbLine
10
65.5
20
-19.352503
30
0
11
69
21
-19.352503
31
0
39
0
210
0
220
0
230
1
0
LINE
5
159
100
AcDbEntity
8
0
62
256
6
ByLayer
370
-2
48
1
60
0
100
AcDbLine
10
55.9866
20
-19.352503
30
0
11
52.4866
21
-19.352503
31
0
39
0
210
0
220
0
230
1
0
SOLID
5
15A
100
AcDbEntity
8
0
62
256
6
ByLayer
370
-1
48
1
60
0
100
AcDbTrace
10
65.5
20
-18.76917
30
0
11
65.5
21
-19.935837
31
0
12
62
22
-19.352503
32
0
13
62
23
-19.352503
33
0
39
0
210
0
220
0
230
1
0
SOLID
5
15B
100
AcDbEntity
8
0
62
256
6
ByLayer
370
-1
48
1
60
0
100
AcDbTrace
10
55.9866
20
-19.935837
30
0
11
55.9866
21
-18.76917
31
0
12
59.4866
22
-19.352503
32
0
13
59.4866
23
-19.352503
33
0
39
0
210
0
220
0
230
1
0
MTEXT
5
15C
100
AcDbEntity
8
0
62
256
6
ByLayer
370
18
48
1
60
0
100
AcDbMText
10
79.083333
20
-12.352503
30
0
210
0
220
0
230
1
1
\A1;2.51
40
3.5
41
0
44
1
50
0
71
5
72
5
7
iso_b_vert
0
POINT
5
15D
100
AcDbEntity
8
Defpoints
62
0
6
ByLayer
370
-1
48
1
60
0
100
AcDbPoint
10
62
20
0
30
0
39
0
210
0
220
0
230
1
50
360
0
POINT
5
15E
100
AcDbEntity
8
Defpoints
62
0
6
ByLayer
370
-1
48
1
60
0
100
AcDbPoint
10
59.4866
20
-6.55
30
0
39
0
210
0
220
0
230
1
50
360
0
POINT
5
15F
100
AcDbEntity
8
Defpoints
62
0
6
ByLayer
370
-1
48
1
60
0
100
AcDbPoint
10
59.4866
20
-19.352503
30
0
39
0
210
0
220
0
230
1
50
360
0
ENDBLK
5
154
100
AcDbEntity
8
0
100
AcDbBlockEnd
0
BLOCK
5
167
100
AcDbEntity
8
0
100
AcDbBlockBegin
2
_U3
70
0
10
0
20
0
30
0
3
_U3
0
MTEXT
5
161
100
AcDbEntity
8
SK2
62
256
6
ByLayer
370
13
48
1
60
0
100
AcDbMText
10
68.589293
20
-18.31987
30
0
210
0
220
0
230
1
1
\W0.6993;2,51
40
3.5
41
0
44
1.084337
50
0
71
7
72
5
7
iso_b_vert
0
LINE
5
162
100
AcDbEntity
8
SK2
62
256
6
ByLayer
370
13
48
1
60
0
100
AcDbLine
10
62
20
-1.5875
30
0
11
62
21
-21.352503
31
0
39
0
210
0
220
0
230
1
0
LINE
5
163
100
AcDbEntity
8
SK2
62
256
6
ByLayer
370
13
48
1
60
0
100
AcDbLine
10
59.4866
20
-8.1375
30
0
11
59.4866
21
-21.352503
31
0
39
0
210
0
220
0
230
1
0
LINE
5
164
100
AcDbEntity
8
SK2
62
256
6
ByLayer
370
13
48
1
60
0
100
AcDbLine
10
50.7366
20
-19.352503
30
0
11
75.559058
21
-19.352503
31
0
39
0
210
0
220
0
230
1
0
SOLID
5
165
100
AcDbEntity
8
SK2
62
256
6
ByLayer
370
18
48
1
60
0
100
AcDbTrace
10
62
20
-19.352503
30
0
11
65.499998
21
-18.891719
31
0
12
65.500002
22
-19.813287
32
0
13
65.500002
23
-19.813287
33
0
39
0
210
0
220
0
230
1
0
SOLID
5
166
100
AcDbEntity
8
SK2
62
256
6
ByLayer
370
18
48
1
60
0
100
AcDbTrace
10
59.4866
20
-19.352503
30
0
11
55.986602
21
-19.813287
31
0
12
55.986598
22
-18.891719
32
0
13
55.986598
23
-18.891719
33
0
39
0
210
0
220
0
230
1
0
ENDBLK
5
168
100
AcDbEntity
8
0
100
AcDbBlockEnd
0
BLOCK
5
16D
100
AcDbEntity
8
0
100
AcDbBlockBegin
2
*D9
70
1
10
0
20
0
30
0
3
*D9
0
LINE
5
16F
100
AcDbEntity
8
0
62
256
6
ByLayer
370
-2
48
1
60
0
100
AcDbLine
10
-45
20
-8.5875
30
0
11
-45
21
-27.343428
31
0
39
0
210
0
220
0
230
1
0
LINE
5
170
100
AcDbEntity
8
0
62
256
6
ByLayer
370
-2
48
1
60
0
100
AcDbLine
10
59.4866
20
-8.1375
30
0
11
59.4866
21
-27.343428
31
0
39
0
210
0
220
0
230
1
0
LINE
5
171
100
AcDbEntity
8
0
62
256
6
ByLayer
370
-2
48
1
60
0
100
AcDbLine
10
-41.5
20
-25.343428
30
0
11
55.9866
21
-25.343428
31
0
39
0
210
0
220
0
230
1
0
SOLID
5
172
100
AcDbEntity
8
0
62
256
6
ByLayer
370
-1
48
1
60
0
100
AcDbTrace
10
-41.5
20
-24.760095
30
0
11
-41.5
21
-25.926762
31
0
12
-45
22
-25.343428
32
0
13
-45
23
-25.343428
33
0
39
0
210
0
220
0
230
1
0
SOLID
5
173
100
AcDbEntity
8
0
62
256
6
ByLayer
370
-1
48
1
60
0
100
AcDbTrace
10
55.9866
20
-25.926762
30
0
11
55.9866
21
-24.760095
31
0
12
59.4866
22
-25.343428
32
0
13
59.4866
23
-25.343428
33
0
39
0
210
0
220
0
230
1
0
MTEXT
5
174
100
AcDbEntity
8
0
62
256
6
ByLayer
370
18
48
1
60
0
100
AcDbMText
10
7.2433
20
-18.343428
30
0
210
0
220
0
230
1
1
\A1;104.49
40
3.5
41
0
44
1
50
0
71
5
72
5
7
iso_b_vert
0
POINT
5
175
100
AcDbEntity
8
Defpoints
62
0
6
ByLayer
370
-1
48
1
60
0
100
AcDbPoint
10
-45
20
-7
30
0
39
0
210
0
220
0
230
1
50
360
0
POINT
5
176
100
AcDbEntity
8
Defpoints
62
0
6
ByLayer
370
-1
48
1
60
0
100
AcDbPoint
10
59.4866
20
-6.55
30
0
39
0
210
0
220
0
230
1
50
360
0
POINT
5
177
100
AcDbEntity
8
Defpoints
62
0
6
ByLayer
370
-1
48
1
60
0
100
AcDbPoint
10
59.4866
20
-25.343428
30
0
39
0
210
0
220
0
230
1
50
360
0
ENDBLK
5
16E
100
AcDbEntity
8
0
100
AcDbBlockEnd
0
BLOCK
5
17F
100
AcDbEntity
8
0
100
AcDbBlockBegin
2
_U4
70
0
10
0
20
0
30
0
3
_U4
0
MTEXT
5
179
100
AcDbEntity
8
SK2
62
256
6
ByLayer
370
13
48
1
60
0
100
AcDbMText
10
0.867168
20
-24.310795
30
0
210
0
220
0
230
1
1
\W0.7398;104,49
40
3.5
41
0
44
1.084337
50
0
71
7
72
5
7
iso_b_vert
0
LINE
5
17A
100
AcDbEntity
8
SK2
62
256
6
ByLayer
370
13
48
1
60
0
100
AcDbLine
10
-45
20
-8.5875
30
0
11
-45
21
-27.343428
31
0
39
0
210
0
220
0
230
1
0
LINE
5
17B
100
AcDbEntity
8
SK2
62
256
6
ByLayer
370
13
48
1
60
0
100
AcDbLine
10
59.4866
20
-8.1375
30
0
11
59.4866
21
-27.343428
31
0
39
0
210
0
220
0
230
1
0
LINE
5
17C
100
AcDbEntity
8
SK2
62
256
6
ByLayer
370
13
48
1
60
0
100
AcDbLine
10
-45
20
-25.343428
30
0
11
59.4866
21
-25.343428
31
0
39
0
210
0
220
0
230
1
0
SOLID
5
17D
100
AcDbEntity
8
SK2
62
256
6
ByLayer
370
18
48
1
60
0
100
AcDbTrace
10
-45
20
-25.343428
30
0
11
-41.500002
21
-24.882645
31
0
12
-41.499998
22
-25.804212
32
0
13
-41.499998
23
-25.804212
33
0
39
0
210
0
220
0
230
1
0
SOLID
5
17E
100
AcDbEntity
8
SK2
62
256
6
ByLayer
370
18
48
1
60
0
100
AcDbTrace
10
59.4866
20
-25.343428
30
0
11
55.986602
21
-25.804212
31
0
12
55.986598
22
-24.882645
32
0
13
55.986598
23
-24.882645
33
0
39
0
210
0
220
0
230
1
0
ENDBLK
5
180
100
AcDbEntity
8
0
100
AcDbBlockEnd
0
ENDSEC
0
SECTION
2
ENTITIES
0
ARC
5
A6
100
AcDbEntity
8
1
62
256
6
ByLayer
370
18
48
1
60
0
100
AcDbCircle
39
0
10
1.256402
20
-7.295187
30
0
40
0.849999999999996
210
0
220
0
230
1
100
AcDbArc
50
89.896868
51
137.651417
0
ARC
5
A7
100
AcDbEntity
8
1
62
256
6
ByLayer
370
18
48
1
60
0
100
AcDbCircle
39
0
10
1.256402
20
7.295187
30
0
40
0.849999999999996
210
0
220
0
230
1
100
AcDbArc
50
222.348583
51
270.103132
0
ARC
5
A8
100
AcDbEntity
8
1
62
256
6
ByLayer
370
18
48
1
60
0
100
AcDbCircle
39
0
10
0
20
-6.15
30
0
40
0.849999999999997
210
0
220
0
230
1
100
AcDbArc
50
270
51
317.651417
0
ARC
5
A9
100
AcDbEntity
8
1
62
256
6
ByLayer
370
18
48
1
60
0
100
AcDbCircle
39
0
10
0
20
6.15
30
0
40
0.849999999999997
210
0
220
0
230
1
100
AcDbArc
50
42.348583
51
90
0
ELLIPSE
5
AA
100
AcDbEntity
8
1
62
256
6
ByLayer
370
13
48
1
60
0
100
AcDbEllipse
10
19.313313
20
70.488751
30
0
11
-39.4406221890432
21
62.6339722619759
31
0
210
0
220
0
230
1
40
0.771793
41
2.35247817600723
42
2.45723602551366
0
ELLIPSE
5
AB
100
AcDbEntity
8
1
62
256
6
ByLayer
370
13
48
1
60
0
100
AcDbEllipse
10
17.071256
20
-69.076927
30
0
11
39.4406221890434
21
62.6339722619759
31
0
210
0
220
0
230
1
40
0.771793
41
0.834511820612608
42
0.86682948037442
0
ELLIPSE
5
AC
100
AcDbEntity
8
1
62
256
6
ByLayer
370
13
48
1
60
0
100
AcDbEllipse
10
5.430169
20
0.294448
30
0
11
0.143220798183269
21
0.263605392524029
31
0
210
0
220
0
230
1
40
0.022911
41
-2.66441476679177
42
-1.60910581968828
0
ELLIPSE
5
AD
100
AcDbEntity
8
1
62
256
6
ByLayer
370
13
48
1
60
0
100
AcDbEllipse
10
106.194174
20
41.339538
30
0
11
-59.8999999999999
21
7.33539205939603E-15
31
0
210
0
220
0
230
1
40
0.99863
41
0.69348290783082
42
0.728057587687377
0
ELLIPSE
5
AE
100
AcDbEntity
8
1
62
256
6
ByLayer
370
13
48
1
60
0
100
AcDbEllipse
10
5.091254
20
0.481258
30
0
11
-0.148065149767214
21
-0.260915142190737
31
0
210
0
220
0
230
1
40
0.406188
41
-1.27355168885227
42
-0.966311100540926
0
ELLIPSE
5
AF
100
AcDbEntity
8
1
62
256
6
ByLayer
370
18
48
1
60
0
100
AcDbEllipse
10
5.428886
20
7.296933
30
0
11
-1
21
1.22460635382238E-16
31
0
210
0
220
0
230
1
40
0.999996
41
1.01878150717193
42
1.57564004915278
0
ELLIPSE
5
B0
100
AcDbEntity
8
1
62
256
6
ByLayer
370
18
48
1
60
0
100
AcDbEllipse
10
5.428886
20
-7.296933
30
0
11
-1
21
1.22460635382238E-16
31
0
210
0
220
0
230
1
40
0.999996
41
-1.56912346724312
42
-1.02031853362808
0
POINT
5
70
100
AcDbEntity
8
80
62
256
6
ByLayer
370
18
48
1
60
0
100
AcDbPoint
10
0
20
0
30
0
39
0
210
0
220
0
230
1
50
360
0
POINT
5
72
100
AcDbEntity
8
81
62
256
6
ByLayer
370
18
48
1
60
0
100
AcDbPoint
10
62
20
0
30
0
39
0
210
0
220
0
230
1
50
360
0
POINT
5
74
100
AcDbEntity
8
1
62
256
6
ByLayer
370
18
48
1
60
1
100
AcDbPoint
10
59.4866
20
-6.55
30
0
39
0
210
0
220
0
230
1
50
360
0
POINT
5
76
100
AcDbEntity
8
1
62
256
6
ByLayer
370
18
48
1
60
1
100
AcDbPoint
10
-45
20
-7
30
0
39
0
210
0
220
0
230
1
50
360
0
POINT
5
77
100
AcDbEntity
8
1
62
256
6
ByLayer
370
18
48
1
60
1
100
AcDbPoint
10
20.19
20
6.55
30
0
39
0
210
0
220
0
230
1
50
360
0
POINT
5
78
100
AcDbEntity
8
1
62
256
6
ByLayer
370
18
48
1
60
1
100
AcDbPoint
10
59.4866
20
-6.55
30
0
39
0
210
0
220
0
230
1
50
360
0
POINT
5
79
100
AcDbEntity
8
1
62
256
6
ByLayer
370
18
48
1
60
1
100
AcDbPoint
10
-45
20
-7
30
0
39
0
210
0
220
0
230
1
50
360
0
POINT
5
7A
100
AcDbEntity
8
1
62
256
6
ByLayer
370
18
48
1
60
1
100
AcDbPoint
10
59.4866
20
-6.55
30
0
39
0
210
0
220
0
230
1
50
360
0
SPLINE
5
B1
100
AcDbEntity
8
1
62
256
6
ByLayer
370
18
48
1
60
0
100
AcDbSpline
70
4
71
3
72
8
73
4
40
0
40
0
40
0
40
0
40
1
40
1
40
1
40
1
41
1
10
61.0438808090194
20
-1.41889377766338
30
0
41
1
10
61.044691186601
20
-1.41972022848577
30
0
41
1
10
61.0455015878257
20
-1.42054665612534
30
0
41
1
10
61.0463120126918
20
-1.42137306058015
30
0
0
SPLINE
5
B2
100
AcDbEntity
8
1
62
256
6
ByLayer
370
18
48
1
60
0
100
AcDbSpline
70
4
71
3
72
12
73
8
40
0
40
0
40
0
40
0
40
0.25
40
0.25
40
0.5
40
0.5
40
1
40
1
40
1
40
1
41
1
10
4.91990252449176
20
0.382454748337068
30
0
41
1
10
4.93916105534021
20
0.343725686117438
30
0
41
1
10
4.96526257142463
20
0.310183653730803
30
0
41
1
10
5.02407034851745
20
0.248105301623781
30
0
41
1
10
5.05667287358966
20
0.220098792720108
30
0
41
1
10
5.15776708149622
20
0.142810516362118
30
0
41
1
10
5.23039754498976
20
0.0988502823757074
30
0
41
1
10
5.30572007520561
20
0.0587820533727097
30
0
0
SPLINE
5
B3
100
AcDbEntity
8
1
62
256
6
ByLayer
370
18
48
1
60
0
100
AcDbSpline
70
4
71
3
72
20
73
16
40
0
40
0
40
0
40
0
40
0.249999999999995
40
0.249999999999995
40
0.374999999999996
40
0.374999999999996
40
0.499999999999997
40
0.499999999999997
40
0.624999999999997
40
0.624999999999997
40
0.749999999999998
40
0.749999999999998
40
0.874999999999999
40
0.874999999999999
40
1
40
1
40
1
40
1
41
1
10
61.0463120126637
20
-1.42137306060016
30
0
41
1
10
61.1144160996437
20
-1.3809628066233
30
0
41
1
10
61.1871644358696
20
-1.3142381372615
30
0
41
1
10
61.3038197301435
20
-1.17700026222681
30
0
41
1
10
61.344213453879
20
-1.1245916935371
30
0
41
1
10
61.4253419577162
20
-1.01030724120582
30
0
41
1
10
61.4662967748046
20
-0.94822351049234
30
0
41
1
10
61.5489893334669
20
-0.814652475543966
30
0
41
1
10
61.5907359690907
20
-0.743146886321853
30
0
41
1
10
61.6749643056197
20
-0.590838874262005
30
0
41
1
10
61.7166444404408
20
-0.511489340996405
30
0
41
1
10
61.7991542509193
20
-0.3468679822235
30
0
41
1
10
61.8399834591847
20
-0.261593499095994
30
0
41
1
10
61.920740429507
20
-0.0853121000013459
30
0
41
1
10
61.9608545395609
20
0.00616015170786
30
0
41
1
10
61.9997911353524
20
0.098872528411647
30
0
0
SPLINE
5
B4
100
AcDbEntity
8
1
62
256
6
ByLayer
370
18
48
1
60
0
100
AcDbSpline
70
4
71
3
72
8
73
4
40
0
40
0
40
0
40
0
40
1
40
1
40
1
40
1
41
1
10
61.4807207635939
20
-1.5354485463362
30
0
41
1
10
61.1188781054516
20
-2.58471234707378
30
0
41
1
10
60.7602275057857
20
-3.63506218978307
30
0
41
1
10
60.4047888915193
20
-4.68650485425061
30
0
0
SPLINE
5
B5
100
AcDbEntity
8
1
62
256
6
ByLayer
370
18
48
1
60
0
100
AcDbSpline
70
4
71
3
72
20
73
16
40
0
40
0
40
0
40
0
40
0.250000000000004
40
0.250000000000004
40
0.375000000000005
40
0.375000000000005
40
0.437500000000006
40
0.437500000000006
40
0.500000000000006
40
0.500000000000006
40
0.750000000000003
40
0.750000000000003
40
0.875000000000002
40
0.875000000000002
40
1
40
1
40
1
40
1
41
1
10
59.5791945992688
20
-6.1239447652587
30
0
41
1
10
59.448178822671
20
-6.0124396530201
30
0
41
1
10
59.3318294712611
20
-5.86769711949279
30
0
41
1
10
59.1800882822304
20
-5.59895227906327
30
0
41
1
10
59.1333276077714
20
-5.50071431587284
30
0
41
1
10
59.0692526582453
20
-5.33961030859035
30
0
41
1
10
59.0488790363615
20
-5.28349889607807
30
0
41
1
10
59.0106591342848
20
-5.16788884190396
30
0
41
1
10
58.9927535701929
20
-5.1082589879035
30
0
41
1
10
58.9092034243375
20
-4.80105264408118
30
0
41
1
10
58.8613298631696
20
-4.52655039195824
30
0
41
1
10
58.819044391701
20
-4.07006240582143
30
0
41
1
10
58.8099025336295
20
-3.90947015138514
30
0
41
1
10
58.8021832465251
20
-3.57820145144234
30
0
41
1
10
58.8035258060948
20
-3.40746754985631
30
0
41
1
10
58.8100237064849
20
-3.23168003425596
30
0
0
SPLINE
5
B6
100
AcDbEntity
8
1
62
256
6
ByLayer
370
13
48
1
60
0
100
AcDbSpline
70
4
71
3
72
32
73
28
40
0
40
0
40
0
40
0
40
0.239721149231933
40
0.239721149231933
40
0.269686292885925
40
0.269686292885925
40
0.299651436539917
40
0.299651436539917
40
0.3595817238479
40
0.3595817238479
40
0.479442298463866
40
0.479442298463866
40
0.539372585771849
40
0.539372585771849
40
0.569337729425841
40
0.569337729425841
40
0.599302873079833
40
0.599302873079833
40
0.719163447695802
40
0.719163447695802
40
0.839024022311771
40
0.839024022311771
40
0.898954309619756
40
0.898954309619756
40
0.95888459692774
40
0.95888459692774
40
1
40
1
40
1
40
1
41
1
10
59.5791945992688
20
-6.1239447652587
30
0
41
1
10
57.3126565455773
20
-5.77634768058954
30
0
41
1
10
55.0817868056908
20
-5.11365245730906
30
0
41
1
10
52.5283911391229
20
-4.10106765989087
30
0
41
1
10
52.2446442678001
20
-3.98508142402434
30
0
41
1
10
51.6790850391923
20
-3.74769546747126
30
0
41
1
10
51.3969177360634
20
-3.62616050530477
30
0
41
1
10
50.5518451766997
20
-3.25379842896564
30
0
41
1
10
49.9903566511251
20
-2.99524332678374
30
0
41
1
10
48.3080559806166
20
-2.19484634635333
30
0
41
1
10
47.189766139644
20
-1.62763679818047
30
0
41
1
10
45.5026141628462
20
-0.753230364071015
30
0
41
1
10
44.9387325584849
20
-0.457630868505959
30
0
41
1
10
44.0888455298972
20
-0.0113897901168798
30
0
41
1
10
43.8044532769691
20
0.138077171429103
30
0
41
1
10
43.2376295035081
20
0.435308687926266
30
0
41
1
10
42.9548566330792
20
0.583195625063979
30
0
41
1
10
41.5436961333378
20
1.31832445501678
30
0
41
1
10
40.4234297482591
20
1.89232348011279
30
0
41
1
10
38.1809407731249
20
2.97654995450404
30
0
41
1
10
37.0591278875798
20
3.48775965014246
30
0
41
1
10
35.3611880063614
20
4.18212620142555
30
0
41
1
10
34.7919390353435
20
4.40177962822708
30
0
41
1
10
33.6564190376759
20
4.80930395175554
30
0
41
1
10
33.0890462059871
20
4.99789959440579
30
0
41
1
10
32.1309677264561
20
5.28730448427152
30
0
41
1
10
31.7410215063372
20
5.39692273043374
30
0
41
1
10
31.3511085485065
20
5.49798239518117
30
0
0
SPLINE
5
B7
100
AcDbEntity
8
1
62
256
6
ByLayer
370
18
48
1
60
0
100
AcDbSpline
70
4
71
3
72
10
73
6
40
0
40
0
40
0
40
0
40
0.5
40
0.5
40
1
40
1
40
1
40
1
41
1
10
60.1296157808299
20
3.1027643320208
30
0
41
1
10
60.150068146079
20
3.3721512483601
30
0
41
1
10
60.189492352798
20
3.6374838193637
30
0
41
1
10
60.2855552552868
20
4.16447016806549
30
0
41
1
10
60.3426833133241
20
4.42601936742693
30
0
41
1
10
60.4047888915193
20
4.68650485425056
30
0
0
SPLINE
5
B8
100
AcDbEntity
8
1
62
256
6
ByLayer
370
18
48
1
60
0
100
AcDbSpline
70
4
71
3
72
8
73
4
40
0
40
0
40
0
40
0
40
1
40
1
40
1
40
1
41
1
10
25.4536224764907
20
-6.32866262920655
30
0
41
1
10
24.5229094033264
20
-6.34440768741584
30
0
41
1
10
23.5913332436988
20
-6.30401006189558
30
0
41
1
10
22.6536028192118
20
-6.20748982626765
30
0
0
SPLINE
5
B9
100
AcDbEntity
8
1
62
256
6
ByLayer
370
13
48
1
60
0
100
AcDbSpline
70
4
71
3
72
24
73
20
40
0
40
0
40
0
40
0
40
0.017247441787696
40
0.017247441787696
40
0.0663850696983102
40
0.0663850696983102
40
0.115522697608925
40
0.115522697608925
40
0.213797953430154
40
0.213797953430154
40
0.410348465072613
40
0.410348465072613
40
0.508623720893844
40
0.508623720893844
40
0.557761348804459
40
0.557761348804459
40
0.606898976715074
40
0.606898976715074
40
1
40
1
40
1
40
1
41
1
10
22.6536028191709
20
-6.20748982626347
30
0
41
1
10
22.5542827875295
20
-6.19726685321444
30
0
41
1
10
22.4548937169873
20
-6.18641429346474
30
0
41
1
10
22.0720571805502
20
-6.14221982576086
30
0
41
1
10
21.7876867001975
20
-6.1043416839386
30
0
41
1
10
21.2192857736735
20
-6.01864122095407
30
0
41
1
10
20.9357762996944
20
-5.97091690694603
30
0
41
1
10
20.086886102848
20
-5.8135327338407
30
0
41
1
10
19.5230916256684
20
-5.68953910787593
30
0
41
1
10
17.8349010484428
20
-5.2650046908885
30
0
41
1
10
16.7133544200517
20
-4.91194902715156
30
0
41
1
10
15.0235208019825
20
-4.29204234827043
30
0
41
1
10
14.4589295835413
20
-4.07048299121024
30
0
41
1
10
13.6083915096049
20
-3.71791171602919
30
0
41
1
10
13.3238783227156
20
-3.59684053331853
30
0
41
1
10
12.7552498052492
20
-3.34921840613612
30
0
41
1
10
12.4716451442612
20
-3.22289974661035
30
0
41
1
10
9.92423971845568
20
-2.0659352300037
30
0
41
1
10
7.69606093587115
20
-0.893862792736201
30
0
41
1
10
5.43071826869945
20
0.281073258071899
30
0
0
SPLINE
5
BA
100
AcDbEntity
8
1
62
256
6
ByLayer
370
18
48
1
60
0
100
AcDbSpline
70
4
71
3
72
14
73
10
40
0
40
0
40
0
40
0
40
0.249999999999999
40
0.249999999999999
40
0.499999999999998
40
0.499999999999998
40
0.749999999999999
40
0.749999999999999
40
1
40
1
40
1
40
1
41
1
10
12.7895435840482
20
-4.76056945447917
30
0
41
1
10
13.44309895132
20
-4.94752550945731
30
0
41
1
10
14.0978133562465
20
-5.12024144272675
30
0
41
1
10
15.4089620386307
20
-5.438453840704
30
0
41
1
10
16.0653986746718
20
-5.58394228685376
30
0
41
1
10
17.3797473141488
20
-5.84683492825818
30
0
41
1
10
18.0387793789487
20
-5.96439081776586
30
0
41
1
10
19.3497115219689
20
-6.16721843007812
30
0
41
1
10
20.002214046651
20
-6.25268161659093
30
0
41
1
10
20.651448812679
20
-6.31989106604212
30
0
0
SPLINE
5
BB
100
AcDbEntity
8
1
62
256
6
ByLayer
370
18
48
1
60
0
100
AcDbSpline
70
4
71
3
72
12
73
8
40
0
40
0
40
0
40
0
40
0.0476770560197091
40
0.0476770560197091
40
0.523838528009855
40
0.523838528009855
40
1
40
1
40
1
40
1
41
1
10
18.7828708652567
20
1.69469669992239
30
0
41
1
10
18.792632926656
20
1.70823384568175
30
0
41
1
10
18.8023470024561
20
1.72192437777937
30
0
41
1
10
18.9085235149494
20
1.87399786323058
30
0
41
1
10
18.999997474913
20
2.02722166376026
30
0
41
1
10
19.1684583179629
20
2.35626605708583
30
0
41
1
10
19.2454385974841
20
2.53207375153627
30
0
41
1
10
19.3133134286786
20
2.71492979201105
30
0
0
SPLINE
5
BC
100
AcDbEntity
8
1
62
256
6
ByLayer
370
18
48
1
60
0
100
AcDbSpline
70
4
71
3
72
10
73
6
40
0
40
0
40
0
40
0
40
0.5
40
0.5
40
1
40
1
40
1
40
1
41
1
10
5.54381534126912
20
-5.64211675138498
30
0
41
1
10
5.57151573411801
20
-5.59334480054724
30
0
41
1
10
5.60304925529658
20
-5.54264326544578
30
0
41
1
10
5.67206299328532
20
-5.43958032830747
30
0
41
1
10
5.70965423551587
20
-5.38700359057452
30
0
41
1
10
5.75006262735155
20
-5.33347736963404
30
0
0
SPLINE
5
BD
100
AcDbEntity
8
1
62
256
6
ByLayer
370
18
48
1
60
0
100
AcDbSpline
70
4
71
3
72
8
73
4
40
0
40
0
40
0
40
0
40
1
40
1
40
1
40
1
41
1
10
61.9997911353524
20
0.098872528411647
30
0
41
1
10
62.0000696215392
20
0.032957509470549
30
0
41
1
10
62.0000696215392
20
-0.0329575094705774
30
0
41
1
10
61.9997911353524
20
-0.0988725284116754
30
0
0
SPLINE
5
BE
100
AcDbEntity
8
1
62
256
6
ByLayer
370
18
48
1
60
0
100
AcDbSpline
70
4
71
3
72
8
73
4
40
0
40
0
40
0
40
0
40
1
40
1
40
1
40
1
41
1
10
61.480720763594
20
1.53544854633597
30
0
41
1
10
61.1188797123054
20
2.58470768755274
30
0
41
1
10
60.7602290874923
20
3.63505751084881
30
0
41
1
10
60.4047888915193
20
4.68650485425056
30
0
0
SPLINE
5
BF
100
AcDbEntity
8
1
62
256
6
ByLayer
370
18
48
1
60
0
100
AcDbSpline
70
4
71
3
72
48
73
44
40
0
40
0
40
0
40
0
40
0.0347062016015559
40
0.0347062016015559
40
0.131235581441399
40
0.131235581441399
40
0.179500271361321
40
0.179500271361321
40
0.227764961281243
40
0.227764961281243
40
0.276029651201165
40
0.276029651201165
40
0.324294341121088
40
0.324294341121088
40
0.37255903104101
40
0.37255903104101
40
0.420823720960932
40
0.420823720960932
40
0.469088410880854
40
0.469088410880854
40
0.517353100800776
40
0.517353100800776
40
0.613882480640619
40
0.613882480640619
40
0.662147170560541
40
0.662147170560541
40
0.710411860480463
40
0.710411860480463
40
0.758676550400385
40
0.758676550400385
40
0.806941240320307
40
0.806941240320307
40
0.855205930240229
40
0.855205930240229
40
0.879338275200191
40
0.879338275200191
40
0.903470620160152
40
0.903470620160152
40
0.951735310080076
40
0.951735310080076
40
0.975867655040038
40
0.975867655040038
40
1
40
1
40
1
40
1
41
1
10
24.4719686834397
20
6.4869603480619
30
0
41
1
10
24.8793636319802
20
6.48757351288509
30
0
41
1
10
25.2872242664127
20
6.47722048120826
30
0
41
1
10
26.8263971782772
20
6.39675590514909
30
0
41
1
10
27.9541377223463
20
6.25321770655785
30
0
41
1
10
29.6544977447943
20
5.91743543795127
30
0
41
1
10
30.2204490394617
20
5.78575229792585
30
0
41
1
10
31.350689364524
20
5.48596282557207
30
0
41
1
10
31.9154511952805
20
5.31782800060205
30
0
41
1
10
33.0464827168366
20
4.94731720688614
30
0
41
1
10
33.6137061756646
20
4.74450901127179
30
0
41
1
10
34.7452124860151
20
4.31020370360008
30
0
41
1
10
35.3099217567242
20
4.07859645817751
30
0
41
1
10
36.4396657477412
20
3.59002427651652
30
0
41
1
10
37.0047037866049
20
3.33306257575862
30
0
41
1
10
38.1376032465383
20
2.7975107509026
30
0
41
1
10
38.7033501203948
20
2.51980719150325
30
0
41
1
10
39.8330467894371
20
1.95057367678777
30
0
41
1
10
40.3974902209723
20
1.65885504603193
30
0
41
1
10
41.5278159832691
20
1.06521512020532
30
0
41
1
10
42.0947574775887
20
0.762898726878376
30
0
41
1
10
43.7912124147441
20
-0.146524697079258
30
0
41
1
10
44.9177943219407
20
-0.757250243228441
30
0
41
1
10
46.6162398572906
20
-1.65170659396858
30
0
41
1
10
47.1817446091317
20
-1.94538164683931
30
0
41
1
10
48.3108378441725
20
-2.51739017022996
30
0
41
1
10
48.8749576265351
20
-2.79597915594226
30
0
41
1
10
50.0047035919031
20
-3.33425734118686
30
0
41
1
10
50.5713526288859
20
-3.59442539027216
30
0
41
1
10
51.7014626898227
20
-4.08829572583838
30
0
41
1
10
52.2652747114982
20
-4.32227408614165
30
0
41
1
10
53.392858391239
20
-4.76097502316546
30
0
41
1
10
53.9566481342719
20
-4.96567541614925
30
0
41
1
10
54.8041141532665
20
-5.24834289754926
30
0
41
1
10
55.0871986328696
20
-5.33854901520596
30
0
41
1
10
55.6528653906635
20
-5.51002788440016
30
0
41
1
10
55.935264084189
20
-5.59125698511113
30
0
41
1
10
56.7817334722272
20
-5.82092912498433
30
0
41
1
10
57.3450797643732
20
-5.95536554216287
30
0
41
1
10
58.1903624091336
20
-6.12771275301651
30
0
41
1
10
58.472164781161
20
-6.18027844820722
30
0
41
1
10
59.0361278733531
20
-6.27542271636145
30
0
41
1
10
59.3181537344686
20
-6.3180626698981
30
0
41
1
10
59.6007733150093
20
-6.35546700665316
30
0
0
SPLINE
5
C0
100
AcDbEntity
8
1
62
256
6
ByLayer
370
18
48
1
60
0
100
AcDbSpline
70
4
71
3
72
8
73
4
40
0
40
0
40
0
40
0
40
1
40
1
40
1
40
1
41
1
10
61.9997911353524
20
0.098872528411647
30
0
41
1
10
61.8203390663306
20
0.571636376397322
30
0
41
1
10
61.6478831720825
20
1.05071447719229
30
0
41
1
10
61.4807207635942
20
1.53544854633532
30
0
0
SPLINE
5
C1
100
AcDbEntity
8
1
62
256
6
ByLayer
370
18
48
1
60
0
100
AcDbSpline
70
4
71
1
72
4
73
2
40
0
40
0
40
1
40
1
41
1
10
61.0405001161976
20
-1.44099369430202
30
0
41
1
10
61.0463120126831
20
-1.42137306058873
30
0
0
SPLINE
5
C2
100
AcDbEntity
8
1
62
256
6
ByLayer
370
18
48
1
60
0
100
AcDbSpline
70
4
71
3
72
8
73
4
40
0
40
0
40
0
40
0
40
1
40
1
40
1
40
1
41
1
10
12.0691421611706
20
4.57825927322227
30
0
41
1
10
12.3122823646554
20
4.63176144242956
30
0
41
1
10
12.5524579832664
20
4.6927487451193
30
0
41
1
10
12.7895435840481
20
4.76056945447911
30
0
0
SPLINE
5
C3
100
AcDbEntity
8
1
62
256
6
ByLayer
370
18
48
1
60
0
100
AcDbSpline
70
4
71
3
72
58
73
54
40
0
40
0
40
0
40
0
40
0.0312499999999988
40
0.0312499999999988
40
0.0624999999999976
40
0.0624999999999976
40
0.0937499999999964
40
0.0937499999999964
40
0.124999999999995
40
0.124999999999995
40
0.187499999999994
40
0.187499999999994
40
0.218749999999992
40
0.218749999999992
40
0.234374999999992
40
0.234374999999992
40
0.249999999999992
40
0.249999999999992
40
0.374999999999989
40
0.374999999999989
40
0.406249999999988
40
0.406249999999988
40
0.437499999999988
40
0.437499999999988
40
0.453124999999988
40
0.453124999999988
40
0.468749999999989
40
0.468749999999989
40
0.499999999999989
40
0.499999999999989
40
0.624999999999991
40
0.624999999999991
40
0.656249999999991
40
0.656249999999991
40
0.687499999999991
40
0.687499999999991
40
0.749999999999993
40
0.749999999999993
40
0.812499999999995
40
0.812499999999995
40
0.843749999999996
40
0.843749999999996
40
0.874999999999997
40
0.874999999999997
40
0.890624999999997
40
0.890624999999997
40
0.906249999999997
40
0.906249999999997
40
0.937499999999998
40
0.937499999999998
40
0.968749999999999
40
0.968749999999999
40
1
40
1
40
1
40
1
41
1
10
20.651448812679
20
6.31989106604215
30
0
41
1
10
21.0617856352907
20
6.36919079809917
30
0
41
1
10
21.4709307084918
20
6.40724172978832
30
0
41
1
10
22.2865225710983
20
6.46157213938488
30
0
41
1
10
22.6930967685877
20
6.47777275025496
30
0
41
1
10
23.5048420924422
20
6.48836270372664
30
0
41
1
10
23.9101365454989
20
6.48276782544619
30
0
41
1
10
24.7199612441379
20
6.44996888459326
30
0
41
1
10
25.1246778995122
20
6.42278592810621
30
0
41
1
10
26.3391691116797
20
6.30911612038818
30
0
41
1
10
27.1495095289999
20
6.19052197334668
30
0
41
1
10
28.3716052159698
20
5.95013279188123
30
0
41
1
10
28.7799540468759
20
5.85949624992719
30
0
41
1
10
29.394952019621
20
5.70828016431813
30
0
41
1
10
29.6003018967291
20
5.65537748014398
30
0
41
1
10
30.0094707546877
20
5.54483925419328
30
0
41
1
10
30.2137102594934
20
5.48729333912647
30
0
41
1
10
32.0495924867376
20
4.95000781293891
30
0
41
1
10
33.6608218901509
20
4.32934413547017
30
0
41
1
10
35.6869387065279
20
3.42820866273652
30
0
41
1
10
36.0924872950234
20
3.24128244501361
30
0
41
1
10
36.9059540007688
20
2.85670182348426
30
0
41
1
10
37.3135926057344
20
2.65857522947894
30
0
41
1
10
37.9273081238348
20
2.35401846769713
30
0
41
1
10
38.1324295536111
20
2.25094372942843
30
0
41
1
10
38.5420888069923
20
2.04367757296919
30
0
41
1
10
38.7466232516853
20
1.93949680144701
30
0
41
1
10
39.3588146718259
20
1.62430806747284
30
0
41
1
10
39.7658005671305
20
1.41206514680957
30
0
41
1
10
41.7951597753308
20
0.340524414903882
30
0
41
1
10
43.4056100920507
20
-0.540633809720049
30
0
41
1
10
45.4357324819298
20
-1.60853312865868
30
0
41
1
10
45.8428442112694
20
-1.8199904071046
30
0
41
1
10
46.6595193731165
20
-2.23813119519261
30
0
41
1
10
47.0702445308535
20
-2.44473975131771
30
0
41
1
10
48.2956600179906
20
-3.04849121204279
30
0
41
1
10
49.1069591823153
20
-3.43029741133975
30
0
41
1
10
50.7254986608843
20
-4.14198352306195
30
0
41
1
10
51.5325649137852
20
-4.47209779006229
30
0
41
1
10
52.7457895980298
20
-4.92025371496553
30
0
41
1
10
53.1504078585954
20
-5.062094246105
30
0
41
1
10
53.9616783631143
20
-5.32854988088926
30
0
41
1
10
54.3679195573403
20
-5.45364182190144
30
0
41
1
10
54.9795787750754
20
-5.62735740393524
30
0
41
1
10
55.1837364561985
20
-5.68306316143287
30
0
41
1
10
55.5927439411177
20
-5.78986496052076
30
0
41
1
10
55.7977690368719
20
-5.84088910648114
30
0
41
1
10
56.4118362419118
20
-5.98606268633989
30
0
41
1
10
56.8201742352322
20
-6.07288596276544
30
0
41
1
10
57.6369229891338
20
-6.22517843444592
30
0
41
1
10
58.0447699720673
20
-6.29101421076879
30
0
41
1
10
58.8613404069901
20
-6.40098206794983
30
0
41
1
10
59.2696589632151
20
-6.44531326475888
30
0
41
1
10
59.6787537731037
20
-6.47862329508143
30
0
0
SPLINE
5
C4
100
AcDbEntity
8
1
62
256
6
ByLayer
370
18
48
1
60
0
100
AcDbSpline
70
4
71
3
72
22
73
18
40
0
40
0
40
0
40
0
40
0.0579227517332003
40
0.0579227517332003
40
0.115845503466401
40
0.115845503466401
40
0.231691006932801
40
0.231691006932801
40
0.463382013865601
40
0.463382013865601
40
0.695073020798402
40
0.695073020798402
40
0.810918524264802
40
0.810918524264802
40
0.926764027731202
40
0.926764027731202
40
1
40
1
40
1
40
1
41
1
10
4.90571292116454
20
-5.46827421584291
30
0
41
1
10
4.90061014148455
20
-5.50493866029095
30
0
41
1
10
4.89747194783843
20
-5.54070923031841
30
0
41
1
10
4.89487408820273
20
-5.61043858641619
30
0
41
1
10
4.89548116611866
20
-5.64439813788914
30
0
41
1
10
4.89545030158004
20
-5.74332007379934
30
0
41
1
10
4.89542502174609
20
-5.80549416633423
30
0
41
1
10
4.8953370639878
20
-5.97969524322792
30
0
41
1
10
4.89526300455256
20
-6.07830172725861
30
0
41
1
10
4.89509445210729
20
-6.24175923916027
30
0
41
1
10
4.89499993124625
20
-6.30660661496847
30
0
41
1
10
4.89484960495901
20
-6.37825594901912
30
0
41
1
10
4.89479806439107
20
-6.39785598522386
30
0
41
1
10
4.89469319213285
20
-6.42827625219797
30
0
41
1
10
4.89464013249687
20
-6.43899295150038
30
0
41
1
10
4.89455411543057
20
-6.4491401201314
30
0
41
1
10
4.89452090829005
20
-6.45131560096814
30
0
41
1
10
4.89448791626745
20
-6.45173323103623
30
0
0
SPLINE
5
C5
100
AcDbEntity
8
1
62
256
6
ByLayer
370
18
48
1
60
0
100
AcDbSpline
70
4
71
1
72
4
73
2
40
0
40
0
40
1
40
1
41
1
10
59.6280872849717
20
-6.2092195018987
30
0
41
1
10
61.0405001162017
20
-1.44099369430325
30
0
0
SPLINE
5
C6
100
AcDbEntity
8
1
62
256
6
ByLayer
370
18
48
1
60
0
100
AcDbSpline
70
4
71
3
72
10
73
6
40
0
40
0
40
0
40
0
40
0.5
40
0.5
40
1
40
1
40
1
40
1
41
1
10
59.6007733150093
20
-6.35546700665319
30
0
41
1
10
59.6081023821621
20
-6.32780419558864
30
0
41
1
10
59.6142506260172
20
-6.30067733535236
30
0
41
1
10
59.6234285924165
20
-6.25113191741917
30
0
41
1
10
59.6264794504349
20
-6.22873381046239
30
0
41
1
10
59.6280872849767
20
-6.20921950187179
30
0
0
SPLINE
5
C7
100
AcDbEntity
8
1
62
256
6
ByLayer
370
13
48
1
60
0
100
AcDbSpline
70
4
71
3
72
20
73
16
40
0
40
0
40
0
40
0
40
0.0736157039538101
40
0.132582704690248
40
0.191549705426684
40
0.309483706899558
40
0.368450707635995
40
0.427417708372432
40
0.545351709845306
40
0.604318710581743
40
0.663285711318181
40
0.781219712791054
40
0.840186713527493
40
0.899153714263928
40
1
40
1
40
1
40
1
41
1
10
60.1428577433742
20
2.80816342203465
30
0
41
1
10
60.0225651798675
20
2.80715010761813
30
0
41
1
10
59.8059274019265
20
2.80460279844368
30
0
41
1
10
59.492964703704
20
2.79904192835966
30
0
41
1
10
59.107504226364
20
2.78988898698214
30
0
41
1
10
58.7220888837563
20
2.77766779204183
30
0
41
1
10
58.3367160012085
20
2.76238321684602
30
0
41
1
10
57.9512545234194
20
2.74485294815543
30
0
41
1
10
57.5658381722908
20
2.72428931427078
30
0
41
1
10
57.1804644947432
20
2.70070381425239
30
0
41
1
10
56.7950023530736
20
2.67494463140318
30
0
41
1
10
56.4095856722225
20
2.64620268254683
30
0
41
1
10
56.0242123654879
20
2.61449677320044
30
0
41
1
10
55.6666762002575
20
2.58315591038732
30
0
41
1
10
55.4055333916933
20
2.55848917653611
30
0
41
1
10
55.2407561561096
20
2.54222729353791
30
0
0
SPLINE
5
C8
100
AcDbEntity
8
1
62
256
6
ByLayer
370
18
48
1
60
0
100
AcDbSpline
70
4
71
3
72
8
73
4
40
0
40
0
40
0
40
0
40
1
40
1
40
1
40
1
41
1
10
5.54381534124485
20
-5.64211675138162
30
0
41
1
10
5.33114233213215
20
-5.58687298292008
30
0
41
1
10
5.11844165441707
20
-5.52893869965098
30
0
41
1
10
4.90571292115632
20
-5.46827421584265
30
0
0
SPLINE
5
C9
100
AcDbEntity
8
1
62
256
6
ByLayer
370
13
48
1
60
0
100
AcDbSpline
70
4
71
3
72
36
73
32
40
0
40
0
40
0
40
0
40
0.167065454724967
40
0.167065454724967
40
0.208831818406209
40
0.208831818406209
40
0.25059818208745
40
0.25059818208745
40
0.334130909449934
40
0.417663636812418
40
0.417663636812418
40
0.45943000049366
40
0.45943000049366
40
0.501196364174901
40
0.542962727856143
40
0.542962727856143
40
0.584729091537385
40
0.584729091537385
40
0.668261818899869
40
0.668261818899869
40
0.710028182581111
40
0.710028182581111
40
0.751794546262352
40
0.751794546262352
40
0.835327273624836
40
0.835327273624836
40
0.918860000987319
40
0.918860000987319
40
0.960626364668561
40
0.960626364668561
40
1
40
1
40
1
40
1
41
1
10
5.43071826869948
20
0.281073258071928
30
0
41
1
10
5.4306676125014
20
0.820671691106213
30
0
41
1
10
5.43060287933645
20
1.34529658783171
30
0
41
1
10
5.4305193894568
20
1.98300901830842
30
0
41
1
10
5.43050255369798
20
2.10963411174021
30
0
41
1
10
5.43046896115314
20
2.36100908348325
30
0
41
1
10
5.43045217852222
20
2.48595557701265
30
0
41
1
10
5.43040319172954
20
2.8525881034731
30
0
41
1
10
5.43034105504938
20
3.32313094406015
30
0
41
1
10
5.43028992320711
20
3.75801803541157
30
0
41
1
10
5.43025726207017
20
4.07050756767651
30
0
41
1
10
5.43024730038582
20
4.17264559185864
30
0
41
1
10
5.43022964883085
20
4.37077470829462
30
0
41
1
10
5.43021427122497
20
4.56262016522959
30
0
41
1
10
5.43020371030946
20
4.74197805678077
30
0
41
1
10
5.43019567658493
20
4.91505464068686
30
0
41
1
10
5.43019293251393
20
4.99839901279884
30
0
41
1
10
5.43018863634484
20
5.23676446848287
30
0
41
1
10
5.43019098420683
20
5.3809771755198
30
0
41
1
10
5.43020216645388
20
5.57544551781643
30
0
41
1
10
5.43020716871899
20
5.63661542515385
30
0
41
1
10
5.43021967273222
20
5.75154680172878
30
0
41
1
10
5.43022719579994
20
5.80535636073537
30
0
41
1
10
5.43025301363659
20
5.95353274897539
30
0
41
1
10
5.43027462454728
20
6.03549749859164
30
0
41
1
10
5.43032486362912
20
6.16685896584266
30
0
41
1
10
5.43035349660289
20
6.21625352994792
30
0
41
1
10
5.43040022882744
20
6.26551995436782
30
0
41
1
10
5.43041643470465
20
6.27779237607686
30
0
41
1
10
5.43044886671814
20
6.29335580558825
30
0
41
1
10
5.4304650176762
20
6.29708474353782
30
0
41
1
10
5.43048129873156
20
6.29695840273743
30
0
0
SPLINE
5
CA
100
AcDbEntity
8
1
62
256
6
ByLayer
370
13
48
1
60
0
100
AcDbSpline
70
4
71
3
72
10
73
6
40
0
40
0
40
0
40
0
40
0.5
40
0.5
40
1
40
1
40
1
40
1
41
1
10
5.43071826869945
20
0.281073258071899
30
0
41
1
10
5.34647047473842
20
0.311654146286855
30
0
41
1
10
5.26373873732285
20
0.341861393120581
30
0
41
1
10
5.10152656096847
20
0.402307736657463
30
0
41
1
10
5.0215401844651
20
0.432755805549021
30
0
41
1
10
4.9465545762678
20
0.462344411009951
30
0
0
SPLINE
5
CB
100
AcDbEntity
8
1
62
256
6
ByLayer
370
18
48
1
60
0
100
AcDbSpline
70
4
71
3
72
14
73
10
40
0
40
0
40
0
40
0
40
0.25
40
0.25
40
0.5
40
0.5
40
0.75
40
0.75
40
1
40
1
40
1
40
1
41
1
10
12.7895435840482
20
4.76056945447914
30
0
41
1
10
13.4430989513199
20
4.94752550945731
30
0
41
1
10
14.0978133562465
20
5.12024144272675
30
0
41
1
10
15.4089620386307
20
5.438453840704
30
0
41
1
10
16.0653986746718
20
5.58394228685376
30
0
41
1
10
17.3797473141488
20
5.84683492825818
30
0
41
1
10
18.0387793789487
20
5.96439081776586
30
0
41
1
10
19.3497115219689
20
6.16721843007812
30
0
41
1
10
20.0022140466509
20
6.25268161659093
30
0
41
1
10
20.6514488126789
20
6.31989106604212
30
0
0
SPLINE
5
CC
100
AcDbEntity
8
1
62
256
6
ByLayer
370
18
48
1
60
0
100
AcDbSpline
70
4
71
3
72
8
73
4
40
0
40
0
40
0
40
0
40
1
40
1
40
1
40
1
41
1
10
58.9703772656614
20
0.633396398937037
30
0
41
1
10
59.3173342782643
20
0.497023598778526
30
0
41
1
10
59.6667316375948
20
0.373637067778446
30
0
41
1
10
60.0188543867714
20
0.264753658692058
30
0
0
SPLINE
5
CD
100
AcDbEntity
8
1
62
256
6
ByLayer
370
18
48
1
60
0
100
AcDbSpline
70
4
71
3
72
8
73
4
40
0
40
0
40
0
40
0
40
1
40
1
40
1
40
1
41
1
10
5.76932538929606
20
-5.56267246058272
30
0
41
1
10
5.69374166717824
20
-5.58950489472161
30
0
41
1
10
5.61857135972195
20
-5.61598755159508
30
0
41
1
10
5.54381534124533
20
-5.64211675139535
30
0
0
SPLINE
5
CE
100
AcDbEntity
8
1
62
256
6
ByLayer
370
18
48
1
60
0
100
AcDbSpline
70
4
71
3
72
82
73
78
40
0
40
0
40
0
40
0
40
0.0381745168418594
40
0.0381745168418594
40
0.0763490336837189
40
0.0763490336837189
40
0.0954362921046486
40
0.0954362921046486
40
0.114523550525578
40
0.114523550525578
40
0.152698067367439
40
0.152698067367439
40
0.171785325788369
40
0.171785325788369
40
0.1908725842093
40
0.1908725842093
40
0.229047101051162
40
0.229047101051162
40
0.248134359472094
40
0.248134359472094
40
0.267221617893025
40
0.267221617893025
40
0.305396134734889
40
0.305396134734889
40
0.343570651576752
40
0.343570651576752
40
0.381745168418615
40
0.381745168418615
40
0.400832426839546
40
0.400832426839546
40
0.419919685260477
40
0.419919685260477
40
0.439006943681408
40
0.439006943681408
40
0.458094202102339
40
0.458094202102339
40
0.496268718944202
40
0.496268718944202
40
0.534443235786065
40
0.534443235786065
40
0.553530494206997
40
0.553530494206997
40
0.572617752627929
40
0.572617752627929
40
0.591705011048861
40
0.591705011048861
40
0.610792269469793
40
0.610792269469793
40
0.629879527890725
40
0.629879527890725
40
0.648966786311657
40
0.648966786311657
40
0.687141303153521
40
0.687141303153521
40
0.725315819995384
40
0.725315819995384
40
0.763490336837247
40
0.763490336837247
40
0.782577595258178
40
0.782577595258178
40
0.80166485367911
40
0.80166485367911
40
0.839839370520974
40
0.839839370520974
40
0.858926628941906
40
0.858926628941906
40
0.878013887362838
40
0.878013887362838
40
0.916188404204702
40
0.916188404204702
40
0.954362921046567
40
0.954362921046567
40
0.973450179467499
40
0.973450179467499
40
0.992537437888431
40
0.992537437888431
40
1
40
1
40
1
40
1
41
1
10
15.7934986854193
20
3.13619896124695
30
0
41
1
10
16.2451823481434
20
2.93330457901689
30
0
41
1
10
16.6953352780905
20
2.72318017809471
30
0
41
1
10
17.5954489690873
20
2.2927809743781
30
0
41
1
10
18.0453614190822
20
2.07275823320879
30
0
41
1
10
18.7202216596804
20
1.73650062147612
30
0
41
1
10
18.9451493109397
20
1.62334071671879
30
0
41
1
10
19.395385961738
20
1.39595268365088
30
0
41
1
10
19.6205208310922
20
1.28132892431191
30
0
41
1
10
20.296604922693
20
0.934583076871604
30
0
41
1
10
20.7479264324755
20
0.701136613189675
30
0
41
1
10
21.4229939067654
20
0.349759282858514
30
0
41
1
10
21.6480422930136
20
0.232729178161293
30
0
41
1
10
22.0978193572588
20
-0.0018531086303142
30
0
41
1
10
22.3225563534777
20
-0.119389583506688
30
0
41
1
10
22.9972792756917
20
-0.470882905888061
30
0
41
1
10
23.4469296409172
20
-0.705352749431626
30
0
41
1
10
24.1227280083248
20
-1.05423935272523
30
0
41
1
10
24.3481478816835
20
-1.17049232265725
30
0
41
1
10
24.7988190461187
20
-1.40189040368756
30
0
41
1
10
25.024068917544
20
-1.51618571054067
30
0
41
1
10
25.6991677257873
20
-1.85659674778344
30
0
41
1
10
26.14867613212
20
-2.07980023053616
30
0
41
1
10
27.0475344542878
20
-2.51758884555855
30
0
41
1
10
27.4970601381672
20
-2.73198833234034
30
0
41
1
10
28.396372704603
20
-3.15178203951385
30
0
41
1
10
28.8478154392804
20
-3.35368461502881
30
0
41
1
10
29.523106202611
20
-3.64620470919201
30
0
41
1
10
29.7481838431702
20
-3.74161789249871
30
0
41
1
10
30.1978991233838
20
-3.92903596699236
30
0
41
1
10
30.4225521574051
20
-4.02098117808387
30
0
41
1
10
30.8720666003664
20
-4.20077581526894
30
0
41
1
10
31.096747447656
20
-4.28904032813574
30
0
41
1
10
31.5460176161255
20
-4.4611964798959
30
0
41
1
10
31.7707635765675
20
-4.54452807062543
30
0
41
1
10
32.4457459634976
20
-4.78598342767361
30
0
41
1
10
32.8967369455725
20
-4.93765171046803
30
0
41
1
10
33.7977055235776
20
-5.22023139139634
30
0
41
1
10
34.2474219826083
20
-5.35172169278871
30
0
41
1
10
34.9215177621366
20
-5.53290067205563
30
0
41
1
10
35.1461171656744
20
-5.59037656033524
30
0
41
1
10
35.5956802886316
20
-5.69876938931793
30
0
41
1
10
35.8204583077207
20
-5.74997466457236
30
0
41
1
10
36.2699764901857
20
-5.84768115759337
30
0
41
1
10
36.4949441713733
20
-5.89342419050797
30
0
41
1
10
36.9453455361895
20
-5.97759151485184
30
0
41
1
10
37.170837152839
20
-6.01637112064864
30
0
41
1
10
37.6215196423861
20
-6.08768176132904
30
0
41
1
10
37.8467995895038
20
-6.12011918459459
30
0
41
1
10
38.2968458326236
20
-6.17909186783268
30
0
41
1
10
38.5216294475818
20
-6.20560044987764
30
0
41
1
10
39.1962006303031
20
-6.27632576642571
30
0
41
1
10
39.6451911869735
20
-6.31331763258089
30
0
41
1
10
40.5446501194335
20
-6.35538534697062
30
0
41
1
10
40.9947942965393
20
-6.3618497269967
30
0
41
1
10
41.8967756561135
20
-6.34976208909023
30
0
41
1
10
42.346876129052
20
-6.33090945568532
30
0
41
1
10
43.0212477803743
20
-6.28537130394483
30
0
41
1
10
43.2458733738316
20
-6.26719827412353
30
0
41
1
10
43.695432251447
20
-6.22297169004028
30
0
41
1
10
43.9201770597846
20
-6.19718022352521
30
0
41
1
10
44.5944246347317
20
-6.11053960786646
30
0
41
1
10
45.0444312853439
20
-6.04008380840307
30
0
41
1
10
45.720484786505
20
-5.91564379984084
30
0
41
1
10
45.9460509957012
20
-5.87147275696918
30
0
41
1
10
46.3962850473231
20
-5.77745117658188
30
0
41
1
10
46.6211049757536
20
-5.72741916985825
30
0
41
1
10
47.2957600602906
20
-5.56774132354903
30
0
41
1
10
47.7449333024058
20
-5.44844026679121
30
0
41
1
10
48.6440921392022
20
-5.18910357707347
30
0
41
1
10
49.0936800547574
20
-5.04859983364815
30
0
41
1
10
49.7691295881319
20
-4.82333339173863
30
0
41
1
10
49.9944571568412
20
-4.74547962247544
30
0
41
1
10
50.4447424565455
20
-4.58509479912388
30
0
41
1
10
50.6697321148645
20
-4.5024802837037
30
0
41
1
10
50.9823650759251
20
-4.38428011152416
30
0
41
1
10
51.070225568859
20
-4.35072470326085
30
0
41
1
10
51.1580746691345
20
-4.3168351561018
30
0
0
SPLINE
5
CF
100
AcDbEntity
8
1
62
256
6
ByLayer
370
18
48
1
60
0
100
AcDbSpline
70
4
71
3
72
28
73
24
40
0
40
0
40
0
40
0
40
0.0495350135340099
40
0.0495350135340099
40
0.0891377213034265
40
0.0891377213034265
40
0.128740429072843
40
0.128740429072843
40
0.207945844611676
40
0.207945844611676
40
0.287151260150509
40
0.287151260150509
40
0.366356675689342
40
0.366356675689342
40
0.524767506767007
40
0.524767506767007
40
0.603972922305839
40
0.603972922305839
40
0.68317833784467
40
0.68317833784467
40
0.841589168922335
40
0.841589168922335
40
1
40
1
40
1
40
1
41
1
10
6.26748171342743
20
6.29813601251993
30
0
41
1
10
6.36463897028776
20
6.29903315547628
30
0
41
1
10
6.47048051487164
20
6.29312171336016
30
0
41
1
10
6.67427489353827
20
6.27233501643045
30
0
41
1
10
6.76998162518024
20
6.25937529409853
30
0
41
1
10
6.96718647828845
20
6.22746371934008
30
0
41
1
10
7.06890148044963
20
6.20850645214719
30
0
41
1
10
7.38215909665558
20
6.14403775376397
30
0
41
1
10
7.60155398985577
20
6.09121185403453
30
0
41
1
10
8.05748418013417
20
5.97051382892204
30
0
41
1
10
8.29479202543132
20
5.90210069659548
30
0
41
1
10
8.78292012031929
20
5.75322281832976
30
0
41
1
10
9.03128222577442
20
5.67356944981216
30
0
41
1
10
9.7868765233423
20
5.42304815595119
30
0
41
1
10
10.3045621472581
20
5.24071765251577
30
0
41
1
10
11.0964732259433
20
4.95364576212151
30
0
41
1
10
11.3629580818851
20
4.85577456607433
30
0
41
1
10
11.9014978539092
20
4.65473017114789
30
0
41
1
10
12.173397665457
20
4.55182005748475
30
0
41
1
10
12.9960046511243
20
4.23754535264595
30
0
41
1
10
13.5501939805533
20
4.02185834492317
30
0
41
1
10
14.6658105902075
20
3.58423630063879
30
0
41
1
10
15.2277979800824
20
3.36160214020586
30
0
41
1
10
15.7934986854194
20
3.13619896124689
30
0
0
SPLINE
5
D0
100
AcDbEntity
8
1
62
256
6
ByLayer
370
18
48
1
60
0
100
AcDbSpline
70
4
71
3
72
32
73
28
40
0
40
0
40
0
40
0
40
0.0312500000000011
40
0.0312500000000011
40
0.0625000000000022
40
0.0625000000000022
40
0.125000000000002
40
0.125000000000002
40
0.187500000000003
40
0.187500000000003
40
0.250000000000003
40
0.250000000000003
40
0.312500000000003
40
0.312500000000003
40
0.375000000000003
40
0.375000000000003
40
0.500000000000004
40
0.500000000000004
40
0.625000000000004
40
0.625000000000004
40
0.687500000000004
40
0.687500000000004
40
0.750000000000005
40
0.750000000000005
40
0.875000000000002
40
0.875000000000002
40
1
40
1
40
1
40
1
41
1
10
5.75006262735155
20
-5.33347736963404
30
0
41
1
10
5.78165710276338
20
-5.2916263383367
30
0
41
1
10
5.82040717383143
20
-5.25096512400521
30
0
41
1
10
5.90858346699275
20
-5.17261916716049
30
0
41
1
10
5.9581615092959
20
-5.13476574983545
30
0
41
1
10
6.12058715707593
20
-5.02482796824984
30
0
41
1
10
6.24209014686892
20
-4.95935393322637
30
0
41
1
10
6.50177572147726
20
-4.83930833989649
30
0
41
1
10
6.64098311047798
20
-4.7846144755465
30
0
41
1
10
6.92495991221367
20
-4.6867008593527
30
0
41
1
10
7.07049323105292
20
-4.64310773211596
30
0
41
1
10
7.36698268135655
20
-4.5647179621167
30
0
41
1
10
7.51795915379981
20
-4.52994625715661
30
0
41
1
10
7.82451308192228
20
-4.46831661012303
30
0
41
1
10
7.98045234026088
20
-4.44144219512845
30
0
41
1
10
8.44787891457537
20
-4.37290692312485
30
0
41
1
10
8.7610412217773
20
-4.34272284686318
30
0
41
1
10
9.38996517048724
20
-4.30989689461882
30
0
41
1
10
9.70573670989268
20
-4.30733692503136
30
0
41
1
10
10.1813072131983
20
-4.32384406398893
30
0
41
1
10
10.3406310163941
20
-4.3327954452682
30
0
41
1
10
10.657241552364
20
-4.35734431440369
30
0
41
1
10
10.8144271075565
20
-4.37290874555282
30
0
41
1
10
11.28266054137
20
-4.42909327296786
30
0
41
1
10
11.5903965399634
20
-4.47921295451872
30
0
41
1
10
12.1968568917352
20
-4.60289020890568
30
0
41
1
10
12.4955755508965
20
-4.67647695593976
30
0
41
1
10
12.7895435840481
20
-4.76056945447914
30
0
0
SPLINE
5
D1
100
AcDbEntity
8
1
62
256
6
ByLayer
370
18
48
1
60
0
100
AcDbSpline
70
4
71
3
72
8
73
4
40
0
40
0
40
0
40
0
40
1
40
1
40
1
40
1
41
1
10
59.6787537731037
20
6.47862329508141
30
0
41
1
10
59.9166514663629
20
5.90393873721416
30
0
41
1
10
60.1606986658825
20
5.30810719867893
30
0
41
1
10
60.4047888915193
20
4.68650485425056
30
0
0
SPLINE
5
D2
100
AcDbEntity
8
1
62
256
6
ByLayer
370
13
48
1
60
0
100
AcDbSpline
70
4
71
3
72
18
73
14
40
0
40
0
40
0
40
0
40
0.0101888604654283
40
0.0101888604654283
40
0.281760661117989
40
0.281760661117989
40
0.553332461770549
40
0.553332461770549
40
0.82490426242311
40
0.82490426242311
40
0.96069016274939
40
0.96069016274939
40
1
40
1
40
1
40
1
41
1
10
5.4304803793334
20
-6.29696143926313
30
0
41
1
10
5.43048167484494
20
-6.29696293642544
30
0
41
1
10
5.43048297121447
20
-6.2969400120985
30
0
41
1
10
5.43051884053151
20
-6.29563027467236
30
0
41
1
10
5.43055418762637
20
-6.27708485722951
30
0
41
1
10
5.43062305005344
20
-6.20555477753064
30
0
41
1
10
5.43065615819594
20
-6.15306295289204
30
0
41
1
10
5.43071693663811
20
-6.01582009979992
30
0
41
1
10
5.43074461454449
20
-5.93106591449322
30
0
41
1
10
5.43077989253371
20
-5.77943165270551
30
0
41
1
10
5.43079061056687
20
-5.72479100491867
30
0
41
1
10
5.4308028364112
20
-5.64891797074606
30
0
41
1
10
5.43080547655194
20
-5.63153472185738
30
0
41
1
10
5.43080800463875
20
-5.6138241218155
30
0
0
SPLINE
5
D3
100
AcDbEntity
8
1
62
256
6
ByLayer
370
18
48
1
60
0
100
AcDbSpline
70
4
71
3
72
12
73
8
40
0
40
0
40
0
40
0
40
0.451771250952275
40
0.451771250952275
40
0.90354250190455
40
0.90354250190455
40
1
40
1
40
1
40
1
41
1
10
20.651448812679
20
-6.31989106604215
30
0
41
1
10
21.0618655968081
20
-6.36920040503952
30
0
41
1
10
21.471090095379
20
-6.40725659301918
30
0
41
1
10
22.2868399822195
20
-6.4615890354294
30
0
41
1
10
22.6934926232438
20
-6.47778640819252
30
0
41
1
10
23.1861184907377
20
-6.48420284596384
30
0
41
1
10
23.2727666148999
20
-6.48483515778042
30
0
41
1
10
23.3593902743757
20
-6.48497167947889
30
0
0
SPLINE
5
D4
100
AcDbEntity
8
1
62
256
6
ByLayer
370
18
48
1
60
0
100
AcDbSpline
70
4
71
3
72
22
73
18
40
0
40
0
40
0
40
0
40
0.141569464406846
40
0.141569464406846
40
0.28464122033904
40
0.28464122033904
40
0.427712976271234
40
0.427712976271234
40
0.499248854237332
40
0.499248854237332
40
0.570784732203429
40
0.570784732203429
40
0.713856488135619
40
0.713856488135619
40
0.85692824406781
40
0.85692824406781
40
1
40
1
40
1
40
1
41
1
10
51.1476370805926
20
4.30745099227909
30
0
41
1
10
51.5475471237173
20
4.46982608606305
30
0
41
1
10
51.9472826508431
20
4.62537323367684
30
0
41
1
10
52.7520212330627
20
4.9224716090165
30
0
41
1
10
53.156720717531
20
5.06426113298008
30
0
41
1
10
53.9681710191417
20
5.33058738133087
30
0
41
1
10
54.3744987486931
20
5.45561473578658
30
0
41
1
10
54.9863015752292
20
5.6292132472125
30
0
41
1
10
55.1905017075969
20
5.68488439226491
30
0
41
1
10
55.5996081328229
20
5.7916008569207
30
0
41
1
10
55.8046803769149
20
5.84257823212874
30
0
41
1
10
56.4186437141071
20
5.98755884463282
30
0
41
1
10
56.8266856882557
20
6.07419938983813
30
0
41
1
10
57.6423706696997
20
6.22609346260867
30
0
41
1
10
58.0494612681815
20
6.29170901748273
30
0
41
1
10
58.8640373117809
20
6.40128165880489
30
0
41
1
10
59.2711287340043
20
6.44543293899665
30
0
41
1
10
59.6787537731037
20
6.47862329508143
30
0
0
SPLINE
5
D5
100
AcDbEntity
8
1
62
256
6
ByLayer
370
18
48
1
60
0
100
AcDbSpline
70
4
71
3
72
46
73
42
40
0
40
0
40
0
40
0
40
0.0755427462335221
40
0.0755427462335221
40
0.151085492467044
40
0.151085492467044
40
0.188856865583805
40
0.188856865583805
40
0.226628238700566
40
0.226628238700566
40
0.264399611817327
40
0.264399611817327
40
0.302170984934088
40
0.302170984934088
40
0.37771373116761
40
0.37771373116761
40
0.453256477401133
40
0.453256477401133
40
0.491027850517894
40
0.491027850517894
40
0.528799223634656
40
0.528799223634656
40
0.604341969868182
40
0.604341969868182
40
0.679884716101708
40
0.679884716101708
40
0.71765608921847
40
0.71765608921847
40
0.755427462335232
40
0.755427462335232
40
0.830970208568756
40
0.830970208568756
40
0.868741581685517
40
0.868741581685517
40
0.906512954802278
40
0.906512954802278
40
0.944284327919039
40
0.944284327919039
40
0.9820557010358
40
0.9820557010358
40
1
40
1
40
1
40
1
41
1
10
58.9703772656614
20
0.633396398937009
30
0
41
1
10
58.5216199948311
20
0.86892447936296
30
0
41
1
10
58.0730606362033
20
1.10243968815081
30
0
41
1
10
57.1756598304335
20
1.56417203836722
30
0
41
1
10
56.7269432047088
20
1.79257707487378
30
0
41
1
10
56.0527381258529
20
2.12906511856306
30
0
41
1
10
55.8278989404815
20
2.24036266159467
30
0
41
1
10
55.3778319711159
20
2.46082979505473
30
0
41
1
10
55.1524516526025
20
2.56985316713548
30
0
41
1
10
54.7026032491443
20
2.7841572212653
30
0
41
1
10
54.47815233345
20
2.88965501480482
30
0
41
1
10
54.0290381679818
20
3.09756466338823
30
0
41
1
10
53.8044063010841
20
3.1998551328816
30
0
41
1
10
53.1309739249658
20
3.50258882990238
30
0
41
1
10
52.6819198732696
20
3.69774506845084
30
0
41
1
10
51.783506119002
20
4.07282569135225
30
0
41
1
10
51.3332669291548
20
4.2517713621894
30
0
41
1
10
50.6579005675525
20
4.50687039742439
30
0
41
1
10
50.4328852277622
20
4.58939572835621
30
0
41
1
10
49.9833004553469
20
4.74937182986224
30
0
41
1
10
49.7588032195326
20
4.82685000245911
30
0
41
1
10
49.0850777327223
20
5.05131850710228
30
0
41
1
10
48.6361717425251
20
5.19151352974424
30
0
41
1
10
47.7373788147407
20
5.4504914226018
30
0
41
1
10
47.2879009524829
20
5.5697634670085
30
0
41
1
10
46.6119530607427
20
5.72950185417267
30
0
41
1
10
46.3868655282958
20
5.77949833236352
30
0
41
1
10
45.9369926245549
20
5.87328094614699
30
0
41
1
10
45.7120613515284
20
5.91725736648343
30
0
41
1
10
45.0378821413559
20
6.04115980000094
30
0
41
1
10
44.5886463634272
20
6.11138236188049
30
0
41
1
10
43.9148528274113
20
6.19781333986461
30
0
41
1
10
43.690145424143
20
6.2235496496798
30
0
41
1
10
43.240397309203
20
6.26767774234321
30
0
41
1
10
43.0155339346065
20
6.28580865525146
30
0
41
1
10
42.5652535642007
20
6.31611020899871
30
0
41
1
10
42.3396714905551
20
6.32836601004217
30
0
41
1
10
41.8891807701572
20
6.34677910815398
30
0
41
1
10
41.6642329117111
20
6.35293901851176
30
0
41
1
10
41.332421264252
20
6.35729503082194
30
0
41
1
10
41.2255882702232
20
6.35799620323985
30
0
41
1
10
41.1187786141974
20
6.35796682316717
30
0
0
SPLINE
5
D6
100
AcDbEntity
8
1
62
256
6
ByLayer
370
18
48
1
60
0
100
AcDbSpline
70
4
71
4
72
10
73
5
40
0
40
0
40
0
40
0
40
0
40
1
40
1
40
1
40
1
40
1
41
1
10
20.6514488126789
20
6.31989106604209
30
0
41
1
10
20.3169149666788
20
5.41865074753431
30
0
41
1
10
19.9823811206788
20
4.51741042902657
30
0
41
1
10
19.6478472746787
20
3.61617011051882
30
0
41
1
10
19.3133134286786
20
2.71492979201108
30
0
0
SPLINE
5
D7
100
AcDbEntity
8
1
62
256
6
ByLayer
370
13
48
1
60
0
100
AcDbSpline
70
4
71
3
72
66
73
62
40
0
40
0
40
0
40
0
40
0.0209040537999732
40
0.033786895197342
40
0.0466697365947107
40
0.0724354193894483
40
0.0853182607868171
40
0.0982011021841858
40
0.123966784978923
40
0.136849626376292
40
0.149732467773661
40
0.175498150568398
40
0.188380991965767
40
0.201263833363136
40
0.227029516157874
40
0.239912357555242
40
0.252795198952611
40
0.278560881747349
40
0.291443723144717
40
0.304326564542086
40
0.330092247336824
40
0.342975088734193
40
0.355857930131561
40
0.381623612926299
40
0.394506454323667
40
0.407389295721036
40
0.433154978515774
40
0.446037819913143
40
0.458920661310511
40
0.484686344105249
40
0.497569185502618
40
0.510452026899987
40
0.536217709694724
40
0.549100551092093
40
0.561983392489462
40
0.587749075284199
40
0.600631916681568
40
0.613514758078937
40
0.639280440873674
40
0.652163282271043
40
0.665046123668412
40
0.690811806463149
40
0.703694647860518
40
0.716577489257887
40
0.742343172052625
40
0.755226013449993
40
0.768108854847362
40
0.7938745376421
40
0.806757379039468
40
0.819640220436837
40
0.845405903231575
40
0.858288744628944
40
0.871171586026312
40
0.89693726882105
40
0.909820110218418
40
0.922702951615787
40
0.935585793013156
40
0.948468634410525
40
0.961351475807894
40
0.974234317205262
40
1
40
1
40
1
40
1
41
1
10
41.7510301880695
20
-0.0515463713668964
30
0
41
1
10
41.5946757530077
20
-0.0153513716432201
30
0
41
1
10
41.3419784579906
20
0.0432180640577542
30
0
41
1
10
40.9929624404202
20
0.124185012062128
30
0
41
1
10
40.6075009491228
20
0.213200358704654
30
0
41
1
10
40.2220852864058
20
0.302144104960718
30
0
41
1
10
39.8367130051881
20
0.390884034116169
30
0
41
1
10
39.4512523621987
20
0.479021202953675
30
0
41
1
10
39.065837050358
20
0.566794345563096
30
0
41
1
10
38.6804643191273
20
0.654063024054665
30
0
41
1
10
38.2950030815754
20
0.740510075261938
30
0
41
1
10
37.9095870216925
20
0.826298159879656
30
0
41
1
10
37.5242136715827
20
0.911290954611275
30
0
41
1
10
37.1387519364187
20
0.995254183840672
30
0
41
1
10
36.753335583949
20
1.07827440503178
30
0
41
1
10
36.3679621742242
20
1.16022018380266
30
0
41
1
10
35.9825005779041
20
1.24094060176142
30
0
41
1
10
35.5970847948086
20
1.32044640175505
30
0
41
1
10
35.2117124685361
20
1.39861167969687
30
0
41
1
10
34.8262518869121
20
1.47536730483483
30
0
41
1
10
34.4408367603725
20
1.55064535204159
30
0
41
1
10
34.0554642563538
20
1.62432056993163
30
0
41
1
10
33.6700032022019
20
1.69641036831689
30
0
41
1
10
33.2845872486302
20
1.76676902041132
30
0
41
1
10
32.899213907649
20
1.83527776972556
30
0
41
1
10
32.5137521684493
20
1.90204062490173
30
0
41
1
10
32.128335804175
20
1.96683643729685
30
0
41
1
10
31.7429623690813
20
2.02955538785483
30
0
41
1
10
31.3575006870101
20
2.09038538989699
30
0
41
1
10
30.9720847561739
20
2.14903142587522
30
0
41
1
10
30.5867123147879
20
2.20539116508181
30
0
41
1
10
30.2012517161675
20
2.25973601527318
30
0
41
1
10
29.8158366877725
20
2.31170108022644
30
0
41
1
10
29.430464325889
20
2.36119503389818
30
0
41
1
10
29.0450033711721
20
2.40856768369056
30
0
41
1
10
28.6595874499822
20
2.45338628034642
30
0
41
1
10
28.274214065394
20
2.49556744437089
30
0
41
1
10
27.8887522778715
20
2.53553788502845
30
0
41
1
10
27.5033358697107
20
2.57280052611725
30
0
41
1
10
27.1179623905866
20
2.60728230207886
30
0
41
1
10
26.7325006182129
20
2.63948274469033
30
0
41
1
10
26.3470845544395
20
2.66884306025551
30
0
41
1
10
25.9617120243729
20
2.69529859550863
30
0
41
1
10
25.5762514329431
20
2.71942289663357
30
0
41
1
10
25.1908365234431
20
2.74060648354609
30
0
41
1
10
24.80546432898
20
2.75880560021813
30
0
41
1
10
24.420003517911
20
2.77465240289553
30
0
41
1
10
24.0345876980502
20
2.78748961833824
30
0
41
1
10
23.6492143443857
20
2.7972817896418
30
0
41
1
10
23.2637525582932
20
2.80471658571787
30
0
41
1
10
22.8783361188417
20
2.80909249997006
30
0
41
1
10
22.4929625793752
20
2.81038332603964
30
0
41
1
10
22.1075007040502
20
2.80932822736736
30
0
41
1
10
21.7220844898022
20
2.8051847570716
30
0
41
1
10
21.3367118539971
20
2.79793489111188
30
0
41
1
10
21.0476511226782
20
2.79083203176705
30
0
41
1
10
20.7585907060494
20
2.78214202171077
30
0
41
1
10
20.4695277547964
20
2.77186788510412
30
0
41
1
10
20.1804645212008
20
2.76002074235262
30
0
41
1
10
19.7950041029783
20
2.74206649154442
30
0
41
1
10
19.5059776206542
20
2.72638298769456
30
0
41
1
10
19.3133134286786
20
2.71492979201108
30
0
0
SPLINE
5
D8
100
AcDbEntity
8
1
62
256
6
ByLayer
370
13
48
1
60
0
100
AcDbSpline
70
4
71
3
72
72
73
68
40
0
40
0
40
0
40
0
40
0.0052607307395324
40
0.0170270211868309
40
0.0287933116341303
40
0.0523258925287266
40
0.0640921829760248
40
0.0758584734233237
40
0.0993910543179207
40
0.111157344765219
40
0.122923635212518
40
0.146456216107115
40
0.158222506554414
40
0.169988797001712
40
0.193521377896309
40
0.205287668343608
40
0.217053958790906
40
0.240586539685503
40
0.252352830132802
40
0.264119120580101
40
0.287651701474698
40
0.299417991921996
40
0.311184282369295
40
0.334716863263892
40
0.34648315371119
40
0.358249444158489
40
0.381782025053086
40
0.393548315500384
40
0.405314605947683
40
0.42884718684228
40
0.440613477289579
40
0.452379767736877
40
0.475912348631475
40
0.487678639078773
40
0.499444929526072
40
0.522977510420669
40
0.534743800867967
40
0.546510091315266
40
0.570042672209863
40
0.581808962657161
40
0.59357525310446
40
0.617107833999057
40
0.628874124446356
40
0.640640414893654
40
0.664172995788251
40
0.67593928623555
40
0.687705576682848
40
0.711238157577446
40
0.723004448024744
40
0.734770738472042
40
0.75830331936664
40
0.770069609813938
40
0.781835900261237
40
0.805368481155834
40
0.817134771603132
40
0.828901062050431
40
0.852433642945028
40
0.864199933392327
40
0.875966223839625
40
0.899498804734222
40
0.911265095181521
40
0.92303138562882
40
0.946563966523417
40
0.958330256970715
40
0.970096547418014
40
0.993629128312611
40
1
40
1
40
1
40
1
41
1
10
47.2630707147344
20
-2.54706566588547
30
0
41
1
10
47.2199886824376
20
-2.5512893465002
30
0
41
1
10
47.0805458687817
20
-2.5648061739455
30
0
41
1
10
46.8447302498499
20
-2.58681923953139
30
0
41
1
10
46.4593577314283
20
-2.6207364896313
30
0
41
1
10
46.0739399658472
20
-2.65173545719202
30
0
41
1
10
45.6884796066062
20
-2.67978579522656
30
0
41
1
10
45.3031077871937
20
-2.70567282820798
30
0
41
1
10
44.91769066638
20
-2.72856186965905
30
0
41
1
10
44.5322306268703
20
-2.74843016806008
30
0
41
1
10
44.1468589594841
20
-2.76605133887446
30
0
41
1
10
43.7614418049321
20
-2.78061804005682
30
0
41
1
10
43.3759816584555
20
-2.79212290380505
30
0
41
1
10
42.9906097232835
20
-2.80131724637093
30
0
41
1
10
42.6051919327397
20
-2.80742485093089
30
0
41
1
10
42.2197308026859
20
-2.81044676378895
30
0
41
1
10
41.8343581692122
20
-2.81111387669569
30
0
41
1
10
41.4489402502184
20
-2.80869475588861
30
0
41
1
10
41.0634797388259
20
-2.80321382365679
30
0
41
1
10
40.6781077678733
20
-2.79536327052745
30
0
41
1
10
40.2926905255954
20
-2.78445995867497
30
0
41
1
10
39.9072304564982
20
-2.77053709609001
30
0
41
1
10
39.5218588190066
20
-2.75424636565609
30
0
41
1
10
39.1364417570094
20
-2.73495841742488
30
0
41
1
10
38.7509817259328
20
-2.71271853500639
30
0
41
1
10
38.3656099167073
20
-2.68813170957881
30
0
41
1
10
37.9801922453392
20
-2.66062553800808
30
0
41
1
10
37.594731160763
20
-2.63025430590736
30
0
41
1
10
37.2093585028642
20
-2.59757762977784
30
0
41
1
10
36.8239404805405
20
-2.56209101215049
30
0
41
1
10
36.4384798462696
20
-2.52386935220264
30
0
41
1
10
36.0531077832571
20
-2.4834120012049
30
0
41
1
10
35.6676905093309
20
-2.4402850085668
30
0
41
1
10
35.2822304942015
20
-2.3945719619586
30
0
41
1
10
34.8968589289908
20
-2.34670970244383
30
0
41
1
10
34.5114419477309
20
-2.29633723190236
30
0
41
1
10
34.1259819921952
20
-2.24354668371572
30
0
41
1
10
33.7406102880367
20
-2.18871012243173
30
0
41
1
10
33.3551927371118
20
-2.13154162493464
30
0
41
1
10
32.969731697627
20
-2.07214160956855
30
0
41
1
10
32.5843589783459
20
-2.0108173236182
30
0
41
1
10
32.1989407706418
20
-1.94736362472256
30
0
41
1
10
31.8134799090585
20
-1.88189442648789
30
0
41
1
10
31.4281076625705
20
-1.81464435258215
30
0
41
1
10
31.0426902822959
20
-1.7454904662489
30
0
41
1
10
30.6572302580393
20
-1.67455401776689
30
0
41
1
10
30.2718586968634
20
-1.60199501722971
30
0
41
1
10
29.886441727401
20
-1.52777269233263
30
0
41
1
10
29.5009817972328
20
-1.45201360337165
30
0
41
1
10
29.1156101788606
20
-1.37480371633563
30
0
41
1
10
28.7301927757528
20
-1.29618524067726
30
0
41
1
10
28.3447318514511
20
-1.21629112558188
30
0
41
1
10
27.9593591491843
20
-1.13513127290398
30
0
41
1
10
27.5739408432915
20
-1.05282943761858
30
0
41
1
10
27.1884798395027
20
-0.969521437844691
30
0
41
1
10
26.8031074935326
20
-0.885143153814965
30
0
41
1
10
26.4176900808628
20
-0.799899907032682
30
0
41
1
10
26.0322301002334
20
-0.713932459129126
30
0
41
1
10
25.646858587397
20
-0.627101619184458
30
0
41
1
10
25.2614416618283
20
-0.539692684210848
30
0
41
1
10
24.8759817756963
20
-0.451849057914444
30
0
41
1
10
24.490610247662
20
-0.363358471840428
30
0
41
1
10
24.10519297756
20
-0.274585602923537
30
0
41
1
10
23.7197321419991
20
-0.185677463260674
30
0
41
1
10
23.3343594325544
20
-0.0963446220762592
30
0
41
1
10
22.9931243000064
20
-0.0172616953845761
30
0
41
1
10
22.7482207654817
20
0.0394109800199658
30
0
41
1
10
22.696045830464
20
0.0514874130300598
30
0
0
SPLINE
5
D9
100
AcDbEntity
8
1
62
256
6
ByLayer
370
18
48
1
60
0
100
AcDbSpline
70
4
71
3
72
8
73
4
40
0
40
0
40
0
40
0
40
1
40
1
40
1
40
1
41
1
10
4.89380756896804
20
0.484725622377141
30
0
41
1
10
4.89380545167893
20
0.448872780791532
30
0
41
1
10
4.90398229971544
20
0.414470449885954
30
0
41
1
10
4.91990252449176
20
0.382454748337096
30
0
0
SPLINE
5
DA
100
AcDbEntity
8
1
62
256
6
ByLayer
370
18
48
1
60
0
100
AcDbSpline
70
4
71
3
72
8
73
4
40
0
40
0
40
0
40
0
40
1
40
1
40
1
40
1
41
1
10
59.6280872849744
20
-6.20921950189958
30
0
41
1
10
59.617942833866
20
-6.16887227835295
30
0
41
1
10
59.6001976440236
20
-6.1418200694645
30
0
41
1
10
59.5791945992638
20
-6.12394476525441
30
0
0
SPLINE
5
DB
100
AcDbEntity
8
1
62
256
6
ByLayer
370
18
48
1
60
0
100
AcDbSpline
70
4
71
3
72
8
73
4
40
0
40
0
40
0
40
0
40
1
40
1
40
1
40
1
41
1
10
61.9997911353524
20
-0.098872528411647
30
0
41
1
10
61.8198917037949
20
-0.572814946446556
30
0
41
1
10
61.6474723983583
20
-1.05190563027881
30
0
41
1
10
61.4807207635939
20
-1.53544854633614
30
0
0
SPLINE
5
DC
100
AcDbEntity
8
1
62
256
6
ByLayer
370
18
48
1
60
0
100
AcDbSpline
70
4
71
3
72
8
73
4
40
0
40
0
40
0
40
0
40
1
40
1
40
1
40
1
41
1
10
60.1428577433744
20
2.80816342203465
30
0
41
1
10
60.1277798164059
20
2.90577741625091
30
0
41
1
10
60.1221082631349
20
3.00387958120905
30
0
41
1
10
60.1296157808297
20
3.10276433202088
30
0
0
SPLINE
5
DD
100
AcDbEntity
8
1
62
256
6
ByLayer
370
18
48
1
60
0
100
AcDbSpline
70
4
71
3
72
26
73
22
40
0
40
0
40
0
40
0
40
0.126944486027207
40
0.126944486027207
40
0.214250037424488
40
0.214250037424488
40
0.301555588821768
40
0.301555588821768
40
0.388861140219049
40
0.388861140219049
40
0.47616669161633
40
0.47616669161633
40
0.650777794410887
40
0.650777794410887
40
0.738083345808165
40
0.738083345808165
40
0.825388897205444
40
0.825388897205444
40
0.912694448602722
40
0.912694448602722
40
1
40
1
40
1
40
1
41
1
10
59.282033210271
20
0.52356670017727
30
0
41
1
10
59.3154999563802
20
0.561171756563908
30
0
41
1
10
59.353179278492
20
0.608003566017402
30
0
41
1
10
59.4232322861376
20
0.703424957585838
30
0
41
1
10
59.4532521657303
20
0.746475945577146
30
0
41
1
10
59.5151886236415
20
0.839909826558511
30
0
41
1
10
59.5471996547819
20
0.890417039056842
30
0
41
1
10
59.6128706047595
20
0.999070145991311
30
0
41
1
10
59.6465340808435
20
1.05721450180056
30
0
41
1
10
59.7150206030931
20
1.18148978403573
30
0
41
1
10
59.7494026982325
20
1.24683654345193
30
0
41
1
10
59.8511052547009
20
1.45089768801068
30
0
41
1
10
59.9176318348892
20
1.59808862484681
30
0
41
1
10
60.0081513799926
20
1.83788096796434
30
0
41
1
10
60.0363613937361
20
1.9201502057856
30
0
41
1
10
60.0861779124923
20
2.08819658557505
30
0
41
1
10
60.1078984997396
20
2.17419753302423
30
0
41
1
10
60.1414080950327
20
2.35078423322904
30
0
41
1
10
60.1531927813414
20
2.44211625259354
30
0
41
1
10
60.1609542521092
20
2.62477642371229
30
0
41
1
10
60.1570305144699
20
2.71640937662502
30
0
41
1
10
60.1428577433744
20
2.80816342203465
30
0
0
SPLINE
5
DE
100
AcDbEntity
8
1
62
256
6
ByLayer
370
18
48
1
60
0
100
AcDbSpline
70
4
71
3
72
32
73
28
40
0
40
0
40
0
40
0
40
0.144108263958241
40
0.144108263958241
40
0.186902850760329
40
0.186902850760329
40
0.229697437562417
40
0.229697437562417
40
0.315286611166592
40
0.315286611166592
40
0.35808119796868
40
0.35808119796868
40
0.400875784770768
40
0.400875784770768
40
0.486464958374944
40
0.486464958374944
40
0.57205413197912
40
0.57205413197912
40
0.657643305583296
40
0.657643305583296
40
0.828821652791648
40
0.828821652791648
40
0.871616239593736
40
0.871616239593736
40
0.914410826395824
40
0.914410826395824
40
1
40
1
40
1
40
1
41
1
10
4.89448785802588
20
6.45173396646845
30
0
41
1
10
4.89431212216769
20
6.4539475190337
30
0
41
1
10
4.89414249167595
20
6.40628502656659
30
0
41
1
10
4.89395112537036
20
6.2791775691683
30
0
41
1
10
4.89390917456245
20
6.24547749137227
30
0
41
1
10
4.89383084129014
20
6.16998978281279
30
0
41
1
10
4.89379429618808
20
6.12811527812204
30
0
41
1
10
4.89369295865811
20
5.99033288168616
30
0
41
1
10
4.89363650085318
20
5.88231480291034
30
0
41
1
10
4.89356947632274
20
5.6960634830977
30
0
41
1
10
4.89355006908636
20
5.62993015755256
30
0
41
1
10
4.8935171796787
20
5.48941631398722
30
0
41
1
10
4.89350366659048
20
5.41473846984076
30
0
41
1
10
4.89347228907633
20
5.18061867154748
30
0
41
1
10
4.89346348788507
20
5.01125054308588
30
0
41
1
10
4.8934660876775
20
4.64677353474633
30
0
41
1
10
4.89347750053719
20
4.45166310907806
30
0
41
1
10
4.893515476419
20
4.03524461154166
30
0
41
1
10
4.89354225015467
20
3.81274413935526
30
0
41
1
10
4.89363251968433
20
3.12390535435603
30
0
41
1
10
4.89370674537076
20
2.6317092100316
30
0
41
1
10
4.89377246261051
20
1.97431032143388
30
0
41
1
10
4.89378414104556
20
1.84120736036275
30
0
41
1
10
4.89380321657583
20
1.57412401660866
30
0
41
1
10
4.89381065012054
20
1.43979647331187
30
0
41
1
10
4.89382496796782
20
1.03448298216088
30
0
41
1
10
4.89382389473033
20
0.761175806766659
30
0
41
1
10
4.89380756896804
20
0.484725622377141
30
0
0
SPLINE
5
DF
100
AcDbEntity
8
1
62
256
6
ByLayer
370
18
48
1
60
0
100
AcDbSpline
70
4
71
3
72
30
73
26
40
0
40
0
40
0
40
0
40
0.0778181310322676
40
0.0778181310322676
40
0.155636262064535
40
0.155636262064535
40
0.311272524129071
40
0.311272524129071
40
0.389090655161339
40
0.389090655161339
40
0.466908786193607
40
0.466908786193607
40
0.544726917225874
40
0.544726917225874
40
0.622545048258142
40
0.622545048258142
40
0.70036317929041
40
0.70036317929041
40
0.778181310322677
40
0.778181310322677
40
0.855999441354945
40
0.855999441354945
40
0.933817572387213
40
0.933817572387213
40
1
40
1
40
1
40
1
41
1
10
5.30572007520558
20
0.0587820533727097
30
0
41
1
10
5.8735929285285
20
-0.243300994904217
30
0
41
1
10
6.44109757745935
20
-0.545768590371097
30
0
41
1
10
7.57571929136122
20
-1.1448749126632
30
0
41
1
10
8.14387357635479
20
-1.44196958166748
30
0
41
1
10
9.84374783551863
20
-2.31485377332228
30
0
41
1
10
10.972921053205
20
-2.87251160662316
30
0
41
1
10
12.6752948032748
20
-3.64680748123828
30
0
41
1
10
13.2417621859125
20
-3.89356250827757
30
0
41
1
10
14.3732830064045
20
-4.35954268225791
30
0
41
1
10
14.9386433097233
20
-4.57898440430296
30
0
41
1
10
16.070880462664
20
-4.98749352958603
30
0
41
1
10
16.6388584937447
20
-5.17659969656774
30
0
41
1
10
17.7715788281262
20
-5.51901350899627
30
0
41
1
10
18.3368338059224
20
-5.67256646501431
30
0
41
1
10
19.4677846636976
20
-5.94192880758985
30
0
41
1
10
20.0335745144904
20
-6.05768451004991
30
0
41
1
10
21.1678143423884
20
-6.24953879594906
30
0
41
1
10
21.7340665619797
20
-6.32516230029492
30
0
41
1
10
22.8650089863601
20
-6.43459839260001
30
0
41
1
10
23.4300741161665
20
-6.46849257581374
30
0
41
1
10
24.5616859150222
20
-6.49399323875423
30
0
41
1
10
25.1293601658154
20
-6.48550271991692
30
0
41
1
10
26.1769054512693
20
-6.43068480063795
30
0
41
1
10
26.6575629303735
20
-6.39023571116684
30
0
41
1
10
27.138213649482
20
-6.33484218642468
30
0
0
SPLINE
5
E0
100
AcDbEntity
8
1
62
256
6
ByLayer
370
18
48
1
60
0
100
AcDbSpline
70
4
71
3
72
38
73
34
40
0
40
0
40
0
40
0
40
0.0455740827851099
40
0.0455740827851099
40
0.13234007525919
40
0.13234007525919
40
0.305872060207351
40
0.305872060207351
40
0.349255056444392
40
0.349255056444392
40
0.392638052681432
40
0.392638052681432
40
0.479404045155514
40
0.479404045155514
40
0.522787041392555
40
0.522787041392555
40
0.566170037629595
40
0.566170037629595
40
0.652936030103675
40
0.652936030103675
40
0.696319026340716
40
0.696319026340716
40
0.739702022577756
40
0.739702022577756
40
0.826468015051837
40
0.826468015051837
40
0.913234007525919
40
0.913234007525919
40
0.934925505644439
40
0.934925505644439
40
0.956617003762959
40
0.956617003762959
40
1
40
1
40
1
40
1
41
1
10
12.0902954282309
20
-4.58298289797344
30
0
41
1
10
11.949165320862
20
-4.63642219379594
30
0
41
1
10
11.8085449308592
20
-4.6893568481872
30
0
41
1
10
11.4017883799509
20
-4.84139479398547
30
0
41
1
10
11.1371940406369
20
-4.93873787011464
30
0
41
1
10
10.3492745162899
20
-5.22476922262601
30
0
41
1
10
9.83177601984789
20
-5.40753296458456
30
0
41
1
10
9.19832738263739
20
-5.61831059406472
30
0
41
1
10
9.07231678187526
20
-5.65956503198771
30
0
41
1
10
8.82179472609096
20
-5.73997161332449
30
0
41
1
10
8.6970123678623
20
-5.77920784497144
30
0
41
1
10
8.32797488996022
20
-5.89233176230195
30
0
41
1
10
8.088673135325
20
-5.96177620125641
30
0
41
1
10
7.74200466962327
20
-6.05422960161624
30
0
41
1
10
7.62847173071376
20
-6.08312253980776
30
0
41
1
10
7.40569957244861
20
-6.13673122166426
30
0
41
1
10
7.29629925541124
20
-6.16147312443741
30
0
41
1
10
6.97873884465162
20
-6.22747848971719
30
0
41
1
10
6.78023966297349
20
-6.26082282897482
30
0
41
1
10
6.50737693396016
20
-6.28966942223249
30
0
41
1
10
6.42059258729199
20
-6.29573502949782
30
0
41
1
10
6.25669776765773
20
-6.29943373768526
30
0
41
1
10
6.17960457485373
20
-6.29699950259246
30
0
41
1
10
5.97002522239035
20
-6.27515434444084
30
0
41
1
10
5.85704196990946
20
-6.24146664237992
30
0
41
1
10
5.69927421070818
20
-6.1245426581817
30
0
41
1
10
5.65826747317877
20
-6.04389060358565
30
0
41
1
10
5.6561035225362
20
-5.91369676439783
30
0
41
1
10
5.65814110121889
20
-5.88618113401418
30
0
41
1
10
5.66726809091477
20
-5.82812053679251
30
0
41
1
10
5.6743712844173
20
-5.79761007928923
30
0
41
1
10
5.70288954300017
20
-5.70285057582916
30
0
41
1
10
5.73154648416715
20
-5.63498465450138
30
0
41
1
10
5.76932538929572
20
-5.56267246058252
30
0
0
SPLINE
5
E1
100
AcDbEntity
8
1
62
256
6
ByLayer
370
18
48
1
60
0
100
AcDbSpline
70
4
71
3
72
20
73
16
40
0
40
0
40
0
40
0
40
0.124999999999999
40
0.124999999999999
40
0.249999999999999
40
0.249999999999999
40
0.374999999999998
40
0.374999999999998
40
0.499999999999998
40
0.499999999999998
40
0.75
40
0.75
40
0.875
40
0.875
40
1
40
1
40
1
40
1
41
1
10
61.0438808090194
20
-1.41889377766341
30
0
41
1
10
60.9793169784342
20
-1.4239894271241
30
0
41
1
10
60.9174794953882
20
-1.41490420206387
30
0
41
1
10
60.7983980201322
20
-1.37284108374212
30
0
41
1
10
60.7411625840041
20
-1.33981868671876
30
0
41
1
10
60.6309033228881
20
-1.25186754058299
30
0
41
1
10
60.5790696480566
20
-1.19786705627669
30
0
41
1
10
60.4815274134343
20
-1.07334910539998
30
0
41
1
10
60.4357278735108
20
-1.00272524847344
30
0
41
1
10
60.3063983609973
20
-0.768139436364265
30
0
41
1
10
60.2336332642305
20
-0.587021815800711
30
0
41
1
10
60.140880173723
20
-0.287467762110367
30
0
41
1
10
60.1127103981395
20
-0.182801695654973
30
0
41
1
10
60.0616002064394
20
0.035692954784821
30
0
41
1
10
60.0387889625092
20
0.149123636812305
30
0
41
1
10
60.0188543867713
20
0.264753658692001
30
0
0
SPLINE
5
E2
100
AcDbEntity
8
1
62
256
6
ByLayer
370
18
48
1
60
0
100
AcDbSpline
70
4
71
3
72
8
73
4
40
0
40
0
40
0
40
0
40
1
40
1
40
1
40
1
41
1
10
59.6787537731037
20
-6.47862329508143
30
0
41
1
10
59.6499805067198
20
-6.447668458745
30
0
41
1
10
59.6239878863456
20
-6.40652035088277
30
0
41
1
10
59.6007733150093
20
-6.35546700665316
30
0
0
SPLINE
5
E3
100
AcDbEntity
8
1
62
256
6
ByLayer
370
18
48
1
60
0
100
AcDbSpline
70
4
71
3
72
8
73
4
40
0
40
0
40
0
40
0
40
1
40
1
40
1
40
1
41
1
10
59.6787537731037
20
-6.47862329508143
30
0
41
1
10
59.9166771919475
20
-5.90387659244908
30
0
41
1
10
60.1607259390315
20
-5.30803774463467
30
0
41
1
10
60.4047888915193
20
-4.68650485425061
30
0
0
SPLINE
5
E4
100
AcDbEntity
8
1
62
256
6
ByLayer
370
18
48
1
60
0
100
AcDbSpline
70
4
71
3
72
18
73
14
40
0
40
0
40
0
40
0
40
0.250000000000001
40
0.250000000000001
40
0.375000000000001
40
0.375000000000001
40
0.500000000000001
40
0.500000000000001
40
0.75
40
0.75
40
0.875
40
0.875
40
1
40
1
40
1
40
1
41
1
10
58.9703772656614
20
0.633396398937009
30
0
41
1
10
58.9031661520671
20
0.302287281792815
30
0
41
1
10
58.848987755921
20
-0.029400354003144
30
0
41
1
10
58.7872992476827
20
-0.527800917801756
30
0
41
1
10
58.7700140180435
20
-0.694079931093455
30
0
41
1
10
58.7421872043605
20
-1.02693730620283
30
0
41
1
10
58.7316180774361
20
-1.19432605309021
30
0
41
1
10
58.7107456798114
20
-1.69053646498983
30
0
41
1
10
58.7111136744201
20
-2.01185364262733
30
0
41
1
10
58.7324344098267
20
-2.48003038347252
30
0
41
1
10
58.7430192826857
20
-2.63377849413934
30
0
41
1
10
58.7712311459454
20
-2.93659584020321
30
0
41
1
10
58.7889276338637
20
-3.08606842186222
30
0
41
1
10
58.8100237064849
20
-3.23168003425596
30
0
0
SPLINE
5
E5
100
AcDbEntity
8
1
62
256
6
ByLayer
370
13
48
1
60
0
100
AcDbSpline
70
4
71
3
72
8
73
4
40
0
40
0
40
0
40
0
40
1
40
1
40
1
40
1
41
1
10
4.89380756896801
20
0.48472562237697
30
0
41
1
10
4.91090129386555
20
0.476944673962834
30
0
41
1
10
4.92847365550415
20
0.469478969810069
30
0
41
1
10
4.9465545762678
20
0.46234441100998
30
0
0
SPLINE
5
E6
100
AcDbEntity
8
1
62
256
6
ByLayer
370
18
48
1
60
0
100
AcDbSpline
70
4
71
3
72
11
73
7
40
0
40
0
40
0
40
0
40
0.217585187718003
40
0.460753570768878
40
0.729783421556364
40
1
40
1
40
1
40
1
41
1
10
22.7153956688023
20
0.0470088036993275
30
0
41
1
10
22.5299345765476
20
0.0900148091564574
30
0
41
1
10
22.1376371084897
20
0.193125273497969
30
0
41
1
10
21.517688573345
20
0.397506084491283
30
0
41
1
10
20.8548358906499
20
0.663235437816724
30
0
41
1
10
20.3996358639442
20
0.882083519230861
30
0
41
1
10
20.1719197765262
20
1.00055642025419
30
0
0
SPLINE
5
E7
100
AcDbEntity
8
1
62
256
6
ByLayer
370
18
48
1
60
0
100
AcDbSpline
70
4
71
3
72
11
73
7
40
0
40
0
40
0
40
0
40
0.0039659808930979
40
0.360052152387112
40
0.692119548708252
40
1
40
1
40
1
40
1
41
1
10
59.9418830272266
20
0.292141692470864
30
0
41
1
10
59.9395406089006
20
0.292828653142635
30
0
41
1
10
59.726903647531
20
0.355323482566888
30
0
41
1
10
59.3236451399644
20
0.514325424367939
30
0
41
1
10
58.7471892219129
20
0.759579205239987
30
0
41
1
10
58.3823360822625
20
0.940210634176339
30
0
41
1
10
58.2078282765144
20
1.03140278509028
30
0
0
SPLINE
5
E8
100
AcDbEntity
8
1
62
256
6
ByLayer
370
18
48
1
60
0
100
AcDbSpline
70
4
71
2
72
6
73
3
40
0
40
0
40
0
40
1
40
1
40
1
41
1
10
6.26561540275912
20
6.29798063922607
30
0
41
1
10
5.84944179101745
20
6.29773188966894
30
0
41
1
10
5.43044037669898
20
6.29685822778967
30
0
0
SPLINE
5
E9
100
AcDbEntity
8
1
62
256
6
ByLayer
370
18
48
1
60
0
100
AcDbSpline
70
4
71
3
72
25
73
21
40
0
40
0
40
0
40
0
40
0.064602521246172
40
0.1266399469339
40
0.179877134743755
40
0.222842726483298
40
0.255051097219299
40
0.292507668372331
40
0.338975351080468
40
0.39185358721142
40
0.457116854755532
40
0.524579500145829
40
0.589790020615402
40
0.667243079690742
40
0.729298831888756
40
0.801394778470213
40
0.869837802673147
40
0.930240936765378
40
0.989789351144033
40
1
40
1
40
1
40
1
41
1
10
24.9994470770888
20
-6.33176848941881
30
0
41
1
10
25.3448712313624
20
-6.33198127083708
30
0
41
1
10
26.0226920671811
20
-6.33273527355078
30
0
41
1
10
26.994576564183
20
-6.33270568086905
30
0
41
1
10
27.839312680383
20
-6.33676312446187
30
0
41
1
10
28.5255923718502
20
-6.33791190164496
30
0
41
1
10
29.1332690937409
20
-6.33836656442824
30
0
41
1
10
29.7564010956653
20
-6.33919826166823
30
0
41
1
10
30.4949313823265
20
-6.33987002532638
30
0
41
1
10
31.3727791369751
20
-6.34162471609545
30
0
41
1
10
32.3775595951612
20
-6.34317150243174
30
0
41
1
10
33.430925735032
20
-6.34443055022103
30
0
41
1
10
34.5654548705789
20
-6.34684369049273
30
0
41
1
10
35.6666076698933
20
-6.34933915052545
30
0
41
1
10
36.8060422966085
20
-6.35300785532976
30
0
41
1
10
37.8966831954673
20
-6.35087358172308
30
0
41
1
10
38.9785010366599
20
-6.35186012261161
30
0
41
1
10
39.9927213340081
20
-6.35879628869105
30
0
41
1
10
40.6934878204964
20
-6.35779898086059
30
0
41
1
10
41.0690376817232
20
-6.35800179609743
30
0
41
1
10
41.1240069014446
20
-6.35802220056723
30
0
0
SPLINE
5
EA
100
AcDbEntity
8
1
62
256
6
ByLayer
370
18
48
1
60
0
100
AcDbSpline
70
4
71
3
72
24
73
20
40
0
40
0
40
0
40
0
40
0.0116891806226658
40
0.0803233638393293
40
0.149942678062954
40
0.228828591517765
40
0.311924782381646
40
0.376270118163647
40
0.455867036561586
40
0.530293790106078
40
0.594764219019945
40
0.668201952812721
40
0.731418247358012
40
0.787499734347529
40
0.826068394796792
40
0.858184023325732
40
0.895267953661701
40
0.944800975399871
40
1
40
1
40
1
40
1
41
1
10
41.1228944824051
20
6.35802176897607
30
0
41
1
10
41.0682960666022
20
6.35800149686804
30
0
41
1
10
40.6931169775597
20
6.35779930015769
30
0
41
1
10
39.9927220087832
20
6.35879456721861
30
0
41
1
10
38.978498444827
20
6.35186711739243
30
0
41
1
10
37.8966945222851
20
6.35084287676949
30
0
41
1
10
36.8395318808822
20
6.35305154669931
30
0
41
1
10
35.7790074022454
20
6.3494455597019
30
0
41
1
10
34.7591761031402
20
6.34794648877411
30
0
41
1
10
33.7380546393638
20
6.344371666683
30
0
41
1
10
32.7481060190303
20
6.3444406567597
30
0
41
1
10
31.8127463057755
20
6.34195458699108
30
0
41
1
10
30.9165192735497
20
6.34079062265008
30
0
41
1
10
30.1810685336772
20
6.33950097197609
30
0
41
1
10
29.5880381688829
20
6.33903614403391
30
0
41
1
10
29.0865840239895
20
6.33831596348074
30
0
41
1
10
28.530598658742
20
6.33791797528761
30
0
41
1
10
27.8730045907268
20
6.3368329495593
30
0
41
1
10
27.3879343193506
20
6.33458325594117
30
0
41
1
10
27.1311268308939
20
6.33381773964086
30
0
0
SPLINE
5
EB
100
AcDbEntity
8
1
62
256
6
ByLayer
370
18
48
1
60
0
100
AcDbSpline
70
4
71
3
72
11
73
7
40
0
40
0
40
0
40
0
40
0.206316466152544
40
0.444256854736609
40
0.714099859222475
40
1
40
1
40
1
40
1
41
1
10
41.7336209129743
20
-0.047516059193498
30
0
41
1
10
41.9198962461082
20
-0.0906935143406429
30
0
41
1
10
42.320026005312
20
-0.195788804897944
30
0
41
1
10
42.9595060329423
20
-0.407154704924722
30
0
41
1
10
43.6667398839754
20
-0.694243693872778
30
0
41
1
10
44.1592649186825
20
-0.935575823081365
30
0
41
1
10
44.4119313815277
20
-1.07036787473734
30
0
0
SPLINE
5
EC
100
AcDbEntity
8
1
62
256
6
ByLayer
370
18
48
1
60
0
100
AcDbSpline
70
4
71
2
72
6
73
3
40
0
40
0
40
0
40
1
40
1
40
1
41
1
10
5.43045267739748
20
-6.29687935461229
30
0
41
1
10
5.8563063109118
20
-6.29753996429483
30
0
41
1
10
6.28211777315352
20
-6.29819863225416
30
0
0
LINE
5
7B
100
AcDbEntity
8
SK1
62
256
6
ByLayer
370
18
48
1
60
0
100
AcDbLine
10
-45
20
3.5
30
0
11
-45
21
-3.5
31
0
39
0
210
0
220
0
230
1
0
LINE
5
7D
100
AcDbEntity
8
SK1
62
256
6
ByLayer
370
18
48
1
60
0
100
AcDbLine
10
-42.979274
20
7
30
0
11
-42.979274
21
-7
31
0
39
0
210
0
220
0
230
1
0
LINE
5
7E
100
AcDbEntity
8
SK1
62
256
6
ByLayer
370
18
48
1
60
0
100
AcDbLine
10
0
20
-7
30
0
11
0
21
7
31
0
39
0
210
0
220
0
230
1
0
LINE
5
7F
100
AcDbEntity
8
1
62
256
6
ByLayer
370
18
48
1
60
0
100
AcDbLine
10
61.0405
20
-1.440994
30
0
11
61.043881
21
-1.418894
31
0
39
0
210
0
220
0
230
1
0
LINE
5
80
100
AcDbEntity
8
1
62
256
6
ByLayer
370
18
48
1
60
0
100
AcDbLine
10
0
20
-7
30
0
11
0
21
7
31
0
39
0
210
0
220
0
230
1
0
LINE
5
81
100
AcDbEntity
8
1
62
256
6
ByLayer
370
13
48
1
60
0
100
AcDbLine
10
1.257932
20
6.445188
30
0
11
1.257932
21
-6.445188
31
0
39
0
210
0
220
0
230
1
0
LINE
5
82
100
AcDbEntity
8
1
62
256
6
ByLayer
370
13
48
1
60
0
100
AcDbLine
10
0.628201
20
6.722594
30
0
11
0.628201
21
-6.722594
31
0
39
0
210
0
220
0
230
1
0
LINE
5
83
100
AcDbEntity
8
1
62
256
6
ByLayer
370
18
48
1
60
0
100
AcDbLine
10
58.810024
20
-3.23168
30
0
11
61.0405
21
-1.440994
31
0
39
0
210
0
220
0
230
1
0
LINE
5
84
100
AcDbEntity
8
80
62
256
6
ByLayer
370
18
48
1
60
0
100
AcDbLine
10
0
20
0
30
0
11
-5
21
0
31
0
39
0
210
0
220
0
230
1
0
LINE
5
85
100
AcDbEntity
8
4
62
256
6
ByLayer
370
18
48
0.05
60
0
100
AcDbLine
10
62
20
0
30
0
11
0
21
0
31
0
39
0
210
0
220
0
230
1
0
LINE
5
87
100
AcDbEntity
8
SK4
62
256
6
ByLayer
370
18
48
0.05
60
0
100
AcDbLine
10
67
20
0
30
0
11
-50
21
0
31
0
39
0
210
0
220
0
230
1
0
LINE
5
89
100
AcDbEntity
8
SK1
62
256
6
ByLayer
370
18
48
1
60
0
100
AcDbLine
10
-45
20
-3.5
30
0
11
-42.979274
21
-7
31
0
39
0
210
0
220
0
230
1
0
LINE
5
8A
100
AcDbEntity
8
SK1
62
256
6
ByLayer
370
18
48
1
60
0
100
AcDbLine
10
-42.979274
20
7
30
0
11
-45
21
3.5
31
0
39
0
210
0
220
0
230
1
0
LINE
5
8B
100
AcDbEntity
8
SK1
62
256
6
ByLayer
370
18
48
1
60
0
100
AcDbLine
10
-42.979274
20
-7
30
0
11
0
21
-7
31
0
39
0
210
0
220
0
230
1
0
LINE
5
8C
100
AcDbEntity
8
SK1
62
256
6
ByLayer
370
18
48
1
60
0
100
AcDbLine
10
0
20
7
30
0
11
-42.979274
21
7
31
0
39
0
210
0
220
0
230
1
0
LINE
5
8D
100
AcDbEntity
8
1
62
256
6
ByLayer
370
18
48
1
60
0
100
AcDbLine
10
1.257932
20
-6.445188
30
0
11
4.89444
21
-6.451734
31
0
39
0
210
0
220
0
230
1
0
LINE
5
8E
100
AcDbEntity
8
1
62
256
6
ByLayer
370
18
48
1
60
0
100
AcDbLine
10
23.353768
20
-6.484961
30
0
11
24.466275
21
-6.486963
31
0
39
0
210
0
220
0
230
1
0
LINE
5
8F
100
AcDbEntity
8
1
62
256
6
ByLayer
370
18
48
1
60
0
100
AcDbLine
10
24.466275
20
6.486963
30
0
11
23.353768
21
6.484961
31
0
39
0
210
0
220
0
230
1
0
LINE
5
90
100
AcDbEntity
8
1
62
256
6
ByLayer
370
18
48
1
60
0
100
AcDbLine
10
4.89444
20
6.451734
30
0
11
1.257932
21
6.445188
31
0
39
0
210
0
220
0
230
1
0
LINE
5
91
100
AcDbEntity
8
81
62
256
6
ByLayer
370
18
48
1
60
0
100
AcDbLine
10
62
20
0
30
0
11
67
21
0
31
0
39
0
210
0
220
0
230
1
0
LINE
5
92
100
AcDbEntity
8
SK2
62
256
6
ByLayer
370
13
48
1
60
0
100
AcDbLine
10
-53.625163
20
-7
30
0
11
-53.625163
21
38.225706
31
0
39
0
210
0
220
0
230
1
0
LINE
5
94
100
AcDbEntity
8
SK2
62
256
6
ByLayer
370
13
48
1
60
0
100
AcDbLine
10
-46.5875
20
7
30
0
11
-55.625163
21
7
31
0
39
0
210
0
220
0
230
1
0
LINE
5
95
100
AcDbEntity
8
SK2
62
256
6
ByLayer
370
13
48
1
60
0
100
AcDbLine
10
-46.5875
20
-7
30
0
11
-55.625163
21
-7
31
0
39
0
210
0
220
0
230
1
0
LINE
5
96
100
AcDbEntity
8
1
62
256
6
ByLayer
370
18
48
1
60
1
100
AcDbLine
10
-53.625163
20
7
30
0
11
-53.164379
21
3.500002
31
0
39
0
210
0
220
0
230
1
0
LINE
5
97
100
AcDbEntity
8
1
62
256
6
ByLayer
370
18
48
1
60
1
100
AcDbLine
10
-53.164379
20
3.500002
30
0
11
-54.085946
21
3.499998
31
0
39
0
210
0
220
0
230
1
0
LINE
5
98
100
AcDbEntity
8
1
62
256
6
ByLayer
370
18
48
1
60
1
100
AcDbLine
10
-54.085946
20
3.499998
30
0
11
-53.625163
21
7
31
0
39
0
210
0
220
0
230
1
0
LINE
5
99
100
AcDbEntity
8
1
62
256
6
ByLayer
370
18
48
1
60
1
100
AcDbLine
10
-53.625163
20
-7
30
0
11
-54.085946
21
-3.500002
31
0
39
0
210
0
220
0
230
1
0
LINE
5
9A
100
AcDbEntity
8
1
62
256
6
ByLayer
370
18
48
1
60
1
100
AcDbLine
10
-54.085946
20
-3.500002
30
0
11
-53.164379
21
-3.499998
31
0
39
0
210
0
220
0
230
1
0
LINE
5
9B
100
AcDbEntity
8
1
62
256
6
ByLayer
370
18
48
1
60
1
100
AcDbLine
10
-53.164379
20
-3.499998
30
0
11
-53.625163
21
-7
31
0
39
0
210
0
220
0
230
1
0
LINE
5
9C
100
AcDbEntity
8
2
62
256
6
ByLayer
370
13
48
1
60
0
100
AcDbLine
10
74.083343
20
-6.55
30
0
11
74.083343
21
35.125392
31
0
39
0
210
0
220
0
230
1
0
LINE
5
9E
100
AcDbEntity
8
2
62
256
6
ByLayer
370
13
48
1
60
0
100
AcDbLine
10
61.0741
20
6.55
30
0
11
76.083343
21
6.55
31
0
39
0
210
0
220
0
230
1
0
LINE
5
9F
100
AcDbEntity
8
2
62
256
6
ByLayer
370
13
48
1
60
0
100
AcDbLine
10
61.0741
20
-6.55
30
0
11
76.083343
21
-6.55
31
0
39
0
210
0
220
0
230
1
0
LINE
5
A0
100
AcDbEntity
8
1
62
256
6
ByLayer
370
18
48
1
60
1
100
AcDbLine
10
74.083343
20
6.55
30
0
11
74.544126
21
3.050002
31
0
39
0
210
0
220
0
230
1
0
LINE
5
A1
100
AcDbEntity
8
1
62
256
6
ByLayer
370
18
48
1
60
1
100
AcDbLine
10
74.544126
20
3.050002
30
0
11
73.622559
21
3.049998
31
0
39
0
210
0
220
0
230
1
0
LINE
5
A2
100
AcDbEntity
8
1
62
256
6
ByLayer
370
18
48
1
60
1
100
AcDbLine
10
73.622559
20
3.049998
30
0
11
74.083343
21
6.55
31
0
39
0
210
0
220
0
230
1
0
LINE
5
A3
100
AcDbEntity
8
1
62
256
6
ByLayer
370
18
48
1
60
1
100
AcDbLine
10
74.083343
20
-6.55
30
0
11
73.622559
21
-3.050002
31
0
39
0
210
0
220
0
230
1
0
LINE
5
A4
100
AcDbEntity
8
1
62
256
6
ByLayer
370
18
48
1
60
1
100
AcDbLine
10
73.622559
20
-3.050002
30
0
11
74.544126
21
-3.049998
31
0
39
0
210
0
220
0
230
1
0
LINE
5
A5
100
AcDbEntity
8
1
62
256
6
ByLayer
370
18
48
1
60
1
100
AcDbLine
10
74.544126
20
-3.049998
30
0
11
74.083343
21
-6.55
31
0
39
0
210
0
220
0
230
1
0
LINE
5
F3
100
AcDbEntity
8
1
62
256
6
ByLayer
370
18
48
1
60
1
100
AcDbLine
10
-53.625163
20
7
30
0
11
-53.164379
21
3.500002
31
0
39
0
210
0
220
0
230
1
0
LINE
5
F4
100
AcDbEntity
8
1
62
256
6
ByLayer
370
18
48
1
60
1
100
AcDbLine
10
-53.164379
20
3.500002
30
0
11
-54.085946
21
3.499998
31
0
39
0
210
0
220
0
230
1
0
LINE
5
F5
100
AcDbEntity
8
1
62
256
6
ByLayer
370
18
48
1
60
1
100
AcDbLine
10
-54.085946
20
3.499998
30
0
11
-53.625163
21
7
31
0
39
0
210
0
220
0
230
1
0
LINE
5
F7
100
AcDbEntity
8
1
62
256
6
ByLayer
370
18
48
1
60
1
100
AcDbLine
10
-53.625163
20
-7
30
0
11
-54.085946
21
-3.500002
31
0
39
0
210
0
220
0
230
1
0
LINE
5
F8
100
AcDbEntity
8
1
62
256
6
ByLayer
370
18
48
1
60
1
100
AcDbLine
10
-54.085946
20
-3.500002
30
0
11
-53.164379
21
-3.499998
31
0
39
0
210
0
220
0
230
1
0
LINE
5
F9
100
AcDbEntity
8
1
62
256
6
ByLayer
370
18
48
1
60
1
100
AcDbLine
10
-53.164379
20
-3.499998
30
0
11
-53.625163
21
-7
31
0
39
0
210
0
220
0
230
1
0
LINE
5
FD
100
AcDbEntity
8
1
62
256
6
ByLayer
370
18
48
1
60
1
100
AcDbLine
10
74.083343
20
6.55
30
0
11
74.544126
21
3.050002
31
0
39
0
210
0
220
0
230
1
0
LINE
5
FE
100
AcDbEntity
8
1
62
256
6
ByLayer
370
18
48
1
60
1
100
AcDbLine
10
74.544126
20
3.050002
30
0
11
73.622559
21
3.049998
31
0
39
0
210
0
220
0
230
1
0
LINE
5
FF
100
AcDbEntity
8
1
62
256
6
ByLayer
370
18
48
1
60
1
100
AcDbLine
10
73.622559
20
3.049998
30
0
11
74.083343
21
6.55
31
0
39
0
210
0
220
0
230
1
0
LINE
5
101
100
AcDbEntity
8
1
62
256
6
ByLayer
370
18
48
1
60
1
100
AcDbLine
10
74.083343
20
-6.55
30
0
11
73.622559
21
-3.050002
31
0
39
0
210
0
220
0
230
1
0
LINE
5
102
100
AcDbEntity
8
1
62
256
6
ByLayer
370
18
48
1
60
1
100
AcDbLine
10
73.622559
20
-3.050002
30
0
11
74.544126
21
-3.049998
31
0
39
0
210
0
220
0
230
1
0
LINE
5
103
100
AcDbEntity
8
1
62
256
6
ByLayer
370
18
48
1
60
1
100
AcDbLine
10
74.544126
20
-3.049998
30
0
11
74.083343
21
-6.55
31
0
39
0
210
0
220
0
230
1
0
MTEXT
5
ED
100
AcDbEntity
8
SK6
62
256
6
ByLayer
370
13
48
1
60
0
100
AcDbMText
10
-18.918427
20
39.090328
30
0
210
0
220
0
230
1
1
\W0.7220;860.1-1310-040A1-PM P1BM
40
3.5
41
0
44
1.084337
50
0
71
7
72
5
7
iso_b_vert
0
MTEXT
5
F1
100
AcDbEntity
8
SK2
62
256
6
ByLayer
370
18
48
1
60
0
100
AcDbMText
10
-55.189796
20
20.409024
30
0
210
0
220
0
230
1
1
%%c
40
3.5
41
0
44
1.084337
50
90
71
7
72
5
7
iso_b_vert
0
MTEXT
5
F2
100
AcDbEntity
8
SK2
62
256
6
ByLayer
370
18
48
1
60
0
100
AcDbMText
10
-55.189796
20
25.63168
30
0
210
0
220
0
230
1
1
\W0.7145;14,000
40
3.5
41
0
44
1.084337
50
90
71
7
72
5
7
iso_b_vert
0
MTEXT
5
FB
100
AcDbEntity
8
2
62
256
6
ByLayer
370
18
48
1
60
0
100
AcDbMText
10
72.518709
20
18.55211
30
0
210
0
220
0
230
1
1
%%c
40
3.5
41
0
44
1.084337
50
90
71
7
72
5
7
iso_b_vert
0
MTEXT
5
FC
100
AcDbEntity
8
2
62
256
6
ByLayer
370
18
48
1
60
0
100
AcDbMText
10
72.518709
20
23.774766
30
0
210
0
220
0
230
1
1
\W0.6440;13,100
40
3.5
41
0
44
1.084337
50
90
71
7
72
5
7
iso_b_vert
0
HATCH
5
F6
100
AcDbEntity
8
SK2
62
256
6
ByLayer
370
13
48
1
60
0
100
AcDbHatch
10
0
20
0
30
0
210
0
220
0
230
1
2
ANSI31
70
0
71
0
91
1
92
5
93
3
72
1
10
-53.6251625675374
20
7
11
-53.1643788259847
21
3.50000169255318
72
1
10
-53.1643788259847
20
3.50000169255318
11
-54.0859463090902
21
3.49999830744682
72
1
10
-54.0859463090902
20
3.49999830744682
11
-53.6251625675374
21
7
97
0
75
0
76
1
52
0
41
0.0062
77
0
78
1
53
45
43
0
44
0
45
-0.0139193969876572
46
0.0139193969876572
79
0
47
0
98
1
10
0
20
0
0
HATCH
5
FA
100
AcDbEntity
8
SK2
62
256
6
ByLayer
370
13
48
1
60
0
100
AcDbHatch
10
0
20
0
30
0
210
0
220
0
230
1
2
ANSI31
70
0
71
0
91
1
92
5
93
3
72
1
10
-53.6251625675374
20
-7
11
-54.0859463090902
21
-3.50000169255318
72
1
10
-54.0859463090902
20
-3.50000169255318
11
-53.1643788259847
21
-3.49999830744682
72
1
10
-53.1643788259847
20
-3.49999830744682
11
-53.6251625675374
21
-7
97
0
75
0
76
1
52
0
41
0.0062
77
0
78
1
53
45
43
0
44
0
45
-0.0139193969876572
46
0.0139193969876572
79
0
47
0
98
1
10
0
20
0
0
HATCH
5
100
100
AcDbEntity
8
2
62
256
6
ByLayer
370
13
48
1
60
0
100
AcDbHatch
10
0
20
0
30
0
210
0
220
0
230
1
2
ANSI31
70
0
71
0
91
1
92
5
93
3
72
1
10
74.083342615295
20
6.55000000000001
11
74.5441263568477
21
3.0500016925532
72
1
10
74.5441263568477
20
3.0500016925532
11
73.6225588737422
21
3.04999830744683
72
1
10
73.6225588737422
20
3.04999830744683
11
74.083342615295
21
6.55000000000001
97
0
75
0
76
1
52
0
41
0.0062
77
0
78
1
53
45
43
0
44
0
45
-0.0139193969876572
46
0.0139193969876572
79
0
47
0
98
1
10
0
20
0
0
HATCH
5
104
100
AcDbEntity
8
2
62
256
6
ByLayer
370
13
48
1
60
0
100
AcDbHatch
10
0
20
0
30
0
210
0
220
0
230
1
2
ANSI31
70
0
71
0
91
1
92
5
93
3
72
1
10
74.083342615295
20
-6.54999999999998
11
73.6225588737422
21
-3.05000169255317
72
1
10
73.6225588737422
20
-3.05000169255317
11
74.5441263568477
21
-3.0499983074468
72
1
10
74.5441263568477
20
-3.0499983074468
11
74.083342615295
21
-6.54999999999998
97
0
75
0
76
1
52
0
41
0.0062
77
0
78
1
53
45
43
0
44
0
45
-0.0139193969876572
46
0.0139193969876572
79
0
47
0
98
1
10
0
20
0
0
DIMENSION
5
106
100
AcDbEntity
8
2
62
256
6
ByLayer
370
13
48
1
60
0
100
AcDbDimension
2
_U0
10
59.4866
20
-16.763398
30
0
11
29.7433
21
-16.763398
31
0
70
32
71
1
72
1
41
1
210
0
220
0
230
1
3
Standard
100
AcDbAlignedDimension
13
0
23
0
33
0
14
59.4866
24
-6.55
34
0
50
0
100
AcDbRotatedDimension
1001
ACAD
1000
DSTYLE
1002
{
1070
   371
1070
    13
1070
   372
1070
    13
1070
   170
1070
     0
1070
   144
1040
1.0
1070
   277
1070
     2
1070
   278
1070
    44
1070
   146
1040
1.0
1070
   345
1005
16
1070
   347
1005
16
1070
   346
1005
16
1070
   344
1005
0
1070
   343
1005
0
1070
   172
1070
     1
1070
    76
1070
     0
1070
    75
1070
     0
1070
   282
1070
     0
1070
   281
1070
     0
1070
    71
1070
     0
1070
    74
1070
     0
1070
   279
1070
     0
1070
   173
1070
     1
1070
   340
1005
EE
1070
   271
1070
     2
1070
   272
1070
     2
1070
    77
1070
     1
1070
    73
1070
     1
1070
   171
1070
     3
1070
   274
1070
     4
1070
   177
1070
    35
1070
   176
1070
    35
1070
   178
1070
    35
1070
    48
1040
-0.1
1070
    41
1040
3.5
1070
   147
1040
1.75
1070
    42
1040
1.5875
1070
    44
1040
2.0
1070
   140
1040
3.5
1002
}
1001
ACAD_DSTYLE_DIM_LINETYPE
1070
   380
1005
16
1001
ACAD_DSTYLE_DIM_EXT1_LINETYPE
1070
   381
1005
16
1001
ACAD_DSTYLE_DIM_EXT2_LINETYPE
1070
   382
1005
16
0
DIMENSION
5
11F
100
AcDbEntity
8
SK2
62
256
6
ByLayer
370
13
48
1
60
0
100
AcDbDimension
2
_U1
10
62
20
-35.692985
30
0
11
8.5
21
-35.692985
31
0
70
32
71
1
72
1
41
1
210
0
220
0
230
1
3
Standard
100
AcDbAlignedDimension
13
-45
23
-7
33
0
14
62
24
0
34
0
50
0
100
AcDbRotatedDimension
1001
ACAD
1000
DSTYLE
1002
{
1070
   371
1070
    13
1070
   372
1070
    13
1070
   170
1070
     0
1070
   144
1040
1.0
1070
   277
1070
     2
1070
   278
1070
    44
1070
   146
1040
1.0
1070
   345
1005
16
1070
   347
1005
16
1070
   346
1005
16
1070
   344
1005
0
1070
   343
1005
0
1070
   172
1070
     1
1070
    76
1070
     0
1070
    75
1070
     0
1070
   282
1070
     0
1070
   281
1070
     0
1070
    71
1070
     0
1070
    74
1070
     0
1070
   279
1070
     0
1070
   173
1070
     1
1070
   340
1005
EE
1070
   271
1070
     2
1070
   272
1070
     2
1070
    77
1070
     1
1070
    73
1070
     1
1070
   171
1070
     3
1070
   274
1070
     4
1070
   177
1070
    35
1070
   176
1070
    35
1070
   178
1070
    35
1070
    48
1040
-0.1
1070
    41
1040
3.5
1070
   147
1040
1.75
1070
    42
1040
1.5875
1070
    44
1040
2.0
1070
   140
1040
3.5
1002
}
1001
ACAD_DSTYLE_DIM_LINETYPE
1070
   380
1005
16
1001
ACAD_DSTYLE_DIM_EXT1_LINETYPE
1070
   381
1005
16
1001
ACAD_DSTYLE_DIM_EXT2_LINETYPE
1070
   382
1005
16
0
DIMENSION
5
137
100
AcDbEntity
8
SK2
62
256
6
ByLayer
370
13
48
1
60
0
100
AcDbDimension
2
_U2
10
62
20
18.159119
30
0
11
41.095
21
18.159119
31
0
70
32
71
1
72
1
41
1
210
0
220
0
230
1
3
Standard
100
AcDbAlignedDimension
13
20.19
23
6.55
33
0
14
62
24
0
34
0
50
0
100
AcDbRotatedDimension
1001
ACAD
1000
DSTYLE
1002
{
1070
   371
1070
    13
1070
   372
1070
    13
1070
   170
1070
     0
1070
   144
1040
1.0
1070
   277
1070
     2
1070
   278
1070
    44
1070
   146
1040
1.0
1070
   345
1005
16
1070
   347
1005
16
1070
   346
1005
16
1070
   344
1005
0
1070
   343
1005
0
1070
   172
1070
     1
1070
    76
1070
     0
1070
    75
1070
     0
1070
   282
1070
     0
1070
   281
1070
     0
1070
    71
1070
     0
1070
    74
1070
     0
1070
   279
1070
     0
1070
   173
1070
     1
1070
   340
1005
EE
1070
   271
1070
     2
1070
   272
1070
     2
1070
    77
1070
     1
1070
    73
1070
     1
1070
   171
1070
     3
1070
   274
1070
     4
1070
   177
1070
    35
1070
   176
1070
    35
1070
   178
1070
    35
1070
    48
1040
-0.1
1070
    41
1040
3.5
1070
   147
1040
1.75
1070
    42
1040
1.5875
1070
    44
1040
2.0
1070
   140
1040
3.5
1002
}
1001
ACAD_DSTYLE_DIM_LINETYPE
1070
   380
1005
16
1001
ACAD_DSTYLE_DIM_EXT1_LINETYPE
1070
   381
1005
16
1001
ACAD_DSTYLE_DIM_EXT2_LINETYPE
1070
   382
1005
16
0
DIMENSION
5
14F
100
AcDbEntity
8
SK2
62
256
6
ByLayer
370
13
48
1
60
0
100
AcDbDimension
2
_U3
10
59.4866
20
-19.352503
30
0
11
79.083333
21
-19.352503
31
0
70
32
71
1
72
1
41
1
210
0
220
0
230
1
3
Standard
100
AcDbAlignedDimension
13
62
23
0
33
0
14
59.4866
24
-6.55
34
0
50
0
100
AcDbRotatedDimension
1001
ACAD
1000
DSTYLE
1002
{
1070
   371
1070
    13
1070
   372
1070
    13
1070
   170
1070
     0
1070
   144
1040
1.0
1070
   277
1070
     2
1070
   278
1070
    44
1070
   146
1040
1.0
1070
   345
1005
16
1070
   347
1005
16
1070
   346
1005
16
1070
   344
1005
0
1070
   343
1005
0
1070
   172
1070
     1
1070
    76
1070
     0
1070
    75
1070
     0
1070
   282
1070
     0
1070
   281
1070
     0
1070
    71
1070
     0
1070
    74
1070
     0
1070
   279
1070
     0
1070
   173
1070
     1
1070
   340
1005
EE
1070
   271
1070
     2
1070
   272
1070
     2
1070
    77
1070
     1
1070
    73
1070
     1
1070
   171
1070
     3
1070
   274
1070
     4
1070
   177
1070
    35
1070
   176
1070
    35
1070
   178
1070
    35
1070
    48
1040
-0.1
1070
    41
1040
3.5
1070
   147
1040
1.75
1070
    42
1040
1.5875
1070
    44
1040
2.0
1070
   140
1040
3.5
1002
}
1001
ACAD_DSTYLE_DIM_LINETYPE
1070
   380
1005
16
1001
ACAD_DSTYLE_DIM_EXT1_LINETYPE
1070
   381
1005
16
1001
ACAD_DSTYLE_DIM_EXT2_LINETYPE
1070
   382
1005
16
0
DIMENSION
5
169
100
AcDbEntity
8
SK2
62
256
6
ByLayer
370
13
48
1
60
0
100
AcDbDimension
2
_U4
10
59.4866
20
-25.343428
30
0
11
7.2433
21
-25.343428
31
0
70
32
71
1
72
1
41
1
210
0
220
0
230
1
3
Standard
100
AcDbAlignedDimension
13
-45
23
-7
33
0
14
59.4866
24
-6.55
34
0
50
0
100
AcDbRotatedDimension
1001
ACAD
1000
DSTYLE
1002
{
1070
   371
1070
    13
1070
   372
1070
    13
1070
   170
1070
     0
1070
   144
1040
1.0
1070
   277
1070
     2
1070
   278
1070
    44
1070
   146
1040
1.0
1070
   345
1005
16
1070
   347
1005
16
1070
   346
1005
16
1070
   344
1005
0
1070
   343
1005
0
1070
   172
1070
     1
1070
    76
1070
     0
1070
    75
1070
     0
1070
   282
1070
     0
1070
   281
1070
     0
1070
    71
1070
     0
1070
    74
1070
     0
1070
   279
1070
     0
1070
   173
1070
     1
1070
   340
1005
EE
1070
   271
1070
     2
1070
   272
1070
     2
1070
    77
1070
     1
1070
    73
1070
     1
1070
   171
1070
     3
1070
   274
1070
     4
1070
   177
1070
    35
1070
   176
1070
    35
1070
   178
1070
    35
1070
    48
1040
-0.1
1070
    41
1040
3.5
1070
   147
1040
1.75
1070
    42
1040
1.5875
1070
    44
1040
2.0
1070
   140
1040
3.5
1002
}
1001
ACAD_DSTYLE_DIM_LINETYPE
1070
   380
1005
16
1001
ACAD_DSTYLE_DIM_EXT1_LINETYPE
1070
   381
1005
16
1001
ACAD_DSTYLE_DIM_EXT2_LINETYPE
1070
   382
1005
16
0
ENDSEC
0
SECTION
2
OBJECTS
0
DICTIONARY
5
1f1
330
0
100
AcDbDictionary
280
0
281
1
3
ACAD_GROUP
350
1f2
3
ACAD_MLINESTYLE
350
1f3
0
DICTIONARY
5
1f2
330
0
100
AcDbDictionary
280
0
281
1
0
DICTIONARY
5
1f3
330
0
100
AcDbDictionary
280
0
281
1
3
Standard
350
18
0
MLINESTYLE
5
18
330
1f3
100
AcDbMlineStyle
2
Standard
70
0
3

62
256
51
90
52
90
71
2
49
-0.5
62
256
6
ByLayer
49
0.5
62
256
6
ByLayer
0
RASTERVARIABLES
5
1df
330

100
AcDbRasterVariables
90
0
70
1
71
1
72
1
0
ENDSEC
0
EOF
