0
SECTION
2
HEADER
9
$ACADVER
1
AC1015
9
$DWGCODEPAGE
3
ANSI_1252
9
$HANDSEED
5
201
9
$ANGBASE
50
0
9
$ANGDIR
70
0
9
$ATTMODE
70
1
9
$AUNITS
70
0
9
$AUPREC
70
0
9
$CECOLOR
62
256
9
$CELTSCALE
40
1
9
$CELTYPE
6
ByLayer
9
$CELWEIGHT
370
18
9
$CLAYER
8
0
9
$CMLJUST
70
0
9
$CMLSCALE
40
1
9
$CMLSTYLE
2
Standard
9
$DIMSTYLE
2
Standard
9
$TEXTSIZE
40
0.2
9
$TEXTSTYLE
7
Standard
9
$LUNITS
70
2
9
$LUPREC
70
4
9
$EXTNAMES
290
1
9
$INSUNITS
70
4
9
$LTSCALE
40
1
9
$LWDISPLAY
290
1
9
$PDMODE
70
0
9
$PDSIZE
40
0
9
$PLINEGEN
70
0
0
ENDSEC
0
SECTION
2
CLASSES
0
CLASS
1
RASTERVARIABLES
2
AcDbRasterVariables
3
ISM
90
0
280
0
281
0
0
ENDSEC
0
SECTION
2
TABLES
0
TABLE
2
VPORT
5
1f7
100
AcDbSymbolTable
0
VPORT
5
1
100
AcDbSymbolTableRecord
100
AcDbViewportTableRecord
2
*Active
70
0
10
0
20
0
11
1
21
1
12
-1
22
1
13
0
23
0
14
0.5
24
0.5
15
10
25
10
16
0
26
0
36
1
17
0
27
0
37
0
0
ENDTAB
0
TABLE
2
LTYPE
5
1f8
100
AcDbSymbolTable
0
LTYPE
5
14
100
AcDbSymbolTableRecord
100
AcDbLinetypeTableRecord
70
0
2
ByBlock
3

72
65
73
0
40
0
0
LTYPE
5
15
100
AcDbSymbolTableRecord
100
AcDbLinetypeTableRecord
70
0
2
ByLayer
3

72
65
73
0
40
0
0
LTYPE
5
16
100
AcDbSymbolTableRecord
100
AcDbLinetypeTableRecord
70
0
2
Continuous
3
Solid line
72
65
73
0
40
0
0
LTYPE
5
6E
100
AcDbSymbolTableRecord
100
AcDbLinetypeTableRecord
70
0
2
CENTER
3
____ _ ____ _ ____ _ ____
72
65
73
4
40
47.5
49
22
74
0
49
-8.5
74
0
49
8.5
74
0
49
-8.5
74
0
0
LTYPE
5
6F
100
AcDbSymbolTableRecord
100
AcDbLinetypeTableRecord
70
0
2
DASHED
3
__ __ __ __ __ __ __ __ __
72
65
73
2
40
25.72
49
12.86
74
0
49
-12.86
74
0
0
ENDTAB
0
TABLE
2
LAYER
5
1f9
100
AcDbSymbolTable
0
LAYER
5
10
100
AcDbSymbolTableRecord
100
AcDbLayerTableRecord
2
0
70
0
62
7
6
Continuous
290
1
370
-3
390
0
0
LAYER
5
71
100
AcDbSymbolTableRecord
100
AcDbLayerTableRecord
2
80
70
0
62
-6
6
Continuous
290
1
370
-3
390
0
0
LAYER
5
73
100
AcDbSymbolTableRecord
100
AcDbLayerTableRecord
2
81
70
0
62
-3
6
Continuous
290
1
370
-3
390
0
0
LAYER
5
75
100
AcDbSymbolTableRecord
100
AcDbLayerTableRecord
2
1
70
0
62
4
6
Continuous
290
1
370
-3
390
0
0
LAYER
5
87
100
AcDbSymbolTableRecord
100
AcDbLayerTableRecord
2
4
70
0
62
-2
6
CENTER
290
1
370
-3
390
0
0
LAYER
5
9E
100
AcDbSymbolTableRecord
100
AcDbLayerTableRecord
2
2
70
0
62
7
6
Continuous
290
1
370
-3
390
0
0
LAYER
5
10C
100
AcDbSymbolTableRecord
100
AcDbLayerTableRecord
2
Defpoints
70
0
62
7
6
Continuous
290
0
370
-3
390
0
0
LAYER
5
1e3
100
AcDbSymbolTableRecord
100
AcDbLayerTableRecord
2
SK1
70
0
62
4
6
Continuous
290
1
370
-3
390
0
0
LAYER
5
1e4
100
AcDbSymbolTableRecord
100
AcDbLayerTableRecord
2
SK4
70
0
62
2
6
CENTER
290
1
370
-3
390
0
0
LAYER
5
1e5
100
AcDbSymbolTableRecord
100
AcDbLayerTableRecord
2
SK2
70
0
62
7
6
Continuous
290
1
370
-3
390
0
0
LAYER
5
1e6
100
AcDbSymbolTableRecord
100
AcDbLayerTableRecord
2
SK6
70
0
62
5
6
Continuous
290
1
370
-3
390
0
0
ENDTAB
0
TABLE
2
STYLE
5
1fa
100
AcDbSymbolTable
0
STYLE
5
11
100
AcDbSymbolTableRecord
100
AcDbTextStyleTableRecord
2
Standard
3
txt
70
0
71
0
40
0
41
1
42
0
50
0
0
STYLE
5
F1
100
AcDbSymbolTableRecord
100
AcDbTextStyleTableRecord
2
iso_b_vert
3
simplex.shx
70
0
71
0
40
0
41
1
42
0
50
0
0
STYLE
5
F2
100
AcDbSymbolTableRecord
100
AcDbTextStyleTableRecord
2
DWGDirectTextStyle
3
simplex
70
0
71
0
40
0
41
1
42
0
50
0
0
ENDTAB
0
TABLE
2
DIMSTYLE
5
1fb
100
AcDbSymbolTable
100
AcDbDimStyleTable
0
DIMSTYLE
105
27
100
AcDbSymbolTableRecord
100
AcDbDimStyleTableRecord
2
Standard
70
0
3
<>
41
0.18
42
0.0625
44
0.18
140
0.18
147
0.09
73
0
74
0
77
1
271
2
275
0
278
52
280
0
340
11
0
ENDTAB
0
TABLE
2
VIEW
5
1fc
100
AcDbSymbolTable
0
ENDTAB
0
TABLE
2
UCS
5
1fd
100
AcDbSymbolTable
0
ENDTAB
0
TABLE
2
APPID
5
1fe
100
AcDbSymbolTable
0
APPID
5
12
100
AcDbSymbolTableRecord
100
AcDbRegAppTableRecord
2
ACAD
70
0
0
APPID
5
108
100
AcDbSymbolTableRecord
100
AcDbRegAppTableRecord
2
ACAD_DSTYLE_DIMBREAK
70
0
0
APPID
5
1A2
100
AcDbSymbolTableRecord
100
AcDbRegAppTableRecord
2
ACAD_DSTYLE_DIM_LINETYPE
70
0
0
APPID
5
1A3
100
AcDbSymbolTableRecord
100
AcDbRegAppTableRecord
2
ACAD_DSTYLE_DIM_EXT1_LINETYPE
70
0
0
APPID
5
1A4
100
AcDbSymbolTableRecord
100
AcDbRegAppTableRecord
2
ACAD_DSTYLE_DIM_EXT2_LINETYPE
70
0
0
APPID
5
1DF
100
AcDbSymbolTableRecord
100
AcDbRegAppTableRecord
2
ACAD_MLEADERVER
70
0
0
ENDTAB
0
TABLE
2
BLOCK_RECORD
5
1ff
100
AcDbSymbolTable
0
BLOCK_RECORD
5
1F
100
AcDbSymbolTableRecord
100
AcDbBlockTableRecord
2
*Model_Space
340
0
70
0
0
BLOCK_RECORD
5
1B
100
AcDbSymbolTableRecord
100
AcDbBlockTableRecord
2
*Paper_Space
340
0
70
0
0
BLOCK_RECORD
5
23
100
AcDbSymbolTableRecord
100
AcDbBlockTableRecord
2
*Paper_Space0
340
0
70
0
0
BLOCK_RECORD
5
10D
100
AcDbSymbolTableRecord
100
AcDbBlockTableRecord
2
*D1
340
0
70
0
0
BLOCK_RECORD
5
119
100
AcDbSymbolTableRecord
100
AcDbBlockTableRecord
2
_U0
340
0
70
0
0
BLOCK_RECORD
5
125
100
AcDbSymbolTableRecord
100
AcDbBlockTableRecord
2
*D3
340
0
70
0
0
BLOCK_RECORD
5
131
100
AcDbSymbolTableRecord
100
AcDbBlockTableRecord
2
_U1
340
0
70
0
0
BLOCK_RECORD
5
13D
100
AcDbSymbolTableRecord
100
AcDbBlockTableRecord
2
*D5
340
0
70
0
0
BLOCK_RECORD
5
149
100
AcDbSymbolTableRecord
100
AcDbBlockTableRecord
2
_U2
340
0
70
0
0
BLOCK_RECORD
5
155
100
AcDbSymbolTableRecord
100
AcDbBlockTableRecord
2
*D7
340
0
70
0
0
BLOCK_RECORD
5
163
100
AcDbSymbolTableRecord
100
AcDbBlockTableRecord
2
_U3
340
0
70
0
0
BLOCK_RECORD
5
16F
100
AcDbSymbolTableRecord
100
AcDbBlockTableRecord
2
*D9
340
0
70
0
0
BLOCK_RECORD
5
17B
100
AcDbSymbolTableRecord
100
AcDbBlockTableRecord
2
_U4
340
0
70
0
0
ENDTAB
0
ENDSEC
0
SECTION
2
BLOCKS
0
BLOCK
5
20
100
AcDbEntity
8
0
100
AcDbBlockBegin
2
*Model_Space
70
0
10
0
20
0
30
0
3
*Model_Space
0
ENDBLK
5
21
100
AcDbEntity
8
0
100
AcDbBlockEnd
0
BLOCK
5
1C
100
AcDbEntity
8
0
100
AcDbBlockBegin
2
*Paper_Space
70
0
10
0
20
0
30
0
3
*Paper_Space
0
ENDBLK
5
1D
100
AcDbEntity
8
0
100
AcDbBlockEnd
0
BLOCK
5
24
100
AcDbEntity
8
0
100
AcDbBlockBegin
2
*Paper_Space0
70
0
10
0
20
0
30
0
3
*Paper_Space0
0
ENDBLK
5
25
100
AcDbEntity
8
0
100
AcDbBlockEnd
0
BLOCK
5
10E
100
AcDbEntity
8
0
100
AcDbBlockBegin
2
*D1
70
1
10
0
20
0
30
0
3
*D1
0
LINE
5
110
100
AcDbEntity
8
0
62
256
6
ByLayer
370
-2
48
1
60
0
100
AcDbLine
10
0
20
-1.5875
30
0
11
0
21
-18.363398
31
0
39
0
210
0
220
0
230
1
0
LINE
5
111
100
AcDbEntity
8
0
62
256
6
ByLayer
370
-2
48
1
60
0
100
AcDbLine
10
76.6243
20
-7.7375
30
0
11
76.6243
21
-18.363398
31
0
39
0
210
0
220
0
230
1
0
LINE
5
112
100
AcDbEntity
8
0
62
256
6
ByLayer
370
-2
48
1
60
0
100
AcDbLine
10
3.5
20
-16.363398
30
0
11
73.1243
21
-16.363398
31
0
39
0
210
0
220
0
230
1
0
SOLID
5
113
100
AcDbEntity
8
0
62
256
6
ByLayer
370
-1
48
1
60
0
100
AcDbTrace
10
3.5
20
-15.780065
30
0
11
3.5
21
-16.946732
31
0
12
0
22
-16.363398
32
0
13
0
23
-16.363398
33
0
39
0
210
0
220
0
230
1
0
SOLID
5
114
100
AcDbEntity
8
0
62
256
6
ByLayer
370
-1
48
1
60
0
100
AcDbTrace
10
73.1243
20
-16.946732
30
0
11
73.1243
21
-15.780065
31
0
12
76.6243
22
-16.363398
32
0
13
76.6243
23
-16.363398
33
0
39
0
210
0
220
0
230
1
0
MTEXT
5
115
100
AcDbEntity
8
0
62
256
6
ByLayer
370
18
48
1
60
0
100
AcDbMText
10
38.31215
20
-9.363398
30
0
210
0
220
0
230
1
1
\A1;76.62
40
3.5
41
0
44
1
50
0
71
5
72
5
7
iso_b_vert
0
POINT
5
116
100
AcDbEntity
8
Defpoints
62
0
6
ByLayer
370
-1
48
1
60
0
100
AcDbPoint
10
0
20
0
30
0
39
0
210
0
220
0
230
1
50
360
0
POINT
5
117
100
AcDbEntity
8
Defpoints
62
0
6
ByLayer
370
-1
48
1
60
0
100
AcDbPoint
10
76.6243
20
-6.15
30
0
39
0
210
0
220
0
230
1
50
360
0
POINT
5
118
100
AcDbEntity
8
Defpoints
62
0
6
ByLayer
370
-1
48
1
60
0
100
AcDbPoint
10
76.6243
20
-16.363398
30
0
39
0
210
0
220
0
230
1
50
360
0
ENDBLK
5
10F
100
AcDbEntity
8
0
100
AcDbBlockEnd
0
BLOCK
5
120
100
AcDbEntity
8
0
100
AcDbBlockBegin
2
_U0
70
0
10
0
20
0
30
0
3
_U0
0
MTEXT
5
11A
100
AcDbEntity
8
2
62
256
6
ByLayer
370
13
48
1
60
0
100
AcDbMText
10
33.174851
20
-15.330765
30
0
210
0
220
0
230
1
1
\W0.7317;76,62
40
3.5
41
0
44
1.084337
50
0
71
7
72
5
7
iso_b_vert
0
LINE
5
11B
100
AcDbEntity
8
2
62
256
6
ByLayer
370
13
48
1
60
0
100
AcDbLine
10
0
20
-1.5875
30
0
11
0
21
-18.363398
31
0
39
0
210
0
220
0
230
1
0
LINE
5
11C
100
AcDbEntity
8
2
62
256
6
ByLayer
370
13
48
1
60
0
100
AcDbLine
10
76.6243
20
-7.7375
30
0
11
76.6243
21
-18.363398
31
0
39
0
210
0
220
0
230
1
0
LINE
5
11D
100
AcDbEntity
8
2
62
256
6
ByLayer
370
13
48
1
60
0
100
AcDbLine
10
0
20
-16.363398
30
0
11
76.6243
21
-16.363398
31
0
39
0
210
0
220
0
230
1
0
SOLID
5
11E
100
AcDbEntity
8
2
62
256
6
ByLayer
370
18
48
1
60
0
100
AcDbTrace
10
0
20
-16.363398
30
0
11
3.499998
21
-15.902615
31
0
12
3.500002
22
-16.824182
32
0
13
3.500002
23
-16.824182
33
0
39
0
210
0
220
0
230
1
0
SOLID
5
11F
100
AcDbEntity
8
2
62
256
6
ByLayer
370
18
48
1
60
0
100
AcDbTrace
10
76.6243
20
-16.363398
30
0
11
73.124302
21
-16.824182
31
0
12
73.124298
22
-15.902615
32
0
13
73.124298
23
-15.902615
33
0
39
0
210
0
220
0
230
1
0
ENDBLK
5
121
100
AcDbEntity
8
0
100
AcDbBlockEnd
0
BLOCK
5
126
100
AcDbEntity
8
0
100
AcDbBlockBegin
2
*D3
70
1
10
0
20
0
30
0
3
*D3
0
LINE
5
128
100
AcDbEntity
8
0
62
256
6
ByLayer
370
-2
48
1
60
0
100
AcDbLine
10
-45
20
-8.5875
30
0
11
-45
21
-37.692985
31
0
39
0
210
0
220
0
230
1
0
LINE
5
129
100
AcDbEntity
8
0
62
256
6
ByLayer
370
-2
48
1
60
0
100
AcDbLine
10
79
20
-1.5875
30
0
11
79
21
-37.692985
31
0
39
0
210
0
220
0
230
1
0
LINE
5
12A
100
AcDbEntity
8
0
62
256
6
ByLayer
370
-2
48
1
60
0
100
AcDbLine
10
-41.5
20
-35.692985
30
0
11
75.5
21
-35.692985
31
0
39
0
210
0
220
0
230
1
0
SOLID
5
12B
100
AcDbEntity
8
0
62
256
6
ByLayer
370
-1
48
1
60
0
100
AcDbTrace
10
-41.5
20
-35.109652
30
0
11
-41.5
21
-36.276319
31
0
12
-45
22
-35.692985
32
0
13
-45
23
-35.692985
33
0
39
0
210
0
220
0
230
1
0
SOLID
5
12C
100
AcDbEntity
8
0
62
256
6
ByLayer
370
-1
48
1
60
0
100
AcDbTrace
10
75.5
20
-36.276319
30
0
11
75.5
21
-35.109652
31
0
12
79
22
-35.692985
32
0
13
79
23
-35.692985
33
0
39
0
210
0
220
0
230
1
0
MTEXT
5
12D
100
AcDbEntity
8
0
62
256
6
ByLayer
370
18
48
1
60
0
100
AcDbMText
10
17
20
-28.692985
30
0
210
0
220
0
230
1
1
\A1;124.00
40
3.5
41
0
44
1
50
0
71
5
72
5
7
iso_b_vert
0
POINT
5
12E
100
AcDbEntity
8
Defpoints
62
0
6
ByLayer
370
-1
48
1
60
0
100
AcDbPoint
10
-45
20
-7
30
0
39
0
210
0
220
0
230
1
50
360
0
POINT
5
12F
100
AcDbEntity
8
Defpoints
62
0
6
ByLayer
370
-1
48
1
60
0
100
AcDbPoint
10
79
20
0
30
0
39
0
210
0
220
0
230
1
50
360
0
POINT
5
130
100
AcDbEntity
8
Defpoints
62
0
6
ByLayer
370
-1
48
1
60
0
100
AcDbPoint
10
79
20
-35.692985
30
0
39
0
210
0
220
0
230
1
50
360
0
ENDBLK
5
127
100
AcDbEntity
8
0
100
AcDbBlockEnd
0
BLOCK
5
138
100
AcDbEntity
8
0
100
AcDbBlockBegin
2
_U1
70
0
10
0
20
0
30
0
3
_U1
0
MTEXT
5
132
100
AcDbEntity
8
SK2
62
256
6
ByLayer
370
13
48
1
60
0
100
AcDbMText
10
10.808135
20
-34.660352
30
0
210
0
220
0
230
1
1
\W0.7145;124,00
40
3.5
41
0
44
1.084337
50
0
71
7
72
5
7
iso_b_vert
0
LINE
5
133
100
AcDbEntity
8
SK2
62
256
6
ByLayer
370
13
48
1
60
0
100
AcDbLine
10
-45
20
-8.5875
30
0
11
-45
21
-37.692985
31
0
39
0
210
0
220
0
230
1
0
LINE
5
134
100
AcDbEntity
8
SK2
62
256
6
ByLayer
370
13
48
1
60
0
100
AcDbLine
10
79
20
-1.5875
30
0
11
79
21
-37.692985
31
0
39
0
210
0
220
0
230
1
0
LINE
5
135
100
AcDbEntity
8
SK2
62
256
6
ByLayer
370
13
48
1
60
0
100
AcDbLine
10
-45
20
-35.692985
30
0
11
79
21
-35.692985
31
0
39
0
210
0
220
0
230
1
0
SOLID
5
136
100
AcDbEntity
8
SK2
62
256
6
ByLayer
370
18
48
1
60
0
100
AcDbTrace
10
-45
20
-35.692985
30
0
11
-41.500002
21
-35.232202
31
0
12
-41.499998
22
-36.153769
32
0
13
-41.499998
23
-36.153769
33
0
39
0
210
0
220
0
230
1
0
SOLID
5
137
100
AcDbEntity
8
SK2
62
256
6
ByLayer
370
18
48
1
60
0
100
AcDbTrace
10
79
20
-35.692985
30
0
11
75.500002
21
-36.153769
31
0
12
75.499998
22
-35.232202
32
0
13
75.499998
23
-35.232202
33
0
39
0
210
0
220
0
230
1
0
ENDBLK
5
139
100
AcDbEntity
8
0
100
AcDbBlockEnd
0
BLOCK
5
13E
100
AcDbEntity
8
0
100
AcDbBlockBegin
2
*D5
70
1
10
0
20
0
30
0
3
*D5
0
LINE
5
140
100
AcDbEntity
8
0
62
256
6
ByLayer
370
-2
48
1
60
0
100
AcDbLine
10
17.68
20
7.7375
30
0
11
17.68
21
19.759119
31
0
39
0
210
0
220
0
230
1
0
LINE
5
141
100
AcDbEntity
8
0
62
256
6
ByLayer
370
-2
48
1
60
0
100
AcDbLine
10
79
20
1.5875
30
0
11
79
21
19.759119
31
0
39
0
210
0
220
0
230
1
0
LINE
5
142
100
AcDbEntity
8
0
62
256
6
ByLayer
370
-2
48
1
60
0
100
AcDbLine
10
21.18
20
17.759119
30
0
11
75.5
21
17.759119
31
0
39
0
210
0
220
0
230
1
0
SOLID
5
143
100
AcDbEntity
8
0
62
256
6
ByLayer
370
-1
48
1
60
0
100
AcDbTrace
10
21.18
20
18.342453
30
0
11
21.18
21
17.175786
31
0
12
17.68
22
17.759119
32
0
13
17.68
23
17.759119
33
0
39
0
210
0
220
0
230
1
0
SOLID
5
144
100
AcDbEntity
8
0
62
256
6
ByLayer
370
-1
48
1
60
0
100
AcDbTrace
10
75.5
20
17.175786
30
0
11
75.5
21
18.342453
31
0
12
79
22
17.759119
32
0
13
79
23
17.759119
33
0
39
0
210
0
220
0
230
1
0
MTEXT
5
145
100
AcDbEntity
8
0
62
256
6
ByLayer
370
18
48
1
60
0
100
AcDbMText
10
48.34
20
24.759119
30
0
210
0
220
0
230
1
1
\A1;61.32
40
3.5
41
0
44
1
50
0
71
5
72
5
7
iso_b_vert
0
POINT
5
146
100
AcDbEntity
8
Defpoints
62
0
6
ByLayer
370
-1
48
1
60
0
100
AcDbPoint
10
17.68
20
6.15
30
0
39
0
210
0
220
0
230
1
50
360
0
POINT
5
147
100
AcDbEntity
8
Defpoints
62
0
6
ByLayer
370
-1
48
1
60
0
100
AcDbPoint
10
79
20
0
30
0
39
0
210
0
220
0
230
1
50
360
0
POINT
5
148
100
AcDbEntity
8
Defpoints
62
0
6
ByLayer
370
-1
48
1
60
0
100
AcDbPoint
10
79
20
17.759119
30
0
39
0
210
0
220
0
230
1
50
360
0
ENDBLK
5
13F
100
AcDbEntity
8
0
100
AcDbBlockEnd
0
BLOCK
5
150
100
AcDbEntity
8
0
100
AcDbBlockBegin
2
_U2
70
0
10
0
20
0
30
0
3
_U2
0
MTEXT
5
14A
100
AcDbEntity
8
SK2
62
256
6
ByLayer
370
13
48
1
60
0
100
AcDbMText
10
43.640135
20
18.791753
30
0
210
0
220
0
230
1
1
\W0.6713;61,32
40
3.5
41
0
44
1.084337
50
0
71
7
72
5
7
iso_b_vert
0
LINE
5
14B
100
AcDbEntity
8
SK2
62
256
6
ByLayer
370
13
48
1
60
0
100
AcDbLine
10
17.68
20
7.7375
30
0
11
17.68
21
19.759119
31
0
39
0
210
0
220
0
230
1
0
LINE
5
14C
100
AcDbEntity
8
SK2
62
256
6
ByLayer
370
13
48
1
60
0
100
AcDbLine
10
79
20
1.5875
30
0
11
79
21
19.759119
31
0
39
0
210
0
220
0
230
1
0
LINE
5
14D
100
AcDbEntity
8
SK2
62
256
6
ByLayer
370
13
48
1
60
0
100
AcDbLine
10
17.68
20
17.759119
30
0
11
79
21
17.759119
31
0
39
0
210
0
220
0
230
1
0
SOLID
5
14E
100
AcDbEntity
8
SK2
62
256
6
ByLayer
370
18
48
1
60
0
100
AcDbTrace
10
17.68
20
17.759119
30
0
11
21.179998
21
18.219903
31
0
12
21.180002
22
17.298335
32
0
13
21.180002
23
17.298335
33
0
39
0
210
0
220
0
230
1
0
SOLID
5
14F
100
AcDbEntity
8
SK2
62
256
6
ByLayer
370
18
48
1
60
0
100
AcDbTrace
10
79
20
17.759119
30
0
11
75.500002
21
17.298335
31
0
12
75.499998
22
18.219903
32
0
13
75.499998
23
18.219903
33
0
39
0
210
0
220
0
230
1
0
ENDBLK
5
151
100
AcDbEntity
8
0
100
AcDbBlockEnd
0
BLOCK
5
156
100
AcDbEntity
8
0
100
AcDbBlockBegin
2
*D7
70
1
10
0
20
0
30
0
3
*D7
0
LINE
5
158
100
AcDbEntity
8
0
62
256
6
ByLayer
370
-2
48
1
60
0
100
AcDbLine
10
79
20
-1.5875
30
0
11
79
21
-20.952503
31
0
39
0
210
0
220
0
230
1
0
LINE
5
159
100
AcDbEntity
8
0
62
256
6
ByLayer
370
-2
48
1
60
0
100
AcDbLine
10
76.6243
20
-7.7375
30
0
11
76.6243
21
-20.952503
31
0
39
0
210
0
220
0
230
1
0
LINE
5
15A
100
AcDbEntity
8
0
62
256
6
ByLayer
370
-2
48
1
60
0
100
AcDbLine
10
79
20
-18.952503
30
0
11
107.166667
21
-18.952503
31
0
39
0
210
0
220
0
230
1
0
LINE
5
15B
100
AcDbEntity
8
0
62
256
6
ByLayer
370
-2
48
1
60
0
100
AcDbLine
10
82.5
20
-18.952503
30
0
11
86
21
-18.952503
31
0
39
0
210
0
220
0
230
1
0
LINE
5
15C
100
AcDbEntity
8
0
62
256
6
ByLayer
370
-2
48
1
60
0
100
AcDbLine
10
73.1243
20
-18.952503
30
0
11
69.6243
21
-18.952503
31
0
39
0
210
0
220
0
230
1
0
SOLID
5
15D
100
AcDbEntity
8
0
62
256
6
ByLayer
370
-1
48
1
60
0
100
AcDbTrace
10
82.5
20
-18.36917
30
0
11
82.5
21
-19.535837
31
0
12
79
22
-18.952503
32
0
13
79
23
-18.952503
33
0
39
0
210
0
220
0
230
1
0
SOLID
5
15E
100
AcDbEntity
8
0
62
256
6
ByLayer
370
-1
48
1
60
0
100
AcDbTrace
10
73.1243
20
-19.535837
30
0
11
73.1243
21
-18.36917
31
0
12
76.6243
22
-18.952503
32
0
13
76.6243
23
-18.952503
33
0
39
0
210
0
220
0
230
1
0
MTEXT
5
15F
100
AcDbEntity
8
0
62
256
6
ByLayer
370
18
48
1
60
0
100
AcDbMText
10
96.583333
20
-11.952503
30
0
210
0
220
0
230
1
1
\A1;2.38
40
3.5
41
0
44
1
50
0
71
5
72
5
7
iso_b_vert
0
POINT
5
160
100
AcDbEntity
8
Defpoints
62
0
6
ByLayer
370
-1
48
1
60
0
100
AcDbPoint
10
79
20
0
30
0
39
0
210
0
220
0
230
1
50
360
0
POINT
5
161
100
AcDbEntity
8
Defpoints
62
0
6
ByLayer
370
-1
48
1
60
0
100
AcDbPoint
10
76.6243
20
-6.15
30
0
39
0
210
0
220
0
230
1
50
360
0
POINT
5
162
100
AcDbEntity
8
Defpoints
62
0
6
ByLayer
370
-1
48
1
60
0
100
AcDbPoint
10
76.6243
20
-18.952503
30
0
39
0
210
0
220
0
230
1
50
360
0
ENDBLK
5
157
100
AcDbEntity
8
0
100
AcDbBlockEnd
0
BLOCK
5
16A
100
AcDbEntity
8
0
100
AcDbBlockBegin
2
_U3
70
0
10
0
20
0
30
0
3
_U3
0
MTEXT
5
164
100
AcDbEntity
8
SK2
62
256
6
ByLayer
370
13
48
1
60
0
100
AcDbMText
10
85.15186
20
-17.91987
30
0
210
0
220
0
230
1
1
\W0.7150;2,38
40
3.5
41
0
44
1.084337
50
0
71
7
72
5
7
iso_b_vert
0
LINE
5
165
100
AcDbEntity
8
SK2
62
256
6
ByLayer
370
13
48
1
60
0
100
AcDbLine
10
79
20
-1.5875
30
0
11
79
21
-20.952503
31
0
39
0
210
0
220
0
230
1
0
LINE
5
166
100
AcDbEntity
8
SK2
62
256
6
ByLayer
370
13
48
1
60
0
100
AcDbLine
10
76.6243
20
-7.7375
30
0
11
76.6243
21
-20.952503
31
0
39
0
210
0
220
0
230
1
0
LINE
5
167
100
AcDbEntity
8
SK2
62
256
6
ByLayer
370
13
48
1
60
0
100
AcDbLine
10
67.8743
20
-18.952503
30
0
11
92.996491
21
-18.952503
31
0
39
0
210
0
220
0
230
1
0
SOLID
5
168
100
AcDbEntity
8
SK2
62
256
6
ByLayer
370
18
48
1
60
0
100
AcDbTrace
10
79
20
-18.952503
30
0
11
82.499998
21
-18.491719
31
0
12
82.500002
22
-19.413287
32
0
13
82.500002
23
-19.413287
33
0
39
0
210
0
220
0
230
1
0
SOLID
5
169
100
AcDbEntity
8
SK2
62
256
6
ByLayer
370
18
48
1
60
0
100
AcDbTrace
10
76.6243
20
-18.952503
30
0
11
73.124302
21
-19.413287
31
0
12
73.124298
22
-18.491719
32
0
13
73.124298
23
-18.491719
33
0
39
0
210
0
220
0
230
1
0
ENDBLK
5
16B
100
AcDbEntity
8
0
100
AcDbBlockEnd
0
BLOCK
5
170
100
AcDbEntity
8
0
100
AcDbBlockBegin
2
*D9
70
1
10
0
20
0
30
0
3
*D9
0
LINE
5
172
100
AcDbEntity
8
0
62
256
6
ByLayer
370
-2
48
1
60
0
100
AcDbLine
10
-45
20
-8.5875
30
0
11
-45
21
-27.343428
31
0
39
0
210
0
220
0
230
1
0
LINE
5
173
100
AcDbEntity
8
0
62
256
6
ByLayer
370
-2
48
1
60
0
100
AcDbLine
10
76.6243
20
-7.7375
30
0
11
76.6243
21
-27.343428
31
0
39
0
210
0
220
0
230
1
0
LINE
5
174
100
AcDbEntity
8
0
62
256
6
ByLayer
370
-2
48
1
60
0
100
AcDbLine
10
-41.5
20
-25.343428
30
0
11
73.1243
21
-25.343428
31
0
39
0
210
0
220
0
230
1
0
SOLID
5
175
100
AcDbEntity
8
0
62
256
6
ByLayer
370
-1
48
1
60
0
100
AcDbTrace
10
-41.5
20
-24.760095
30
0
11
-41.5
21
-25.926762
31
0
12
-45
22
-25.343428
32
0
13
-45
23
-25.343428
33
0
39
0
210
0
220
0
230
1
0
SOLID
5
176
100
AcDbEntity
8
0
62
256
6
ByLayer
370
-1
48
1
60
0
100
AcDbTrace
10
73.1243
20
-25.926762
30
0
11
73.1243
21
-24.760095
31
0
12
76.6243
22
-25.343428
32
0
13
76.6243
23
-25.343428
33
0
39
0
210
0
220
0
230
1
0
MTEXT
5
177
100
AcDbEntity
8
0
62
256
6
ByLayer
370
18
48
1
60
0
100
AcDbMText
10
15.81215
20
-18.343428
30
0
210
0
220
0
230
1
1
\A1;121.62
40
3.5
41
0
44
1
50
0
71
5
72
5
7
iso_b_vert
0
POINT
5
178
100
AcDbEntity
8
Defpoints
62
0
6
ByLayer
370
-1
48
1
60
0
100
AcDbPoint
10
-45
20
-7
30
0
39
0
210
0
220
0
230
1
50
360
0
POINT
5
179
100
AcDbEntity
8
Defpoints
62
0
6
ByLayer
370
-1
48
1
60
0
100
AcDbPoint
10
76.6243
20
-6.15
30
0
39
0
210
0
220
0
230
1
50
360
0
POINT
5
17A
100
AcDbEntity
8
Defpoints
62
0
6
ByLayer
370
-1
48
1
60
0
100
AcDbPoint
10
76.6243
20
-25.343428
30
0
39
0
210
0
220
0
230
1
50
360
0
ENDBLK
5
171
100
AcDbEntity
8
0
100
AcDbBlockEnd
0
BLOCK
5
182
100
AcDbEntity
8
0
100
AcDbBlockBegin
2
_U4
70
0
10
0
20
0
30
0
3
_U4
0
MTEXT
5
17C
100
AcDbEntity
8
SK2
62
256
6
ByLayer
370
13
48
1
60
0
100
AcDbMText
10
10.241985
20
-24.310795
30
0
210
0
220
0
230
1
1
\W0.6440;121,62
40
3.5
41
0
44
1.084337
50
0
71
7
72
5
7
iso_b_vert
0
LINE
5
17D
100
AcDbEntity
8
SK2
62
256
6
ByLayer
370
13
48
1
60
0
100
AcDbLine
10
-45
20
-8.5875
30
0
11
-45
21
-27.343428
31
0
39
0
210
0
220
0
230
1
0
LINE
5
17E
100
AcDbEntity
8
SK2
62
256
6
ByLayer
370
13
48
1
60
0
100
AcDbLine
10
76.6243
20
-7.7375
30
0
11
76.6243
21
-27.343428
31
0
39
0
210
0
220
0
230
1
0
LINE
5
17F
100
AcDbEntity
8
SK2
62
256
6
ByLayer
370
13
48
1
60
0
100
AcDbLine
10
-45
20
-25.343428
30
0
11
76.6243
21
-25.343428
31
0
39
0
210
0
220
0
230
1
0
SOLID
5
180
100
AcDbEntity
8
SK2
62
256
6
ByLayer
370
18
48
1
60
0
100
AcDbTrace
10
-45
20
-25.343428
30
0
11
-41.500002
21
-24.882645
31
0
12
-41.499998
22
-25.804212
32
0
13
-41.499998
23
-25.804212
33
0
39
0
210
0
220
0
230
1
0
SOLID
5
181
100
AcDbEntity
8
SK2
62
256
6
ByLayer
370
18
48
1
60
0
100
AcDbTrace
10
76.6243
20
-25.343428
30
0
11
73.124302
21
-25.804212
31
0
12
73.124298
22
-24.882645
32
0
13
73.124298
23
-24.882645
33
0
39
0
210
0
220
0
230
1
0
ENDBLK
5
183
100
AcDbEntity
8
0
100
AcDbBlockEnd
0
ENDSEC
0
SECTION
2
ENTITIES
0
ARC
5
A7
100
AcDbEntity
8
1
62
256
6
ByLayer
370
18
48
1
60
0
100
AcDbCircle
39
0
10
1.542395
20
-6.864854
30
0
40
0.850000000000003
210
0
220
0
230
1
100
AcDbArc
50
89.896868
51
155.133695
0
ARC
5
A8
100
AcDbEntity
8
1
62
256
6
ByLayer
370
18
48
1
60
0
100
AcDbCircle
39
0
10
1.542395
20
6.864854
30
0
40
0.850000000000003
210
0
220
0
230
1
100
AcDbArc
50
204.866305
51
270.103132
0
ARC
5
A9
100
AcDbEntity
8
1
62
256
6
ByLayer
370
18
48
1
60
0
100
AcDbCircle
39
0
10
0
20
-6.15
30
0
40
0.850000000000003
210
0
220
0
230
1
100
AcDbArc
50
270
51
335.133695
0
ARC
5
AA
100
AcDbEntity
8
1
62
256
6
ByLayer
370
18
48
1
60
0
100
AcDbCircle
39
0
10
0
20
6.15
30
0
40
0.850000000000003
210
0
220
0
230
1
100
AcDbArc
50
24.866305
51
90
0
ELLIPSE
5
AB
100
AcDbEntity
8
1
62
256
6
ByLayer
370
13
48
1
60
0
100
AcDbEllipse
10
17.088289
20
-42.045254
30
0
11
-59.8165761323023
21
43.595348143825
31
0
210
0
220
0
230
1
40
0.453214
41
-1.25176911841588
42
-1.07510395712823
0
ELLIPSE
5
AC
100
AcDbEntity
8
1
62
256
6
ByLayer
370
13
48
1
60
0
100
AcDbEllipse
10
6.107901
20
-6.097544
30
0
11
-0.0235020023840956
21
0.299078009696363
31
0
210
0
220
0
230
1
40
0.44834
41
0.726759937614776
42
0.844694484285664
0
ELLIPSE
5
AD
100
AcDbEntity
8
1
62
256
6
ByLayer
370
13
48
1
60
0
100
AcDbEllipse
10
19.275948
20
-39.043598
30
0
11
-59.8165761323022
21
43.595348143825
31
0
210
0
220
0
230
1
40
0.453214
41
-1.25176911841587
42
-1.15544784834262
0
ELLIPSE
5
AE
100
AcDbEntity
8
1
62
256
6
ByLayer
370
13
48
1
60
0
100
AcDbEllipse
10
123.194174
20
41.339538
30
0
11
-59.8999999999999
21
7.33539205939603E-15
31
0
210
0
220
0
230
1
40
0.99863
41
0.705265996154432
42
0.727980906304134
0
ELLIPSE
5
AF
100
AcDbEntity
8
1
62
256
6
ByLayer
370
18
48
1
60
0
100
AcDbEllipse
10
6.106411
20
-6.875491
30
0
11
1
21
0
31
0
210
0
220
0
230
1
40
0.999999
41
1.5702795424793
42
2.11854638130062
0
ELLIPSE
5
B0
100
AcDbEntity
8
1
62
256
6
ByLayer
370
18
48
1
60
0
100
AcDbEllipse
10
6.106411
20
6.875491
30
0
11
1
21
0
31
0
210
0
220
0
230
1
40
0.999999
41
-2.11891039274455
42
-1.79932335939408
0
POINT
5
70
100
AcDbEntity
8
80
62
256
6
ByLayer
370
18
48
1
60
0
100
AcDbPoint
10
0
20
0
30
0
39
0
210
0
220
0
230
1
50
360
0
POINT
5
72
100
AcDbEntity
8
81
62
256
6
ByLayer
370
18
48
1
60
0
100
AcDbPoint
10
79
20
0
30
0
39
0
210
0
220
0
230
1
50
360
0
POINT
5
74
100
AcDbEntity
8
1
62
256
6
ByLayer
370
18
48
1
60
1
100
AcDbPoint
10
76.6243
20
-6.15
30
0
39
0
210
0
220
0
230
1
50
360
0
POINT
5
76
100
AcDbEntity
8
1
62
256
6
ByLayer
370
18
48
1
60
1
100
AcDbPoint
10
-45
20
-7
30
0
39
0
210
0
220
0
230
1
50
360
0
POINT
5
77
100
AcDbEntity
8
1
62
256
6
ByLayer
370
18
48
1
60
1
100
AcDbPoint
10
17.68
20
6.15
30
0
39
0
210
0
220
0
230
1
50
360
0
POINT
5
78
100
AcDbEntity
8
1
62
256
6
ByLayer
370
18
48
1
60
1
100
AcDbPoint
10
76.6243
20
-6.15
30
0
39
0
210
0
220
0
230
1
50
360
0
POINT
5
79
100
AcDbEntity
8
1
62
256
6
ByLayer
370
18
48
1
60
1
100
AcDbPoint
10
-45
20
-7
30
0
39
0
210
0
220
0
230
1
50
360
0
POINT
5
7A
100
AcDbEntity
8
1
62
256
6
ByLayer
370
18
48
1
60
1
100
AcDbPoint
10
76.6243
20
-6.15
30
0
39
0
210
0
220
0
230
1
50
360
0
SPLINE
5
B1
100
AcDbEntity
8
1
62
256
6
ByLayer
370
18
48
1
60
0
100
AcDbSpline
70
4
71
3
72
10
73
6
40
0
40
0
40
0
40
0
40
0.5
40
0.5
40
1
40
1
40
1
40
1
41
1
10
76.7337341605553
20
-5.95384610415829
30
0
41
1
10
76.7407064158324
20
-5.92697272457946
30
0
41
1
10
76.7465113335974
20
-5.90086372058485
30
0
41
1
10
76.7552361400398
20
-5.85294320715758
30
0
41
1
10
76.7581484886348
20
-5.83125843750992
30
0
41
1
10
76.759688307081
20
-5.81230606308986
30
0
0
SPLINE
5
B2
100
AcDbEntity
8
1
62
256
6
ByLayer
370
18
48
1
60
0
100
AcDbSpline
70
4
71
3
72
8
73
4
40
0
40
0
40
0
40
0
40
1
40
1
40
1
40
1
41
1
10
77.5839687203554
20
2.56339237219777
30
0
41
1
10
77.6006830249559
20
2.62736296562517
30
0
41
1
10
77.6059889721435
20
2.69475419440138
30
0
41
1
10
77.600649634704
20
2.761589073794
30
0
0
SPLINE
5
B3
100
AcDbEntity
8
1
62
256
6
ByLayer
370
18
48
1
60
0
100
AcDbSpline
70
4
71
3
72
8
73
4
40
0
40
0
40
0
40
0
40
1
40
1
40
1
40
1
41
1
10
5.99202974233515
20
-5.90684756158697
30
0
41
1
10
6.09193377923924
20
-5.89733487298645
30
0
41
1
10
6.1918240291152
20
-5.88721929362936
30
0
41
1
10
6.29170272828148
20
-5.87650482683964
30
0
0
SPLINE
5
B4
100
AcDbEntity
8
1
62
256
6
ByLayer
370
18
48
1
60
0
100
AcDbSpline
70
4
71
3
72
52
73
48
40
0
40
0
40
0
40
0
40
0.0228218306223275
40
0.0228218306223275
40
0.0543437070538651
40
0.0543437070538651
40
0.117387459916941
40
0.117387459916941
40
0.14890933634848
40
0.14890933634848
40
0.180431212780018
40
0.180431212780018
40
0.243474965643095
40
0.243474965643095
40
0.274996842074634
40
0.274996842074634
40
0.306518718506173
40
0.306518718506173
40
0.36956247136925
40
0.36956247136925
40
0.401084347800788
40
0.401084347800788
40
0.432606224232326
40
0.432606224232326
40
0.495649977095402
40
0.495649977095402
40
0.527171853526939
40
0.527171853526939
40
0.558693729958476
40
0.558693729958476
40
0.621737482821551
40
0.621737482821551
40
0.684781235684625
40
0.684781235684625
40
0.7478249885477
40
0.7478249885477
40
0.810868741410775
40
0.810868741410775
40
0.873912494273849
40
0.873912494273849
40
0.905434370705387
40
0.905434370705387
40
0.936956247136925
40
0.936956247136925
40
0.968478123568462
40
0.968478123568462
40
1
40
1
40
1
40
1
41
1
10
41.7065552430822
20
6.08714787962177
30
0
41
1
10
41.9730946442826
20
6.08762996893847
30
0
41
1
10
42.2397250041017
20
6.08370243689956
30
0
41
1
10
42.8751282238705
20
6.063822771335
30
0
41
1
10
43.2444823600255
20
6.04382045968842
30
0
41
1
10
44.3506901343804
20
5.95883403118805
30
0
41
1
10
45.0861634697196
20
5.8688940260123
30
0
41
1
10
46.1901573441219
20
5.68610486837608
30
0
41
1
10
46.5582925812286
20
5.61720696743788
30
0
41
1
10
47.2953875974407
20
5.46379846437446
30
0
41
1
10
47.664663055436
20
5.37920669841728
30
0
41
1
10
48.7702724019791
20
5.10389958744705
30
0
41
1
10
49.5054891748794
20
4.89136118706904
30
0
41
1
10
50.6092898598303
20
4.53350192222473
30
0
41
1
10
50.977392327589
20
4.40772094565
30
0
41
1
10
51.714474668346
20
4.1438224371372
30
0
41
1
10
52.0836193725635
20
4.00565758216456
30
0
41
1
10
53.1886824180892
20
3.57597527605216
30
0
41
1
10
53.9236390230486
20
3.26853861787058
30
0
41
1
10
55.0272775860596
20
2.78231142890573
30
0
41
1
10
55.3953599652268
20
2.61606616932053
30
0
41
1
10
56.1324376756977
20
2.27608427918543
30
0
41
1
10
56.5013706080238
20
2.1024200296456
30
0
41
1
10
57.6058600302631
20
1.57450724636357
30
0
41
1
10
58.3406160310616
20
1.21246355375987
30
0
41
1
10
59.4441088830204
20
0.661473971195676
30
0
41
1
10
59.8121774951112
20
0.476513850582506
30
0
41
1
10
60.5492853476734
20
0.104961864327834
30
0
41
1
10
60.917949995481
20
-0.08139129746138
30
0
41
1
10
62.0219023009571
20
-0.638349740946552
30
0
41
1
10
62.7564928671436
20
-1.0075172103291
30
0
41
1
10
64.2276035026483
20
-1.73234155274602
30
0
41
1
10
64.9655429905364
20
-2.08858874412908
30
0
41
1
10
66.4368275328648
20
-2.77248175239862
30
0
41
1
10
67.1711159320041
20
-3.10063120588305
30
0
41
1
10
68.6419974674427
20
-3.72055624535403
30
0
41
1
10
69.3797408785832
20
-4.01270696214911
30
0
41
1
10
70.8506547202351
20
-4.54818562107195
30
0
41
1
10
71.5850630148715
20
-4.79202533319997
30
0
41
1
10
72.6886700053354
20
-5.11720661369864
30
0
41
1
10
73.0572949903191
20
-5.21888725973173
30
0
41
1
10
73.7936637753493
20
-5.40735039471426
30
0
41
1
10
74.1613485528854
20
-5.49414094387794
30
0
41
1
10
74.8963352316428
20
-5.65234577208909
30
0
41
1
10
75.2636362983409
20
-5.72376220210893
30
0
41
1
10
75.9984159773576
20
-5.85077865228098
30
0
41
1
10
76.3657303722302
20
-5.90646153384961
30
0
41
1
10
76.7337341605553
20
-5.95384610415826
30
0
0
SPLINE
5
B5
100
AcDbEntity
8
1
62
256
6
ByLayer
370
13
48
1
60
0
100
AcDbSpline
70
4
71
3
72
20
73
16
40
0
40
0
40
0
40
0
40
0.005314003606159
40
0.0729500421011193
40
0.14058608059608
40
0.275858157585999
40
0.34349419608096
40
0.41113023457592
40
0.54640231156584
40
0.6140383500608
40
0.68167438855576
40
0.816946465545681
40
0.88458250404064
40
0.952218542535601
40
1
40
1
40
1
40
1
41
1
10
77.6006496346885
20
2.76158907379369
30
0
41
1
10
77.5913409933307
20
2.76151112349891
30
0
41
1
10
77.4635534818898
20
2.76040863930959
30
0
41
1
10
77.2172993981349
20
2.75742680659059
30
0
41
1
10
76.7432714834782
20
2.7482193823833
30
0
41
1
10
76.2693141246924
20
2.73443758981514
30
0
41
1
10
75.7954240192265
20
2.71606820300738
30
0
41
1
10
75.321397901527
20
2.69432459635897
30
0
41
1
10
74.8474416317351
20
2.66807130179248
30
0
41
1
10
74.3735506021198
20
2.63735453297849
30
0
41
1
10
73.8995230849751
20
2.60342480692887
30
0
41
1
10
73.425565319525
20
2.56511194211376
30
0
41
1
10
72.9516741407515
20
2.52246111028447
30
0
41
1
10
72.6309415454484
20
2.49155302955211
30
0
41
1
10
72.428732748957
20
2.47104505364075
30
0
41
1
10
72.3450235936539
20
2.46238158247425
30
0
0
SPLINE
5
B6
100
AcDbEntity
8
1
62
256
6
ByLayer
370
13
48
1
60
0
100
AcDbSpline
70
4
71
3
72
11
73
7
40
0
40
0
40
0
40
0
40
0.110474036142954
40
0.249462467995615
40
0.555237018071475
40
1
40
1
40
1
40
1
41
1
10
20.8743736795791
20
0.0083354044717794
30
0
41
1
10
20.8155160255161
20
0.0217638005253491
30
0
41
1
10
20.6826076806124
20
0.0520838558829269
30
0
41
1
10
20.3867292875659
20
0.119371621997999
30
0
41
1
10
19.9126751214209
20
0.226899748566012
30
0
41
1
10
19.5128580033685
20
0.317805721174096
30
0
41
1
10
19.2759481180573
20
0.371557301238909
30
0
0
SPLINE
5
B7
100
AcDbEntity
8
1
62
256
6
ByLayer
370
18
48
1
60
0
100
AcDbSpline
70
4
71
3
72
41
73
37
40
0
40
0
40
0
40
0
40
0.0167427840502168
40
0.0167427840502168
40
0.0334855681004336
40
0.0334855681004336
40
0.0669711362008673
40
0.0669711362008673
40
0.133942272401735
40
0.133942272401735
40
0.200913408602602
40
0.200913408602602
40
0.267884544803469
40
0.267884544803469
40
0.401826817205204
40
0.401826817205204
40
0.435312385305637
40
0.435312385305637
40
0.468797953406071
40
0.468797953406071
40
0.535769089606939
40
0.535769089606939
40
0.569254657707372
40
0.569254657707372
40
0.602740225807806
40
0.602740225807806
40
0.669711362008674
40
0.736682498209541
40
0.736682498209541
40
0.770168066309975
40
0.770168066309975
40
0.803653634410408
40
0.803653634410408
40
0.937595906812144
40
0.937595906812144
40
1
40
1
40
1
40
1
41
1
10
5.59884296986181
20
2.07419350531333
30
0
41
1
10
5.59401639266122
20
2.01376563194395
30
0
41
1
10
5.59107936133586
20
1.95288562603733
30
0
41
1
10
5.58876722533907
20
1.83022741092589
30
0
41
1
10
5.58937434698512
20
1.76844978680089
30
0
41
1
10
5.58939530340609
20
1.58220816355285
30
0
41
1
10
5.58940101860787
20
1.45633517372383
30
0
41
1
10
5.58939546142767
20
1.0776240793063
30
0
41
1
10
5.58936182107891
20
0.823905163508641
30
0
41
1
10
5.58924866118156
20
0.314057487006949
30
0
41
1
10
5.58916910660548
20
0.0579285674940309
30
0
41
1
10
5.58897560544526
20
-0.456779930384329
30
0
41
1
10
5.58886088693745
20
-0.716624218443116
30
0
41
1
10
5.58849126448024
20
-1.47853952753988
30
0
41
1
10
5.58821027492871
20
-1.96950889458412
30
0
41
1
10
5.5878597972154
20
-2.56156301298768
30
0
41
1
10
5.58778985959458
20
-2.67851304277423
30
0
41
1
10
5.58765257186536
20
-2.90693361644242
30
0
41
1
10
5.58758499266006
20
-3.01879073088853
30
0
41
1
10
5.5873861896055
20
-3.34741902336984
30
0
41
1
10
5.58725897605555
20
-3.55727500640796
30
0
41
1
10
5.58707764521913
20
-3.85816439182145
30
0
41
1
10
5.58701876398516
20
-3.95613815287547
30
0
41
1
10
5.58690414509681
20
-4.14734477031379
30
0
41
1
10
5.58684827899836
20
-4.24079398485847
30
0
41
1
10
5.58668737180116
20
-4.51011731070219
30
0
41
1
10
5.58648935575039
20
-4.84226353680384
30
0
41
1
10
5.58631531911962
20
-5.12196672162449
30
0
41
1
10
5.58618874885971
20
-5.31164651310678
30
0
41
1
10
5.58614705859861
20
-5.37170194271658
30
0
41
1
10
5.58606460496691
20
-5.48390465975771
30
0
41
1
10
5.5860239190707
20
-5.53596665058083
30
0
41
1
10
5.58582009384742
20
-5.77654555118309
30
0
41
1
10
5.58565686436967
20
-5.90683725134593
30
0
41
1
10
5.58534886883533
20
-6.00385747752782
30
0
41
1
10
5.585242427769
20
-6.02019177131564
30
0
41
1
10
5.58512274386783
20
-6.02213107561758
30
0
0
SPLINE
5
B8
100
AcDbEntity
8
1
62
256
6
ByLayer
370
18
48
1
60
0
100
AcDbSpline
70
4
71
3
72
8
73
4
40
0
40
0
40
0
40
0
40
1
40
1
40
1
40
1
41
1
10
78.4776644736991
20
-1.53887265388798
30
0
41
1
10
78.2025401535704
20
-2.33412822696599
30
0
41
1
10
77.9293672877278
20
-3.13005032743339
30
0
41
1
10
77.6581557309428
20
-3.92664232122868
30
0
0
SPLINE
5
B9
100
AcDbEntity
8
1
62
256
6
ByLayer
370
18
48
1
60
0
100
AcDbSpline
70
4
71
3
72
108
73
104
40
0
40
0
40
0
40
0
40
0.007897875005341
40
0.007897875005341
40
0.0274451473445065
40
0.0274451473445065
40
0.046992419683672
40
0.046992419683672
40
0.0665396920228375
40
0.0665396920228375
40
0.086086964362003
40
0.086086964362003
40
0.105634236701168
40
0.105634236701168
40
0.125181509040334
40
0.125181509040334
40
0.144728781379499
40
0.144728781379499
40
0.164276053718665
40
0.164276053718665
40
0.18382332605783
40
0.18382332605783
40
0.203370598396996
40
0.203370598396996
40
0.222917870736161
40
0.222917870736161
40
0.242465143075327
40
0.242465143075327
40
0.262012415414492
40
0.262012415414492
40
0.281559687753658
40
0.281559687753658
40
0.301106960092823
40
0.301106960092823
40
0.320654232431989
40
0.320654232431989
40
0.340201504771154
40
0.340201504771154
40
0.35974877711032
40
0.35974877711032
40
0.379296049449485
40
0.379296049449485
40
0.398843321788651
40
0.398843321788651
40
0.418390594127816
40
0.418390594127816
40
0.437937866466982
40
0.437937866466982
40
0.457485138806147
40
0.457485138806147
40
0.477032411145313
40
0.477032411145313
40
0.496579683484478
40
0.496579683484478
40
0.516126955823644
40
0.516126955823644
40
0.535674228162809
40
0.535674228162809
40
0.555221500501975
40
0.555221500501975
40
0.57476877284114
40
0.57476877284114
40
0.594316045180306
40
0.594316045180306
40
0.613863317519471
40
0.613863317519471
40
0.633410589858637
40
0.633410589858637
40
0.652957862197802
40
0.652957862197802
40
0.672505134536968
40
0.672505134536968
40
0.692052406876133
40
0.692052406876133
40
0.711599679215299
40
0.711599679215299
40
0.731146951554464
40
0.731146951554464
40
0.75069422389363
40
0.75069422389363
40
0.770241496232795
40
0.770241496232795
40
0.789788768571961
40
0.789788768571961
40
0.809336040911126
40
0.809336040911126
40
0.828883313250292
40
0.828883313250292
40
0.848430585589457
40
0.848430585589457
40
0.867977857928623
40
0.867977857928623
40
0.887525130267788
40
0.887525130267788
40
0.907072402606954
40
0.907072402606954
40
0.926619674946119
40
0.926619674946119
40
0.946166947285285
40
0.946166947285285
40
0.96571421962445
40
0.96571421962445
40
1
40
1
40
1
40
1
41
1
10
20.305651342617
20
5.90107761998945
30
0
41
1
10
20.4326909158474
20
5.9014057950051
30
0
41
1
10
20.5597653803658
20
5.90077339982702
30
0
41
1
10
21.0013058352469
20
5.89513396111283
30
0
41
1
10
21.3152634848305
20
5.88484043556244
30
0
41
1
10
21.9430670457431
20
5.85288691271899
30
0
41
1
10
22.2565536798747
20
5.83164652491141
30
0
41
1
10
22.8833646681479
20
5.776631784275
30
0
41
1
10
23.1970005095402
20
5.74257679743394
30
0
41
1
10
23.8241025020941
20
5.66327000157702
30
0
41
1
10
24.1376581354604
20
5.6180629094562
30
0
41
1
10
24.7655963117232
20
5.5179013793103
30
0
41
1
10
25.0800415915585
20
5.46151421422718
30
0
41
1
10
25.7085604822253
20
5.33692446301964
30
0
41
1
10
26.0226946353462
20
5.26946738263052
30
0
41
1
10
26.6501036674758
20
5.12493752801865
30
0
41
1
10
26.9634193043008
20
5.04809247801646
30
0
41
1
10
27.5905103009611
20
4.88262396058568
30
0
41
1
10
27.9039314376793
20
4.79439564160424
30
0
41
1
10
28.5308987833401
20
4.60917079487058
30
0
41
1
10
28.8446929219007
20
4.5128421764183
30
0
41
1
10
29.4725490018656
20
4.31004254026874
30
0
41
1
10
29.7871087510663
20
4.20272134372044
30
0
41
1
10
30.4157558533058
20
3.98156993034701
30
0
41
1
10
30.7296032458357
20
3.86701939663703
30
0
41
1
10
31.3567309978641
20
3.6308669965795
30
0
41
1
10
31.6703348097322
20
3.5094000638062
30
0
41
1
10
32.2972364077408
20
3.25830694565795
30
0
41
1
10
32.6105524754034
20
3.12902026973157
30
0
41
1
10
33.2379142370724
20
2.86560660027141
30
0
41
1
10
33.5515400866494
20
2.73105464792187
30
0
41
1
10
34.1795532651488
20
2.45511353898161
30
0
41
1
10
34.4944407560397
20
2.31448888678597
30
0
41
1
10
35.1226613916747
20
2.02905535236263
30
0
41
1
10
35.4362580691534
20
1.88410845958063
30
0
41
1
10
36.0635619115909
20
1.59167004511252
30
0
41
1
10
36.3769757862817
20
1.44338205690545
30
0
41
1
10
37.0036766325543
20
1.14389791596102
30
0
41
1
10
37.3172746922485
20
0.993394545859331
30
0
41
1
10
37.9443941479393
20
0.689784108433315
30
0
41
1
10
38.2579915413905
20
0.536584218513497
30
0
41
1
10
38.8865898273305
20
0.230074820784779
30
0
41
1
10
39.2011996528141
20
0.0761062949313498
30
0
41
1
10
39.8289713094626
20
-0.231768101692239
30
0
41
1
10
40.1427468511814
20
-0.385140609813533
30
0
41
1
10
40.7697479467701
20
-0.690989341233717
30
0
41
1
10
41.0829544872473
20
-0.843557401656113
30
0
41
1
10
41.7099210120778
20
-1.14599400951423
30
0
41
1
10
42.0233236623605
20
-1.29662506808302
30
0
41
1
10
42.6503465227303
20
-1.59561344387441
30
0
41
1
10
42.9643566137839
20
-1.74314676930186
30
0
41
1
10
43.5929896732658
20
-2.03518511388245
30
0
41
1
10
43.9072157429842
20
-2.17993702602916
30
0
41
1
10
44.5350801547198
20
-2.46373940164946
30
0
41
1
10
44.8486548416594
20
-2.60310226549919
30
0
41
1
10
45.4753420541776
20
-2.87649829017715
30
0
41
1
10
45.7888136161445
20
-3.00983581974737
30
0
41
1
10
46.4155386121705
20
-3.27178149601943
30
0
41
1
10
46.728731709217
20
-3.40016339165274
30
0
41
1
10
47.3562381254965
20
-3.64842914925032
30
0
41
1
10
47.6702577978866
20
-3.76892878823713
30
0
41
1
10
48.2988281978691
20
-4.00330592478539
30
0
41
1
10
48.6130110300596
20
-4.11691643156664
30
0
41
1
10
49.2404540001495
20
-4.33478131186982
30
0
41
1
10
49.5536980561265
20
-4.43929155463198
30
0
41
1
10
50.1805417006724
20
-4.6384674798843
30
0
41
1
10
50.4938520314744
20
-4.73383160174097
30
0
41
1
10
51.1202656057395
20
-4.9161078841546
30
0
41
1
10
51.4337710306999
20
-5.00182127618478
30
0
41
1
10
52.0612243126482
20
-5.16298365934037
30
0
41
1
10
52.3751866634929
20
-5.23853493920979
30
0
41
1
10
53.0037474363883
20
-5.38007235959597
30
0
41
1
10
53.317587698944
20
-5.44578743854447
30
0
41
1
10
53.9444709761966
20
-5.56471546345637
30
0
41
1
10
54.2578541446647
20
-5.61808142297858
30
0
41
1
10
54.8843497048666
20
-5.7143265957786
30
0
41
1
10
55.1972623419937
20
-5.75783632148409
30
0
41
1
10
55.8238515522271
20
-5.83188871626655
30
0
41
1
10
56.1373352976725
20
-5.8625325371296
30
0
41
1
10
56.7645788063385
20
-5.9124251418437
30
0
41
1
10
57.0788843822364
20
-5.93181005425208
30
0
41
1
10
57.706856570752
20
-5.9595624457061
30
0
41
1
10
58.0201961061462
20
-5.96693330113487
30
0
41
1
10
58.6469317667093
20
-5.96896862958528
30
0
41
1
10
58.9601388603194
20
-5.96396998006639
30
0
41
1
10
59.5861048210275
20
-5.9427270102822
30
0
41
1
10
59.8991623966113
20
-5.92633753378999
30
0
41
1
10
60.5255820224586
20
-5.88095206410293
30
0
41
1
10
60.838739986183
20
-5.85216044182718
30
0
41
1
10
61.4659817504445
20
-5.78432532972889
30
0
41
1
10
61.7801897138257
20
-5.74543581824162
30
0
41
1
10
62.4072899659415
20
-5.65429157717673
30
0
41
1
10
62.7205563907029
20
-5.60237997205681
30
0
41
1
10
63.3467593524915
20
-5.48706506975884
30
0
41
1
10
63.6594768286938
20
-5.42360911124612
30
0
41
1
10
64.2853022524483
20
-5.28666009826821
30
0
41
1
10
64.5983124419872
20
-5.21309759325715
30
0
41
1
10
65.2242105840348
20
-5.05598558464007
30
0
41
1
10
65.5373416731533
20
-4.97289286535005
30
0
41
1
10
66.1642472789928
20
-4.79691278707031
30
0
41
1
10
66.4780297319334
20
-4.70328341869762
30
0
41
1
10
67.3409515327245
20
-4.43255506772789
30
0
41
1
10
67.8894538709766
20
-4.2456166582038
30
0
41
1
10
68.4379965439387
20
-4.04650605141521
30
0
0
SPLINE
5
BA
100
AcDbEntity
8
1
62
256
6
ByLayer
370
18
48
1
60
0
100
AcDbSpline
70
4
71
1
72
4
73
2
40
0
40
0
40
1
40
1
41
1
10
76.7596883070802
20
-5.81230606309546
30
0
41
1
10
78.0606075927338
20
-1.42047615736868
30
0
0
SPLINE
5
BB
100
AcDbEntity
8
1
62
256
6
ByLayer
370
18
48
1
60
0
100
AcDbSpline
70
4
71
3
72
22
73
18
40
0
40
0
40
0
40
0
40
0.250000000000004
40
0.250000000000004
40
0.375000000000005
40
0.375000000000005
40
0.437500000000005
40
0.437500000000005
40
0.500000000000005
40
0.500000000000005
40
0.750000000000002
40
0.750000000000002
40
0.812500000000002
40
0.812500000000002
40
0.875000000000001
40
0.875000000000001
40
1
40
1
40
1
40
1
41
1
10
76.7143166016303
20
-5.7306964415173
30
0
41
1
10
76.5953222901369
20
-5.62473116877686
30
0
41
1
10
76.489664293142
20
-5.48899450107336
30
0
41
1
10
76.3518333446926
20
-5.23927785938125
30
0
41
1
10
76.3093518868489
20
-5.14831013628361
30
0
41
1
10
76.2511088678494
20
-4.99962710136259
30
0
41
1
10
76.232560666039
20
-4.94786387003077
30
0
41
1
10
76.1976758936407
20
-4.84110093316804
30
0
41
1
10
76.1813240737993
20
-4.78609404664718
30
0
41
1
10
76.1049700058114
20
-4.5030037672357
30
0
41
1
10
76.0610441006261
20
-4.2509596327854
30
0
41
1
10
76.0282023829387
20
-3.90301703075789
30
0
41
1
10
76.0227461523688
20
-3.83177097844549
30
0
41
1
10
76.0141107423803
20
-3.6858850774654
30
0
41
1
10
76.0109295593156
20
-3.61105592512811
30
0
41
1
10
76.0049413467909
20
-3.38331734059418
30
0
41
1
10
76.00563998405
20
-3.22691091559423
30
0
41
1
10
76.0109789497234
20
-3.0659730552388
30
0
0
SPLINE
5
BC
100
AcDbEntity
8
1
62
256
6
ByLayer
370
18
48
1
60
0
100
AcDbSpline
70
4
71
3
72
34
73
30
40
0
40
0
40
0
40
0
40
0.125000000000001
40
0.125000000000001
40
0.250000000000002
40
0.250000000000002
40
0.375000000000003
40
0.375000000000003
40
0.500000000000003
40
0.500000000000003
40
0.562500000000003
40
0.562500000000003
40
0.625000000000003
40
0.625000000000003
40
0.687500000000002
40
0.687500000000002
40
0.750000000000002
40
0.750000000000002
40
0.812500000000002
40
0.812500000000002
40
0.843750000000001
40
0.843750000000001
40
0.875000000000001
40
0.875000000000001
40
0.937500000000001
40
0.937500000000001
40
0.96875
40
0.96875
40
1
40
1
40
1
40
1
41
1
10
15.9775785656014
20
-5.5207050199314
30
0
41
1
10
15.4956573783601
20
-5.44435830304627
30
0
41
1
10
15.0170349820847
20
-5.35625388875556
30
0
41
1
10
14.0671840275283
20
-5.15249198971682
30
0
41
1
10
13.5960744414884
20
-5.03613458004554
30
0
41
1
10
12.6617908048709
20
-4.77335620043206
30
0
41
1
10
12.1986533432054
20
-4.62671244221156
30
0
41
1
10
11.2822935745108
20
-4.29242299006131
30
0
41
1
10
10.8287432198408
20
-4.10669511488618
30
0
41
1
10
10.1571790064853
20
-3.79013959739291
30
0
41
1
10
9.93434363954503
20
-3.67789883884328
30
0
41
1
10
9.49592003816758
20
-3.43986682337766
30
0
41
1
10
9.28000976765276
20
-3.31406211892269
30
0
41
1
10
8.85511465803154
20
-3.04808955789645
30
0
41
1
10
8.64620250651524
20
-2.90775430494978
30
0
41
1
10
8.23715451975661
20
-2.60838957913748
30
0
41
1
10
8.0382027754369
20
-2.45028803310271
30
0
41
1
10
7.65537760623641
20
-2.11548171671868
30
0
41
1
10
7.47119571924011
20
-1.93861367214029
30
0
41
1
10
7.20836178630614
20
-1.65549680103959
30
0
41
1
10
7.12300365296952
20
-1.55813693276335
30
0
41
1
10
6.95744183589812
20
-1.3565409964892
30
0
41
1
10
6.87729281075735
20
-1.25230526374003
30
0
41
1
10
6.64914296250487
20
-0.932557322465755
30
0
41
1
10
6.51211611531099
20
-0.708741789611111
30
0
41
1
10
6.33526510665524
20
-0.35263390767139
30
0
41
1
10
6.28097344416338
20
-0.229922205789734
30
0
41
1
10
6.18574631968025
20
0.0172546194065717
30
0
41
1
10
6.14447431744659
20
0.142279864805062
30
0
41
1
10
6.10992651409032
20
0.268825622707993
30
0
0
SPLINE
5
BD
100
AcDbEntity
8
1
62
256
6
ByLayer
370
18
48
1
60
0
100
AcDbSpline
70
4
71
3
72
8
73
4
40
0
40
0
40
0
40
0
40
1
40
1
40
1
40
1
41
1
10
76.8062866450408
20
6.07578249001543
30
0
41
1
10
77.0870351411531
20
5.38639903404373
30
0
41
1
10
77.3749096390684
20
4.67244125102701
30
0
41
1
10
77.6581557309428
20
3.92664232122857
30
0
0
SPLINE
5
BE
100
AcDbEntity
8
1
62
256
6
ByLayer
370
13
48
1
60
0
100
AcDbSpline
70
4
71
3
72
28
73
24
40
0
40
0
40
0
40
0
40
0.0283027068017825
40
0.103048652432414
40
0.14042162524773
40
0.177794598063047
40
0.252540543693679
40
0.289913516508995
40
0.327286489324311
40
0.402032434954943
40
0.439405407770259
40
0.476778380585575
40
0.551524326216207
40
0.588897299031524
40
0.626270271846839
40
0.701016217477471
40
0.738389190292788
40
0.775762163108104
40
0.827150000729163
40
0.850508108738736
40
0.873866216748308
40
0.925254054369368
40
1
40
1
40
1
40
1
41
1
10
26.5997495649984
20
-2.46234350595725
30
0
41
1
10
26.5100222709229
20
-2.47162735942467
30
0
41
1
10
26.1833539103963
20
-2.50467146614787
30
0
41
1
10
25.738151137093
20
-2.54606577078374
30
0
41
1
10
25.2641250207477
20
-2.58583646164982
30
0
41
1
10
24.7902354042958
20
-2.62245421360197
30
0
41
1
10
24.3162761435696
20
-2.6546767448508
30
0
41
1
10
23.8422510738513
20
-2.68245286150534
30
0
41
1
10
23.3683622841651
20
-2.7069045693313
30
0
41
1
10
22.8944033426662
20
-2.72683058182866
30
0
41
1
10
22.4203773289567
20
-2.74219782199313
30
0
41
1
10
21.9464868879099
20
-2.75411066528119
30
0
41
1
10
21.4725259136081
20
-2.76144156964909
30
0
41
1
10
20.9984989992574
20
-2.76421288226962
30
0
41
1
10
20.5246085946193
20
-2.76346854760388
30
0
41
1
10
20.0506487088038
20
-2.75816335830419
30
0
41
1
10
19.5766233671235
20
-2.74833965996675
30
0
41
1
10
19.1767420156257
20
-2.7371683947629
30
0
41
1
10
18.8212520211084
20
-2.72456389796898
30
0
41
1
10
18.5101849611184
20
-2.71155429932097
30
0
41
1
10
18.1991879926996
20
-2.69706318812678
30
0
41
1
10
17.7253255181839
20
-2.67172623459032
30
0
41
1
10
17.3253379254631
20
-2.64648687391573
30
0
41
1
10
17.0882894585982
20
-2.63009898381543
30
0
0
SPLINE
5
BF
100
AcDbEntity
8
1
62
256
6
ByLayer
370
18
48
1
60
0
100
AcDbSpline
70
4
71
3
72
54
73
50
40
0
40
0
40
0
40
0
40
0.0579558885883408
40
0.0579558885883408
40
0.0869338328825113
40
0.0869338328825113
40
0.115911777176682
40
0.115911777176682
40
0.173867665765023
40
0.173867665765023
40
0.202845610059194
40
0.202845610059194
40
0.231823554353364
40
0.231823554353364
40
0.289779442941706
40
0.289779442941706
40
0.318757387235877
40
0.318757387235877
40
0.347735331530048
40
0.347735331530048
40
0.405691220118388
40
0.405691220118388
40
0.463647108706729
40
0.463647108706729
40
0.52160299729507
40
0.52160299729507
40
0.579558885883411
40
0.579558885883411
40
0.637514774471751
40
0.637514774471751
40
0.695470663060092
40
0.695470663060092
40
0.724448607354263
40
0.724448607354263
40
0.753426551648433
40
0.753426551648433
40
0.811382440236775
40
0.811382440236775
40
0.840360384530945
40
0.840360384530945
40
0.869338328825116
40
0.869338328825116
40
0.927294217413458
40
0.927294217413458
40
0.956272161707629
40
0.956272161707629
40
0.9852501060018
40
0.9852501060018
40
1
40
1
40
1
40
1
41
1
10
5.99202974233512
20
5.90684756158697
30
0
41
1
10
6.7320121515385
20
5.83638772385905
30
0
41
1
10
7.47123815088119
20
5.73285170417762
30
0
41
1
10
8.58030575045422
20
5.53037362129382
30
0
41
1
10
8.95033694447719
20
5.45501192689955
30
0
41
1
10
9.6890285417135
20
5.28960948939314
30
0
41
1
10
10.0579212404451
20
5.19948349923604
30
0
41
1
10
11.1641748853989
20
4.90781351660536
30
0
41
1
10
11.9012481238159
20
4.68512736598893
30
0
41
1
10
13.0096701556961
20
4.31268833755686
30
0
41
1
10
13.3796086578651
20
4.18216766823826
30
0
41
1
10
14.1179032764826
20
3.91034823382429
30
0
41
1
10
14.4866359227469
20
3.76889159316525
30
0
41
1
10
15.5925349181435
20
3.32939106447665
30
0
41
1
10
16.3294779080263
20
3.01634018824319
30
0
41
1
10
17.4378840365565
20
2.52241914374781
30
0
41
1
10
17.8075639891257
20
2.35391325393655
30
0
41
1
10
18.5455087600078
20
2.01141448283127
30
0
41
1
10
18.914101029557
20
1.83722437581204
30
0
41
1
10
20.0196663500963
20
1.30762262894103
30
0
41
1
10
20.756516942917
20
0.945353448377915
30
0
41
1
10
22.2344184592236
20
0.211346670669769
30
0
41
1
10
22.9719678601916
20
-0.158148448869326
30
0
41
1
10
24.4456245439429
20
-0.891521245118525
30
0
41
1
10
25.1824314388451
20
-1.2552643312994
30
0
41
1
10
26.6604653441328
20
-1.9679208780392
30
0
41
1
10
27.3972511165228
20
-2.31421773486423
30
0
41
1
10
28.8705321699982
20
-2.97814836271289
30
0
41
1
10
29.6076360669471
20
-3.29570441015429
30
0
41
1
10
31.0849351415607
20
-3.892761440154
30
0
41
1
10
31.8213399707151
20
-4.1703988927132
30
0
41
1
10
32.9260353499706
20
-4.55057777188179
30
0
41
1
10
33.2943038482733
20
-4.67122694942844
30
0
41
1
10
34.0315285503907
20
-4.89952524429538
30
0
41
1
10
34.4008016357446
20
-5.0072721079483
30
0
41
1
10
35.5081815117124
20
-5.30919515171709
30
0
41
1
10
36.244279363426
20
-5.48155097470263
30
0
41
1
10
37.3487502636938
20
-5.69368019990782
30
0
41
1
10
37.7169675564561
20
-5.75665101449087
30
0
41
1
10
38.4541763449831
20
-5.86661284657049
30
0
41
1
10
38.8235228804242
20
-5.91366317314854
30
0
41
1
10
39.9303097594246
20
-6.02986227309097
30
0
41
1
10
40.666127305527
20
-6.07408373761885
30
0
41
1
10
41.770373552321
20
-6.08998160883618
30
0
41
1
10
42.138543125952
20
-6.08687641776933
30
0
41
1
10
42.8756817992443
20
-6.06379710490339
30
0
41
1
10
43.2450418257975
20
-6.04378599075565
30
0
41
1
10
43.8014734699471
20
-6.00102425944996
30
0
41
1
10
43.9890347381569
20
-5.9844444539271
30
0
41
1
10
44.176508156034
20
-5.96573132895685
30
0
0
SPLINE
5
C0
100
AcDbEntity
8
1
62
256
6
ByLayer
370
18
48
1
60
0
100
AcDbSpline
70
4
71
3
72
12
73
8
40
0
40
0
40
0
40
0
40
0.249999999999991
40
0.249999999999991
40
0.499999999999982
40
0.499999999999982
40
1
40
1
40
1
40
1
41
1
10
5.619944101534
20
5.95603802517923
30
0
41
1
10
5.64045047876115
20
5.95092915115131
30
0
41
1
10
5.66631077407604
20
5.94622769367922
30
0
41
1
10
5.72345758106724
20
5.93724118987464
30
0
41
1
10
5.75478750878159
20
5.9329902467797
30
0
41
1
10
5.85154081561592
20
5.92094569624481
30
0
41
1
10
5.92053578050823
20
5.91365509226094
30
0
41
1
10
5.99202974233515
20
5.90684756158697
30
0
0
SPLINE
5
C1
100
AcDbEntity
8
1
62
256
6
ByLayer
370
18
48
1
60
0
100
AcDbSpline
70
4
71
3
72
20
73
16
40
0
40
0
40
0
40
0
40
0.124999999999999
40
0.124999999999999
40
0.249999999999998
40
0.249999999999998
40
0.374999999999997
40
0.374999999999997
40
0.499999999999997
40
0.499999999999997
40
0.749999999999998
40
0.749999999999998
40
0.874999999999999
40
0.874999999999999
40
1
40
1
40
1
40
1
41
1
10
78.061948317109
20
-1.4117117121634
30
0
41
1
10
77.9953998397372
20
-1.42035356470984
30
0
41
1
10
77.9315927904925
20
-1.41385992899444
30
0
41
1
10
77.8085985446614
20
-1.37536634390301
30
0
41
1
10
77.7493022170638
20
-1.34322565240663
30
0
41
1
10
77.635451176827
20
-1.25583816854461
30
0
41
1
10
77.5821296302687
20
-1.2016211313296
30
0
41
1
10
77.4815923494115
20
-1.07535860608451
30
0
41
1
10
77.4342335680564
20
-1.00300145912956
30
0
41
1
10
77.3015197559243
20
-0.76338866638568
30
0
41
1
10
77.227227171902
20
-0.577943217495545
30
0
41
1
10
77.1325765396459
20
-0.269350645925186
30
0
41
1
10
77.1038285215601
20
-0.161077612466073
30
0
41
1
10
77.0520307516923
20
0.0643892148475516
30
0
41
1
10
77.0292542273349
20
0.180310024611146
30
0
41
1
10
77.009329361225
20
0.299141889704174
30
0
0
SPLINE
5
C2
100
AcDbEntity
8
1
62
256
6
ByLayer
370
18
48
1
60
0
100
AcDbSpline
70
4
71
3
72
8
73
4
40
0
40
0
40
0
40
0
40
1
40
1
40
1
40
1
41
1
10
78.061948317109
20
-1.4117117121634
30
0
41
1
10
78.062269836278
20
-1.41203901794108
30
0
41
1
10
78.0625913591604
20
-1.41236632007116
30
0
41
1
10
78.0629128857559
20
-1.41269361855353
30
0
0
SPLINE
5
C3
100
AcDbEntity
8
1
62
256
6
ByLayer
370
13
48
1
60
0
100
AcDbSpline
70
4
71
3
72
34
73
30
40
0
40
0
40
0
40
0
40
0.038044514397163
40
0.038044514397163
40
0.0760890287943261
40
0.0760890287943261
40
0.152178057588653
40
0.152178057588653
40
0.304356115177308
40
0.304356115177308
40
0.342400629574471
40
0.342400629574471
40
0.380445143971634
40
0.380445143971634
40
0.456534172765961
40
0.456534172765961
40
0.532623201560288
40
0.532623201560288
40
0.608712230354614
40
0.608712230354614
40
0.760890287943268
40
0.760890287943268
40
0.913068345531921
40
0.913068345531921
40
0.951112859929084
40
0.951112859929084
40
0.989157374326247
40
0.989157374326247
40
1
40
1
40
1
40
1
41
1
10
76.7143166016303
20
-5.7306964415173
30
0
41
1
10
76.3445270642266
20
-5.67565340802929
30
0
41
1
10
75.974371537831
20
-5.61255967917555
30
0
41
1
10
75.2365512800651
20
-5.47147395164274
30
0
41
1
10
74.8686113066478
20
-5.39345616482248
30
0
41
1
10
73.766865350933
20
-5.13805094932249
30
0
41
1
10
73.0351155759575
20
-4.93930555923779
30
0
41
1
10
70.8410355797387
20
-4.26657773179232
30
0
41
1
10
69.3798999238019
20
-3.71605199999181
30
0
41
1
10
67.5322893450825
20
-2.93298364575511
30
0
41
1
10
67.1622079722908
20
-2.77179158501011
30
0
41
1
10
66.4251678244267
20
-2.44375925712123
30
0
41
1
10
66.0574977462551
20
-2.27665365821363
30
0
41
1
10
64.9562968678347
20
-1.76762038484628
30
0
41
1
10
64.2245786959666
20
-1.4179350174411
30
0
41
1
10
62.7612173378055
20
-0.707602509397105
30
0
41
1
10
62.0295919733283
20
-0.34688015888355
30
0
41
1
10
60.5618939133821
20
0.37629732256238
30
0
41
1
10
59.8253525714501
20
0.738935062601399
30
0
41
1
10
57.6045167969831
20
1.81279865715371
30
0
41
1
10
56.14261776402
20
2.49407416221567
30
0
41
1
10
53.218351695207
20
3.71847297477541
30
0
41
1
10
51.7563281172162
20
4.26219123445929
30
0
41
1
10
49.9055298948605
20
4.81640236846297
30
0
41
1
10
49.5355876676323
20
4.92060040588757
30
0
41
1
10
48.7984196507239
20
5.11418991769875
30
0
41
1
10
48.4307173303839
20
5.20369476687472
30
0
41
1
10
47.9590460329708
20
5.30922631009108
30
0
41
1
10
47.8544854392869
20
5.33202758767948
30
0
41
1
10
47.7499689488781
20
5.35422043223821
30
0
0
SPLINE
5
C4
100
AcDbEntity
8
1
62
256
6
ByLayer
370
18
48
1
60
0
100
AcDbSpline
70
4
71
3
72
44
73
40
40
0
40
0
40
0
40
0
40
0.0875656929168466
40
0.0875656929168466
40
0.175131385833693
40
0.175131385833693
40
0.218914232292117
40
0.218914232292117
40
0.26269707875054
40
0.26269707875054
40
0.306479925208963
40
0.306479925208963
40
0.350262771667386
40
0.350262771667386
40
0.39404561812581
40
0.39404561812581
40
0.437828464584233
40
0.437828464584233
40
0.481611311042656
40
0.481611311042656
40
0.52539415750108
40
0.52539415750108
40
0.612959850417925
40
0.612959850417925
40
0.656742696876347
40
0.656742696876347
40
0.70052554333477
40
0.70052554333477
40
0.788091236251616
40
0.788091236251616
40
0.83187408271004
40
0.83187408271004
40
0.875656929168465
40
0.875656929168465
40
0.919439775626889
40
0.919439775626889
40
0.963222622085313
40
0.963222622085313
40
1
40
1
40
1
40
1
41
1
10
20.4417155724992
20
0.536734412132034
30
0
41
1
10
21.0307040525651
20
0.243180157561767
30
0
41
1
10
21.6189949864208
20
-0.0497455439470684
30
0
41
1
10
22.7937074286809
20
-0.635367333959522
30
0
41
1
10
23.3806318266501
20
-0.9270339026248
30
0
41
1
10
24.2627263789297
20
-1.3581091445059
30
0
41
1
10
24.5568517680945
20
-1.50110942096725
30
0
41
1
10
25.1458306542491
20
-1.78464568576294
30
0
41
1
10
25.4404624893202
20
-1.92463969100396
30
0
41
1
10
26.028644464741
20
-2.20102261946184
30
0
41
1
10
26.3222646345408
20
-2.33767929272713
30
0
41
1
10
26.9096830465734
20
-2.60584229047652
30
0
41
1
10
27.2033710073838
20
-2.73756715657274
30
0
41
1
10
27.7904023871072
20
-2.99682677778702
30
0
41
1
10
28.0840571672897
20
-3.12380312107118
30
0
41
1
10
28.6718984146613
20
-3.3720275430648
30
0
41
1
10
28.965773931997
20
-3.49379785139226
30
0
41
1
10
29.554481044672
20
-3.73085138130816
30
0
41
1
10
29.8492807671989
20
-3.84599351732493
30
0
41
1
10
30.4373087709978
20
-4.06967965625034
30
0
41
1
10
30.7309811233552
20
-4.17801647638595
30
0
41
1
10
31.6120602879997
20
-4.49099560797089
30
0
41
1
10
32.1986345369359
20
-4.68487008617325
30
0
41
1
10
33.0799084171732
20
-4.94999541743778
30
0
41
1
10
33.3735925570317
20
-5.03445718632741
30
0
41
1
10
33.9620135167798
20
-5.19410881451776
30
0
41
1
10
34.2567988544729
20
-5.26941170870305
30
0
41
1
10
35.13873875911
20
-5.4815317426729
30
0
41
1
10
35.7257955006489
20
-5.60355997705986
30
0
41
1
10
36.6060149381535
20
-5.75692728317065
30
0
41
1
10
36.899617872083
20
-5.80293224344001
30
0
41
1
10
37.4867434331402
20
-5.88498235551177
30
0
41
1
10
37.7803380965643
20
-5.92095600552946
30
0
41
1
10
38.368500580142
20
-5.98233115502291
30
0
41
1
10
38.6631271176475
20
-6.00783259682623
30
0
41
1
10
39.2511138572458
20
-6.04819026540665
30
0
41
1
10
39.5449055030545
20
-6.06299828084192
30
0
41
1
10
40.0851967239847
20
-6.08045232821911
30
0
41
1
10
40.3315446113829
20
-6.08467016703474
30
0
41
1
10
40.5779379121498
20
-6.08511536811753
30
0
0
SPLINE
5
C5
100
AcDbEntity
8
1
62
256
6
ByLayer
370
18
48
1
60
0
100
AcDbSpline
70
4
71
3
72
20
73
16
40
0
40
0
40
0
40
0
40
0.162739855802327
40
0.162739855802327
40
0.267397373827036
40
0.267397373827036
40
0.372054891851744
40
0.372054891851744
40
0.581369927901161
40
0.581369927901161
40
0.686027445925872
40
0.686027445925872
40
0.790684963950583
40
0.790684963950583
40
1
40
1
40
1
40
1
41
1
10
68.4014163004175
20
4.0559101984575
30
0
41
1
10
68.8569660191265
20
4.22924177261308
30
0
41
1
10
69.3126697481572
20
4.39428666213433
30
0
41
1
10
70.0630674733125
20
4.64977474764427
30
0
41
1
10
70.3568262616241
20
4.74622482030901
30
0
41
1
10
70.9436838955651
20
4.92981006795623
30
0
41
1
10
71.2369928132073
20
5.01712749736012
30
0
41
1
10
72.1158115363243
20
5.26651597994587
30
0
41
1
10
72.7015696611385
20
5.41450063972039
30
0
41
1
10
73.5810230804821
20
5.60805463843315
30
0
41
1
10
73.874569655083
20
5.66761724613923
30
0
41
1
10
74.4620253646577
20
5.77712318805081
30
0
41
1
10
74.755428487533
20
5.82690616721882
30
0
41
1
10
75.6351677705995
20
5.96032454486172
30
0
41
1
10
76.2204230579596
20
6.02870854280445
30
0
41
1
10
76.8062866450408
20
6.07578249001543
30
0
0
SPLINE
5
C6
100
AcDbEntity
8
1
62
256
6
ByLayer
370
18
48
1
60
0
100
AcDbSpline
70
4
71
3
72
8
73
4
40
0
40
0
40
0
40
0
40
1
40
1
40
1
40
1
41
1
10
76.7596883070804
20
-5.81230606309552
30
0
41
1
10
76.7501992543931
20
-5.77408062952188
30
0
41
1
10
76.7338636666165
20
-5.74810324060149
30
0
41
1
10
76.7143166016266
20
-5.73069644151403
30
0
0
SPLINE
5
C7
100
AcDbEntity
8
1
62
256
6
ByLayer
370
18
48
1
60
0
100
AcDbSpline
70
4
71
3
72
8
73
4
40
0
40
0
40
0
40
0
40
1
40
1
40
1
40
1
41
1
10
76.8062866450408
20
-6.07578249001543
30
0
41
1
10
76.7793337808695
20
-6.0447283271277
30
0
41
1
10
76.7552570491508
20
-6.00410999073767
30
0
41
1
10
76.7337341605554
20
-5.95384610415829
30
0
0
SPLINE
5
C8
100
AcDbEntity
8
1
62
256
6
ByLayer
370
18
48
1
60
0
100
AcDbSpline
70
4
71
4
72
10
73
5
40
0
40
0
40
0
40
0
40
0
40
1
40
1
40
1
40
1
40
1
41
1
10
20.4417155724991
20
0.536734412132063
30
0
41
1
10
20.1502737088887
20
0.495440134408767
30
0
41
1
10
19.8588318452783
20
0.454145856685472
30
0
41
1
10
19.5673899816678
20
0.412851578962176
30
0
41
1
10
19.2759481180573
20
0.371557301238909
30
0
0
SPLINE
5
C9
100
AcDbEntity
8
1
62
256
6
ByLayer
370
18
48
1
60
0
100
AcDbSpline
70
4
71
3
72
8
73
4
40
0
40
0
40
0
40
0
40
1
40
1
40
1
40
1
41
1
10
78.9997781059672
20
-0.0985594692205609
30
0
41
1
10
78.818784585622
20
-0.573714899587799
30
0
41
1
10
78.645387379643
20
-1.05406427481674
30
0
41
1
10
78.4776644736991
20
-1.53887265388792
30
0
0
SPLINE
5
CA
100
AcDbEntity
8
1
62
256
6
ByLayer
370
18
48
1
60
0
100
AcDbSpline
70
4
71
3
72
8
73
4
40
0
40
0
40
0
40
0
40
1
40
1
40
1
40
1
41
1
10
76.1637911695918
20
0.629474937349613
30
0
41
1
10
76.4438020737181
20
0.509945764326858
30
0
41
1
10
76.7255911709719
20
0.399542392089501
30
0
41
1
10
77.0093293612251
20
0.299141889704174
30
0
0
SPLINE
5
CB
100
AcDbEntity
8
1
62
256
6
ByLayer
370
18
48
1
60
0
100
AcDbSpline
70
4
71
3
72
20
73
16
40
0
40
0
40
0
40
0
40
0.250000000000005
40
0.250000000000005
40
0.375000000000004
40
0.375000000000004
40
0.500000000000003
40
0.500000000000003
40
0.625000000000002
40
0.625000000000002
40
0.750000000000001
40
0.750000000000001
40
0.875000000000001
40
0.875000000000001
40
1
40
1
40
1
40
1
41
1
10
78.0629128857541
20
-1.41269361855493
30
0
41
1
10
78.1303540961538
20
-1.36861285771357
30
0
41
1
10
78.2021202652182
20
-1.2994799148058
30
0
41
1
10
78.3167765814145
20
-1.16064881808032
30
0
41
1
10
78.3564465525419
20
-1.10801473277726
30
0
41
1
10
78.4361757778252
20
-0.993694950019744
30
0
41
1
10
78.4763796703989
20
-0.931894664662536
30
0
41
1
10
78.5574658164572
20
-0.799495405584764
30
0
41
1
10
78.5983480163424
20
-0.728894212412428
30
0
41
1
10
78.6807723694373
20
-0.578975936137226
30
0
41
1
10
78.7218709134225
20
-0.500437561733293
30
0
41
1
10
78.802875056581
20
-0.338438970457105
30
0
41
1
10
78.8429335398101
20
-0.254699237172446
30
0
41
1
10
78.9221176060701
20
-0.0819426058385773
30
0
41
1
10
78.9614003390682
20
0.0074533503771192
30
0
41
1
10
78.9997781059652
20
0.0985594692259326
30
0
0
SPLINE
5
CC
100
AcDbEntity
8
1
62
256
6
ByLayer
370
18
48
1
60
0
100
AcDbSpline
70
4
71
3
72
44
73
40
40
0
40
0
40
0
40
0
40
0.0529073018003763
40
0.0529073018003763
40
0.105814603600753
40
0.105814603600753
40
0.158721905401129
40
0.158721905401129
40
0.211629207201505
40
0.211629207201505
40
0.264536509001881
40
0.264536509001881
40
0.317443810802258
40
0.317443810802258
40
0.370351112602634
40
0.370351112602634
40
0.42325841440301
40
0.42325841440301
40
0.476165716203386
40
0.476165716203386
40
0.529073018003763
40
0.529073018003763
40
0.581980319804139
40
0.581980319804139
40
0.634887621604515
40
0.634887621604515
40
0.687794923404892
40
0.687794923404892
40
0.740702225205268
40
0.740702225205268
40
0.793609527005644
40
0.793609527005644
40
0.846516828806021
40
0.846516828806021
40
0.899424130606397
40
0.899424130606397
40
0.952331432406773
40
0.952331432406773
40
1
40
1
40
1
40
1
41
1
10
76.1637911695919
20
0.629474937349556
30
0
41
1
10
75.8511290985508
20
0.783387974421487
30
0
41
1
10
75.5384313174063
20
0.936006308086803
30
0
41
1
10
74.913576580885
20
1.23988317379528
30
0
41
1
10
74.6012579872804
20
1.39081273546893
30
0
41
1
10
73.9760615746158
20
1.68909558722868
30
0
41
1
10
73.6634804075178
20
1.837021314785
30
0
41
1
10
73.0377742705156
20
2.12910720541603
30
0
41
1
10
72.7244386201486
20
2.27280611598343
30
0
41
1
10
72.097155385259
20
2.55600260244512
30
0
41
1
10
71.7834079375073
20
2.69542119465018
30
0
41
1
10
71.1565769485078
20
2.96765431523892
30
0
41
1
10
70.8435196428542
20
3.10111247384708
30
0
41
1
10
70.217760697038
20
3.36095830972155
30
0
41
1
10
69.9048140272125
20
3.48683620014958
30
0
41
1
10
69.279029768686
20
3.73269520191445
30
0
41
1
10
68.9661723371266
20
3.85239691731033
30
0
41
1
10
68.3395811731122
20
4.08338828526718
30
0
41
1
10
68.0261035340473
20
4.19510529276681
30
0
41
1
10
67.3983714518709
20
4.41027295842795
30
0
41
1
10
67.0844333282901
20
4.51321887816937
30
0
41
1
10
66.4578092888472
20
4.70942970834886
30
0
41
1
10
66.1449840112242
20
4.80252108291609
30
0
41
1
10
65.5190849895616
20
4.97780445732653
30
0
41
1
10
65.2062204512202
20
5.06068424346995
30
0
41
1
10
64.58036555204
20
5.21740898759867
30
0
41
1
10
64.2671311945018
20
5.29082471948814
30
0
41
1
10
63.6403994365564
20
5.42758400926823
30
0
41
1
10
63.3269461010539
20
5.49096378308332
30
0
41
1
10
62.698786208207
20
5.60612170942699
30
0
41
1
10
62.3852263966751
20
5.65778718664794
30
0
41
1
10
61.7589249009437
20
5.74821696278215
30
0
41
1
10
61.4458956206763
20
5.78670262808231
30
0
41
1
10
60.819978061899
20
5.85397135682447
30
0
41
1
10
60.5072410644013
20
5.88250853698489
30
0
41
1
10
59.8811492799337
20
5.92740138641446
30
0
41
1
10
59.5680024423193
20
5.94355989118185
30
0
41
1
10
58.972349028249
20
5.96334609062808
30
0
41
1
10
58.6894749281672
20
5.96815827440579
30
0
41
1
10
58.4066242665643
20
5.96808023574133
30
0
0
SPLINE
5
CD
100
AcDbEntity
8
1
62
256
6
ByLayer
370
18
48
1
60
0
100
AcDbSpline
70
4
71
3
72
36
73
32
40
0
40
0
40
0
40
0
40
0.0142605578450336
40
0.0142605578450336
40
0.0799765206553648
40
0.0799765206553648
40
0.145692483465696
40
0.145692483465696
40
0.211408446276027
40
0.211408446276027
40
0.277124409086358
40
0.277124409086358
40
0.342840371896689
40
0.342840371896689
40
0.408556334707021
40
0.408556334707021
40
0.474272297517352
40
0.474272297517352
40
0.539988260327684
40
0.539988260327684
40
0.605704223138015
40
0.605704223138015
40
0.671420185948346
40
0.671420185948346
40
0.737136148758677
40
0.737136148758677
40
0.802852111569008
40
0.802852111569008
40
0.868568074379339
40
0.868568074379339
40
1
40
1
40
1
40
1
41
1
10
30.3042856247791
20
-4.02021337362717
30
0
41
1
10
30.2361440647906
20
-4.0445664519907
30
0
41
1
10
30.1680091771778
20
-4.06872738948817
30
0
41
1
10
29.7859208422137
20
-4.20312618067234
30
0
41
1
10
29.4724080700461
20
-4.31008472048387
30
0
41
1
10
28.8454279794888
20
-4.51260808840726
30
0
41
1
10
28.5317923614916
20
-4.60889924637755
30
0
41
1
10
27.9047044339622
20
-4.79417481425716
30
0
41
1
10
27.5909856006436
20
-4.88249985066329
30
0
41
1
10
26.9627247535017
20
-5.04827444058151
30
0
41
1
10
26.6482598868157
20
-5.12538908120348
30
0
41
1
10
26.0192903532278
20
-5.27022454772762
30
0
41
1
10
25.7049194848127
20
-5.3376830959015
30
0
41
1
10
25.0771596584747
20
-5.46204822058181
30
0
41
1
10
24.7635168127991
20
-5.51825445918914
30
0
41
1
10
24.1360406418739
20
-5.61829940524316
30
0
41
1
10
23.8224824487003
20
-5.66349739804903
30
0
41
1
10
23.1948598958423
20
-5.74282486046818
30
0
41
1
10
22.8807080898585
20
-5.77691320886009
30
0
41
1
10
22.252247237767
20
-5.83197570177245
30
0
41
1
10
21.9373313526986
20
-5.85325477230367
30
0
41
1
10
21.3083029847664
20
-5.88511723024854
30
0
41
1
10
20.9944576018206
20
-5.89529746035154
30
0
41
1
10
20.3672797578959
20
-5.90315437182667
30
0
41
1
10
20.053803825132
20
-5.90105751384209
30
0
41
1
10
19.4275801634907
20
-5.88569004748007
30
0
41
1
10
19.1145967422102
20
-5.87231990654311
30
0
41
1
10
18.4882904916158
20
-5.83341181053783
30
0
41
1
10
18.1752151827244
20
-5.80775226252393
30
0
41
1
10
17.2350961668863
20
-5.71399147531875
30
0
41
1
10
16.6079548024366
20
-5.62891528594153
30
0
41
1
10
15.9775785656014
20
-5.5207050199314
30
0
0
SPLINE
5
CE
100
AcDbEntity
8
1
62
256
6
ByLayer
370
18
48
1
60
0
100
AcDbSpline
70
4
71
4
72
10
73
5
40
0
40
0
40
0
40
0
40
0
40
1
40
1
40
1
40
1
40
1
41
1
10
17.0882894585982
20
-2.63009898381543
30
0
41
1
10
16.8106117353489
20
-3.35275049284442
30
0
41
1
10
16.5329340120998
20
-4.07540200187339
30
0
41
1
10
16.2552562888506
20
-4.79805351090238
30
0
41
1
10
15.9775785656014
20
-5.52070501993137
30
0
0
SPLINE
5
CF
100
AcDbEntity
8
1
62
256
6
ByLayer
370
13
48
1
60
0
100
AcDbSpline
70
4
71
3
72
34
73
30
40
0
40
0
40
0
40
0
40
0.029480385452753
40
0.029480385452753
40
0.0988032150632705
40
0.0988032150632705
40
0.168126044673788
40
0.237448874284305
40
0.237448874284305
40
0.306771703894823
40
0.306771703894823
40
0.445417363115858
40
0.445417363115858
40
0.514740192726376
40
0.514740192726376
40
0.584063022336893
40
0.584063022336893
40
0.722708681557929
40
0.722708681557929
40
0.792031511168447
40
0.792031511168447
40
0.826692925973706
40
0.826692925973706
40
0.861354340778965
40
0.896015755584223
40
0.896015755584223
40
0.930677170389482
40
0.930677170389482
40
1
40
1
40
1
40
1
41
1
10
6.10866722773002
20
-5.8747982097982
30
0
41
1
10
6.10867584370681
20
-5.87329661110857
30
0
41
1
10
6.10868385070472
20
-5.86961245875119
30
0
41
1
10
6.10870907198247
20
-5.84997420670373
30
0
41
1
10
6.10872407677414
20
-5.82383052891691
30
0
41
1
10
6.10875120579016
20
-5.74837112518316
30
0
41
1
10
6.10877566951177
20
-5.64971082535041
30
0
41
1
10
6.10880061122035
20
-5.50537236872128
30
0
41
1
10
6.10882835858482
20
-5.33770913362457
30
0
41
1
10
6.10884372153731
20
-5.24171064617479
30
0
41
1
10
6.10889607294052
20
-4.92530992568865
30
0
41
1
10
6.10893980808942
20
-4.67526694144556
30
0
41
1
10
6.10902544909254
20
-4.24140906403952
30
0
41
1
10
6.1090574254653
20
-4.08627078867573
30
0
41
1
10
6.10912706493113
20
-3.76125149482578
30
0
41
1
10
6.10916481303866
20
-3.59089336294036
30
0
41
1
10
6.10928596782946
20
-3.05605275538818
30
0
41
1
10
6.10937511860942
20
-2.67840445989549
30
0
41
1
10
6.10951132375931
20
-2.08227977700872
30
0
41
1
10
6.10955709540656
20
-1.87855373885924
30
0
41
1
10
6.10962448867758
20
-1.56519753532064
30
0
41
1
10
6.10964678589261
20
-1.45920284779001
30
0
41
1
10
6.10969020510396
20
-1.2464112078797
30
0
41
1
10
6.10973250836111
20
-1.03256458526485
30
0
41
1
10
6.10977185327016
20
-0.816618783590457
30
0
41
1
10
6.10980932514718
20
-0.59961896295161
30
0
41
1
10
6.10982715560564
20
-0.490366182532512
30
0
41
1
10
6.10987679161448
20
-0.16377883945168
30
0
41
1
10
6.10990487268359
20
0.0529884287261098
30
0
41
1
10
6.10992651408566
20
0.268825622710636
30
0
0
SPLINE
5
D0
100
AcDbEntity
8
1
62
256
6
ByLayer
370
18
48
1
60
0
100
AcDbSpline
70
4
71
3
72
8
73
4
40
0
40
0
40
0
40
0
40
1
40
1
40
1
40
1
41
1
10
76.8062866450408
20
-6.0757824900154
30
0
41
1
10
77.0870530592745
20
-5.38635503574429
30
0
41
1
10
77.3749283639174
20
-4.67239194770841
30
0
41
1
10
77.6581557309428
20
-3.92664232122868
30
0
0
SPLINE
5
D1
100
AcDbEntity
8
1
62
256
6
ByLayer
370
18
48
1
60
0
100
AcDbSpline
70
4
71
3
72
14
73
10
40
0
40
0
40
0
40
0
40
0.25
40
0.25
40
0.5
40
0.5
40
0.75
40
0.75
40
1
40
1
40
1
40
1
41
1
10
13.2175433780414
20
3.35223527621957
30
0
41
1
10
13.8193613245342
20
3.14678302135422
30
0
41
1
10
14.4230807960438
20
2.93405187174216
30
0
41
1
10
15.6338513218905
20
2.49320932673379
30
0
41
1
10
16.2382493378997
20
2.26605976294727
30
0
41
1
10
17.4441534981469
20
1.79768453231716
30
0
41
1
10
18.0457614122477
20
1.55642412956635
30
0
41
1
10
19.2460188268148
20
1.05853116325701
30
0
41
1
10
19.8446685943917
20
0.801904415859894
30
0
41
1
10
20.4417155724992
20
0.536734412132034
30
0
0
SPLINE
5
D2
100
AcDbEntity
8
1
62
256
6
ByLayer
370
18
48
1
60
0
100
AcDbSpline
70
4
71
3
72
8
73
4
40
0
40
0
40
0
40
0
40
1
40
1
40
1
40
1
41
1
10
78.4776644736991
20
1.53887265388795
30
0
41
1
10
78.2025411685657
20
2.33412529308964
30
0
41
1
10
77.9293682899769
20
3.13004738366627
30
0
41
1
10
77.6581557309428
20
3.92664232122857
30
0
0
SPLINE
5
D3
100
AcDbEntity
8
1
62
256
6
ByLayer
370
18
48
1
60
0
100
AcDbSpline
70
4
71
3
72
8
73
4
40
0
40
0
40
0
40
0
40
1
40
1
40
1
40
1
41
1
10
5.8242064395038
20
1.96762238269841
30
0
41
1
10
5.7490968689938
20
2.00320557212896
30
0
41
1
10
5.67397586918219
20
2.03872971464341
30
0
41
1
10
5.59884296986047
20
2.07419350531342
30
0
0
SPLINE
5
D4
100
AcDbEntity
8
1
62
256
6
ByLayer
370
18
48
1
60
0
100
AcDbSpline
70
4
71
3
72
12
73
8
40
0
40
0
40
0
40
0
40
0.413356438108735
40
0.413356438108735
40
0.823024347950123
40
0.823024347950123
40
1
40
1
40
1
40
1
41
1
10
42.5785083737154
20
-5.93848095029901
30
0
41
1
10
42.20719593744
20
-5.94231468164068
30
0
41
1
10
41.8350550094847
20
-5.93780566113563
30
0
41
1
10
41.0918514887834
20
-5.91195416097113
30
0
41
1
10
40.7209279264383
20
-5.89075737956603
30
0
41
1
10
40.1905261462774
20
-5.84865466092631
30
0
41
1
10
40.0305236875008
20
-5.83441923778002
30
0
41
1
10
39.8705077244718
20
-5.81866547968818
30
0
0
SPLINE
5
D5
100
AcDbEntity
8
1
62
256
6
ByLayer
370
13
48
1
60
0
100
AcDbSpline
70
4
71
3
72
38
73
34
40
0
40
0
40
0
40
0
40
0.0205314329455036
40
0.0205314329455036
40
0.0566781844209572
40
0.0566781844209572
40
0.0928249358964111
40
0.0928249358964111
40
0.237411941798224
40
0.237411941798224
40
0.273558693273677
40
0.273558693273677
40
0.30970544474913
40
0.30970544474913
40
0.381998947700035
40
0.381998947700035
40
0.526585953601845
40
0.526585953601845
40
0.562732705077298
40
0.562732705077298
40
0.598879456552751
40
0.598879456552751
40
0.671172959503658
40
0.671172959503658
40
0.815759965405473
40
0.815759965405473
40
0.851906716880927
40
0.851906716880927
40
0.88805346835638
40
0.88805346835638
40
0.960346971307287
40
0.960346971307287
40
1
40
1
40
1
40
1
41
1
10
39.8705077250857
20
-5.8186654797486
30
0
41
1
10
39.660114513789
20
-5.79795202284481
30
0
41
1
10
39.4496979567672
20
-5.77461371640499
30
0
41
1
10
38.8686414170147
20
-5.70303980475015
30
0
41
1
10
38.4983623164943
20
-5.64937659506288
30
0
41
1
10
37.7602547220649
20
-5.52685389822196
30
0
41
1
10
37.392047731192
20
-5.45800907441327
30
0
41
1
10
35.553943591884
20
-5.07755326525043
30
0
41
1
10
34.0925456257344
20
-4.65647672999654
30
0
41
1
10
32.2544327657811
20
-4.01247148235313
30
0
41
1
10
31.8862559217784
20
-3.87776783236595
30
0
41
1
10
31.14807925043
20
-3.59748174261861
30
0
41
1
10
30.7777042350089
20
-3.45171247524681
30
0
41
1
10
29.6659031565392
20
-3.00023118876527
30
0
41
1
10
28.9289432170577
20
-2.68274765390402
30
0
41
1
10
26.724022506953
20
-1.6945312762432
30
0
41
1
10
25.2617238426652
20
-0.98835281343824
30
0
41
1
10
23.4209294514981
20
-0.0923894651077433
30
0
41
1
10
23.0521054199778
20
0.0874250301347388
30
0
41
1
10
22.3125272381962
20
0.44707028131316
30
0
41
1
10
21.9410567836411
20
0.627274863245106
30
0
41
1
10
20.8306933289065
20
1.16252544656368
30
0
41
1
10
20.0945969876382
20
1.51240052692771
30
0
41
1
10
17.8921096315584
20
2.5285634712902
30
0
41
1
10
16.4312399864914
20
3.16048207554385
30
0
41
1
10
14.5920844035775
20
3.85210598370386
30
0
41
1
10
14.2235911940439
20
3.98550602175166
30
0
41
1
10
13.4846599098331
20
4.24132505221107
30
0
41
1
10
13.1136629930658
20
4.36397326968756
30
0
41
1
10
12.0011133804733
20
4.7128867204994
30
0
41
1
10
11.2632164366957
20
4.91881256485109
30
0
41
1
10
10.1229972212195
20
5.19345935184342
30
0
41
1
10
9.71953223256125
20
5.28202560797055
30
0
41
1
10
9.31615099166919
20
5.36167533854015
30
0
0
SPLINE
5
D6
100
AcDbEntity
8
1
62
256
6
ByLayer
370
18
48
1
60
0
100
AcDbSpline
70
4
71
3
72
18
73
14
40
0
40
0
40
0
40
0
40
0.25
40
0.25
40
0.375
40
0.375
40
0.500000000000001
40
0.500000000000001
40
0.75
40
0.75
40
0.875
40
0.875
40
1
40
1
40
1
40
1
41
1
10
76.1637911695919
20
0.629474937349613
30
0
41
1
10
76.098569183586
20
0.313070924192431
30
0
41
1
10
76.046021926981
20
-0.0040971117711592
30
0
41
1
10
75.9862659591563
20
-0.480998384054345
30
0
41
1
10
75.9695393813629
20
-0.640157890797468
30
0
41
1
10
75.9426657209506
20
-0.95887351112313
30
0
41
1
10
75.9324952675992
20
-1.11925919622115
30
0
41
1
10
75.9126045923433
20
-1.5935048624159
30
0
41
1
10
75.9132424922877
20
-1.90063656758181
30
0
41
1
10
75.934487109253
20
-2.34814978494387
30
0
41
1
10
75.9449665423319
20
-2.49511267982064
30
0
41
1
10
75.9728265628073
20
-2.78455364049648
30
0
41
1
10
75.990262852886
20
-2.92725770364081
30
0
41
1
10
76.0109789497233
20
-3.0659730552388
30
0
0
SPLINE
5
D7
100
AcDbEntity
8
1
62
256
6
ByLayer
370
18
48
1
60
0
100
AcDbSpline
70
4
71
3
72
94
73
90
40
0
40
0
40
0
40
0
40
0.0153194440132319
40
0.0153194440132319
40
0.0531917730896462
40
0.0531917730896462
40
0.0721279376278534
40
0.0721279376278534
40
0.0910641021660606
40
0.0910641021660606
40
0.128936431242476
40
0.128936431242476
40
0.147872595780683
40
0.147872595780683
40
0.166808760318891
40
0.166808760318891
40
0.185744924857098
40
0.185744924857098
40
0.204681089395306
40
0.204681089395306
40
0.223617253933514
40
0.223617253933514
40
0.242553418471721
40
0.242553418471721
40
0.261489583009929
40
0.261489583009929
40
0.280425747548136
40
0.280425747548136
40
0.299361912086344
40
0.299361912086344
40
0.318298076624551
40
0.318298076624551
40
0.337234241162759
40
0.337234241162759
40
0.356170405700966
40
0.356170405700966
40
0.375106570239174
40
0.375106570239174
40
0.394042734777382
40
0.394042734777382
40
0.431915063853796
40
0.431915063853796
40
0.450851228392003
40
0.450851228392003
40
0.46978739293021
40
0.46978739293021
40
0.54553205108304
40
0.54553205108304
40
0.564468215621247
40
0.564468215621247
40
0.583404380159454
40
0.583404380159454
40
0.602340544697661
40
0.602340544697661
40
0.621276709235868
40
0.621276709235868
40
0.640212873774075
40
0.640212873774075
40
0.659149038312282
40
0.659149038312282
40
0.678085202850489
40
0.678085202850489
40
0.697021367388696
40
0.697021367388696
40
0.715957531926903
40
0.715957531926903
40
0.73489369646511
40
0.73489369646511
40
0.753829861003317
40
0.753829861003317
40
0.772766025541524
40
0.772766025541524
40
0.791702190079731
40
0.791702190079731
40
0.810638354617938
40
0.810638354617938
40
0.848510683694352
40
0.848510683694352
40
0.867446848232558
40
0.867446848232558
40
0.886383012770764
40
0.886383012770764
40
0.924255341847176
40
0.924255341847176
40
0.943191506385382
40
0.943191506385382
40
0.962127670923588
40
0.962127670923588
40
1
40
1
40
1
40
1
41
1
10
30.311126011612
20
4.02130825709435
30
0
41
1
10
30.5488756788935
20
4.11068986592812
30
0
41
1
10
30.7864466943837
20
4.19771448072259
30
0
41
1
10
31.6113818337155
20
4.49076599001253
30
0
41
1
10
32.197920081699
20
4.68464158976138
30
0
41
1
10
33.0791404004776
20
4.94977113047023
30
0
41
1
10
33.3728062364066
20
5.03423539783458
30
0
41
1
10
33.9611898714028
20
5.19389376053661
30
0
41
1
10
34.2559580725018
20
5.26920041730332
30
0
41
1
10
35.1378463893276
20
5.4813352153956
30
0
41
1
10
35.7248682474825
20
5.60337615928856
30
0
41
1
10
36.6050335535934
20
5.75676738942829
30
0
41
1
10
36.8986180641569
20
5.80278108167272
30
0
41
1
10
37.4857084367014
20
5.88484911616132
30
0
41
1
10
37.7792841179853
20
5.92083316055513
30
0
41
1
10
38.3674088810849
20
5.98223005025926
30
0
41
1
10
38.662018242156
20
6.00774279852635
30
0
41
1
10
39.2499704383445
20
6.04812542055279
30
0
41
1
10
39.5437442585963
20
6.06294655366196
30
0
41
1
10
40.130984677857
20
6.08194565932243
30
0
41
1
10
40.42417102071
20
6.08613088660147
30
0
41
1
10
41.0108605854666
20
6.08379690140535
30
0
41
1
10
41.3043652607051
20
6.07732041319306
30
0
41
1
10
41.891119492017
20
6.05363914499165
30
0
41
1
10
42.1846456094433
20
6.0364542988965
30
0
41
1
10
42.7725366729798
20
5.99154038321302
30
0
41
1
10
43.0669018194284
20
5.96369268815238
30
0
41
1
10
43.6549337946036
20
5.89756859078693
30
0
41
1
10
43.9487787668104
20
5.8594032258562
30
0
41
1
10
44.5358480618765
20
5.7727932585411
30
0
41
1
10
44.8289910471025
20
5.72426858309728
30
0
41
1
10
45.4155986307846
20
5.61753602322733
30
0
41
1
10
45.7089455029072
20
5.55927240705572
30
0
41
1
10
46.2954609467731
20
5.43267609072504
30
0
41
1
10
46.5889401185215
20
5.3646021137512
30
0
41
1
10
47.176570824859
20
5.21914279701747
30
0
41
1
10
47.470647493747
20
5.14135837426289
30
0
41
1
10
48.0587402758909
20
4.97717855417102
30
0
41
1
10
48.3526179626698
20
4.89095524572502
30
0
41
1
10
49.2328923897877
20
4.61891622836293
30
0
41
1
10
49.8191556146113
20
4.42122315905999
30
0
41
1
10
50.6987160033307
20
4.10161014444432
30
0
41
1
10
50.992152222516
20
3.99154718771825
30
0
41
1
10
51.57944741466
20
3.76425910993129
30
0
41
1
10
51.8732462950944
20
3.64662995818503
30
0
41
1
10
53.3436731440703
20
3.04418673335974
30
0
41
1
10
54.5138748753674
20
2.51468331040934
30
0
41
1
10
55.981079033498
20
1.81506790735844
30
0
41
1
10
56.2746327775868
20
1.67304426269843
30
0
41
1
10
56.8628856191357
20
1.38655602715406
30
0
41
1
10
57.1566298552413
20
1.2421579500091
30
0
41
1
10
57.7433336774446
20
0.951062895766569
30
0
41
1
10
58.0365674439934
20
0.804899044492231
30
0
41
1
10
58.6228955244022
20
0.511537295916952
30
0
41
1
10
58.9157042775738
20
0.363770780276667
30
0
41
1
10
59.5017989962885
20
0.0684270400339528
30
0
41
1
10
59.7950914800548
20
-0.0791341618873673
30
0
41
1
10
60.3815915052182
20
-0.37519072468541
30
0
41
1
10
60.6750729504193
20
-0.523138799004272
30
0
41
1
10
61.2630535742097
20
-0.817759502083106
30
0
41
1
10
61.5568220978532
20
-0.964722518957444
30
0
41
1
10
62.1435342423105
20
-1.25633990686512
30
0
41
1
10
62.4368022768028
20
-1.40072851736085
30
0
41
1
10
63.0229109081677
20
-1.68717547652452
30
0
41
1
10
63.3156523527304
20
-1.82941528830815
30
0
41
1
10
63.9016376933616
20
-2.10977544481835
30
0
41
1
10
64.1947703123188
20
-2.24811593926884
30
0
41
1
10
64.7810080093053
20
-2.52166568368983
30
0
41
1
10
65.0744281697396
20
-2.65628987441338
30
0
41
1
10
65.6621317399002
20
-2.92076426536849
30
0
41
1
10
65.9558859562725
20
-3.05106970075306
30
0
41
1
10
66.5426182899642
20
-3.30524527499111
30
0
41
1
10
66.8359060818
20
-3.42911618631183
30
0
41
1
10
67.4217518562657
20
-3.67139412061604
30
0
41
1
10
67.7144905384386
20
-3.78948799412572
30
0
41
1
10
68.5932851339258
20
-4.1328944405829
30
0
41
1
10
69.1790038028763
20
-4.34872706733381
30
0
41
1
10
70.0600483516305
20
-4.64877179424579
30
0
41
1
10
70.3537937548543
20
-4.74524641621727
30
0
41
1
10
70.9407553785157
20
-4.92892339881271
30
0
41
1
10
71.2341678910053
20
-5.01629909764839
30
0
41
1
10
72.1134416014619
20
-5.26589658658918
30
0
41
1
10
72.6997004317328
20
-5.41406295501636
30
0
41
1
10
73.5802093896707
20
-5.60788866685283
30
0
41
1
10
73.8742716394904
20
-5.66755541012563
30
0
41
1
10
74.4611601923671
20
-5.77696818508923
30
0
41
1
10
74.7542152093264
20
-5.82670672244754
30
0
41
1
10
75.6336821636081
20
-5.96013002570365
30
0
41
1
10
76.219371416023
20
-6.0286240437195
30
0
41
1
10
76.8062866450408
20
-6.07578249001543
30
0
0
SPLINE
5
D8
100
AcDbEntity
8
1
62
256
6
ByLayer
370
18
48
1
60
0
100
AcDbSpline
70
4
71
3
72
16
73
12
40
0
40
0
40
0
40
0
40
0.5
40
0.5
40
0.625
40
0.625
40
0.75
40
0.75
40
0.875
40
0.875
40
1
40
1
40
1
40
1
41
1
10
6.10992651408563
20
0.268825622710636
30
0
41
1
10
6.03932290300634
20
0.527440834294595
30
0
41
1
10
5.98432387856303
20
0.787727375716713
30
0
41
1
10
5.96740351339224
20
1.11851167437862
30
0
41
1
10
5.96666113256782
20
1.18477683151136
30
0
41
1
10
5.97044559194239
20
1.31505604637749
30
0
41
1
10
5.97494172773384
20
1.37941575493773
30
0
41
1
10
5.98850051326045
20
1.50676597703764
30
0
41
1
10
5.99755381234337
20
1.5697593057113
30
0
41
1
10
6.01936868074648
20
1.69463344869655
30
0
41
1
10
6.03263274520154
20
1.7563634966323
30
0
41
1
10
6.04616291570213
20
1.81801368244325
30
0
0
SPLINE
5
D9
100
AcDbEntity
8
1
62
256
6
ByLayer
370
18
48
1
60
0
100
AcDbSpline
70
4
71
3
72
8
73
4
40
0
40
0
40
0
40
0
40
1
40
1
40
1
40
1
41
1
10
78.9997781059652
20
0.0985594692259326
30
0
41
1
10
78.8192167220786
20
0.572580428123928
30
0
41
1
10
78.6457838692722
20
1.05291820896835
30
0
41
1
10
78.4776644736991
20
1.53887265388795
30
0
0
SPLINE
5
DA
100
AcDbEntity
8
1
62
256
6
ByLayer
370
18
48
1
60
0
100
AcDbSpline
70
4
71
3
72
8
73
4
40
0
40
0
40
0
40
0
40
1
40
1
40
1
40
1
41
1
10
6.0461629157021
20
1.81801368244325
30
0
41
1
10
5.97180383435105
20
1.86718024715228
30
0
41
1
10
5.89781785924566
20
1.91704834124917
30
0
41
1
10
5.82420643950476
20
1.96762238270136
30
0
0
SPLINE
5
DB
100
AcDbEntity
8
1
62
256
6
ByLayer
370
18
48
1
60
0
100
AcDbSpline
70
4
71
3
72
10
73
6
40
0
40
0
40
0
40
0
40
0.5
40
0.5
40
1
40
1
40
1
40
1
41
1
10
5.82420643952199
20
1.96762238269505
30
0
41
1
10
5.84797730163791
20
2.06658048062121
30
0
41
1
10
5.8764915261645
20
2.16469836526289
30
0
41
1
10
5.94119368102719
20
2.35497257287722
30
0
41
1
10
5.97737807207909
20
2.44735222347921
30
0
41
1
10
6.01702303819448
20
2.53724550078775
30
0
0
SPLINE
5
DC
100
AcDbEntity
8
1
62
256
6
ByLayer
370
13
48
1
60
0
100
AcDbSpline
70
4
71
3
72
60
73
56
40
0
40
0
40
0
40
0
40
0.0100687416951005
40
0.0244196258146881
40
0.0531213940538629
40
0.0674722781734489
40
0.0818231622930383
40
0.110524930532212
40
0.124875814651799
40
0.139226698771387
40
0.167928467010561
40
0.182279351130148
40
0.196630235249736
40
0.22533200348891
40
0.239682887608497
40
0.254033771728084
40
0.282735539967259
40
0.297086424086846
40
0.311437308206434
40
0.340139076445608
40
0.354489960565195
40
0.368840844684783
40
0.397542612923957
40
0.411893497043544
40
0.426244381163132
40
0.454946149402306
40
0.469297033521893
40
0.483647917641481
40
0.512349685880655
40
0.526700570000243
40
0.541051454119829
40
0.569753222359004
40
0.584104106478591
40
0.598454990598179
40
0.627156758837353
40
0.64150764295694
40
0.655858527076528
40
0.684560295315702
40
0.698911179435289
40
0.713262063554877
40
0.741963831794051
40
0.756314715913638
40
0.770665600033226
40
0.7993673682724
40
0.813718252391987
40
0.828069136511575
40
0.856770904750749
40
0.871121788870337
40
0.885472672989924
40
0.914174441229098
40
0.928525325348685
40
0.942876209468273
40
0.971577977707447
40
0.985928861827035
40
1
40
1
40
1
40
1
41
1
10
58.982291421419
20
0.006351777767037
30
0
41
1
10
58.8991666166076
20
0.0253256107247637
30
0
41
1
10
58.6975633726485
20
0.0713378196465442
30
0
41
1
10
58.2588974103594
20
0.171030573197783
30
0
41
1
10
57.7849404912228
20
0.278722242537498
30
0
41
1
10
57.3110496093077
20
0.386123791009055
30
0
41
1
10
56.8370226041818
20
0.492609745403598
30
0
41
1
10
56.3630657481432
20
0.598524458447088
30
0
41
1
10
55.8891751853738
20
0.703622937242784
30
0
41
1
10
55.4151481960427
20
0.807416491188746
30
0
41
1
10
54.9411908683224
20
0.910114004486445
30
0
41
1
10
54.4672993279425
20
1.01146768813965
30
0
41
1
10
53.9932715021201
20
1.1111398370843
30
0
41
1
10
53.5193137457674
20
1.2092039380438
30
0
41
1
10
53.0454229325267
20
1.30542369251964
30
0
41
1
10
52.5713964975236
20
1.39961148244464
30
0
41
1
10
52.097440502042
20
1.4917019886984
30
0
41
1
10
51.6235504821222
20
1.58146598890059
30
0
41
1
10
51.1495241046511
20
1.66887282268792
30
0
41
1
10
50.675567395623
20
1.75372025995429
30
0
41
1
10
50.2016764126557
20
1.83579401661709
30
0
41
1
10
49.7276489624301
20
1.91521917754
30
0
41
1
10
49.2536911314888
20
1.99165944086687
30
0
41
1
10
48.7797992772131
20
2.06491701647812
30
0
41
1
10
48.3057713931742
20
2.1352703723405
30
0
41
1
10
47.8318140303351
20
2.20225268547574
30
0
41
1
10
47.3579238850942
20
2.26568392583286
30
0
41
1
10
46.8838977815436
20
2.32599559595883
30
0
41
1
10
46.4099416111176
20
2.38260021003703
30
0
41
1
10
45.9360507263567
20
2.43534428934447
30
0
41
1
10
45.4620232713488
20
2.48479768620868
30
0
41
1
10
44.9880654530648
20
2.53025352601665
30
0
41
1
10
44.5141741322182
20
2.57157199062945
30
0
41
1
10
44.0401469539665
20
2.60946795074821
30
0
41
1
10
43.5661900032491
20
2.64313335752581
30
0
41
1
10
43.0922991545069
20
2.67246696697359
30
0
41
1
10
42.6182722064444
20
2.69830370735747
30
0
41
1
10
42.1443154315701
20
2.71974049195089
30
0
41
1
10
41.6704249748067
20
2.73669582378559
30
0
41
1
10
41.1963981276885
20
2.75012113025468
30
0
41
1
10
40.7224409598422
20
2.75903159506285
30
0
41
1
10
40.2485495545089
20
2.7633749993455
30
0
41
1
10
39.7745218474546
20
2.7642014283108
30
0
41
1
10
39.3005641559608
20
2.76045138089722
30
0
41
1
10
38.8266732551075
20
2.7520919108737
30
0
41
1
10
38.3526466115121
20
2.74027398204748
30
0
41
1
10
37.8786903009374
20
2.72389155533594
30
0
41
1
10
37.4047999607531
20
2.70296151239896
30
0
41
1
10
36.9307732721801
20
2.67869562871982
30
0
41
1
10
36.4568163304831
20
2.64994872721923
30
0
41
1
10
35.9829253558542
20
2.61675514499913
30
0
41
1
10
35.508898073737
20
2.58038307694048
30
0
41
1
10
35.0349405511079
20
2.5396652496608
30
0
41
1
10
34.5633584088395
20
2.49488590202597
30
0
41
1
10
34.3286553268481
20
2.47114488417407
30
0
41
1
10
34.2124640347616
20
2.45905732276944
30
0
0
SPLINE
5
DD
100
AcDbEntity
8
1
62
256
6
ByLayer
370
18
48
1
60
0
100
AcDbSpline
70
4
71
3
72
10
73
6
40
0
40
0
40
0
40
0
40
0.5
40
0.5
40
1
40
1
40
1
40
1
41
1
10
77.6006496340268
20
2.7615890737921
30
0
41
1
10
77.5848123726901
20
2.95983117154665
30
0
41
1
10
77.5871220109897
20
3.15517040868502
30
0
41
1
10
77.6102241543755
20
3.54289227949999
30
0
41
1
10
77.6313636812649
20
3.73521940199422
30
0
41
1
10
77.6581557309428
20
3.92664232122857
30
0
0
SPLINE
5
DE
100
AcDbEntity
8
1
62
256
6
ByLayer
370
18
48
1
60
0
100
AcDbSpline
70
4
71
3
72
8
73
4
40
0
40
0
40
0
40
0
40
1
40
1
40
1
40
1
41
1
10
78.9997781059652
20
0.0985594692259326
30
0
41
1
10
79.0000739646769
20
0.032853156412898
30
0
41
1
10
79.000073964677
20
-0.0328531564001082
30
0
41
1
10
78.9997781059652
20
-0.0985594692131144
30
0
0
SPLINE
5
DF
100
AcDbEntity
8
1
62
256
6
ByLayer
370
18
48
1
60
0
100
AcDbSpline
70
4
71
3
72
26
73
22
40
0
40
0
40
0
40
0
40
0.0709764974227099
40
0.0709764974227099
40
0.163878847680441
40
0.163878847680441
40
0.256781197938172
40
0.256781197938172
40
0.349683548195903
40
0.349683548195903
40
0.442585898453634
40
0.442585898453634
40
0.628390598969089
40
0.628390598969089
40
0.721292949226817
40
0.721292949226817
40
0.814195299484545
40
0.814195299484545
40
0.907097649742272
40
0.907097649742272
40
1
40
1
40
1
40
1
41
1
10
76.3921920554213
20
0.531006463229772
30
0
41
1
10
76.4145678556334
20
0.552587884605799
30
0
41
1
10
76.4380930923495
20
0.576661461391637
30
0
41
1
10
76.4950287486514
20
0.638094599133836
30
0
41
1
10
76.5290383053477
20
0.677075704559883
30
0
41
1
10
76.5992089626863
20
0.7618971873531
30
0
41
1
10
76.6355295349546
20
0.807906559034677
30
0
41
1
10
76.7104750253137
20
0.907047411765973
30
0
41
1
10
76.7491010102081
20
0.960178457756257
30
0
41
1
10
76.8285448635816
20
1.07372373946353
30
0
41
1
10
76.8691500372348
20
1.13385680630071
30
0
41
1
10
76.9912146792385
20
1.32108989113354
30
0
41
1
10
77.0737945025466
20
1.45603456004548
30
0
41
1
10
77.1974102954822
20
1.67422730824933
30
0
41
1
10
77.2384748775638
20
1.74950399526909
30
0
41
1
10
77.3180240898174
20
1.90235621653017
30
0
41
1
10
77.3567494105191
20
1.98031505377466
30
0
41
1
10
77.4308608682047
20
2.13974140384516
30
0
41
1
10
77.4662921594896
20
2.22119044038121
30
0
41
1
10
77.5312002561965
20
2.38867291124714
30
0
41
1
10
77.5608897715724
20
2.47506240067878
30
0
41
1
10
77.5839687203552
20
2.5633923721978
30
0
0
SPLINE
5
E0
100
AcDbEntity
8
1
62
256
6
ByLayer
370
18
48
1
60
0
100
AcDbSpline
70
4
71
1
72
4
73
2
40
0
40
0
40
1
40
1
41
1
10
78.0606075927333
20
-1.42047615736854
30
0
41
1
10
78.0629128857553
20
-1.41269361855413
30
0
0
SPLINE
5
E1
100
AcDbEntity
8
1
62
256
6
ByLayer
370
18
48
1
60
0
100
AcDbSpline
70
4
71
3
72
8
73
4
40
0
40
0
40
0
40
0
40
1
40
1
40
1
40
1
41
1
10
5.58465186101751
20
5.97220859718973
30
0
41
1
10
5.58462469812244
20
5.96683118347755
30
0
41
1
10
5.59880553872628
20
5.96130439930803
30
0
41
1
10
5.61994410153204
20
5.95603802517917
30
0
0
SPLINE
5
E2
100
AcDbEntity
8
1
62
256
6
ByLayer
370
18
48
1
60
0
100
AcDbSpline
70
4
71
3
72
8
73
4
40
0
40
0
40
0
40
0
40
1
40
1
40
1
40
1
41
1
10
5.58512273848217
20
6.0221311628739
30
0
41
1
10
5.58498553779023
20
6.02435379898594
30
0
41
1
10
5.58483093420264
20
6.00765955330428
30
0
41
1
10
5.58465186101751
20
5.97220859718971
30
0
0
SPLINE
5
E3
100
AcDbEntity
8
1
62
256
6
ByLayer
370
18
48
1
60
0
100
AcDbSpline
70
4
71
3
72
22
73
18
40
0
40
0
40
0
40
0
40
0.124999999999999
40
0.124999999999999
40
0.249999999999997
40
0.249999999999997
40
0.374999999999998
40
0.374999999999998
40
0.499999999999998
40
0.499999999999998
40
0.624999999999998
40
0.624999999999998
40
0.749999999999999
40
0.749999999999999
40
0.875
40
0.875
40
1
40
1
40
1
40
1
41
1
10
17.0882894585979
20
-2.63009898381534
30
0
41
1
10
17.1545174423803
20
-2.45774179267923
30
0
41
1
10
17.2296299489453
20
-2.28062791359892
30
0
41
1
10
17.3940034256103
20
-1.92542404394456
30
0
41
1
10
17.4832579523674
20
-1.74734797715192
30
0
41
1
10
17.6716003253507
20
-1.39883122351753
30
0
41
1
10
17.7706807886675
20
-1.22840419832627
30
0
41
1
10
17.9738843806015
20
-0.903427795058747
30
0
41
1
10
18.0779995437581
20
-0.748891155865181
30
0
41
1
10
18.2862380328971
20
-0.463169995934095
30
0
41
1
10
18.3903531960537
20
-0.331996675296949
30
0
41
1
10
18.5935567879877
20
-0.0993473847782127
30
0
41
1
10
18.6926372513045
20
0.002119465388887
30
0
41
1
10
18.8809796242879
20
0.170446658284248
30
0
41
1
10
18.9702341510449
20
0.237300402686202
30
0
41
1
10
19.1346076277099
20
0.333165695210624
30
0
41
1
10
19.2097201342749
20
0.362173485470379
30
0
41
1
10
19.2759481180573
20
0.371557301238937
30
0
0
SPLINE
5
E4
100
AcDbEntity
8
1
62
256
6
ByLayer
370
18
48
1
60
0
100
AcDbSpline
70
4
71
3
72
12
73
8
40
0
40
0
40
0
40
0
40
0.500000000000017
40
0.500000000000017
40
0.750000000000009
40
0.750000000000009
40
1
40
1
40
1
40
1
41
1
10
6.04616291570213
20
1.81801368244325
30
0
41
1
10
5.96779857386946
20
1.85596073337797
30
0
41
1
10
5.89087141218641
20
1.89619739542465
30
0
41
1
10
5.7779516704239
20
1.96059147213973
30
0
41
1
10
5.74050569641162
20
1.98287619064942
30
0
41
1
10
5.66798895262912
20
2.02804084250644
30
0
41
1
10
5.63285348081573
20
2.05094394753218
30
0
41
1
10
5.59884296986044
20
2.07419350531345
30
0
0
SPLINE
5
E5
100
AcDbEntity
8
1
62
256
6
ByLayer
370
18
48
1
60
0
100
AcDbSpline
70
4
71
3
72
36
73
32
40
0
40
0
40
0
40
0
40
0.0312500000000015
40
0.0312500000000015
40
0.0625000000000031
40
0.0625000000000031
40
0.0937500000000046
40
0.0937500000000046
40
0.125000000000006
40
0.125000000000006
40
0.156250000000008
40
0.156250000000008
40
0.187500000000009
40
0.187500000000009
40
0.25000000000001
40
0.25000000000001
40
0.31250000000001
40
0.31250000000001
40
0.375000000000011
40
0.375000000000011
40
0.500000000000009
40
0.500000000000009
40
0.625000000000008
40
0.625000000000008
40
0.687500000000006
40
0.687500000000006
40
0.750000000000003
40
0.750000000000003
40
0.875000000000002
40
0.875000000000002
40
1
40
1
40
1
40
1
41
1
10
6.01702303819425
20
2.53724550078783
30
0
41
1
10
6.04748540313273
20
2.60631761982859
30
0
41
1
10
6.08671685461994
20
2.67237479974548
30
0
41
1
10
6.17620803905854
20
2.7941493262573
30
0
41
1
10
6.22680945142832
20
2.85074141505834
30
0
41
1
10
6.33743342766076
20
2.95713353029822
30
0
41
1
10
6.39724109061595
20
3.00662163068728
30
0
41
1
10
6.52137217238453
20
3.09792329559107
30
0
41
1
10
6.58608875143494
20
3.14009783482337
30
0
41
1
10
6.71976606392963
20
3.21898028909644
30
0
41
1
10
6.78873397218322
20
3.2556782317802
30
0
41
1
10
6.93024518301235
20
3.32455452526554
30
0
41
1
10
7.0028345229729
20
3.3567246294634
30
0
41
1
10
7.22234325364624
20
3.44636042004728
30
0
41
1
10
7.3719886670788
20
3.49756605380154
30
0
41
1
10
7.67624628289377
20
3.58763989380822
30
0
41
1
10
7.83087984990442
20
3.62644733817189
30
0
41
1
10
8.14431690618034
20
3.69408477462005
30
0
41
1
10
8.30362702472019
20
3.72296337724728
30
0
41
1
10
8.78343089870822
20
3.79606672127349
30
0
41
1
10
9.10412364919475
20
3.82690669942519
30
0
41
1
10
9.74687853917072
20
3.86007929517828
30
0
41
1
10
10.0689464509472
20
3.86226990906047
30
0
41
1
10
10.5530470146371
20
3.84479549871492
30
0
41
1
10
10.7145815711531
20
3.835475529505
30
0
41
1
10
11.0379924743372
20
3.80961282977759
30
0
41
1
10
11.1997361695998
20
3.79305197626866
30
0
41
1
10
11.6796523836536
20
3.73279854821573
30
0
41
1
10
11.9944613165728
20
3.67846441724572
30
0
41
1
10
12.6137923956819
20
3.53927057211635
30
0
41
1
10
12.9183050302937
20
3.4543910754031
30
0
41
1
10
13.2175433780414
20
3.35223527621957
30
0
0
SPLINE
5
E6
100
AcDbEntity
8
1
62
256
6
ByLayer
370
13
48
1
60
0
100
AcDbSpline
70
4
71
3
72
59
73
55
40
0
40
0
40
0
40
0
40
0.0254669371351995
40
0.0398684425359535
40
0.0542699479367073
40
0.083072958738215
40
0.0974744641389693
40
0.111875969539723
40
0.14067898034123
40
0.155080485741985
40
0.169481991142739
40
0.198285001944246
40
0.212686507344999
40
0.227088012745753
40
0.255891023547262
40
0.270292528948015
40
0.28469403434877
40
0.313497045150277
40
0.32789855055103
40
0.342300055951784
40
0.371103066753293
40
0.385504572154045
40
0.399906077554801
40
0.428709088356308
40
0.443110593757062
40
0.457512099157817
40
0.486315109959324
40
0.500716615360077
40
0.515118120760831
40
0.543921131562339
40
0.558322636963093
40
0.572724142363847
40
0.601527153165355
40
0.615928658566109
40
0.630330163966863
40
0.65913317476837
40
0.673534680169124
40
0.687936185569878
40
0.716739196371386
40
0.73114070177214
40
0.745542207172893
40
0.774345217974401
40
0.788746723375155
40
0.80314822877591
40
0.831951239577417
40
0.846352744978171
40
0.860754250378925
40
0.889557261180433
40
0.903958766581186
40
0.91836027198194
40
0.947163282783448
40
0.961564788184202
40
0.975966293584955
40
1
40
1
40
1
40
1
41
1
10
64.6388667454858
20
-2.46864679896203
30
0
41
1
10
64.429350465995
20
-2.49009808406703
30
0
41
1
10
64.1013246579628
20
-2.52197283673755
30
0
41
1
10
63.6547501751921
20
-2.56166534759683
30
0
41
1
10
63.1808602931376
20
-2.60068911159814
30
0
41
1
10
62.7069006168749
20
-2.63535539125087
30
0
41
1
10
62.2328749099539
20
-2.66560511777144
30
0
41
1
10
61.758985498889
20
-2.6925677657398
30
0
41
1
10
61.2850262517707
20
-2.7150399278355
30
0
41
1
10
60.8110010202356
20
-2.73299412518321
30
0
41
1
10
60.3371119479725
20
-2.7475256027046
30
0
41
1
10
59.8631525655127
20
-2.75748516932057
30
0
41
1
10
59.3891263510794
20
-2.7628644449635
30
0
41
1
10
58.9152362150678
20
-2.76472708297456
30
0
41
1
10
58.4412760178677
20
-2.76200628373158
30
0
41
1
10
57.9672500013223
20
-2.7547429228527
30
0
41
1
10
57.493360455538
20
-2.74393259197512
30
0
41
1
10
57.01940119337
20
-2.72859904815829
30
0
41
1
10
56.5453756342432
20
-2.70880338385075
30
0
41
1
10
56.071486033587
20
-2.68547071487441
30
0
41
1
10
55.5975262856982
20
-2.65773192233021
30
0
41
1
10
55.1235004825367
20
-2.62568237950652
30
0
41
1
10
54.6496108397207
20
-2.59015701498203
30
0
41
1
10
54.1756510286724
20
-2.55040085986403
30
0
41
1
10
53.7016249062771
20
-2.50653000799699
30
0
41
1
10
53.2277352476558
20
-2.45928729211207
30
0
41
1
10
52.7537759083895
20
-2.40804671750684
30
0
41
1
10
52.2797507637952
20
-2.35295714530147
30
0
41
1
10
51.8058619418281
20
-2.29465066975004
30
0
41
1
10
51.331903031299
20
-2.23263577052975
30
0
41
1
10
50.8578771594987
20
-2.16708094613517
30
0
41
1
10
50.3839869465284
20
-2.09850478568171
30
0
41
1
10
49.9100262748632
20
-2.02655938563009
30
0
41
1
10
49.4359996096059
20
-1.9514391500598
30
0
41
1
10
48.9621093390813
20
-1.87353811991594
30
0
41
1
10
48.4881493810526
20
-1.7926557278019
30
0
41
1
10
48.0141236789589
20
-1.70900405626009
30
0
41
1
10
47.5402344813178
20
-1.62284860148301
30
0
41
1
10
47.0662756453379
20
-1.53413887657132
30
0
41
1
10
46.5922508146548
20
-1.44310331918422
30
0
41
1
10
46.118362050863
20
-1.34987572737143
30
0
41
1
10
45.6444027466859
20
-1.25455737814022
30
0
41
1
10
45.1703762067122
20
-1.1573916718699
30
0
41
1
10
44.6964856621941
20
-1.05837597822284
30
0
41
1
10
44.2225251654834
20
-0.957758831348002
30
0
41
1
10
43.7484993651973
20
-0.855788638804825
30
0
41
1
10
43.2746101723811
20
-0.752334038456269
30
0
41
1
10
42.8006513238023
20
-0.64779376345561
30
0
41
1
10
42.326625959676
20
-0.542432387049985
30
0
41
1
10
41.8527364900491
20
-0.435978013434522
30
0
41
1
10
41.3787767737374
20
-0.328965852213031
30
0
41
1
10
40.9047509373945
20
-0.221651148317307
30
0
41
1
10
40.4700954036833
20
-0.122582505936748
30
0
41
1
10
40.1538706318798
20
-0.0505004741741004
30
0
41
1
10
39.9561183522839
20
-0.0054716798624099
30
0
0
SPLINE
5
E7
100
AcDbEntity
8
1
62
256
6
ByLayer
370
18
48
1
60
0
100
AcDbSpline
70
4
71
3
72
13
73
9
40
0
40
0
40
0
40
0
40
0.230577747499056
40
0.4036998013432
40
0.519197934789344
40
0.635201836158927
40
0.809007199744812
40
1
40
1
40
1
40
1
41
1
10
20.8645665973851
20
0.0105728786089969
30
0
41
1
10
21.0424192122598
20
-0.0299967634352072
30
0
41
1
10
21.3538700573087
20
-0.110630124577654
30
0
41
1
10
21.754120391977
20
-0.235871189989467
30
0
41
1
10
22.0667076940285
20
-0.345633844965278
30
0
41
1
10
22.3800605357144
20
-0.46543243407487
30
0
41
1
10
22.7505502942692
20
-0.620674596035087
30
0
41
1
10
23.031066734103
20
-0.753804760594306
30
0
41
1
10
23.1777207710229
20
-0.827463839879158
30
0
0
SPLINE
5
E8
100
AcDbEntity
8
1
62
256
6
ByLayer
370
18
48
1
60
0
100
AcDbSpline
70
4
71
3
72
11
73
7
40
0
40
0
40
0
40
0
40
0.206157057566075
40
0.444268369385113
40
0.714588331432651
40
1
40
1
40
1
40
1
41
1
10
58.9646513246067
20
0.0103782133603829
30
0
41
1
10
59.1278281397
20
-0.0268905455034201
30
0
41
1
10
59.4791080263699
20
-0.116947996915002
30
0
41
1
10
60.042845341147
20
-0.295967959675181
30
0
41
1
10
60.6675258582127
20
-0.53684612842784
30
0
41
1
10
61.1033987878209
20
-0.738699404370436
30
0
41
1
10
61.3268944027901
20
-0.851036880763132
30
0
0
SPLINE
5
E9
100
AcDbEntity
8
1
62
256
6
ByLayer
370
18
48
1
60
0
100
AcDbSpline
70
4
71
3
72
11
73
7
40
0
40
0
40
0
40
0
40
0.209877767943637
40
0.452241469187418
40
0.727281409956588
40
1
40
1
40
1
40
1
41
1
10
39.9804914619822
20
-0.0110217502432022
30
0
41
1
10
39.8243025077771
20
0.0245635068986871
30
0
41
1
10
39.4881099508385
20
0.110170166488473
30
0
41
1
10
38.9487608840796
20
0.279130820319551
30
0
41
1
10
38.3642375065069
20
0.500327514460906
30
0
41
1
10
37.9603361690249
20
0.683495695315571
30
0
41
1
10
37.759546720545
20
0.781901850993933
30
0
0
SPLINE
5
EA
100
AcDbEntity
8
1
62
256
6
ByLayer
370
18
48
1
60
0
100
AcDbSpline
70
4
71
3
72
29
73
25
40
0
40
0
40
0
40
0
40
0.0408823386739858
40
0.0801137476947752
40
0.115523495162472
40
0.150061310752502
40
0.184152743047972
40
0.219457092266188
40
0.264292786722257
40
0.311364269886428
40
0.358234285968693
40
0.397189493977856
40
0.440799592150086
40
0.495981533717178
40
0.556975620543529
40
0.610198515946836
40
0.660837684111933
40
0.721557911915741
40
0.768455850873317
40
0.819957137451347
40
0.881172905356022
40
0.934869206649225
40
0.984730602961607
40
1
40
1
40
1
40
1
41
1
10
42.2404081917455
20
-5.93946152998822
30
0
41
1
10
42.4516471866658
20
-5.93888675645331
30
0
41
1
10
42.8695478099396
20
-5.93849101799083
30
0
41
1
10
43.5011390584779
20
-5.93739970268962
30
0
41
1
10
44.0758528806134
20
-5.94283450861514
30
0
41
1
10
44.632718023821
20
-5.94414028620716
30
0
41
1
10
45.1933238144152
20
-5.94513526756433
30
0
41
1
10
45.8097132836568
20
-5.94589653666986
30
0
41
1
10
46.4961395399013
20
-5.94737593190575
30
0
41
1
10
47.2449401565815
20
-5.94886636878016
30
0
41
1
10
47.9620550885398
20
-5.94945347942993
30
0
41
1
10
48.6604253057117
20
-5.95111410884553
30
0
41
1
10
49.4039213460799
20
-5.95274475539583
30
0
41
1
10
50.2649075244414
20
-5.95284896785617
30
0
41
1
10
51.1782646035553
20
-5.95506905747362
30
0
41
1
10
52.0678440445163
20
-5.95631567607191
30
0
41
1
10
52.9533029090622
20
-5.95822819358526
30
0
41
1
10
53.8079430457616
20
-5.9605669255354
30
0
41
1
10
54.6663849582752
20
-5.96026422338875
30
0
41
1
10
55.52769495992
20
-5.96362597205334
30
0
41
1
10
56.4256307534295
20
-5.96384932992279
30
0
41
1
10
57.3147394138049
20
-5.96569696019392
30
0
41
1
10
57.9559189660969
20
-5.96778508720109
30
0
41
1
10
58.3073591756518
20
-5.96802603664972
30
0
41
1
10
58.3897515221704
20
-5.9680606047479
30
0
0
SPLINE
5
EB
100
AcDbEntity
8
1
62
256
6
ByLayer
370
18
48
1
60
0
100
AcDbSpline
70
4
71
3
72
29
73
25
40
0
40
0
40
0
40
0
40
0.0223996009415771
40
0.0818695320475548
40
0.141390134015542
40
0.206477302405268
40
0.267642912814763
40
0.315329263594749
40
0.368991875860697
40
0.424352142881224
40
0.467595891009118
40
0.499713182119374
40
0.539558523555273
40
0.589948778737139
40
0.639114400153056
40
0.68778070015062
40
0.743671807831062
40
0.804100521496777
40
0.831373863868644
40
0.855248661514713
40
0.885430790293485
40
0.92698546932864
40
0.980068884723046
40
1
40
1
40
1
40
1
41
1
10
20.3064183411648
20
5.90109570706031
30
0
41
1
10
20.201734366357
20
5.90083413986542
30
0
41
1
10
19.8191219000739
20
5.89993249466119
30
0
41
1
10
19.1583011460622
20
5.89926565146129
30
0
41
1
10
18.2981577203034
20
5.89762169202274
30
0
41
1
10
17.4293840278662
20
5.89559300167687
30
0
41
1
10
16.6187492012657
20
5.89465944748989
30
0
41
1
10
15.8596496414631
20
5.89232398667136
30
0
41
1
10
15.1269924710164
20
5.89119475495343
30
0
41
1
10
14.4168287050099
20
5.89086505717162
30
0
41
1
10
13.8062134954281
20
5.88951274528074
30
0
41
1
10
13.2677400221257
20
5.88832601210754
30
0
41
1
10
12.6959373734169
20
5.88769830721884
30
0
41
1
10
12.0444629071905
20
5.88712825092924
30
0
41
1
10
11.3517399262818
20
5.88526348499821
30
0
41
1
10
10.6333330443047
20
5.88420209859294
30
0
41
1
10
9.86226188869978
20
5.88291139783948
30
0
41
1
10
9.19119833887672
20
5.88079765843034
30
0
41
1
10
8.66973661847223
20
5.88003125687686
30
0
41
1
10
8.28965629473532
20
5.87942062739319
30
0
41
1
10
7.84280880826253
20
5.87871481583909
30
0
41
1
10
7.26004224767951
20
5.87770413758579
30
0
41
1
10
6.72560160078143
20
5.876642091121
30
0
41
1
10
6.38545952920907
20
5.87542721351247
30
0
41
1
10
6.29263940473265
20
5.87506356182314
30
0
0
SPLINE
5
EC
100
AcDbEntity
8
1
62
256
6
ByLayer
370
18
48
1
60
0
100
AcDbSpline
70
4
71
3
72
29
73
25
40
0
40
0
40
0
40
0
40
0.0358315479738353
40
0.0735819631206307
40
0.118935969054746
40
0.171854217274968
40
0.224351669496437
40
0.273487683030058
40
0.314767458218119
40
0.352427086793285
40
0.400629626178161
40
0.47745847343776
40
0.537316719910002
40
0.590005306613153
40
0.642762162512869
40
0.691821917826192
40
0.733818475505293
40
0.778296392585458
40
0.830184599919121
40
0.876686216273966
40
0.920592932113912
40
0.949760124650942
40
0.981593208215872
40
1
40
1
40
1
40
1
41
1
10
58.4105903205485
20
5.96803912673997
30
0
41
1
10
58.2404249646283
20
5.96802063119219
30
0
41
1
10
57.8909641220993
20
5.96772932129358
30
0
41
1
10
57.3260109387741
20
5.96584331280542
30
0
41
1
10
56.6799114840854
20
5.96404604610748
30
0
41
1
10
55.9637618015973
20
5.96409057629012
30
0
41
1
10
55.2296522629169
20
5.96226175374701
30
0
41
1
10
54.5508086316732
20
5.96042162948947
30
0
41
1
10
53.9424840365944
20
5.96032551300755
30
0
41
1
10
53.3384516857139
20
5.9597090037814
30
0
41
1
10
52.5665489385128
20
5.95672743223932
30
0
41
1
10
51.6888861955952
20
5.95620372944708
30
0
41
1
10
50.7893131137849
20
5.95437439253982
30
0
41
1
10
50.0052819199165
20
5.95297248364901
30
0
41
1
10
49.2711894320878
20
5.95251464198549
30
0
41
1
10
48.5881307337334
20
5.95088792700304
30
0
41
1
10
47.9443356755478
20
5.94949574589788
30
0
41
1
10
47.2871722760052
20
5.94887713998043
30
0
41
1
10
46.6083165930657
20
5.94767745912128
30
0
41
1
10
45.9333850010774
20
5.94598643317786
30
0
41
1
10
45.3648753656131
20
5.94509326519946
30
0
41
1
10
44.8676944067548
20
5.94462508196614
30
0
41
1
10
44.4937611402884
20
5.94381783790797
30
0
41
1
10
44.2554546968882
20
5.94327795343401
30
0
41
1
10
44.168035152377
20
5.94308562886152
30
0
0
SPLINE
5
ED
100
AcDbEntity
8
1
62
256
6
ByLayer
370
18
48
1
60
0
100
AcDbSpline
70
4
71
3
72
26
73
22
40
0
40
0
40
0
40
0
40
0.0316053642884161
40
0.0795556876950039
40
0.112707477569148
40
0.133464894792835
40
0.155813063274893
40
0.182254774754201
40
0.212401301282393
40
0.287951693382228
40
0.359700935565674
40
0.429601936484846
40
0.489288923107289
40
0.554985536640799
40
0.628118243910951
40
0.694546330168139
40
0.764755496018811
40
0.834948758997258
40
0.899763329134184
40
0.975515703343748
40
1
40
1
40
1
40
1
41
1
10
6.10867209606908
20
-5.87446591309427
30
0
41
1
10
6.25703798135464
20
-5.87521028702989
30
0
41
1
10
6.63099515262624
20
-5.87681125542144
30
0
41
1
10
7.16231598009824
20
-5.87756229373176
30
0
41
1
10
7.64449775549286
20
-5.87817722316839
30
0
41
1
10
8.00507860382419
20
-5.87891912347379
30
0
41
1
10
8.33404277320267
20
-5.87948885554468
30
0
41
1
10
8.70773247967733
20
-5.88007748016628
30
0
41
1
10
9.33328044652802
20
-5.88108002095541
30
0
41
1
10
10.1733257501506
20
-5.883756218505
30
0
41
1
10
11.2015739094096
20
-5.88482395018875
30
0
41
1
10
12.1547133229672
20
-5.88747002541567
30
0
41
1
10
13.0792031162853
20
-5.88783326335522
30
0
41
1
10
14.0190085861815
20
-5.89017591945625
30
0
41
1
10
14.9906635754747
20
-5.89145747168229
30
0
41
1
10
15.9833211432534
20
-5.89321593511948
30
0
41
1
10
16.9626501369812
20
-5.89520960213426
30
0
41
1
10
17.9334821211924
20
-5.89649923171604
30
0
41
1
10
18.9313830864722
20
-5.89915859889081
30
0
41
1
10
19.7127129123376
20
-5.89970329663117
30
0
41
1
10
20.1872443455005
20
-5.90079050238018
30
0
41
1
10
20.3031548800836
20
-5.90106466888219
30
0
0
SPLINE
5
EE
100
AcDbEntity
8
1
62
256
6
ByLayer
370
18
48
1
60
0
100
AcDbSpline
70
4
71
2
72
6
73
3
40
0
40
0
40
0
40
1
40
1
40
1
41
1
10
76.8818724216658
20
0.353596206154918
30
0
41
1
10
76.8414363125102
20
0.36630783528895
30
0
41
1
10
76.8010475235643
20
0.379630312464371
30
0
0
SPLINE
5
EF
100
AcDbEntity
8
1
62
256
6
ByLayer
370
18
48
1
60
0
100
AcDbSpline
70
4
71
2
72
6
73
3
40
0
40
0
40
0
40
1
40
1
40
1
41
1
10
76.5547180868923
20
0.466730038727434
30
0
41
1
10
76.1670887543816
20
0.613025323057997
30
0
41
1
10
75.7838495047433
20
0.8159913944435
30
0
0
LINE
5
7B
100
AcDbEntity
8
SK1
62
256
6
ByLayer
370
18
48
1
60
0
100
AcDbLine
10
0
20
-7
30
0
11
0
21
7
31
0
39
0
210
0
220
0
230
1
0
LINE
5
7D
100
AcDbEntity
8
SK1
62
256
6
ByLayer
370
18
48
1
60
0
100
AcDbLine
10
-45
20
3.5
30
0
11
-45
21
-3.5
31
0
39
0
210
0
220
0
230
1
0
LINE
5
7E
100
AcDbEntity
8
SK1
62
256
6
ByLayer
370
18
48
1
60
0
100
AcDbLine
10
-42.979274
20
7
30
0
11
-42.979274
21
-7
31
0
39
0
210
0
220
0
230
1
0
LINE
5
7F
100
AcDbEntity
8
1
62
256
6
ByLayer
370
18
48
1
60
0
100
AcDbLine
10
76.010979
20
-3.065973
30
0
11
78.060608
21
-1.420476
31
0
39
0
210
0
220
0
230
1
0
LINE
5
80
100
AcDbEntity
8
1
62
256
6
ByLayer
370
13
48
1
60
0
100
AcDbLine
10
1.543925
20
6.014855
30
0
11
1.543925
21
-6.014855
31
0
39
0
210
0
220
0
230
1
0
LINE
5
81
100
AcDbEntity
8
1
62
256
6
ByLayer
370
18
48
1
60
0
100
AcDbLine
10
6.108658
20
-5.875571
30
0
11
6.108667
21
-5.874798
31
0
39
0
210
0
220
0
230
1
0
LINE
5
82
100
AcDbEntity
8
1
62
256
6
ByLayer
370
18
48
1
60
0
100
AcDbLine
10
0
20
-7
30
0
11
0
21
7
31
0
39
0
210
0
220
0
230
1
0
LINE
5
83
100
AcDbEntity
8
1
62
256
6
ByLayer
370
13
48
1
60
0
100
AcDbLine
10
0.771198
20
6.507427
30
0
11
0.771198
21
-6.507427
31
0
39
0
210
0
220
0
230
1
0
LINE
5
84
100
AcDbEntity
8
1
62
256
6
ByLayer
370
18
48
1
60
0
100
AcDbLine
10
78.060608
20
-1.420476
30
0
11
78.061948
21
-1.411712
31
0
39
0
210
0
220
0
230
1
0
LINE
5
85
100
AcDbEntity
8
80
62
256
6
ByLayer
370
18
48
1
60
0
100
AcDbLine
10
0
20
0
30
0
11
-5
21
0
31
0
39
0
210
0
220
0
230
1
0
LINE
5
86
100
AcDbEntity
8
4
62
256
6
ByLayer
370
18
48
0.05
60
0
100
AcDbLine
10
79
20
0
30
0
11
0
21
0
31
0
39
0
210
0
220
0
230
1
0
LINE
5
88
100
AcDbEntity
8
SK4
62
256
6
ByLayer
370
18
48
0.05
60
0
100
AcDbLine
10
84
20
0
30
0
11
-50
21
0
31
0
39
0
210
0
220
0
230
1
0
LINE
5
8A
100
AcDbEntity
8
SK1
62
256
6
ByLayer
370
18
48
1
60
0
100
AcDbLine
10
-45
20
-3.5
30
0
11
-42.979274
21
-7
31
0
39
0
210
0
220
0
230
1
0
LINE
5
8B
100
AcDbEntity
8
SK1
62
256
6
ByLayer
370
18
48
1
60
0
100
AcDbLine
10
-42.979274
20
7
30
0
11
-45
21
3.5
31
0
39
0
210
0
220
0
230
1
0
LINE
5
8C
100
AcDbEntity
8
SK1
62
256
6
ByLayer
370
18
48
1
60
0
100
AcDbLine
10
-42.979274
20
-7
30
0
11
0
21
-7
31
0
39
0
210
0
220
0
230
1
0
LINE
5
8D
100
AcDbEntity
8
SK1
62
256
6
ByLayer
370
18
48
1
60
0
100
AcDbLine
10
0
20
7
30
0
11
-42.979274
21
7
31
0
39
0
210
0
220
0
230
1
0
LINE
5
8E
100
AcDbEntity
8
1
62
256
6
ByLayer
370
18
48
1
60
0
100
AcDbLine
10
1.543925
20
-6.014855
30
0
11
5.585098
21
-6.022129
31
0
39
0
210
0
220
0
230
1
0
LINE
5
8F
100
AcDbEntity
8
1
62
256
6
ByLayer
370
18
48
1
60
0
100
AcDbLine
10
40.57811
20
-6.085117
30
0
11
41.705875
21
-6.087147
31
0
39
0
210
0
220
0
230
1
0
LINE
5
90
100
AcDbEntity
8
1
62
256
6
ByLayer
370
18
48
1
60
0
100
AcDbLine
10
41.705875
20
6.087147
30
0
11
40.57811
21
6.085117
31
0
39
0
210
0
220
0
230
1
0
LINE
5
91
100
AcDbEntity
8
1
62
256
6
ByLayer
370
18
48
1
60
0
100
AcDbLine
10
5.585098
20
6.022129
30
0
11
1.543925
21
6.014855
31
0
39
0
210
0
220
0
230
1
0
LINE
5
92
100
AcDbEntity
8
81
62
256
6
ByLayer
370
18
48
1
60
0
100
AcDbLine
10
79
20
0
30
0
11
84
21
0
31
0
39
0
210
0
220
0
230
1
0
LINE
5
93
100
AcDbEntity
8
SK2
62
256
6
ByLayer
370
13
48
1
60
0
100
AcDbLine
10
-53.625163
20
-7
30
0
11
-53.625163
21
38.225706
31
0
39
0
210
0
220
0
230
1
0
LINE
5
95
100
AcDbEntity
8
SK2
62
256
6
ByLayer
370
13
48
1
60
0
100
AcDbLine
10
-46.5875
20
7
30
0
11
-55.625163
21
7
31
0
39
0
210
0
220
0
230
1
0
LINE
5
96
100
AcDbEntity
8
SK2
62
256
6
ByLayer
370
13
48
1
60
0
100
AcDbLine
10
-46.5875
20
-7
30
0
11
-55.625163
21
-7
31
0
39
0
210
0
220
0
230
1
0
LINE
5
97
100
AcDbEntity
8
1
62
256
6
ByLayer
370
18
48
1
60
1
100
AcDbLine
10
-53.625163
20
7
30
0
11
-53.164379
21
3.500002
31
0
39
0
210
0
220
0
230
1
0
LINE
5
98
100
AcDbEntity
8
1
62
256
6
ByLayer
370
18
48
1
60
1
100
AcDbLine
10
-53.164379
20
3.500002
30
0
11
-54.085946
21
3.499998
31
0
39
0
210
0
220
0
230
1
0
LINE
5
99
100
AcDbEntity
8
1
62
256
6
ByLayer
370
18
48
1
60
1
100
AcDbLine
10
-54.085946
20
3.499998
30
0
11
-53.625163
21
7
31
0
39
0
210
0
220
0
230
1
0
LINE
5
9A
100
AcDbEntity
8
1
62
256
6
ByLayer
370
18
48
1
60
1
100
AcDbLine
10
-53.625163
20
-7
30
0
11
-54.085946
21
-3.500002
31
0
39
0
210
0
220
0
230
1
0
LINE
5
9B
100
AcDbEntity
8
1
62
256
6
ByLayer
370
18
48
1
60
1
100
AcDbLine
10
-54.085946
20
-3.500002
30
0
11
-53.164379
21
-3.499998
31
0
39
0
210
0
220
0
230
1
0
LINE
5
9C
100
AcDbEntity
8
1
62
256
6
ByLayer
370
18
48
1
60
1
100
AcDbLine
10
-53.164379
20
-3.499998
30
0
11
-53.625163
21
-7
31
0
39
0
210
0
220
0
230
1
0
LINE
5
9D
100
AcDbEntity
8
2
62
256
6
ByLayer
370
13
48
1
60
0
100
AcDbLine
10
91.083343
20
-6.15
30
0
11
91.083343
21
35.600259
31
0
39
0
210
0
220
0
230
1
0
LINE
5
9F
100
AcDbEntity
8
2
62
256
6
ByLayer
370
13
48
1
60
0
100
AcDbLine
10
78.2118
20
6.15
30
0
11
93.083343
21
6.15
31
0
39
0
210
0
220
0
230
1
0
LINE
5
A0
100
AcDbEntity
8
2
62
256
6
ByLayer
370
13
48
1
60
0
100
AcDbLine
10
78.2118
20
-6.15
30
0
11
93.083343
21
-6.15
31
0
39
0
210
0
220
0
230
1
0
LINE
5
A1
100
AcDbEntity
8
1
62
256
6
ByLayer
370
18
48
1
60
1
100
AcDbLine
10
91.083343
20
6.15
30
0
11
91.544126
21
2.650002
31
0
39
0
210
0
220
0
230
1
0
LINE
5
A2
100
AcDbEntity
8
1
62
256
6
ByLayer
370
18
48
1
60
1
100
AcDbLine
10
91.544126
20
2.650002
30
0
11
90.622559
21
2.649998
31
0
39
0
210
0
220
0
230
1
0
LINE
5
A3
100
AcDbEntity
8
1
62
256
6
ByLayer
370
18
48
1
60
1
100
AcDbLine
10
90.622559
20
2.649998
30
0
11
91.083343
21
6.15
31
0
39
0
210
0
220
0
230
1
0
LINE
5
A4
100
AcDbEntity
8
1
62
256
6
ByLayer
370
18
48
1
60
1
100
AcDbLine
10
91.083343
20
-6.15
30
0
11
90.622559
21
-2.650002
31
0
39
0
210
0
220
0
230
1
0
LINE
5
A5
100
AcDbEntity
8
1
62
256
6
ByLayer
370
18
48
1
60
1
100
AcDbLine
10
90.622559
20
-2.650002
30
0
11
91.544126
21
-2.649998
31
0
39
0
210
0
220
0
230
1
0
LINE
5
A6
100
AcDbEntity
8
1
62
256
6
ByLayer
370
18
48
1
60
1
100
AcDbLine
10
91.544126
20
-2.649998
30
0
11
91.083343
21
-6.15
31
0
39
0
210
0
220
0
230
1
0
LINE
5
F6
100
AcDbEntity
8
1
62
256
6
ByLayer
370
18
48
1
60
1
100
AcDbLine
10
-53.625163
20
7
30
0
11
-53.164379
21
3.500002
31
0
39
0
210
0
220
0
230
1
0
LINE
5
F7
100
AcDbEntity
8
1
62
256
6
ByLayer
370
18
48
1
60
1
100
AcDbLine
10
-53.164379
20
3.500002
30
0
11
-54.085946
21
3.499998
31
0
39
0
210
0
220
0
230
1
0
LINE
5
F8
100
AcDbEntity
8
1
62
256
6
ByLayer
370
18
48
1
60
1
100
AcDbLine
10
-54.085946
20
3.499998
30
0
11
-53.625163
21
7
31
0
39
0
210
0
220
0
230
1
0
LINE
5
FA
100
AcDbEntity
8
1
62
256
6
ByLayer
370
18
48
1
60
1
100
AcDbLine
10
-53.625163
20
-7
30
0
11
-54.085946
21
-3.500002
31
0
39
0
210
0
220
0
230
1
0
LINE
5
FB
100
AcDbEntity
8
1
62
256
6
ByLayer
370
18
48
1
60
1
100
AcDbLine
10
-54.085946
20
-3.500002
30
0
11
-53.164379
21
-3.499998
31
0
39
0
210
0
220
0
230
1
0
LINE
5
FC
100
AcDbEntity
8
1
62
256
6
ByLayer
370
18
48
1
60
1
100
AcDbLine
10
-53.164379
20
-3.499998
30
0
11
-53.625163
21
-7
31
0
39
0
210
0
220
0
230
1
0
LINE
5
100
100
AcDbEntity
8
1
62
256
6
ByLayer
370
18
48
1
60
1
100
AcDbLine
10
91.083343
20
6.15
30
0
11
91.544126
21
2.650002
31
0
39
0
210
0
220
0
230
1
0
LINE
5
101
100
AcDbEntity
8
1
62
256
6
ByLayer
370
18
48
1
60
1
100
AcDbLine
10
91.544126
20
2.650002
30
0
11
90.622559
21
2.649998
31
0
39
0
210
0
220
0
230
1
0
LINE
5
102
100
AcDbEntity
8
1
62
256
6
ByLayer
370
18
48
1
60
1
100
AcDbLine
10
90.622559
20
2.649998
30
0
11
91.083343
21
6.15
31
0
39
0
210
0
220
0
230
1
0
LINE
5
104
100
AcDbEntity
8
1
62
256
6
ByLayer
370
18
48
1
60
1
100
AcDbLine
10
91.083343
20
-6.15
30
0
11
90.622559
21
-2.650002
31
0
39
0
210
0
220
0
230
1
0
LINE
5
105
100
AcDbEntity
8
1
62
256
6
ByLayer
370
18
48
1
60
1
100
AcDbLine
10
90.622559
20
-2.650002
30
0
11
91.544126
21
-2.649998
31
0
39
0
210
0
220
0
230
1
0
LINE
5
106
100
AcDbEntity
8
1
62
256
6
ByLayer
370
18
48
1
60
1
100
AcDbLine
10
91.544126
20
-2.649998
30
0
11
91.083343
21
-6.15
31
0
39
0
210
0
220
0
230
1
0
MTEXT
5
F0
100
AcDbEntity
8
SK6
62
256
6
ByLayer
370
13
48
1
60
0
100
AcDbMText
10
-10.671593
20
38.690328
30
0
210
0
220
0
230
1
1
\W0.7280;860.1-1230-057A1-PM P1BM
40
3.5
41
0
44
1.084337
50
0
71
7
72
5
7
iso_b_vert
0
MTEXT
5
F4
100
AcDbEntity
8
SK2
62
256
6
ByLayer
370
18
48
1
60
0
100
AcDbMText
10
-55.189796
20
20.409024
30
0
210
0
220
0
230
1
1
%%c
40
3.5
41
0
44
1.084337
50
90
71
7
72
5
7
iso_b_vert
0
MTEXT
5
F5
100
AcDbEntity
8
SK2
62
256
6
ByLayer
370
18
48
1
60
0
100
AcDbMText
10
-55.189796
20
25.63168
30
0
210
0
220
0
230
1
1
\W0.7145;14,000
40
3.5
41
0
44
1.084337
50
90
71
7
72
5
7
iso_b_vert
0
MTEXT
5
FE
100
AcDbEntity
8
2
62
256
6
ByLayer
370
18
48
1
60
0
100
AcDbMText
10
89.518709
20
18.15211
30
0
210
0
220
0
230
1
1
%%c
40
3.5
41
0
44
1.084337
50
90
71
7
72
5
7
iso_b_vert
0
MTEXT
5
FF
100
AcDbEntity
8
2
62
256
6
ByLayer
370
18
48
1
60
0
100
AcDbMText
10
89.518709
20
23.374766
30
0
210
0
220
0
230
1
1
\W0.6930;12,300
40
3.5
41
0
44
1.084337
50
90
71
7
72
5
7
iso_b_vert
0
HATCH
5
F9
100
AcDbEntity
8
SK2
62
256
6
ByLayer
370
13
48
1
60
0
100
AcDbHatch
10
0
20
0
30
0
210
0
220
0
230
1
2
ANSI31
70
0
71
0
91
1
92
5
93
3
72
1
10
-53.6251625675374
20
7
11
-53.1643788259847
21
3.50000169255318
72
1
10
-53.1643788259847
20
3.50000169255318
11
-54.0859463090902
21
3.49999830744682
72
1
10
-54.0859463090902
20
3.49999830744682
11
-53.6251625675374
21
7
97
0
75
0
76
1
52
0
41
0.0062
77
0
78
1
53
45
43
0
44
0
45
-0.0139193969876572
46
0.0139193969876572
79
0
47
0
98
1
10
0
20
0
0
HATCH
5
FD
100
AcDbEntity
8
SK2
62
256
6
ByLayer
370
13
48
1
60
0
100
AcDbHatch
10
0
20
0
30
0
210
0
220
0
230
1
2
ANSI31
70
0
71
0
91
1
92
5
93
3
72
1
10
-53.6251625675374
20
-7
11
-54.0859463090902
21
-3.50000169255318
72
1
10
-54.0859463090902
20
-3.50000169255318
11
-53.1643788259847
21
-3.49999830744682
72
1
10
-53.1643788259847
20
-3.49999830744682
11
-53.6251625675374
21
-7
97
0
75
0
76
1
52
0
41
0.0062
77
0
78
1
53
45
43
0
44
0
45
-0.0139193969876572
46
0.0139193969876572
79
0
47
0
98
1
10
0
20
0
0
HATCH
5
103
100
AcDbEntity
8
2
62
256
6
ByLayer
370
13
48
1
60
0
100
AcDbHatch
10
0
20
0
30
0
210
0
220
0
230
1
2
ANSI31
70
0
71
0
91
1
92
5
93
3
72
1
10
91.083342615295
20
6.15000000000001
11
91.5441263568478
21
2.65000169255319
72
1
10
91.5441263568478
20
2.65000169255319
11
90.6225588737423
21
2.64999830744682
72
1
10
90.6225588737423
20
2.64999830744682
11
91.083342615295
21
6.15000000000001
97
0
75
0
76
1
52
0
41
0.0062
77
0
78
1
53
45
43
0
44
0
45
-0.0139193969876572
46
0.0139193969876572
79
0
47
0
98
1
10
0
20
0
0
HATCH
5
107
100
AcDbEntity
8
2
62
256
6
ByLayer
370
13
48
1
60
0
100
AcDbHatch
10
0
20
0
30
0
210
0
220
0
230
1
2
ANSI31
70
0
71
0
91
1
92
5
93
3
72
1
10
91.083342615295
20
-6.15000000000001
11
90.6225588737423
21
-2.65000169255319
72
1
10
90.6225588737423
20
-2.65000169255319
11
91.5441263568478
21
-2.64999830744682
72
1
10
91.5441263568478
20
-2.64999830744682
11
91.083342615295
21
-6.15000000000001
97
0
75
0
76
1
52
0
41
0.0062
77
0
78
1
53
45
43
0
44
0
45
-0.0139193969876572
46
0.0139193969876572
79
0
47
0
98
1
10
0
20
0
0
DIMENSION
5
109
100
AcDbEntity
8
2
62
256
6
ByLayer
370
13
48
1
60
0
100
AcDbDimension
2
_U0
10
76.6243
20
-16.363398
30
0
11
38.31215
21
-16.363398
31
0
70
32
71
1
72
1
41
1
210
0
220
0
230
1
3
Standard
100
AcDbAlignedDimension
13
0
23
0
33
0
14
76.6243
24
-6.15
34
0
50
0
100
AcDbRotatedDimension
1001
ACAD
1000
DSTYLE
1002
{
1070
   371
1070
    13
1070
   372
1070
    13
1070
   170
1070
     0
1070
   144
1040
1.0
1070
   277
1070
     2
1070
   278
1070
    44
1070
   146
1040
1.0
1070
   345
1005
16
1070
   347
1005
16
1070
   346
1005
16
1070
   344
1005
0
1070
   343
1005
0
1070
   172
1070
     1
1070
    76
1070
     0
1070
    75
1070
     0
1070
   282
1070
     0
1070
   281
1070
     0
1070
    71
1070
     0
1070
    74
1070
     0
1070
   279
1070
     0
1070
   173
1070
     1
1070
   340
1005
F1
1070
   271
1070
     2
1070
   272
1070
     2
1070
    77
1070
     1
1070
    73
1070
     1
1070
   171
1070
     3
1070
   274
1070
     4
1070
   177
1070
    35
1070
   176
1070
    35
1070
   178
1070
    35
1070
    48
1040
-0.1
1070
    41
1040
3.5
1070
   147
1040
1.75
1070
    42
1040
1.5875
1070
    44
1040
2.0
1070
   140
1040
3.5
1002
}
1001
ACAD_DSTYLE_DIM_LINETYPE
1070
   380
1005
16
1001
ACAD_DSTYLE_DIM_EXT1_LINETYPE
1070
   381
1005
16
1001
ACAD_DSTYLE_DIM_EXT2_LINETYPE
1070
   382
1005
16
0
DIMENSION
5
122
100
AcDbEntity
8
SK2
62
256
6
ByLayer
370
13
48
1
60
0
100
AcDbDimension
2
_U1
10
79
20
-35.692985
30
0
11
17
21
-35.692985
31
0
70
32
71
1
72
1
41
1
210
0
220
0
230
1
3
Standard
100
AcDbAlignedDimension
13
-45
23
-7
33
0
14
79
24
0
34
0
50
0
100
AcDbRotatedDimension
1001
ACAD
1000
DSTYLE
1002
{
1070
   371
1070
    13
1070
   372
1070
    13
1070
   170
1070
     0
1070
   144
1040
1.0
1070
   277
1070
     2
1070
   278
1070
    44
1070
   146
1040
1.0
1070
   345
1005
16
1070
   347
1005
16
1070
   346
1005
16
1070
   344
1005
0
1070
   343
1005
0
1070
   172
1070
     1
1070
    76
1070
     0
1070
    75
1070
     0
1070
   282
1070
     0
1070
   281
1070
     0
1070
    71
1070
     0
1070
    74
1070
     0
1070
   279
1070
     0
1070
   173
1070
     1
1070
   340
1005
F1
1070
   271
1070
     2
1070
   272
1070
     2
1070
    77
1070
     1
1070
    73
1070
     1
1070
   171
1070
     3
1070
   274
1070
     4
1070
   177
1070
    35
1070
   176
1070
    35
1070
   178
1070
    35
1070
    48
1040
-0.1
1070
    41
1040
3.5
1070
   147
1040
1.75
1070
    42
1040
1.5875
1070
    44
1040
2.0
1070
   140
1040
3.5
1002
}
1001
ACAD_DSTYLE_DIM_LINETYPE
1070
   380
1005
16
1001
ACAD_DSTYLE_DIM_EXT1_LINETYPE
1070
   381
1005
16
1001
ACAD_DSTYLE_DIM_EXT2_LINETYPE
1070
   382
1005
16
0
DIMENSION
5
13A
100
AcDbEntity
8
SK2
62
256
6
ByLayer
370
13
48
1
60
0
100
AcDbDimension
2
_U2
10
79
20
17.759119
30
0
11
48.34
21
17.759119
31
0
70
32
71
1
72
1
41
1
210
0
220
0
230
1
3
Standard
100
AcDbAlignedDimension
13
17.68
23
6.15
33
0
14
79
24
0
34
0
50
0
100
AcDbRotatedDimension
1001
ACAD
1000
DSTYLE
1002
{
1070
   371
1070
    13
1070
   372
1070
    13
1070
   170
1070
     0
1070
   144
1040
1.0
1070
   277
1070
     2
1070
   278
1070
    44
1070
   146
1040
1.0
1070
   345
1005
16
1070
   347
1005
16
1070
   346
1005
16
1070
   344
1005
0
1070
   343
1005
0
1070
   172
1070
     1
1070
    76
1070
     0
1070
    75
1070
     0
1070
   282
1070
     0
1070
   281
1070
     0
1070
    71
1070
     0
1070
    74
1070
     0
1070
   279
1070
     0
1070
   173
1070
     1
1070
   340
1005
F1
1070
   271
1070
     2
1070
   272
1070
     2
1070
    77
1070
     1
1070
    73
1070
     1
1070
   171
1070
     3
1070
   274
1070
     4
1070
   177
1070
    35
1070
   176
1070
    35
1070
   178
1070
    35
1070
    48
1040
-0.1
1070
    41
1040
3.5
1070
   147
1040
1.75
1070
    42
1040
1.5875
1070
    44
1040
2.0
1070
   140
1040
3.5
1002
}
1001
ACAD_DSTYLE_DIM_LINETYPE
1070
   380
1005
16
1001
ACAD_DSTYLE_DIM_EXT1_LINETYPE
1070
   381
1005
16
1001
ACAD_DSTYLE_DIM_EXT2_LINETYPE
1070
   382
1005
16
0
DIMENSION
5
152
100
AcDbEntity
8
SK2
62
256
6
ByLayer
370
13
48
1
60
0
100
AcDbDimension
2
_U3
10
76.6243
20
-18.952503
30
0
11
96.583333
21
-18.952503
31
0
70
32
71
1
72
1
41
1
210
0
220
0
230
1
3
Standard
100
AcDbAlignedDimension
13
79
23
0
33
0
14
76.6243
24
-6.15
34
0
50
0
100
AcDbRotatedDimension
1001
ACAD
1000
DSTYLE
1002
{
1070
   371
1070
    13
1070
   372
1070
    13
1070
   170
1070
     0
1070
   144
1040
1.0
1070
   277
1070
     2
1070
   278
1070
    44
1070
   146
1040
1.0
1070
   345
1005
16
1070
   347
1005
16
1070
   346
1005
16
1070
   344
1005
0
1070
   343
1005
0
1070
   172
1070
     1
1070
    76
1070
     0
1070
    75
1070
     0
1070
   282
1070
     0
1070
   281
1070
     0
1070
    71
1070
     0
1070
    74
1070
     0
1070
   279
1070
     0
1070
   173
1070
     1
1070
   340
1005
F1
1070
   271
1070
     2
1070
   272
1070
     2
1070
    77
1070
     1
1070
    73
1070
     1
1070
   171
1070
     3
1070
   274
1070
     4
1070
   177
1070
    35
1070
   176
1070
    35
1070
   178
1070
    35
1070
    48
1040
-0.1
1070
    41
1040
3.5
1070
   147
1040
1.75
1070
    42
1040
1.5875
1070
    44
1040
2.0
1070
   140
1040
3.5
1002
}
1001
ACAD_DSTYLE_DIM_LINETYPE
1070
   380
1005
16
1001
ACAD_DSTYLE_DIM_EXT1_LINETYPE
1070
   381
1005
16
1001
ACAD_DSTYLE_DIM_EXT2_LINETYPE
1070
   382
1005
16
0
DIMENSION
5
16C
100
AcDbEntity
8
SK2
62
256
6
ByLayer
370
13
48
1
60
0
100
AcDbDimension
2
_U4
10
76.6243
20
-25.343428
30
0
11
15.81215
21
-25.343428
31
0
70
32
71
1
72
1
41
1
210
0
220
0
230
1
3
Standard
100
AcDbAlignedDimension
13
-45
23
-7
33
0
14
76.6243
24
-6.15
34
0
50
0
100
AcDbRotatedDimension
1001
ACAD
1000
DSTYLE
1002
{
1070
   371
1070
    13
1070
   372
1070
    13
1070
   170
1070
     0
1070
   144
1040
1.0
1070
   277
1070
     2
1070
   278
1070
    44
1070
   146
1040
1.0
1070
   345
1005
16
1070
   347
1005
16
1070
   346
1005
16
1070
   344
1005
0
1070
   343
1005
0
1070
   172
1070
     1
1070
    76
1070
     0
1070
    75
1070
     0
1070
   282
1070
     0
1070
   281
1070
     0
1070
    71
1070
     0
1070
    74
1070
     0
1070
   279
1070
     0
1070
   173
1070
     1
1070
   340
1005
F1
1070
   271
1070
     2
1070
   272
1070
     2
1070
    77
1070
     1
1070
    73
1070
     1
1070
   171
1070
     3
1070
   274
1070
     4
1070
   177
1070
    35
1070
   176
1070
    35
1070
   178
1070
    35
1070
    48
1040
-0.1
1070
    41
1040
3.5
1070
   147
1040
1.75
1070
    42
1040
1.5875
1070
    44
1040
2.0
1070
   140
1040
3.5
1002
}
1001
ACAD_DSTYLE_DIM_LINETYPE
1070
   380
1005
16
1001
ACAD_DSTYLE_DIM_EXT1_LINETYPE
1070
   381
1005
16
1001
ACAD_DSTYLE_DIM_EXT2_LINETYPE
1070
   382
1005
16
0
ENDSEC
0
SECTION
2
OBJECTS
0
DICTIONARY
5
1f4
330
0
100
AcDbDictionary
280
0
281
1
3
ACAD_GROUP
350
1f5
3
ACAD_MLINESTYLE
350
1f6
0
DICTIONARY
5
1f5
330
0
100
AcDbDictionary
280
0
281
1
0
DICTIONARY
5
1f6
330
0
100
AcDbDictionary
280
0
281
1
3
Standard
350
18
0
MLINESTYLE
5
18
330
1f6
100
AcDbMlineStyle
2
Standard
70
0
3

62
256
51
90
52
90
71
2
49
-0.5
62
256
6
ByLayer
49
0.5
62
256
6
ByLayer
0
RASTERVARIABLES
5
1e2
330

100
AcDbRasterVariables
90
0
70
1
71
1
72
1
0
ENDSEC
0
EOF
