0
SECTION
2
HEADER
9
$ACADVER
1
AC1015
9
$DWGCODEPAGE
3
ANSI_1252
9
$HANDSEED
5
201
9
$ANGBASE
50
0
9
$ANGDIR
70
0
9
$ATTMODE
70
1
9
$AUNITS
70
0
9
$AUPREC
70
0
9
$CECOLOR
62
256
9
$CELTSCALE
40
1
9
$CELTYPE
6
ByLayer
9
$CELWEIGHT
370
18
9
$CLAYER
8
0
9
$CMLJUST
70
0
9
$CMLSCALE
40
1
9
$CMLSTYLE
2
Standard
9
$DIMSTYLE
2
Standard
9
$TEXTSIZE
40
0.2
9
$TEXTSTYLE
7
Standard
9
$LUNITS
70
2
9
$LUPREC
70
4
9
$EXTNAMES
290
1
9
$INSUNITS
70
4
9
$LTSCALE
40
1
9
$LWDISPLAY
290
1
9
$PDMODE
70
0
9
$PDSIZE
40
0
9
$PLINEGEN
70
0
0
ENDSEC
0
SECTION
2
CLASSES
0
CLASS
1
RASTERVARIABLES
2
AcDbRasterVariables
3
ISM
90
0
280
0
281
0
0
ENDSEC
0
SECTION
2
TABLES
0
TABLE
2
VPORT
5
1f7
100
AcDbSymbolTable
0
VPORT
5
1
100
AcDbSymbolTableRecord
100
AcDbViewportTableRecord
2
*Active
70
0
10
0
20
0
11
1
21
1
12
-1
22
1
13
0
23
0
14
0.5
24
0.5
15
10
25
10
16
0
26
0
36
1
17
0
27
0
37
0
0
ENDTAB
0
TABLE
2
LTYPE
5
1f8
100
AcDbSymbolTable
0
LTYPE
5
14
100
AcDbSymbolTableRecord
100
AcDbLinetypeTableRecord
70
0
2
ByBlock
3

72
65
73
0
40
0
0
LTYPE
5
15
100
AcDbSymbolTableRecord
100
AcDbLinetypeTableRecord
70
0
2
ByLayer
3

72
65
73
0
40
0
0
LTYPE
5
16
100
AcDbSymbolTableRecord
100
AcDbLinetypeTableRecord
70
0
2
Continuous
3
Solid line
72
65
73
0
40
0
0
LTYPE
5
6E
100
AcDbSymbolTableRecord
100
AcDbLinetypeTableRecord
70
0
2
CENTER
3
____ _ ____ _ ____ _ ____
72
65
73
4
40
47.5
49
22
74
0
49
-8.5
74
0
49
8.5
74
0
49
-8.5
74
0
0
LTYPE
5
6F
100
AcDbSymbolTableRecord
100
AcDbLinetypeTableRecord
70
0
2
DASHED
3
__ __ __ __ __ __ __ __ __
72
65
73
2
40
25.72
49
12.86
74
0
49
-12.86
74
0
0
ENDTAB
0
TABLE
2
LAYER
5
1f9
100
AcDbSymbolTable
0
LAYER
5
10
100
AcDbSymbolTableRecord
100
AcDbLayerTableRecord
2
0
70
0
62
7
6
Continuous
290
1
370
-3
390
0
0
LAYER
5
71
100
AcDbSymbolTableRecord
100
AcDbLayerTableRecord
2
80
70
0
62
-6
6
Continuous
290
1
370
-3
390
0
0
LAYER
5
73
100
AcDbSymbolTableRecord
100
AcDbLayerTableRecord
2
81
70
0
62
-3
6
Continuous
290
1
370
-3
390
0
0
LAYER
5
75
100
AcDbSymbolTableRecord
100
AcDbLayerTableRecord
2
1
70
0
62
4
6
Continuous
290
1
370
-3
390
0
0
LAYER
5
86
100
AcDbSymbolTableRecord
100
AcDbLayerTableRecord
2
4
70
0
62
-2
6
CENTER
290
1
370
-3
390
0
0
LAYER
5
9D
100
AcDbSymbolTableRecord
100
AcDbLayerTableRecord
2
2
70
0
62
7
6
Continuous
290
1
370
-3
390
0
0
LAYER
5
10C
100
AcDbSymbolTableRecord
100
AcDbLayerTableRecord
2
Defpoints
70
0
62
7
6
Continuous
290
0
370
-3
390
0
0
LAYER
5
1e3
100
AcDbSymbolTableRecord
100
AcDbLayerTableRecord
2
SK1
70
0
62
4
6
Continuous
290
1
370
-3
390
0
0
LAYER
5
1e4
100
AcDbSymbolTableRecord
100
AcDbLayerTableRecord
2
SK4
70
0
62
2
6
CENTER
290
1
370
-3
390
0
0
LAYER
5
1e5
100
AcDbSymbolTableRecord
100
AcDbLayerTableRecord
2
SK2
70
0
62
7
6
Continuous
290
1
370
-3
390
0
0
LAYER
5
1e6
100
AcDbSymbolTableRecord
100
AcDbLayerTableRecord
2
SK6
70
0
62
5
6
Continuous
290
1
370
-3
390
0
0
ENDTAB
0
TABLE
2
STYLE
5
1fa
100
AcDbSymbolTable
0
STYLE
5
11
100
AcDbSymbolTableRecord
100
AcDbTextStyleTableRecord
2
Standard
3
txt
70
0
71
0
40
0
41
1
42
0
50
0
0
STYLE
5
F1
100
AcDbSymbolTableRecord
100
AcDbTextStyleTableRecord
2
iso_b_vert
3
simplex.shx
70
0
71
0
40
0
41
1
42
0
50
0
0
STYLE
5
F2
100
AcDbSymbolTableRecord
100
AcDbTextStyleTableRecord
2
DWGDirectTextStyle
3
simplex
70
0
71
0
40
0
41
1
42
0
50
0
0
ENDTAB
0
TABLE
2
DIMSTYLE
5
1fb
100
AcDbSymbolTable
100
AcDbDimStyleTable
0
DIMSTYLE
105
27
100
AcDbSymbolTableRecord
100
AcDbDimStyleTableRecord
2
Standard
70
0
3
<>
41
0.18
42
0.0625
44
0.18
140
0.18
147
0.09
73
0
74
0
77
1
271
2
275
0
278
52
280
0
340
11
0
ENDTAB
0
TABLE
2
VIEW
5
1fc
100
AcDbSymbolTable
0
ENDTAB
0
TABLE
2
UCS
5
1fd
100
AcDbSymbolTable
0
ENDTAB
0
TABLE
2
APPID
5
1fe
100
AcDbSymbolTable
0
APPID
5
12
100
AcDbSymbolTableRecord
100
AcDbRegAppTableRecord
2
ACAD
70
0
0
APPID
5
108
100
AcDbSymbolTableRecord
100
AcDbRegAppTableRecord
2
ACAD_DSTYLE_DIMBREAK
70
0
0
APPID
5
1A2
100
AcDbSymbolTableRecord
100
AcDbRegAppTableRecord
2
ACAD_DSTYLE_DIM_LINETYPE
70
0
0
APPID
5
1A3
100
AcDbSymbolTableRecord
100
AcDbRegAppTableRecord
2
ACAD_DSTYLE_DIM_EXT1_LINETYPE
70
0
0
APPID
5
1A4
100
AcDbSymbolTableRecord
100
AcDbRegAppTableRecord
2
ACAD_DSTYLE_DIM_EXT2_LINETYPE
70
0
0
APPID
5
1DF
100
AcDbSymbolTableRecord
100
AcDbRegAppTableRecord
2
ACAD_MLEADERVER
70
0
0
ENDTAB
0
TABLE
2
BLOCK_RECORD
5
1ff
100
AcDbSymbolTable
0
BLOCK_RECORD
5
1F
100
AcDbSymbolTableRecord
100
AcDbBlockTableRecord
2
*Model_Space
340
0
70
0
0
BLOCK_RECORD
5
1B
100
AcDbSymbolTableRecord
100
AcDbBlockTableRecord
2
*Paper_Space
340
0
70
0
0
BLOCK_RECORD
5
23
100
AcDbSymbolTableRecord
100
AcDbBlockTableRecord
2
*Paper_Space0
340
0
70
0
0
BLOCK_RECORD
5
10D
100
AcDbSymbolTableRecord
100
AcDbBlockTableRecord
2
*D1
340
0
70
0
0
BLOCK_RECORD
5
119
100
AcDbSymbolTableRecord
100
AcDbBlockTableRecord
2
_U0
340
0
70
0
0
BLOCK_RECORD
5
125
100
AcDbSymbolTableRecord
100
AcDbBlockTableRecord
2
*D3
340
0
70
0
0
BLOCK_RECORD
5
131
100
AcDbSymbolTableRecord
100
AcDbBlockTableRecord
2
_U1
340
0
70
0
0
BLOCK_RECORD
5
13D
100
AcDbSymbolTableRecord
100
AcDbBlockTableRecord
2
*D5
340
0
70
0
0
BLOCK_RECORD
5
149
100
AcDbSymbolTableRecord
100
AcDbBlockTableRecord
2
_U2
340
0
70
0
0
BLOCK_RECORD
5
155
100
AcDbSymbolTableRecord
100
AcDbBlockTableRecord
2
*D7
340
0
70
0
0
BLOCK_RECORD
5
163
100
AcDbSymbolTableRecord
100
AcDbBlockTableRecord
2
_U3
340
0
70
0
0
BLOCK_RECORD
5
16F
100
AcDbSymbolTableRecord
100
AcDbBlockTableRecord
2
*D9
340
0
70
0
0
BLOCK_RECORD
5
17B
100
AcDbSymbolTableRecord
100
AcDbBlockTableRecord
2
_U4
340
0
70
0
0
ENDTAB
0
ENDSEC
0
SECTION
2
BLOCKS
0
BLOCK
5
20
100
AcDbEntity
8
0
100
AcDbBlockBegin
2
*Model_Space
70
0
10
0
20
0
30
0
3
*Model_Space
0
ENDBLK
5
21
100
AcDbEntity
8
0
100
AcDbBlockEnd
0
BLOCK
5
1C
100
AcDbEntity
8
0
100
AcDbBlockBegin
2
*Paper_Space
70
0
10
0
20
0
30
0
3
*Paper_Space
0
ENDBLK
5
1D
100
AcDbEntity
8
0
100
AcDbBlockEnd
0
BLOCK
5
24
100
AcDbEntity
8
0
100
AcDbBlockBegin
2
*Paper_Space0
70
0
10
0
20
0
30
0
3
*Paper_Space0
0
ENDBLK
5
25
100
AcDbEntity
8
0
100
AcDbBlockEnd
0
BLOCK
5
10E
100
AcDbEntity
8
0
100
AcDbBlockBegin
2
*D1
70
1
10
0
20
0
30
0
3
*D1
0
LINE
5
110
100
AcDbEntity
8
0
62
256
6
ByLayer
370
-2
48
1
60
0
100
AcDbLine
10
0
20
-1.5875
30
0
11
0
21
-17.913398
31
0
39
0
210
0
220
0
230
1
0
LINE
5
111
100
AcDbEntity
8
0
62
256
6
ByLayer
370
-2
48
1
60
0
100
AcDbLine
10
70.8104
20
-7.2875
30
0
11
70.8104
21
-17.913398
31
0
39
0
210
0
220
0
230
1
0
LINE
5
112
100
AcDbEntity
8
0
62
256
6
ByLayer
370
-2
48
1
60
0
100
AcDbLine
10
3.5
20
-15.913398
30
0
11
67.3104
21
-15.913398
31
0
39
0
210
0
220
0
230
1
0
SOLID
5
113
100
AcDbEntity
8
0
62
256
6
ByLayer
370
-1
48
1
60
0
100
AcDbTrace
10
3.5
20
-15.330065
30
0
11
3.5
21
-16.496732
31
0
12
0
22
-15.913398
32
0
13
0
23
-15.913398
33
0
39
0
210
0
220
0
230
1
0
SOLID
5
114
100
AcDbEntity
8
0
62
256
6
ByLayer
370
-1
48
1
60
0
100
AcDbTrace
10
67.3104
20
-16.496732
30
0
11
67.3104
21
-15.330065
31
0
12
70.8104
22
-15.913398
32
0
13
70.8104
23
-15.913398
33
0
39
0
210
0
220
0
230
1
0
MTEXT
5
115
100
AcDbEntity
8
0
62
256
6
ByLayer
370
18
48
1
60
0
100
AcDbMText
10
35.4052
20
-8.913398
30
0
210
0
220
0
230
1
1
\A1;70.81
40
3.5
41
0
44
1
50
0
71
5
72
5
7
iso_b_vert
0
POINT
5
116
100
AcDbEntity
8
Defpoints
62
0
6
ByLayer
370
-1
48
1
60
0
100
AcDbPoint
10
0
20
0
30
0
39
0
210
0
220
0
230
1
50
360
0
POINT
5
117
100
AcDbEntity
8
Defpoints
62
0
6
ByLayer
370
-1
48
1
60
0
100
AcDbPoint
10
70.8104
20
-5.7
30
0
39
0
210
0
220
0
230
1
50
360
0
POINT
5
118
100
AcDbEntity
8
Defpoints
62
0
6
ByLayer
370
-1
48
1
60
0
100
AcDbPoint
10
70.8104
20
-15.913398
30
0
39
0
210
0
220
0
230
1
50
360
0
ENDBLK
5
10F
100
AcDbEntity
8
0
100
AcDbBlockEnd
0
BLOCK
5
120
100
AcDbEntity
8
0
100
AcDbBlockBegin
2
_U0
70
0
10
0
20
0
30
0
3
_U0
0
MTEXT
5
11A
100
AcDbEntity
8
2
62
256
6
ByLayer
370
13
48
1
60
0
100
AcDbMText
10
30.705335
20
-14.880765
30
0
210
0
220
0
230
1
1
\W0.7211;70,81
40
3.5
41
0
44
1.084337
50
0
71
7
72
5
7
iso_b_vert
0
LINE
5
11B
100
AcDbEntity
8
2
62
256
6
ByLayer
370
13
48
1
60
0
100
AcDbLine
10
0
20
-1.5875
30
0
11
0
21
-17.913398
31
0
39
0
210
0
220
0
230
1
0
LINE
5
11C
100
AcDbEntity
8
2
62
256
6
ByLayer
370
13
48
1
60
0
100
AcDbLine
10
70.8104
20
-7.2875
30
0
11
70.8104
21
-17.913398
31
0
39
0
210
0
220
0
230
1
0
LINE
5
11D
100
AcDbEntity
8
2
62
256
6
ByLayer
370
13
48
1
60
0
100
AcDbLine
10
0
20
-15.913398
30
0
11
70.8104
21
-15.913398
31
0
39
0
210
0
220
0
230
1
0
SOLID
5
11E
100
AcDbEntity
8
2
62
256
6
ByLayer
370
18
48
1
60
0
100
AcDbTrace
10
0
20
-15.913398
30
0
11
3.499998
21
-15.452615
31
0
12
3.500002
22
-16.374182
32
0
13
3.500002
23
-16.374182
33
0
39
0
210
0
220
0
230
1
0
SOLID
5
11F
100
AcDbEntity
8
2
62
256
6
ByLayer
370
18
48
1
60
0
100
AcDbTrace
10
70.8104
20
-15.913398
30
0
11
67.310402
21
-16.374182
31
0
12
67.310398
22
-15.452615
32
0
13
67.310398
23
-15.452615
33
0
39
0
210
0
220
0
230
1
0
ENDBLK
5
121
100
AcDbEntity
8
0
100
AcDbBlockEnd
0
BLOCK
5
126
100
AcDbEntity
8
0
100
AcDbBlockBegin
2
*D3
70
1
10
0
20
0
30
0
3
*D3
0
LINE
5
128
100
AcDbEntity
8
0
62
256
6
ByLayer
370
-2
48
1
60
0
100
AcDbLine
10
-45
20
-7.5875
30
0
11
-45
21
-36.692985
31
0
39
0
210
0
220
0
230
1
0
LINE
5
129
100
AcDbEntity
8
0
62
256
6
ByLayer
370
-2
48
1
60
0
100
AcDbLine
10
73
20
-1.5875
30
0
11
73
21
-36.692985
31
0
39
0
210
0
220
0
230
1
0
LINE
5
12A
100
AcDbEntity
8
0
62
256
6
ByLayer
370
-2
48
1
60
0
100
AcDbLine
10
-41.5
20
-34.692985
30
0
11
69.5
21
-34.692985
31
0
39
0
210
0
220
0
230
1
0
SOLID
5
12B
100
AcDbEntity
8
0
62
256
6
ByLayer
370
-1
48
1
60
0
100
AcDbTrace
10
-41.5
20
-34.109652
30
0
11
-41.5
21
-35.276319
31
0
12
-45
22
-34.692985
32
0
13
-45
23
-34.692985
33
0
39
0
210
0
220
0
230
1
0
SOLID
5
12C
100
AcDbEntity
8
0
62
256
6
ByLayer
370
-1
48
1
60
0
100
AcDbTrace
10
69.5
20
-35.276319
30
0
11
69.5
21
-34.109652
31
0
12
73
22
-34.692985
32
0
13
73
23
-34.692985
33
0
39
0
210
0
220
0
230
1
0
MTEXT
5
12D
100
AcDbEntity
8
0
62
256
6
ByLayer
370
18
48
1
60
0
100
AcDbMText
10
14
20
-27.692985
30
0
210
0
220
0
230
1
1
\A1;118.00
40
3.5
41
0
44
1
50
0
71
5
72
5
7
iso_b_vert
0
POINT
5
12E
100
AcDbEntity
8
Defpoints
62
0
6
ByLayer
370
-1
48
1
60
0
100
AcDbPoint
10
-45
20
-6
30
0
39
0
210
0
220
0
230
1
50
360
0
POINT
5
12F
100
AcDbEntity
8
Defpoints
62
0
6
ByLayer
370
-1
48
1
60
0
100
AcDbPoint
10
73
20
0
30
0
39
0
210
0
220
0
230
1
50
360
0
POINT
5
130
100
AcDbEntity
8
Defpoints
62
0
6
ByLayer
370
-1
48
1
60
0
100
AcDbPoint
10
73
20
-34.692985
30
0
39
0
210
0
220
0
230
1
50
360
0
ENDBLK
5
127
100
AcDbEntity
8
0
100
AcDbBlockEnd
0
BLOCK
5
138
100
AcDbEntity
8
0
100
AcDbBlockBegin
2
_U1
70
0
10
0
20
0
30
0
3
_U1
0
MTEXT
5
132
100
AcDbEntity
8
SK2
62
256
6
ByLayer
370
13
48
1
60
0
100
AcDbMText
10
8.429835
20
-33.660352
30
0
210
0
220
0
230
1
1
\W0.6440;118,00
40
3.5
41
0
44
1.084337
50
0
71
7
72
5
7
iso_b_vert
0
LINE
5
133
100
AcDbEntity
8
SK2
62
256
6
ByLayer
370
13
48
1
60
0
100
AcDbLine
10
-45
20
-7.5875
30
0
11
-45
21
-36.692985
31
0
39
0
210
0
220
0
230
1
0
LINE
5
134
100
AcDbEntity
8
SK2
62
256
6
ByLayer
370
13
48
1
60
0
100
AcDbLine
10
73
20
-1.5875
30
0
11
73
21
-36.692985
31
0
39
0
210
0
220
0
230
1
0
LINE
5
135
100
AcDbEntity
8
SK2
62
256
6
ByLayer
370
13
48
1
60
0
100
AcDbLine
10
-45
20
-34.692985
30
0
11
73
21
-34.692985
31
0
39
0
210
0
220
0
230
1
0
SOLID
5
136
100
AcDbEntity
8
SK2
62
256
6
ByLayer
370
18
48
1
60
0
100
AcDbTrace
10
-45
20
-34.692985
30
0
11
-41.500002
21
-34.232202
31
0
12
-41.499998
22
-35.153769
32
0
13
-41.499998
23
-35.153769
33
0
39
0
210
0
220
0
230
1
0
SOLID
5
137
100
AcDbEntity
8
SK2
62
256
6
ByLayer
370
18
48
1
60
0
100
AcDbTrace
10
73
20
-34.692985
30
0
11
69.500002
21
-35.153769
31
0
12
69.499998
22
-34.232202
32
0
13
69.499998
23
-34.232202
33
0
39
0
210
0
220
0
230
1
0
ENDBLK
5
139
100
AcDbEntity
8
0
100
AcDbBlockEnd
0
BLOCK
5
13E
100
AcDbEntity
8
0
100
AcDbBlockBegin
2
*D5
70
1
10
0
20
0
30
0
3
*D5
0
LINE
5
140
100
AcDbEntity
8
0
62
256
6
ByLayer
370
-2
48
1
60
0
100
AcDbLine
10
15.45
20
7.2875
30
0
11
15.45
21
19.309119
31
0
39
0
210
0
220
0
230
1
0
LINE
5
141
100
AcDbEntity
8
0
62
256
6
ByLayer
370
-2
48
1
60
0
100
AcDbLine
10
73
20
1.5875
30
0
11
73
21
19.309119
31
0
39
0
210
0
220
0
230
1
0
LINE
5
142
100
AcDbEntity
8
0
62
256
6
ByLayer
370
-2
48
1
60
0
100
AcDbLine
10
18.95
20
17.309119
30
0
11
69.5
21
17.309119
31
0
39
0
210
0
220
0
230
1
0
SOLID
5
143
100
AcDbEntity
8
0
62
256
6
ByLayer
370
-1
48
1
60
0
100
AcDbTrace
10
18.95
20
17.892453
30
0
11
18.95
21
16.725786
31
0
12
15.45
22
17.309119
32
0
13
15.45
23
17.309119
33
0
39
0
210
0
220
0
230
1
0
SOLID
5
144
100
AcDbEntity
8
0
62
256
6
ByLayer
370
-1
48
1
60
0
100
AcDbTrace
10
69.5
20
16.725786
30
0
11
69.5
21
17.892453
31
0
12
73
22
17.309119
32
0
13
73
23
17.309119
33
0
39
0
210
0
220
0
230
1
0
MTEXT
5
145
100
AcDbEntity
8
0
62
256
6
ByLayer
370
18
48
1
60
0
100
AcDbMText
10
44.225
20
24.309119
30
0
210
0
220
0
230
1
1
\A1;57.55
40
3.5
41
0
44
1
50
0
71
5
72
5
7
iso_b_vert
0
POINT
5
146
100
AcDbEntity
8
Defpoints
62
0
6
ByLayer
370
-1
48
1
60
0
100
AcDbPoint
10
15.45
20
5.7
30
0
39
0
210
0
220
0
230
1
50
360
0
POINT
5
147
100
AcDbEntity
8
Defpoints
62
0
6
ByLayer
370
-1
48
1
60
0
100
AcDbPoint
10
73
20
0
30
0
39
0
210
0
220
0
230
1
50
360
0
POINT
5
148
100
AcDbEntity
8
Defpoints
62
0
6
ByLayer
370
-1
48
1
60
0
100
AcDbPoint
10
73
20
17.309119
30
0
39
0
210
0
220
0
230
1
50
360
0
ENDBLK
5
13F
100
AcDbEntity
8
0
100
AcDbBlockEnd
0
BLOCK
5
150
100
AcDbEntity
8
0
100
AcDbBlockBegin
2
_U2
70
0
10
0
20
0
30
0
3
_U2
0
MTEXT
5
14A
100
AcDbEntity
8
SK2
62
256
6
ByLayer
370
13
48
1
60
0
100
AcDbMText
10
39.087701
20
18.341753
30
0
210
0
220
0
230
1
1
\W0.7317;57,55
40
3.5
41
0
44
1.084337
50
0
71
7
72
5
7
iso_b_vert
0
LINE
5
14B
100
AcDbEntity
8
SK2
62
256
6
ByLayer
370
13
48
1
60
0
100
AcDbLine
10
15.45
20
7.2875
30
0
11
15.45
21
19.309119
31
0
39
0
210
0
220
0
230
1
0
LINE
5
14C
100
AcDbEntity
8
SK2
62
256
6
ByLayer
370
13
48
1
60
0
100
AcDbLine
10
73
20
1.5875
30
0
11
73
21
19.309119
31
0
39
0
210
0
220
0
230
1
0
LINE
5
14D
100
AcDbEntity
8
SK2
62
256
6
ByLayer
370
13
48
1
60
0
100
AcDbLine
10
15.45
20
17.309119
30
0
11
73
21
17.309119
31
0
39
0
210
0
220
0
230
1
0
SOLID
5
14E
100
AcDbEntity
8
SK2
62
256
6
ByLayer
370
18
48
1
60
0
100
AcDbTrace
10
15.45
20
17.309119
30
0
11
18.949998
21
17.769903
31
0
12
18.950002
22
16.848335
32
0
13
18.950002
23
16.848335
33
0
39
0
210
0
220
0
230
1
0
SOLID
5
14F
100
AcDbEntity
8
SK2
62
256
6
ByLayer
370
18
48
1
60
0
100
AcDbTrace
10
73
20
17.309119
30
0
11
69.500002
21
16.848335
31
0
12
69.499998
22
17.769903
32
0
13
69.499998
23
17.769903
33
0
39
0
210
0
220
0
230
1
0
ENDBLK
5
151
100
AcDbEntity
8
0
100
AcDbBlockEnd
0
BLOCK
5
156
100
AcDbEntity
8
0
100
AcDbBlockBegin
2
*D7
70
1
10
0
20
0
30
0
3
*D7
0
LINE
5
158
100
AcDbEntity
8
0
62
256
6
ByLayer
370
-2
48
1
60
0
100
AcDbLine
10
73
20
-1.5875
30
0
11
73
21
-20.502503
31
0
39
0
210
0
220
0
230
1
0
LINE
5
159
100
AcDbEntity
8
0
62
256
6
ByLayer
370
-2
48
1
60
0
100
AcDbLine
10
70.8104
20
-7.2875
30
0
11
70.8104
21
-20.502503
31
0
39
0
210
0
220
0
230
1
0
LINE
5
15A
100
AcDbEntity
8
0
62
256
6
ByLayer
370
-2
48
1
60
0
100
AcDbLine
10
73
20
-18.502503
30
0
11
101
21
-18.502503
31
0
39
0
210
0
220
0
230
1
0
LINE
5
15B
100
AcDbEntity
8
0
62
256
6
ByLayer
370
-2
48
1
60
0
100
AcDbLine
10
76.5
20
-18.502503
30
0
11
80
21
-18.502503
31
0
39
0
210
0
220
0
230
1
0
LINE
5
15C
100
AcDbEntity
8
0
62
256
6
ByLayer
370
-2
48
1
60
0
100
AcDbLine
10
67.3104
20
-18.502503
30
0
11
63.8104
21
-18.502503
31
0
39
0
210
0
220
0
230
1
0
SOLID
5
15D
100
AcDbEntity
8
0
62
256
6
ByLayer
370
-1
48
1
60
0
100
AcDbTrace
10
76.5
20
-17.91917
30
0
11
76.5
21
-19.085837
31
0
12
73
22
-18.502503
32
0
13
73
23
-18.502503
33
0
39
0
210
0
220
0
230
1
0
SOLID
5
15E
100
AcDbEntity
8
0
62
256
6
ByLayer
370
-1
48
1
60
0
100
AcDbTrace
10
67.3104
20
-19.085837
30
0
11
67.3104
21
-17.91917
31
0
12
70.8104
22
-18.502503
32
0
13
70.8104
23
-18.502503
33
0
39
0
210
0
220
0
230
1
0
MTEXT
5
15F
100
AcDbEntity
8
0
62
256
6
ByLayer
370
18
48
1
60
0
100
AcDbMText
10
90.5
20
-11.502503
30
0
210
0
220
0
230
1
1
\A1;2.19
40
3.5
41
0
44
1
50
0
71
5
72
5
7
iso_b_vert
0
POINT
5
160
100
AcDbEntity
8
Defpoints
62
0
6
ByLayer
370
-1
48
1
60
0
100
AcDbPoint
10
73
20
0
30
0
39
0
210
0
220
0
230
1
50
360
0
POINT
5
161
100
AcDbEntity
8
Defpoints
62
0
6
ByLayer
370
-1
48
1
60
0
100
AcDbPoint
10
70.8104
20
-5.7
30
0
39
0
210
0
220
0
230
1
50
360
0
POINT
5
162
100
AcDbEntity
8
Defpoints
62
0
6
ByLayer
370
-1
48
1
60
0
100
AcDbPoint
10
70.8104
20
-18.502503
30
0
39
0
210
0
220
0
230
1
50
360
0
ENDBLK
5
157
100
AcDbEntity
8
0
100
AcDbBlockEnd
0
BLOCK
5
16A
100
AcDbEntity
8
0
100
AcDbBlockBegin
2
_U3
70
0
10
0
20
0
30
0
3
_U3
0
MTEXT
5
164
100
AcDbEntity
8
SK2
62
256
6
ByLayer
370
13
48
1
60
0
100
AcDbMText
10
79.589293
20
-17.46987
30
0
210
0
220
0
230
1
1
\W0.6463;2,19
40
3.5
41
0
44
1.084337
50
0
71
7
72
5
7
iso_b_vert
0
LINE
5
165
100
AcDbEntity
8
SK2
62
256
6
ByLayer
370
13
48
1
60
0
100
AcDbLine
10
73
20
-1.5875
30
0
11
73
21
-20.502503
31
0
39
0
210
0
220
0
230
1
0
LINE
5
166
100
AcDbEntity
8
SK2
62
256
6
ByLayer
370
13
48
1
60
0
100
AcDbLine
10
70.8104
20
-7.2875
30
0
11
70.8104
21
-20.502503
31
0
39
0
210
0
220
0
230
1
0
LINE
5
167
100
AcDbEntity
8
SK2
62
256
6
ByLayer
370
13
48
1
60
0
100
AcDbLine
10
62.0604
20
-18.502503
30
0
11
86.559058
21
-18.502503
31
0
39
0
210
0
220
0
230
1
0
SOLID
5
168
100
AcDbEntity
8
SK2
62
256
6
ByLayer
370
18
48
1
60
0
100
AcDbTrace
10
73
20
-18.502503
30
0
11
76.499998
21
-18.041719
31
0
12
76.500002
22
-18.963287
32
0
13
76.500002
23
-18.963287
33
0
39
0
210
0
220
0
230
1
0
SOLID
5
169
100
AcDbEntity
8
SK2
62
256
6
ByLayer
370
18
48
1
60
0
100
AcDbTrace
10
70.8104
20
-18.502503
30
0
11
67.310402
21
-18.963287
31
0
12
67.310398
22
-18.041719
32
0
13
67.310398
23
-18.041719
33
0
39
0
210
0
220
0
230
1
0
ENDBLK
5
16B
100
AcDbEntity
8
0
100
AcDbBlockEnd
0
BLOCK
5
170
100
AcDbEntity
8
0
100
AcDbBlockBegin
2
*D9
70
1
10
0
20
0
30
0
3
*D9
0
LINE
5
172
100
AcDbEntity
8
0
62
256
6
ByLayer
370
-2
48
1
60
0
100
AcDbLine
10
-45
20
-7.5875
30
0
11
-45
21
-26.343428
31
0
39
0
210
0
220
0
230
1
0
LINE
5
173
100
AcDbEntity
8
0
62
256
6
ByLayer
370
-2
48
1
60
0
100
AcDbLine
10
70.8104
20
-7.2875
30
0
11
70.8104
21
-26.343428
31
0
39
0
210
0
220
0
230
1
0
LINE
5
174
100
AcDbEntity
8
0
62
256
6
ByLayer
370
-2
48
1
60
0
100
AcDbLine
10
-41.5
20
-24.343428
30
0
11
67.3104
21
-24.343428
31
0
39
0
210
0
220
0
230
1
0
SOLID
5
175
100
AcDbEntity
8
0
62
256
6
ByLayer
370
-1
48
1
60
0
100
AcDbTrace
10
-41.5
20
-23.760095
30
0
11
-41.5
21
-24.926762
31
0
12
-45
22
-24.343428
32
0
13
-45
23
-24.343428
33
0
39
0
210
0
220
0
230
1
0
SOLID
5
176
100
AcDbEntity
8
0
62
256
6
ByLayer
370
-1
48
1
60
0
100
AcDbTrace
10
67.3104
20
-24.926762
30
0
11
67.3104
21
-23.760095
31
0
12
70.8104
22
-24.343428
32
0
13
70.8104
23
-24.343428
33
0
39
0
210
0
220
0
230
1
0
MTEXT
5
177
100
AcDbEntity
8
0
62
256
6
ByLayer
370
18
48
1
60
0
100
AcDbMText
10
12.9052
20
-17.343428
30
0
210
0
220
0
230
1
1
\A1;115.81
40
3.5
41
0
44
1
50
0
71
5
72
5
7
iso_b_vert
0
POINT
5
178
100
AcDbEntity
8
Defpoints
62
0
6
ByLayer
370
-1
48
1
60
0
100
AcDbPoint
10
-45
20
-6
30
0
39
0
210
0
220
0
230
1
50
360
0
POINT
5
179
100
AcDbEntity
8
Defpoints
62
0
6
ByLayer
370
-1
48
1
60
0
100
AcDbPoint
10
70.8104
20
-5.7
30
0
39
0
210
0
220
0
230
1
50
360
0
POINT
5
17A
100
AcDbEntity
8
Defpoints
62
0
6
ByLayer
370
-1
48
1
60
0
100
AcDbPoint
10
70.8104
20
-24.343428
30
0
39
0
210
0
220
0
230
1
50
360
0
ENDBLK
5
171
100
AcDbEntity
8
0
100
AcDbBlockEnd
0
BLOCK
5
182
100
AcDbEntity
8
0
100
AcDbBlockBegin
2
_U4
70
0
10
0
20
0
30
0
3
_U4
0
MTEXT
5
17C
100
AcDbEntity
8
SK2
62
256
6
ByLayer
370
13
48
1
60
0
100
AcDbMText
10
7.772468
20
-23.310795
30
0
210
0
220
0
230
1
1
\W0.6303;115,81
40
3.5
41
0
44
1.084337
50
0
71
7
72
5
7
iso_b_vert
0
LINE
5
17D
100
AcDbEntity
8
SK2
62
256
6
ByLayer
370
13
48
1
60
0
100
AcDbLine
10
-45
20
-7.5875
30
0
11
-45
21
-26.343428
31
0
39
0
210
0
220
0
230
1
0
LINE
5
17E
100
AcDbEntity
8
SK2
62
256
6
ByLayer
370
13
48
1
60
0
100
AcDbLine
10
70.8104
20
-7.2875
30
0
11
70.8104
21
-26.343428
31
0
39
0
210
0
220
0
230
1
0
LINE
5
17F
100
AcDbEntity
8
SK2
62
256
6
ByLayer
370
13
48
1
60
0
100
AcDbLine
10
-45
20
-24.343428
30
0
11
70.8104
21
-24.343428
31
0
39
0
210
0
220
0
230
1
0
SOLID
5
180
100
AcDbEntity
8
SK2
62
256
6
ByLayer
370
18
48
1
60
0
100
AcDbTrace
10
-45
20
-24.343428
30
0
11
-41.500002
21
-23.882645
31
0
12
-41.499998
22
-24.804212
32
0
13
-41.499998
23
-24.804212
33
0
39
0
210
0
220
0
230
1
0
SOLID
5
181
100
AcDbEntity
8
SK2
62
256
6
ByLayer
370
18
48
1
60
0
100
AcDbTrace
10
70.8104
20
-24.343428
30
0
11
67.310402
21
-24.804212
31
0
12
67.310398
22
-23.882645
32
0
13
67.310398
23
-23.882645
33
0
39
0
210
0
220
0
230
1
0
ENDBLK
5
183
100
AcDbEntity
8
0
100
AcDbBlockEnd
0
ENDSEC
0
SECTION
2
ENTITIES
0
ARC
5
A6
100
AcDbEntity
8
1
62
256
6
ByLayer
370
18
48
1
60
0
100
AcDbCircle
39
0
10
0
20
-5.15
30
0
40
0.850000000000001
210
0
220
0
230
1
100
AcDbArc
50
270
51
311.431653
0
ARC
5
A7
100
AcDbEntity
8
1
62
256
6
ByLayer
370
18
48
1
60
0
100
AcDbCircle
39
0
10
1.124934
20
-6.424568
30
0
40
0.85
210
0
220
0
230
1
100
AcDbArc
50
89.896868
51
131.431653
0
ARC
5
A8
100
AcDbEntity
8
1
62
256
6
ByLayer
370
18
48
1
60
0
100
AcDbCircle
39
0
10
1.124934
20
6.424568
30
0
40
0.85
210
0
220
0
230
1
100
AcDbArc
50
228.568347
51
270.103132
0
ARC
5
A9
100
AcDbEntity
8
1
62
256
6
ByLayer
370
18
48
1
60
0
100
AcDbCircle
39
0
10
0
20
5.15
30
0
40
0.850000000000001
210
0
220
0
230
1
100
AcDbArc
50
48.568347
51
90
0
ELLIPSE
5
AA
100
AcDbEntity
8
1
62
256
6
ByLayer
370
13
48
1
60
0
100
AcDbEllipse
10
4.593924
20
-5.310389
30
0
11
-0.0836978742436022
21
0.288087948111514
31
0
210
0
220
0
230
1
40
0.57052
41
0.453690283878615
42
0.569127927345912
0
ELLIPSE
5
AB
100
AcDbEntity
8
1
62
256
6
ByLayer
370
13
48
1
60
0
100
AcDbEllipse
10
4.939103
20
-5.302987
30
0
11
0.062994848691267
21
0.293311522171163
31
0
210
0
220
0
230
1
40
0.447563
41
0.442832592542407
42
1.43006905262275
0
ELLIPSE
5
AC
100
AcDbEntity
8
1
62
256
6
ByLayer
370
13
48
1
60
0
100
AcDbEllipse
10
15.198527
20
-9.251808
30
0
11
-62.2199214948044
21
40.3301843280337
31
0
210
0
220
0
230
1
40
0.085727
41
-1.51528595467145
42
-1.35748314568368
0
ELLIPSE
5
AD
100
AcDbEntity
8
1
62
256
6
ByLayer
370
13
48
1
60
0
100
AcDbEllipse
10
17.135808
20
-6.263041
30
0
11
-62.2199214948043
21
40.3301843280337
31
0
210
0
220
0
230
1
40
0.085727
41
-1.51528595467145
42
-1.42469812789946
0
ELLIPSE
5
AE
100
AcDbEntity
8
1
62
256
6
ByLayer
370
13
48
1
60
0
100
AcDbEllipse
10
117.194174
20
41.888784
30
0
11
-60.1999999999999
21
7.3721302500107E-15
31
0
210
0
220
0
230
1
40
0.99863
41
0.706033271108872
42
0.732214958804255
0
POINT
5
70
100
AcDbEntity
8
80
62
256
6
ByLayer
370
18
48
1
60
0
100
AcDbPoint
10
0
20
0
30
0
39
0
210
0
220
0
230
1
50
360
0
POINT
5
72
100
AcDbEntity
8
81
62
256
6
ByLayer
370
18
48
1
60
0
100
AcDbPoint
10
73
20
0
30
0
39
0
210
0
220
0
230
1
50
360
0
POINT
5
74
100
AcDbEntity
8
1
62
256
6
ByLayer
370
18
48
1
60
1
100
AcDbPoint
10
70.8104
20
-5.7
30
0
39
0
210
0
220
0
230
1
50
360
0
POINT
5
76
100
AcDbEntity
8
1
62
256
6
ByLayer
370
18
48
1
60
1
100
AcDbPoint
10
-45
20
-6
30
0
39
0
210
0
220
0
230
1
50
360
0
POINT
5
77
100
AcDbEntity
8
1
62
256
6
ByLayer
370
18
48
1
60
1
100
AcDbPoint
10
15.45
20
5.7
30
0
39
0
210
0
220
0
230
1
50
360
0
POINT
5
78
100
AcDbEntity
8
1
62
256
6
ByLayer
370
18
48
1
60
1
100
AcDbPoint
10
70.8104
20
-5.7
30
0
39
0
210
0
220
0
230
1
50
360
0
POINT
5
79
100
AcDbEntity
8
1
62
256
6
ByLayer
370
18
48
1
60
1
100
AcDbPoint
10
-45
20
-6
30
0
39
0
210
0
220
0
230
1
50
360
0
POINT
5
7A
100
AcDbEntity
8
1
62
256
6
ByLayer
370
18
48
1
60
1
100
AcDbPoint
10
70.8104
20
-5.7
30
0
39
0
210
0
220
0
230
1
50
360
0
SPLINE
5
AF
100
AcDbEntity
8
1
62
256
6
ByLayer
370
18
48
1
60
0
100
AcDbSpline
70
4
71
3
72
52
73
48
40
0
40
0
40
0
40
0
40
0.0379810929737345
40
0.0379810929737345
40
0.075962185947469
40
0.075962185947469
40
0.113943278921204
40
0.113943278921204
40
0.151924371894938
40
0.151924371894938
40
0.227886557842407
40
0.227886557842407
40
0.265867650816142
40
0.265867650816142
40
0.303848743789876
40
0.303848743789876
40
0.341829836763611
40
0.341829836763611
40
0.379810929737345
40
0.379810929737345
40
0.41779202271108
40
0.41779202271108
40
0.455773115684814
40
0.455773115684814
40
0.493754208658549
40
0.493754208658549
40
0.531735301632283
40
0.531735301632283
40
0.607697487579752
40
0.607697487579752
40
0.645678580553486
40
0.645678580553486
40
0.68365967352722
40
0.68365967352722
40
0.759621859474689
40
0.759621859474689
40
0.797602952448423
40
0.797602952448423
40
0.835584045422157
40
0.835584045422157
40
0.873565138395892
40
0.873565138395892
40
0.911546231369626
40
0.911546231369626
40
0.987508417317094
40
0.987508417317094
40
1
40
1
40
1
40
1
41
1
10
18.2897998319539
20
2.81238952487001
30
0
41
1
10
18.566586434159
20
2.68267573496749
30
0
41
1
10
18.8425796520587
20
2.55047463719461
30
0
41
1
10
19.393407982697
20
2.28190020109005
30
0
41
1
10
19.6679415064237
20
2.14499213803148
30
0
41
1
10
20.2161687763454
20
1.86758744279854
30
0
41
1
10
20.4900246885833
20
1.72738651340933
30
0
41
1
10
21.037019832205
20
1.44365228806541
30
0
41
1
10
21.3100083866033
20
1.2998393689401
30
0
41
1
10
22.1290572669329
20
0.86551235300243
30
0
41
1
10
22.6748893117049
20
0.57155272262122
30
0
41
1
10
23.4950988797457
20
0.127266068557361
30
0
41
1
10
23.7686512002857
20
-0.0215696014385856
30
0
41
1
10
24.3168511008974
20
-0.319223669896957
30
0
41
1
10
24.5916606582902
20
-0.467725964371311
30
0
41
1
10
25.1424524413139
20
-0.76457500537083
30
0
41
1
10
25.4184455474801
20
-0.91324943545817
30
0
41
1
10
25.9718900420683
20
-1.20849263017325
30
0
41
1
10
26.2482279292644
20
-1.3546810894282
30
0
41
1
10
26.800429696169
20
-1.64369279419105
30
0
41
1
10
27.0762377912215
20
-1.78661358587104
30
0
41
1
10
27.6278231153034
20
-2.06831037219698
30
0
41
1
10
27.9033739888155
20
-2.20747528154172
30
0
41
1
10
28.4550698000168
20
-2.48057292404315
30
0
41
1
10
28.7313236291394
20
-2.61433455733501
30
0
41
1
10
29.2842825123148
20
-2.87687098203122
30
0
41
1
10
29.5609433936135
20
-3.00575180656247
30
0
41
1
10
30.3878615457923
20
-3.3800049431151
30
0
41
1
10
30.9361874357297
20
-3.61489025672924
30
0
41
1
10
31.7565508126489
20
-3.94247894950735
30
0
41
1
10
32.0293988893688
20
-4.04788404175309
30
0
41
1
10
32.5751552826201
20
-4.24944563714584
30
0
41
1
10
32.8481091106749
20
-4.34557689675452
30
0
41
1
10
33.6665744296021
20
-4.62082523291281
30
0
41
1
10
34.2120592220436
20
-4.78626064388331
30
0
41
1
10
35.0332441127551
20
-5.00370594799173
30
0
41
1
10
35.3072854570661
20
-5.07124052609066
30
0
41
1
10
35.8567468566555
20
-5.1956447591173
30
0
41
1
10
36.1318180302743
20
-5.25278059811114
30
0
41
1
10
36.6840140512213
20
-5.35572542861496
30
0
41
1
10
36.9609353075221
20
-5.40150123997987
30
0
41
1
10
37.5129724078542
20
-5.48144957392222
30
0
41
1
10
37.7885082150147
20
-5.5156605322145
30
0
41
1
10
38.6153854019957
20
-5.60036355554237
30
0
41
1
10
39.1661647962853
20
-5.6332587366058
30
0
41
1
10
39.8090545087621
20
-5.64356415212802
30
0
41
1
10
39.8999152431231
20
-5.64436761294601
30
0
41
1
10
39.9907952408429
20
-5.64451973411477
30
0
0
SPLINE
5
B0
100
AcDbEntity
8
1
62
256
6
ByLayer
370
18
48
1
60
0
100
AcDbSpline
70
4
71
3
72
18
73
14
40
0
40
0
40
0
40
0
40
0.0882201352920485
40
0.0882201352920485
40
0.316165101469036
40
0.316165101469036
40
0.544110067646022
40
0.544110067646022
40
0.658082550734516
40
0.658082550734516
40
0.772055033823009
40
0.772055033823009
40
1
40
1
40
1
40
1
41
1
10
63.7761186546093
20
3.78118324443463
30
0
41
1
10
63.9876606383955
20
3.8682579022298
30
0
41
1
10
64.1988852628915
20
3.95290675927086
30
0
41
1
10
64.9549497776122
20
4.24733921051566
30
0
41
1
10
65.4991007117812
20
4.44192842567455
30
0
41
1
10
66.587969917622
20
4.7931899352364
30
0
41
1
10
67.132395528317
20
4.95011486741814
30
0
41
1
10
67.9521271737028
20
5.15406273742985
30
0
41
1
10
68.225836795686
20
5.21686696652387
30
0
41
1
10
68.7741756779861
20
5.33193433251776
30
0
41
1
10
69.048974537862
20
5.38405426644499
30
0
41
1
10
69.8766487538238
20
5.52311230600603
30
0
41
1
10
70.4271365849961
20
5.59263332879721
30
0
41
1
10
70.9774342080455
20
5.63819750708277
30
0
0
SPLINE
5
B1
100
AcDbEntity
8
1
62
256
6
ByLayer
370
13
48
1
60
0
100
AcDbSpline
70
4
71
3
72
32
73
28
40
0
40
0
40
0
40
0
40
0.16520734610157
40
0.16520734610157
40
0.247811019152355
40
0.247811019152355
40
0.289112855677746
40
0.289112855677746
40
0.330414692203138
40
0.330414692203138
40
0.495622038304709
40
0.495622038304709
40
0.578225711355495
40
0.578225711355495
40
0.619527547880887
40
0.619527547880887
40
0.660829384406279
40
0.660829384406279
40
0.826036730507847
40
0.826036730507847
40
0.86733856703324
40
0.86733856703324
40
0.908640403558632
40
0.908640403558632
40
0.991244076609416
40
0.991244076609416
40
1
40
1
40
1
40
1
41
1
10
70.877151280179
20
-5.30856257569582
30
0
41
1
10
69.4987760306993
20
-5.08530934652546
30
0
41
1
10
68.1379926467135
20
-4.72418879667438
30
0
41
1
10
66.0886433375829
20
-4.01318656687783
30
0
41
1
10
65.4041280921034
20
-3.74800621019591
30
0
41
1
10
64.3706435006561
20
-3.31326098740416
30
0
41
1
10
64.0244545894344
20
-3.16187802070314
30
0
41
1
10
63.3361162980382
20
-2.8509447629508
30
0
41
1
10
62.9931972268661
20
-2.69110066374935
30
0
41
1
10
61.2830255994797
20
-1.87335147725093
30
0
41
1
10
59.9285980990431
20
-1.16054392900753
30
0
41
1
10
57.8829279975017
20
-0.0682157765976115
30
0
41
1
10
57.1986969020647
20
0.299788667912509
30
0
41
1
10
56.1642952236069
20
0.849055264625775
30
0
41
1
10
55.8180457787404
20
1.03176269709223
30
0
41
1
10
55.1294554508997
20
1.39091251478919
30
0
41
1
10
54.7861973745116
20
1.5678169846376
30
0
41
1
10
53.0733219684648
20
2.43628997901553
30
0
41
1
10
51.7135873989928
20
3.0785359362884
30
0
41
1
10
49.9980777417364
20
3.76725547379402
30
0
41
1
10
49.6542233906261
20
3.89938481664348
30
0
41
1
10
48.9640378501716
20
4.15080048382316
30
0
41
1
10
48.617605563102
20
4.27000480771747
30
0
41
1
10
47.5841929362941
20
4.60401671626806
30
0
41
1
10
46.8994514784175
20
4.79604594216741
30
0
41
1
10
46.1433659045275
20
4.97202777733338
30
0
41
1
10
46.0709162040892
20
4.98852454855387
30
0
41
1
10
45.9984766559498
20
5.00464966862447
30
0
0
SPLINE
5
B2
100
AcDbEntity
8
1
62
256
6
ByLayer
370
18
48
1
60
0
100
AcDbSpline
70
4
71
3
72
10
73
6
40
0
40
0
40
0
40
0
40
0.964935531159455
40
0.964935531159455
40
1
40
1
40
1
40
1
41
1
10
8.98189999039394
20
-5.44958216305562
30
0
41
1
10
8.33026711585552
20
-5.44736568046107
30
0
41
1
10
7.67665480035546
20
-5.41250106759651
30
0
41
1
10
6.99489581528905
20
-5.34255492858281
30
0
41
1
10
6.97098686214432
20
-5.34005930280824
30
0
41
1
10
6.9470749456907
20
-5.3375207920935
30
0
0
SPLINE
5
B3
100
AcDbEntity
8
1
62
256
6
ByLayer
370
13
48
1
60
0
100
AcDbSpline
70
4
71
3
72
10
73
6
40
0
40
0
40
0
40
0
40
0.482131693903461
40
0.482131693903461
40
1
40
1
40
1
40
1
41
1
10
6.94707494647883
20
-5.33752079217714
30
0
41
1
10
6.62447322376167
20
-5.30327310103101
30
0
41
1
10
6.30133213759137
20
-5.26121975395668
30
0
41
1
10
5.63238920098985
20
-5.1584000761934
30
0
41
1
10
5.2861588671939
20
-5.09642946228684
30
0
41
1
10
4.9397698989583
20
-5.02588649959336
30
0
0
SPLINE
5
B4
100
AcDbEntity
8
1
62
256
6
ByLayer
370
18
48
1
60
0
100
AcDbSpline
70
4
71
1
72
4
73
2
40
0
40
0
40
1
40
1
41
1
10
72.1952083762459
20
-1.12915496336203
30
0
41
1
10
72.2074763785021
20
-1.08773888183683
30
0
0
SPLINE
5
B5
100
AcDbEntity
8
1
62
256
6
ByLayer
370
18
48
1
60
0
100
AcDbSpline
70
4
71
3
72
20
73
16
40
0
40
0
40
0
40
0
40
0.25
40
0.25
40
0.375
40
0.375
40
0.5
40
0.5
40
0.625
40
0.625
40
0.75
40
0.75
40
0.875
40
0.875
40
1
40
1
40
1
40
1
41
1
10
72.2023388877232
20
-1.08254211870675
30
0
41
1
10
72.0951170014944
20
-1.09106590371115
30
0
41
1
10
71.996189476041
20
-1.05640206961917
30
0
41
1
10
71.8574352770658
20
-0.954227293349959
30
0
41
1
10
71.8132786637858
20
-0.91181616845725
30
0
41
1
10
71.7302736514525
20
-0.81410207325456
30
0
41
1
10
71.6911373095342
20
-0.758576624739021
30
0
41
1
10
71.6171227000662
20
-0.635525484261677
30
0
41
1
10
71.5822892419556
20
-0.567933182904909
30
0
41
1
10
71.5179626251534
20
-0.424886239331442
30
0
41
1
10
71.4882439644572
20
-0.349074189838859
30
0
41
1
10
71.4332100683517
20
-0.189725283931324
30
0
41
1
10
71.4078975876672
20
-0.106183594979001
30
0
41
1
10
71.3614171454072
20
0.0681703979173562
30
0
41
1
10
71.3401684076705
20
0.159418122941816
30
0
41
1
10
71.3211696845593
20
0.25303980421964
30
0
0
SPLINE
5
B6
100
AcDbEntity
8
1
62
256
6
ByLayer
370
18
48
1
60
0
100
AcDbSpline
70
4
71
3
72
8
73
4
40
0
40
0
40
0
40
0
40
1
40
1
40
1
40
1
41
1
10
70.9280343053605
20
-5.40706293330425
30
0
41
1
10
70.9187695668878
20
-5.3594570288395
30
0
41
1
10
70.899850146008
20
-5.32883408225635
30
0
41
1
10
70.8771512801741
20
-5.30856257569144
30
0
0
SPLINE
5
B7
100
AcDbEntity
8
1
62
256
6
ByLayer
370
18
48
1
60
0
100
AcDbSpline
70
4
71
3
72
12
73
8
40
0
40
0
40
0
40
0
40
0.270722166762859
40
0.270722166762859
40
0.74831772201029
40
0.74831772201029
40
1
40
1
40
1
40
1
41
1
10
41.6556705802059
20
-5.50780052502401
30
0
41
1
10
41.4596043842408
20
-5.50893578457902
30
0
41
1
10
41.2634909588649
20
-5.50711105193656
30
0
41
1
10
40.7224210778302
20
-5.49385523050685
30
0
41
1
10
40.3775428871727
20
-5.47618906382061
30
0
41
1
10
39.8511321738224
20
-5.43539506024104
30
0
41
1
10
39.6694931757281
20
-5.41879397542502
30
0
41
1
10
39.487829415008
20
-5.39969305920368
30
0
0
SPLINE
5
B8
100
AcDbEntity
8
1
62
256
6
ByLayer
370
13
48
1
60
0
100
AcDbSpline
70
4
71
3
72
44
73
40
40
0
40
0
40
0
40
0
40
0.058455528497436
40
0.058455528497436
40
0.098139608209343
40
0.098139608209343
40
0.13782368792125
40
0.13782368792125
40
0.177507767633157
40
0.177507767633157
40
0.217191847345063
40
0.217191847345063
40
0.375928166192689
40
0.375928166192689
40
0.415612245904595
40
0.415612245904595
40
0.435454285760549
40
0.435454285760549
40
0.455296325616502
40
0.455296325616502
40
0.534664485040314
40
0.534664485040314
40
0.693400803887939
40
0.693400803887939
40
0.713242843743893
40
0.713242843743893
40
0.733084883599847
40
0.733084883599847
40
0.772768963311755
40
0.772768963311755
40
0.852137122735573
40
0.852137122735573
40
0.931505282159391
40
0.931505282159391
40
0.9711893618713
40
0.9711893618713
40
0.991031401727254
40
0.991031401727254
40
1
40
1
40
1
40
1
41
1
10
39.4878294151635
20
-5.39969305922
30
0
41
1
10
38.9800381584782
20
-5.34630168268626
30
0
41
1
10
38.4720534242635
20
-5.27337840326413
30
0
41
1
10
37.6168230469107
20
-5.11899238022318
30
0
41
1
10
37.2704561409632
20
-5.04775760821806
30
0
41
1
10
36.5785870080346
20
-4.88882985279832
30
0
41
1
10
36.2327132331032
20
-4.80109428260823
30
0
41
1
10
35.5404644656493
20
-4.60973285948313
30
0
41
1
10
35.1943165625713
20
-4.50611022289206
30
0
41
1
10
34.5050532593402
20
-4.28519218735249
30
0
41
1
10
34.1613874182211
20
-4.16777774351087
30
0
41
1
10
32.4463616140014
20
-3.54882275937095
30
0
41
1
10
31.08418991195
20
-2.95125419766328
30
0
41
1
10
29.3650219587912
20
-2.12096068678343
30
0
41
1
10
29.0203989914352
20
-1.95068459939463
30
0
41
1
10
28.5015251290965
20
-1.69011093471906
30
0
41
1
10
28.3281172115676
20
-1.60233752124219
30
0
41
1
10
27.9822804714057
20
-1.42602075507699
30
0
41
1
10
27.8096622048359
20
-1.33737858167728
30
0
41
1
10
26.947830772737
20
-0.892213093051964
30
0
41
1
10
26.2622980328446
20
-0.530024456457994
30
0
41
1
10
24.2085333932723
20
0.557433200055158
30
0
41
1
10
22.8432188322302
20
1.28374211712472
30
0
41
1
10
21.2853629084804
20
2.05194888279456
30
0
41
1
10
21.1119339754126
20
2.13663334432314
30
0
41
1
10
20.7660787649331
20
2.30358559678001
30
0
41
1
10
20.5934392717804
20
2.38595960106426
30
0
41
1
10
20.0762517069508
20
2.62960630214354
30
0
41
1
10
19.7324224829867
20
2.78739598478597
30
0
41
1
10
18.7027942352406
20
3.2454143123656
30
0
41
1
10
18.0187157453046
20
3.52986033283602
30
0
41
1
10
16.6496925463763
20
4.04939449578683
30
0
41
1
10
15.9645931342638
20
4.28408778919362
30
0
41
1
10
14.9319423714045
20
4.59299501249228
30
0
41
1
10
14.5868671628541
20
4.68872635256045
30
0
41
1
10
14.0673596095376
20
4.82061595594973
30
0
41
1
10
13.8938117101417
20
4.86264775829358
30
0
41
1
10
13.6425560737632
20
4.92051802316473
30
0
41
1
10
13.5644021800109
20
4.93809998126508
30
0
41
1
10
13.4863042693484
20
4.95524681660132
30
0
0
SPLINE
5
B9
100
AcDbEntity
8
1
62
256
6
ByLayer
370
18
48
1
60
0
100
AcDbSpline
70
4
71
3
72
34
73
30
40
0
40
0
40
0
40
0
40
0.116043169932975
40
0.116043169932975
40
0.174064754899464
40
0.174064754899464
40
0.232086339865953
40
0.232086339865953
40
0.34812950979893
40
0.34812950979893
40
0.406151094765419
40
0.406151094765419
40
0.464172679731908
40
0.464172679731908
40
0.580215849664885
40
0.580215849664885
40
0.638237434631374
40
0.638237434631374
40
0.696259019597863
40
0.696259019597863
40
0.812302189530838
40
0.812302189530838
40
0.870323774497327
40
0.870323774497327
40
0.928345359463815
40
0.928345359463815
40
0.986366944430304
40
0.986366944430304
40
1
40
1
40
1
40
1
41
1
10
70.3954222983885
20
0.597195816456264
30
0
41
1
10
69.8096798770054
20
0.910009580152746
30
0
41
1
10
69.2252327492098
20
1.22020678786586
30
0
41
1
10
68.3460588022344
20
1.67326650194477
30
0
41
1
10
68.0528601452954
20
1.82273659449223
30
0
41
1
10
67.4655248546329
20
2.11733004447561
30
0
41
1
10
67.1713680676957
20
2.26261843250418
30
0
41
1
10
66.2913430368337
20
2.68764786590921
30
0
41
1
10
65.7057767424471
20
2.95879322108502
30
0
41
1
10
64.8269432806517
20
3.34252783167904
30
0
41
1
10
64.5336034571079
20
3.46620822321236
30
0
41
1
10
63.9461867919513
20
3.70551533304962
30
0
41
1
10
63.6520746918161
20
3.82147949687104
30
0
41
1
10
62.7714804988122
20
4.1540602521498
30
0
41
1
10
62.1856793505457
20
4.35625229862515
30
0
41
1
10
61.3066464666648
20
4.62624818369599
30
0
41
1
10
61.0136867592461
20
4.71044250401337
30
0
41
1
10
60.4266363200466
20
4.86672062244284
30
0
41
1
10
60.1322362440194
20
4.93912582047389
30
0
41
1
10
59.2509715040308
20
5.13982113399013
30
0
41
1
10
58.6647436603434
20
5.25040088624741
30
0
41
1
10
57.7852368000569
20
5.37669998075373
30
0
41
1
10
57.4920012739974
20
5.412244354075
30
0
41
1
10
56.9049934922538
20
5.46870489084455
30
0
41
1
10
56.6108137361862
20
5.48934321201369
30
0
41
1
10
56.0227855568727
20
5.51974759887975
30
0
41
1
10
55.7291458454407
20
5.52893355111135
30
0
41
1
10
55.3666837492835
20
5.53172425281301
30
0
41
1
10
55.2977365200975
20
5.53185170446113
30
0
41
1
10
55.2288001575345
20
5.53158947503982
30
0
0
SPLINE
5
BA
100
AcDbEntity
8
1
62
256
6
ByLayer
370
18
48
1
60
0
100
AcDbSpline
70
4
71
3
72
46
73
42
40
0
40
0
40
0
40
0
40
0.024949050349416
40
0.024949050349416
40
0.0762675213836571
40
0.0762675213836571
40
0.127585992417899
40
0.127585992417899
40
0.17890446345214
40
0.17890446345214
40
0.230222934486381
40
0.230222934486381
40
0.281541405520622
40
0.281541405520622
40
0.332859876554863
40
0.332859876554863
40
0.384178347589105
40
0.384178347589105
40
0.435496818623346
40
0.435496818623346
40
0.486815289657587
40
0.486815289657587
40
0.538133760691829
40
0.538133760691829
40
0.58945223172607
40
0.58945223172607
40
0.640770702760311
40
0.640770702760311
40
0.692089173794552
40
0.692089173794552
40
0.743407644828794
40
0.743407644828794
40
0.794726115863035
40
0.794726115863035
40
0.846044586897276
40
0.846044586897276
40
0.897363057931517
40
0.897363057931517
40
0.948681528965759
40
0.948681528965759
40
1
40
1
40
1
40
1
41
1
10
31.2309561521171
20
-3.75790374988574
30
0
41
1
10
31.087726107394
20
-3.81331297345545
30
0
41
1
10
30.9444756856848
20
-3.86766451362806
30
0
41
1
10
30.5066756282507
20
-4.02981889112684
30
0
41
1
10
30.2126156108239
20
-4.13308983216675
30
0
41
1
10
29.6246052605138
20
-4.33113912045508
30
0
41
1
10
29.3305910490695
20
-4.42526870615905
30
0
41
1
10
28.7427722126755
20
-4.60242661591002
30
0
41
1
10
28.4491656699767
20
-4.68483897362157
30
0
41
1
10
27.8608456662136
20
-4.83794736979385
30
0
41
1
10
27.5660836921473
20
-4.9092452501047
30
0
41
1
10
26.9763999174653
20
-5.04062032124745
30
0
41
1
10
26.6824646057702
20
-5.10012946724086
30
0
41
1
10
26.0965584403147
20
-5.20443272241525
30
0
41
1
10
25.8042922387689
20
-5.25028534472617
30
0
41
1
10
25.2203975432295
20
-5.33030874181216
30
0
41
1
10
24.928802548193
20
-5.36425926234122
30
0
41
1
10
24.3467158745772
20
-5.41836957378581
30
0
41
1
10
24.0560186641201
20
-5.43797878636545
30
0
41
1
10
23.4740786503796
20
-5.46591921068111
30
0
41
1
10
23.1832422597841
20
-5.47397611331675
30
0
41
1
10
22.6011360090542
20
-5.47718365296438
30
0
41
1
10
22.310118787282
20
-5.47153100059316
30
0
41
1
10
21.7270019723112
20
-5.446227684631
30
0
41
1
10
21.4350384813229
20
-5.42793616427647
30
0
41
1
10
20.849683356062
20
-5.37892235941069
30
0
41
1
10
20.5565711638138
20
-5.348181706616
30
0
41
1
10
19.9684439808294
20
-5.27108494991887
30
0
41
1
10
19.6728716871752
20
-5.22568528891205
30
0
41
1
10
19.0839571084122
20
-5.12434967263735
30
0
41
1
10
18.7901999049648
20
-5.0678376537555
30
0
41
1
10
18.2036451862252
20
-4.94207149359343
30
0
41
1
10
17.910805450337
20
-4.87240448028464
30
0
41
1
10
17.3253287544074
20
-4.72282263441423
30
0
41
1
10
17.0325216336059
20
-4.64290496109277
30
0
41
1
10
16.4471386570854
20
-4.4711972291129
30
0
41
1
10
16.1545835370003
20
-4.37934859007117
30
0
41
1
10
15.5683397613686
20
-4.18624350590594
30
0
41
1
10
15.2747232303677
20
-4.08505379122505
30
0
41
1
10
14.6870302471879
20
-3.87173487303448
30
0
41
1
10
14.3925498056569
20
-3.75994701928596
30
0
41
1
10
14.0971955696777
20
-3.64356518781628
30
0
0
SPLINE
5
BB
100
AcDbEntity
8
1
62
256
6
ByLayer
370
18
48
1
60
0
100
AcDbSpline
70
4
71
3
72
20
73
16
40
0
40
0
40
0
40
0
40
0.249999999999998
40
0.249999999999998
40
0.374999999999997
40
0.374999999999997
40
0.437499999999998
40
0.437499999999998
40
0.499999999999999
40
0.499999999999999
40
0.749999999999999
40
0.749999999999999
40
0.875
40
0.875
40
1
40
1
40
1
40
1
41
1
10
70.8771512801791
20
-5.30856257569582
30
0
41
1
10
70.7629543784466
20
-5.20657760162698
30
0
41
1
10
70.6619812360374
20
-5.07497230865974
30
0
41
1
10
70.5311227557935
20
-4.83141901165965
30
0
41
1
10
70.4909575064473
20
-4.74249730822501
30
0
41
1
10
70.4362081332725
20
-4.59679848623136
30
0
41
1
10
70.4188834324259
20
-4.54615657991533
30
0
41
1
10
70.3865110179988
20
-4.44192468111353
30
0
41
1
10
70.371406031627
20
-4.38819148024351
30
0
41
1
10
70.301250963808
20
-4.11149342530985
30
0
41
1
10
70.2621598124902
20
-3.86465777429274
30
0
41
1
10
70.2301582268728
20
-3.45456440586349
30
0
41
1
10
70.2239884322456
20
-3.31043843817778
30
0
41
1
10
70.2210930417446
20
-3.01437302105637
30
0
41
1
10
70.2242839466331
20
-2.86196246296331
30
0
41
1
10
70.2320693702018
20
-2.70521565883644
30
0
0
SPLINE
5
BC
100
AcDbEntity
8
1
62
256
6
ByLayer
370
18
48
1
60
0
100
AcDbSpline
70
4
71
3
72
26
73
22
40
0
40
0
40
0
40
0
40
0.153974015742371
40
0.153974015742371
40
0.238576614168133
40
0.238576614168133
40
0.323179212593895
40
0.323179212593895
40
0.407781811019658
40
0.407781811019658
40
0.49238440944542
40
0.49238440944542
40
0.661589606296944
40
0.661589606296944
40
0.746192204722709
40
0.746192204722709
40
0.830794803148473
40
0.830794803148473
40
0.915397401574236
40
0.915397401574236
40
1
40
1
40
1
40
1
41
1
10
70.7875010988299
20
0.421567672395383
30
0
41
1
10
70.8232013077647
20
0.457211534201832
30
0
41
1
10
70.8638164899418
20
0.505277771120632
30
0
41
1
10
70.9332914427179
20
0.600168381420701
30
0
41
1
10
70.9590289374851
20
0.637610432615389
30
0
41
1
10
71.0114515150389
20
0.718776482472663
30
0
41
1
10
71.038262287697
20
0.762666069195518
30
0
41
1
10
71.0926311117281
20
0.857117104266194
30
0
41
1
10
71.1201929607882
20
0.907677109365551
30
0
41
1
10
71.1755020927204
20
1.0157925445416
30
0
41
1
10
71.2030600479684
20
1.07301698414273
30
0
41
1
10
71.2829042498238
20
1.25134035717531
30
0
41
1
10
71.3332353893373
20
1.38002180409092
30
0
41
1
10
71.396340932319
20
1.58970807951405
30
0
41
1
10
71.4150848617314
20
1.66207080388605
30
0
41
1
10
71.4451225395121
20
1.80910219743032
30
0
41
1
10
71.4565473430968
20
1.88415685598125
30
0
41
1
10
71.4692290655543
20
2.03752710377248
30
0
41
1
10
71.4703584643047
20
2.1163988792726
30
0
41
1
10
71.4590590158816
20
2.27238235569212
30
0
41
1
10
71.4467182737249
20
2.34993923282946
30
0
41
1
10
71.4268021855881
20
2.42682767708189
30
0
0
SPLINE
5
BD
100
AcDbEntity
8
1
62
256
6
ByLayer
370
18
48
1
60
0
100
AcDbSpline
70
4
71
3
72
14
73
10
40
0
40
0
40
0
40
0
40
0.25
40
0.25
40
0.5
40
0.5
40
0.75
40
0.75
40
1
40
1
40
1
40
1
41
1
10
11.4984631008203
20
4.88531630658625
30
0
41
1
10
12.0678877478078
20
4.76364803533107
30
0
41
1
10
12.6366919247201
20
4.62916793951729
30
0
41
1
10
13.7726311505473
20
4.3354606655972
30
0
41
1
10
14.339767924539
20
4.17622167895797
30
0
41
1
10
15.4720496376356
20
3.83239237936158
30
0
41
1
10
16.0371953150017
20
3.64780415809341
30
0
41
1
10
17.1652365265751
20
3.25137985150619
30
0
41
1
10
17.728132187867
20
3.03955992759191
30
0
41
1
10
18.2897998319539
20
2.81238952487001
30
0
0
SPLINE
5
BE
100
AcDbEntity
8
1
62
256
6
ByLayer
370
18
48
1
60
0
100
AcDbSpline
70
4
71
3
72
18
73
14
40
0
40
0
40
0
40
0
40
0.249999999999999
40
0.249999999999999
40
0.374999999999999
40
0.374999999999999
40
0.499999999999999
40
0.499999999999999
40
0.749999999999999
40
0.749999999999999
40
0.875
40
0.875
40
1
40
1
40
1
40
1
41
1
10
70.3954222983885
20
0.597195816456235
30
0
41
1
10
70.3370387307654
20
0.315771896359138
30
0
41
1
10
70.2894847905699
20
0.0336335054285826
30
0
41
1
10
70.234413858782
20
-0.390646812275264
30
0
41
1
10
70.2187784587851
20
-0.532253137426238
30
0
41
1
10
70.1931000325458
20
-0.815834737441662
30
0
41
1
10
70.1830308969428
20
-0.958378046994085
30
0
41
1
10
70.1617884363571
20
-1.38253089222494
30
0
41
1
10
70.1595780476571
20
-1.65759534522519
30
0
41
1
10
70.1736000908353
20
-2.05901570683849
30
0
41
1
10
70.1811770706798
20
-2.19095116146971
30
0
41
1
10
70.2021957499015
20
-2.45104150879379
30
0
41
1
10
70.2156828584982
20
-2.57952213802935
30
0
41
1
10
70.2320693702017
20
-2.70521565883644
30
0
0
SPLINE
5
BF
100
AcDbEntity
8
1
62
256
6
ByLayer
370
18
48
1
60
0
100
AcDbSpline
70
4
71
3
72
8
73
4
40
0
40
0
40
0
40
0
40
1
40
1
40
1
40
1
41
1
10
70.9774342080455
20
5.63819750708277
30
0
41
1
10
71.1827247567796
20
5.14468343769821
30
0
41
1
10
71.3934575886309
20
4.63260596853317
30
0
41
1
10
71.6043877435681
20
4.09756651094204
30
0
0
SPLINE
5
C0
100
AcDbEntity
8
1
62
256
6
ByLayer
370
18
48
1
60
0
100
AcDbSpline
70
4
71
3
72
44
73
40
40
0
40
0
40
0
40
0
40
0.015625
40
0.015625
40
0.03125
40
0.03125
40
0.0625
40
0.0625
40
0.125
40
0.125
40
0.1875
40
0.1875
40
0.25
40
0.25
40
0.3125
40
0.3125
40
0.34375
40
0.34375
40
0.375
40
0.375
40
0.5
40
0.5
40
0.53125
40
0.53125
40
0.5625
40
0.5625
40
0.625
40
0.625
40
0.65625
40
0.65625
40
0.6875
40
0.6875
40
0.75
40
0.75
40
0.8125
40
0.8125
40
0.875
40
0.875
40
1
40
1
40
1
40
1
41
1
10
4.44790877069457
20
4.38609396123934
30
0
41
1
10
4.44258303741043
20
4.34940766582665
30
0
41
1
10
4.4391019167721
20
4.31181047121447
30
0
41
1
10
4.43563128400581
20
4.23476780419429
30
0
41
1
10
4.43609602657992
20
4.19530661260822
30
0
41
1
10
4.43616775434197
20
4.07535246357236
30
0
41
1
10
4.43620796578017
20
3.99289584346138
30
0
41
1
10
4.43630773354838
20
3.73822922064841
30
0
41
1
10
4.43634648942307
20
3.55875138147505
30
0
41
1
10
4.43637701915986
20
3.18054117292121
30
0
41
1
10
4.43636874152782
20
2.98155238887682
30
0
41
1
10
4.43631189022577
20
2.56456346658453
30
0
41
1
10
4.43626398339754
20
2.35062141675883
30
0
41
1
10
4.43613845536564
20
1.91225783437378
30
0
41
1
10
4.43606080922629
20
1.68783506580937
30
0
41
1
10
4.43592691592687
20
1.3432572277153
30
0
41
1
10
4.43587936207885
20
1.22707005673942
30
0
41
1
10
4.43577901114742
20
0.991975902274334
30
0
41
1
10
4.43572636360682
20
0.87344661768077
30
0
41
1
10
4.4354553385501
20
0.282307905263536
30
0
41
1
10
4.4352126893387
20
-0.191695382040933
30
0
41
1
10
4.43488971706449
20
-0.78557548179981
30
0
41
1
10
4.43482387045842
20
-0.90471522812652
30
0
41
1
10
4.43469180752911
20
-1.13984696275654
30
0
41
1
10
4.43462540186789
20
-1.25619612580022
30
0
41
1
10
4.4344248706399
20
-1.60166538869885
30
0
41
1
10
4.43428949894422
20
-1.82722148976393
30
0
41
1
10
4.4340819229343
20
-2.15844052999967
30
0
41
1
10
4.43401196111478
20
-2.26765745684781
30
0
41
1
10
4.43386994951715
20
-2.4836716504559
30
0
41
1
10
4.43379764735087
20
-2.59082846767012
30
0
41
1
10
4.43357851052338
20
-2.90575322897405
30
0
41
1
10
4.43343011159672
20
-3.1061972711376
30
0
41
1
10
4.43312277282121
20
-3.48871200727063
30
0
41
1
10
4.43296384896581
20
-3.67078125215909
30
0
41
1
10
4.43262800110446
20
-4.01626497239889
30
0
41
1
10
4.43244985501633
20
-4.18046783989519
30
0
41
1
10
4.43189071168158
20
-4.63101769291353
30
0
41
1
10
4.43148210651532
20
-4.88030589244772
30
0
41
1
10
4.43100575243824
20
-5.0781920125429
30
0
0
SPLINE
5
C1
100
AcDbEntity
8
1
62
256
6
ByLayer
370
18
48
1
60
0
100
AcDbSpline
70
4
71
3
72
8
73
4
40
0
40
0
40
0
40
0
40
1
40
1
40
1
40
1
41
1
10
70.9774342080455
20
-5.63819750708279
30
0
41
1
10
71.1827473079173
20
-5.14462922524746
30
0
41
1
10
71.3934816594488
20
-4.63254491117823
30
0
41
1
10
71.6043877435681
20
-4.09756651094213
30
0
0
SPLINE
5
C2
100
AcDbEntity
8
1
62
256
6
ByLayer
370
18
48
1
60
0
100
AcDbSpline
70
4
71
3
72
8
73
4
40
0
40
0
40
0
40
0
40
1
40
1
40
1
40
1
41
1
10
72.9996289010321
20
0.122849707391424
30
0
41
1
10
72.7987428919653
20
0.639307885854805
30
0
41
1
10
72.6077246704762
20
1.16508414572076
30
0
41
1
10
72.4237055154639
20
1.69912294032719
30
0
0
SPLINE
5
C3
100
AcDbEntity
8
1
62
256
6
ByLayer
370
18
48
1
60
0
100
AcDbSpline
70
4
71
3
72
8
73
4
40
0
40
0
40
0
40
0
40
1
40
1
40
1
40
1
41
1
10
5.38718268606166
20
3.95551385699548
30
0
41
1
10
5.32025828894862
20
4.01218855419958
30
0
41
1
10
5.2537131808312
20
4.06934114057466
30
0
41
1
10
5.18754866481217
20
4.12697345323693
30
0
0
SPLINE
5
C4
100
AcDbEntity
8
1
62
256
6
ByLayer
370
13
48
1
60
0
100
AcDbSpline
70
4
71
3
72
23
73
19
40
0
40
0
40
0
40
0
40
0.0208825543906733
40
0.0621664260144822
40
0.144734169262099
40
0.186018040885908
40
0.227301912509717
40
0.309869655757333
40
0.351153527381142
40
0.392437399004951
40
0.475005142252569
40
0.516289013876377
40
0.557572885500185
40
0.640140628747803
40
0.722708371995421
40
0.805276115243037
40
0.970411601738273
40
1
40
1
40
1
40
1
41
1
10
71.426802185588
20
2.42682767708189
30
0
41
1
10
71.3981569948813
20
2.42664299891081
30
0
41
1
10
71.3128790191629
20
2.42600312984035
30
0
41
1
10
71.1142928265718
20
2.42382016727933
30
0
41
1
10
70.887730975648
20
2.4200616941244
30
0
41
1
10
70.6611838058778
20
2.41503402480831
30
0
41
1
10
70.4346048884503
20
2.40906239268492
30
0
41
1
10
70.2080431568877
20
2.40182904579564
30
0
41
1
10
69.9814965184603
20
2.39333377496902
30
0
41
1
10
69.7549179936506
20
2.38391185314146
30
0
41
1
10
69.5283565632504
20
2.37323751922693
30
0
41
1
10
69.3018099542124
20
2.36131182286039
30
0
41
1
10
69.075230918794
20
2.34847916650335
30
0
41
1
10
68.7920056555008
20
2.33085334871109
30
0
41
1
10
68.4521579537519
20
2.30722041354056
30
0
41
1
10
67.9989652958056
20
2.2723108107129
30
0
41
1
10
67.6185584339082
20
2.23899008286995
30
0
41
1
10
67.3514595535719
20
2.21340077545486
30
0
41
1
10
67.3108708771109
20
2.20945854304711
30
0
0
SPLINE
5
C5
100
AcDbEntity
8
1
62
256
6
ByLayer
370
13
48
1
60
0
100
AcDbSpline
70
4
71
3
72
26
73
22
40
0
40
0
40
0
40
0
40
0.097451661272927
40
0.125656296858148
40
0.153860932443368
40
0.210270203613811
40
0.238474839199032
40
0.266679474784253
40
0.323088745954695
40
0.379498017125137
40
0.43590728829558
40
0.520521195051242
40
0.548725830636464
40
0.605135101806905
40
0.661544372977347
40
0.774362915318231
40
0.802567550903452
40
0.830772186488674
40
0.887181457659116
40
0.943590728829558
40
1
40
1
40
1
40
1
41
1
10
23.1603127839579
20
-0.042110698107706
30
0
41
1
10
22.9646040848701
20
0.0037785130717509
30
0
41
1
10
22.7122853598119
20
0.0630875887662512
30
0
41
1
10
22.4033711900649
20
0.135769436688435
30
0
41
1
10
22.1767929038293
20
0.188770920180872
30
0
41
1
10
21.9502314223494
20
0.241741679478423
30
0
41
1
10
21.7236846726571
20
0.294643855819516
30
0
41
1
10
21.4971057674928
20
0.347308032676324
30
0
41
1
10
21.2138810664644
20
0.412912368850215
30
0
41
1
10
20.8740338539548
20
0.491293549207995
30
0
41
1
10
20.4775205808688
20
0.581989972903159
30
0
41
1
10
20.1377046932438
20
0.659162260956066
30
0
41
1
10
19.7978839249749
20
0.735606360323857
30
0
41
1
10
19.5146575219011
20
0.798646926191878
30
0
41
1
10
19.0614656088156
20
0.898208773659945
30
0
41
1
10
18.6650139944718
20
0.98404648230408
30
0
41
1
10
18.3252468213948
20
1.05646947070503
30
0
41
1
10
18.0986681679098
20
1.1040791981361
30
0
41
1
10
17.8154433857644
20
1.16285551590207
30
0
41
1
10
17.4755991634485
20
1.23224278649965
30
0
41
1
10
17.2490731033425
20
1.27776156145259
30
0
41
1
10
17.1358081478572
20
1.30029038183852
30
0
0
SPLINE
5
C6
100
AcDbEntity
8
1
62
256
6
ByLayer
370
18
48
1
60
0
100
AcDbSpline
70
4
71
3
72
8
73
4
40
0
40
0
40
0
40
0
40
1
40
1
40
1
40
1
41
1
10
4.43100575244088
20
-5.07819201254071
30
0
41
1
10
4.43099329493234
20
-5.08336708744542
30
0
41
1
10
4.43235244500397
20
-5.08844735148955
30
0
41
1
10
4.43484570509492
20
-5.09344490635101
30
0
0
SPLINE
5
C7
100
AcDbEntity
8
1
62
256
6
ByLayer
370
18
48
1
60
0
100
AcDbSpline
70
4
71
3
72
8
73
4
40
0
40
0
40
0
40
0
40
1
40
1
40
1
40
1
41
1
10
70.9063182931037
20
-5.52396118198971
30
0
41
1
10
70.9172192981897
20
-5.48026680942328
30
0
41
1
10
70.9245468783695
20
-5.43998312744009
30
0
41
1
10
70.9280343053648
20
-5.40706293326465
30
0
0
SPLINE
5
C8
100
AcDbEntity
8
1
62
256
6
ByLayer
370
18
48
1
60
0
100
AcDbSpline
70
4
71
3
72
14
73
10
40
0
40
0
40
0
40
0
40
0.25
40
0.25
40
0.5
40
0.5
40
0.75
40
0.75
40
1
40
1
40
1
40
1
41
1
10
15.1985266074172
20
-1.6884761553807
30
0
41
1
10
15.3148931811593
20
-1.48190156130391
30
0
41
1
10
15.4636794735049
20
-1.23028158082894
30
0
41
1
10
15.7974705234807
20
-0.685353211862548
30
0
41
1
10
15.9822590616235
20
-0.392397811063631
30
0
41
1
10
16.3520756936509
20
0.178141654490474
30
0
41
1
10
16.5368642317937
20
0.455356141479314
30
0
41
1
10
16.8706552817695
20
0.940348824012858
30
0
41
1
10
17.0194415741151
20
1.14781285634342
30
0
41
1
10
17.1358081478572
20
1.30029038183852
30
0
0
SPLINE
5
C9
100
AcDbEntity
8
1
62
256
6
ByLayer
370
18
48
1
60
0
100
AcDbSpline
70
4
71
3
72
76
73
72
40
0
40
0
40
0
40
0
40
0.0057168875962797
40
0.0057168875962797
40
0.0264311191046892
40
0.0264311191046892
40
0.0471453506130988
40
0.0471453506130988
40
0.0885738136299189
40
0.0885738136299189
40
0.109288045138329
40
0.109288045138329
40
0.130002276646738
40
0.130002276646738
40
0.150716508155148
40
0.150716508155148
40
0.171430739663557
40
0.171430739663557
40
0.212859202680377
40
0.212859202680377
40
0.233573434188787
40
0.233573434188787
40
0.254287665697197
40
0.254287665697197
40
0.295716128714018
40
0.295716128714018
40
0.316430360222428
40
0.316430360222428
40
0.337144591730838
40
0.337144591730838
40
0.378573054747659
40
0.378573054747659
40
0.39928728625607
40
0.39928728625607
40
0.420001517764481
40
0.420001517764481
40
0.440715749272891
40
0.440715749272891
40
0.461429980781302
40
0.461429980781302
40
0.502858443798124
40
0.502858443798124
40
0.523572675306535
40
0.523572675306535
40
0.544286906814947
40
0.544286906814947
40
0.58571536983177
40
0.58571536983177
40
0.668572295865415
40
0.668572295865415
40
0.689286527373827
40
0.689286527373827
40
0.710000758882239
40
0.710000758882239
40
0.751429221899062
40
0.751429221899062
40
0.772143453407474
40
0.772143453407474
40
0.792857684915885
40
0.792857684915885
40
0.834286147932709
40
0.834286147932709
40
0.875714610949532
40
0.875714610949532
40
0.917143073966355
40
0.917143073966355
40
0.937857305474766
40
0.937857305474766
40
0.958571536983178
40
0.958571536983178
40
1
40
1
40
1
40
1
41
1
10
31.2562308696391
20
3.74178410280936
30
0
41
1
10
31.3317570577769
20
3.77254433199951
30
0
41
1
10
31.4072522142382
20
3.80299546539672
30
0
41
1
10
31.756167217554
20
3.94232960570042
30
0
41
1
10
32.0290080580899
20
4.04773525963856
30
0
41
1
10
32.5747488358841
20
4.24929995790961
30
0
41
1
10
32.8476947807061
20
4.34543307787604
30
0
41
1
10
33.6661370859726
20
4.62068710568073
30
0
41
1
10
34.2116055272919
20
4.78612857357109
30
0
41
1
10
35.0327652886708
20
5.00358511748482
30
0
41
1
10
35.3067984175199
20
5.07112361364284
30
0
41
1
10
35.8562423388846
20
5.1955371598759
30
0
41
1
10
36.1313051834022
20
5.25267769637242
30
0
41
1
10
36.6834829545192
20
5.35563369620846
30
0
41
1
10
36.9603970282212
20
5.40141580401416
30
0
41
1
10
37.5124196020269
20
5.48137697958208
30
0
41
1
10
37.7879476644102
20
5.5155949501958
30
0
41
1
10
38.6148011502574
20
5.60032000269652
30
0
41
1
10
39.1655650621116
20
5.63323119188297
30
0
41
1
10
39.9936892084937
20
5.64653276628488
30
0
41
1
10
40.2703851529471
20
5.64494040862874
30
0
41
1
10
40.8221929765742
20
5.62973388691748
30
0
41
1
10
41.0972935546353
20
5.61615156457782
30
0
41
1
10
41.9205309823326
20
5.55774209931749
30
0
41
1
10
42.4670611126666
20
5.4953668795371
30
0
41
1
10
43.2855311470403
20
5.36814812046245
30
0
41
1
10
43.5580651254779
20
5.32008485543568
30
0
41
1
10
44.1032749537268
20
5.21311806904191
30
0
41
1
10
44.3754875107845
20
5.15387610944086
30
0
41
1
10
45.1935619983039
20
4.96076272295099
30
0
41
1
10
45.7398619760375
20
4.81086046861904
30
0
41
1
10
46.5621908396661
20
4.55510640560053
30
0
41
1
10
46.8368645072487
20
4.46478384009853
30
0
41
1
10
47.3877820394881
20
4.27435839371952
30
0
41
1
10
47.6643155672972
20
4.17397531116166
30
0
41
1
10
48.216332817661
20
3.96512895776331
30
0
41
1
10
48.4916140977941
20
3.85598355840176
30
0
41
1
10
49.0425541540347
20
3.63072672071627
30
0
41
1
10
49.3179769158822
20
3.51431700873215
30
0
41
1
10
50.1441014864305
20
3.15375399996961
30
0
41
1
10
50.6951812504245
20
2.89836157521208
30
0
41
1
10
51.5237528854315
20
2.49775504763662
30
0
41
1
10
51.7990109083111
20
2.36169353361819
30
0
41
1
10
52.3482380576352
20
2.0855605831722
30
0
41
1
10
52.6218769568687
20
1.94489874166251
30
0
41
1
10
53.442389522946
20
1.51966177588801
30
0
41
1
10
53.9876016391834
20
1.22959598089085
30
0
41
1
10
55.6218744934147
20
0.347087089474598
30
0
41
1
10
56.7097738687832
20
-0.257336276699817
30
0
41
1
10
58.0841892903299
20
-1.00230834786154
30
0
41
1
10
58.3600716096495
20
-1.15111387613658
30
0
41
1
10
58.9120189367943
20
-1.44602458419342
30
0
41
1
10
59.1875154401591
20
-1.59202227537412
30
0
41
1
10
60.0136805022157
20
-2.02372790444974
30
0
41
1
10
60.5635014874272
20
-2.30407412975578
30
0
41
1
10
61.3892160212133
20
-2.70924437531721
30
0
41
1
10
61.6647487510825
20
-2.84153216744869
30
0
41
1
10
62.2164838825686
20
-3.10041390894091
30
0
41
1
10
62.4923116022041
20
-3.22668393643394
30
0
41
1
10
63.3166413684943
20
-3.59331821121549
30
0
41
1
10
63.8634517958503
20
-3.82225803812671
30
0
41
1
10
64.9536277270009
20
-4.24684595904824
30
0
41
1
10
65.4977603140374
20
-4.44146387170983
30
0
41
1
10
66.5865967803325
20
-4.79277904195362
30
0
41
1
10
67.1310048035172
20
-4.94973316763401
30
0
41
1
10
67.9507092708789
20
-5.15372774153761
30
0
41
1
10
68.2244082447322
20
-5.21654913748296
30
0
41
1
10
68.772729874698
20
-5.33164889203573
30
0
41
1
10
69.0475160924087
20
-5.38378833008483
30
0
41
1
10
69.8751559315235
20
-5.52290313357275
30
0
41
1
10
70.4261120852399
20
-5.59254850108292
30
0
41
1
10
70.9774342080455
20
-5.63819750708277
30
0
0
SPLINE
5
CA
100
AcDbEntity
8
1
62
256
6
ByLayer
370
18
48
1
60
0
100
AcDbSpline
70
4
71
3
72
8
73
4
40
0
40
0
40
0
40
0
40
1
40
1
40
1
40
1
41
1
10
70.9774342080455
20
-5.63819750708279
30
0
41
1
10
70.9510502207329
20
-5.60989087085545
30
0
41
1
10
70.9273410633236
20
-5.57171151640441
30
0
41
1
10
70.9063182931037
20
-5.52396118198968
30
0
0
SPLINE
5
CB
100
AcDbEntity
8
1
62
256
6
ByLayer
370
13
48
1
60
0
100
AcDbSpline
70
4
71
3
72
10
73
6
40
0
40
0
40
0
40
0
40
0.5
40
0.5
40
1
40
1
40
1
40
1
41
1
10
4.4466563415873
20
-5.07237378216925
30
0
41
1
10
4.5227702680902
20
-5.04464631997544
30
0
41
1
10
4.60421239663742
20
-5.02680865927132
30
0
41
1
10
4.76952117173951
20
-5.01145476485945
30
0
41
1
10
4.85387163157401
20
-5.01358823662417
30
0
41
1
10
4.93976989895828
20
-5.02588649959336
30
0
0
SPLINE
5
CC
100
AcDbEntity
8
1
62
256
6
ByLayer
370
18
48
1
60
0
100
AcDbSpline
70
4
71
3
72
8
73
4
40
0
40
0
40
0
40
0
40
1
40
1
40
1
40
1
41
1
10
72.4237055154597
20
-1.6991229403391
30
0
41
1
10
72.1484703110242
20
-2.49787824817744
30
0
41
1
10
71.8753605135011
20
-3.2973581178627
30
0
41
1
10
71.6043877435681
20
-4.0975665109421
30
0
0
SPLINE
5
CD
100
AcDbEntity
8
1
62
256
6
ByLayer
370
13
48
1
60
0
100
AcDbSpline
70
4
71
3
72
8
73
4
40
0
40
0
40
0
40
0
40
1
40
1
40
1
40
1
41
1
10
4.43100575244802
20
-5.07819201253798
30
0
41
1
10
4.43617933887708
20
-5.07622968757681
30
0
41
1
10
4.44139592617489
20
-5.07429009336448
30
0
41
1
10
4.4466563415873
20
-5.07237378216925
30
0
0
SPLINE
5
CE
100
AcDbEntity
8
1
62
256
6
ByLayer
370
18
48
1
60
0
100
AcDbSpline
70
4
71
3
72
14
73
10
40
0
40
0
40
0
40
0
40
0.35260918375778
40
0.35260918375778
40
0.52891377563667
40
0.52891377563667
40
0.705218367515561
40
0.705218367515561
40
1
40
1
40
1
40
1
41
1
10
4.81796124357913
20
-5.23393058689888
30
0
41
1
10
5.50959299720924
20
-5.36463770894807
30
0
41
1
10
6.20031596940021
20
-5.4601690952783
30
0
41
1
10
7.23648541202624
20
-5.54795791120233
30
0
41
1
10
7.58240112697459
20
-5.56799530655854
30
0
41
1
10
8.27285093915646
20
-5.58934688221626
30
0
41
1
10
8.61753691967681
20
-5.59070250508705
30
0
41
1
10
9.53811053861793
20
-5.56949438801757
30
0
41
1
10
10.1138152601076
20
-5.53025197693074
30
0
41
1
10
10.6909496707124
20
-5.46528426112107
30
0
0
SPLINE
5
CF
100
AcDbEntity
8
1
62
256
6
ByLayer
370
18
48
1
60
0
100
AcDbSpline
70
4
71
3
72
50
73
46
40
0
40
0
40
0
40
0
40
0.0349459706021288
40
0.0349459706021288
40
0.0694121859377672
40
0.0694121859377672
40
0.103878401273406
40
0.103878401273406
40
0.172810831944683
40
0.172810831944683
40
0.241743262615961
40
0.241743262615961
40
0.310675693287238
40
0.310675693287238
40
0.345141908622877
40
0.345141908622877
40
0.379608123958515
40
0.379608123958515
40
0.448540554629791
40
0.448540554629791
40
0.517472985301068
40
0.517472985301068
40
0.551939200636706
40
0.551939200636706
40
0.586405415972344
40
0.586405415972344
40
0.65533784664362
40
0.65533784664362
40
0.689804061979258
40
0.689804061979258
40
0.724270277314896
40
0.724270277314896
40
0.793202707986171
40
0.793202707986171
40
0.827668923321809
40
0.827668923321809
40
0.862135138657447
40
0.862135138657447
40
0.896601353993086
40
0.896601353993086
40
0.931067569328724
40
0.931067569328724
40
0.965533784664362
40
0.965533784664362
40
1
40
1
40
1
40
1
41
1
10
40.9862597330527
20
5.64631019273077
30
0
41
1
10
41.3350112605838
20
5.64693037284695
30
0
41
1
10
41.683452674816
20
5.63792879568445
30
0
41
1
10
42.3756309256558
20
5.60101955041566
30
0
41
1
10
42.7194247437589
20
5.5733851972455
30
0
41
1
10
43.4078884007722
20
5.49958178214732
30
0
41
1
10
43.7529376204832
20
5.45333725276046
30
0
41
1
10
44.7856836782303
20
5.28797070171902
30
0
41
1
10
45.4721214180569
20
5.14207918421417
30
0
41
1
10
46.8472942264088
20
4.78375650776846
30
0
41
1
10
47.5373248996564
20
4.57065159612406
30
0
41
1
10
48.9122644284138
20
4.0881114270492
30
0
41
1
10
49.5985219006684
20
3.81842876165069
30
0
41
1
10
50.6307308124718
20
3.37718161162476
30
0
41
1
10
50.975691607681
20
3.22397452105582
30
0
41
1
10
51.6637691012311
20
2.90784045449254
30
0
41
1
10
52.0072638343478
20
2.74478256205359
30
0
41
1
10
53.0375090048101
20
2.2428989396185
30
0
41
1
10
53.7242368356833
20
1.89131329131513
30
0
41
1
10
55.102238212868
20
1.16453724211942
30
0
41
1
10
55.7885611093675
20
0.79229494302038
30
0
41
1
10
56.818577673288
20
0.228928690802206
30
0
41
1
10
57.1620478016201
20
0.0403841085181966
30
0
41
1
10
57.8499500761274
20
-0.3369424713174
30
0
41
1
10
58.1946453464882
20
-0.525832582472304
30
0
41
1
10
59.2260867585509
20
-1.08766015394369
30
0
41
1
10
59.9118046204495
20
-1.45669212116073
30
0
41
1
10
60.9422785646596
20
-1.99348281019175
30
0
41
1
10
61.2862891731877
20
-2.1697133577166
30
0
41
1
10
61.9747810058739
20
-2.51493270547917
30
0
41
1
10
62.3183429862383
20
-2.68340005823254
30
0
41
1
10
63.3482756296161
20
-3.17436512485793
30
0
41
1
10
64.0338540444633
20
-3.48249073762435
30
0
41
1
10
65.0653307919628
20
-3.90879203829019
30
0
41
1
10
65.4098038675922
20
-4.04495134754427
30
0
41
1
10
66.0971488470885
20
-4.30294146043374
30
0
41
1
10
66.4404450428949
20
-4.42493838286231
30
0
41
1
10
67.1271075424826
20
-4.65400054525608
30
0
41
1
10
67.4705083590376
20
-4.7610310657862
30
0
41
1
10
68.1581377814115
20
-4.95932365454186
30
0
41
1
10
68.5025158551252
20
-5.05059070989401
30
0
41
1
10
69.1897760049435
20
-5.21574125942573
30
0
41
1
10
69.5330398295983
20
-5.28975166350517
30
0
41
1
10
70.2195269868445
20
-5.42018193983756
30
0
41
1
10
70.562494335381
20
-5.47671656143771
30
0
41
1
10
70.9063182931037
20
-5.52396118198968
30
0
0
SPLINE
5
D0
100
AcDbEntity
8
1
62
256
6
ByLayer
370
18
48
1
60
0
100
AcDbSpline
70
4
71
1
72
4
73
2
40
0
40
0
40
1
40
1
41
1
10
70.9280343053572
20
-5.40706293330311
30
0
41
1
10
72.1952083762512
20
-1.12915496336362
30
0
0
SPLINE
5
D1
100
AcDbEntity
8
1
62
256
6
ByLayer
370
13
48
1
60
0
100
AcDbSpline
70
4
71
3
72
47
73
43
40
0
40
0
40
0
40
0
40
0.0094008208853429
40
0.0361737716722252
40
0.062946722459108
40
0.0897196732459908
40
0.129879099426314
40
0.143265574819756
40
0.170038525606639
40
0.196811476393521
40
0.250357377967287
40
0.263743853360728
40
0.277130328754169
40
0.303903279541052
40
0.317289754934493
40
0.330676230327934
40
0.357449181114817
40
0.3842221319017
40
0.410995082688582
40
0.451154508868906
40
0.464540984262348
40
0.49131393504923
40
0.518086885836113
40
0.571632787409878
40
0.585019262803319
40
0.59840573819676
40
0.625178688983643
40
0.638565164377084
40
0.651951639770526
40
0.678724590557408
40
0.705497541344291
40
0.732270492131173
40
0.772429918311497
40
0.785816393704939
40
0.812589344491821
40
0.839362295278704
40
0.892908196852469
40
0.906294672245911
40
0.919681147639352
40
0.946454098426235
40
0.973227049213117
40
1
40
1
40
1
40
1
41
1
10
27.892094563715
20
-2.21102487467178
30
0
41
1
10
27.8523194595932
20
-2.21487352449378
30
0
41
1
10
27.6992727323767
20
-2.22948714888253
30
0
41
1
10
27.4329538639188
20
-2.25364505988725
30
0
41
1
10
27.0931134818257
20
-2.28207480069224
30
0
41
1
10
26.6966578689356
20
-2.31231422820687
30
0
41
1
10
26.3567861637019
20
-2.33519994316481
30
0
41
1
10
26.0169193255483
20
-2.35557401040955
30
0
41
1
10
25.7337393493582
20
-2.37088339174031
30
0
41
1
10
25.280681042765
20
-2.3918759175665
30
0
41
1
10
24.8841638384445
20
-2.40592406705409
30
0
41
1
10
24.5442435493235
20
-2.4148532744598
30
0
41
1
10
24.3176970032648
20
-2.41977800799981
30
0
41
1
10
24.091133752876
20
-2.42344116866843
30
0
41
1
10
23.8645557911108
20
-2.42584700139776
30
0
41
1
10
23.6380099516066
20
-2.42728679399198
30
0
41
1
10
23.3548286512794
20
-2.42744876286849
30
0
41
1
10
23.0149884334377
20
-2.42509541900742
30
0
41
1
10
22.6185328645928
20
-2.41919674856211
30
0
41
1
10
22.2786611570405
20
-2.41103075829213
30
0
41
1
10
21.938794418686
20
-2.40028489055282
30
0
41
1
10
21.6556146974129
20
-2.38957278569237
30
0
41
1
10
21.2025570011613
20
-2.36886482890154
30
0
41
1
10
20.8060402392248
20
-2.34656108908547
30
0
41
1
10
20.4661198051678
20
-2.32447755441271
30
0
41
1
10
20.2395730803824
20
-2.30867172820607
30
0
41
1
10
20.0130095625057
20
-2.29167785202299
30
0
41
1
10
19.7864313230042
20
-2.2735169396291
30
0
41
1
10
19.5598852168758
20
-2.25440572600465
30
0
41
1
10
19.2767036532167
20
-2.22899237543336
30
0
41
1
10
18.9368633636
20
-2.19619404206628
30
0
41
1
10
18.5404078668004
20
-2.15503904491339
30
0
41
1
10
18.2005362735227
20
-2.11705331603093
30
0
41
1
10
17.8606695575764
20
-2.07680873706426
30
0
41
1
10
17.5774896946406
20
-2.04169037033839
30
0
41
1
10
17.1244315616611
20
-1.98241131370392
30
0
41
1
10
16.7279144483766
20
-1.927144616151
30
0
41
1
10
16.3879941738048
20
-1.87743156122602
30
0
41
1
10
16.1614478160602
20
-1.84332216305725
30
0
41
1
10
15.8782663333522
20
-1.79943684466809
30
0
41
1
10
15.5384230555581
20
-1.74494074732584
30
0
41
1
10
15.3118241407799
20
-1.70749873139309
30
0
41
1
10
15.1985266074174
20
-1.68847615538081
30
0
0
SPLINE
5
D2
100
AcDbEntity
8
1
62
256
6
ByLayer
370
18
48
1
60
0
100
AcDbSpline
70
4
71
3
72
8
73
4
40
0
40
0
40
0
40
0
40
1
40
1
40
1
40
1
41
1
10
72.4237055154639
20
1.69912294032719
30
0
41
1
10
72.1484713647067
20
2.49787519030386
30
0
41
1
10
71.8753615527594
20
3.29735504883379
30
0
41
1
10
71.6043877435681
20
4.09756651094204
30
0
0
SPLINE
5
D3
100
AcDbEntity
8
1
62
256
6
ByLayer
370
18
48
1
60
0
100
AcDbSpline
70
4
71
3
72
10
73
6
40
0
40
0
40
0
40
0
40
0.5
40
0.5
40
1
40
1
40
1
40
1
41
1
10
5.18754866483235
20
4.12697345322351
30
0
41
1
10
5.21620628458453
20
4.1950702882003
30
0
41
1
10
5.24926252568417
20
4.26050682057115
30
0
41
1
10
5.32226141815335
20
4.38437936091881
30
0
41
1
10
5.36234500177125
20
4.44316599398206
30
0
41
1
10
5.40566302664291
20
4.49911657187073
30
0
0
SPLINE
5
D4
100
AcDbEntity
8
1
62
256
6
ByLayer
370
18
48
1
60
0
100
AcDbSpline
70
4
71
3
72
38
73
34
40
0
40
0
40
0
40
0
40
0.124999999999999
40
0.124999999999999
40
0.249999999999998
40
0.249999999999998
40
0.374999999999998
40
0.374999999999998
40
0.499999999999997
40
0.499999999999997
40
0.531249999999997
40
0.531249999999997
40
0.562499999999997
40
0.562499999999997
40
0.624999999999997
40
0.624999999999997
40
0.656249999999997
40
0.656249999999997
40
0.687499999999997
40
0.687499999999997
40
0.749999999999998
40
0.749999999999998
40
0.781249999999998
40
0.781249999999998
40
0.812499999999999
40
0.812499999999999
40
0.874999999999999
40
0.874999999999999
40
0.9375
40
0.9375
40
0.96875
40
0.96875
40
1
40
1
40
1
40
1
41
1
10
14.0971955696777
20
-3.64356518781625
30
0
41
1
10
13.6089023057285
20
-3.47219097958438
30
0
41
1
10
13.1249695073577
20
-3.28911031283059
30
0
41
1
10
12.1673029325958
20
-2.89472908821966
30
0
41
1
10
11.6936171606882
20
-2.68326519360073
30
0
41
1
10
10.757056521829
20
-2.23029376649021
30
0
41
1
10
10.2945410088526
20
-1.98754991512462
30
0
41
1
10
9.38335929117937
20
-1.46186209647945
30
0
41
1
10
8.93436559960386
20
-1.18003795571778
30
0
41
1
10
8.38467188228518
20
-0.792897033055453
30
0
41
1
10
8.27532635541132
20
-0.713671921171823
30
0
41
1
10
8.05791287973318
20
-0.551320638506979
30
0
41
1
10
7.94961764444943
20
-0.468034612489362
30
0
41
1
10
7.62888828800016
20
-0.213729313894447
30
0
41
1
10
7.42034793196655
20
-0.0382735605501807
30
0
41
1
10
7.11753401037134
20
0.236111316648561
30
0
41
1
10
7.01826761448609
20
0.329445937539532
30
0
41
1
10
6.82349523406458
20
0.520327630236864
30
0
41
1
10
6.72782863885936
20
0.618061764071513
30
0
41
1
10
6.44992202811775
20
0.915560002614626
30
0
41
1
10
6.27590990593018
20
1.12024728837744
30
0
41
1
10
6.03633578256813
20
1.43920426912916
30
0
41
1
10
5.96007479890869
20
1.54752325519007
30
0
41
1
10
5.8159452472558
20
1.76879511643685
30
0
41
1
10
5.74803952280794
20
1.88195141073226
30
0
41
1
10
5.56331602410808
20
2.22169258860825
30
0
41
1
10
5.46349905431109
20
2.45119783603263
30
0
41
1
10
5.32414666456913
20
2.91472865538231
30
0
41
1
10
5.28787691968139
20
3.13818544248522
30
0
41
1
10
5.2858442455636
20
3.46000122858433
30
0
41
1
10
5.29412747253119
20
3.56572259503142
30
0
41
1
10
5.32806507824799
20
3.76728683197581
30
0
41
1
10
5.35358310824705
20
3.86354242450307
30
0
41
1
10
5.38718268606166
20
3.95551385699548
30
0
0
SPLINE
5
D5
100
AcDbEntity
8
1
62
256
6
ByLayer
370
18
48
1
60
0
100
AcDbSpline
70
4
71
3
72
52
73
48
40
0
40
0
40
0
40
0
40
0.0135605114547219
40
0.0135605114547219
40
0.0731677226046837
40
0.0731677226046837
40
0.132774933754646
40
0.132774933754646
40
0.162578539329626
40
0.162578539329626
40
0.192382144904607
40
0.192382144904607
40
0.251989356054569
40
0.251989356054569
40
0.31159656720453
40
0.31159656720453
40
0.371203778354492
40
0.371203778354492
40
0.401007383929473
40
0.401007383929473
40
0.430810989504454
40
0.430810989504454
40
0.490418200654416
40
0.490418200654416
40
0.550025411804379
40
0.550025411804379
40
0.579829017379361
40
0.579829017379361
40
0.609632622954342
40
0.609632622954342
40
0.669239834104305
40
0.669239834104305
40
0.728847045254267
40
0.728847045254267
40
0.788454256404229
40
0.788454256404229
40
0.818257861979211
40
0.818257861979211
40
0.848061467554192
40
0.848061467554192
40
0.907668678704155
40
0.907668678704155
40
0.967275889854119
40
0.967275889854119
40
0.997079495429101
40
0.997079495429101
40
1
40
1
40
1
40
1
41
1
10
8.49170492264599
20
5.58782555712818
30
0
41
1
10
8.64856681531103
20
5.58806395495347
30
0
41
1
10
8.80535987330234
20
5.58637591855179
30
0
41
1
10
9.65118084324206
20
5.56688742891885
30
0
41
1
10
10.3397510684614
20
5.51384921446089
30
0
41
1
10
11.7219783837862
20
5.33429218635976
30
0
41
1
10
12.4109278509641
20
5.20842903049373
30
0
41
1
10
13.444115495732
20
4.96897234714407
30
0
41
1
10
13.7885880931813
20
4.88072841098042
30
0
41
1
10
14.4784469973283
20
4.68798652596382
30
0
41
1
10
14.8242164099634
20
4.58331354979361
30
0
41
1
10
15.8592105989365
20
4.24740807044466
30
0
41
1
10
16.5472066464455
20
3.99426763623128
30
0
41
1
10
17.9250089637681
20
3.43704225850192
30
0
41
1
10
18.6165759052662
20
3.13249039720873
30
0
41
1
10
19.9945257228877
20
2.48723398203129
30
0
41
1
10
20.6822721534693
20
2.14645668546149
30
0
41
1
10
21.7164314543826
20
1.61537293005193
30
0
41
1
10
22.0620172808158
20
1.43485364416767
30
0
41
1
10
22.7517352362094
20
1.07042900157839
30
0
41
1
10
23.0960660649781
20
0.886340551855881
30
0
41
1
10
24.1285387617572
20
0.330403769131493
30
0
41
1
10
24.8164414733483
20
-0.0445993893905836
30
0
41
1
10
26.1972529556518
20
-0.792612856399501
30
0
41
1
10
26.885403068314
20
-1.16292675352023
30
0
41
1
10
27.917585173892
20
-1.70337279060905
30
0
41
1
10
28.2617422236217
20
-1.88102406071664
30
0
41
1
10
28.9508750377777
20
-2.23020544380077
30
0
41
1
10
29.2962477000809
20
-2.40194164541086
30
0
41
1
10
30.3301376965568
20
-2.90314971281361
30
0
41
1
10
31.0174166657062
20
-3.21920666699913
30
0
41
1
10
32.3939188383858
20
-3.80613303494957
30
0
41
1
10
33.0847295635881
20
-4.07729479615423
30
0
41
1
10
34.4612525239512
20
-4.56047476200411
30
0
41
1
10
35.1483153567809
20
-4.77298930029676
30
0
41
1
10
36.1815250637804
20
-5.04338183157665
30
0
41
1
10
36.5267955701175
20
-5.12548244667641
30
0
41
1
10
37.2157170534967
20
-5.27206100340143
30
0
41
1
10
37.5596416040894
20
-5.33663128021877
30
0
41
1
10
38.5910994220834
20
-5.50349607137821
30
0
41
1
10
39.2782350321922
20
-5.57898826252682
30
0
41
1
10
40.6577966510638
20
-5.65538742215193
30
0
41
1
10
41.3450423332779
20
-5.6559924422356
30
0
41
1
10
42.3761480688235
20
-5.60098272318888
30
0
41
1
10
42.7199468734047
20
-5.57333862793507
30
0
41
1
10
43.0979162765792
20
-5.53280991453016
30
0
41
1
10
43.1316564786874
20
-5.52910316343994
30
0
41
1
10
43.1654030032535
20
-5.52530713543146
30
0
0
SPLINE
5
D6
100
AcDbEntity
8
1
62
256
6
ByLayer
370
18
48
1
60
0
100
AcDbSpline
70
4
71
3
72
8
73
4
40
0
40
0
40
0
40
0
40
1
40
1
40
1
40
1
41
1
10
72.9996289010321
20
0.122849707391396
30
0
41
1
10
73.0001236996442
20
0.0409499024637796
30
0
41
1
10
73.0001236996442
20
-0.040949902463808
30
0
41
1
10
72.9996289010321
20
-0.122849707391424
30
0
0
SPLINE
5
D7
100
AcDbEntity
8
1
62
256
6
ByLayer
370
18
48
1
60
0
100
AcDbSpline
70
4
71
3
72
18
73
14
40
0
40
0
40
0
40
0
40
0.249999999999998
40
0.249999999999998
40
0.374999999999997
40
0.374999999999997
40
0.499999999999996
40
0.499999999999996
40
0.624999999999995
40
0.624999999999995
40
0.749999999999994
40
0.749999999999994
40
1
40
1
40
1
40
1
41
1
10
72.2074763784982
20
-1.08773888181804
30
0
41
1
10
72.2641229844883
20
-1.05491375561621
30
0
41
1
10
72.324340926224
20
-1.00177305066111
30
0
41
1
10
72.4204376794389
20
-0.893368019652513
30
0
41
1
10
72.4536810832574
20
-0.852055268116715
30
0
41
1
10
72.5208134809988
20
-0.761453282715394
30
0
41
1
10
72.5546771505956
20
-0.71226519401543
30
0
41
1
10
72.6230050759705
20
-0.606535568583894
30
0
41
1
10
72.6574692845674
20
-0.54999219779819
30
0
41
1
10
72.7269936612376
20
-0.42966254786441
30
0
41
1
10
72.7620701667779
20
-0.365797382278828
30
0
41
1
10
72.8656462197849
20
-0.168197103749122
30
0
41
1
10
72.9333754358279
20
-0.0270932597125011
30
0
41
1
10
72.9996289010321
20
0.122849707391452
30
0
0
SPLINE
5
D8
100
AcDbEntity
8
1
62
256
6
ByLayer
370
13
48
1
60
0
100
AcDbSpline
70
4
71
3
72
50
73
46
40
0
40
0
40
0
40
0
40
0.125000000000001
40
0.125000000000001
40
0.156250000000001
40
0.156250000000001
40
0.187500000000001
40
0.187500000000001
40
0.250000000000002
40
0.250000000000002
40
0.281250000000002
40
0.281250000000002
40
0.312500000000002
40
0.312500000000002
40
0.375000000000002
40
0.375000000000002
40
0.437500000000002
40
0.437500000000002
40
0.500000000000001
40
0.500000000000001
40
0.531250000000001
40
0.531250000000001
40
0.562500000000001
40
0.562500000000001
40
0.625000000000001
40
0.625000000000001
40
0.687500000000001
40
0.687500000000001
40
0.718750000000001
40
0.718750000000001
40
0.750000000000001
40
0.750000000000001
40
0.812500000000001
40
0.812500000000001
40
0.875
40
0.875
40
0.9375
40
0.9375
40
0.96875
40
0.96875
40
0.984375
40
0.984375
40
0.9921875
40
0.9921875
40
1
40
1
40
1
40
1
41
1
10
4.93976989895828
20
-5.02588649959336
30
0
41
1
10
4.93988722136913
20
-4.84775683669366
30
0
41
1
10
4.93998099580034
20
-4.61868767668378
30
0
41
1
10
4.94008618312415
20
-4.26942709638152
30
0
41
1
10
4.94010664334857
20
-4.1961990082815
30
0
41
1
10
4.94014621647895
20
-4.04518685726686
30
0
41
1
10
4.94016539120165
20
-3.96721934030768
30
0
41
1
10
4.9402216857589
20
-3.72607715258218
30
0
41
1
10
4.94025759415808
20
-3.55569114462986
30
0
41
1
10
4.9403110501523
20
-3.2857217184054
30
0
41
1
10
4.94032879613371
20
-3.19332640698727
30
0
41
1
10
4.94036442888955
20
-3.00364478784198
30
0
41
1
10
4.94038237287197
20
-2.90604101217258
30
0
41
1
10
4.94043637713014
20
-2.60803256186989
30
0
41
1
10
4.94047241688446
20
-2.40372183765862
30
0
41
1
10
4.94054594313215
20
-1.98421225891724
30
0
41
1
10
4.94058342598589
20
-1.76901244162812
30
0
41
1
10
4.94066043124758
20
-1.32757699643244
30
0
41
1
10
4.94070015262255
20
-1.1002137505823
30
0
41
1
10
4.94075997126006
20
-0.757142171187553
30
0
41
1
10
4.94077997195086
20
-0.642283690074606
30
0
41
1
10
4.94081998063746
20
-0.411562821553986
30
0
41
1
10
4.94084004350455
20
-0.295379154230034
30
0
41
1
10
4.9408995099956
20
0.0518850910796971
30
0
41
1
10
4.94093819802302
20
0.281579124689017
30
0
41
1
10
4.94101189550057
20
0.73746150007031
30
0
41
1
10
4.94104690973151
20
0.963649530315138
30
0
41
1
10
4.9410947764483
20
1.30026701770211
30
0
41
1
10
4.94110994986792
20
1.4120274565783
30
0
41
1
10
4.94113832523735
20
1.63463510372631
30
0
41
1
10
4.94115149151463
20
1.74525537421849
30
0
41
1
10
4.94118699336158
20
2.07214475546496
30
0
41
1
10
4.94120553226918
20
2.28507577547578
30
0
41
1
10
4.94122869790442
20
2.69772572339636
30
0
41
1
10
4.9412332145809
20
2.89520002214331
30
0
41
1
10
4.94122531312712
20
3.27307268823034
30
0
41
1
10
4.9412129026137
20
3.45346942304565
30
0
41
1
10
4.94117903013875
20
3.71109478096133
30
0
41
1
10
4.94116519105989
20
3.7948019441092
30
0
41
1
10
4.94114022793337
20
3.91702986531729
30
0
41
1
10
4.94113120582605
20
3.95720471640485
30
0
41
1
10
4.94111663655528
20
4.01637414722296
30
0
41
1
10
4.94111160535795
20
4.03592581193701
30
0
41
1
10
4.94110118784187
20
4.07468612298436
30
0
41
1
10
4.94109574472304
20
4.09408669520155
30
0
41
1
10
4.94109023489813
20
4.11293134288718
30
0
0
SPLINE
5
D9
100
AcDbEntity
8
1
62
256
6
ByLayer
370
18
48
1
60
0
100
AcDbSpline
70
4
71
3
72
8
73
4
40
0
40
0
40
0
40
0
40
1
40
1
40
1
40
1
41
1
10
72.2023388877288
20
-1.08254211871321
30
0
41
1
10
72.2040512798889
20
-1.08427447665093
30
0
41
1
10
72.2057637768289
20
-1.08600673102251
30
0
41
1
10
72.2074763785295
20
-1.08773888180957
30
0
0
SPLINE
5
DA
100
AcDbEntity
8
1
62
256
6
ByLayer
370
18
48
1
60
0
100
AcDbSpline
70
4
71
3
72
32
73
28
40
0
40
0
40
0
40
0
40
0.0312500000000016
40
0.0312500000000016
40
0.0625000000000031
40
0.0625000000000031
40
0.125000000000004
40
0.125000000000004
40
0.156250000000004
40
0.156250000000004
40
0.187500000000005
40
0.187500000000005
40
0.250000000000006
40
0.250000000000006
40
0.375000000000004
40
0.375000000000004
40
0.500000000000003
40
0.500000000000003
40
0.625000000000001
40
0.625000000000001
40
0.75
40
0.75
40
0.874999999999998
40
0.874999999999998
40
0.937499999999999
40
0.937499999999999
40
1
40
1
40
1
40
1
41
1
10
5.40566302664297
20
4.4991165718707
30
0
41
1
10
5.43466306711656
20
4.53657370497172
30
0
41
1
10
5.46955439993226
20
4.57093203781054
30
0
41
1
10
5.54882042874843
20
4.6348400892112
30
0
41
1
10
5.59357693846192
20
4.66457326542059
30
0
41
1
10
5.73686581012061
20
4.74627399326346
30
0
41
1
10
5.843661866741
20
4.79103901540435
30
0
41
1
10
6.01476712182969
20
4.84954542043741
30
0
41
1
10
6.07390557786619
20
4.86760715371503
30
0
41
1
10
6.19388391154604
20
4.90086728245839
30
0
41
1
10
6.25480107414705
20
4.91610576328901
30
0
41
1
10
6.43988683094867
20
4.95847070684309
30
0
41
1
10
6.56636504209965
20
4.98229031023067
30
0
41
1
10
6.95297554606972
20
5.044384412201
30
0
41
1
10
7.22183507598425
20
5.07353718172024
30
0
41
1
10
7.75941408551961
20
5.11522467182874
30
0
41
1
10
8.02976416737681
20
5.12790012225037
30
0
41
1
10
8.57313454102228
20
5.14069796653033
30
0
41
1
10
8.84616398858938
20
5.14075643318409
30
0
41
1
10
9.39487822274739
20
5.12830507605125
30
0
41
1
10
9.66690652959809
20
5.11582855434213
30
0
41
1
10
10.2028282504525
20
5.0773040401925
30
0
41
1
10
10.4673025302005
20
5.05123865387995
30
0
41
1
10
10.8586130866094
20
4.99945779900136
30
0
41
1
10
10.9881472704713
20
4.98006741619051
30
0
41
1
10
11.2453566867195
20
4.93640696752988
30
0
41
1
10
11.3732603455876
20
4.91206822690819
30
0
41
1
10
11.4984631008202
20
4.88531630658628
30
0
0
SPLINE
5
DB
100
AcDbEntity
8
1
62
256
6
ByLayer
370
18
48
1
60
0
100
AcDbSpline
70
4
71
4
72
10
73
5
40
0
40
0
40
0
40
0
40
0
40
1
40
1
40
1
40
1
40
1
41
1
10
18.2897998319538
20
2.81238952487001
30
0
41
1
10
18.0013019109297
20
2.43436473911211
30
0
41
1
10
17.7128039899055
20
2.05633995335424
30
0
41
1
10
17.4243060688814
20
1.67831516759637
30
0
41
1
10
17.1358081478572
20
1.30029038183852
30
0
0
SPLINE
5
DC
100
AcDbEntity
8
1
62
256
6
ByLayer
370
18
48
1
60
0
100
AcDbSpline
70
4
71
3
72
8
73
4
40
0
40
0
40
0
40
0
40
1
40
1
40
1
40
1
41
1
10
72.9996289010321
20
-0.122849707391452
30
0
41
1
10
72.7981120909788
20
-0.640929613171579
30
0
41
1
10
72.6071549288357
20
-1.1667375830433
30
0
41
1
10
72.4237055154638
20
-1.69912294032736
30
0
0
SPLINE
5
DD
100
AcDbEntity
8
1
62
256
6
ByLayer
370
18
48
1
60
0
100
AcDbSpline
70
4
71
3
72
10
73
6
40
0
40
0
40
0
40
0
40
0.5
40
0.5
40
1
40
1
40
1
40
1
41
1
10
71.3854924731848
20
2.88332305123637
30
0
41
1
10
71.4066594895019
20
3.08886642691124
30
0
41
1
10
71.4386345169159
20
3.29217314322673
30
0
41
1
10
71.5139227245601
20
3.69644020654076
30
0
41
1
10
71.5574137006793
20
3.8973637596431
30
0
41
1
10
71.6043877435681
20
4.09756651094202
30
0
0
SPLINE
5
DE
100
AcDbEntity
8
1
62
256
6
ByLayer
370
18
48
1
60
0
100
AcDbSpline
70
4
71
3
72
8
73
4
40
0
40
0
40
0
40
0
40
1
40
1
40
1
40
1
41
1
10
5.18754866481189
20
4.12697345322741
30
0
41
1
10
4.9408799519731
20
4.21660753822198
30
0
41
1
10
4.69436076261104
20
4.30304664605802
30
0
41
1
10
4.44790877069431
20
4.38609396123937
30
0
0
SPLINE
5
DF
100
AcDbEntity
8
1
62
256
6
ByLayer
370
18
48
1
60
0
100
AcDbSpline
70
4
71
3
72
9
73
5
40
0
40
0
40
0
40
0
40
0.23975701169784
40
1
40
1
40
1
40
1
41
1
10
4.9410902348979
20
4.11293134288726
30
0
41
1
10
4.97680435591494
20
4.10061942643841
30
0
41
1
10
5.12570196263528
20
4.04899324765475
30
0
41
1
10
5.27433785915218
20
3.99624149068615
30
0
41
1
10
5.38718268605845
20
3.95551385699665
30
0
0
SPLINE
5
E0
100
AcDbEntity
8
1
62
256
6
ByLayer
370
13
48
1
60
0
100
AcDbSpline
70
4
71
3
72
87
73
83
40
0
40
0
40
0
40
0
40
0.0144263191830794
40
0.0225974943462587
40
0.0307686695094377
40
0.0471110198357958
40
0.0552821949989751
40
0.0634533701621541
40
0.0797957204885121
40
0.0879668956516926
40
0.096138070814871
40
0.112480421141229
40
0.120651596304409
40
0.128822771467586
40
0.145165121793945
40
0.153336296957124
40
0.161507472120304
40
0.177849822446661
40
0.186020997609841
40
0.194192172773019
40
0.210534523099378
40
0.218705698262557
40
0.226876873425735
40
0.243219223752094
40
0.251390398915273
40
0.259561574078452
40
0.27590392440481
40
0.292246274731168
40
0.308588625057527
40
0.341273325710243
40
0.349444500873422
40
0.3576156760366
40
0.373958026362959
40
0.382129201526138
40
0.390300376689318
40
0.406642727015676
40
0.414813902178855
40
0.422985077342032
40
0.439327427668392
40
0.447498602831571
40
0.45566977799475
40
0.472012128321108
40
0.488354478647465
40
0.504696828973825
40
0.537381529626542
40
0.545552704789721
40
0.553723879952899
40
0.570066230279258
40
0.578237405442437
40
0.586408580605616
40
0.602750930931974
40
0.610922106095153
40
0.619093281258332
40
0.63543563158469
40
0.643606806747869
40
0.651777981911049
40
0.668120332237407
40
0.684462682563765
40
0.700805032890123
40
0.73348973354284
40
0.741660908706018
40
0.749832083869198
40
0.766174434195556
40
0.774345609358735
40
0.782516784521914
40
0.798859134848272
40
0.807030310011451
40
0.81520148517463
40
0.831543835500989
40
0.839715010664168
40
0.847886185827347
40
0.864228536153705
40
0.880570886480063
40
0.896913236806421
40
0.929597937459138
40
0.937769112622317
40
0.945940287785496
40
0.962282638111854
40
0.970453813275033
40
0.978624988438212
40
0.99496733876457
40
1
40
1
40
1
40
1
41
1
10
60.3579286527852
20
-2.2143060167337
30
0
41
1
10
60.2579324144158
20
-2.22391022491851
30
0
41
1
10
60.1012906844098
20
-2.23847606868188
30
0
41
1
10
59.8879947813828
20
-2.25728271195064
30
0
41
1
10
59.6614483483908
20
-2.27639977665984
30
0
41
1
10
59.434884839274
20
-2.29431503031446
30
0
41
1
10
59.2083064953408
20
-2.31102178926216
30
0
41
1
10
58.9817604229148
20
-2.32683867181632
30
0
41
1
10
58.7551978378842
20
-2.34142922247736
30
0
41
1
10
58.5286204604673
20
-2.35478804885889
30
0
41
1
10
58.3020746731535
20
-2.36723139826117
30
0
41
1
10
58.0755115010252
20
-2.37843115926333
30
0
41
1
10
57.848933016288
20
-2.38838816630664
30
0
41
1
10
57.6223862998495
20
-2.39741105079292
30
0
41
1
10
57.395822404062
20
-2.4051800940689
30
0
41
1
10
57.1692436796192
20
-2.41169673447953
30
0
41
1
10
56.942697232946
20
-2.41726253659047
30
0
41
1
10
56.7161342643641
20
-2.42156744950455
30
0
41
1
10
56.4895565842931
20
-2.42461508225881
30
0
41
1
10
56.2630106891506
20
-2.42669830872802
30
0
41
1
10
56.0364476399258
20
-2.42751721188674
30
0
41
1
10
55.8098694191397
20
-2.42707696759237
30
0
41
1
10
55.5833229893074
20
-2.42566274046499
30
0
41
1
10
55.3567593990656
20
-2.42298764047476
30
0
41
1
10
55.1301809720113
20
-2.41906188463281
30
0
41
1
10
54.9036349473856
20
-2.41415906273258
30
0
41
1
10
54.6204539072349
20
-2.40640149823332
30
0
41
1
10
54.2806143135752
20
-2.39458113786736
30
0
41
1
10
53.8275574351912
20
-2.37513637357404
30
0
41
1
10
53.4310405739748
20
-2.35392349738791
30
0
41
1
10
53.0911197926687
20
-2.33276252241566
30
0
41
1
10
52.8645730815948
20
-2.31757090090875
30
0
41
1
10
52.6380098779439
20
-2.30118610411842
30
0
41
1
10
52.4114320264583
20
-2.28362867740336
30
0
41
1
10
52.1848859642029
20
-2.26511806801128
30
0
41
1
10
51.9583228119357
20
-2.24544685692271
30
0
41
1
10
51.7317446015855
20
-2.22463709086514
30
0
41
1
10
51.5051981920426
20
-2.20289154915486
30
0
41
1
10
51.2786346174082
20
-2.18002165240111
30
0
41
1
10
51.0520561780629
20
-2.15605104946957
30
0
41
1
10
50.8255101604262
20
-2.13116552031599
30
0
41
1
10
50.542329131113
20
-2.09861744879348
30
0
41
1
10
50.2024893242781
20
-2.05740192408251
30
0
41
1
10
49.749431920708
20
-1.99919623525327
30
0
41
1
10
49.3529146519595
20
-1.94483683592537
30
0
41
1
10
49.012993993851
20
-1.8958772458312
30
0
41
1
10
48.7864474198491
20
-1.86226451753725
30
0
41
1
10
48.5598844022436
20
-1.82771580723289
30
0
41
1
10
48.3333067357375
20
-1.79226205221948
30
0
41
1
10
48.1067608786361
20
-1.75601355085465
30
0
41
1
10
47.8801979075154
20
-1.71888603929205
30
0
41
1
10
47.6536197753429
20
-1.68091177996445
30
0
41
1
10
47.427073402895
20
-1.64218156930951
30
0
41
1
10
47.2005098295834
20
-1.60263360450892
30
0
41
1
10
46.9739313902816
20
-1.56230232786194
30
0
41
1
10
46.747385355868
20
-1.52125800754351
30
0
41
1
10
46.4642043054097
20
-1.46891995882197
30
0
41
1
10
46.1243647070895
20
-1.40464259929743
30
0
41
1
10
45.6713078215471
20
-1.31661816331186
30
0
41
1
10
45.2747909482733
20
-1.23745662590898
30
0
41
1
10
44.9348701352785
20
-1.16820272189051
30
0
41
1
10
44.7083233880733
20
-1.12131871178983
30
0
41
1
10
44.4817601291335
20
-1.07389689362228
30
0
41
1
10
44.2551822273491
20
-1.0259755522145
30
0
41
1
10
44.0286361477128
20
-0.977539725756401
30
0
41
1
10
43.8020730216307
20
-0.928642012916129
30
0
41
1
10
43.5754948538533
20
-0.879321551456883
30
0
41
1
10
43.3489484587323
20
-0.829542452427347
30
0
41
1
10
43.1223848627274
20
-0.779379978719959
30
0
41
1
10
42.895806376228
20
-0.728874195413027
30
0
41
1
10
42.6692603150346
20
-0.677968323021616
30
0
41
1
10
42.3860792359966
20
-0.613873435230317
30
0
41
1
10
42.0462393751708
20
-0.536404738574447
30
0
41
1
10
41.5931818935918
20
-0.432082066074116
30
0
41
1
10
41.1966645538323
20
-0.340278649049054
30
0
41
1
10
40.8567438259153
20
-0.261364530598343
30
0
41
1
10
40.6301971929381
20
-0.208407237443083
30
0
41
1
10
40.4036341018958
20
-0.155391340391589
30
0
41
1
10
40.1770563720099
20
-0.102356788170994
30
0
41
1
10
39.9505104875488
20
-0.0491661876344551
30
0
41
1
10
39.7457030069448
20
-0.0011058290664607
30
0
41
1
10
39.5975276319046
20
0.0336258858553435
30
0
41
1
10
39.5626410738258
20
0.0418052183854627
30
0
0
SPLINE
5
E1
100
AcDbEntity
8
1
62
256
6
ByLayer
370
13
48
1
60
0
100
AcDbSpline
70
4
71
3
72
85
73
81
40
0
40
0
40
0
40
0
40
0.0218907262395721
40
0.0300304041347888
40
0.0381700820300051
40
0.0544494378204395
40
0.0625891157156565
40
0.0707287936108734
40
0.087008149401307
40
0.0951478272965242
40
0.103287505191739
40
0.119566860982174
40
0.127706538877391
40
0.135846216772608
40
0.152125572563042
40
0.168404928353474
40
0.18468428414391
40
0.217242995724777
40
0.225382673619994
40
0.23352235151521
40
0.249801707305644
40
0.257941385200861
40
0.266081063096078
40
0.282360418886512
40
0.290500096781729
40
0.298639774676946
40
0.314919130467379
40
0.323058808362596
40
0.331198486257814
40
0.347477842048247
40
0.363757197838681
40
0.380036553629114
40
0.412595265209982
40
0.420734943105198
40
0.428874621000416
40
0.445153976790849
40
0.453293654686066
40
0.461433332581283
40
0.477712688371717
40
0.485852366266934
40
0.493992044162151
40
0.510271399952584
40
0.518411077847801
40
0.526550755743018
40
0.542830111533452
40
0.559109467323885
40
0.57538882311432
40
0.607947534695187
40
0.616087212590404
40
0.624226890485621
40
0.640506246276054
40
0.648645924171271
40
0.656785602066488
40
0.673064957856922
40
0.681204635752138
40
0.689344313647355
40
0.705623669437789
40
0.713763347333006
40
0.721903025228223
40
0.738182381018657
40
0.746322058913874
40
0.75446173680909
40
0.770741092599524
40
0.778880770494741
40
0.787020448389958
40
0.803299804180392
40
0.811439482075609
40
0.819579159970826
40
0.835858515761259
40
0.843998193656476
40
0.852137871551693
40
0.868417227342127
40
0.884696583132561
40
0.900975938922995
40
0.925394972608646
40
0.933534650503862
40
0.949814006294296
40
0.966093362084729
40
0.998652073665597
40
1
40
1
40
1
40
1
41
1
10
55.6551893629599
20
-0.0409183970017466
30
0
41
1
10
55.5028646396866
20
-0.0051698389399064
30
0
41
1
10
55.2939206440134
20
0.0439585365085975
30
0
41
1
10
55.0283712025389
20
0.106467906519043
30
0
41
1
10
54.8017929026232
20
0.159508045080202
30
0
41
1
10
54.575231106806
20
0.212532871255235
30
0
41
1
10
54.3486839689503
20
0.265504420408263
30
0
41
1
10
54.1221050199273
20
0.318249110042046
30
0
41
1
10
53.8955431726558
20
0.370893163859449
30
0
41
1
10
53.6689963937776
20
0.423399244283417
30
0
41
1
10
53.4424177921285
20
0.475616394759442
30
0
41
1
10
53.2158563673486
20
0.527649508257156
30
0
41
1
10
52.989309817526
20
0.579461972610204
30
0
41
1
10
52.7627308237412
20
0.630925731457779
30
0
41
1
10
52.4795055880034
20
0.694837934675235
30
0
41
1
10
52.1396578924952
20
0.770890521841267
30
0
41
1
10
51.6864652495451
20
0.8708905031813
30
0
41
1
10
51.2900137905797
20
0.957160834013223
30
0
41
1
10
50.9502470012634
20
1.0299886916855
30
0
41
1
10
50.723668564203
20
1.07787819648974
30
0
41
1
10
50.4971065822731
20
1.12526515675071
30
0
41
1
10
50.2705592594042
20
1.17211488742751
30
0
41
1
10
50.0439801051964
20
1.21839298989329
30
0
41
1
10
49.8174180767697
20
1.2640940256868
30
0
41
1
10
49.5908712197468
20
1.30918438675855
30
0
41
1
10
49.3642925810518
20
1.35365346446568
30
0
41
1
10
49.1377311550141
20
1.39747312631758
30
0
41
1
10
48.9111846052219
20
1.44061008068724
30
0
41
1
10
48.6846056283041
20
1.48307828593576
30
0
41
1
10
48.4013804138372
20
1.53517169055004
30
0
41
1
10
48.0615325098572
20
1.59614159470104
30
0
41
1
10
47.6083393487972
20
1.67483859915654
30
0
41
1
10
47.2118874942644
20
1.74096095804668
30
0
41
1
10
46.8721208599262
20
1.795470700111
30
0
41
1
10
46.6455425961434
20
1.83086944578059
30
0
41
1
10
46.4189808556263
20
1.86535823828876
30
0
41
1
10
46.192433768087
20
1.89890938998158
30
0
41
1
10
45.9658548364486
20
1.93163201244644
30
0
41
1
10
45.739292962976
20
1.96338913071148
30
0
41
1
10
45.512746141501
20
1.99415438164152
30
0
41
1
10
45.2861675254202
20
2.02405979432965
30
0
41
1
10
45.0596061220147
20
2.05294773890193
30
0
41
1
10
44.8330596193502
20
2.08079330476247
30
0
41
1
10
44.6064806691178
20
2.10775109686074
30
0
41
1
10
44.3232554830927
20
2.14003122611388
30
0
41
1
10
43.9834078415746
20
2.17655624800523
30
0
41
1
10
43.5302152766476
20
2.22186116374294
30
0
41
1
10
43.1337638887078
20
2.25767565434529
30
0
41
1
10
42.7939971691974
20
2.28549538063274
30
0
41
1
10
42.5674187911155
20
2.30296743396553
30
0
41
1
10
42.3408568826346
20
2.31926302463918
30
0
41
1
10
42.1143096231625
20
2.33436542156679
30
0
41
1
10
41.8877304963169
20
2.3485101218111
30
0
41
1
10
41.6611684457137
20
2.36144982344857
30
0
41
1
10
41.4346215422077
20
2.37316925237963
30
0
41
1
10
41.2080428789734
20
2.38392305037732
30
0
41
1
10
40.98148145307
20
2.39344930987792
30
0
41
1
10
40.7549349526109
20
2.4017364921267
30
0
41
1
10
40.5283561556201
20
2.40905554362894
30
0
41
1
10
40.3017938604568
20
2.41513049194339
30
0
41
1
10
40.0752461830249
20
2.41995083034229
30
0
41
1
10
39.8486666627735
20
2.4238032016325
30
0
41
1
10
39.6221042735334
20
2.4263986314723
30
0
41
1
10
39.3955571579204
20
2.42772903102119
30
0
41
1
10
39.1689784109411
20
2.42809534319545
30
0
41
1
10
38.9424171115614
20
2.42719552511406
30
0
41
1
10
38.715870999368
20
2.42502193958106
30
0
41
1
10
38.4892927700654
20
2.42189189744866
30
0
41
1
10
38.2627313123777
20
2.41749444210024
30
0
41
1
10
38.0361845609922
20
2.41182842786912
30
0
41
1
10
37.8096056712956
20
2.40522111556484
30
0
41
1
10
37.5263810137616
20
2.39534115687565
30
0
41
1
10
37.1865338740985
20
2.38095297902308
30
0
41
1
10
36.790020688306
20
2.36112590685607
30
0
41
1
10
36.4502048837227
20
2.34103696154961
30
0
41
1
10
36.1103842077308
20
2.31840926187763
30
0
41
1
10
35.8271578872103
20
2.29791744271833
30
0
41
1
10
35.3739660836976
20
2.26179774337214
30
0
41
1
10
35.0247715512589
20
2.23029030703782
30
0
41
1
10
34.788876911405
20
2.20730278304581
30
0
41
1
10
34.7794991418984
20
2.20638620947844
30
0
0
SPLINE
5
E2
100
AcDbEntity
8
1
62
256
6
ByLayer
370
18
48
1
60
0
100
AcDbSpline
70
4
71
3
72
10
73
6
40
0
40
0
40
0
40
0
40
0.5
40
0.5
40
1
40
1
40
1
40
1
41
1
10
4.94109023489813
20
4.11293134288718
30
0
41
1
10
4.85472213830909
20
4.14270547028465
30
0
41
1
10
4.77001588543115
20
4.1803219784546
30
0
41
1
10
4.60449113583064
20
4.27152710168747
30
0
41
1
10
4.52303552847098
20
4.32582790179814
30
0
41
1
10
4.44790877069431
20
4.3860939612394
30
0
0
SPLINE
5
E3
100
AcDbEntity
8
1
62
256
6
ByLayer
370
18
48
1
60
0
100
AcDbSpline
70
4
71
3
72
96
73
92
40
0
40
0
40
0
40
0
40
0.0033053302963287
40
0.0033053302963287
40
0.0247668405843179
40
0.0247668405843179
40
0.0462283508723071
40
0.0462283508723071
40
0.0676898611602963
40
0.0676898611602963
40
0.0891513714482855
40
0.0891513714482855
40
0.110612881736275
40
0.110612881736275
40
0.132074392024264
40
0.132074392024264
40
0.153535902312253
40
0.153535902312253
40
0.174997412600242
40
0.174997412600242
40
0.196458922888231
40
0.196458922888231
40
0.217920433176221
40
0.217920433176221
40
0.23938194346421
40
0.23938194346421
40
0.260843453752199
40
0.260843453752199
40
0.303766474328177
40
0.303766474328177
40
0.325227984616166
40
0.325227984616166
40
0.346689494904155
40
0.346689494904155
40
0.368151005192144
40
0.368151005192144
40
0.389612515480133
40
0.389612515480133
40
0.411074025768121
40
0.411074025768121
40
0.43253553605611
40
0.43253553605611
40
0.453997046344099
40
0.453997046344099
40
0.475458556632088
40
0.475458556632088
40
0.496920066920077
40
0.496920066920077
40
0.518381577208066
40
0.518381577208066
40
0.539843087496054
40
0.539843087496054
40
0.561304597784043
40
0.561304597784043
40
0.582766108072032
40
0.582766108072032
40
0.604227618360021
40
0.604227618360021
40
0.62568912864801
40
0.62568912864801
40
0.647150638935999
40
0.647150638935999
40
0.668612149223988
40
0.668612149223988
40
0.690073659511977
40
0.690073659511977
40
0.711535169799966
40
0.711535169799966
40
0.732996680087954
40
0.732996680087954
40
0.754458190375943
40
0.754458190375943
40
0.775919700663932
40
0.775919700663932
40
0.797381210951921
40
0.797381210951921
40
0.81884272123991
40
0.81884272123991
40
0.840304231527899
40
0.840304231527899
40
0.861765741815888
40
0.861765741815888
40
0.904688762391866
40
0.904688762391866
40
0.926150272679854
40
0.926150272679854
40
0.947611782967843
40
0.947611782967843
40
0.990534803543822
40
0.990534803543822
40
1
40
1
40
1
40
1
41
1
10
22.7794951840114
20
5.47582856279033
30
0
41
1
10
22.8247109720936
20
5.47587154974886
30
0
41
1
10
22.8699277016945
20
5.4757420754523
30
0
41
1
10
23.2087594249593
20
5.47347787936184
30
0
41
1
10
23.5022660983182
20
5.46496885200045
30
0
41
1
10
24.0896597472125
20
5.43591580349664
30
0
41
1
10
24.3831531107504
20
5.41557731961615
30
0
41
1
10
24.971163004756
20
5.35964092539064
30
0
41
1
10
25.2660138522078
20
5.32467271239204
30
0
41
1
10
25.854136804879
20
5.24272950181989
30
0
41
1
10
26.1477605110437
20
5.19604951980921
30
0
41
1
10
26.7346961877303
20
5.08995849693113
30
0
41
1
10
27.0282000455241
20
5.02970723076976
30
0
41
1
10
27.6152591524561
20
4.89754387830243
30
0
41
1
10
27.9092245013341
20
4.82590619200255
30
0
41
1
10
28.4970019929409
20
4.67174301612806
30
0
41
1
10
28.7913085156333
20
4.58834918496001
30
0
41
1
10
29.3795124687075
20
4.40987462279776
30
0
41
1
10
29.6732796109191
20
4.31521129497551
30
0
41
1
10
30.2602122140454
20
4.11650875478551
30
0
41
1
10
30.5534201935379
20
4.0129984794352
30
0
41
1
10
31.1401366078149
20
3.79461794498064
30
0
41
1
10
31.4336303197592
20
3.68005170771724
30
0
41
1
10
32.0216307824909
20
3.44362528286717
30
0
41
1
10
32.3160077924914
20
3.32098552250437
30
0
41
1
10
32.9038249195532
20
3.06745920765391
30
0
41
1
10
33.1974297743104
20
2.93672709475075
30
0
41
1
10
34.0778555963534
20
2.53511100771843
30
0
41
1
10
34.6634460652269
20
2.25435773040735
30
0
41
1
10
35.544313533622
20
1.8172696265753
30
0
41
1
10
35.8384375051779
20
1.66891687377461
30
0
41
1
10
36.4264656080743
20
1.36855942943024
30
0
41
1
10
36.7200413459715
20
1.21680854264997
30
0
41
1
10
37.3067412501724
20
0.910700797153993
30
0
41
1
10
37.5999078727152
20
0.756428678378938
30
0
41
1
10
38.1863209966855
20
0.446593349120946
30
0
41
1
10
38.479390333929
20
0.290757250010131
30
0
41
1
10
39.0661002886253
20
-0.0215823083705686
30
0
41
1
10
39.3598042708495
20
-0.178003030231622
30
0
41
1
10
39.9480622075812
20
-0.490635637685244
30
0
41
1
10
40.24206693345
20
-0.645770541130986
30
0
41
1
10
40.8287754820694
20
-0.955521028148468
30
0
41
1
10
41.1218578309827
20
-1.1092490855419
30
0
41
1
10
41.7080612704375
20
-1.41349599602546
30
0
41
1
10
42.0013023004632
20
-1.56378022415873
30
0
41
1
10
42.5878054695907
20
-1.86168432536937
30
0
41
1
10
42.8812869365775
20
-2.00871231185602
30
0
41
1
10
43.4693698738861
20
-2.29737747616051
30
0
41
1
10
43.7632474460377
20
-2.43892933078919
30
0
41
1
10
44.3504617348305
20
-2.71529768451484
30
0
41
1
10
44.6435113097041
20
-2.85134649997502
30
0
41
1
10
45.2295050797764
20
-3.11529846021196
30
0
41
1
10
45.5225435469308
20
-3.24324008248951
30
0
41
1
10
46.1090504184654
20
-3.49116209898892
30
0
41
1
10
46.4024648342159
20
-3.61154444387222
30
0
41
1
10
46.9901161209306
20
-3.84400133390645
30
0
41
1
10
47.283989161349
20
-3.95530324162988
30
0
41
1
10
47.8692644990375
20
-4.16716946023664
30
0
41
1
10
48.1613244569868
20
-4.26789547924829
30
0
41
1
10
48.7440305406831
20
-4.4597683781914
30
0
41
1
10
49.0345953866227
20
-4.55049217528449
30
0
41
1
10
49.6153692627413
20
-4.71943884630281
30
0
41
1
10
49.905402119623
20
-4.79819648236088
30
0
41
1
10
50.4853814250669
20
-4.94498221178989
30
0
41
1
10
50.7752041285909
20
-5.01324062125042
30
0
41
1
10
51.355075657303
20
-5.13676085143138
30
0
41
1
10
51.6451939785046
20
-5.19207481678995
30
0
41
1
10
52.2261406967516
20
-5.29104794867848
30
0
41
1
10
52.5171299816705
20
-5.33479790500726
30
0
41
1
10
53.0995101750307
20
-5.4101125372737
30
0
41
1
10
53.3913508161237
20
-5.44093064513808
30
0
41
1
10
53.9767583781156
20
-5.48896296740304
30
0
41
1
10
54.2708983975975
20
-5.50626915190225
30
0
41
1
10
54.8580200867818
20
-5.5286303120665
30
0
41
1
10
55.1511998024372
20
-5.53351620353459
30
0
41
1
10
55.7373349932453
20
-5.52873365558395
30
0
41
1
10
56.0301709002744
20
-5.51945016434513
30
0
41
1
10
56.6159501392095
20
-5.48899137677085
30
0
41
1
10
56.9087561389322
20
-5.46839986874562
30
0
41
1
10
57.4949864972073
20
-5.4118996829846
30
0
41
1
10
57.7887758222332
20
-5.37625148336383
30
0
41
1
10
58.6700285951826
20
-5.24952126506955
30
0
41
1
10
59.2558673121735
20
-5.13878858997643
30
0
41
1
10
60.1344519403239
20
-4.93857969592139
30
0
41
1
10
60.4275178533353
20
-4.86649171980758
30
0
41
1
10
61.0136440602352
20
-4.71044809313995
30
0
41
1
10
61.3067483612271
20
-4.62622885900475
30
0
41
1
10
62.1881625634908
20
-4.35546557763408
30
0
41
1
10
62.773954944959
20
-4.15314627624852
30
0
41
1
10
63.4885779616354
20
-3.88322400440868
30
0
41
1
10
63.617683677119
20
-3.83351757857056
30
0
41
1
10
63.7468198643752
20
-3.78294357730212
30
0
0
SPLINE
5
E4
100
AcDbEntity
8
1
62
256
6
ByLayer
370
18
48
1
60
0
100
AcDbSpline
70
4
71
4
72
10
73
5
40
0
40
0
40
0
40
0
40
0
40
1
40
1
40
1
40
1
40
1
41
1
10
15.1985266074174
20
-1.68847615538084
30
0
41
1
10
14.9231938479825
20
-2.17724841348968
30
0
41
1
10
14.6478610885475
20
-2.66602067159854
30
0
41
1
10
14.3725283291126
20
-3.15479292970738
30
0
41
1
10
14.0971955696776
20
-3.64356518781625
30
0
0
SPLINE
5
E5
100
AcDbEntity
8
1
62
256
6
ByLayer
370
18
48
1
60
0
100
AcDbSpline
70
4
71
3
72
8
73
4
40
0
40
0
40
0
40
0
40
1
40
1
40
1
40
1
41
1
10
70.3954222983885
20
0.597195816456235
30
0
41
1
10
70.7016436696233
20
0.470170721868669
30
0
41
1
10
71.0101352265057
20
0.354978237241966
30
0
41
1
10
71.3211696845593
20
0.25303980421964
30
0
0
SPLINE
5
E6
100
AcDbEntity
8
1
62
256
6
ByLayer
370
18
48
1
60
0
100
AcDbSpline
70
4
71
3
72
10
73
6
40
0
40
0
40
0
40
0
40
0.5
40
0.5
40
1
40
1
40
1
40
1
41
1
10
71.4268021855881
20
2.42682767708189
30
0
41
1
10
71.4074185135736
20
2.50166066510903
30
0
41
1
10
71.3934310092044
20
2.57700208071839
30
0
41
1
10
71.3785055675692
20
2.72901481457325
30
0
41
1
10
71.3774963981999
20
2.80567676326092
30
0
41
1
10
71.3854924731848
20
2.88332305123632
30
0
0
SPLINE
5
E7
100
AcDbEntity
8
1
62
256
6
ByLayer
370
18
48
1
60
0
100
AcDbSpline
70
4
71
3
72
16
73
12
40
0
40
0
40
0
40
0
40
0.124999999999991
40
0.124999999999991
40
0.249999999999981
40
0.249999999999981
40
0.499999999999988
40
0.499999999999988
40
0.749999999999994
40
0.749999999999994
40
1
40
1
40
1
40
1
41
1
10
4.43484570510844
20
-5.0934449063511
30
0
41
1
10
4.43948508818588
20
-5.10274420550485
30
0
41
1
10
4.44767823992839
20
-5.11128723415328
30
0
41
1
10
4.46842229764263
20
-5.12742254671031
30
0
41
1
10
4.48116683977622
20
-5.13505399417079
30
0
41
1
10
4.52288007111724
20
-5.15620192248349
30
0
41
1
10
4.55542126539987
20
-5.16828370302409
30
0
41
1
10
4.62539796017651
20
-5.19035155769896
30
0
41
1
10
4.66237807550908
20
-5.20012760108773
30
0
41
1
10
4.73853197725794
20
-5.21812050859933
30
0
41
1
10
4.77776807181797
20
-5.22633473292135
30
0
41
1
10
4.81796124357882
20
-5.23393058689902
30
0
0
SPLINE
5
E8
100
AcDbEntity
8
1
62
256
6
ByLayer
370
18
48
1
60
0
100
AcDbSpline
70
4
71
3
72
13
73
9
40
0
40
0
40
0
40
0
40
0.228665858853682
40
0.400211023150984
40
0.514442574340571
40
0.629055608460215
40
0.800715908389978
40
1
40
1
40
1
40
1
41
1
10
39.5790641614246
20
0.0379548772441751
30
0
41
1
10
39.4098469588119
20
0.0776795846680614
30
0
41
1
10
39.1139875389422
20
0.156990987686299
30
0
41
1
10
38.7343325829389
20
0.281101488409746
30
0
41
1
10
38.4392727523187
20
0.389740440139207
30
0
41
1
10
38.1452019138169
20
0.507780773040082
30
0
41
1
10
37.7895914743009
20
0.664782406787708
30
0
41
1
10
37.5186793974379
20
0.800198423138596
30
0
41
1
10
37.3733680573628
20
0.877257548978747
30
0
0
SPLINE
5
E9
100
AcDbEntity
8
1
62
256
6
ByLayer
370
18
48
1
60
0
100
AcDbSpline
70
4
71
3
72
25
73
21
40
0
40
0
40
0
40
0
40
0.0671289705074045
40
0.12978748867665
40
0.199287710792217
40
0.24452409939975
40
0.29287692180478
40
0.349908283031425
40
0.417060311313854
40
0.493486349899875
40
0.563493697787161
40
0.630767714153048
40
0.705180071167326
40
0.759396647837377
40
0.812775447281472
40
0.854979102720922
40
0.886104751481663
40
0.919366995977854
40
0.95659991484278
40
1
40
1
40
1
40
1
41
1
10
22.7725326079675
20
5.47574189841308
30
0
41
1
10
22.5015735749514
20
5.4749127180454
30
0
41
1
10
21.9776998816092
20
5.47363862807256
30
0
41
1
10
21.1733021590472
20
5.47159955008763
30
0
41
1
10
20.4572577322315
20
5.47265927342326
30
0
41
1
10
19.7989679959515
20
5.46938555454386
30
0
41
1
10
19.1910036887311
20
5.46832490183772
30
0
41
1
10
18.4945778076057
20
5.46837636496045
30
0
41
1
10
17.6848417582905
20
5.46535936435509
30
0
41
1
10
16.8227208091675
20
5.46434775544913
30
0
41
1
10
15.9601195072193
20
5.46199463433129
30
0
41
1
10
15.1056436654212
20
5.46090191018416
30
0
41
1
10
14.3149139190968
20
5.45962166741512
30
0
41
1
10
13.5802389596224
20
5.45796997679756
30
0
41
1
10
12.9756515816829
20
5.45718416433382
30
0
41
1
10
12.4642022511003
20
5.45630577745038
30
0
41
1
10
12.034700302153
20
5.45513452586843
30
0
41
1
10
11.6237702241725
20
5.45456760448198
30
0
41
1
10
11.1708737817912
20
5.45381482083442
30
0
41
1
10
10.8464695509686
20
5.45273424562851
30
0
41
1
10
10.6715368989586
20
5.452285445683
30
0
0
SPLINE
5
EA
100
AcDbEntity
8
1
62
256
6
ByLayer
370
18
48
1
60
0
100
AcDbSpline
70
4
71
3
72
27
73
23
40
0
40
0
40
0
40
0
40
0.0516465646615944
40
0.10251303150462
40
0.152537646266793
40
0.19888290301819
40
0.241360043513028
40
0.276940163922286
40
0.306845384433891
40
0.343530180985006
40
0.387082543052498
40
0.427525705457363
40
0.479807077414971
40
0.537753543395801
40
0.596269484658459
40
0.652736343218772
40
0.720329092526581
40
0.789898784160052
40
0.8338274786635
40
0.904519836480572
40
0.969882850417257
40
1
40
1
40
1
40
1
41
1
10
8.96490699524543
20
-5.44911779611923
30
0
41
1
10
9.18924872809768
20
-5.44736808884912
30
0
41
1
10
9.64078024836138
20
-5.44551049231478
30
0
41
1
10
10.3587829929662
20
-5.44800610068489
30
0
41
1
10
11.0162760821242
20
-5.45401182311841
30
0
41
1
10
11.6565585491465
20
-5.45449806290802
30
0
41
1
10
12.2310229003325
20
-5.4558318649201
30
0
41
1
10
12.7296443998768
20
-5.45679207966791
30
0
41
1
10
13.2014316535454
20
-5.45748875485455
30
0
41
1
10
13.7101043632138
20
-5.45823369379511
30
0
41
1
10
14.2674283255305
20
-5.45948191527484
30
0
41
1
10
14.896787650912
20
-5.46070962212261
30
0
41
1
10
15.5926179939635
20
-5.46129880055167
30
0
41
1
10
16.371911200282
20
-5.46327197553362
30
0
41
1
10
17.170528899199
20
-5.46455313083669
30
0
41
1
10
18.0137041628316
20
-5.46679895516891
30
0
41
1
10
18.9079287019029
20
-5.46848574663488
30
0
41
1
10
19.7442466187016
20
-5.46902440841055
30
0
41
1
10
20.5948775852211
20
-5.47307476743279
30
0
41
1
10
21.4260850622551
20
-5.47097695180167
30
0
41
1
10
22.1935101918346
20
-5.47541468417214
30
0
41
1
10
22.6344486680696
20
-5.47557200931342
30
0
41
1
10
22.7735324837476
20
-5.47558425352622
30
0
0
SPLINE
5
EB
100
AcDbEntity
8
1
62
256
6
ByLayer
370
18
48
1
60
0
100
AcDbSpline
70
4
71
3
72
29
73
25
40
0
40
0
40
0
40
0
40
0.0488404455864612
40
0.110483668424378
40
0.178087785970879
40
0.220872048057978
40
0.264429204042498
40
0.302928552379402
40
0.336130239138353
40
0.366967912254374
40
0.408694245572761
40
0.473231108235306
40
0.538216733287647
40
0.59626624561687
40
0.644439788968594
40
0.695809016082303
40
0.759871278081498
40
0.816465183194309
40
0.860118346159156
40
0.88299017215931
40
0.907904549155196
40
0.939430646535358
40
0.987035750198406
40
1
40
1
40
1
40
1
41
1
10
55.2562151976867
20
5.53155337654124
30
0
41
1
10
55.0591473473428
20
5.53107462970976
30
0
41
1
10
54.6133506786857
20
5.53017586432458
30
0
41
1
10
53.8947579118708
20
5.52954984032749
30
0
41
1
10
53.2006051936049
20
5.52939847591344
30
0
41
1
10
52.579433002261
20
5.52725972301818
30
0
41
1
10
52.0756986145204
20
5.52597623901966
30
0
41
1
10
51.610630122167
20
5.5255179456619
30
0
41
1
10
51.1968842669263
20
5.5251560228771
30
0
41
1
10
50.7701171110338
20
5.5242930344406
30
0
41
1
10
50.2169126520456
20
5.52265371783619
30
0
41
1
10
49.5259190035959
20
5.52217074511071
30
0
41
1
10
48.7690560529111
20
5.52128049175806
30
0
41
1
10
48.0782461373947
20
5.51923192822881
30
0
41
1
10
47.4423500936865
20
5.51856329014487
30
0
41
1
10
46.7822194522029
20
5.51755847428095
30
0
41
1
10
46.0880704472279
20
5.51562116176592
30
0
41
1
10
45.4251410129018
20
5.51520481261809
30
0
41
1
10
44.9282059779058
20
5.51434566611891
30
0
41
1
10
44.5595474634079
20
5.51348284221021
30
0
41
1
10
44.2392094646517
20
5.51277219026815
30
0
41
1
10
43.821195106861
20
5.51211294872581
30
0
41
1
10
43.4491877614645
20
5.51153490706795
30
0
41
1
10
43.2047278710105
20
5.51111405808015
30
0
41
1
10
43.1524107925608
20
5.51102260122394
30
0
0
SPLINE
5
EC
100
AcDbEntity
8
1
62
256
6
ByLayer
370
18
48
1
60
0
100
AcDbSpline
70
4
71
3
72
28
73
24
40
0
40
0
40
0
40
0
40
0.0514342145727648
40
0.0996818200422127
40
0.139486761971226
40
0.171315886538311
40
0.195039011832347
40
0.222532630492316
40
0.264942698846741
40
0.308970356485884
40
0.340980834793473
40
0.374904150708834
40
0.413382062281536
40
0.447699712506295
40
0.504746652943605
40
0.57728974689546
40
0.646023784541342
40
0.711227996281123
40
0.760583865037647
40
0.810597634734329
40
0.865111483170623
40
0.935676562798656
40
1
40
1
40
1
40
1
41
1
10
41.4827385093203
20
-5.50790215397762
30
0
41
1
10
41.714889882616
20
-5.50777812001965
30
0
41
1
10
42.1665914505142
20
-5.50797731688107
30
0
41
1
10
42.8108776411109
20
-5.50742781468631
30
0
41
1
10
43.3567026214434
20
-5.51102952457975
30
0
41
1
10
43.7874956588163
20
-5.51216750700925
30
0
41
1
10
44.1695460314871
20
-5.51261925991651
30
0
41
1
10
44.5999994215455
20
-5.51359692796049
30
0
41
1
10
45.1239048244828
20
-5.51473015973031
30
0
41
1
10
45.6685387463815
20
-5.51545048542673
30
0
41
1
10
46.1741633976448
20
-5.51586569814091
30
0
41
1
10
46.6542682308671
20
-5.51709630602528
30
0
41
1
10
47.1449674206756
20
-5.51821098871534
30
0
41
1
10
47.7420118602162
20
-5.51879967947215
30
0
41
1
10
48.4956835029244
20
-5.52032717751749
30
0
41
1
10
49.4076210807738
20
-5.52225564168739
30
0
41
1
10
50.3570550426742
20
-5.52277903060016
30
0
41
1
10
51.1998729517327
20
-5.52545243352006
30
0
41
1
10
51.9566171409556
20
-5.52562471471043
30
0
41
1
10
52.6641996908107
20
-5.52757734580771
30
0
41
1
10
53.4693054555959
20
-5.52990089389567
30
0
41
1
10
54.3402168703302
20
-5.52944486159697
30
0
41
1
10
54.9604600824708
20
-5.53086139785137
30
0
41
1
10
55.2562316692004
20
-5.53161873967454
30
0
0
SPLINE
5
ED
100
AcDbEntity
8
1
62
256
6
ByLayer
370
18
48
1
60
0
100
AcDbSpline
70
4
71
3
72
13
73
9
40
0
40
0
40
0
40
0
40
0.229393204122687
40
0.401602519781922
40
0.516406039470627
40
0.631640834202594
40
0.80424457391667
40
1
40
1
40
1
40
1
41
1
10
23.1404324339003
20
-0.0374488242929942
30
0
41
1
10
23.3167545062377
20
-0.0788280594696857
30
0
41
1
10
23.6252932510954
20
-0.161944079778948
30
0
41
1
10
24.0214482009098
20
-0.292815229132089
30
0
41
1
10
24.3301541008864
20
-0.408170655288217
30
0
41
1
10
24.6385220954251
20
-0.534229521638821
30
0
41
1
10
25.0075506568541
20
-0.700496978423899
30
0
41
1
10
25.2878371065248
20
-0.843992807133304
30
0
41
1
10
25.4365158076566
20
-0.924795710959444
30
0
0
SPLINE
5
EE
100
AcDbEntity
8
1
62
256
6
ByLayer
370
18
48
1
60
0
100
AcDbSpline
70
4
71
3
72
13
73
9
40
0
40
0
40
0
40
0
40
0.225947751286215
40
0.395548627335237
40
0.508581720013537
40
0.622030169396618
40
0.79196485471115
40
1
40
1
40
1
40
1
41
1
10
55.6412560895954
20
-0.0376482596069252
30
0
41
1
10
55.8174378274843
20
-0.079042151504467
30
0
41
1
10
56.1256716854315
20
-0.162135533127923
30
0
41
1
10
56.5213719616787
20
-0.292891180936323
30
0
41
1
10
56.8295339678932
20
-0.408044074062815
30
0
41
1
10
57.1371939075144
20
-0.533752295476745
30
0
41
1
10
57.517265144538
20
-0.705097742611542
30
0
41
1
10
57.8087620921951
20
-0.854016654168646
30
0
41
1
10
57.9689014587393
20
-0.941056831178287
30
0
0
SPLINE
5
EF
100
AcDbEntity
8
1
62
256
6
ByLayer
370
18
48
1
60
0
100
AcDbSpline
70
4
71
3
72
10
73
6
40
0
40
0
40
0
40
0
40
0.289396040512289
40
0.655973523908717
40
1
40
1
40
1
40
1
41
1
10
71.1892261794144
20
0.301717850341248
30
0
41
1
10
71.0612776159728
20
0.345173560304261
30
0
41
1
10
70.7676911691171
20
0.45372421892418
30
0
41
1
10
70.3078456481398
20
0.655024307431944
30
0
41
1
10
69.9715464351418
20
0.823294494129556
30
0
41
1
10
69.8065048991854
20
0.910859318340783
30
0
0
LINE
5
7B
100
AcDbEntity
8
SK1
62
256
6
ByLayer
370
18
48
1
60
0
100
AcDbLine
10
0
20
-6
30
0
11
0
21
6
31
0
39
0
210
0
220
0
230
1
0
LINE
5
7D
100
AcDbEntity
8
SK1
62
256
6
ByLayer
370
18
48
1
60
0
100
AcDbLine
10
-43.267949
20
6
30
0
11
-43.267949
21
-6
31
0
39
0
210
0
220
0
230
1
0
LINE
5
7E
100
AcDbEntity
8
SK1
62
256
6
ByLayer
370
18
48
1
60
0
100
AcDbLine
10
-45
20
3
30
0
11
-45
21
-3
31
0
39
0
210
0
220
0
230
1
0
LINE
5
7F
100
AcDbEntity
8
1
62
256
6
ByLayer
370
13
48
1
60
0
100
AcDbLine
10
0.562467
20
5.787284
30
0
11
0.562467
21
-5.787284
31
0
39
0
210
0
220
0
230
1
0
LINE
5
80
100
AcDbEntity
8
1
62
256
6
ByLayer
370
18
48
1
60
0
100
AcDbLine
10
70.232069
20
-2.705216
30
0
11
72.195208
21
-1.129155
31
0
39
0
210
0
220
0
230
1
0
LINE
5
81
100
AcDbEntity
8
1
62
256
6
ByLayer
370
13
48
1
60
0
100
AcDbLine
10
1.126464
20
5.574569
30
0
11
1.126464
21
-5.574569
31
0
39
0
210
0
220
0
230
1
0
LINE
5
82
100
AcDbEntity
8
1
62
256
6
ByLayer
370
18
48
1
60
0
100
AcDbLine
10
0
20
-6
30
0
11
0
21
6
31
0
39
0
210
0
220
0
230
1
0
LINE
5
83
100
AcDbEntity
8
1
62
256
6
ByLayer
370
18
48
1
60
0
100
AcDbLine
10
72.195208
20
-1.129155
30
0
11
72.202339
21
-1.082542
31
0
39
0
210
0
220
0
230
1
0
LINE
5
84
100
AcDbEntity
8
80
62
256
6
ByLayer
370
18
48
1
60
0
100
AcDbLine
10
0
20
0
30
0
11
-5
21
0
31
0
39
0
210
0
220
0
230
1
0
LINE
5
85
100
AcDbEntity
8
4
62
256
6
ByLayer
370
18
48
0.05
60
0
100
AcDbLine
10
73
20
0
30
0
11
0
21
0
31
0
39
0
210
0
220
0
230
1
0
LINE
5
87
100
AcDbEntity
8
SK4
62
256
6
ByLayer
370
18
48
0.05
60
0
100
AcDbLine
10
78
20
0
30
0
11
-50
21
0
31
0
39
0
210
0
220
0
230
1
0
LINE
5
89
100
AcDbEntity
8
SK1
62
256
6
ByLayer
370
18
48
1
60
0
100
AcDbLine
10
-45
20
-3
30
0
11
-43.267949
21
-6
31
0
39
0
210
0
220
0
230
1
0
LINE
5
8A
100
AcDbEntity
8
SK1
62
256
6
ByLayer
370
18
48
1
60
0
100
AcDbLine
10
-43.267949
20
6
30
0
11
-45
21
3
31
0
39
0
210
0
220
0
230
1
0
LINE
5
8B
100
AcDbEntity
8
SK1
62
256
6
ByLayer
370
18
48
1
60
0
100
AcDbLine
10
-43.267949
20
-6
30
0
11
0
21
-6
31
0
39
0
210
0
220
0
230
1
0
LINE
5
8C
100
AcDbEntity
8
SK1
62
256
6
ByLayer
370
18
48
1
60
0
100
AcDbLine
10
0
20
6
30
0
11
-43.267949
21
6
31
0
39
0
210
0
220
0
230
1
0
LINE
5
8D
100
AcDbEntity
8
1
62
256
6
ByLayer
370
18
48
1
60
0
100
AcDbLine
10
1.126464
20
-5.574569
30
0
11
8.485971
21
-5.587816
31
0
39
0
210
0
220
0
230
1
0
LINE
5
8E
100
AcDbEntity
8
1
62
256
6
ByLayer
370
18
48
1
60
0
100
AcDbLine
10
39.988798
20
-5.644521
30
0
11
40.985659
21
-5.646315
31
0
39
0
210
0
220
0
230
1
0
LINE
5
8F
100
AcDbEntity
8
1
62
256
6
ByLayer
370
18
48
1
60
0
100
AcDbLine
10
40.98572
20
5.646316
30
0
11
39.988798
21
5.644521
31
0
39
0
210
0
220
0
230
1
0
LINE
5
90
100
AcDbEntity
8
1
62
256
6
ByLayer
370
18
48
1
60
0
100
AcDbLine
10
8.486018
20
5.587816
30
0
11
1.126464
21
5.574569
31
0
39
0
210
0
220
0
230
1
0
LINE
5
91
100
AcDbEntity
8
81
62
256
6
ByLayer
370
18
48
1
60
0
100
AcDbLine
10
73
20
0
30
0
11
78
21
0
31
0
39
0
210
0
220
0
230
1
0
LINE
5
92
100
AcDbEntity
8
SK2
62
256
6
ByLayer
370
13
48
1
60
0
100
AcDbLine
10
-53.625163
20
-6
30
0
11
-53.625163
21
36.857173
31
0
39
0
210
0
220
0
230
1
0
LINE
5
94
100
AcDbEntity
8
SK2
62
256
6
ByLayer
370
13
48
1
60
0
100
AcDbLine
10
-46.5875
20
6
30
0
11
-55.625163
21
6
31
0
39
0
210
0
220
0
230
1
0
LINE
5
95
100
AcDbEntity
8
SK2
62
256
6
ByLayer
370
13
48
1
60
0
100
AcDbLine
10
-46.5875
20
-6
30
0
11
-55.625163
21
-6
31
0
39
0
210
0
220
0
230
1
0
LINE
5
96
100
AcDbEntity
8
1
62
256
6
ByLayer
370
18
48
1
60
1
100
AcDbLine
10
-53.625163
20
6
30
0
11
-53.164379
21
2.500002
31
0
39
0
210
0
220
0
230
1
0
LINE
5
97
100
AcDbEntity
8
1
62
256
6
ByLayer
370
18
48
1
60
1
100
AcDbLine
10
-53.164379
20
2.500002
30
0
11
-54.085946
21
2.499998
31
0
39
0
210
0
220
0
230
1
0
LINE
5
98
100
AcDbEntity
8
1
62
256
6
ByLayer
370
18
48
1
60
1
100
AcDbLine
10
-54.085946
20
2.499998
30
0
11
-53.625163
21
6
31
0
39
0
210
0
220
0
230
1
0
LINE
5
99
100
AcDbEntity
8
1
62
256
6
ByLayer
370
18
48
1
60
1
100
AcDbLine
10
-53.625163
20
-6
30
0
11
-54.085946
21
-2.500002
31
0
39
0
210
0
220
0
230
1
0
LINE
5
9A
100
AcDbEntity
8
1
62
256
6
ByLayer
370
18
48
1
60
1
100
AcDbLine
10
-54.085946
20
-2.500002
30
0
11
-53.164379
21
-2.499998
31
0
39
0
210
0
220
0
230
1
0
LINE
5
9B
100
AcDbEntity
8
1
62
256
6
ByLayer
370
18
48
1
60
1
100
AcDbLine
10
-53.164379
20
-2.499998
30
0
11
-53.625163
21
-6
31
0
39
0
210
0
220
0
230
1
0
LINE
5
9C
100
AcDbEntity
8
2
62
256
6
ByLayer
370
13
48
1
60
0
100
AcDbLine
10
85.083343
20
-5.7
30
0
11
85.083343
21
34.643926
31
0
39
0
210
0
220
0
230
1
0
LINE
5
9E
100
AcDbEntity
8
2
62
256
6
ByLayer
370
13
48
1
60
0
100
AcDbLine
10
72.3979
20
5.7
30
0
11
87.083343
21
5.7
31
0
39
0
210
0
220
0
230
1
0
LINE
5
9F
100
AcDbEntity
8
2
62
256
6
ByLayer
370
13
48
1
60
0
100
AcDbLine
10
72.3979
20
-5.7
30
0
11
87.083343
21
-5.7
31
0
39
0
210
0
220
0
230
1
0
LINE
5
A0
100
AcDbEntity
8
1
62
256
6
ByLayer
370
18
48
1
60
1
100
AcDbLine
10
85.083343
20
5.7
30
0
11
85.544126
21
2.200002
31
0
39
0
210
0
220
0
230
1
0
LINE
5
A1
100
AcDbEntity
8
1
62
256
6
ByLayer
370
18
48
1
60
1
100
AcDbLine
10
85.544126
20
2.200002
30
0
11
84.622559
21
2.199998
31
0
39
0
210
0
220
0
230
1
0
LINE
5
A2
100
AcDbEntity
8
1
62
256
6
ByLayer
370
18
48
1
60
1
100
AcDbLine
10
84.622559
20
2.199998
30
0
11
85.083343
21
5.7
31
0
39
0
210
0
220
0
230
1
0
LINE
5
A3
100
AcDbEntity
8
1
62
256
6
ByLayer
370
18
48
1
60
1
100
AcDbLine
10
85.083343
20
-5.7
30
0
11
84.622559
21
-2.200002
31
0
39
0
210
0
220
0
230
1
0
LINE
5
A4
100
AcDbEntity
8
1
62
256
6
ByLayer
370
18
48
1
60
1
100
AcDbLine
10
84.622559
20
-2.200002
30
0
11
85.544126
21
-2.199998
31
0
39
0
210
0
220
0
230
1
0
LINE
5
A5
100
AcDbEntity
8
1
62
256
6
ByLayer
370
18
48
1
60
1
100
AcDbLine
10
85.544126
20
-2.199998
30
0
11
85.083343
21
-5.7
31
0
39
0
210
0
220
0
230
1
0
LINE
5
F6
100
AcDbEntity
8
1
62
256
6
ByLayer
370
18
48
1
60
1
100
AcDbLine
10
-53.625163
20
6
30
0
11
-53.164379
21
2.500002
31
0
39
0
210
0
220
0
230
1
0
LINE
5
F7
100
AcDbEntity
8
1
62
256
6
ByLayer
370
18
48
1
60
1
100
AcDbLine
10
-53.164379
20
2.500002
30
0
11
-54.085946
21
2.499998
31
0
39
0
210
0
220
0
230
1
0
LINE
5
F8
100
AcDbEntity
8
1
62
256
6
ByLayer
370
18
48
1
60
1
100
AcDbLine
10
-54.085946
20
2.499998
30
0
11
-53.625163
21
6
31
0
39
0
210
0
220
0
230
1
0
LINE
5
FA
100
AcDbEntity
8
1
62
256
6
ByLayer
370
18
48
1
60
1
100
AcDbLine
10
-53.625163
20
-6
30
0
11
-54.085946
21
-2.500002
31
0
39
0
210
0
220
0
230
1
0
LINE
5
FB
100
AcDbEntity
8
1
62
256
6
ByLayer
370
18
48
1
60
1
100
AcDbLine
10
-54.085946
20
-2.500002
30
0
11
-53.164379
21
-2.499998
31
0
39
0
210
0
220
0
230
1
0
LINE
5
FC
100
AcDbEntity
8
1
62
256
6
ByLayer
370
18
48
1
60
1
100
AcDbLine
10
-53.164379
20
-2.499998
30
0
11
-53.625163
21
-6
31
0
39
0
210
0
220
0
230
1
0
LINE
5
100
100
AcDbEntity
8
1
62
256
6
ByLayer
370
18
48
1
60
1
100
AcDbLine
10
85.083343
20
5.7
30
0
11
85.544126
21
2.200002
31
0
39
0
210
0
220
0
230
1
0
LINE
5
101
100
AcDbEntity
8
1
62
256
6
ByLayer
370
18
48
1
60
1
100
AcDbLine
10
85.544126
20
2.200002
30
0
11
84.622559
21
2.199998
31
0
39
0
210
0
220
0
230
1
0
LINE
5
102
100
AcDbEntity
8
1
62
256
6
ByLayer
370
18
48
1
60
1
100
AcDbLine
10
84.622559
20
2.199998
30
0
11
85.083343
21
5.7
31
0
39
0
210
0
220
0
230
1
0
LINE
5
104
100
AcDbEntity
8
1
62
256
6
ByLayer
370
18
48
1
60
1
100
AcDbLine
10
85.083343
20
-5.7
30
0
11
84.622559
21
-2.200002
31
0
39
0
210
0
220
0
230
1
0
LINE
5
105
100
AcDbEntity
8
1
62
256
6
ByLayer
370
18
48
1
60
1
100
AcDbLine
10
84.622559
20
-2.200002
30
0
11
85.544126
21
-2.199998
31
0
39
0
210
0
220
0
230
1
0
LINE
5
106
100
AcDbEntity
8
1
62
256
6
ByLayer
370
18
48
1
60
1
100
AcDbLine
10
85.544126
20
-2.199998
30
0
11
85.083343
21
-5.7
31
0
39
0
210
0
220
0
230
1
0
MTEXT
5
F0
100
AcDbEntity
8
SK6
62
256
6
ByLayer
370
13
48
1
60
0
100
AcDbMText
10
-13.418427
20
38.240328
30
0
210
0
220
0
230
1
1
\W0.7220;860.1-1140-053A1-PM P1BM
40
3.5
41
0
44
1.084337
50
0
71
7
72
5
7
iso_b_vert
0
MTEXT
5
F4
100
AcDbEntity
8
SK2
62
256
6
ByLayer
370
18
48
1
60
0
100
AcDbMText
10
-55.189796
20
19.409024
30
0
210
0
220
0
230
1
1
%%c
40
3.5
41
0
44
1.084337
50
90
71
7
72
5
7
iso_b_vert
0
MTEXT
5
F5
100
AcDbEntity
8
SK2
62
256
6
ByLayer
370
18
48
1
60
0
100
AcDbMText
10
-55.189796
20
24.63168
30
0
210
0
220
0
230
1
1
\W0.6930;12,000
40
3.5
41
0
44
1.084337
50
90
71
7
72
5
7
iso_b_vert
0
MTEXT
5
FE
100
AcDbEntity
8
2
62
256
6
ByLayer
370
18
48
1
60
0
100
AcDbMText
10
83.518709
20
17.70211
30
0
210
0
220
0
230
1
1
%%c
40
3.5
41
0
44
1.084337
50
90
71
7
72
5
7
iso_b_vert
0
MTEXT
5
FF
100
AcDbEntity
8
2
62
256
6
ByLayer
370
18
48
1
60
0
100
AcDbMText
10
83.518709
20
22.924766
30
0
210
0
220
0
230
1
1
\W0.6654;11,400
40
3.5
41
0
44
1.084337
50
90
71
7
72
5
7
iso_b_vert
0
HATCH
5
F9
100
AcDbEntity
8
SK2
62
256
6
ByLayer
370
13
48
1
60
0
100
AcDbHatch
10
0
20
0
30
0
210
0
220
0
230
1
2
ANSI31
70
0
71
0
91
1
92
5
93
3
72
1
10
-53.6251625675374
20
6
11
-53.1643788259847
21
2.50000169255318
72
1
10
-53.1643788259847
20
2.50000169255318
11
-54.0859463090902
21
2.49999830744682
72
1
10
-54.0859463090902
20
2.49999830744682
11
-53.6251625675374
21
6
97
0
75
0
76
1
52
0
41
0.0062
77
0
78
1
53
45
43
0
44
0
45
-0.0139193969876572
46
0.0139193969876572
79
0
47
0
98
1
10
0
20
0
0
HATCH
5
FD
100
AcDbEntity
8
SK2
62
256
6
ByLayer
370
13
48
1
60
0
100
AcDbHatch
10
0
20
0
30
0
210
0
220
0
230
1
2
ANSI31
70
0
71
0
91
1
92
5
93
3
72
1
10
-53.6251625675374
20
-6
11
-54.0859463090902
21
-2.50000169255318
72
1
10
-54.0859463090902
20
-2.50000169255318
11
-53.1643788259847
21
-2.49999830744682
72
1
10
-53.1643788259847
20
-2.49999830744682
11
-53.6251625675374
21
-6
97
0
75
0
76
1
52
0
41
0.0062
77
0
78
1
53
45
43
0
44
0
45
-0.0139193969876572
46
0.0139193969876572
79
0
47
0
98
1
10
0
20
0
0
HATCH
5
103
100
AcDbEntity
8
2
62
256
6
ByLayer
370
13
48
1
60
0
100
AcDbHatch
10
0
20
0
30
0
210
0
220
0
230
1
2
ANSI31
70
0
71
0
91
1
92
5
93
3
72
1
10
85.083342615295
20
5.70000000000002
11
85.5441263568478
21
2.2000016925532
72
1
10
85.5441263568478
20
2.2000016925532
11
84.6225588737423
21
2.19999830744683
72
1
10
84.6225588737423
20
2.19999830744683
11
85.083342615295
21
5.70000000000002
97
0
75
0
76
1
52
0
41
0.0062
77
0
78
1
53
45
43
0
44
0
45
-0.0139193969876572
46
0.0139193969876572
79
0
47
0
98
1
10
0
20
0
0
HATCH
5
107
100
AcDbEntity
8
2
62
256
6
ByLayer
370
13
48
1
60
0
100
AcDbHatch
10
0
20
0
30
0
210
0
220
0
230
1
2
ANSI31
70
0
71
0
91
1
92
5
93
3
72
1
10
85.083342615295
20
-5.69999999999999
11
84.6225588737423
21
-2.20000169255317
72
1
10
84.6225588737423
20
-2.20000169255317
11
85.5441263568478
21
-2.1999983074468
72
1
10
85.5441263568478
20
-2.1999983074468
11
85.083342615295
21
-5.69999999999999
97
0
75
0
76
1
52
0
41
0.0062
77
0
78
1
53
45
43
0
44
0
45
-0.0139193969876572
46
0.0139193969876572
79
0
47
0
98
1
10
0
20
0
0
DIMENSION
5
109
100
AcDbEntity
8
2
62
256
6
ByLayer
370
13
48
1
60
0
100
AcDbDimension
2
_U0
10
70.8104
20
-15.913398
30
0
11
35.4052
21
-15.913398
31
0
70
32
71
1
72
1
41
1
210
0
220
0
230
1
3
Standard
100
AcDbAlignedDimension
13
0
23
0
33
0
14
70.8104
24
-5.7
34
0
50
0
100
AcDbRotatedDimension
1001
ACAD
1000
DSTYLE
1002
{
1070
   371
1070
    13
1070
   372
1070
    13
1070
   170
1070
     0
1070
   144
1040
1.0
1070
   277
1070
     2
1070
   278
1070
    44
1070
   146
1040
1.0
1070
   345
1005
16
1070
   347
1005
16
1070
   346
1005
16
1070
   344
1005
0
1070
   343
1005
0
1070
   172
1070
     1
1070
    76
1070
     0
1070
    75
1070
     0
1070
   282
1070
     0
1070
   281
1070
     0
1070
    71
1070
     0
1070
    74
1070
     0
1070
   279
1070
     0
1070
   173
1070
     1
1070
   340
1005
F1
1070
   271
1070
     2
1070
   272
1070
     2
1070
    77
1070
     1
1070
    73
1070
     1
1070
   171
1070
     3
1070
   274
1070
     4
1070
   177
1070
    35
1070
   176
1070
    35
1070
   178
1070
    35
1070
    48
1040
-0.1
1070
    41
1040
3.5
1070
   147
1040
1.75
1070
    42
1040
1.5875
1070
    44
1040
2.0
1070
   140
1040
3.5
1002
}
1001
ACAD_DSTYLE_DIM_LINETYPE
1070
   380
1005
16
1001
ACAD_DSTYLE_DIM_EXT1_LINETYPE
1070
   381
1005
16
1001
ACAD_DSTYLE_DIM_EXT2_LINETYPE
1070
   382
1005
16
0
DIMENSION
5
122
100
AcDbEntity
8
SK2
62
256
6
ByLayer
370
13
48
1
60
0
100
AcDbDimension
2
_U1
10
73
20
-34.692985
30
0
11
14
21
-34.692985
31
0
70
32
71
1
72
1
41
1
210
0
220
0
230
1
3
Standard
100
AcDbAlignedDimension
13
-45
23
-6
33
0
14
73
24
0
34
0
50
0
100
AcDbRotatedDimension
1001
ACAD
1000
DSTYLE
1002
{
1070
   371
1070
    13
1070
   372
1070
    13
1070
   170
1070
     0
1070
   144
1040
1.0
1070
   277
1070
     2
1070
   278
1070
    44
1070
   146
1040
1.0
1070
   345
1005
16
1070
   347
1005
16
1070
   346
1005
16
1070
   344
1005
0
1070
   343
1005
0
1070
   172
1070
     1
1070
    76
1070
     0
1070
    75
1070
     0
1070
   282
1070
     0
1070
   281
1070
     0
1070
    71
1070
     0
1070
    74
1070
     0
1070
   279
1070
     0
1070
   173
1070
     1
1070
   340
1005
F1
1070
   271
1070
     2
1070
   272
1070
     2
1070
    77
1070
     1
1070
    73
1070
     1
1070
   171
1070
     3
1070
   274
1070
     4
1070
   177
1070
    35
1070
   176
1070
    35
1070
   178
1070
    35
1070
    48
1040
-0.1
1070
    41
1040
3.5
1070
   147
1040
1.75
1070
    42
1040
1.5875
1070
    44
1040
2.0
1070
   140
1040
3.5
1002
}
1001
ACAD_DSTYLE_DIM_LINETYPE
1070
   380
1005
16
1001
ACAD_DSTYLE_DIM_EXT1_LINETYPE
1070
   381
1005
16
1001
ACAD_DSTYLE_DIM_EXT2_LINETYPE
1070
   382
1005
16
0
DIMENSION
5
13A
100
AcDbEntity
8
SK2
62
256
6
ByLayer
370
13
48
1
60
0
100
AcDbDimension
2
_U2
10
73
20
17.309119
30
0
11
44.225
21
17.309119
31
0
70
32
71
1
72
1
41
1
210
0
220
0
230
1
3
Standard
100
AcDbAlignedDimension
13
15.45
23
5.7
33
0
14
73
24
0
34
0
50
0
100
AcDbRotatedDimension
1001
ACAD
1000
DSTYLE
1002
{
1070
   371
1070
    13
1070
   372
1070
    13
1070
   170
1070
     0
1070
   144
1040
1.0
1070
   277
1070
     2
1070
   278
1070
    44
1070
   146
1040
1.0
1070
   345
1005
16
1070
   347
1005
16
1070
   346
1005
16
1070
   344
1005
0
1070
   343
1005
0
1070
   172
1070
     1
1070
    76
1070
     0
1070
    75
1070
     0
1070
   282
1070
     0
1070
   281
1070
     0
1070
    71
1070
     0
1070
    74
1070
     0
1070
   279
1070
     0
1070
   173
1070
     1
1070
   340
1005
F1
1070
   271
1070
     2
1070
   272
1070
     2
1070
    77
1070
     1
1070
    73
1070
     1
1070
   171
1070
     3
1070
   274
1070
     4
1070
   177
1070
    35
1070
   176
1070
    35
1070
   178
1070
    35
1070
    48
1040
-0.1
1070
    41
1040
3.5
1070
   147
1040
1.75
1070
    42
1040
1.5875
1070
    44
1040
2.0
1070
   140
1040
3.5
1002
}
1001
ACAD_DSTYLE_DIM_LINETYPE
1070
   380
1005
16
1001
ACAD_DSTYLE_DIM_EXT1_LINETYPE
1070
   381
1005
16
1001
ACAD_DSTYLE_DIM_EXT2_LINETYPE
1070
   382
1005
16
0
DIMENSION
5
152
100
AcDbEntity
8
SK2
62
256
6
ByLayer
370
13
48
1
60
0
100
AcDbDimension
2
_U3
10
70.8104
20
-18.502503
30
0
11
90.5
21
-18.502503
31
0
70
32
71
1
72
1
41
1
210
0
220
0
230
1
3
Standard
100
AcDbAlignedDimension
13
73
23
0
33
0
14
70.8104
24
-5.7
34
0
50
0
100
AcDbRotatedDimension
1001
ACAD
1000
DSTYLE
1002
{
1070
   371
1070
    13
1070
   372
1070
    13
1070
   170
1070
     0
1070
   144
1040
1.0
1070
   277
1070
     2
1070
   278
1070
    44
1070
   146
1040
1.0
1070
   345
1005
16
1070
   347
1005
16
1070
   346
1005
16
1070
   344
1005
0
1070
   343
1005
0
1070
   172
1070
     1
1070
    76
1070
     0
1070
    75
1070
     0
1070
   282
1070
     0
1070
   281
1070
     0
1070
    71
1070
     0
1070
    74
1070
     0
1070
   279
1070
     0
1070
   173
1070
     1
1070
   340
1005
F1
1070
   271
1070
     2
1070
   272
1070
     2
1070
    77
1070
     1
1070
    73
1070
     1
1070
   171
1070
     3
1070
   274
1070
     4
1070
   177
1070
    35
1070
   176
1070
    35
1070
   178
1070
    35
1070
    48
1040
-0.1
1070
    41
1040
3.5
1070
   147
1040
1.75
1070
    42
1040
1.5875
1070
    44
1040
2.0
1070
   140
1040
3.5
1002
}
1001
ACAD_DSTYLE_DIM_LINETYPE
1070
   380
1005
16
1001
ACAD_DSTYLE_DIM_EXT1_LINETYPE
1070
   381
1005
16
1001
ACAD_DSTYLE_DIM_EXT2_LINETYPE
1070
   382
1005
16
0
DIMENSION
5
16C
100
AcDbEntity
8
SK2
62
256
6
ByLayer
370
13
48
1
60
0
100
AcDbDimension
2
_U4
10
70.8104
20
-24.343428
30
0
11
12.9052
21
-24.343428
31
0
70
32
71
1
72
1
41
1
210
0
220
0
230
1
3
Standard
100
AcDbAlignedDimension
13
-45
23
-6
33
0
14
70.8104
24
-5.7
34
0
50
0
100
AcDbRotatedDimension
1001
ACAD
1000
DSTYLE
1002
{
1070
   371
1070
    13
1070
   372
1070
    13
1070
   170
1070
     0
1070
   144
1040
1.0
1070
   277
1070
     2
1070
   278
1070
    44
1070
   146
1040
1.0
1070
   345
1005
16
1070
   347
1005
16
1070
   346
1005
16
1070
   344
1005
0
1070
   343
1005
0
1070
   172
1070
     1
1070
    76
1070
     0
1070
    75
1070
     0
1070
   282
1070
     0
1070
   281
1070
     0
1070
    71
1070
     0
1070
    74
1070
     0
1070
   279
1070
     0
1070
   173
1070
     1
1070
   340
1005
F1
1070
   271
1070
     2
1070
   272
1070
     2
1070
    77
1070
     1
1070
    73
1070
     1
1070
   171
1070
     3
1070
   274
1070
     4
1070
   177
1070
    35
1070
   176
1070
    35
1070
   178
1070
    35
1070
    48
1040
-0.1
1070
    41
1040
3.5
1070
   147
1040
1.75
1070
    42
1040
1.5875
1070
    44
1040
2.0
1070
   140
1040
3.5
1002
}
1001
ACAD_DSTYLE_DIM_LINETYPE
1070
   380
1005
16
1001
ACAD_DSTYLE_DIM_EXT1_LINETYPE
1070
   381
1005
16
1001
ACAD_DSTYLE_DIM_EXT2_LINETYPE
1070
   382
1005
16
0
ENDSEC
0
SECTION
2
OBJECTS
0
DICTIONARY
5
1f4
330
0
100
AcDbDictionary
280
0
281
1
3
ACAD_GROUP
350
1f5
3
ACAD_MLINESTYLE
350
1f6
0
DICTIONARY
5
1f5
330
0
100
AcDbDictionary
280
0
281
1
0
DICTIONARY
5
1f6
330
0
100
AcDbDictionary
280
0
281
1
3
Standard
350
18
0
MLINESTYLE
5
18
330
1f6
100
AcDbMlineStyle
2
Standard
70
0
3

62
256
51
90
52
90
71
2
49
-0.5
62
256
6
ByLayer
49
0.5
62
256
6
ByLayer
0
RASTERVARIABLES
5
1e2
330

100
AcDbRasterVariables
90
0
70
1
71
1
72
1
0
ENDSEC
0
EOF
