0
SECTION
2
HEADER
9
$ACADVER
1
AC1015
9
$DWGCODEPAGE
3
ANSI_1252
9
$HANDSEED
5
1fe
9
$ANGBASE
50
0
9
$ANGDIR
70
0
9
$ATTMODE
70
1
9
$AUNITS
70
0
9
$AUPREC
70
0
9
$CECOLOR
62
256
9
$CELTSCALE
40
1
9
$CELTYPE
6
ByLayer
9
$CELWEIGHT
370
18
9
$CLAYER
8
0
9
$CMLJUST
70
0
9
$CMLSCALE
40
1
9
$CMLSTYLE
2
Standard
9
$DIMSTYLE
2
Standard
9
$TEXTSIZE
40
0.2
9
$TEXTSTYLE
7
Standard
9
$LUNITS
70
2
9
$LUPREC
70
4
9
$EXTNAMES
290
1
9
$INSUNITS
70
4
9
$LTSCALE
40
1
9
$LWDISPLAY
290
1
9
$PDMODE
70
0
9
$PDSIZE
40
0
9
$PLINEGEN
70
0
0
ENDSEC
0
SECTION
2
CLASSES
0
CLASS
1
RASTERVARIABLES
2
AcDbRasterVariables
3
ISM
90
0
280
0
281
0
0
ENDSEC
0
SECTION
2
TABLES
0
TABLE
2
VPORT
5
1f4
100
AcDbSymbolTable
0
VPORT
5
1
100
AcDbSymbolTableRecord
100
AcDbViewportTableRecord
2
*Active
70
0
10
0
20
0
11
1
21
1
12
-1
22
1
13
0
23
0
14
0.5
24
0.5
15
10
25
10
16
0
26
0
36
1
17
0
27
0
37
0
0
ENDTAB
0
TABLE
2
LTYPE
5
1f5
100
AcDbSymbolTable
0
LTYPE
5
14
100
AcDbSymbolTableRecord
100
AcDbLinetypeTableRecord
70
0
2
ByBlock
3

72
65
73
0
40
0
0
LTYPE
5
15
100
AcDbSymbolTableRecord
100
AcDbLinetypeTableRecord
70
0
2
ByLayer
3

72
65
73
0
40
0
0
LTYPE
5
16
100
AcDbSymbolTableRecord
100
AcDbLinetypeTableRecord
70
0
2
Continuous
3
Solid line
72
65
73
0
40
0
0
LTYPE
5
6E
100
AcDbSymbolTableRecord
100
AcDbLinetypeTableRecord
70
0
2
CENTER
3
____ _ ____ _ ____ _ ____
72
65
73
4
40
47.5
49
22
74
0
49
-8.5
74
0
49
8.5
74
0
49
-8.5
74
0
0
LTYPE
5
6F
100
AcDbSymbolTableRecord
100
AcDbLinetypeTableRecord
70
0
2
DASHED
3
__ __ __ __ __ __ __ __ __
72
65
73
2
40
25.72
49
12.86
74
0
49
-12.86
74
0
0
ENDTAB
0
TABLE
2
LAYER
5
1f6
100
AcDbSymbolTable
0
LAYER
5
10
100
AcDbSymbolTableRecord
100
AcDbLayerTableRecord
2
0
70
0
62
7
6
Continuous
290
1
370
-3
390
0
0
LAYER
5
71
100
AcDbSymbolTableRecord
100
AcDbLayerTableRecord
2
80
70
0
62
-6
6
Continuous
290
1
370
-3
390
0
0
LAYER
5
73
100
AcDbSymbolTableRecord
100
AcDbLayerTableRecord
2
81
70
0
62
-3
6
Continuous
290
1
370
-3
390
0
0
LAYER
5
75
100
AcDbSymbolTableRecord
100
AcDbLayerTableRecord
2
1
70
0
62
4
6
Continuous
290
1
370
-3
390
0
0
LAYER
5
88
100
AcDbSymbolTableRecord
100
AcDbLayerTableRecord
2
4
70
0
62
-2
6
CENTER
290
1
370
-3
390
0
0
LAYER
5
9F
100
AcDbSymbolTableRecord
100
AcDbLayerTableRecord
2
2
70
0
62
7
6
Continuous
290
1
370
-3
390
0
0
LAYER
5
109
100
AcDbSymbolTableRecord
100
AcDbLayerTableRecord
2
Defpoints
70
0
62
7
6
Continuous
290
0
370
-3
390
0
0
LAYER
5
1e0
100
AcDbSymbolTableRecord
100
AcDbLayerTableRecord
2
SK1
70
0
62
4
6
Continuous
290
1
370
-3
390
0
0
LAYER
5
1e1
100
AcDbSymbolTableRecord
100
AcDbLayerTableRecord
2
SK4
70
0
62
2
6
CENTER
290
1
370
-3
390
0
0
LAYER
5
1e2
100
AcDbSymbolTableRecord
100
AcDbLayerTableRecord
2
SK2
70
0
62
7
6
Continuous
290
1
370
-3
390
0
0
LAYER
5
1e3
100
AcDbSymbolTableRecord
100
AcDbLayerTableRecord
2
SK6
70
0
62
5
6
Continuous
290
1
370
-3
390
0
0
ENDTAB
0
TABLE
2
STYLE
5
1f7
100
AcDbSymbolTable
0
STYLE
5
11
100
AcDbSymbolTableRecord
100
AcDbTextStyleTableRecord
2
Standard
3
txt
70
0
71
0
40
0
41
1
42
0
50
0
0
STYLE
5
EE
100
AcDbSymbolTableRecord
100
AcDbTextStyleTableRecord
2
iso_b_vert
3
simplex.shx
70
0
71
0
40
0
41
1
42
0
50
0
0
STYLE
5
EF
100
AcDbSymbolTableRecord
100
AcDbTextStyleTableRecord
2
DWGDirectTextStyle
3
simplex
70
0
71
0
40
0
41
1
42
0
50
0
0
ENDTAB
0
TABLE
2
DIMSTYLE
5
1f8
100
AcDbSymbolTable
100
AcDbDimStyleTable
0
DIMSTYLE
105
27
100
AcDbSymbolTableRecord
100
AcDbDimStyleTableRecord
2
Standard
70
0
3
<>
41
0.18
42
0.0625
44
0.18
140
0.18
147
0.09
73
0
74
0
77
1
271
2
275
0
278
52
280
0
340
11
0
ENDTAB
0
TABLE
2
VIEW
5
1f9
100
AcDbSymbolTable
0
ENDTAB
0
TABLE
2
UCS
5
1fa
100
AcDbSymbolTable
0
ENDTAB
0
TABLE
2
APPID
5
1fb
100
AcDbSymbolTable
0
APPID
5
12
100
AcDbSymbolTableRecord
100
AcDbRegAppTableRecord
2
ACAD
70
0
0
APPID
5
105
100
AcDbSymbolTableRecord
100
AcDbRegAppTableRecord
2
ACAD_DSTYLE_DIMBREAK
70
0
0
APPID
5
19F
100
AcDbSymbolTableRecord
100
AcDbRegAppTableRecord
2
ACAD_DSTYLE_DIM_LINETYPE
70
0
0
APPID
5
1A0
100
AcDbSymbolTableRecord
100
AcDbRegAppTableRecord
2
ACAD_DSTYLE_DIM_EXT1_LINETYPE
70
0
0
APPID
5
1A1
100
AcDbSymbolTableRecord
100
AcDbRegAppTableRecord
2
ACAD_DSTYLE_DIM_EXT2_LINETYPE
70
0
0
APPID
5
1DC
100
AcDbSymbolTableRecord
100
AcDbRegAppTableRecord
2
ACAD_MLEADERVER
70
0
0
ENDTAB
0
TABLE
2
BLOCK_RECORD
5
1fc
100
AcDbSymbolTable
0
BLOCK_RECORD
5
1F
100
AcDbSymbolTableRecord
100
AcDbBlockTableRecord
2
*Model_Space
340
0
70
0
0
BLOCK_RECORD
5
1B
100
AcDbSymbolTableRecord
100
AcDbBlockTableRecord
2
*Paper_Space
340
0
70
0
0
BLOCK_RECORD
5
23
100
AcDbSymbolTableRecord
100
AcDbBlockTableRecord
2
*Paper_Space0
340
0
70
0
0
BLOCK_RECORD
5
10A
100
AcDbSymbolTableRecord
100
AcDbBlockTableRecord
2
*D1
340
0
70
0
0
BLOCK_RECORD
5
116
100
AcDbSymbolTableRecord
100
AcDbBlockTableRecord
2
_U0
340
0
70
0
0
BLOCK_RECORD
5
122
100
AcDbSymbolTableRecord
100
AcDbBlockTableRecord
2
*D3
340
0
70
0
0
BLOCK_RECORD
5
12E
100
AcDbSymbolTableRecord
100
AcDbBlockTableRecord
2
_U1
340
0
70
0
0
BLOCK_RECORD
5
13A
100
AcDbSymbolTableRecord
100
AcDbBlockTableRecord
2
*D5
340
0
70
0
0
BLOCK_RECORD
5
146
100
AcDbSymbolTableRecord
100
AcDbBlockTableRecord
2
_U2
340
0
70
0
0
BLOCK_RECORD
5
152
100
AcDbSymbolTableRecord
100
AcDbBlockTableRecord
2
*D7
340
0
70
0
0
BLOCK_RECORD
5
160
100
AcDbSymbolTableRecord
100
AcDbBlockTableRecord
2
_U3
340
0
70
0
0
BLOCK_RECORD
5
16C
100
AcDbSymbolTableRecord
100
AcDbBlockTableRecord
2
*D9
340
0
70
0
0
BLOCK_RECORD
5
178
100
AcDbSymbolTableRecord
100
AcDbBlockTableRecord
2
_U4
340
0
70
0
0
ENDTAB
0
ENDSEC
0
SECTION
2
BLOCKS
0
BLOCK
5
20
100
AcDbEntity
8
0
100
AcDbBlockBegin
2
*Model_Space
70
0
10
0
20
0
30
0
3
*Model_Space
0
ENDBLK
5
21
100
AcDbEntity
8
0
100
AcDbBlockEnd
0
BLOCK
5
1C
100
AcDbEntity
8
0
100
AcDbBlockBegin
2
*Paper_Space
70
0
10
0
20
0
30
0
3
*Paper_Space
0
ENDBLK
5
1D
100
AcDbEntity
8
0
100
AcDbBlockEnd
0
BLOCK
5
24
100
AcDbEntity
8
0
100
AcDbBlockBegin
2
*Paper_Space0
70
0
10
0
20
0
30
0
3
*Paper_Space0
0
ENDBLK
5
25
100
AcDbEntity
8
0
100
AcDbBlockEnd
0
BLOCK
5
10B
100
AcDbEntity
8
0
100
AcDbBlockBegin
2
*D1
70
1
10
0
20
0
30
0
3
*D1
0
LINE
5
10D
100
AcDbEntity
8
0
62
256
6
ByLayer
370
-2
48
1
60
0
100
AcDbLine
10
0
20
-1.5875
30
0
11
0
21
-17.313398
31
0
39
0
210
0
220
0
230
1
0
LINE
5
10E
100
AcDbEntity
8
0
62
256
6
ByLayer
370
-2
48
1
60
0
100
AcDbLine
10
55.0426
20
-6.6875
30
0
11
55.0426
21
-17.313398
31
0
39
0
210
0
220
0
230
1
0
LINE
5
10F
100
AcDbEntity
8
0
62
256
6
ByLayer
370
-2
48
1
60
0
100
AcDbLine
10
3.5
20
-15.313398
30
0
11
51.5426
21
-15.313398
31
0
39
0
210
0
220
0
230
1
0
SOLID
5
110
100
AcDbEntity
8
0
62
256
6
ByLayer
370
-1
48
1
60
0
100
AcDbTrace
10
3.5
20
-14.730065
30
0
11
3.5
21
-15.896732
31
0
12
0
22
-15.313398
32
0
13
0
23
-15.313398
33
0
39
0
210
0
220
0
230
1
0
SOLID
5
111
100
AcDbEntity
8
0
62
256
6
ByLayer
370
-1
48
1
60
0
100
AcDbTrace
10
51.5426
20
-15.896732
30
0
11
51.5426
21
-14.730065
31
0
12
55.0426
22
-15.313398
32
0
13
55.0426
23
-15.313398
33
0
39
0
210
0
220
0
230
1
0
MTEXT
5
112
100
AcDbEntity
8
0
62
256
6
ByLayer
370
18
48
1
60
0
100
AcDbMText
10
27.5213
20
-8.313398
30
0
210
0
220
0
230
1
1
\A1;55.04
40
3.5
41
0
44
1
50
0
71
5
72
5
7
iso_b_vert
0
POINT
5
113
100
AcDbEntity
8
Defpoints
62
0
6
ByLayer
370
-1
48
1
60
0
100
AcDbPoint
10
0
20
0
30
0
39
0
210
0
220
0
230
1
50
360
0
POINT
5
114
100
AcDbEntity
8
Defpoints
62
0
6
ByLayer
370
-1
48
1
60
0
100
AcDbPoint
10
55.0426
20
-5.1
30
0
39
0
210
0
220
0
230
1
50
360
0
POINT
5
115
100
AcDbEntity
8
Defpoints
62
0
6
ByLayer
370
-1
48
1
60
0
100
AcDbPoint
10
55.0426
20
-15.313398
30
0
39
0
210
0
220
0
230
1
50
360
0
ENDBLK
5
10C
100
AcDbEntity
8
0
100
AcDbBlockEnd
0
BLOCK
5
11D
100
AcDbEntity
8
0
100
AcDbBlockBegin
2
_U0
70
0
10
0
20
0
30
0
3
_U0
0
MTEXT
5
117
100
AcDbEntity
8
2
62
256
6
ByLayer
370
13
48
1
60
0
100
AcDbMText
10
22.199735
20
-14.280765
30
0
210
0
220
0
230
1
1
\W0.7495;55,04
40
3.5
41
0
44
1.084337
50
0
71
7
72
5
7
iso_b_vert
0
LINE
5
118
100
AcDbEntity
8
2
62
256
6
ByLayer
370
13
48
1
60
0
100
AcDbLine
10
0
20
-1.5875
30
0
11
0
21
-17.313398
31
0
39
0
210
0
220
0
230
1
0
LINE
5
119
100
AcDbEntity
8
2
62
256
6
ByLayer
370
13
48
1
60
0
100
AcDbLine
10
55.0426
20
-6.6875
30
0
11
55.0426
21
-17.313398
31
0
39
0
210
0
220
0
230
1
0
LINE
5
11A
100
AcDbEntity
8
2
62
256
6
ByLayer
370
13
48
1
60
0
100
AcDbLine
10
0
20
-15.313398
30
0
11
55.0426
21
-15.313398
31
0
39
0
210
0
220
0
230
1
0
SOLID
5
11B
100
AcDbEntity
8
2
62
256
6
ByLayer
370
18
48
1
60
0
100
AcDbTrace
10
0
20
-15.313398
30
0
11
3.499998
21
-14.852615
31
0
12
3.500002
22
-15.774182
32
0
13
3.500002
23
-15.774182
33
0
39
0
210
0
220
0
230
1
0
SOLID
5
11C
100
AcDbEntity
8
2
62
256
6
ByLayer
370
18
48
1
60
0
100
AcDbTrace
10
55.0426
20
-15.313398
30
0
11
51.542602
21
-15.774182
31
0
12
51.542598
22
-14.852615
32
0
13
51.542598
23
-14.852615
33
0
39
0
210
0
220
0
230
1
0
ENDBLK
5
11E
100
AcDbEntity
8
0
100
AcDbBlockEnd
0
BLOCK
5
123
100
AcDbEntity
8
0
100
AcDbBlockBegin
2
*D3
70
1
10
0
20
0
30
0
3
*D3
0
LINE
5
125
100
AcDbEntity
8
0
62
256
6
ByLayer
370
-2
48
1
60
0
100
AcDbLine
10
-45
20
-7.5875
30
0
11
-45
21
-36.692985
31
0
39
0
210
0
220
0
230
1
0
LINE
5
126
100
AcDbEntity
8
0
62
256
6
ByLayer
370
-2
48
1
60
0
100
AcDbLine
10
57
20
-1.5875
30
0
11
57
21
-36.692985
31
0
39
0
210
0
220
0
230
1
0
LINE
5
127
100
AcDbEntity
8
0
62
256
6
ByLayer
370
-2
48
1
60
0
100
AcDbLine
10
-41.5
20
-34.692985
30
0
11
53.5
21
-34.692985
31
0
39
0
210
0
220
0
230
1
0
SOLID
5
128
100
AcDbEntity
8
0
62
256
6
ByLayer
370
-1
48
1
60
0
100
AcDbTrace
10
-41.5
20
-34.109652
30
0
11
-41.5
21
-35.276319
31
0
12
-45
22
-34.692985
32
0
13
-45
23
-34.692985
33
0
39
0
210
0
220
0
230
1
0
SOLID
5
129
100
AcDbEntity
8
0
62
256
6
ByLayer
370
-1
48
1
60
0
100
AcDbTrace
10
53.5
20
-35.276319
30
0
11
53.5
21
-34.109652
31
0
12
57
22
-34.692985
32
0
13
57
23
-34.692985
33
0
39
0
210
0
220
0
230
1
0
MTEXT
5
12A
100
AcDbEntity
8
0
62
256
6
ByLayer
370
18
48
1
60
0
100
AcDbMText
10
6
20
-27.692985
30
0
210
0
220
0
230
1
1
\A1;102.00
40
3.5
41
0
44
1
50
0
71
5
72
5
7
iso_b_vert
0
POINT
5
12B
100
AcDbEntity
8
Defpoints
62
0
6
ByLayer
370
-1
48
1
60
0
100
AcDbPoint
10
-45
20
-6
30
0
39
0
210
0
220
0
230
1
50
360
0
POINT
5
12C
100
AcDbEntity
8
Defpoints
62
0
6
ByLayer
370
-1
48
1
60
0
100
AcDbPoint
10
57
20
0
30
0
39
0
210
0
220
0
230
1
50
360
0
POINT
5
12D
100
AcDbEntity
8
Defpoints
62
0
6
ByLayer
370
-1
48
1
60
0
100
AcDbPoint
10
57
20
-34.692985
30
0
39
0
210
0
220
0
230
1
50
360
0
ENDBLK
5
124
100
AcDbEntity
8
0
100
AcDbBlockEnd
0
BLOCK
5
135
100
AcDbEntity
8
0
100
AcDbBlockBegin
2
_U1
70
0
10
0
20
0
30
0
3
_U1
0
MTEXT
5
12F
100
AcDbEntity
8
SK2
62
256
6
ByLayer
370
13
48
1
60
0
100
AcDbMText
10
-0.007599
20
-33.660352
30
0
210
0
220
0
230
1
1
\W0.6930;102,00
40
3.5
41
0
44
1.084337
50
0
71
7
72
5
7
iso_b_vert
0
LINE
5
130
100
AcDbEntity
8
SK2
62
256
6
ByLayer
370
13
48
1
60
0
100
AcDbLine
10
-45
20
-7.5875
30
0
11
-45
21
-36.692985
31
0
39
0
210
0
220
0
230
1
0
LINE
5
131
100
AcDbEntity
8
SK2
62
256
6
ByLayer
370
13
48
1
60
0
100
AcDbLine
10
57
20
-1.5875
30
0
11
57
21
-36.692985
31
0
39
0
210
0
220
0
230
1
0
LINE
5
132
100
AcDbEntity
8
SK2
62
256
6
ByLayer
370
13
48
1
60
0
100
AcDbLine
10
-45
20
-34.692985
30
0
11
57
21
-34.692985
31
0
39
0
210
0
220
0
230
1
0
SOLID
5
133
100
AcDbEntity
8
SK2
62
256
6
ByLayer
370
18
48
1
60
0
100
AcDbTrace
10
-45
20
-34.692985
30
0
11
-41.500002
21
-34.232202
31
0
12
-41.499998
22
-35.153769
32
0
13
-41.499998
23
-35.153769
33
0
39
0
210
0
220
0
230
1
0
SOLID
5
134
100
AcDbEntity
8
SK2
62
256
6
ByLayer
370
18
48
1
60
0
100
AcDbTrace
10
57
20
-34.692985
30
0
11
53.500002
21
-35.153769
31
0
12
53.499998
22
-34.232202
32
0
13
53.499998
23
-34.232202
33
0
39
0
210
0
220
0
230
1
0
ENDBLK
5
136
100
AcDbEntity
8
0
100
AcDbBlockEnd
0
BLOCK
5
13B
100
AcDbEntity
8
0
100
AcDbBlockBegin
2
*D5
70
1
10
0
20
0
30
0
3
*D5
0
LINE
5
13D
100
AcDbEntity
8
0
62
256
6
ByLayer
370
-2
48
1
60
0
100
AcDbLine
10
24.44
20
6.6875
30
0
11
24.44
21
18.709119
31
0
39
0
210
0
220
0
230
1
0
LINE
5
13E
100
AcDbEntity
8
0
62
256
6
ByLayer
370
-2
48
1
60
0
100
AcDbLine
10
57
20
1.5875
30
0
11
57
21
18.709119
31
0
39
0
210
0
220
0
230
1
0
LINE
5
13F
100
AcDbEntity
8
0
62
256
6
ByLayer
370
-2
48
1
60
0
100
AcDbLine
10
27.94
20
16.709119
30
0
11
53.5
21
16.709119
31
0
39
0
210
0
220
0
230
1
0
SOLID
5
140
100
AcDbEntity
8
0
62
256
6
ByLayer
370
-1
48
1
60
0
100
AcDbTrace
10
27.94
20
17.292453
30
0
11
27.94
21
16.125786
31
0
12
24.44
22
16.709119
32
0
13
24.44
23
16.709119
33
0
39
0
210
0
220
0
230
1
0
SOLID
5
141
100
AcDbEntity
8
0
62
256
6
ByLayer
370
-1
48
1
60
0
100
AcDbTrace
10
53.5
20
16.125786
30
0
11
53.5
21
17.292453
31
0
12
57
22
16.709119
32
0
13
57
23
16.709119
33
0
39
0
210
0
220
0
230
1
0
MTEXT
5
142
100
AcDbEntity
8
0
62
256
6
ByLayer
370
18
48
1
60
0
100
AcDbMText
10
40.72
20
23.709119
30
0
210
0
220
0
230
1
1
\A1;32.56
40
3.5
41
0
44
1
50
0
71
5
72
5
7
iso_b_vert
0
POINT
5
143
100
AcDbEntity
8
Defpoints
62
0
6
ByLayer
370
-1
48
1
60
0
100
AcDbPoint
10
24.44
20
5.1
30
0
39
0
210
0
220
0
230
1
50
360
0
POINT
5
144
100
AcDbEntity
8
Defpoints
62
0
6
ByLayer
370
-1
48
1
60
0
100
AcDbPoint
10
57
20
0
30
0
39
0
210
0
220
0
230
1
50
360
0
POINT
5
145
100
AcDbEntity
8
Defpoints
62
0
6
ByLayer
370
-1
48
1
60
0
100
AcDbPoint
10
57
20
16.709119
30
0
39
0
210
0
220
0
230
1
50
360
0
ENDBLK
5
13C
100
AcDbEntity
8
0
100
AcDbBlockEnd
0
BLOCK
5
14D
100
AcDbEntity
8
0
100
AcDbBlockBegin
2
_U2
70
0
10
0
20
0
30
0
3
_U2
0
MTEXT
5
147
100
AcDbEntity
8
SK2
62
256
6
ByLayer
370
13
48
1
60
0
100
AcDbMText
10
35.582701
20
17.741753
30
0
210
0
220
0
230
1
1
\W0.7317;32,56
40
3.5
41
0
44
1.084337
50
0
71
7
72
5
7
iso_b_vert
0
LINE
5
148
100
AcDbEntity
8
SK2
62
256
6
ByLayer
370
13
48
1
60
0
100
AcDbLine
10
24.44
20
6.6875
30
0
11
24.44
21
18.709119
31
0
39
0
210
0
220
0
230
1
0
LINE
5
149
100
AcDbEntity
8
SK2
62
256
6
ByLayer
370
13
48
1
60
0
100
AcDbLine
10
57
20
1.5875
30
0
11
57
21
18.709119
31
0
39
0
210
0
220
0
230
1
0
LINE
5
14A
100
AcDbEntity
8
SK2
62
256
6
ByLayer
370
13
48
1
60
0
100
AcDbLine
10
24.44
20
16.709119
30
0
11
57
21
16.709119
31
0
39
0
210
0
220
0
230
1
0
SOLID
5
14B
100
AcDbEntity
8
SK2
62
256
6
ByLayer
370
18
48
1
60
0
100
AcDbTrace
10
24.44
20
16.709119
30
0
11
27.939998
21
17.169903
31
0
12
27.940002
22
16.248335
32
0
13
27.940002
23
16.248335
33
0
39
0
210
0
220
0
230
1
0
SOLID
5
14C
100
AcDbEntity
8
SK2
62
256
6
ByLayer
370
18
48
1
60
0
100
AcDbTrace
10
57
20
16.709119
30
0
11
53.500002
21
16.248335
31
0
12
53.499998
22
17.169903
32
0
13
53.499998
23
17.169903
33
0
39
0
210
0
220
0
230
1
0
ENDBLK
5
14E
100
AcDbEntity
8
0
100
AcDbBlockEnd
0
BLOCK
5
153
100
AcDbEntity
8
0
100
AcDbBlockBegin
2
*D7
70
1
10
0
20
0
30
0
3
*D7
0
LINE
5
155
100
AcDbEntity
8
0
62
256
6
ByLayer
370
-2
48
1
60
0
100
AcDbLine
10
57
20
-1.5875
30
0
11
57
21
-19.902503
31
0
39
0
210
0
220
0
230
1
0
LINE
5
156
100
AcDbEntity
8
0
62
256
6
ByLayer
370
-2
48
1
60
0
100
AcDbLine
10
55.0426
20
-6.6875
30
0
11
55.0426
21
-19.902503
31
0
39
0
210
0
220
0
230
1
0
LINE
5
157
100
AcDbEntity
8
0
62
256
6
ByLayer
370
-2
48
1
60
0
100
AcDbLine
10
57
20
-17.902503
30
0
11
84.666667
21
-17.902503
31
0
39
0
210
0
220
0
230
1
0
LINE
5
158
100
AcDbEntity
8
0
62
256
6
ByLayer
370
-2
48
1
60
0
100
AcDbLine
10
60.5
20
-17.902503
30
0
11
64
21
-17.902503
31
0
39
0
210
0
220
0
230
1
0
LINE
5
159
100
AcDbEntity
8
0
62
256
6
ByLayer
370
-2
48
1
60
0
100
AcDbLine
10
51.5426
20
-17.902503
30
0
11
48.0426
21
-17.902503
31
0
39
0
210
0
220
0
230
1
0
SOLID
5
15A
100
AcDbEntity
8
0
62
256
6
ByLayer
370
-1
48
1
60
0
100
AcDbTrace
10
60.5
20
-17.31917
30
0
11
60.5
21
-18.485837
31
0
12
57
22
-17.902503
32
0
13
57
23
-17.902503
33
0
39
0
210
0
220
0
230
1
0
SOLID
5
15B
100
AcDbEntity
8
0
62
256
6
ByLayer
370
-1
48
1
60
0
100
AcDbTrace
10
51.5426
20
-18.485837
30
0
11
51.5426
21
-17.31917
31
0
12
55.0426
22
-17.902503
32
0
13
55.0426
23
-17.902503
33
0
39
0
210
0
220
0
230
1
0
MTEXT
5
15C
100
AcDbEntity
8
0
62
256
6
ByLayer
370
18
48
1
60
0
100
AcDbMText
10
74.333333
20
-10.902503
30
0
210
0
220
0
230
1
1
\A1;1.96
40
3.5
41
0
44
1
50
0
71
5
72
5
7
iso_b_vert
0
POINT
5
15D
100
AcDbEntity
8
Defpoints
62
0
6
ByLayer
370
-1
48
1
60
0
100
AcDbPoint
10
57
20
0
30
0
39
0
210
0
220
0
230
1
50
360
0
POINT
5
15E
100
AcDbEntity
8
Defpoints
62
0
6
ByLayer
370
-1
48
1
60
0
100
AcDbPoint
10
55.0426
20
-5.1
30
0
39
0
210
0
220
0
230
1
50
360
0
POINT
5
15F
100
AcDbEntity
8
Defpoints
62
0
6
ByLayer
370
-1
48
1
60
0
100
AcDbPoint
10
55.0426
20
-17.902503
30
0
39
0
210
0
220
0
230
1
50
360
0
ENDBLK
5
154
100
AcDbEntity
8
0
100
AcDbBlockEnd
0
BLOCK
5
167
100
AcDbEntity
8
0
100
AcDbBlockBegin
2
_U3
70
0
10
0
20
0
30
0
3
_U3
0
MTEXT
5
161
100
AcDbEntity
8
SK2
62
256
6
ByLayer
370
13
48
1
60
0
100
AcDbMText
10
63.589293
20
-16.86987
30
0
210
0
220
0
230
1
1
\W0.6367;1,96
40
3.5
41
0
44
1.084337
50
0
71
7
72
5
7
iso_b_vert
0
LINE
5
162
100
AcDbEntity
8
SK2
62
256
6
ByLayer
370
13
48
1
60
0
100
AcDbLine
10
57
20
-1.5875
30
0
11
57
21
-19.902503
31
0
39
0
210
0
220
0
230
1
0
LINE
5
163
100
AcDbEntity
8
SK2
62
256
6
ByLayer
370
13
48
1
60
0
100
AcDbLine
10
55.0426
20
-6.6875
30
0
11
55.0426
21
-19.902503
31
0
39
0
210
0
220
0
230
1
0
LINE
5
164
100
AcDbEntity
8
SK2
62
256
6
ByLayer
370
13
48
1
60
0
100
AcDbLine
10
46.2926
20
-17.902503
30
0
11
70.559058
21
-17.902503
31
0
39
0
210
0
220
0
230
1
0
SOLID
5
165
100
AcDbEntity
8
SK2
62
256
6
ByLayer
370
18
48
1
60
0
100
AcDbTrace
10
57
20
-17.902503
30
0
11
60.499998
21
-17.441719
31
0
12
60.500002
22
-18.363287
32
0
13
60.500002
23
-18.363287
33
0
39
0
210
0
220
0
230
1
0
SOLID
5
166
100
AcDbEntity
8
SK2
62
256
6
ByLayer
370
18
48
1
60
0
100
AcDbTrace
10
55.0426
20
-17.902503
30
0
11
51.542602
21
-18.363287
31
0
12
51.542598
22
-17.441719
32
0
13
51.542598
23
-17.441719
33
0
39
0
210
0
220
0
230
1
0
ENDBLK
5
168
100
AcDbEntity
8
0
100
AcDbBlockEnd
0
BLOCK
5
16D
100
AcDbEntity
8
0
100
AcDbBlockBegin
2
*D9
70
1
10
0
20
0
30
0
3
*D9
0
LINE
5
16F
100
AcDbEntity
8
0
62
256
6
ByLayer
370
-2
48
1
60
0
100
AcDbLine
10
-45
20
-7.5875
30
0
11
-45
21
-26.343428
31
0
39
0
210
0
220
0
230
1
0
LINE
5
170
100
AcDbEntity
8
0
62
256
6
ByLayer
370
-2
48
1
60
0
100
AcDbLine
10
55.0426
20
-6.6875
30
0
11
55.0426
21
-26.343428
31
0
39
0
210
0
220
0
230
1
0
LINE
5
171
100
AcDbEntity
8
0
62
256
6
ByLayer
370
-2
48
1
60
0
100
AcDbLine
10
-41.5
20
-24.343428
30
0
11
51.5426
21
-24.343428
31
0
39
0
210
0
220
0
230
1
0
SOLID
5
172
100
AcDbEntity
8
0
62
256
6
ByLayer
370
-1
48
1
60
0
100
AcDbTrace
10
-41.5
20
-23.760095
30
0
11
-41.5
21
-24.926762
31
0
12
-45
22
-24.343428
32
0
13
-45
23
-24.343428
33
0
39
0
210
0
220
0
230
1
0
SOLID
5
173
100
AcDbEntity
8
0
62
256
6
ByLayer
370
-1
48
1
60
0
100
AcDbTrace
10
51.5426
20
-24.926762
30
0
11
51.5426
21
-23.760095
31
0
12
55.0426
22
-24.343428
32
0
13
55.0426
23
-24.343428
33
0
39
0
210
0
220
0
230
1
0
MTEXT
5
174
100
AcDbEntity
8
0
62
256
6
ByLayer
370
18
48
1
60
0
100
AcDbMText
10
5.0213
20
-17.343428
30
0
210
0
220
0
230
1
1
\A1;100.04
40
3.5
41
0
44
1
50
0
71
5
72
5
7
iso_b_vert
0
POINT
5
175
100
AcDbEntity
8
Defpoints
62
0
6
ByLayer
370
-1
48
1
60
0
100
AcDbPoint
10
-45
20
-6
30
0
39
0
210
0
220
0
230
1
50
360
0
POINT
5
176
100
AcDbEntity
8
Defpoints
62
0
6
ByLayer
370
-1
48
1
60
0
100
AcDbPoint
10
55.0426
20
-5.1
30
0
39
0
210
0
220
0
230
1
50
360
0
POINT
5
177
100
AcDbEntity
8
Defpoints
62
0
6
ByLayer
370
-1
48
1
60
0
100
AcDbPoint
10
55.0426
20
-24.343428
30
0
39
0
210
0
220
0
230
1
50
360
0
ENDBLK
5
16E
100
AcDbEntity
8
0
100
AcDbBlockEnd
0
BLOCK
5
17F
100
AcDbEntity
8
0
100
AcDbBlockBegin
2
_U4
70
0
10
0
20
0
30
0
3
_U4
0
MTEXT
5
179
100
AcDbEntity
8
SK2
62
256
6
ByLayer
370
13
48
1
60
0
100
AcDbMText
10
-1.170565
20
-23.310795
30
0
210
0
220
0
230
1
1
\W0.7079;100,04
40
3.5
41
0
44
1.084337
50
0
71
7
72
5
7
iso_b_vert
0
LINE
5
17A
100
AcDbEntity
8
SK2
62
256
6
ByLayer
370
13
48
1
60
0
100
AcDbLine
10
-45
20
-7.5875
30
0
11
-45
21
-26.343428
31
0
39
0
210
0
220
0
230
1
0
LINE
5
17B
100
AcDbEntity
8
SK2
62
256
6
ByLayer
370
13
48
1
60
0
100
AcDbLine
10
55.0426
20
-6.6875
30
0
11
55.0426
21
-26.343428
31
0
39
0
210
0
220
0
230
1
0
LINE
5
17C
100
AcDbEntity
8
SK2
62
256
6
ByLayer
370
13
48
1
60
0
100
AcDbLine
10
-45
20
-24.343428
30
0
11
55.0426
21
-24.343428
31
0
39
0
210
0
220
0
230
1
0
SOLID
5
17D
100
AcDbEntity
8
SK2
62
256
6
ByLayer
370
18
48
1
60
0
100
AcDbTrace
10
-45
20
-24.343428
30
0
11
-41.500002
21
-23.882645
31
0
12
-41.499998
22
-24.804212
32
0
13
-41.499998
23
-24.804212
33
0
39
0
210
0
220
0
230
1
0
SOLID
5
17E
100
AcDbEntity
8
SK2
62
256
6
ByLayer
370
18
48
1
60
0
100
AcDbTrace
10
55.0426
20
-24.343428
30
0
11
51.542602
21
-24.804212
31
0
12
51.542598
22
-23.882645
32
0
13
51.542598
23
-23.882645
33
0
39
0
210
0
220
0
230
1
0
ENDBLK
5
180
100
AcDbEntity
8
0
100
AcDbBlockEnd
0
ENDSEC
0
SECTION
2
ENTITIES
0
ARC
5
A8
100
AcDbEntity
8
1
62
256
6
ByLayer
370
18
48
1
60
0
100
AcDbCircle
39
0
10
1.547512
20
-5.85371
30
0
40
0.85
210
0
220
0
230
1
100
AcDbArc
50
89.896868
51
155.546967
0
ARC
5
A9
100
AcDbEntity
8
1
62
256
6
ByLayer
370
18
48
1
60
0
100
AcDbCircle
39
0
10
1.547512
20
5.85371
30
0
40
0.85
210
0
220
0
230
1
100
AcDbArc
50
204.453033
51
270.103132
0
ARC
5
AA
100
AcDbEntity
8
1
62
256
6
ByLayer
370
18
48
1
60
0
100
AcDbCircle
39
0
10
0
20
-5.15
30
0
40
0.85
210
0
220
0
230
1
100
AcDbArc
50
270
51
335.546967
0
ARC
5
AB
100
AcDbEntity
8
1
62
256
6
ByLayer
370
18
48
1
60
0
100
AcDbCircle
39
0
10
0
20
5.15
30
0
40
0.85
210
0
220
0
230
1
100
AcDbArc
50
24.453033
51
90
0
ELLIPSE
5
AC
100
AcDbEntity
8
1
62
256
6
ByLayer
370
13
48
1
60
0
100
AcDbEllipse
10
15.2257
20
-75.743116
30
0
11
6.75879575054195
21
73.8387505227116
31
0
210
0
220
0
230
1
40
0.854936
41
0.171609214876942
42
0.258278090133985
0
ELLIPSE
5
AD
100
AcDbEntity
8
1
62
256
6
ByLayer
370
13
48
1
60
0
100
AcDbEllipse
10
101.194174
20
41.888784
30
0
11
-60.2
21
7.37213025001071E-15
31
0
210
0
220
0
230
1
40
0.99863
41
0.720178851571297
42
0.732214766884963
0
ELLIPSE
5
AE
100
AcDbEntity
8
1
62
256
6
ByLayer
370
13
48
1
60
0
100
AcDbEllipse
10
5.794641
20
1.852306
30
0
11
-0.159998804568733
21
-0.253772304510513
31
0
210
0
220
0
230
1
40
0.250273
41
-1.03915196788984
42
-0.826005859378784
0
ELLIPSE
5
AF
100
AcDbEntity
8
1
62
256
6
ByLayer
370
13
48
1
60
0
100
AcDbEllipse
10
6.112963
20
1.679099
30
0
11
0.128432078433146
21
0.271118426576546
31
0
210
0
220
0
230
1
40
0.146645
41
-2.80416193942671
42
-1.86679498492339
0
ELLIPSE
5
B0
100
AcDbEntity
8
1
62
256
6
ByLayer
370
18
48
1
60
0
100
AcDbEllipse
10
6.111642
20
-5.885279
30
0
11
-1
21
1.22460635382238E-16
31
0
210
0
220
0
230
1
40
0.999964
41
-1.57049541363812
42
-1.07398639523589
0
ELLIPSE
5
B1
100
AcDbEntity
8
1
62
256
6
ByLayer
370
18
48
1
60
0
100
AcDbEllipse
10
6.111642
20
5.885279
30
0
11
-1
21
1.22460635382238E-16
31
0
210
0
220
0
230
1
40
0.999964
41
1.07283228278938
42
1.57430585417893
0
POINT
5
70
100
AcDbEntity
8
80
62
256
6
ByLayer
370
18
48
1
60
0
100
AcDbPoint
10
0
20
0
30
0
39
0
210
0
220
0
230
1
50
360
0
POINT
5
72
100
AcDbEntity
8
81
62
256
6
ByLayer
370
18
48
1
60
0
100
AcDbPoint
10
57
20
0
30
0
39
0
210
0
220
0
230
1
50
360
0
POINT
5
74
100
AcDbEntity
8
1
62
256
6
ByLayer
370
18
48
1
60
1
100
AcDbPoint
10
55.0426
20
-5.1
30
0
39
0
210
0
220
0
230
1
50
360
0
POINT
5
76
100
AcDbEntity
8
1
62
256
6
ByLayer
370
18
48
1
60
1
100
AcDbPoint
10
-45
20
-6
30
0
39
0
210
0
220
0
230
1
50
360
0
POINT
5
77
100
AcDbEntity
8
1
62
256
6
ByLayer
370
18
48
1
60
1
100
AcDbPoint
10
24.44
20
5.1
30
0
39
0
210
0
220
0
230
1
50
360
0
POINT
5
78
100
AcDbEntity
8
1
62
256
6
ByLayer
370
18
48
1
60
1
100
AcDbPoint
10
55.0426
20
-5.1
30
0
39
0
210
0
220
0
230
1
50
360
0
POINT
5
79
100
AcDbEntity
8
1
62
256
6
ByLayer
370
18
48
1
60
1
100
AcDbPoint
10
-45
20
-6
30
0
39
0
210
0
220
0
230
1
50
360
0
POINT
5
7A
100
AcDbEntity
8
1
62
256
6
ByLayer
370
18
48
1
60
1
100
AcDbPoint
10
55.0426
20
-5.1
30
0
39
0
210
0
220
0
230
1
50
360
0
SPLINE
5
B2
100
AcDbEntity
8
1
62
256
6
ByLayer
370
18
48
1
60
0
100
AcDbSpline
70
4
71
3
72
72
73
68
40
0
40
0
40
0
40
0
40
0.0312499999999992
40
0.0312499999999992
40
0.0624999999999984
40
0.0624999999999984
40
0.0937499999999976
40
0.0937499999999976
40
0.124999999999997
40
0.124999999999997
40
0.187499999999994
40
0.187499999999994
40
0.203124999999993
40
0.203124999999993
40
0.218749999999993
40
0.218749999999993
40
0.249999999999992
40
0.249999999999992
40
0.281249999999991
40
0.281249999999991
40
0.31249999999999
40
0.31249999999999
40
0.343749999999989
40
0.343749999999989
40
0.374999999999989
40
0.374999999999989
40
0.406249999999988
40
0.406249999999988
40
0.437499999999987
40
0.437499999999987
40
0.468749999999986
40
0.468749999999986
40
0.499999999999985
40
0.499999999999985
40
0.515624999999985
40
0.515624999999985
40
0.531249999999985
40
0.531249999999985
40
0.562499999999986
40
0.562499999999986
40
0.593749999999987
40
0.593749999999987
40
0.624999999999988
40
0.624999999999988
40
0.656249999999989
40
0.656249999999989
40
0.68749999999999
40
0.68749999999999
40
0.718749999999991
40
0.718749999999991
40
0.749999999999992
40
0.749999999999992
40
0.781249999999993
40
0.781249999999993
40
0.812499999999994
40
0.812499999999994
40
0.843749999999995
40
0.843749999999995
40
0.874999999999996
40
0.874999999999996
40
0.906249999999997
40
0.906249999999997
40
0.937499999999998
40
0.937499999999998
40
0.968749999999999
40
0.968749999999999
40
1
40
1
40
1
40
1
41
1
10
17.9935241655677
20
4.16083730430569
30
0
41
1
10
18.3820652449551
20
4.26814734830802
30
0
41
1
10
18.7703112541611
20
4.36585752867356
30
0
41
1
10
19.5455826830911
20
4.5430628040275
30
0
41
1
10
19.932865619151
20
4.6222522792927
30
0
41
1
10
20.7076714151792
20
4.76098799628573
30
0
41
1
10
21.0953572087146
20
4.82043310595537
30
0
41
1
10
21.8716443310553
20
4.91913131959612
30
0
41
1
10
22.2606406418283
20
4.95823087850414
30
0
41
1
10
23.4242778097832
20
5.04378443452939
30
0
41
1
10
24.1980047520157
20
5.05860848564257
30
0
41
1
10
25.1672559280827
20
5.02406536857308
30
0
41
1
10
25.3613089024325
20
5.0145302880774
30
0
41
1
10
25.7494695133696
20
4.99009228185409
30
0
41
1
10
25.9437889696861
20
4.97518897766997
30
0
41
1
10
26.5262465973196
20
4.92276063217614
30
0
41
1
10
26.913739534588
20
4.87733538295652
30
0
41
1
10
27.6885128721447
20
4.76638571543663
30
0
41
1
10
28.0755029977057
20
4.70067545208329
30
0
41
1
10
28.8503015704862
20
4.54993568962476
30
0
41
1
10
29.2377204602331
20
4.46457402907441
30
0
41
1
10
30.0144209168851
20
4.2754269078483
30
0
41
1
10
30.402525072895
20
4.1712691753709
30
0
41
1
10
31.1776898077562
20
3.94688132596715
30
0
41
1
10
31.564565609121
20
3.82584797356645
30
0
41
1
10
32.3390336801164
20
3.56894509823661
30
0
41
1
10
32.7260230048362
20
3.43222853200285
30
0
41
1
10
33.501609752736
20
3.14529779595446
30
0
41
1
10
33.8901226687949
20
2.99403675731898
30
0
41
1
10
34.6657826620216
20
2.68088331773893
30
0
41
1
10
35.0528399180413
20
2.51819583524085
30
0
41
1
10
35.8269980000073
20
2.18344415899847
30
0
41
1
10
36.2139008417915
20
2.01102819505084
30
0
41
1
10
36.7947884270662
20
1.74630847561926
30
0
41
1
10
36.988418659101
20
1.65688112586139
30
0
41
1
10
37.3761610458562
20
1.47657936190023
30
0
41
1
10
37.5703703058199
20
1.3856724108623
30
0
41
1
10
38.1525519960767
20
1.11004754342235
30
0
41
1
10
38.5400826596994
20
0.924230544223576
30
0
41
1
10
39.31409720403
20
0.548744301296381
30
0
41
1
10
39.7010662449288
20
0.360063226127607
30
0
41
1
10
40.4747895707086
20
-0.0194584839388483
30
0
41
1
10
40.8621265574629
20
-0.20910191667906
30
0
41
1
10
41.6374658859513
20
-0.588755363179615
30
0
41
1
10
42.0259517483735
20
-0.777468131881847
30
0
41
1
10
42.8003343817549
20
-1.15120306074604
30
0
41
1
10
43.187304245035
20
-1.3353741185351
30
0
41
1
10
43.9607394100468
20
-1.69846475086081
30
0
41
1
10
44.3476615990034
20
-1.87648833151204
30
0
41
1
10
45.1220605006144
20
-2.22518862563504
30
0
41
1
10
45.5104198901457
20
-2.39542162001467
30
0
41
1
10
46.2855636711221
20
-2.7252043108758
30
0
41
1
10
46.6725857806391
20
-2.88431218339269
30
0
41
1
10
47.4460697887625
20
-3.19011071658244
30
0
41
1
10
47.8326827530821
20
-3.33654826035516
30
0
41
1
10
48.6063998212103
20
-3.61530171422061
30
0
41
1
10
48.9935560118407
20
-3.74753471862343
30
0
41
1
10
49.7694221850552
20
-3.99623238650713
30
0
41
1
10
50.1568807956244
20
-4.11237434929066
30
0
41
1
10
50.9313334071653
20
-4.32671338818292
30
0
41
1
10
51.3182808155393
20
-4.42511559220165
30
0
41
1
10
52.0929822863171
20
-4.6029347195915
30
0
41
1
10
52.4808953379381
20
-4.6826599954008
30
0
41
1
10
53.2560773022389
20
-4.82168678340128
30
0
41
1
10
53.6429748413242
20
-4.88127403899077
30
0
41
1
10
54.4171672670441
20
-4.97954519297562
30
0
41
1
10
54.8039920380132
20
-5.01846432591944
30
0
41
1
10
55.1915416974514
20
-5.04672047035123
30
0
0
SPLINE
5
B3
100
AcDbEntity
8
1
62
256
6
ByLayer
370
18
48
1
60
0
100
AcDbSpline
70
4
71
3
72
26
73
22
40
0
40
0
40
0
40
0
40
0.0564766044708127
40
0.0564766044708127
40
0.150828944023734
40
0.150828944023734
40
0.245181283576655
40
0.245181283576655
40
0.339533623129576
40
0.339533623129576
40
0.433885962682497
40
0.433885962682497
40
0.622590641788331
40
0.622590641788331
40
0.716942981341248
40
0.716942981341248
40
0.811295320894166
40
0.811295320894166
40
0.905647660447083
40
0.905647660447083
40
1
40
1
40
1
40
1
41
1
10
54.9850267004392
20
0.423658817387917
30
0
41
1
10
55.0018221696225
20
0.439626520025342
30
0
41
1
10
55.01916117445
20
0.456960980883423
30
0
41
1
10
55.0669130397528
20
0.506945125140277
30
0
41
1
10
55.0980613355904
20
0.541868812013149
30
0
41
1
10
55.1618183194968
20
0.617806364291141
30
0
41
1
10
55.1945651315799
20
0.658962223720124
30
0
41
1
10
55.2616426037042
20
0.747598044107633
30
0
41
1
10
55.2959746719783
20
0.795077287915973
30
0
41
1
10
55.3660692582228
20
0.896542385438011
30
0
41
1
10
55.4015959203442
20
0.950208832813047
30
0
41
1
10
55.5075312093469
20
1.11739720599621
30
0
41
1
10
55.5781054598408
20
1.23791476744688
30
0
41
1
10
55.6806329544129
20
1.43355318423968
30
0
41
1
10
55.7141037396576
20
1.5010935360192
30
0
41
1
10
55.7772610855827
20
1.63873846424664
30
0
41
1
10
55.8071523814335
20
1.70916373839071
30
0
41
1
10
55.8613692829882
20
1.85395070697001
30
0
41
1
10
55.8858189612017
20
1.92848857228472
30
0
41
1
10
55.9243780941159
20
2.08227410875441
30
0
41
1
10
55.9382447342664
20
2.16033206208431
30
0
41
1
10
55.942569159182
20
2.24014467350722
30
0
0
SPLINE
5
B4
100
AcDbEntity
8
1
62
256
6
ByLayer
370
18
48
1
60
0
100
AcDbSpline
70
4
71
3
72
8
73
4
40
0
40
0
40
0
40
0
40
1
40
1
40
1
40
1
41
1
10
56.4236977917082
20
1.699131520869
30
0
41
1
10
56.2512099968463
20
2.20006190786435
30
0
41
1
10
56.0796560132162
20
2.7013123689008
30
0
41
1
10
55.9090394323038
20
3.20288413499952
30
0
0
SPLINE
5
B5
100
AcDbEntity
8
1
62
256
6
ByLayer
370
18
48
1
60
0
100
AcDbSpline
70
4
71
3
72
8
73
4
40
0
40
0
40
0
40
0
40
1
40
1
40
1
40
1
41
1
10
5.62548096182132
20
1.77488158487924
30
0
41
1
10
5.62547328153315
20
1.75233695370275
30
0
41
1
10
5.63071613685372
20
1.73072594587322
30
0
41
1
10
5.6394947270324
20
1.70973607580396
30
0
0
SPLINE
5
B6
100
AcDbEntity
8
1
62
256
6
ByLayer
370
18
48
1
60
0
100
AcDbSpline
70
4
71
3
72
8
73
4
40
0
40
0
40
0
40
0
40
1
40
1
40
1
40
1
41
1
10
55.1252284690445
20
-4.94068322242393
30
0
41
1
10
55.1339445030188
20
-4.90409545307662
30
0
41
1
10
55.140155322735
20
-4.86992901470947
30
0
41
1
10
55.1435215729374
20
-4.84105885799741
30
0
0
SPLINE
5
B7
100
AcDbEntity
8
1
62
256
6
ByLayer
370
18
48
1
60
0
100
AcDbSpline
70
4
71
1
72
4
73
2
40
0
40
0
40
1
40
1
41
1
10
56.2637565916945
20
-1.05920881464147
30
0
41
1
10
56.2655709601978
20
-1.05308360922643
30
0
0
SPLINE
5
B8
100
AcDbEntity
8
1
62
256
6
ByLayer
370
18
48
1
60
0
100
AcDbSpline
70
4
71
3
72
28
73
24
40
0
40
0
40
0
40
0
40
0.114306439101429
40
0.114306439101429
40
0.158591117146357
40
0.158591117146357
40
0.202875795191286
40
0.202875795191286
40
0.291445151281143
40
0.291445151281143
40
0.380014507371
40
0.380014507371
40
0.424299185415928
40
0.424299185415928
40
0.468583863460857
40
0.468583863460857
40
0.645722575640571
40
0.645722575640571
40
0.734291931730429
40
0.734291931730429
40
0.822861287820286
40
0.822861287820286
40
1
40
1
40
1
40
1
41
1
10
5.62650292279147
20
5.01105024372046
30
0
41
1
10
5.62641452511099
20
5.00988994755704
30
0
41
1
10
5.62633377189462
20
4.9929550098847
30
0
41
1
10
5.6262345361605
20
4.94768386966632
30
0
41
1
10
5.62620818275127
20
4.93266168509956
30
0
41
1
10
5.6261582641682
20
4.89776206572512
30
0
41
1
10
5.62613468750916
20
4.87784683392562
30
0
41
1
10
5.62606892638374
20
4.81151476085208
30
0
41
1
10
5.62603141483049
20
4.75834960628251
30
0
41
1
10
5.62596752816734
20
4.63460027885282
30
0
41
1
10
5.62594115587157
20
4.56401516164178
30
0
41
1
10
5.62590834818962
20
4.44497263355876
30
0
41
1
10
5.62589853235409
20
4.40309307853025
30
0
41
1
10
5.62588080496033
20
4.3148627564442
30
0
41
1
10
5.62587287352284
20
4.26836410306285
30
0
41
1
10
5.62583728240315
20
4.0264200312387
30
0
41
1
10
5.62582204323849
20
3.80394074628003
30
0
41
1
10
5.62579312275125
20
3.42812394409751
30
0
41
1
10
5.62578243053784
20
3.29577586071568
30
0
41
1
10
5.62575374196911
20
3.01640294494035
30
0
41
1
10
5.62573595197435
20
2.87180287137971
30
0
41
1
10
5.62566511647208
20
2.42481245703027
30
0
41
1
10
5.62559476981571
20
2.10895228412846
30
0
41
1
10
5.62548096182215
20
1.77488158488794
30
0
0
SPLINE
5
B9
100
AcDbEntity
8
1
62
256
6
ByLayer
370
18
48
1
60
0
100
AcDbSpline
70
4
71
3
72
18
73
14
40
0
40
0
40
0
40
0
40
0.25
40
0.25
40
0.375
40
0.375
40
0.499999999999999
40
0.499999999999999
40
0.75
40
0.75
40
0.875
40
0.875
40
1
40
1
40
1
40
1
41
1
10
54.6629963596994
20
0.519704967953686
30
0
41
1
10
54.6107363083948
20
0.265708962214774
30
0
41
1
10
54.56831971511
20
0.0111265574671506
30
0
41
1
10
54.5194907261305
20
-0.371628477871013
30
0
41
1
10
54.5056909878492
20
-0.499361026291126
30
0
41
1
10
54.4831847416633
20
-0.755129539394034
30
0
41
1
10
54.474454591206
20
-0.883737775583285
30
0
41
1
10
54.4564472129654
20
-1.26575603913145
30
0
41
1
10
54.4552894290922
20
-1.51337805030323
30
0
41
1
10
54.4693117715932
20
-1.87455870710883
30
0
41
1
10
54.4766246505586
20
-1.99323555558217
30
0
41
1
10
54.4965873774328
20
-2.2271171754247
30
0
41
1
10
54.5092852443664
20
-2.34264149110004
30
0
41
1
10
54.5245961249142
20
-2.45545352597824
30
0
0
SPLINE
5
BA
100
AcDbEntity
8
1
62
256
6
ByLayer
370
18
48
1
60
0
100
AcDbSpline
70
4
71
3
72
8
73
4
40
0
40
0
40
0
40
0
40
1
40
1
40
1
40
1
41
1
10
55.1915416974514
20
5.04672047035123
30
0
41
1
10
55.4290037973798
20
4.45335889698188
30
0
41
1
10
55.6716657775938
20
3.84077921131285
30
0
41
1
10
55.9090394323037
20
3.20288413499952
30
0
0
SPLINE
5
BB
100
AcDbEntity
8
1
62
256
6
ByLayer
370
13
48
1
60
0
100
AcDbSpline
70
4
71
3
72
65
73
61
40
0
40
0
40
0
40
0
40
0.0102356050122585
40
0.0366023125808822
40
0.0497856663651945
40
0.0629690201495077
40
0.0893357277181312
40
0.102519081502443
40
0.115702435286756
40
0.14206914285538
40
0.155252496639693
40
0.168435850424005
40
0.194802557992629
40
0.207985911776942
40
0.221169265561254
40
0.247535973129878
40
0.26071932691419
40
0.273902680698503
40
0.300269388267128
40
0.31345274205144
40
0.326636095835752
40
0.353002803404377
40
0.366186157188689
40
0.379369510973001
40
0.405736218541626
40
0.418919572325938
40
0.43210292611025
40
0.458469633678875
40
0.471652987463187
40
0.484836341247499
40
0.511203048816124
40
0.524386402600436
40
0.537569756384748
40
0.563936463953373
40
0.577119817737685
40
0.590303171521998
40
0.616669879090622
40
0.629853232874934
40
0.643036586659247
40
0.669403294227871
40
0.682586648012183
40
0.695770001796495
40
0.72213670936512
40
0.735320063149433
40
0.748503416933745
40
0.774870124502369
40
0.788053478286681
40
0.801236832070994
40
0.827603539639618
40
0.840786893423931
40
0.853970247208242
40
0.880336954776867
40
0.893520308561179
40
0.906703662345492
40
0.933070369914116
40
0.946253723698428
40
0.959437077482741
40
0.985803785051365
40
0.998987138835678
40
1
40
1
40
1
40
1
41
1
10
44.8395193395172
20
-2.09071090192444
30
0
41
1
10
44.7677458350595
20
-2.09828762466617
30
0
41
1
10
44.5111026196215
20
-2.12482508984479
30
0
41
1
10
44.1619810189104
20
-2.15831627599323
30
0
41
1
10
43.7921441630685
20
-2.1907586251038
30
0
41
1
10
43.4223993648162
20
-2.22096993050889
30
0
41
1
10
43.0526074885531
20
-2.24807659933438
30
0
41
1
10
42.6827711321656
20
-2.27203774341214
30
0
41
1
10
42.313026546496
20
-2.29364159933871
30
0
41
1
10
41.9432343324787
20
-2.31203824558253
30
0
41
1
10
41.5733968704686
20
-2.32719762946633
30
0
41
1
10
41.2036509647019
20
-2.33990038876024
30
0
41
1
10
40.8338574897847
20
-2.34934391557718
30
0
41
1
10
40.464019587699
20
-2.3555372701249
30
0
41
1
10
40.0942736720687
20
-2.3592216701708
30
0
41
1
10
39.724480711601
20
-2.35964690289279
30
0
41
1
10
39.3546435941895
20
-2.35683393488759
30
0
41
1
10
38.9848985567536
20
-2.35148039446668
30
0
41
1
10
38.6151064815692
20
-2.34289329129902
30
0
41
1
10
38.2452699859413
20
-2.3311058383623
30
0
41
1
10
37.8755253187407
20
-2.31676791933782
30
0
41
1
10
37.5057331226863
20
-2.29924815829062
30
0
41
1
10
37.1358957823369
20
-2.27859194874782
30
0
41
1
10
36.7661500277121
20
-2.25540384279213
30
0
41
1
10
36.3963567473958
20
-2.22913042977552
30
0
41
1
10
36.0265190657797
20
-2.19984777558679
30
0
41
1
10
35.656773385204
20
-2.16809326722247
30
0
41
1
10
35.2869806745499
20
-2.13339522797497
30
0
41
1
10
34.9171438029362
20
-2.09584196123063
30
0
41
1
10
34.547399001485
20
-2.05590033885284
30
0
41
1
10
34.1776071456619
20
-2.01318374298896
30
0
41
1
10
33.8077708500194
20
-1.96779247564493
30
0
41
1
10
33.4380263692865
20
-1.92011988719312
30
0
41
1
10
33.0682343285098
20
-1.8698673190942
30
0
41
1
10
32.6983970591596
20
-1.81714670933221
30
0
41
1
10
32.3286512868912
20
-1.76227701851491
30
0
41
1
10
31.9588578802013
20
-1.70505370962118
30
0
41
1
10
31.5890199908943
20
-1.64560553942687
30
0
41
1
10
31.2192740526578
20
-1.58416916535799
30
0
41
1
10
30.8494810194348
20
-1.52063607494296
30
0
41
1
10
30.4796437937786
20
-1.45514555628526
30
0
41
1
10
30.1098986458982
20
-1.38784987899743
30
0
41
1
10
29.7401064679148
20
-1.31873780529196
30
0
41
1
10
29.3702698987662
20
-1.247958224353
30
0
41
1
10
29.0005251694691
20
-1.17557754674198
30
0
41
1
10
28.6307329322083
20
-1.10168254691825
30
0
41
1
10
28.2608956717073
20
-1.02643099636796
30
0
41
1
10
27.8911501578833
20
-0.949801283403303
30
0
41
1
10
27.5213572654133
20
-0.871976099394004
30
0
41
1
10
27.1515199893593
20
-0.793117514852668
30
0
41
1
10
26.781774686393
20
-0.713118508502674
30
0
41
1
10
26.4119822509721
20
-0.632257186537657
30
0
41
1
10
26.0421452898987
20
-0.550702215871979
30
0
41
1
10
25.6724000609123
20
-0.468258278519784
30
0
41
1
10
25.3026074403349
20
-0.385292256981359
30
0
41
1
10
24.9327702896061
20
-0.301970111646057
30
0
41
1
10
24.563024971166
20
-0.218017071877711
30
0
41
1
10
24.1932322514489
20
-0.133887258985823
30
0
41
1
10
23.9087506875369
20
-0.0691690657575919
30
0
41
1
10
23.809201137809
20
-0.0464665549138203
30
0
41
1
10
23.8020986101896
20
-0.044846552947547
30
0
0
SPLINE
5
BC
100
AcDbEntity
8
1
62
256
6
ByLayer
370
18
48
1
60
0
100
AcDbSpline
70
4
71
3
72
8
73
4
40
0
40
0
40
0
40
0
40
1
40
1
40
1
40
1
41
1
10
56.9995852981792
20
0.122815610485475
30
0
41
1
10
57.0001382339309
20
0.0409385368284632
30
0
41
1
10
57.0001382339309
20
-0.0409385368284916
30
0
41
1
10
56.9995852981792
20
-0.122815610485503
30
0
0
SPLINE
5
BD
100
AcDbEntity
8
1
62
256
6
ByLayer
370
18
48
1
60
0
100
AcDbSpline
70
4
71
3
72
8
73
4
40
0
40
0
40
0
40
0
40
1
40
1
40
1
40
1
41
1
10
54.6629963596995
20
0.519704967953686
30
0
41
1
10
54.8770926062695
20
0.423316596305312
30
0
41
1
10
55.0925372262273
20
0.333699912471474
30
0
41
1
10
55.3094484378669
20
0.251448622461055
30
0
0
SPLINE
5
BE
100
AcDbEntity
8
1
62
256
6
ByLayer
370
13
48
1
60
0
100
AcDbSpline
70
4
71
3
72
65
73
61
40
0
40
0
40
0
40
0
40
0.0017045962180974
40
0.0280085854830642
40
0.0411605801155476
40
0.0543125747480312
40
0.0806165640129978
40
0.0937685586454812
40
0.106920553277965
40
0.133224542542931
40
0.146376537175415
40
0.159528531807898
40
0.185832521072865
40
0.198984515705348
40
0.212136510337832
40
0.238440499602799
40
0.251592494235282
40
0.264744488867766
40
0.291048478132732
40
0.304200472765216
40
0.3173524673977
40
0.343656456662666
40
0.356808451295149
40
0.369960445927633
40
0.396264435192599
40
0.409416429825083
40
0.422568424457566
40
0.448872413722533
40
0.462024408355016
40
0.4751764029875
40
0.501480392252467
40
0.51463238688495
40
0.527784381517433
40
0.5540883707824
40
0.567240365414884
40
0.580392360047367
40
0.606696349312334
40
0.619848343944817
40
0.633000338577301
40
0.659304327842268
40
0.672456322474751
40
0.685608317107234
40
0.711912306372201
40
0.725064301004685
40
0.738216295637168
40
0.764520284902135
40
0.777672279534618
40
0.790824274167102
40
0.817128263432069
40
0.830280258064552
40
0.843432252697035
40
0.869736241962002
40
0.882888236594485
40
0.896040231226969
40
0.922344220491936
40
0.935496215124419
40
0.948648209756903
40
0.974952199021869
40
0.988104193654353
40
1
40
1
40
1
40
1
41
1
10
39.8504551864876
20
0.0459676653387362
30
0
41
1
10
39.8384721399693
20
0.0486961086137114
30
0
41
1
10
39.6415766778059
20
0.0935279900807301
30
0
41
1
10
39.3522514054878
20
0.159456697407734
30
0
41
1
10
38.9825054410123
20
0.243647924546138
30
0
41
1
10
38.6126678334602
20
0.327267598654714
30
0
41
1
10
38.2428777812627
20
0.410620671490903
30
0
41
1
10
37.8731321581654
20
0.493538757438102
30
0
41
1
10
37.5032944765244
20
0.575617013575907
30
0
41
1
10
37.1335038544495
20
0.657074457770818
30
0
41
1
10
36.7637574210634
20
0.737747867465884
30
0
41
1
10
36.3939188599964
20
0.817327643625389
30
0
41
1
10
36.0241273828087
20
0.895946365917666
30
0
41
1
10
35.6543803732735
20
0.973447071021211
30
0
41
1
10
35.2845414913924
20
1.04961669345388
30
0
41
1
10
34.914750199218
20
1.12450137892082
30
0
41
1
10
34.5450041636884
20
1.19795146041562
30
0
41
1
10
34.1751665737487
20
1.26984920041289
30
0
41
1
10
33.8053766479348
20
1.34015110905281
30
0
41
1
10
33.4356312326021
20
1.40871029725093
30
0
41
1
10
33.065793808731
20
1.47551004284224
30
0
41
1
10
32.6960035093752
20
1.54041823325738
30
0
41
1
10
32.3262574301914
20
1.60329718043601
30
0
41
1
10
31.9564192157087
20
1.66423049410162
30
0
41
1
10
31.5866280608284
20
1.72299882071934
30
0
41
1
10
31.2168813249377
20
1.77947427575216
30
0
41
1
10
30.8470426917644
20
1.8338397114841
30
0
41
1
10
30.4772515962278
20
1.88579042959648
30
0
41
1
10
30.1075055519518
20
1.93520917080804
30
0
41
1
10
29.7376677035607
20
1.9823775919555
30
0
41
1
10
29.3678772633895
20
2.02691048092356
30
0
41
1
10
28.9981312345618
20
2.0687052719002
30
0
41
1
10
28.6282931751318
20
2.10813620531192
30
0
41
1
10
28.2585022776536
20
2.14474016512318
30
0
41
1
10
27.8887559336913
20
2.17842585473568
30
0
41
1
10
27.5189178002686
20
2.20966026899325
30
0
41
1
10
27.1491270880851
20
2.23791120164111
30
0
41
1
10
26.7793809339209
20
2.26310783257779
30
0
41
1
10
26.4095428900417
20
2.28579804191031
30
0
41
1
10
26.0397522770876
20
2.30538392644433
30
0
41
1
10
25.6700063380274
20
2.321806463021
30
0
41
1
10
25.3001683663428
20
2.33569243909588
30
0
41
1
10
24.930377561988
20
2.34638565568593
30
0
41
1
10
24.5606311114195
20
2.35384429209225
30
0
41
1
10
24.1907926526495
20
2.35876416884167
30
0
41
1
10
23.8210014859413
20
2.36043474348145
30
0
41
1
10
23.4512551668303
20
2.35882587036997
30
0
41
1
10
23.0814171754921
20
2.3547038311012
30
0
41
1
10
22.7116267288753
20
2.34731987294068
30
0
41
1
10
22.3418808334889
20
2.33667326024232
30
0
41
1
10
21.9720430029078
20
2.32357790077444
30
0
41
1
10
21.6022524867787
20
2.30725121650792
30
0
41
1
10
21.2325064667327
20
2.28770356045274
30
0
41
1
10
20.8626683699114
20
2.26579296661685
30
0
41
1
10
20.4928773970111
20
2.24071115760483
30
0
41
1
10
20.1231308144903
20
2.21248437214828
30
0
41
1
10
19.7532922862521
20
2.18200383177077
30
0
41
1
10
19.3835011793047
20
2.14844010966522
30
0
41
1
10
19.0225839507965
20
2.11270356397989
30
0
41
1
10
18.8465146087534
20
2.09432552055657
30
0
41
1
10
18.7628964785802
20
2.08539390181664
30
0
0
SPLINE
5
BF
100
AcDbEntity
8
1
62
256
6
ByLayer
370
18
48
1
60
0
100
AcDbSpline
70
4
71
3
72
8
73
4
40
0
40
0
40
0
40
0
40
1
40
1
40
1
40
1
41
1
10
56.4236977917114
20
-1.69913152085937
30
0
41
1
10
56.251209537594
20
-2.20006324160175
30
0
41
1
10
56.0796555583657
20
-2.70131370605185
30
0
41
1
10
55.9090394323037
20
-3.20288413499955
30
0
0
SPLINE
5
C0
100
AcDbEntity
8
1
62
256
6
ByLayer
370
18
48
1
60
0
100
AcDbSpline
70
4
71
3
72
18
73
14
40
0
40
0
40
0
40
0
40
0.134385559056524
40
0.134385559056524
40
0.307508447245219
40
0.307508447245219
40
0.480631335433915
40
0.480631335433915
40
0.65375422362261
40
0.65375422362261
40
0.826877111811305
40
0.826877111811305
40
1
40
1
40
1
40
1
41
1
10
8.04257791672947
20
4.88837592327232
30
0
41
1
10
8.30070486597583
20
4.88679434486323
30
0
41
1
10
8.56430946229611
20
4.87366640002062
30
0
41
1
10
9.17737235812248
20
4.82407181380668
30
0
41
1
10
9.52962219451643
20
4.78210171140194
30
0
41
1
10
10.2456940634787
20
4.6768228079479
30
0
41
1
10
10.609757440709
20
4.61350497980564
30
0
41
1
10
11.3461571178421
20
4.47137674664094
30
0
41
1
10
11.7167832268971
20
4.39213654664943
30
0
41
1
10
12.4624379584433
20
4.21954658679869
30
0
41
1
10
12.8374251067982
20
4.12646748018659
30
0
41
1
10
13.5912016286521
20
3.929506748085
30
0
41
1
10
13.9699163462301
20
3.82612518969057
30
0
41
1
10
14.3503916646932
20
3.7179801249537
30
0
0
SPLINE
5
C1
100
AcDbEntity
8
1
62
256
6
ByLayer
370
18
48
1
60
0
100
AcDbSpline
70
4
71
3
72
8
73
4
40
0
40
0
40
0
40
0
40
1
40
1
40
1
40
1
41
1
10
15.2830963445418
20
3.40379310593417
30
0
41
1
10
16.189466355443
20
3.68268067357812
30
0
41
1
10
17.0930943694961
20
3.93628405786748
30
0
41
1
10
17.9935241655678
20
4.16083730430569
30
0
0
SPLINE
5
C2
100
AcDbEntity
8
1
62
256
6
ByLayer
370
18
48
1
60
0
100
AcDbSpline
70
4
71
3
72
20
73
16
40
0
40
0
40
0
40
0
40
0.124999999999999
40
0.124999999999999
40
0.249999999999997
40
0.249999999999997
40
0.374999999999996
40
0.374999999999996
40
0.499999999999994
40
0.499999999999994
40
0.749999999999995
40
0.749999999999995
40
0.874999999999998
40
0.874999999999998
40
1
40
1
40
1
40
1
41
1
10
56.2648104594111
20
-1.05231957930599
30
0
41
1
10
56.2074159798163
20
-1.06819295234382
30
0
41
1
10
56.1519333133357
20
-1.07120480899098
30
0
41
1
10
56.0442420593006
20
-1.05520250966998
30
0
41
1
10
55.9919288415272
20
-1.03608863333781
30
0
41
1
10
55.8908018281812
20
-0.977643264883284
30
0
41
1
10
55.8431115250254
20
-0.939034494213331
30
0
41
1
10
55.7526143260399
20
-0.845863998959118
30
0
41
1
10
55.7096705662029
20
-0.791051943653827
30
0
41
1
10
55.5884809099537
20
-0.606241464197609
30
0
41
1
10
55.5195002127167
20
-0.459403600192189
30
0
41
1
10
55.4299257306198
20
-0.211346542932233
30
0
41
1
10
55.402349844616
20
-0.123627637572838
30
0
41
1
10
55.3520778168979
20
0.0594747300144434
30
0
41
1
10
55.3295692602451
20
0.154075844908789
30
0
41
1
10
55.3094484378669
20
0.251448622461084
30
0
0
SPLINE
5
C3
100
AcDbEntity
8
1
62
256
6
ByLayer
370
18
48
1
60
0
100
AcDbSpline
70
4
71
3
72
54
73
50
40
0
40
0
40
0
40
0
40
0.0767044159400001
40
0.0767044159400001
40
0.127998615054445
40
0.127998615054445
40
0.17929281416889
40
0.17929281416889
40
0.230587013283335
40
0.230587013283335
40
0.256234112840557
40
0.256234112840557
40
0.28188121239778
40
0.28188121239778
40
0.333175411512225
40
0.333175411512225
40
0.358822511069447
40
0.358822511069447
40
0.38446961062667
40
0.38446961062667
40
0.48705800885556
40
0.48705800885556
40
0.512705108412783
40
0.512705108412783
40
0.538352207970005
40
0.538352207970005
40
0.58964640708445
40
0.58964640708445
40
0.615293506641672
40
0.615293506641672
40
0.640940606198894
40
0.640940606198894
40
0.692234805313338
40
0.692234805313338
40
0.743529004427782
40
0.743529004427782
40
0.794823203542226
40
0.794823203542226
40
0.84611740265667
40
0.84611740265667
40
0.871764502213892
40
0.871764502213892
40
0.897411601771114
40
0.897411601771114
40
0.948705800885556
40
0.948705800885556
40
0.974352900442778
40
0.974352900442778
40
1
40
1
40
1
40
1
41
1
10
25.2223794447084
20
5.04631128928722
30
0
41
1
10
25.9878283059841
20
5.04756027426944
30
0
41
1
10
26.751559033934
20
5.00736748935924
30
0
41
1
10
28.0283087642755
20
4.87233502735177
30
0
41
1
10
28.5416164064023
20
4.79989184375023
30
0
41
1
10
29.5654520791438
20
4.62052886257905
30
0
41
1
10
30.0763303171888
20
4.51360201045668
30
0
41
1
10
31.0983921933758
20
4.26746213458162
30
0
41
1
10
31.6095719300637
20
4.12826072597284
30
0
41
1
10
32.3780965743961
20
3.8968180444777
30
0
41
1
10
32.6345258954707
20
3.8159030025947
30
0
41
1
10
33.1464052863817
20
3.64747358009885
30
0
41
1
10
33.4020778082142
20
3.55988120256353
30
0
41
1
10
34.1687856306154
20
3.28772274730403
30
0
41
1
10
34.6794075448847
20
3.09361758502155
30
0
41
1
10
35.4462337708096
20
2.78608230868991
30
0
41
1
10
35.7019905229376
20
2.68084112347506
30
0
41
1
10
36.2140605976734
20
2.46531897873786
30
0
41
1
10
36.470482840652
20
2.35499008239702
30
0
41
1
10
37.7501474383097
20
1.79393796882817
30
0
41
1
10
38.7695496954524
20
1.31367570733789
30
0
41
1
10
40.0490046372175
20
0.694724396327842
30
0
41
1
10
40.3053637539895
20
0.569935946830697
30
0
41
1
10
40.8172196784628
20
0.31992454461448
30
0
41
1
10
41.0728598473498
20
0.194622511783166
30
0
41
1
10
41.83935035123
20
-0.181284049049367
30
0
41
1
10
42.3496852445726
20
-0.432064184925196
30
0
41
1
10
43.1158763030117
20
-0.805063548443627
30
0
41
1
10
43.3713993272585
20
-0.928845486280807
30
0
41
1
10
43.8829767407478
20
-1.17473707569147
30
0
41
1
10
44.1392617668827
20
-1.29695363333167
30
0
41
1
10
44.9070936670552
20
-1.6593342226677
30
0
41
1
10
45.4176807984136
20
-1.8954294137348
30
0
41
1
10
46.438623733071
20
-2.35214943344121
30
0
41
1
10
46.9489950354413
20
-2.57275088554667
30
0
41
1
10
47.9716564935447
20
-2.99454694533236
30
0
41
1
10
48.4841160120069
20
-3.19582253126904
30
0
41
1
10
49.5059699701092
20
-3.57251044302618
30
0
41
1
10
50.0162938963531
20
-3.7482535095109
30
0
41
1
10
50.7823476230325
20
-3.99086881968626
30
0
41
1
10
51.0378227925509
20
-4.06820253210338
30
0
41
1
10
51.5492347717765
20
-4.21549274119747
30
0
41
1
10
51.8053678395672
20
-4.28550026419805
30
0
41
1
10
52.5726162451331
20
-4.48321325046587
30
0
41
1
10
53.0830452231845
20
-4.5987741919578
30
0
41
1
10
53.8485835276911
20
-4.74650494327506
30
0
41
1
10
54.1037429996802
20
-4.79148189611183
30
0
41
1
10
54.6142673014938
20
-4.87269393353341
30
0
41
1
10
54.869491206616
20
-4.90900082456702
30
0
41
1
10
55.1252284690444
20
-4.94068322242433
30
0
0
SPLINE
5
C4
100
AcDbEntity
8
1
62
256
6
ByLayer
370
18
48
1
60
0
100
AcDbSpline
70
4
71
3
72
8
73
4
40
0
40
0
40
0
40
0
40
1
40
1
40
1
40
1
41
1
10
56.2648104594111
20
-1.05231957930601
30
0
41
1
10
56.2650639573988
20
-1.05257425821017
30
0
41
1
10
56.2653174576646
20
-1.0528289348469
30
0
41
1
10
56.2655709602083
20
-1.05308360921609
30
0
0
SPLINE
5
C5
100
AcDbEntity
8
1
62
256
6
ByLayer
370
18
48
1
60
0
100
AcDbSpline
70
4
71
3
72
8
73
4
40
0
40
0
40
0
40
0
40
1
40
1
40
1
40
1
41
1
10
56.9995852981792
20
0.122815610485503
30
0
41
1
10
56.7984314273576
20
0.639416052413424
30
0
41
1
10
56.6075346408266
20
1.16524178074741
30
0
41
1
10
56.4236977917082
20
1.69913152086903
30
0
0
SPLINE
5
C6
100
AcDbEntity
8
1
62
256
6
ByLayer
370
13
48
1
60
0
100
AcDbSpline
70
4
71
3
72
12
73
8
40
0
40
0
40
0
40
0
40
0.481187327821332
40
0.481187327821332
40
0.740593663910666
40
0.740593663910666
40
1
40
1
40
1
40
1
41
1
10
6.11325002516924
20
-4.88549960064509
30
0
41
1
10
6.11328106018539
20
-4.8854537795591
30
0
41
1
10
6.11331879776392
20
-4.8565831992303
30
0
41
1
10
6.11338278627971
20
-4.76658645431229
30
0
41
1
10
6.11340607610111
20
-4.72664604432021
30
0
41
1
10
6.11345270086866
20
-4.63120965171564
30
0
41
1
10
6.11347611068376
20
-4.5756125053511
30
0
41
1
10
6.11349897776878
20
-4.51220083355091
30
0
0
SPLINE
5
C7
100
AcDbEntity
8
1
62
256
6
ByLayer
370
18
48
1
60
0
100
AcDbSpline
70
4
71
4
72
10
73
5
40
0
40
0
40
0
40
0
40
0
40
1
40
1
40
1
40
1
40
1
41
1
10
14.5848925272013
20
-3.17971456955948
30
0
41
1
10
14.5262673115743
20
-3.31428095840803
30
0
41
1
10
14.4676420959472
20
-3.44884734725659
30
0
41
1
10
14.4090168803201
20
-3.58341373610514
30
0
41
1
10
14.3503916646931
20
-3.71798012495373
30
0
0
SPLINE
5
C8
100
AcDbEntity
8
1
62
256
6
ByLayer
370
18
48
1
60
0
100
AcDbSpline
70
4
71
3
72
12
73
8
40
0
40
0
40
0
40
0
40
0.25
40
0.25
40
0.5
40
0.5
40
1
40
1
40
1
40
1
41
1
10
5.63949472703251
20
1.70973607580368
30
0
41
1
10
5.65461292010946
20
1.67358802675409
30
0
41
1
10
5.67821681409953
20
1.64252335516298
30
0
41
1
10
5.7331811215285
20
1.5850337035227
30
0
41
1
10
5.76381209096397
20
1.55982232248348
30
0
41
1
10
5.8605502305511
20
1.49006905806809
30
0
41
1
10
5.93161916513185
20
1.45106886959613
30
0
41
1
10
6.00493615279933
20
1.4170338266772
30
0
0
SPLINE
5
C9
100
AcDbEntity
8
1
62
256
6
ByLayer
370
18
48
1
60
0
100
AcDbSpline
70
4
71
1
72
4
73
2
40
0
40
0
40
1
40
1
41
1
10
55.1435215729314
20
-4.84105885802751
30
0
41
1
10
56.2637565916987
20
-1.05920881464272
30
0
0
SPLINE
5
CA
100
AcDbEntity
8
1
62
256
6
ByLayer
370
18
48
1
60
0
100
AcDbSpline
70
4
71
4
72
10
73
5
40
0
40
0
40
0
40
0
40
0
40
1
40
1
40
1
40
1
40
1
41
1
10
17.9935241655677
20
4.1608373043056
30
0
41
1
10
17.8391475507618
20
3.77822472427377
30
0
41
1
10
17.6847709359558
20
3.39561214424194
30
0
41
1
10
17.5303943211499
20
3.01299956421008
30
0
41
1
10
17.376017706344
20
2.63038698417824
30
0
0
SPLINE
5
CB
100
AcDbEntity
8
1
62
256
6
ByLayer
370
13
48
1
60
0
100
AcDbSpline
70
4
71
3
72
27
73
23
40
0
40
0
40
0
40
0
40
0.164937579732946
40
0.164937579732946
40
0.247406369599419
40
0.247406369599419
40
0.329875159465892
40
0.329875159465892
40
0.412343949332365
40
0.412343949332365
40
0.494812739198838
40
0.577281529065311
40
0.577281529065311
40
0.659750318931784
40
0.659750318931784
40
0.824687898664731
40
0.824687898664731
40
0.907156688531204
40
0.907156688531204
40
0.989625478397677
40
0.989625478397677
40
1
40
1
40
1
40
1
41
1
10
6.11352940906417
20
1.58199984083231
30
0
41
1
10
6.1135046226081
20
1.89942412992227
30
0
41
1
10
6.11347083487709
20
2.20117715743353
30
0
41
1
10
6.11341507584146
20
2.63086012641102
30
0
41
1
10
6.11339555816002
20
2.77071413163901
30
0
41
1
10
6.11335649551125
20
3.03994416301469
30
0
41
1
10
6.11333700088289
20
3.16905185205908
30
0
41
1
10
6.11329936395288
20
3.41627619211437
30
0
41
1
10
6.11328121781969
20
3.53443408050563
30
0
41
1
10
6.11324801352009
20
3.75582164197468
30
0
41
1
10
6.11321772513526
20
3.9633953426596
30
0
41
1
10
6.11319501304308
20
4.14379242702478
30
0
41
1
10
6.11317686304744
20
4.31040084370622
30
0
41
1
10
6.11317005340044
20
4.38718633048575
30
0
41
1
10
6.11315768478863
20
4.59252513502014
30
0
41
1
10
6.11316009685387
20
4.69666166745364
30
0
41
1
10
6.11317975732871
20
4.80473006690346
30
0
41
1
10
6.11318898171311
20
4.83268533310729
30
0
41
1
10
6.11321255317367
20
4.87175161899552
30
0
41
1
10
6.11322671299257
20
4.88257915292522
30
0
41
1
10
6.11324490180115
20
4.88528428671469
30
0
41
1
10
6.11324696611698
20
4.88545427132786
30
0
41
1
10
6.11324906139646
20
4.88549171998764
30
0
0
SPLINE
5
CC
100
AcDbEntity
8
1
62
256
6
ByLayer
370
18
48
1
60
0
100
AcDbSpline
70
4
71
3
72
10
73
6
40
0
40
0
40
0
40
0
40
0.5
40
0.5
40
1
40
1
40
1
40
1
41
1
10
55.9355973990083
20
2.35830926826247
30
0
41
1
10
55.9118066686726
20
2.50117670154782
30
0
41
1
10
55.9012264090657
20
2.64260812601037
30
0
41
1
10
55.8950513881766
20
2.92384201648483
30
0
41
1
10
55.8996290333359
20
3.06362574151939
30
0
41
1
10
55.9090394323039
20
3.20288413499955
30
0
0
SPLINE
5
CD
100
AcDbEntity
8
1
62
256
6
ByLayer
370
18
48
1
60
0
100
AcDbSpline
70
4
71
3
72
90
73
86
40
0
40
0
40
0
40
0
40
0.0374616176476862
40
0.0374616176476862
40
0.0749232352953725
40
0.0749232352953725
40
0.0936540441192156
40
0.0936540441192156
40
0.112384852943059
40
0.112384852943059
40
0.149846470590747
40
0.149846470590747
40
0.168577279414592
40
0.168577279414592
40
0.187308088238436
40
0.187308088238436
40
0.20603889706228
40
0.20603889706228
40
0.224769705886124
40
0.224769705886124
40
0.243500514709968
40
0.243500514709968
40
0.262231323533812
40
0.262231323533812
40
0.299692941181501
40
0.299692941181501
40
0.318423750005345
40
0.318423750005345
40
0.337154558829189
40
0.337154558829189
40
0.374616176476877
40
0.374616176476877
40
0.393346985300721
40
0.393346985300721
40
0.412077794124565
40
0.412077794124565
40
0.430808602948409
40
0.430808602948409
40
0.449539411772253
40
0.449539411772253
40
0.468270220596098
40
0.468270220596098
40
0.487001029419942
40
0.487001029419942
40
0.505731838243786
40
0.505731838243786
40
0.52446264706763
40
0.52446264706763
40
0.561924264715318
40
0.561924264715318
40
0.599385882363006
40
0.599385882363006
40
0.618116691186851
40
0.618116691186851
40
0.636847500010695
40
0.636847500010695
40
0.674309117658382
40
0.674309117658382
40
0.711770735306069
40
0.711770735306069
40
0.730501544129913
40
0.730501544129913
40
0.749232352953756
40
0.749232352953756
40
0.7679631617776
40
0.7679631617776
40
0.786693970601444
40
0.786693970601444
40
0.82415558824913
40
0.82415558824913
40
0.861617205896816
40
0.861617205896816
40
0.880348014720659
40
0.880348014720659
40
0.899078823544501
40
0.899078823544501
40
0.917809632368344
40
0.917809632368344
40
0.936540441192186
40
0.936540441192186
40
0.974002058839871
40
0.974002058839871
40
0.992732867663713
40
0.992732867663713
40
1
40
1
40
1
40
1
41
1
10
14.3503916646931
20
3.71798012495373
30
0
41
1
10
14.7720365949197
20
3.58956574054997
30
0
41
1
10
15.1925639733584
20
3.45032936718024
30
0
41
1
10
16.0345550545565
20
3.1555429081796
30
0
41
1
10
16.4560848591253
20
2.99985756878954
30
0
41
1
10
17.0873546856007
20
2.75715161784822
30
0
41
1
10
17.2974690267843
20
2.67455888422217
30
0
41
1
10
17.7177122300498
20
2.50624980219499
30
0
41
1
10
17.9277059408674
20
2.42029895499368
30
0
41
1
10
18.557345147032
20
2.15738181766972
30
0
41
1
10
18.9771712770158
20
1.97652443760723
30
0
41
1
10
19.6071001858535
20
1.69794806013121
30
0
41
1
10
19.8172865614467
20
1.60423793259886
30
0
41
1
10
20.2377669661598
20
1.41484998414614
30
0
41
1
10
20.4481246619539
20
1.31893914761824
30
0
41
1
10
20.8691035620705
20
1.12540943346207
30
0
41
1
10
21.0795014567816
20
1.0282369899885
30
0
41
1
10
21.4997630211349
20
0.832406610801854
30
0
41
1
10
21.7096197969017
20
0.733757141580099
30
0
41
1
10
22.1294418268507
20
0.536211846822653
30
0
41
1
10
22.3393114457259
20
0.437078314119446
30
0
41
1
10
22.7588936016503
20
0.238088600378688
30
0
41
1
10
22.9686657185355
20
0.138345217884108
30
0
41
1
10
23.598512855526
20
-0.160357101007975
30
0
41
1
10
24.0184893966036
20
-0.360133037554732
30
0
41
1
10
24.6496230250892
20
-0.658352039042228
30
0
41
1
10
24.8599996029378
20
-0.757933103097514
30
0
41
1
10
25.2801392513693
20
-0.955459523345212
30
0
41
1
10
25.4901616205895
20
-1.05303533467463
30
0
41
1
10
26.1196340097133
20
-1.3442836199506
30
0
41
1
10
26.5389437097168
20
-1.53523038336161
30
0
41
1
10
27.1680564266757
20
-1.81583060021424
30
0
41
1
10
27.3777614061134
20
-1.90844258673681
30
0
41
1
10
27.7975361755499
20
-2.09140632713442
30
0
41
1
10
28.0074341765982
20
-2.18205916209123
30
0
41
1
10
28.4275956500486
20
-2.36034781471082
30
0
41
1
10
28.6381185123101
20
-2.44773493783592
30
0
41
1
10
29.0585182980266
20
-2.61925777372338
30
0
41
1
10
29.2684577007908
20
-2.70350820681847
30
0
41
1
10
29.6881226437782
20
-2.86855524238726
30
0
41
1
10
29.8979942234734
20
-2.94910604863236
30
0
41
1
10
30.3174353578401
20
-3.10707666441618
30
0
41
1
10
30.5269917795571
20
-3.18453918727624
30
0
41
1
10
30.9463242683598
20
-3.33577345527624
30
0
41
1
10
31.1560405388419
20
-3.4095267877473
30
0
41
1
10
31.5755796241299
20
-3.55187182199793
30
0
41
1
10
31.7854373654037
20
-3.62053561755687
30
0
41
1
10
32.4159125419633
20
-3.8196287959837
30
0
41
1
10
32.8367210178924
20
-3.94370969131572
30
0
41
1
10
33.6765797135825
20
-4.1716256584325
30
0
41
1
10
34.0957851435568
20
-4.27721439590792
30
0
41
1
10
34.724821464126
20
-4.41775625708527
30
0
41
1
10
34.9344141414039
20
-4.46182230515606
30
0
41
1
10
35.353929035225
20
-4.54477372095596
30
0
41
1
10
35.563803603866
20
-4.5839280834964
30
0
41
1
10
36.1937696786175
20
-4.69098564951466
30
0
41
1
10
36.6149975754533
20
-4.74953827424733
30
0
41
1
10
37.4548492267257
20
-4.84451223016515
30
0
41
1
10
37.8744650222368
20
-4.880146079307
30
0
41
1
10
38.5033050140756
20
-4.91829226377675
30
0
41
1
10
38.7130000889757
20
-4.92859054163569
30
0
41
1
10
39.1324911772508
20
-4.9409423983563
30
0
41
1
10
39.3422475816668
20
-4.94342850121663
30
0
41
1
10
39.7622264633617
20
-4.94230413798238
30
0
41
1
10
39.9724794709281
20
-4.93867535063453
30
0
41
1
10
40.3931803228273
20
-4.92546976094883
30
0
41
1
10
40.6033766201402
20
-4.91588296425635
30
0
41
1
10
41.2337077405318
20
-4.87887757609764
30
0
41
1
10
41.6529684744697
20
-4.84401628445474
30
0
41
1
10
42.491862347794
20
-4.74695130669411
30
0
41
1
10
42.9110706197259
20
-4.68578394047609
30
0
41
1
10
43.5408867878401
20
-4.57729969981244
30
0
41
1
10
43.7508765309407
20
-4.53804655526611
30
0
41
1
10
44.1713202147405
20
-4.45441034328104
30
0
41
1
10
44.3818103650111
20
-4.4102571127888
30
0
41
1
10
44.8019215965933
20
-4.31655576225003
30
0
41
1
10
45.0116844765313
20
-4.26681033715602
30
0
41
1
10
45.4313129743514
20
-4.1617734971951
30
0
41
1
10
45.6410380853541
20
-4.10646779205024
30
0
41
1
10
46.2698953090263
20
-3.93294199230849
30
0
41
1
10
46.6892501578498
20
-3.80767176022323
30
0
41
1
10
47.3184076236394
20
-3.60659437560324
30
0
41
1
10
47.528302064208
20
-3.53773619956112
30
0
41
1
10
47.819852199985
20
-3.43868876860813
30
0
41
1
10
47.9013856790025
20
-3.41059935575362
30
0
41
1
10
47.9829267101905
20
-3.38214134559496
30
0
0
SPLINE
5
CE
100
AcDbEntity
8
1
62
256
6
ByLayer
370
13
48
1
60
0
100
AcDbSpline
70
4
71
3
72
8
73
4
40
0
40
0
40
0
40
0
40
1
40
1
40
1
40
1
41
1
10
5.62548096179808
20
1.7748815848914
30
0
41
1
10
5.63640320829583
20
1.76914651021761
30
0
41
1
10
5.64750173563218
20
1.76357499632891
30
0
41
1
10
5.65878328667884
20
1.7581725076613
30
0
0
SPLINE
5
CF
100
AcDbEntity
8
1
62
256
6
ByLayer
370
18
48
1
60
0
100
AcDbSpline
70
4
71
3
72
12
73
8
40
0
40
0
40
0
40
0
40
0.0062190780723218
40
0.0062190780723218
40
0.628119579984049
40
0.628119579984049
40
1
40
1
40
1
40
1
41
1
10
25.9980651285291
20
-4.91930722958179
30
0
41
1
10
25.9929819473331
20
-4.91935150255853
30
0
41
1
10
25.987898870366
20
-4.91939397796338
30
0
41
1
10
25.4745244887879
20
-4.92350236807317
30
0
41
1
10
24.9672455102554
20
-4.90940306550308
30
0
41
1
10
24.1567882584069
20
-4.85916352430004
30
0
41
1
10
23.8535229063374
20
-4.8341091571676
30
0
41
1
10
23.5500614727138
20
-4.80286398316267
30
0
0
SPLINE
5
D0
100
AcDbEntity
8
1
62
256
6
ByLayer
370
13
48
1
60
0
100
AcDbSpline
70
4
71
3
72
26
73
22
40
0
40
0
40
0
40
0
40
0.122962872924931
40
0.122962872924931
40
0.166814729278684
40
0.166814729278684
40
0.210666585632437
40
0.210666585632437
40
0.298370298339944
40
0.298370298339944
40
0.386074011047451
40
0.386074011047451
40
0.473777723754958
40
0.473777723754958
40
0.561481436462464
40
0.561481436462464
40
0.605333292816218
40
0.605333292816218
40
0.649185149169972
40
0.649185149169972
40
1
40
1
40
1
40
1
41
1
10
23.5500614727838
20
-4.80286398316991
30
0
41
1
10
22.8385578384558
20
-4.72960572892126
30
0
41
1
10
22.1259762904676
20
-4.6223149246762
30
0
41
1
10
21.154134223243
20
-4.43170290731246
30
0
41
1
10
20.8981796054358
20
-4.37741273994851
30
0
41
1
10
20.3849825945755
20
-4.26054237453644
30
0
41
1
10
20.1279837873026
20
-4.19802066403065
30
0
41
1
10
19.3598455687616
20
-3.99990843207468
30
0
41
1
10
18.8499224695206
20
-3.85339493663352
30
0
41
1
10
17.8322648430333
20
-3.53445050597432
30
0
41
1
10
17.3245079475153
20
-3.36190991776547
30
0
41
1
10
16.309479168764
20
-2.99404416192442
30
0
41
1
10
15.8021790111661
20
-2.79881526046253
30
0
41
1
10
14.7857081961085
20
-2.38930092407671
30
0
41
1
10
14.2765269637851
20
-2.17497852545389
30
0
41
1
10
13.5101261665511
20
-1.84153172298463
30
0
41
1
10
13.2542294543018
20
-1.72839031148013
30
0
41
1
10
12.7412290308897
20
-1.49872302532319
30
0
41
1
10
12.4839073254174
20
-1.38208553373201
30
0
41
1
10
10.1763229418514
20
-0.325869220647519
30
0
41
1
10
8.1595448498756
20
0.668831696061858
30
0
41
1
10
6.11352940906417
20
1.58199984083231
30
0
0
SPLINE
5
D1
100
AcDbEntity
8
1
62
256
6
ByLayer
370
18
48
1
60
0
100
AcDbSpline
70
4
71
3
72
30
73
26
40
0
40
0
40
0
40
0
40
0.0720201457822625
40
0.0720201457822625
40
0.144040291564525
40
0.144040291564525
40
0.28808058312905
40
0.28808058312905
40
0.324090656020181
40
0.324090656020181
40
0.360100728911312
40
0.360100728911312
40
0.432120874693573
40
0.432120874693573
40
0.504141020475835
40
0.504141020475835
40
0.576161166258097
40
0.576161166258097
40
0.64818131204036
40
0.64818131204036
40
0.720201457822623
40
0.720201457822623
40
0.864241749387148
40
0.864241749387148
40
1
40
1
40
1
40
1
41
1
10
6.00493615279933
20
1.4170338266772
30
0
41
1
10
6.51859432645716
20
1.17858461398723
30
0
41
1
10
7.03198613119264
20
0.934674389740167
30
0
41
1
10
8.05816206578987
20
0.442253805667633
30
0
41
1
10
8.57188434563921
20
0.193197350998389
30
0
41
1
10
10.1106796161213
20
-0.553201609778426
30
0
41
1
10
11.132020950675
20
-1.04818050401681
30
0
41
1
10
12.4136309912396
20
-1.64193895097006
30
0
41
1
10
12.6704362827834
20
-1.75953387095771
30
0
41
1
10
13.1833800678455
20
-1.99107924637985
30
0
41
1
10
13.439528259189
20
-2.10504906650635
30
0
41
1
10
14.2075577584407
20
-2.44053068402374
30
0
41
1
10
14.7190096880264
20
-2.65565525679918
30
0
41
1
10
15.7424800150535
20
-3.06581409458607
30
0
41
1
10
16.2549793329781
20
-3.26100415362095
30
0
41
1
10
17.2809482506944
20
-3.62615235990953
30
0
41
1
10
17.7928071398005
20
-3.79541144359541
30
0
41
1
10
18.8158230110874
20
-4.10536771892509
30
0
41
1
10
19.3270429791021
20
-4.24594926099073
30
0
41
1
10
20.351306536298
20
-4.49537618006937
30
0
41
1
10
20.8649363315893
20
-4.60429259976209
30
0
41
1
10
22.4006962783096
20
-4.87852376072084
30
0
41
1
10
23.4214188211641
20
-4.99171313517786
30
0
41
1
10
25.4140347960401
20
-5.06779329666321
30
0
41
1
10
26.3764590033307
20
-5.03847025612603
30
0
41
1
10
27.340692412733
20
-4.94434294048597
30
0
0
SPLINE
5
D2
100
AcDbEntity
8
1
62
256
6
ByLayer
370
18
48
1
60
0
100
AcDbSpline
70
4
71
3
72
8
73
4
40
0
40
0
40
0
40
0
40
1
40
1
40
1
40
1
41
1
10
55.1915416974514
20
-5.04672047035123
30
0
41
1
10
55.1667841487946
20
-5.02078971901446
30
0
41
1
10
55.1447279457578
20
-4.98539468192448
30
0
41
1
10
55.1252284690445
20
-4.94068322242427
30
0
0
SPLINE
5
D3
100
AcDbEntity
8
1
62
256
6
ByLayer
370
18
48
1
60
0
100
AcDbSpline
70
4
71
3
72
10
73
6
40
0
40
0
40
0
40
0
40
0.5
40
0.5
40
1
40
1
40
1
40
1
41
1
10
55.143521572935
20
-4.84105885802794
30
0
41
1
10
55.1395982712127
20
-4.81692746395422
30
0
41
1
10
55.1328978012837
20
-4.79681076496169
30
0
41
1
10
55.1164246941464
20
-4.76408626046168
30
0
41
1
10
55.1064903745864
20
-4.75107926433012
30
0
41
1
10
55.0954031431351
20
-4.74098779881925
30
0
0
SPLINE
5
D4
100
AcDbEntity
8
1
62
256
6
ByLayer
370
18
48
1
60
0
100
AcDbSpline
70
4
71
3
72
18
73
14
40
0
40
0
40
0
40
0
40
0.250000000000009
40
0.250000000000009
40
0.500000000000019
40
0.500000000000019
40
0.625000000000014
40
0.625000000000014
40
0.750000000000009
40
0.750000000000009
40
0.875000000000005
40
0.875000000000005
40
1
40
1
40
1
40
1
41
1
10
6.11349897776884
20
-4.51220083355085
30
0
41
1
10
6.08130337499057
20
-4.4918964946979
30
0
41
1
10
6.04835709726797
20
-4.47243529271103
30
0
41
1
10
5.97993719382163
20
-4.43631055479605
30
0
41
1
10
5.94452715368988
20
-4.41957817808691
30
0
41
1
10
5.88762445014504
20
-4.39862662655091
30
0
41
1
10
5.86801357533415
20
-4.39234697208059
30
0
41
1
10
5.8266926277218
20
-4.38207578223285
30
0
41
1
10
5.8048840924634
20
-4.37805933506206
30
0
41
1
10
5.75882144896576
20
-4.37426408837629
30
0
41
1
10
5.73418671196856
20
-4.37447906331226
30
0
41
1
10
5.68265106650924
20
-4.3823435254825
30
0
41
1
10
5.6548063573216
20
-4.39039649344281
30
0
41
1
10
5.62757808712726
20
-4.40326894816624
30
0
0
SPLINE
5
D5
100
AcDbEntity
8
1
62
256
6
ByLayer
370
13
48
1
60
0
100
AcDbSpline
70
4
71
3
72
10
73
6
40
0
40
0
40
0
40
0
40
0.5
40
0.5
40
1
40
1
40
1
40
1
41
1
10
6.11352940906414
20
1.58199984083231
30
0
41
1
10
6.03461253674601
20
1.60663705765458
30
0
41
1
10
5.9571193908512
20
1.63344919772015
30
0
41
1
10
5.8051410973676
20
1.69200056310979
30
0
41
1
10
5.73005797411048
20
1.72404061484414
30
0
41
1
10
5.65878328667884
20
1.7581725076613
30
0
0
SPLINE
5
D6
100
AcDbEntity
8
1
62
256
6
ByLayer
370
18
48
1
60
0
100
AcDbSpline
70
4
71
3
72
16
73
12
40
0
40
0
40
0
40
0
40
0.188162138406773
40
0.188162138406773
40
0.376324276813546
40
0.376324276813546
40
0.564486415220318
40
0.564486415220318
40
0.752648553627091
40
0.752648553627091
40
1
40
1
40
1
40
1
41
1
10
17.9935241655677
20
-4.16083730430569
30
0
41
1
10
18.3820942332296
20
-4.26815535449623
30
0
41
1
10
18.7703691861741
20
-4.36587211713495
30
0
41
1
10
19.5456982754198
20
-4.54308787805576
30
0
41
1
10
19.9330100375947
20
-4.62228113307205
30
0
41
1
10
20.7078738370638
20
-4.76102124594331
30
0
41
1
10
21.0955885238608
20
-4.82046716720458
30
0
41
1
10
21.8719342712423
20
-4.91916352834355
30
0
41
1
10
22.2609591631946
20
-4.95826060674676
30
0
41
1
10
23.1587971579133
20
-5.02425732253025
30
0
41
1
10
23.667849613026
20
-5.04350136177302
30
0
41
1
10
24.1770771663462
20
-5.04443626932837
30
0
0
SPLINE
5
D7
100
AcDbEntity
8
1
62
256
6
ByLayer
370
18
48
1
60
0
100
AcDbSpline
70
4
71
3
72
20
73
16
40
0
40
0
40
0
40
0
40
0.0353680391812018
40
0.0353680391812018
40
0.196140032651002
40
0.196140032651002
40
0.356912026120801
40
0.356912026120801
40
0.517684019590601
40
0.517684019590601
40
0.6784560130604
40
0.6784560130604
40
0.8392280065302
40
0.8392280065302
40
1
40
1
40
1
40
1
41
1
10
47.9664907208786
20
3.38374465890951
30
0
41
1
10
48.0515819953945
20
3.41507946541878
30
0
41
1
10
48.1366812719437
20
3.4460787287365
30
0
41
1
10
48.6086818811875
20
3.61609429905454
30
0
41
1
10
48.9958675651464
20
3.74830960083318
30
0
41
1
10
49.7717994072212
20
3.99696024793994
30
0
41
1
10
50.159198015654
20
4.11304942744016
30
0
41
1
10
50.9333414657309
20
4.32723519355883
30
0
41
1
10
51.3200377930077
20
4.42554231123705
30
0
41
1
10
52.0940481748952
20
4.60315585429177
30
0
41
1
10
52.4810984582712
20
4.68270504277498
30
0
41
1
10
53.2568626296637
20
4.8218190004701
30
0
41
1
10
53.6441693380378
20
4.88144569179082
30
0
41
1
10
54.418205817987
20
4.97965693143524
30
0
41
1
10
54.8046586087446
20
5.01851292541733
30
0
41
1
10
55.1915416974514
20
5.04672047035123
30
0
0
SPLINE
5
D8
100
AcDbEntity
8
1
62
256
6
ByLayer
370
13
48
1
60
0
100
AcDbSpline
70
4
71
3
72
21
73
17
40
0
40
0
40
0
40
0
40
0.0075848319521858
40
0.0674209741324481
40
0.127257116312711
40
0.246929400673236
40
0.306765542853498
40
0.366601685033761
40
0.486273969394285
40
0.546110111574548
40
0.60594625375481
40
0.725618538115335
40
0.785454680295599
40
0.845290822475859
40
0.964963106836384
40
1
40
1
40
1
40
1
41
1
10
55.9355973995015
20
2.35830926826341
30
0
41
1
10
55.9238795425191
20
2.35821702946791
30
0
41
1
10
55.819720966678
20
2.35735822230373
30
0
41
1
10
55.6231305099118
20
2.3550842732773
30
0
41
1
10
55.2532922783496
20
2.34831306598585
30
0
41
1
10
54.8835015822875
20
2.33828454059412
30
0
41
1
10
54.5137557710815
20
2.32499204277741
30
0
41
1
10
54.1439180390931
20
2.3092681637429
30
0
41
1
10
53.7741275815292
20
2.29032120240768
30
0
41
1
10
53.4043814702725
20
2.2681701938263
30
0
41
1
10
53.03454330918
20
2.24368460806013
30
0
41
1
10
52.664752316164
20
2.21604837136886
30
0
41
1
10
52.2950059390441
20
2.18529070721561
30
0
41
1
10
51.9251677894498
20
2.15231770774122
30
0
41
1
10
51.5936922686179
20
2.12003514129543
30
0
41
1
10
51.3546892486171
20
2.09509207896082
30
0
41
1
10
51.3005606018539
20
2.08935604145702
30
0
0
SPLINE
5
D9
100
AcDbEntity
8
1
62
256
6
ByLayer
370
18
48
1
60
0
100
AcDbSpline
70
4
71
3
72
8
73
4
40
0
40
0
40
0
40
0
40
1
40
1
40
1
40
1
41
1
10
55.9425691591811
20
2.24014467350713
30
0
41
1
10
55.9446923020756
20
2.27932990209658
30
0
41
1
10
55.9421302987488
20
2.31907808312801
30
0
41
1
10
55.9355973994932
20
2.35830926831372
30
0
0
SPLINE
5
DA
100
AcDbEntity
8
1
62
256
6
ByLayer
370
18
48
1
60
0
100
AcDbSpline
70
4
71
3
72
46
73
42
40
0
40
0
40
0
40
0
40
0.0828500180575929
40
0.0828500180575929
40
0.165700036115186
40
0.165700036115186
40
0.207125045143982
40
0.207125045143982
40
0.248550054172779
40
0.248550054172779
40
0.289975063201575
40
0.289975063201575
40
0.331400072230372
40
0.331400072230372
40
0.372825081259168
40
0.372825081259168
40
0.414250090287965
40
0.414250090287965
40
0.455675099316761
40
0.455675099316761
40
0.497100108345558
40
0.497100108345558
40
0.57995012640315
40
0.57995012640315
40
0.621375135431947
40
0.621375135431947
40
0.662800144460743
40
0.662800144460743
40
0.70422515348954
40
0.70422515348954
40
0.745650162518336
40
0.745650162518336
40
0.828500180575927
40
0.828500180575927
40
0.911350198633517
40
0.911350198633517
40
0.952775207662313
40
0.952775207662313
40
0.994200216691108
40
0.994200216691108
40
1
40
1
40
1
40
1
41
1
10
54.6629963596994
20
0.519704967953658
30
0
41
1
10
54.2441109496274
20
0.719920606977297
30
0
41
1
10
53.8254477862404
20
0.918155528288082
30
0
41
1
10
52.9880156130839
20
1.30949114170915
30
0
41
1
10
52.5693124115747
20
1.50268702323947
30
0
41
1
10
51.940282684116
20
1.78634324497389
30
0
41
1
10
51.7304476550558
20
1.87988311329164
30
0
41
1
10
51.3105448732207
20
2.06503185695848
30
0
41
1
10
51.1002744747341
20
2.15641722208559
30
0
41
1
10
50.6804854677956
20
2.33523330858668
30
0
41
1
10
50.4709834056296
20
2.42283827035644
30
0
41
1
10
50.0519026403157
20
2.5954463040195
30
0
41
1
10
49.8423195601024
20
2.68021081000515
30
0
41
1
10
49.4232487904438
20
2.84667959134302
30
0
41
1
10
49.2138826295069
20
2.92858570532866
30
0
41
1
10
48.7948839086863
20
3.08840405405522
30
0
41
1
10
48.585247660443
20
3.16633918923881
30
0
41
1
10
48.1660611582912
20
3.3183551669764
30
0
41
1
10
47.9564090369107
20
3.39223163474628
30
0
41
1
10
47.5365212230365
20
3.53500656275207
30
0
41
1
10
47.3261929820848
20
3.6040552288346
30
0
41
1
10
46.6960639816299
20
3.80559333147704
30
0
41
1
10
46.2763669542975
20
3.93105032790606
30
0
41
1
10
45.6475056371282
20
4.1047348753381
30
0
41
1
10
45.4378640670871
20
4.16007463190695
30
0
41
1
10
45.0185788907966
20
4.26514180546977
30
0
41
1
10
44.809085837462
20
4.31488981562444
30
0
41
1
10
44.3896974001326
20
4.40856363416822
30
0
41
1
10
44.1797842552667
20
4.45265825858982
30
0
41
1
10
43.759884615718
20
4.536320229952
30
0
41
1
10
43.5497910290253
20
4.57568320357228
30
0
41
1
10
42.9188432003533
20
4.68460572674189
30
0
41
1
10
42.499235098757
20
4.74593987162868
30
0
41
1
10
41.6603295104056
20
4.84332017527808
30
0
41
1
10
41.2414902458447
20
4.87826995156843
30
0
41
1
10
40.6122422165728
20
4.91543558038757
30
0
41
1
10
40.4025649020018
20
4.92508071078569
30
0
41
1
10
39.9827675123867
20
4.93844256077699
30
0
41
1
10
39.772625466641
20
4.94217486573243
30
0
41
1
10
39.5329478030584
20
4.94292943681285
30
0
41
1
10
39.503512226759
20
4.94296229912638
30
0
41
1
10
39.4740771836715
20
4.94293360930192
30
0
0
SPLINE
5
DB
100
AcDbEntity
8
1
62
256
6
ByLayer
370
18
48
1
60
0
100
AcDbSpline
70
4
71
3
72
8
73
4
40
0
40
0
40
0
40
0
40
1
40
1
40
1
40
1
41
1
10
15.2998872403229
20
-3.41122592233381
30
0
41
1
10
14.9836435803581
20
-3.5188117793729
30
0
41
1
10
14.6673698084329
20
-3.62144261132605
30
0
41
1
10
14.3503916646931
20
-3.71798012495373
30
0
0
SPLINE
5
DC
100
AcDbEntity
8
1
62
256
6
ByLayer
370
13
48
1
60
0
100
AcDbSpline
70
4
71
3
72
40
73
36
40
0
40
0
40
0
40
0
40
0.122054527342433
40
0.122054527342433
40
0.18308179101365
40
0.18308179101365
40
0.213595422849258
40
0.213595422849258
40
0.244109054684866
40
0.244109054684866
40
0.3661635820273
40
0.3661635820273
40
0.396677213862908
40
0.396677213862908
40
0.427190845698516
40
0.427190845698516
40
0.488218109369733
40
0.488218109369733
40
0.610272636712168
40
0.610272636712168
40
0.671299900383384
40
0.671299900383384
40
0.701813532218993
40
0.701813532218993
40
0.732327164054602
40
0.732327164054602
40
0.79335442772582
40
0.79335442772582
40
0.823868059561429
40
0.823868059561429
40
0.854381691397037
40
0.854381691397037
40
0.976436218739469
40
0.976436218739469
40
1
40
1
40
1
40
1
41
1
10
55.0954031431351
20
-4.74098779881925
30
0
41
1
10
54.0719087159678
20
-4.59058735026483
30
0
41
1
10
53.0552350838373
20
-4.3718691795876
30
0
41
1
10
51.5288112294942
20
-3.95445771299222
30
0
41
1
10
51.0197158791863
20
-3.80038174204714
30
0
41
1
10
50.2539568078057
20
-3.54893614344744
30
0
41
1
10
49.9983780580943
20
-3.46171196274486
30
0
41
1
10
49.486327163439
20
-3.28076436998808
30
0
41
1
10
49.229762756147
20
-3.18700147071215
30
0
41
1
10
47.949600437943
20
-2.70496577951897
30
0
41
1
10
46.9292244463235
20
-2.27606353548066
30
0
41
1
10
45.6485354503562
20
-1.7041674554408
30
0
41
1
10
45.3918786907983
20
-1.58788055663146
30
0
41
1
10
44.8801444516755
20
-1.3534880007015
30
0
41
1
10
44.6248232675991
20
-1.23529734972513
30
0
41
1
10
43.8601860950708
20
-0.878405177144487
30
0
41
1
10
43.3522467609303
20
-0.637272818702456
30
0
41
1
10
41.8308017360571
20
0.0891172397999469
30
0
41
1
10
40.8193449179608
20
0.576665074784955
30
0
41
1
10
39.2950104319868
20
1.28857084920506
30
0
41
1
10
38.7856493323072
20
1.52250450337794
30
0
41
1
10
38.0180621697008
20
1.86480749407843
30
0
41
1
10
37.7613455566345
20
1.97771700730888
30
0
41
1
10
37.2485719726744
20
2.19932888930384
30
0
41
1
10
36.9924476892731
20
2.30808341928994
30
0
41
1
10
36.2244677964849
20
2.62746947891154
30
0
41
1
10
35.7130007841353
20
2.83118135379658
30
0
41
1
10
34.9449642467457
20
3.12008137965003
30
0
41
1
10
34.6888471531644
20
3.21366936575427
30
0
41
1
10
34.1760499564264
20
3.3948013861613
30
0
41
1
10
33.9192522884532
20
3.48235793018066
30
0
41
1
10
32.6374255748325
20
3.90304876118873
30
0
41
1
10
31.6159549456698
20
4.18568790165622
30
0
41
1
10
30.3918166502488
20
4.44557764402231
30
0
41
1
10
30.1936749697499
20
4.4852389102839
30
0
41
1
10
29.9955192748859
20
4.52242039089177
30
0
0
SPLINE
5
DD
100
AcDbEntity
8
1
62
256
6
ByLayer
370
18
48
1
60
0
100
AcDbSpline
70
4
71
3
72
20
73
16
40
0
40
0
40
0
40
0
40
0.25
40
0.25
40
0.375
40
0.375
40
0.437500000000001
40
0.437500000000001
40
0.500000000000001
40
0.500000000000001
40
0.75
40
0.75
40
0.875
40
0.875
40
1
40
1
40
1
40
1
41
1
10
55.095403143135
20
-4.74098779881925
30
0
41
1
10
54.9954847234371
20
-4.6500432478102
30
0
41
1
10
54.9070958948358
20
-4.5334418952323
30
0
41
1
10
54.7924044200013
20
-4.31872531100274
30
0
41
1
10
54.7571735939638
20
-4.24047795980678
30
0
41
1
10
54.7090880467679
20
-4.11251296438331
30
0
41
1
10
54.6938337948653
20
-4.06799900285446
30
0
41
1
10
54.6652915298818
20
-3.97639230333056
30
0
41
1
10
54.6519587797693
20
-3.92919476050327
30
0
41
1
10
54.5899505463706
20
-3.68629015419131
30
0
41
1
10
54.5551163375977
20
-3.4700185432952
30
0
41
1
10
54.5258161194614
20
-3.11151174677394
30
0
41
1
10
54.5199066902862
20
-2.98556207142107
30
0
41
1
10
54.5162474260285
20
-2.72619470604408
30
0
41
1
10
54.5184353797671
20
-2.59270560884801
30
0
41
1
10
54.5245961249142
20
-2.45545352597824
30
0
0
SPLINE
5
DE
100
AcDbEntity
8
1
62
256
6
ByLayer
370
18
48
1
60
0
100
AcDbSpline
70
4
71
3
72
15
73
11
40
0
40
0
40
0
40
0
40
0.210496487757339
40
0.210496487757339
40
0.420992975514678
40
0.631489463272017
40
0.631489463272017
40
0.841985951029356
40
0.841985951029356
40
1
40
1
40
1
40
1
41
1
10
5.62757808710705
20
-4.40326894816599
30
0
41
1
10
5.62751216864916
20
-4.48863268277802
30
0
41
1
10
5.62743910469123
20
-4.56617486653059
30
0
41
1
10
5.62728746925538
20
-4.70186093495377
30
0
41
1
10
5.62712957623245
20
-4.81926614623416
30
0
41
1
10
5.62696821577958
20
-4.90067078261492
30
0
41
1
10
5.62680894893271
20
-4.96373776124278
30
0
41
1
10
5.62672999646904
20
-4.9860943633532
30
0
41
1
10
5.62659933448609
20
-5.00807760931153
30
0
41
1
10
5.62654559959469
20
-5.01215210591238
30
0
41
1
10
5.62649446810224
20
-5.01089059445269
30
0
0
SPLINE
5
DF
100
AcDbEntity
8
1
62
256
6
ByLayer
370
18
48
1
60
0
100
AcDbSpline
70
4
71
3
72
26
73
22
40
0
40
0
40
0
40
0
40
0.125
40
0.125
40
0.250000000000001
40
0.250000000000001
40
0.375000000000001
40
0.375000000000001
40
0.500000000000002
40
0.500000000000002
40
0.625000000000002
40
0.625000000000002
40
0.750000000000002
40
0.750000000000002
40
0.812500000000002
40
0.812500000000002
40
0.875000000000001
40
0.875000000000001
40
0.937500000000001
40
0.937500000000001
40
1
40
1
40
1
40
1
41
1
10
14.3503916646931
20
-3.71798012495373
30
0
41
1
10
13.9699349425551
20
-3.82611990393178
30
0
41
1
10
13.5910672438643
20
-3.92954581154345
30
0
41
1
10
12.8366398266803
20
-4.12666871904224
30
0
41
1
10
12.4611413631693
20
-4.21986961227833
30
0
41
1
10
11.7140290502195
20
-4.39275099216871
30
0
41
1
10
11.3426944243474
20
-4.47206798077286
30
0
41
1
10
10.6097855826942
20
-4.61347652089503
30
0
41
1
10
10.2473140141983
20
-4.67654509383325
30
0
41
1
10
9.53224225718151
20
-4.78175581298405
30
0
41
1
10
9.17965442454246
20
-4.82386113657574
30
0
41
1
10
8.48675044719255
20
-4.87996663869504
30
0
41
1
10
8.14509319567767
20
-4.89365703121126
30
0
41
1
10
7.65546977835902
20
-4.88329638151009
30
0
41
1
10
7.4957555362567
20
-4.8747665666032
30
0
41
1
10
7.18460544023765
20
-4.84529187266986
30
0
41
1
10
7.03275601567969
20
-4.82425738874309
30
0
41
1
10
6.7414026154776
20
-4.76634061543999
30
0
41
1
10
6.60291514296978
20
-4.72971133092793
30
0
41
1
10
6.34363320261218
20
-4.63706807013261
30
0
41
1
10
6.2227819660632
20
-4.58112076775669
30
0
41
1
10
6.11349897776847
20
-4.51220083355062
30
0
0
SPLINE
5
E0
100
AcDbEntity
8
1
62
256
6
ByLayer
370
18
48
1
60
0
100
AcDbSpline
70
4
71
3
72
10
73
6
40
0
40
0
40
0
40
0
40
0.5
40
0.5
40
1
40
1
40
1
40
1
41
1
10
11.9975998216631
20
-2.28382546331167
30
0
41
1
10
13.0028089341312
20
-2.66128049484939
30
0
41
1
10
14.0056699727198
20
-3.00450942607355
30
0
41
1
10
16.0048137898302
20
-3.63056410709024
30
0
41
1
10
17.0011114863337
20
-3.91334495131971
30
0
41
1
10
17.9935241655677
20
-4.16083730430569
30
0
0
SPLINE
5
E1
100
AcDbEntity
8
1
62
256
6
ByLayer
370
18
48
1
60
0
100
AcDbSpline
70
4
71
3
72
20
73
16
40
0
40
0
40
0
40
0
40
0.125
40
0.125
40
0.250000000000001
40
0.250000000000001
40
0.375000000000001
40
0.375000000000001
40
0.500000000000002
40
0.500000000000002
40
0.750000000000002
40
0.750000000000002
40
0.875000000000001
40
0.875000000000001
40
1
40
1
40
1
40
1
41
1
10
5.6275780871278
20
-4.40326894816667
30
0
41
1
10
5.58963959195034
20
-4.35964434614726
30
0
41
1
10
5.55515109573074
20
-4.31244799779199
30
0
41
1
10
5.4957259650235
20
-4.2127211466827
30
0
41
1
10
5.47067723685774
20
-4.16017393213193
30
0
41
1
10
5.43034193894476
20
-4.04942011353327
30
0
41
1
10
5.41505408981487
20
-3.99121424490372
30
0
41
1
10
5.39483286163653
20
-3.8687641915482
30
0
41
1
10
5.38996212185938
20
-3.80414754189542
30
0
41
1
10
5.39166190266283
20
-3.60612147152654
30
0
41
1
10
5.41402406748489
20
-3.46727200917874
30
0
41
1
10
5.47731632048635
20
-3.24936929017602
30
0
41
1
10
5.50348168898614
20
-3.17504609005988
30
0
41
1
10
5.5639557620477
20
-3.02672524553938
30
0
41
1
10
5.59837131311858
20
-2.95229578197211
30
0
41
1
10
5.63656486092904
20
-2.87762681148195
30
0
0
SPLINE
5
E2
100
AcDbEntity
8
1
62
256
6
ByLayer
370
18
48
1
60
0
100
AcDbSpline
70
4
71
3
72
14
73
10
40
0
40
0
40
0
40
0
40
0.25
40
0.25
40
0.5
40
0.5
40
0.75
40
0.75
40
1
40
1
40
1
40
1
41
1
10
56.2655709601878
20
-1.05308360923442
30
0
41
1
10
56.3200086187151
20
-1.01008802838479
30
0
41
1
10
56.3770297897464
20
-0.950571030032506
30
0
41
1
10
56.4965728807106
20
-0.800962610199321
30
0
41
1
10
56.5596893224799
20
-0.709671639539607
30
0
41
1
10
56.6857033224036
20
-0.505802559771098
30
0
41
1
10
56.7493940906136
20
-0.392276638344811
30
0
41
1
10
56.8769283945808
20
-0.144782908691155
30
0
41
1
10
56.9390875110942
20
-0.0141301936388629
30
0
41
1
10
56.9995852981792
20
0.122815610485503
30
0
0
SPLINE
5
E3
100
AcDbEntity
8
1
62
256
6
ByLayer
370
18
48
1
60
0
100
AcDbSpline
70
4
71
3
72
30
73
26
40
0
40
0
40
0
40
0
40
0.0156249999999995
40
0.0156249999999995
40
0.031249999999999
40
0.031249999999999
40
0.0624999999999997
40
0.0624999999999997
40
0.124999999999999
40
0.124999999999999
40
0.187499999999998
40
0.187499999999998
40
0.249999999999997
40
0.249999999999997
40
0.312499999999997
40
0.312499999999997
40
0.374999999999996
40
0.374999999999996
40
0.499999999999997
40
0.499999999999997
40
0.624999999999999
40
0.624999999999999
40
0.75
40
0.75
40
1
40
1
40
1
40
1
41
1
10
5.63656486092898
20
-2.87762681148192
30
0
41
1
10
5.65050860228519
20
-2.85036658373312
30
0
41
1
10
5.66657343762944
20
-2.82328877156846
30
0
41
1
10
5.70169916911598
20
-2.77092938832249
30
0
41
1
10
5.72080505732797
20
-2.74551748482392
30
0
41
1
10
5.78215433432618
20
-2.67131670308359
30
0
41
1
10
5.82839988064111
20
-2.62454909208998
30
0
41
1
10
5.97992273970485
20
-2.49090319919534
30
0
41
1
10
6.09317496567232
20
-2.41426224206293
30
0
41
1
10
6.33367119386688
20
-2.27673093531655
30
0
41
1
10
6.46180496337507
20
-2.21584616432057
30
0
41
1
10
6.72194038535872
20
-2.1086817126679
30
0
41
1
10
6.85483004081789
20
-2.06193601829824
30
0
41
1
10
7.12486909681706
20
-1.97908054288413
30
0
41
1
10
7.26203639828802
20
-1.94301069389655
30
0
41
1
10
7.53996326636849
20
-1.88007353935268
30
0
41
1
10
7.68094464003264
20
-1.8532181044956
30
0
41
1
10
8.10302209858432
20
-1.78608826713736
30
0
41
1
10
8.3851786685363
20
-1.75859512612163
30
0
41
1
10
8.95079332932283
20
-1.73339541369091
30
0
41
1
10
9.23425655279311
20
-1.73579502812564
30
0
41
1
10
9.80246164158729
20
-1.76978463824633
30
0
41
1
10
10.0882628226488
20
-1.8017350928983
30
0
41
1
10
10.9286303394395
20
-1.93916883071859
30
0
41
1
10
11.4718798851397
20
-2.08641814501456
30
0
41
1
10
11.997599821663
20
-2.28382546331201
30
0
0
SPLINE
5
E4
100
AcDbEntity
8
1
62
256
6
ByLayer
370
18
48
1
60
0
100
AcDbSpline
70
4
71
3
72
8
73
4
40
0
40
0
40
0
40
0
40
1
40
1
40
1
40
1
41
1
10
56.9995852981792
20
-0.122815610485503
30
0
41
1
10
56.7978748527705
20
-0.640845439163428
30
0
41
1
10
56.6070330119271
20
-1.16669858619232
30
0
41
1
10
56.4236977917081
20
-1.69913152086912
30
0
0
SPLINE
5
E5
100
AcDbEntity
8
1
62
256
6
ByLayer
370
18
48
1
60
0
100
AcDbSpline
70
4
71
3
72
8
73
4
40
0
40
0
40
0
40
0
40
1
40
1
40
1
40
1
41
1
10
55.1915416974514
20
-5.04672047035123
30
0
41
1
10
55.4290173516445
20
-4.45332502808336
30
0
41
1
10
55.6716798138106
20
-3.84074149173719
30
0
41
1
10
55.9090394323037
20
-3.20288413499955
30
0
0
SPLINE
5
E6
100
AcDbEntity
8
1
62
256
6
ByLayer
370
18
48
1
60
0
100
AcDbSpline
70
4
71
3
72
11
73
7
40
0
40
0
40
0
40
0
40
0.304240139554578
40
0.578149287493145
40
0.821742729281919
40
1
40
1
40
1
40
1
41
1
10
23.8215503750546
20
-0.0492826127488684
30
0
41
1
10
23.6480531520964
20
-0.0097898163036518
30
0
41
1
10
23.3169557547037
20
0.0778301035656455
30
0
41
1
10
22.8429470225849
20
0.236428152632442
30
0
41
1
10
22.4381504384611
20
0.396276011003607
30
0
41
1
10
22.1892432964858
20
0.508898666481173
30
0
41
1
10
22.0835602887167
20
0.559092017737981
30
0
0
SPLINE
5
E7
100
AcDbEntity
8
1
62
256
6
ByLayer
370
18
48
1
60
0
100
AcDbSpline
70
4
71
1
72
4
73
2
40
0
40
0
40
1
40
1
41
1
10
54.9891958630904
20
0.381186737246253
30
0
41
1
10
54.4908954124895
20
0.601893374200699
30
0
0
SPLINE
5
E8
100
AcDbEntity
8
1
62
256
6
ByLayer
370
18
48
1
60
0
100
AcDbSpline
70
4
71
3
72
10
73
6
40
0
40
0
40
0
40
0
40
0.129312516788761
40
0.590105417484298
40
1
40
1
40
1
40
1
41
1
10
8.03960499376356
20
4.88830129049521
30
0
41
1
10
7.95703337829744
20
4.88820518355459
30
0
41
1
10
7.57993374952864
20
4.88774576736935
30
0
41
1
10
6.93598083652563
20
4.88642012882087
30
0
41
1
10
6.37677219283313
20
4.88569380305242
30
0
41
1
10
6.11324205296776
20
4.88535997398068
30
0
0
SPLINE
5
E9
100
AcDbEntity
8
1
62
256
6
ByLayer
370
18
48
1
60
0
100
AcDbSpline
70
4
71
3
72
11
73
7
40
0
40
0
40
0
40
0
40
0.202834698763419
40
0.436954227212045
40
0.702568393308957
40
1
40
1
40
1
40
1
41
1
10
39.8330493793853
20
0.0499308554375091
30
0
41
1
10
39.9617031702593
20
0.0206100947817731
30
0
41
1
10
40.2384820551373
20
-0.0498978440048177
30
0
41
1
10
40.6821427769269
20
-0.188815701915843
30
0
41
1
10
41.1840542746504
20
-0.379176940456887
30
0
41
1
10
41.5373445548368
20
-0.53885313864015
30
0
41
1
10
41.723635740822
20
-0.630315521151772
30
0
0
SPLINE
5
EA
100
AcDbEntity
8
1
62
256
6
ByLayer
370
18
48
1
60
0
100
AcDbSpline
70
4
71
3
72
31
73
27
40
0
40
0
40
0
40
0
40
0.0134635958550094
40
0.0549919219013016
40
0.103482417745351
40
0.156428993592497
40
0.202346577500952
40
0.245190436621856
40
0.296101829961972
40
0.350230444935684
40
0.393781462577452
40
0.441730053138873
40
0.493025477163296
40
0.553762261567402
40
0.613824143927526
40
0.678126889286232
40
0.723217392803472
40
0.754072216277135
40
0.793367152677932
40
0.840476149765978
40
0.882145268474482
40
0.90432219054927
40
0.922211226246144
40
0.949348705394076
40
0.994094511335966
40
1
40
1
40
1
40
1
41
1
10
39.4695880136121
20
4.94290909625653
30
0
41
1
10
39.4151672710565
20
4.94295462988478
30
0
41
1
10
39.1928736096591
20
4.943011518558
30
0
41
1
10
38.7743717627443
20
4.94264717770145
30
0
41
1
10
38.1962656360067
20
4.93834018489977
30
0
41
1
10
37.6003833044464
20
4.9374903442602
30
0
41
1
10
37.027341075985
20
4.93706930915991
30
0
41
1
10
36.462522786549
20
4.93713638267792
30
0
41
1
10
35.8645017121402
20
4.93794930775462
30
0
41
1
10
35.263623335801
20
4.93560893937601
30
0
41
1
10
34.6747233862894
20
4.93475047830526
30
0
41
1
10
34.0972809616616
20
4.93335944323238
30
0
41
1
10
33.4503470434893
20
4.93100516779319
30
0
41
1
10
32.7544320542313
20
4.93082511527174
30
0
41
1
10
32.005907563532
20
4.93046896622135
30
0
41
1
10
31.3206558967092
20
4.93041650832794
30
0
41
1
10
30.753521130414
20
4.92792384101227
30
0
41
1
10
30.287506303987
20
4.92683186363075
30
0
41
1
10
29.8133335369749
20
4.92623361459556
30
0
41
1
10
29.2954166725483
20
4.92572261402896
30
0
41
1
10
28.8467476020786
20
4.92525407621793
30
0
41
1
10
28.5162167783895
20
4.92481445907686
30
0
41
1
10
28.2448015718435
20
4.92431078951603
30
0
41
1
10
27.8818755043177
20
4.92334394084139
30
0
41
1
10
27.567296134171
20
4.9226224881676
30
0
41
1
10
27.3624635579258
20
4.92228204730861
30
0
41
1
10
27.3385819935231
20
4.92224388170055
30
0
0
SPLINE
5
EB
100
AcDbEntity
8
1
62
256
6
ByLayer
370
18
48
1
60
0
100
AcDbSpline
70
4
71
3
72
30
73
26
40
0
40
0
40
0
40
0
40
0.0639228033248741
40
0.119200794081509
40
0.158846842039114
40
0.184403069012763
40
0.202264923030146
40
0.224895248107197
40
0.252310296569292
40
0.28341610553698
40
0.311552575952486
40
0.347495633384245
40
0.380423243705982
40
0.430245699764437
40
0.503504617503903
40
0.560218754947055
40
0.607236927312519
40
0.651094577277347
40
0.701933331411517
40
0.763206093027094
40
0.813982614817737
40
0.865402792508966
40
0.92690846386164
40
0.986353585853578
40
1
40
1
40
1
40
1
41
1
10
25.7786308577732
20
-4.92007076671615
30
0
41
1
10
26.0701511937868
20
-4.92052753035637
30
0
41
1
10
26.6138869947907
20
-4.9214040969209
30
0
41
1
10
27.3388700725799
20
-4.9220986338471
30
0
41
1
10
27.8887916450333
20
-4.92335976838351
30
0
41
1
10
28.2677405460308
20
-4.9243727588977
30
0
41
1
10
28.5688700160058
20
-4.9248943520104
30
0
41
1
10
28.8788241485639
20
-4.92528547861389
30
0
41
1
10
29.2491839631315
20
-4.92567777800653
30
0
41
1
10
29.6446962133967
20
-4.92605450637845
30
0
41
1
10
30.0791229013947
20
-4.92657418977262
30
0
41
1
10
30.521863004942
20
-4.92719329424565
30
0
41
1
10
31.0635804403851
20
-4.92931913310125
30
0
41
1
10
31.7755987163
20
-4.93080051697345
30
0
41
1
10
32.5961994981599
20
-4.93068675924252
30
0
41
1
10
33.4039806545194
20
-4.93093163458067
30
0
41
1
10
34.0775796329308
20
-4.93331181942779
30
0
41
1
10
34.7243686888127
20
-4.93474779764324
30
0
41
1
10
35.4362151177687
20
-4.93647876714641
30
0
41
1
10
36.1796403292837
20
-4.93770745502343
30
0
41
1
10
36.9257181985813
20
-4.9369658456431
30
0
41
1
10
37.6728655290018
20
-4.93728202413846
30
0
41
1
10
38.4595255827888
20
-4.94013010206564
30
0
41
1
10
39.0739329728699
20
-4.94313945322355
30
0
41
1
10
39.4073869469269
20
-4.94296370445045
30
0
41
1
10
39.4696408200935
20
-4.94290012768843
30
0
0
SPLINE
5
EC
100
AcDbEntity
8
1
62
256
6
ByLayer
370
18
48
1
60
0
100
AcDbSpline
70
4
71
3
72
11
73
7
40
0
40
0
40
0
40
0
40
0.272059182798037
40
0.629758793539691
40
0.918601704914302
40
1
40
1
40
1
40
1
41
1
10
6.1132354032282
20
-4.88539356882723
30
0
41
1
10
6.28664814792467
20
-4.88568016364133
30
0
41
1
10
6.68800207906605
20
-4.88633582232407
30
0
41
1
10
7.27361338989297
20
-4.88679986149819
30
0
41
1
10
7.7369778949685
20
-4.88781404204036
30
0
41
1
10
7.97295494933192
20
-4.88836370798805
30
0
41
1
10
8.02483890656418
20
-4.88848946037177
30
0
0
LINE
5
7B
100
AcDbEntity
8
SK1
62
256
6
ByLayer
370
18
48
1
60
0
100
AcDbLine
10
0
20
-6
30
0
11
0
21
6
31
0
39
0
210
0
220
0
230
1
0
LINE
5
7D
100
AcDbEntity
8
SK1
62
256
6
ByLayer
370
18
48
1
60
0
100
AcDbLine
10
-45
20
3
30
0
11
-45
21
-3
31
0
39
0
210
0
220
0
230
1
0
LINE
5
7E
100
AcDbEntity
8
SK1
62
256
6
ByLayer
370
18
48
1
60
0
100
AcDbLine
10
-43.267949
20
6
30
0
11
-43.267949
21
-6
31
0
39
0
210
0
220
0
230
1
0
LINE
5
7F
100
AcDbEntity
8
1
62
256
6
ByLayer
370
18
48
1
60
0
100
AcDbLine
10
0
20
-6
30
0
11
0
21
6
31
0
39
0
210
0
220
0
230
1
0
LINE
5
80
100
AcDbEntity
8
1
62
256
6
ByLayer
370
13
48
1
60
0
100
AcDbLine
10
0.773756
20
5.501855
30
0
11
0.773756
21
-5.501855
31
0
39
0
210
0
220
0
230
1
0
LINE
5
81
100
AcDbEntity
8
1
62
256
6
ByLayer
370
18
48
1
60
0
100
AcDbLine
10
56.263757
20
-1.059209
30
0
11
56.26481
21
-1.05232
31
0
39
0
210
0
220
0
230
1
0
LINE
5
82
100
AcDbEntity
8
1
62
256
6
ByLayer
370
18
48
1
60
0
100
AcDbLine
10
6.113249
20
-4.885494
30
0
11
6.11325
21
-4.8855
31
0
39
0
210
0
220
0
230
1
0
LINE
5
83
100
AcDbEntity
8
1
62
256
6
ByLayer
370
18
48
1
60
0
100
AcDbLine
10
54.524596
20
-2.455454
30
0
11
56.263757
21
-1.059209
31
0
39
0
210
0
220
0
230
1
0
LINE
5
84
100
AcDbEntity
8
1
62
256
6
ByLayer
370
13
48
1
60
0
100
AcDbLine
10
1.549042
20
5.003712
30
0
11
1.549042
21
-5.003712
31
0
39
0
210
0
220
0
230
1
0
LINE
5
85
100
AcDbEntity
8
1
62
256
6
ByLayer
370
18
48
1
60
0
100
AcDbLine
10
6.113249
20
4.885491
30
0
11
6.11325
21
4.8855
31
0
39
0
210
0
220
0
230
1
0
LINE
5
86
100
AcDbEntity
8
80
62
256
6
ByLayer
370
18
48
1
60
0
100
AcDbLine
10
0
20
0
30
0
11
-5
21
0
31
0
39
0
210
0
220
0
230
1
0
LINE
5
87
100
AcDbEntity
8
4
62
256
6
ByLayer
370
18
48
0.05
60
0
100
AcDbLine
10
57
20
0
30
0
11
0
21
0
31
0
39
0
210
0
220
0
230
1
0
LINE
5
89
100
AcDbEntity
8
SK4
62
256
6
ByLayer
370
18
48
0.05
60
0
100
AcDbLine
10
62
20
0
30
0
11
-50
21
0
31
0
39
0
210
0
220
0
230
1
0
LINE
5
8B
100
AcDbEntity
8
SK1
62
256
6
ByLayer
370
18
48
1
60
0
100
AcDbLine
10
-45
20
-3
30
0
11
-43.267949
21
-6
31
0
39
0
210
0
220
0
230
1
0
LINE
5
8C
100
AcDbEntity
8
SK1
62
256
6
ByLayer
370
18
48
1
60
0
100
AcDbLine
10
-43.267949
20
6
30
0
11
-45
21
3
31
0
39
0
210
0
220
0
230
1
0
LINE
5
8D
100
AcDbEntity
8
SK1
62
256
6
ByLayer
370
18
48
1
60
0
100
AcDbLine
10
-43.267949
20
-6
30
0
11
0
21
-6
31
0
39
0
210
0
220
0
230
1
0
LINE
5
8E
100
AcDbEntity
8
SK1
62
256
6
ByLayer
370
18
48
1
60
0
100
AcDbLine
10
0
20
6
30
0
11
-43.267949
21
6
31
0
39
0
210
0
220
0
230
1
0
LINE
5
8F
100
AcDbEntity
8
1
62
256
6
ByLayer
370
18
48
1
60
0
100
AcDbLine
10
1.549042
20
-5.003712
30
0
11
5.626494
21
-5.011051
31
0
39
0
210
0
220
0
230
1
0
LINE
5
90
100
AcDbEntity
8
1
62
256
6
ByLayer
370
18
48
1
60
0
100
AcDbLine
10
24.177124
20
-5.044442
30
0
11
25.218602
21
-5.046317
31
0
39
0
210
0
220
0
230
1
0
LINE
5
91
100
AcDbEntity
8
1
62
256
6
ByLayer
370
18
48
1
60
0
100
AcDbLine
10
25.218602
20
5.046317
30
0
11
24.177124
21
5.044442
31
0
39
0
210
0
220
0
230
1
0
LINE
5
92
100
AcDbEntity
8
1
62
256
6
ByLayer
370
18
48
1
60
0
100
AcDbLine
10
5.626494
20
5.011051
30
0
11
1.549042
21
5.003712
31
0
39
0
210
0
220
0
230
1
0
LINE
5
93
100
AcDbEntity
8
81
62
256
6
ByLayer
370
18
48
1
60
0
100
AcDbLine
10
57
20
0
30
0
11
62
21
0
31
0
39
0
210
0
220
0
230
1
0
LINE
5
94
100
AcDbEntity
8
SK2
62
256
6
ByLayer
370
13
48
1
60
0
100
AcDbLine
10
-53.625163
20
-6
30
0
11
-53.625163
21
36.857173
31
0
39
0
210
0
220
0
230
1
0
LINE
5
96
100
AcDbEntity
8
SK2
62
256
6
ByLayer
370
13
48
1
60
0
100
AcDbLine
10
-46.5875
20
6
30
0
11
-55.625163
21
6
31
0
39
0
210
0
220
0
230
1
0
LINE
5
97
100
AcDbEntity
8
SK2
62
256
6
ByLayer
370
13
48
1
60
0
100
AcDbLine
10
-46.5875
20
-6
30
0
11
-55.625163
21
-6
31
0
39
0
210
0
220
0
230
1
0
LINE
5
98
100
AcDbEntity
8
1
62
256
6
ByLayer
370
18
48
1
60
1
100
AcDbLine
10
-53.625163
20
6
30
0
11
-53.164379
21
2.500002
31
0
39
0
210
0
220
0
230
1
0
LINE
5
99
100
AcDbEntity
8
1
62
256
6
ByLayer
370
18
48
1
60
1
100
AcDbLine
10
-53.164379
20
2.500002
30
0
11
-54.085946
21
2.499998
31
0
39
0
210
0
220
0
230
1
0
LINE
5
9A
100
AcDbEntity
8
1
62
256
6
ByLayer
370
18
48
1
60
1
100
AcDbLine
10
-54.085946
20
2.499998
30
0
11
-53.625163
21
6
31
0
39
0
210
0
220
0
230
1
0
LINE
5
9B
100
AcDbEntity
8
1
62
256
6
ByLayer
370
18
48
1
60
1
100
AcDbLine
10
-53.625163
20
-6
30
0
11
-54.085946
21
-2.500002
31
0
39
0
210
0
220
0
230
1
0
LINE
5
9C
100
AcDbEntity
8
1
62
256
6
ByLayer
370
18
48
1
60
1
100
AcDbLine
10
-54.085946
20
-2.500002
30
0
11
-53.164379
21
-2.499998
31
0
39
0
210
0
220
0
230
1
0
LINE
5
9D
100
AcDbEntity
8
1
62
256
6
ByLayer
370
18
48
1
60
1
100
AcDbLine
10
-53.164379
20
-2.499998
30
0
11
-53.625163
21
-6
31
0
39
0
210
0
220
0
230
1
0
LINE
5
9E
100
AcDbEntity
8
2
62
256
6
ByLayer
370
13
48
1
60
0
100
AcDbLine
10
69.083343
20
-5.1
30
0
11
69.083343
21
34.550259
31
0
39
0
210
0
220
0
230
1
0
LINE
5
A0
100
AcDbEntity
8
2
62
256
6
ByLayer
370
13
48
1
60
0
100
AcDbLine
10
56.6301
20
5.1
30
0
11
71.083343
21
5.1
31
0
39
0
210
0
220
0
230
1
0
LINE
5
A1
100
AcDbEntity
8
2
62
256
6
ByLayer
370
13
48
1
60
0
100
AcDbLine
10
56.6301
20
-5.1
30
0
11
71.083343
21
-5.1
31
0
39
0
210
0
220
0
230
1
0
LINE
5
A2
100
AcDbEntity
8
1
62
256
6
ByLayer
370
18
48
1
60
1
100
AcDbLine
10
69.083343
20
5.1
30
0
11
69.544126
21
1.600002
31
0
39
0
210
0
220
0
230
1
0
LINE
5
A3
100
AcDbEntity
8
1
62
256
6
ByLayer
370
18
48
1
60
1
100
AcDbLine
10
69.544126
20
1.600002
30
0
11
68.622559
21
1.599998
31
0
39
0
210
0
220
0
230
1
0
LINE
5
A4
100
AcDbEntity
8
1
62
256
6
ByLayer
370
18
48
1
60
1
100
AcDbLine
10
68.622559
20
1.599998
30
0
11
69.083343
21
5.1
31
0
39
0
210
0
220
0
230
1
0
LINE
5
A5
100
AcDbEntity
8
1
62
256
6
ByLayer
370
18
48
1
60
1
100
AcDbLine
10
69.083343
20
-5.1
30
0
11
68.622559
21
-1.600002
31
0
39
0
210
0
220
0
230
1
0
LINE
5
A6
100
AcDbEntity
8
1
62
256
6
ByLayer
370
18
48
1
60
1
100
AcDbLine
10
68.622559
20
-1.600002
30
0
11
69.544126
21
-1.599998
31
0
39
0
210
0
220
0
230
1
0
LINE
5
A7
100
AcDbEntity
8
1
62
256
6
ByLayer
370
18
48
1
60
1
100
AcDbLine
10
69.544126
20
-1.599998
30
0
11
69.083343
21
-5.1
31
0
39
0
210
0
220
0
230
1
0
LINE
5
F3
100
AcDbEntity
8
1
62
256
6
ByLayer
370
18
48
1
60
1
100
AcDbLine
10
-53.625163
20
6
30
0
11
-53.164379
21
2.500002
31
0
39
0
210
0
220
0
230
1
0
LINE
5
F4
100
AcDbEntity
8
1
62
256
6
ByLayer
370
18
48
1
60
1
100
AcDbLine
10
-53.164379
20
2.500002
30
0
11
-54.085946
21
2.499998
31
0
39
0
210
0
220
0
230
1
0
LINE
5
F5
100
AcDbEntity
8
1
62
256
6
ByLayer
370
18
48
1
60
1
100
AcDbLine
10
-54.085946
20
2.499998
30
0
11
-53.625163
21
6
31
0
39
0
210
0
220
0
230
1
0
LINE
5
F7
100
AcDbEntity
8
1
62
256
6
ByLayer
370
18
48
1
60
1
100
AcDbLine
10
-53.625163
20
-6
30
0
11
-54.085946
21
-2.500002
31
0
39
0
210
0
220
0
230
1
0
LINE
5
F8
100
AcDbEntity
8
1
62
256
6
ByLayer
370
18
48
1
60
1
100
AcDbLine
10
-54.085946
20
-2.500002
30
0
11
-53.164379
21
-2.499998
31
0
39
0
210
0
220
0
230
1
0
LINE
5
F9
100
AcDbEntity
8
1
62
256
6
ByLayer
370
18
48
1
60
1
100
AcDbLine
10
-53.164379
20
-2.499998
30
0
11
-53.625163
21
-6
31
0
39
0
210
0
220
0
230
1
0
LINE
5
FD
100
AcDbEntity
8
1
62
256
6
ByLayer
370
18
48
1
60
1
100
AcDbLine
10
69.083343
20
5.1
30
0
11
69.544126
21
1.600002
31
0
39
0
210
0
220
0
230
1
0
LINE
5
FE
100
AcDbEntity
8
1
62
256
6
ByLayer
370
18
48
1
60
1
100
AcDbLine
10
69.544126
20
1.600002
30
0
11
68.622559
21
1.599998
31
0
39
0
210
0
220
0
230
1
0
LINE
5
FF
100
AcDbEntity
8
1
62
256
6
ByLayer
370
18
48
1
60
1
100
AcDbLine
10
68.622559
20
1.599998
30
0
11
69.083343
21
5.1
31
0
39
0
210
0
220
0
230
1
0
LINE
5
101
100
AcDbEntity
8
1
62
256
6
ByLayer
370
18
48
1
60
1
100
AcDbLine
10
69.083343
20
-5.1
30
0
11
68.622559
21
-1.600002
31
0
39
0
210
0
220
0
230
1
0
LINE
5
102
100
AcDbEntity
8
1
62
256
6
ByLayer
370
18
48
1
60
1
100
AcDbLine
10
68.622559
20
-1.600002
30
0
11
69.544126
21
-1.599998
31
0
39
0
210
0
220
0
230
1
0
LINE
5
103
100
AcDbEntity
8
1
62
256
6
ByLayer
370
18
48
1
60
1
100
AcDbLine
10
69.544126
20
-1.599998
30
0
11
69.083343
21
-5.1
31
0
39
0
210
0
220
0
230
1
0
MTEXT
5
ED
100
AcDbEntity
8
SK6
62
256
6
ByLayer
370
13
48
1
60
0
100
AcDbMText
10
-21.671593
20
37.640328
30
0
210
0
220
0
230
1
1
\W0.7280;860.1-1020-037A1-PM P1BM
40
3.5
41
0
44
1.084337
50
0
71
7
72
5
7
iso_b_vert
0
MTEXT
5
F1
100
AcDbEntity
8
SK2
62
256
6
ByLayer
370
18
48
1
60
0
100
AcDbMText
10
-55.189796
20
19.409024
30
0
210
0
220
0
230
1
1
%%c
40
3.5
41
0
44
1.084337
50
90
71
7
72
5
7
iso_b_vert
0
MTEXT
5
F2
100
AcDbEntity
8
SK2
62
256
6
ByLayer
370
18
48
1
60
0
100
AcDbMText
10
-55.189796
20
24.63168
30
0
210
0
220
0
230
1
1
\W0.6930;12,000
40
3.5
41
0
44
1.084337
50
90
71
7
72
5
7
iso_b_vert
0
MTEXT
5
FB
100
AcDbEntity
8
2
62
256
6
ByLayer
370
18
48
1
60
0
100
AcDbMText
10
67.518709
20
17.10211
30
0
210
0
220
0
230
1
1
%%c
40
3.5
41
0
44
1.084337
50
90
71
7
72
5
7
iso_b_vert
0
MTEXT
5
FC
100
AcDbEntity
8
2
62
256
6
ByLayer
370
18
48
1
60
0
100
AcDbMText
10
67.518709
20
22.324766
30
0
210
0
220
0
230
1
1
\W0.6930;10,200
40
3.5
41
0
44
1.084337
50
90
71
7
72
5
7
iso_b_vert
0
HATCH
5
F6
100
AcDbEntity
8
SK2
62
256
6
ByLayer
370
13
48
1
60
0
100
AcDbHatch
10
0
20
0
30
0
210
0
220
0
230
1
2
ANSI31
70
0
71
0
91
1
92
5
93
3
72
1
10
-53.6251625675374
20
6
11
-53.1643788259847
21
2.50000169255318
72
1
10
-53.1643788259847
20
2.50000169255318
11
-54.0859463090902
21
2.49999830744682
72
1
10
-54.0859463090902
20
2.49999830744682
11
-53.6251625675374
21
6
97
0
75
0
76
1
52
0
41
0.0062
77
0
78
1
53
45
43
0
44
0
45
-0.0139193969876572
46
0.0139193969876572
79
0
47
0
98
1
10
0
20
0
0
HATCH
5
FA
100
AcDbEntity
8
SK2
62
256
6
ByLayer
370
13
48
1
60
0
100
AcDbHatch
10
0
20
0
30
0
210
0
220
0
230
1
2
ANSI31
70
0
71
0
91
1
92
5
93
3
72
1
10
-53.6251625675374
20
-6
11
-54.0859463090902
21
-2.50000169255318
72
1
10
-54.0859463090902
20
-2.50000169255318
11
-53.1643788259847
21
-2.49999830744682
72
1
10
-53.1643788259847
20
-2.49999830744682
11
-53.6251625675374
21
-6
97
0
75
0
76
1
52
0
41
0.0062
77
0
78
1
53
45
43
0
44
0
45
-0.0139193969876572
46
0.0139193969876572
79
0
47
0
98
1
10
0
20
0
0
HATCH
5
100
100
AcDbEntity
8
2
62
256
6
ByLayer
370
13
48
1
60
0
100
AcDbHatch
10
0
20
0
30
0
210
0
220
0
230
1
2
ANSI31
70
0
71
0
91
1
92
5
93
3
72
1
10
69.083342615295
20
5.10000000000002
11
69.5441263568477
21
1.60000169255321
72
1
10
69.5441263568477
20
1.60000169255321
11
68.6225588737422
21
1.59999830744684
72
1
10
68.6225588737422
20
1.59999830744684
11
69.083342615295
21
5.10000000000002
97
0
75
0
76
1
52
0
41
0.0062
77
0
78
1
53
45
43
0
44
0
45
-0.0139193969876572
46
0.0139193969876572
79
0
47
0
98
1
10
0
20
0
0
HATCH
5
104
100
AcDbEntity
8
2
62
256
6
ByLayer
370
13
48
1
60
0
100
AcDbHatch
10
0
20
0
30
0
210
0
220
0
230
1
2
ANSI31
70
0
71
0
91
1
92
5
93
3
72
1
10
69.083342615295
20
-5.09999999999999
11
68.6225588737422
21
-1.60000169255318
72
1
10
68.6225588737422
20
-1.60000169255318
11
69.5441263568477
21
-1.59999830744681
72
1
10
69.5441263568477
20
-1.59999830744681
11
69.083342615295
21
-5.09999999999999
97
0
75
0
76
1
52
0
41
0.0062
77
0
78
1
53
45
43
0
44
0
45
-0.0139193969876572
46
0.0139193969876572
79
0
47
0
98
1
10
0
20
0
0
DIMENSION
5
106
100
AcDbEntity
8
2
62
256
6
ByLayer
370
13
48
1
60
0
100
AcDbDimension
2
_U0
10
55.0426
20
-15.313398
30
0
11
27.5213
21
-15.313398
31
0
70
32
71
1
72
1
41
1
210
0
220
0
230
1
3
Standard
100
AcDbAlignedDimension
13
0
23
0
33
0
14
55.0426
24
-5.1
34
0
50
0
100
AcDbRotatedDimension
1001
ACAD
1000
DSTYLE
1002
{
1070
   371
1070
    13
1070
   372
1070
    13
1070
   170
1070
     0
1070
   144
1040
1.0
1070
   277
1070
     2
1070
   278
1070
    44
1070
   146
1040
1.0
1070
   345
1005
16
1070
   347
1005
16
1070
   346
1005
16
1070
   344
1005
0
1070
   343
1005
0
1070
   172
1070
     1
1070
    76
1070
     0
1070
    75
1070
     0
1070
   282
1070
     0
1070
   281
1070
     0
1070
    71
1070
     0
1070
    74
1070
     0
1070
   279
1070
     0
1070
   173
1070
     1
1070
   340
1005
EE
1070
   271
1070
     2
1070
   272
1070
     2
1070
    77
1070
     1
1070
    73
1070
     1
1070
   171
1070
     3
1070
   274
1070
     4
1070
   177
1070
    35
1070
   176
1070
    35
1070
   178
1070
    35
1070
    48
1040
-0.1
1070
    41
1040
3.5
1070
   147
1040
1.75
1070
    42
1040
1.5875
1070
    44
1040
2.0
1070
   140
1040
3.5
1002
}
1001
ACAD_DSTYLE_DIM_LINETYPE
1070
   380
1005
16
1001
ACAD_DSTYLE_DIM_EXT1_LINETYPE
1070
   381
1005
16
1001
ACAD_DSTYLE_DIM_EXT2_LINETYPE
1070
   382
1005
16
0
DIMENSION
5
11F
100
AcDbEntity
8
SK2
62
256
6
ByLayer
370
13
48
1
60
0
100
AcDbDimension
2
_U1
10
57
20
-34.692985
30
0
11
6
21
-34.692985
31
0
70
32
71
1
72
1
41
1
210
0
220
0
230
1
3
Standard
100
AcDbAlignedDimension
13
-45
23
-6
33
0
14
57
24
0
34
0
50
0
100
AcDbRotatedDimension
1001
ACAD
1000
DSTYLE
1002
{
1070
   371
1070
    13
1070
   372
1070
    13
1070
   170
1070
     0
1070
   144
1040
1.0
1070
   277
1070
     2
1070
   278
1070
    44
1070
   146
1040
1.0
1070
   345
1005
16
1070
   347
1005
16
1070
   346
1005
16
1070
   344
1005
0
1070
   343
1005
0
1070
   172
1070
     1
1070
    76
1070
     0
1070
    75
1070
     0
1070
   282
1070
     0
1070
   281
1070
     0
1070
    71
1070
     0
1070
    74
1070
     0
1070
   279
1070
     0
1070
   173
1070
     1
1070
   340
1005
EE
1070
   271
1070
     2
1070
   272
1070
     2
1070
    77
1070
     1
1070
    73
1070
     1
1070
   171
1070
     3
1070
   274
1070
     4
1070
   177
1070
    35
1070
   176
1070
    35
1070
   178
1070
    35
1070
    48
1040
-0.1
1070
    41
1040
3.5
1070
   147
1040
1.75
1070
    42
1040
1.5875
1070
    44
1040
2.0
1070
   140
1040
3.5
1002
}
1001
ACAD_DSTYLE_DIM_LINETYPE
1070
   380
1005
16
1001
ACAD_DSTYLE_DIM_EXT1_LINETYPE
1070
   381
1005
16
1001
ACAD_DSTYLE_DIM_EXT2_LINETYPE
1070
   382
1005
16
0
DIMENSION
5
137
100
AcDbEntity
8
SK2
62
256
6
ByLayer
370
13
48
1
60
0
100
AcDbDimension
2
_U2
10
57
20
16.709119
30
0
11
40.72
21
16.709119
31
0
70
32
71
1
72
1
41
1
210
0
220
0
230
1
3
Standard
100
AcDbAlignedDimension
13
24.44
23
5.1
33
0
14
57
24
0
34
0
50
0
100
AcDbRotatedDimension
1001
ACAD
1000
DSTYLE
1002
{
1070
   371
1070
    13
1070
   372
1070
    13
1070
   170
1070
     0
1070
   144
1040
1.0
1070
   277
1070
     2
1070
   278
1070
    44
1070
   146
1040
1.0
1070
   345
1005
16
1070
   347
1005
16
1070
   346
1005
16
1070
   344
1005
0
1070
   343
1005
0
1070
   172
1070
     1
1070
    76
1070
     0
1070
    75
1070
     0
1070
   282
1070
     0
1070
   281
1070
     0
1070
    71
1070
     0
1070
    74
1070
     0
1070
   279
1070
     0
1070
   173
1070
     1
1070
   340
1005
EE
1070
   271
1070
     2
1070
   272
1070
     2
1070
    77
1070
     1
1070
    73
1070
     1
1070
   171
1070
     3
1070
   274
1070
     4
1070
   177
1070
    35
1070
   176
1070
    35
1070
   178
1070
    35
1070
    48
1040
-0.1
1070
    41
1040
3.5
1070
   147
1040
1.75
1070
    42
1040
1.5875
1070
    44
1040
2.0
1070
   140
1040
3.5
1002
}
1001
ACAD_DSTYLE_DIM_LINETYPE
1070
   380
1005
16
1001
ACAD_DSTYLE_DIM_EXT1_LINETYPE
1070
   381
1005
16
1001
ACAD_DSTYLE_DIM_EXT2_LINETYPE
1070
   382
1005
16
0
DIMENSION
5
14F
100
AcDbEntity
8
SK2
62
256
6
ByLayer
370
13
48
1
60
0
100
AcDbDimension
2
_U3
10
55.0426
20
-17.902503
30
0
11
74.333333
21
-17.902503
31
0
70
32
71
1
72
1
41
1
210
0
220
0
230
1
3
Standard
100
AcDbAlignedDimension
13
57
23
0
33
0
14
55.0426
24
-5.1
34
0
50
0
100
AcDbRotatedDimension
1001
ACAD
1000
DSTYLE
1002
{
1070
   371
1070
    13
1070
   372
1070
    13
1070
   170
1070
     0
1070
   144
1040
1.0
1070
   277
1070
     2
1070
   278
1070
    44
1070
   146
1040
1.0
1070
   345
1005
16
1070
   347
1005
16
1070
   346
1005
16
1070
   344
1005
0
1070
   343
1005
0
1070
   172
1070
     1
1070
    76
1070
     0
1070
    75
1070
     0
1070
   282
1070
     0
1070
   281
1070
     0
1070
    71
1070
     0
1070
    74
1070
     0
1070
   279
1070
     0
1070
   173
1070
     1
1070
   340
1005
EE
1070
   271
1070
     2
1070
   272
1070
     2
1070
    77
1070
     1
1070
    73
1070
     1
1070
   171
1070
     3
1070
   274
1070
     4
1070
   177
1070
    35
1070
   176
1070
    35
1070
   178
1070
    35
1070
    48
1040
-0.1
1070
    41
1040
3.5
1070
   147
1040
1.75
1070
    42
1040
1.5875
1070
    44
1040
2.0
1070
   140
1040
3.5
1002
}
1001
ACAD_DSTYLE_DIM_LINETYPE
1070
   380
1005
16
1001
ACAD_DSTYLE_DIM_EXT1_LINETYPE
1070
   381
1005
16
1001
ACAD_DSTYLE_DIM_EXT2_LINETYPE
1070
   382
1005
16
0
DIMENSION
5
169
100
AcDbEntity
8
SK2
62
256
6
ByLayer
370
13
48
1
60
0
100
AcDbDimension
2
_U4
10
55.0426
20
-24.343428
30
0
11
5.0213
21
-24.343428
31
0
70
32
71
1
72
1
41
1
210
0
220
0
230
1
3
Standard
100
AcDbAlignedDimension
13
-45
23
-6
33
0
14
55.0426
24
-5.1
34
0
50
0
100
AcDbRotatedDimension
1001
ACAD
1000
DSTYLE
1002
{
1070
   371
1070
    13
1070
   372
1070
    13
1070
   170
1070
     0
1070
   144
1040
1.0
1070
   277
1070
     2
1070
   278
1070
    44
1070
   146
1040
1.0
1070
   345
1005
16
1070
   347
1005
16
1070
   346
1005
16
1070
   344
1005
0
1070
   343
1005
0
1070
   172
1070
     1
1070
    76
1070
     0
1070
    75
1070
     0
1070
   282
1070
     0
1070
   281
1070
     0
1070
    71
1070
     0
1070
    74
1070
     0
1070
   279
1070
     0
1070
   173
1070
     1
1070
   340
1005
EE
1070
   271
1070
     2
1070
   272
1070
     2
1070
    77
1070
     1
1070
    73
1070
     1
1070
   171
1070
     3
1070
   274
1070
     4
1070
   177
1070
    35
1070
   176
1070
    35
1070
   178
1070
    35
1070
    48
1040
-0.1
1070
    41
1040
3.5
1070
   147
1040
1.75
1070
    42
1040
1.5875
1070
    44
1040
2.0
1070
   140
1040
3.5
1002
}
1001
ACAD_DSTYLE_DIM_LINETYPE
1070
   380
1005
16
1001
ACAD_DSTYLE_DIM_EXT1_LINETYPE
1070
   381
1005
16
1001
ACAD_DSTYLE_DIM_EXT2_LINETYPE
1070
   382
1005
16
0
ENDSEC
0
SECTION
2
OBJECTS
0
DICTIONARY
5
1f1
330
0
100
AcDbDictionary
280
0
281
1
3
ACAD_GROUP
350
1f2
3
ACAD_MLINESTYLE
350
1f3
0
DICTIONARY
5
1f2
330
0
100
AcDbDictionary
280
0
281
1
0
DICTIONARY
5
1f3
330
0
100
AcDbDictionary
280
0
281
1
3
Standard
350
18
0
MLINESTYLE
5
18
330
1f3
100
AcDbMlineStyle
2
Standard
70
0
3

62
256
51
90
52
90
71
2
49
-0.5
62
256
6
ByLayer
49
0.5
62
256
6
ByLayer
0
RASTERVARIABLES
5
1df
330

100
AcDbRasterVariables
90
0
70
1
71
1
72
1
0
ENDSEC
0
EOF
