0
SECTION
2
HEADER
9
$ACADVER
1
AC1015
9
$DWGCODEPAGE
3
ANSI_1252
9
$HANDSEED
5
1f7
9
$ANGBASE
50
0
9
$ANGDIR
70
0
9
$ATTMODE
70
1
9
$AUNITS
70
0
9
$AUPREC
70
0
9
$CECOLOR
62
256
9
$CELTSCALE
40
1
9
$CELTYPE
6
ByLayer
9
$CELWEIGHT
370
18
9
$CLAYER
8
0
9
$CMLJUST
70
0
9
$CMLSCALE
40
1
9
$CMLSTYLE
2
Standard
9
$DIMSTYLE
2
Standard
9
$TEXTSIZE
40
0.2
9
$TEXTSTYLE
7
Standard
9
$LUNITS
70
2
9
$LUPREC
70
4
9
$EXTNAMES
290
1
9
$INSUNITS
70
4
9
$LTSCALE
40
1
9
$LWDISPLAY
290
1
9
$PDMODE
70
0
9
$PDSIZE
40
0
9
$PLINEGEN
70
0
0
ENDSEC
0
SECTION
2
CLASSES
0
CLASS
1
RASTERVARIABLES
2
AcDbRasterVariables
3
ISM
90
0
280
0
281
0
0
ENDSEC
0
SECTION
2
TABLES
0
TABLE
2
VPORT
5
1ed
100
AcDbSymbolTable
0
VPORT
5
1
100
AcDbSymbolTableRecord
100
AcDbViewportTableRecord
2
*Active
70
0
10
0
20
0
11
1
21
1
12
-1
22
1
13
0
23
0
14
0.5
24
0.5
15
10
25
10
16
0
26
0
36
1
17
0
27
0
37
0
0
ENDTAB
0
TABLE
2
LTYPE
5
1ee
100
AcDbSymbolTable
0
LTYPE
5
14
100
AcDbSymbolTableRecord
100
AcDbLinetypeTableRecord
70
0
2
ByBlock
3

72
65
73
0
40
0
0
LTYPE
5
15
100
AcDbSymbolTableRecord
100
AcDbLinetypeTableRecord
70
0
2
ByLayer
3

72
65
73
0
40
0
0
LTYPE
5
16
100
AcDbSymbolTableRecord
100
AcDbLinetypeTableRecord
70
0
2
Continuous
3
Solid line
72
65
73
0
40
0
0
LTYPE
5
6E
100
AcDbSymbolTableRecord
100
AcDbLinetypeTableRecord
70
0
2
CENTER
3
____ _ ____ _ ____ _ ____
72
65
73
4
40
47.5
49
22
74
0
49
-8.5
74
0
49
8.5
74
0
49
-8.5
74
0
0
LTYPE
5
6F
100
AcDbSymbolTableRecord
100
AcDbLinetypeTableRecord
70
0
2
DASHED
3
__ __ __ __ __ __ __ __ __
72
65
73
2
40
25.72
49
12.86
74
0
49
-12.86
74
0
0
ENDTAB
0
TABLE
2
LAYER
5
1ef
100
AcDbSymbolTable
0
LAYER
5
10
100
AcDbSymbolTableRecord
100
AcDbLayerTableRecord
2
0
70
0
62
7
6
Continuous
290
1
370
-3
390
0
0
LAYER
5
71
100
AcDbSymbolTableRecord
100
AcDbLayerTableRecord
2
80
70
0
62
-6
6
Continuous
290
1
370
-3
390
0
0
LAYER
5
73
100
AcDbSymbolTableRecord
100
AcDbLayerTableRecord
2
81
70
0
62
-3
6
Continuous
290
1
370
-3
390
0
0
LAYER
5
75
100
AcDbSymbolTableRecord
100
AcDbLayerTableRecord
2
1
70
0
62
4
6
Continuous
290
1
370
-3
390
0
0
LAYER
5
87
100
AcDbSymbolTableRecord
100
AcDbLayerTableRecord
2
4
70
0
62
-2
6
CENTER
290
1
370
-3
390
0
0
LAYER
5
9C
100
AcDbSymbolTableRecord
100
AcDbLayerTableRecord
2
2
70
0
62
7
6
Continuous
290
1
370
-3
390
0
0
LAYER
5
102
100
AcDbSymbolTableRecord
100
AcDbLayerTableRecord
2
Defpoints
70
0
62
7
6
Continuous
290
0
370
-3
390
0
0
LAYER
5
1d9
100
AcDbSymbolTableRecord
100
AcDbLayerTableRecord
2
SK1
70
0
62
4
6
Continuous
290
1
370
-3
390
0
0
LAYER
5
1da
100
AcDbSymbolTableRecord
100
AcDbLayerTableRecord
2
SK4
70
0
62
2
6
CENTER
290
1
370
-3
390
0
0
LAYER
5
1db
100
AcDbSymbolTableRecord
100
AcDbLayerTableRecord
2
SK2
70
0
62
7
6
Continuous
290
1
370
-3
390
0
0
LAYER
5
1dc
100
AcDbSymbolTableRecord
100
AcDbLayerTableRecord
2
SK6
70
0
62
5
6
Continuous
290
1
370
-3
390
0
0
ENDTAB
0
TABLE
2
STYLE
5
1f0
100
AcDbSymbolTable
0
STYLE
5
11
100
AcDbSymbolTableRecord
100
AcDbTextStyleTableRecord
2
Standard
3
txt
70
0
71
0
40
0
41
1
42
0
50
0
0
STYLE
5
E7
100
AcDbSymbolTableRecord
100
AcDbTextStyleTableRecord
2
iso_b_vert
3
simplex.shx
70
0
71
0
40
0
41
1
42
0
50
0
0
STYLE
5
E8
100
AcDbSymbolTableRecord
100
AcDbTextStyleTableRecord
2
DWGDirectTextStyle
3
simplex
70
0
71
0
40
0
41
1
42
0
50
0
0
ENDTAB
0
TABLE
2
DIMSTYLE
5
1f1
100
AcDbSymbolTable
100
AcDbDimStyleTable
0
DIMSTYLE
105
27
100
AcDbSymbolTableRecord
100
AcDbDimStyleTableRecord
2
Standard
70
0
3
<>
41
0.18
42
0.0625
44
0.18
140
0.18
147
0.09
73
0
74
0
77
1
271
2
275
0
278
52
280
0
340
11
0
ENDTAB
0
TABLE
2
VIEW
5
1f2
100
AcDbSymbolTable
0
ENDTAB
0
TABLE
2
UCS
5
1f3
100
AcDbSymbolTable
0
ENDTAB
0
TABLE
2
APPID
5
1f4
100
AcDbSymbolTable
0
APPID
5
12
100
AcDbSymbolTableRecord
100
AcDbRegAppTableRecord
2
ACAD
70
0
0
APPID
5
FE
100
AcDbSymbolTableRecord
100
AcDbRegAppTableRecord
2
ACAD_DSTYLE_DIMBREAK
70
0
0
APPID
5
198
100
AcDbSymbolTableRecord
100
AcDbRegAppTableRecord
2
ACAD_DSTYLE_DIM_LINETYPE
70
0
0
APPID
5
199
100
AcDbSymbolTableRecord
100
AcDbRegAppTableRecord
2
ACAD_DSTYLE_DIM_EXT1_LINETYPE
70
0
0
APPID
5
19A
100
AcDbSymbolTableRecord
100
AcDbRegAppTableRecord
2
ACAD_DSTYLE_DIM_EXT2_LINETYPE
70
0
0
APPID
5
1D5
100
AcDbSymbolTableRecord
100
AcDbRegAppTableRecord
2
ACAD_MLEADERVER
70
0
0
ENDTAB
0
TABLE
2
BLOCK_RECORD
5
1f5
100
AcDbSymbolTable
0
BLOCK_RECORD
5
1F
100
AcDbSymbolTableRecord
100
AcDbBlockTableRecord
2
*Model_Space
340
0
70
0
0
BLOCK_RECORD
5
1B
100
AcDbSymbolTableRecord
100
AcDbBlockTableRecord
2
*Paper_Space
340
0
70
0
0
BLOCK_RECORD
5
23
100
AcDbSymbolTableRecord
100
AcDbBlockTableRecord
2
*Paper_Space0
340
0
70
0
0
BLOCK_RECORD
5
103
100
AcDbSymbolTableRecord
100
AcDbBlockTableRecord
2
*D1
340
0
70
0
0
BLOCK_RECORD
5
10F
100
AcDbSymbolTableRecord
100
AcDbBlockTableRecord
2
_U0
340
0
70
0
0
BLOCK_RECORD
5
11B
100
AcDbSymbolTableRecord
100
AcDbBlockTableRecord
2
*D3
340
0
70
0
0
BLOCK_RECORD
5
127
100
AcDbSymbolTableRecord
100
AcDbBlockTableRecord
2
_U1
340
0
70
0
0
BLOCK_RECORD
5
133
100
AcDbSymbolTableRecord
100
AcDbBlockTableRecord
2
*D5
340
0
70
0
0
BLOCK_RECORD
5
13F
100
AcDbSymbolTableRecord
100
AcDbBlockTableRecord
2
_U2
340
0
70
0
0
BLOCK_RECORD
5
14B
100
AcDbSymbolTableRecord
100
AcDbBlockTableRecord
2
*D7
340
0
70
0
0
BLOCK_RECORD
5
159
100
AcDbSymbolTableRecord
100
AcDbBlockTableRecord
2
_U3
340
0
70
0
0
BLOCK_RECORD
5
165
100
AcDbSymbolTableRecord
100
AcDbBlockTableRecord
2
*D9
340
0
70
0
0
BLOCK_RECORD
5
171
100
AcDbSymbolTableRecord
100
AcDbBlockTableRecord
2
_U4
340
0
70
0
0
ENDTAB
0
ENDSEC
0
SECTION
2
BLOCKS
0
BLOCK
5
20
100
AcDbEntity
8
0
100
AcDbBlockBegin
2
*Model_Space
70
0
10
0
20
0
30
0
3
*Model_Space
0
ENDBLK
5
21
100
AcDbEntity
8
0
100
AcDbBlockEnd
0
BLOCK
5
1C
100
AcDbEntity
8
0
100
AcDbBlockBegin
2
*Paper_Space
70
0
10
0
20
0
30
0
3
*Paper_Space
0
ENDBLK
5
1D
100
AcDbEntity
8
0
100
AcDbBlockEnd
0
BLOCK
5
24
100
AcDbEntity
8
0
100
AcDbBlockBegin
2
*Paper_Space0
70
0
10
0
20
0
30
0
3
*Paper_Space0
0
ENDBLK
5
25
100
AcDbEntity
8
0
100
AcDbBlockEnd
0
BLOCK
5
104
100
AcDbEntity
8
0
100
AcDbBlockBegin
2
*D1
70
1
10
0
20
0
30
0
3
*D1
0
LINE
5
106
100
AcDbEntity
8
0
62
256
6
ByLayer
370
-2
48
1
60
0
100
AcDbLine
10
0
20
-1.5875
30
0
11
0
21
-16.613398
31
0
39
0
210
0
220
0
230
1
0
LINE
5
107
100
AcDbEntity
8
0
62
256
6
ByLayer
370
-2
48
1
60
0
100
AcDbLine
10
47.3105
20
-5.9875
30
0
11
47.3105
21
-16.613398
31
0
39
0
210
0
220
0
230
1
0
LINE
5
108
100
AcDbEntity
8
0
62
256
6
ByLayer
370
-2
48
1
60
0
100
AcDbLine
10
3.5
20
-14.613398
30
0
11
43.8105
21
-14.613398
31
0
39
0
210
0
220
0
230
1
0
SOLID
5
109
100
AcDbEntity
8
0
62
256
6
ByLayer
370
-1
48
1
60
0
100
AcDbTrace
10
3.5
20
-14.030065
30
0
11
3.5
21
-15.196732
31
0
12
0
22
-14.613398
32
0
13
0
23
-14.613398
33
0
39
0
210
0
220
0
230
1
0
SOLID
5
10A
100
AcDbEntity
8
0
62
256
6
ByLayer
370
-1
48
1
60
0
100
AcDbTrace
10
43.8105
20
-15.196732
30
0
11
43.8105
21
-14.030065
31
0
12
47.3105
22
-14.613398
32
0
13
47.3105
23
-14.613398
33
0
39
0
210
0
220
0
230
1
0
MTEXT
5
10B
100
AcDbEntity
8
0
62
256
6
ByLayer
370
18
48
1
60
0
100
AcDbMText
10
23.65525
20
-7.613398
30
0
210
0
220
0
230
1
1
\A1;47.31
40
3.5
41
0
44
1
50
0
71
5
72
5
7
iso_b_vert
0
POINT
5
10C
100
AcDbEntity
8
Defpoints
62
0
6
ByLayer
370
-1
48
1
60
0
100
AcDbPoint
10
0
20
0
30
0
39
0
210
0
220
0
230
1
50
360
0
POINT
5
10D
100
AcDbEntity
8
Defpoints
62
0
6
ByLayer
370
-1
48
1
60
0
100
AcDbPoint
10
47.3105
20
-4.4
30
0
39
0
210
0
220
0
230
1
50
360
0
POINT
5
10E
100
AcDbEntity
8
Defpoints
62
0
6
ByLayer
370
-1
48
1
60
0
100
AcDbPoint
10
47.3105
20
-14.613398
30
0
39
0
210
0
220
0
230
1
50
360
0
ENDBLK
5
105
100
AcDbEntity
8
0
100
AcDbBlockEnd
0
BLOCK
5
116
100
AcDbEntity
8
0
100
AcDbBlockBegin
2
_U0
70
0
10
0
20
0
30
0
3
_U0
0
MTEXT
5
110
100
AcDbEntity
8
2
62
256
6
ByLayer
370
13
48
1
60
0
100
AcDbMText
10
18.771118
20
-13.580765
30
0
210
0
220
0
230
1
1
\W0.7494;47,31
40
3.5
41
0
44
1.084337
50
0
71
7
72
5
7
iso_b_vert
0
LINE
5
111
100
AcDbEntity
8
2
62
256
6
ByLayer
370
13
48
1
60
0
100
AcDbLine
10
0
20
-1.5875
30
0
11
0
21
-16.613398
31
0
39
0
210
0
220
0
230
1
0
LINE
5
112
100
AcDbEntity
8
2
62
256
6
ByLayer
370
13
48
1
60
0
100
AcDbLine
10
47.3105
20
-5.9875
30
0
11
47.3105
21
-16.613398
31
0
39
0
210
0
220
0
230
1
0
LINE
5
113
100
AcDbEntity
8
2
62
256
6
ByLayer
370
13
48
1
60
0
100
AcDbLine
10
0
20
-14.613398
30
0
11
47.3105
21
-14.613398
31
0
39
0
210
0
220
0
230
1
0
SOLID
5
114
100
AcDbEntity
8
2
62
256
6
ByLayer
370
18
48
1
60
0
100
AcDbTrace
10
0
20
-14.613398
30
0
11
3.499998
21
-14.152615
31
0
12
3.500002
22
-15.074182
32
0
13
3.500002
23
-15.074182
33
0
39
0
210
0
220
0
230
1
0
SOLID
5
115
100
AcDbEntity
8
2
62
256
6
ByLayer
370
18
48
1
60
0
100
AcDbTrace
10
47.3105
20
-14.613398
30
0
11
43.810502
21
-15.074182
31
0
12
43.810498
22
-14.152615
32
0
13
43.810498
23
-14.152615
33
0
39
0
210
0
220
0
230
1
0
ENDBLK
5
117
100
AcDbEntity
8
0
100
AcDbBlockEnd
0
BLOCK
5
11C
100
AcDbEntity
8
0
100
AcDbBlockBegin
2
*D3
70
1
10
0
20
0
30
0
3
*D3
0
LINE
5
11E
100
AcDbEntity
8
0
62
256
6
ByLayer
370
-2
48
1
60
0
100
AcDbLine
10
-40
20
-6.5875
30
0
11
-40
21
-35.692985
31
0
39
0
210
0
220
0
230
1
0
LINE
5
11F
100
AcDbEntity
8
0
62
256
6
ByLayer
370
-2
48
1
60
0
100
AcDbLine
10
49
20
-1.5875
30
0
11
49
21
-35.692985
31
0
39
0
210
0
220
0
230
1
0
LINE
5
120
100
AcDbEntity
8
0
62
256
6
ByLayer
370
-2
48
1
60
0
100
AcDbLine
10
-36.5
20
-33.692985
30
0
11
45.5
21
-33.692985
31
0
39
0
210
0
220
0
230
1
0
SOLID
5
121
100
AcDbEntity
8
0
62
256
6
ByLayer
370
-1
48
1
60
0
100
AcDbTrace
10
-36.5
20
-33.109652
30
0
11
-36.5
21
-34.276319
31
0
12
-40
22
-33.692985
32
0
13
-40
23
-33.692985
33
0
39
0
210
0
220
0
230
1
0
SOLID
5
122
100
AcDbEntity
8
0
62
256
6
ByLayer
370
-1
48
1
60
0
100
AcDbTrace
10
45.5
20
-34.276319
30
0
11
45.5
21
-33.109652
31
0
12
49
22
-33.692985
32
0
13
49
23
-33.692985
33
0
39
0
210
0
220
0
230
1
0
MTEXT
5
123
100
AcDbEntity
8
0
62
256
6
ByLayer
370
18
48
1
60
0
100
AcDbMText
10
4.5
20
-26.692985
30
0
210
0
220
0
230
1
1
\A1;89.00
40
3.5
41
0
44
1
50
0
71
5
72
5
7
iso_b_vert
0
POINT
5
124
100
AcDbEntity
8
Defpoints
62
0
6
ByLayer
370
-1
48
1
60
0
100
AcDbPoint
10
-40
20
-5
30
0
39
0
210
0
220
0
230
1
50
360
0
POINT
5
125
100
AcDbEntity
8
Defpoints
62
0
6
ByLayer
370
-1
48
1
60
0
100
AcDbPoint
10
49
20
0
30
0
39
0
210
0
220
0
230
1
50
360
0
POINT
5
126
100
AcDbEntity
8
Defpoints
62
0
6
ByLayer
370
-1
48
1
60
0
100
AcDbPoint
10
49
20
-33.692985
30
0
39
0
210
0
220
0
230
1
50
360
0
ENDBLK
5
11D
100
AcDbEntity
8
0
100
AcDbBlockEnd
0
BLOCK
5
12E
100
AcDbEntity
8
0
100
AcDbBlockBegin
2
_U1
70
0
10
0
20
0
30
0
3
_U1
0
MTEXT
5
128
100
AcDbEntity
8
SK2
62
256
6
ByLayer
370
13
48
1
60
0
100
AcDbMText
10
-0.637299
20
-32.660352
30
0
210
0
220
0
230
1
1
\W0.7317;89,00
40
3.5
41
0
44
1.084337
50
0
71
7
72
5
7
iso_b_vert
0
LINE
5
129
100
AcDbEntity
8
SK2
62
256
6
ByLayer
370
13
48
1
60
0
100
AcDbLine
10
-40
20
-6.5875
30
0
11
-40
21
-35.692985
31
0
39
0
210
0
220
0
230
1
0
LINE
5
12A
100
AcDbEntity
8
SK2
62
256
6
ByLayer
370
13
48
1
60
0
100
AcDbLine
10
49
20
-1.5875
30
0
11
49
21
-35.692985
31
0
39
0
210
0
220
0
230
1
0
LINE
5
12B
100
AcDbEntity
8
SK2
62
256
6
ByLayer
370
13
48
1
60
0
100
AcDbLine
10
-40
20
-33.692985
30
0
11
49
21
-33.692985
31
0
39
0
210
0
220
0
230
1
0
SOLID
5
12C
100
AcDbEntity
8
SK2
62
256
6
ByLayer
370
18
48
1
60
0
100
AcDbTrace
10
-40
20
-33.692985
30
0
11
-36.500002
21
-33.232202
31
0
12
-36.499998
22
-34.153769
32
0
13
-36.499998
23
-34.153769
33
0
39
0
210
0
220
0
230
1
0
SOLID
5
12D
100
AcDbEntity
8
SK2
62
256
6
ByLayer
370
18
48
1
60
0
100
AcDbTrace
10
49
20
-33.692985
30
0
11
45.500002
21
-34.153769
31
0
12
45.499998
22
-33.232202
32
0
13
45.499998
23
-33.232202
33
0
39
0
210
0
220
0
230
1
0
ENDBLK
5
12F
100
AcDbEntity
8
0
100
AcDbBlockEnd
0
BLOCK
5
134
100
AcDbEntity
8
0
100
AcDbBlockBegin
2
*D5
70
1
10
0
20
0
30
0
3
*D5
0
LINE
5
136
100
AcDbEntity
8
0
62
256
6
ByLayer
370
-2
48
1
60
0
100
AcDbLine
10
20.91
20
5.9875
30
0
11
20.91
21
18.009119
31
0
39
0
210
0
220
0
230
1
0
LINE
5
137
100
AcDbEntity
8
0
62
256
6
ByLayer
370
-2
48
1
60
0
100
AcDbLine
10
49
20
1.5875
30
0
11
49
21
18.009119
31
0
39
0
210
0
220
0
230
1
0
LINE
5
138
100
AcDbEntity
8
0
62
256
6
ByLayer
370
-2
48
1
60
0
100
AcDbLine
10
24.41
20
16.009119
30
0
11
45.5
21
16.009119
31
0
39
0
210
0
220
0
230
1
0
SOLID
5
139
100
AcDbEntity
8
0
62
256
6
ByLayer
370
-1
48
1
60
0
100
AcDbTrace
10
24.41
20
16.592453
30
0
11
24.41
21
15.425786
31
0
12
20.91
22
16.009119
32
0
13
20.91
23
16.009119
33
0
39
0
210
0
220
0
230
1
0
SOLID
5
13A
100
AcDbEntity
8
0
62
256
6
ByLayer
370
-1
48
1
60
0
100
AcDbTrace
10
45.5
20
15.425786
30
0
11
45.5
21
16.592453
31
0
12
49
22
16.009119
32
0
13
49
23
16.009119
33
0
39
0
210
0
220
0
230
1
0
MTEXT
5
13B
100
AcDbEntity
8
0
62
256
6
ByLayer
370
18
48
1
60
0
100
AcDbMText
10
34.955
20
23.009119
30
0
210
0
220
0
230
1
1
\A1;28.09
40
3.5
41
0
44
1
50
0
71
5
72
5
7
iso_b_vert
0
POINT
5
13C
100
AcDbEntity
8
Defpoints
62
0
6
ByLayer
370
-1
48
1
60
0
100
AcDbPoint
10
20.91
20
4.4
30
0
39
0
210
0
220
0
230
1
50
360
0
POINT
5
13D
100
AcDbEntity
8
Defpoints
62
0
6
ByLayer
370
-1
48
1
60
0
100
AcDbPoint
10
49
20
0
30
0
39
0
210
0
220
0
230
1
50
360
0
POINT
5
13E
100
AcDbEntity
8
Defpoints
62
0
6
ByLayer
370
-1
48
1
60
0
100
AcDbPoint
10
49
20
16.009119
30
0
39
0
210
0
220
0
230
1
50
360
0
ENDBLK
5
135
100
AcDbEntity
8
0
100
AcDbBlockEnd
0
BLOCK
5
146
100
AcDbEntity
8
0
100
AcDbBlockBegin
2
_U2
70
0
10
0
20
0
30
0
3
_U2
0
MTEXT
5
140
100
AcDbEntity
8
SK2
62
256
6
ByLayer
370
13
48
1
60
0
100
AcDbMText
10
29.817701
20
17.041753
30
0
210
0
220
0
230
1
1
\W0.7402;28,09
40
3.5
41
0
44
1.084337
50
0
71
7
72
5
7
iso_b_vert
0
LINE
5
141
100
AcDbEntity
8
SK2
62
256
6
ByLayer
370
13
48
1
60
0
100
AcDbLine
10
20.91
20
5.9875
30
0
11
20.91
21
18.009119
31
0
39
0
210
0
220
0
230
1
0
LINE
5
142
100
AcDbEntity
8
SK2
62
256
6
ByLayer
370
13
48
1
60
0
100
AcDbLine
10
49
20
1.5875
30
0
11
49
21
18.009119
31
0
39
0
210
0
220
0
230
1
0
LINE
5
143
100
AcDbEntity
8
SK2
62
256
6
ByLayer
370
13
48
1
60
0
100
AcDbLine
10
20.91
20
16.009119
30
0
11
49
21
16.009119
31
0
39
0
210
0
220
0
230
1
0
SOLID
5
144
100
AcDbEntity
8
SK2
62
256
6
ByLayer
370
18
48
1
60
0
100
AcDbTrace
10
20.91
20
16.009119
30
0
11
24.409998
21
16.469903
31
0
12
24.410002
22
15.548335
32
0
13
24.410002
23
15.548335
33
0
39
0
210
0
220
0
230
1
0
SOLID
5
145
100
AcDbEntity
8
SK2
62
256
6
ByLayer
370
18
48
1
60
0
100
AcDbTrace
10
49
20
16.009119
30
0
11
45.500002
21
15.548335
31
0
12
45.499998
22
16.469903
32
0
13
45.499998
23
16.469903
33
0
39
0
210
0
220
0
230
1
0
ENDBLK
5
147
100
AcDbEntity
8
0
100
AcDbBlockEnd
0
BLOCK
5
14C
100
AcDbEntity
8
0
100
AcDbBlockBegin
2
*D7
70
1
10
0
20
0
30
0
3
*D7
0
LINE
5
14E
100
AcDbEntity
8
0
62
256
6
ByLayer
370
-2
48
1
60
0
100
AcDbLine
10
49
20
-1.5875
30
0
11
49
21
-19.202503
31
0
39
0
210
0
220
0
230
1
0
LINE
5
14F
100
AcDbEntity
8
0
62
256
6
ByLayer
370
-2
48
1
60
0
100
AcDbLine
10
47.3105
20
-5.9875
30
0
11
47.3105
21
-19.202503
31
0
39
0
210
0
220
0
230
1
0
LINE
5
150
100
AcDbEntity
8
0
62
256
6
ByLayer
370
-2
48
1
60
0
100
AcDbLine
10
49
20
-17.202503
30
0
11
76.5
21
-17.202503
31
0
39
0
210
0
220
0
230
1
0
LINE
5
151
100
AcDbEntity
8
0
62
256
6
ByLayer
370
-2
48
1
60
0
100
AcDbLine
10
52.5
20
-17.202503
30
0
11
56
21
-17.202503
31
0
39
0
210
0
220
0
230
1
0
LINE
5
152
100
AcDbEntity
8
0
62
256
6
ByLayer
370
-2
48
1
60
0
100
AcDbLine
10
43.8105
20
-17.202503
30
0
11
40.3105
21
-17.202503
31
0
39
0
210
0
220
0
230
1
0
SOLID
5
153
100
AcDbEntity
8
0
62
256
6
ByLayer
370
-1
48
1
60
0
100
AcDbTrace
10
52.5
20
-16.61917
30
0
11
52.5
21
-17.785837
31
0
12
49
22
-17.202503
32
0
13
49
23
-17.202503
33
0
39
0
210
0
220
0
230
1
0
SOLID
5
154
100
AcDbEntity
8
0
62
256
6
ByLayer
370
-1
48
1
60
0
100
AcDbTrace
10
43.8105
20
-17.785837
30
0
11
43.8105
21
-16.61917
31
0
12
47.3105
22
-17.202503
32
0
13
47.3105
23
-17.202503
33
0
39
0
210
0
220
0
230
1
0
MTEXT
5
155
100
AcDbEntity
8
0
62
256
6
ByLayer
370
18
48
1
60
0
100
AcDbMText
10
66.25
20
-10.202503
30
0
210
0
220
0
230
1
1
\A1;1.69
40
3.5
41
0
44
1
50
0
71
5
72
5
7
iso_b_vert
0
POINT
5
156
100
AcDbEntity
8
Defpoints
62
0
6
ByLayer
370
-1
48
1
60
0
100
AcDbPoint
10
49
20
0
30
0
39
0
210
0
220
0
230
1
50
360
0
POINT
5
157
100
AcDbEntity
8
Defpoints
62
0
6
ByLayer
370
-1
48
1
60
0
100
AcDbPoint
10
47.3105
20
-4.4
30
0
39
0
210
0
220
0
230
1
50
360
0
POINT
5
158
100
AcDbEntity
8
Defpoints
62
0
6
ByLayer
370
-1
48
1
60
0
100
AcDbPoint
10
47.3105
20
-17.202503
30
0
39
0
210
0
220
0
230
1
50
360
0
ENDBLK
5
14D
100
AcDbEntity
8
0
100
AcDbBlockEnd
0
BLOCK
5
160
100
AcDbEntity
8
0
100
AcDbBlockBegin
2
_U3
70
0
10
0
20
0
30
0
3
_U3
0
MTEXT
5
15A
100
AcDbEntity
8
SK2
62
256
6
ByLayer
370
13
48
1
60
0
100
AcDbMText
10
55.589293
20
-16.16987
30
0
210
0
220
0
230
1
1
\W0.6463;1,69
40
3.5
41
0
44
1.084337
50
0
71
7
72
5
7
iso_b_vert
0
LINE
5
15B
100
AcDbEntity
8
SK2
62
256
6
ByLayer
370
13
48
1
60
0
100
AcDbLine
10
49
20
-1.5875
30
0
11
49
21
-19.202503
31
0
39
0
210
0
220
0
230
1
0
LINE
5
15C
100
AcDbEntity
8
SK2
62
256
6
ByLayer
370
13
48
1
60
0
100
AcDbLine
10
47.3105
20
-5.9875
30
0
11
47.3105
21
-19.202503
31
0
39
0
210
0
220
0
230
1
0
LINE
5
15D
100
AcDbEntity
8
SK2
62
256
6
ByLayer
370
13
48
1
60
0
100
AcDbLine
10
38.5605
20
-17.202503
30
0
11
62.559058
21
-17.202503
31
0
39
0
210
0
220
0
230
1
0
SOLID
5
15E
100
AcDbEntity
8
SK2
62
256
6
ByLayer
370
18
48
1
60
0
100
AcDbTrace
10
49
20
-17.202503
30
0
11
52.499998
21
-16.741719
31
0
12
52.500002
22
-17.663287
32
0
13
52.500002
23
-17.663287
33
0
39
0
210
0
220
0
230
1
0
SOLID
5
15F
100
AcDbEntity
8
SK2
62
256
6
ByLayer
370
18
48
1
60
0
100
AcDbTrace
10
47.3105
20
-17.202503
30
0
11
43.810502
21
-17.663287
31
0
12
43.810498
22
-16.741719
32
0
13
43.810498
23
-16.741719
33
0
39
0
210
0
220
0
230
1
0
ENDBLK
5
161
100
AcDbEntity
8
0
100
AcDbBlockEnd
0
BLOCK
5
166
100
AcDbEntity
8
0
100
AcDbBlockBegin
2
*D9
70
1
10
0
20
0
30
0
3
*D9
0
LINE
5
168
100
AcDbEntity
8
0
62
256
6
ByLayer
370
-2
48
1
60
0
100
AcDbLine
10
-40
20
-6.5875
30
0
11
-40
21
-25.343428
31
0
39
0
210
0
220
0
230
1
0
LINE
5
169
100
AcDbEntity
8
0
62
256
6
ByLayer
370
-2
48
1
60
0
100
AcDbLine
10
47.3105
20
-5.9875
30
0
11
47.3105
21
-25.343428
31
0
39
0
210
0
220
0
230
1
0
LINE
5
16A
100
AcDbEntity
8
0
62
256
6
ByLayer
370
-2
48
1
60
0
100
AcDbLine
10
-36.5
20
-23.343428
30
0
11
43.8105
21
-23.343428
31
0
39
0
210
0
220
0
230
1
0
SOLID
5
16B
100
AcDbEntity
8
0
62
256
6
ByLayer
370
-1
48
1
60
0
100
AcDbTrace
10
-36.5
20
-22.760095
30
0
11
-36.5
21
-23.926762
31
0
12
-40
22
-23.343428
32
0
13
-40
23
-23.343428
33
0
39
0
210
0
220
0
230
1
0
SOLID
5
16C
100
AcDbEntity
8
0
62
256
6
ByLayer
370
-1
48
1
60
0
100
AcDbTrace
10
43.8105
20
-23.926762
30
0
11
43.8105
21
-22.760095
31
0
12
47.3105
22
-23.343428
32
0
13
47.3105
23
-23.343428
33
0
39
0
210
0
220
0
230
1
0
MTEXT
5
16D
100
AcDbEntity
8
0
62
256
6
ByLayer
370
18
48
1
60
0
100
AcDbMText
10
3.65525
20
-16.343428
30
0
210
0
220
0
230
1
1
\A1;87.31
40
3.5
41
0
44
1
50
0
71
5
72
5
7
iso_b_vert
0
POINT
5
16E
100
AcDbEntity
8
Defpoints
62
0
6
ByLayer
370
-1
48
1
60
0
100
AcDbPoint
10
-40
20
-5
30
0
39
0
210
0
220
0
230
1
50
360
0
POINT
5
16F
100
AcDbEntity
8
Defpoints
62
0
6
ByLayer
370
-1
48
1
60
0
100
AcDbPoint
10
47.3105
20
-4.4
30
0
39
0
210
0
220
0
230
1
50
360
0
POINT
5
170
100
AcDbEntity
8
Defpoints
62
0
6
ByLayer
370
-1
48
1
60
0
100
AcDbPoint
10
47.3105
20
-23.343428
30
0
39
0
210
0
220
0
230
1
50
360
0
ENDBLK
5
167
100
AcDbEntity
8
0
100
AcDbBlockEnd
0
BLOCK
5
178
100
AcDbEntity
8
0
100
AcDbBlockBegin
2
_U4
70
0
10
0
20
0
30
0
3
_U4
0
MTEXT
5
172
100
AcDbEntity
8
SK2
62
256
6
ByLayer
370
13
48
1
60
0
100
AcDbMText
10
-1.044615
20
-22.310795
30
0
210
0
220
0
230
1
1
\W0.7211;87,31
40
3.5
41
0
44
1.084337
50
0
71
7
72
5
7
iso_b_vert
0
LINE
5
173
100
AcDbEntity
8
SK2
62
256
6
ByLayer
370
13
48
1
60
0
100
AcDbLine
10
-40
20
-6.5875
30
0
11
-40
21
-25.343428
31
0
39
0
210
0
220
0
230
1
0
LINE
5
174
100
AcDbEntity
8
SK2
62
256
6
ByLayer
370
13
48
1
60
0
100
AcDbLine
10
47.3105
20
-5.9875
30
0
11
47.3105
21
-25.343428
31
0
39
0
210
0
220
0
230
1
0
LINE
5
175
100
AcDbEntity
8
SK2
62
256
6
ByLayer
370
13
48
1
60
0
100
AcDbLine
10
-40
20
-23.343428
30
0
11
47.3105
21
-23.343428
31
0
39
0
210
0
220
0
230
1
0
SOLID
5
176
100
AcDbEntity
8
SK2
62
256
6
ByLayer
370
18
48
1
60
0
100
AcDbTrace
10
-40
20
-23.343428
30
0
11
-36.500002
21
-22.882645
31
0
12
-36.499998
22
-23.804212
32
0
13
-36.499998
23
-23.804212
33
0
39
0
210
0
220
0
230
1
0
SOLID
5
177
100
AcDbEntity
8
SK2
62
256
6
ByLayer
370
18
48
1
60
0
100
AcDbTrace
10
47.3105
20
-23.343428
30
0
11
43.810502
21
-23.804212
31
0
12
43.810498
22
-22.882645
32
0
13
43.810498
23
-22.882645
33
0
39
0
210
0
220
0
230
1
0
ENDBLK
5
179
100
AcDbEntity
8
0
100
AcDbBlockEnd
0
ENDSEC
0
SECTION
2
ENTITIES
0
ARC
5
A5
100
AcDbEntity
8
1
62
256
6
ByLayer
370
18
48
1
60
0
100
AcDbCircle
39
0
10
1.362025
20
-5.167294
30
0
40
0.849999999999997
210
0
220
0
230
1
100
AcDbArc
50
89.896868
51
143.244014
0
ARC
5
A6
100
AcDbEntity
8
1
62
256
6
ByLayer
370
18
48
1
60
0
100
AcDbCircle
39
0
10
1.362025
20
5.167294
30
0
40
0.849999999999997
210
0
220
0
230
1
100
AcDbArc
50
216.755986
51
270.103132
0
ARC
5
A7
100
AcDbEntity
8
1
62
256
6
ByLayer
370
18
48
1
60
0
100
AcDbCircle
39
0
10
0
20
-4.15
30
0
40
0.850000000000002
210
0
220
0
230
1
100
AcDbArc
50
270
51
323.244014
0
ARC
5
A8
100
AcDbEntity
8
1
62
256
6
ByLayer
370
18
48
1
60
0
100
AcDbCircle
39
0
10
0
20
4.15
30
0
40
0.850000000000002
210
0
220
0
230
1
100
AcDbArc
50
36.755986
51
90
0
ELLIPSE
5
A9
100
AcDbEntity
8
1
62
256
6
ByLayer
370
13
48
1
60
0
100
AcDbEllipse
10
5.640277
20
1.858321
30
0
11
0.128504518316599
21
0.271084099076687
31
0
210
0
220
0
230
1
40
0.191801
41
-2.82677456675336
42
-1.95037755094164
0
ELLIPSE
5
AA
100
AcDbEntity
8
1
62
256
6
ByLayer
370
13
48
1
60
0
100
AcDbEllipse
10
93.194174
20
42.140273
30
0
11
-60.8
21
7.44560663124005E-15
31
0
210
0
220
0
230
1
40
0.99863
41
0.733072057512677
42
0.752039139494642
0
ELLIPSE
5
AB
100
AcDbEntity
8
1
62
256
6
ByLayer
370
13
48
1
60
0
100
AcDbEllipse
10
13.314148
20
-75.82544
30
0
11
-1.79009104936816
21
74.2234460654085
31
0
210
0
220
0
230
1
40
0.854007
41
0.0152495066858388
42
0.103041152355505
0
ELLIPSE
5
AC
100
AcDbEntity
8
1
62
256
6
ByLayer
370
18
48
1
60
0
100
AcDbEllipse
10
5.638694
20
-5.214804
30
0
11
1
21
0
31
0
210
0
220
0
230
1
40
0.999985
41
1.56863438807969
42
2.03983810959486
0
ELLIPSE
5
AD
100
AcDbEntity
8
1
62
256
6
ByLayer
370
18
48
1
60
0
100
AcDbEllipse
10
5.638694
20
5.214804
30
0
11
1
21
0
31
0
210
0
220
0
230
1
40
0.999985
41
-2.03998183758427
42
-1.56724679884936
0
POINT
5
70
100
AcDbEntity
8
80
62
256
6
ByLayer
370
18
48
1
60
0
100
AcDbPoint
10
0
20
0
30
0
39
0
210
0
220
0
230
1
50
360
0
POINT
5
72
100
AcDbEntity
8
81
62
256
6
ByLayer
370
18
48
1
60
0
100
AcDbPoint
10
49
20
0
30
0
39
0
210
0
220
0
230
1
50
360
0
POINT
5
74
100
AcDbEntity
8
1
62
256
6
ByLayer
370
18
48
1
60
1
100
AcDbPoint
10
47.3105
20
-4.4
30
0
39
0
210
0
220
0
230
1
50
360
0
POINT
5
76
100
AcDbEntity
8
1
62
256
6
ByLayer
370
18
48
1
60
1
100
AcDbPoint
10
-40
20
-5
30
0
39
0
210
0
220
0
230
1
50
360
0
POINT
5
77
100
AcDbEntity
8
1
62
256
6
ByLayer
370
18
48
1
60
1
100
AcDbPoint
10
20.91
20
4.4
30
0
39
0
210
0
220
0
230
1
50
360
0
POINT
5
78
100
AcDbEntity
8
1
62
256
6
ByLayer
370
18
48
1
60
1
100
AcDbPoint
10
47.3105
20
-4.4
30
0
39
0
210
0
220
0
230
1
50
360
0
POINT
5
79
100
AcDbEntity
8
1
62
256
6
ByLayer
370
18
48
1
60
1
100
AcDbPoint
10
-40
20
-5
30
0
39
0
210
0
220
0
230
1
50
360
0
POINT
5
7A
100
AcDbEntity
8
1
62
256
6
ByLayer
370
18
48
1
60
1
100
AcDbPoint
10
47.3105
20
-4.4
30
0
39
0
210
0
220
0
230
1
50
360
0
SPLINE
5
AE
100
AcDbEntity
8
1
62
256
6
ByLayer
370
18
48
1
60
0
100
AcDbSpline
70
4
71
1
72
4
73
2
40
0
40
0
40
1
40
1
41
1
10
47.391052881253
20
-4.18302278899105
30
0
41
1
10
48.3190308255447
20
-1.05022175163253
30
0
0
SPLINE
5
AF
100
AcDbEntity
8
1
62
256
6
ByLayer
370
18
48
1
60
0
100
AcDbSpline
70
4
71
3
72
28
73
24
40
0
40
0
40
0
40
0
40
0.124999999999999
40
0.124999999999999
40
0.249999999999998
40
0.249999999999998
40
0.374999999999997
40
0.374999999999997
40
0.499999999999996
40
0.499999999999996
40
0.562499999999996
40
0.562499999999996
40
0.624999999999997
40
0.624999999999997
40
0.687499999999997
40
0.687499999999997
40
0.749999999999998
40
0.749999999999998
40
0.874999999999999
40
0.874999999999999
40
0.937499999999999
40
0.937499999999999
40
1
40
1
40
1
40
1
41
1
10
12.5711070786091
20
-3.4021703418496
30
0
41
1
10
12.2567492907446
20
-3.48459603826143
30
0
41
1
10
11.9436072757519
20
-3.56234499733523
30
0
41
1
10
11.3197204834419
20
-3.70927680456612
30
0
41
1
10
11.0090239144859
20
-3.77804307013147
30
0
41
1
10
10.3904807496732
20
-3.90368643264335
30
0
41
1
10
10.0823574959126
20
-3.96051906710764
30
0
41
1
10
9.47360339345883
20
-4.05904593501756
30
0
41
1
10
9.17232819064571
20
-4.10144367814573
30
0
41
1
10
8.72621940594178
20
-4.15113818422341
30
0
41
1
10
8.57855339749443
20
-4.1651646514903
30
0
41
1
10
8.28515264440608
20
-4.18860316527315
30
0
41
1
10
8.13937212864755
20
-4.198160656775
30
0
41
1
10
7.85004083231604
20
-4.21171882095794
30
0
41
1
10
7.70648236170095
20
-4.2157439799395
30
0
41
1
10
7.42189094694771
20
-4.2173031746124
30
0
41
1
10
7.2804953585572
20
-4.21482543640587
30
0
41
1
10
6.86426958248575
20
-4.19576537483849
30
0
41
1
10
6.59694287379455
20
-4.16794400234358
30
0
41
1
10
6.21748234194024
20
-4.09249301831233
30
0
41
1
10
6.09461248609821
20
-4.06166253040055
30
0
41
1
10
5.85804813682483
20
-3.98531332575922
30
0
41
1
10
5.74610777468075
20
-3.94035448284353
30
0
41
1
10
5.64193098613933
20
-3.88692762867069
30
0
0
SPLINE
5
B0
100
AcDbEntity
8
1
62
256
6
ByLayer
370
13
48
1
60
0
100
AcDbSpline
70
4
71
3
72
14
73
10
40
0
40
0
40
0
40
0
40
0.0279509885125593
40
0.0279509885125593
40
0.513975494256279
40
0.513975494256279
40
0.75698774712814
40
0.75698774712814
40
1
40
1
40
1
40
1
41
1
10
5.64157236973807
20
-4.21488311134212
30
0
41
1
10
5.64157576576386
20
-4.21490079970189
30
0
41
1
10
5.6415791737351
20
-4.21483098098452
30
0
41
1
10
5.64164204060643
20
-4.21193229326298
30
0
41
1
10
5.64170435952002
20
-4.18307270365648
30
0
41
1
10
5.64179500393152
20
-4.1006640127772
30
0
41
1
10
5.64182465863317
20
-4.06662060697826
30
0
41
1
10
5.64188062444202
20
-3.98618573115709
30
0
41
1
10
5.64190704637087
20
-3.93968952511409
30
0
41
1
10
5.64193098612634
20
-3.88692762866404
30
0
0
SPLINE
5
B1
100
AcDbEntity
8
1
62
256
6
ByLayer
370
18
48
1
60
0
100
AcDbSpline
70
4
71
3
72
84
73
80
40
0
40
0
40
0
40
0
40
0.0373601401228807
40
0.0373601401228807
40
0.0747202802457613
40
0.0747202802457613
40
0.0934003503072019
40
0.0934003503072019
40
0.112080420368643
40
0.112080420368643
40
0.149440560491524
40
0.149440560491524
40
0.168120630552964
40
0.168120630552964
40
0.186800700614405
40
0.186800700614405
40
0.205480770675846
40
0.205480770675846
40
0.224160840737286
40
0.224160840737286
40
0.242840910798727
40
0.242840910798727
40
0.261520980860168
40
0.261520980860168
40
0.298881120983049
40
0.298881120983049
40
0.31756119104449
40
0.31756119104449
40
0.336241261105931
40
0.336241261105931
40
0.373601401228813
40
0.373601401228813
40
0.392281471290254
40
0.392281471290254
40
0.410961541351695
40
0.410961541351695
40
0.429641611413136
40
0.429641611413136
40
0.448321681474577
40
0.448321681474577
40
0.467001751536018
40
0.467001751536018
40
0.485681821597458
40
0.485681821597458
40
0.504361891658899
40
0.504361891658899
40
0.52304196172034
40
0.52304196172034
40
0.560402101843223
40
0.560402101843223
40
0.597762241966106
40
0.597762241966106
40
0.616442312027548
40
0.616442312027548
40
0.635122382088989
40
0.635122382088989
40
0.672482522211871
40
0.672482522211871
40
0.709842662334753
40
0.709842662334753
40
0.728522732396193
40
0.728522732396193
40
0.747202802457634
40
0.747202802457634
40
0.784562942580514
40
0.784562942580514
40
0.803243012641955
40
0.803243012641955
40
0.821923082703395
40
0.821923082703395
40
0.859283222826276
40
0.859283222826276
40
0.896643362949156
40
0.896643362949156
40
0.934003503072037
40
0.934003503072037
40
0.971363643194918
40
0.971363643194918
40
1
40
1
40
1
40
1
41
1
10
12.5711070786091
20
3.40217034184963
30
0
41
1
10
12.9307476030516
20
3.29970849791792
30
0
41
1
10
13.2893027486203
20
3.18676922100164
30
0
41
1
10
14.007279701298
20
2.94485553176358
30
0
41
1
10
14.3666446658983
20
2.81618519861411
30
0
41
1
10
14.9052756939496
20
2.61425541069741
30
0
41
1
10
15.0846310625707
20
2.54527283110949
30
0
41
1
10
15.4433292317036
20
2.40365584157351
30
0
41
1
10
15.6228162821975
20
2.33121188132642
30
0
41
1
10
16.1611972638574
20
2.10875512369478
30
0
41
1
10
16.5206851269284
20
1.95394108836706
30
0
41
1
10
17.058692710565
20
1.71574218284604
30
0
41
1
10
17.2377937646552
20
1.63511944783715
30
0
41
1
10
17.5960430333781
20
1.47261748423668
30
0
41
1
10
17.7751425919662
20
1.39053308742558
30
0
41
1
10
18.1331658841972
20
1.22404140578513
30
0
41
1
10
18.3120809231691
20
1.13974052784809
30
0
41
1
10
18.670263240621
20
0.97035550532641
30
0
41
1
10
18.849366724062
20
0.885062091653964
30
0
41
1
10
19.2077366237759
20
0.712756265094754
30
0
41
1
10
19.387070562517
20
0.625769040661481
30
0
41
1
10
19.7464031032112
20
0.451541903489954
30
0
41
1
10
19.9260616109368
20
0.364045732207217
30
0
41
1
10
20.4641488540735
20
0.10101206855623
30
0
41
1
10
20.8225568421628
20
-0.0742519962787469
30
0
41
1
10
21.3595784326114
20
-0.33742032652475
30
0
41
1
10
21.5385508818498
20
-0.425088956313601
30
0
41
1
10
21.8967198261124
20
-0.599497574777132
30
0
41
1
10
22.0758522384127
20
-0.686353759402039
30
0
41
1
10
22.6134703695364
20
-0.945930391661847
30
0
41
1
10
22.973227209556
20
-1.11678598699837
30
0
41
1
10
23.5113381788555
20
-1.36860311282567
30
0
41
1
10
23.6906963417135
20
-1.45141534557411
30
0
41
1
10
24.0490750321172
20
-1.61574686742119
30
0
41
1
10
24.2280711757158
20
-1.69725639021405
30
0
41
1
10
24.5860792836675
20
-1.85732501012501
30
0
41
1
10
24.765224606748
20
-1.93568938846917
30
0
41
1
10
25.1234172437049
20
-2.09034016945461
30
0
41
1
10
25.3024699894675
20
-2.16655281539684
30
0
41
1
10
25.6609297818504
20
-2.31603134810126
30
0
41
1
10
25.8403865087186
20
-2.38921759276718
30
0
41
1
10
26.1994008446744
20
-2.53317538489415
30
0
41
1
10
26.3789831765601
20
-2.60398821269197
30
0
41
1
10
26.7377918050977
20
-2.74213707238297
30
0
41
1
10
26.9170730377015
20
-2.80949135474319
30
0
41
1
10
27.2752479205582
20
-2.9397447679469
30
0
41
1
10
27.4541522573117
20
-3.00276848694332
30
0
41
1
10
27.9912382241261
20
-3.18536808531175
30
0
41
1
10
28.3489858195819
20
-3.29926330377015
30
0
41
1
10
29.065753224554
20
-3.51055004639989
30
0
41
1
10
29.4246879490826
20
-3.60891572872035
30
0
41
1
10
29.962853794477
20
-3.74088090195622
30
0
41
1
10
30.1420210557031
20
-3.78234262606338
30
0
41
1
10
30.5000338001549
20
-3.86084902061518
30
0
41
1
10
30.6789670435239
20
-3.89799036847188
30
0
41
1
10
31.2158200947848
20
-3.99975630926016
30
0
41
1
10
31.5734211565603
20
-4.05642874621734
30
0
41
1
10
32.2897922386733
20
-4.15013762491398
30
0
41
1
10
32.6486327184865
20
-4.18677756970766
30
0
41
1
10
33.1865721771006
20
-4.22790151615138
30
0
41
1
10
33.3656074444144
20
-4.23941846371247
30
0
41
1
10
33.7234853253626
20
-4.25494516284115
30
0
41
1
10
33.9024646413025
20
-4.25937491308204
30
0
41
1
10
34.439031551164
20
-4.26461781212655
30
0
41
1
10
34.7965969633962
20
-4.25712831948243
30
0
41
1
10
35.3334426277229
20
-4.23086671112907
30
0
41
1
10
35.5123594953518
20
-4.21961113827496
30
0
41
1
10
35.8706702347989
20
-4.19226056890633
30
0
41
1
10
36.0501750735675
20
-4.17597942778593
30
0
41
1
10
36.5878438824044
20
-4.11725314148822
30
0
41
1
10
36.9456576641313
20
-4.06692862106374
30
0
41
1
10
37.6607242715385
20
-3.94608147779556
30
0
41
1
10
38.0182552385147
20
-3.87552894497313
30
0
41
1
10
38.7334559798709
20
-3.7163613828499
30
0
41
1
10
39.0921357745354
20
-3.62599313797279
30
0
41
1
10
39.8088247603959
20
-3.42626955634674
30
0
41
1
10
40.1667786330116
20
-3.31793873109658
30
0
41
1
10
40.7982247253763
20
-3.11266160806594
30
0
41
1
10
41.072213281672
20
-3.01951162680624
30
0
41
1
10
41.3462942073754
20
-2.92122617959913
30
0
0
SPLINE
5
B2
100
AcDbEntity
8
1
62
256
6
ByLayer
370
18
48
1
60
0
100
AcDbSpline
70
4
71
3
72
10
73
6
40
0
40
0
40
0
40
0
40
0.5
40
0.5
40
1
40
1
40
1
40
1
41
1
10
47.438606122204
20
-4.35516978545812
30
0
41
1
10
47.560591438191
20
-4.05165543590212
30
0
41
1
10
47.6840265430029
20
-3.74189635955767
30
0
41
1
10
47.9303288218113
20
-3.10843141053493
30
0
41
1
10
48.0531428681819
20
-2.7845328305603
30
0
41
1
10
48.1733949545478
20
-2.45210021142984
30
0
0
SPLINE
5
B3
100
AcDbEntity
8
1
62
256
6
ByLayer
370
18
48
1
60
0
100
AcDbSpline
70
4
71
3
72
8
73
4
40
0
40
0
40
0
40
0
40
1
40
1
40
1
40
1
41
1
10
47.3776390751959
20
-4.25621838112272
30
0
41
1
10
47.383513206488
20
-4.230029306132
30
0
41
1
10
47.3880488686272
20
-4.20515359784019
30
0
41
1
10
47.39105288126
20
-4.1830227889559
30
0
0
SPLINE
5
B4
100
AcDbEntity
8
1
62
256
6
ByLayer
370
18
48
1
60
0
100
AcDbSpline
70
4
71
3
72
10
73
6
40
0
40
0
40
0
40
0
40
0.894318519066825
40
0.894318519066825
40
1
40
1
40
1
40
1
41
1
10
22.8731207698828
20
-4.24265346565477
30
0
41
1
10
22.3399264668775
20
-4.2405062091357
30
0
41
1
10
21.8087405355737
20
-4.21427988087217
30
0
41
1
10
21.2150742079647
20
-4.15853894605382
30
0
41
1
10
21.152338825559
20
-4.15232352453754
30
0
41
1
10
21.0896047368026
20
-4.1457845756982
30
0
0
SPLINE
5
B5
100
AcDbEntity
8
1
62
256
6
ByLayer
370
13
48
1
60
0
100
AcDbSpline
70
4
71
3
72
24
73
20
40
0
40
0
40
0
40
0
40
0.156474364023525
40
0.156474364023525
40
0.198650645822349
40
0.198650645822349
40
0.240826927621173
40
0.240826927621173
40
0.32517949121882
40
0.32517949121882
40
0.493884618414116
40
0.493884618414116
40
0.578237182011763
40
0.578237182011763
40
0.66258974560941
40
0.66258974560941
40
0.831294872804705
40
0.831294872804705
40
1
40
1
40
1
40
1
41
1
10
21.0896047373293
20
-4.14578457575308
30
0
41
1
10
20.2870156858183
20
-4.06212848303835
30
0
41
1
10
19.4846383708345
20
-3.925519430728
30
0
41
1
10
18.4586515407092
20
-3.68781252410491
30
0
41
1
10
18.2404226599988
20
-3.63371610206883
30
0
41
1
10
17.8028363607228
20
-3.51835984478606
30
0
41
1
10
17.5835426754095
20
-3.45710177260116
30
0
41
1
10
16.9282379117246
20
-3.26449754730734
30
0
41
1
10
16.4933027780418
20
-3.1238887871333
30
0
41
1
10
15.1913920449413
20
-2.66967972032418
30
0
41
1
10
14.3273754368466
20
-2.32329561871691
30
0
41
1
10
13.0261955941857
20
-1.75846957420362
30
0
41
1
10
12.5915016247866
20
-1.56266772032683
30
0
41
1
10
11.7185991773801
20
-1.15898118729646
30
0
41
1
10
11.2792284919106
20
-0.950494848216209
30
0
41
1
10
9.9701002787651
20
-0.321679526299846
30
0
41
1
10
9.10510704729086
20
0.104441956699986
30
0
41
1
10
7.37598371194963
20
0.939729721333094
30
0
41
1
10
6.51206700763029
20
1.34953556298856
30
0
41
1
10
5.64095539193718
20
1.73498320138253
30
0
0
SPLINE
5
B6
100
AcDbEntity
8
1
62
256
6
ByLayer
370
18
48
1
60
0
100
AcDbSpline
70
4
71
3
72
20
73
16
40
0
40
0
40
0
40
0
40
0.125
40
0.125
40
0.25
40
0.25
40
0.5
40
0.5
40
0.625
40
0.625
40
0.75
40
0.75
40
0.875
40
0.875
40
1
40
1
40
1
40
1
41
1
10
5.18567556309924
20
-3.8166617814602
30
0
41
1
10
5.13267616532735
20
-3.77421109326298
30
0
41
1
10
5.08357812339153
20
-3.72828511974129
30
0
41
1
10
4.99437980196302
20
-3.62834284875421
30
0
41
1
10
4.9541137341086
20
-3.57405827998204
30
0
41
1
10
4.85040113820278
20
-3.39850561475797
30
0
41
1
10
4.80557634290238
20
-3.26786828353664
30
0
41
1
10
4.78027853579471
20
-3.04812481986593
30
0
41
1
10
4.7790814617257
20
-2.97159265619717
30
0
41
1
10
4.79078821140232
20
-2.81561433377618
30
0
41
1
10
4.80362243347827
20
-2.73565634004234
30
0
41
1
10
4.84272390633168
20
-2.57193990446171
30
0
41
1
10
4.86922500949342
20
-2.48775054442714
30
0
41
1
10
4.93332476663903
20
-2.32035172003168
30
0
41
1
10
4.97098355563924
20
-2.23664072469279
30
0
41
1
10
5.01359706655717
20
-2.15292395731962
30
0
0
SPLINE
5
B7
100
AcDbEntity
8
1
62
256
6
ByLayer
370
18
48
1
60
0
100
AcDbSpline
70
4
71
3
72
25
73
21
40
0
40
0
40
0
40
0
40
0.00936313374144
40
0.00936313374144
40
0.0994210306740363
40
0.0994210306740363
40
0.279536824539229
40
0.279536824539229
40
0.369594721471825
40
0.369594721471825
40
0.459652618404422
40
0.549710515337018
40
0.549710515337018
40
0.639768412269614
40
0.639768412269614
40
0.819884206134807
40
0.819884206134807
40
0.909942103067403
40
0.909942103067403
40
1
40
1
40
1
40
1
41
1
10
5.18412235338764
20
4.32417298080614
30
0
41
1
10
5.18410938303788
20
4.32417482520938
30
0
41
1
10
5.18409639635553
20
4.324097952736
30
0
41
1
10
5.18395833575957
20
4.32244296356865
30
0
41
1
10
5.18383343162296
20
4.31362275628044
30
0
41
1
10
5.18346251139519
20
4.26603712418603
30
0
41
1
10
5.18321976380193
20
4.20634234492204
30
0
41
1
10
5.18285531124465
20
4.0742322769884
30
0
41
1
10
5.18273323115861
20
4.02278877982025
30
0
41
1
10
5.18249108315894
20
3.90771030733578
30
0
41
1
10
5.18224970007054
20
3.78008087590067
30
0
41
1
10
5.18200222669159
20
3.62782106392746
30
0
41
1
10
5.18174704104854
20
3.46311105482695
30
0
41
1
10
5.18161498107952
20
3.37410475734629
30
0
41
1
10
5.18120290572048
20
3.0906500091408
30
0
41
1
10
5.18091092812733
20
2.88264660141979
30
0
41
1
10
5.18041364148064
20
2.54295655418318
30
0
41
1
10
5.1802379488112
20
2.42507777115969
30
0
41
1
10
5.17986020610056
20
2.1797427974997
30
0
41
1
10
5.17965874454905
20
2.05271303707278
30
0
41
1
10
5.1794441346085
20
1.92274672178652
30
0
0
SPLINE
5
B8
100
AcDbEntity
8
1
62
256
6
ByLayer
370
13
48
1
60
0
100
AcDbSpline
70
4
71
3
72
61
73
57
40
0
40
0
40
0
40
0
40
0.0027265927576949
40
0.017150807255373
40
0.0315750217530518
40
0.0604234507484088
40
0.0748476652460871
40
0.0892718797437654
40
0.118120308739123
40
0.132544523236801
40
0.14696873773448
40
0.175817166729837
40
0.190241381227515
40
0.204665595725194
40
0.23351402472055
40
0.247938239218229
40
0.262362453715907
40
0.291210882711264
40
0.305635097208943
40
0.320059311706621
40
0.348907740701978
40
0.363331955199657
40
0.377756169697335
40
0.406604598692692
40
0.42102881319037
40
0.435453027688049
40
0.464301456683406
40
0.478725671181084
40
0.493149885678763
40
0.52199831467412
40
0.536422529171798
40
0.550846743669477
40
0.579695172664834
40
0.594119387162512
40
0.608543601660191
40
0.637392030655547
40
0.651816245153225
40
0.666240459650904
40
0.695088888646261
40
0.70951310314394
40
0.723937317641618
40
0.752785746636975
40
0.767209961134653
40
0.781634175632332
40
0.810482604627689
40
0.824906819125368
40
0.839331033623046
40
0.868179462618403
40
0.882603677116081
40
0.89702789161376
40
0.925876320609117
40
0.940300535106795
40
0.954724749604474
40
0.983573178599831
40
0.997997393097509
40
1
40
1
40
1
40
1
41
1
10
38.7528360608127
20
-1.82101894320437
30
0
41
1
10
38.7368364285184
20
-1.82280489141456
30
0
41
1
10
38.6361947945882
20
-1.83398126734184
30
0
41
1
10
38.4509022494104
20
-1.85388871966927
30
0
41
1
10
38.1124046960998
20
-1.8880184534263
30
0
41
1
10
37.7738624544647
20
-1.91896502848243
30
0
41
1
10
37.4352779138841
20
-1.94666348704231
30
0
41
1
10
37.0967794488116
20
-1.97195363329968
30
0
41
1
10
36.7582360778692
20
-1.99393947802881
30
0
41
1
10
36.419650962782
20
-2.01260099206118
30
0
41
1
10
36.0811523748581
20
-2.02874591953011
30
0
41
1
10
35.7426094024304
20
-2.04152508547185
30
0
41
1
10
35.4040249920956
20
-2.05093249412883
30
0
41
1
10
35.0655272535801
20
-2.05773853069192
30
0
41
1
10
34.7269852161668
20
-2.06114723671419
30
0
41
1
10
34.3884015297008
20
-2.0611673111865
30
0
41
1
10
34.0499042367328
20
-2.05852660049044
30
0
41
1
10
33.7113621137527
20
-2.05248839939705
30
0
41
1
10
33.3727776546669
20
-2.0430766042596
30
0
41
1
10
33.0342794587329
20
-2.03097990263393
30
0
41
1
10
32.6957365104998
20
-2.01554303086942
30
0
41
1
10
32.3571518657723
20
-1.99683011304899
30
0
41
1
10
32.0186537640908
20
-1.97546119881062
30
0
41
1
10
31.6801112210737
20
-1.95086765407658
30
0
41
1
10
31.3415268941688
20
-1.92312905521317
30
0
41
1
10
31.0030289066156
20
-1.8927938739381
30
0
41
1
10
30.6644862861778
20
-1.8593876550932
30
0
41
1
10
30.3259019141415
20
-1.82300991956529
30
0
41
1
10
29.9874039390742
20
-1.78412924061229
30
0
41
1
10
29.6488612716817
20
-1.74236931695884
30
0
41
1
10
29.3102766922285
20
-1.69784472291164
30
0
41
1
10
28.9717786285978
20
-1.65094298636473
30
0
41
1
10
28.6332360891564
20
-1.60139412847363
30
0
41
1
10
28.2946519141273
20
-1.54933432281416
30
0
41
1
10
27.9561542249297
20
-1.49505957712611
30
0
41
1
10
27.6176119166498
20
-1.43840882332918
30
0
41
1
10
27.279027501471
20
-1.3795319257944
30
0
41
1
10
26.9405293162996
20
-1.31863093984211
30
0
41
1
10
26.6019863690337
20
-1.25565574160581
30
0
41
1
10
26.2634016907651
20
-1.19076934293756
30
0
41
1
10
25.9249035151125
20
-1.12407758424806
30
0
41
1
10
25.5863608448121
20
-1.05564233220815
30
0
41
1
10
25.2477764580016
20
-0.985638170655847
30
0
41
1
10
24.9092785686162
20
-0.914072373287809
30
0
41
1
10
24.5707361943965
20
-0.841117371134004
30
0
41
1
10
24.2321521142377
20
-0.766955551226971
30
0
41
1
10
23.893654426437
20
-0.691497302435806
30
0
41
1
10
23.5551119767855
20
-0.615025067883579
30
0
41
1
10
23.2165273743503
20
-0.53773020335592
30
0
41
1
10
22.8780291119437
20
-0.459423458750138
30
0
41
1
10
22.5394861941585
20
-0.380490772159163
30
0
41
1
10
22.2009016233664
20
-0.301122995017124
30
0
41
1
10
21.8624036043017
20
-0.221039316631277
30
0
41
1
10
21.5238611318724
20
-0.140727032075262
30
0
41
1
10
21.2581709406474
20
-0.0776800544470575
30
0
41
1
10
21.1617868977578
20
-0.0547391310354044
30
0
41
1
10
21.1500368113585
20
-0.0519415758597859
30
0
0
SPLINE
5
B9
100
AcDbEntity
8
1
62
256
6
ByLayer
370
18
48
1
60
0
100
AcDbSpline
70
4
71
3
72
32
73
28
40
0
40
0
40
0
40
0
40
0.0312499999999984
40
0.0312499999999984
40
0.0624999999999968
40
0.0624999999999968
40
0.0937499999999953
40
0.0937499999999953
40
0.124999999999994
40
0.124999999999994
40
0.187499999999994
40
0.187499999999994
40
0.249999999999994
40
0.249999999999994
40
0.312499999999994
40
0.312499999999994
40
0.374999999999994
40
0.374999999999994
40
0.499999999999997
40
0.499999999999997
40
0.625
40
0.625
40
0.6875
40
0.6875
40
0.75
40
0.75
40
1
40
1
40
1
40
1
41
1
10
5.01359706655688
20
-2.15292395731959
30
0
41
1
10
5.03920770368086
20
-2.10261034306441
30
0
41
1
10
5.07201709107201
20
-2.05391018617956
30
0
41
1
10
5.14615937571807
20
-1.96341039429933
30
0
41
1
10
5.18780323855162
20
-1.92094156069987
30
0
41
1
10
5.27825885381523
20
-1.84046668111995
30
0
41
1
10
5.32661797221806
20
-1.80291075185812
30
0
41
1
10
5.42666713341464
20
-1.7329911040494
30
0
41
1
10
5.47860885055326
20
-1.70042605571848
30
0
41
1
10
5.63899049616353
20
-1.60851543477199
30
0
41
1
10
5.75264196203872
20
-1.55463141091477
30
0
41
1
10
5.98360696747505
20
-1.46011573494431
30
0
41
1
10
6.10129502929175
20
-1.41924774257024
30
0
41
1
10
6.33998445980578
20
-1.34732947096794
30
0
41
1
10
6.46100031316246
20
-1.31631866148632
30
0
41
1
10
6.70581957225366
20
-1.26271441377145
30
0
41
1
10
6.83002261398752
20
-1.24008174216928
30
0
41
1
10
7.20331140836066
20
-1.18415591552625
30
0
41
1
10
7.45222337602445
20
-1.1626711519979
30
0
41
1
10
7.95013383704764
20
-1.14667938100968
30
0
41
1
10
8.1991327268307
20
-1.1522755253101
30
0
41
1
10
8.572695045785
20
-1.18038956336559
30
0
41
1
10
8.69722657922676
20
-1.19306724560647
30
0
41
1
10
8.94631191842961
20
-1.22510762935241
30
0
41
1
10
9.07103138978425
20
-1.24452223976596
30
0
41
1
10
9.68732551368123
20
-1.3571426052265
30
0
41
1
10
10.1627300605954
20
-1.49765120515994
30
0
41
1
10
10.6203865592952
20
-1.68312103286974
30
0
0
SPLINE
5
BA
100
AcDbEntity
8
1
62
256
6
ByLayer
370
18
48
1
60
0
100
AcDbSpline
70
4
71
3
72
16
73
12
40
0
40
0
40
0
40
0
40
0.125000000000001
40
0.125000000000001
40
0.250000000000001
40
0.250000000000001
40
0.500000000000001
40
0.500000000000001
40
0.75
40
0.75
40
1
40
1
40
1
40
1
41
1
10
5.17944413460847
20
1.92274672178112
30
0
41
1
10
5.17941103256641
20
1.90270035046618
30
0
41
1
10
5.18431953771491
20
1.88334934860038
30
0
41
1
10
5.20027241388664
20
1.84590953822118
30
0
41
1
10
5.21100842961772
20
1.82856851629538
30
0
41
1
10
5.2483545009988
20
1.77910336990129
30
0
41
1
10
5.27952949796779
20
1.75022287189907
30
0
41
1
10
5.3460772989153
20
1.69804656325567
30
0
41
1
10
5.38212617692238
20
1.67440775502374
30
0
41
1
10
5.45639435988952
20
1.63102950095089
30
0
41
1
10
5.49477312575141
20
1.61119663467113
30
0
41
1
10
5.53418786680857
20
1.5929284010833
30
0
0
SPLINE
5
BB
100
AcDbEntity
8
1
62
256
6
ByLayer
370
18
48
1
60
0
100
AcDbSpline
70
4
71
3
72
8
73
4
40
0
40
0
40
0
40
0
40
1
40
1
40
1
40
1
41
1
10
48.7920923840506
20
0.662929702524764
30
0
41
1
10
48.5843285864237
20
1.25879228168017
30
0
41
1
10
48.3780933957854
20
1.85518151620582
30
0
41
1
10
48.1733949545476
20
2.45210021143029
30
0
0
SPLINE
5
BC
100
AcDbEntity
8
1
62
256
6
ByLayer
370
18
48
1
60
0
100
AcDbSpline
70
4
71
3
72
8
73
4
40
0
40
0
40
0
40
0
40
1
40
1
40
1
40
1
41
1
10
48.9997682343757
20
0.0852143207781921
30
0
41
1
10
48.9289198903489
20
0.276274255845578
30
0
41
1
10
48.8597614191212
20
0.468856210286532
30
0
41
1
10
48.7920923840447
20
0.662929702541618
30
0
0
SPLINE
5
BD
100
AcDbEntity
8
1
62
256
6
ByLayer
370
18
48
1
60
0
100
AcDbSpline
70
4
71
3
72
10
73
6
40
0
40
0
40
0
40
0
40
0.5
40
0.5
40
1
40
1
40
1
40
1
41
1
10
47.438606122204
20
4.35516978545812
30
0
41
1
10
47.5605822177203
20
4.05167837755829
30
0
41
1
10
47.6840124472021
20
3.74193199644188
30
0
41
1
10
47.9303145072311
20
3.10846884225222
30
0
41
1
10
48.0531333614164
20
2.78455911167561
30
0
41
1
10
48.1733949545476
20
2.45210021143029
30
0
0
SPLINE
5
BE
100
AcDbEntity
8
1
62
256
6
ByLayer
370
18
48
1
60
0
100
AcDbSpline
70
4
71
3
72
8
73
4
40
0
40
0
40
0
40
0
40
1
40
1
40
1
40
1
41
1
10
48.2402196542451
20
2.06077412561567
30
0
41
1
10
48.2053631308557
20
2.19091794517817
30
0
41
1
10
48.1850130952406
20
2.32140559624077
30
0
41
1
10
48.1733949545476
20
2.45210021143029
30
0
0
SPLINE
5
BF
100
AcDbEntity
8
1
62
256
6
ByLayer
370
18
48
1
60
0
100
AcDbSpline
70
4
71
3
72
8
73
4
40
0
40
0
40
0
40
0
40
1
40
1
40
1
40
1
41
1
10
48.7920923840494
20
-0.662929702528089
30
0
41
1
10
48.5843277992642
20
-1.25879453923864
30
0
41
1
10
48.3780926188714
20
-1.85518378175558
30
0
41
1
10
48.1733949545478
20
-2.45210021142986
30
0
0
SPLINE
5
C0
100
AcDbEntity
8
1
62
256
6
ByLayer
370
18
48
1
60
0
100
AcDbSpline
70
4
71
4
72
10
73
5
40
0
40
0
40
0
40
0
40
0
40
1
40
1
40
1
40
1
40
1
41
1
10
15.7254214985737
20
3.42292381756721
30
0
41
1
10
15.6226329424649
20
3.17697650788622
30
0
41
1
10
15.5198443863561
20
2.93102919820527
30
0
41
1
10
15.4170558302472
20
2.68508188852428
30
0
41
1
10
15.3142672741383
20
2.43913457884329
30
0
0
SPLINE
5
C1
100
AcDbEntity
8
1
62
256
6
ByLayer
370
18
48
1
60
0
100
AcDbSpline
70
4
71
3
72
8
73
4
40
0
40
0
40
0
40
0
40
1
40
1
40
1
40
1
41
1
10
47.438606122204
20
-4.35516978545812
30
0
41
1
10
47.4156066486742
20
-4.33145545898367
30
0
41
1
10
47.3954022735649
20
-4.29851192298446
30
0
41
1
10
47.3776390751996
20
-4.25621838111161
30
0
0
SPLINE
5
C2
100
AcDbEntity
8
1
62
256
6
ByLayer
370
18
48
1
60
0
100
AcDbSpline
70
4
71
4
72
10
73
5
40
0
40
0
40
0
40
0
40
0
40
1
40
1
40
1
40
1
40
1
41
1
10
12.9227281422019
20
-2.5438685599606
30
0
41
1
10
12.8348228763037
20
-2.75844400543284
30
0
41
1
10
12.7469176104055
20
-2.9730194509051
30
0
41
1
10
12.6590123445073
20
-3.18759489637736
30
0
41
1
10
12.5711070786091
20
-3.4021703418496
30
0
0
SPLINE
5
C3
100
AcDbEntity
8
1
62
256
6
ByLayer
370
18
48
1
60
0
100
AcDbSpline
70
4
71
3
72
40
73
36
40
0
40
0
40
0
40
0
40
0.085218861861073
40
0.085218861861073
40
0.170437723722146
40
0.170437723722146
40
0.213047154652682
40
0.213047154652682
40
0.255656585583219
40
0.255656585583219
40
0.298266016513755
40
0.298266016513755
40
0.340875447444292
40
0.340875447444292
40
0.426094309305365
40
0.426094309305365
40
0.511313171166438
40
0.511313171166438
40
0.596532033027511
40
0.596532033027511
40
0.681750894888584
40
0.681750894888584
40
0.724360325819121
40
0.724360325819121
40
0.766969756749659
40
0.766969756749659
40
0.852188618610735
40
0.852188618610735
40
0.894798049541274
40
0.894798049541274
40
0.937407480471813
40
0.937407480471813
40
0.980016911402352
40
0.980016911402352
40
1
40
1
40
1
40
1
41
1
10
46.9693291421834
20
0.43964999266791
30
0
41
1
10
46.611715122086
20
0.61538001423105
30
0
41
1
10
46.2546420227213
20
0.790017361512014
30
0
41
1
10
45.5398732261998
20
1.13366670118398
30
0
41
1
10
45.182615196874
20
1.30351648456428
30
0
41
1
10
44.6457858281493
20
1.55272454085767
30
0
41
1
10
44.4668340090347
20
1.63515198091818
30
0
41
1
10
44.1083129777599
20
1.79751003484941
30
0
41
1
10
43.9287045843552
20
1.87751592596084
30
0
41
1
10
43.5705018549188
20
2.0345425193043
30
0
41
1
10
43.3917119564378
20
2.11136124568586
30
0
41
1
10
43.0339228149206
20
2.26240164276075
30
0
41
1
10
42.8549693040583
20
2.33650117253774
30
0
41
1
10
42.3185853282339
20
2.55524548952061
30
0
41
1
10
41.9608294954335
20
2.69506065016381
30
0
41
1
10
41.2450950003795
20
2.96026500869209
30
0
41
1
10
40.8859827586767
20
3.08408449624596
30
0
41
1
10
40.1690874926708
20
3.31723551379338
30
0
41
1
10
39.8108767275063
20
3.4256526431748
30
0
41
1
10
39.0952869562923
20
3.62515973499629
30
0
41
1
10
38.7374164375409
20
3.71541453817545
30
0
41
1
10
38.2002558104465
20
3.83505706241209
30
0
41
1
10
38.0210162810509
20
3.87249588037397
30
0
41
1
10
37.6621472936944
20
3.94305987601402
30
0
41
1
10
37.4826051963478
20
3.9761827469309
30
0
41
1
10
36.9446820704773
20
4.06709564748874
30
0
41
1
10
36.5865957215577
20
4.11740409194186
30
0
41
1
10
36.049827880575
20
4.17601001897313
30
0
41
1
10
35.8708666335456
20
4.19224204354123
30
0
41
1
10
35.5129527227481
20
4.21956938212315
30
0
41
1
10
35.3340563094436
20
4.2308324456308
30
0
41
1
10
34.9758390079967
20
4.24836432744993
30
0
41
1
10
34.7965186731734
20
4.25462355185564
30
0
41
1
10
34.5330365348917
20
4.25996235289253
30
0
41
1
10
34.4488774560445
20
4.26108381737222
30
0
41
1
10
34.3647164291191
20
4.26161088896018
30
0
0
SPLINE
5
C4
100
AcDbEntity
8
1
62
256
6
ByLayer
370
18
48
1
60
0
100
AcDbSpline
70
4
71
3
72
10
73
6
40
0
40
0
40
0
40
0
40
0.277987770442272
40
0.277987770442272
40
1
40
1
40
1
40
1
41
1
10
14.0628979113797
20
-2.92283428118162
30
0
41
1
10
13.9247665905301
20
-2.97153342244249
30
0
41
1
10
13.7866356839597
20
-3.01919779884801
30
0
41
1
10
13.2896884566594
20
-3.18664205798916
30
0
41
1
10
12.9310701007109
20
-3.29961661810296
30
0
41
1
10
12.5711070786091
20
-3.4021703418496
30
0
0
SPLINE
5
C5
100
AcDbEntity
8
1
62
256
6
ByLayer
370
18
48
1
60
0
100
AcDbSpline
70
4
71
3
72
10
73
6
40
0
40
0
40
0
40
0
40
0.5
40
0.5
40
1
40
1
40
1
40
1
41
1
10
10.6203865592952
20
-1.68312103286971
30
0
41
1
10
11.4768719513101
20
-2.03022021870947
30
0
41
1
10
12.3309630549741
20
-2.34622289775652
30
0
41
1
10
14.0330297058811
20
-2.92567405656757
30
0
41
1
10
14.8810172995494
20
-3.18900798116491
30
0
41
1
10
15.7254214985738
20
-3.4229238175673
30
0
0
SPLINE
5
C6
100
AcDbEntity
8
1
62
256
6
ByLayer
370
18
48
1
60
0
100
AcDbSpline
70
4
71
3
72
20
73
16
40
0
40
0
40
0
40
0
40
0.0799694556574725
40
0.0799694556574725
40
0.171972510091727
40
0.171972510091727
40
0.26397556452598
40
0.26397556452598
40
0.447981673394485
40
0.447981673394485
40
0.63198778226299
40
0.63198778226299
40
0.815993891131495
40
0.815993891131495
40
1
40
1
40
1
40
1
41
1
10
7.61177620250771
20
4.21618557329268
30
0
41
1
10
7.73507040020306
20
4.2148807621345
30
0
41
1
10
7.85966829057705
20
4.21116275986375
30
0
41
1
10
8.1300920093193
20
4.19870819926285
30
0
41
1
10
8.27632394862968
20
4.1892270727605
30
0
41
1
10
8.5713724453262
20
4.16581538438624
30
0
41
1
10
8.7203001362451
20
4.15174469996958
30
0
41
1
10
9.16907252127402
20
4.10190945159022
30
0
41
1
10
9.47141753020438
20
4.05937443759012
30
0
41
1
10
10.0811548638857
20
3.96073885249703
30
0
41
1
10
10.3889457922398
20
3.90398301588709
30
0
41
1
10
11.0080777036114
20
3.77825042052282
30
0
41
1
10
11.3190197557294
20
3.70943715825484
30
0
41
1
10
11.9433155711872
20
3.56241836431042
30
0
41
1
10
12.2566242005221
20
3.4846288373493
30
0
41
1
10
12.5711070786092
20
3.40217034184957
30
0
0
SPLINE
5
C7
100
AcDbEntity
8
1
62
256
6
ByLayer
370
18
48
1
60
0
100
AcDbSpline
70
4
71
3
72
8
73
4
40
0
40
0
40
0
40
0
40
1
40
1
40
1
40
1
41
1
10
48.9997682343759
20
0.0852143207774247
30
0
41
1
10
49.0000772552019
20
0.028404773592456
30
0
41
1
10
49.0000772552019
20
-0.0284047735924844
30
0
41
1
10
48.9997682343759
20
-0.0852143207774532
30
0
0
SPLINE
5
C8
100
AcDbEntity
8
1
62
256
6
ByLayer
370
18
48
1
60
0
100
AcDbSpline
70
4
71
3
72
23
73
19
40
0
40
0
40
0
40
0
40
0.0776905512116186
40
0.0776905512116186
40
0.180169378854768
40
0.282648206497918
40
0.282648206497918
40
0.385127034141068
40
0.385127034141068
40
0.590084689427379
40
0.590084689427379
40
0.692563517070534
40
0.692563517070534
40
0.795042344713689
40
0.795042344713689
40
0.897521172356845
40
0.897521172356845
40
1
40
1
40
1
40
1
41
1
10
47.0646601809329
20
0.399915773332168
30
0
41
1
10
47.0785921619324
20
0.416786113586568
30
0
41
1
10
47.0935043351964
20
0.435091141332236
30
0
41
1
10
47.129942612284
20
0.480417870136307
30
0
41
1
10
47.1743579618106
20
0.536508396795512
30
0
41
1
10
47.2246022735089
20
0.601520914593351
30
0
41
1
10
47.2778887512872
20
0.671018760519587
30
0
41
1
10
47.3059922829416
20
0.707935046801822
30
0
41
1
10
47.3931115304195
20
0.822577074384441
30
0
41
1
10
47.45539496869
20
0.905008774781408
30
0
41
1
10
47.5574680973496
20
1.0358783890793
30
0
41
1
10
47.5930133423744
20
1.08074879819509
30
0
41
1
10
47.6662696566627
20
1.1702689361685
30
0
41
1
10
47.7041560497297
20
1.2151721364246
30
0
41
1
10
47.7836961240944
20
1.30418299915368
30
0
41
1
10
47.825321560451
20
1.34831380719635
30
0
41
1
10
47.9146746019442
20
1.43388200496412
30
0
41
1
10
47.9616674602183
20
1.47461798676281
30
0
41
1
10
48.0123423987134
20
1.511363537954
30
0
0
SPLINE
5
C9
100
AcDbEntity
8
1
62
256
6
ByLayer
370
18
48
1
60
0
100
AcDbSpline
70
4
71
3
72
8
73
4
40
0
40
0
40
0
40
0
40
1
40
1
40
1
40
1
41
1
10
46.9693291421833
20
0.439649992667938
30
0
41
1
10
47.18839692757
20
0.33837639144781
30
0
41
1
10
47.4091760592449
20
0.245609040300508
30
0
41
1
10
47.6318470110884
20
0.162244985001593
30
0
0
SPLINE
5
CA
100
AcDbEntity
8
1
62
256
6
ByLayer
370
18
48
1
60
0
100
AcDbSpline
70
4
71
3
72
8
73
4
40
0
40
0
40
0
40
0
40
1
40
1
40
1
40
1
41
1
10
48.9997682343759
20
-0.0852143207774532
30
0
41
1
10
48.9287993623737
20
-0.276599289089717
30
0
41
1
10
48.8596453447743
20
-0.469189109282951
30
0
41
1
10
48.7920923840447
20
-0.66292970254176
30
0
0
SPLINE
5
CB
100
AcDbEntity
8
1
62
256
6
ByLayer
370
13
48
1
60
0
100
AcDbSpline
70
4
71
3
72
23
73
19
40
0
40
0
40
0
40
0
40
0.168165323787446
40
0.168165323787446
40
0.252247985681169
40
0.252247985681169
40
0.336330647574892
40
0.336330647574892
40
0.504495971362337
40
0.504495971362337
40
0.672661295149783
40
0.672661295149783
40
0.756743957043506
40
0.756743957043506
40
0.840826618937229
40
0.924909280830952
40
0.924909280830952
40
1
40
1
40
1
40
1
41
1
10
5.64095539193718
20
1.73498320138256
30
0
41
1
10
5.6410065524189
20
1.98376391163092
30
0
41
1
10
5.64104258293247
20
2.21785252322661
30
0
41
1
10
5.64108571549531
20
2.54776090805245
30
0
41
1
10
5.64109824505931
20
2.65416774627425
30
0
41
1
10
5.64112134043256
20
2.85968959104145
30
0
41
1
10
5.64113190062332
20
2.95874942521132
30
0
41
1
10
5.64116266357405
20
3.24014714807328
30
0
41
1
10
5.64118242020419
20
3.40925643457899
30
0
41
1
10
5.64122988935819
20
3.69933323366652
30
0
41
1
10
5.64125766271221
20
3.82165975630329
30
0
41
1
10
5.64131028848792
20
3.97070309701149
30
0
41
1
10
5.64132974083788
20
4.01473998659282
30
0
41
1
10
5.64137188772114
20
4.08941697000549
30
0
41
1
10
5.6414173514722
20
4.15112442750041
30
0
41
1
10
5.6414692354619
20
4.18737308100199
30
0
41
1
10
5.64152103836139
20
4.20952491198082
30
0
41
1
10
5.64154670410358
20
4.214843641908
30
0
41
1
10
5.6415730853675
20
4.21488554308561
30
0
0
SPLINE
5
CC
100
AcDbEntity
8
1
62
256
6
ByLayer
370
13
48
1
60
0
100
AcDbSpline
70
4
71
3
72
34
73
30
40
0
40
0
40
0
40
0
40
0.122777823330133
40
0.122777823330133
40
0.245555646660265
40
0.245555646660265
40
0.276250102492799
40
0.276250102492799
40
0.306944558325333
40
0.306944558325333
40
0.368333469990398
40
0.368333469990398
40
0.491111293320531
40
0.491111293320531
40
0.552500204985598
40
0.552500204985598
40
0.583194660818132
40
0.583194660818132
40
0.613889116650665
40
0.613889116650665
40
0.736666939980798
40
0.736666939980798
40
0.859444763310931
40
0.859444763310931
40
0.920833674975997
40
0.920833674975997
40
0.982222586641064
40
0.982222586641064
40
1
40
1
40
1
40
1
41
1
10
47.342067321347
20
-4.06990434664598
30
0
41
1
10
46.46993571668
20
-3.93259724564186
30
0
41
1
10
45.6059558233953
20
-3.73502926385512
30
0
41
1
10
43.8801471693919
20
-3.23675930858332
30
0
41
1
10
43.0179015609667
20
-2.93607390116372
30
0
41
1
10
41.9321405493687
20
-2.50810138932084
30
0
41
1
10
41.7145863848722
20
-2.4198989658982
30
0
41
1
10
41.2783587279172
20
-2.2387265886297
30
0
41
1
10
41.0593468430619
20
-2.14562084008026
30
0
41
1
10
40.4046215313507
20
-1.86151466295016
30
0
41
1
10
39.9702413566719
20
-1.6652455257954
30
0
41
1
10
38.6705852420774
20
-1.0615435544039
30
0
41
1
10
37.8084016772208
20
-0.639947169708137
30
0
41
1
10
36.5109097077519
20
-0.0006179920953286
30
0
41
1
10
36.0776762573012
20
0.213602284339743
30
0
41
1
10
35.4251240535743
20
0.533246360624588
30
0
41
1
10
35.2072026948797
20
0.63960597348958
30
0
41
1
10
34.7702873924295
20
0.851408736306666
30
0
41
1
10
34.5512833007225
20
0.956858425201688
30
0
41
1
10
33.4607258968626
20
1.47690409397112
30
0
41
1
10
32.5960414540596
20
1.87194333469788
30
0
41
1
10
30.8674739821368
20
2.59469038280224
30
0
41
1
10
30.0036265228651
20
2.92206029549845
30
0
41
1
10
28.6969504960352
20
3.34267861561912
30
0
41
1
10
28.2586792922591
20
3.47159826123666
30
0
41
1
10
27.3839384143988
20
3.70120226757445
30
0
41
1
10
26.9469878856545
20
3.80197117802672
30
0
41
1
10
26.3826317427716
20
3.91273608739434
30
0
41
1
10
26.2558822498565
20
3.93637794497809
30
0
41
1
10
26.1291301657607
20
3.95875740351585
30
0
0
SPLINE
5
CD
100
AcDbEntity
8
1
62
256
6
ByLayer
370
18
48
1
60
0
100
AcDbSpline
70
4
71
3
72
32
73
28
40
0
40
0
40
0
40
0
40
0.0695091033316566
40
0.0695091033316566
40
0.139018206663313
40
0.139018206663313
40
0.278036413326626
40
0.278036413326626
40
0.347545516658283
40
0.347545516658283
40
0.417054619989939
40
0.417054619989939
40
0.486563723321596
40
0.486563723321596
40
0.556072826653253
40
0.556072826653253
40
0.625581929984909
40
0.625581929984909
40
0.695091033316566
40
0.695091033316566
40
0.764600136648222
40
0.764600136648222
40
0.834109239979879
40
0.834109239979879
40
0.973127446643191
40
0.973127446643191
40
1
40
1
40
1
40
1
41
1
10
5.53418786680857
20
1.59292840108333
30
0
41
1
10
5.97193251777099
20
1.39003929611579
30
0
41
1
10
6.40951105002296
20
1.18082593718896
30
0
41
1
10
7.28340321589923
20
0.755080589766123
30
0
41
1
10
7.72001831990039
20
0.538351872889848
30
0
41
1
10
9.03266067791733
20
-0.115902755507022
30
0
41
1
10
9.90338207094311
20
-0.555133390432417
30
0
41
1
10
11.2128408809977
20
-1.19426306001975
30
0
41
1
10
11.6505511906375
20
-1.404549505321
30
0
41
1
10
12.5235780091951
20
-1.81123474459042
30
0
41
1
10
12.9593977155789
20
-2.00806090310846
30
0
41
1
10
13.8312795276652
20
-2.38576302763431
30
0
41
1
10
14.2675681102073
20
-2.56643609255795
30
0
41
1
10
15.1422197555729
20
-2.90782080049152
30
0
41
1
10
15.5782835822947
20
-3.06768467618178
30
0
41
1
10
16.4500101490262
20
-3.36286538333181
30
0
41
1
10
16.8856104502462
20
-3.4982659832003
30
0
41
1
10
17.7584109173956
20
-3.74194231974619
30
0
41
1
10
18.1960338269238
20
-3.85029859072077
30
0
41
1
10
19.0683031775517
20
-4.03641017312154
30
0
41
1
10
19.5038615231429
20
-4.11426333196172
30
0
41
1
10
20.3754364579282
20
-4.23849831624094
30
0
41
1
10
20.811845564771
20
-4.28488982228785
30
0
41
1
10
22.1224350128306
20
-4.37450416548441
30
0
41
1
10
22.9916641133035
20
-4.3679406005057
30
0
41
1
10
24.0329409925164
20
-4.28149935253649
30
0
41
1
10
24.2017685609356
20
-4.26502887088873
30
0
41
1
10
24.3706033729165
20
-4.2461400231021
30
0
0
SPLINE
5
CE
100
AcDbEntity
8
1
62
256
6
ByLayer
370
18
48
1
60
0
100
AcDbSpline
70
4
71
3
72
18
73
14
40
0
40
0
40
0
40
0
40
0.249999999999993
40
0.249999999999993
40
0.374999999999994
40
0.374999999999994
40
0.499999999999995
40
0.499999999999995
40
0.624999999999997
40
0.624999999999997
40
0.749999999999998
40
0.749999999999998
40
1
40
1
40
1
40
1
41
1
10
48.3190308255335
20
-1.05022175163529
30
0
41
1
10
48.3675119388117
20
-1.02206626753497
30
0
41
1
10
48.4197245302829
20
-0.973135055850463
30
0
41
1
10
48.5041735395722
20
-0.870187650935463
30
0
41
1
10
48.5332741619441
20
-0.830900101023559
30
0
41
1
10
48.591676502238
20
-0.745136571008942
30
0
41
1
10
48.6212089550797
20
-0.698388967345494
30
0
41
1
10
48.6809347698514
20
-0.597431802023351
30
0
41
1
10
48.711312842804
20
-0.542842062060373
30
0
41
1
10
48.7711612985617
20
-0.429135175387017
30
0
41
1
10
48.8007687964944
20
-0.369822720779837
30
0
41
1
10
48.8886113354457
20
-0.184907169451009
30
0
41
1
10
48.9461952397715
20
-0.051378980185774
30
0
41
1
10
48.9997682343768
20
0.0852143207791869
30
0
0
SPLINE
5
CF
100
AcDbEntity
8
1
62
256
6
ByLayer
370
18
48
1
60
0
100
AcDbSpline
70
4
71
3
72
18
73
14
40
0
40
0
40
0
40
0
40
0.25
40
0.25
40
0.374999999999999
40
0.374999999999999
40
0.499999999999999
40
0.499999999999999
40
0.749999999999999
40
0.749999999999999
40
0.874999999999999
40
0.874999999999999
40
1
40
1
40
1
40
1
41
1
10
47.342067321347
20
-4.06990434664598
30
0
41
1
10
47.2614920144205
20
-3.9923123440096
30
0
41
1
10
47.1899948809306
20
-3.8947904616611
30
0
41
1
10
47.0967854743075
20
-3.71769288831717
30
0
41
1
10
47.0680676717361
20
-3.65349687253905
30
0
41
1
10
47.0155801670477
20
-3.51424196779047
30
0
41
1
10
46.9918217656942
20
-3.43901982451075
30
0
41
1
10
46.9297632753425
20
-3.20166549006348
30
0
41
1
10
46.8999716521605
20
-3.02647465643861
30
0
41
1
10
46.873021019778
20
-2.73772102213721
30
0
41
1
10
46.8670061942955
20
-2.63695326708708
30
0
41
1
10
46.8612283177783
20
-2.42697904119623
30
0
41
1
10
46.8614881973008
20
-2.3189530213254
30
0
41
1
10
46.8648541267805
20
-2.20792936952316
30
0
0
SPLINE
5
D0
100
AcDbEntity
8
1
62
256
6
ByLayer
370
18
48
1
60
0
100
AcDbSpline
70
4
71
3
72
20
73
16
40
0
40
0
40
0
40
0
40
0.125000000000001
40
0.125000000000001
40
0.250000000000003
40
0.250000000000003
40
0.500000000000006
40
0.500000000000006
40
0.625000000000004
40
0.625000000000004
40
0.750000000000003
40
0.750000000000003
40
0.875000000000001
40
0.875000000000001
40
1
40
1
40
1
40
1
41
1
10
48.3042056664157
20
-1.05237931342089
30
0
41
1
10
48.2606228750004
20
-1.05264373475421
30
0
41
1
10
48.2189426003864
20
-1.04318798468324
30
0
41
1
10
48.1388031003044
20
-1.00781978372109
30
0
41
1
10
48.1001141728769
20
-0.981652389959123
30
0
41
1
10
47.9901310957292
20
-0.881879333260969
30
0
41
1
10
47.9264667557907
20
-0.789680327772004
30
0
41
1
10
47.8420471106452
20
-0.621924101260475
30
0
41
1
10
47.8159369567436
20
-0.561128989586365
30
0
41
1
10
47.7683603340561
20
-0.433384294245229
30
0
41
1
10
47.7467177097155
20
-0.366086810055151
30
0
41
1
10
47.7073344590766
20
-0.225263125196278
30
0
41
1
10
47.6895961694919
20
-0.151733194457478
30
0
41
1
10
47.6578507705821
20
0.0012827089542782
30
0
41
1
10
47.6438251199701
20
0.0810242914396895
30
0
41
1
10
47.6318470110884
20
0.162244985001593
30
0
0
SPLINE
5
D1
100
AcDbEntity
8
1
62
256
6
ByLayer
370
13
48
1
60
0
100
AcDbSpline
70
4
71
3
72
60
73
56
40
0
40
0
40
0
40
0
40
0.0179906454409612
40
0.0323453839030909
40
0.0467001223652206
40
0.07540959928948
40
0.0897643377516098
40
0.10411907621374
40
0.132828553137999
40
0.147183291600129
40
0.161538030062258
40
0.190247506986518
40
0.204602245448647
40
0.218956983910777
40
0.247666460835036
40
0.262021199297166
40
0.276375937759296
40
0.305085414683555
40
0.319440153145685
40
0.333794891607815
40
0.362504368532074
40
0.376859106994204
40
0.391213845456334
40
0.419923322380593
40
0.434278060842723
40
0.448632799304853
40
0.477342276229112
40
0.491697014691242
40
0.506051753153371
40
0.534761230077631
40
0.549115968539761
40
0.56347070700189
40
0.59218018392615
40
0.606534922388279
40
0.620889660850409
40
0.649599137774668
40
0.663953876236798
40
0.678308614698928
40
0.707018091623187
40
0.721372830085317
40
0.735727568547447
40
0.764437045471706
40
0.778791783933836
40
0.793146522395966
40
0.821855999320225
40
0.836210737782355
40
0.850565476244484
40
0.879274953168744
40
0.893629691630873
40
0.907984430093003
40
0.936693907017263
40
0.951048645479392
40
0.965403383941522
40
0.994112860865782
40
1
40
1
40
1
40
1
41
1
10
34.5573356740839
20
0.0524755903191192
30
0
41
1
10
34.4512609257288
20
0.0777089331490686
30
0
41
1
10
34.2605593829629
20
0.123096618874769
30
0
41
1
10
33.9852508061582
20
0.188607393756968
30
0
41
1
10
33.6466655807779
20
0.268572156262053
30
0
41
1
10
33.3081247903481
20
0.348289319873544
30
0
41
1
10
32.9696257778046
20
0.427571798727087
30
0
41
1
10
32.6310404383053
20
0.505969799434212
30
0
41
1
10
32.2924997252779
20
0.583722483345895
30
0
41
1
10
31.9540007578465
20
0.660644720183882
30
0
41
1
10
31.6154154058482
20
0.736394211116362
30
0
41
1
10
31.2768747397574
20
0.811113745202562
30
0
41
1
10
30.9383759797146
20
0.884626112816164
30
0
41
1
10
30.5997907162693
20
0.956696002866323
30
0
41
1
10
30.2612499222431
20
1.02736501814994
30
0
41
1
10
29.9227507578161
20
1.09645807313945
30
0
41
1
10
29.584165119973
20
1.16385479466319
30
0
41
1
10
29.2456240948103
20
1.22949609012451
30
0
41
1
10
28.9071251705246
20
1.29321741714932
30
0
41
1
10
28.5685400286243
20
1.35501354028582
30
0
41
1
10
28.2299996424016
20
1.41472567683653
30
0
41
1
10
27.8915009811853
20
1.4722008881935
30
0
41
1
10
27.5529158297683
20
1.5275487152351
30
0
41
1
10
27.2143751666019
20
1.58051244927145
30
0
41
1
10
26.8758762139456
20
1.63095179886417
30
0
41
1
10
26.5372907762759
20
1.67909044513374
30
0
41
1
10
26.1987498170416
20
1.72457791200196
30
0
41
1
10
25.8602505577478
20
1.76729008691078
30
0
41
1
10
25.5216649184993
20
1.80755985703638
30
0
41
1
10
25.1831240346829
20
1.84494594878876
30
0
41
1
10
24.8446252976251
20
1.87933850011584
30
0
41
1
10
24.5060402329463
20
1.91117920915317
30
0
41
1
10
24.1674998172427
20
1.93994477209299
30
0
41
1
10
23.8290010485582
20
1.96554774774936
30
0
41
1
10
23.4904157405682
20
1.98852683614919
30
0
41
1
10
23.1518748795541
20
2.00828064347093
30
0
41
1
10
22.8133758460711
20
2.02473649067048
30
0
41
1
10
22.4747904971013
20
2.03853013736693
30
0
41
1
10
22.1362497930393
20
2.04899559763132
30
0
41
1
10
21.7977508396051
20
2.05608879385466
30
0
41
1
10
21.4591654944575
20
2.06052383196987
30
0
41
1
10
21.1206248235473
20
2.06157487127413
30
0
41
1
10
20.7821260218943
20
2.05921252320806
30
0
41
1
10
20.4435406798259
20
2.05422630057441
30
0
41
1
10
20.1049997752114
20
2.04584099068919
30
0
41
1
10
19.7665005106945
20
2.03404950007837
30
0
41
1
10
19.4279148000948
20
2.0197023902719
30
0
41
1
10
19.0893737583548
20
2.00198039883077
30
0
41
1
10
18.7508749450747
20
1.98089024774427
30
0
41
1
10
18.4122900134911
20
1.95734696743187
30
0
41
1
10
18.0737499266642
20
1.93051258793341
30
0
41
1
10
17.7352515448642
20
1.90043664128515
30
0
41
1
10
17.3966666130705
20
1.86806190036046
30
0
41
1
10
17.1080507686474
20
1.83777599732773
30
0
41
1
10
16.904090135886
20
1.81487624997041
30
0
41
1
10
16.8693830286728
20
1.81093586727309
30
0
0
SPLINE
5
D2
100
AcDbEntity
8
1
62
256
6
ByLayer
370
13
48
1
60
0
100
AcDbSpline
70
4
71
3
72
10
73
6
40
0
40
0
40
0
40
0
40
0.5
40
0.5
40
1
40
1
40
1
40
1
41
1
10
5.64095539193721
20
1.73498320138256
30
0
41
1
10
5.56080382776202
20
1.75978389896821
30
0
41
1
10
5.48210041904855
20
1.78760474500171
30
0
41
1
10
5.32782239652411
20
1.84996291231099
30
0
41
1
10
5.25161816321503
20
1.8848511915275
30
0
41
1
10
5.17944413460799
20
1.92274672178499
30
0
0
SPLINE
5
D3
100
AcDbEntity
8
1
62
256
6
ByLayer
370
18
48
1
60
0
100
AcDbSpline
70
4
71
3
72
8
73
4
40
0
40
0
40
0
40
0
40
1
40
1
40
1
40
1
41
1
10
48.3042056664157
20
-1.05237931342089
30
0
41
1
10
48.3091115286238
20
-1.05179597947046
30
0
41
1
10
48.3140530607885
20
-1.0510775027519
30
0
41
1
10
48.3190308255386
20
-1.05022175163361
30
0
0
SPLINE
5
D4
100
AcDbEntity
8
1
62
256
6
ByLayer
370
18
48
1
60
0
100
AcDbSpline
70
4
71
3
72
18
73
14
40
0
40
0
40
0
40
0
40
0.250000000000001
40
0.250000000000001
40
0.375000000000001
40
0.375000000000001
40
0.500000000000001
40
0.500000000000001
40
0.75
40
0.75
40
0.875
40
0.875
40
1
40
1
40
1
40
1
41
1
10
46.9693291421834
20
0.43964999266791
30
0
41
1
10
46.9228624334646
20
0.212689686499971
30
0
41
1
10
46.885509742493
20
-0.0147795388075167
30
0
41
1
10
46.8431999274628
20
-0.356749446635746
30
0
41
1
10
46.8313937310662
20
-0.470867682677095
30
0
41
1
10
46.8125185555174
20
-0.699368677014462
30
0
41
1
10
46.8054352129623
20
-0.814344067530044
30
0
41
1
10
46.7918279711507
20
-1.1540566135254
30
0
41
1
10
46.7927420536369
20
-1.37400125594095
30
0
41
1
10
46.8087048189763
20
-1.69437554770602
30
0
41
1
10
46.8164696580141
20
-1.7995687002483
30
0
41
1
10
46.8369664849474
20
-2.00670657908384
30
0
41
1
10
46.8497346498793
20
-2.10877071153868
30
0
41
1
10
46.8648541267805
20
-2.20792936952316
30
0
0
SPLINE
5
D5
100
AcDbEntity
8
1
62
256
6
ByLayer
370
18
48
1
60
0
100
AcDbSpline
70
4
71
3
72
16
73
12
40
0
40
0
40
0
40
0
40
0.172772321704058
40
0.172772321704058
40
0.345544643408116
40
0.345544643408116
40
0.518316965112174
40
0.518316965112174
40
0.691089286816231
40
0.691089286816231
40
1
40
1
40
1
40
1
41
1
10
15.7254214985738
20
-3.42292381756727
30
0
41
1
10
16.0567379420696
20
-3.52608263285251
30
0
41
1
10
16.387807377077
20
-3.62092747899956
30
0
41
1
10
17.0490335772389
20
-3.7947913083076
30
0
41
1
10
17.3793272581423
20
-3.87362635957396
30
0
41
1
10
18.0400270893213
20
-4.01431439771036
30
0
41
1
10
18.3708489682347
20
-4.07585784206952
30
0
41
1
10
19.0330095313717
20
-4.18152180898559
30
0
41
1
10
19.3647116569633
20
-4.22515882384857
30
0
41
1
10
20.2863073585835
20
-4.32098810811988
30
0
41
1
10
20.8765839145145
20
-4.35243349711388
30
0
41
1
10
21.4677416775287
20
-4.35348704136257
30
0
0
SPLINE
5
D6
100
AcDbEntity
8
1
62
256
6
ByLayer
370
18
48
1
60
0
100
AcDbSpline
70
4
71
3
72
16
73
12
40
0
40
0
40
0
40
0
40
0.0244781569259672
40
0.0244781569259672
40
0.34965210461731
40
0.34965210461731
40
0.512239078462981
40
0.512239078462981
40
0.674826052308652
40
0.674826052308652
40
1
40
1
40
1
40
1
41
1
10
41.353299079569
20
2.9107601003796
30
0
41
1
10
41.4030838875095
20
2.92970005667439
30
0
41
1
10
41.4528757668687
20
2.94849546055644
30
0
41
1
10
42.1642100750111
20
3.21483554176268
30
0
41
1
10
42.8225193532862
20
3.43592823566391
30
0
41
1
10
43.8109898134575
20
3.72041693377548
30
0
41
1
10
44.140543464783
20
3.80751511694913
30
0
41
1
10
44.8008745780041
20
3.96499948232034
30
0
41
1
10
45.1319342123061
20
4.03550707372202
30
0
41
1
10
46.1220728603536
20
4.21957748797016
30
0
41
1
10
46.7798199228191
20
4.30621295701596
30
0
41
1
10
47.438606122204
20
4.35516978545812
30
0
0
SPLINE
5
D7
100
AcDbEntity
8
1
62
256
6
ByLayer
370
13
48
1
60
0
100
AcDbSpline
70
4
71
3
72
21
73
17
40
0
40
0
40
0
40
0
40
0.0087558720189701
40
0.0701186413421525
40
0.192844179988515
40
0.254206949311699
40
0.315569718634879
40
0.438295257281242
40
0.499658026604426
40
0.561020795927607
40
0.683746334573969
40
0.745109103897147
40
0.806471873220331
40
0.929197411866696
40
0.990560181189878
40
1
40
1
40
1
40
1
41
1
10
48.2402195019331
20
2.06077412600001
30
0
41
1
10
48.2281432369956
20
2.06072937343674
30
0
41
1
10
48.1314328454518
20
2.06031835476992
30
0
41
1
10
47.8654157420253
20
2.05800556300608
30
0
41
1
10
47.5268750574362
20
2.05166300200119
30
0
41
1
10
47.1883761158838
20
2.04191010621287
30
0
41
1
10
46.8497907131442
20
2.02958747606127
30
0
41
1
10
46.5112498165217
20
2.01389077457483
30
0
41
1
10
46.1727506199358
20
1.99483237311358
30
0
41
1
10
45.834165020152
20
1.97330312830851
30
0
41
1
10
45.495624139069
20
1.94846467849467
30
0
41
1
10
45.157125364528
20
1.92034265977932
30
0
41
1
10
44.8185402552731
20
1.8898784827287
30
0
41
1
10
44.4799997930509
20
1.85621954722799
30
0
41
1
10
44.2131073480057
20
1.82720859612789
30
0
41
1
10
44.11544990201
20
1.81623342228937
30
0
41
1
10
44.1024294320013
20
1.81476379012685
30
0
0
SPLINE
5
D8
100
AcDbEntity
8
1
62
256
6
ByLayer
370
18
48
1
60
0
100
AcDbSpline
70
4
71
3
72
16
73
12
40
0
40
0
40
0
40
0
40
0.25
40
0.25
40
0.5
40
0.5
40
0.625
40
0.625
40
0.75
40
0.75
40
1
40
1
40
1
40
1
41
1
10
48.0123423987213
20
1.51136353795974
30
0
41
1
10
48.0553897904944
20
1.54257818143145
30
0
41
1
10
48.0962502454119
20
1.57754166887196
30
0
41
1
10
48.1676901763328
20
1.65619677474177
30
0
41
1
10
48.197890485875
20
1.69931108641515
30
0
41
1
10
48.2312485865153
20
1.77217560991716
30
0
41
1
10
48.2401938416394
20
1.79766916990232
30
0
41
1
10
48.2528852542404
20
1.84921619704983
30
0
41
1
10
48.2567611298692
20
1.875530202135
30
0
41
1
10
48.2610647209993
20
1.95607499089027
30
0
41
1
10
48.2541138902245
20
2.00889662650255
30
0
41
1
10
48.2402195004132
20
2.06077413167796
30
0
0
SPLINE
5
D9
100
AcDbEntity
8
1
62
256
6
ByLayer
370
18
48
1
60
0
100
AcDbSpline
70
4
71
3
72
14
73
10
40
0
40
0
40
0
40
0
40
0.204271489402547
40
0.204271489402547
40
0.408542978805094
40
0.408542978805094
40
0.817085957610187
40
0.817085957610187
40
1
40
1
40
1
40
1
41
1
10
5.1856755630956
20
-3.81666178145815
30
0
41
1
10
5.18560795232952
20
-3.88420085779012
30
0
41
1
10
5.18552800403933
20
-3.94538354616378
30
0
41
1
10
5.18534862495085
20
-4.05490373793242
30
0
41
1
10
5.18524858915123
20
-4.103446895736
30
0
41
1
10
5.18493057965634
20
-4.22720869574889
30
0
41
1
10
5.18469621228377
20
-4.28101130156193
30
0
41
1
10
5.18434477745646
20
-4.31828687035303
30
0
41
1
10
5.18423428109492
20
-4.32414941060719
30
0
41
1
10
5.1841225728098
20
-4.32417294209435
30
0
0
SPLINE
5
DA
100
AcDbEntity
8
1
62
256
6
ByLayer
370
18
48
1
60
0
100
AcDbSpline
70
4
71
3
72
8
73
4
40
0
40
0
40
0
40
0
40
1
40
1
40
1
40
1
41
1
10
14.0500604428199
20
2.92254468483537
30
0
41
1
10
14.6099701849163
20
3.10155673890247
30
0
41
1
10
15.1684752955313
20
3.26863924974259
30
0
41
1
10
15.7254214985738
20
3.42292381756727
30
0
0
SPLINE
5
DB
100
AcDbEntity
8
1
62
256
6
ByLayer
370
18
48
1
60
0
100
AcDbSpline
70
4
71
3
72
12
73
8
40
0
40
0
40
0
40
0
40
0.5
40
0.5
40
0.75
40
0.75
40
1
40
1
40
1
40
1
41
1
10
5.64193098612628
20
-3.88692762866404
30
0
41
1
10
5.57870743658219
20
-3.85450355983699
30
0
41
1
10
5.51269588437722
20
-3.82578320795648
30
0
41
1
10
5.40117124324564
20
-3.79901363259017
30
0
41
1
10
5.36181406388917
20
-3.79293917938938
30
0
41
1
10
5.27714964191864
20
-3.79300963608446
30
0
41
1
10
5.23234614954791
20
-3.79928213520202
30
0
41
1
10
5.18567556310666
20
-3.81666178145315
30
0
0
SPLINE
5
DC
100
AcDbEntity
8
1
62
256
6
ByLayer
370
18
48
1
60
0
100
AcDbSpline
70
4
71
3
72
48
73
44
40
0
40
0
40
0
40
0
40
0.0583770637428154
40
0.0583770637428154
40
0.110689449090436
40
0.110689449090436
40
0.163001834438056
40
0.163001834438056
40
0.215314219785676
40
0.215314219785676
40
0.267626605133297
40
0.267626605133297
40
0.319938990480917
40
0.319938990480917
40
0.346095183154726
40
0.346095183154726
40
0.372251375828536
40
0.372251375828536
40
0.424563761176156
40
0.424563761176156
40
0.450719953849967
40
0.450719953849967
40
0.476876146523778
40
0.476876146523778
40
0.581500917219023
40
0.581500917219023
40
0.633813302566644
40
0.633813302566644
40
0.686125687914267
40
0.686125687914267
40
0.738438073261889
40
0.738438073261889
40
0.790750458609511
40
0.790750458609511
40
0.843062843957133
40
0.843062843957133
40
0.895375229304756
40
0.895375229304756
40
0.947687614652378
40
0.947687614652378
40
0.973843807326189
40
0.973843807326189
40
1
40
1
40
1
40
1
41
1
10
22.4044058132414
20
4.3551546828493
30
0
41
1
10
22.8905266414361
20
4.35585667473543
30
0
41
1
10
23.3763294496148
20
4.33597746261697
30
0
41
1
10
24.2994538367528
20
4.25940194491139
30
0
41
1
10
24.736745029053
20
4.20670159578225
30
0
41
1
10
25.6083566970017
20
4.06999430524834
30
0
41
1
10
26.0434741795925
20
3.98590379842531
30
0
41
1
10
26.9146345578712
20
3.78801008952149
30
0
41
1
10
27.3512848335288
20
3.67396358403556
30
0
41
1
10
28.224161410957
20
3.41870001976889
30
0
41
1
10
28.6595331096755
20
3.27778310874621
30
0
41
1
10
29.5302431151003
20
2.97225019082575
30
0
41
1
10
29.9654701660182
20
2.8074752169459
30
0
41
1
10
30.6197745639944
20
2.54463383001084
30
0
41
1
10
30.8382792257279
20
2.45432032186332
30
0
41
1
10
31.2744977973575
20
2.26945189613787
30
0
41
1
10
31.4923501159437
20
2.17484670881606
30
0
41
1
10
32.1455244779689
20
1.88521056208006
30
0
41
1
10
32.580455926481
20
1.68434126281164
30
0
41
1
10
33.2336563297747
20
1.37424034386069
30
0
41
1
10
33.4515080157749
20
1.26937922742715
30
0
41
1
10
33.8876566883547
20
1.05704206932848
30
0
41
1
10
34.1060663731839
20
0.949544539579364
30
0
41
1
10
35.1960011112801
20
0.409053101299435
30
0
41
1
10
36.0642200596752
20
-0.0344359974940858
30
0
41
1
10
37.3726335374652
20
-0.693135727467904
30
0
41
1
10
37.8088028041619
20
-0.910868863334116
30
0
41
1
10
38.6791378136926
20
-1.33701715600992
30
0
41
1
10
39.1138056477429
20
-1.54591957950379
30
0
41
1
10
39.9843893602731
20
-1.95111873176899
30
0
41
1
10
40.4211194703388
20
-2.14771739140574
30
0
41
1
10
41.2922987804583
20
-2.52236656583108
30
0
41
1
10
41.7269474943367
20
-2.70068647870625
30
0
41
1
10
42.596621869366
20
-3.0357577761686
30
0
41
1
10
43.0316655097689
20
-3.19249588103469
30
0
41
1
10
43.9039976944583
20
-3.48158954095601
30
0
41
1
10
44.339038870548
20
-3.61310357913962
30
0
41
1
10
45.2072375008854
20
-3.84757380842356
30
0
41
1
10
45.640725024633
20
-3.95055731934696
30
0
41
1
10
46.2914009548105
20
-4.08243845576669
30
0
41
1
10
46.508364721705
20
-4.12263458151563
30
0
41
1
10
46.9426610022939
20
-4.19528851534966
30
0
41
1
10
47.1598161750332
20
-4.22783689393461
30
0
41
1
10
47.3776390752006
20
-4.2562183811101
30
0
0
SPLINE
5
DD
100
AcDbEntity
8
1
62
256
6
ByLayer
370
18
48
1
60
0
100
AcDbSpline
70
4
71
3
72
10
73
6
40
0
40
0
40
0
40
0
40
0.5
40
0.5
40
1
40
1
40
1
40
1
41
1
10
47.3910528812551
20
-4.18302278899168
30
0
41
1
10
47.3878238482235
20
-4.15540234178113
30
0
41
1
10
47.3813167099025
20
-4.13302590905005
30
0
41
1
10
47.3642277782387
20
-4.09569813816938
30
0
41
1
10
47.3538354552468
20
-4.08123676486906
30
0
41
1
10
47.342067321347
20
-4.06990434664598
30
0
0
SPLINE
5
DE
100
AcDbEntity
8
1
62
256
6
ByLayer
370
18
48
1
60
0
100
AcDbSpline
70
4
71
3
72
56
73
52
40
0
40
0
40
0
40
0
40
0.0312499999999998
40
0.0312499999999998
40
0.0624999999999996
40
0.0624999999999996
40
0.0937499999999994
40
0.0937499999999994
40
0.124999999999999
40
0.124999999999999
40
0.187499999999999
40
0.187499999999999
40
0.218749999999999
40
0.218749999999999
40
0.249999999999999
40
0.249999999999999
40
0.281249999999999
40
0.281249999999999
40
0.312499999999999
40
0.312499999999999
40
0.374999999999999
40
0.374999999999999
40
0.4375
40
0.4375
40
0.5
40
0.5
40
0.53125
40
0.53125
40
0.562500000000001
40
0.562500000000001
40
0.593750000000002
40
0.593750000000002
40
0.625000000000002
40
0.625000000000002
40
0.687500000000003
40
0.687500000000003
40
0.718750000000003
40
0.718750000000003
40
0.750000000000003
40
0.750000000000003
40
0.781250000000004
40
0.781250000000004
40
0.812500000000004
40
0.812500000000004
40
0.875000000000003
40
0.875000000000003
40
0.906250000000002
40
0.906250000000002
40
0.937500000000002
40
0.937500000000002
40
1
40
1
40
1
40
1
41
1
10
15.7254214985738
20
3.42292381756724
30
0
41
1
10
16.0566959083727
20
3.52606954522443
30
0
41
1
10
16.3877233292966
20
3.62090344731018
30
0
41
1
10
17.048865958171
20
3.79474916559531
30
0
41
1
10
17.3791178160786
20
3.87357735477383
30
0
41
1
10
18.0397335985742
20
4.01425630569759
30
0
41
1
10
18.3705133586786
20
4.07579741105275
30
0
41
1
10
19.0325890741712
20
4.18146158314974
30
0
41
1
10
19.3642498447694
20
4.22510138638327
30
0
41
1
10
20.3558122694672
20
4.32823417493901
30
0
41
1
10
21.0159051652389
20
4.3594475459216
30
0
41
1
10
22.0080628858085
20
4.34915644201081
30
0
41
1
10
22.3398467392265
20
4.33618117718117
30
0
41
1
10
23.0012113249242
20
4.29128298142516
30
0
41
1
10
23.331597404404
20
4.25949043312283
30
0
41
1
10
23.9918743369449
20
4.17733721780351
30
0
41
1
10
24.3220968573139
20
4.12713470323106
30
0
41
1
10
24.9830382573584
20
4.00861878805969
30
0
41
1
10
25.3144113698805
20
3.94032901986154
30
0
41
1
10
26.3071768763577
20
3.71004922388528
30
0
41
1
10
26.9665796869607
20
3.52304764788718
30
0
41
1
10
28.2877989912192
20
3.09061998863254
30
0
41
1
10
28.9504735477715
20
2.84384343386645
30
0
41
1
10
30.2714926253679
20
2.30781241025724
30
0
41
1
10
30.930410794747
20
2.0166744559663
30
0
41
1
10
31.9232296728123
20
1.55691664444802
30
0
41
1
10
32.2540446488868
20
1.39918103225472
30
0
41
1
10
32.914745932727
20
1.08010790563893
30
0
41
1
10
33.2443959547984
20
0.917351363048368
30
0
41
1
10
33.9044730209749
20
0.589629616803364
30
0
41
1
10
34.2342476156612
20
0.423384224973376
30
0
41
1
10
34.8954444883548
20
0.0904177974645961
30
0
41
1
10
35.2264820787735
20
-0.0777078573782717
30
0
41
1
10
36.2178388071799
20
-0.577445400251094
30
0
41
1
10
36.8763087745833
20
-0.90883687787445
30
0
41
1
10
37.8671696119968
20
-1.3899177935356
30
0
41
1
10
38.1980866577434
20
-1.54853550961698
30
0
41
1
10
38.8592242353786
20
-1.85706687427731
30
0
41
1
10
39.1890053157398
20
-2.00778868758516
30
0
41
1
10
39.8486948381345
20
-2.29914694657572
30
0
41
1
10
40.1782291914673
20
-2.44043310358424
30
0
41
1
10
40.8382454001671
20
-2.71157215974085
30
0
41
1
10
41.1686561413003
20
-2.84203217391055
30
0
41
1
10
42.1608993028846
20
-3.21368496894973
30
0
41
1
10
42.8195120009527
20
-3.43498510387525
30
0
41
1
10
43.8089460196433
20
-3.71986730476203
30
0
41
1
10
44.1389095795038
20
-3.80710552352983
30
0
41
1
10
44.80023504828
20
-3.96486681374381
30
0
41
1
10
45.1305313515272
20
-4.03521574359138
30
0
41
1
10
46.1198853803807
20
-4.21923166314451
30
0
41
1
10
46.7781841829431
20
-4.30609139916217
30
0
41
1
10
47.438606122204
20
-4.35516978545812
30
0
0
SPLINE
5
DF
100
AcDbEntity
8
1
62
256
6
ByLayer
370
18
48
1
60
0
100
AcDbSpline
70
4
71
3
72
11
73
7
40
0
40
0
40
0
40
0
40
0.303917425823446
40
0.576460560962959
40
0.817574710115815
40
1
40
1
40
1
40
1
41
1
10
21.16959620357
20
-0.0565976177858829
30
0
41
1
10
21.0189327428018
20
-0.0206957518077218
30
0
41
1
10
20.7332676391469
20
0.0581282065506343
30
0
41
1
10
20.3283946574768
20
0.199192878051747
30
0
41
1
10
19.9839318135943
20
0.340519155186911
30
0
41
1
10
19.7743763302097
20
0.438339441276185
30
0
41
1
10
19.6841300514056
20
0.482587195983257
30
0
0
SPLINE
5
E0
100
AcDbEntity
8
1
62
256
6
ByLayer
370
18
48
1
60
0
100
AcDbSpline
70
4
71
3
72
11
73
7
40
0
40
0
40
0
40
0
40
0.202476207953799
40
0.436488364632373
40
0.702229956828
40
1
40
1
40
1
40
1
41
1
10
34.5409944007132
20
0.0563629953132931
30
0
41
1
10
34.6499044944426
20
0.030433777929801
30
0
41
1
10
34.8845872231702
20
-0.0318384536013809
30
0
41
1
10
35.2618696465378
20
-0.154143629259096
30
0
41
1
10
35.6897302989335
20
-0.32177324712049
30
0
41
1
10
35.9913339055578
20
-0.462606059918272
30
0
41
1
10
36.1505274587024
20
-0.543321087031131
30
0
0
SPLINE
5
E1
100
AcDbEntity
8
1
62
256
6
ByLayer
370
18
48
1
60
0
100
AcDbSpline
70
4
71
1
72
4
73
2
40
0
40
0
40
1
40
1
41
1
10
47.2572173702634
20
0.315503854529567
30
0
41
1
10
46.8303913331048
20
0.507911142076267
30
0
0
SPLINE
5
E2
100
AcDbEntity
8
1
62
256
6
ByLayer
370
18
48
1
60
0
100
AcDbSpline
70
4
71
3
72
28
73
24
40
0
40
0
40
0
40
0
40
0.0624871642418978
40
0.124017094970727
40
0.17769374109299
40
0.218220489164069
40
0.273710395475653
40
0.337370665169639
40
0.390856484181152
40
0.44190839528855
40
0.50119362160732
40
0.572890120365024
40
0.615889724409335
40
0.64971546778631
40
0.677248589293526
40
0.717686181890451
40
0.769322509976165
40
0.809032537370639
40
0.836830461375856
40
0.870943694691018
40
0.90906160004853
40
0.955520640193774
40
1
40
1
40
1
40
1
41
1
10
22.8394227736039
20
-4.24282134377717
30
0
41
1
10
23.0765382509424
20
-4.24235754945582
30
0
41
1
10
23.5481335291901
20
-4.24206917670713
30
0
41
1
10
24.2337033339613
20
-4.24532408439421
30
0
41
1
10
24.8253243427977
20
-4.24657064377465
30
0
41
1
10
25.402752543909
20
-4.24726133420117
30
0
41
1
10
26.0164391621125
20
-4.2478136959862
30
0
41
1
10
26.6808063462091
20
-4.24970620789304
30
0
41
1
10
27.3278256405302
20
-4.25171780669305
30
0
41
1
10
27.9581010349696
20
-4.25186743997583
30
0
41
1
10
28.6584138369788
20
-4.2519745400474
30
0
41
1
10
29.3277539767497
20
-4.253633672462
30
0
41
1
10
29.8991435384493
20
-4.25521133330665
30
0
41
1
10
30.300629813155
20
-4.25574398797571
30
0
41
1
10
30.6922575720266
20
-4.25736234490228
30
0
41
1
10
31.1524097221021
20
-4.25769156203569
30
0
41
1
10
31.6594070839161
20
-4.25708941482424
30
0
41
1
10
32.1177780474993
20
-4.25715396901845
30
0
41
1
10
32.5087347437287
20
-4.2576248628707
30
0
41
1
10
32.8935629456012
20
-4.25826031689326
30
0
41
1
10
33.3501868483094
20
-4.26165806273102
30
0
41
1
10
33.8466413017884
20
-4.26235344431456
30
0
41
1
10
34.1956449973887
20
-4.26204078165338
30
0
41
1
10
34.3662153552084
20
-4.26157695006199
30
0
0
SPLINE
5
E3
100
AcDbEntity
8
1
62
256
6
ByLayer
370
18
48
1
60
0
100
AcDbSpline
70
4
71
3
72
10
73
6
40
0
40
0
40
0
40
0
40
0.279206379039552
40
0.661472284609182
40
1
40
1
40
1
40
1
41
1
10
7.61829985370639
20
4.21619547674956
30
0
41
1
10
7.4353154254355
20
4.21634846057822
30
0
41
1
10
7.00114138403893
20
4.21651318047432
30
0
41
1
10
6.34046375633335
20
4.21640806167488
30
0
41
1
10
5.86500872288087
20
4.21529497167805
30
0
41
1
10
5.64155747816329
20
4.2146014181221
30
0
0
SPLINE
5
E4
100
AcDbEntity
8
1
62
256
6
ByLayer
370
18
48
1
60
0
100
AcDbSpline
70
4
71
3
72
11
73
7
40
0
40
0
40
0
40
0
40
0.265133645488415
40
0.579745816910842
40
0.811871729836104
40
1
40
1
40
1
40
1
41
1
10
5.64156189383684
20
-4.21466625152132
30
0
41
1
10
5.81074150420505
20
-4.21522685669109
30
0
41
1
10
6.18063565341333
20
-4.2161850234659
30
0
41
1
10
6.69874840005042
20
-4.21641172536795
30
0
41
1
10
7.16726223616456
20
-4.21638209529314
30
0
41
1
10
7.43542270425414
20
-4.21655829297382
30
0
41
1
10
7.55548075476443
20
-4.21665474110245
30
0
0
SPLINE
5
E5
100
AcDbEntity
8
1
62
256
6
ByLayer
370
18
48
1
60
0
100
AcDbSpline
70
4
71
3
72
27
73
23
40
0
40
0
40
0
40
0
40
0.0512830294595928
40
0.0971459092140739
40
0.135276974521724
40
0.169854902870131
40
0.201219091134737
40
0.236520344446547
40
0.287864896024527
40
0.352890217129575
40
0.394028619877372
40
0.436243676799822
40
0.492575286518244
40
0.576638422325775
40
0.645845411918054
40
0.705651335600398
40
0.76966158193549
40
0.858876783571324
40
0.905078594129218
40
0.94093307016595
40
0.986179167814788
40
1
40
1
40
1
40
1
41
1
10
34.366062066764
20
4.26157712295185
30
0
41
1
10
34.1955446919432
20
4.26201809995686
30
0
41
1
10
33.8722665766572
20
4.26225082965161
30
0
41
1
10
33.4211653644204
20
4.26202924973052
30
0
41
1
10
33.0256110933242
20
4.25895453385277
30
0
41
1
10
32.6784545974598
20
4.25793935466166
30
0
41
1
10
32.3407264487247
20
4.25735434148493
30
0
41
1
10
31.9470701550582
20
4.2571127240148
30
0
41
1
10
31.441127490341
20
4.25716621738627
30
0
41
1
10
30.915712067479
20
4.25804694214045
30
0
41
1
10
30.4207539761937
20
4.25610849213999
30
0
41
1
10
29.9547953046132
20
4.25528128566083
30
0
41
1
10
29.3456497518284
20
4.25371435408658
30
0
41
1
10
28.6464623550975
20
4.25195012652469
30
0
41
1
10
27.935689335085
20
4.25185921665727
30
0
41
1
10
27.2917923997851
20
4.25171635889342
30
0
41
1
10
26.5812220002258
20
4.24925402362112
30
0
41
1
10
25.9158351218134
20
4.24776144424857
30
0
41
1
10
25.3447959552843
20
4.24721304884977
30
0
41
1
10
24.9199244413098
20
4.24654854767508
30
0
41
1
10
24.6042679022056
20
4.24639427069229
30
0
41
1
10
24.4093460933455
20
4.24565946160337
30
0
41
1
10
24.3637637100576
20
4.24546847256951
30
0
0
LINE
5
7B
100
AcDbEntity
8
SK1
62
256
6
ByLayer
370
18
48
1
60
0
100
AcDbLine
10
-40
20
2.5
30
0
11
-40
21
-2.5
31
0
39
0
210
0
220
0
230
1
0
LINE
5
7D
100
AcDbEntity
8
SK1
62
256
6
ByLayer
370
18
48
1
60
0
100
AcDbLine
10
-38.556624
20
5
30
0
11
-38.556624
21
-5
31
0
39
0
210
0
220
0
230
1
0
LINE
5
7E
100
AcDbEntity
8
SK1
62
256
6
ByLayer
370
18
48
1
60
0
100
AcDbLine
10
0
20
-5
30
0
11
0
21
5
31
0
39
0
210
0
220
0
230
1
0
LINE
5
7F
100
AcDbEntity
8
1
62
256
6
ByLayer
370
18
48
1
60
0
100
AcDbLine
10
46.864854
20
-2.207929
30
0
11
48.304206
21
-1.052379
31
0
39
0
210
0
220
0
230
1
0
LINE
5
80
100
AcDbEntity
8
1
62
256
6
ByLayer
370
13
48
1
60
0
100
AcDbLine
10
1.363555
20
4.317295
30
0
11
1.363555
21
-4.317295
31
0
39
0
210
0
220
0
230
1
0
LINE
5
81
100
AcDbEntity
8
1
62
256
6
ByLayer
370
13
48
1
60
0
100
AcDbLine
10
0.681013
20
4.658647
30
0
11
0.681013
21
-4.658647
31
0
39
0
210
0
220
0
230
1
0
LINE
5
82
100
AcDbEntity
8
1
62
256
6
ByLayer
370
18
48
1
60
0
100
AcDbLine
10
0
20
-5
30
0
11
0
21
5
31
0
39
0
210
0
220
0
230
1
0
LINE
5
83
100
AcDbEntity
8
80
62
256
6
ByLayer
370
18
48
1
60
0
100
AcDbLine
10
0
20
0
30
0
11
-5
21
0
31
0
39
0
210
0
220
0
230
1
0
LINE
5
84
100
AcDbEntity
8
SK4
62
256
6
ByLayer
370
18
48
0.05
60
0
100
AcDbLine
10
54
20
0
30
0
11
-45
21
0
31
0
39
0
210
0
220
0
230
1
0
LINE
5
86
100
AcDbEntity
8
4
62
256
6
ByLayer
370
18
48
0.05
60
0
100
AcDbLine
10
49
20
0
30
0
11
0
21
0
31
0
39
0
210
0
220
0
230
1
0
LINE
5
88
100
AcDbEntity
8
SK1
62
256
6
ByLayer
370
18
48
1
60
0
100
AcDbLine
10
-40
20
-2.5
30
0
11
-38.556624
21
-5
31
0
39
0
210
0
220
0
230
1
0
LINE
5
89
100
AcDbEntity
8
SK1
62
256
6
ByLayer
370
18
48
1
60
0
100
AcDbLine
10
-38.556624
20
5
30
0
11
-40
21
2.5
31
0
39
0
210
0
220
0
230
1
0
LINE
5
8A
100
AcDbEntity
8
SK1
62
256
6
ByLayer
370
18
48
1
60
0
100
AcDbLine
10
-38.556624
20
-5
30
0
11
0
21
-5
31
0
39
0
210
0
220
0
230
1
0
LINE
5
8B
100
AcDbEntity
8
SK1
62
256
6
ByLayer
370
18
48
1
60
0
100
AcDbLine
10
0
20
5
30
0
11
-38.556624
21
5
31
0
39
0
210
0
220
0
230
1
0
LINE
5
8C
100
AcDbEntity
8
1
62
256
6
ByLayer
370
18
48
1
60
0
100
AcDbLine
10
1.363555
20
-4.317295
30
0
11
5.18411
21
-4.324172
31
0
39
0
210
0
220
0
230
1
0
LINE
5
8D
100
AcDbEntity
8
1
62
256
6
ByLayer
370
18
48
1
60
0
100
AcDbLine
10
21.467503
20
-4.353483
30
0
11
22.39856
21
-4.355159
31
0
39
0
210
0
220
0
230
1
0
LINE
5
8E
100
AcDbEntity
8
1
62
256
6
ByLayer
370
18
48
1
60
0
100
AcDbLine
10
22.39856
20
4.355159
30
0
11
21.467503
21
4.353483
31
0
39
0
210
0
220
0
230
1
0
LINE
5
8F
100
AcDbEntity
8
1
62
256
6
ByLayer
370
18
48
1
60
0
100
AcDbLine
10
5.18411
20
4.324172
30
0
11
1.363555
21
4.317295
31
0
39
0
210
0
220
0
230
1
0
LINE
5
90
100
AcDbEntity
8
81
62
256
6
ByLayer
370
18
48
1
60
0
100
AcDbLine
10
49
20
0
30
0
11
54
21
0
31
0
39
0
210
0
220
0
230
1
0
LINE
5
91
100
AcDbEntity
8
SK2
62
256
6
ByLayer
370
13
48
1
60
0
100
AcDbLine
10
-48.625163
20
-5
30
0
11
-48.625163
21
35.857173
31
0
39
0
210
0
220
0
230
1
0
LINE
5
93
100
AcDbEntity
8
SK2
62
256
6
ByLayer
370
13
48
1
60
0
100
AcDbLine
10
-41.5875
20
5
30
0
11
-50.625163
21
5
31
0
39
0
210
0
220
0
230
1
0
LINE
5
94
100
AcDbEntity
8
SK2
62
256
6
ByLayer
370
13
48
1
60
0
100
AcDbLine
10
-41.5875
20
-5
30
0
11
-50.625163
21
-5
31
0
39
0
210
0
220
0
230
1
0
LINE
5
95
100
AcDbEntity
8
1
62
256
6
ByLayer
370
18
48
1
60
1
100
AcDbLine
10
-48.625163
20
5
30
0
11
-48.164379
21
1.500002
31
0
39
0
210
0
220
0
230
1
0
LINE
5
96
100
AcDbEntity
8
1
62
256
6
ByLayer
370
18
48
1
60
1
100
AcDbLine
10
-48.164379
20
1.500002
30
0
11
-49.085946
21
1.499998
31
0
39
0
210
0
220
0
230
1
0
LINE
5
97
100
AcDbEntity
8
1
62
256
6
ByLayer
370
18
48
1
60
1
100
AcDbLine
10
-49.085946
20
1.499998
30
0
11
-48.625163
21
5
31
0
39
0
210
0
220
0
230
1
0
LINE
5
98
100
AcDbEntity
8
1
62
256
6
ByLayer
370
18
48
1
60
1
100
AcDbLine
10
-48.625163
20
-5
30
0
11
-49.085946
21
-1.500002
31
0
39
0
210
0
220
0
230
1
0
LINE
5
99
100
AcDbEntity
8
1
62
256
6
ByLayer
370
18
48
1
60
1
100
AcDbLine
10
-49.085946
20
-1.500002
30
0
11
-48.164379
21
-1.499998
31
0
39
0
210
0
220
0
230
1
0
LINE
5
9A
100
AcDbEntity
8
1
62
256
6
ByLayer
370
18
48
1
60
1
100
AcDbLine
10
-48.164379
20
-1.499998
30
0
11
-48.625163
21
-5
31
0
39
0
210
0
220
0
230
1
0
LINE
5
9B
100
AcDbEntity
8
2
62
256
6
ByLayer
370
13
48
1
60
0
100
AcDbLine
10
61.083343
20
-4.4
30
0
11
61.083343
21
32.110193
31
0
39
0
210
0
220
0
230
1
0
LINE
5
9D
100
AcDbEntity
8
2
62
256
6
ByLayer
370
13
48
1
60
0
100
AcDbLine
10
48.898
20
4.4
30
0
11
63.083343
21
4.4
31
0
39
0
210
0
220
0
230
1
0
LINE
5
9E
100
AcDbEntity
8
2
62
256
6
ByLayer
370
13
48
1
60
0
100
AcDbLine
10
48.898
20
-4.4
30
0
11
63.083343
21
-4.4
31
0
39
0
210
0
220
0
230
1
0
LINE
5
9F
100
AcDbEntity
8
1
62
256
6
ByLayer
370
18
48
1
60
1
100
AcDbLine
10
61.083343
20
4.4
30
0
11
61.544126
21
0.900002
31
0
39
0
210
0
220
0
230
1
0
LINE
5
A0
100
AcDbEntity
8
1
62
256
6
ByLayer
370
18
48
1
60
1
100
AcDbLine
10
61.544126
20
0.900002
30
0
11
60.622559
21
0.899998
31
0
39
0
210
0
220
0
230
1
0
LINE
5
A1
100
AcDbEntity
8
1
62
256
6
ByLayer
370
18
48
1
60
1
100
AcDbLine
10
60.622559
20
0.899998
30
0
11
61.083343
21
4.4
31
0
39
0
210
0
220
0
230
1
0
LINE
5
A2
100
AcDbEntity
8
1
62
256
6
ByLayer
370
18
48
1
60
1
100
AcDbLine
10
61.083343
20
-4.4
30
0
11
60.622559
21
-0.900002
31
0
39
0
210
0
220
0
230
1
0
LINE
5
A3
100
AcDbEntity
8
1
62
256
6
ByLayer
370
18
48
1
60
1
100
AcDbLine
10
60.622559
20
-0.900002
30
0
11
61.544126
21
-0.899998
31
0
39
0
210
0
220
0
230
1
0
LINE
5
A4
100
AcDbEntity
8
1
62
256
6
ByLayer
370
18
48
1
60
1
100
AcDbLine
10
61.544126
20
-0.899998
30
0
11
61.083343
21
-4.4
31
0
39
0
210
0
220
0
230
1
0
LINE
5
EC
100
AcDbEntity
8
1
62
256
6
ByLayer
370
18
48
1
60
1
100
AcDbLine
10
-48.625163
20
5
30
0
11
-48.164379
21
1.500002
31
0
39
0
210
0
220
0
230
1
0
LINE
5
ED
100
AcDbEntity
8
1
62
256
6
ByLayer
370
18
48
1
60
1
100
AcDbLine
10
-48.164379
20
1.500002
30
0
11
-49.085946
21
1.499998
31
0
39
0
210
0
220
0
230
1
0
LINE
5
EE
100
AcDbEntity
8
1
62
256
6
ByLayer
370
18
48
1
60
1
100
AcDbLine
10
-49.085946
20
1.499998
30
0
11
-48.625163
21
5
31
0
39
0
210
0
220
0
230
1
0
LINE
5
F0
100
AcDbEntity
8
1
62
256
6
ByLayer
370
18
48
1
60
1
100
AcDbLine
10
-48.625163
20
-5
30
0
11
-49.085946
21
-1.500002
31
0
39
0
210
0
220
0
230
1
0
LINE
5
F1
100
AcDbEntity
8
1
62
256
6
ByLayer
370
18
48
1
60
1
100
AcDbLine
10
-49.085946
20
-1.500002
30
0
11
-48.164379
21
-1.499998
31
0
39
0
210
0
220
0
230
1
0
LINE
5
F2
100
AcDbEntity
8
1
62
256
6
ByLayer
370
18
48
1
60
1
100
AcDbLine
10
-48.164379
20
-1.499998
30
0
11
-48.625163
21
-5
31
0
39
0
210
0
220
0
230
1
0
LINE
5
F6
100
AcDbEntity
8
1
62
256
6
ByLayer
370
18
48
1
60
1
100
AcDbLine
10
61.083343
20
4.4
30
0
11
61.544126
21
0.900002
31
0
39
0
210
0
220
0
230
1
0
LINE
5
F7
100
AcDbEntity
8
1
62
256
6
ByLayer
370
18
48
1
60
1
100
AcDbLine
10
61.544126
20
0.900002
30
0
11
60.622559
21
0.899998
31
0
39
0
210
0
220
0
230
1
0
LINE
5
F8
100
AcDbEntity
8
1
62
256
6
ByLayer
370
18
48
1
60
1
100
AcDbLine
10
60.622559
20
0.899998
30
0
11
61.083343
21
4.4
31
0
39
0
210
0
220
0
230
1
0
LINE
5
FA
100
AcDbEntity
8
1
62
256
6
ByLayer
370
18
48
1
60
1
100
AcDbLine
10
61.083343
20
-4.4
30
0
11
60.622559
21
-0.900002
31
0
39
0
210
0
220
0
230
1
0
LINE
5
FB
100
AcDbEntity
8
1
62
256
6
ByLayer
370
18
48
1
60
1
100
AcDbLine
10
60.622559
20
-0.900002
30
0
11
61.544126
21
-0.899998
31
0
39
0
210
0
220
0
230
1
0
LINE
5
FC
100
AcDbEntity
8
1
62
256
6
ByLayer
370
18
48
1
60
1
100
AcDbLine
10
61.544126
20
-0.899998
30
0
11
61.083343
21
-4.4
31
0
39
0
210
0
220
0
230
1
0
MTEXT
5
E6
100
AcDbEntity
8
SK6
62
256
6
ByLayer
370
13
48
1
60
0
100
AcDbMText
10
-23.171593
20
36.940328
30
0
210
0
220
0
230
1
1
\W0.7280;860.1-0880-031A1-PM P1BM
40
3.5
41
0
44
1.084337
50
0
71
7
72
5
7
iso_b_vert
0
MTEXT
5
EA
100
AcDbEntity
8
SK2
62
256
6
ByLayer
370
18
48
1
60
0
100
AcDbMText
10
-50.189796
20
18.409024
30
0
210
0
220
0
230
1
1
%%c
40
3.5
41
0
44
1.084337
50
90
71
7
72
5
7
iso_b_vert
0
MTEXT
5
EB
100
AcDbEntity
8
SK2
62
256
6
ByLayer
370
18
48
1
60
0
100
AcDbMText
10
-50.189796
20
23.63168
30
0
210
0
220
0
230
1
1
\W0.6930;10,000
40
3.5
41
0
44
1.084337
50
90
71
7
72
5
7
iso_b_vert
0
MTEXT
5
F4
100
AcDbEntity
8
2
62
256
6
ByLayer
370
18
48
1
60
0
100
AcDbMText
10
59.518709
20
16.40211
30
0
210
0
220
0
230
1
1
%%c
40
3.5
41
0
44
1.084337
50
90
71
7
72
5
7
iso_b_vert
0
MTEXT
5
F5
100
AcDbEntity
8
2
62
256
6
ByLayer
370
18
48
1
60
0
100
AcDbMText
10
59.518709
20
21.624766
30
0
210
0
220
0
230
1
1
\W0.7317;8,800
40
3.5
41
0
44
1.084337
50
90
71
7
72
5
7
iso_b_vert
0
HATCH
5
EF
100
AcDbEntity
8
SK2
62
256
6
ByLayer
370
13
48
1
60
0
100
AcDbHatch
10
0
20
0
30
0
210
0
220
0
230
1
2
ANSI31
70
0
71
0
91
1
92
5
93
3
72
1
10
-48.6251625675374
20
5
11
-48.1643788259847
21
1.50000169255318
72
1
10
-48.1643788259847
20
1.50000169255318
11
-49.0859463090902
21
1.49999830744682
72
1
10
-49.0859463090902
20
1.49999830744682
11
-48.6251625675374
21
5
97
0
75
0
76
1
52
0
41
0.0062
77
0
78
1
53
45
43
0
44
0
45
-0.0139193969876572
46
0.0139193969876572
79
0
47
0
98
1
10
0
20
0
0
HATCH
5
F3
100
AcDbEntity
8
SK2
62
256
6
ByLayer
370
13
48
1
60
0
100
AcDbHatch
10
0
20
0
30
0
210
0
220
0
230
1
2
ANSI31
70
0
71
0
91
1
92
5
93
3
72
1
10
-48.6251625675374
20
-5
11
-49.0859463090902
21
-1.50000169255318
72
1
10
-49.0859463090902
20
-1.50000169255318
11
-48.1643788259847
21
-1.49999830744682
72
1
10
-48.1643788259847
20
-1.49999830744682
11
-48.6251625675374
21
-5
97
0
75
0
76
1
52
0
41
0.0062
77
0
78
1
53
45
43
0
44
0
45
-0.0139193969876572
46
0.0139193969876572
79
0
47
0
98
1
10
0
20
0
0
HATCH
5
F9
100
AcDbEntity
8
2
62
256
6
ByLayer
370
13
48
1
60
0
100
AcDbHatch
10
0
20
0
30
0
210
0
220
0
230
1
2
ANSI31
70
0
71
0
91
1
92
5
93
3
72
1
10
61.083342615295
20
4.40000000000001
11
61.5441263568478
21
0.90000169255319
72
1
10
61.5441263568478
20
0.90000169255319
11
60.6225588737423
21
0.899998307446822
72
1
10
60.6225588737423
20
0.899998307446822
11
61.083342615295
21
4.40000000000001
97
0
75
0
76
1
52
0
41
0.0062
77
0
78
1
53
45
43
0
44
0
45
-0.0139193969876572
46
0.0139193969876572
79
0
47
0
98
1
10
0
20
0
0
HATCH
5
FD
100
AcDbEntity
8
2
62
256
6
ByLayer
370
13
48
1
60
0
100
AcDbHatch
10
0
20
0
30
0
210
0
220
0
230
1
2
ANSI31
70
0
71
0
91
1
92
5
93
3
72
1
10
61.083342615295
20
-4.40000000000001
11
60.6225588737423
21
-0.90000169255319
72
1
10
60.6225588737423
20
-0.90000169255319
11
61.5441263568478
21
-0.899998307446822
72
1
10
61.5441263568478
20
-0.899998307446822
11
61.083342615295
21
-4.40000000000001
97
0
75
0
76
1
52
0
41
0.0062
77
0
78
1
53
45
43
0
44
0
45
-0.0139193969876572
46
0.0139193969876572
79
0
47
0
98
1
10
0
20
0
0
DIMENSION
5
FF
100
AcDbEntity
8
2
62
256
6
ByLayer
370
13
48
1
60
0
100
AcDbDimension
2
_U0
10
47.3105
20
-14.613398
30
0
11
23.65525
21
-14.613398
31
0
70
32
71
1
72
1
41
1
210
0
220
0
230
1
3
Standard
100
AcDbAlignedDimension
13
0
23
0
33
0
14
47.3105
24
-4.4
34
0
50
0
100
AcDbRotatedDimension
1001
ACAD
1000
DSTYLE
1002
{
1070
   371
1070
    13
1070
   372
1070
    13
1070
   170
1070
     0
1070
   144
1040
1.0
1070
   277
1070
     2
1070
   278
1070
    44
1070
   146
1040
1.0
1070
   345
1005
16
1070
   347
1005
16
1070
   346
1005
16
1070
   344
1005
0
1070
   343
1005
0
1070
   172
1070
     1
1070
    76
1070
     0
1070
    75
1070
     0
1070
   282
1070
     0
1070
   281
1070
     0
1070
    71
1070
     0
1070
    74
1070
     0
1070
   279
1070
     0
1070
   173
1070
     1
1070
   340
1005
E7
1070
   271
1070
     2
1070
   272
1070
     2
1070
    77
1070
     1
1070
    73
1070
     1
1070
   171
1070
     3
1070
   274
1070
     4
1070
   177
1070
    35
1070
   176
1070
    35
1070
   178
1070
    35
1070
    48
1040
-0.1
1070
    41
1040
3.5
1070
   147
1040
1.75
1070
    42
1040
1.5875
1070
    44
1040
2.0
1070
   140
1040
3.5
1002
}
1001
ACAD_DSTYLE_DIM_LINETYPE
1070
   380
1005
16
1001
ACAD_DSTYLE_DIM_EXT1_LINETYPE
1070
   381
1005
16
1001
ACAD_DSTYLE_DIM_EXT2_LINETYPE
1070
   382
1005
16
0
DIMENSION
5
118
100
AcDbEntity
8
SK2
62
256
6
ByLayer
370
13
48
1
60
0
100
AcDbDimension
2
_U1
10
49
20
-33.692985
30
0
11
4.5
21
-33.692985
31
0
70
32
71
1
72
1
41
1
210
0
220
0
230
1
3
Standard
100
AcDbAlignedDimension
13
-40
23
-5
33
0
14
49
24
0
34
0
50
0
100
AcDbRotatedDimension
1001
ACAD
1000
DSTYLE
1002
{
1070
   371
1070
    13
1070
   372
1070
    13
1070
   170
1070
     0
1070
   144
1040
1.0
1070
   277
1070
     2
1070
   278
1070
    44
1070
   146
1040
1.0
1070
   345
1005
16
1070
   347
1005
16
1070
   346
1005
16
1070
   344
1005
0
1070
   343
1005
0
1070
   172
1070
     1
1070
    76
1070
     0
1070
    75
1070
     0
1070
   282
1070
     0
1070
   281
1070
     0
1070
    71
1070
     0
1070
    74
1070
     0
1070
   279
1070
     0
1070
   173
1070
     1
1070
   340
1005
E7
1070
   271
1070
     2
1070
   272
1070
     2
1070
    77
1070
     1
1070
    73
1070
     1
1070
   171
1070
     3
1070
   274
1070
     4
1070
   177
1070
    35
1070
   176
1070
    35
1070
   178
1070
    35
1070
    48
1040
-0.1
1070
    41
1040
3.5
1070
   147
1040
1.75
1070
    42
1040
1.5875
1070
    44
1040
2.0
1070
   140
1040
3.5
1002
}
1001
ACAD_DSTYLE_DIM_LINETYPE
1070
   380
1005
16
1001
ACAD_DSTYLE_DIM_EXT1_LINETYPE
1070
   381
1005
16
1001
ACAD_DSTYLE_DIM_EXT2_LINETYPE
1070
   382
1005
16
0
DIMENSION
5
130
100
AcDbEntity
8
SK2
62
256
6
ByLayer
370
13
48
1
60
0
100
AcDbDimension
2
_U2
10
49
20
16.009119
30
0
11
34.955
21
16.009119
31
0
70
32
71
1
72
1
41
1
210
0
220
0
230
1
3
Standard
100
AcDbAlignedDimension
13
20.91
23
4.4
33
0
14
49
24
0
34
0
50
0
100
AcDbRotatedDimension
1001
ACAD
1000
DSTYLE
1002
{
1070
   371
1070
    13
1070
   372
1070
    13
1070
   170
1070
     0
1070
   144
1040
1.0
1070
   277
1070
     2
1070
   278
1070
    44
1070
   146
1040
1.0
1070
   345
1005
16
1070
   347
1005
16
1070
   346
1005
16
1070
   344
1005
0
1070
   343
1005
0
1070
   172
1070
     1
1070
    76
1070
     0
1070
    75
1070
     0
1070
   282
1070
     0
1070
   281
1070
     0
1070
    71
1070
     0
1070
    74
1070
     0
1070
   279
1070
     0
1070
   173
1070
     1
1070
   340
1005
E7
1070
   271
1070
     2
1070
   272
1070
     2
1070
    77
1070
     1
1070
    73
1070
     1
1070
   171
1070
     3
1070
   274
1070
     4
1070
   177
1070
    35
1070
   176
1070
    35
1070
   178
1070
    35
1070
    48
1040
-0.1
1070
    41
1040
3.5
1070
   147
1040
1.75
1070
    42
1040
1.5875
1070
    44
1040
2.0
1070
   140
1040
3.5
1002
}
1001
ACAD_DSTYLE_DIM_LINETYPE
1070
   380
1005
16
1001
ACAD_DSTYLE_DIM_EXT1_LINETYPE
1070
   381
1005
16
1001
ACAD_DSTYLE_DIM_EXT2_LINETYPE
1070
   382
1005
16
0
DIMENSION
5
148
100
AcDbEntity
8
SK2
62
256
6
ByLayer
370
13
48
1
60
0
100
AcDbDimension
2
_U3
10
47.3105
20
-17.202503
30
0
11
66.25
21
-17.202503
31
0
70
32
71
1
72
1
41
1
210
0
220
0
230
1
3
Standard
100
AcDbAlignedDimension
13
49
23
0
33
0
14
47.3105
24
-4.4
34
0
50
0
100
AcDbRotatedDimension
1001
ACAD
1000
DSTYLE
1002
{
1070
   371
1070
    13
1070
   372
1070
    13
1070
   170
1070
     0
1070
   144
1040
1.0
1070
   277
1070
     2
1070
   278
1070
    44
1070
   146
1040
1.0
1070
   345
1005
16
1070
   347
1005
16
1070
   346
1005
16
1070
   344
1005
0
1070
   343
1005
0
1070
   172
1070
     1
1070
    76
1070
     0
1070
    75
1070
     0
1070
   282
1070
     0
1070
   281
1070
     0
1070
    71
1070
     0
1070
    74
1070
     0
1070
   279
1070
     0
1070
   173
1070
     1
1070
   340
1005
E7
1070
   271
1070
     2
1070
   272
1070
     2
1070
    77
1070
     1
1070
    73
1070
     1
1070
   171
1070
     3
1070
   274
1070
     4
1070
   177
1070
    35
1070
   176
1070
    35
1070
   178
1070
    35
1070
    48
1040
-0.1
1070
    41
1040
3.5
1070
   147
1040
1.75
1070
    42
1040
1.5875
1070
    44
1040
2.0
1070
   140
1040
3.5
1002
}
1001
ACAD_DSTYLE_DIM_LINETYPE
1070
   380
1005
16
1001
ACAD_DSTYLE_DIM_EXT1_LINETYPE
1070
   381
1005
16
1001
ACAD_DSTYLE_DIM_EXT2_LINETYPE
1070
   382
1005
16
0
DIMENSION
5
162
100
AcDbEntity
8
SK2
62
256
6
ByLayer
370
13
48
1
60
0
100
AcDbDimension
2
_U4
10
47.3105
20
-23.343428
30
0
11
3.65525
21
-23.343428
31
0
70
32
71
1
72
1
41
1
210
0
220
0
230
1
3
Standard
100
AcDbAlignedDimension
13
-40
23
-5
33
0
14
47.3105
24
-4.4
34
0
50
0
100
AcDbRotatedDimension
1001
ACAD
1000
DSTYLE
1002
{
1070
   371
1070
    13
1070
   372
1070
    13
1070
   170
1070
     0
1070
   144
1040
1.0
1070
   277
1070
     2
1070
   278
1070
    44
1070
   146
1040
1.0
1070
   345
1005
16
1070
   347
1005
16
1070
   346
1005
16
1070
   344
1005
0
1070
   343
1005
0
1070
   172
1070
     1
1070
    76
1070
     0
1070
    75
1070
     0
1070
   282
1070
     0
1070
   281
1070
     0
1070
    71
1070
     0
1070
    74
1070
     0
1070
   279
1070
     0
1070
   173
1070
     1
1070
   340
1005
E7
1070
   271
1070
     2
1070
   272
1070
     2
1070
    77
1070
     1
1070
    73
1070
     1
1070
   171
1070
     3
1070
   274
1070
     4
1070
   177
1070
    35
1070
   176
1070
    35
1070
   178
1070
    35
1070
    48
1040
-0.1
1070
    41
1040
3.5
1070
   147
1040
1.75
1070
    42
1040
1.5875
1070
    44
1040
2.0
1070
   140
1040
3.5
1002
}
1001
ACAD_DSTYLE_DIM_LINETYPE
1070
   380
1005
16
1001
ACAD_DSTYLE_DIM_EXT1_LINETYPE
1070
   381
1005
16
1001
ACAD_DSTYLE_DIM_EXT2_LINETYPE
1070
   382
1005
16
0
ENDSEC
0
SECTION
2
OBJECTS
0
DICTIONARY
5
1ea
330
0
100
AcDbDictionary
280
0
281
1
3
ACAD_GROUP
350
1eb
3
ACAD_MLINESTYLE
350
1ec
0
DICTIONARY
5
1eb
330
0
100
AcDbDictionary
280
0
281
1
0
DICTIONARY
5
1ec
330
0
100
AcDbDictionary
280
0
281
1
3
Standard
350
18
0
MLINESTYLE
5
18
330
1ec
100
AcDbMlineStyle
2
Standard
70
0
3

62
256
51
90
52
90
71
2
49
-0.5
62
256
6
ByLayer
49
0.5
62
256
6
ByLayer
0
RASTERVARIABLES
5
1d8
330

100
AcDbRasterVariables
90
0
70
1
71
1
72
1
0
ENDSEC
0
EOF
