0
SECTION
2
HEADER
9
$ACADVER
1
AC1015
9
$DWGCODEPAGE
3
ANSI_1252
9
$HANDSEED
5
1fa
9
$ANGBASE
50
0
9
$ANGDIR
70
0
9
$ATTMODE
70
1
9
$AUNITS
70
0
9
$AUPREC
70
0
9
$CECOLOR
62
256
9
$CELTSCALE
40
1
9
$CELTYPE
6
ByLayer
9
$CELWEIGHT
370
18
9
$CLAYER
8
0
9
$CMLJUST
70
0
9
$CMLSCALE
40
1
9
$CMLSTYLE
2
Standard
9
$DIMSTYLE
2
Standard
9
$TEXTSIZE
40
0.2
9
$TEXTSTYLE
7
Standard
9
$LUNITS
70
2
9
$LUPREC
70
4
9
$EXTNAMES
290
1
9
$INSUNITS
70
4
9
$LTSCALE
40
1
9
$LWDISPLAY
290
1
9
$PDMODE
70
0
9
$PDSIZE
40
0
9
$PLINEGEN
70
0
0
ENDSEC
0
SECTION
2
CLASSES
0
CLASS
1
RASTERVARIABLES
2
AcDbRasterVariables
3
ISM
90
0
280
0
281
0
0
ENDSEC
0
SECTION
2
TABLES
0
TABLE
2
VPORT
5
1f0
100
AcDbSymbolTable
0
VPORT
5
1
100
AcDbSymbolTableRecord
100
AcDbViewportTableRecord
2
*Active
70
0
10
0
20
0
11
1
21
1
12
-1
22
1
13
0
23
0
14
0.5
24
0.5
15
10
25
10
16
0
26
0
36
1
17
0
27
0
37
0
0
ENDTAB
0
TABLE
2
LTYPE
5
1f1
100
AcDbSymbolTable
0
LTYPE
5
14
100
AcDbSymbolTableRecord
100
AcDbLinetypeTableRecord
70
0
2
ByBlock
3

72
65
73
0
40
0
0
LTYPE
5
15
100
AcDbSymbolTableRecord
100
AcDbLinetypeTableRecord
70
0
2
ByLayer
3

72
65
73
0
40
0
0
LTYPE
5
16
100
AcDbSymbolTableRecord
100
AcDbLinetypeTableRecord
70
0
2
Continuous
3
Solid line
72
65
73
0
40
0
0
LTYPE
5
6E
100
AcDbSymbolTableRecord
100
AcDbLinetypeTableRecord
70
0
2
CENTER
3
____ _ ____ _ ____ _ ____
72
65
73
4
40
47.5
49
22
74
0
49
-8.5
74
0
49
8.5
74
0
49
-8.5
74
0
0
LTYPE
5
6F
100
AcDbSymbolTableRecord
100
AcDbLinetypeTableRecord
70
0
2
DASHED
3
__ __ __ __ __ __ __ __ __
72
65
73
2
40
25.72
49
12.86
74
0
49
-12.86
74
0
0
ENDTAB
0
TABLE
2
LAYER
5
1f2
100
AcDbSymbolTable
0
LAYER
5
10
100
AcDbSymbolTableRecord
100
AcDbLayerTableRecord
2
0
70
0
62
7
6
Continuous
290
1
370
-3
390
0
0
LAYER
5
71
100
AcDbSymbolTableRecord
100
AcDbLayerTableRecord
2
80
70
0
62
-6
6
Continuous
290
1
370
-3
390
0
0
LAYER
5
73
100
AcDbSymbolTableRecord
100
AcDbLayerTableRecord
2
81
70
0
62
-3
6
Continuous
290
1
370
-3
390
0
0
LAYER
5
75
100
AcDbSymbolTableRecord
100
AcDbLayerTableRecord
2
1
70
0
62
4
6
Continuous
290
1
370
-3
390
0
0
LAYER
5
86
100
AcDbSymbolTableRecord
100
AcDbLayerTableRecord
2
4
70
0
62
-2
6
CENTER
290
1
370
-3
390
0
0
LAYER
5
9D
100
AcDbSymbolTableRecord
100
AcDbLayerTableRecord
2
2
70
0
62
7
6
Continuous
290
1
370
-3
390
0
0
LAYER
5
105
100
AcDbSymbolTableRecord
100
AcDbLayerTableRecord
2
Defpoints
70
0
62
7
6
Continuous
290
0
370
-3
390
0
0
LAYER
5
1dc
100
AcDbSymbolTableRecord
100
AcDbLayerTableRecord
2
SK1
70
0
62
4
6
Continuous
290
1
370
-3
390
0
0
LAYER
5
1dd
100
AcDbSymbolTableRecord
100
AcDbLayerTableRecord
2
SK4
70
0
62
2
6
CENTER
290
1
370
-3
390
0
0
LAYER
5
1de
100
AcDbSymbolTableRecord
100
AcDbLayerTableRecord
2
SK2
70
0
62
7
6
Continuous
290
1
370
-3
390
0
0
LAYER
5
1df
100
AcDbSymbolTableRecord
100
AcDbLayerTableRecord
2
SK6
70
0
62
5
6
Continuous
290
1
370
-3
390
0
0
ENDTAB
0
TABLE
2
STYLE
5
1f3
100
AcDbSymbolTable
0
STYLE
5
11
100
AcDbSymbolTableRecord
100
AcDbTextStyleTableRecord
2
Standard
3
txt
70
0
71
0
40
0
41
1
42
0
50
0
0
STYLE
5
EA
100
AcDbSymbolTableRecord
100
AcDbTextStyleTableRecord
2
iso_b_vert
3
simplex.shx
70
0
71
0
40
0
41
1
42
0
50
0
0
STYLE
5
EB
100
AcDbSymbolTableRecord
100
AcDbTextStyleTableRecord
2
DWGDirectTextStyle
3
simplex
70
0
71
0
40
0
41
1
42
0
50
0
0
ENDTAB
0
TABLE
2
DIMSTYLE
5
1f4
100
AcDbSymbolTable
100
AcDbDimStyleTable
0
DIMSTYLE
105
27
100
AcDbSymbolTableRecord
100
AcDbDimStyleTableRecord
2
Standard
70
0
3
<>
41
0.18
42
0.0625
44
0.18
140
0.18
147
0.09
73
0
74
0
77
1
271
2
275
0
278
52
280
0
340
11
0
ENDTAB
0
TABLE
2
VIEW
5
1f5
100
AcDbSymbolTable
0
ENDTAB
0
TABLE
2
UCS
5
1f6
100
AcDbSymbolTable
0
ENDTAB
0
TABLE
2
APPID
5
1f7
100
AcDbSymbolTable
0
APPID
5
12
100
AcDbSymbolTableRecord
100
AcDbRegAppTableRecord
2
ACAD
70
0
0
APPID
5
101
100
AcDbSymbolTableRecord
100
AcDbRegAppTableRecord
2
ACAD_DSTYLE_DIMBREAK
70
0
0
APPID
5
19B
100
AcDbSymbolTableRecord
100
AcDbRegAppTableRecord
2
ACAD_DSTYLE_DIM_LINETYPE
70
0
0
APPID
5
19C
100
AcDbSymbolTableRecord
100
AcDbRegAppTableRecord
2
ACAD_DSTYLE_DIM_EXT1_LINETYPE
70
0
0
APPID
5
19D
100
AcDbSymbolTableRecord
100
AcDbRegAppTableRecord
2
ACAD_DSTYLE_DIM_EXT2_LINETYPE
70
0
0
APPID
5
1D8
100
AcDbSymbolTableRecord
100
AcDbRegAppTableRecord
2
ACAD_MLEADERVER
70
0
0
ENDTAB
0
TABLE
2
BLOCK_RECORD
5
1f8
100
AcDbSymbolTable
0
BLOCK_RECORD
5
1F
100
AcDbSymbolTableRecord
100
AcDbBlockTableRecord
2
*Model_Space
340
0
70
0
0
BLOCK_RECORD
5
1B
100
AcDbSymbolTableRecord
100
AcDbBlockTableRecord
2
*Paper_Space
340
0
70
0
0
BLOCK_RECORD
5
23
100
AcDbSymbolTableRecord
100
AcDbBlockTableRecord
2
*Paper_Space0
340
0
70
0
0
BLOCK_RECORD
5
106
100
AcDbSymbolTableRecord
100
AcDbBlockTableRecord
2
*D1
340
0
70
0
0
BLOCK_RECORD
5
112
100
AcDbSymbolTableRecord
100
AcDbBlockTableRecord
2
_U0
340
0
70
0
0
BLOCK_RECORD
5
11E
100
AcDbSymbolTableRecord
100
AcDbBlockTableRecord
2
*D3
340
0
70
0
0
BLOCK_RECORD
5
12A
100
AcDbSymbolTableRecord
100
AcDbBlockTableRecord
2
_U1
340
0
70
0
0
BLOCK_RECORD
5
136
100
AcDbSymbolTableRecord
100
AcDbBlockTableRecord
2
*D5
340
0
70
0
0
BLOCK_RECORD
5
142
100
AcDbSymbolTableRecord
100
AcDbBlockTableRecord
2
_U2
340
0
70
0
0
BLOCK_RECORD
5
14E
100
AcDbSymbolTableRecord
100
AcDbBlockTableRecord
2
*D7
340
0
70
0
0
BLOCK_RECORD
5
15C
100
AcDbSymbolTableRecord
100
AcDbBlockTableRecord
2
_U3
340
0
70
0
0
BLOCK_RECORD
5
168
100
AcDbSymbolTableRecord
100
AcDbBlockTableRecord
2
*D9
340
0
70
0
0
BLOCK_RECORD
5
174
100
AcDbSymbolTableRecord
100
AcDbBlockTableRecord
2
_U4
340
0
70
0
0
ENDTAB
0
ENDSEC
0
SECTION
2
BLOCKS
0
BLOCK
5
20
100
AcDbEntity
8
0
100
AcDbBlockBegin
2
*Model_Space
70
0
10
0
20
0
30
0
3
*Model_Space
0
ENDBLK
5
21
100
AcDbEntity
8
0
100
AcDbBlockEnd
0
BLOCK
5
1C
100
AcDbEntity
8
0
100
AcDbBlockBegin
2
*Paper_Space
70
0
10
0
20
0
30
0
3
*Paper_Space
0
ENDBLK
5
1D
100
AcDbEntity
8
0
100
AcDbBlockEnd
0
BLOCK
5
24
100
AcDbEntity
8
0
100
AcDbBlockBegin
2
*Paper_Space0
70
0
10
0
20
0
30
0
3
*Paper_Space0
0
ENDBLK
5
25
100
AcDbEntity
8
0
100
AcDbBlockEnd
0
BLOCK
5
107
100
AcDbEntity
8
0
100
AcDbBlockBegin
2
*D1
70
1
10
0
20
0
30
0
3
*D1
0
LINE
5
109
100
AcDbEntity
8
0
62
256
6
ByLayer
370
-2
48
1
60
0
100
AcDbLine
10
0
20
-1.5875
30
0
11
0
21
-15.783398
31
0
39
0
210
0
220
0
230
1
0
LINE
5
10A
100
AcDbEntity
8
0
62
256
6
ByLayer
370
-2
48
1
60
0
100
AcDbLine
10
41.6345
20
-5.1575
30
0
11
41.6345
21
-15.783398
31
0
39
0
210
0
220
0
230
1
0
LINE
5
10B
100
AcDbEntity
8
0
62
256
6
ByLayer
370
-2
48
1
60
0
100
AcDbLine
10
3.5
20
-13.783398
30
0
11
38.1345
21
-13.783398
31
0
39
0
210
0
220
0
230
1
0
SOLID
5
10C
100
AcDbEntity
8
0
62
256
6
ByLayer
370
-1
48
1
60
0
100
AcDbTrace
10
3.5
20
-13.200065
30
0
11
3.5
21
-14.366732
31
0
12
0
22
-13.783398
32
0
13
0
23
-13.783398
33
0
39
0
210
0
220
0
230
1
0
SOLID
5
10D
100
AcDbEntity
8
0
62
256
6
ByLayer
370
-1
48
1
60
0
100
AcDbTrace
10
38.1345
20
-14.366732
30
0
11
38.1345
21
-13.200065
31
0
12
41.6345
22
-13.783398
32
0
13
41.6345
23
-13.783398
33
0
39
0
210
0
220
0
230
1
0
MTEXT
5
10E
100
AcDbEntity
8
0
62
256
6
ByLayer
370
18
48
1
60
0
100
AcDbMText
10
20.81725
20
-6.783398
30
0
210
0
220
0
230
1
1
\A1;41.63
40
3.5
41
0
44
1
50
0
71
5
72
5
7
iso_b_vert
0
POINT
5
10F
100
AcDbEntity
8
Defpoints
62
0
6
ByLayer
370
-1
48
1
60
0
100
AcDbPoint
10
0
20
0
30
0
39
0
210
0
220
0
230
1
50
360
0
POINT
5
110
100
AcDbEntity
8
Defpoints
62
0
6
ByLayer
370
-1
48
1
60
0
100
AcDbPoint
10
41.6345
20
-3.57
30
0
39
0
210
0
220
0
230
1
50
360
0
POINT
5
111
100
AcDbEntity
8
Defpoints
62
0
6
ByLayer
370
-1
48
1
60
0
100
AcDbPoint
10
41.6345
20
-13.783398
30
0
39
0
210
0
220
0
230
1
50
360
0
ENDBLK
5
108
100
AcDbEntity
8
0
100
AcDbBlockEnd
0
BLOCK
5
119
100
AcDbEntity
8
0
100
AcDbBlockBegin
2
_U0
70
0
10
0
20
0
30
0
3
_U0
0
MTEXT
5
113
100
AcDbEntity
8
2
62
256
6
ByLayer
370
13
48
1
60
0
100
AcDbMText
10
15.933118
20
-12.750765
30
0
210
0
220
0
230
1
1
\W0.6977;41,63
40
3.5
41
0
44
1.084337
50
0
71
7
72
5
7
iso_b_vert
0
LINE
5
114
100
AcDbEntity
8
2
62
256
6
ByLayer
370
13
48
1
60
0
100
AcDbLine
10
0
20
-1.5875
30
0
11
0
21
-15.783398
31
0
39
0
210
0
220
0
230
1
0
LINE
5
115
100
AcDbEntity
8
2
62
256
6
ByLayer
370
13
48
1
60
0
100
AcDbLine
10
41.6345
20
-5.1575
30
0
11
41.6345
21
-15.783398
31
0
39
0
210
0
220
0
230
1
0
LINE
5
116
100
AcDbEntity
8
2
62
256
6
ByLayer
370
13
48
1
60
0
100
AcDbLine
10
0
20
-13.783398
30
0
11
41.6345
21
-13.783398
31
0
39
0
210
0
220
0
230
1
0
SOLID
5
117
100
AcDbEntity
8
2
62
256
6
ByLayer
370
18
48
1
60
0
100
AcDbTrace
10
0
20
-13.783398
30
0
11
3.499998
21
-13.322615
31
0
12
3.500002
22
-14.244182
32
0
13
3.500002
23
-14.244182
33
0
39
0
210
0
220
0
230
1
0
SOLID
5
118
100
AcDbEntity
8
2
62
256
6
ByLayer
370
18
48
1
60
0
100
AcDbTrace
10
41.6345
20
-13.783398
30
0
11
38.134502
21
-14.244182
31
0
12
38.134498
22
-13.322615
32
0
13
38.134498
23
-13.322615
33
0
39
0
210
0
220
0
230
1
0
ENDBLK
5
11A
100
AcDbEntity
8
0
100
AcDbBlockEnd
0
BLOCK
5
11F
100
AcDbEntity
8
0
100
AcDbBlockBegin
2
*D3
70
1
10
0
20
0
30
0
3
*D3
0
LINE
5
121
100
AcDbEntity
8
0
62
256
6
ByLayer
370
-2
48
1
60
0
100
AcDbLine
10
-36
20
-5.5875
30
0
11
-36
21
-34.692985
31
0
39
0
210
0
220
0
230
1
0
LINE
5
122
100
AcDbEntity
8
0
62
256
6
ByLayer
370
-2
48
1
60
0
100
AcDbLine
10
43
20
-1.5875
30
0
11
43
21
-34.692985
31
0
39
0
210
0
220
0
230
1
0
LINE
5
123
100
AcDbEntity
8
0
62
256
6
ByLayer
370
-2
48
1
60
0
100
AcDbLine
10
-32.5
20
-32.692985
30
0
11
39.5
21
-32.692985
31
0
39
0
210
0
220
0
230
1
0
SOLID
5
124
100
AcDbEntity
8
0
62
256
6
ByLayer
370
-1
48
1
60
0
100
AcDbTrace
10
-32.5
20
-32.109652
30
0
11
-32.5
21
-33.276319
31
0
12
-36
22
-32.692985
32
0
13
-36
23
-32.692985
33
0
39
0
210
0
220
0
230
1
0
SOLID
5
125
100
AcDbEntity
8
0
62
256
6
ByLayer
370
-1
48
1
60
0
100
AcDbTrace
10
39.5
20
-33.276319
30
0
11
39.5
21
-32.109652
31
0
12
43
22
-32.692985
32
0
13
43
23
-32.692985
33
0
39
0
210
0
220
0
230
1
0
MTEXT
5
126
100
AcDbEntity
8
0
62
256
6
ByLayer
370
18
48
1
60
0
100
AcDbMText
10
3.5
20
-25.692985
30
0
210
0
220
0
230
1
1
\A1;79.00
40
3.5
41
0
44
1
50
0
71
5
72
5
7
iso_b_vert
0
POINT
5
127
100
AcDbEntity
8
Defpoints
62
0
6
ByLayer
370
-1
48
1
60
0
100
AcDbPoint
10
-36
20
-4
30
0
39
0
210
0
220
0
230
1
50
360
0
POINT
5
128
100
AcDbEntity
8
Defpoints
62
0
6
ByLayer
370
-1
48
1
60
0
100
AcDbPoint
10
43
20
0
30
0
39
0
210
0
220
0
230
1
50
360
0
POINT
5
129
100
AcDbEntity
8
Defpoints
62
0
6
ByLayer
370
-1
48
1
60
0
100
AcDbPoint
10
43
20
-32.692985
30
0
39
0
210
0
220
0
230
1
50
360
0
ENDBLK
5
120
100
AcDbEntity
8
0
100
AcDbBlockEnd
0
BLOCK
5
131
100
AcDbEntity
8
0
100
AcDbBlockBegin
2
_U1
70
0
10
0
20
0
30
0
3
_U1
0
MTEXT
5
12B
100
AcDbEntity
8
SK2
62
256
6
ByLayer
370
13
48
1
60
0
100
AcDbMText
10
-1.637299
20
-31.660352
30
0
210
0
220
0
230
1
1
\W0.7317;79,00
40
3.5
41
0
44
1.084337
50
0
71
7
72
5
7
iso_b_vert
0
LINE
5
12C
100
AcDbEntity
8
SK2
62
256
6
ByLayer
370
13
48
1
60
0
100
AcDbLine
10
-36
20
-5.5875
30
0
11
-36
21
-34.692985
31
0
39
0
210
0
220
0
230
1
0
LINE
5
12D
100
AcDbEntity
8
SK2
62
256
6
ByLayer
370
13
48
1
60
0
100
AcDbLine
10
43
20
-1.5875
30
0
11
43
21
-34.692985
31
0
39
0
210
0
220
0
230
1
0
LINE
5
12E
100
AcDbEntity
8
SK2
62
256
6
ByLayer
370
13
48
1
60
0
100
AcDbLine
10
-36
20
-32.692985
30
0
11
43
21
-32.692985
31
0
39
0
210
0
220
0
230
1
0
SOLID
5
12F
100
AcDbEntity
8
SK2
62
256
6
ByLayer
370
18
48
1
60
0
100
AcDbTrace
10
-36
20
-32.692985
30
0
11
-32.500002
21
-32.232202
31
0
12
-32.499998
22
-33.153769
32
0
13
-32.499998
23
-33.153769
33
0
39
0
210
0
220
0
230
1
0
SOLID
5
130
100
AcDbEntity
8
SK2
62
256
6
ByLayer
370
18
48
1
60
0
100
AcDbTrace
10
43
20
-32.692985
30
0
11
39.500002
21
-33.153769
31
0
12
39.499998
22
-32.232202
32
0
13
39.499998
23
-32.232202
33
0
39
0
210
0
220
0
230
1
0
ENDBLK
5
132
100
AcDbEntity
8
0
100
AcDbBlockEnd
0
BLOCK
5
137
100
AcDbEntity
8
0
100
AcDbBlockBegin
2
*D5
70
1
10
0
20
0
30
0
3
*D5
0
LINE
5
139
100
AcDbEntity
8
0
62
256
6
ByLayer
370
-2
48
1
60
0
100
AcDbLine
10
20.21
20
5.1575
30
0
11
20.21
21
17.179119
31
0
39
0
210
0
220
0
230
1
0
LINE
5
13A
100
AcDbEntity
8
0
62
256
6
ByLayer
370
-2
48
1
60
0
100
AcDbLine
10
43
20
1.5875
30
0
11
43
21
17.179119
31
0
39
0
210
0
220
0
230
1
0
LINE
5
13B
100
AcDbEntity
8
0
62
256
6
ByLayer
370
-2
48
1
60
0
100
AcDbLine
10
23.71
20
15.179119
30
0
11
39.5
21
15.179119
31
0
39
0
210
0
220
0
230
1
0
SOLID
5
13C
100
AcDbEntity
8
0
62
256
6
ByLayer
370
-1
48
1
60
0
100
AcDbTrace
10
23.71
20
15.762453
30
0
11
23.71
21
14.595786
31
0
12
20.21
22
15.179119
32
0
13
20.21
23
15.179119
33
0
39
0
210
0
220
0
230
1
0
SOLID
5
13D
100
AcDbEntity
8
0
62
256
6
ByLayer
370
-1
48
1
60
0
100
AcDbTrace
10
39.5
20
14.595786
30
0
11
39.5
21
15.762453
31
0
12
43
22
15.179119
32
0
13
43
23
15.179119
33
0
39
0
210
0
220
0
230
1
0
MTEXT
5
13E
100
AcDbEntity
8
0
62
256
6
ByLayer
370
18
48
1
60
0
100
AcDbMText
10
31.605
20
22.179119
30
0
210
0
220
0
230
1
1
\A1;22.79
40
3.5
41
0
44
1
50
0
71
5
72
5
7
iso_b_vert
0
POINT
5
13F
100
AcDbEntity
8
Defpoints
62
0
6
ByLayer
370
-1
48
1
60
0
100
AcDbPoint
10
20.21
20
3.57
30
0
39
0
210
0
220
0
230
1
50
360
0
POINT
5
140
100
AcDbEntity
8
Defpoints
62
0
6
ByLayer
370
-1
48
1
60
0
100
AcDbPoint
10
43
20
0
30
0
39
0
210
0
220
0
230
1
50
360
0
POINT
5
141
100
AcDbEntity
8
Defpoints
62
0
6
ByLayer
370
-1
48
1
60
0
100
AcDbPoint
10
43
20
15.179119
30
0
39
0
210
0
220
0
230
1
50
360
0
ENDBLK
5
138
100
AcDbEntity
8
0
100
AcDbBlockEnd
0
BLOCK
5
149
100
AcDbEntity
8
0
100
AcDbBlockBegin
2
_U2
70
0
10
0
20
0
30
0
3
_U2
0
MTEXT
5
143
100
AcDbEntity
8
SK2
62
256
6
ByLayer
370
13
48
1
60
0
100
AcDbMText
10
26.467701
20
16.211753
30
0
210
0
220
0
230
1
1
\W0.7402;22,79
40
3.5
41
0
44
1.084337
50
0
71
7
72
5
7
iso_b_vert
0
LINE
5
144
100
AcDbEntity
8
SK2
62
256
6
ByLayer
370
13
48
1
60
0
100
AcDbLine
10
20.21
20
5.1575
30
0
11
20.21
21
17.179119
31
0
39
0
210
0
220
0
230
1
0
LINE
5
145
100
AcDbEntity
8
SK2
62
256
6
ByLayer
370
13
48
1
60
0
100
AcDbLine
10
43
20
1.5875
30
0
11
43
21
17.179119
31
0
39
0
210
0
220
0
230
1
0
LINE
5
146
100
AcDbEntity
8
SK2
62
256
6
ByLayer
370
13
48
1
60
0
100
AcDbLine
10
20.21
20
15.179119
30
0
11
43
21
15.179119
31
0
39
0
210
0
220
0
230
1
0
SOLID
5
147
100
AcDbEntity
8
SK2
62
256
6
ByLayer
370
18
48
1
60
0
100
AcDbTrace
10
20.21
20
15.179119
30
0
11
23.709998
21
15.639903
31
0
12
23.710002
22
14.718335
32
0
13
23.710002
23
14.718335
33
0
39
0
210
0
220
0
230
1
0
SOLID
5
148
100
AcDbEntity
8
SK2
62
256
6
ByLayer
370
18
48
1
60
0
100
AcDbTrace
10
43
20
15.179119
30
0
11
39.500002
21
14.718335
31
0
12
39.499998
22
15.639903
32
0
13
39.499998
23
15.639903
33
0
39
0
210
0
220
0
230
1
0
ENDBLK
5
14A
100
AcDbEntity
8
0
100
AcDbBlockEnd
0
BLOCK
5
14F
100
AcDbEntity
8
0
100
AcDbBlockBegin
2
*D7
70
1
10
0
20
0
30
0
3
*D7
0
LINE
5
151
100
AcDbEntity
8
0
62
256
6
ByLayer
370
-2
48
1
60
0
100
AcDbLine
10
43
20
-1.5875
30
0
11
43
21
-18.372503
31
0
39
0
210
0
220
0
230
1
0
LINE
5
152
100
AcDbEntity
8
0
62
256
6
ByLayer
370
-2
48
1
60
0
100
AcDbLine
10
41.6345
20
-5.1575
30
0
11
41.6345
21
-18.372503
31
0
39
0
210
0
220
0
230
1
0
LINE
5
153
100
AcDbEntity
8
0
62
256
6
ByLayer
370
-2
48
1
60
0
100
AcDbLine
10
43
20
-16.372503
30
0
11
70.666667
21
-16.372503
31
0
39
0
210
0
220
0
230
1
0
LINE
5
154
100
AcDbEntity
8
0
62
256
6
ByLayer
370
-2
48
1
60
0
100
AcDbLine
10
46.5
20
-16.372503
30
0
11
50
21
-16.372503
31
0
39
0
210
0
220
0
230
1
0
LINE
5
155
100
AcDbEntity
8
0
62
256
6
ByLayer
370
-2
48
1
60
0
100
AcDbLine
10
38.1345
20
-16.372503
30
0
11
34.6345
21
-16.372503
31
0
39
0
210
0
220
0
230
1
0
SOLID
5
156
100
AcDbEntity
8
0
62
256
6
ByLayer
370
-1
48
1
60
0
100
AcDbTrace
10
46.5
20
-15.78917
30
0
11
46.5
21
-16.955837
31
0
12
43
22
-16.372503
32
0
13
43
23
-16.372503
33
0
39
0
210
0
220
0
230
1
0
SOLID
5
157
100
AcDbEntity
8
0
62
256
6
ByLayer
370
-1
48
1
60
0
100
AcDbTrace
10
38.1345
20
-16.955837
30
0
11
38.1345
21
-15.78917
31
0
12
41.6345
22
-16.372503
32
0
13
41.6345
23
-16.372503
33
0
39
0
210
0
220
0
230
1
0
MTEXT
5
158
100
AcDbEntity
8
0
62
256
6
ByLayer
370
18
48
1
60
0
100
AcDbMText
10
60.333333
20
-9.372503
30
0
210
0
220
0
230
1
1
\A1;1.37
40
3.5
41
0
44
1
50
0
71
5
72
5
7
iso_b_vert
0
POINT
5
159
100
AcDbEntity
8
Defpoints
62
0
6
ByLayer
370
-1
48
1
60
0
100
AcDbPoint
10
43
20
0
30
0
39
0
210
0
220
0
230
1
50
360
0
POINT
5
15A
100
AcDbEntity
8
Defpoints
62
0
6
ByLayer
370
-1
48
1
60
0
100
AcDbPoint
10
41.6345
20
-3.57
30
0
39
0
210
0
220
0
230
1
50
360
0
POINT
5
15B
100
AcDbEntity
8
Defpoints
62
0
6
ByLayer
370
-1
48
1
60
0
100
AcDbPoint
10
41.6345
20
-16.372503
30
0
39
0
210
0
220
0
230
1
50
360
0
ENDBLK
5
150
100
AcDbEntity
8
0
100
AcDbBlockEnd
0
BLOCK
5
163
100
AcDbEntity
8
0
100
AcDbBlockBegin
2
_U3
70
0
10
0
20
0
30
0
3
_U3
0
MTEXT
5
15D
100
AcDbEntity
8
SK2
62
256
6
ByLayer
370
13
48
1
60
0
100
AcDbMText
10
49.589293
20
-15.33987
30
0
210
0
220
0
230
1
1
\W0.6367;1,37
40
3.5
41
0
44
1.084337
50
0
71
7
72
5
7
iso_b_vert
0
LINE
5
15E
100
AcDbEntity
8
SK2
62
256
6
ByLayer
370
13
48
1
60
0
100
AcDbLine
10
43
20
-1.5875
30
0
11
43
21
-18.372503
31
0
39
0
210
0
220
0
230
1
0
LINE
5
15F
100
AcDbEntity
8
SK2
62
256
6
ByLayer
370
13
48
1
60
0
100
AcDbLine
10
41.6345
20
-5.1575
30
0
11
41.6345
21
-18.372503
31
0
39
0
210
0
220
0
230
1
0
LINE
5
160
100
AcDbEntity
8
SK2
62
256
6
ByLayer
370
13
48
1
60
0
100
AcDbLine
10
32.8845
20
-16.372503
30
0
11
56.559058
21
-16.372503
31
0
39
0
210
0
220
0
230
1
0
SOLID
5
161
100
AcDbEntity
8
SK2
62
256
6
ByLayer
370
18
48
1
60
0
100
AcDbTrace
10
43
20
-16.372503
30
0
11
46.499998
21
-15.911719
31
0
12
46.500002
22
-16.833287
32
0
13
46.500002
23
-16.833287
33
0
39
0
210
0
220
0
230
1
0
SOLID
5
162
100
AcDbEntity
8
SK2
62
256
6
ByLayer
370
18
48
1
60
0
100
AcDbTrace
10
41.6345
20
-16.372503
30
0
11
38.134502
21
-16.833287
31
0
12
38.134498
22
-15.911719
32
0
13
38.134498
23
-15.911719
33
0
39
0
210
0
220
0
230
1
0
ENDBLK
5
164
100
AcDbEntity
8
0
100
AcDbBlockEnd
0
BLOCK
5
169
100
AcDbEntity
8
0
100
AcDbBlockBegin
2
*D9
70
1
10
0
20
0
30
0
3
*D9
0
LINE
5
16B
100
AcDbEntity
8
0
62
256
6
ByLayer
370
-2
48
1
60
0
100
AcDbLine
10
-36
20
-5.5875
30
0
11
-36
21
-24.343428
31
0
39
0
210
0
220
0
230
1
0
LINE
5
16C
100
AcDbEntity
8
0
62
256
6
ByLayer
370
-2
48
1
60
0
100
AcDbLine
10
41.6345
20
-5.1575
30
0
11
41.6345
21
-24.343428
31
0
39
0
210
0
220
0
230
1
0
LINE
5
16D
100
AcDbEntity
8
0
62
256
6
ByLayer
370
-2
48
1
60
0
100
AcDbLine
10
-32.5
20
-22.343428
30
0
11
38.1345
21
-22.343428
31
0
39
0
210
0
220
0
230
1
0
SOLID
5
16E
100
AcDbEntity
8
0
62
256
6
ByLayer
370
-1
48
1
60
0
100
AcDbTrace
10
-32.5
20
-21.760095
30
0
11
-32.5
21
-22.926762
31
0
12
-36
22
-22.343428
32
0
13
-36
23
-22.343428
33
0
39
0
210
0
220
0
230
1
0
SOLID
5
16F
100
AcDbEntity
8
0
62
256
6
ByLayer
370
-1
48
1
60
0
100
AcDbTrace
10
38.1345
20
-22.926762
30
0
11
38.1345
21
-21.760095
31
0
12
41.6345
22
-22.343428
32
0
13
41.6345
23
-22.343428
33
0
39
0
210
0
220
0
230
1
0
MTEXT
5
170
100
AcDbEntity
8
0
62
256
6
ByLayer
370
18
48
1
60
0
100
AcDbMText
10
2.81725
20
-15.343428
30
0
210
0
220
0
230
1
1
\A1;77.63
40
3.5
41
0
44
1
50
0
71
5
72
5
7
iso_b_vert
0
POINT
5
171
100
AcDbEntity
8
Defpoints
62
0
6
ByLayer
370
-1
48
1
60
0
100
AcDbPoint
10
-36
20
-4
30
0
39
0
210
0
220
0
230
1
50
360
0
POINT
5
172
100
AcDbEntity
8
Defpoints
62
0
6
ByLayer
370
-1
48
1
60
0
100
AcDbPoint
10
41.6345
20
-3.57
30
0
39
0
210
0
220
0
230
1
50
360
0
POINT
5
173
100
AcDbEntity
8
Defpoints
62
0
6
ByLayer
370
-1
48
1
60
0
100
AcDbPoint
10
41.6345
20
-22.343428
30
0
39
0
210
0
220
0
230
1
50
360
0
ENDBLK
5
16A
100
AcDbEntity
8
0
100
AcDbBlockEnd
0
BLOCK
5
17B
100
AcDbEntity
8
0
100
AcDbBlockBegin
2
_U4
70
0
10
0
20
0
30
0
3
_U4
0
MTEXT
5
175
100
AcDbEntity
8
SK2
62
256
6
ByLayer
370
13
48
1
60
0
100
AcDbMText
10
-2.320049
20
-21.310795
30
0
210
0
220
0
230
1
1
\W0.7317;77,63
40
3.5
41
0
44
1.084337
50
0
71
7
72
5
7
iso_b_vert
0
LINE
5
176
100
AcDbEntity
8
SK2
62
256
6
ByLayer
370
13
48
1
60
0
100
AcDbLine
10
-36
20
-5.5875
30
0
11
-36
21
-24.343428
31
0
39
0
210
0
220
0
230
1
0
LINE
5
177
100
AcDbEntity
8
SK2
62
256
6
ByLayer
370
13
48
1
60
0
100
AcDbLine
10
41.6345
20
-5.1575
30
0
11
41.6345
21
-24.343428
31
0
39
0
210
0
220
0
230
1
0
LINE
5
178
100
AcDbEntity
8
SK2
62
256
6
ByLayer
370
13
48
1
60
0
100
AcDbLine
10
-36
20
-22.343428
30
0
11
41.6345
21
-22.343428
31
0
39
0
210
0
220
0
230
1
0
SOLID
5
179
100
AcDbEntity
8
SK2
62
256
6
ByLayer
370
18
48
1
60
0
100
AcDbTrace
10
-36
20
-22.343428
30
0
11
-32.500002
21
-21.882645
31
0
12
-32.499998
22
-22.804212
32
0
13
-32.499998
23
-22.804212
33
0
39
0
210
0
220
0
230
1
0
SOLID
5
17A
100
AcDbEntity
8
SK2
62
256
6
ByLayer
370
18
48
1
60
0
100
AcDbTrace
10
41.6345
20
-22.343428
30
0
11
38.134502
21
-22.804212
31
0
12
38.134498
22
-21.882645
32
0
13
38.134498
23
-21.882645
33
0
39
0
210
0
220
0
230
1
0
ENDBLK
5
17C
100
AcDbEntity
8
0
100
AcDbBlockEnd
0
ENDSEC
0
SECTION
2
ENTITIES
0
ARC
5
A6
100
AcDbEntity
8
1
62
256
6
ByLayer
370
18
48
1
60
0
100
AcDbCircle
39
0
10
1.206912
20
-4.347232
30
0
40
0.849999999999999
210
0
220
0
230
1
100
AcDbArc
50
89.896868
51
135.230697
0
ARC
5
A7
100
AcDbEntity
8
1
62
256
6
ByLayer
370
18
48
1
60
0
100
AcDbCircle
39
0
10
1.206912
20
4.347232
30
0
40
0.849999999999999
210
0
220
0
230
1
100
AcDbArc
50
224.769303
51
270.103132
0
ARC
5
A8
100
AcDbEntity
8
1
62
256
6
ByLayer
370
18
48
1
60
0
100
AcDbCircle
39
0
10
0
20
-3.15
30
0
40
0.85
210
0
220
0
230
1
100
AcDbArc
50
270
51
315.230697
0
ARC
5
A9
100
AcDbEntity
8
1
62
256
6
ByLayer
370
18
48
1
60
0
100
AcDbCircle
39
0
10
0
20
3.15
30
0
40
0.85
210
0
220
0
230
1
100
AcDbArc
50
44.769303
51
90
0
ELLIPSE
5
AA
100
AcDbEntity
8
1
62
256
6
ByLayer
370
13
48
1
60
0
100
AcDbEllipse
10
87.194174
20
42.329751
30
0
11
-60.9999999999999
21
7.47009875831649E-15
31
0
210
0
220
0
230
1
40
0.99863
41
0.740233608116147
42
0.756825681218219
0
ELLIPSE
5
AB
100
AcDbEntity
8
1
62
256
6
ByLayer
370
13
48
1
60
0
100
AcDbEllipse
10
10.527681
20
-62.422196
30
0
11
-51.0465884500752
21
54.2109236315541
31
0
210
0
220
0
230
1
40
0.697882
41
-0.932987644628259
42
-0.828376898341642
0
ELLIPSE
5
AC
100
AcDbEntity
8
1
62
256
6
ByLayer
370
13
48
1
60
0
100
AcDbEllipse
10
4.758681
20
3.01611
30
0
11
0.0888491967480144
21
0.286541131841892
31
0
210
0
220
0
230
1
40
0.384934
41
-3.11305186865697
42
-2.4596345298269
0
ELLIPSE
5
AD
100
AcDbEntity
8
1
62
256
6
ByLayer
370
18
48
1
60
0
100
AcDbEllipse
10
4.757407
20
-4.407629
30
0
11
1
21
0
31
0
210
0
220
0
230
1
40
1
41
1.57161829366251
42
2.0071707634975
0
ELLIPSE
5
AE
100
AcDbEntity
8
1
62
256
6
ByLayer
370
18
48
1
60
0
100
AcDbEllipse
10
4.757407
20
4.407629
30
0
11
1
21
0
31
0
210
0
220
0
230
1
40
1
41
-2.00708499642647
42
-1.56735420476655
0
POINT
5
70
100
AcDbEntity
8
80
62
256
6
ByLayer
370
18
48
1
60
0
100
AcDbPoint
10
0
20
0
30
0
39
0
210
0
220
0
230
1
50
360
0
POINT
5
72
100
AcDbEntity
8
81
62
256
6
ByLayer
370
18
48
1
60
0
100
AcDbPoint
10
43
20
0
30
0
39
0
210
0
220
0
230
1
50
360
0
POINT
5
74
100
AcDbEntity
8
1
62
256
6
ByLayer
370
18
48
1
60
1
100
AcDbPoint
10
41.6345
20
-3.57
30
0
39
0
210
0
220
0
230
1
50
360
0
POINT
5
76
100
AcDbEntity
8
1
62
256
6
ByLayer
370
18
48
1
60
1
100
AcDbPoint
10
-36
20
-4
30
0
39
0
210
0
220
0
230
1
50
360
0
POINT
5
77
100
AcDbEntity
8
1
62
256
6
ByLayer
370
18
48
1
60
1
100
AcDbPoint
10
20.21
20
3.57
30
0
39
0
210
0
220
0
230
1
50
360
0
POINT
5
78
100
AcDbEntity
8
1
62
256
6
ByLayer
370
18
48
1
60
1
100
AcDbPoint
10
41.6345
20
-3.57
30
0
39
0
210
0
220
0
230
1
50
360
0
POINT
5
79
100
AcDbEntity
8
1
62
256
6
ByLayer
370
18
48
1
60
1
100
AcDbPoint
10
-36
20
-4
30
0
39
0
210
0
220
0
230
1
50
360
0
POINT
5
7A
100
AcDbEntity
8
1
62
256
6
ByLayer
370
18
48
1
60
1
100
AcDbPoint
10
41.6345
20
-3.57
30
0
39
0
210
0
220
0
230
1
50
360
0
SPLINE
5
AF
100
AcDbEntity
8
1
62
256
6
ByLayer
370
18
48
1
60
0
100
AcDbSpline
70
4
71
3
72
8
73
4
40
0
40
0
40
0
40
0
40
1
40
1
40
1
40
1
41
1
10
42.8460019213451
20
-0.503507213563381
30
0
41
1
10
42.6332955604649
20
-1.11255571202685
30
0
41
1
10
42.422557893909
20
-1.72228011926455
30
0
41
1
10
42.2138021038064
20
-2.33268496107647
30
0
0
SPLINE
5
B0
100
AcDbEntity
8
1
62
256
6
ByLayer
370
18
48
1
60
0
100
AcDbSpline
70
4
71
3
72
8
73
4
40
0
40
0
40
0
40
0
40
1
40
1
40
1
40
1
41
1
10
42.9997810171515
20
0.0746012360314694
30
0
41
1
10
42.9474779086754
20
0.216642826615896
30
0
41
1
10
42.8962550605523
20
0.35961589385596
30
0
41
1
10
42.8460019213451
20
0.503507213563324
30
0
0
SPLINE
5
B1
100
AcDbEntity
8
1
62
256
6
ByLayer
370
18
48
1
60
0
100
AcDbSpline
70
4
71
3
72
10
73
6
40
0
40
0
40
0
40
0
40
0.5
40
0.5
40
1
40
1
40
1
40
1
41
1
10
42.2356612826433
20
1.52355378673866
30
0
41
1
10
42.2055813168827
20
1.65926262516609
30
0
41
1
10
42.195109954041
20
1.79433830133695
30
0
41
1
10
42.1922454756101
20
2.06390590962857
30
0
41
1
10
42.2003670847687
20
2.19838122028
30
0
41
1
10
42.2138021038064
20
2.33268496107638
30
0
0
SPLINE
5
B2
100
AcDbEntity
8
1
62
256
6
ByLayer
370
13
48
1
60
0
100
AcDbSpline
70
4
71
3
72
17
73
13
40
0
40
0
40
0
40
0
40
0.174212684053181
40
0.225824391299856
40
0.277436098546532
40
0.380659513039886
40
0.432271220286561
40
0.483882927533238
40
0.58710634202659
40
0.638718049273266
40
0.793553171013295
40
1
40
1
40
1
40
1
41
1
10
12.8739839952726
20
-1.40872868944669
30
0
41
1
10
12.737738060876
20
-1.4201802403179
30
0
41
1
10
12.5611109298024
20
-1.43399083526066
30
0
41
1
10
12.3440946410525
20
-1.44927573607543
30
0
41
1
10
12.182644993534
20
-1.45997825976264
30
0
41
1
10
12.0211860042357
20
-1.46980755118508
30
0
41
1
10
11.8597189155725
20
-1.47876239591574
30
0
41
1
10
11.6982696835362
20
-1.48706362776656
30
0
41
1
10
11.536811068902
20
-1.49448119181423
30
0
41
1
10
11.2946406108722
20
-1.5042021596515
30
0
41
1
10
10.9717810430389
20
-1.51458293208361
30
0
41
1
10
10.6891763887634
20
-1.52020687616152
30
0
41
1
10
10.5276805356963
20
-1.52222663933591
30
0
0
SPLINE
5
B3
100
AcDbEntity
8
1
62
256
6
ByLayer
370
18
48
1
60
0
100
AcDbSpline
70
4
71
3
72
28
73
24
40
0
40
0
40
0
40
0
40
0.0312500000000015
40
0.0312500000000015
40
0.062500000000003
40
0.062500000000003
40
0.125000000000002
40
0.125000000000002
40
0.187500000000002
40
0.187500000000002
40
0.250000000000001
40
0.250000000000001
40
0.312500000000001
40
0.312500000000001
40
0.375
40
0.375
40
0.499999999999999
40
0.499999999999999
40
0.624999999999998
40
0.624999999999998
40
0.749999999999997
40
0.749999999999997
40
1
40
1
40
1
40
1
41
1
10
3.89303908660233
20
0.477705694227865
30
0
41
1
10
3.91460172292662
20
0.517438647265124
30
0
41
1
10
3.94010317782917
20
0.554050213235485
30
0
41
1
10
3.99705932241142
20
0.62258107021529
30
0
41
1
10
4.02875987109408
20
0.654678422559925
30
0
41
1
10
4.12937418803219
20
0.743797193924138
30
0
41
1
10
4.202956936249
20
0.793574356816606
30
0
41
1
10
4.35810839783989
20
0.881465730487093
30
0
41
1
10
4.43991516180213
20
0.91938360426019
30
0
41
1
10
4.6053575149682
20
0.985075149025988
30
0
41
1
10
4.68960594397828
20
1.01314252360385
30
0
41
1
10
4.86044620965222
20
1.0620571900256
30
0
41
1
10
4.94704676489118
20
1.0828760086136
30
0
41
1
10
5.12224248507886
20
1.11844825859333
30
0
41
1
10
5.21099984290592
20
1.13319415227298
30
0
41
1
10
5.47649350898234
20
1.16889858877298
30
0
41
1
10
5.65359723525756
20
1.18172037117935
30
0
41
1
10
6.007987404137
20
1.18887315276748
30
0
41
1
10
6.18527452860152
20
1.18313339427127
30
0
41
1
10
6.54002956446297
20
1.15331186604541
30
0
41
1
10
6.71837489528491
20
1.1289670834872
30
0
41
1
10
7.24215785537882
20
1.02848635370049
30
0
41
1
10
7.57924532772682
20
0.925396363497583
30
0
41
1
10
7.90339493820414
20
0.780822251714625
30
0
0
SPLINE
5
B4
100
AcDbEntity
8
1
62
256
6
ByLayer
370
18
48
1
60
0
100
AcDbSpline
70
4
71
3
72
8
73
4
40
0
40
0
40
0
40
0
40
1
40
1
40
1
40
1
41
1
10
42.8460019213505
20
0.503507213547948
30
0
41
1
10
42.6332965711982
20
1.11255281796366
30
0
41
1
10
42.4225588880869
20
1.72227721227443
30
0
41
1
10
42.2138021038064
20
2.33268496107638
30
0
0
SPLINE
5
B5
100
AcDbEntity
8
1
62
256
6
ByLayer
370
18
48
1
60
0
100
AcDbSpline
70
4
71
3
72
18
73
14
40
0
40
0
40
0
40
0
40
0.25
40
0.25
40
0.374999999999999
40
0.374999999999999
40
0.499999999999999
40
0.499999999999999
40
0.749999999999999
40
0.749999999999999
40
0.874999999999999
40
0.874999999999999
40
1
40
1
40
1
40
1
41
1
10
41.6404190564885
20
-3.28115180271814
30
0
41
1
10
41.5804737634787
20
-3.21968014541389
30
0
41
1
10
41.5270517846265
20
-3.14413655467879
30
0
41
1
10
41.4569570558801
20
-3.00916692426955
30
0
41
1
10
41.4352730845761
20
-2.96055096860872
30
0
41
1
10
41.3954161571187
20
-2.85574518144966
30
0
41
1
10
41.3771708201637
20
-2.79923435358572
30
0
41
1
10
41.32887737181
20
-2.6209446427749
30
0
41
1
10
41.3049740688783
20
-2.4901779429828
30
0
41
1
10
41.2816062775658
20
-2.27609767078491
30
0
41
1
10
41.2759086725323
20
-2.2017341831785
30
0
41
1
10
41.2688399690837
20
-2.04679481001492
30
0
41
1
10
41.2674893566914
20
-1.96607425796509
30
0
41
1
10
41.2683724096466
20
-1.88346317206395
30
0
0
SPLINE
5
B6
100
AcDbEntity
8
1
62
256
6
ByLayer
370
18
48
1
60
0
100
AcDbSpline
70
4
71
3
72
8
73
4
40
0
40
0
40
0
40
0
40
1
40
1
40
1
40
1
41
1
10
41.7373356428095
20
-3.53805650240525
30
0
41
1
10
41.7162037056765
20
-3.51800743636682
30
0
41
1
10
41.6978685337614
20
-3.48868752723592
30
0
41
1
10
41.681956707961
20
-3.4498788509471
30
0
0
SPLINE
5
B7
100
AcDbEntity
8
1
62
256
6
ByLayer
370
18
48
1
60
0
100
AcDbSpline
70
4
71
3
72
17
73
13
40
0
40
0
40
0
40
0
40
0.0031435772823329
40
0.0031435772823329
40
0.169286314401944
40
0.169286314401944
40
0.335429051521555
40
0.501571788641167
40
0.501571788641167
40
0.667714525760778
40
0.667714525760778
40
1
40
1
40
1
40
1
41
1
10
4.33151893723789
20
3.50285407915234
30
0
41
1
10
4.33151868670373
20
3.50285278794001
30
0
41
1
10
4.33151843678374
20
3.5028495682686
30
0
41
1
10
4.3315050107764
20
3.50257230462907
30
0
41
1
10
4.3314935051294
20
3.49681601673006
30
0
41
1
10
4.33147032392915
20
3.47473783711294
30
0
41
1
10
4.33144685157455
20
3.44210540311616
30
0
41
1
10
4.33141444064978
20
3.38863710239553
30
0
41
1
10
4.33137300359761
20
3.32459924275165
30
0
41
1
10
4.3313476094425
20
3.28708225313324
30
0
41
1
10
4.33125142636828
20
3.15968655625773
30
0
41
1
10
4.33116121641984
20
3.05569640507957
30
0
41
1
10
4.33102739961987
20
2.93280638626385
30
0
0
SPLINE
5
B8
100
AcDbEntity
8
1
62
256
6
ByLayer
370
18
48
1
60
0
100
AcDbSpline
70
4
71
3
72
20
73
16
40
0
40
0
40
0
40
0
40
0.125
40
0.125
40
0.25
40
0.25
40
0.375
40
0.375
40
0.499999999999999
40
0.499999999999999
40
0.624999999999999
40
0.624999999999999
40
0.749999999999998
40
0.749999999999998
40
1
40
1
40
1
40
1
41
1
10
42.4173547010652
20
-0.939674311089931
30
0
41
1
10
42.3703986779479
20
-0.950662249706028
30
0
41
1
10
42.3254987306669
20
-0.948641242378528
30
0
41
1
10
42.2391076028774
20
-0.923031704824467
30
0
41
1
10
42.1972573979119
20
-0.898947917247682
30
0
41
1
10
42.1195580775268
20
-0.833418027334261
30
0
41
1
10
42.0834185245674
20
-0.792079132922595
30
0
41
1
10
42.0158058100662
20
-0.694638310495804
30
0
41
1
10
41.9847569675454
20
-0.63902078087699
30
0
41
1
10
41.9283399038038
20
-0.518053876155165
30
0
41
1
10
41.9027842656624
20
-0.452403583724845
30
0
41
1
10
41.8564406473923
20
-0.311817392665745
30
0
41
1
10
41.8355652988845
20
-0.236381885265729
30
0
41
1
10
41.7809721206668
20
-0.0019875126850479
30
0
41
1
10
41.7547052183941
20
0.165636595411456
30
0
41
1
10
41.7376034978898
20
0.343541286676583
30
0
0
SPLINE
5
B9
100
AcDbEntity
8
1
62
256
6
ByLayer
370
18
48
1
60
0
100
AcDbSpline
70
4
71
4
72
10
73
5
40
0
40
0
40
0
40
0
40
0
40
1
40
1
40
1
40
1
40
1
41
1
10
10.5276805356963
20
-1.52222663933591
30
0
41
1
10
10.3671901251182
20
-1.99555060593673
30
0
41
1
10
10.2066997145401
20
-2.46887457253754
30
0
41
1
10
10.0462093039621
20
-2.94219853913839
30
0
41
1
10
9.88571889338402
20
-3.4155225057392
30
0
0
SPLINE
5
BA
100
AcDbEntity
8
1
62
256
6
ByLayer
370
13
48
1
60
0
100
AcDbSpline
70
4
71
3
72
10
73
6
40
0
40
0
40
0
40
0
40
0.5
40
0.5
40
1
40
1
40
1
40
1
41
1
10
4.75922705930353
20
2.77209918072725
30
0
41
1
10
4.68533681936418
20
2.78679918578629
30
0
41
1
10
4.61256141545266
20
2.80741857266867
30
0
41
1
10
4.46950204903683
20
2.86075425635457
30
0
41
1
10
4.39870836698526
20
2.89378858556654
30
0
41
1
10
4.33102739961444
20
2.9328063862632
30
0
0
SPLINE
5
BB
100
AcDbEntity
8
1
62
256
6
ByLayer
370
18
48
1
60
0
100
AcDbSpline
70
4
71
3
72
22
73
18
40
0
40
0
40
0
40
0
40
0.214962697891893
40
0.214962697891893
40
0.429925395783785
40
0.429925395783785
40
0.53740674472973
40
0.53740674472973
40
0.591147419202703
40
0.591147419202703
40
0.644888093675676
40
0.644888093675676
40
0.752369442621623
40
0.752369442621623
40
0.85985079156757
40
0.85985079156757
40
1
40
1
40
1
40
1
41
1
10
12.3548271828111
20
-1.16018226802853
30
0
41
1
10
12.973021673817
20
-1.45833093153726
30
0
41
1
10
13.5863333878223
20
-1.73716560651556
30
0
41
1
10
14.8073353121481
20
-2.25094050238377
30
0
41
1
10
15.416438728152
20
-2.48329520221122
30
0
41
1
10
16.3337740492885
20
-2.78644947136212
30
0
41
1
10
16.6400081678977
20
-2.88011914312614
30
0
41
1
10
17.1013532637763
20
-3.00774019324874
30
0
41
1
10
17.2552772337155
20
-3.04834699466565
30
0
41
1
10
17.5640252851698
20
-3.12495565332065
30
0
41
1
10
17.7187218651973
20
-3.16092311475904
30
0
41
1
10
18.1810792996527
20
-3.26134931018464
30
0
41
1
10
18.4878462399459
20
-3.31867407002528
30
0
41
1
10
19.0998461761701
20
-3.41334755066941
30
0
41
1
10
19.4047949649529
20
-3.45082950320077
30
0
41
1
10
20.1076230235641
20
-3.51351522654602
30
0
41
1
10
20.5048887347905
20
-3.53183740561269
30
0
41
1
10
20.9028500073006
20
-3.53267538336084
30
0
0
SPLINE
5
BC
100
AcDbEntity
8
1
62
256
6
ByLayer
370
18
48
1
60
0
100
AcDbSpline
70
4
71
3
72
20
73
16
40
0
40
0
40
0
40
0
40
0.031006502482441
40
0.031006502482441
40
0.224805201985949
40
0.224805201985949
40
0.321704551737702
40
0.321704551737702
40
0.418603901489456
40
0.418603901489456
40
0.612402600992971
40
0.612402600992971
40
0.806201300496485
40
0.806201300496485
40
1
40
1
40
1
40
1
41
1
10
36.9961429736264
20
2.43308969304141
30
0
41
1
10
37.0449910600641
20
2.45149537480666
30
0
41
1
10
37.0938576672281
20
2.46972959250999
30
0
41
1
10
37.4483018509488
20
2.60066509851237
30
0
41
1
10
37.7545180812867
20
2.70689098407556
30
0
41
1
10
38.2164052965209
20
2.85391099807862
30
0
41
1
10
38.3708908699938
20
2.90101676799534
30
0
41
1
10
38.6788239922885
20
2.99064020288932
30
0
41
1
10
38.8325398024401
20
3.03313882950565
30
0
41
1
10
39.2926879739468
20
3.15401099982569
30
0
41
1
10
39.598431134204
20
3.2253918836121
30
0
41
1
10
40.2095451448192
20
3.34855490939327
30
0
41
1
10
40.5148627267665
20
3.40042405162794
30
0
41
1
10
41.1255666189525
20
3.484381575063
30
0
41
1
10
41.4310176633126
20
3.51639560161115
30
0
41
1
10
41.7373356428095
20
3.53805650240525
30
0
0
SPLINE
5
BD
100
AcDbEntity
8
1
62
256
6
ByLayer
370
13
48
1
60
0
100
AcDbSpline
70
4
71
3
72
80
73
76
40
0
40
0
40
0
40
0
40
0.0077131537480076
40
0.0255354522940799
40
0.0433577508401517
40
0.061180049386224
40
0.0968246464783677
40
0.105735795751404
40
0.11464694502444
40
0.132469243570512
40
0.141380392843548
40
0.150291542116584
40
0.168113840662656
40
0.177024989935691
40
0.185936139208728
40
0.203758437754799
40
0.212669587027835
40
0.221580736300871
40
0.239403034846943
40
0.248314184119979
40
0.257225333393015
40
0.275047631939087
40
0.283958781212123
40
0.292869930485159
40
0.310692229031231
40
0.319603378304267
40
0.328514527577304
40
0.346336826123375
40
0.355247975396411
40
0.364159124669447
40
0.381981423215519
40
0.399803721761591
40
0.417626020307663
40
0.453270617399807
40
0.462181766672842
40
0.471092915945879
40
0.488915214491951
40
0.497826363764987
40
0.506737513038024
40
0.524559811584094
40
0.542382110130167
40
0.560204408676239
40
0.595849005768382
40
0.604760155041418
40
0.613671304314454
40
0.631493602860526
40
0.640404752133562
40
0.649315901406598
40
0.66713819995267
40
0.676049349225706
40
0.684960498498743
40
0.702782797044814
40
0.71169394631785
40
0.720605095590886
40
0.738427394136958
40
0.747338543409994
40
0.75624969268303
40
0.774071991229102
40
0.782983140502138
40
0.791894289775174
40
0.809716588321246
40
0.818627737594282
40
0.827538886867318
40
0.84536118541339
40
0.854272334686426
40
0.863183483959462
40
0.881005782505534
40
0.898828081051606
40
0.916650379597677
40
0.952294976689821
40
0.961206125962857
40
0.970117275235893
40
0.987939573781965
40
0.996850723055002
40
1
40
1
40
1
40
1
41
1
10
31.4001675043824
20
0.0010844890570354
30
0
41
1
10
31.3652288864495
20
0.00877125833685
30
0
41
1
10
31.2495549762861
20
0.0341942737050545
30
0
41
1
10
31.0531466031465
20
0.0773427710493593
30
0
41
1
10
30.8109567433862
20
0.130530456584751
30
0
41
1
10
30.4880024151614
20
0.201031597408871
30
0
41
1
10
30.2054689027392
20
0.262578861892507
30
0
41
1
10
29.9633242966804
20
0.315049246706252
30
0
41
1
10
29.8018571252317
20
0.34969584885016
30
0
41
1
10
29.6403991232831
20
0.384184549577583
30
0
41
1
10
29.4789491913717
20
0.418487394141835
30
0
41
1
10
29.3174815769629
20
0.452511559451324
30
0
41
1
10
29.1560235396817
20
0.486317192999053
30
0
41
1
10
28.9945738329186
20
0.519876992231843
30
0
41
1
10
28.8331064501774
20
0.553114817940184
30
0
41
1
10
28.67164866103
20
0.586074079395303
30
0
41
1
10
28.5101991169021
20
0.618726838730197
30
0
41
1
10
28.348731781964
20
0.651015008892074
30
0
41
1
10
28.187273885251
20
0.682965236904209
30
0
41
1
10
28.0258241291184
20
0.714550279993034
30
0
41
1
10
27.8643565851168
20
0.745730155231144
30
0
41
1
10
27.7028984915847
20
0.776514756589592
30
0
41
1
10
27.5414486350361
20
0.806877668918361
30
0
41
1
10
27.3799811099267
20
0.836797042667541
30
0
41
1
10
27.2185232044889
20
0.866266021342653
30
0
41
1
10
27.057073651434
20
0.895259086398369
30
0
41
1
10
26.8956064126589
20
0.923772474308748
30
0
41
1
10
26.7341487592622
20
0.951782385246247
30
0
41
1
10
26.5726992699076
20
0.979263865028315
30
0
41
1
10
26.411231779471
20
1.00623158327662
30
0
41
1
10
26.2093966374268
20
1.03917747067996
30
0
41
1
10
25.9672067069798
20
1.07752699625098
30
0
41
1
10
25.6442521885866
20
1.12667581780022
30
0
41
1
10
25.3617184954248
20
1.16758787452378
30
0
41
1
10
25.1195739309447
20
1.20100485010397
30
0
41
1
10
24.9581068723745
20
1.22257055826049
30
0
41
1
10
24.7966490915597
20
1.24344598941246
30
0
41
1
10
24.6351993683421
20
1.26361162206396
30
0
41
1
10
24.4737317480136
20
1.28315390485514
30
0
41
1
10
24.2718965928297
20
1.30660532839852
30
0
41
1
10
24.0297067722931
20
1.33322885708819
30
0
41
1
10
23.7067523894156
20
1.36634888403606
30
0
41
1
10
23.4242187901441
20
1.39269223770302
30
0
41
1
10
23.1820741896864
20
1.41326673121304
30
0
41
1
10
23.0206070264436
20
1.42620809130486
30
0
41
1
10
22.8591490322039
20
1.43832768593313
30
0
41
1
10
22.697699107856
20
1.4496124997078
30
0
41
1
10
22.5362315166545
20
1.4602136446112
30
0
41
1
10
22.3747735047685
20
1.46997080255468
30
0
41
1
10
22.2133237848405
20
1.47887203817382
30
0
41
1
10
22.051856359487
20
1.48708279016722
30
0
41
1
10
21.8903985007284
20
1.49443029799897
30
0
41
1
10
21.7289488886357
20
1.50090383011039
30
0
41
1
10
21.5674814974259
20
1.50668261924906
30
0
41
1
10
21.4060235773165
20
1.51158189986074
30
0
41
1
10
21.2445738638018
20
1.51559213059571
30
0
41
1
10
21.0831063980579
20
1.51890671965589
30
0
41
1
10
20.9216484186684
20
1.52133110707834
30
0
41
1
10
20.7601986761744
20
1.5228596218856
30
0
41
1
10
20.5987312508006
20
1.5236966884832
30
0
41
1
10
20.437273406579
20
1.52363836083367
30
0
41
1
10
20.2758238428323
20
1.5226801268752
30
0
41
1
10
20.1143565613955
20
1.52103700183554
30
0
41
1
10
19.952898836836
20
1.51849612306276
30
0
41
1
10
19.7914492792707
20
1.51505416547437
30
0
41
1
10
19.6299817200392
20
1.51093610124431
30
0
41
1
10
19.42814651097
20
1.50463210029713
30
0
41
1
10
19.1859566199606
20
1.49525929136033
30
0
41
1
10
18.8630022697899
20
1.48023156166505
30
0
41
1
10
18.5804687552553
20
1.46403138384298
30
0
41
1
10
18.3383242124966
20
1.4479682369597
30
0
41
1
10
18.1768571513455
20
1.4365908841061
30
0
41
1
10
18.0153993555905
20
1.42435236744748
30
0
41
1
10
17.8800476160881
20
1.41337448185985
30
0
41
1
10
17.8254166444847
20
1.40880575321822
30
0
41
1
10
17.8111509575775
20
1.40760350607005
30
0
0
SPLINE
5
BE
100
AcDbEntity
8
1
62
256
6
ByLayer
370
18
48
1
60
0
100
AcDbSpline
70
4
71
3
72
66
73
62
40
0
40
0
40
0
40
0
40
0.0285525626652271
40
0.0285525626652271
40
0.0632471139986123
40
0.0632471139986123
40
0.080594389665305
40
0.080594389665305
40
0.0979416653319976
40
0.0979416653319976
40
0.132636216665383
40
0.132636216665383
40
0.167330767998768
40
0.167330767998768
40
0.236719870665539
40
0.236719870665539
40
0.271414421998924
40
0.271414421998924
40
0.288761697665616
40
0.288761697665616
40
0.306108973332309
40
0.306108973332309
40
0.340803524665694
40
0.340803524665694
40
0.375498075999079
40
0.375498075999079
40
0.410192627332464
40
0.410192627332464
40
0.444887178665849
40
0.444887178665849
40
0.479581729999234
40
0.479581729999234
40
0.514276281332619
40
0.514276281332619
40
0.548970832666004
40
0.548970832666004
40
0.583665383999389
40
0.583665383999389
40
0.653054486666157
40
0.653054486666157
40
0.670401762332849
40
0.670401762332849
40
0.687749037999541
40
0.687749037999541
40
0.722443589332926
40
0.722443589332926
40
0.791832691999694
40
0.791832691999694
40
0.826527243333078
40
0.826527243333078
40
0.861221794666463
40
0.861221794666463
40
0.878569070333155
40
0.878569070333155
40
0.895916345999847
40
0.895916345999847
40
0.930610897333231
40
0.930610897333231
40
0.965305448666616
40
0.965305448666616
40
1
40
1
40
1
40
1
41
1
10
15.2732098182246
20
2.42063630786177
30
0
41
1
10
15.5242217902639
20
2.51362901111665
30
0
41
1
10
15.7753804260205
20
2.60190118432149
30
0
41
1
10
16.3326446479773
20
2.78609372193745
30
0
41
1
10
16.6387900946111
20
2.87975664593591
30
0
41
1
10
17.099998460986
20
3.00737810713031
30
0
41
1
10
17.2538780098087
20
3.04798491356024
30
0
41
1
10
17.5625331237972
20
3.12460016542332
30
0
41
1
10
17.7171885041308
20
3.1605742261174
30
0
41
1
10
18.1794223959179
20
3.26102085236568
30
0
41
1
10
18.4861070700149
20
3.31836527491976
30
0
41
1
10
19.0979381097259
20
3.41309189936979
30
0
41
1
10
19.4028031345435
20
3.45060578899816
30
0
41
1
10
20.317710162479
20
3.53234469840277
30
0
41
1
10
20.9264535772073
20
3.54650147458898
30
0
41
1
10
21.8442728411003
20
3.50545537757009
30
0
41
1
10
22.1512078199082
20
3.48147084575007
30
0
41
1
10
22.6134574945434
20
3.4297970606778
30
0
41
1
10
22.7681568904289
20
3.40996464453511
30
0
41
1
10
23.0763769148025
20
3.36532991505214
30
0
41
1
10
23.2301560789452
20
3.34056172527943
30
0
41
1
10
23.6905715791775
20
3.2590376506532
30
0
41
1
10
23.9961978751458
20
3.19496665905604
30
0
41
1
10
24.6065061784395
20
3.04906247532656
30
0
41
1
10
24.9112119222185
20
2.96728930278957
30
0
41
1
10
25.520378140905
20
2.78694515693658
30
0
41
1
10
25.8246735531409
20
2.6881464909128
30
0
41
1
10
26.4343197042976
20
2.47518047977104
30
0
41
1
10
26.7398555515137
20
2.36131179632952
30
0
41
1
10
27.3528047693515
20
2.11931253693518
30
0
41
1
10
27.6605519362762
20
1.99091987058603
30
0
41
1
10
28.2777372242547
20
1.72235637458937
30
0
41
1
10
28.5848359536961
20
1.58324368973047
30
0
41
1
10
29.1969479979569
20
1.2971157820721
30
0
41
1
10
29.5021385368404
20
1.15043509944226
30
0
41
1
10
30.1113933469282
20
0.851034650161466
30
0
41
1
10
30.4158617340549
20
0.699100293941825
30
0
41
1
10
31.3283678222569
20
0.235750450781893
30
0
41
1
10
31.9379187371794
20
-0.0784595960118679
30
0
41
1
10
32.7053867167689
20
-0.469941314658911
30
0
41
1
10
32.8590139980948
20
-0.548475260550163
30
0
41
1
10
33.1673156817204
20
-0.70440385888773
30
0
41
1
10
33.3216868904074
20
-0.781758304912842
30
0
41
1
10
33.7829590471607
20
-1.01151790546123
30
0
41
1
10
34.0890475129099
20
-1.16170617573272
30
0
41
1
10
35.005168790726
20
-1.59946909402399
30
0
41
1
10
35.6125672557144
20
-1.87515081615226
30
0
41
1
10
36.5255987248569
20
-2.25248172602474
30
0
41
1
10
36.8302668245593
20
-2.37223897593833
30
0
41
1
10
37.4411755826061
20
-2.5981472259335
30
0
41
1
10
37.7472917960943
20
-2.70445180939501
30
0
41
1
10
38.2090084165422
20
-2.85162360783241
30
0
41
1
10
38.3634415375297
20
-2.89877542677763
30
0
41
1
10
38.671400934744
20
-2.98854950455464
30
0
41
1
10
38.8251828526245
20
-3.03113350639717
30
0
41
1
10
39.2856590102355
20
-3.15230516651255
30
0
41
1
10
39.5918137344398
20
-3.22392759045562
30
0
41
1
10
40.2041307956627
20
-3.3475917994289
30
0
41
1
10
40.5102476774932
20
-3.39971281542341
30
0
41
1
10
41.1229595082643
20
-3.48409903340829
30
0
41
1
10
41.4296064836676
20
-3.51629581177073
30
0
41
1
10
41.7373356428095
20
-3.53805650240525
30
0
0
SPLINE
5
BF
100
AcDbEntity
8
1
62
256
6
ByLayer
370
18
48
1
60
0
100
AcDbSpline
70
4
71
3
72
42
73
38
40
0
40
0
40
0
40
0
40
0.0618620351753444
40
0.0618620351753444
40
0.123724070350689
40
0.123724070350689
40
0.154655087938361
40
0.154655087938361
40
0.185586105526033
40
0.185586105526033
40
0.247448140701377
40
0.247448140701377
40
0.309310175876722
40
0.309310175876722
40
0.371172211052066
40
0.371172211052066
40
0.433034246227411
40
0.433034246227411
40
0.494896281402755
40
0.494896281402755
40
0.556758316578099
40
0.556758316578099
40
0.618620351753444
40
0.618620351753444
40
0.680482386928788
40
0.680482386928788
40
0.742344422104133
40
0.742344422104133
40
0.804206457279477
40
0.804206457279477
40
0.866068492454821
40
0.866068492454821
40
0.927930527630166
40
0.927930527630166
40
0.98979256280551
40
0.98979256280551
40
1
40
1
40
1
40
1
41
1
10
4.65737069673537
20
2.73565201440684
30
0
41
1
10
5.04484867244597
20
2.61367492796151
30
0
41
1
10
5.43219992720026
20
2.47856775691795
30
0
41
1
10
6.20558189652508
20
2.18730598015369
30
0
41
1
10
6.59178059521696
20
2.03077612686806
30
0
41
1
10
7.17207808539138
20
1.78232414479282
30
0
41
1
10
7.36591912638224
20
1.69710127965706
30
0
41
1
10
7.75251649821737
20
1.5232315804237
30
0
41
1
10
7.94535684261666
20
1.43460503430666
30
0
41
1
10
8.52302950715728
20
1.16467086375394
30
0
41
1
10
8.90686681348342
20
0.979035809440632
30
0
41
1
10
9.67385580387264
20
0.600046025025136
30
0
41
1
10
10.0569618813246
20
0.406590772059047
30
0
41
1
10
10.8253084231454
20
0.0175124249039698
30
0
41
1
10
11.2104084941268
20
-0.178381125374045
30
0
41
1
10
11.9842491091434
20
-0.569368922873764
30
0
41
1
10
12.3707303453807
20
-0.762939709839458
30
0
41
1
10
13.1424425100297
20
-1.14079953675457
30
0
41
1
10
13.5280386999465
20
-1.3253755250123
30
0
41
1
10
14.3010462996055
20
-1.68141214276937
30
0
41
1
10
14.6882111431516
20
-1.85268412058377
30
0
41
1
10
15.4600871201028
20
-2.17548027031893
30
0
41
1
10
15.8454895611619
20
-2.3275410619581
30
0
41
1
10
16.6176952354063
20
-2.60912977273861
30
0
41
1
10
17.0050454043897
20
-2.73881491668445
30
0
41
1
10
17.7771147166956
20
-2.97074581278068
30
0
41
1
10
18.1623914475726
20
-3.07336136110641
30
0
41
1
10
18.9339368711648
20
-3.2493000813659
30
0
41
1
10
19.3210907633293
20
-3.32269699815129
30
0
41
1
10
20.0935254527774
20
-3.43774104381464
30
0
41
1
10
20.4787394287861
20
-3.47941981678861
30
0
41
1
10
21.2499086222573
20
-3.53009914553269
30
0
41
1
10
21.6362810605393
20
-3.53915221334302
30
0
41
1
10
22.4092772827899
20
-3.52413057947447
30
0
41
1
10
22.7945847810766
20
-3.50008950983471
30
0
41
1
10
23.2436158292407
20
-3.4533421898303
30
0
41
1
10
23.3072135019936
20
-3.44628242613973
30
0
41
1
10
23.3708161199141
20
-3.43878592474914
30
0
0
SPLINE
5
C0
100
AcDbEntity
8
1
62
256
6
ByLayer
370
18
48
1
60
0
100
AcDbSpline
70
4
71
3
72
10
73
6
40
0
40
0
40
0
40
0
40
0.5
40
0.5
40
1
40
1
40
1
40
1
41
1
10
42.1572016375704
20
1.24405036709041
30
0
41
1
10
42.1909972688319
20
1.28116105460316
30
0
41
1
10
42.2185376438126
20
1.32500834653334
30
0
41
1
10
42.2467039659525
20
1.4220373332561
30
0
41
1
10
42.246669115662
20
1.47388998306695
30
0
41
1
10
42.2356611099373
20
1.52355376582133
30
0
0
SPLINE
5
C1
100
AcDbEntity
8
1
62
256
6
ByLayer
370
18
48
1
60
0
100
AcDbSpline
70
4
71
3
72
20
73
16
40
0
40
0
40
0
40
0
40
0.25
40
0.25
40
0.375
40
0.375
40
0.5
40
0.5
40
0.625
40
0.625
40
0.75
40
0.75
40
0.875
40
0.875
40
1
40
1
40
1
40
1
41
1
10
9.88571889338402
20
-3.4155225057392
30
0
41
1
10
9.43019838384586
20
-3.41706907669197
30
0
41
1
10
8.97878947641374
20
-3.40110723076688
30
0
41
1
10
8.30943161314138
20
-3.34182343888867
30
0
41
1
10
8.08757203604907
20
-3.31637622390855
30
0
41
1
10
7.64635041625993
20
-3.25435891472557
30
0
41
1
10
7.42703774733775
20
-3.21748486440319
30
0
41
1
10
6.99154126078042
20
-3.12887012108715
30
0
41
1
10
6.77531863352175
20
-3.07736660517418
30
0
41
1
10
6.34648767393276
20
-2.95666423937101
30
0
41
1
10
6.13332186696036
20
-2.8869303257888
30
0
41
1
10
5.71924084191917
20
-2.72727727581074
30
0
41
1
10
5.51736150103943
20
-2.63755975367837
30
0
41
1
10
5.12669374272622
20
-2.43248120597002
30
0
41
1
10
4.93790082291966
20
-2.31713119913763
30
0
41
1
10
4.75868738621534
20
-2.18256619937694
30
0
0
SPLINE
5
C2
100
AcDbEntity
8
1
62
256
6
ByLayer
370
18
48
1
60
0
100
AcDbSpline
70
4
71
3
72
8
73
4
40
0
40
0
40
0
40
0
40
1
40
1
40
1
40
1
41
1
10
41.3745585809601
20
0.52645551836136
30
0
41
1
10
41.4948813432218
20
0.462247620794813
30
0
41
1
10
41.6158786135366
20
0.401193443047532
30
0
41
1
10
41.7376034978895
20
0.343541286673656
30
0
0
SPLINE
5
C3
100
AcDbEntity
8
1
62
256
6
ByLayer
370
18
48
1
60
0
100
AcDbSpline
70
4
71
3
72
8
73
4
40
0
40
0
40
0
40
0
40
1
40
1
40
1
40
1
41
1
10
41.6819567079637
20
-3.44987885093892
30
0
41
1
10
41.684875867672
20
-3.43566892036083
30
0
41
1
10
41.6873436970915
20
-3.42207538376349
30
0
41
1
10
41.6893721407195
20
-3.40907471976422
30
0
0
SPLINE
5
C4
100
AcDbEntity
8
1
62
256
6
ByLayer
370
18
48
1
60
0
100
AcDbSpline
70
4
71
3
72
20
73
16
40
0
40
0
40
0
40
0
40
0.200407757271363
40
0.200407757271363
40
0.300611635907045
40
0.300611635907045
40
0.400815514542727
40
0.400815514542727
40
0.601223271814089
40
0.601223271814089
40
0.701427150449771
40
0.701427150449771
40
0.801631029085452
40
0.801631029085452
40
1
40
1
40
1
40
1
41
1
10
4.3331232098279
20
-2.0198382238884
30
0
41
1
10
4.33296177779212
20
-2.20363701419066
30
0
41
1
10
4.33279374590529
20
-2.3726543337051
30
0
41
1
10
4.33255243504212
20
-2.60451662849837
30
0
41
1
10
4.33247370142055
20
-2.67816876619892
30
0
41
1
10
4.332322222633
20
-2.81798171816632
30
0
41
1
10
4.33224999929448
20
-2.88366332717436
30
0
41
1
10
4.3320491517805
20
-3.06552027303792
30
0
41
1
10
4.3319353022809
20
-3.1678617973084
30
0
41
1
10
4.33179670500669
20
-3.29293195097006
30
0
41
1
10
4.33175561919199
20
-3.33000805168857
30
0
41
1
10
4.33168452177395
20
-3.39327062267944
30
0
41
1
10
4.33165446563947
20
-3.4194964295267
30
0
41
1
10
4.33157816995262
20
-3.48195344406389
30
0
41
1
10
4.33154521635603
20
-3.50295903363576
30
0
41
1
10
4.33151899387147
20
-3.50285433814355
30
0
0
SPLINE
5
C5
100
AcDbEntity
8
1
62
256
6
ByLayer
370
18
48
1
60
0
100
AcDbSpline
70
4
71
3
72
25
73
21
40
0
40
0
40
0
40
0
40
0.125
40
0.125
40
0.250000000000001
40
0.250000000000001
40
0.375000000000001
40
0.375000000000001
40
0.500000000000001
40
0.500000000000001
40
0.625000000000002
40
0.625000000000002
40
0.687500000000002
40
0.687500000000002
40
0.750000000000002
40
0.812500000000002
40
0.812500000000002
40
0.875000000000002
40
0.875000000000002
40
1
40
1
40
1
40
1
41
1
10
4.33312320982941
20
-2.0198382238884
30
0
41
1
10
4.2546008522595
20
-1.94627027024723
30
0
41
1
10
4.17974979958177
20
-1.86828933489917
30
0
41
1
10
4.03907526271695
20
-1.70139364837195
30
0
41
1
10
3.97335028686058
20
-1.61240616025552
30
0
41
1
10
3.85640077012718
20
-1.42576132586561
30
0
41
1
10
3.80471786364331
20
-1.32763701386821
30
0
41
1
10
3.71784096741348
20
-1.11966753940806
30
0
41
1
10
3.68257300744597
20
-1.0086797028498
30
0
41
1
10
3.63473192237771
20
-0.782570482543974
30
0
41
1
10
3.62162507179409
20
-0.666646469926064
30
0
41
1
10
3.61958507511977
20
-0.488067182070296
30
0
41
1
10
3.62188514354094
20
-0.428268784303952
30
0
41
1
10
3.63214890432499
20
-0.309875844895998
30
0
41
1
10
3.64806570556735
20
-0.192145688628159
30
0
41
1
10
3.67477372105799
20
-0.0756801582372191
30
0
41
1
10
3.70668294475706
20
0.0401759043315906
30
0
41
1
10
3.72526025773095
20
0.0977549087992315
30
0
41
1
10
3.78705889049846
20
0.266087037617155
30
0
41
1
10
3.83662703845806
20
0.37375656546908
30
0
41
1
10
3.89303908660236
20
0.477705694227865
30
0
0
SPLINE
5
C6
100
AcDbEntity
8
1
62
256
6
ByLayer
370
13
48
1
60
0
100
AcDbSpline
70
4
71
3
72
80
73
76
40
0
40
0
40
0
40
0
40
0.0057356230274004
40
0.023615015470893
40
0.0325547116926386
40
0.0414944079143846
40
0.0593738003578762
40
0.0683134965796221
40
0.0772531928013678
40
0.0951325852448594
40
0.104072281466605
40
0.113011977688352
40
0.130891370131843
40
0.139831066353589
40
0.148770762575334
40
0.166650155018826
40
0.175589851240572
40
0.184529547462317
40
0.202408939905809
40
0.2202883323493
40
0.238167724792793
40
0.273926509679775
40
0.282866205901521
40
0.291805902123267
40
0.309685294566759
40
0.318624990788504
40
0.32756468701025
40
0.345444079453742
40
0.363323471897233
40
0.381202864340725
40
0.416961649227708
40
0.425901345449454
40
0.4348410416712
40
0.452720434114691
40
0.461660130336437
40
0.470599826558183
40
0.488479219001675
40
0.49741891522342
40
0.506358611445166
40
0.524238003888658
40
0.533177700110403
40
0.542117396332149
40
0.559996788775641
40
0.568936484997387
40
0.577876181219133
40
0.595755573662624
40
0.60469526988437
40
0.613634966106116
40
0.631514358549607
40
0.640454054771353
40
0.6493937509931
40
0.667273143436591
40
0.676212839658336
40
0.685152535880083
40
0.703031928323574
40
0.720911320767065
40
0.738790713210557
40
0.77454949809754
40
0.783489194319286
40
0.792428890541032
40
0.810308282984523
40
0.819247979206269
40
0.828187675428016
40
0.846067067871506
40
0.863946460314999
40
0.88182585275849
40
0.917584637645473
40
0.926524333867218
40
0.935464030088964
40
0.953343422532456
40
0.962283118754202
40
0.971222814975948
40
0.989102207419439
40
0.998041903641185
40
1
40
1
40
1
40
1
41
1
10
34.5819463927995
20
-1.41225263025433
30
0
41
1
10
34.5560496835268
20
-1.41439762673528
30
0
41
1
10
34.4494282821586
20
-1.42310337694536
30
0
41
1
10
34.3024366075707
20
-1.43442322236126
30
0
41
1
10
34.1409695555105
20
-1.4460006569557
30
0
41
1
10
33.9795202892723
20
-1.45694563210063
30
0
41
1
10
33.8180615146155
20
-1.46702016712101
30
0
41
1
10
33.65659451653
20
-1.47621904511342
30
0
41
1
10
33.4951453126564
20
-1.48476457054338
30
0
41
1
10
33.3336866331231
20
-1.49242559576888
30
0
41
1
10
33.172219730166
20
-1.4992018961706
30
0
41
1
10
33.0107705460042
20
-1.50530972439327
30
0
41
1
10
32.8493117836671
20
-1.51052528456822
30
0
41
1
10
32.6878447263363
20
-1.51484957378776
30
0
41
1
10
32.526395388789
20
-1.51849237492343
30
0
41
1
10
32.3649364508806
20
-1.52123775977375
30
0
41
1
10
32.2034693128056
20
-1.52308799655779
30
0
41
1
10
32.0420202036
20
-1.52424600475214
30
0
41
1
10
31.840209582364
20
-1.52452434717256
30
0
41
1
10
31.5980244775594
20
-1.52304185776495
30
0
41
1
10
31.2751455623666
20
-1.51841264498006
30
0
41
1
10
30.9925749116803
20
-1.51131025459287
30
0
41
1
10
30.7503444045537
20
-1.50305355725112
30
0
41
1
10
30.5888948007153
20
-1.49676761305082
30
0
41
1
10
30.4274358987809
20
-1.48960863378412
30
0
41
1
10
30.26596892743
20
-1.48158764672473
30
0
41
1
10
30.1045199167124
20
-1.47286989573655
30
0
41
1
10
29.9027093308702
20
-1.46084354577567
30
0
41
1
10
29.6605241933015
20
-1.44469435909761
30
0
41
1
10
29.3376452394232
20
-1.42060325578731
30
0
41
1
10
29.0550745604757
20
-1.39672663196254
30
0
41
1
10
28.8128441087084
20
-1.37430306106847
30
0
41
1
10
28.6513946256317
20
-1.35858911244418
30
0
41
1
10
28.4899359603115
20
-1.34209389448949
30
0
41
1
10
28.3284692139392
20
-1.32483549536741
30
0
41
1
10
28.16702017417
20
-1.30692884598307
30
0
41
1
10
28.0055615442647
20
-1.28827285197448
30
0
41
1
10
27.8440945725708
20
-1.26888672601413
30
0
41
1
10
27.6826453009775
20
-1.24887212995114
30
0
41
1
10
27.5211864227681
20
-1.22814436734816
30
0
41
1
10
27.3597192883172
20
-1.20672519835469
30
0
41
1
10
27.198269968896
20
-1.18470134895193
30
0
41
1
10
27.0368111983466
20
-1.16200478954005
30
0
41
1
10
26.8753442760387
20
-1.13865841598954
30
0
41
1
10
26.7138951657898
20
-1.11473374419452
30
0
41
1
10
26.5524365921622
20
-1.09017964695272
30
0
41
1
10
26.3909697703613
20
-1.0650201885469
30
0
41
1
10
26.2295206412283
20
-1.03931142146922
30
0
41
1
10
26.0680618793854
20
-1.01301923741042
30
0
41
1
10
25.9065947538751
20
-0.986168769384108
30
0
41
1
10
25.7451453382247
20
-0.958800689374357
30
0
41
1
10
25.5836863241862
20
-0.930898317283663
30
0
41
1
10
25.4222191349734
20
-0.902488255041675
30
0
41
1
10
25.2607699712532
20
-0.873595252742291
30
0
41
1
10
25.0589592963127
20
-0.836805570904687
30
0
41
1
10
24.8167742294328
20
-0.791720263394552
30
0
41
1
10
24.4938954658039
20
-0.730089373806891
30
0
41
1
10
24.2113249677191
20
-0.674862027566945
30
0
41
1
10
23.9690944743864
20
-0.626696425250373
30
0
41
1
10
23.8076448783754
20
-0.594108915266361
30
0
41
1
10
23.6461859917877
20
-0.561208649171022
30
0
41
1
10
23.4847190366486
20
-0.528024589855818
30
0
41
1
10
23.3232700029344
20
-0.494517048680507
30
0
41
1
10
23.1214593411471
20
-0.452248835243267
30
0
41
1
10
22.879274164297
20
-0.401053499204494
30
0
41
1
10
22.5563952651226
20
-0.33193328326621
30
0
41
1
10
22.2738246731081
20
-0.270974882687995
30
0
41
1
10
22.0315942156992
20
-0.218496751365507
30
0
41
1
10
21.8701447243861
20
-0.183224126748428
30
0
41
1
10
21.7086860513382
20
-0.147883010055324
30
0
41
1
10
21.5472192974119
20
-0.112502688336093
30
0
41
1
10
21.385770234436
20
-0.0769827583056326
30
0
41
1
10
21.224311579134
20
-0.04145595851449
30
0
41
1
10
21.0943696766049
20
-0.0128837600798875
30
0
41
1
10
21.0451645466951
20
-0.0020466277902926
30
0
41
1
10
21.0363235294417
20
-9.9052022648E-05
30
0
0
SPLINE
5
C7
100
AcDbEntity
8
1
62
256
6
ByLayer
370
18
48
1
60
0
100
AcDbSpline
70
4
71
3
72
12
73
8
40
0
40
0
40
0
40
0
40
0.5
40
0.5
40
0.75
40
0.75
40
1
40
1
40
1
40
1
41
1
10
4.75868738621534
20
-2.18256619937696
30
0
41
1
10
4.69582609442861
20
-2.13536588968034
30
0
41
1
10
4.63028099626001
20
-2.09339437348731
30
0
41
1
10
4.52344220679612
20
-2.04691725182684
30
0
41
1
10
4.48681835401158
20
-2.03450871119338
30
0
41
1
10
4.41139762515314
20
-2.0190383684043
30
0
41
1
10
4.37197829776559
20
-2.01607316175816
30
0
41
1
10
4.33312320982949
20
-2.01983822388954
30
0
0
SPLINE
5
C8
100
AcDbEntity
8
1
62
256
6
ByLayer
370
18
48
1
60
0
100
AcDbSpline
70
4
71
3
72
30
73
26
40
0
40
0
40
0
40
0
40
0.100730359928439
40
0.100730359928439
40
0.201460719856878
40
0.201460719856878
40
0.302191079785317
40
0.302191079785317
40
0.352556259749539
40
0.352556259749539
40
0.40292143971376
40
0.40292143971376
40
0.503651799642202
40
0.503651799642202
40
0.604382159570645
40
0.604382159570645
40
0.705112519499087
40
0.705112519499087
40
0.755477699463309
40
0.755477699463309
40
0.80584287942753
40
0.80584287942753
40
0.906573239355973
40
0.906573239355973
40
1
40
1
40
1
40
1
41
1
10
41.37455858096
20
0.526455518361388
30
0
41
1
10
41.0476238147103
20
0.688299769583409
30
0
41
1
10
40.7211410772816
20
0.848117146133887
30
0
41
1
10
40.0675408300952
20
1.16090244686197
30
0
41
1
10
39.7407412983819
20
1.31443890681723
30
0
41
1
10
39.0854284784285
20
1.61194337877487
30
0
41
1
10
38.7571517640479
20
1.75666958560444
30
0
41
1
10
38.2663094044465
20
1.96141616447872
30
0
41
1
10
38.102942592438
20
2.02771046223208
30
0
41
1
10
37.7759725598748
20
2.15733938202735
30
0
41
1
10
37.6125084054419
20
2.2206698207531
30
0
41
1
10
37.1218173888344
20
2.4052185502384
30
0
41
1
10
36.7938861821274
20
2.52112775874309
30
0
41
1
10
36.1378829721367
20
2.73415705916534
30
0
41
1
10
35.8110921329563
20
2.83023367753773
30
0
41
1
10
35.157031788716
20
3.00476709084691
30
0
41
1
10
34.8298271176866
20
3.0826930442567
30
0
41
1
10
34.338477480317
20
3.18403432109582
30
0
41
1
10
34.1745705879216
20
3.2152384686143
30
0
41
1
10
33.8464522431647
20
3.27144451772904
30
0
41
1
10
33.6827005234665
20
3.29639426835399
30
0
41
1
10
33.1915257407865
20
3.36326487657792
30
0
41
1
10
32.864494784156
20
3.3980851123745
30
0
41
1
10
32.2337864212033
20
3.44211014007743
30
0
41
1
10
31.9302307359988
20
3.45395438557611
30
0
41
1
10
31.6259248386148
20
3.45407838772846
30
0
0
SPLINE
5
C9
100
AcDbEntity
8
1
62
256
6
ByLayer
370
18
48
1
60
0
100
AcDbSpline
70
4
71
3
72
20
73
16
40
0
40
0
40
0
40
0
40
0.0858399052511305
40
0.0858399052511305
40
0.268671924200904
40
0.268671924200904
40
0.451503943150678
40
0.451503943150678
40
0.634335962100452
40
0.634335962100452
40
0.817167981050226
40
0.817167981050226
40
0.908583990525113
40
0.908583990525113
40
1
40
1
40
1
40
1
41
1
10
15.2789487472152
20
-2.41374366107661
30
0
41
1
10
15.1249579601403
20
-2.46735043540741
30
0
41
1
10
14.9709114864902
20
-2.51901748946574
30
0
41
1
10
14.4882806053611
20
-2.67578330914
30
0
41
1
10
14.1596479506941
20
-2.77515256965535
30
0
41
1
10
13.5012956460928
20
-2.95377525148251
30
0
41
1
10
13.1728642991724
20
-3.03285565130977
30
0
41
1
10
12.5160783619286
20
-3.16688940065234
30
0
41
1
10
12.1874760810223
20
-3.22502105644509
30
0
41
1
10
11.5287838997706
20
-3.31944082551158
30
0
41
1
10
11.200362823591
20
-3.35593217245099
30
0
41
1
10
10.7077668528252
20
-3.39110007317427
30
0
41
1
10
10.5436694631526
20
-3.39967401925179
30
0
41
1
10
10.2150418690115
20
-3.41155610170526
30
0
41
1
10
10.0504838502594
20
-3.41490216301423
30
0
41
1
10
9.8857188933838
20
-3.41552250573994
30
0
0
SPLINE
5
CA
100
AcDbEntity
8
1
62
256
6
ByLayer
370
18
48
1
60
0
100
AcDbSpline
70
4
71
3
72
12
73
8
40
0
40
0
40
0
40
0
40
0.0983917071456314
40
0.0983917071456314
40
0.9150532374556
40
0.9150532374556
40
1
40
1
40
1
40
1
41
1
10
22.2001830237731
20
-3.43853838001831
30
0
41
1
10
22.1536707515576
20
-3.43844055986429
30
0
41
1
10
22.1071671532252
20
-3.43810858951315
30
0
41
1
10
21.6747784817811
20
-3.43283350682276
30
0
41
1
10
21.2890491626795
20
-3.41183145710201
30
0
41
1
10
20.8620822863284
20
-3.37114297857227
30
0
41
1
10
20.8218738735917
20
-3.3671423573152
30
0
41
1
10
20.7816834309386
20
-3.36297553047237
30
0
0
SPLINE
5
CB
100
AcDbEntity
8
1
62
256
6
ByLayer
370
13
48
1
60
0
100
AcDbSpline
70
4
71
3
72
30
73
26
40
0
40
0
40
0
40
0
40
0.136441079063754
40
0.136441079063754
40
0.208404322475109
40
0.208404322475109
40
0.280367565886464
40
0.280367565886464
40
0.424294052709172
40
0.424294052709172
40
0.496257296120527
40
0.496257296120527
40
0.532238917826204
40
0.532238917826204
40
0.568220539531881
40
0.568220539531881
40
0.712147026354588
40
0.712147026354588
40
0.856073513177294
40
0.856073513177294
40
0.892055134882971
40
0.892055134882971
40
0.928036756588647
40
0.928036756588647
40
1
40
1
40
1
40
1
41
1
10
20.7816834308315
20
-3.36297553046126
30
0
41
1
10
20.0491077923234
20
-3.28702424369629
30
0
41
1
10
19.3225026367758
20
-3.15585186616664
30
0
41
1
10
18.2113846202121
20
-2.8792173588383
30
0
41
1
10
17.8275343634769
20
-2.77000447770351
30
0
41
1
10
17.0570793898272
20
-2.52639818173637
30
0
41
1
10
16.6694074696525
20
-2.3914949476256
30
0
41
1
10
15.5140937059144
20
-1.95812119061702
30
0
41
1
10
14.7507519302177
20
-1.63014635184459
30
0
41
1
10
13.603718754753
20
-1.10321823218834
30
0
41
1
10
13.221128999484
20
-0.921468038562409
30
0
41
1
10
12.6450375142754
20
-0.643174620046722
30
0
41
1
10
12.4526641531843
20
-0.549445047530696
30
0
41
1
10
12.0670202155384
20
-0.360477475650043
30
0
41
1
10
11.8733772854149
20
-0.265074119460905
30
0
41
1
10
10.9072298945501
20
0.211760098685772
30
0
41
1
10
10.1425305361492
20
0.59169503664458
30
0
41
1
10
8.61300459259138
20
1.31585836933809
30
0
41
1
10
7.84815897470446
20
1.65975492197722
30
0
41
1
10
6.88196518922027
20
2.0475437032724
30
0
41
1
10
6.68815871710072
20
2.12300415132529
30
0
41
1
10
6.30166301631732
20
2.26828816201567
30
0
41
1
10
6.1086643576588
20
2.33820581110129
30
0
41
1
10
5.53004826815317
20
2.53932404063227
30
0
41
1
10
5.14491419766384
20
2.66220014363949
30
0
41
1
10
4.7592270593035
20
2.77209918072725
30
0
0
SPLINE
5
CC
100
AcDbEntity
8
1
62
256
6
ByLayer
370
18
48
1
60
0
100
AcDbSpline
70
4
71
3
72
42
73
38
40
0
40
0
40
0
40
0
40
0.0147862577221157
40
0.0147862577221157
40
0.0727400072678755
40
0.0727400072678755
40
0.130693756813635
40
0.130693756813635
40
0.188647506359395
40
0.188647506359395
40
0.246601255905155
40
0.246601255905155
40
0.275578130678034
40
0.275578130678034
40
0.304555005450912
40
0.304555005450912
40
0.36250875499667
40
0.36250875499667
40
0.420462504542427
40
0.420462504542427
40
0.478416254088184
40
0.478416254088184
40
0.536370003633942
40
0.536370003633942
40
0.594323753179699
40
0.594323753179699
40
0.652277502725456
40
0.652277502725456
40
0.768185001816971
40
0.768185001816971
40
0.884092500908485
40
0.884092500908485
40
0.942046250454243
40
0.942046250454243
40
0.971023125227121
40
0.971023125227121
40
1
40
1
40
1
40
1
41
1
10
21.7264102651772
20
3.53415883585595
30
0
41
1
10
21.8249902707118
20
3.53439855008395
30
0
41
1
10
21.9235895841094
20
3.53356470461392
30
0
41
1
10
22.4086836279845
20
3.52415868405103
30
0
41
1
10
22.7939788069102
20
3.50013538353852
30
0
41
1
10
23.5648194367661
20
3.41991979879492
30
0
41
1
10
23.9502365406625
20
3.3636965373201
30
0
41
1
10
24.7232990766573
20
3.21993075406795
30
0
41
1
10
25.1091131319686
20
3.13271143594602
30
0
41
1
10
25.8798941567155
20
2.93032421211012
30
0
41
1
10
26.2649917052805
20
2.81494026428226
30
0
41
1
10
26.8440727180742
20
2.62256709541191
30
0
41
1
10
27.0374815727698
20
2.55514637272688
30
0
41
1
10
27.4235184097243
20
2.41472483368202
30
0
41
1
10
27.6162929762527
20
2.34168205465636
30
0
41
1
10
28.1943127655191
20
2.1147172806439
30
0
41
1
10
28.5792230695451
20
1.95290490144754
30
0
41
1
10
29.3505309825987
20
1.61201086623791
30
0
41
1
10
29.7373018743454
20
1.43254814242428
30
0
41
1
10
30.5081521757011
20
1.06299843253589
30
0
41
1
10
30.8929356677436
20
0.872571933767887
30
0
41
1
10
31.6635683534529
20
0.484847963332157
30
0
41
1
10
32.0501718784947
20
0.287034531004196
30
0
41
1
10
32.8214019401604
20
-0.108631897401409
30
0
41
1
10
33.2061633740951
20
-0.306611376962678
30
0
41
1
10
33.9763768252238
20
-0.698183954085806
30
0
41
1
10
34.362319283462
20
-0.8924033612046
30
0
41
1
10
35.5198052677841
20
-1.45986786989744
30
0
41
1
10
36.2873698947948
20
-1.81624603477681
30
0
41
1
10
37.8319306486526
20
-2.45417286308378
30
0
41
1
10
38.5995238052768
20
-2.7313949690477
30
0
41
1
10
39.7570314810694
20
-3.06688121496347
30
0
41
1
10
40.1424799102638
20
-3.16476765177407
30
0
41
1
10
40.7196899127491
20
-3.28888286218503
30
0
41
1
10
40.912030821732
20
-3.32650215051561
30
0
41
1
10
41.296830539734
20
-3.39403277496021
30
0
41
1
10
41.4890551798203
20
-3.42406142983654
30
0
41
1
10
41.68195670796
20
-3.44987885094841
30
0
0
SPLINE
5
CD
100
AcDbEntity
8
1
62
256
6
ByLayer
370
18
48
1
60
0
100
AcDbSpline
70
4
71
3
72
10
73
6
40
0
40
0
40
0
40
0
40
0.542471564580878
40
0.542471564580878
40
1
40
1
40
1
40
1
41
1
10
10.527680535696
20
-1.52222663933583
30
0
41
1
10
10.5956625406142
20
-1.32173171811635
30
0
41
1
10
10.6836714449629
20
-1.12707480702272
30
0
41
1
10
10.8666226181144
20
-0.814842203334507
30
0
41
1
10
10.9582225207411
20
-0.690138146546559
30
0
41
1
10
11.0511049552682
20
-0.592205725550969
30
0
0
SPLINE
5
CE
100
AcDbEntity
8
1
62
256
6
ByLayer
370
18
48
1
60
0
100
AcDbSpline
70
4
71
3
72
20
73
16
40
0
40
0
40
0
40
0
40
0.249999999999992
40
0.249999999999992
40
0.374999999999994
40
0.374999999999994
40
0.499999999999995
40
0.499999999999995
40
0.624999999999996
40
0.624999999999996
40
0.749999999999998
40
0.749999999999998
40
0.874999999999999
40
0.874999999999999
40
1
40
1
40
1
40
1
41
1
10
42.420047557192
20
-0.942355853444099
30
0
41
1
10
42.4627954135619
20
-0.90929301752135
30
0
41
1
10
42.5082282601853
20
-0.859809315711999
30
0
41
1
10
42.5807283359588
20
-0.762670901419455
30
0
41
1
10
42.6057003015193
20
-0.726253896591004
30
0
41
1
10
42.6555983026744
20
-0.648060751231583
30
0
41
1
10
42.6807100536366
20
-0.606054033319026
30
0
41
1
10
42.7312488549944
20
-0.516479823845572
30
0
41
1
10
42.7568239106292
20
-0.468615019172745
30
0
41
1
10
42.8075263360894
20
-0.368763264872228
30
0
41
1
10
42.8325165566386
20
-0.317079925020522
30
0
41
1
10
42.8817678993366
20
-0.210418279404536
30
0
41
1
10
42.9060287627558
20
-0.155438654943822
30
0
41
1
10
42.9537619930607
20
-0.0422436103278869
30
0
41
1
10
42.9771985787705
20
0.0159175587696154
30
0
41
1
10
42.9997810171516
20
0.0746012360315831
30
0
0
SPLINE
5
CF
100
AcDbEntity
8
1
62
256
6
ByLayer
370
18
48
1
60
0
100
AcDbSpline
70
4
71
3
72
8
73
4
40
0
40
0
40
0
40
0
40
1
40
1
40
1
40
1
41
1
10
42.9997810171515
20
0.0746012360314126
30
0
41
1
10
43.0000729942785
20
0.0248670786771186
30
0
41
1
10
43.0000729942785
20
-0.0248670786772038
30
0
41
1
10
42.9997810171515
20
-0.0746012360314978
30
0
0
SPLINE
5
D0
100
AcDbEntity
8
1
62
256
6
ByLayer
370
18
48
1
60
0
100
AcDbSpline
70
4
71
3
72
12
73
8
40
0
40
0
40
0
40
0
40
0.25
40
0.25
40
0.5
40
0.5
40
1
40
1
40
1
40
1
41
1
10
7.90339493820426
20
0.780822251714767
30
0
41
1
10
8.27266219178273
20
0.616125199887421
30
0
41
1
10
8.64434191790022
20
0.451780561402188
30
0
41
1
10
9.39188330123753
20
0.123135872377304
30
0
41
1
10
9.76543806348269
20
-0.040144516168624
30
0
41
1
10
10.8813379818647
20
-0.525925154775877
30
0
41
1
10
11.6206718917369
20
-0.845279370054072
30
0
41
1
10
12.3548271828111
20
-1.16018226802853
30
0
0
SPLINE
5
D1
100
AcDbEntity
8
1
62
256
6
ByLayer
370
18
48
1
60
0
100
AcDbSpline
70
4
71
3
72
8
73
4
40
0
40
0
40
0
40
0
40
1
40
1
40
1
40
1
41
1
10
42.9997810171515
20
-0.0746012360314694
30
0
41
1
10
42.9474081416814
20
-0.21683229556092
30
0
41
1
10
42.8961873421898
20
-0.359809793873097
30
0
41
1
10
42.8460019213451
20
-0.503507213563324
30
0
0
SPLINE
5
D2
100
AcDbEntity
8
1
62
256
6
ByLayer
370
18
48
1
60
0
100
AcDbSpline
70
4
71
3
72
8
73
4
40
0
40
0
40
0
40
0
40
1
40
1
40
1
40
1
41
1
10
41.7373356428095
20
3.53805650240525
30
0
41
1
10
41.8943332603787
20
3.15122994998421
30
0
41
1
10
42.0551997085971
20
2.75083944855913
30
0
41
1
10
42.2138021038064
20
2.33268496107641
30
0
0
SPLINE
5
D3
100
AcDbEntity
8
1
62
256
6
ByLayer
370
18
48
1
60
0
100
AcDbSpline
70
4
71
3
72
17
73
13
40
0
40
0
40
0
40
0
40
0.0200282614409165
40
0.142524728760802
40
0.142524728760802
40
0.265021196080687
40
0.265021196080687
40
0.510014130720458
40
0.510014130720458
40
0.755007065360229
40
0.755007065360229
40
1
40
1
40
1
40
1
41
1
10
41.4520061366987
20
0.470903126845911
30
0
41
1
10
41.4561859066121
20
0.474280381552745
30
0
41
1
10
41.4860252297846
20
0.498673895141138
30
0
41
1
10
41.5165544607148
20
0.525610769448178
30
0
41
1
10
41.5701858022735
20
0.575585582910435
30
0
41
1
10
41.5977353488151
20
0.602574963136817
30
0
41
1
10
41.6809596656638
20
0.687578596622757
30
0
41
1
10
41.7371783322173
20
0.749524922984875
30
0
41
1
10
41.852420792216
20
0.882385975158996
30
0
41
1
10
41.9117235650215
20
0.953810047018351
30
0
41
1
10
42.0312993111342
20
1.09824869244781
30
0
41
1
10
42.0917076190438
20
1.17213195737571
30
0
41
1
10
42.1572016375786
20
1.24405036709948
30
0
0
SPLINE
5
D4
100
AcDbEntity
8
1
62
256
6
ByLayer
370
18
48
1
60
0
100
AcDbSpline
70
4
71
1
72
4
73
2
40
0
40
0
40
1
40
1
41
1
10
41.6893721407147
20
-3.40907471978565
30
0
41
1
10
42.4136305945734
20
-0.964019156213936
30
0
0
SPLINE
5
D5
100
AcDbEntity
8
1
62
256
6
ByLayer
370
18
48
1
60
0
100
AcDbSpline
70
4
71
1
72
4
73
2
40
0
40
0
40
1
40
1
41
1
10
42.4136305945713
20
-0.964019156213283
30
0
41
1
10
42.4200475571907
20
-0.94235585346533
30
0
0
SPLINE
5
D6
100
AcDbEntity
8
1
62
256
6
ByLayer
370
13
48
1
60
0
100
AcDbSpline
70
4
71
3
72
18
73
14
40
0
40
0
40
0
40
0
40
0.299660727387781
40
0.299660727387781
40
0.449491091081672
40
0.449491091081672
40
0.599321454775563
40
0.599321454775563
40
0.749151818469454
40
0.749151818469454
40
0.898982182163345
40
0.898982182163345
40
1
40
1
40
1
40
1
41
1
10
4.75922705930356
20
2.77209918072725
30
0
41
1
10
4.75916710695441
20
2.89663209354947
30
0
41
1
10
4.75910743153381
20
3.0031018431759
30
0
41
1
10
4.75902177760273
20
3.13621522788537
30
0
41
1
10
4.7589938428296
20
3.17616648269851
30
0
41
1
10
4.75893967057712
20
3.24709025256954
30
0
41
1
10
4.75891333589348
20
3.27815722354518
30
0
41
1
10
4.75886336978445
20
3.33038279098091
30
0
41
1
10
4.75883974883226
20
3.35156663340598
30
0
41
1
10
4.75879551046091
20
3.38410027205631
30
0
41
1
10
4.75877485610505
20
3.39543268102977
30
0
41
1
10
4.75874345340895
20
3.40592491014996
30
0
41
1
10
4.75873163269713
20
3.40789863543299
30
0
41
1
10
4.75872063703318
20
3.40763183437326
30
0
0
SPLINE
5
D7
100
AcDbEntity
8
1
62
256
6
ByLayer
370
18
48
1
60
0
100
AcDbSpline
70
4
71
3
72
14
73
10
40
0
40
0
40
0
40
0
40
0.25
40
0.25
40
0.5
40
0.5
40
0.75
40
0.75
40
1
40
1
40
1
40
1
41
1
10
4.33102739961981
20
2.93280638626322
30
0
41
1
10
4.33100272034247
20
2.91014228983261
30
0
41
1
10
4.34876596682005
20
2.88847432974362
30
0
41
1
10
4.39447264880155
20
2.84983176619613
30
0
41
1
10
4.42309681037364
20
2.83251609973769
30
0
41
1
10
4.48413908418183
20
2.80091771279788
30
0
41
1
10
4.51721867995519
20
2.78639190560168
30
0
41
1
10
4.58560010371082
20
2.75950209999945
30
0
41
1
10
4.62098076460506
20
2.74710747297536
30
0
41
1
10
4.65737069673418
20
2.73565201440658
30
0
0
SPLINE
5
D8
100
AcDbEntity
8
1
62
256
6
ByLayer
370
13
48
1
60
0
100
AcDbSpline
70
4
71
3
72
34
73
30
40
0
40
0
40
0
40
0
40
0.13565300169974
40
0.13565300169974
40
0.203479502549609
40
0.203479502549609
40
0.237392752974544
40
0.237392752974544
40
0.271306003399479
40
0.271306003399479
40
0.339132504249349
40
0.339132504249349
40
0.373045754674284
40
0.373045754674284
40
0.406959005099219
40
0.406959005099219
40
0.542612006798957
40
0.542612006798957
40
0.678265008498694
40
0.678265008498694
40
0.746091509348563
40
0.746091509348563
40
0.813918010198432
40
0.813918010198432
40
0.94957101189817
40
0.94957101189817
40
0.983484262323104
40
0.983484262323104
40
1
40
1
40
1
40
1
41
1
10
41.6404190564887
20
-3.28115180271814
30
0
41
1
10
40.8707507931691
20
-3.15294352659333
30
0
41
1
10
40.1076771049114
20
-2.96549008985826
30
0
41
1
10
38.9614741362991
20
-2.60890500990368
30
0
41
1
10
38.5790902524587
20
-2.47741253642678
30
0
41
1
10
38.0032337115778
20
-2.26355745918642
30
0
41
1
10
37.8109335093032
20
-2.18948579519204
30
0
41
1
10
37.4254158375269
20
-2.03605098649362
30
0
41
1
10
37.232222710558
20
-1.95669760050964
30
0
41
1
10
36.6540534657634
20
-1.71264239182727
30
0
41
1
10
36.2693724457854
20
-1.54159488410875
30
0
41
1
10
35.6916981628256
20
-1.27572551358
30
0
41
1
10
35.4990637316357
20
-1.18550537734987
30
0
41
1
10
35.1134047538063
20
-1.00231023454165
30
0
41
1
10
34.9201139733604
20
-0.9092124227206
30
0
41
1
10
33.9568388417291
20
-0.440480978873126
30
0
41
1
10
33.1940004305056
20
-0.0549717391741638
30
0
41
1
10
31.6675143784983
20
0.703742105063299
30
0
41
1
10
30.9039188366939
20
1.0769880502985
30
0
41
1
10
29.7454899900056
20
1.60247518207319
30
0
41
1
10
29.3607197314362
20
1.77035390714494
30
0
41
1
10
28.5944198496298
20
2.08608190288004
30
0
41
1
10
28.2125115121037
20
2.23470008877996
30
0
41
1
10
27.0673330134849
20
2.64759882119924
30
0
41
1
10
26.3048196993174
20
2.87888240762723
30
0
41
1
10
25.3420833345476
20
3.0984360228187
30
0
41
1
10
25.1488107684731
20
3.13897179270632
30
0
41
1
10
24.8615711267535
20
3.19375392310957
30
0
41
1
10
24.767550815412
20
3.21081298603139
30
0
41
1
10
24.6735671448653
20
3.22697467336838
30
0
0
SPLINE
5
D9
100
AcDbEntity
8
1
62
256
6
ByLayer
370
18
48
1
60
0
100
AcDbSpline
70
4
71
3
72
12
73
8
40
0
40
0
40
0
40
0
40
0.249999999999991
40
0.249999999999991
40
0.499999999999982
40
0.499999999999982
40
1
40
1
40
1
40
1
41
1
10
41.6893721407161
20
-3.40907471978608
30
0
41
1
10
41.6883154287499
20
-3.39357036246446
30
0
41
1
10
41.6861733593429
20
-3.37915368233749
30
0
41
1
10
41.6803322832255
20
-3.35328153114099
30
0
41
1
10
41.6766481234051
20
-3.34173957816557
30
0
41
1
10
41.6638026707479
20
-3.31038709962263
30
0
41
1
10
41.6528276751495
20
-3.29387637733635
30
0
41
1
10
41.6404190564886
20
-3.28115180271814
30
0
0
SPLINE
5
DA
100
AcDbEntity
8
1
62
256
6
ByLayer
370
18
48
1
60
0
100
AcDbSpline
70
4
71
3
72
74
73
70
40
0
40
0
40
0
40
0
40
0.0181435642056011
40
0.0181435642056011
40
0.0362871284112022
40
0.0362871284112022
40
0.0725742568224038
40
0.0725742568224038
40
0.108861385233605
40
0.108861385233605
40
0.145148513644807
40
0.145148513644807
40
0.181435642056009
40
0.181435642056009
40
0.199579206261609
40
0.199579206261609
40
0.21772277046721
40
0.21772277046721
40
0.254009898878411
40
0.254009898878411
40
0.290297027289612
40
0.290297027289612
40
0.326584155700813
40
0.326584155700813
40
0.362871284112014
40
0.362871284112014
40
0.399158412523215
40
0.399158412523215
40
0.417301976728815
40
0.417301976728815
40
0.435445540934415
40
0.435445540934415
40
0.471732669345615
40
0.471732669345615
40
0.489876233551216
40
0.489876233551216
40
0.508019797756816
40
0.508019797756816
40
0.544306926168017
40
0.544306926168017
40
0.580594054579218
40
0.580594054579218
40
0.616881182990419
40
0.616881182990419
40
0.635024747196021
40
0.635024747196021
40
0.653168311401622
40
0.653168311401622
40
0.689455439812824
40
0.689455439812824
40
0.725742568224026
40
0.725742568224026
40
0.762029696635228
40
0.762029696635228
40
0.798316825046431
40
0.798316825046431
40
0.834603953457633
40
0.834603953457633
40
0.870891081868835
40
0.870891081868835
40
0.889034646074436
40
0.889034646074436
40
0.907178210280036
40
0.907178210280036
40
0.943465338691237
40
0.943465338691237
40
0.979752467102438
40
0.979752467102438
40
1
40
1
40
1
40
1
41
1
10
9.88571889338405
20
3.41552250573915
30
0
41
1
10
10.050583659205
20
3.41490178723115
30
0
41
1
10
10.2151912684656
20
3.41155231513534
30
0
41
1
10
10.5438241387803
20
3.39966680998125
30
0
41
1
10
10.707876474389
20
3.39109230138789
30
0
41
1
10
11.2001564412057
20
3.35594679785464
30
0
41
1
10
11.5281197653341
20
3.31950624426531
30
0
41
1
10
12.1854741774425
20
3.22533767850675
30
0
41
1
10
12.5147398187252
20
3.16714083867873
30
0
41
1
10
13.1721797121293
20
3.03301701731263
30
0
41
1
10
13.5001883077938
20
2.95402971304807
30
0
41
1
10
14.1563437749234
20
2.77609472219558
30
0
41
1
10
14.4843790641119
20
2.67699162094675
30
0
41
1
10
14.977530477513
20
2.51689654789499
30
0
41
1
10
15.1420405255605
20
2.46163093947587
30
0
41
1
10
15.4706942040402
20
2.3467250559012
30
0
41
1
10
15.6348570659184
20
2.2868929477568
30
0
41
1
10
16.1269370834869
20
2.10171844631634
30
0
41
1
10
16.4546159030365
20
1.97105941005347
30
0
41
1
10
17.1106534388634
20
1.69743561464884
30
0
41
1
10
17.4387445163486
20
1.55355046408798
30
0
41
1
10
18.0961935198363
20
1.25656494714266
30
0
41
1
10
18.4242391429823
20
1.1038334816283
30
0
41
1
10
19.079557886129
20
0.792146126178523
30
0
41
1
10
19.407198397638
20
0.63264684410413
30
0
41
1
10
20.0633668669119
20
0.310221720834079
30
0
41
1
10
20.392483434272
20
0.147190675102593
30
0
41
1
10
20.8846919110849
20
-0.0973373321629367
30
0
41
1
10
21.0486373604672
20
-0.178818318435475
30
0
41
1
10
21.376306168456
20
-0.341412115417029
30
0
41
1
10
21.5402343349957
20
-0.422069229995998
30
0
41
1
10
22.0319273143156
20
-0.663186455066096
30
0
41
1
10
22.3596431440011
20
-0.822648157691646
30
0
41
1
10
22.8523382601188
20
-1.05765638811286
30
0
41
1
10
23.0167651632287
20
-1.13515661084355
30
0
41
1
10
23.344872930575
20
-1.28870256906637
30
0
41
1
10
23.5089065698566
20
-1.3642670748392
30
0
41
1
10
24.0004931394617
20
-1.58678162997677
30
0
41
1
10
24.3277678188708
20
-1.72971305023353
30
0
41
1
10
24.9832687922047
20
-2.00354623661516
30
0
41
1
10
25.3121049679336
20
-2.13461015840176
30
0
41
1
10
25.9682626721867
20
-2.38282249988455
30
0
41
1
10
26.2958335926604
20
-2.49833280026408
30
0
41
1
10
26.7868199129936
20
-2.66000038707926
30
0
41
1
10
26.9505414128673
20
-2.71168261535925
30
0
41
1
10
27.2780806055439
20
-2.80952252050875
30
0
41
1
10
27.4420486660095
20
-2.85575574482706
30
0
41
1
10
27.9341908630312
20
-2.98786013077
30
0
41
1
10
28.2630874610841
20
-3.06612961141875
30
0
41
1
10
28.9186126865613
20
-3.20322463959016
30
0
41
1
10
29.2455893675152
20
-3.26408568735616
30
0
41
1
10
29.9006235541377
20
-3.35706025673977
30
0
41
1
10
30.2291115949891
20
-3.39128136139212
30
0
41
1
10
30.8860026443621
20
-3.43836599990922
30
0
41
1
10
31.2135022038796
20
-3.45158619793656
30
0
41
1
10
31.8683813327335
20
-3.45602744510782
30
0
41
1
10
32.1957824491281
20
-3.44444178345123
30
0
41
1
10
32.8517020655168
20
-3.39928621358266
30
0
41
1
10
33.1805587773191
20
-3.36453796583075
30
0
41
1
10
33.6724002962422
20
-3.29790136510641
30
0
41
1
10
33.8361588765625
20
-3.27307533804961
30
0
41
1
10
34.1636980596867
20
-3.21722503389017
30
0
41
1
10
34.3273858998024
20
-3.18620136043217
30
0
41
1
10
34.8187728946877
20
-3.08520235948174
30
0
41
1
10
35.1467169868129
20
-3.00734297291692
30
0
41
1
10
35.8035637394856
20
-2.83241444980064
30
0
41
1
10
36.1311223986695
20
-2.73620785374257
30
0
41
1
10
36.6413446332593
20
-2.57074204602574
30
0
41
1
10
36.8240764461844
20
-2.50855433259207
30
0
41
1
10
37.0068344651361
20
-2.44377055883103
30
0
0
SPLINE
5
DB
100
AcDbEntity
8
1
62
256
6
ByLayer
370
18
48
1
60
0
100
AcDbSpline
70
4
71
3
72
8
73
4
40
0
40
0
40
0
40
0
40
1
40
1
40
1
40
1
41
1
10
41.7373356428095
20
-3.53805650240525
30
0
41
1
10
41.8943513378985
20
-3.15118540876909
30
0
41
1
10
42.0552187567616
20
-2.75078922816078
30
0
41
1
10
42.2138021038064
20
-2.33268496107647
30
0
0
SPLINE
5
DC
100
AcDbEntity
8
1
62
256
6
ByLayer
370
13
48
1
60
0
100
AcDbSpline
70
4
71
3
72
21
73
17
40
0
40
0
40
0
40
0
40
0.142181063412762
40
0.142181063412762
40
0.249408430486167
40
0.249408430486167
40
0.356635797559571
40
0.356635797559571
40
0.571090531706381
40
0.571090531706381
40
0.678317898779786
40
0.678317898779786
40
0.785545265853191
40
0.892772632926595
40
0.892772632926595
40
1
40
1
40
1
40
1
41
1
10
4.75872064642601
20
-3.40763206173472
30
0
41
1
10
4.75869902033713
20
-3.40710985365055
30
0
41
1
10
4.75868058545629
20
-3.39792148769016
30
0
41
1
10
4.75865384209351
20
-3.3667488545519
30
0
41
1
10
4.75864415697282
20
-3.34843442803535
30
0
41
1
10
4.75862839341016
20
-3.30166019678936
30
0
41
1
10
4.75862240656522
20
-3.27342775453604
30
0
41
1
10
4.75860975845563
20
-3.17512883021982
30
0
41
1
10
4.75860834184013
20
-3.09137613245514
30
0
41
1
10
4.75861465757293
20
-2.93804885790016
30
0
41
1
10
4.75861818985857
20
-2.88214022506983
30
0
41
1
10
4.75862748229173
20
-2.76296749901482
30
0
41
1
10
4.7586390100108
20
-2.63602444676997
30
0
41
1
10
4.75865391739185
20
-2.49369475798406
30
0
41
1
10
4.75866997996945
20
-2.34354546673779
30
0
41
1
10
4.75867859613609
20
-2.26448731460479
30
0
41
1
10
4.75868738621531
20
-2.18256619937696
30
0
0
SPLINE
5
DD
100
AcDbEntity
8
1
62
256
6
ByLayer
370
18
48
1
60
0
100
AcDbSpline
70
4
71
3
72
8
73
4
40
0
40
0
40
0
40
0
40
1
40
1
40
1
40
1
41
1
10
42.4173547010652
20
-0.939674311089931
30
0
41
1
10
42.4182522909256
20
-0.940568187517243
30
0
41
1
10
42.4191499096424
20
-0.941462034969192
30
0
41
1
10
42.4200475572129
20
-0.942355853443019
30
0
0
SPLINE
5
DE
100
AcDbEntity
8
1
62
256
6
ByLayer
370
13
48
1
60
0
100
AcDbSpline
70
4
71
3
72
24
73
20
40
0
40
0
40
0
40
0
40
0.0155615815484702
40
0.0605616261060909
40
0.105561670663707
40
0.195561759778952
40
0.240561804336577
40
0.285561848894191
40
0.375561938009434
40
0.420561982567047
40
0.465562027124676
40
0.555562116239914
40
0.600562160797531
40
0.645562205355147
40
0.735562294470396
40
0.780562339028014
40
0.825562383585631
40
0.915562472700878
40
1
40
1
40
1
40
1
41
1
10
42.2356611051259
20
1.52355378752787
30
0
41
1
10
42.2217028779309
20
1.52353550448765
30
0
41
1
10
42.1673814194845
20
1.5234294879354
30
0
41
1
10
42.07269882078
20
1.52300802064556
30
0
41
1
10
41.9112314960228
20
1.5216039768026
30
0
41
1
10
41.74977363711
20
1.51930299834206
30
0
41
1
10
41.5883239294045
20
1.51610227914404
30
0
41
1
10
41.42685642099
20
1.51222570429945
30
0
41
1
10
41.2653983457803
20
1.50745374694551
30
0
41
1
10
41.1039484860579
20
1.50178482741452
30
0
41
1
10
40.9424809453169
20
1.49545182798542
30
0
41
1
10
40.7810230075211
20
1.48822774457571
30
0
41
1
10
40.6195734260767
20
1.48011212148006
30
0
41
1
10
40.458106183835
20
1.47134757096867
30
0
41
1
10
40.2966485606319
20
1.46170264079436
30
0
41
1
10
40.1351991258065
20
1.4511817489504
30
0
41
1
10
39.9737316880398
20
1.4400327553937
30
0
41
1
10
39.7768864698499
20
1.42536743927874
30
0
41
1
10
39.620415917646
20
1.41263330122868
30
0
41
1
10
39.5446719862884
20
1.40621278705433
30
0
0
SPLINE
5
DF
100
AcDbEntity
8
1
62
256
6
ByLayer
370
18
48
1
60
0
100
AcDbSpline
70
4
71
3
72
18
73
14
40
0
40
0
40
0
40
0
40
0.250000000000002
40
0.250000000000002
40
0.375000000000001
40
0.375000000000001
40
0.500000000000001
40
0.500000000000001
40
0.750000000000001
40
0.750000000000001
40
0.875
40
0.875
40
1
40
1
40
1
40
1
41
1
10
41.3745585809601
20
0.526455518361388
30
0
41
1
10
41.327378377268
20
0.321495122919828
30
0
41
1
10
41.2892624656682
20
0.114890524103487
30
0
41
1
10
41.2458907938235
20
-0.19752000223454
30
0
41
1
10
41.2337471591497
20
-0.302076514328519
30
0
41
1
10
41.2142983358586
20
-0.512067201024905
30
0
41
1
10
41.2070638372919
20
-0.617079686215249
30
0
41
1
10
41.1931608202182
20
-0.926283388896593
30
0
41
1
10
41.1940025051317
20
-1.12694370299087
30
0
41
1
10
41.2105081818243
20
-1.41967891397735
30
0
41
1
10
41.218621751514
20
-1.51626711678423
30
0
41
1
10
41.2398140166086
20
-1.70381778404331
30
0
41
1
10
41.2528766516373
20
-1.79494608370652
30
0
41
1
10
41.2683724096436
20
-1.8834631720639
30
0
0
SPLINE
5
E0
100
AcDbEntity
8
1
62
256
6
ByLayer
370
18
48
1
60
0
100
AcDbSpline
70
4
71
1
72
4
73
2
40
0
40
0
40
1
40
1
41
1
10
41.3994976685575
20
0.514282800298417
30
0
41
1
10
41.3360159262034
20
0.545795969826742
30
0
0
SPLINE
5
E1
100
AcDbEntity
8
1
62
256
6
ByLayer
370
18
48
1
60
0
100
AcDbSpline
70
4
71
2
72
6
73
3
40
0
40
0
40
0
40
1
40
1
40
1
41
1
10
21.059044130331
20
-0.0051031619288437
30
0
41
1
10
20.4146544362939
20
0.136258200900301
30
0
41
1
10
19.7777447643641
20
0.453192220085327
30
0
0
SPLINE
5
E2
100
AcDbEntity
8
1
62
256
6
ByLayer
370
18
48
1
60
0
100
AcDbSpline
70
4
71
3
72
11
73
7
40
0
40
0
40
0
40
0
40
0.203187361553883
40
0.43742119954887
40
0.702944641283136
40
1
40
1
40
1
40
1
41
1
10
31.3850310575863
20
0.0044141524057295
30
0
41
1
10
31.4803651443714
20
-0.0166076680295362
30
0
41
1
10
31.6850400950748
20
-0.0678179451765857
30
0
41
1
10
32.0118074695379
20
-0.170930096040195
30
0
41
1
10
32.3802134031898
20
-0.313968188224237
30
0
41
1
10
32.638960264455
20
-0.435628694238801
30
0
41
1
10
32.7751852571669
20
-0.505642138597153
30
0
0
SPLINE
5
E3
100
AcDbEntity
8
1
62
256
6
ByLayer
370
18
48
1
60
0
100
AcDbSpline
70
4
71
3
72
26
73
22
40
0
40
0
40
0
40
0
40
0.0782143526560088
40
0.140511816809813
40
0.193113587178112
40
0.239298073687792
40
0.278399347549045
40
0.314180317157423
40
0.357992139993616
40
0.41033030080041
40
0.454789832092438
40
0.488959683068084
40
0.52840479472744
40
0.591655560684212
40
0.65329142448098
40
0.706949105683314
40
0.757709968331344
40
0.832105491974955
40
0.900726991848529
40
0.954324992487268
40
1
40
1
40
1
40
1
41
1
10
22.1543002544498
20
-3.4384825116224
30
0
41
1
10
22.4001187982547
20
-3.43835404867963
30
0
41
1
10
22.8420115819857
20
-3.43856451330299
30
0
41
1
10
23.4518696316222
20
-3.44060167819424
30
0
41
1
10
23.9582087876375
20
-3.4420310586145
30
0
41
1
10
24.3936366146389
20
-3.4423443272851
30
0
41
1
10
24.7755025991622
20
-3.44253424177686
30
0
41
1
10
25.149971175492
20
-3.4427664012143
30
0
41
1
10
25.5662427751322
20
-3.44360004356926
30
0
41
1
10
26.0098451968315
20
-3.44492546562015
30
0
41
1
10
26.4230660159726
20
-3.44554251561328
30
0
41
1
10
26.7956034719419
20
-3.44682261533407
30
0
41
1
10
27.2274323434883
20
-3.44760585108955
30
0
41
1
10
27.7459201120063
20
-3.44674276669556
30
0
41
1
10
28.3092489429434
20
-3.44706928298615
30
0
41
1
10
28.8331700000149
20
-3.44744678894045
30
0
41
1
10
29.3973463829152
20
-3.45235543663296
30
0
41
1
10
30.0086871533704
20
-3.45118494683311
30
0
41
1
10
30.6292225735138
20
-3.45072079364817
30
0
41
1
10
31.1582228714331
20
-3.45144185445599
30
0
41
1
10
31.4714846902367
20
-3.45295682849462
30
0
41
1
10
31.6156482052365
20
-3.45384334170993
30
0
0
SPLINE
5
E4
100
AcDbEntity
8
1
62
256
6
ByLayer
370
18
48
1
60
0
100
AcDbSpline
70
4
71
1
72
4
73
2
40
0
40
0
40
1
40
1
41
1
10
9.89576636164719
20
3.41547795931493
30
0
41
1
10
9.82253876341068
20
3.41546558285867
30
0
0
SPLINE
5
E5
100
AcDbEntity
8
1
62
256
6
ByLayer
370
18
48
1
60
0
100
AcDbSpline
70
4
71
3
72
19
73
15
40
0
40
0
40
0
40
0
40
0.0825967725639003
40
0.187910907342001
40
0.260836588509572
40
0.343212884854714
40
0.412285672691973
40
0.500591240243551
40
0.609538565596225
40
0.718010982111248
40
0.782974768969918
40
0.843009278352911
40
0.929829854678199
40
1
40
1
40
1
40
1
41
1
10
9.82253876341068
20
3.41546558285867
30
0
41
1
10
9.68367308991529
20
3.41553241504877
30
0
41
1
10
9.36770365773216
20
3.41556850120799
30
0
41
1
10
8.928386536262
20
3.41440448987788
30
0
41
1
10
8.4902941096401
20
3.41432824210139
30
0
41
1
10
8.1113507060077
20
3.4127533405929
30
0
41
1
10
7.70608021617952
20
3.41220488124384
30
0
41
1
10
7.25598430207387
20
3.41194719158489
30
0
41
1
10
6.73927071756688
20
3.41110182234749
30
0
41
1
10
6.26201419976459
20
3.41051114076154
30
0
41
1
10
5.86742595860042
20
3.40932195791788
30
0
41
1
10
5.50943068978319
20
3.40840875564575
30
0
41
1
10
5.14263602590117
20
3.40809517951945
30
0
41
1
10
4.87730660663868
20
3.40772613611449
30
0
41
1
10
4.75871241209404
20
3.40757711358791
30
0
0
SPLINE
5
E6
100
AcDbEntity
8
1
62
256
6
ByLayer
370
18
48
1
60
0
100
AcDbSpline
70
4
71
3
72
24
73
20
40
0
40
0
40
0
40
0
40
0.0329622989359354
40
0.0834029252110858
40
0.141746885094532
40
0.2127959116846
40
0.280879028896462
40
0.336614445274332
40
0.397186405219625
40
0.46621587590313
40
0.536931813650607
40
0.591764621807802
40
0.646795819026809
40
0.720522934756902
40
0.784721108461587
40
0.833400873195558
40
0.889546072803298
40
0.956276443606358
40
1
40
1
40
1
40
1
41
1
10
31.6161492219694
20
3.4536829971486
30
0
41
1
10
31.5247678939189
20
3.45325414409712
30
0
41
1
10
31.2935984769599
20
3.45229537643914
30
0
41
1
10
30.9012530986973
20
3.45082290952496
30
0
41
1
10
30.402930335022
20
3.45091079010334
30
0
41
1
10
29.8555952796754
20
3.45150324259384
30
0
41
1
10
29.3155168519139
20
3.45176852327316
30
0
41
1
10
28.8044827894234
20
3.44733172561263
30
0
41
1
10
28.2908126156813
20
3.44707885020566
30
0
41
1
10
27.7356261557647
20
3.44672715658226
30
0
41
1
10
27.1963423763752
20
3.44772687663246
30
0
41
1
10
26.6958601985303
20
3.44636455947639
30
0
41
1
10
26.1870210410571
20
3.44523228530022
30
0
41
1
10
25.6522812486176
20
3.44386064127309
30
0
41
1
10
25.1350574400834
20
3.44269340558071
30
0
41
1
10
24.6667098346962
20
3.44249761805602
30
0
41
1
10
24.1911159454523
20
3.44222128474019
30
0
41
1
10
23.7298754881597
20
3.44160957495782
30
0
41
1
10
23.4241929185935
20
3.44049430796341
30
0
41
1
10
23.303205523874
20
3.44006854161773
30
0
0
SPLINE
5
E7
100
AcDbEntity
8
1
62
256
6
ByLayer
370
18
48
1
60
0
100
AcDbSpline
70
4
71
2
72
6
73
3
40
0
40
0
40
0
40
1
40
1
40
1
41
1
10
4.49740829636133
20
2.8016416238637
30
0
41
1
10
4.58101015737046
20
2.75378427514445
30
0
41
1
10
4.66980108777432
20
2.73096854642037
30
0
0
SPLINE
5
E8
100
AcDbEntity
8
1
62
256
6
ByLayer
370
18
48
1
60
0
100
AcDbSpline
70
4
71
3
72
19
73
15
40
0
40
0
40
0
40
0
40
0.0951901036639722
40
0.189525522483599
40
0.264748103532824
40
0.367634316976453
40
0.482471531931579
40
0.575088218548909
40
0.646793462229997
40
0.715464051613941
40
0.774096240735668
40
0.846470476608987
40
0.946956001500957
40
1
40
1
40
1
40
1
41
1
10
4.75871309274547
20
-3.40756709675236
30
0
41
1
10
4.92207973053181
20
-3.40772764430136
30
0
41
1
10
5.24734596095445
20
-3.40816424000389
30
0
41
1
10
5.70171010808872
20
-3.40877438967183
30
0
41
1
10
6.16928085293037
20
-3.41030280566335
30
0
41
1
10
6.67204494123953
20
-3.41104372092826
30
0
41
1
10
7.20463581495648
20
-3.4118753567669
30
0
41
1
10
7.68378842897567
20
-3.41219645007089
30
0
41
1
10
8.08349768573416
20
-3.41269199226909
30
0
41
1
10
8.42551895707447
20
-3.41405800983375
30
0
41
1
10
8.76449692029976
20
-3.41437322002628
30
0
41
1
10
9.1644865567427
20
-3.41510895257386
30
0
41
1
10
9.54467466835507
20
-3.41531966955313
30
0
41
1
10
9.80830506983449
20
-3.41552945459014
30
0
41
1
10
9.89947786199522
20
-3.41559227947349
30
0
0
LINE
5
7B
100
AcDbEntity
8
SK1
62
256
6
ByLayer
370
18
48
1
60
0
100
AcDbLine
10
0
20
-4
30
0
11
0
21
4
31
0
39
0
210
0
220
0
230
1
0
LINE
5
7D
100
AcDbEntity
8
SK1
62
256
6
ByLayer
370
18
48
1
60
0
100
AcDbLine
10
-36
20
2
30
0
11
-36
21
-2
31
0
39
0
210
0
220
0
230
1
0
LINE
5
7E
100
AcDbEntity
8
SK1
62
256
6
ByLayer
370
18
48
1
60
0
100
AcDbLine
10
-34.845299
20
4
30
0
11
-34.845299
21
-4
31
0
39
0
210
0
220
0
230
1
0
LINE
5
7F
100
AcDbEntity
8
1
62
256
6
ByLayer
370
18
48
1
60
0
100
AcDbLine
10
0
20
-4
30
0
11
0
21
4
31
0
39
0
210
0
220
0
230
1
0
LINE
5
80
100
AcDbEntity
8
1
62
256
6
ByLayer
370
13
48
1
60
0
100
AcDbLine
10
1.208442
20
3.497233
30
0
11
1.208442
21
-3.497233
31
0
39
0
210
0
220
0
230
1
0
LINE
5
81
100
AcDbEntity
8
1
62
256
6
ByLayer
370
13
48
1
60
0
100
AcDbLine
10
0.603456
20
3.748616
30
0
11
0.603456
21
-3.748616
31
0
39
0
210
0
220
0
230
1
0
LINE
5
82
100
AcDbEntity
8
1
62
256
6
ByLayer
370
18
48
1
60
0
100
AcDbLine
10
41.268372
20
-1.883463
30
0
11
42.413631
21
-0.964019
31
0
39
0
210
0
220
0
230
1
0
LINE
5
83
100
AcDbEntity
8
1
62
256
6
ByLayer
370
18
48
1
60
0
100
AcDbLine
10
42.413631
20
-0.964019
30
0
11
42.417355
21
-0.939674
31
0
39
0
210
0
220
0
230
1
0
LINE
5
84
100
AcDbEntity
8
80
62
256
6
ByLayer
370
18
48
1
60
0
100
AcDbLine
10
0
20
0
30
0
11
-5
21
0
31
0
39
0
210
0
220
0
230
1
0
LINE
5
85
100
AcDbEntity
8
4
62
256
6
ByLayer
370
18
48
0.05
60
0
100
AcDbLine
10
43
20
0
30
0
11
0
21
0
31
0
39
0
210
0
220
0
230
1
0
LINE
5
87
100
AcDbEntity
8
SK4
62
256
6
ByLayer
370
18
48
0.05
60
0
100
AcDbLine
10
48
20
0
30
0
11
-41
21
0
31
0
39
0
210
0
220
0
230
1
0
LINE
5
89
100
AcDbEntity
8
SK1
62
256
6
ByLayer
370
18
48
1
60
0
100
AcDbLine
10
-36
20
-2
30
0
11
-34.845299
21
-4
31
0
39
0
210
0
220
0
230
1
0
LINE
5
8A
100
AcDbEntity
8
SK1
62
256
6
ByLayer
370
18
48
1
60
0
100
AcDbLine
10
-34.845299
20
4
30
0
11
-36
21
2
31
0
39
0
210
0
220
0
230
1
0
LINE
5
8B
100
AcDbEntity
8
SK1
62
256
6
ByLayer
370
18
48
1
60
0
100
AcDbLine
10
-34.845299
20
-4
30
0
11
0
21
-4
31
0
39
0
210
0
220
0
230
1
0
LINE
5
8C
100
AcDbEntity
8
SK1
62
256
6
ByLayer
370
18
48
1
60
0
100
AcDbLine
10
0
20
4
30
0
11
-34.845299
21
4
31
0
39
0
210
0
220
0
230
1
0
LINE
5
8D
100
AcDbEntity
8
1
62
256
6
ByLayer
370
18
48
1
60
0
100
AcDbLine
10
1.208442
20
-3.497233
30
0
11
4.331511
21
-3.502855
31
0
39
0
210
0
220
0
230
1
0
LINE
5
8E
100
AcDbEntity
8
1
62
256
6
ByLayer
370
18
48
1
60
0
100
AcDbLine
10
20.906459
20
-3.53269
30
0
11
21.734922
21
-3.534181
31
0
39
0
210
0
220
0
230
1
0
LINE
5
8F
100
AcDbEntity
8
1
62
256
6
ByLayer
370
18
48
1
60
0
100
AcDbLine
10
21.734922
20
3.534181
30
0
11
20.906459
21
3.53269
31
0
39
0
210
0
220
0
230
1
0
LINE
5
90
100
AcDbEntity
8
1
62
256
6
ByLayer
370
18
48
1
60
0
100
AcDbLine
10
4.331511
20
3.502855
30
0
11
1.208442
21
3.497233
31
0
39
0
210
0
220
0
230
1
0
LINE
5
91
100
AcDbEntity
8
81
62
256
6
ByLayer
370
18
48
1
60
0
100
AcDbLine
10
43
20
0
30
0
11
48
21
0
31
0
39
0
210
0
220
0
230
1
0
LINE
5
92
100
AcDbEntity
8
SK2
62
256
6
ByLayer
370
13
48
1
60
0
100
AcDbLine
10
-44.625163
20
-4
30
0
11
-44.625163
21
33.117107
31
0
39
0
210
0
220
0
230
1
0
LINE
5
94
100
AcDbEntity
8
SK2
62
256
6
ByLayer
370
13
48
1
60
0
100
AcDbLine
10
-37.5875
20
4
30
0
11
-46.625163
21
4
31
0
39
0
210
0
220
0
230
1
0
LINE
5
95
100
AcDbEntity
8
SK2
62
256
6
ByLayer
370
13
48
1
60
0
100
AcDbLine
10
-37.5875
20
-4
30
0
11
-46.625163
21
-4
31
0
39
0
210
0
220
0
230
1
0
LINE
5
96
100
AcDbEntity
8
1
62
256
6
ByLayer
370
18
48
1
60
1
100
AcDbLine
10
-44.625163
20
4
30
0
11
-44.164379
21
0.500002
31
0
39
0
210
0
220
0
230
1
0
LINE
5
97
100
AcDbEntity
8
1
62
256
6
ByLayer
370
18
48
1
60
1
100
AcDbLine
10
-44.164379
20
0.500002
30
0
11
-45.085946
21
0.499998
31
0
39
0
210
0
220
0
230
1
0
LINE
5
98
100
AcDbEntity
8
1
62
256
6
ByLayer
370
18
48
1
60
1
100
AcDbLine
10
-45.085946
20
0.499998
30
0
11
-44.625163
21
4
31
0
39
0
210
0
220
0
230
1
0
LINE
5
99
100
AcDbEntity
8
1
62
256
6
ByLayer
370
18
48
1
60
1
100
AcDbLine
10
-44.625163
20
-4
30
0
11
-45.085946
21
-0.500002
31
0
39
0
210
0
220
0
230
1
0
LINE
5
9A
100
AcDbEntity
8
1
62
256
6
ByLayer
370
18
48
1
60
1
100
AcDbLine
10
-45.085946
20
-0.500002
30
0
11
-44.164379
21
-0.499998
31
0
39
0
210
0
220
0
230
1
0
LINE
5
9B
100
AcDbEntity
8
1
62
256
6
ByLayer
370
18
48
1
60
1
100
AcDbLine
10
-44.164379
20
-0.499998
30
0
11
-44.625163
21
-4
31
0
39
0
210
0
220
0
230
1
0
LINE
5
9C
100
AcDbEntity
8
2
62
256
6
ByLayer
370
13
48
1
60
0
100
AcDbLine
10
55.083343
20
-3.57
30
0
11
55.083343
21
30.77386
31
0
39
0
210
0
220
0
230
1
0
LINE
5
9E
100
AcDbEntity
8
2
62
256
6
ByLayer
370
13
48
1
60
0
100
AcDbLine
10
43.222
20
3.57
30
0
11
57.083343
21
3.57
31
0
39
0
210
0
220
0
230
1
0
LINE
5
9F
100
AcDbEntity
8
2
62
256
6
ByLayer
370
13
48
1
60
0
100
AcDbLine
10
43.222
20
-3.57
30
0
11
57.083343
21
-3.57
31
0
39
0
210
0
220
0
230
1
0
LINE
5
A0
100
AcDbEntity
8
1
62
256
6
ByLayer
370
18
48
1
60
1
100
AcDbLine
10
55.083343
20
3.57
30
0
11
55.544126
21
0.070002
31
0
39
0
210
0
220
0
230
1
0
LINE
5
A1
100
AcDbEntity
8
1
62
256
6
ByLayer
370
18
48
1
60
1
100
AcDbLine
10
55.544126
20
0.070002
30
0
11
54.622559
21
0.069998
31
0
39
0
210
0
220
0
230
1
0
LINE
5
A2
100
AcDbEntity
8
1
62
256
6
ByLayer
370
18
48
1
60
1
100
AcDbLine
10
54.622559
20
0.069998
30
0
11
55.083343
21
3.57
31
0
39
0
210
0
220
0
230
1
0
LINE
5
A3
100
AcDbEntity
8
1
62
256
6
ByLayer
370
18
48
1
60
1
100
AcDbLine
10
55.083343
20
-3.57
30
0
11
54.622559
21
-0.070002
31
0
39
0
210
0
220
0
230
1
0
LINE
5
A4
100
AcDbEntity
8
1
62
256
6
ByLayer
370
18
48
1
60
1
100
AcDbLine
10
54.622559
20
-0.070002
30
0
11
55.544126
21
-0.069998
31
0
39
0
210
0
220
0
230
1
0
LINE
5
A5
100
AcDbEntity
8
1
62
256
6
ByLayer
370
18
48
1
60
1
100
AcDbLine
10
55.544126
20
-0.069998
30
0
11
55.083343
21
-3.57
31
0
39
0
210
0
220
0
230
1
0
LINE
5
EF
100
AcDbEntity
8
1
62
256
6
ByLayer
370
18
48
1
60
1
100
AcDbLine
10
-44.625163
20
4
30
0
11
-44.164379
21
0.500002
31
0
39
0
210
0
220
0
230
1
0
LINE
5
F0
100
AcDbEntity
8
1
62
256
6
ByLayer
370
18
48
1
60
1
100
AcDbLine
10
-44.164379
20
0.500002
30
0
11
-45.085946
21
0.499998
31
0
39
0
210
0
220
0
230
1
0
LINE
5
F1
100
AcDbEntity
8
1
62
256
6
ByLayer
370
18
48
1
60
1
100
AcDbLine
10
-45.085946
20
0.499998
30
0
11
-44.625163
21
4
31
0
39
0
210
0
220
0
230
1
0
LINE
5
F3
100
AcDbEntity
8
1
62
256
6
ByLayer
370
18
48
1
60
1
100
AcDbLine
10
-44.625163
20
-4
30
0
11
-45.085946
21
-0.500002
31
0
39
0
210
0
220
0
230
1
0
LINE
5
F4
100
AcDbEntity
8
1
62
256
6
ByLayer
370
18
48
1
60
1
100
AcDbLine
10
-45.085946
20
-0.500002
30
0
11
-44.164379
21
-0.499998
31
0
39
0
210
0
220
0
230
1
0
LINE
5
F5
100
AcDbEntity
8
1
62
256
6
ByLayer
370
18
48
1
60
1
100
AcDbLine
10
-44.164379
20
-0.499998
30
0
11
-44.625163
21
-4
31
0
39
0
210
0
220
0
230
1
0
LINE
5
F9
100
AcDbEntity
8
1
62
256
6
ByLayer
370
18
48
1
60
1
100
AcDbLine
10
55.083343
20
3.57
30
0
11
55.544126
21
0.070002
31
0
39
0
210
0
220
0
230
1
0
LINE
5
FA
100
AcDbEntity
8
1
62
256
6
ByLayer
370
18
48
1
60
1
100
AcDbLine
10
55.544126
20
0.070002
30
0
11
54.622559
21
0.069998
31
0
39
0
210
0
220
0
230
1
0
LINE
5
FB
100
AcDbEntity
8
1
62
256
6
ByLayer
370
18
48
1
60
1
100
AcDbLine
10
54.622559
20
0.069998
30
0
11
55.083343
21
3.57
31
0
39
0
210
0
220
0
230
1
0
LINE
5
FD
100
AcDbEntity
8
1
62
256
6
ByLayer
370
18
48
1
60
1
100
AcDbLine
10
55.083343
20
-3.57
30
0
11
54.622559
21
-0.070002
31
0
39
0
210
0
220
0
230
1
0
LINE
5
FE
100
AcDbEntity
8
1
62
256
6
ByLayer
370
18
48
1
60
1
100
AcDbLine
10
54.622559
20
-0.070002
30
0
11
55.544126
21
-0.069998
31
0
39
0
210
0
220
0
230
1
0
LINE
5
FF
100
AcDbEntity
8
1
62
256
6
ByLayer
370
18
48
1
60
1
100
AcDbLine
10
55.544126
20
-0.069998
30
0
11
55.083343
21
-3.57
31
0
39
0
210
0
220
0
230
1
0
MTEXT
5
E9
100
AcDbEntity
8
SK6
62
256
6
ByLayer
370
13
48
1
60
0
100
AcDbMText
10
-24.35586
20
36.110328
30
0
210
0
220
0
230
1
1
\W0.7326;860.1-0714-028A1-PM P1BM
40
3.5
41
0
44
1.084337
50
0
71
7
72
5
7
iso_b_vert
0
MTEXT
5
ED
100
AcDbEntity
8
SK2
62
256
6
ByLayer
370
18
48
1
60
0
100
AcDbMText
10
-46.189796
20
17.409024
30
0
210
0
220
0
230
1
1
%%c
40
3.5
41
0
44
1.084337
50
90
71
7
72
5
7
iso_b_vert
0
MTEXT
5
EE
100
AcDbEntity
8
SK2
62
256
6
ByLayer
370
18
48
1
60
0
100
AcDbMText
10
-46.189796
20
22.63168
30
0
210
0
220
0
230
1
1
\W0.7317;8,000
40
3.5
41
0
44
1.084337
50
90
71
7
72
5
7
iso_b_vert
0
MTEXT
5
F7
100
AcDbEntity
8
2
62
256
6
ByLayer
370
18
48
1
60
0
100
AcDbMText
10
53.518709
20
15.57211
30
0
210
0
220
0
230
1
1
%%c
40
3.5
41
0
44
1.084337
50
90
71
7
72
5
7
iso_b_vert
0
MTEXT
5
F8
100
AcDbEntity
8
2
62
256
6
ByLayer
370
18
48
1
60
0
100
AcDbMText
10
53.518709
20
20.794766
30
0
210
0
220
0
230
1
1
\W0.6977;7,140
40
3.5
41
0
44
1.084337
50
90
71
7
72
5
7
iso_b_vert
0
HATCH
5
F2
100
AcDbEntity
8
SK2
62
256
6
ByLayer
370
13
48
1
60
0
100
AcDbHatch
10
0
20
0
30
0
210
0
220
0
230
1
2
ANSI31
70
0
71
0
91
1
92
5
93
3
72
1
10
-44.6251625675374
20
4
11
-44.1643788259847
21
0.500001692553184
72
1
10
-44.1643788259847
20
0.500001692553184
11
-45.0859463090902
21
0.499998307446816
72
1
10
-45.0859463090902
20
0.499998307446816
11
-44.6251625675374
21
4
97
0
75
0
76
1
52
0
41
0.0062
77
0
78
1
53
45
43
0
44
0
45
-0.0139193969876572
46
0.0139193969876572
79
0
47
0
98
1
10
0
20
0
0
HATCH
5
F6
100
AcDbEntity
8
SK2
62
256
6
ByLayer
370
13
48
1
60
0
100
AcDbHatch
10
0
20
0
30
0
210
0
220
0
230
1
2
ANSI31
70
0
71
0
91
1
92
5
93
3
72
1
10
-44.6251625675374
20
-4
11
-45.0859463090902
21
-0.500001692553184
72
1
10
-45.0859463090902
20
-0.500001692553184
11
-44.1643788259847
21
-0.499998307446816
72
1
10
-44.1643788259847
20
-0.499998307446816
11
-44.6251625675374
21
-4
97
0
75
0
76
1
52
0
41
0.0062
77
0
78
1
53
45
43
0
44
0
45
-0.0139193969876572
46
0.0139193969876572
79
0
47
0
98
1
10
0
20
0
0
HATCH
5
FC
100
AcDbEntity
8
2
62
256
6
ByLayer
370
13
48
1
60
0
100
AcDbHatch
10
0
20
0
30
0
210
0
220
0
230
1
2
ANSI31
70
0
71
0
91
1
92
5
93
3
72
1
10
55.083342615295
20
3.57000000000002
11
55.5441263568478
21
0.0700016925532054
72
1
10
55.5441263568478
20
0.0700016925532054
11
54.6225588737423
21
0.0699983074468378
72
1
10
54.6225588737423
20
0.0699983074468378
11
55.083342615295
21
3.57000000000002
97
0
75
0
76
1
52
0
41
0.0062
77
0
78
1
53
45
43
0
44
0
45
-0.0139193969876572
46
0.0139193969876572
79
0
47
0
98
1
10
0
20
0
0
HATCH
5
100
100
AcDbEntity
8
2
62
256
6
ByLayer
370
13
48
1
60
0
100
AcDbHatch
10
0
20
0
30
0
210
0
220
0
230
1
2
ANSI31
70
0
71
0
91
1
92
5
93
3
72
1
10
55.083342615295
20
-3.56999999999999
11
54.6225588737423
21
-0.070001692553177
72
1
10
54.6225588737423
20
-0.070001692553177
11
55.5441263568478
21
-0.0699983074468093
72
1
10
55.5441263568478
20
-0.0699983074468093
11
55.083342615295
21
-3.56999999999999
97
0
75
0
76
1
52
0
41
0.0062
77
0
78
1
53
45
43
0
44
0
45
-0.0139193969876572
46
0.0139193969876572
79
0
47
0
98
1
10
0
20
0
0
DIMENSION
5
102
100
AcDbEntity
8
2
62
256
6
ByLayer
370
13
48
1
60
0
100
AcDbDimension
2
_U0
10
41.6345
20
-13.783398
30
0
11
20.81725
21
-13.783398
31
0
70
32
71
1
72
1
41
1
210
0
220
0
230
1
3
Standard
100
AcDbAlignedDimension
13
0
23
0
33
0
14
41.6345
24
-3.57
34
0
50
0
100
AcDbRotatedDimension
1001
ACAD
1000
DSTYLE
1002
{
1070
   371
1070
    13
1070
   372
1070
    13
1070
   170
1070
     0
1070
   144
1040
1.0
1070
   277
1070
     2
1070
   278
1070
    44
1070
   146
1040
1.0
1070
   345
1005
16
1070
   347
1005
16
1070
   346
1005
16
1070
   344
1005
0
1070
   343
1005
0
1070
   172
1070
     1
1070
    76
1070
     0
1070
    75
1070
     0
1070
   282
1070
     0
1070
   281
1070
     0
1070
    71
1070
     0
1070
    74
1070
     0
1070
   279
1070
     0
1070
   173
1070
     1
1070
   340
1005
EA
1070
   271
1070
     2
1070
   272
1070
     2
1070
    77
1070
     1
1070
    73
1070
     1
1070
   171
1070
     3
1070
   274
1070
     4
1070
   177
1070
    35
1070
   176
1070
    35
1070
   178
1070
    35
1070
    48
1040
-0.1
1070
    41
1040
3.5
1070
   147
1040
1.75
1070
    42
1040
1.5875
1070
    44
1040
2.0
1070
   140
1040
3.5
1002
}
1001
ACAD_DSTYLE_DIM_LINETYPE
1070
   380
1005
16
1001
ACAD_DSTYLE_DIM_EXT1_LINETYPE
1070
   381
1005
16
1001
ACAD_DSTYLE_DIM_EXT2_LINETYPE
1070
   382
1005
16
0
DIMENSION
5
11B
100
AcDbEntity
8
SK2
62
256
6
ByLayer
370
13
48
1
60
0
100
AcDbDimension
2
_U1
10
43
20
-32.692985
30
0
11
3.5
21
-32.692985
31
0
70
32
71
1
72
1
41
1
210
0
220
0
230
1
3
Standard
100
AcDbAlignedDimension
13
-36
23
-4
33
0
14
43
24
0
34
0
50
0
100
AcDbRotatedDimension
1001
ACAD
1000
DSTYLE
1002
{
1070
   371
1070
    13
1070
   372
1070
    13
1070
   170
1070
     0
1070
   144
1040
1.0
1070
   277
1070
     2
1070
   278
1070
    44
1070
   146
1040
1.0
1070
   345
1005
16
1070
   347
1005
16
1070
   346
1005
16
1070
   344
1005
0
1070
   343
1005
0
1070
   172
1070
     1
1070
    76
1070
     0
1070
    75
1070
     0
1070
   282
1070
     0
1070
   281
1070
     0
1070
    71
1070
     0
1070
    74
1070
     0
1070
   279
1070
     0
1070
   173
1070
     1
1070
   340
1005
EA
1070
   271
1070
     2
1070
   272
1070
     2
1070
    77
1070
     1
1070
    73
1070
     1
1070
   171
1070
     3
1070
   274
1070
     4
1070
   177
1070
    35
1070
   176
1070
    35
1070
   178
1070
    35
1070
    48
1040
-0.1
1070
    41
1040
3.5
1070
   147
1040
1.75
1070
    42
1040
1.5875
1070
    44
1040
2.0
1070
   140
1040
3.5
1002
}
1001
ACAD_DSTYLE_DIM_LINETYPE
1070
   380
1005
16
1001
ACAD_DSTYLE_DIM_EXT1_LINETYPE
1070
   381
1005
16
1001
ACAD_DSTYLE_DIM_EXT2_LINETYPE
1070
   382
1005
16
0
DIMENSION
5
133
100
AcDbEntity
8
SK2
62
256
6
ByLayer
370
13
48
1
60
0
100
AcDbDimension
2
_U2
10
43
20
15.179119
30
0
11
31.605
21
15.179119
31
0
70
32
71
1
72
1
41
1
210
0
220
0
230
1
3
Standard
100
AcDbAlignedDimension
13
20.21
23
3.57
33
0
14
43
24
0
34
0
50
0
100
AcDbRotatedDimension
1001
ACAD
1000
DSTYLE
1002
{
1070
   371
1070
    13
1070
   372
1070
    13
1070
   170
1070
     0
1070
   144
1040
1.0
1070
   277
1070
     2
1070
   278
1070
    44
1070
   146
1040
1.0
1070
   345
1005
16
1070
   347
1005
16
1070
   346
1005
16
1070
   344
1005
0
1070
   343
1005
0
1070
   172
1070
     1
1070
    76
1070
     0
1070
    75
1070
     0
1070
   282
1070
     0
1070
   281
1070
     0
1070
    71
1070
     0
1070
    74
1070
     0
1070
   279
1070
     0
1070
   173
1070
     1
1070
   340
1005
EA
1070
   271
1070
     2
1070
   272
1070
     2
1070
    77
1070
     1
1070
    73
1070
     1
1070
   171
1070
     3
1070
   274
1070
     4
1070
   177
1070
    35
1070
   176
1070
    35
1070
   178
1070
    35
1070
    48
1040
-0.1
1070
    41
1040
3.5
1070
   147
1040
1.75
1070
    42
1040
1.5875
1070
    44
1040
2.0
1070
   140
1040
3.5
1002
}
1001
ACAD_DSTYLE_DIM_LINETYPE
1070
   380
1005
16
1001
ACAD_DSTYLE_DIM_EXT1_LINETYPE
1070
   381
1005
16
1001
ACAD_DSTYLE_DIM_EXT2_LINETYPE
1070
   382
1005
16
0
DIMENSION
5
14B
100
AcDbEntity
8
SK2
62
256
6
ByLayer
370
13
48
1
60
0
100
AcDbDimension
2
_U3
10
41.6345
20
-16.372503
30
0
11
60.333333
21
-16.372503
31
0
70
32
71
1
72
1
41
1
210
0
220
0
230
1
3
Standard
100
AcDbAlignedDimension
13
43
23
0
33
0
14
41.6345
24
-3.57
34
0
50
0
100
AcDbRotatedDimension
1001
ACAD
1000
DSTYLE
1002
{
1070
   371
1070
    13
1070
   372
1070
    13
1070
   170
1070
     0
1070
   144
1040
1.0
1070
   277
1070
     2
1070
   278
1070
    44
1070
   146
1040
1.0
1070
   345
1005
16
1070
   347
1005
16
1070
   346
1005
16
1070
   344
1005
0
1070
   343
1005
0
1070
   172
1070
     1
1070
    76
1070
     0
1070
    75
1070
     0
1070
   282
1070
     0
1070
   281
1070
     0
1070
    71
1070
     0
1070
    74
1070
     0
1070
   279
1070
     0
1070
   173
1070
     1
1070
   340
1005
EA
1070
   271
1070
     2
1070
   272
1070
     2
1070
    77
1070
     1
1070
    73
1070
     1
1070
   171
1070
     3
1070
   274
1070
     4
1070
   177
1070
    35
1070
   176
1070
    35
1070
   178
1070
    35
1070
    48
1040
-0.1
1070
    41
1040
3.5
1070
   147
1040
1.75
1070
    42
1040
1.5875
1070
    44
1040
2.0
1070
   140
1040
3.5
1002
}
1001
ACAD_DSTYLE_DIM_LINETYPE
1070
   380
1005
16
1001
ACAD_DSTYLE_DIM_EXT1_LINETYPE
1070
   381
1005
16
1001
ACAD_DSTYLE_DIM_EXT2_LINETYPE
1070
   382
1005
16
0
DIMENSION
5
165
100
AcDbEntity
8
SK2
62
256
6
ByLayer
370
13
48
1
60
0
100
AcDbDimension
2
_U4
10
41.6345
20
-22.343428
30
0
11
2.81725
21
-22.343428
31
0
70
32
71
1
72
1
41
1
210
0
220
0
230
1
3
Standard
100
AcDbAlignedDimension
13
-36
23
-4
33
0
14
41.6345
24
-3.57
34
0
50
0
100
AcDbRotatedDimension
1001
ACAD
1000
DSTYLE
1002
{
1070
   371
1070
    13
1070
   372
1070
    13
1070
   170
1070
     0
1070
   144
1040
1.0
1070
   277
1070
     2
1070
   278
1070
    44
1070
   146
1040
1.0
1070
   345
1005
16
1070
   347
1005
16
1070
   346
1005
16
1070
   344
1005
0
1070
   343
1005
0
1070
   172
1070
     1
1070
    76
1070
     0
1070
    75
1070
     0
1070
   282
1070
     0
1070
   281
1070
     0
1070
    71
1070
     0
1070
    74
1070
     0
1070
   279
1070
     0
1070
   173
1070
     1
1070
   340
1005
EA
1070
   271
1070
     2
1070
   272
1070
     2
1070
    77
1070
     1
1070
    73
1070
     1
1070
   171
1070
     3
1070
   274
1070
     4
1070
   177
1070
    35
1070
   176
1070
    35
1070
   178
1070
    35
1070
    48
1040
-0.1
1070
    41
1040
3.5
1070
   147
1040
1.75
1070
    42
1040
1.5875
1070
    44
1040
2.0
1070
   140
1040
3.5
1002
}
1001
ACAD_DSTYLE_DIM_LINETYPE
1070
   380
1005
16
1001
ACAD_DSTYLE_DIM_EXT1_LINETYPE
1070
   381
1005
16
1001
ACAD_DSTYLE_DIM_EXT2_LINETYPE
1070
   382
1005
16
0
ENDSEC
0
SECTION
2
OBJECTS
0
DICTIONARY
5
1ed
330
0
100
AcDbDictionary
280
0
281
1
3
ACAD_GROUP
350
1ee
3
ACAD_MLINESTYLE
350
1ef
0
DICTIONARY
5
1ee
330
0
100
AcDbDictionary
280
0
281
1
0
DICTIONARY
5
1ef
330
0
100
AcDbDictionary
280
0
281
1
3
Standard
350
18
0
MLINESTYLE
5
18
330
1ef
100
AcDbMlineStyle
2
Standard
70
0
3

62
256
51
90
52
90
71
2
49
-0.5
62
256
6
ByLayer
49
0.5
62
256
6
ByLayer
0
RASTERVARIABLES
5
1db
330

100
AcDbRasterVariables
90
0
70
1
71
1
72
1
0
ENDSEC
0
EOF
