0
SECTION
2
HEADER
9
$ACADVER
1
AC1015
9
$DWGCODEPAGE
3
ANSI_1252
9
$HANDSEED
5
1fa
9
$ANGBASE
50
0
9
$ANGDIR
70
0
9
$ATTMODE
70
1
9
$AUNITS
70
0
9
$AUPREC
70
0
9
$CECOLOR
62
256
9
$CELTSCALE
40
1
9
$CELTYPE
6
ByLayer
9
$CELWEIGHT
370
18
9
$CLAYER
8
0
9
$CMLJUST
70
0
9
$CMLSCALE
40
1
9
$CMLSTYLE
2
Standard
9
$DIMSTYLE
2
Standard
9
$TEXTSIZE
40
0.2
9
$TEXTSTYLE
7
Standard
9
$LUNITS
70
2
9
$LUPREC
70
4
9
$EXTNAMES
290
1
9
$INSUNITS
70
4
9
$LTSCALE
40
1
9
$LWDISPLAY
290
1
9
$PDMODE
70
0
9
$PDSIZE
40
0
9
$PLINEGEN
70
0
0
ENDSEC
0
SECTION
2
CLASSES
0
CLASS
1
RASTERVARIABLES
2
AcDbRasterVariables
3
ISM
90
0
280
0
281
0
0
ENDSEC
0
SECTION
2
TABLES
0
TABLE
2
VPORT
5
1f0
100
AcDbSymbolTable
0
VPORT
5
1
100
AcDbSymbolTableRecord
100
AcDbViewportTableRecord
2
*Active
70
0
10
0
20
0
11
1
21
1
12
-1
22
1
13
0
23
0
14
0.5
24
0.5
15
10
25
10
16
0
26
0
36
1
17
0
27
0
37
0
0
ENDTAB
0
TABLE
2
LTYPE
5
1f1
100
AcDbSymbolTable
0
LTYPE
5
14
100
AcDbSymbolTableRecord
100
AcDbLinetypeTableRecord
70
0
2
ByBlock
3

72
65
73
0
40
0
0
LTYPE
5
15
100
AcDbSymbolTableRecord
100
AcDbLinetypeTableRecord
70
0
2
ByLayer
3

72
65
73
0
40
0
0
LTYPE
5
16
100
AcDbSymbolTableRecord
100
AcDbLinetypeTableRecord
70
0
2
Continuous
3
Solid line
72
65
73
0
40
0
0
LTYPE
5
6E
100
AcDbSymbolTableRecord
100
AcDbLinetypeTableRecord
70
0
2
CENTER
3
____ _ ____ _ ____ _ ____
72
65
73
4
40
47.5
49
22
74
0
49
-8.5
74
0
49
8.5
74
0
49
-8.5
74
0
0
LTYPE
5
6F
100
AcDbSymbolTableRecord
100
AcDbLinetypeTableRecord
70
0
2
DASHED
3
__ __ __ __ __ __ __ __ __
72
65
73
2
40
25.72
49
12.86
74
0
49
-12.86
74
0
0
ENDTAB
0
TABLE
2
LAYER
5
1f2
100
AcDbSymbolTable
0
LAYER
5
10
100
AcDbSymbolTableRecord
100
AcDbLayerTableRecord
2
0
70
0
62
7
6
Continuous
290
1
370
-3
390
0
0
LAYER
5
71
100
AcDbSymbolTableRecord
100
AcDbLayerTableRecord
2
80
70
0
62
-6
6
Continuous
290
1
370
-3
390
0
0
LAYER
5
73
100
AcDbSymbolTableRecord
100
AcDbLayerTableRecord
2
81
70
0
62
-3
6
Continuous
290
1
370
-3
390
0
0
LAYER
5
75
100
AcDbSymbolTableRecord
100
AcDbLayerTableRecord
2
1
70
0
62
4
6
Continuous
290
1
370
-3
390
0
0
LAYER
5
87
100
AcDbSymbolTableRecord
100
AcDbLayerTableRecord
2
4
70
0
62
-2
6
CENTER
290
1
370
-3
390
0
0
LAYER
5
9C
100
AcDbSymbolTableRecord
100
AcDbLayerTableRecord
2
2
70
0
62
7
6
Continuous
290
1
370
-3
390
0
0
LAYER
5
105
100
AcDbSymbolTableRecord
100
AcDbLayerTableRecord
2
Defpoints
70
0
62
7
6
Continuous
290
0
370
-3
390
0
0
LAYER
5
1dc
100
AcDbSymbolTableRecord
100
AcDbLayerTableRecord
2
SK1
70
0
62
4
6
Continuous
290
1
370
-3
390
0
0
LAYER
5
1dd
100
AcDbSymbolTableRecord
100
AcDbLayerTableRecord
2
SK4
70
0
62
2
6
CENTER
290
1
370
-3
390
0
0
LAYER
5
1de
100
AcDbSymbolTableRecord
100
AcDbLayerTableRecord
2
SK2
70
0
62
7
6
Continuous
290
1
370
-3
390
0
0
LAYER
5
1df
100
AcDbSymbolTableRecord
100
AcDbLayerTableRecord
2
SK6
70
0
62
5
6
Continuous
290
1
370
-3
390
0
0
ENDTAB
0
TABLE
2
STYLE
5
1f3
100
AcDbSymbolTable
0
STYLE
5
11
100
AcDbSymbolTableRecord
100
AcDbTextStyleTableRecord
2
Standard
3
txt
70
0
71
0
40
0
41
1
42
0
50
0
0
STYLE
5
EA
100
AcDbSymbolTableRecord
100
AcDbTextStyleTableRecord
2
iso_b_vert
3
simplex.shx
70
0
71
0
40
0
41
1
42
0
50
0
0
STYLE
5
EB
100
AcDbSymbolTableRecord
100
AcDbTextStyleTableRecord
2
DWGDirectTextStyle
3
simplex
70
0
71
0
40
0
41
1
42
0
50
0
0
ENDTAB
0
TABLE
2
DIMSTYLE
5
1f4
100
AcDbSymbolTable
100
AcDbDimStyleTable
0
DIMSTYLE
105
27
100
AcDbSymbolTableRecord
100
AcDbDimStyleTableRecord
2
Standard
70
0
3
<>
41
0.18
42
0.0625
44
0.18
140
0.18
147
0.09
73
0
74
0
77
1
271
2
275
0
278
52
280
0
340
11
0
ENDTAB
0
TABLE
2
VIEW
5
1f5
100
AcDbSymbolTable
0
ENDTAB
0
TABLE
2
UCS
5
1f6
100
AcDbSymbolTable
0
ENDTAB
0
TABLE
2
APPID
5
1f7
100
AcDbSymbolTable
0
APPID
5
12
100
AcDbSymbolTableRecord
100
AcDbRegAppTableRecord
2
ACAD
70
0
0
APPID
5
101
100
AcDbSymbolTableRecord
100
AcDbRegAppTableRecord
2
ACAD_DSTYLE_DIMBREAK
70
0
0
APPID
5
19B
100
AcDbSymbolTableRecord
100
AcDbRegAppTableRecord
2
ACAD_DSTYLE_DIM_LINETYPE
70
0
0
APPID
5
19C
100
AcDbSymbolTableRecord
100
AcDbRegAppTableRecord
2
ACAD_DSTYLE_DIM_EXT1_LINETYPE
70
0
0
APPID
5
19D
100
AcDbSymbolTableRecord
100
AcDbRegAppTableRecord
2
ACAD_DSTYLE_DIM_EXT2_LINETYPE
70
0
0
APPID
5
1D8
100
AcDbSymbolTableRecord
100
AcDbRegAppTableRecord
2
ACAD_MLEADERVER
70
0
0
ENDTAB
0
TABLE
2
BLOCK_RECORD
5
1f8
100
AcDbSymbolTable
0
BLOCK_RECORD
5
1F
100
AcDbSymbolTableRecord
100
AcDbBlockTableRecord
2
*Model_Space
340
0
70
0
0
BLOCK_RECORD
5
1B
100
AcDbSymbolTableRecord
100
AcDbBlockTableRecord
2
*Paper_Space
340
0
70
0
0
BLOCK_RECORD
5
23
100
AcDbSymbolTableRecord
100
AcDbBlockTableRecord
2
*Paper_Space0
340
0
70
0
0
BLOCK_RECORD
5
106
100
AcDbSymbolTableRecord
100
AcDbBlockTableRecord
2
*D1
340
0
70
0
0
BLOCK_RECORD
5
112
100
AcDbSymbolTableRecord
100
AcDbBlockTableRecord
2
_U0
340
0
70
0
0
BLOCK_RECORD
5
11E
100
AcDbSymbolTableRecord
100
AcDbBlockTableRecord
2
*D3
340
0
70
0
0
BLOCK_RECORD
5
12A
100
AcDbSymbolTableRecord
100
AcDbBlockTableRecord
2
_U1
340
0
70
0
0
BLOCK_RECORD
5
136
100
AcDbSymbolTableRecord
100
AcDbBlockTableRecord
2
*D5
340
0
70
0
0
BLOCK_RECORD
5
142
100
AcDbSymbolTableRecord
100
AcDbBlockTableRecord
2
_U2
340
0
70
0
0
BLOCK_RECORD
5
14E
100
AcDbSymbolTableRecord
100
AcDbBlockTableRecord
2
*D7
340
0
70
0
0
BLOCK_RECORD
5
15C
100
AcDbSymbolTableRecord
100
AcDbBlockTableRecord
2
_U3
340
0
70
0
0
BLOCK_RECORD
5
168
100
AcDbSymbolTableRecord
100
AcDbBlockTableRecord
2
*D9
340
0
70
0
0
BLOCK_RECORD
5
174
100
AcDbSymbolTableRecord
100
AcDbBlockTableRecord
2
_U4
340
0
70
0
0
ENDTAB
0
ENDSEC
0
SECTION
2
BLOCKS
0
BLOCK
5
20
100
AcDbEntity
8
0
100
AcDbBlockBegin
2
*Model_Space
70
0
10
0
20
0
30
0
3
*Model_Space
0
ENDBLK
5
21
100
AcDbEntity
8
0
100
AcDbBlockEnd
0
BLOCK
5
1C
100
AcDbEntity
8
0
100
AcDbBlockBegin
2
*Paper_Space
70
0
10
0
20
0
30
0
3
*Paper_Space
0
ENDBLK
5
1D
100
AcDbEntity
8
0
100
AcDbBlockEnd
0
BLOCK
5
24
100
AcDbEntity
8
0
100
AcDbBlockBegin
2
*Paper_Space0
70
0
10
0
20
0
30
0
3
*Paper_Space0
0
ENDBLK
5
25
100
AcDbEntity
8
0
100
AcDbBlockEnd
0
BLOCK
5
107
100
AcDbEntity
8
0
100
AcDbBlockBegin
2
*D1
70
1
10
0
20
0
30
0
3
*D1
0
LINE
5
109
100
AcDbEntity
8
0
62
256
6
ByLayer
370
-2
48
1
60
0
100
AcDbLine
10
0
20
-1.5875
30
0
11
0
21
-16.263398
31
0
39
0
210
0
220
0
230
1
0
LINE
5
10A
100
AcDbEntity
8
0
62
256
6
ByLayer
370
-2
48
1
60
0
100
AcDbLine
10
47.4352
20
-5.6375
30
0
11
47.4352
21
-16.263398
31
0
39
0
210
0
220
0
230
1
0
LINE
5
10B
100
AcDbEntity
8
0
62
256
6
ByLayer
370
-2
48
1
60
0
100
AcDbLine
10
3.5
20
-14.263398
30
0
11
43.9352
21
-14.263398
31
0
39
0
210
0
220
0
230
1
0
SOLID
5
10C
100
AcDbEntity
8
0
62
256
6
ByLayer
370
-1
48
1
60
0
100
AcDbTrace
10
3.5
20
-13.680065
30
0
11
3.5
21
-14.846732
31
0
12
0
22
-14.263398
32
0
13
0
23
-14.263398
33
0
39
0
210
0
220
0
230
1
0
SOLID
5
10D
100
AcDbEntity
8
0
62
256
6
ByLayer
370
-1
48
1
60
0
100
AcDbTrace
10
43.9352
20
-14.846732
30
0
11
43.9352
21
-13.680065
31
0
12
47.4352
22
-14.263398
32
0
13
47.4352
23
-14.263398
33
0
39
0
210
0
220
0
230
1
0
MTEXT
5
10E
100
AcDbEntity
8
0
62
256
6
ByLayer
370
18
48
1
60
0
100
AcDbMText
10
23.7176
20
-7.263398
30
0
210
0
220
0
230
1
1
\A1;47.44
40
3.5
41
0
44
1
50
0
71
5
72
5
7
iso_b_vert
0
POINT
5
10F
100
AcDbEntity
8
Defpoints
62
0
6
ByLayer
370
-1
48
1
60
0
100
AcDbPoint
10
0
20
0
30
0
39
0
210
0
220
0
230
1
50
360
0
POINT
5
110
100
AcDbEntity
8
Defpoints
62
0
6
ByLayer
370
-1
48
1
60
0
100
AcDbPoint
10
47.4352
20
-4.05
30
0
39
0
210
0
220
0
230
1
50
360
0
POINT
5
111
100
AcDbEntity
8
Defpoints
62
0
6
ByLayer
370
-1
48
1
60
0
100
AcDbPoint
10
47.4352
20
-14.263398
30
0
39
0
210
0
220
0
230
1
50
360
0
ENDBLK
5
108
100
AcDbEntity
8
0
100
AcDbBlockEnd
0
BLOCK
5
119
100
AcDbEntity
8
0
100
AcDbBlockBegin
2
_U0
70
0
10
0
20
0
30
0
3
_U0
0
MTEXT
5
113
100
AcDbEntity
8
2
62
256
6
ByLayer
370
13
48
1
60
0
100
AcDbMText
10
18.027501
20
-13.230765
30
0
210
0
220
0
230
1
1
\W0.7979;47,44
40
3.5
41
0
44
1.084337
50
0
71
7
72
5
7
iso_b_vert
0
LINE
5
114
100
AcDbEntity
8
2
62
256
6
ByLayer
370
13
48
1
60
0
100
AcDbLine
10
0
20
-1.5875
30
0
11
0
21
-16.263398
31
0
39
0
210
0
220
0
230
1
0
LINE
5
115
100
AcDbEntity
8
2
62
256
6
ByLayer
370
13
48
1
60
0
100
AcDbLine
10
47.4352
20
-5.6375
30
0
11
47.4352
21
-16.263398
31
0
39
0
210
0
220
0
230
1
0
LINE
5
116
100
AcDbEntity
8
2
62
256
6
ByLayer
370
13
48
1
60
0
100
AcDbLine
10
0
20
-14.263398
30
0
11
47.4352
21
-14.263398
31
0
39
0
210
0
220
0
230
1
0
SOLID
5
117
100
AcDbEntity
8
2
62
256
6
ByLayer
370
18
48
1
60
0
100
AcDbTrace
10
0
20
-14.263398
30
0
11
3.499998
21
-13.802615
31
0
12
3.500002
22
-14.724182
32
0
13
3.500002
23
-14.724182
33
0
39
0
210
0
220
0
230
1
0
SOLID
5
118
100
AcDbEntity
8
2
62
256
6
ByLayer
370
18
48
1
60
0
100
AcDbTrace
10
47.4352
20
-14.263398
30
0
11
43.935202
21
-14.724182
31
0
12
43.935198
22
-13.802615
32
0
13
43.935198
23
-13.802615
33
0
39
0
210
0
220
0
230
1
0
ENDBLK
5
11A
100
AcDbEntity
8
0
100
AcDbBlockEnd
0
BLOCK
5
11F
100
AcDbEntity
8
0
100
AcDbBlockBegin
2
*D3
70
1
10
0
20
0
30
0
3
*D3
0
LINE
5
121
100
AcDbEntity
8
0
62
256
6
ByLayer
370
-2
48
1
60
0
100
AcDbLine
10
-40
20
-6.5875
30
0
11
-40
21
-35.692985
31
0
39
0
210
0
220
0
230
1
0
LINE
5
122
100
AcDbEntity
8
0
62
256
6
ByLayer
370
-2
48
1
60
0
100
AcDbLine
10
49
20
-1.5875
30
0
11
49
21
-35.692985
31
0
39
0
210
0
220
0
230
1
0
LINE
5
123
100
AcDbEntity
8
0
62
256
6
ByLayer
370
-2
48
1
60
0
100
AcDbLine
10
-36.5
20
-33.692985
30
0
11
45.5
21
-33.692985
31
0
39
0
210
0
220
0
230
1
0
SOLID
5
124
100
AcDbEntity
8
0
62
256
6
ByLayer
370
-1
48
1
60
0
100
AcDbTrace
10
-36.5
20
-33.109652
30
0
11
-36.5
21
-34.276319
31
0
12
-40
22
-33.692985
32
0
13
-40
23
-33.692985
33
0
39
0
210
0
220
0
230
1
0
SOLID
5
125
100
AcDbEntity
8
0
62
256
6
ByLayer
370
-1
48
1
60
0
100
AcDbTrace
10
45.5
20
-34.276319
30
0
11
45.5
21
-33.109652
31
0
12
49
22
-33.692985
32
0
13
49
23
-33.692985
33
0
39
0
210
0
220
0
230
1
0
MTEXT
5
126
100
AcDbEntity
8
0
62
256
6
ByLayer
370
18
48
1
60
0
100
AcDbMText
10
4.5
20
-26.692985
30
0
210
0
220
0
230
1
1
\A1;89.00
40
3.5
41
0
44
1
50
0
71
5
72
5
7
iso_b_vert
0
POINT
5
127
100
AcDbEntity
8
Defpoints
62
0
6
ByLayer
370
-1
48
1
60
0
100
AcDbPoint
10
-40
20
-5
30
0
39
0
210
0
220
0
230
1
50
360
0
POINT
5
128
100
AcDbEntity
8
Defpoints
62
0
6
ByLayer
370
-1
48
1
60
0
100
AcDbPoint
10
49
20
0
30
0
39
0
210
0
220
0
230
1
50
360
0
POINT
5
129
100
AcDbEntity
8
Defpoints
62
0
6
ByLayer
370
-1
48
1
60
0
100
AcDbPoint
10
49
20
-33.692985
30
0
39
0
210
0
220
0
230
1
50
360
0
ENDBLK
5
120
100
AcDbEntity
8
0
100
AcDbBlockEnd
0
BLOCK
5
131
100
AcDbEntity
8
0
100
AcDbBlockBegin
2
_U1
70
0
10
0
20
0
30
0
3
_U1
0
MTEXT
5
12B
100
AcDbEntity
8
SK2
62
256
6
ByLayer
370
13
48
1
60
0
100
AcDbMText
10
-0.637299
20
-32.660352
30
0
210
0
220
0
230
1
1
\W0.7317;89,00
40
3.5
41
0
44
1.084337
50
0
71
7
72
5
7
iso_b_vert
0
LINE
5
12C
100
AcDbEntity
8
SK2
62
256
6
ByLayer
370
13
48
1
60
0
100
AcDbLine
10
-40
20
-6.5875
30
0
11
-40
21
-35.692985
31
0
39
0
210
0
220
0
230
1
0
LINE
5
12D
100
AcDbEntity
8
SK2
62
256
6
ByLayer
370
13
48
1
60
0
100
AcDbLine
10
49
20
-1.5875
30
0
11
49
21
-35.692985
31
0
39
0
210
0
220
0
230
1
0
LINE
5
12E
100
AcDbEntity
8
SK2
62
256
6
ByLayer
370
13
48
1
60
0
100
AcDbLine
10
-40
20
-33.692985
30
0
11
49
21
-33.692985
31
0
39
0
210
0
220
0
230
1
0
SOLID
5
12F
100
AcDbEntity
8
SK2
62
256
6
ByLayer
370
18
48
1
60
0
100
AcDbTrace
10
-40
20
-33.692985
30
0
11
-36.500002
21
-33.232202
31
0
12
-36.499998
22
-34.153769
32
0
13
-36.499998
23
-34.153769
33
0
39
0
210
0
220
0
230
1
0
SOLID
5
130
100
AcDbEntity
8
SK2
62
256
6
ByLayer
370
18
48
1
60
0
100
AcDbTrace
10
49
20
-33.692985
30
0
11
45.500002
21
-34.153769
31
0
12
45.499998
22
-33.232202
32
0
13
45.499998
23
-33.232202
33
0
39
0
210
0
220
0
230
1
0
ENDBLK
5
132
100
AcDbEntity
8
0
100
AcDbBlockEnd
0
BLOCK
5
137
100
AcDbEntity
8
0
100
AcDbBlockBegin
2
*D5
70
1
10
0
20
0
30
0
3
*D5
0
LINE
5
139
100
AcDbEntity
8
0
62
256
6
ByLayer
370
-2
48
1
60
0
100
AcDbLine
10
23.14
20
5.6375
30
0
11
23.14
21
17.659119
31
0
39
0
210
0
220
0
230
1
0
LINE
5
13A
100
AcDbEntity
8
0
62
256
6
ByLayer
370
-2
48
1
60
0
100
AcDbLine
10
49
20
1.5875
30
0
11
49
21
17.659119
31
0
39
0
210
0
220
0
230
1
0
LINE
5
13B
100
AcDbEntity
8
0
62
256
6
ByLayer
370
-2
48
1
60
0
100
AcDbLine
10
26.64
20
15.659119
30
0
11
45.5
21
15.659119
31
0
39
0
210
0
220
0
230
1
0
SOLID
5
13C
100
AcDbEntity
8
0
62
256
6
ByLayer
370
-1
48
1
60
0
100
AcDbTrace
10
26.64
20
16.242453
30
0
11
26.64
21
15.075786
31
0
12
23.14
22
15.659119
32
0
13
23.14
23
15.659119
33
0
39
0
210
0
220
0
230
1
0
SOLID
5
13D
100
AcDbEntity
8
0
62
256
6
ByLayer
370
-1
48
1
60
0
100
AcDbTrace
10
45.5
20
15.075786
30
0
11
45.5
21
16.242453
31
0
12
49
22
15.659119
32
0
13
49
23
15.659119
33
0
39
0
210
0
220
0
230
1
0
MTEXT
5
13E
100
AcDbEntity
8
0
62
256
6
ByLayer
370
18
48
1
60
0
100
AcDbMText
10
36.07
20
22.659119
30
0
210
0
220
0
230
1
1
\A1;25.86
40
3.5
41
0
44
1
50
0
71
5
72
5
7
iso_b_vert
0
POINT
5
13F
100
AcDbEntity
8
Defpoints
62
0
6
ByLayer
370
-1
48
1
60
0
100
AcDbPoint
10
23.14
20
4.05
30
0
39
0
210
0
220
0
230
1
50
360
0
POINT
5
140
100
AcDbEntity
8
Defpoints
62
0
6
ByLayer
370
-1
48
1
60
0
100
AcDbPoint
10
49
20
0
30
0
39
0
210
0
220
0
230
1
50
360
0
POINT
5
141
100
AcDbEntity
8
Defpoints
62
0
6
ByLayer
370
-1
48
1
60
0
100
AcDbPoint
10
49
20
15.659119
30
0
39
0
210
0
220
0
230
1
50
360
0
ENDBLK
5
138
100
AcDbEntity
8
0
100
AcDbBlockEnd
0
BLOCK
5
149
100
AcDbEntity
8
0
100
AcDbBlockBegin
2
_U2
70
0
10
0
20
0
30
0
3
_U2
0
MTEXT
5
143
100
AcDbEntity
8
SK2
62
256
6
ByLayer
370
13
48
1
60
0
100
AcDbMText
10
30.932701
20
16.691753
30
0
210
0
220
0
230
1
1
\W0.7317;25,86
40
3.5
41
0
44
1.084337
50
0
71
7
72
5
7
iso_b_vert
0
LINE
5
144
100
AcDbEntity
8
SK2
62
256
6
ByLayer
370
13
48
1
60
0
100
AcDbLine
10
23.14
20
5.6375
30
0
11
23.14
21
17.659119
31
0
39
0
210
0
220
0
230
1
0
LINE
5
145
100
AcDbEntity
8
SK2
62
256
6
ByLayer
370
13
48
1
60
0
100
AcDbLine
10
49
20
1.5875
30
0
11
49
21
17.659119
31
0
39
0
210
0
220
0
230
1
0
LINE
5
146
100
AcDbEntity
8
SK2
62
256
6
ByLayer
370
13
48
1
60
0
100
AcDbLine
10
23.14
20
15.659119
30
0
11
49
21
15.659119
31
0
39
0
210
0
220
0
230
1
0
SOLID
5
147
100
AcDbEntity
8
SK2
62
256
6
ByLayer
370
18
48
1
60
0
100
AcDbTrace
10
23.14
20
15.659119
30
0
11
26.639998
21
16.119903
31
0
12
26.640002
22
15.198335
32
0
13
26.640002
23
15.198335
33
0
39
0
210
0
220
0
230
1
0
SOLID
5
148
100
AcDbEntity
8
SK2
62
256
6
ByLayer
370
18
48
1
60
0
100
AcDbTrace
10
49
20
15.659119
30
0
11
45.500002
21
15.198335
31
0
12
45.499998
22
16.119903
32
0
13
45.499998
23
16.119903
33
0
39
0
210
0
220
0
230
1
0
ENDBLK
5
14A
100
AcDbEntity
8
0
100
AcDbBlockEnd
0
BLOCK
5
14F
100
AcDbEntity
8
0
100
AcDbBlockBegin
2
*D7
70
1
10
0
20
0
30
0
3
*D7
0
LINE
5
151
100
AcDbEntity
8
0
62
256
6
ByLayer
370
-2
48
1
60
0
100
AcDbLine
10
49
20
-1.5875
30
0
11
49
21
-18.852503
31
0
39
0
210
0
220
0
230
1
0
LINE
5
152
100
AcDbEntity
8
0
62
256
6
ByLayer
370
-2
48
1
60
0
100
AcDbLine
10
47.4352
20
-5.6375
30
0
11
47.4352
21
-18.852503
31
0
39
0
210
0
220
0
230
1
0
LINE
5
153
100
AcDbEntity
8
0
62
256
6
ByLayer
370
-2
48
1
60
0
100
AcDbLine
10
49
20
-16.852503
30
0
11
76.666667
21
-16.852503
31
0
39
0
210
0
220
0
230
1
0
LINE
5
154
100
AcDbEntity
8
0
62
256
6
ByLayer
370
-2
48
1
60
0
100
AcDbLine
10
52.5
20
-16.852503
30
0
11
56
21
-16.852503
31
0
39
0
210
0
220
0
230
1
0
LINE
5
155
100
AcDbEntity
8
0
62
256
6
ByLayer
370
-2
48
1
60
0
100
AcDbLine
10
43.9352
20
-16.852503
30
0
11
40.4352
21
-16.852503
31
0
39
0
210
0
220
0
230
1
0
SOLID
5
156
100
AcDbEntity
8
0
62
256
6
ByLayer
370
-1
48
1
60
0
100
AcDbTrace
10
52.5
20
-16.26917
30
0
11
52.5
21
-17.435837
31
0
12
49
22
-16.852503
32
0
13
49
23
-16.852503
33
0
39
0
210
0
220
0
230
1
0
SOLID
5
157
100
AcDbEntity
8
0
62
256
6
ByLayer
370
-1
48
1
60
0
100
AcDbTrace
10
43.9352
20
-17.435837
30
0
11
43.9352
21
-16.26917
31
0
12
47.4352
22
-16.852503
32
0
13
47.4352
23
-16.852503
33
0
39
0
210
0
220
0
230
1
0
MTEXT
5
158
100
AcDbEntity
8
0
62
256
6
ByLayer
370
18
48
1
60
0
100
AcDbMText
10
66.333333
20
-9.852503
30
0
210
0
220
0
230
1
1
\A1;1.56
40
3.5
41
0
44
1
50
0
71
5
72
5
7
iso_b_vert
0
POINT
5
159
100
AcDbEntity
8
Defpoints
62
0
6
ByLayer
370
-1
48
1
60
0
100
AcDbPoint
10
49
20
0
30
0
39
0
210
0
220
0
230
1
50
360
0
POINT
5
15A
100
AcDbEntity
8
Defpoints
62
0
6
ByLayer
370
-1
48
1
60
0
100
AcDbPoint
10
47.4352
20
-4.05
30
0
39
0
210
0
220
0
230
1
50
360
0
POINT
5
15B
100
AcDbEntity
8
Defpoints
62
0
6
ByLayer
370
-1
48
1
60
0
100
AcDbPoint
10
47.4352
20
-16.852503
30
0
39
0
210
0
220
0
230
1
50
360
0
ENDBLK
5
150
100
AcDbEntity
8
0
100
AcDbBlockEnd
0
BLOCK
5
163
100
AcDbEntity
8
0
100
AcDbBlockBegin
2
_U3
70
0
10
0
20
0
30
0
3
_U3
0
MTEXT
5
15D
100
AcDbEntity
8
SK2
62
256
6
ByLayer
370
13
48
1
60
0
100
AcDbMText
10
55.589293
20
-15.81987
30
0
210
0
220
0
230
1
1
\W0.6367;1,56
40
3.5
41
0
44
1.084337
50
0
71
7
72
5
7
iso_b_vert
0
LINE
5
15E
100
AcDbEntity
8
SK2
62
256
6
ByLayer
370
13
48
1
60
0
100
AcDbLine
10
49
20
-1.5875
30
0
11
49
21
-18.852503
31
0
39
0
210
0
220
0
230
1
0
LINE
5
15F
100
AcDbEntity
8
SK2
62
256
6
ByLayer
370
13
48
1
60
0
100
AcDbLine
10
47.4352
20
-5.6375
30
0
11
47.4352
21
-18.852503
31
0
39
0
210
0
220
0
230
1
0
LINE
5
160
100
AcDbEntity
8
SK2
62
256
6
ByLayer
370
13
48
1
60
0
100
AcDbLine
10
38.6852
20
-16.852503
30
0
11
62.559058
21
-16.852503
31
0
39
0
210
0
220
0
230
1
0
SOLID
5
161
100
AcDbEntity
8
SK2
62
256
6
ByLayer
370
18
48
1
60
0
100
AcDbTrace
10
49
20
-16.852503
30
0
11
52.499998
21
-16.391719
31
0
12
52.500002
22
-17.313287
32
0
13
52.500002
23
-17.313287
33
0
39
0
210
0
220
0
230
1
0
SOLID
5
162
100
AcDbEntity
8
SK2
62
256
6
ByLayer
370
18
48
1
60
0
100
AcDbTrace
10
47.4352
20
-16.852503
30
0
11
43.935202
21
-17.313287
31
0
12
43.935198
22
-16.391719
32
0
13
43.935198
23
-16.391719
33
0
39
0
210
0
220
0
230
1
0
ENDBLK
5
164
100
AcDbEntity
8
0
100
AcDbBlockEnd
0
BLOCK
5
169
100
AcDbEntity
8
0
100
AcDbBlockBegin
2
*D9
70
1
10
0
20
0
30
0
3
*D9
0
LINE
5
16B
100
AcDbEntity
8
0
62
256
6
ByLayer
370
-2
48
1
60
0
100
AcDbLine
10
-40
20
-6.5875
30
0
11
-40
21
-25.343428
31
0
39
0
210
0
220
0
230
1
0
LINE
5
16C
100
AcDbEntity
8
0
62
256
6
ByLayer
370
-2
48
1
60
0
100
AcDbLine
10
47.4352
20
-5.6375
30
0
11
47.4352
21
-25.343428
31
0
39
0
210
0
220
0
230
1
0
LINE
5
16D
100
AcDbEntity
8
0
62
256
6
ByLayer
370
-2
48
1
60
0
100
AcDbLine
10
-36.5
20
-23.343428
30
0
11
43.9352
21
-23.343428
31
0
39
0
210
0
220
0
230
1
0
SOLID
5
16E
100
AcDbEntity
8
0
62
256
6
ByLayer
370
-1
48
1
60
0
100
AcDbTrace
10
-36.5
20
-22.760095
30
0
11
-36.5
21
-23.926762
31
0
12
-40
22
-23.343428
32
0
13
-40
23
-23.343428
33
0
39
0
210
0
220
0
230
1
0
SOLID
5
16F
100
AcDbEntity
8
0
62
256
6
ByLayer
370
-1
48
1
60
0
100
AcDbTrace
10
43.9352
20
-23.926762
30
0
11
43.9352
21
-22.760095
31
0
12
47.4352
22
-23.343428
32
0
13
47.4352
23
-23.343428
33
0
39
0
210
0
220
0
230
1
0
MTEXT
5
170
100
AcDbEntity
8
0
62
256
6
ByLayer
370
18
48
1
60
0
100
AcDbMText
10
3.7176
20
-16.343428
30
0
210
0
220
0
230
1
1
\A1;87.44
40
3.5
41
0
44
1
50
0
71
5
72
5
7
iso_b_vert
0
POINT
5
171
100
AcDbEntity
8
Defpoints
62
0
6
ByLayer
370
-1
48
1
60
0
100
AcDbPoint
10
-40
20
-5
30
0
39
0
210
0
220
0
230
1
50
360
0
POINT
5
172
100
AcDbEntity
8
Defpoints
62
0
6
ByLayer
370
-1
48
1
60
0
100
AcDbPoint
10
47.4352
20
-4.05
30
0
39
0
210
0
220
0
230
1
50
360
0
POINT
5
173
100
AcDbEntity
8
Defpoints
62
0
6
ByLayer
370
-1
48
1
60
0
100
AcDbPoint
10
47.4352
20
-23.343428
30
0
39
0
210
0
220
0
230
1
50
360
0
ENDBLK
5
16A
100
AcDbEntity
8
0
100
AcDbBlockEnd
0
BLOCK
5
17B
100
AcDbEntity
8
0
100
AcDbBlockBegin
2
_U4
70
0
10
0
20
0
30
0
3
_U4
0
MTEXT
5
175
100
AcDbEntity
8
SK2
62
256
6
ByLayer
370
13
48
1
60
0
100
AcDbMText
10
-1.788232
20
-22.310795
30
0
210
0
220
0
230
1
1
\W0.7756;87,44
40
3.5
41
0
44
1.084337
50
0
71
7
72
5
7
iso_b_vert
0
LINE
5
176
100
AcDbEntity
8
SK2
62
256
6
ByLayer
370
13
48
1
60
0
100
AcDbLine
10
-40
20
-6.5875
30
0
11
-40
21
-25.343428
31
0
39
0
210
0
220
0
230
1
0
LINE
5
177
100
AcDbEntity
8
SK2
62
256
6
ByLayer
370
13
48
1
60
0
100
AcDbLine
10
47.4352
20
-5.6375
30
0
11
47.4352
21
-25.343428
31
0
39
0
210
0
220
0
230
1
0
LINE
5
178
100
AcDbEntity
8
SK2
62
256
6
ByLayer
370
13
48
1
60
0
100
AcDbLine
10
-40
20
-23.343428
30
0
11
47.4352
21
-23.343428
31
0
39
0
210
0
220
0
230
1
0
SOLID
5
179
100
AcDbEntity
8
SK2
62
256
6
ByLayer
370
18
48
1
60
0
100
AcDbTrace
10
-40
20
-23.343428
30
0
11
-36.500002
21
-22.882645
31
0
12
-36.499998
22
-23.804212
32
0
13
-36.499998
23
-23.804212
33
0
39
0
210
0
220
0
230
1
0
SOLID
5
17A
100
AcDbEntity
8
SK2
62
256
6
ByLayer
370
18
48
1
60
0
100
AcDbTrace
10
47.4352
20
-23.343428
30
0
11
43.935202
21
-23.804212
31
0
12
43.935198
22
-22.882645
32
0
13
43.935198
23
-22.882645
33
0
39
0
210
0
220
0
230
1
0
ENDBLK
5
17C
100
AcDbEntity
8
0
100
AcDbBlockEnd
0
ENDSEC
0
SECTION
2
ENTITIES
0
ARC
5
A5
100
AcDbEntity
8
1
62
256
6
ByLayer
370
18
48
1
60
0
100
AcDbCircle
39
0
10
1.563501
20
-4.817432
30
0
40
0.850000000000002
210
0
220
0
230
1
100
AcDbArc
50
89.896868
51
156.883173
0
ARC
5
A6
100
AcDbEntity
8
1
62
256
6
ByLayer
370
18
48
1
60
0
100
AcDbCircle
39
0
10
0
20
-4.15
30
0
40
0.850000000000002
210
0
220
0
230
1
100
AcDbArc
50
270
51
336.883173
0
ARC
5
A7
100
AcDbEntity
8
1
62
256
6
ByLayer
370
18
48
1
60
0
100
AcDbCircle
39
0
10
1.563501
20
4.817432
30
0
40
0.850000000000002
210
0
220
0
230
1
100
AcDbArc
50
203.116827
51
270.103132
0
ARC
5
A8
100
AcDbEntity
8
1
62
256
6
ByLayer
370
18
48
1
60
0
100
AcDbCircle
39
0
10
0
20
4.15
30
0
40
0.850000000000002
210
0
220
0
230
1
100
AcDbArc
50
23.116827
51
90
0
ELLIPSE
5
A9
100
AcDbEntity
8
1
62
256
6
ByLayer
370
13
48
1
60
0
100
AcDbEllipse
10
6.16653
20
1.603147
30
0
11
-0.156106212085941
21
-0.256185187995284
31
0
210
0
220
0
230
1
40
0.232429
41
-1.02636991289706
42
-0.973399805181741
0
ELLIPSE
5
AA
100
AcDbEntity
8
1
62
256
6
ByLayer
370
13
48
1
60
0
100
AcDbEllipse
10
13.336229
20
-75.751106
30
0
11
-4.408577427476
21
74.114025776877
31
0
210
0
220
0
230
1
40
0.865524
41
-0.0314940585606286
42
0.0589963321025404
0
ELLIPSE
5
AB
100
AcDbEntity
8
1
62
256
6
ByLayer
370
13
48
1
60
0
100
AcDbEllipse
10
6.47562
20
1.441747
30
0
11
0.123408605068049
21
0.273441613868771
31
0
210
0
220
0
230
1
40
0.151569
41
-2.73388436198751
42
-1.88957970638821
0
ELLIPSE
5
AC
100
AcDbEntity
8
1
62
256
6
ByLayer
370
13
48
1
60
0
100
AcDbEllipse
10
93.194174
20
42.140273
30
0
11
-60.8
21
7.44560663124005E-15
31
0
210
0
220
0
230
1
40
0.99863
41
0.737589656867692
42
0.752002636474172
0
ELLIPSE
5
AD
100
AcDbEntity
8
1
62
256
6
ByLayer
370
18
48
1
60
0
100
AcDbEllipse
10
6.474035
20
4.873431
30
0
11
-1
21
1.22460635382238E-16
31
0
210
0
220
0
230
1
40
0.999991
41
1.12322712016701
42
1.57873518871313
0
ELLIPSE
5
AE
100
AcDbEntity
8
1
62
256
6
ByLayer
370
18
48
1
60
0
100
AcDbEllipse
10
6.474035
20
-4.873431
30
0
11
-1
21
1.22460635382238E-16
31
0
210
0
220
0
230
1
40
0.999991
41
-1.56872395309629
42
-1.1237427697833
0
POINT
5
70
100
AcDbEntity
8
80
62
256
6
ByLayer
370
18
48
1
60
0
100
AcDbPoint
10
0
20
0
30
0
39
0
210
0
220
0
230
1
50
360
0
POINT
5
72
100
AcDbEntity
8
81
62
256
6
ByLayer
370
18
48
1
60
0
100
AcDbPoint
10
49
20
0
30
0
39
0
210
0
220
0
230
1
50
360
0
POINT
5
74
100
AcDbEntity
8
1
62
256
6
ByLayer
370
18
48
1
60
1
100
AcDbPoint
10
47.4352
20
-4.05
30
0
39
0
210
0
220
0
230
1
50
360
0
POINT
5
76
100
AcDbEntity
8
1
62
256
6
ByLayer
370
18
48
1
60
1
100
AcDbPoint
10
-40
20
-5
30
0
39
0
210
0
220
0
230
1
50
360
0
POINT
5
77
100
AcDbEntity
8
1
62
256
6
ByLayer
370
18
48
1
60
1
100
AcDbPoint
10
23.14
20
4.05
30
0
39
0
210
0
220
0
230
1
50
360
0
POINT
5
78
100
AcDbEntity
8
1
62
256
6
ByLayer
370
18
48
1
60
1
100
AcDbPoint
10
47.4352
20
-4.05
30
0
39
0
210
0
220
0
230
1
50
360
0
POINT
5
79
100
AcDbEntity
8
1
62
256
6
ByLayer
370
18
48
1
60
1
100
AcDbPoint
10
-40
20
-5
30
0
39
0
210
0
220
0
230
1
50
360
0
POINT
5
7A
100
AcDbEntity
8
1
62
256
6
ByLayer
370
18
48
1
60
1
100
AcDbPoint
10
47.4352
20
-4.05
30
0
39
0
210
0
220
0
230
1
50
360
0
SPLINE
5
AF
100
AcDbEntity
8
1
62
256
6
ByLayer
370
13
48
1
60
0
100
AcDbSpline
70
4
71
3
72
11
73
7
40
0
40
0
40
0
40
0
40
0.263912581379243
40
0.631956290689621
40
0.631956290689621
40
1
40
1
40
1
40
1
41
1
10
6.4769868314884
20
-3.87347927865485
30
0
41
1
10
6.47700173433878
20
-3.87357306369029
30
0
41
1
10
6.47703721030589
20
-3.86711414129272
30
0
41
1
10
6.47707142188165
20
-3.84472941060639
30
0
41
1
10
6.47710950364686
20
-3.80765163389529
30
0
41
1
10
6.47712752834047
20
-3.78368931032358
30
0
41
1
10
6.47714387287499
20
-3.75468867760716
30
0
0
SPLINE
5
B0
100
AcDbEntity
8
1
62
256
6
ByLayer
370
18
48
1
60
0
100
AcDbSpline
70
4
71
3
72
44
73
40
40
0
40
0
40
0
40
0
40
0.0202721150913995
40
0.0202721150913995
40
0.071836740612904
40
0.071836740612904
40
0.123401366134408
40
0.123401366134408
40
0.174965991655913
40
0.174965991655913
40
0.278095242698923
40
0.278095242698923
40
0.329659868220429
40
0.329659868220429
40
0.381224493741935
40
0.381224493741935
40
0.432789119263441
40
0.432789119263441
40
0.484353744784947
40
0.484353744784947
40
0.535918370306453
40
0.535918370306453
40
0.587482995827959
40
0.587482995827959
40
0.69061224687097
40
0.69061224687097
40
0.742176872392475
40
0.742176872392475
40
0.793741497913981
40
0.793741497913981
40
0.845306123435486
40
0.845306123435486
40
0.896870748956991
40
0.896870748956991
40
0.948435374478496
40
0.948435374478496
40
0.974217687239248
40
0.974217687239248
40
1
40
1
40
1
40
1
41
1
10
22.5987347996213
20
4.00528981293868
30
0
41
1
10
22.7674076037383
20
4.00554404354097
30
0
41
1
10
22.9361357016923
20
4.00352213638459
30
0
41
1
10
23.5340080785733
20
3.98825961615819
30
0
41
1
10
23.9621144139152
20
3.96255710797234
30
0
41
1
10
24.8181089517094
20
3.8824210554321
30
0
41
1
10
25.2459661917832
20
3.82799432923991
30
0
41
1
10
26.10287922559
20
3.69116655579981
30
0
41
1
10
26.5325246102224
20
3.60855963757774
30
0
41
1
10
27.817967701051
20
3.32261224667363
30
0
41
1
10
28.672007173842
20
3.08072227181418
30
0
41
1
10
29.9585665867431
20
2.65362888087444
30
0
41
1
10
30.3876352995687
20
2.50080550433921
30
0
41
1
10
31.2435492994816
20
2.17847880825823
30
0
41
1
10
31.6710225938481
20
2.00878207418583
30
0
41
1
10
32.5267295048334
20
1.65550389454842
30
0
41
1
10
32.955424472028
20
1.47170290210238
30
0
41
1
10
33.813190820742
20
1.09444185406417
30
0
41
1
10
34.2409553123144
20
0.901233062095514
30
0
41
1
10
35.0961692180648
20
0.509730710361993
30
0
41
1
10
35.5236403213829
20
0.311485910253509
30
0
41
1
10
36.3799155366926
20
-0.0865420876265262
30
0
41
1
10
36.8092259926664
20
-0.286883789264294
30
0
41
1
10
38.0935783789902
20
-0.881082121132209
30
0
41
1
10
38.9469841239401
20
-1.26882192593067
30
0
41
1
10
40.2323955844015
20
-1.81783207683281
30
0
41
1
10
40.6611242540118
20
-1.99490258414511
30
0
41
1
10
41.5163973982138
20
-2.33251128844509
30
0
41
1
10
41.9434841008527
20
-2.49345763799204
30
0
41
1
10
42.7984678716329
20
-2.79628373528936
30
0
41
1
10
43.2269413136395
20
-2.93830754152921
30
0
41
1
10
44.0837447083387
20
-3.19995434083609
30
0
41
1
10
44.5108271162656
20
-3.31917659745207
30
0
41
1
10
45.3640109632298
20
-3.53254529264259
30
0
41
1
10
45.7901756325349
20
-3.62662577355829
30
0
41
1
10
46.4299072596654
20
-3.74771000250803
30
0
41
1
10
46.6432301146153
20
-3.78473352395045
30
0
41
1
10
47.0702221008856
20
-3.85191335210567
30
0
41
1
10
47.2837467988406
20
-3.88215282706221
30
0
41
1
10
47.4978389139384
20
-3.90868930687708
30
0
0
SPLINE
5
B1
100
AcDbEntity
8
1
62
256
6
ByLayer
370
13
48
1
60
0
100
AcDbSpline
70
4
71
3
72
8
73
4
40
0
40
0
40
0
40
0
40
1
40
1
40
1
40
1
41
1
10
6.02856348112235
20
1.50438552317513
30
0
41
1
10
6.03061715405946
20
1.50341787077031
30
0
41
1
10
6.03267667040294
20
1.50245592604341
30
0
41
1
10
6.03474207125083
20
1.50149972362314
30
0
0
SPLINE
5
B2
100
AcDbEntity
8
1
62
256
6
ByLayer
370
13
48
1
60
0
100
AcDbSpline
70
4
71
3
72
10
73
6
40
0
40
0
40
0
40
0
40
0.5
40
0.5
40
1
40
1
40
1
40
1
41
1
10
6.47629985692623
20
1.33828426320102
30
0
41
1
10
6.39982163134638
20
1.3606850026533
30
0
41
1
10
6.32466357171586
20
1.38527035430315
30
0
41
1
10
6.17716354878331
20
1.4394515621434
30
0
41
1
10
6.10426004321079
20
1.46931553375626
30
0
41
1
10
6.03474207125083
20
1.50149972362314
30
0
0
SPLINE
5
B3
100
AcDbEntity
8
1
62
256
6
ByLayer
370
18
48
1
60
0
100
AcDbSpline
70
4
71
3
72
20
73
16
40
0
40
0
40
0
40
0
40
0.250000000000007
40
0.250000000000007
40
0.375000000000006
40
0.375000000000006
40
0.500000000000005
40
0.500000000000005
40
0.625000000000004
40
0.625000000000004
40
0.750000000000002
40
0.750000000000002
40
0.875000000000001
40
0.875000000000001
40
1
40
1
40
1
40
1
41
1
10
48.3388402415196
20
-1.03986034595147
30
0
41
1
10
48.3866702512994
20
-1.00694544519879
30
0
41
1
10
48.4377879241003
20
-0.954908300861007
30
0
41
1
10
48.5198329956629
20
-0.849993972366462
30
0
41
1
10
48.548139978488
20
-0.810336173134601
30
0
41
1
10
48.6048214209438
20
-0.724607132420601
30
0
41
1
10
48.6334142076604
20
-0.678275049251681
30
0
41
1
10
48.6910967588023
20
-0.578968219977412
30
0
41
1
10
48.7203768708329
20
-0.525618227692036
30
0
41
1
10
48.7783914199342
20
-0.414214967597104
30
0
41
1
10
48.8070462895886
20
-0.356360078877856
30
0
41
1
10
48.8636391450639
20
-0.236607167893084
30
0
41
1
10
48.8915768770576
20
-0.174707576845719
30
0
41
1
10
48.9466663002166
20
-0.046929390246504
30
0
41
1
10
48.9736783987324
20
0.0186547829856067
30
0
41
1
10
48.9997489386909
20
0.0849206794352142
30
0
0
SPLINE
5
B4
100
AcDbEntity
8
1
62
256
6
ByLayer
370
18
48
1
60
0
100
AcDbSpline
70
4
71
3
72
8
73
4
40
0
40
0
40
0
40
0
40
1
40
1
40
1
40
1
41
1
10
47.5109269109604
20
-3.83484890878773
30
0
41
1
10
47.5044036634687
20
-3.78515376598674
30
0
41
1
10
47.4874929259387
20
-3.75245130490626
30
0
41
1
10
47.4662495430245
20
-3.73105719003919
30
0
0
SPLINE
5
B5
100
AcDbEntity
8
1
62
256
6
ByLayer
370
18
48
1
60
0
100
AcDbSpline
70
4
71
3
72
10
73
6
40
0
40
0
40
0
40
0
40
0.5
40
0.5
40
1
40
1
40
1
40
1
41
1
10
10.9624061659414
20
-1.5180369464781
30
0
41
1
10
11.7312845876006
20
-1.81754205700636
30
0
41
1
10
12.4981985938691
20
-2.09264867531707
30
0
41
1
10
14.0272088999285
20
-2.60111662345295
30
0
41
1
10
14.7893124146914
20
-2.83439177801762
30
0
41
1
10
15.5486563487167
20
-3.04479023344848
30
0
0
SPLINE
5
B6
100
AcDbEntity
8
1
62
256
6
ByLayer
370
18
48
1
60
0
100
AcDbSpline
70
4
71
3
72
8
73
4
40
0
40
0
40
0
40
0
40
1
40
1
40
1
40
1
41
1
10
48.7905762875031
20
-0.664548318991336
30
0
41
1
10
48.6930977046867
20
-0.943049017101998
30
0
41
1
10
48.5959817760588
20
-1.22167461919034
30
0
41
1
10
48.4992294796882
20
-1.50042546211915
30
0
0
SPLINE
5
B7
100
AcDbEntity
8
1
62
256
6
ByLayer
370
18
48
1
60
0
100
AcDbSpline
70
4
71
3
72
8
73
4
40
0
40
0
40
0
40
0
40
1
40
1
40
1
40
1
41
1
10
48.7905762875068
20
0.66454831898082
30
0
41
1
10
48.693097897152
20
0.943048467220137
30
0
41
1
10
48.5959819672611
20
1.22167406832165
30
0
41
1
10
48.4992294796881
20
1.50042546211924
30
0
0
SPLINE
5
B8
100
AcDbEntity
8
1
62
256
6
ByLayer
370
18
48
1
60
0
100
AcDbSpline
70
4
71
3
72
8
73
4
40
0
40
0
40
0
40
0
40
1
40
1
40
1
40
1
41
1
10
48.3049007586371
20
-1.04660144432253
30
0
41
1
10
48.316024181944
20
-1.045055540693
30
0
41
1
10
48.3273347164775
20
-1.04281821323102
30
0
41
1
10
48.3388402415273
20
-1.03986034594561
30
0
0
SPLINE
5
B9
100
AcDbEntity
8
1
62
256
6
ByLayer
370
18
48
1
60
0
100
AcDbSpline
70
4
71
3
72
18
73
14
40
0
40
0
40
0
40
0
40
0.164352337698782
40
0.164352337698782
40
0.328704675397564
40
0.328704675397564
40
0.493057013096346
40
0.493057013096346
40
0.657409350795128
40
0.657409350795128
40
0.986114026192692
40
0.986114026192692
40
1
40
1
40
1
40
1
41
1
10
15.5486563487167
20
-3.04479023344845
30
0
41
1
10
15.8829521825766
20
-3.14537209820742
30
0
41
1
10
16.2169987563253
20
-3.23834039739305
30
0
41
1
10
16.8841678029534
20
-3.40991052219215
30
0
41
1
10
17.217429521117
20
-3.48830196916694
30
0
41
1
10
17.8839834129573
20
-3.6294878738413
30
0
41
1
10
18.2176388746023
20
-3.69196093614587
30
0
41
1
10
18.8853365308611
20
-3.8008858837963
30
0
41
1
10
19.2202060550362
20
-3.84690077999761
30
0
41
1
10
20.2213608766593
20
-3.95914437424767
30
0
41
1
10
20.8875280233159
20
-3.99894829616386
30
0
41
1
10
21.5825274650819
20
-4.00339708247733
30
0
41
1
10
21.6107034104545
20
-4.00351388242129
30
0
41
1
10
21.6388848093439
20
-4.00356712027943
30
0
0
SPLINE
5
BA
100
AcDbEntity
8
1
62
256
6
ByLayer
370
18
48
1
60
0
100
AcDbSpline
70
4
71
3
72
18
73
14
40
0
40
0
40
0
40
0
40
0.0079366803259941
40
0.0079366803259941
40
0.173280566938327
40
0.173280566938327
40
0.338624453550661
40
0.338624453550661
40
0.669312226775328
40
0.669312226775328
40
0.834656113387664
40
0.834656113387664
40
1
40
1
40
1
40
1
41
1
10
41.5083816246058
20
2.67312158534151
30
0
41
1
10
41.5243563615783
20
2.67871955926799
30
0
41
1
10
41.5403318427262
20
2.68430307317038
30
0
41
1
10
41.8891411362628
20
2.80588762092771
30
0
41
1
10
42.2217628574636
20
2.9164830608095
30
0
41
1
10
42.8885445381307
20
3.1237616009642
30
0
41
1
10
43.2223778056671
20
3.2213519625804
30
0
41
1
10
44.2226699000065
20
3.49035778169014
30
0
41
1
10
44.8875211765637
20
3.64064658708799
30
0
41
1
10
45.8882855327456
20
3.81566347706198
30
0
41
1
10
46.2218557923186
20
3.86589418668416
30
0
41
1
10
46.8882748240695
20
3.94848278385857
30
0
41
1
10
47.2209291425067
20
3.98121873753479
30
0
41
1
10
47.55395600462
20
4.00498676566801
30
0
0
SPLINE
5
BB
100
AcDbEntity
8
1
62
256
6
ByLayer
370
18
48
1
60
0
100
AcDbSpline
70
4
71
3
72
36
73
32
40
0
40
0
40
0
40
0
40
0.0855831304735531
40
0.0855831304735531
40
0.171166260947106
40
0.171166260947106
40
0.213957826183883
40
0.213957826183883
40
0.256749391420659
40
0.256749391420659
40
0.299540956657436
40
0.299540956657436
40
0.342332521894212
40
0.342332521894212
40
0.427915652367765
40
0.427915652367765
40
0.513498782841318
40
0.513498782841318
40
0.599081913314871
40
0.599081913314871
40
0.684665043788425
40
0.684665043788425
40
0.770248174261978
40
0.770248174261978
40
0.855831304735531
40
0.855831304735531
40
0.898622869972307
40
0.898622869972307
40
0.941414435209084
40
0.941414435209084
40
1
40
1
40
1
40
1
41
1
10
47.1294737601112
20
0.397033263955734
30
0
41
1
10
46.7716973955676
20
0.558718588467144
30
0
41
1
10
46.414383733122
20
0.7195135017719
30
0
41
1
10
45.6991585134435
20
1.03593284755587
30
0
41
1
10
45.3416537103358
20
1.19241019518194
30
0
41
1
10
44.8045005740432
20
1.42192240752883
30
0
41
1
10
44.6254226655178
20
1.49785753281833
30
0
41
1
10
44.2667676606656
20
1.6473561550705
30
0
41
1
10
44.0875394852614
20
1.72084568035936
30
0
41
1
10
43.7296657276444
20
1.8651511535376
30
0
41
1
10
43.5509653140947
20
1.9358032507927
30
0
41
1
10
43.1933744590587
20
2.07480482553072
30
0
41
1
10
43.0145204050474
20
2.14300913477206
30
0
41
1
10
42.4783649259997
20
2.34442400523483
30
0
41
1
10
42.1207597179376
20
2.47321467063821
30
0
41
1
10
41.4052158795463
20
2.71726909043431
30
0
41
1
10
41.0462319768263
20
2.83115975485916
30
0
41
1
10
40.3296330671105
20
3.04610525036523
30
0
41
1
10
39.9715782932882
20
3.14606278294462
30
0
41
1
10
39.2562882870678
20
3.33001448399864
30
0
41
1
10
38.8985985842573
20
3.41284984107412
30
0
41
1
10
38.1828475856107
20
3.55998898714162
30
0
41
1
10
37.8241355954062
20
3.62565461238225
30
0
41
1
10
37.1068055591432
20
3.73762807412351
30
0
41
1
10
36.7486847207532
20
3.78435121944517
30
0
41
1
10
36.2120265593809
20
3.83827422111187
30
0
41
1
10
36.033121340715
20
3.85333038210646
30
0
41
1
10
35.6753607828622
20
3.87903304748403
30
0
41
1
10
35.4965717322235
20
3.88973523836279
30
0
41
1
10
35.07263589604
20
3.90958757675938
30
0
41
1
10
34.8275390913889
20
3.91663225715521
30
0
41
1
10
34.5821730187518
20
3.91890831657963
30
0
0
SPLINE
5
BC
100
AcDbEntity
8
1
62
256
6
ByLayer
370
18
48
1
60
0
100
AcDbSpline
70
4
71
3
72
10
73
6
40
0
40
0
40
0
40
0
40
0.309623273794285
40
0.309623273794285
40
1
40
1
40
1
40
1
41
1
10
14.2858173224068
20
-2.65981851062497
30
0
41
1
10
14.1248702494367
20
-2.7125333807021
30
0
41
1
10
13.9639363548418
20
-2.76383627132341
30
0
41
1
10
13.4441044516117
20
-2.92425295814027
30
0
41
1
10
13.0852890676257
20
-3.02677518135439
30
0
41
1
10
12.7252981199977
20
-3.1214434542178
30
0
0
SPLINE
5
BD
100
AcDbEntity
8
1
62
256
6
ByLayer
370
18
48
1
60
0
100
AcDbSpline
70
4
71
3
72
24
73
20
40
0
40
0
40
0
40
0
40
0.0396012288503601
40
0.0396012288503601
40
0.146312203422539
40
0.146312203422539
40
0.253023177994718
40
0.253023177994718
40
0.359734152566896
40
0.359734152566896
40
0.573156101711254
40
0.573156101711254
40
0.67986707628344
40
0.67986707628344
40
0.786578050855627
40
0.786578050855627
40
0.893289025427813
40
0.893289025427813
40
1
40
1
40
1
40
1
41
1
10
47.1508801036668
20
0.370132071290158
30
0
41
1
10
47.1591123689909
20
0.378185018716835
30
0
41
1
10
47.1675619092355
20
0.386543245200528
30
0
41
1
10
47.1994907470839
20
0.41845325117103
30
0
41
1
10
47.2242907341301
20
0.443856849358383
30
0
41
1
10
47.2769796052579
20
0.498760045917464
30
0
41
1
10
47.3048671905996
20
0.528260642274546
30
0
41
1
10
47.3639871575145
20
0.591254015683546
30
0
41
1
10
47.3952852017658
20
0.624820391261693
30
0
41
1
10
47.492462419602
20
0.728718131798786
30
0
41
1
10
47.5621349728484
20
0.803043031376262
30
0
41
1
10
47.6774155164402
20
0.918940618935096
30
0
41
1
10
47.7178910037766
20
0.95848593188893
30
0
41
1
10
47.8017964889469
20
1.03631099708264
30
0
41
1
10
47.8453684161191
20
1.07476144699953
30
0
41
1
10
47.9370544368869
20
1.14920215271317
30
0
41
1
10
47.9854673295159
20
1.18540435205017
30
0
41
1
10
48.0874194550792
20
1.25205268242939
30
0
41
1
10
48.1405516977582
20
1.28224518546222
30
0
41
1
10
48.1965998483594
20
1.3079451401064
30
0
0
SPLINE
5
BE
100
AcDbEntity
8
1
62
256
6
ByLayer
370
18
48
1
60
0
100
AcDbSpline
70
4
71
3
72
8
73
4
40
0
40
0
40
0
40
0
40
1
40
1
40
1
40
1
41
1
10
47.55395600462
20
4.00498676566801
30
0
41
1
10
47.8027937773046
20
3.37144775808773
30
0
41
1
10
48.0580476092646
20
2.71407955777292
30
0
41
1
10
48.3001369233411
20
2.02191058381862
30
0
0
SPLINE
5
BF
100
AcDbEntity
8
1
62
256
6
ByLayer
370
18
48
1
60
0
100
AcDbSpline
70
4
71
1
72
4
73
2
40
0
40
0
40
1
40
1
41
1
10
47.5109269109583
20
-3.83484890878714
30
0
41
1
10
48.3388402415315
20
-1.03986034594686
30
0
0
SPLINE
5
C0
100
AcDbEntity
8
1
62
256
6
ByLayer
370
18
48
1
60
0
100
AcDbSpline
70
4
71
4
72
10
73
5
40
0
40
0
40
0
40
0
40
0
40
1
40
1
40
1
40
1
40
1
41
1
10
13.0552963476331
20
-2.27254817226694
30
0
41
1
10
12.9727967907243
20
-2.48477199275465
30
0
41
1
10
12.8902972338154
20
-2.69699581324235
30
0
41
1
10
12.8077976769065
20
-2.90921963373006
30
0
41
1
10
12.7252981199977
20
-3.1214434542178
30
0
0
SPLINE
5
C1
100
AcDbEntity
8
1
62
256
6
ByLayer
370
18
48
1
60
0
100
AcDbSpline
70
4
71
3
72
18
73
14
40
0
40
0
40
0
40
0
40
0.25
40
0.25
40
0.375
40
0.375
40
0.5
40
0.5
40
0.75
40
0.75
40
0.875
40
0.875
40
1
40
1
40
1
40
1
41
1
10
47.1294737601112
20
0.397033263955762
30
0
41
1
10
47.0864285370025
20
0.185818842061622
30
0
41
1
10
47.051964594475
20
-0.0258470796303527
30
0
41
1
10
47.0131943010873
20
-0.344026037239161
30
0
41
1
10
47.0024352732037
20
-0.450199568772689
30
0
41
1
10
46.9853852350224
20
-0.662781714356555
30
0
41
1
10
46.9790861281431
20
-0.769723079467752
30
0
41
1
10
46.9673895673762
20
-1.08521196208247
30
0
41
1
10
46.9689714703532
20
-1.28937607174384
30
0
41
1
10
46.9850782423814
20
-1.58659991891497
30
0
41
1
10
46.9927476198561
20
-1.68416328185521
30
0
41
1
10
47.0127698315282
20
-1.87621327216317
30
0
41
1
10
47.025139946242
20
-1.97066013909051
30
0
41
1
10
47.0397077019662
20
-2.06233239493241
30
0
0
SPLINE
5
C2
100
AcDbEntity
8
1
62
256
6
ByLayer
370
13
48
1
60
0
100
AcDbSpline
70
4
71
3
72
21
73
17
40
0
40
0
40
0
40
0
40
0.0323882831483929
40
0.0923814410084515
40
0.212367756728569
40
0.272360914588629
40
0.332354072448686
40
0.452340388168803
40
0.512333546028864
40
0.572326703888922
40
0.692313019609037
40
0.752306177469092
40
0.812299335329153
40
0.932285651049271
40
0.99227880890933
40
1
40
1
40
1
40
1
41
1
10
48.3001369232569
20
2.0219105838176
30
0
41
1
10
48.2544492196254
20
2.02137024384282
30
0
41
1
10
48.1241310671761
20
2.01958029011175
30
0
41
1
10
47.8244935666016
20
2.01370294870529
30
0
41
1
10
47.4859528985435
20
2.00373680127822
30
0
41
1
10
47.1474549661916
20
1.99044305508849
30
0
41
1
10
46.8088685440219
20
1.97464071827551
30
0
41
1
10
46.4703276807622
20
1.95555590209048
30
0
41
1
10
46.1318295122031
20
1.93320897754043
30
0
41
1
10
45.7932429090255
20
1.90846549010834
30
0
41
1
10
45.4547020611947
20
1.88052112821441
30
0
41
1
10
45.1162042808074
20
1.84940945556704
30
0
41
1
10
44.7776181291708
20
1.81604232116481
30
0
41
1
10
44.4390776690919
20
1.77960373736235
30
0
41
1
10
44.1743130531353
20
1.74875120501861
30
0
41
1
10
44.0787832343142
20
1.73729053817635
30
0
41
1
10
44.0678902069539
20
1.73597946751104
30
0
0
SPLINE
5
C3
100
AcDbEntity
8
1
62
256
6
ByLayer
370
18
48
1
60
0
100
AcDbSpline
70
4
71
3
72
28
73
24
40
0
40
0
40
0
40
0
40
0.125000000000002
40
0.125000000000002
40
0.250000000000004
40
0.250000000000004
40
0.312500000000003
40
0.312500000000003
40
0.375000000000002
40
0.375000000000002
40
0.5
40
0.5
40
0.562499999999999
40
0.562499999999999
40
0.624999999999999
40
0.624999999999999
40
0.749999999999999
40
0.749999999999999
40
0.8125
40
0.8125
40
0.875
40
0.875
40
1
40
1
40
1
40
1
41
1
10
6.03489995617446
20
-3.78237644693425
30
0
41
1
10
5.93944835265964
20
-3.75290302931398
30
0
41
1
10
5.84633679717609
20
-3.7189319236511
30
0
41
1
10
5.66934144779407
20
-3.64110636387474
30
0
41
1
10
5.58546337958961
20
-3.59733133874144
30
0
41
1
10
5.46804856384898
20
-3.52269648518072
30
0
41
1
10
5.4303165939877
20
-3.49631619967823
30
0
41
1
10
5.35800954179331
20
-3.44016156333805
30
0
41
1
10
5.32335687790004
20
-3.41029148039968
30
0
41
1
10
5.22618777449557
20
-3.31632305616458
30
0
41
1
10
5.16995023816781
20
-3.24759450773217
30
0
41
1
10
5.10060678841313
20
-3.13369068285766
30
0
41
1
10
5.08000370228621
20
-3.09391416507145
30
0
41
1
10
5.04433829475585
20
-3.01035267604226
30
0
41
1
10
5.02920913691605
20
-2.96625786227764
30
0
41
1
10
4.99375330788686
20
-2.82996697882444
30
0
41
1
10
4.98313785091725
20
-2.73393687359692
30
0
41
1
10
4.98717929094136
20
-2.58190703584165
30
0
41
1
10
4.9919140726206
20
-2.52959391935454
30
0
41
1
10
5.00795722344509
20
-2.4237855497008
30
0
41
1
10
5.01918878183963
20
-2.37050106276081
30
0
41
1
10
5.06182866340231
20
-2.20958543489664
30
0
41
1
10
5.10232927032723
20
-2.10050797879964
30
0
41
1
10
5.15305333964145
20
-1.99100518924803
30
0
0
SPLINE
5
C4
100
AcDbEntity
8
1
62
256
6
ByLayer
370
18
48
1
60
0
100
AcDbSpline
70
4
71
3
72
8
73
4
40
0
40
0
40
0
40
0
40
1
40
1
40
1
40
1
41
1
10
14.2826958218579
20
2.6739228186087
30
0
41
1
10
14.7054908507362
20
2.80436445817645
30
0
41
1
10
15.1274980499618
20
2.92809600362799
30
0
41
1
10
15.5486563487167
20
3.04479023344848
30
0
0
SPLINE
5
C5
100
AcDbEntity
8
1
62
256
6
ByLayer
370
18
48
1
60
0
100
AcDbSpline
70
4
71
3
72
8
73
4
40
0
40
0
40
0
40
0
40
1
40
1
40
1
40
1
41
1
10
48.9997489386906
20
-0.0849206794348731
30
0
41
1
10
48.9282585258009
20
-0.276933146234597
30
0
41
1
10
48.8586134265798
20
-0.470163150651558
30
0
41
1
10
48.7905762874984
20
-0.664548319004894
30
0
0
SPLINE
5
C6
100
AcDbEntity
8
1
62
256
6
ByLayer
370
18
48
1
60
0
100
AcDbSpline
70
4
71
3
72
56
73
52
40
0
40
0
40
0
40
0
40
0.0312500000000003
40
0.0312500000000003
40
0.0625000000000005
40
0.0625000000000005
40
0.0937500000000008
40
0.0937500000000008
40
0.125000000000001
40
0.125000000000001
40
0.187500000000002
40
0.187500000000002
40
0.218750000000003
40
0.218750000000003
40
0.250000000000003
40
0.250000000000003
40
0.312500000000002
40
0.312500000000002
40
0.343750000000001
40
0.343750000000001
40
0.375
40
0.375
40
0.40625
40
0.40625
40
0.437499999999999
40
0.437499999999999
40
0.499999999999998
40
0.499999999999998
40
0.531249999999998
40
0.531249999999998
40
0.562499999999997
40
0.562499999999997
40
0.624999999999996
40
0.624999999999996
40
0.656249999999996
40
0.656249999999996
40
0.687499999999996
40
0.687499999999996
40
0.749999999999996
40
0.749999999999996
40
0.781249999999997
40
0.781249999999997
40
0.812499999999997
40
0.812499999999997
40
0.843749999999998
40
0.843749999999998
40
0.874999999999998
40
0.874999999999998
40
0.937499999999999
40
0.937499999999999
40
1
40
1
40
1
40
1
41
1
10
15.5486563487167
20
3.04479023344845
30
0
41
1
10
15.8831106057381
20
3.14541976406323
30
0
41
1
10
16.217315510295
20
3.23842837737467
30
0
41
1
10
16.8847995645806
20
3.41006645453146
30
0
41
1
10
17.21821884649
20
3.48848435474096
30
0
41
1
10
17.8850893723666
20
3.62970689417841
30
0
41
1
10
18.2189030677881
20
3.69219099819767
30
0
41
1
10
18.8869201479149
20
3.80112029786568
30
0
41
1
10
19.2219474232897
20
3.84712880645367
30
0
41
1
10
20.2235715057668
20
3.95932634763605
30
0
41
1
10
20.8900534493405
20
3.99906579890345
30
0
41
1
10
21.8907757845579
20
4.00531922878773
30
0
41
1
10
22.2252059765786
20
3.99849678133271
30
0
41
1
10
22.8937646958233
20
3.96689731630312
30
0
41
1
10
23.2276767517976
20
3.94229982366389
30
0
41
1
10
24.2278565277372
20
3.8421243992008
30
0
41
1
10
24.8941582780311
20
3.74087717129444
30
0
41
1
10
25.8960928598632
20
3.5392578037804
30
0
41
1
10
26.2307944882587
20
3.46407861187225
30
0
41
1
10
26.8980291574221
20
3.29848163076153
30
0
41
1
10
27.2314267604261
20
3.20846606447432
30
0
41
1
10
27.8977802649223
20
3.01403831172198
30
0
41
1
10
28.231098618692
20
2.91012006843459
30
0
41
1
10
28.8981396591611
20
2.68899731418048
30
0
41
1
10
29.2325770697263
20
2.57209598494612
30
0
41
1
10
30.2345507561825
20
2.20450603682698
30
0
41
1
10
30.9003636494418
20
1.93854412589658
30
0
41
1
10
31.9000622470234
20
1.51627883037489
30
0
41
1
10
32.2335051907857
20
1.37172817211993
30
0
41
1
10
32.9015636700396
20
1.07650519481382
30
0
41
1
10
33.235657755974
20
0.925977848174426
30
0
41
1
10
34.235897117763
20
0.470287763543695
30
0
41
1
10
34.9010835306381
20
0.159615060943708
30
0
41
1
10
35.9017441484779
20
-0.305195888729315
30
0
41
1
10
36.2360083271137
20
-0.460581648546508
30
0
41
1
10
36.9035160597056
20
-0.767422109646049
30
0
41
1
10
37.2365497949149
20
-0.919695558649636
30
0
41
1
10
38.2358008926079
20
-1.36821077553802
30
0
41
1
10
38.9009361566955
20
-1.65869581374082
30
0
41
1
10
39.9032497086833
20
-2.06906836874791
30
0
41
1
10
40.2365847180709
20
-2.20186158002196
30
0
41
1
10
40.9029964109272
20
-2.45594471142743
30
0
41
1
10
41.2356205643524
20
-2.57822808958858
30
0
41
1
10
41.9016016488822
20
-2.81008746320026
30
0
41
1
10
42.234391548958
20
-2.92057383525534
30
0
41
1
10
42.9015113499459
20
-3.1276210901907
30
0
41
1
10
43.2355823130791
20
-3.22508751142112
30
0
41
1
10
44.2349872553179
20
-3.49329031419853
30
0
41
1
10
44.8976628595609
20
-3.64263043755767
30
0
41
1
10
46.2243831454231
20
-3.87422905348541
30
0
41
1
10
46.8873015027692
20
-3.95740783208112
30
0
41
1
10
47.55395600462
20
-4.00498676566801
30
0
0
SPLINE
5
C7
100
AcDbEntity
8
1
62
256
6
ByLayer
370
18
48
1
60
0
100
AcDbSpline
70
4
71
3
72
8
73
4
40
0
40
0
40
0
40
0
40
1
40
1
40
1
40
1
41
1
10
47.1294737601112
20
0.397033263955791
30
0
41
1
10
47.2938634820534
20
0.316028421829543
30
0
41
1
10
47.4593614529888
20
0.240362646470345
30
0
41
1
10
47.6260561574827
20
0.170462218438587
30
0
0
SPLINE
5
C8
100
AcDbEntity
8
1
62
256
6
ByLayer
370
18
48
1
60
0
100
AcDbSpline
70
4
71
3
72
8
73
4
40
0
40
0
40
0
40
0
40
1
40
1
40
1
40
1
41
1
10
48.3001369233411
20
2.02191058381859
30
0
41
1
10
48.3631208723638
20
1.84183020506691
30
0
41
1
10
48.4294103680117
20
1.66828826144811
30
0
41
1
10
48.4992294796883
20
1.50042546212114
30
0
0
SPLINE
5
C9
100
AcDbEntity
8
1
62
256
6
ByLayer
370
13
48
1
60
0
100
AcDbSpline
70
4
71
3
72
34
73
30
40
0
40
0
40
0
40
0
40
0.0610235233953662
40
0.0610235233953662
40
0.122047046790732
40
0.122047046790732
40
0.244094093581465
40
0.244094093581465
40
0.305117616976831
40
0.305117616976831
40
0.335629378674514
40
0.335629378674514
40
0.366141140372197
40
0.366141140372197
40
0.488188187162929
40
0.488188187162929
40
0.610235233953662
40
0.610235233953662
40
0.671258757349028
40
0.671258757349028
40
0.732282280744394
40
0.732282280744394
40
0.79330580413976
40
0.79330580413976
40
0.854329327535126
40
0.854329327535126
40
0.97637637432586
40
0.97637637432586
40
1
40
1
40
1
40
1
41
1
10
47.4662495430087
20
-3.73105719003991
30
0
41
1
10
47.0372705469194
20
-3.66689189905785
30
0
41
1
10
46.6077185433999
20
-3.58892867641774
30
0
41
1
10
45.7529785611065
20
-3.40840119732241
30
0
41
1
10
45.3272485725221
20
-3.30578828960438
30
0
41
1
10
44.05272519473
20
-2.96409598011863
30
0
41
1
10
43.2062508936418
20
-2.69125775482888
30
0
41
1
10
41.9327443728427
20
-2.22907683979258
30
0
41
1
10
41.507546205556
20
-2.06625715749357
30
0
41
1
10
40.8674140398387
20
-1.81110983813693
30
0
41
1
10
40.653675779171
20
-1.72420185707244
30
0
41
1
10
40.225297131326
20
-1.54700108658531
30
0
41
1
10
40.010409209521
20
-1.45660445082868
30
0
41
1
10
38.9395997261369
20
-0.99986856273668
30
0
41
1
10
38.0900141792765
20
-0.61835439192015
30
0
41
1
10
36.3931842315544
20
0.150285101583137
30
0
41
1
10
35.5456036985492
20
0.536651697979465
30
0
41
1
10
34.2668615339952
20
1.09976897169108
30
0
41
1
10
33.8392256449902
20
1.28475680284453
30
0
41
1
10
32.9800999660085
20
1.64453830693449
30
0
41
1
10
32.5515967715487
20
1.81870316767367
30
0
41
1
10
31.6949859713563
20
2.15209343786117
30
0
41
1
10
31.266905785189
20
2.31137404958815
30
0
41
1
10
30.4094712092634
20
2.61182496028994
30
0
41
1
10
29.9795145599355
20
2.75325731360226
30
0
41
1
10
28.692678315912
20
3.14431682117063
30
0
41
1
10
27.8376962400587
20
3.36159371649015
30
0
41
1
10
26.8128769017123
20
3.55871661804582
30
0
41
1
10
26.6466015300575
20
3.58877389853492
30
0
41
1
10
26.4803081385978
20
3.61684527153423
30
0
0
SPLINE
5
CA
100
AcDbEntity
8
1
62
256
6
ByLayer
370
18
48
1
60
0
100
AcDbSpline
70
4
71
3
72
10
73
6
40
0
40
0
40
0
40
0
40
0.5
40
0.5
40
1
40
1
40
1
40
1
41
1
10
48.1965998483594
20
1.30794514010643
30
0
41
1
10
48.2509409920198
20
1.33286237488406
30
0
41
1
10
48.3043653314338
20
1.36049802740888
30
0
41
1
10
48.4067420059905
20
1.42375437530464
30
0
41
1
10
48.4552805963565
20
1.45898592162274
30
0
41
1
10
48.4992294796954
20
1.50042546212163
30
0
0
SPLINE
5
CB
100
AcDbEntity
8
1
62
256
6
ByLayer
370
18
48
1
60
0
100
AcDbSpline
70
4
71
3
72
12
73
8
40
0
40
0
40
0
40
0
40
0.5
40
0.5
40
0.75
40
0.75
40
1
40
1
40
1
40
1
41
1
10
6.47714387287499
20
-3.75468867760714
30
0
41
1
10
6.41103321054413
20
-3.74002631634343
30
0
41
1
10
6.34197169958355
20
-3.73113191041841
30
0
41
1
10
6.22995915918222
20
-3.73444630850469
30
0
41
1
10
6.1919753564033
20
-3.73840989507585
30
0
41
1
10
6.11424776531794
20
-3.75407069108596
30
0
41
1
10
6.07402383345155
20
-3.76604955781903
30
0
41
1
10
6.03489995617457
20
-3.78237644693471
30
0
0
SPLINE
5
CC
100
AcDbEntity
8
1
62
256
6
ByLayer
370
18
48
1
60
0
100
AcDbSpline
70
4
71
3
72
10
73
6
40
0
40
0
40
0
40
0
40
0.713319485254272
40
0.713319485254272
40
1
40
1
40
1
40
1
41
1
10
23.1050170875576
20
-3.89973241056529
30
0
41
1
10
22.6834266006086
20
-3.89846538585505
30
0
41
1
10
22.2629174084268
20
-3.88334807661835
30
0
41
1
10
21.6738725408146
20
-3.84293689717157
30
0
41
1
10
21.5050609418472
20
-3.82917595061284
30
0
41
1
10
21.3362573291544
20
-3.81325850430292
30
0
0
SPLINE
5
CD
100
AcDbEntity
8
1
62
256
6
ByLayer
370
13
48
1
60
0
100
AcDbSpline
70
4
71
3
72
26
73
22
40
0
40
0
40
0
40
0
40
0.138118319815725
40
0.138118319815725
40
0.224306487834152
40
0.224306487834152
40
0.267400571843365
40
0.267400571843365
40
0.310494655852579
40
0.310494655852579
40
0.482870991889433
40
0.482870991889433
40
0.655247327926288
40
0.655247327926288
40
0.698341411935502
40
0.698341411935502
40
0.741435495944715
40
0.741435495944715
40
0.827623663963143
40
0.827623663963143
40
1
40
1
40
1
40
1
41
1
10
21.3362573290224
20
-3.81325850429047
30
0
41
1
10
20.6556904444853
20
-3.74908400782758
30
0
41
1
10
19.9752533742047
20
-3.64985631994651
30
0
41
1
10
18.8653036079267
20
-3.43384119345436
30
0
41
1
10
18.4376512448475
20
-3.33782507433995
30
0
41
1
10
17.7931910012659
20
-3.17526785154291
30
0
41
1
10
17.5781120746381
20
-3.11805114064757
30
0
41
1
10
17.1494077775377
20
-2.99846577331164
30
0
41
1
10
16.9354758768561
20
-2.93601727020152
30
0
41
1
10
15.867475884524
20
-2.61123475897821
30
0
41
1
10
15.0183421439051
20
-2.31095498136062
30
0
41
1
10
13.3184783338407
20
-1.65353689709286
30
0
41
1
10
12.4676388884997
20
-1.29601357286916
30
0
41
1
10
11.3955193183619
20
-0.828897625449372
30
0
41
1
10
11.1803793428493
20
-0.734353222000777
30
0
41
1
10
10.7504192918035
20
-0.544250252498784
30
0
41
1
10
10.5358417953958
20
-0.448805658607313
30
0
41
1
10
9.89301148984219
20
-0.16198924837903
30
0
41
1
10
9.46564726778632
20
0.0298212079626978
30
0
41
1
10
8.18485499525377
20
0.60195642986335
30
0
41
1
10
7.33290494707765
20
0.97953899987678
30
0
41
1
10
6.47629985692626
20
1.33828426320102
30
0
0
SPLINE
5
CE
100
AcDbEntity
8
1
62
256
6
ByLayer
370
18
48
1
60
0
100
AcDbSpline
70
4
71
3
72
18
73
14
40
0
40
0
40
0
40
0
40
0.0276088181611086
40
0.0276088181611086
40
0.189674015134257
40
0.189674015134257
40
0.351739212107406
40
0.351739212107406
40
0.513804409080554
40
0.513804409080554
40
0.675869606053703
40
0.675869606053703
40
1
40
1
40
1
40
1
41
1
10
7.78894049758912
20
3.87493140727531
30
0
41
1
10
7.83186815562166
20
3.87486464346395
30
0
41
1
10
7.8749416606168
20
3.87450896917397
30
0
41
1
10
8.17172830265841
20
3.87019337429086
30
0
41
1
10
8.42888110470062
20
3.85719428800056
30
0
41
1
10
8.94895448623839
20
3.81698706659623
30
0
41
1
10
9.21176647705249
20
3.79013215057429
30
0
41
1
10
9.74248344877032
20
3.72437330657576
30
0
41
1
10
10.0103801957453
20
3.68463318766339
30
0
41
1
10
10.5475432374472
20
3.59599860111587
30
0
41
1
10
10.8172806308014
20
3.5467641395577
30
0
41
1
10
11.6297944293033
20
3.38517097064337
30
0
41
1
10
12.1758134310351
20
3.25937057727779
30
0
41
1
10
12.7252981199978
20
3.12144345421777
30
0
0
SPLINE
5
CF
100
AcDbEntity
8
1
62
256
6
ByLayer
370
18
48
1
60
0
100
AcDbSpline
70
4
71
3
72
34
73
30
40
0
40
0
40
0
40
0
40
0.0707413684694874
40
0.0707413684694874
40
0.141482736938975
40
0.141482736938975
40
0.212224105408462
40
0.212224105408462
40
0.282965473877949
40
0.282965473877949
40
0.353706842347437
40
0.353706842347437
40
0.424448210816924
40
0.424448210816924
40
0.495189579286412
40
0.495189579286412
40
0.565930947755899
40
0.565930947755899
40
0.707413684694875
40
0.707413684694875
40
0.778155053164362
40
0.778155053164362
40
0.848896421633849
40
0.848896421633849
40
0.919637790103337
40
0.919637790103337
40
0.990379158572824
40
0.990379158572824
40
1
40
1
40
1
40
1
41
1
10
6.37876064187981
20
1.18330177669125
30
0
41
1
10
6.80885159257332
20
0.995045488268119
30
0
41
1
10
7.23881302621186
20
0.802177250481321
30
0
41
1
10
8.09762470658549
20
0.412013199355584
30
0
41
1
10
8.52672509612546
20
0.214552562950217
30
0
41
1
10
9.38643340677422
20
-0.180519152458118
30
0
41
1
10
9.81586653613863
20
-0.37796316949138
30
0
41
1
10
10.6730971039766
20
-0.768447320068532
30
0
41
1
10
11.1013113757133
20
-0.961506119871387
30
0
41
1
10
11.9585443986075
20
-1.33981310775553
30
0
41
1
10
12.3880690424386
20
-1.52550544343828
30
0
41
1
10
13.2470016480892
20
-1.88374093505269
30
0
41
1
10
13.6755467826731
20
-2.05617249089934
30
0
41
1
10
14.5321707412716
20
-2.38511993575926
30
0
41
1
10
14.9603728847932
20
-2.54140617824476
30
0
41
1
10
15.818125081439
20
-2.83483359581877
30
0
41
1
10
16.2481606293594
20
-2.97218188139973
30
0
41
1
10
17.5345312590372
20
-3.34877371315943
30
0
41
1
10
18.3893464541093
20
-3.55351340037808
30
0
41
1
10
19.6770723937207
20
-3.77989091380752
30
0
41
1
10
20.1064807160434
20
-3.841618006397
30
0
41
1
10
20.9631273153394
20
-3.93636648348098
30
0
41
1
10
21.3909158282829
20
-3.9694657488308
30
0
41
1
10
22.2473828991949
20
-4.00636014711282
30
0
41
1
10
22.6766313780371
20
-4.01016865215908
30
0
41
1
10
23.5349863830604
20
-3.98821271863687
30
0
41
1
10
23.9631162883016
20
-3.96248625904366
30
0
41
1
10
24.4493487812989
20
-3.9169403020768
30
0
41
1
10
24.5075572151972
20
-3.91122200497239
30
0
41
1
10
24.565764929396
20
-3.90523903827187
30
0
0
SPLINE
5
D0
100
AcDbEntity
8
1
62
256
6
ByLayer
370
18
48
1
60
0
100
AcDbSpline
70
4
71
3
72
74
73
70
40
0
40
0
40
0
40
0
40
0.0373657057210635
40
0.0373657057210635
40
0.0747314114421269
40
0.0747314114421269
40
0.11209711716319
40
0.11209711716319
40
0.130779970023722
40
0.130779970023722
40
0.149462822884254
40
0.149462822884254
40
0.186828528605317
40
0.186828528605317
40
0.205511381465848
40
0.205511381465848
40
0.22419423432638
40
0.22419423432638
40
0.242877087186912
40
0.242877087186912
40
0.261559940047444
40
0.261559940047444
40
0.298925645768507
40
0.298925645768507
40
0.317608498629039
40
0.317608498629039
40
0.33629135148957
40
0.33629135148957
40
0.373657057210633
40
0.373657057210633
40
0.411022762931696
40
0.411022762931696
40
0.448388468652759
40
0.448388468652759
40
0.485754174373822
40
0.485754174373822
40
0.504437027234353
40
0.504437027234353
40
0.523119880094884
40
0.523119880094884
40
0.560485585815947
40
0.560485585815947
40
0.59785129153701
40
0.59785129153701
40
0.635216997258073
40
0.635216997258073
40
0.672582702979136
40
0.672582702979136
40
0.709948408700199
40
0.709948408700199
40
0.72863126156073
40
0.72863126156073
40
0.747314114421262
40
0.747314114421262
40
0.784679820142325
40
0.784679820142325
40
0.803362673002856
40
0.803362673002856
40
0.822045525863388
40
0.822045525863388
40
0.85941123158445
40
0.85941123158445
40
0.896776937305511
40
0.896776937305511
40
0.934142643026573
40
0.934142643026573
40
0.971508348747635
40
0.971508348747635
40
1
40
1
40
1
40
1
41
1
10
12.7252981199976
20
3.1214434542178
30
0
41
1
10
13.0853075260328
20
3.02677032727257
30
0
41
1
10
13.4440434102041
20
2.92426782213081
30
0
41
1
10
14.1613648999734
20
2.70291509810392
30
0
41
1
10
14.5198017325655
20
2.58416527914395
30
0
41
1
10
15.2369854390392
20
2.3354422446109
30
0
41
1
10
15.5955387691376
20
2.20547906339067
30
0
41
1
10
16.1344045596348
20
2.0016261131486
30
0
41
1
10
16.3142363996771
20
1.93183127905982
30
0
41
1
10
16.673466699117
20
1.7900799631085
30
0
41
1
10
16.8530281708001
20
1.71821132239796
30
0
41
1
10
17.3911437661225
20
1.49899862219095
30
0
41
1
10
17.7495368578751
20
1.34885842658602
30
0
41
1
10
18.2870715823458
20
1.11923633883566
30
0
41
1
10
18.4661601980384
20
1.04175956961265
30
0
41
1
10
18.8247401106324
20
0.885914181889717
30
0
41
1
10
19.0041276447941
20
0.807314849081337
30
0
41
1
10
19.3629601169429
20
0.648792018338469
30
0
41
1
10
19.5423780772999
20
0.568908050239912
30
0
41
1
10
19.9019990519629
20
0.408633384095538
30
0
41
1
10
20.081583438317
20
0.328199624543771
30
0
41
1
10
20.6198068246504
20
0.0862596140874246
30
0
41
1
10
20.9783253590493
20
-0.0749462001202517
30
0
41
1
10
21.5156823882175
20
-0.316683763964079
30
0
41
1
10
21.6948242258264
20
-0.397044474360968
30
0
41
1
10
22.0531868839458
20
-0.557304391782452
30
0
41
1
10
22.232299622798
20
-0.637448385785888
30
0
41
1
10
22.7700170296752
20
-0.876223777354113
30
0
41
1
10
23.1296931457384
20
-1.0332128357316
30
0
41
1
10
23.8477834226952
20
-1.34197809259027
30
0
41
1
10
24.2064476596038
20
-1.49248083678194
30
0
41
1
10
24.9229073471889
20
-1.78729843338749
30
0
41
1
10
25.2810920665388
20
-1.9295853978565
30
0
41
1
10
25.997897591837
20
-2.20402271346157
30
0
41
1
10
26.3566323541807
20
-2.3359652688398
30
0
41
1
10
26.8957393030132
20
-2.52568934724098
30
0
41
1
10
27.0753143581107
20
-2.58757113527588
30
0
41
1
10
27.4339848940286
20
-2.70793211312207
30
0
41
1
10
27.6130836258372
20
-2.76619192692806
30
0
41
1
10
28.1505654500911
20
-2.93410494977294
30
0
41
1
10
28.5083881313584
20
-3.03869846480268
30
0
41
1
10
29.2249069963268
20
-3.23167597475117
30
0
41
1
10
29.5829806871218
20
-3.32179101096338
30
0
41
1
10
30.3009910572987
20
-3.48289527098569
30
0
41
1
10
30.6600988217889
20
-3.55532989612351
30
0
41
1
10
31.3769426350081
20
-3.68051547618248
30
0
41
1
10
31.7347450630434
20
-3.73272851427549
30
0
41
1
10
32.4508892210537
20
-3.81821232896431
30
0
41
1
10
32.8089020480873
20
-3.85146826994378
30
0
41
1
10
33.3467349329725
20
-3.88780146655711
30
0
41
1
10
33.5260120751744
20
-3.89813476147424
30
0
41
1
10
33.884949207774
20
-3.91312856366727
30
0
41
1
10
34.0643174100818
20
-3.91739867970014
30
0
41
1
10
34.6017879588114
20
-3.9221721162765
30
0
41
1
10
34.959587943849
20
-3.91487683345284
30
0
41
1
10
35.496250279183
20
-3.88975260155507
30
0
41
1
10
35.6750308723576
20
-3.87905432204792
30
0
41
1
10
36.0328671295629
20
-3.85335106875567
30
0
41
1
10
36.2118576516461
20
-3.83829096675069
30
0
41
1
10
36.748958479341
20
-3.78432416451315
30
0
41
1
10
37.108107288287
20
-3.7374443337319
30
0
41
1
10
37.8249701855174
20
-3.62550482050275
30
0
41
1
10
38.1829595242915
20
-3.55996414650053
30
0
41
1
10
38.8982658044865
20
-3.41292008013619
30
0
41
1
10
39.2559577763645
20
-3.33009784979083
30
0
41
1
10
39.9717045622931
20
-3.1460319416864
30
0
41
1
10
40.330512178799
20
-3.04585622277688
30
0
41
1
10
40.9624328762351
20
-2.85628426667625
30
0
41
1
10
41.2355433551516
20
-2.77074893420567
30
0
41
1
10
41.5083412236536
20
-2.68068731247104
30
0
0
SPLINE
5
D1
100
AcDbEntity
8
1
62
256
6
ByLayer
370
18
48
1
60
0
100
AcDbSpline
70
4
71
3
72
30
73
26
40
0
40
0
40
0
40
0
40
0.0312500000000002
40
0.0312500000000002
40
0.0625000000000003
40
0.0625000000000003
40
0.124999999999998
40
0.124999999999998
40
0.187499999999996
40
0.187499999999996
40
0.249999999999994
40
0.249999999999994
40
0.37499999999999
40
0.37499999999999
40
0.43749999999999
40
0.43749999999999
40
0.49999999999999
40
0.49999999999999
40
0.624999999999992
40
0.624999999999992
40
0.749999999999995
40
0.749999999999995
40
0.874999999999997
40
0.874999999999997
40
1
40
1
40
1
40
1
41
1
10
5.15305333964147
20
-1.99100518924803
30
0
41
1
10
5.1776140252706
20
-1.93798374152013
30
0
41
1
10
5.20991069772128
20
-1.88795312365215
30
0
41
1
10
5.28657148472823
20
-1.79271316505978
30
0
41
1
10
5.33000049940767
20
-1.74867605889702
30
0
41
1
10
5.47004132082577
20
-1.6255515001645
30
0
41
1
10
5.57775607581499
20
-1.55425009863887
30
0
41
1
10
5.80117585540572
20
-1.43043567479339
30
0
41
1
10
5.91795917193278
20
-1.37718474104781
30
0
41
1
10
6.1583279214708
20
-1.2826441168516
30
0
41
1
10
6.28228172837618
20
-1.24141233744572
30
0
41
1
10
6.65547465769498
20
-1.13401944888852
30
0
41
1
10
6.90835545236172
20
-1.08281182946325
30
0
41
1
10
7.2920061958954
20
-1.02833644307302
30
0
41
1
10
7.4206356972681
20
-1.01401375400258
30
0
41
1
10
7.67927771514883
20
-0.992550742407019
30
0
41
1
10
7.80965306787064
20
-0.985412985830294
30
0
41
1
10
8.19917455485239
20
-0.974546620152125
30
0
41
1
10
8.45715059787167
20
-0.981165883763254
30
0
41
1
10
8.96991778146258
20
-1.02019775590571
30
0
41
1
10
9.22470251411653
20
-1.05266242048535
30
0
41
1
10
9.73104289099959
20
-1.14319558781821
30
0
41
1
10
9.98289513773329
20
-1.20138595198145
30
0
41
1
10
10.4819874809046
20
-1.34318247798237
30
0
41
1
10
10.7252161392033
20
-1.4256431125855
30
0
41
1
10
10.9624061659414
20
-1.5180369464781
30
0
0
SPLINE
5
D2
100
AcDbEntity
8
1
62
256
6
ByLayer
370
13
48
1
60
0
100
AcDbSpline
70
4
71
3
72
60
73
56
40
0
40
0
40
0
40
0
40
0.0201450467349834
40
0.0344454610770726
40
0.0487458754191626
40
0.0773467041033418
40
0.0916471184454314
40
0.105947532787521
40
0.1345483614717
40
0.14884877581379
40
0.16314919015588
40
0.191750018840059
40
0.206050433182148
40
0.220350847524238
40
0.248951676208417
40
0.263252090550507
40
0.277552504892596
40
0.306153333576776
40
0.320453747918865
40
0.334754162260955
40
0.363354990945134
40
0.377655405287224
40
0.391955819629313
40
0.420556648313492
40
0.434857062655582
40
0.449157476997672
40
0.477758305681851
40
0.492058720023941
40
0.50635913436603
40
0.534959963050209
40
0.549260377392299
40
0.563560791734389
40
0.592161620418568
40
0.606462034760658
40
0.620762449102748
40
0.649363277786926
40
0.663663692129016
40
0.677964106471106
40
0.706564935155285
40
0.720865349497375
40
0.735165763839464
40
0.763766592523643
40
0.778067006865733
40
0.792367421207822
40
0.820968249892002
40
0.835268664234092
40
0.849569078576181
40
0.87816990726036
40
0.89247032160245
40
0.90677073594454
40
0.935371564628719
40
0.949671978970808
40
0.963972393312898
40
0.992573221997077
40
1
40
1
40
1
40
1
41
1
10
39.0846076642422
20
-1.74552746555261
30
0
41
1
10
38.9653856010854
20
-1.75965460239632
30
0
41
1
10
38.7615184506802
20
-1.78297478462346
30
0
41
1
10
38.4729844162225
20
-1.81391848459219
30
0
41
1
10
38.1344878550352
20
-1.84801820103908
30
0
41
1
10
37.7959455726823
20
-1.87900973170929
30
0
41
1
10
37.4573600497299
20
-1.90682934086078
30
0
41
1
10
37.1188626602327
20
-1.93227561041976
30
0
41
1
10
36.7803193406546
20
-1.95449219494731
30
0
41
1
10
36.4417332824348
20
-1.97345769628021
30
0
41
1
10
36.1032357723899
20
-1.98993894769629
30
0
41
1
10
35.7646928095481
20
-2.00312639933287
30
0
41
1
10
35.4261073891049
20
-2.01301287943446
30
0
41
1
10
35.0876106523499
20
-2.02032823285515
30
0
41
1
10
34.749068545847
20
-2.02431604640006
30
0
41
1
10
34.4104837904125
20
-2.0249840274241
30
0
41
1
10
34.0719874605487
20
-2.02301991981912
30
0
41
1
10
33.7334452711915
20
-2.01772640617713
30
0
41
1
10
33.3948598034352
20
-2.00912655925094
30
0
41
1
10
33.0563626440963
20
-1.99786868855429
30
0
41
1
10
32.7178196979826
20
-1.98333508731142
30
0
41
1
10
32.3792340613307
20
-1.96558684674997
30
0
41
1
10
32.0407369942607
20
-1.9452058174314
30
0
41
1
10
31.7021944320396
20
-1.92165897245766
30
0
41
1
10
31.3636091008876
20
-1.89502298510791
30
0
41
1
10
31.025112146894
20
-1.86581020178045
30
0
41
1
10
30.6865695160689
20
-1.83357926792891
30
0
41
1
10
30.3479841407875
20
-1.7984262508478
30
0
41
1
10
30.0094871910965
20
-1.76078641357023
30
0
41
1
10
29.6709445029363
20
-1.72031389928099
30
0
41
1
10
29.3323589217753
20
-1.67711989890677
30
0
41
1
10
28.9938618830558
20
-1.63156130316284
30
0
41
1
10
28.6553193138155
20
-1.58339521050203
30
0
41
1
10
28.3167341106653
20
-1.53275364424343
30
0
41
1
10
27.9782374225246
20
-1.47990561754128
30
0
41
1
10
27.6396950745926
20
-1.42471360556746
30
0
41
1
10
27.3011096607403
20
-1.36732334736732
30
0
41
1
10
26.9626125219797
20
-1.30791350788758
30
0
41
1
10
26.6240695847191
20
-1.24645345374924
30
0
41
1
10
26.2854839218367
20
-1.18310154371886
30
0
41
1
10
25.9469867868811
20
-1.11794448457411
30
0
41
1
10
25.6084441012692
20
-1.051059398853
30
0
41
1
10
25.2698587051014
20
-0.982616188165537
30
0
41
1
10
24.9313618333749
20
-0.912607404849297
30
0
41
1
10
24.5928194226686
20
-0.8412163243446
30
0
41
1
10
24.2542343115241
20
-0.768620601839103
30
0
41
1
10
23.9157376243749
20
-0.694720450644667
30
0
41
1
10
23.5771951394558
20
-0.619804562769843
30
0
41
1
10
23.238609543445
20
-0.544059471257953
30
0
41
1
10
22.900112326197
20
-0.467290499293426
30
0
41
1
10
22.5615694107061
20
-0.389885178672756
30
0
41
1
10
22.2229838438259
20
-0.312029619878075
30
0
41
1
10
21.8844868537366
20
-0.233442299702887
30
0
41
1
10
21.5866253109642
20
-0.164080487262595
30
0
41
1
10
21.3733767465899
20
-0.114397773195861
30
0
41
1
10
21.3294184930511
20
-0.104148021994263
30
0
0
SPLINE
5
D3
100
AcDbEntity
8
1
62
256
6
ByLayer
370
13
48
1
60
0
100
AcDbSpline
70
4
71
3
72
28
73
24
40
0
40
0
40
0
40
0
40
0.0749079515215213
40
0.0749079515215213
40
0.149815903043043
40
0.149815903043043
40
0.299631806086085
40
0.299631806086085
40
0.374539757607607
40
0.374539757607607
40
0.449447709129128
40
0.449447709129128
40
0.599263612172171
40
0.599263612172171
40
0.674171563693692
40
0.674171563693692
40
0.749079515215213
40
0.749079515215213
40
0.898895418258256
40
0.898895418258256
40
0.973803369779777
40
0.973803369779777
40
1
40
1
40
1
40
1
41
1
10
6.47629985692623
20
1.33828426320102
30
0
41
1
10
6.47632691452233
20
1.45015610381367
30
0
41
1
10
6.47635120531808
20
1.55971266235653
30
0
41
1
10
6.47639551384179
20
1.77424049746315
30
0
41
1
10
6.4764155936397
20
1.87957500169875
30
0
41
1
10
6.47647067465809
20
2.18577964642455
30
0
41
1
10
6.47650050244235
20
2.37607943070301
30
0
41
1
10
6.47654190231532
20
2.64139939677622
30
0
41
1
10
6.47655512445587
20
2.72646313018151
30
0
41
1
10
6.4765813900305
20
2.88968495527359
30
0
41
1
10
6.47659447376893
20
2.96802017998962
30
0
41
1
10
6.47663397362186
20
3.18786481404109
30
0
41
1
10
6.47666096937323
20
3.31596254614573
30
0
41
1
10
6.47670599513748
20
3.48081625802678
30
0
41
1
10
6.47672173768916
20
3.53119068513379
30
0
41
1
10
6.4767550451262
20
3.62250274112711
30
0
41
1
10
6.47677248848711
20
3.66305463895011
30
0
41
1
10
6.47682674753844
20
3.76848208566631
30
0
41
1
10
6.47686579099175
20
3.81784648041079
30
0
41
1
10
6.4769273037719
20
3.86013495188161
30
0
41
1
10
6.47694830755745
20
3.86885847602306
30
0
41
1
10
6.47697645003848
20
3.8731848160123
30
0
41
1
10
6.47698373349402
20
3.87364062684287
30
0
41
1
10
6.47699099315653
20
3.87343285878188
30
0
0
SPLINE
5
D4
100
AcDbEntity
8
1
62
256
6
ByLayer
370
13
48
1
60
0
100
AcDbSpline
70
4
71
3
72
60
73
56
40
0
40
0
40
0
40
0
40
0.0279833137515463
40
0.0422010310011768
40
0.0564187482508073
40
0.0848541827500683
40
0.0990718999996988
40
0.113289617249329
40
0.14172505174859
40
0.155942768998221
40
0.170160486247851
40
0.198595920747112
40
0.212813637996743
40
0.227031355246373
40
0.255466789745634
40
0.269684506995264
40
0.283902224244896
40
0.312337658744156
40
0.326555375993786
40
0.340773093243417
40
0.369208527742678
40
0.383426244992309
40
0.397643962241939
40
0.4260793967412
40
0.440297113990831
40
0.454514831240461
40
0.482950265739722
40
0.497167982989353
40
0.511385700238983
40
0.539821134738244
40
0.554038851987875
40
0.568256569237505
40
0.596692003736766
40
0.610909720986397
40
0.625127438236027
40
0.653562872735288
40
0.667780589984919
40
0.681998307234549
40
0.71043374173381
40
0.724651458983441
40
0.738869176233071
40
0.767304610732332
40
0.781522327981963
40
0.795740045231593
40
0.824175479730854
40
0.838393196980485
40
0.852610914230115
40
0.881046348729376
40
0.895264065979007
40
0.909481783228637
40
0.937917217727898
40
0.952134934977528
40
0.966352652227159
40
0.99478808672642
40
1
40
1
40
1
40
1
41
1
10
34.6979432943623
20
0.105113515578608
30
0
41
1
10
34.5313499407312
20
0.143957513536804
30
0
41
1
10
34.2801363661777
20
0.202535985680186
30
0
41
1
10
33.9443297042122
20
0.280666282637412
30
0
41
1
10
33.6057434442542
20
0.358722118733994
30
0
41
1
10
33.2672026730265
20
0.436380922245235
30
0
41
1
10
32.9287046646951
20
0.513460486060126
30
0
41
1
10
32.5901182916694
20
0.589544842772142
30
0
41
1
10
32.2515775890289
20
0.664845687046864
30
0
41
1
10
31.9130796248097
20
0.739183819070803
30
0
41
1
10
31.5744932474693
20
0.812247435586812
30
0
41
1
10
31.2359526021466
20
0.884155680357509
30
0
41
1
10
30.8974548437798
20
0.954737676478999
30
0
41
1
10
30.5588685554579
20
1.0237854603111
30
0
41
1
10
30.22032779123
20
1.09132141251666
30
0
41
1
10
29.8818296548897
20
1.15717798257538
30
0
41
1
10
29.5432430160219
20
1.22125811506638
30
0
41
1
10
29.2047020305094
20
1.28348798764043
30
0
41
1
10
28.8662041048636
20
1.34371097200031
30
0
41
1
10
28.5276179165873
20
1.40194118471669
30
0
41
1
10
28.1890775203602
20
1.45801000000219
30
0
41
1
10
27.8505798437253
20
1.51177323505743
30
0
41
1
10
27.5119936516455
20
1.56335521725106
30
0
41
1
10
27.17345300379
20
1.61249433393849
30
0
41
1
10
26.8349550604572
20
1.65905937183308
30
0
41
1
10
26.4963686051617
20
1.70328414220697
30
0
41
1
10
26.1578276824128
20
1.7448182376211
30
0
41
1
10
25.8193294540702
20
1.78354688949244
30
0
41
1
10
25.4807428142033
20
1.81980838842569
30
0
41
1
10
25.142201965654
20
1.85316654104781
30
0
41
1
10
24.8037042221403
20
1.88352107296348
30
0
41
1
10
24.4651181123383
20
1.91131420236326
30
0
41
1
10
24.1265776943413
20
1.9360326073398
30
0
41
1
10
23.7880799217116
20
1.9575984408016
30
0
41
1
10
23.4494935847794
20
1.97654617920995
30
0
41
1
10
23.1109527484251
20
1.99228933666623
30
0
41
1
10
22.772454721112
20
2.00476499951876
30
0
41
1
10
22.433868340333
20
2.01459959783162
30
0
41
1
10
22.0953276479253
20
2.02114641867377
30
0
41
1
10
21.7568296990985
20
2.02437039500271
30
0
41
1
10
21.4182433301863
20
2.02497198532589
30
0
41
1
10
21.0797026823173
20
2.02224898930379
30
0
41
1
10
20.7412048871592
20
2.01618109300918
30
0
41
1
10
20.4026185270243
20
2.00753964295023
30
0
41
1
10
20.0640776600654
20
1.99557712896086
30
0
41
1
10
19.7255794293623
20
1.98029511938705
30
0
41
1
10
19.3869927210514
20
1.96252190179399
30
0
41
1
10
19.0484517170443
20
1.94146996468075
30
0
41
1
10
18.7099538898106
20
1.9171546632497
30
0
41
1
10
18.371367892135
20
1.89046387913302
30
0
41
1
10
18.0328277698774
20
1.8605939724705
30
0
41
1
10
17.6943303500709
20
1.82760085890047
30
0
41
1
10
17.3557443596464
20
1.79239742996589
30
0
41
1
10
17.0708134863299
20
1.76022296614877
30
0
41
1
10
16.8705375777676
20
1.73622545083725
30
0
41
1
10
16.8395151717304
20
1.73247496683072
30
0
0
SPLINE
5
D5
100
AcDbEntity
8
1
62
256
6
ByLayer
370
18
48
1
60
0
100
AcDbSpline
70
4
71
3
72
8
73
4
40
0
40
0
40
0
40
0
40
1
40
1
40
1
40
1
41
1
10
48.3001369233411
20
-2.02191058381859
30
0
41
1
10
48.3631208723639
20
-1.84183020506686
30
0
41
1
10
48.4294103680117
20
-1.66828826144803
30
0
41
1
10
48.4992294796884
20
-1.500425462121
30
0
0
SPLINE
5
D6
100
AcDbEntity
8
1
62
256
6
ByLayer
370
18
48
1
60
0
100
AcDbSpline
70
4
71
3
72
20
73
16
40
0
40
0
40
0
40
0
40
0.124999999999999
40
0.124999999999999
40
0.249999999999997
40
0.249999999999997
40
0.374999999999996
40
0.374999999999996
40
0.499999999999994
40
0.499999999999994
40
0.749999999999997
40
0.749999999999997
40
0.874999999999999
40
0.874999999999999
40
1
40
1
40
1
40
1
41
1
10
48.3049007586372
20
-1.0466014443227
30
0
41
1
10
48.2611364194787
20
-1.04779244237921
30
0
41
1
10
48.2190970281119
20
-1.03915953871038
30
0
41
1
10
48.1379986830601
20
-1.00491957886459
30
0
41
1
10
48.0986340608897
20
-0.978943385399759
30
0
41
1
10
48.0247702671864
20
-0.913125953679554
30
0
41
1
10
47.9901302086076
20
-0.873391210318658
30
0
41
1
10
47.9248273148454
20
-0.782075932995554
30
0
41
1
10
47.8940437800153
20
-0.730147977292432
30
0
41
1
10
47.809177091064
20
-0.562119908109111
30
0
41
1
10
47.7617079127762
20
-0.43328408344081
30
0
41
1
10
47.7017909861709
20
-0.219191604371957
30
0
41
1
10
47.6836973286489
20
-0.144002545218996
30
0
41
1
10
47.6518477608196
20
0.0100613267227629
30
0
41
1
10
47.6379862949765
20
0.0892516258593332
30
0
41
1
10
47.6260561574827
20
0.170462218438587
30
0
0
SPLINE
5
D7
100
AcDbEntity
8
1
62
256
6
ByLayer
370
18
48
1
60
0
100
AcDbSpline
70
4
71
3
72
12
73
8
40
0
40
0
40
0
40
0
40
0.249999999999992
40
0.249999999999992
40
0.499999999999983
40
0.499999999999983
40
1
40
1
40
1
40
1
41
1
10
6.02948957899113
20
1.4890445126322
30
0
41
1
10
6.03416854369033
20
1.45039477462862
30
0
41
1
10
6.05462304556892
20
1.41541907607456
30
0
41
1
10
6.10463332200456
20
1.3541862614224
30
0
41
1
10
6.13514835979606
20
1.32719121581894
30
0
41
1
10
6.23143053090496
20
1.25492064470984
30
0
41
1
10
6.30373312301916
20
1.21614227753773
30
0
41
1
10
6.37876064189487
20
1.18330177668466
30
0
0
SPLINE
5
D8
100
AcDbEntity
8
1
62
256
6
ByLayer
370
18
48
1
60
0
100
AcDbSpline
70
4
71
3
72
12
73
8
40
0
40
0
40
0
40
0
40
0.30216979134959
40
0.30216979134959
40
0.604339582699181
40
0.604339582699181
40
1
40
1
40
1
40
1
41
1
10
6.03489995616795
20
-3.78237644693425
30
0
41
1
10
6.0348373655869
20
-3.82063161095786
30
0
41
1
10
6.03476500175731
20
-3.8535879202833
30
0
41
1
10
6.03460726508769
20
-3.9074648293896
30
0
41
1
10
6.03452161270587
20
-3.92861020588845
30
0
41
1
10
6.03431136002953
20
-3.96431207844515
30
0
41
1
10
6.03418308664564
20
-3.97487135944604
30
0
41
1
10
6.0340473602804
20
-3.97548006250082
30
0
0
SPLINE
5
D9
100
AcDbEntity
8
1
62
256
6
ByLayer
370
18
48
1
60
0
100
AcDbSpline
70
4
71
3
72
8
73
4
40
0
40
0
40
0
40
0
40
1
40
1
40
1
40
1
41
1
10
48.9997489386906
20
0.08492067943493
30
0
41
1
10
48.9283725725526
20
0.276626833860121
30
0
41
1
10
48.8587231905025
20
0.469849550184477
30
0
41
1
10
48.7905762874984
20
0.664548319004894
30
0
0
SPLINE
5
DA
100
AcDbEntity
8
1
62
256
6
ByLayer
370
18
48
1
60
0
100
AcDbSpline
70
4
71
3
72
18
73
14
40
0
40
0
40
0
40
0
40
0.25
40
0.25
40
0.374999999999999
40
0.374999999999999
40
0.499999999999999
40
0.499999999999999
40
0.749999999999999
40
0.749999999999999
40
0.875
40
0.875
40
1
40
1
40
1
40
1
41
1
10
47.4662495430239
20
-3.73105719003865
30
0
41
1
10
47.395033850615
20
-3.65933618825437
30
0
41
1
10
47.3318326905987
20
-3.57031840238255
30
0
41
1
10
47.2493657974584
20
-3.41017093363257
30
0
41
1
10
47.2239431818564
20
-3.35232889645329
30
0
41
1
10
47.177426233865
20
-3.22730361832493
30
0
41
1
10
47.1562734867219
20
-3.15978742945037
30
0
41
1
10
47.1008265627429
20
-2.94690778960029
30
0
41
1
10
47.0740210533802
20
-2.79039244636422
30
0
41
1
10
47.0492192894008
20
-2.53348492067616
30
0
41
1
10
47.0435336707229
20
-2.44414004367343
30
0
41
1
10
47.0375367758456
20
-2.25772897455352
30
0
41
1
10
47.0372627976104
20
-2.16118422580851
30
0
41
1
10
47.0397077019662
20
-2.06233239493241
30
0
0
SPLINE
5
DB
100
AcDbEntity
8
1
62
256
6
ByLayer
370
18
48
1
60
0
100
AcDbSpline
70
4
71
3
72
8
73
4
40
0
40
0
40
0
40
0
40
1
40
1
40
1
40
1
41
1
10
48.9997489386907
20
0.0849206794347594
30
0
41
1
10
49.000083687097
20
0.0283068931449293
30
0
41
1
10
49.000083687097
20
-0.0283068931449293
30
0
41
1
10
48.9997489386907
20
-0.0849206794347879
30
0
0
SPLINE
5
DC
100
AcDbEntity
8
1
62
256
6
ByLayer
370
18
48
1
60
0
100
AcDbSpline
70
4
71
3
72
8
73
4
40
0
40
0
40
0
40
0
40
1
40
1
40
1
40
1
41
1
10
47.55395600462
20
-4.00498676566801
30
0
41
1
10
47.8028113274509
20
-3.37140307555364
30
0
41
1
10
48.0580655179979
20
-2.71402835406894
30
0
41
1
10
48.3001369233411
20
-2.02191058381859
30
0
0
SPLINE
5
DD
100
AcDbEntity
8
1
62
256
6
ByLayer
370
18
48
1
60
0
100
AcDbSpline
70
4
71
3
72
8
73
4
40
0
40
0
40
0
40
0
40
1
40
1
40
1
40
1
41
1
10
47.4978389139352
20
-3.90868930688617
30
0
41
1
10
47.5036655756256
20
-3.88214405702965
30
0
41
1
10
47.5080947147886
20
-3.85704157818859
30
0
41
1
10
47.5109269109642
20
-3.83484890875786
30
0
0
SPLINE
5
DE
100
AcDbEntity
8
1
62
256
6
ByLayer
370
18
48
1
60
0
100
AcDbSpline
70
4
71
3
72
8
73
4
40
0
40
0
40
0
40
0
40
1
40
1
40
1
40
1
41
1
10
47.55395600462
20
-4.00498676566801
30
0
41
1
10
47.5327147977736
20
-3.98177587109566
30
0
41
1
10
47.5141179925138
20
-3.94973597110658
30
0
41
1
10
47.4978389139377
20
-3.90868930687827
30
0
0
SPLINE
5
DF
100
AcDbEntity
8
1
62
256
6
ByLayer
370
18
48
1
60
0
100
AcDbSpline
70
4
71
4
72
10
73
5
40
0
40
0
40
0
40
0
40
0
40
1
40
1
40
1
40
1
40
1
41
1
10
15.5486563487166
20
3.0447902334484
30
0
41
1
10
15.4744844745366
20
2.86281277881955
30
0
41
1
10
15.4003126003567
20
2.68083532419072
30
0
41
1
10
15.3261407261767
20
2.49885786956187
30
0
41
1
10
15.2519688519968
20
2.31688041493302
30
0
0
SPLINE
5
E0
100
AcDbEntity
8
1
62
256
6
ByLayer
370
18
48
1
60
0
100
AcDbSpline
70
4
71
3
72
26
73
22
40
0
40
0
40
0
40
0
40
0.0543721657214019
40
0.0543721657214019
40
0.211976804767835
40
0.211976804767835
40
0.290779124291052
40
0.290779124291052
40
0.369581443814268
40
0.369581443814268
40
0.527186082860701
40
0.527186082860701
40
0.605988402383917
40
0.605988402383917
40
0.684790721907134
40
0.684790721907134
40
0.842395360953567
40
0.842395360953567
40
0.921197680476783
40
0.921197680476783
40
1
40
1
40
1
40
1
41
1
10
6.03404716730557
20
3.97548092122386
30
0
41
1
10
6.03397564312488
20
3.97579670489247
30
0
41
1
10
6.03390204967155
20
3.97334945615719
30
0
41
1
10
6.0336079872838
20
3.95288399177207
30
0
41
1
10
6.03338067501591
20
3.9145591362792
30
0
41
1
10
6.03302892444114
20
3.82392664225409
30
0
41
1
10
6.03290973667305
20
3.78815155956269
30
0
41
1
10
6.0326664940884
20
3.70527553268988
30
0
41
1
10
6.03254176244505
20
3.65787315567087
30
0
41
1
10
6.03216397934116
20
3.50075761328566
30
0
41
1
10
6.03190719540072
20
3.37635745077498
30
0
41
1
10
6.03149984500112
20
3.16094121605826
30
0
41
1
10
6.03136029348531
20
3.08430193562376
30
0
41
1
10
6.031070139196
20
2.92108230488549
30
0
41
1
10
6.03091993681588
20
2.83471699917976
30
0
41
1
10
6.03045667054559
20
2.56609457992443
30
0
41
1
10
6.03012830057671
20
2.37280541260455
30
0
41
1
10
6.02958380020158
20
2.06161521316676
30
0
41
1
10
6.02939305924889
20
1.95402399044377
30
0
41
1
10
6.02899204475108
20
1.73278047518005
30
0
41
1
10
6.02878294439668
20
1.619771079689
30
0
41
1
10
6.02856348112209
20
1.50438552317394
30
0
0
SPLINE
5
E1
100
AcDbEntity
8
1
62
256
6
ByLayer
370
18
48
1
60
0
100
AcDbSpline
70
4
71
3
72
8
73
4
40
0
40
0
40
0
40
0
40
1
40
1
40
1
40
1
41
1
10
6.02856348111456
20
1.50438552318295
30
0
41
1
10
6.02855374758968
20
1.49926800105786
30
0
41
1
10
6.02887292100135
20
1.49413830394539
30
0
41
1
10
6.02948957899102
20
1.48904451263249
30
0
0
SPLINE
5
E2
100
AcDbEntity
8
1
62
256
6
ByLayer
370
18
48
1
60
0
100
AcDbSpline
70
4
71
3
72
20
73
16
40
0
40
0
40
0
40
0
40
0.25
40
0.25
40
0.375
40
0.375
40
0.5
40
0.5
40
0.625
40
0.625
40
0.75
40
0.75
40
0.875
40
0.875
40
1
40
1
40
1
40
1
41
1
10
12.7252981199978
20
-3.12144345421774
30
0
41
1
10
12.1757288993954
20
-3.2593917957141
30
0
41
1
10
11.6292076793647
20
-3.38532274808514
30
0
41
1
10
10.8150920140037
20
-3.54718179031869
30
0
41
1
10
10.5443137737051
20
-3.59657060103632
30
0
41
1
10
10.0068417785549
20
-3.68517742619554
30
0
41
1
10
9.74013486431051
20
-3.72468214725657
30
0
41
1
10
9.21193757074246
20
-3.79009303965927
30
0
41
1
10
8.95020429200861
20
-3.81685218200099
30
0
41
1
10
8.43190576169766
20
-3.85699839672458
30
0
41
1
10
8.17544008608627
20
-3.87003616683634
30
0
41
1
10
7.66915586633144
20
-3.87760286686904
30
0
41
1
10
7.4184959507981
20
-3.87202800088997
30
0
41
1
10
6.93450403836124
20
-3.83520691590476
30
0
41
1
10
6.70033447765505
20
-3.80418903295947
30
0
41
1
10
6.47714387287496
20
-3.75468867760714
30
0
0
SPLINE
5
E3
100
AcDbEntity
8
1
62
256
6
ByLayer
370
18
48
1
60
0
100
AcDbSpline
70
4
71
3
72
11
73
7
40
0
40
0
40
0
40
0
40
0.211416386962695
40
0.454619985459203
40
0.729765090544444
40
1
40
1
40
1
40
1
41
1
10
21.3498394757446
20
-0.108909011827905
30
0
41
1
10
21.2622134003814
20
-0.0884443200139629
30
0
41
1
10
21.0745524085145
20
-0.04039262123257
30
0
41
1
10
20.7763687537533
20
0.0509569730025703
30
0
41
1
10
20.4564670590852
20
0.166292770861276
30
0
41
1
10
20.2366818830266
20
0.259267166722765
30
0
41
1
10
20.1281551672949
20
0.308487240754829
30
0
0
SPLINE
5
E4
100
AcDbEntity
8
1
62
256
6
ByLayer
370
18
48
1
60
0
100
AcDbSpline
70
4
71
3
72
11
73
7
40
0
40
0
40
0
40
0
40
0.296117557891587
40
0.561532470432217
40
0.796181220019486
40
1
40
1
40
1
40
1
41
1
10
34.6827506420125
20
0.108655939387262
30
0
41
1
10
34.8150415489743
20
0.0778038244175718
30
0
41
1
10
35.0658211106847
20
0.0105754427990234
30
0
41
1
10
35.4211709859675
20
-0.108215830761338
30
0
41
1
10
35.7351325761348
20
-0.231674283650079
30
0
41
1
10
35.9306630044784
20
-0.318482261825864
30
0
41
1
10
36.0215397790847
20
-0.360986779047607
30
0
0
SPLINE
5
E5
100
AcDbEntity
8
1
62
256
6
ByLayer
370
18
48
1
60
0
100
AcDbSpline
70
4
71
3
72
30
73
26
40
0
40
0
40
0
40
0
40
0.0737725211144972
40
0.130887323906554
40
0.16839060571319
40
0.192670720018248
40
0.225240930360819
40
0.26576555134409
40
0.303375107821538
40
0.333768183925184
40
0.359707005727486
40
0.407358244284401
40
0.461693774297599
40
0.508860085343809
40
0.553529171413387
40
0.592660378446317
40
0.637916572092181
40
0.691143599908379
40
0.743561777103255
40
0.783950572044612
40
0.815835383799302
40
0.874694672384246
40
0.93551584489524
40
0.965080731852237
40
1
40
1
40
1
40
1
41
1
10
23.1211912969106
20
-3.89998176840268
30
0
41
1
10
23.399025577098
20
-3.90035146922005
30
0
41
1
10
23.8920297717385
20
-3.90115773684892
30
0
41
1
10
24.5266231547621
20
-3.90227132834423
30
0
41
1
10
24.9745857100928
20
-3.90354494238761
30
0
41
1
10
25.3298340362553
20
-3.904152167972
30
0
41
1
10
25.6968294832268
20
-3.90463715162264
30
0
41
1
10
26.1139474383808
20
-3.90509697925964
30
0
41
1
10
26.5229008198433
20
-3.90562342607089
30
0
41
1
10
26.8768792257633
20
-3.9063017946095
30
0
41
1
10
27.2686938706597
20
-3.90778134995543
30
0
41
1
10
27.7507331959721
20
-3.90911133602663
30
0
41
1
10
28.3127616753376
20
-3.90945021372036
30
0
41
1
10
28.8635507406983
20
-3.90940492678425
30
0
41
1
10
29.357049020625
20
-3.91003581325469
30
0
41
1
10
29.8433488394531
20
-3.91157303361896
30
0
41
1
10
30.3618979622038
20
-3.91215577643601
30
0
41
1
10
30.9305114513345
20
-3.91405564656279
30
0
41
1
10
31.4807858005767
20
-3.91470372234798
30
0
41
1
10
31.9506404514291
20
-3.91456099245377
30
0
41
1
10
32.4447672512435
20
-3.91474135979311
30
0
41
1
10
33.0158802492742
20
-3.91486608749767
30
0
41
1
10
33.5782590307035
20
-3.91814635868622
30
0
41
1
10
34.0503477008364
20
-3.91971560870775
30
0
41
1
10
34.2933365864137
20
-3.9198043009358
30
0
41
1
10
34.4249254063163
20
-3.91966769461078
30
0
0
SPLINE
5
E6
100
AcDbEntity
8
1
62
256
6
ByLayer
370
18
48
1
60
0
100
AcDbSpline
70
4
71
2
72
6
73
3
40
0
40
0
40
0
40
1
40
1
40
1
41
1
10
6.47692304732587
20
-3.8731038291665
30
0
41
1
10
7.13504948074569
20
-3.87506553057861
30
0
41
1
10
7.79321825917444
20
-3.87503368255162
30
0
0
SPLINE
5
E7
100
AcDbEntity
8
1
62
256
6
ByLayer
370
18
48
1
60
0
100
AcDbSpline
70
4
71
3
72
30
73
26
40
0
40
0
40
0
40
0
40
0.0483479414350001
40
0.0911938096802711
40
0.123228208968405
40
0.1611627396359
40
0.211624858539473
40
0.266273690864103
40
0.304983168243572
40
0.338184115875416
40
0.379409708330067
40
0.429004691856878
40
0.482190144401474
40
0.543128572870631
40
0.598915073822635
40
0.639701157470504
40
0.687077971597028
40
0.746941241199982
40
0.797639848092082
40
0.828346016806398
40
0.856125763875849
40
0.88260537553588
40
0.91536242052659
40
0.970509330684594
40
1
40
1
40
1
40
1
41
1
10
34.5767818011412
20
3.9188622365497
30
0
41
1
10
34.4169260126109
20
3.91948752563721
30
0
41
1
10
34.1146686806328
20
3.91993720680429
30
0
41
1
10
33.7048185682249
20
3.91861838828424
30
0
41
1
10
33.327447876103
20
3.91611928938292
30
0
41
1
10
32.9253453117664
20
3.91523860825413
30
0
41
1
10
32.4471497507216
20
3.91465234625295
30
0
41
1
10
31.9665580419788
20
3.91456557272119
30
0
41
1
10
31.5435901206621
20
3.91461831015761
30
0
41
1
10
31.1655629356644
20
3.91446857127858
30
0
41
1
10
30.7510854712573
20
3.91334894861734
30
0
41
1
10
30.2698274602423
20
3.91206611676478
30
0
41
1
10
29.7226855710073
20
3.91131804136509
30
0
41
1
10
29.1548533105625
20
3.9094419415253
30
0
41
1
10
28.6284558000731
20
3.90952666584252
30
0
41
1
10
28.1473855491645
20
3.90929032321259
30
0
41
1
10
27.6526869025585
20
3.90899760403718
30
0
41
1
10
27.1248723139407
20
3.90713846659199
30
0
41
1
10
26.6527563027832
20
3.90579156971012
30
0
41
1
10
26.2878730174824
20
3.90532498216135
30
0
41
1
10
26.003921753523
20
3.9049785674745
30
0
41
1
10
25.7131124638975
20
3.90464636098218
30
0
41
1
10
25.3308777405035
20
3.90417138122072
30
0
41
1
10
24.9385915539904
20
3.9034289928444
30
0
41
1
10
24.655734868788
20
3.90278996564663
30
0
41
1
10
24.5571769372816
20
3.90256570092669
30
0
0
SPLINE
5
E8
100
AcDbEntity
8
1
62
256
6
ByLayer
370
18
48
1
60
0
100
AcDbSpline
70
4
71
3
72
10
73
6
40
0
40
0
40
0
40
0
40
0.153673116174026
40
0.629182408955639
40
1
40
1
40
1
40
1
41
1
10
7.8906481441914
20
3.87433098649757
30
0
41
1
10
7.81818166607036
20
3.87425842210971
30
0
41
1
10
7.52151538453205
20
3.87396868652471
30
0
41
1
10
7.04930390945356
20
3.87446986200558
30
0
41
1
10
6.65127423784088
20
3.8735721734393
30
0
41
1
10
6.47702128021012
20
3.87309198219626
30
0
0
LINE
5
7B
100
AcDbEntity
8
SK1
62
256
6
ByLayer
370
18
48
1
60
0
100
AcDbLine
10
-38.556624
20
5
30
0
11
-38.556624
21
-5
31
0
39
0
210
0
220
0
230
1
0
LINE
5
7D
100
AcDbEntity
8
SK1
62
256
6
ByLayer
370
18
48
1
60
0
100
AcDbLine
10
-40
20
2.5
30
0
11
-40
21
-2.5
31
0
39
0
210
0
220
0
230
1
0
LINE
5
7E
100
AcDbEntity
8
SK1
62
256
6
ByLayer
370
18
48
1
60
0
100
AcDbLine
10
0
20
-5
30
0
11
0
21
5
31
0
39
0
210
0
220
0
230
1
0
LINE
5
7F
100
AcDbEntity
8
1
62
256
6
ByLayer
370
18
48
1
60
0
100
AcDbLine
10
47.039708
20
-2.062332
30
0
11
48.304901
21
-1.046601
31
0
39
0
210
0
220
0
230
1
0
LINE
5
80
100
AcDbEntity
8
1
62
256
6
ByLayer
370
13
48
1
60
0
100
AcDbLine
10
1.565031
20
3.967434
30
0
11
1.565031
21
-3.967434
31
0
39
0
210
0
220
0
230
1
0
LINE
5
81
100
AcDbEntity
8
1
62
256
6
ByLayer
370
18
48
1
60
0
100
AcDbLine
10
0
20
-5
30
0
11
0
21
5
31
0
39
0
210
0
220
0
230
1
0
LINE
5
82
100
AcDbEntity
8
1
62
256
6
ByLayer
370
13
48
1
60
0
100
AcDbLine
10
0.78175
20
4.483716
30
0
11
0.78175
21
-4.483716
31
0
39
0
210
0
220
0
230
1
0
LINE
5
83
100
AcDbEntity
8
80
62
256
6
ByLayer
370
18
48
1
60
0
100
AcDbLine
10
0
20
0
30
0
11
-5
21
0
31
0
39
0
210
0
220
0
230
1
0
LINE
5
84
100
AcDbEntity
8
SK4
62
256
6
ByLayer
370
18
48
0.05
60
0
100
AcDbLine
10
54
20
0
30
0
11
-45
21
0
31
0
39
0
210
0
220
0
230
1
0
LINE
5
86
100
AcDbEntity
8
4
62
256
6
ByLayer
370
18
48
0.05
60
0
100
AcDbLine
10
49
20
0
30
0
11
0
21
0
31
0
39
0
210
0
220
0
230
1
0
LINE
5
88
100
AcDbEntity
8
SK1
62
256
6
ByLayer
370
18
48
1
60
0
100
AcDbLine
10
-40
20
-2.5
30
0
11
-38.556624
21
-5
31
0
39
0
210
0
220
0
230
1
0
LINE
5
89
100
AcDbEntity
8
SK1
62
256
6
ByLayer
370
18
48
1
60
0
100
AcDbLine
10
-38.556624
20
5
30
0
11
-40
21
2.5
31
0
39
0
210
0
220
0
230
1
0
LINE
5
8A
100
AcDbEntity
8
SK1
62
256
6
ByLayer
370
18
48
1
60
0
100
AcDbLine
10
-38.556624
20
-5
30
0
11
0
21
-5
31
0
39
0
210
0
220
0
230
1
0
LINE
5
8B
100
AcDbEntity
8
SK1
62
256
6
ByLayer
370
18
48
1
60
0
100
AcDbLine
10
0
20
5
30
0
11
-38.556624
21
5
31
0
39
0
210
0
220
0
230
1
0
LINE
5
8C
100
AcDbEntity
8
1
62
256
6
ByLayer
370
18
48
1
60
0
100
AcDbLine
10
1.565031
20
-3.967434
30
0
11
6.034001
21
-3.975478
31
0
39
0
210
0
220
0
230
1
0
LINE
5
8D
100
AcDbEntity
8
1
62
256
6
ByLayer
370
18
48
1
60
0
100
AcDbLine
10
21.640133
20
-4.003569
30
0
11
22.593596
21
-4.005285
31
0
39
0
210
0
220
0
230
1
0
LINE
5
8E
100
AcDbEntity
8
1
62
256
6
ByLayer
370
18
48
1
60
0
100
AcDbLine
10
22.593596
20
4.005285
30
0
11
21.640133
21
4.003569
31
0
39
0
210
0
220
0
230
1
0
LINE
5
8F
100
AcDbEntity
8
1
62
256
6
ByLayer
370
18
48
1
60
0
100
AcDbLine
10
6.034001
20
3.975478
30
0
11
1.565031
21
3.967434
31
0
39
0
210
0
220
0
230
1
0
LINE
5
90
100
AcDbEntity
8
81
62
256
6
ByLayer
370
18
48
1
60
0
100
AcDbLine
10
49
20
0
30
0
11
54
21
0
31
0
39
0
210
0
220
0
230
1
0
LINE
5
91
100
AcDbEntity
8
SK2
62
256
6
ByLayer
370
13
48
1
60
0
100
AcDbLine
10
-48.625163
20
-5
30
0
11
-48.625163
21
35.857173
31
0
39
0
210
0
220
0
230
1
0
LINE
5
93
100
AcDbEntity
8
SK2
62
256
6
ByLayer
370
13
48
1
60
0
100
AcDbLine
10
-41.5875
20
5
30
0
11
-50.625163
21
5
31
0
39
0
210
0
220
0
230
1
0
LINE
5
94
100
AcDbEntity
8
SK2
62
256
6
ByLayer
370
13
48
1
60
0
100
AcDbLine
10
-41.5875
20
-5
30
0
11
-50.625163
21
-5
31
0
39
0
210
0
220
0
230
1
0
LINE
5
95
100
AcDbEntity
8
1
62
256
6
ByLayer
370
18
48
1
60
1
100
AcDbLine
10
-48.625163
20
5
30
0
11
-48.164379
21
1.500002
31
0
39
0
210
0
220
0
230
1
0
LINE
5
96
100
AcDbEntity
8
1
62
256
6
ByLayer
370
18
48
1
60
1
100
AcDbLine
10
-48.164379
20
1.500002
30
0
11
-49.085946
21
1.499998
31
0
39
0
210
0
220
0
230
1
0
LINE
5
97
100
AcDbEntity
8
1
62
256
6
ByLayer
370
18
48
1
60
1
100
AcDbLine
10
-49.085946
20
1.499998
30
0
11
-48.625163
21
5
31
0
39
0
210
0
220
0
230
1
0
LINE
5
98
100
AcDbEntity
8
1
62
256
6
ByLayer
370
18
48
1
60
1
100
AcDbLine
10
-48.625163
20
-5
30
0
11
-49.085946
21
-1.500002
31
0
39
0
210
0
220
0
230
1
0
LINE
5
99
100
AcDbEntity
8
1
62
256
6
ByLayer
370
18
48
1
60
1
100
AcDbLine
10
-49.085946
20
-1.500002
30
0
11
-48.164379
21
-1.499998
31
0
39
0
210
0
220
0
230
1
0
LINE
5
9A
100
AcDbEntity
8
1
62
256
6
ByLayer
370
18
48
1
60
1
100
AcDbLine
10
-48.164379
20
-1.499998
30
0
11
-48.625163
21
-5
31
0
39
0
210
0
220
0
230
1
0
LINE
5
9B
100
AcDbEntity
8
2
62
256
6
ByLayer
370
13
48
1
60
0
100
AcDbLine
10
61.083343
20
-4.05
30
0
11
61.083343
21
30.885327
31
0
39
0
210
0
220
0
230
1
0
LINE
5
9D
100
AcDbEntity
8
2
62
256
6
ByLayer
370
13
48
1
60
0
100
AcDbLine
10
49.0227
20
4.05
30
0
11
63.083343
21
4.05
31
0
39
0
210
0
220
0
230
1
0
LINE
5
9E
100
AcDbEntity
8
2
62
256
6
ByLayer
370
13
48
1
60
0
100
AcDbLine
10
49.0227
20
-4.05
30
0
11
63.083343
21
-4.05
31
0
39
0
210
0
220
0
230
1
0
LINE
5
9F
100
AcDbEntity
8
1
62
256
6
ByLayer
370
18
48
1
60
1
100
AcDbLine
10
61.083343
20
4.05
30
0
11
61.544126
21
0.550002
31
0
39
0
210
0
220
0
230
1
0
LINE
5
A0
100
AcDbEntity
8
1
62
256
6
ByLayer
370
18
48
1
60
1
100
AcDbLine
10
61.544126
20
0.550002
30
0
11
60.622559
21
0.549998
31
0
39
0
210
0
220
0
230
1
0
LINE
5
A1
100
AcDbEntity
8
1
62
256
6
ByLayer
370
18
48
1
60
1
100
AcDbLine
10
60.622559
20
0.549998
30
0
11
61.083343
21
4.05
31
0
39
0
210
0
220
0
230
1
0
LINE
5
A2
100
AcDbEntity
8
1
62
256
6
ByLayer
370
18
48
1
60
1
100
AcDbLine
10
61.083343
20
-4.05
30
0
11
60.622559
21
-0.550002
31
0
39
0
210
0
220
0
230
1
0
LINE
5
A3
100
AcDbEntity
8
1
62
256
6
ByLayer
370
18
48
1
60
1
100
AcDbLine
10
60.622559
20
-0.550002
30
0
11
61.544126
21
-0.549998
31
0
39
0
210
0
220
0
230
1
0
LINE
5
A4
100
AcDbEntity
8
1
62
256
6
ByLayer
370
18
48
1
60
1
100
AcDbLine
10
61.544126
20
-0.549998
30
0
11
61.083343
21
-4.05
31
0
39
0
210
0
220
0
230
1
0
LINE
5
EF
100
AcDbEntity
8
1
62
256
6
ByLayer
370
18
48
1
60
1
100
AcDbLine
10
-48.625163
20
5
30
0
11
-48.164379
21
1.500002
31
0
39
0
210
0
220
0
230
1
0
LINE
5
F0
100
AcDbEntity
8
1
62
256
6
ByLayer
370
18
48
1
60
1
100
AcDbLine
10
-48.164379
20
1.500002
30
0
11
-49.085946
21
1.499998
31
0
39
0
210
0
220
0
230
1
0
LINE
5
F1
100
AcDbEntity
8
1
62
256
6
ByLayer
370
18
48
1
60
1
100
AcDbLine
10
-49.085946
20
1.499998
30
0
11
-48.625163
21
5
31
0
39
0
210
0
220
0
230
1
0
LINE
5
F3
100
AcDbEntity
8
1
62
256
6
ByLayer
370
18
48
1
60
1
100
AcDbLine
10
-48.625163
20
-5
30
0
11
-49.085946
21
-1.500002
31
0
39
0
210
0
220
0
230
1
0
LINE
5
F4
100
AcDbEntity
8
1
62
256
6
ByLayer
370
18
48
1
60
1
100
AcDbLine
10
-49.085946
20
-1.500002
30
0
11
-48.164379
21
-1.499998
31
0
39
0
210
0
220
0
230
1
0
LINE
5
F5
100
AcDbEntity
8
1
62
256
6
ByLayer
370
18
48
1
60
1
100
AcDbLine
10
-48.164379
20
-1.499998
30
0
11
-48.625163
21
-5
31
0
39
0
210
0
220
0
230
1
0
LINE
5
F9
100
AcDbEntity
8
1
62
256
6
ByLayer
370
18
48
1
60
1
100
AcDbLine
10
61.083343
20
4.05
30
0
11
61.544126
21
0.550002
31
0
39
0
210
0
220
0
230
1
0
LINE
5
FA
100
AcDbEntity
8
1
62
256
6
ByLayer
370
18
48
1
60
1
100
AcDbLine
10
61.544126
20
0.550002
30
0
11
60.622559
21
0.549998
31
0
39
0
210
0
220
0
230
1
0
LINE
5
FB
100
AcDbEntity
8
1
62
256
6
ByLayer
370
18
48
1
60
1
100
AcDbLine
10
60.622559
20
0.549998
30
0
11
61.083343
21
4.05
31
0
39
0
210
0
220
0
230
1
0
LINE
5
FD
100
AcDbEntity
8
1
62
256
6
ByLayer
370
18
48
1
60
1
100
AcDbLine
10
61.083343
20
-4.05
30
0
11
60.622559
21
-0.550002
31
0
39
0
210
0
220
0
230
1
0
LINE
5
FE
100
AcDbEntity
8
1
62
256
6
ByLayer
370
18
48
1
60
1
100
AcDbLine
10
60.622559
20
-0.550002
30
0
11
61.544126
21
-0.549998
31
0
39
0
210
0
220
0
230
1
0
LINE
5
FF
100
AcDbEntity
8
1
62
256
6
ByLayer
370
18
48
1
60
1
100
AcDbLine
10
61.544126
20
-0.549998
30
0
11
61.083343
21
-4.05
31
0
39
0
210
0
220
0
230
1
0
MTEXT
5
E9
100
AcDbEntity
8
SK6
62
256
6
ByLayer
370
13
48
1
60
0
100
AcDbMText
10
-22.73416
20
36.590328
30
0
210
0
220
0
230
1
1
\W0.7174;860.1-0810-031A1-PM P1BM
40
3.5
41
0
44
1.084337
50
0
71
7
72
5
7
iso_b_vert
0
MTEXT
5
ED
100
AcDbEntity
8
SK2
62
256
6
ByLayer
370
18
48
1
60
0
100
AcDbMText
10
-50.189796
20
18.409024
30
0
210
0
220
0
230
1
1
%%c
40
3.5
41
0
44
1.084337
50
90
71
7
72
5
7
iso_b_vert
0
MTEXT
5
EE
100
AcDbEntity
8
SK2
62
256
6
ByLayer
370
18
48
1
60
0
100
AcDbMText
10
-50.189796
20
23.63168
30
0
210
0
220
0
230
1
1
\W0.6930;10,000
40
3.5
41
0
44
1.084337
50
90
71
7
72
5
7
iso_b_vert
0
MTEXT
5
F7
100
AcDbEntity
8
2
62
256
6
ByLayer
370
18
48
1
60
0
100
AcDbMText
10
59.518709
20
16.05211
30
0
210
0
220
0
230
1
1
%%c
40
3.5
41
0
44
1.084337
50
90
71
7
72
5
7
iso_b_vert
0
MTEXT
5
F8
100
AcDbEntity
8
2
62
256
6
ByLayer
370
18
48
1
60
0
100
AcDbMText
10
59.518709
20
21.274766
30
0
210
0
220
0
230
1
1
\W0.6713;8,100
40
3.5
41
0
44
1.084337
50
90
71
7
72
5
7
iso_b_vert
0
HATCH
5
F2
100
AcDbEntity
8
SK2
62
256
6
ByLayer
370
13
48
1
60
0
100
AcDbHatch
10
0
20
0
30
0
210
0
220
0
230
1
2
ANSI31
70
0
71
0
91
1
92
5
93
3
72
1
10
-48.6251625675374
20
5
11
-48.1643788259847
21
1.50000169255318
72
1
10
-48.1643788259847
20
1.50000169255318
11
-49.0859463090902
21
1.49999830744682
72
1
10
-49.0859463090902
20
1.49999830744682
11
-48.6251625675374
21
5
97
0
75
0
76
1
52
0
41
0.0062
77
0
78
1
53
45
43
0
44
0
45
-0.0139193969876572
46
0.0139193969876572
79
0
47
0
98
1
10
0
20
0
0
HATCH
5
F6
100
AcDbEntity
8
SK2
62
256
6
ByLayer
370
13
48
1
60
0
100
AcDbHatch
10
0
20
0
30
0
210
0
220
0
230
1
2
ANSI31
70
0
71
0
91
1
92
5
93
3
72
1
10
-48.6251625675374
20
-5
11
-49.0859463090902
21
-1.50000169255318
72
1
10
-49.0859463090902
20
-1.50000169255318
11
-48.1643788259847
21
-1.49999830744682
72
1
10
-48.1643788259847
20
-1.49999830744682
11
-48.6251625675374
21
-5
97
0
75
0
76
1
52
0
41
0.0062
77
0
78
1
53
45
43
0
44
0
45
-0.0139193969876572
46
0.0139193969876572
79
0
47
0
98
1
10
0
20
0
0
HATCH
5
FC
100
AcDbEntity
8
2
62
256
6
ByLayer
370
13
48
1
60
0
100
AcDbHatch
10
0
20
0
30
0
210
0
220
0
230
1
2
ANSI31
70
0
71
0
91
1
92
5
93
3
72
1
10
61.083342615295
20
4.05000000000001
11
61.5441263568478
21
0.550001692553195
72
1
10
61.5441263568478
20
0.550001692553195
11
60.6225588737423
21
0.549998307446828
72
1
10
60.6225588737423
20
0.549998307446828
11
61.083342615295
21
4.05000000000001
97
0
75
0
76
1
52
0
41
0.0062
77
0
78
1
53
45
43
0
44
0
45
-0.0139193969876572
46
0.0139193969876572
79
0
47
0
98
1
10
0
20
0
0
HATCH
5
100
100
AcDbEntity
8
2
62
256
6
ByLayer
370
13
48
1
60
0
100
AcDbHatch
10
0
20
0
30
0
210
0
220
0
230
1
2
ANSI31
70
0
71
0
91
1
92
5
93
3
72
1
10
61.083342615295
20
-4.04999999999998
11
60.6225588737423
21
-0.550001692553167
72
1
10
60.6225588737423
20
-0.550001692553167
11
61.5441263568478
21
-0.549998307446799
72
1
10
61.5441263568478
20
-0.549998307446799
11
61.083342615295
21
-4.04999999999998
97
0
75
0
76
1
52
0
41
0.0062
77
0
78
1
53
45
43
0
44
0
45
-0.0139193969876572
46
0.0139193969876572
79
0
47
0
98
1
10
0
20
0
0
DIMENSION
5
102
100
AcDbEntity
8
2
62
256
6
ByLayer
370
13
48
1
60
0
100
AcDbDimension
2
_U0
10
47.4352
20
-14.263398
30
0
11
23.7176
21
-14.263398
31
0
70
32
71
1
72
1
41
1
210
0
220
0
230
1
3
Standard
100
AcDbAlignedDimension
13
0
23
0
33
0
14
47.4352
24
-4.05
34
0
50
0
100
AcDbRotatedDimension
1001
ACAD
1000
DSTYLE
1002
{
1070
   371
1070
    13
1070
   372
1070
    13
1070
   170
1070
     0
1070
   144
1040
1.0
1070
   277
1070
     2
1070
   278
1070
    44
1070
   146
1040
1.0
1070
   345
1005
16
1070
   347
1005
16
1070
   346
1005
16
1070
   344
1005
0
1070
   343
1005
0
1070
   172
1070
     1
1070
    76
1070
     0
1070
    75
1070
     0
1070
   282
1070
     0
1070
   281
1070
     0
1070
    71
1070
     0
1070
    74
1070
     0
1070
   279
1070
     0
1070
   173
1070
     1
1070
   340
1005
EA
1070
   271
1070
     2
1070
   272
1070
     2
1070
    77
1070
     1
1070
    73
1070
     1
1070
   171
1070
     3
1070
   274
1070
     4
1070
   177
1070
    35
1070
   176
1070
    35
1070
   178
1070
    35
1070
    48
1040
-0.1
1070
    41
1040
3.5
1070
   147
1040
1.75
1070
    42
1040
1.5875
1070
    44
1040
2.0
1070
   140
1040
3.5
1002
}
1001
ACAD_DSTYLE_DIM_LINETYPE
1070
   380
1005
16
1001
ACAD_DSTYLE_DIM_EXT1_LINETYPE
1070
   381
1005
16
1001
ACAD_DSTYLE_DIM_EXT2_LINETYPE
1070
   382
1005
16
0
DIMENSION
5
11B
100
AcDbEntity
8
SK2
62
256
6
ByLayer
370
13
48
1
60
0
100
AcDbDimension
2
_U1
10
49
20
-33.692985
30
0
11
4.5
21
-33.692985
31
0
70
32
71
1
72
1
41
1
210
0
220
0
230
1
3
Standard
100
AcDbAlignedDimension
13
-40
23
-5
33
0
14
49
24
0
34
0
50
0
100
AcDbRotatedDimension
1001
ACAD
1000
DSTYLE
1002
{
1070
   371
1070
    13
1070
   372
1070
    13
1070
   170
1070
     0
1070
   144
1040
1.0
1070
   277
1070
     2
1070
   278
1070
    44
1070
   146
1040
1.0
1070
   345
1005
16
1070
   347
1005
16
1070
   346
1005
16
1070
   344
1005
0
1070
   343
1005
0
1070
   172
1070
     1
1070
    76
1070
     0
1070
    75
1070
     0
1070
   282
1070
     0
1070
   281
1070
     0
1070
    71
1070
     0
1070
    74
1070
     0
1070
   279
1070
     0
1070
   173
1070
     1
1070
   340
1005
EA
1070
   271
1070
     2
1070
   272
1070
     2
1070
    77
1070
     1
1070
    73
1070
     1
1070
   171
1070
     3
1070
   274
1070
     4
1070
   177
1070
    35
1070
   176
1070
    35
1070
   178
1070
    35
1070
    48
1040
-0.1
1070
    41
1040
3.5
1070
   147
1040
1.75
1070
    42
1040
1.5875
1070
    44
1040
2.0
1070
   140
1040
3.5
1002
}
1001
ACAD_DSTYLE_DIM_LINETYPE
1070
   380
1005
16
1001
ACAD_DSTYLE_DIM_EXT1_LINETYPE
1070
   381
1005
16
1001
ACAD_DSTYLE_DIM_EXT2_LINETYPE
1070
   382
1005
16
0
DIMENSION
5
133
100
AcDbEntity
8
SK2
62
256
6
ByLayer
370
13
48
1
60
0
100
AcDbDimension
2
_U2
10
49
20
15.659119
30
0
11
36.07
21
15.659119
31
0
70
32
71
1
72
1
41
1
210
0
220
0
230
1
3
Standard
100
AcDbAlignedDimension
13
23.14
23
4.05
33
0
14
49
24
0
34
0
50
0
100
AcDbRotatedDimension
1001
ACAD
1000
DSTYLE
1002
{
1070
   371
1070
    13
1070
   372
1070
    13
1070
   170
1070
     0
1070
   144
1040
1.0
1070
   277
1070
     2
1070
   278
1070
    44
1070
   146
1040
1.0
1070
   345
1005
16
1070
   347
1005
16
1070
   346
1005
16
1070
   344
1005
0
1070
   343
1005
0
1070
   172
1070
     1
1070
    76
1070
     0
1070
    75
1070
     0
1070
   282
1070
     0
1070
   281
1070
     0
1070
    71
1070
     0
1070
    74
1070
     0
1070
   279
1070
     0
1070
   173
1070
     1
1070
   340
1005
EA
1070
   271
1070
     2
1070
   272
1070
     2
1070
    77
1070
     1
1070
    73
1070
     1
1070
   171
1070
     3
1070
   274
1070
     4
1070
   177
1070
    35
1070
   176
1070
    35
1070
   178
1070
    35
1070
    48
1040
-0.1
1070
    41
1040
3.5
1070
   147
1040
1.75
1070
    42
1040
1.5875
1070
    44
1040
2.0
1070
   140
1040
3.5
1002
}
1001
ACAD_DSTYLE_DIM_LINETYPE
1070
   380
1005
16
1001
ACAD_DSTYLE_DIM_EXT1_LINETYPE
1070
   381
1005
16
1001
ACAD_DSTYLE_DIM_EXT2_LINETYPE
1070
   382
1005
16
0
DIMENSION
5
14B
100
AcDbEntity
8
SK2
62
256
6
ByLayer
370
13
48
1
60
0
100
AcDbDimension
2
_U3
10
47.4352
20
-16.852503
30
0
11
66.333333
21
-16.852503
31
0
70
32
71
1
72
1
41
1
210
0
220
0
230
1
3
Standard
100
AcDbAlignedDimension
13
49
23
0
33
0
14
47.4352
24
-4.05
34
0
50
0
100
AcDbRotatedDimension
1001
ACAD
1000
DSTYLE
1002
{
1070
   371
1070
    13
1070
   372
1070
    13
1070
   170
1070
     0
1070
   144
1040
1.0
1070
   277
1070
     2
1070
   278
1070
    44
1070
   146
1040
1.0
1070
   345
1005
16
1070
   347
1005
16
1070
   346
1005
16
1070
   344
1005
0
1070
   343
1005
0
1070
   172
1070
     1
1070
    76
1070
     0
1070
    75
1070
     0
1070
   282
1070
     0
1070
   281
1070
     0
1070
    71
1070
     0
1070
    74
1070
     0
1070
   279
1070
     0
1070
   173
1070
     1
1070
   340
1005
EA
1070
   271
1070
     2
1070
   272
1070
     2
1070
    77
1070
     1
1070
    73
1070
     1
1070
   171
1070
     3
1070
   274
1070
     4
1070
   177
1070
    35
1070
   176
1070
    35
1070
   178
1070
    35
1070
    48
1040
-0.1
1070
    41
1040
3.5
1070
   147
1040
1.75
1070
    42
1040
1.5875
1070
    44
1040
2.0
1070
   140
1040
3.5
1002
}
1001
ACAD_DSTYLE_DIM_LINETYPE
1070
   380
1005
16
1001
ACAD_DSTYLE_DIM_EXT1_LINETYPE
1070
   381
1005
16
1001
ACAD_DSTYLE_DIM_EXT2_LINETYPE
1070
   382
1005
16
0
DIMENSION
5
165
100
AcDbEntity
8
SK2
62
256
6
ByLayer
370
13
48
1
60
0
100
AcDbDimension
2
_U4
10
47.4352
20
-23.343428
30
0
11
3.7176
21
-23.343428
31
0
70
32
71
1
72
1
41
1
210
0
220
0
230
1
3
Standard
100
AcDbAlignedDimension
13
-40
23
-5
33
0
14
47.4352
24
-4.05
34
0
50
0
100
AcDbRotatedDimension
1001
ACAD
1000
DSTYLE
1002
{
1070
   371
1070
    13
1070
   372
1070
    13
1070
   170
1070
     0
1070
   144
1040
1.0
1070
   277
1070
     2
1070
   278
1070
    44
1070
   146
1040
1.0
1070
   345
1005
16
1070
   347
1005
16
1070
   346
1005
16
1070
   344
1005
0
1070
   343
1005
0
1070
   172
1070
     1
1070
    76
1070
     0
1070
    75
1070
     0
1070
   282
1070
     0
1070
   281
1070
     0
1070
    71
1070
     0
1070
    74
1070
     0
1070
   279
1070
     0
1070
   173
1070
     1
1070
   340
1005
EA
1070
   271
1070
     2
1070
   272
1070
     2
1070
    77
1070
     1
1070
    73
1070
     1
1070
   171
1070
     3
1070
   274
1070
     4
1070
   177
1070
    35
1070
   176
1070
    35
1070
   178
1070
    35
1070
    48
1040
-0.1
1070
    41
1040
3.5
1070
   147
1040
1.75
1070
    42
1040
1.5875
1070
    44
1040
2.0
1070
   140
1040
3.5
1002
}
1001
ACAD_DSTYLE_DIM_LINETYPE
1070
   380
1005
16
1001
ACAD_DSTYLE_DIM_EXT1_LINETYPE
1070
   381
1005
16
1001
ACAD_DSTYLE_DIM_EXT2_LINETYPE
1070
   382
1005
16
0
ENDSEC
0
SECTION
2
OBJECTS
0
DICTIONARY
5
1ed
330
0
100
AcDbDictionary
280
0
281
1
3
ACAD_GROUP
350
1ee
3
ACAD_MLINESTYLE
350
1ef
0
DICTIONARY
5
1ee
330
0
100
AcDbDictionary
280
0
281
1
0
DICTIONARY
5
1ef
330
0
100
AcDbDictionary
280
0
281
1
3
Standard
350
18
0
MLINESTYLE
5
18
330
1ef
100
AcDbMlineStyle
2
Standard
70
0
3

62
256
51
90
52
90
71
2
49
-0.5
62
256
6
ByLayer
49
0.5
62
256
6
ByLayer
0
RASTERVARIABLES
5
1db
330

100
AcDbRasterVariables
90
0
70
1
71
1
72
1
0
ENDSEC
0
EOF
