0
SECTION
2
HEADER
9
$ACADVER
1
AC1015
9
$DWGCODEPAGE
3
ANSI_1252
9
$HANDSEED
5
1f8
9
$ANGBASE
50
0
9
$ANGDIR
70
0
9
$ATTMODE
70
1
9
$AUNITS
70
0
9
$AUPREC
70
0
9
$CECOLOR
62
256
9
$CELTSCALE
40
1
9
$CELTYPE
6
ByLayer
9
$CELWEIGHT
370
18
9
$CLAYER
8
0
9
$CMLJUST
70
0
9
$CMLSCALE
40
1
9
$CMLSTYLE
2
Standard
9
$DIMSTYLE
2
Standard
9
$TEXTSIZE
40
0.2
9
$TEXTSTYLE
7
Standard
9
$LUNITS
70
2
9
$LUPREC
70
4
9
$EXTNAMES
290
1
9
$INSUNITS
70
4
9
$LTSCALE
40
1
9
$LWDISPLAY
290
1
9
$PDMODE
70
0
9
$PDSIZE
40
0
9
$PLINEGEN
70
0
0
ENDSEC
0
SECTION
2
CLASSES
0
CLASS
1
RASTERVARIABLES
2
AcDbRasterVariables
3
ISM
90
0
280
0
281
0
0
ENDSEC
0
SECTION
2
TABLES
0
TABLE
2
VPORT
5
1ee
100
AcDbSymbolTable
0
VPORT
5
1
100
AcDbSymbolTableRecord
100
AcDbViewportTableRecord
2
*Active
70
0
10
0
20
0
11
1
21
1
12
-1
22
1
13
0
23
0
14
0.5
24
0.5
15
10
25
10
16
0
26
0
36
1
17
0
27
0
37
0
0
ENDTAB
0
TABLE
2
LTYPE
5
1ef
100
AcDbSymbolTable
0
LTYPE
5
14
100
AcDbSymbolTableRecord
100
AcDbLinetypeTableRecord
70
0
2
ByBlock
3

72
65
73
0
40
0
0
LTYPE
5
15
100
AcDbSymbolTableRecord
100
AcDbLinetypeTableRecord
70
0
2
ByLayer
3

72
65
73
0
40
0
0
LTYPE
5
16
100
AcDbSymbolTableRecord
100
AcDbLinetypeTableRecord
70
0
2
Continuous
3
Solid line
72
65
73
0
40
0
0
LTYPE
5
6E
100
AcDbSymbolTableRecord
100
AcDbLinetypeTableRecord
70
0
2
CENTER
3
____ _ ____ _ ____ _ ____
72
65
73
4
40
47.5
49
22
74
0
49
-8.5
74
0
49
8.5
74
0
49
-8.5
74
0
0
LTYPE
5
6F
100
AcDbSymbolTableRecord
100
AcDbLinetypeTableRecord
70
0
2
DASHED
3
__ __ __ __ __ __ __ __ __
72
65
73
2
40
25.72
49
12.86
74
0
49
-12.86
74
0
0
ENDTAB
0
TABLE
2
LAYER
5
1f0
100
AcDbSymbolTable
0
LAYER
5
10
100
AcDbSymbolTableRecord
100
AcDbLayerTableRecord
2
0
70
0
62
7
6
Continuous
290
1
370
-3
390
0
0
LAYER
5
71
100
AcDbSymbolTableRecord
100
AcDbLayerTableRecord
2
80
70
0
62
-6
6
Continuous
290
1
370
-3
390
0
0
LAYER
5
73
100
AcDbSymbolTableRecord
100
AcDbLayerTableRecord
2
81
70
0
62
-3
6
Continuous
290
1
370
-3
390
0
0
LAYER
5
75
100
AcDbSymbolTableRecord
100
AcDbLayerTableRecord
2
1
70
0
62
4
6
Continuous
290
1
370
-3
390
0
0
LAYER
5
85
100
AcDbSymbolTableRecord
100
AcDbLayerTableRecord
2
4
70
0
62
-2
6
CENTER
290
1
370
-3
390
0
0
LAYER
5
9C
100
AcDbSymbolTableRecord
100
AcDbLayerTableRecord
2
2
70
0
62
7
6
Continuous
290
1
370
-3
390
0
0
LAYER
5
102
100
AcDbSymbolTableRecord
100
AcDbLayerTableRecord
2
Defpoints
70
0
62
7
6
Continuous
290
0
370
-3
390
0
0
LAYER
5
1da
100
AcDbSymbolTableRecord
100
AcDbLayerTableRecord
2
SK1
70
0
62
4
6
Continuous
290
1
370
-3
390
0
0
LAYER
5
1db
100
AcDbSymbolTableRecord
100
AcDbLayerTableRecord
2
SK4
70
0
62
2
6
CENTER
290
1
370
-3
390
0
0
LAYER
5
1dc
100
AcDbSymbolTableRecord
100
AcDbLayerTableRecord
2
SK2
70
0
62
7
6
Continuous
290
1
370
-3
390
0
0
LAYER
5
1dd
100
AcDbSymbolTableRecord
100
AcDbLayerTableRecord
2
SK6
70
0
62
5
6
Continuous
290
1
370
-3
390
0
0
ENDTAB
0
TABLE
2
STYLE
5
1f1
100
AcDbSymbolTable
0
STYLE
5
11
100
AcDbSymbolTableRecord
100
AcDbTextStyleTableRecord
2
Standard
3
txt
70
0
71
0
40
0
41
1
42
0
50
0
0
STYLE
5
E7
100
AcDbSymbolTableRecord
100
AcDbTextStyleTableRecord
2
iso_b_vert
3
simplex.shx
70
0
71
0
40
0
41
1
42
0
50
0
0
STYLE
5
E8
100
AcDbSymbolTableRecord
100
AcDbTextStyleTableRecord
2
DWGDirectTextStyle
3
simplex
70
0
71
0
40
0
41
1
42
0
50
0
0
ENDTAB
0
TABLE
2
DIMSTYLE
5
1f2
100
AcDbSymbolTable
100
AcDbDimStyleTable
0
DIMSTYLE
105
27
100
AcDbSymbolTableRecord
100
AcDbDimStyleTableRecord
2
Standard
70
0
3
<>
41
0.18
42
0.0625
44
0.18
140
0.18
147
0.09
73
0
74
0
77
1
271
2
275
0
278
52
280
0
340
11
0
ENDTAB
0
TABLE
2
VIEW
5
1f3
100
AcDbSymbolTable
0
ENDTAB
0
TABLE
2
UCS
5
1f4
100
AcDbSymbolTable
0
ENDTAB
0
TABLE
2
APPID
5
1f5
100
AcDbSymbolTable
0
APPID
5
12
100
AcDbSymbolTableRecord
100
AcDbRegAppTableRecord
2
ACAD
70
0
0
APPID
5
FE
100
AcDbSymbolTableRecord
100
AcDbRegAppTableRecord
2
ACAD_DSTYLE_DIMBREAK
70
0
0
APPID
5
199
100
AcDbSymbolTableRecord
100
AcDbRegAppTableRecord
2
ACAD_DSTYLE_DIM_LINETYPE
70
0
0
APPID
5
19A
100
AcDbSymbolTableRecord
100
AcDbRegAppTableRecord
2
ACAD_DSTYLE_DIM_EXT1_LINETYPE
70
0
0
APPID
5
19B
100
AcDbSymbolTableRecord
100
AcDbRegAppTableRecord
2
ACAD_DSTYLE_DIM_EXT2_LINETYPE
70
0
0
APPID
5
1D6
100
AcDbSymbolTableRecord
100
AcDbRegAppTableRecord
2
ACAD_MLEADERVER
70
0
0
ENDTAB
0
TABLE
2
BLOCK_RECORD
5
1f6
100
AcDbSymbolTable
0
BLOCK_RECORD
5
1F
100
AcDbSymbolTableRecord
100
AcDbBlockTableRecord
2
*Model_Space
340
0
70
0
0
BLOCK_RECORD
5
1B
100
AcDbSymbolTableRecord
100
AcDbBlockTableRecord
2
*Paper_Space
340
0
70
0
0
BLOCK_RECORD
5
23
100
AcDbSymbolTableRecord
100
AcDbBlockTableRecord
2
*Paper_Space0
340
0
70
0
0
BLOCK_RECORD
5
103
100
AcDbSymbolTableRecord
100
AcDbBlockTableRecord
2
*D1
340
0
70
0
0
BLOCK_RECORD
5
10F
100
AcDbSymbolTableRecord
100
AcDbBlockTableRecord
2
_U0
340
0
70
0
0
BLOCK_RECORD
5
11B
100
AcDbSymbolTableRecord
100
AcDbBlockTableRecord
2
*D3
340
0
70
0
0
BLOCK_RECORD
5
127
100
AcDbSymbolTableRecord
100
AcDbBlockTableRecord
2
_U1
340
0
70
0
0
BLOCK_RECORD
5
133
100
AcDbSymbolTableRecord
100
AcDbBlockTableRecord
2
*D5
340
0
70
0
0
BLOCK_RECORD
5
140
100
AcDbSymbolTableRecord
100
AcDbBlockTableRecord
2
_U2
340
0
70
0
0
BLOCK_RECORD
5
14C
100
AcDbSymbolTableRecord
100
AcDbBlockTableRecord
2
*D7
340
0
70
0
0
BLOCK_RECORD
5
15A
100
AcDbSymbolTableRecord
100
AcDbBlockTableRecord
2
_U3
340
0
70
0
0
BLOCK_RECORD
5
166
100
AcDbSymbolTableRecord
100
AcDbBlockTableRecord
2
*D9
340
0
70
0
0
BLOCK_RECORD
5
172
100
AcDbSymbolTableRecord
100
AcDbBlockTableRecord
2
_U4
340
0
70
0
0
ENDTAB
0
ENDSEC
0
SECTION
2
BLOCKS
0
BLOCK
5
20
100
AcDbEntity
8
0
100
AcDbBlockBegin
2
*Model_Space
70
0
10
0
20
0
30
0
3
*Model_Space
0
ENDBLK
5
21
100
AcDbEntity
8
0
100
AcDbBlockEnd
0
BLOCK
5
1C
100
AcDbEntity
8
0
100
AcDbBlockBegin
2
*Paper_Space
70
0
10
0
20
0
30
0
3
*Paper_Space
0
ENDBLK
5
1D
100
AcDbEntity
8
0
100
AcDbBlockEnd
0
BLOCK
5
24
100
AcDbEntity
8
0
100
AcDbBlockBegin
2
*Paper_Space0
70
0
10
0
20
0
30
0
3
*Paper_Space0
0
ENDBLK
5
25
100
AcDbEntity
8
0
100
AcDbBlockEnd
0
BLOCK
5
104
100
AcDbEntity
8
0
100
AcDbBlockBegin
2
*D1
70
1
10
0
20
0
30
0
3
*D1
0
LINE
5
106
100
AcDbEntity
8
0
62
256
6
ByLayer
370
-2
48
1
60
0
100
AcDbLine
10
0
20
-1.5875
30
0
11
0
21
-14.913398
31
0
39
0
210
0
220
0
230
1
0
LINE
5
107
100
AcDbEntity
8
0
62
256
6
ByLayer
370
-2
48
1
60
0
100
AcDbLine
10
34.9932
20
-4.2875
30
0
11
34.9932
21
-14.913398
31
0
39
0
210
0
220
0
230
1
0
LINE
5
108
100
AcDbEntity
8
0
62
256
6
ByLayer
370
-2
48
1
60
0
100
AcDbLine
10
3.5
20
-12.913398
30
0
11
31.4932
21
-12.913398
31
0
39
0
210
0
220
0
230
1
0
SOLID
5
109
100
AcDbEntity
8
0
62
256
6
ByLayer
370
-1
48
1
60
0
100
AcDbTrace
10
3.5
20
-12.330065
30
0
11
3.5
21
-13.496732
31
0
12
0
22
-12.913398
32
0
13
0
23
-12.913398
33
0
39
0
210
0
220
0
230
1
0
SOLID
5
10A
100
AcDbEntity
8
0
62
256
6
ByLayer
370
-1
48
1
60
0
100
AcDbTrace
10
31.4932
20
-13.496732
30
0
11
31.4932
21
-12.330065
31
0
12
34.9932
22
-12.913398
32
0
13
34.9932
23
-12.913398
33
0
39
0
210
0
220
0
230
1
0
MTEXT
5
10B
100
AcDbEntity
8
0
62
256
6
ByLayer
370
18
48
1
60
0
100
AcDbMText
10
17.4966
20
-5.913398
30
0
210
0
220
0
230
1
1
\A1;34.99
40
3.5
41
0
44
1
50
0
71
5
72
5
7
iso_b_vert
0
POINT
5
10C
100
AcDbEntity
8
Defpoints
62
0
6
ByLayer
370
-1
48
1
60
0
100
AcDbPoint
10
0
20
0
30
0
39
0
210
0
220
0
230
1
50
360
0
POINT
5
10D
100
AcDbEntity
8
Defpoints
62
0
6
ByLayer
370
-1
48
1
60
0
100
AcDbPoint
10
34.9932
20
-2.7
30
0
39
0
210
0
220
0
230
1
50
360
0
POINT
5
10E
100
AcDbEntity
8
Defpoints
62
0
6
ByLayer
370
-1
48
1
60
0
100
AcDbPoint
10
34.9932
20
-12.913398
30
0
39
0
210
0
220
0
230
1
50
360
0
ENDBLK
5
105
100
AcDbEntity
8
0
100
AcDbBlockEnd
0
BLOCK
5
116
100
AcDbEntity
8
0
100
AcDbBlockBegin
2
_U0
70
0
10
0
20
0
30
0
3
_U0
0
MTEXT
5
110
100
AcDbEntity
8
2
62
256
6
ByLayer
370
13
48
1
60
0
100
AcDbMText
10
12.175035
20
-11.880765
30
0
210
0
220
0
230
1
1
\W0.7669;34,99
40
3.5
41
0
44
1.084337
50
0
71
7
72
5
7
iso_b_vert
0
LINE
5
111
100
AcDbEntity
8
2
62
256
6
ByLayer
370
13
48
1
60
0
100
AcDbLine
10
0
20
-1.5875
30
0
11
0
21
-14.913398
31
0
39
0
210
0
220
0
230
1
0
LINE
5
112
100
AcDbEntity
8
2
62
256
6
ByLayer
370
13
48
1
60
0
100
AcDbLine
10
34.9932
20
-4.2875
30
0
11
34.9932
21
-14.913398
31
0
39
0
210
0
220
0
230
1
0
LINE
5
113
100
AcDbEntity
8
2
62
256
6
ByLayer
370
13
48
1
60
0
100
AcDbLine
10
0
20
-12.913398
30
0
11
34.9932
21
-12.913398
31
0
39
0
210
0
220
0
230
1
0
SOLID
5
114
100
AcDbEntity
8
2
62
256
6
ByLayer
370
18
48
1
60
0
100
AcDbTrace
10
0
20
-12.913398
30
0
11
3.499998
21
-12.452615
31
0
12
3.500002
22
-13.374182
32
0
13
3.500002
23
-13.374182
33
0
39
0
210
0
220
0
230
1
0
SOLID
5
115
100
AcDbEntity
8
2
62
256
6
ByLayer
370
18
48
1
60
0
100
AcDbTrace
10
34.9932
20
-12.913398
30
0
11
31.493202
21
-13.374182
31
0
12
31.493198
22
-12.452615
32
0
13
31.493198
23
-12.452615
33
0
39
0
210
0
220
0
230
1
0
ENDBLK
5
117
100
AcDbEntity
8
0
100
AcDbBlockEnd
0
BLOCK
5
11C
100
AcDbEntity
8
0
100
AcDbBlockBegin
2
*D3
70
1
10
0
20
0
30
0
3
*D3
0
LINE
5
11E
100
AcDbEntity
8
0
62
256
6
ByLayer
370
-2
48
1
60
0
100
AcDbLine
10
-36
20
-4.5875
30
0
11
-36
21
-33.692985
31
0
39
0
210
0
220
0
230
1
0
LINE
5
11F
100
AcDbEntity
8
0
62
256
6
ByLayer
370
-2
48
1
60
0
100
AcDbLine
10
36
20
-1.5875
30
0
11
36
21
-33.692985
31
0
39
0
210
0
220
0
230
1
0
LINE
5
120
100
AcDbEntity
8
0
62
256
6
ByLayer
370
-2
48
1
60
0
100
AcDbLine
10
-32.5
20
-31.692985
30
0
11
32.5
21
-31.692985
31
0
39
0
210
0
220
0
230
1
0
SOLID
5
121
100
AcDbEntity
8
0
62
256
6
ByLayer
370
-1
48
1
60
0
100
AcDbTrace
10
-32.5
20
-31.109652
30
0
11
-32.5
21
-32.276319
31
0
12
-36
22
-31.692985
32
0
13
-36
23
-31.692985
33
0
39
0
210
0
220
0
230
1
0
SOLID
5
122
100
AcDbEntity
8
0
62
256
6
ByLayer
370
-1
48
1
60
0
100
AcDbTrace
10
32.5
20
-32.276319
30
0
11
32.5
21
-31.109652
31
0
12
36
22
-31.692985
32
0
13
36
23
-31.692985
33
0
39
0
210
0
220
0
230
1
0
MTEXT
5
123
100
AcDbEntity
8
0
62
256
6
ByLayer
370
18
48
1
60
0
100
AcDbMText
10
0
20
-24.692985
30
0
210
0
220
0
230
1
1
\A1;72.00
40
3.5
41
0
44
1
50
0
71
5
72
5
7
iso_b_vert
0
POINT
5
124
100
AcDbEntity
8
Defpoints
62
0
6
ByLayer
370
-1
48
1
60
0
100
AcDbPoint
10
-36
20
-3
30
0
39
0
210
0
220
0
230
1
50
360
0
POINT
5
125
100
AcDbEntity
8
Defpoints
62
0
6
ByLayer
370
-1
48
1
60
0
100
AcDbPoint
10
36
20
0
30
0
39
0
210
0
220
0
230
1
50
360
0
POINT
5
126
100
AcDbEntity
8
Defpoints
62
0
6
ByLayer
370
-1
48
1
60
0
100
AcDbPoint
10
36
20
-31.692985
30
0
39
0
210
0
220
0
230
1
50
360
0
ENDBLK
5
11D
100
AcDbEntity
8
0
100
AcDbBlockEnd
0
BLOCK
5
12E
100
AcDbEntity
8
0
100
AcDbBlockBegin
2
_U1
70
0
10
0
20
0
30
0
3
_U1
0
MTEXT
5
128
100
AcDbEntity
8
SK2
62
256
6
ByLayer
370
13
48
1
60
0
100
AcDbMText
10
-5.137299
20
-30.660352
30
0
210
0
220
0
230
1
1
\W0.7317;72,00
40
3.5
41
0
44
1.084337
50
0
71
7
72
5
7
iso_b_vert
0
LINE
5
129
100
AcDbEntity
8
SK2
62
256
6
ByLayer
370
13
48
1
60
0
100
AcDbLine
10
-36
20
-4.5875
30
0
11
-36
21
-33.692985
31
0
39
0
210
0
220
0
230
1
0
LINE
5
12A
100
AcDbEntity
8
SK2
62
256
6
ByLayer
370
13
48
1
60
0
100
AcDbLine
10
36
20
-1.5875
30
0
11
36
21
-33.692985
31
0
39
0
210
0
220
0
230
1
0
LINE
5
12B
100
AcDbEntity
8
SK2
62
256
6
ByLayer
370
13
48
1
60
0
100
AcDbLine
10
-36
20
-31.692985
30
0
11
36
21
-31.692985
31
0
39
0
210
0
220
0
230
1
0
SOLID
5
12C
100
AcDbEntity
8
SK2
62
256
6
ByLayer
370
18
48
1
60
0
100
AcDbTrace
10
-36
20
-31.692985
30
0
11
-32.500002
21
-31.232202
31
0
12
-32.499998
22
-32.153769
32
0
13
-32.499998
23
-32.153769
33
0
39
0
210
0
220
0
230
1
0
SOLID
5
12D
100
AcDbEntity
8
SK2
62
256
6
ByLayer
370
18
48
1
60
0
100
AcDbTrace
10
36
20
-31.692985
30
0
11
32.500002
21
-32.153769
31
0
12
32.499998
22
-31.232202
32
0
13
32.499998
23
-31.232202
33
0
39
0
210
0
220
0
230
1
0
ENDBLK
5
12F
100
AcDbEntity
8
0
100
AcDbBlockEnd
0
BLOCK
5
134
100
AcDbEntity
8
0
100
AcDbBlockBegin
2
*D5
70
1
10
0
20
0
30
0
3
*D5
0
LINE
5
136
100
AcDbEntity
8
0
62
256
6
ByLayer
370
-2
48
1
60
0
100
AcDbLine
10
18.79
20
4.2875
30
0
11
18.79
21
16.309119
31
0
39
0
210
0
220
0
230
1
0
LINE
5
137
100
AcDbEntity
8
0
62
256
6
ByLayer
370
-2
48
1
60
0
100
AcDbLine
10
36
20
1.5875
30
0
11
36
21
16.309119
31
0
39
0
210
0
220
0
230
1
0
LINE
5
138
100
AcDbEntity
8
0
62
256
6
ByLayer
370
-2
48
1
60
0
100
AcDbLine
10
15.29
20
14.309119
30
0
11
11.79
21
14.309119
31
0
39
0
210
0
220
0
230
1
0
LINE
5
139
100
AcDbEntity
8
0
62
256
6
ByLayer
370
-2
48
1
60
0
100
AcDbLine
10
39.5
20
14.309119
30
0
11
43
21
14.309119
31
0
39
0
210
0
220
0
230
1
0
SOLID
5
13A
100
AcDbEntity
8
0
62
256
6
ByLayer
370
-1
48
1
60
0
100
AcDbTrace
10
15.29
20
13.725786
30
0
11
15.29
21
14.892453
31
0
12
18.79
22
14.309119
32
0
13
18.79
23
14.309119
33
0
39
0
210
0
220
0
230
1
0
SOLID
5
13B
100
AcDbEntity
8
0
62
256
6
ByLayer
370
-1
48
1
60
0
100
AcDbTrace
10
39.5
20
14.892453
30
0
11
39.5
21
13.725786
31
0
12
36
22
14.309119
32
0
13
36
23
14.309119
33
0
39
0
210
0
220
0
230
1
0
MTEXT
5
13C
100
AcDbEntity
8
0
62
256
6
ByLayer
370
18
48
1
60
0
100
AcDbMText
10
27.395
20
21.309119
30
0
210
0
220
0
230
1
1
\A1;17.21
40
3.5
41
0
44
1
50
0
71
5
72
5
7
iso_b_vert
0
POINT
5
13D
100
AcDbEntity
8
Defpoints
62
0
6
ByLayer
370
-1
48
1
60
0
100
AcDbPoint
10
18.79
20
2.7
30
0
39
0
210
0
220
0
230
1
50
360
0
POINT
5
13E
100
AcDbEntity
8
Defpoints
62
0
6
ByLayer
370
-1
48
1
60
0
100
AcDbPoint
10
36
20
0
30
0
39
0
210
0
220
0
230
1
50
360
0
POINT
5
13F
100
AcDbEntity
8
Defpoints
62
0
6
ByLayer
370
-1
48
1
60
0
100
AcDbPoint
10
36
20
14.309119
30
0
39
0
210
0
220
0
230
1
50
360
0
ENDBLK
5
135
100
AcDbEntity
8
0
100
AcDbBlockEnd
0
BLOCK
5
147
100
AcDbEntity
8
0
100
AcDbBlockBegin
2
_U2
70
0
10
0
20
0
30
0
3
_U2
0
MTEXT
5
141
100
AcDbEntity
8
SK2
62
256
6
ByLayer
370
13
48
1
60
0
100
AcDbMText
10
23.132568
20
15.341753
30
0
210
0
220
0
230
1
1
\W0.6563;17,21
40
3.5
41
0
44
1.084337
50
0
71
7
72
5
7
iso_b_vert
0
LINE
5
142
100
AcDbEntity
8
SK2
62
256
6
ByLayer
370
13
48
1
60
0
100
AcDbLine
10
18.79
20
4.2875
30
0
11
18.79
21
16.309119
31
0
39
0
210
0
220
0
230
1
0
LINE
5
143
100
AcDbEntity
8
SK2
62
256
6
ByLayer
370
13
48
1
60
0
100
AcDbLine
10
36
20
1.5875
30
0
11
36
21
16.309119
31
0
39
0
210
0
220
0
230
1
0
LINE
5
144
100
AcDbEntity
8
SK2
62
256
6
ByLayer
370
13
48
1
60
0
100
AcDbLine
10
18.79
20
14.309119
30
0
11
36
21
14.309119
31
0
39
0
210
0
220
0
230
1
0
SOLID
5
145
100
AcDbEntity
8
SK2
62
256
6
ByLayer
370
18
48
1
60
0
100
AcDbTrace
10
18.79
20
14.309119
30
0
11
22.289998
21
14.769903
31
0
12
22.290002
22
13.848335
32
0
13
22.290002
23
13.848335
33
0
39
0
210
0
220
0
230
1
0
SOLID
5
146
100
AcDbEntity
8
SK2
62
256
6
ByLayer
370
18
48
1
60
0
100
AcDbTrace
10
36
20
14.309119
30
0
11
32.500002
21
13.848335
31
0
12
32.499998
22
14.769903
32
0
13
32.499998
23
14.769903
33
0
39
0
210
0
220
0
230
1
0
ENDBLK
5
148
100
AcDbEntity
8
0
100
AcDbBlockEnd
0
BLOCK
5
14D
100
AcDbEntity
8
0
100
AcDbBlockBegin
2
*D7
70
1
10
0
20
0
30
0
3
*D7
0
LINE
5
14F
100
AcDbEntity
8
0
62
256
6
ByLayer
370
-2
48
1
60
0
100
AcDbLine
10
36
20
-1.5875
30
0
11
36
21
-17.502503
31
0
39
0
210
0
220
0
230
1
0
LINE
5
150
100
AcDbEntity
8
0
62
256
6
ByLayer
370
-2
48
1
60
0
100
AcDbLine
10
34.9932
20
-4.2875
30
0
11
34.9932
21
-17.502503
31
0
39
0
210
0
220
0
230
1
0
LINE
5
151
100
AcDbEntity
8
0
62
256
6
ByLayer
370
-2
48
1
60
0
100
AcDbLine
10
36
20
-15.502503
30
0
11
62.666667
21
-15.502503
31
0
39
0
210
0
220
0
230
1
0
LINE
5
152
100
AcDbEntity
8
0
62
256
6
ByLayer
370
-2
48
1
60
0
100
AcDbLine
10
39.5
20
-15.502503
30
0
11
43
21
-15.502503
31
0
39
0
210
0
220
0
230
1
0
LINE
5
153
100
AcDbEntity
8
0
62
256
6
ByLayer
370
-2
48
1
60
0
100
AcDbLine
10
31.4932
20
-15.502503
30
0
11
27.9932
21
-15.502503
31
0
39
0
210
0
220
0
230
1
0
SOLID
5
154
100
AcDbEntity
8
0
62
256
6
ByLayer
370
-1
48
1
60
0
100
AcDbTrace
10
39.5
20
-14.91917
30
0
11
39.5
21
-16.085837
31
0
12
36
22
-15.502503
32
0
13
36
23
-15.502503
33
0
39
0
210
0
220
0
230
1
0
SOLID
5
155
100
AcDbEntity
8
0
62
256
6
ByLayer
370
-1
48
1
60
0
100
AcDbTrace
10
31.4932
20
-16.085837
30
0
11
31.4932
21
-14.91917
31
0
12
34.9932
22
-15.502503
32
0
13
34.9932
23
-15.502503
33
0
39
0
210
0
220
0
230
1
0
MTEXT
5
156
100
AcDbEntity
8
0
62
256
6
ByLayer
370
18
48
1
60
0
100
AcDbMText
10
52.833333
20
-8.502503
30
0
210
0
220
0
230
1
1
\A1;1.01
40
3.5
41
0
44
1
50
0
71
5
72
5
7
iso_b_vert
0
POINT
5
157
100
AcDbEntity
8
Defpoints
62
0
6
ByLayer
370
-1
48
1
60
0
100
AcDbPoint
10
36
20
0
30
0
39
0
210
0
220
0
230
1
50
360
0
POINT
5
158
100
AcDbEntity
8
Defpoints
62
0
6
ByLayer
370
-1
48
1
60
0
100
AcDbPoint
10
34.9932
20
-2.7
30
0
39
0
210
0
220
0
230
1
50
360
0
POINT
5
159
100
AcDbEntity
8
Defpoints
62
0
6
ByLayer
370
-1
48
1
60
0
100
AcDbPoint
10
34.9932
20
-15.502503
30
0
39
0
210
0
220
0
230
1
50
360
0
ENDBLK
5
14E
100
AcDbEntity
8
0
100
AcDbBlockEnd
0
BLOCK
5
161
100
AcDbEntity
8
0
100
AcDbBlockBegin
2
_U3
70
0
10
0
20
0
30
0
3
_U3
0
MTEXT
5
15B
100
AcDbEntity
8
SK2
62
256
6
ByLayer
370
13
48
1
60
0
100
AcDbMText
10
43.026726
20
-14.46987
30
0
210
0
220
0
230
1
1
\W0.6132;1,01
40
3.5
41
0
44
1.084337
50
0
71
7
72
5
7
iso_b_vert
0
LINE
5
15C
100
AcDbEntity
8
SK2
62
256
6
ByLayer
370
13
48
1
60
0
100
AcDbLine
10
36
20
-1.5875
30
0
11
36
21
-17.502503
31
0
39
0
210
0
220
0
230
1
0
LINE
5
15D
100
AcDbEntity
8
SK2
62
256
6
ByLayer
370
13
48
1
60
0
100
AcDbLine
10
34.9932
20
-4.2875
30
0
11
34.9932
21
-17.502503
31
0
39
0
210
0
220
0
230
1
0
LINE
5
15E
100
AcDbEntity
8
SK2
62
256
6
ByLayer
370
13
48
1
60
0
100
AcDbLine
10
26.2432
20
-15.502503
30
0
11
49.121624
21
-15.502503
31
0
39
0
210
0
220
0
230
1
0
SOLID
5
15F
100
AcDbEntity
8
SK2
62
256
6
ByLayer
370
18
48
1
60
0
100
AcDbTrace
10
36
20
-15.502503
30
0
11
39.499998
21
-15.041719
31
0
12
39.500002
22
-15.963287
32
0
13
39.500002
23
-15.963287
33
0
39
0
210
0
220
0
230
1
0
SOLID
5
160
100
AcDbEntity
8
SK2
62
256
6
ByLayer
370
18
48
1
60
0
100
AcDbTrace
10
34.9932
20
-15.502503
30
0
11
31.493202
21
-15.963287
31
0
12
31.493198
22
-15.041719
32
0
13
31.493198
23
-15.041719
33
0
39
0
210
0
220
0
230
1
0
ENDBLK
5
162
100
AcDbEntity
8
0
100
AcDbBlockEnd
0
BLOCK
5
167
100
AcDbEntity
8
0
100
AcDbBlockBegin
2
*D9
70
1
10
0
20
0
30
0
3
*D9
0
LINE
5
169
100
AcDbEntity
8
0
62
256
6
ByLayer
370
-2
48
1
60
0
100
AcDbLine
10
-36
20
-4.5875
30
0
11
-36
21
-23.343428
31
0
39
0
210
0
220
0
230
1
0
LINE
5
16A
100
AcDbEntity
8
0
62
256
6
ByLayer
370
-2
48
1
60
0
100
AcDbLine
10
34.9932
20
-4.2875
30
0
11
34.9932
21
-23.343428
31
0
39
0
210
0
220
0
230
1
0
LINE
5
16B
100
AcDbEntity
8
0
62
256
6
ByLayer
370
-2
48
1
60
0
100
AcDbLine
10
-32.5
20
-21.343428
30
0
11
31.4932
21
-21.343428
31
0
39
0
210
0
220
0
230
1
0
SOLID
5
16C
100
AcDbEntity
8
0
62
256
6
ByLayer
370
-1
48
1
60
0
100
AcDbTrace
10
-32.5
20
-20.760095
30
0
11
-32.5
21
-21.926762
31
0
12
-36
22
-21.343428
32
0
13
-36
23
-21.343428
33
0
39
0
210
0
220
0
230
1
0
SOLID
5
16D
100
AcDbEntity
8
0
62
256
6
ByLayer
370
-1
48
1
60
0
100
AcDbTrace
10
31.4932
20
-21.926762
30
0
11
31.4932
21
-20.760095
31
0
12
34.9932
22
-21.343428
32
0
13
34.9932
23
-21.343428
33
0
39
0
210
0
220
0
230
1
0
MTEXT
5
16E
100
AcDbEntity
8
0
62
256
6
ByLayer
370
18
48
1
60
0
100
AcDbMText
10
-0.5034
20
-14.343428
30
0
210
0
220
0
230
1
1
\A1;70.99
40
3.5
41
0
44
1
50
0
71
5
72
5
7
iso_b_vert
0
POINT
5
16F
100
AcDbEntity
8
Defpoints
62
0
6
ByLayer
370
-1
48
1
60
0
100
AcDbPoint
10
-36
20
-3
30
0
39
0
210
0
220
0
230
1
50
360
0
POINT
5
170
100
AcDbEntity
8
Defpoints
62
0
6
ByLayer
370
-1
48
1
60
0
100
AcDbPoint
10
34.9932
20
-2.7
30
0
39
0
210
0
220
0
230
1
50
360
0
POINT
5
171
100
AcDbEntity
8
Defpoints
62
0
6
ByLayer
370
-1
48
1
60
0
100
AcDbPoint
10
34.9932
20
-21.343428
30
0
39
0
210
0
220
0
230
1
50
360
0
ENDBLK
5
168
100
AcDbEntity
8
0
100
AcDbBlockEnd
0
BLOCK
5
179
100
AcDbEntity
8
0
100
AcDbBlockBegin
2
_U4
70
0
10
0
20
0
30
0
3
_U4
0
MTEXT
5
173
100
AcDbEntity
8
SK2
62
256
6
ByLayer
370
13
48
1
60
0
100
AcDbMText
10
-5.640699
20
-20.310795
30
0
210
0
220
0
230
1
1
\W0.7402;70,99
40
3.5
41
0
44
1.084337
50
0
71
7
72
5
7
iso_b_vert
0
LINE
5
174
100
AcDbEntity
8
SK2
62
256
6
ByLayer
370
13
48
1
60
0
100
AcDbLine
10
-36
20
-4.5875
30
0
11
-36
21
-23.343428
31
0
39
0
210
0
220
0
230
1
0
LINE
5
175
100
AcDbEntity
8
SK2
62
256
6
ByLayer
370
13
48
1
60
0
100
AcDbLine
10
34.9932
20
-4.2875
30
0
11
34.9932
21
-23.343428
31
0
39
0
210
0
220
0
230
1
0
LINE
5
176
100
AcDbEntity
8
SK2
62
256
6
ByLayer
370
13
48
1
60
0
100
AcDbLine
10
-36
20
-21.343428
30
0
11
34.9932
21
-21.343428
31
0
39
0
210
0
220
0
230
1
0
SOLID
5
177
100
AcDbEntity
8
SK2
62
256
6
ByLayer
370
18
48
1
60
0
100
AcDbTrace
10
-36
20
-21.343428
30
0
11
-32.500002
21
-20.882645
31
0
12
-32.499998
22
-21.804212
32
0
13
-32.499998
23
-21.804212
33
0
39
0
210
0
220
0
230
1
0
SOLID
5
178
100
AcDbEntity
8
SK2
62
256
6
ByLayer
370
18
48
1
60
0
100
AcDbTrace
10
34.9932
20
-21.343428
30
0
11
31.493202
21
-21.804212
31
0
12
31.493198
22
-20.882645
32
0
13
31.493198
23
-20.882645
33
0
39
0
210
0
220
0
230
1
0
ENDBLK
5
17A
100
AcDbEntity
8
0
100
AcDbBlockEnd
0
ENDSEC
0
SECTION
2
ENTITIES
0
ARC
5
A5
100
AcDbEntity
8
1
62
256
6
ByLayer
370
18
48
1
60
0
100
AcDbCircle
39
0
10
1.047544
20
-3.488899
30
0
40
0.85
210
0
220
0
230
1
100
AcDbArc
50
89.896868
51
128.039348
0
ARC
5
A6
100
AcDbEntity
8
1
62
256
6
ByLayer
370
18
48
1
60
0
100
AcDbCircle
39
0
10
1.047544
20
3.488899
30
0
40
0.85
210
0
220
0
230
1
100
AcDbArc
50
231.960652
51
270.103132
0
ARC
5
A7
100
AcDbEntity
8
1
62
256
6
ByLayer
370
18
48
1
60
0
100
AcDbCircle
39
0
10
0
20
-2.15
30
0
40
0.85
210
0
220
0
230
1
100
AcDbArc
50
270
51
308.039348
0
ARC
5
A8
100
AcDbEntity
8
1
62
256
6
ByLayer
370
18
48
1
60
0
100
AcDbCircle
39
0
10
0
20
2.15
30
0
40
0.85
210
0
220
0
230
1
100
AcDbArc
50
51.960652
51
90
0
ELLIPSE
5
A9
100
AcDbEntity
8
1
62
256
6
ByLayer
370
13
48
1
60
0
100
AcDbEllipse
10
80.194174
20
42.658776
30
0
11
-61.4
21
7.5190830124694E-15
31
0
210
0
220
0
230
1
40
0.99863
41
0.746144383080294
42
0.766834500202758
0
ELLIPSE
5
AA
100
AcDbEntity
8
1
62
256
6
ByLayer
370
13
48
1
60
0
100
AcDbEllipse
10
9.509728
20
1.422326
30
0
11
0.129676212670085
21
0.270525562318135
31
0
210
0
220
0
230
1
40
0.240157
41
-2.74478922393377
42
-2.03137324983617
0
ELLIPSE
5
AB
100
AcDbEntity
8
1
62
256
6
ByLayer
370
13
48
1
60
0
100
AcDbEllipse
10
12.639742
20
-71.624194
30
0
11
-34.8343137495737
21
65.9921469782856
31
0
210
0
220
0
230
1
40
0.805071
41
-0.580346178488104
42
-0.500776190564527
0
ELLIPSE
5
AC
100
AcDbEntity
8
1
62
256
6
ByLayer
370
18
48
1
60
0
100
AcDbEllipse
10
9.508416
20
-3.577253
30
0
11
-1
21
1.22460635382238E-16
31
0
210
0
220
0
230
1
40
0.999973
41
-1.57051161646533
42
-1.1784653612074
0
ELLIPSE
5
AD
100
AcDbEntity
8
1
62
256
6
ByLayer
370
18
48
1
60
0
100
AcDbEllipse
10
9.508416
20
3.577253
30
0
11
-1
21
1.22460635382238E-16
31
0
210
0
220
0
230
1
40
0.999973
41
1.18009681723278
42
1.5732419288913
0
POINT
5
70
100
AcDbEntity
8
80
62
256
6
ByLayer
370
18
48
1
60
0
100
AcDbPoint
10
0
20
0
30
0
39
0
210
0
220
0
230
1
50
360
0
POINT
5
72
100
AcDbEntity
8
81
62
256
6
ByLayer
370
18
48
1
60
0
100
AcDbPoint
10
36
20
0
30
0
39
0
210
0
220
0
230
1
50
360
0
POINT
5
74
100
AcDbEntity
8
1
62
256
6
ByLayer
370
18
48
1
60
1
100
AcDbPoint
10
34.9932
20
-2.7
30
0
39
0
210
0
220
0
230
1
50
360
0
POINT
5
76
100
AcDbEntity
8
1
62
256
6
ByLayer
370
18
48
1
60
1
100
AcDbPoint
10
-36
20
-3
30
0
39
0
210
0
220
0
230
1
50
360
0
POINT
5
77
100
AcDbEntity
8
1
62
256
6
ByLayer
370
18
48
1
60
1
100
AcDbPoint
10
18.79
20
2.7
30
0
39
0
210
0
220
0
230
1
50
360
0
POINT
5
78
100
AcDbEntity
8
1
62
256
6
ByLayer
370
18
48
1
60
1
100
AcDbPoint
10
34.9932
20
-2.7
30
0
39
0
210
0
220
0
230
1
50
360
0
POINT
5
79
100
AcDbEntity
8
1
62
256
6
ByLayer
370
18
48
1
60
1
100
AcDbPoint
10
-36
20
-3
30
0
39
0
210
0
220
0
230
1
50
360
0
POINT
5
7A
100
AcDbEntity
8
1
62
256
6
ByLayer
370
18
48
1
60
1
100
AcDbPoint
10
34.9932
20
-2.7
30
0
39
0
210
0
220
0
230
1
50
360
0
SPLINE
5
AE
100
AcDbEntity
8
1
62
256
6
ByLayer
370
18
48
1
60
0
100
AcDbSpline
70
4
71
3
72
62
73
58
40
0
40
0
40
0
40
0
40
0.0372072160337128
40
0.0372072160337128
40
0.0744144320674256
40
0.0744144320674256
40
0.111621648101138
40
0.111621648101138
40
0.148828864134851
40
0.148828864134851
40
0.186036080168564
40
0.186036080168564
40
0.223243296202277
40
0.223243296202277
40
0.260450512235989
40
0.260450512235989
40
0.297657728269702
40
0.297657728269702
40
0.334864944303415
40
0.334864944303415
40
0.353468552320271
40
0.353468552320271
40
0.372072160337128
40
0.372072160337128
40
0.409279376370841
40
0.409279376370841
40
0.446486592404555
40
0.446486592404555
40
0.483693808438269
40
0.483693808438269
40
0.520901024471982
40
0.520901024471982
40
0.558108240505696
40
0.558108240505696
40
0.59531545653941
40
0.59531545653941
40
0.632522672573123
40
0.632522672573123
40
0.669729888606837
40
0.669729888606837
40
0.70693710464055
40
0.70693710464055
40
0.744144320674264
40
0.744144320674264
40
0.781351536707978
40
0.781351536707978
40
0.818558752741691
40
0.818558752741691
40
0.855765968775405
40
0.855765968775405
40
0.892973184809118
40
0.892973184809118
40
0.930180400842832
40
0.930180400842832
40
0.967387616876545
40
0.967387616876545
40
1
40
1
40
1
40
1
41
1
10
12.1063270358818
20
2.44750388814848
30
0
41
1
10
12.3424704036328
20
2.41043477895798
30
0
41
1
10
12.5778052068751
20
2.36551275927457
30
0
41
1
10
13.0483777585392
20
2.26241859120512
30
0
41
1
10
13.2834444307805
20
2.20481518121304
30
0
41
1
10
13.7539015943098
20
2.07533088932226
30
0
41
1
10
13.9898965997998
20
2.00278077848225
30
0
41
1
10
14.4615823445215
20
1.84606634058966
30
0
41
1
10
14.6968617586218
20
1.76236586261618
30
0
41
1
10
15.1672901808991
20
1.58566984489707
30
0
41
1
10
15.4024137605534
20
1.49169294772579
30
0
41
1
10
15.8734365647664
20
1.29398151159131
30
0
41
1
10
16.1097807454773
20
1.19065042341424
30
0
41
1
10
16.581060639635
20
0.978111691736956
30
0
41
1
10
16.8162094771255
20
0.868709193926435
30
0
41
1
10
17.286778162282
20
0.645208799177993
30
0
41
1
10
17.5219129339947
20
0.530951967676373
30
0
41
1
10
17.9934172430749
20
0.299022300607078
30
0
41
1
10
18.2297054420492
20
0.181852882354889
30
0
41
1
10
18.5829754744128
20
0.0059816119743914
30
0
41
1
10
18.7006827697613
20
-0.0526266711043206
30
0
41
1
10
18.9359744506125
20
-0.169902440481309
30
0
41
1
10
19.0535049376621
20
-0.2286973129888
30
0
41
1
10
19.4065066860469
20
-0.4037026221215
30
0
41
1
10
19.6420184942595
20
-0.519444293418275
30
0
41
1
10
20.1142808801195
20
-0.747537279226378
30
0
41
1
10
20.3499683820571
20
-0.859558614827336
30
0
41
1
10
20.8206020866143
20
-1.07833650534175
30
0
41
1
10
21.0557906585709
20
-1.18453008203255
30
0
41
1
10
21.5267591991114
20
-1.38860676823089
30
0
41
1
10
21.7627730124943
20
-1.4870717643694
30
0
41
1
10
22.2344610949288
20
-1.67496747555657
30
0
41
1
10
22.4697082026573
20
-1.76395337364991
30
0
41
1
10
22.9400959355442
20
-1.92939394544618
30
0
41
1
10
23.1754124736113
20
-2.00585174725271
30
0
41
1
10
23.6464348835996
20
-2.14802233245743
30
0
41
1
10
23.8824903693343
20
-2.21359322947924
30
0
41
1
10
24.353458226095
20
-2.32915282336876
30
0
41
1
10
24.5884147335624
20
-2.38066389429204
30
0
41
1
10
25.0586309462157
20
-2.46656738162923
30
0
41
1
10
25.2939172592355
20
-2.50160455605877
30
0
41
1
10
25.76518108691
20
-2.55734208586418
30
0
41
1
10
26.0010531664479
20
-2.57782198888637
30
0
41
1
10
26.4714055589744
20
-2.60500403979188
30
0
41
1
10
26.7062801526127
20
-2.60842526361751
30
0
41
1
10
27.176715636408
20
-2.59971463120755
30
0
41
1
10
27.4122204839789
20
-2.58752298700827
30
0
41
1
10
27.8834828803563
20
-2.54980631592377
30
0
41
1
10
28.1185989257442
20
-2.52296193801396
30
0
41
1
10
28.5885089138872
20
-2.45241346594455
30
0
41
1
10
28.8232825451271
20
-2.40948790665817
30
0
41
1
10
29.2936342679598
20
-2.30923596515308
30
0
41
1
10
29.5292937017534
20
-2.25271288651245
30
0
41
1
10
29.9997638684556
20
-2.12430182663746
30
0
41
1
10
30.2346921884676
20
-2.05319081220375
30
0
41
1
10
30.6753132916904
20
-1.90890767216075
30
0
41
1
10
30.8810686446294
20
-1.83730535731189
30
0
41
1
10
31.0871052932873
20
-1.76140826265441
30
0
0
SPLINE
5
AF
100
AcDbEntity
8
1
62
256
6
ByLayer
370
18
48
1
60
0
100
AcDbSpline
70
4
71
3
72
12
73
8
40
0
40
0
40
0
40
0
40
0.250000000000001
40
0.250000000000001
40
0.500000000000003
40
0.500000000000003
40
1
40
1
40
1
40
1
41
1
10
35.1190662811984
20
1.12723580185678
30
0
41
1
10
35.1127157732221
20
1.21897307698652
30
0
41
1
10
35.1157918813483
20
1.30896270558785
30
0
41
1
10
35.1307231688784
20
1.48731436776413
30
0
41
1
10
35.1428032931345
20
1.57563469771267
30
0
41
1
10
35.1867623039271
20
1.83916469144989
30
0
41
1
10
35.226146804302
20
2.01298285272719
30
0
41
1
10
35.269579663175
20
2.18605046899407
30
0
0
SPLINE
5
B0
100
AcDbEntity
8
1
62
256
6
ByLayer
370
18
48
1
60
0
100
AcDbSpline
70
4
71
3
72
8
73
4
40
0
40
0
40
0
40
0
40
1
40
1
40
1
40
1
41
1
10
12.639741906261
20
-1.05979841242294
30
0
41
1
10
12.6556834582238
20
-1.01832566732563
30
0
41
1
10
12.6727980908374
20
-0.97808140209159
30
0
41
1
10
12.690931154757
20
-0.939355421396016
30
0
0
SPLINE
5
B1
100
AcDbEntity
8
1
62
256
6
ByLayer
370
18
48
1
60
0
100
AcDbSpline
70
4
71
3
72
16
73
12
40
0
40
0
40
0
40
0
40
0.250000000000005
40
0.250000000000005
40
0.375000000000004
40
0.375000000000004
40
0.500000000000003
40
0.500000000000003
40
0.750000000000002
40
0.750000000000002
40
1
40
1
40
1
40
1
41
1
10
34.9642356934151
20
-2.47285865428961
30
0
41
1
10
34.9209750941022
20
-2.42785440525637
30
0
41
1
10
34.8822844868175
20
-2.37307398618304
30
0
41
1
10
34.8312493311988
20
-2.2759272758027
30
0
41
1
10
34.8154095109828
20
-2.24103810306505
30
0
41
1
10
34.7861659779139
20
-2.16604841374675
30
0
41
1
10
34.7727094150076
20
-2.1257525347624
30
0
41
1
10
34.7366092875128
20
-1.99803382111358
30
0
41
1
10
34.7183519418571
20
-1.90462347398264
30
0
41
1
10
34.6933832195979
20
-1.70137733102271
30
0
41
1
10
34.6866690921079
20
-1.59100030691692
30
0
41
1
10
34.6861507336332
20
-1.47303161299945
30
0
0
SPLINE
5
B2
100
AcDbEntity
8
1
62
256
6
ByLayer
370
13
48
1
60
0
100
AcDbSpline
70
4
71
3
72
84
73
80
40
0
40
0
40
0
40
0
40
0.0172087547415191
40
0.0269811072657837
40
0.036753459790048
40
0.0562981648385772
40
0.0660705173628411
40
0.0758428698871061
40
0.0953875749356353
40
0.1051599274599
40
0.114932279984164
40
0.134476985032693
40
0.144249337556958
40
0.154021690081222
40
0.173566395129751
40
0.183338747654016
40
0.19311110017828
40
0.212655805226809
40
0.222428157751074
40
0.232200510275339
40
0.251745215323868
40
0.261517567848132
40
0.271289920372396
40
0.290834625420925
40
0.30060697794519
40
0.310379330469454
40
0.329924035517983
40
0.339696388042248
40
0.349468740566514
40
0.369013445615042
40
0.378785798139306
40
0.38855815066357
40
0.4081028557121
40
0.417875208236363
40
0.427647560760628
40
0.447192265809158
40
0.456964618333422
40
0.466736970857686
40
0.486281675906216
40
0.49605402843048
40
0.505826380954745
40
0.525371086003274
40
0.535143438527537
40
0.544915791051804
40
0.564460496100332
40
0.574232848624596
40
0.584005201148861
40
0.60354990619739
40
0.613322258721654
40
0.623094611245919
40
0.642639316294448
40
0.652411668818712
40
0.662184021342977
40
0.681728726391506
40
0.691501078915771
40
0.701273431440036
40
0.720818136488564
40
0.730590489012828
40
0.740362841537094
40
0.759907546585622
40
0.769679899109886
40
0.779452251634151
40
0.79899695668268
40
0.808769309206944
40
0.818541661731209
40
0.838086366779738
40
0.847858719304002
40
0.857631071828267
40
0.877175776876796
40
0.886948129401061
40
0.896720481925325
40
0.916265186973854
40
0.926037539498119
40
0.935809892022383
40
0.955354597070912
40
0.965126949595177
40
0.974899302119441
40
0.99444400716797
40
1
40
1
40
1
40
1
41
1
10
29.3845406684861
20
-1.0277477096071
30
0
41
1
10
29.3237797456467
20
-1.03313158629226
30
0
41
1
10
29.2285114795284
20
-1.04124875701649
30
0
41
1
10
29.0987322826888
20
-1.05160637425911
30
0
41
1
10
28.9607184087238
20
-1.0620277233113
30
0
41
1
10
28.8226970831108
20
-1.07162806880791
30
0
41
1
10
28.68466949114
20
-1.08040372653713
30
0
41
1
10
28.5466556750638
20
-1.08856319019606
30
0
41
1
10
28.4086344513934
20
-1.09588689181101
30
0
41
1
10
28.2706069658579
20
-1.10237258129661
30
0
41
1
10
28.1325932430488
20
-1.10822284205946
30
0
41
1
10
27.9945720918815
20
-1.11322560683848
30
0
41
1
10
27.8565446487097
20
-1.11738008352358
30
0
41
1
10
27.7185309448513
20
-1.12088242920359
30
0
41
1
10
27.5805097748041
20
-1.12352869660125
30
0
41
1
10
27.4424822711983
20
-1.12531959740539
30
0
41
1
10
27.3044684908618
20
-1.1264456872585
30
0
41
1
10
27.1664472324184
20
-1.12671439158231
30
0
41
1
10
27.0284196586921
20
-1.12613195033543
30
0
41
1
10
26.8904058258798
20
-1.12487884172941
30
0
41
1
10
26.752384539778
20
-1.12277442635269
30
0
41
1
10
26.6143569733331
20
-1.11982650643264
30
0
41
1
10
26.4763431830563
20
-1.1162050274857
30
0
41
1
10
26.3383219863268
20
-1.11174183010647
30
0
41
1
10
26.2002945387745
20
-1.1064463016782
30
0
41
1
10
26.0622808591209
20
-1.10047741360466
30
0
41
1
10
25.9242597447987
20
-1.09368002918606
30
0
41
1
10
25.7862323003362
20
-1.08606518664598
30
0
41
1
10
25.6482185712724
20
-1.07778141148793
30
0
41
1
10
25.5101973571417
20
-1.06868908003344
30
0
41
1
10
25.3721698222702
20
-1.05880387589968
30
0
41
1
10
25.2341560229239
20
-1.04826045297366
30
0
41
1
10
25.0961347661605
20
-1.03693512847258
30
0
41
1
10
24.958107222295
20
-1.02484516311406
30
0
41
1
10
24.820093433858
20
-1.01211098441854
30
0
41
1
10
24.6820722033693
20
-0.9986252615372
30
0
41
1
10
24.5440446778934
20
-0.984406852078877
30
0
41
1
10
24.4060309033136
20
-0.969561586620955
30
0
41
1
10
24.2680096742785
20
-0.95399883491541
30
0
41
1
10
24.1299821263061
20
-0.937738994386763
30
0
41
1
10
23.9919683254061
20
-0.920873532439742
30
0
41
1
10
23.8539470873716
20
-0.90332991580874
30
0
41
1
10
23.7159195834796
20
-0.885131678653977
30
0
41
1
10
23.577905841717
20
-0.866354013790584
30
0
41
1
10
23.4398846756201
20
-0.846942745018964
30
0
41
1
10
23.3018572292038
20
-0.826922872161873
30
0
41
1
10
23.1638435271695
20
-0.80635306841998
30
0
41
1
10
23.0258223665813
20
-0.785197715947589
30
0
41
1
10
22.8877948815299
20
-0.763483212047674
30
0
41
1
10
22.749781121142
20
-0.741251510233383
30
0
41
1
10
22.6117598721839
20
-0.718485694047303
30
0
41
1
10
22.4737322826245
20
-0.695213472545845
30
0
41
1
10
22.3357184351054
20
-0.671459969708053
30
0
41
1
10
22.197697143242
20
-0.647227139864214
30
0
41
1
10
22.0596695926992
20
-0.622544031717439
30
0
41
1
10
21.9216558206044
20
-0.597418715170562
30
0
41
1
10
21.7836346432718
20
-0.571872071920041
30
0
41
1
10
21.6456072002459
20
-0.545934325770048
30
0
41
1
10
21.5075935131055
20
-0.519596394528492
30
0
41
1
10
21.3695723867357
20
-0.492898068535368
30
0
41
1
10
21.2315449554158
20
-0.465870634672768
30
0
41
1
10
21.09353125608
20
-0.438487846276473
30
0
41
1
10
20.9555100798655
20
-0.410808335208799
30
0
41
1
10
20.8174825609911
20
-0.382864352660647
30
0
41
1
10
20.6794687609524
20
-0.354611966424301
30
0
41
1
10
20.5414474773818
20
-0.32612746393869
30
0
41
1
10
20.4034198769942
20
-0.297442356522367
30
0
41
1
10
20.265406018269
20
-0.268496684141553
30
0
41
1
10
20.1273847075811
20
-0.239384220948608
30
0
41
1
10
19.9893571178673
20
-0.210137231517251
30
0
41
1
10
19.8513433040781
20
-0.180679826519281
30
0
41
1
10
19.7133220842769
20
-0.151123052022996
30
0
41
1
10
19.5752946134271
20
-0.121499807700332
30
0
41
1
10
19.4372809089393
20
-0.0917183916863848
30
0
41
1
10
19.2992597690584
20
-0.0619068491664905
30
0
41
1
10
19.1612322994552
20
-0.0320985978154624
30
0
41
1
10
19.0232185441775
20
-0.0021853176896798
30
0
41
1
10
18.9000848947594
20
0.0244677401807962
30
0
41
1
10
18.8114530801539
20
0.0436142192873206
30
0
41
1
10
18.791834834753
20
0.047852681864839
30
0
0
SPLINE
5
B3
100
AcDbEntity
8
1
62
256
6
ByLayer
370
18
48
1
60
0
100
AcDbSpline
70
4
71
3
72
10
73
6
40
0
40
0
40
0
40
0
40
0.5
40
0.5
40
1
40
1
40
1
40
1
41
1
10
35.0144469155813
20
-2.61892526842962
30
0
41
1
10
35.0137893947286
20
-2.58254282137344
30
0
41
1
10
35.0075847389241
20
-2.55295560936881
30
0
41
1
10
34.9896119529295
20
-2.5052993365853
30
0
41
1
10
34.977818650514
20
-2.48698908228946
30
0
41
1
10
34.9642356934103
20
-2.47285865428461
30
0
0
SPLINE
5
B4
100
AcDbEntity
8
1
62
256
6
ByLayer
370
18
48
1
60
0
100
AcDbSpline
70
4
71
3
72
10
73
6
40
0
40
0
40
0
40
0
40
0.5
40
0.5
40
1
40
1
40
1
40
1
41
1
10
12.1063270358827
20
-2.44750388814839
30
0
41
1
10
11.6627162772328
20
-2.50878464499272
30
0
41
1
10
11.2239008697765
20
-2.55032624869088
30
0
41
1
10
10.3577238480639
20
-2.58454323686928
30
0
41
1
10
9.92948950136818
20
-2.58214592080111
30
0
41
1
10
9.50948842766229
20
-2.54181166143348
30
0
0
SPLINE
5
B5
100
AcDbEntity
8
1
62
256
6
ByLayer
370
18
48
1
60
0
100
AcDbSpline
70
4
71
3
72
32
73
28
40
0
40
0
40
0
40
0
40
0.0888772836172843
40
0.0888772836172843
40
0.177754567234569
40
0.177754567234569
40
0.222193209043211
40
0.222193209043211
40
0.266631850851853
40
0.266631850851853
40
0.355509134469141
40
0.355509134469141
40
0.44438641808643
40
0.44438641808643
40
0.533263701703718
40
0.533263701703718
40
0.622140985321007
40
0.622140985321007
40
0.711018268938295
40
0.711018268938295
40
0.799895552555584
40
0.799895552555584
40
0.888772836172872
40
0.888772836172872
40
0.97765011979016
40
0.97765011979016
40
1
40
1
40
1
40
1
41
1
10
34.7002538618796
20
0.118502531896667
30
0
41
1
10
34.4656243576365
20
0.23670873073965
30
0
41
1
10
34.2311149415841
20
0.354074290019241
30
0
41
1
10
33.7617141838482
20
0.585916706114091
30
0
41
1
10
33.5270079307348
20
0.700732891763778
30
0
41
1
10
33.174071834404
20
0.869410103005521
30
0
41
1
10
33.0561765033963
20
0.925133989089886
30
0
41
1
10
32.820823932546
20
1.03471165874782
30
0
41
1
10
32.7032706099649
20
1.08846814294867
30
0
41
1
10
32.350891606903
20
1.24736648693408
30
0
41
1
10
32.1160409869996
20
1.34974002521221
30
0
41
1
10
31.6461051598013
20
1.54616827838257
30
0
41
1
10
31.4111024185585
20
1.64043147123547
30
0
41
1
10
30.9397330811756
20
1.81680936131499
30
0
41
1
10
30.7045564431029
20
1.89933186200727
30
0
41
1
10
30.234449077456
20
2.05327044330457
30
0
41
1
10
29.9994328492015
20
2.12439686745535
30
0
41
1
10
29.5291502897191
20
2.25274733317559
30
0
41
1
10
29.2933911375201
20
2.30930164788126
30
0
41
1
10
28.8220958945996
20
2.40972692890108
30
0
41
1
10
28.5870212608236
20
2.45267199498503
30
0
41
1
10
28.1168426909347
20
2.52319017641719
30
0
41
1
10
27.8817806805046
20
2.54997219622294
30
0
41
1
10
27.4109681871976
20
2.58759337808033
30
0
41
1
10
27.1748371084566
20
2.59979668231679
30
0
41
1
10
26.8801511429436
20
2.60519369469284
30
0
41
1
10
26.8209691195003
20
2.60578378923231
30
0
41
1
10
26.7618094825197
20
2.60584265965258
30
0
0
SPLINE
5
B6
100
AcDbEntity
8
1
62
256
6
ByLayer
370
18
48
1
60
0
100
AcDbSpline
70
4
71
3
72
14
73
10
40
0
40
0
40
0
40
0
40
0.196471753931184
40
0.196471753931184
40
0.46431450262079
40
0.46431450262079
40
0.732157251310395
40
0.732157251310395
40
1
40
1
40
1
40
1
41
1
10
14.74357808505
20
-1.74380217038441
30
0
41
1
10
14.571016771649
20
-1.80674075633078
30
0
41
1
10
14.398378185108
20
-1.86706885789104
30
0
41
1
10
13.9897405215789
20
-2.00282805094432
30
0
41
1
10
13.7537090748472
20
-2.07538800053433
30
0
41
1
10
13.2832551205182
20
-2.20486315794531
30
0
41
1
10
13.0482064525398
20
-2.26245868410092
30
0
41
1
10
12.5776966891207
20
-2.36553396931623
30
0
41
1
10
12.3424079908109
20
-2.41044457634393
30
0
41
1
10
12.1063270358818
20
-2.4475038881485
30
0
0
SPLINE
5
B7
100
AcDbEntity
8
1
62
256
6
ByLayer
370
18
48
1
60
0
100
AcDbSpline
70
4
71
3
72
34
73
30
40
0
40
0
40
0
40
0
40
0.0684111405335371
40
0.0684111405335371
40
0.136822281067074
40
0.136822281067074
40
0.205233421600611
40
0.205233421600611
40
0.273644562134149
40
0.273644562134149
40
0.342055702667685
40
0.342055702667685
40
0.410466843201223
40
0.410466843201223
40
0.547289124268295
40
0.547289124268295
40
0.615700264801832
40
0.615700264801832
40
0.684111405335368
40
0.684111405335368
40
0.752522545868905
40
0.752522545868905
40
0.820933686402441
40
0.820933686402441
40
0.889344826935977
40
0.889344826935977
40
0.957755967469514
40
0.957755967469514
40
1
40
1
40
1
40
1
41
1
10
9.41523632034495
20
1.16078464280386
30
0
41
1
10
9.68302199308027
20
1.03813636448737
30
0
41
1
10
9.95084691374549
20
0.91056512031642
30
0
41
1
10
10.4851814581994
20
0.649771817695893
30
0
41
1
10
10.7518184892324
20
0.516807564089646
30
0
41
1
10
11.2850529589224
20
0.247751384240559
30
0
41
1
10
11.551587270369
20
0.111532897597527
30
0
41
1
10
12.0859581581902
20
-0.161417767650903
30
0
41
1
10
12.3538380696667
20
-0.298196910097602
30
0
41
1
10
12.8876373490596
20
-0.567787276573881
30
0
41
1
10
13.1541808758814
20
-0.700732772121484
30
0
41
1
10
13.6880296035914
20
-0.960129805303183
30
0
41
1
10
13.9556233312054
20
-1.08720086615202
30
0
41
1
10
14.7573573691179
20
-1.45338386680132
30
0
41
1
10
15.2894371422759
20
-1.67738307220588
30
0
41
1
10
16.0916297556329
20
-1.97078680481909
30
0
41
1
10
16.3588059889817
20
-2.06107644615187
30
0
41
1
10
16.8922335285856
20
-2.22447426587863
30
0
41
1
10
17.1586082865412
20
-2.29785318959051
30
0
41
1
10
17.6924692846544
20
-2.42601649677505
30
0
41
1
10
17.960222263199
20
-2.48094823532534
30
0
41
1
10
18.4939063449784
20
-2.57058889117246
30
0
41
1
10
18.7602698720943
20
-2.60539477609646
30
0
41
1
10
19.2935479670161
20
-2.65431144546048
30
0
41
1
10
19.5607390037243
20
-2.66846550943899
30
0
41
1
10
20.0951340938203
20
-2.6755917111752
30
0
41
1
10
20.3615974630648
20
-2.66856504620077
30
0
41
1
10
20.7926140854555
20
-2.64032895062701
30
0
41
1
10
20.9571406471863
20
-2.62556978494806
30
0
41
1
10
21.1218028137629
20
-2.60687356029345
30
0
0
SPLINE
5
B8
100
AcDbEntity
8
1
62
256
6
ByLayer
370
18
48
1
60
0
100
AcDbSpline
70
4
71
3
72
8
73
4
40
0
40
0
40
0
40
0
40
1
40
1
40
1
40
1
41
1
10
35.0683641462599
20
2.68777492677941
30
0
41
1
10
35.1347516632126
20
2.52431792569558
30
0
41
1
10
35.2020869412578
20
2.3572989994006
30
0
41
1
10
35.269579663175
20
2.18605046899407
30
0
0
SPLINE
5
B9
100
AcDbEntity
8
1
62
256
6
ByLayer
370
18
48
1
60
0
100
AcDbSpline
70
4
71
3
72
20
73
16
40
0
40
0
40
0
40
0
40
0.0031367402839081
40
0.0031367402839081
40
0.169280616903257
40
0.169280616903257
40
0.335424493522606
40
0.335424493522606
40
0.501568370141954
40
0.501568370141954
40
0.667712246761303
40
0.667712246761303
40
0.833856123380652
40
0.833856123380652
40
1
40
1
40
1
40
1
41
1
10
34.5443374337341
20
0.204821300593977
30
0
41
1
10
34.5447871549566
20
0.205091704391378
30
0
41
1
10
34.5452377628846
20
0.205364484201965
30
0
41
1
10
34.5696032473206
20
0.220213741105596
30
0
41
1
10
34.595977209269
20
0.241273076180306
30
0
41
1
10
34.6537183978891
20
0.296491060834143
30
0
41
1
10
34.6848858075446
20
0.330561595034084
30
0
41
1
10
34.7492999396766
20
0.408676683383391
30
0
41
1
10
34.7831805070987
20
0.453462783711757
30
0
41
1
10
34.8520349578124
20
0.551861774862459
30
0
41
1
10
34.8865944926249
20
0.604783120888442
30
0
41
1
10
34.955336818296
20
0.718025871733033
30
0
41
1
10
34.9897419599607
20
0.778711439517224
30
0
41
1
10
35.0535454406367
20
0.903595561394582
30
0
41
1
10
35.0837412198715
20
0.968110830234906
30
0
41
1
10
35.1074439332115
20
1.03680250586999
30
0
0
SPLINE
5
BA
100
AcDbEntity
8
1
62
256
6
ByLayer
370
18
48
1
60
0
100
AcDbSpline
70
4
71
4
72
10
73
5
40
0
40
0
40
0
40
0
40
0
40
1
40
1
40
1
40
1
40
1
41
1
10
12.6397419062611
20
-1.05979841242296
30
0
41
1
10
12.5063881886663
20
-1.40672478135428
30
0
41
1
10
12.3730344710715
20
-1.75365115028563
30
0
41
1
10
12.2396807534767
20
-2.10057751921698
30
0
41
1
10
12.1063270358819
20
-2.4475038881483
30
0
0
SPLINE
5
BB
100
AcDbEntity
8
1
62
256
6
ByLayer
370
18
48
1
60
0
100
AcDbSpline
70
4
71
3
72
12
73
8
40
0
40
0
40
0
40
0
40
0.500000000000003
40
0.500000000000003
40
0.750000000000001
40
0.750000000000001
40
1
40
1
40
1
40
1
41
1
10
10.6357263991182
20
-0.0961594895628082
30
0
41
1
10
11.2049426600286
20
-0.345255231494491
30
0
41
1
10
11.7764971270628
20
-0.583058420404313
30
0
41
1
10
12.6362383236778
20
-0.926313283641946
30
0
41
1
10
12.9232366153602
20
-1.03842756744234
30
0
41
1
10
13.4980499705675
20
-1.25798956131649
30
0
41
1
10
13.7866537295665
20
-1.36572389328518
30
0
41
1
10
14.0735924714365
20
-1.47012428259808
30
0
0
SPLINE
5
BC
100
AcDbEntity
8
1
62
256
6
ByLayer
370
18
48
1
60
0
100
AcDbSpline
70
4
71
3
72
52
73
48
40
0
40
0
40
0
40
0
40
0.0316320227363906
40
0.0316320227363906
40
0.096189887887298
40
0.096189887887298
40
0.128468820462751
40
0.128468820462751
40
0.160747753038205
40
0.160747753038205
40
0.225305618189112
40
0.225305618189112
40
0.257584550764566
40
0.257584550764566
40
0.289863483340019
40
0.289863483340019
40
0.322142415915473
40
0.322142415915473
40
0.354421348490927
40
0.354421348490927
40
0.418979213641835
40
0.418979213641835
40
0.451258146217289
40
0.451258146217289
40
0.483537078792743
40
0.483537078792743
40
0.515816011368197
40
0.515816011368197
40
0.548094943943651
40
0.548094943943651
40
0.612652809094559
40
0.612652809094559
40
0.644931741670012
40
0.644931741670012
40
0.677210674245465
40
0.677210674245465
40
0.741768539396372
40
0.741768539396372
40
0.806326404547279
40
0.806326404547279
40
0.870884269698187
40
0.870884269698187
40
0.90316320227364
40
0.90316320227364
40
0.935442134849094
40
0.935442134849094
40
1
40
1
40
1
40
1
41
1
10
14.7440344595772
20
1.7439510659886
30
0
41
1
10
14.9585012094722
20
1.8270812023089
30
0
41
1
10
15.1728331442383
20
1.90571016793186
30
0
41
1
10
15.8249595876084
20
2.13006050715757
30
0
41
1
10
16.2642359684598
20
2.26003109781777
30
0
41
1
10
16.9205424517863
20
2.41655672881066
30
0
41
1
10
17.1392049151717
20
2.46244718883094
30
0
41
1
10
17.5767847983254
20
2.54121212180112
30
0
41
1
10
17.7961356770963
20
2.57401037652562
30
0
41
1
10
18.453980498684
20
2.65157224967163
30
0
41
1
10
18.8904603786472
20
2.67551276064592
30
0
41
1
10
19.5470384722484
20
2.66886367416421
30
0
41
1
10
19.7664134855899
20
2.65952632749497
30
0
41
1
10
20.2045841995857
20
2.6268049281104
30
0
41
1
10
20.4232984197335
20
2.60347784002167
30
0
41
1
10
20.8604087226678
20
2.54311092849244
30
0
41
1
10
21.0789304211124
20
2.50612561238515
30
0
41
1
10
21.5166501004487
20
2.4190263148262
30
0
41
1
10
21.7361180014342
20
2.36876906676034
30
0
41
1
10
22.3928134591163
20
2.19966223237717
30
0
41
1
10
22.8292486014661
20
2.06287168366697
30
0
41
1
10
23.4857282546869
20
1.82622753141658
30
0
41
1
10
23.7051993249868
20
1.74211332867466
30
0
41
1
10
24.142784540774
20
1.56533417981859
30
0
41
1
10
24.3612103279677
20
1.47263346580186
30
0
41
1
10
24.7981879360768
20
1.28003248875507
30
0
41
1
10
25.016714215673
20
1.18009746879611
30
0
41
1
10
25.4543278042446
20
0.973728106285137
30
0
41
1
10
25.6736509722988
20
0.867495509967597
30
0
41
1
10
26.3298193646348
20
0.54386057494682
30
0
41
1
10
26.7657949727864
20
0.320038138358001
30
0
41
1
10
27.4225373356333
20
-0.0182468661745645
30
0
41
1
10
27.641641613708
20
-0.131606508072963
30
0
41
1
10
28.0787572526645
20
-0.356275243270403
30
0
41
1
10
28.297099643836
20
-0.467775084504865
30
0
41
1
10
28.9521076123684
20
-0.798558576497697
30
0
41
1
10
29.3906840098309
20
-1.01351110615016
30
0
41
1
10
30.2642629308982
20
-1.4172974390863
30
0
41
1
10
30.7003138114014
20
-1.60580793705842
30
0
41
1
10
31.5761844777049
20
-1.94735302121103
30
0
41
1
10
32.0121225538068
20
-2.09858004060632
30
0
41
1
10
32.6666786769762
20
-2.29043471111433
30
0
41
1
10
32.8850324688146
20
-2.34856889611044
30
0
41
1
10
33.3225447820944
20
-2.45258131193342
30
0
41
1
10
33.5412992867031
20
-2.49817102159184
30
0
41
1
10
34.1960728916043
20
-2.61453056003791
30
0
41
1
10
34.6312329866385
20
-2.6653448284994
30
0
41
1
10
35.0683641462599
20
-2.68777492677944
30
0
0
SPLINE
5
BD
100
AcDbEntity
8
1
62
256
6
ByLayer
370
18
48
1
60
0
100
AcDbSpline
70
4
71
3
72
42
73
38
40
0
40
0
40
0
40
0
40
0.0451688146851328
40
0.0451688146851328
40
0.09821499164707
40
0.09821499164707
40
0.151261168609007
40
0.151261168609007
40
0.204307345570944
40
0.204307345570944
40
0.257353522532882
40
0.257353522532882
40
0.363445876456756
40
0.363445876456756
40
0.469538230380631
40
0.469538230380631
40
0.522584407342568
40
0.522584407342568
40
0.575630584304504
40
0.575630584304504
40
0.628676761266441
40
0.628676761266441
40
0.681722938228378
40
0.681722938228378
40
0.734769115190314
40
0.734769115190314
40
0.787815292152251
40
0.787815292152251
40
0.840861469114188
40
0.840861469114188
40
0.893907646076124
40
0.893907646076124
40
0.946953823038061
40
0.946953823038061
40
0.973476911519031
40
0.973476911519031
40
1
40
1
40
1
40
1
41
1
10
19.9460329117548
20
2.67291445263714
30
0
41
1
10
20.1733617198946
20
2.67329337420679
30
0
41
1
10
20.4002374995407
20
2.66601257947084
30
0
41
1
10
20.8935657664544
20
2.63374029104693
30
0
41
1
10
21.159961787541
20
2.60587471146801
30
0
41
1
10
21.6939670892668
20
2.52963465833798
30
0
41
1
10
21.9612342816747
20
2.48127900587951
30
0
41
1
10
22.4942975675165
20
2.36574092968289
30
0
41
1
10
22.7605136494545
20
2.29845346322728
30
0
41
1
10
23.2936381244168
20
2.14603716802364
30
0
41
1
10
23.5610682749565
20
2.06073986840079
30
0
41
1
10
24.3612413357777
20
1.78204311161611
30
0
41
1
10
24.8927435728261
20
1.56568407289816
30
0
41
1
10
25.9612791476117
20
1.08777797603722
30
0
41
1
10
26.4925181872782
20
0.829114104879721
30
0
41
1
10
27.2924780561185
20
0.425522875082947
30
0
41
1
10
27.5597704749667
20
0.288573494964055
30
0
41
1
10
28.0925037735885
20
0.0140526223822235
30
0
41
1
10
28.3583983495759
20
-0.123910327420305
30
0
41
1
10
28.8909413973617
20
-0.397935357587329
30
0
41
1
10
29.1580972330892
20
-0.534265140488202
30
0
41
1
10
29.691454253668
20
-0.801351898127791
30
0
41
1
10
29.9574331229413
20
-0.93222140490164
30
0
41
1
10
30.4895822724285
20
-1.185695159278
30
0
41
1
10
30.7557615378417
20
-1.30829083246454
30
0
41
1
10
31.2895234187454
20
-1.54306047092501
30
0
41
1
10
31.5558470361308
20
-1.65479016799316
30
0
41
1
10
32.0876776940889
20
-1.8640165032522
30
0
41
1
10
32.3534016891272
20
-1.96160383031713
30
0
41
1
10
32.8856316586942
20
-2.14111235568649
30
0
41
1
10
33.1526233368093
20
-2.22327749409803
30
0
41
1
10
33.6852640172932
20
-2.36901986046109
30
0
41
1
10
33.9509926836748
20
-2.43265027386818
30
0
41
1
10
34.3495735501622
20
-2.51357624117523
30
0
41
1
10
34.4824298833485
20
-2.53813241135023
30
0
41
1
10
34.7482794559966
20
-2.58228760940443
30
0
41
1
10
34.8810599830495
20
-2.60198665667181
30
0
41
1
10
35.0144469155852
20
-2.61892526842084
30
0
0
SPLINE
5
BE
100
AcDbEntity
8
1
62
256
6
ByLayer
370
18
48
1
60
0
100
AcDbSpline
70
4
71
3
72
34
73
30
40
0
40
0
40
0
40
0
40
0.125000000000003
40
0.125000000000003
40
0.250000000000005
40
0.250000000000005
40
0.375000000000008
40
0.375000000000008
40
0.437500000000007
40
0.437500000000007
40
0.500000000000007
40
0.500000000000007
40
0.562500000000006
40
0.562500000000006
40
0.625000000000005
40
0.625000000000005
40
0.687500000000005
40
0.687500000000005
40
0.718750000000004
40
0.718750000000004
40
0.750000000000004
40
0.750000000000004
40
0.812500000000003
40
0.812500000000003
40
0.875000000000002
40
0.875000000000002
40
0.937500000000001
40
0.937500000000001
40
1
40
1
40
1
40
1
41
1
10
9.12654862291927
20
-2.58350779297166
30
0
41
1
10
8.97795042382987
20
-2.56254765007253
30
0
41
1
10
8.83170303810113
20
-2.53640030121309
30
0
41
1
10
8.54500888849654
20
-2.47100983425708
30
0
41
1
10
8.40454114994756
20
-2.43181854552213
30
0
41
1
10
8.13128290255304
20
-2.33569503682026
30
0
41
1
10
7.99820139352016
20
-2.27856620018804
30
0
41
1
10
7.81189623980242
20
-2.17582829415775
30
0
41
1
10
7.75185096378735
20
-2.13866312882968
30
0
41
1
10
7.63682612105606
20
-2.05707723458156
30
0
41
1
10
7.58214205138194
20
-2.01281320999522
30
0
41
1
10
7.48115791657864
20
-1.91714842359741
30
0
41
1
10
7.43462608409504
20
-1.86561034650035
30
0
41
1
10
7.35139264948594
20
-1.75327048585757
30
0
41
1
10
7.3143888527095
20
-1.69173838617746
30
0
41
1
10
7.25513254935228
20
-1.56098057248226
30
0
41
1
10
7.23271321188616
20
-1.49184960485584
30
0
41
1
10
7.21150851977862
20
-1.38165030878398
30
0
41
1
10
7.20652626055534
20
-1.34362637035659
30
0
41
1
10
7.20114206006269
20
-1.26714785913291
30
0
41
1
10
7.20068415512839
20
-1.22852257594488
30
0
41
1
10
7.20586384577928
20
-1.11151038720772
30
0
41
1
10
7.21820270807387
20
-1.03138417384403
30
0
41
1
10
7.25923268540942
20
-0.870891825749339
30
0
41
1
10
7.28740543868742
20
-0.791911695293436
30
0
41
1
10
7.35652137891969
20
-0.636063824454766
30
0
41
1
10
7.3976341601894
20
-0.559133621259008
30
0
41
1
10
7.48782697475073
20
-0.411618768044889
30
0
41
1
10
7.53719579632684
20
-0.340341318456751
30
0
41
1
10
7.58999909830337
20
-0.27105959368032
30
0
0
SPLINE
5
BF
100
AcDbEntity
8
1
62
256
6
ByLayer
370
18
48
1
60
0
100
AcDbSpline
70
4
71
2
72
6
73
3
40
0
40
0
40
0
40
1
40
1
40
1
41
0.500000036135179
10
35.0154926084079
20
-2.61963751037523
30
0
41
0.499999963864821
10
35.014969448928
20
-2.61928215805199
30
0
41
0.500000036135179
10
35.0144469155842
20
-2.61892526842244
30
0
0
SPLINE
5
C0
100
AcDbEntity
8
1
62
256
6
ByLayer
370
18
48
1
60
0
100
AcDbSpline
70
4
71
3
72
16
73
12
40
0
40
0
40
0
40
0
40
0.249999999999999
40
0.249999999999999
40
0.499999999999999
40
0.499999999999999
40
0.624999999999999
40
0.624999999999999
40
0.749999999999998
40
0.749999999999998
40
1
40
1
40
1
40
1
41
1
10
34.7002538618797
20
0.118502531896752
30
0
41
1
10
34.6757845133796
20
-0.0209533557892314
30
0
41
1
10
34.6567861075494
20
-0.161609625589477
30
0
41
1
10
34.6305715760217
20
-0.441126041131128
30
0
41
1
10
34.6234574394314
20
-0.578290377162404
30
0
41
1
10
34.6216273968139
20
-0.780210359155916
30
0
41
1
10
34.6224979601742
20
-0.846876214625667
30
0
41
1
10
34.6272618006616
20
-0.978899672132087
30
0
41
1
10
34.6311831548257
20
-1.04446022639641
30
0
41
1
10
34.6473276269536
20
-1.23586142164163
30
0
41
1
10
34.663898050244
20
-1.3574082524693
30
0
41
1
10
34.6861507336292
20
-1.47303161299939
30
0
0
SPLINE
5
C1
100
AcDbEntity
8
1
62
256
6
ByLayer
370
18
48
1
60
0
100
AcDbSpline
70
4
71
3
72
8
73
4
40
0
40
0
40
0
40
0
40
1
40
1
40
1
40
1
41
1
10
35.5190892633255
20
-0.804326200749216
30
0
41
1
10
35.5315911390873
20
-0.800962460857846
30
0
41
1
10
35.5443417113118
20
-0.796321813707607
30
0
41
1
10
35.5573501897998
20
-0.790356972492049
30
0
0
SPLINE
5
C2
100
AcDbEntity
8
1
62
256
6
ByLayer
370
18
48
1
60
0
100
AcDbSpline
70
4
71
3
72
8
73
4
40
0
40
0
40
0
40
0
40
1
40
1
40
1
40
1
41
1
10
35.9998399542907
20
0.0557141336631446
30
0
41
1
10
35.9929916113382
20
0.07518910982958
30
0
41
1
10
35.9861710134902
20
0.0946864374589325
30
0
41
1
10
35.9793777640283
20
0.114206154142181
30
0
0
SPLINE
5
C3
100
AcDbEntity
8
1
62
256
6
ByLayer
370
18
48
1
60
0
100
AcDbSpline
70
4
71
3
72
8
73
4
40
0
40
0
40
0
40
0
40
1
40
1
40
1
40
1
41
1
10
35.9793777640283
20
0.114206154142181
30
0
41
1
10
35.739429013814
20
0.803674669753377
30
0
41
1
10
35.5028184914756
20
1.49428562367393
30
0
41
1
10
35.2695796631749
20
2.18605046899407
30
0
0
SPLINE
5
C4
100
AcDbEntity
8
1
62
256
6
ByLayer
370
13
48
1
60
0
100
AcDbSpline
70
4
71
3
72
9
73
5
40
0
40
0
40
0
40
0
40
0.250481351981755
40
1
40
1
40
1
40
1
41
1
10
12.9159696533457
20
-1.03799648432601
30
0
41
1
10
12.8929081997412
20
-1.0399354233644
30
0
41
1
10
12.8008389569705
20
-1.0475548363743
30
0
41
1
10
12.7087592886
20
-1.05470696467617
30
0
41
1
10
12.6397419062611
20
-1.05979841242296
30
0
0
SPLINE
5
C5
100
AcDbEntity
8
1
62
256
6
ByLayer
370
18
48
1
60
0
100
AcDbSpline
70
4
71
3
72
8
73
4
40
0
40
0
40
0
40
0
40
1
40
1
40
1
40
1
41
1
10
35.9998399542903
20
-0.0557141336641109
30
0
41
1
10
35.99298984794
20
-0.0751941244936347
30
0
41
1
10
35.986169257869
20
-0.0946914820593463
30
0
41
1
10
35.9793777640283
20
-0.114206154142209
30
0
0
SPLINE
5
C6
100
AcDbEntity
8
1
62
256
6
ByLayer
370
18
48
1
60
0
100
AcDbSpline
70
4
71
3
72
8
73
4
40
0
40
0
40
0
40
0
40
1
40
1
40
1
40
1
41
1
10
35.9998399542907
20
0.0557141336631446
30
0
41
1
10
36.0000533485692
20
0.0185713778873264
30
0
41
1
10
36.0000533485692
20
-0.0185713778885201
30
0
41
1
10
35.9998399542907
20
-0.0557141336643667
30
0
0
SPLINE
5
C7
100
AcDbEntity
8
1
62
256
6
ByLayer
370
13
48
1
60
0
100
AcDbSpline
70
4
71
3
72
85
73
81
40
0
40
0
40
0
40
0
40
0.0080949640826487
40
0.0178234917433923
40
0.0372805470648797
40
0.0470090747256237
40
0.0567376023863686
40
0.0761946577078546
40
0.0859231853685979
40
0.0956517130293411
40
0.115108768350829
40
0.124837296011572
40
0.134565823672317
40
0.154022878993804
40
0.163751406654547
40
0.173479934315291
40
0.192936989636779
40
0.202665517297522
40
0.212394044958266
40
0.231851100279754
40
0.241579627940497
40
0.251308155601243
40
0.270765210922729
40
0.280493738583472
40
0.290222266244216
40
0.309679321565703
40
0.319407849226446
40
0.329136376887191
40
0.348593432208678
40
0.358321959869422
40
0.368050487530166
40
0.387507542851653
40
0.397236070512397
40
0.406964598173141
40
0.426421653494628
40
0.436150181155372
40
0.445878708816116
40
0.465335764137603
40
0.475064291798346
40
0.48479281945909
40
0.504249874780577
40
0.513978402441321
40
0.523706930102065
40
0.543163985423552
40
0.552892513084296
40
0.56262104074504
40
0.582078096066527
40
0.591806623727271
40
0.601535151388014
40
0.620992206709502
40
0.630720734370245
40
0.640449262030989
40
0.659906317352477
40
0.669634845013221
40
0.679363372673964
40
0.698820427995451
40
0.708548955656195
40
0.718277483316939
40
0.737734538638426
40
0.74746306629917
40
0.757191593959913
40
0.776648649281401
40
0.786377176942145
40
0.796105704602888
40
0.815562759924376
40
0.825291287585119
40
0.835019815245863
40
0.854476870567351
40
0.864205398228095
40
0.873933925888838
40
0.893390981210325
40
0.903119508871069
40
0.912848036531813
40
0.9323050918533
40
0.942033619514044
40
0.951762147174788
40
0.971219202496275
40
0.980947730157019
40
0.990676257817762
40
1
40
1
40
1
40
1
41
1
10
27.1574074405775
20
-0.0471802612829321
30
0
41
1
10
27.1286972038482
20
-0.0409608733200172
30
0
41
1
10
27.0654832258225
20
-0.027260347370202
30
0
41
1
10
26.9332494623327
20
0.0013306774286548
30
0
41
1
10
26.7952289105803
20
0.0312238656052556
30
0
41
1
10
26.6572146993928
20
0.061137142948695
30
0
41
1
10
26.5191867500953
20
0.0909238113297589
30
0
41
1
10
26.3811662982028
20
0.120691959906338
30
0
41
1
10
26.2431521774633
20
0.150409767341557
30
0
41
1
10
26.1051242984675
20
0.179947994603196
30
0
41
1
10
25.9671038892162
20
0.209398350147239
30
0
41
1
10
25.8290897774899
20
0.238729598325164
30
0
41
1
10
25.6910618876024
20
0.267830295191487
30
0
41
1
10
25.5530414520911
20
0.296775574629975
30
0
41
1
10
25.4150273219795
20
0.325534892262538
30
0
41
1
10
25.2769994182296
20
0.35401488525602
30
0
41
1
10
25.1389789812536
20
0.382273959858196
30
0
41
1
10
25.0009648736369
20
0.410282360735635
30
0
41
1
10
24.8629369962076
20
0.437964500236745
30
0
41
1
10
24.724916568221
20
0.465360868583047
30
0
41
1
10
24.5869024164937
20
0.492440971905352
30
0
41
1
10
24.448874479902
20
0.519148807421145
30
0
41
1
10
24.3108539799545
20
0.545506897139034
30
0
41
1
10
24.1728397707299
20
0.57148574638657
30
0
41
1
10
24.0348117943949
20
0.597049056832104
30
0
41
1
10
23.896791288937
20
0.622201375846997
30
0
41
1
10
23.7587771183548
20
0.646914296654898
30
0
41
1
10
23.620749200382
20
0.671171283160844
30
0
41
1
10
23.4827287833219
20
0.694958943634133
30
0
41
1
10
23.3447147173088
20
0.718250023813936
30
0
41
1
10
23.2066868865205
20
0.741047735618507
30
0
41
1
10
23.0686665123998
20
0.763320786304574
30
0
41
1
10
22.930652407367
20
0.785043066320553
30
0
41
1
10
22.792624501135
20
0.806237554306192
30
0
41
1
10
22.6546040124289
20
0.82685520563595
30
0
41
1
10
22.5165897997932
20
0.846871226720707
30
0
41
1
10
22.3785618085284
20
0.866328223327541
30
0
41
1
10
22.2405412687957
20
0.885159574751951
30
0
41
1
10
22.1025270444183
20
0.903341844292042
30
0
41
1
10
21.9644990653325
20
0.920937105191795
30
0
41
1
10
21.826478575469
20
0.937861382623394
30
0
41
1
10
21.6884644387273
20
0.954092639808719
30
0
41
1
10
21.5504365604436
20
0.969712742746223
30
0
41
1
10
21.4124161780399
20
0.984621736551956
30
0
41
1
10
21.2744021228661
20
0.998800686561365
30
0
41
1
10
21.1363743032902
20
1.01234930518623
30
0
41
1
10
20.9983539479908
20
1.02515196066372
30
0
41
1
10
20.8603398821111
20
1.03719118156132
30
0
41
1
10
20.7223120175444
20
1.04858419898124
30
0
41
1
10
20.5842915712816
20
1.05920005324717
30
0
41
1
10
20.4462773864753
20
1.06902275552909
30
0
41
1
10
20.3082494125718
20
1.07818667331713
30
0
41
1
10
20.1702288863769
20
1.08654593958494
30
0
41
1
10
20.0322147003298
20
1.09408612534156
30
0
41
1
10
19.894186777248
20
1.10095924861539
30
0
41
1
10
19.7561663529322
20
1.10700694784159
30
0
41
1
10
19.6181522608086
20
1.11221929563265
30
0
41
1
10
19.4801244103991
20
1.11676249459995
30
0
41
1
10
19.3421040297224
20
1.12046613032342
30
0
41
1
10
19.2040899443895
20
1.12332175824855
30
0
41
1
10
19.0660620757864
20
1.12550925526901
30
0
41
1
10
18.9280416528844
20
1.12684665681917
30
0
41
1
10
18.7900275229491
20
1.12732703080292
30
0
41
1
10
18.6519996108946
20
1.12714333894223
30
0
41
1
10
18.5139791538978
20
1.12610259324958
30
0
41
1
10
18.3759650198125
20
1.12419933949866
30
0
41
1
10
18.2379371175042
20
1.12164030681373
30
0
41
1
10
18.0999166679205
20
1.11822462884385
30
0
41
1
10
17.9619025023921
20
1.11395218840559
30
0
41
1
10
17.8238745569253
20
1.10903893214737
30
0
41
1
10
17.6858540539555
20
1.10327667630858
30
0
41
1
10
17.547839842898
20
1.09666670136505
30
0
41
1
10
17.4098118633997
20
1.08943350408054
30
0
41
1
10
17.2717913539439
20
1.08136217188726
30
0
41
1
10
17.1337771793213
20
1.07245534097211
30
0
41
1
10
16.9957492572534
20
1.06294534430029
30
0
41
1
10
16.8577288368238
20
1.05261111676623
30
0
41
1
10
16.7197147679087
20
1.04145654827934
30
0
41
1
10
16.6176296596319
20
1.03277820181546
30
0
41
1
10
16.5500538923428
20
1.02677674264436
30
0
41
1
10
16.5169843946485
20
1.02377867701637
30
0
0
SPLINE
5
C8
100
AcDbEntity
8
1
62
256
6
ByLayer
370
13
48
1
60
0
100
AcDbSpline
70
4
71
3
72
22
73
18
40
0
40
0
40
0
40
0
40
0.146076014307518
40
0.146076014307518
40
0.292152028615037
40
0.292152028615037
40
0.438228042922556
40
0.438228042922556
40
0.584304057230074
40
0.584304057230074
40
0.730380071537593
40
0.730380071537593
40
0.803418078691352
40
0.803418078691352
40
0.876456085845111
40
0.876456085845111
40
1
40
1
40
1
40
1
41
1
10
9.51029041921583
20
1.2741897992606
30
0
41
1
10
9.5102167795761
20
1.38905497062319
30
0
41
1
10
9.51014733603486
20
1.49810579007251
30
0
41
1
10
9.51001779840777
20
1.70466920187417
30
0
41
1
10
9.50995816255019
20
1.801474442592
30
0
41
1
10
9.50985128883775
20
1.97877820505994
30
0
41
1
10
9.50980366404426
20
2.0598899654012
30
0
41
1
10
9.50971945560815
20
2.20684501819417
30
0
41
1
10
9.50968284205334
20
2.27277665244088
30
0
41
1
10
9.50962172926626
20
2.38474335566653
30
0
41
1
10
9.50959683495236
20
2.43145827984634
30
0
41
1
10
9.50956634300817
20
2.48766097875225
30
0
41
1
10
9.50955732206592
20
2.5040738029127
30
0
41
1
10
9.50954129957611
20
2.5321388506286
30
0
41
1
10
9.50953432059609
20
2.54374223678232
30
0
41
1
10
9.50951810683944
20
2.56804261074964
30
0
41
1
10
9.50951053737097
20
2.57616206992111
30
0
41
1
10
9.50950470280179
20
2.57723155710025
30
0
0
SPLINE
5
C9
100
AcDbEntity
8
1
62
256
6
ByLayer
370
18
48
1
60
0
100
AcDbSpline
70
4
71
3
72
18
73
14
40
0
40
0
40
0
40
0
40
0.250000000000013
40
0.250000000000013
40
0.375000000000013
40
0.375000000000013
40
0.500000000000013
40
0.500000000000013
40
0.625000000000013
40
0.625000000000013
40
0.750000000000013
40
0.750000000000013
40
1
40
1
40
1
40
1
41
1
10
35.5573501897984
20
-0.790356972491537
30
0
41
1
10
35.5912863082635
20
-0.758745545396152
30
0
41
1
10
35.6271207119842
20
-0.714250854568974
30
0
41
1
10
35.6839099090098
20
-0.629705489183038
30
0
41
1
10
35.7033221336031
20
-0.598504419249053
30
0
41
1
10
35.7419284735317
20
-0.532233295252325
30
0
41
1
10
35.7612779497854
20
-0.496938860926264
30
0
41
1
10
35.8000510449236
20
-0.422207343797993
30
0
41
1
10
35.8195979075189
20
-0.382492455894521
30
0
41
1
10
35.8578399221831
20
-0.300809756302328
30
0
41
1
10
35.8765930023376
20
-0.25875719527869
30
0
41
1
10
35.9317242712793
20
-0.129156758556803
30
0
41
1
10
35.9671861060101
20
-0.0375578300835002
30
0
41
1
10
35.9998399542907
20
0.0557141336631446
30
0
0
SPLINE
5
CA
100
AcDbEntity
8
1
62
256
6
ByLayer
370
18
48
1
60
0
100
AcDbSpline
70
4
71
3
72
8
73
4
40
0
40
0
40
0
40
0
40
1
40
1
40
1
40
1
41
1
10
34.7002538618797
20
0.118502531896723
30
0
41
1
10
34.8136836192245
20
0.0897385440630103
30
0
41
1
10
34.9276678889573
20
0.0644406654324712
30
0
41
1
10
35.0422474021376
20
0.0428634950057187
30
0
0
SPLINE
5
CB
100
AcDbEntity
8
1
62
256
6
ByLayer
370
18
48
1
60
0
100
AcDbSpline
70
4
71
3
72
22
73
18
40
0
40
0
40
0
40
0
40
0.0776701550636571
40
0.0776701550636571
40
0.231391795886381
40
0.231391795886381
40
0.308252616297743
40
0.308252616297743
40
0.385113436709105
40
0.385113436709105
40
0.538835077531829
40
0.538835077531829
40
0.615695897943191
40
0.615695897943191
40
0.692556718354553
40
0.692556718354553
40
1
40
1
40
1
40
1
41
1
10
9.12581249460908
20
2.6533987315392
30
0
41
1
10
9.12572791883247
20
2.65339340110469
30
0
41
1
10
9.12564337769692
20
2.65069845715678
30
0
41
1
10
9.12539416685195
20
2.63465595188632
30
0
41
1
10
9.12523099015266
20
2.61366742370191
30
0
41
1
10
9.12498512156668
20
2.56680081110508
30
0
41
1
10
9.12490293647596
20
2.54860345998972
30
0
41
1
10
9.12473673507765
20
2.50693798041414
30
0
41
1
10
9.12465258491704
20
2.48340759789377
30
0
41
1
10
9.12439917623925
20
2.406091093632
30
0
41
1
10
9.12422766798372
20
2.34530249184968
30
0
41
1
10
9.12395426465383
20
2.24053751386481
30
0
41
1
10
9.12386040989981
20
2.20334206217294
30
0
41
1
10
9.12366476138104
20
2.12432878380866
30
0
41
1
10
9.12356253826721
20
2.08233254605881
30
0
41
1
10
9.12302976933307
20
1.86263895860503
30
0
41
1
10
9.12254165534318
20
1.65897323747473
30
0
41
1
10
9.12190893634522
20
1.42731370884667
30
0
0
SPLINE
5
CC
100
AcDbEntity
8
1
62
256
6
ByLayer
370
13
48
1
60
0
100
AcDbSpline
70
4
71
3
72
30
73
26
40
0
40
0
40
0
40
0
40
0.0473512615380819
40
0.0473512615380819
40
0.120631933727458
40
0.120631933727458
40
0.267193278106209
40
0.267193278106209
40
0.340473950295586
40
0.340473950295586
40
0.377114286390275
40
0.377114286390275
40
0.413754622484964
40
0.413754622484964
40
0.560315966863725
40
0.560315966863725
40
0.633596639053104
40
0.633596639053104
40
0.670236975147795
40
0.670236975147795
40
0.706877311242485
40
0.706877311242485
40
0.853438655621243
40
0.853438655621243
40
1
40
1
40
1
40
1
41
1
10
20.3602943794649
20
-2.5946707036891
30
0
41
1
10
20.1879534795352
20
-2.59412386806218
30
0
41
1
10
20.0155098001113
20
-2.58936000378952
30
0
41
1
10
19.5775989600988
20
-2.56648402662324
30
0
41
1
10
19.3127822090924
20
-2.54245629052568
30
0
41
1
10
18.5197564591497
20
-2.44084289048672
30
0
41
1
10
17.9931529693858
20
-2.33546333537535
30
0
41
1
10
17.1992636467758
20
-2.12426824800647
30
0
41
1
10
16.9339950006118
20
-2.04526641995167
30
0
41
1
10
16.5340617592824
20
-1.91458910813617
30
0
41
1
10
16.4003755850313
20
-1.86899795924288
30
0
41
1
10
16.1340647495238
20
-1.77464788515752
30
0
41
1
10
16.0012032760461
20
-1.72582066134424
30
0
41
1
10
15.3379909709287
20
-1.47401776174223
30
0
41
1
10
14.8109243417494
20
-1.24770728019064
30
0
41
1
10
14.0183752390009
20
-0.884652633181929
30
0
41
1
10
13.7539103773761
20
-0.759625315880811
30
0
41
1
10
13.3557014417087
20
-0.567859589603444
30
0
41
1
10
13.2227149386758
20
-0.50324040865587
30
0
41
1
10
12.9561801981024
20
-0.372827670384169
30
0
41
1
10
12.8224335754427
20
-0.30692798097914
30
0
41
1
10
12.1558885228985
20
0.0224811160352658
30
0
41
1
10
11.6275321955774
20
0.286915225755564
30
0
41
1
10
10.5710454971418
20
0.79815977702475
30
0
41
1
10
10.0430444361253
20
1.04537694130133
30
0
41
1
10
9.51029041921581
20
1.2741897992606
30
0
0
SPLINE
5
CD
100
AcDbEntity
8
1
62
256
6
ByLayer
370
13
48
1
60
0
100
AcDbSpline
70
4
71
3
72
10
73
6
40
0
40
0
40
0
40
0
40
0.133557286022648
40
0.133557286022648
40
1
40
1
40
1
40
1
41
1
10
9.50950470063401
20
-2.57723195416239
30
0
41
1
10
9.50950363731863
20
-2.5774265578797
30
0
41
1
10
9.50950263162915
20
-2.57738697761798
30
0
41
1
10
9.50949549294245
20
-2.57534182995067
30
0
41
1
10
9.50949150483211
20
-2.56363989913842
30
0
41
1
10
9.50948842766232
20
-2.54181166143348
30
0
0
SPLINE
5
CE
100
AcDbEntity
8
1
62
256
6
ByLayer
370
18
48
1
60
0
100
AcDbSpline
70
4
71
3
72
8
73
4
40
0
40
0
40
0
40
0
40
1
40
1
40
1
40
1
41
1
10
35.0683641462599
20
-2.68777492677941
30
0
41
1
10
35.0478576066302
20
-2.6749595589551
30
0
41
1
10
35.0303952068908
20
-2.65232845972176
30
0
41
1
10
35.0154926084073
20
-2.61963751037368
30
0
0
SPLINE
5
CF
100
AcDbEntity
8
1
62
256
6
ByLayer
370
18
48
1
60
0
100
AcDbSpline
70
4
71
1
72
4
73
2
40
0
40
0
40
1
40
1
41
1
10
35.0154926084077
20
-2.61963751037513
30
0
41
1
10
35.5573501898001
20
-0.790356972490315
30
0
0
SPLINE
5
D0
100
AcDbEntity
8
1
62
256
6
ByLayer
370
13
48
1
60
0
100
AcDbSpline
70
4
71
3
72
32
73
28
40
0
40
0
40
0
40
0
40
0.121960710663159
40
0.121960710663159
40
0.18294106599474
40
0.18294106599474
40
0.243921421326321
40
0.243921421326321
40
0.304901776657902
40
0.304901776657902
40
0.365882131989483
40
0.365882131989483
40
0.487842842652645
40
0.487842842652645
40
0.609803553315807
40
0.609803553315807
40
0.670783908647388
40
0.670783908647388
40
0.731764263978969
40
0.731764263978969
40
0.853724974642131
40
0.853724974642131
40
0.914705329973712
40
0.914705329973712
40
0.975685685305293
40
0.975685685305293
40
1
40
1
40
1
40
1
41
1
10
34.9642356934152
20
-2.47285865428964
30
0
41
1
10
34.4318799030555
20
-2.38298089109907
30
0
41
1
10
33.9034673000748
20
-2.25542291579802
30
0
41
1
10
33.1100257232119
20
-2.01479324026604
30
0
41
1
10
32.8453057815943
20
-1.92643153105777
30
0
41
1
10
32.3140344419636
20
-1.73504346038854
30
0
41
1
10
32.0471510756441
20
-1.63171341011892
30
0
41
1
10
31.5152494180672
20
-1.41371211913847
30
0
41
1
10
31.2497291511015
20
-1.29893050657179
30
0
41
1
10
30.7180578787129
20
-1.06035223439932
30
0
41
1
10
30.4515677028522
20
-0.936176704596761
30
0
41
1
10
29.6528843267831
20
-0.554247420656282
30
0
41
1
10
29.1254064084933
20
-0.290055933295832
30
0
41
1
10
28.0712966147056
20
0.238946170525423
30
0
41
1
10
27.5442962628235
20
0.503001869056504
30
0
41
1
10
26.7472555100397
20
0.884965281579184
30
0
41
1
10
26.4801739917537
20
1.01012578402478
30
0
41
1
10
25.9494796740618
20
1.2487882293596
30
0
41
1
10
25.6851534310067
20
1.36335201601719
30
0
41
1
10
24.8934476682416
20
1.68946303477506
30
0
41
1
10
24.3673045811294
20
1.88320036469861
30
0
41
1
10
23.5732019573874
20
2.12714519800718
30
0
41
1
10
23.3075817050559
20
2.20074321489818
30
0
41
1
10
22.7738965919221
20
2.33080915445504
30
0
41
1
10
22.5074256829569
20
2.38674084258102
30
0
41
1
10
22.1342469940728
20
2.45138076907332
30
0
41
1
10
22.0279574923202
20
2.4682715570801
30
0
41
1
10
21.9217308867718
20
2.48360651298808
30
0
0
SPLINE
5
D1
100
AcDbEntity
8
1
62
256
6
ByLayer
370
18
48
1
60
0
100
AcDbSpline
70
4
71
3
72
8
73
4
40
0
40
0
40
0
40
0
40
1
40
1
40
1
40
1
41
1
10
35.9793777640328
20
-0.114206154129278
30
0
41
1
10
35.739427439401
20
-0.803679193670121
30
0
41
1
10
35.5028169560112
20
-1.4942901777199
30
0
41
1
10
35.2695796631749
20
-2.18605046899413
30
0
0
SPLINE
5
D2
100
AcDbEntity
8
1
62
256
6
ByLayer
370
18
48
1
60
0
100
AcDbSpline
70
4
71
3
72
10
73
6
40
0
40
0
40
0
40
0
40
0.668946059444585
40
0.668946059444585
40
1
40
1
40
1
40
1
41
1
10
9.12654862291842
20
-2.5835077929716
30
0
41
1
10
9.12639002863216
20
-2.6145208714984
30
0
41
1
10
9.12622613171618
20
-2.63526543063597
30
0
41
1
10
9.12597812869365
20
-2.65083209460542
30
0
41
1
10
9.12589525629897
20
-2.65340555044816
30
0
41
1
10
9.12581241738684
20
-2.6533987259248
30
0
0
SPLINE
5
D3
100
AcDbEntity
8
1
62
256
6
ByLayer
370
18
48
1
60
0
100
AcDbSpline
70
4
71
3
72
16
73
12
40
0
40
0
40
0
40
0
40
0.255902261251162
40
0.255902261251162
40
0.511804522502324
40
0.511804522502324
40
0.639755653127905
40
0.639755653127905
40
0.767706783753486
40
0.767706783753486
40
1
40
1
40
1
40
1
41
1
10
14.0735924714365
20
-1.47012428259808
30
0
41
1
10
14.5125180141159
20
-1.65817079292893
30
0
41
1
10
14.9497775869659
20
-1.82898097589191
30
0
41
1
10
15.8252963301396
20
-2.13016798681275
30
0
41
1
10
16.2646561409833
20
-2.26015093140447
30
0
41
1
10
16.9210886735706
20
-2.41667717052545
30
0
41
1
10
17.1397928278018
20
-2.46256567722915
30
0
41
1
10
17.5774575218656
20
-2.54132051298478
30
0
41
1
10
17.7968524636942
20
-2.57411087771686
30
0
41
1
10
18.4143525550508
20
-2.64687088916639
30
0
41
1
10
18.810814350246
20
-2.6708991218394
30
0
41
1
10
19.2080444618671
20
-2.67158460422908
30
0
0
SPLINE
5
D4
100
AcDbEntity
8
1
62
256
6
ByLayer
370
18
48
1
60
0
100
AcDbSpline
70
4
71
3
72
14
73
10
40
0
40
0
40
0
40
0
40
0.0108800915690177
40
0.0108800915690177
40
0.340586727712678
40
0.340586727712678
40
0.670293363856339
40
0.670293363856339
40
1
40
1
40
1
40
1
41
1
10
31.098171336145
20
1.76090128842043
30
0
41
1
10
31.1126220534949
20
1.76657319809726
30
0
41
1
10
31.1270747451523
20
1.77222591587565
30
0
41
1
10
31.579561717147
20
1.94857098622768
30
0
41
1
10
32.0156999153082
20
2.09977479173577
30
0
41
1
10
32.8892538623653
20
2.35552540761128
30
0
41
1
10
33.3276366477236
20
2.4603535668102
30
0
41
1
10
34.1989252240097
20
2.61488369591214
30
0
41
1
10
34.6328540841555
20
2.66542801034501
30
0
41
1
10
35.0683641462598
20
2.68777492677941
30
0
0
SPLINE
5
D5
100
AcDbEntity
8
1
62
256
6
ByLayer
370
18
48
1
60
0
100
AcDbSpline
70
4
71
3
72
10
73
6
40
0
40
0
40
0
40
0
40
0.573118673686471
40
0.573118673686471
40
1
40
1
40
1
40
1
41
1
10
35.0422474021374
20
0.0428634950057756
30
0
41
1
10
34.9633358724013
20
0.0752123853133355
30
0
41
1
10
34.8852114081158
20
0.105822654970808
30
0
41
1
10
34.7553917539938
20
0.152768448132719
30
0
41
1
10
34.7017622014168
20
0.170875562273835
30
0
41
1
10
34.6525171688239
20
0.185787990197696
30
0
0
SPLINE
5
D6
100
AcDbEntity
8
1
62
256
6
ByLayer
370
18
48
1
60
0
100
AcDbSpline
70
4
71
3
72
22
73
18
40
0
40
0
40
0
40
0
40
0.0625000000000008
40
0.0625000000000008
40
0.125000000000002
40
0.125000000000002
40
0.187500000000002
40
0.187500000000002
40
0.250000000000003
40
0.250000000000003
40
0.375000000000005
40
0.375000000000005
40
0.500000000000007
40
0.500000000000007
40
0.750000000000003
40
0.750000000000003
40
1
40
1
40
1
40
1
41
1
10
7.58999909830334
20
-0.271059593680292
30
0
41
1
10
7.63077815647824
20
-0.217554540409765
30
0
41
1
10
7.68110802008789
20
-0.170907733780922
30
0
41
1
10
7.78896491210932
20
-0.090011135790661
30
0
41
1
10
7.8466100331982
20
-0.0554744009222077
30
0
41
1
10
7.96677639634669
20
0.0058263151079814
30
0
41
1
10
8.02930545626998
20
0.0324428667028371
30
0
41
1
10
8.15531731275817
20
0.0787718273589348
30
0
41
1
10
8.21921213354671
20
0.0986639548174821
30
0
41
1
10
8.41299407925004
20
0.150629993359559
30
0
41
1
10
8.54540635447967
20
0.175164488303523
30
0
41
1
10
8.81250965193254
20
0.208229621303644
30
0
41
1
10
8.94579536108498
20
0.2165623051973
30
0
41
1
10
9.344971075074
20
0.220621756020961
30
0
41
1
10
9.61061830108724
20
0.195716321861227
30
0
41
1
10
10.138356912587
20
0.0899677718333294
30
0
41
1
10
10.3921704175476
20
0.0104234773998826
30
0
41
1
10
10.6357263991181
20
-0.0961594895627229
30
0
0
SPLINE
5
D7
100
AcDbEntity
8
1
62
256
6
ByLayer
370
13
48
1
60
0
100
AcDbSpline
70
4
71
3
72
10
73
6
40
0
40
0
40
0
40
0
40
0.5
40
0.5
40
1
40
1
40
1
40
1
41
1
10
9.51029041921581
20
1.27418979926063
30
0
41
1
10
9.44361189264185
20
1.29420324707101
30
0
41
1
10
9.37780400287252
20
1.3167344380216
30
0
41
1
10
9.24819676540818
20
1.36749254861456
30
0
41
1
10
9.1840985850983
20
1.39586598555343
30
0
41
1
10
9.12190893634534
20
1.42731370884462
30
0
0
SPLINE
5
D8
100
AcDbEntity
8
1
62
256
6
ByLayer
370
18
48
1
60
0
100
AcDbSpline
70
4
71
3
72
10
73
6
40
0
40
0
40
0
40
0
40
0.5
40
0.5
40
1
40
1
40
1
40
1
41
1
10
9.50948842766232
20
-2.54181166143348
30
0
41
1
10
9.44739932233281
20
-2.53584901458555
30
0
41
1
10
9.38446877155067
20
-2.53529393995899
30
0
41
1
10
9.2564414881451
20
-2.54793976515296
30
0
41
1
10
9.19074285654304
20
-2.56143473970559
30
0
41
1
10
9.12654862291947
20
-2.58350779297132
30
0
0
SPLINE
5
D9
100
AcDbEntity
8
1
62
256
6
ByLayer
370
18
48
1
60
0
100
AcDbSpline
70
4
71
3
72
20
73
16
40
0
40
0
40
0
40
0
40
0.125000000000001
40
0.125000000000001
40
0.250000000000001
40
0.250000000000001
40
0.375000000000002
40
0.375000000000002
40
0.500000000000003
40
0.500000000000003
40
0.625000000000003
40
0.625000000000003
40
0.750000000000004
40
0.750000000000004
40
1
40
1
40
1
40
1
41
1
10
35.5190892633254
20
-0.804326200749443
30
0
41
1
10
35.487880444826
20
-0.809570641134172
30
0
41
1
10
35.4576365584581
20
-0.80708875317606
30
0
41
1
10
35.3988685033905
20
-0.788354989789639
30
0
41
1
10
35.3706382171392
20
-0.77205237129931
30
0
41
1
10
35.3178332818956
20
-0.728658053954717
30
0
41
1
10
35.2928451093276
20
-0.701286618684435
30
0
41
1
10
35.2461945428008
20
-0.637523856819683
30
0
41
1
10
35.2247705776537
20
-0.601545882624066
30
0
41
1
10
35.1851423022233
20
-0.522652843425362
30
0
41
1
10
35.166943490479
20
-0.479725931232224
30
0
41
1
10
35.1334976882082
20
-0.387512092279195
30
0
41
1
10
35.1182770094192
20
-0.338177455274888
30
0
41
1
10
35.0777799950137
20
-0.184921502523338
30
0
41
1
10
35.0571308545068
20
-0.0746894624782044
30
0
41
1
10
35.0422474021377
20
0.0428634950040987
30
0
0
SPLINE
5
DA
100
AcDbEntity
8
1
62
256
6
ByLayer
370
18
48
1
60
0
100
AcDbSpline
70
4
71
3
72
10
73
6
40
0
40
0
40
0
40
0
40
0.28216302626788
40
0.28216302626788
40
1
40
1
40
1
40
1
41
1
10
10.2825679783183
20
2.57744879831748
30
0
41
1
10
10.4510994133946
20
2.57787070674453
30
0
41
1
10
10.6205855798106
20
2.57415941041452
30
0
41
1
10
11.2239097809157
20
2.55032558857093
30
0
41
1
10
11.6627220632615
20
2.50878384570589
30
0
41
1
10
12.1063270358819
20
2.44750388814848
30
0
0
SPLINE
5
DB
100
AcDbEntity
8
1
62
256
6
ByLayer
370
18
48
1
60
0
100
AcDbSpline
70
4
71
3
72
8
73
4
40
0
40
0
40
0
40
0
40
1
40
1
40
1
40
1
41
1
10
35.1074439332087
20
1.03680250585799
30
0
41
1
10
35.1173488387465
20
1.06550742872966
30
0
41
1
10
35.1211929948853
20
1.09651402436697
30
0
41
1
10
35.1190662814777
20
1.12723580181654
30
0
0
SPLINE
5
DC
100
AcDbEntity
8
1
62
256
6
ByLayer
370
18
48
1
60
0
100
AcDbSpline
70
4
71
3
72
14
73
10
40
0
40
0
40
0
40
0
40
0.25
40
0.25
40
0.5
40
0.5
40
0.75
40
0.75
40
1
40
1
40
1
40
1
41
1
10
9.12190893634497
20
1.42731370884479
30
0
41
1
10
9.12182274236898
20
1.39575521934273
30
0
41
1
10
9.1379277500132
20
1.36603890408358
30
0
41
1
10
9.17898116085937
20
1.31340424330691
30
0
41
1
10
9.20467164537294
20
1.28995559874946
30
0
41
1
10
9.25941899500418
20
1.24741161202741
30
0
41
1
10
9.28907946603445
20
1.22798079504807
30
0
41
1
10
9.35058062984666
20
1.19218020805343
30
0
41
1
10
9.38243397357942
20
1.17580841653469
30
0
41
1
10
9.41523632034512
20
1.16078464280378
30
0
0
SPLINE
5
DD
100
AcDbEntity
8
1
62
256
6
ByLayer
370
18
48
1
60
0
100
AcDbSpline
70
4
71
3
72
8
73
4
40
0
40
0
40
0
40
0
40
1
40
1
40
1
40
1
41
1
10
35.0683641462599
20
-2.68777492677944
30
0
41
1
10
35.1347537261515
20
-2.52431284640028
30
0
41
1
10
35.2020891038083
20
-2.35729351238541
30
0
41
1
10
35.2695796631749
20
-2.18605046899413
30
0
0
SPLINE
5
DE
100
AcDbEntity
8
1
62
256
6
ByLayer
370
13
48
1
60
0
100
AcDbSpline
70
4
71
3
72
24
73
20
40
0
40
0
40
0
40
0
40
0.0342790364286744
40
0.0803073512396534
40
0.126335666050633
40
0.218392295672592
40
0.264420610483575
40
0.310448925294549
40
0.402505554916511
40
0.448533869727492
40
0.494562184538463
40
0.586618814160429
40
0.632647128971408
40
0.678675443782388
40
0.770732073404348
40
0.816760388215327
40
0.862788703026307
40
0.954845332648266
40
1
40
1
40
1
40
1
41
1
10
35.1190662814739
20
1.12723580185513
30
0
41
1
10
35.0933691833312
20
1.12724198037981
30
0
41
1
10
35.0331679351844
20
1.12716342151663
30
0
41
1
10
34.9384647558012
20
1.12669597035869
30
0
41
1
10
34.8004368492249
20
1.12535380537471
30
0
41
1
10
34.6624164341509
20
1.1231542704871
30
0
41
1
10
34.5244023467005
20
1.12009596630736
30
0
41
1
10
34.3863744977971
20
1.11638954409994
30
0
41
1
10
34.2483541171504
20
1.11183056788272
30
0
41
1
10
34.1103400289422
20
1.10641902488669
30
0
41
1
10
33.9723121426483
20
1.10037485038157
30
0
41
1
10
33.8342916762951
20
1.09348617241724
30
0
41
1
10
33.696277470526
20
1.08575432924675
30
0
41
1
10
33.5582494716367
20
1.07740787457706
30
0
41
1
10
33.4202289164891
20
1.06822812165788
30
0
41
1
10
33.2822146968456
20
1.05821777598484
30
0
41
1
10
33.1441867334265
20
1.0476147978618
30
0
41
1
10
33.0068211892403
20
1.03625153949184
30
0
41
1
10
32.9039654470113
20
1.0271458449327
30
0
41
1
10
32.8701151851041
20
1.02408149191433
30
0
0
SPLINE
5
DF
100
AcDbEntity
8
1
62
256
6
ByLayer
370
18
48
1
60
0
100
AcDbSpline
70
4
71
2
72
6
73
3
40
0
40
0
40
0
40
1
40
1
40
1
41
1
10
18.809885866112
20
0.0439528777336022
30
0
41
1
10
18.2562922822001
20
0.16504427971276
30
0
41
1
10
17.7184037840671
20
0.434370694253232
30
0
0
SPLINE
5
E0
100
AcDbEntity
8
1
62
256
6
ByLayer
370
18
48
1
60
0
100
AcDbSpline
70
4
71
2
72
6
73
3
40
0
40
0
40
0
40
1
40
1
40
1
41
1
10
27.138968932376
20
-0.0431856744223182
30
0
41
1
10
27.7181748493091
20
-0.169567145082255
30
0
41
1
10
28.2890927581686
20
-0.463424783596082
30
0
0
SPLINE
5
E1
100
AcDbEntity
8
1
62
256
6
ByLayer
370
18
48
1
60
0
100
AcDbSpline
70
4
71
2
72
6
73
3
40
0
40
0
40
0
40
1
40
1
40
1
41
1
10
34.6608718057787
20
0.187572245765665
30
0
41
1
10
34.3817927755905
20
0.27294364917168
30
0
41
1
10
34.1037153425232
20
0.416821994609535
30
0
0
SPLINE
5
E2
100
AcDbEntity
8
1
62
256
6
ByLayer
370
18
48
1
60
0
100
AcDbSpline
70
4
71
3
72
19
73
15
40
0
40
0
40
0
40
0
40
0.107744106075292
40
0.187102339840863
40
0.238922263756424
40
0.283025670261369
40
0.327976414104391
40
0.511004939786253
40
0.582125217895674
40
0.652417734551281
40
0.715835921131733
40
0.783208764048213
40
0.880326630766307
40
1
40
1
40
1
40
1
41
1
10
20.3377723032861
20
-2.59465070169682
30
0
41
1
10
20.5685537208738
20
-2.59518389219926
30
0
41
1
10
20.9693297074751
20
-2.59599552048772
30
0
41
1
10
21.4811605262892
20
-2.59672514091884
30
0
41
1
10
21.8566430836306
20
-2.59719480378706
30
0
41
1
10
22.1584277506482
20
-2.59801407794336
30
0
41
1
10
22.7412875302385
20
-2.5995531405778
30
0
41
1
10
23.3820286819579
20
-2.59898442135136
30
0
41
1
10
24.0770501651589
20
-2.60101917452488
30
0
41
1
10
24.5158417828338
20
-2.60229284844246
30
0
41
1
10
24.9466074125335
20
-2.60291996919207
30
0
41
1
10
25.4348389481982
20
-2.60232319702933
30
0
41
1
10
26.0435772920909
20
-2.60358085614968
30
0
41
1
10
26.507989596043
20
-2.60474693784374
30
0
41
1
10
26.7643547651094
20
-2.60562387114126
30
0
0
SPLINE
5
E3
100
AcDbEntity
8
1
62
256
6
ByLayer
370
18
48
1
60
0
100
AcDbSpline
70
4
71
2
72
6
73
3
40
0
40
0
40
0
40
1
40
1
40
1
41
1
10
10.2874258484907
20
2.5772687052777
30
0
41
1
10
9.89846348414113
20
2.57755477485074
30
0
41
1
10
9.50949932894162
20
2.57710427273057
30
0
0
SPLINE
5
E4
100
AcDbEntity
8
1
62
256
6
ByLayer
370
18
48
1
60
0
100
AcDbSpline
70
4
71
3
72
20
73
16
40
0
40
0
40
0
40
0
40
0.106225316685573
40
0.196077392360069
40
0.261138575392717
40
0.322342165754204
40
0.387008808459477
40
0.452957281865465
40
0.518920213790661
40
0.63436639591333
40
0.746680683119088
40
0.799145018770984
40
0.873161776765519
40
0.986299586765491
40
1
40
1
40
1
40
1
41
1
10
26.7628089648711
20
2.60564851761293
30
0
41
1
10
26.5630455292029
20
2.60532810665174
30
0
41
1
10
26.1942944691474
20
2.6047173335304
30
0
41
1
10
25.703044381995
20
2.60246924763968
30
0
41
1
10
25.2966143429026
20
2.60255685583218
30
0
41
1
10
24.9375201635187
20
2.60282076224058
30
0
41
1
10
24.576699696012
20
2.60252880623815
30
0
41
1
10
24.2069405891991
20
2.60116412453328
30
0
41
1
10
23.7416603502714
20
2.60037787826994
30
0
41
1
10
23.1891677526844
20
2.59876721663582
30
0
41
1
10
22.6620681478493
20
2.5992575031203
30
0
41
1
10
22.212883541057
20
2.59819407195022
30
0
41
1
10
21.7622185560104
20
2.59690200191096
30
0
41
1
10
21.3844032308774
20
2.596586817776
30
0
41
1
10
21.1458339694798
20
2.59623543831361
30
0
41
1
10
21.1200651395303
20
2.59619585747944
30
0
0
SPLINE
5
E5
100
AcDbEntity
8
1
62
256
6
ByLayer
370
18
48
1
60
0
100
AcDbSpline
70
4
71
2
72
6
73
3
40
0
40
0
40
0
40
1
40
1
40
1
41
1
10
9.50949933993905
20
-2.57710418412748
30
0
41
1
10
9.89890477831719
20
-2.57755480814609
30
0
41
1
10
10.2883083862978
20
-2.57726900308444
30
0
0
LINE
5
7B
100
AcDbEntity
8
SK1
62
256
6
ByLayer
370
18
48
1
60
0
100
AcDbLine
10
0
20
-3
30
0
11
0
21
3
31
0
39
0
210
0
220
0
230
1
0
LINE
5
7D
100
AcDbEntity
8
SK1
62
256
6
ByLayer
370
18
48
1
60
0
100
AcDbLine
10
-36
20
1.25
30
0
11
-36
21
-1.25
31
0
39
0
210
0
220
0
230
1
0
LINE
5
7E
100
AcDbEntity
8
SK1
62
256
6
ByLayer
370
18
48
1
60
0
100
AcDbLine
10
-34.989637
20
3
30
0
11
-34.989637
21
-3
31
0
39
0
210
0
220
0
230
1
0
LINE
5
7F
100
AcDbEntity
8
1
62
256
6
ByLayer
370
18
48
1
60
0
100
AcDbLine
10
34.686151
20
-1.473032
30
0
11
35.519089
21
-0.804326
31
0
39
0
210
0
220
0
230
1
0
LINE
5
80
100
AcDbEntity
8
1
62
256
6
ByLayer
370
18
48
1
60
0
100
AcDbLine
10
0
20
-3
30
0
11
0
21
3
31
0
39
0
210
0
220
0
230
1
0
LINE
5
81
100
AcDbEntity
8
1
62
256
6
ByLayer
370
13
48
1
60
0
100
AcDbLine
10
1.049074
20
2.638901
30
0
11
1.049074
21
-2.638901
31
0
39
0
210
0
220
0
230
1
0
LINE
5
82
100
AcDbEntity
8
1
62
256
6
ByLayer
370
13
48
1
60
0
100
AcDbLine
10
0.523772
20
2.81945
30
0
11
0.523772
21
-2.81945
31
0
39
0
210
0
220
0
230
1
0
LINE
5
83
100
AcDbEntity
8
80
62
256
6
ByLayer
370
18
48
1
60
0
100
AcDbLine
10
0
20
0
30
0
11
-5
21
0
31
0
39
0
210
0
220
0
230
1
0
LINE
5
84
100
AcDbEntity
8
4
62
256
6
ByLayer
370
18
48
0.05
60
0
100
AcDbLine
10
36
20
0
30
0
11
0
21
0
31
0
39
0
210
0
220
0
230
1
0
LINE
5
86
100
AcDbEntity
8
SK4
62
256
6
ByLayer
370
18
48
0.05
60
0
100
AcDbLine
10
41
20
0
30
0
11
-41
21
0
31
0
39
0
210
0
220
0
230
1
0
LINE
5
88
100
AcDbEntity
8
SK1
62
256
6
ByLayer
370
18
48
1
60
0
100
AcDbLine
10
-36
20
-1.25
30
0
11
-34.989637
21
-3
31
0
39
0
210
0
220
0
230
1
0
LINE
5
89
100
AcDbEntity
8
SK1
62
256
6
ByLayer
370
18
48
1
60
0
100
AcDbLine
10
-34.989637
20
3
30
0
11
-36
21
1.25
31
0
39
0
210
0
220
0
230
1
0
LINE
5
8A
100
AcDbEntity
8
SK1
62
256
6
ByLayer
370
18
48
1
60
0
100
AcDbLine
10
-34.989637
20
-3
30
0
11
0
21
-3
31
0
39
0
210
0
220
0
230
1
0
LINE
5
8B
100
AcDbEntity
8
SK1
62
256
6
ByLayer
370
18
48
1
60
0
100
AcDbLine
10
0
20
3
30
0
11
-34.989637
21
3
31
0
39
0
210
0
220
0
230
1
0
LINE
5
8C
100
AcDbEntity
8
1
62
256
6
ByLayer
370
18
48
1
60
0
100
AcDbLine
10
1.049074
20
-2.638901
30
0
11
9.125811
21
-2.653439
31
0
39
0
210
0
220
0
230
1
0
LINE
5
8D
100
AcDbEntity
8
1
62
256
6
ByLayer
370
18
48
1
60
0
100
AcDbLine
10
19.206685
20
-2.671584
30
0
11
19.944407
21
-2.672912
31
0
39
0
210
0
220
0
230
1
0
LINE
5
8E
100
AcDbEntity
8
1
62
256
6
ByLayer
370
18
48
1
60
0
100
AcDbLine
10
19.944407
20
2.672912
30
0
11
19.206685
21
2.671584
31
0
39
0
210
0
220
0
230
1
0
LINE
5
8F
100
AcDbEntity
8
1
62
256
6
ByLayer
370
18
48
1
60
0
100
AcDbLine
10
9.125811
20
2.653439
30
0
11
1.049074
21
2.638901
31
0
39
0
210
0
220
0
230
1
0
LINE
5
90
100
AcDbEntity
8
81
62
256
6
ByLayer
370
18
48
1
60
0
100
AcDbLine
10
36
20
0
30
0
11
41
21
0
31
0
39
0
210
0
220
0
230
1
0
LINE
5
91
100
AcDbEntity
8
SK2
62
256
6
ByLayer
370
13
48
1
60
0
100
AcDbLine
10
-44.625163
20
32.117107
30
0
11
-44.625163
21
-11.75
31
0
39
0
210
0
220
0
230
1
0
LINE
5
93
100
AcDbEntity
8
SK2
62
256
6
ByLayer
370
13
48
1
60
0
100
AcDbLine
10
-37.5875
20
3
30
0
11
-46.625163
21
3
31
0
39
0
210
0
220
0
230
1
0
LINE
5
94
100
AcDbEntity
8
SK2
62
256
6
ByLayer
370
13
48
1
60
0
100
AcDbLine
10
-37.5875
20
-3
30
0
11
-46.625163
21
-3
31
0
39
0
210
0
220
0
230
1
0
LINE
5
95
100
AcDbEntity
8
1
62
256
6
ByLayer
370
18
48
1
60
1
100
AcDbLine
10
-44.625163
20
3
30
0
11
-45.085946
21
6.499998
31
0
39
0
210
0
220
0
230
1
0
LINE
5
96
100
AcDbEntity
8
1
62
256
6
ByLayer
370
18
48
1
60
1
100
AcDbLine
10
-45.085946
20
6.499998
30
0
11
-44.164379
21
6.500002
31
0
39
0
210
0
220
0
230
1
0
LINE
5
97
100
AcDbEntity
8
1
62
256
6
ByLayer
370
18
48
1
60
1
100
AcDbLine
10
-44.164379
20
6.500002
30
0
11
-44.625163
21
3
31
0
39
0
210
0
220
0
230
1
0
LINE
5
98
100
AcDbEntity
8
1
62
256
6
ByLayer
370
18
48
1
60
1
100
AcDbLine
10
-44.625163
20
-3
30
0
11
-44.164379
21
-6.499998
31
0
39
0
210
0
220
0
230
1
0
LINE
5
99
100
AcDbEntity
8
1
62
256
6
ByLayer
370
18
48
1
60
1
100
AcDbLine
10
-44.164379
20
-6.499998
30
0
11
-45.085946
21
-6.500002
31
0
39
0
210
0
220
0
230
1
0
LINE
5
9A
100
AcDbEntity
8
1
62
256
6
ByLayer
370
18
48
1
60
1
100
AcDbLine
10
-45.085946
20
-6.500002
30
0
11
-44.625163
21
-3
31
0
39
0
210
0
220
0
230
1
0
LINE
5
9B
100
AcDbEntity
8
2
62
256
6
ByLayer
370
13
48
1
60
0
100
AcDbLine
10
48.083343
20
30.778727
30
0
11
48.083343
21
-11.45
31
0
39
0
210
0
220
0
230
1
0
LINE
5
9D
100
AcDbEntity
8
2
62
256
6
ByLayer
370
13
48
1
60
0
100
AcDbLine
10
36.5807
20
2.7
30
0
11
50.083343
21
2.7
31
0
39
0
210
0
220
0
230
1
0
LINE
5
9E
100
AcDbEntity
8
2
62
256
6
ByLayer
370
13
48
1
60
0
100
AcDbLine
10
36.5807
20
-2.7
30
0
11
50.083343
21
-2.7
31
0
39
0
210
0
220
0
230
1
0
LINE
5
9F
100
AcDbEntity
8
1
62
256
6
ByLayer
370
18
48
1
60
1
100
AcDbLine
10
48.083343
20
2.7
30
0
11
47.622559
21
6.199998
31
0
39
0
210
0
220
0
230
1
0
LINE
5
A0
100
AcDbEntity
8
1
62
256
6
ByLayer
370
18
48
1
60
1
100
AcDbLine
10
47.622559
20
6.199998
30
0
11
48.544126
21
6.200002
31
0
39
0
210
0
220
0
230
1
0
LINE
5
A1
100
AcDbEntity
8
1
62
256
6
ByLayer
370
18
48
1
60
1
100
AcDbLine
10
48.544126
20
6.200002
30
0
11
48.083343
21
2.7
31
0
39
0
210
0
220
0
230
1
0
LINE
5
A2
100
AcDbEntity
8
1
62
256
6
ByLayer
370
18
48
1
60
1
100
AcDbLine
10
48.083343
20
-2.7
30
0
11
48.544126
21
-6.199998
31
0
39
0
210
0
220
0
230
1
0
LINE
5
A3
100
AcDbEntity
8
1
62
256
6
ByLayer
370
18
48
1
60
1
100
AcDbLine
10
48.544126
20
-6.199998
30
0
11
47.622559
21
-6.200002
31
0
39
0
210
0
220
0
230
1
0
LINE
5
A4
100
AcDbEntity
8
1
62
256
6
ByLayer
370
18
48
1
60
1
100
AcDbLine
10
47.622559
20
-6.200002
30
0
11
48.083343
21
-2.7
31
0
39
0
210
0
220
0
230
1
0
LINE
5
EC
100
AcDbEntity
8
1
62
256
6
ByLayer
370
18
48
1
60
1
100
AcDbLine
10
-44.625163
20
3
30
0
11
-45.085946
21
6.499998
31
0
39
0
210
0
220
0
230
1
0
LINE
5
ED
100
AcDbEntity
8
1
62
256
6
ByLayer
370
18
48
1
60
1
100
AcDbLine
10
-45.085946
20
6.499998
30
0
11
-44.164379
21
6.500002
31
0
39
0
210
0
220
0
230
1
0
LINE
5
EE
100
AcDbEntity
8
1
62
256
6
ByLayer
370
18
48
1
60
1
100
AcDbLine
10
-44.164379
20
6.500002
30
0
11
-44.625163
21
3
31
0
39
0
210
0
220
0
230
1
0
LINE
5
F0
100
AcDbEntity
8
1
62
256
6
ByLayer
370
18
48
1
60
1
100
AcDbLine
10
-44.625163
20
-3
30
0
11
-44.164379
21
-6.499998
31
0
39
0
210
0
220
0
230
1
0
LINE
5
F1
100
AcDbEntity
8
1
62
256
6
ByLayer
370
18
48
1
60
1
100
AcDbLine
10
-44.164379
20
-6.499998
30
0
11
-45.085946
21
-6.500002
31
0
39
0
210
0
220
0
230
1
0
LINE
5
F2
100
AcDbEntity
8
1
62
256
6
ByLayer
370
18
48
1
60
1
100
AcDbLine
10
-45.085946
20
-6.500002
30
0
11
-44.625163
21
-3
31
0
39
0
210
0
220
0
230
1
0
LINE
5
F6
100
AcDbEntity
8
1
62
256
6
ByLayer
370
18
48
1
60
1
100
AcDbLine
10
48.083343
20
2.7
30
0
11
47.622559
21
6.199998
31
0
39
0
210
0
220
0
230
1
0
LINE
5
F7
100
AcDbEntity
8
1
62
256
6
ByLayer
370
18
48
1
60
1
100
AcDbLine
10
47.622559
20
6.199998
30
0
11
48.544126
21
6.200002
31
0
39
0
210
0
220
0
230
1
0
LINE
5
F8
100
AcDbEntity
8
1
62
256
6
ByLayer
370
18
48
1
60
1
100
AcDbLine
10
48.544126
20
6.200002
30
0
11
48.083343
21
2.7
31
0
39
0
210
0
220
0
230
1
0
LINE
5
FA
100
AcDbEntity
8
1
62
256
6
ByLayer
370
18
48
1
60
1
100
AcDbLine
10
48.083343
20
-2.7
30
0
11
48.544126
21
-6.199998
31
0
39
0
210
0
220
0
230
1
0
LINE
5
FB
100
AcDbEntity
8
1
62
256
6
ByLayer
370
18
48
1
60
1
100
AcDbLine
10
48.544126
20
-6.199998
30
0
11
47.622559
21
-6.200002
31
0
39
0
210
0
220
0
230
1
0
LINE
5
FC
100
AcDbEntity
8
1
62
256
6
ByLayer
370
18
48
1
60
1
100
AcDbLine
10
47.622559
20
-6.200002
30
0
11
48.083343
21
-2.7
31
0
39
0
210
0
220
0
230
1
0
MTEXT
5
E6
100
AcDbEntity
8
SK6
62
256
6
ByLayer
370
13
48
1
60
0
100
AcDbMText
10
-27.85586
20
35.240328
30
0
210
0
220
0
230
1
1
\W0.7326;860.1-0540-019A1-PM P1BM
40
3.5
41
0
44
1.084337
50
0
71
7
72
5
7
iso_b_vert
0
MTEXT
5
EA
100
AcDbEntity
8
SK2
62
256
6
ByLayer
370
18
48
1
60
0
100
AcDbMText
10
-46.189796
20
16.409024
30
0
210
0
220
0
230
1
1
%%c
40
3.5
41
0
44
1.084337
50
90
71
7
72
5
7
iso_b_vert
0
MTEXT
5
EB
100
AcDbEntity
8
SK2
62
256
6
ByLayer
370
18
48
1
60
0
100
AcDbMText
10
-46.189796
20
21.63168
30
0
210
0
220
0
230
1
1
\W0.7317;6,000
40
3.5
41
0
44
1.084337
50
90
71
7
72
5
7
iso_b_vert
0
MTEXT
5
F4
100
AcDbEntity
8
2
62
256
6
ByLayer
370
18
48
1
60
0
100
AcDbMText
10
46.518709
20
14.70211
30
0
210
0
220
0
230
1
1
%%c
40
3.5
41
0
44
1.084337
50
90
71
7
72
5
7
iso_b_vert
0
MTEXT
5
F5
100
AcDbEntity
8
2
62
256
6
ByLayer
370
18
48
1
60
0
100
AcDbMText
10
46.518709
20
19.924766
30
0
210
0
220
0
230
1
1
\W0.7581;5,400
40
3.5
41
0
44
1.084337
50
90
71
7
72
5
7
iso_b_vert
0
HATCH
5
EF
100
AcDbEntity
8
SK2
62
256
6
ByLayer
370
13
48
1
60
0
100
AcDbHatch
10
0
20
0
30
0
210
0
220
0
230
1
2
ANSI31
70
0
71
0
91
1
92
5
93
3
72
1
10
-44.6251625675374
20
3
11
-45.0859463090902
21
6.49999830744682
72
1
10
-45.0859463090902
20
6.49999830744682
11
-44.1643788259847
21
6.50000169255318
72
1
10
-44.1643788259847
20
6.50000169255318
11
-44.6251625675374
21
3
97
0
75
0
76
1
52
0
41
0.0062
77
0
78
1
53
45
43
0
44
0
45
-0.0139193969876572
46
0.0139193969876572
79
0
47
0
98
1
10
0
20
0
0
HATCH
5
F3
100
AcDbEntity
8
SK2
62
256
6
ByLayer
370
13
48
1
60
0
100
AcDbHatch
10
0
20
0
30
0
210
0
220
0
230
1
2
ANSI31
70
0
71
0
91
1
92
5
93
3
72
1
10
-44.6251625675374
20
-3
11
-44.1643788259847
21
-6.49999830744682
72
1
10
-44.1643788259847
20
-6.49999830744682
11
-45.0859463090902
21
-6.50000169255318
72
1
10
-45.0859463090902
20
-6.50000169255318
11
-44.6251625675374
21
-3
97
0
75
0
76
1
52
0
41
0.0062
77
0
78
1
53
45
43
0
44
0
45
-0.0139193969876572
46
0.0139193969876572
79
0
47
0
98
1
10
0
20
0
0
HATCH
5
F9
100
AcDbEntity
8
2
62
256
6
ByLayer
370
13
48
1
60
0
100
AcDbHatch
10
0
20
0
30
0
210
0
220
0
230
1
2
ANSI31
70
0
71
0
91
1
92
5
93
3
72
1
10
48.083342615295
20
2.70000000000002
11
47.6225588737423
21
6.19999830744683
72
1
10
47.6225588737423
20
6.19999830744683
11
48.5441263568478
21
6.2000016925532
72
1
10
48.5441263568478
20
6.2000016925532
11
48.083342615295
21
2.70000000000002
97
0
75
0
76
1
52
0
41
0.0062
77
0
78
1
53
45
43
0
44
0
45
-0.0139193969876572
46
0.0139193969876572
79
0
47
0
98
1
10
0
20
0
0
HATCH
5
FD
100
AcDbEntity
8
2
62
256
6
ByLayer
370
13
48
1
60
0
100
AcDbHatch
10
0
20
0
30
0
210
0
220
0
230
1
2
ANSI31
70
0
71
0
91
1
92
5
93
3
72
1
10
48.083342615295
20
-2.69999999999999
11
48.5441263568478
21
-6.1999983074468
72
1
10
48.5441263568478
20
-6.1999983074468
11
47.6225588737423
21
-6.20000169255317
72
1
10
47.6225588737423
20
-6.20000169255317
11
48.083342615295
21
-2.69999999999999
97
0
75
0
76
1
52
0
41
0.0062
77
0
78
1
53
45
43
0
44
0
45
-0.0139193969876572
46
0.0139193969876572
79
0
47
0
98
1
10
0
20
0
0
DIMENSION
5
FF
100
AcDbEntity
8
2
62
256
6
ByLayer
370
13
48
1
60
0
100
AcDbDimension
2
_U0
10
34.9932
20
-12.913398
30
0
11
17.4966
21
-12.913398
31
0
70
32
71
1
72
1
41
1
210
0
220
0
230
1
3
Standard
100
AcDbAlignedDimension
13
0
23
0
33
0
14
34.9932
24
-2.7
34
0
50
0
100
AcDbRotatedDimension
1001
ACAD
1000
DSTYLE
1002
{
1070
   371
1070
    13
1070
   372
1070
    13
1070
   170
1070
     0
1070
   144
1040
1.0
1070
   277
1070
     2
1070
   278
1070
    44
1070
   146
1040
1.0
1070
   345
1005
16
1070
   347
1005
16
1070
   346
1005
16
1070
   344
1005
0
1070
   343
1005
0
1070
   172
1070
     1
1070
    76
1070
     0
1070
    75
1070
     0
1070
   282
1070
     0
1070
   281
1070
     0
1070
    71
1070
     0
1070
    74
1070
     0
1070
   279
1070
     0
1070
   173
1070
     1
1070
   340
1005
E7
1070
   271
1070
     2
1070
   272
1070
     2
1070
    77
1070
     1
1070
    73
1070
     1
1070
   171
1070
     3
1070
   274
1070
     4
1070
   177
1070
    35
1070
   176
1070
    35
1070
   178
1070
    35
1070
    48
1040
-0.1
1070
    41
1040
3.5
1070
   147
1040
1.75
1070
    42
1040
1.5875
1070
    44
1040
2.0
1070
   140
1040
3.5
1002
}
1001
ACAD_DSTYLE_DIM_LINETYPE
1070
   380
1005
16
1001
ACAD_DSTYLE_DIM_EXT1_LINETYPE
1070
   381
1005
16
1001
ACAD_DSTYLE_DIM_EXT2_LINETYPE
1070
   382
1005
16
0
DIMENSION
5
118
100
AcDbEntity
8
SK2
62
256
6
ByLayer
370
13
48
1
60
0
100
AcDbDimension
2
_U1
10
36
20
-31.692985
30
0
11
0
21
-31.692985
31
0
70
32
71
1
72
1
41
1
210
0
220
0
230
1
3
Standard
100
AcDbAlignedDimension
13
-36
23
-3
33
0
14
36
24
0
34
0
50
0
100
AcDbRotatedDimension
1001
ACAD
1000
DSTYLE
1002
{
1070
   371
1070
    13
1070
   372
1070
    13
1070
   170
1070
     0
1070
   144
1040
1.0
1070
   277
1070
     2
1070
   278
1070
    44
1070
   146
1040
1.0
1070
   345
1005
16
1070
   347
1005
16
1070
   346
1005
16
1070
   344
1005
0
1070
   343
1005
0
1070
   172
1070
     1
1070
    76
1070
     0
1070
    75
1070
     0
1070
   282
1070
     0
1070
   281
1070
     0
1070
    71
1070
     0
1070
    74
1070
     0
1070
   279
1070
     0
1070
   173
1070
     1
1070
   340
1005
E7
1070
   271
1070
     2
1070
   272
1070
     2
1070
    77
1070
     1
1070
    73
1070
     1
1070
   171
1070
     3
1070
   274
1070
     4
1070
   177
1070
    35
1070
   176
1070
    35
1070
   178
1070
    35
1070
    48
1040
-0.1
1070
    41
1040
3.5
1070
   147
1040
1.75
1070
    42
1040
1.5875
1070
    44
1040
2.0
1070
   140
1040
3.5
1002
}
1001
ACAD_DSTYLE_DIM_LINETYPE
1070
   380
1005
16
1001
ACAD_DSTYLE_DIM_EXT1_LINETYPE
1070
   381
1005
16
1001
ACAD_DSTYLE_DIM_EXT2_LINETYPE
1070
   382
1005
16
0
DIMENSION
5
130
100
AcDbEntity
8
SK2
62
256
6
ByLayer
370
13
48
1
60
0
100
AcDbDimension
2
_U2
10
36
20
14.309119
30
0
11
27.395
21
14.309119
31
0
70
32
71
1
72
1
41
1
210
0
220
0
230
1
3
Standard
100
AcDbAlignedDimension
13
18.79
23
2.7
33
0
14
36
24
0
34
0
50
0
100
AcDbRotatedDimension
1001
ACAD
1000
DSTYLE
1002
{
1070
   371
1070
    13
1070
   372
1070
    13
1070
   170
1070
     0
1070
   144
1040
1.0
1070
   277
1070
     2
1070
   278
1070
    44
1070
   146
1040
1.0
1070
   345
1005
16
1070
   347
1005
16
1070
   346
1005
16
1070
   344
1005
0
1070
   343
1005
0
1070
   172
1070
     1
1070
    76
1070
     0
1070
    75
1070
     0
1070
   282
1070
     0
1070
   281
1070
     0
1070
    71
1070
     0
1070
    74
1070
     0
1070
   279
1070
     0
1070
   173
1070
     1
1070
   340
1005
E7
1070
   271
1070
     2
1070
   272
1070
     2
1070
    77
1070
     1
1070
    73
1070
     1
1070
   171
1070
     3
1070
   274
1070
     4
1070
   177
1070
    35
1070
   176
1070
    35
1070
   178
1070
    35
1070
    48
1040
-0.1
1070
    41
1040
3.5
1070
   147
1040
1.75
1070
    42
1040
1.5875
1070
    44
1040
2.0
1070
   140
1040
3.5
1002
}
1001
ACAD_DSTYLE_DIM_LINETYPE
1070
   380
1005
16
1001
ACAD_DSTYLE_DIM_EXT1_LINETYPE
1070
   381
1005
16
1001
ACAD_DSTYLE_DIM_EXT2_LINETYPE
1070
   382
1005
16
0
DIMENSION
5
149
100
AcDbEntity
8
SK2
62
256
6
ByLayer
370
13
48
1
60
0
100
AcDbDimension
2
_U3
10
34.9932
20
-15.502503
30
0
11
52.833333
21
-15.502503
31
0
70
32
71
1
72
1
41
1
210
0
220
0
230
1
3
Standard
100
AcDbAlignedDimension
13
36
23
0
33
0
14
34.9932
24
-2.7
34
0
50
0
100
AcDbRotatedDimension
1001
ACAD
1000
DSTYLE
1002
{
1070
   371
1070
    13
1070
   372
1070
    13
1070
   170
1070
     0
1070
   144
1040
1.0
1070
   277
1070
     2
1070
   278
1070
    44
1070
   146
1040
1.0
1070
   345
1005
16
1070
   347
1005
16
1070
   346
1005
16
1070
   344
1005
0
1070
   343
1005
0
1070
   172
1070
     1
1070
    76
1070
     0
1070
    75
1070
     0
1070
   282
1070
     0
1070
   281
1070
     0
1070
    71
1070
     0
1070
    74
1070
     0
1070
   279
1070
     0
1070
   173
1070
     1
1070
   340
1005
E7
1070
   271
1070
     2
1070
   272
1070
     2
1070
    77
1070
     1
1070
    73
1070
     1
1070
   171
1070
     3
1070
   274
1070
     4
1070
   177
1070
    35
1070
   176
1070
    35
1070
   178
1070
    35
1070
    48
1040
-0.1
1070
    41
1040
3.5
1070
   147
1040
1.75
1070
    42
1040
1.5875
1070
    44
1040
2.0
1070
   140
1040
3.5
1002
}
1001
ACAD_DSTYLE_DIM_LINETYPE
1070
   380
1005
16
1001
ACAD_DSTYLE_DIM_EXT1_LINETYPE
1070
   381
1005
16
1001
ACAD_DSTYLE_DIM_EXT2_LINETYPE
1070
   382
1005
16
0
DIMENSION
5
163
100
AcDbEntity
8
SK2
62
256
6
ByLayer
370
13
48
1
60
0
100
AcDbDimension
2
_U4
10
34.9932
20
-21.343428
30
0
11
-0.5034
21
-21.343428
31
0
70
32
71
1
72
1
41
1
210
0
220
0
230
1
3
Standard
100
AcDbAlignedDimension
13
-36
23
-3
33
0
14
34.9932
24
-2.7
34
0
50
0
100
AcDbRotatedDimension
1001
ACAD
1000
DSTYLE
1002
{
1070
   371
1070
    13
1070
   372
1070
    13
1070
   170
1070
     0
1070
   144
1040
1.0
1070
   277
1070
     2
1070
   278
1070
    44
1070
   146
1040
1.0
1070
   345
1005
16
1070
   347
1005
16
1070
   346
1005
16
1070
   344
1005
0
1070
   343
1005
0
1070
   172
1070
     1
1070
    76
1070
     0
1070
    75
1070
     0
1070
   282
1070
     0
1070
   281
1070
     0
1070
    71
1070
     0
1070
    74
1070
     0
1070
   279
1070
     0
1070
   173
1070
     1
1070
   340
1005
E7
1070
   271
1070
     2
1070
   272
1070
     2
1070
    77
1070
     1
1070
    73
1070
     1
1070
   171
1070
     3
1070
   274
1070
     4
1070
   177
1070
    35
1070
   176
1070
    35
1070
   178
1070
    35
1070
    48
1040
-0.1
1070
    41
1040
3.5
1070
   147
1040
1.75
1070
    42
1040
1.5875
1070
    44
1040
2.0
1070
   140
1040
3.5
1002
}
1001
ACAD_DSTYLE_DIM_LINETYPE
1070
   380
1005
16
1001
ACAD_DSTYLE_DIM_EXT1_LINETYPE
1070
   381
1005
16
1001
ACAD_DSTYLE_DIM_EXT2_LINETYPE
1070
   382
1005
16
0
ENDSEC
0
SECTION
2
OBJECTS
0
DICTIONARY
5
1eb
330
0
100
AcDbDictionary
280
0
281
1
3
ACAD_GROUP
350
1ec
3
ACAD_MLINESTYLE
350
1ed
0
DICTIONARY
5
1ec
330
0
100
AcDbDictionary
280
0
281
1
0
DICTIONARY
5
1ed
330
0
100
AcDbDictionary
280
0
281
1
3
Standard
350
18
0
MLINESTYLE
5
18
330
1ed
100
AcDbMlineStyle
2
Standard
70
0
3

62
256
51
90
52
90
71
2
49
-0.5
62
256
6
ByLayer
49
0.5
62
256
6
ByLayer
0
RASTERVARIABLES
5
1d9
330

100
AcDbRasterVariables
90
0
70
1
71
1
72
1
0
ENDSEC
0
EOF
