0
SECTION
2
HEADER
9
$ACADVER
1
AC1015
9
$DWGCODEPAGE
3
ANSI_1252
9
$HANDSEED
5
1f9
9
$ANGBASE
50
0
9
$ANGDIR
70
0
9
$ATTMODE
70
1
9
$AUNITS
70
0
9
$AUPREC
70
0
9
$CECOLOR
62
256
9
$CELTSCALE
40
1
9
$CELTYPE
6
ByLayer
9
$CELWEIGHT
370
18
9
$CLAYER
8
0
9
$CMLJUST
70
0
9
$CMLSCALE
40
1
9
$CMLSTYLE
2
Standard
9
$DIMSTYLE
2
Standard
9
$TEXTSIZE
40
0.2
9
$TEXTSTYLE
7
Standard
9
$LUNITS
70
2
9
$LUPREC
70
4
9
$EXTNAMES
290
1
9
$INSUNITS
70
4
9
$LTSCALE
40
1
9
$LWDISPLAY
290
1
9
$PDMODE
70
0
9
$PDSIZE
40
0
9
$PLINEGEN
70
0
0
ENDSEC
0
SECTION
2
CLASSES
0
CLASS
1
RASTERVARIABLES
2
AcDbRasterVariables
3
ISM
90
0
280
0
281
0
0
ENDSEC
0
SECTION
2
TABLES
0
TABLE
2
VPORT
5
1ef
100
AcDbSymbolTable
0
VPORT
5
1
100
AcDbSymbolTableRecord
100
AcDbViewportTableRecord
2
*Active
70
0
10
0
20
0
11
1
21
1
12
-1
22
1
13
0
23
0
14
0.5
24
0.5
15
10
25
10
16
0
26
0
36
1
17
0
27
0
37
0
0
ENDTAB
0
TABLE
2
LTYPE
5
1f0
100
AcDbSymbolTable
0
LTYPE
5
14
100
AcDbSymbolTableRecord
100
AcDbLinetypeTableRecord
70
0
2
ByBlock
3

72
65
73
0
40
0
0
LTYPE
5
15
100
AcDbSymbolTableRecord
100
AcDbLinetypeTableRecord
70
0
2
ByLayer
3

72
65
73
0
40
0
0
LTYPE
5
16
100
AcDbSymbolTableRecord
100
AcDbLinetypeTableRecord
70
0
2
Continuous
3
Solid line
72
65
73
0
40
0
0
LTYPE
5
6E
100
AcDbSymbolTableRecord
100
AcDbLinetypeTableRecord
70
0
2
CENTER
3
____ _ ____ _ ____ _ ____
72
65
73
4
40
47.5
49
22
74
0
49
-8.5
74
0
49
8.5
74
0
49
-8.5
74
0
0
LTYPE
5
6F
100
AcDbSymbolTableRecord
100
AcDbLinetypeTableRecord
70
0
2
DASHED
3
__ __ __ __ __ __ __ __ __
72
65
73
2
40
25.72
49
12.86
74
0
49
-12.86
74
0
0
ENDTAB
0
TABLE
2
LAYER
5
1f1
100
AcDbSymbolTable
0
LAYER
5
10
100
AcDbSymbolTableRecord
100
AcDbLayerTableRecord
2
0
70
0
62
7
6
Continuous
290
1
370
-3
390
0
0
LAYER
5
71
100
AcDbSymbolTableRecord
100
AcDbLayerTableRecord
2
80
70
0
62
-6
6
Continuous
290
1
370
-3
390
0
0
LAYER
5
73
100
AcDbSymbolTableRecord
100
AcDbLayerTableRecord
2
81
70
0
62
-3
6
Continuous
290
1
370
-3
390
0
0
LAYER
5
75
100
AcDbSymbolTableRecord
100
AcDbLayerTableRecord
2
1
70
0
62
4
6
Continuous
290
1
370
-3
390
0
0
LAYER
5
87
100
AcDbSymbolTableRecord
100
AcDbLayerTableRecord
2
4
70
0
62
-2
6
CENTER
290
1
370
-3
390
0
0
LAYER
5
9E
100
AcDbSymbolTableRecord
100
AcDbLayerTableRecord
2
2
70
0
62
7
6
Continuous
290
1
370
-3
390
0
0
LAYER
5
104
100
AcDbSymbolTableRecord
100
AcDbLayerTableRecord
2
Defpoints
70
0
62
7
6
Continuous
290
0
370
-3
390
0
0
LAYER
5
1db
100
AcDbSymbolTableRecord
100
AcDbLayerTableRecord
2
SK1
70
0
62
4
6
Continuous
290
1
370
-3
390
0
0
LAYER
5
1dc
100
AcDbSymbolTableRecord
100
AcDbLayerTableRecord
2
SK4
70
0
62
2
6
CENTER
290
1
370
-3
390
0
0
LAYER
5
1dd
100
AcDbSymbolTableRecord
100
AcDbLayerTableRecord
2
SK2
70
0
62
7
6
Continuous
290
1
370
-3
390
0
0
LAYER
5
1de
100
AcDbSymbolTableRecord
100
AcDbLayerTableRecord
2
SK6
70
0
62
5
6
Continuous
290
1
370
-3
390
0
0
ENDTAB
0
TABLE
2
STYLE
5
1f2
100
AcDbSymbolTable
0
STYLE
5
11
100
AcDbSymbolTableRecord
100
AcDbTextStyleTableRecord
2
Standard
3
txt
70
0
71
0
40
0
41
1
42
0
50
0
0
STYLE
5
E9
100
AcDbSymbolTableRecord
100
AcDbTextStyleTableRecord
2
iso_b_vert
3
simplex.shx
70
0
71
0
40
0
41
1
42
0
50
0
0
STYLE
5
EA
100
AcDbSymbolTableRecord
100
AcDbTextStyleTableRecord
2
DWGDirectTextStyle
3
simplex
70
0
71
0
40
0
41
1
42
0
50
0
0
ENDTAB
0
TABLE
2
DIMSTYLE
5
1f3
100
AcDbSymbolTable
100
AcDbDimStyleTable
0
DIMSTYLE
105
27
100
AcDbSymbolTableRecord
100
AcDbDimStyleTableRecord
2
Standard
70
0
3
<>
41
0.18
42
0.0625
44
0.18
140
0.18
147
0.09
73
0
74
0
77
1
271
2
275
0
278
52
280
0
340
11
0
ENDTAB
0
TABLE
2
VIEW
5
1f4
100
AcDbSymbolTable
0
ENDTAB
0
TABLE
2
UCS
5
1f5
100
AcDbSymbolTable
0
ENDTAB
0
TABLE
2
APPID
5
1f6
100
AcDbSymbolTable
0
APPID
5
12
100
AcDbSymbolTableRecord
100
AcDbRegAppTableRecord
2
ACAD
70
0
0
APPID
5
100
100
AcDbSymbolTableRecord
100
AcDbRegAppTableRecord
2
ACAD_DSTYLE_DIMBREAK
70
0
0
APPID
5
19A
100
AcDbSymbolTableRecord
100
AcDbRegAppTableRecord
2
ACAD_DSTYLE_DIM_LINETYPE
70
0
0
APPID
5
19B
100
AcDbSymbolTableRecord
100
AcDbRegAppTableRecord
2
ACAD_DSTYLE_DIM_EXT1_LINETYPE
70
0
0
APPID
5
19C
100
AcDbSymbolTableRecord
100
AcDbRegAppTableRecord
2
ACAD_DSTYLE_DIM_EXT2_LINETYPE
70
0
0
APPID
5
1D7
100
AcDbSymbolTableRecord
100
AcDbRegAppTableRecord
2
ACAD_MLEADERVER
70
0
0
ENDTAB
0
TABLE
2
BLOCK_RECORD
5
1f7
100
AcDbSymbolTable
0
BLOCK_RECORD
5
1F
100
AcDbSymbolTableRecord
100
AcDbBlockTableRecord
2
*Model_Space
340
0
70
0
0
BLOCK_RECORD
5
1B
100
AcDbSymbolTableRecord
100
AcDbBlockTableRecord
2
*Paper_Space
340
0
70
0
0
BLOCK_RECORD
5
23
100
AcDbSymbolTableRecord
100
AcDbBlockTableRecord
2
*Paper_Space0
340
0
70
0
0
BLOCK_RECORD
5
105
100
AcDbSymbolTableRecord
100
AcDbBlockTableRecord
2
*D1
340
0
70
0
0
BLOCK_RECORD
5
111
100
AcDbSymbolTableRecord
100
AcDbBlockTableRecord
2
_U0
340
0
70
0
0
BLOCK_RECORD
5
11D
100
AcDbSymbolTableRecord
100
AcDbBlockTableRecord
2
*D3
340
0
70
0
0
BLOCK_RECORD
5
129
100
AcDbSymbolTableRecord
100
AcDbBlockTableRecord
2
_U1
340
0
70
0
0
BLOCK_RECORD
5
135
100
AcDbSymbolTableRecord
100
AcDbBlockTableRecord
2
*D5
340
0
70
0
0
BLOCK_RECORD
5
141
100
AcDbSymbolTableRecord
100
AcDbBlockTableRecord
2
_U2
340
0
70
0
0
BLOCK_RECORD
5
14D
100
AcDbSymbolTableRecord
100
AcDbBlockTableRecord
2
*D7
340
0
70
0
0
BLOCK_RECORD
5
15B
100
AcDbSymbolTableRecord
100
AcDbBlockTableRecord
2
_U3
340
0
70
0
0
BLOCK_RECORD
5
167
100
AcDbSymbolTableRecord
100
AcDbBlockTableRecord
2
*D9
340
0
70
0
0
BLOCK_RECORD
5
173
100
AcDbSymbolTableRecord
100
AcDbBlockTableRecord
2
_U4
340
0
70
0
0
ENDTAB
0
ENDSEC
0
SECTION
2
BLOCKS
0
BLOCK
5
20
100
AcDbEntity
8
0
100
AcDbBlockBegin
2
*Model_Space
70
0
10
0
20
0
30
0
3
*Model_Space
0
ENDBLK
5
21
100
AcDbEntity
8
0
100
AcDbBlockEnd
0
BLOCK
5
1C
100
AcDbEntity
8
0
100
AcDbBlockBegin
2
*Paper_Space
70
0
10
0
20
0
30
0
3
*Paper_Space
0
ENDBLK
5
1D
100
AcDbEntity
8
0
100
AcDbBlockEnd
0
BLOCK
5
24
100
AcDbEntity
8
0
100
AcDbBlockBegin
2
*Paper_Space0
70
0
10
0
20
0
30
0
3
*Paper_Space0
0
ENDBLK
5
25
100
AcDbEntity
8
0
100
AcDbBlockEnd
0
BLOCK
5
106
100
AcDbEntity
8
0
100
AcDbBlockBegin
2
*D1
70
1
10
0
20
0
30
0
3
*D1
0
LINE
5
108
100
AcDbEntity
8
0
62
256
6
ByLayer
370
-2
48
1
60
0
100
AcDbLine
10
0
20
-1.5875
30
0
11
0
21
-15.363398
31
0
39
0
210
0
220
0
230
1
0
LINE
5
109
100
AcDbEntity
8
0
62
256
6
ByLayer
370
-2
48
1
60
0
100
AcDbLine
10
41.7803
20
-4.7375
30
0
11
41.7803
21
-15.363398
31
0
39
0
210
0
220
0
230
1
0
LINE
5
10A
100
AcDbEntity
8
0
62
256
6
ByLayer
370
-2
48
1
60
0
100
AcDbLine
10
3.5
20
-13.363398
30
0
11
38.2803
21
-13.363398
31
0
39
0
210
0
220
0
230
1
0
SOLID
5
10B
100
AcDbEntity
8
0
62
256
6
ByLayer
370
-1
48
1
60
0
100
AcDbTrace
10
3.5
20
-12.780065
30
0
11
3.5
21
-13.946732
31
0
12
0
22
-13.363398
32
0
13
0
23
-13.363398
33
0
39
0
210
0
220
0
230
1
0
SOLID
5
10C
100
AcDbEntity
8
0
62
256
6
ByLayer
370
-1
48
1
60
0
100
AcDbTrace
10
38.2803
20
-13.946732
30
0
11
38.2803
21
-12.780065
31
0
12
41.7803
22
-13.363398
32
0
13
41.7803
23
-13.363398
33
0
39
0
210
0
220
0
230
1
0
MTEXT
5
10D
100
AcDbEntity
8
0
62
256
6
ByLayer
370
18
48
1
60
0
100
AcDbMText
10
20.89015
20
-6.363398
30
0
210
0
220
0
230
1
1
\A1;41.78
40
3.5
41
0
44
1
50
0
71
5
72
5
7
iso_b_vert
0
POINT
5
10E
100
AcDbEntity
8
Defpoints
62
0
6
ByLayer
370
-1
48
1
60
0
100
AcDbPoint
10
0
20
0
30
0
39
0
210
0
220
0
230
1
50
360
0
POINT
5
10F
100
AcDbEntity
8
Defpoints
62
0
6
ByLayer
370
-1
48
1
60
0
100
AcDbPoint
10
41.7803
20
-3.15
30
0
39
0
210
0
220
0
230
1
50
360
0
POINT
5
110
100
AcDbEntity
8
Defpoints
62
0
6
ByLayer
370
-1
48
1
60
0
100
AcDbPoint
10
41.7803
20
-13.363398
30
0
39
0
210
0
220
0
230
1
50
360
0
ENDBLK
5
107
100
AcDbEntity
8
0
100
AcDbBlockEnd
0
BLOCK
5
118
100
AcDbEntity
8
0
100
AcDbBlockBegin
2
_U0
70
0
10
0
20
0
30
0
3
_U0
0
MTEXT
5
112
100
AcDbEntity
8
2
62
256
6
ByLayer
370
13
48
1
60
0
100
AcDbMText
10
16.006018
20
-12.330765
30
0
210
0
220
0
230
1
1
\W0.6977;41,78
40
3.5
41
0
44
1.084337
50
0
71
7
72
5
7
iso_b_vert
0
LINE
5
113
100
AcDbEntity
8
2
62
256
6
ByLayer
370
13
48
1
60
0
100
AcDbLine
10
0
20
-1.5875
30
0
11
0
21
-15.363398
31
0
39
0
210
0
220
0
230
1
0
LINE
5
114
100
AcDbEntity
8
2
62
256
6
ByLayer
370
13
48
1
60
0
100
AcDbLine
10
41.7803
20
-4.7375
30
0
11
41.7803
21
-15.363398
31
0
39
0
210
0
220
0
230
1
0
LINE
5
115
100
AcDbEntity
8
2
62
256
6
ByLayer
370
13
48
1
60
0
100
AcDbLine
10
0
20
-13.363398
30
0
11
41.7803
21
-13.363398
31
0
39
0
210
0
220
0
230
1
0
SOLID
5
116
100
AcDbEntity
8
2
62
256
6
ByLayer
370
18
48
1
60
0
100
AcDbTrace
10
0
20
-13.363398
30
0
11
3.499998
21
-12.902615
31
0
12
3.500002
22
-13.824182
32
0
13
3.500002
23
-13.824182
33
0
39
0
210
0
220
0
230
1
0
SOLID
5
117
100
AcDbEntity
8
2
62
256
6
ByLayer
370
18
48
1
60
0
100
AcDbTrace
10
41.7803
20
-13.363398
30
0
11
38.280302
21
-13.824182
31
0
12
38.280298
22
-12.902615
32
0
13
38.280298
23
-12.902615
33
0
39
0
210
0
220
0
230
1
0
ENDBLK
5
119
100
AcDbEntity
8
0
100
AcDbBlockEnd
0
BLOCK
5
11E
100
AcDbEntity
8
0
100
AcDbBlockBegin
2
*D3
70
1
10
0
20
0
30
0
3
*D3
0
LINE
5
120
100
AcDbEntity
8
0
62
256
6
ByLayer
370
-2
48
1
60
0
100
AcDbLine
10
-36
20
-5.5875
30
0
11
-36
21
-34.692985
31
0
39
0
210
0
220
0
230
1
0
LINE
5
121
100
AcDbEntity
8
0
62
256
6
ByLayer
370
-2
48
1
60
0
100
AcDbLine
10
43
20
-1.5875
30
0
11
43
21
-34.692985
31
0
39
0
210
0
220
0
230
1
0
LINE
5
122
100
AcDbEntity
8
0
62
256
6
ByLayer
370
-2
48
1
60
0
100
AcDbLine
10
-32.5
20
-32.692985
30
0
11
39.5
21
-32.692985
31
0
39
0
210
0
220
0
230
1
0
SOLID
5
123
100
AcDbEntity
8
0
62
256
6
ByLayer
370
-1
48
1
60
0
100
AcDbTrace
10
-32.5
20
-32.109652
30
0
11
-32.5
21
-33.276319
31
0
12
-36
22
-32.692985
32
0
13
-36
23
-32.692985
33
0
39
0
210
0
220
0
230
1
0
SOLID
5
124
100
AcDbEntity
8
0
62
256
6
ByLayer
370
-1
48
1
60
0
100
AcDbTrace
10
39.5
20
-33.276319
30
0
11
39.5
21
-32.109652
31
0
12
43
22
-32.692985
32
0
13
43
23
-32.692985
33
0
39
0
210
0
220
0
230
1
0
MTEXT
5
125
100
AcDbEntity
8
0
62
256
6
ByLayer
370
18
48
1
60
0
100
AcDbMText
10
3.5
20
-25.692985
30
0
210
0
220
0
230
1
1
\A1;79.00
40
3.5
41
0
44
1
50
0
71
5
72
5
7
iso_b_vert
0
POINT
5
126
100
AcDbEntity
8
Defpoints
62
0
6
ByLayer
370
-1
48
1
60
0
100
AcDbPoint
10
-36
20
-4
30
0
39
0
210
0
220
0
230
1
50
360
0
POINT
5
127
100
AcDbEntity
8
Defpoints
62
0
6
ByLayer
370
-1
48
1
60
0
100
AcDbPoint
10
43
20
0
30
0
39
0
210
0
220
0
230
1
50
360
0
POINT
5
128
100
AcDbEntity
8
Defpoints
62
0
6
ByLayer
370
-1
48
1
60
0
100
AcDbPoint
10
43
20
-32.692985
30
0
39
0
210
0
220
0
230
1
50
360
0
ENDBLK
5
11F
100
AcDbEntity
8
0
100
AcDbBlockEnd
0
BLOCK
5
130
100
AcDbEntity
8
0
100
AcDbBlockBegin
2
_U1
70
0
10
0
20
0
30
0
3
_U1
0
MTEXT
5
12A
100
AcDbEntity
8
SK2
62
256
6
ByLayer
370
13
48
1
60
0
100
AcDbMText
10
-1.637299
20
-31.660352
30
0
210
0
220
0
230
1
1
\W0.7317;79,00
40
3.5
41
0
44
1.084337
50
0
71
7
72
5
7
iso_b_vert
0
LINE
5
12B
100
AcDbEntity
8
SK2
62
256
6
ByLayer
370
13
48
1
60
0
100
AcDbLine
10
-36
20
-5.5875
30
0
11
-36
21
-34.692985
31
0
39
0
210
0
220
0
230
1
0
LINE
5
12C
100
AcDbEntity
8
SK2
62
256
6
ByLayer
370
13
48
1
60
0
100
AcDbLine
10
43
20
-1.5875
30
0
11
43
21
-34.692985
31
0
39
0
210
0
220
0
230
1
0
LINE
5
12D
100
AcDbEntity
8
SK2
62
256
6
ByLayer
370
13
48
1
60
0
100
AcDbLine
10
-36
20
-32.692985
30
0
11
43
21
-32.692985
31
0
39
0
210
0
220
0
230
1
0
SOLID
5
12E
100
AcDbEntity
8
SK2
62
256
6
ByLayer
370
18
48
1
60
0
100
AcDbTrace
10
-36
20
-32.692985
30
0
11
-32.500002
21
-32.232202
31
0
12
-32.499998
22
-33.153769
32
0
13
-32.499998
23
-33.153769
33
0
39
0
210
0
220
0
230
1
0
SOLID
5
12F
100
AcDbEntity
8
SK2
62
256
6
ByLayer
370
18
48
1
60
0
100
AcDbTrace
10
43
20
-32.692985
30
0
11
39.500002
21
-33.153769
31
0
12
39.499998
22
-32.232202
32
0
13
39.499998
23
-32.232202
33
0
39
0
210
0
220
0
230
1
0
ENDBLK
5
131
100
AcDbEntity
8
0
100
AcDbBlockEnd
0
BLOCK
5
136
100
AcDbEntity
8
0
100
AcDbBlockBegin
2
*D5
70
1
10
0
20
0
30
0
3
*D5
0
LINE
5
138
100
AcDbEntity
8
0
62
256
6
ByLayer
370
-2
48
1
60
0
100
AcDbLine
10
22.88
20
4.7375
30
0
11
22.88
21
16.759119
31
0
39
0
210
0
220
0
230
1
0
LINE
5
139
100
AcDbEntity
8
0
62
256
6
ByLayer
370
-2
48
1
60
0
100
AcDbLine
10
43
20
1.5875
30
0
11
43
21
16.759119
31
0
39
0
210
0
220
0
230
1
0
LINE
5
13A
100
AcDbEntity
8
0
62
256
6
ByLayer
370
-2
48
1
60
0
100
AcDbLine
10
26.38
20
14.759119
30
0
11
39.5
21
14.759119
31
0
39
0
210
0
220
0
230
1
0
SOLID
5
13B
100
AcDbEntity
8
0
62
256
6
ByLayer
370
-1
48
1
60
0
100
AcDbTrace
10
26.38
20
15.342453
30
0
11
26.38
21
14.175786
31
0
12
22.88
22
14.759119
32
0
13
22.88
23
14.759119
33
0
39
0
210
0
220
0
230
1
0
SOLID
5
13C
100
AcDbEntity
8
0
62
256
6
ByLayer
370
-1
48
1
60
0
100
AcDbTrace
10
39.5
20
14.175786
30
0
11
39.5
21
15.342453
31
0
12
43
22
14.759119
32
0
13
43
23
14.759119
33
0
39
0
210
0
220
0
230
1
0
MTEXT
5
13D
100
AcDbEntity
8
0
62
256
6
ByLayer
370
18
48
1
60
0
100
AcDbMText
10
32.94
20
21.759119
30
0
210
0
220
0
230
1
1
\A1;20.12
40
3.5
41
0
44
1
50
0
71
5
72
5
7
iso_b_vert
0
POINT
5
13E
100
AcDbEntity
8
Defpoints
62
0
6
ByLayer
370
-1
48
1
60
0
100
AcDbPoint
10
22.88
20
3.15
30
0
39
0
210
0
220
0
230
1
50
360
0
POINT
5
13F
100
AcDbEntity
8
Defpoints
62
0
6
ByLayer
370
-1
48
1
60
0
100
AcDbPoint
10
43
20
0
30
0
39
0
210
0
220
0
230
1
50
360
0
POINT
5
140
100
AcDbEntity
8
Defpoints
62
0
6
ByLayer
370
-1
48
1
60
0
100
AcDbPoint
10
43
20
14.759119
30
0
39
0
210
0
220
0
230
1
50
360
0
ENDBLK
5
137
100
AcDbEntity
8
0
100
AcDbBlockEnd
0
BLOCK
5
148
100
AcDbEntity
8
0
100
AcDbBlockBegin
2
_U2
70
0
10
0
20
0
30
0
3
_U2
0
MTEXT
5
142
100
AcDbEntity
8
SK2
62
256
6
ByLayer
370
13
48
1
60
0
100
AcDbMText
10
28.240135
20
15.791753
30
0
210
0
220
0
230
1
1
\W0.6713;20,12
40
3.5
41
0
44
1.084337
50
0
71
7
72
5
7
iso_b_vert
0
LINE
5
143
100
AcDbEntity
8
SK2
62
256
6
ByLayer
370
13
48
1
60
0
100
AcDbLine
10
22.88
20
4.7375
30
0
11
22.88
21
16.759119
31
0
39
0
210
0
220
0
230
1
0
LINE
5
144
100
AcDbEntity
8
SK2
62
256
6
ByLayer
370
13
48
1
60
0
100
AcDbLine
10
43
20
1.5875
30
0
11
43
21
16.759119
31
0
39
0
210
0
220
0
230
1
0
LINE
5
145
100
AcDbEntity
8
SK2
62
256
6
ByLayer
370
13
48
1
60
0
100
AcDbLine
10
22.88
20
14.759119
30
0
11
43
21
14.759119
31
0
39
0
210
0
220
0
230
1
0
SOLID
5
146
100
AcDbEntity
8
SK2
62
256
6
ByLayer
370
18
48
1
60
0
100
AcDbTrace
10
22.88
20
14.759119
30
0
11
26.379998
21
15.219903
31
0
12
26.380002
22
14.298335
32
0
13
26.380002
23
14.298335
33
0
39
0
210
0
220
0
230
1
0
SOLID
5
147
100
AcDbEntity
8
SK2
62
256
6
ByLayer
370
18
48
1
60
0
100
AcDbTrace
10
43
20
14.759119
30
0
11
39.500002
21
14.298335
31
0
12
39.499998
22
15.219903
32
0
13
39.499998
23
15.219903
33
0
39
0
210
0
220
0
230
1
0
ENDBLK
5
149
100
AcDbEntity
8
0
100
AcDbBlockEnd
0
BLOCK
5
14E
100
AcDbEntity
8
0
100
AcDbBlockBegin
2
*D7
70
1
10
0
20
0
30
0
3
*D7
0
LINE
5
150
100
AcDbEntity
8
0
62
256
6
ByLayer
370
-2
48
1
60
0
100
AcDbLine
10
43
20
-1.5875
30
0
11
43
21
-17.952503
31
0
39
0
210
0
220
0
230
1
0
LINE
5
151
100
AcDbEntity
8
0
62
256
6
ByLayer
370
-2
48
1
60
0
100
AcDbLine
10
41.7803
20
-4.7375
30
0
11
41.7803
21
-17.952503
31
0
39
0
210
0
220
0
230
1
0
LINE
5
152
100
AcDbEntity
8
0
62
256
6
ByLayer
370
-2
48
1
60
0
100
AcDbLine
10
43
20
-15.952503
30
0
11
70.666667
21
-15.952503
31
0
39
0
210
0
220
0
230
1
0
LINE
5
153
100
AcDbEntity
8
0
62
256
6
ByLayer
370
-2
48
1
60
0
100
AcDbLine
10
46.5
20
-15.952503
30
0
11
50
21
-15.952503
31
0
39
0
210
0
220
0
230
1
0
LINE
5
154
100
AcDbEntity
8
0
62
256
6
ByLayer
370
-2
48
1
60
0
100
AcDbLine
10
38.2803
20
-15.952503
30
0
11
34.7803
21
-15.952503
31
0
39
0
210
0
220
0
230
1
0
SOLID
5
155
100
AcDbEntity
8
0
62
256
6
ByLayer
370
-1
48
1
60
0
100
AcDbTrace
10
46.5
20
-15.36917
30
0
11
46.5
21
-16.535837
31
0
12
43
22
-15.952503
32
0
13
43
23
-15.952503
33
0
39
0
210
0
220
0
230
1
0
SOLID
5
156
100
AcDbEntity
8
0
62
256
6
ByLayer
370
-1
48
1
60
0
100
AcDbTrace
10
38.2803
20
-16.535837
30
0
11
38.2803
21
-15.36917
31
0
12
41.7803
22
-15.952503
32
0
13
41.7803
23
-15.952503
33
0
39
0
210
0
220
0
230
1
0
MTEXT
5
157
100
AcDbEntity
8
0
62
256
6
ByLayer
370
18
48
1
60
0
100
AcDbMText
10
60.333333
20
-8.952503
30
0
210
0
220
0
230
1
1
\A1;1.22
40
3.5
41
0
44
1
50
0
71
5
72
5
7
iso_b_vert
0
POINT
5
158
100
AcDbEntity
8
Defpoints
62
0
6
ByLayer
370
-1
48
1
60
0
100
AcDbPoint
10
43
20
0
30
0
39
0
210
0
220
0
230
1
50
360
0
POINT
5
159
100
AcDbEntity
8
Defpoints
62
0
6
ByLayer
370
-1
48
1
60
0
100
AcDbPoint
10
41.7803
20
-3.15
30
0
39
0
210
0
220
0
230
1
50
360
0
POINT
5
15A
100
AcDbEntity
8
Defpoints
62
0
6
ByLayer
370
-1
48
1
60
0
100
AcDbPoint
10
41.7803
20
-15.952503
30
0
39
0
210
0
220
0
230
1
50
360
0
ENDBLK
5
14F
100
AcDbEntity
8
0
100
AcDbBlockEnd
0
BLOCK
5
162
100
AcDbEntity
8
0
100
AcDbBlockBegin
2
_U3
70
0
10
0
20
0
30
0
3
_U3
0
MTEXT
5
15C
100
AcDbEntity
8
SK2
62
256
6
ByLayer
370
13
48
1
60
0
100
AcDbMText
10
49.589293
20
-14.91987
30
0
210
0
220
0
230
1
1
\W0.6367;1,22
40
3.5
41
0
44
1.084337
50
0
71
7
72
5
7
iso_b_vert
0
LINE
5
15D
100
AcDbEntity
8
SK2
62
256
6
ByLayer
370
13
48
1
60
0
100
AcDbLine
10
43
20
-1.5875
30
0
11
43
21
-17.952503
31
0
39
0
210
0
220
0
230
1
0
LINE
5
15E
100
AcDbEntity
8
SK2
62
256
6
ByLayer
370
13
48
1
60
0
100
AcDbLine
10
41.7803
20
-4.7375
30
0
11
41.7803
21
-17.952503
31
0
39
0
210
0
220
0
230
1
0
LINE
5
15F
100
AcDbEntity
8
SK2
62
256
6
ByLayer
370
13
48
1
60
0
100
AcDbLine
10
33.0303
20
-15.952503
30
0
11
56.559058
21
-15.952503
31
0
39
0
210
0
220
0
230
1
0
SOLID
5
160
100
AcDbEntity
8
SK2
62
256
6
ByLayer
370
18
48
1
60
0
100
AcDbTrace
10
43
20
-15.952503
30
0
11
46.499998
21
-15.491719
31
0
12
46.500002
22
-16.413287
32
0
13
46.500002
23
-16.413287
33
0
39
0
210
0
220
0
230
1
0
SOLID
5
161
100
AcDbEntity
8
SK2
62
256
6
ByLayer
370
18
48
1
60
0
100
AcDbTrace
10
41.7803
20
-15.952503
30
0
11
38.280302
21
-16.413287
31
0
12
38.280298
22
-15.491719
32
0
13
38.280298
23
-15.491719
33
0
39
0
210
0
220
0
230
1
0
ENDBLK
5
163
100
AcDbEntity
8
0
100
AcDbBlockEnd
0
BLOCK
5
168
100
AcDbEntity
8
0
100
AcDbBlockBegin
2
*D9
70
1
10
0
20
0
30
0
3
*D9
0
LINE
5
16A
100
AcDbEntity
8
0
62
256
6
ByLayer
370
-2
48
1
60
0
100
AcDbLine
10
-36
20
-5.5875
30
0
11
-36
21
-24.343428
31
0
39
0
210
0
220
0
230
1
0
LINE
5
16B
100
AcDbEntity
8
0
62
256
6
ByLayer
370
-2
48
1
60
0
100
AcDbLine
10
41.7803
20
-4.7375
30
0
11
41.7803
21
-24.343428
31
0
39
0
210
0
220
0
230
1
0
LINE
5
16C
100
AcDbEntity
8
0
62
256
6
ByLayer
370
-2
48
1
60
0
100
AcDbLine
10
-32.5
20
-22.343428
30
0
11
38.2803
21
-22.343428
31
0
39
0
210
0
220
0
230
1
0
SOLID
5
16D
100
AcDbEntity
8
0
62
256
6
ByLayer
370
-1
48
1
60
0
100
AcDbTrace
10
-32.5
20
-21.760095
30
0
11
-32.5
21
-22.926762
31
0
12
-36
22
-22.343428
32
0
13
-36
23
-22.343428
33
0
39
0
210
0
220
0
230
1
0
SOLID
5
16E
100
AcDbEntity
8
0
62
256
6
ByLayer
370
-1
48
1
60
0
100
AcDbTrace
10
38.2803
20
-22.926762
30
0
11
38.2803
21
-21.760095
31
0
12
41.7803
22
-22.343428
32
0
13
41.7803
23
-22.343428
33
0
39
0
210
0
220
0
230
1
0
MTEXT
5
16F
100
AcDbEntity
8
0
62
256
6
ByLayer
370
18
48
1
60
0
100
AcDbMText
10
2.89015
20
-15.343428
30
0
210
0
220
0
230
1
1
\A1;77.78
40
3.5
41
0
44
1
50
0
71
5
72
5
7
iso_b_vert
0
POINT
5
170
100
AcDbEntity
8
Defpoints
62
0
6
ByLayer
370
-1
48
1
60
0
100
AcDbPoint
10
-36
20
-4
30
0
39
0
210
0
220
0
230
1
50
360
0
POINT
5
171
100
AcDbEntity
8
Defpoints
62
0
6
ByLayer
370
-1
48
1
60
0
100
AcDbPoint
10
41.7803
20
-3.15
30
0
39
0
210
0
220
0
230
1
50
360
0
POINT
5
172
100
AcDbEntity
8
Defpoints
62
0
6
ByLayer
370
-1
48
1
60
0
100
AcDbPoint
10
41.7803
20
-22.343428
30
0
39
0
210
0
220
0
230
1
50
360
0
ENDBLK
5
169
100
AcDbEntity
8
0
100
AcDbBlockEnd
0
BLOCK
5
17A
100
AcDbEntity
8
0
100
AcDbBlockBegin
2
_U4
70
0
10
0
20
0
30
0
3
_U4
0
MTEXT
5
174
100
AcDbEntity
8
SK2
62
256
6
ByLayer
370
13
48
1
60
0
100
AcDbMText
10
-2.247149
20
-21.310795
30
0
210
0
220
0
230
1
1
\W0.7317;77,78
40
3.5
41
0
44
1.084337
50
0
71
7
72
5
7
iso_b_vert
0
LINE
5
175
100
AcDbEntity
8
SK2
62
256
6
ByLayer
370
13
48
1
60
0
100
AcDbLine
10
-36
20
-5.5875
30
0
11
-36
21
-24.343428
31
0
39
0
210
0
220
0
230
1
0
LINE
5
176
100
AcDbEntity
8
SK2
62
256
6
ByLayer
370
13
48
1
60
0
100
AcDbLine
10
41.7803
20
-4.7375
30
0
11
41.7803
21
-24.343428
31
0
39
0
210
0
220
0
230
1
0
LINE
5
177
100
AcDbEntity
8
SK2
62
256
6
ByLayer
370
13
48
1
60
0
100
AcDbLine
10
-36
20
-22.343428
30
0
11
41.7803
21
-22.343428
31
0
39
0
210
0
220
0
230
1
0
SOLID
5
178
100
AcDbEntity
8
SK2
62
256
6
ByLayer
370
18
48
1
60
0
100
AcDbTrace
10
-36
20
-22.343428
30
0
11
-32.500002
21
-21.882645
31
0
12
-32.499998
22
-22.804212
32
0
13
-32.499998
23
-22.804212
33
0
39
0
210
0
220
0
230
1
0
SOLID
5
179
100
AcDbEntity
8
SK2
62
256
6
ByLayer
370
18
48
1
60
0
100
AcDbTrace
10
41.7803
20
-22.343428
30
0
11
38.280302
21
-22.804212
31
0
12
38.280298
22
-21.882645
32
0
13
38.280298
23
-21.882645
33
0
39
0
210
0
220
0
230
1
0
ENDBLK
5
17B
100
AcDbEntity
8
0
100
AcDbBlockEnd
0
ENDSEC
0
SECTION
2
ENTITIES
0
ARC
5
A7
100
AcDbEntity
8
1
62
256
6
ByLayer
370
18
48
1
60
0
100
AcDbCircle
39
0
10
0
20
-3.15
30
0
40
0.850000000000002
210
0
220
0
230
1
100
AcDbArc
50
270
51
332.782887
0
ARC
5
A8
100
AcDbEntity
8
1
62
256
6
ByLayer
370
18
48
1
60
0
100
AcDbCircle
39
0
10
1.511776
20
-3.927518
30
0
40
0.850000000000002
210
0
220
0
230
1
100
AcDbArc
50
89.896868
51
152.782887
0
ARC
5
A9
100
AcDbEntity
8
1
62
256
6
ByLayer
370
18
48
1
60
0
100
AcDbCircle
39
0
10
1.511776
20
3.927518
30
0
40
0.850000000000002
210
0
220
0
230
1
100
AcDbArc
50
207.217113
51
270.103132
0
ARC
5
AA
100
AcDbEntity
8
1
62
256
6
ByLayer
370
18
48
1
60
0
100
AcDbCircle
39
0
10
0
20
3.15
30
0
40
0.850000000000002
210
0
220
0
230
1
100
AcDbArc
50
27.217113
51
90
0
ELLIPSE
5
AB
100
AcDbEntity
8
1
62
256
6
ByLayer
370
13
48
1
60
0
100
AcDbEllipse
10
9.973791
20
0.788945
30
0
11
0.126078433823486
21
0.272220918602184
31
0
210
0
220
0
230
1
40
0.104275
41
-2.54594115992365
42
-1.78731235823748
0
ELLIPSE
5
AC
100
AcDbEntity
8
1
62
256
6
ByLayer
370
13
48
1
60
0
100
AcDbEllipse
10
14.552994
20
-75.469395
30
0
11
-9.09665732899752
21
73.9041897243745
31
0
210
0
220
0
230
1
40
0.870464
41
-0.11176025538309
42
-0.0395832114864152
0
ELLIPSE
5
AD
100
AcDbEntity
8
1
62
256
6
ByLayer
370
13
48
1
60
0
100
AcDbEllipse
10
87.194174
20
42.489532
30
0
11
-61.2499999999999
21
7.50071391716205E-15
31
0
210
0
220
0
230
1
40
0.99863
41
0.747243645933526
42
0.76376495367221
0
ELLIPSE
5
AE
100
AcDbEntity
8
1
62
256
6
ByLayer
370
18
48
1
60
0
100
AcDbEllipse
10
9.972303
20
-4.007626
30
0
11
1
21
0
31
0
210
0
220
0
230
1
40
1
41
1.56992285855546
42
1.98426284109714
0
ELLIPSE
5
AF
100
AcDbEntity
8
1
62
256
6
ByLayer
370
18
48
1
60
0
100
AcDbEllipse
10
9.972303
20
4.007626
30
0
11
1
21
0
31
0
210
0
220
0
230
1
40
1
41
-1.98291160122212
42
-1.56758204124672
0
POINT
5
70
100
AcDbEntity
8
80
62
256
6
ByLayer
370
18
48
1
60
0
100
AcDbPoint
10
0
20
0
30
0
39
0
210
0
220
0
230
1
50
360
0
POINT
5
72
100
AcDbEntity
8
81
62
256
6
ByLayer
370
18
48
1
60
0
100
AcDbPoint
10
43
20
0
30
0
39
0
210
0
220
0
230
1
50
360
0
POINT
5
74
100
AcDbEntity
8
1
62
256
6
ByLayer
370
18
48
1
60
1
100
AcDbPoint
10
41.7803
20
-3.15
30
0
39
0
210
0
220
0
230
1
50
360
0
POINT
5
76
100
AcDbEntity
8
1
62
256
6
ByLayer
370
18
48
1
60
1
100
AcDbPoint
10
-36
20
-4
30
0
39
0
210
0
220
0
230
1
50
360
0
POINT
5
77
100
AcDbEntity
8
1
62
256
6
ByLayer
370
18
48
1
60
1
100
AcDbPoint
10
22.88
20
3.15
30
0
39
0
210
0
220
0
230
1
50
360
0
POINT
5
78
100
AcDbEntity
8
1
62
256
6
ByLayer
370
18
48
1
60
1
100
AcDbPoint
10
41.7803
20
-3.15
30
0
39
0
210
0
220
0
230
1
50
360
0
POINT
5
79
100
AcDbEntity
8
1
62
256
6
ByLayer
370
18
48
1
60
1
100
AcDbPoint
10
-36
20
-4
30
0
39
0
210
0
220
0
230
1
50
360
0
POINT
5
7A
100
AcDbEntity
8
1
62
256
6
ByLayer
370
18
48
1
60
1
100
AcDbPoint
10
41.7803
20
-3.15
30
0
39
0
210
0
220
0
230
1
50
360
0
SPLINE
5
B0
100
AcDbEntity
8
1
62
256
6
ByLayer
370
18
48
1
60
0
100
AcDbSpline
70
4
71
3
72
8
73
4
40
0
40
0
40
0
40
0
40
1
40
1
40
1
40
1
41
1
10
41.8722410622164
20
-3.11624115134424
30
0
41
1
10
41.853214175406
20
-3.09591016206355
30
0
41
1
10
41.8368570414934
20
-3.06650414509826
30
0
41
1
10
41.8228329268381
20
-3.02763187286564
30
0
0
SPLINE
5
B1
100
AcDbEntity
8
1
62
256
6
ByLayer
370
18
48
1
60
0
100
AcDbSpline
70
4
71
3
72
56
73
52
40
0
40
0
40
0
40
0
40
0.0312499999999998
40
0.0312499999999998
40
0.0624999999999995
40
0.0624999999999995
40
0.0937499999999993
40
0.0937499999999993
40
0.124999999999999
40
0.124999999999999
40
0.187499999999999
40
0.187499999999999
40
0.218749999999998
40
0.218749999999998
40
0.249999999999998
40
0.249999999999998
40
0.312499999999998
40
0.312499999999998
40
0.374999999999997
40
0.374999999999997
40
0.406249999999997
40
0.406249999999997
40
0.437499999999998
40
0.437499999999998
40
0.468749999999998
40
0.468749999999998
40
0.499999999999999
40
0.499999999999999
40
0.531249999999999
40
0.531249999999999
40
0.562499999999999
40
0.562499999999999
40
0.625
40
0.625
40
0.656250000000001
40
0.656250000000001
40
0.687500000000001
40
0.687500000000001
40
0.750000000000002
40
0.750000000000002
40
0.781250000000002
40
0.781250000000002
40
0.812500000000001
40
0.812500000000001
40
0.875000000000001
40
0.875000000000001
40
0.906250000000001
40
0.906250000000001
40
0.9375
40
0.9375
40
1
40
1
40
1
40
1
41
1
10
16.1454790237082
20
2.33335049057027
30
0
41
1
10
16.4154943736927
20
2.41390543284115
30
0
41
1
10
16.6847065158669
20
2.48839046367201
30
0
41
1
10
17.2216564271637
20
2.62553891725619
30
0
41
1
10
17.4891693973845
20
2.68845244313638
30
0
41
1
10
18.0235392562433
20
2.80152500959125
30
0
41
1
10
18.2902622943268
20
2.8518608709052
30
0
41
1
10
18.8233442713213
20
2.93966588622283
30
0
41
1
10
19.089515511573
20
2.97725239976097
30
0
41
1
10
19.8891466581081
20
3.06954145797752
30
0
41
1
10
20.4224768891698
20
3.10454912430186
30
0
41
1
10
21.2269605507992
20
3.11504284152139
30
0
41
1
10
21.4956935238874
20
3.11155848720989
30
0
41
1
10
22.0352319282429
20
3.09031873069111
30
0
41
1
10
22.3050549991156
20
3.07270193214669
30
0
41
1
10
23.110188019701
20
2.99919910912612
30
0
41
1
10
23.6440389300198
20
2.92311016888345
30
0
41
1
10
24.7096192690491
20
2.72054186976413
30
0
41
1
10
25.241521570757
20
2.59411453545093
30
0
41
1
10
26.0419090861874
20
2.37131841532468
30
0
41
1
10
26.3091114877012
20
2.29153132420711
30
0
41
1
10
26.8446573523966
20
2.12120936429267
30
0
41
1
10
27.1130378999402
20
2.03071069854738
30
0
41
1
10
27.6519669163191
20
1.84053552081662
30
0
41
1
10
27.9221236577486
20
1.74095839377205
30
0
41
1
10
28.4605456009305
20
1.53430738520856
30
0
41
1
10
28.7295212862037
20
1.42749643167076
30
0
41
1
10
29.2674784815916
20
1.20788642697693
30
0
41
1
10
29.5364033293131
20
1.09497339404757
30
0
41
1
10
30.0745883702758
20
0.863766142860158
30
0
41
1
10
30.3445943264731
20
0.74622107884025
30
0
41
1
10
31.1534173657551
20
0.388435995453847
30
0
41
1
10
31.6906797829277
20
0.144697032699099
30
0
41
1
10
32.4976151672735
20
-0.219903321943292
30
0
41
1
10
32.7664899517774
20
-0.341888109509568
30
0
41
1
10
33.3057535126218
20
-0.582917178220669
30
0
41
1
10
33.5753103600905
20
-0.702896751164673
30
0
41
1
10
34.3803239845587
20
-1.05494158746413
30
0
41
1
10
34.9136136241104
20
-1.28107857527053
30
0
41
1
10
35.712018307267
20
-1.60024655038893
30
0
41
1
10
35.9781202400957
20
-1.70287670579444
30
0
41
1
10
36.509989249813
20
-1.90113751968951
30
0
41
1
10
36.7760621026054
20
-1.99618340819811
30
0
41
1
10
37.5753346137993
20
-2.2679162959719
30
0
41
1
10
38.1093062280036
20
-2.43158914659045
30
0
41
1
10
38.9164243075945
20
-2.6431614415902
30
0
41
1
10
39.186218218842
20
-2.70834102719923
30
0
41
1
10
39.7241283921705
20
-2.82536551712667
30
0
41
1
10
39.9926487833932
20
-2.8775706870689
30
0
41
1
10
40.7977453530071
20
-3.01451764843421
30
0
41
1
10
41.334012698096
20
-3.07943246666886
30
0
41
1
10
41.8722410622164
20
-3.11624115134424
30
0
0
SPLINE
5
B2
100
AcDbEntity
8
1
62
256
6
ByLayer
370
18
48
1
60
0
100
AcDbSpline
70
4
71
3
72
16
73
12
40
0
40
0
40
0
40
0
40
0.25
40
0.25
40
0.375
40
0.375
40
0.5
40
0.5
40
0.75
40
0.75
40
1
40
1
40
1
40
1
41
1
10
41.7870678090313
20
-2.86868697410134
30
0
41
1
10
41.7388796009189
20
-2.8143782023391
30
0
41
1
10
41.6958885433357
20
-2.7492102104556
30
0
41
1
10
41.6393423507852
20
-2.63486711488662
30
0
41
1
10
41.6218226196378
20
-2.59397586258692
30
0
41
1
10
41.5895391023635
20
-2.50643493066201
30
0
41
1
10
41.5747307909259
20
-2.45961612921215
30
0
41
1
10
41.5349771235004
20
-2.31118922298862
30
0
41
1
10
41.5150171496669
20
-2.20317443446697
30
0
41
1
10
41.4880304432492
20
-1.96922797877517
30
0
41
1
10
41.4810002354565
20
-1.84301316547931
30
0
41
1
10
41.4808509282357
20
-1.70786867606219
30
0
0
SPLINE
5
B3
100
AcDbEntity
8
1
62
256
6
ByLayer
370
13
48
1
60
0
100
AcDbSpline
70
4
71
3
72
75
73
71
40
0
40
0
40
0
40
0
40
0.008370656830913
40
0.0165615781164412
40
0.0247524994019692
40
0.0411343419730257
40
0.0575161845440821
40
0.0738980271151383
40
0.098470790971723
40
0.106661712257251
40
0.123043554828308
40
0.139425397399364
40
0.172189082541477
40
0.180380003827004
40
0.188570925112533
40
0.204952767683589
40
0.213143688969118
40
0.221334610254646
40
0.237716452825702
40
0.254098295396758
40
0.270480137967814
40
0.295052901824399
40
0.303243823109927
40
0.319625665680984
40
0.33600750825204
40
0.368771193394153
40
0.376962114679681
40
0.385153035965209
40
0.401534878536266
40
0.409725799821794
40
0.417916721107322
40
0.434298563678378
40
0.450680406249435
40
0.467062248820491
40
0.491635012677076
40
0.499825933962604
40
0.51620777653366
40
0.532589619104717
40
0.565353304246829
40
0.573544225532358
40
0.581735146817886
40
0.598116989388942
40
0.60630791067447
40
0.614498831959998
40
0.630880674531055
40
0.647262517102111
40
0.663644359673167
40
0.688217123529752
40
0.69640804481528
40
0.712789887386336
40
0.729171729957393
40
0.761935415099506
40
0.770126336385034
40
0.778317257670562
40
0.794699100241618
40
0.802890021527147
40
0.811080942812675
40
0.827462785383731
40
0.843844627954788
40
0.860226470525844
40
0.884799234382428
40
0.892990155667956
40
0.909371998239013
40
0.925753840810069
40
0.958517525952182
40
0.96670844723771
40
0.974899368523238
40
0.991281211094295
40
0.999472132379823
40
1
40
1
40
1
40
1
41
1
10
31.6060630569011
20
0.0614850898777206
30
0
41
1
10
31.5674740960408
20
0.0697105704902867
30
0
41
1
10
31.4911261258266
20
0.0859864672904393
30
0
41
1
10
31.3770222031964
20
0.110310751597495
30
0
41
1
10
31.2259721830993
20
0.14238269684634
30
0
41
1
10
31.0371591747069
20
0.182381438583292
30
0
41
1
10
30.8105947616617
20
0.230250310257673
30
0
41
1
10
30.5462572348865
20
0.285726178318555
30
0
41
1
10
30.3197089121657
20
0.333039027503218
30
0
41
1
10
30.0931581346387
20
0.379987036708542
30
0
41
1
10
29.90434431309
20
0.418746701721261
30
0
41
1
10
29.6022272558972
20
0.480064228901852
30
0
41
1
10
29.3379209426742
20
0.533096015841721
30
0
41
1
10
29.1113969941476
20
0.577958848403454
30
0
41
1
10
28.9603472846989
20
0.607464339776981
30
0
41
1
10
28.8093060499813
20
0.636697394364318
30
0
41
1
10
28.6582721769323
20
0.66563662350552
30
0
41
1
10
28.5072221197354
20
0.694236516656843
30
0
41
1
10
28.3184090661182
20
0.729525772852696
30
0
41
1
10
28.0918446546629
20
0.771168204954505
30
0
41
1
10
27.827507190513
20
0.818694935179507
30
0
41
1
10
27.6009589303214
20
0.858497332050717
30
0
41
1
10
27.374408162949
20
0.897368666793283
30
0
41
1
10
27.1855943043931
20
0.929036438546631
30
0
41
1
10
26.8834771451866
20
0.978274000332333
30
0
41
1
10
26.6191707594828
20
1.01981687175305
30
0
41
1
10
26.3926468469949
20
1.05419217531198
30
0
41
1
10
26.2415971641696
20
1.07652739618572
30
0
41
1
10
26.090555959838
20
1.09834086476607
30
0
41
1
10
25.9395221151428
20
1.11961511775794
30
0
41
1
10
25.7884720891162
20
1.14038800076002
30
0
41
1
10
25.5996590740313
20
1.16559529113863
30
0
41
1
10
25.373094654261
20
1.19467262346444
30
0
41
1
10
25.1087571215142
20
1.22701706788476
30
0
41
1
10
24.8822087959788
20
1.25325264957328
30
0
41
1
10
24.6556580178369
20
1.27813352067406
30
0
41
1
10
24.4668441972596
20
1.29789211264705
30
0
41
1
10
24.1647271444649
20
1.32756001900242
30
0
41
1
10
23.9004208383193
20
1.35129390282498
30
0
41
1
10
23.6738968974794
20
1.3699496681007
30
0
41
1
10
23.5228471935854
20
1.3817144093307
30
0
41
1
10
23.3718059649995
20
1.39278628759632
30
0
41
1
10
23.2207720985579
20
1.40315422590245
30
0
41
1
10
23.0697220482418
20
1.4129340796776
30
0
41
1
10
22.8809090036273
20
1.42421538291978
30
0
41
1
10
22.654344604896
20
1.43628945470905
30
0
41
1
10
22.3900071585679
20
1.44851264259029
30
0
41
1
10
22.1634589156117
20
1.45717595727481
30
0
41
1
10
21.9369081658929
20
1.46427187195894
30
0
41
1
10
21.7480943220322
20
1.46911141007382
30
0
41
1
10
21.4459771852229
20
1.47469584744687
30
0
41
1
10
21.1816708162714
20
1.47701471607058
30
0
41
1
10
20.9551469148021
20
1.47711637436618
30
0
41
1
10
20.8040972391629
20
1.47652340932547
30
0
41
1
10
20.6530560415907
20
1.47517250524765
30
0
41
1
10
20.5020222031964
20
1.47306142490217
30
0
41
1
10
20.3509721830993
20
1.47036620471471
30
0
41
1
10
20.1621591747069
20
1.4660152054638
30
0
41
1
10
19.9355947616616
20
1.45926696927398
30
0
41
1
10
19.6712572348865
20
1.44953199784766
30
0
41
1
10
19.4447089121657
20
1.43932103233399
30
0
41
1
10
19.2181581345235
20
1.42755917594059
30
0
41
1
10
19.029344314012
20
1.4167418727508
30
0
41
1
10
18.7272272601764
20
1.3973806438531
30
0
41
1
10
18.4629209490468
20
1.37791392316521
30
0
41
1
10
18.2363969976168
20
1.35943537829866
30
0
41
1
10
18.0853472846579
20
1.34656868008918
30
0
41
1
10
17.934306043703
20
1.33299494788827
30
0
41
1
10
17.8185972698609
20
1.3220587237675
30
0
41
1
10
17.77840314485
20
1.31819030420479
30
0
41
1
10
17.7759696364846
20
1.31795584127295
30
0
0
SPLINE
5
B4
100
AcDbEntity
8
1
62
256
6
ByLayer
370
18
48
1
60
0
100
AcDbSpline
70
4
71
1
72
4
73
2
40
0
40
0
40
1
40
1
41
1
10
41.8296128972596
20
-2.98988335959117
30
0
41
1
10
42.4366627949633
20
-0.940517250243317
30
0
0
SPLINE
5
B5
100
AcDbEntity
8
1
62
256
6
ByLayer
370
18
48
1
60
0
100
AcDbSpline
70
4
71
3
72
8
73
4
40
0
40
0
40
0
40
0
40
1
40
1
40
1
40
1
41
1
10
42.4421359607387
20
-0.904738635078218
30
0
41
1
10
42.4434540308395
20
-0.906055927528172
30
0
41
1
10
42.4447721640361
20
-0.907373156848138
30
0
41
1
10
42.4460903603192
20
-0.908690323029163
30
0
0
SPLINE
5
B6
100
AcDbEntity
8
1
62
256
6
ByLayer
370
18
48
1
60
0
100
AcDbSpline
70
4
71
3
72
66
73
62
40
0
40
0
40
0
40
0
40
0.0371202126729953
40
0.0371202126729953
40
0.0742404253459905
40
0.0742404253459905
40
0.111360638018986
40
0.111360638018986
40
0.129920744355484
40
0.129920744355484
40
0.148480850691981
40
0.148480850691981
40
0.185601063364976
40
0.185601063364976
40
0.222721276037972
40
0.222721276037972
40
0.259841488710967
40
0.259841488710967
40
0.296961701383962
40
0.296961701383962
40
0.334081914056957
40
0.334081914056957
40
0.352642020393455
40
0.352642020393455
40
0.371202126729953
40
0.371202126729953
40
0.408322339402949
40
0.408322339402949
40
0.445442552075945
40
0.445442552075945
40
0.482562764748941
40
0.482562764748941
40
0.519682977421937
40
0.519682977421937
40
0.556803190094933
40
0.556803190094933
40
0.593923402767929
40
0.593923402767929
40
0.631043615440925
40
0.631043615440925
40
0.668163828113921
40
0.668163828113921
40
0.705284040786917
40
0.705284040786917
40
0.723844147123415
40
0.723844147123415
40
0.742404253459912
40
0.742404253459912
40
0.779524466132906
40
0.779524466132906
40
0.816644678805901
40
0.816644678805901
40
0.853764891478895
40
0.853764891478895
40
0.89088510415189
40
0.89088510415189
40
0.928005316824884
40
0.928005316824884
40
0.965125529497879
40
0.965125529497879
40
1
40
1
40
1
40
1
41
1
10
14.0673764746087
20
2.51353310563786
30
0
41
1
10
14.3551717856835
20
2.44488421103603
30
0
41
1
10
14.6420901573188
20
2.36977556755511
30
0
41
1
10
15.2155627366025
20
2.20904935520045
30
0
41
1
10
15.502173870341
20
2.12257766347571
30
0
41
1
10
16.075573963214
20
1.93752170307218
30
0
41
1
10
16.3624345331732
20
1.83944871721462
30
0
41
1
10
16.7933633732418
20
1.68672089565743
30
0
41
1
10
16.9372357131848
20
1.63503379007483
30
0
41
1
10
17.2243429420204
20
1.5290314710692
30
0
41
1
10
17.367691173343
20
1.4747495005704
30
0
41
1
10
17.7975996043244
20
1.30910393370451
30
0
41
1
10
18.0841030998129
20
1.1952617279178
30
0
41
1
10
18.6569889395121
20
0.961696715557878
30
0
41
1
10
18.9434870106865
20
0.84238732184707
30
0
41
1
10
19.5171882883401
20
0.599369341548567
30
0
41
1
10
19.8048536834294
20
0.476106086377939
30
0
41
1
10
20.3781120059593
20
0.226931205123151
30
0
41
1
10
20.6645626970243
20
0.101998254568571
30
0
41
1
10
21.2372151359026
20
-0.148330870390197
30
0
41
1
10
21.5235581373773
20
-0.273399302345098
30
0
41
1
10
21.9534661177354
20
-0.460029108137746
30
0
41
1
10
22.0967618917201
20
-0.522243434581185
30
0
41
1
10
22.3839589371556
20
-0.645237019090871
30
0
41
1
10
22.5276296019749
20
-0.706448591939534
30
0
41
1
10
22.9578581977
20
-0.888698561326322
30
0
41
1
10
23.2443157626828
20
-1.00784534640295
30
0
41
1
10
23.8170118863301
20
-1.24092139550268
30
0
41
1
10
24.1031027835776
20
-1.3551877755807
30
0
41
1
10
24.6760846374631
20
-1.57537281755989
30
0
41
1
10
24.9632477670789
20
-1.68125628718846
30
0
41
1
10
25.5373664143596
20
-1.88496875096789
30
0
41
1
10
25.8237928798644
20
-1.98301506969705
30
0
41
1
10
26.3965601857488
20
-2.16700691997261
30
0
41
1
10
26.6826914049308
20
-2.25324742926435
30
0
41
1
10
27.2553760644068
20
-2.41379071220655
30
0
41
1
10
27.5420397729836
20
-2.48832206324326
30
0
41
1
10
28.1162598298371
20
-2.6254920069272
30
0
41
1
10
28.4027573331377
20
-2.68719671552387
30
0
41
1
10
28.9754676560227
20
-2.79701225078747
30
0
41
1
10
29.2614778801961
20
-2.84435946594723
30
0
41
1
10
29.8337589284205
20
-2.92359913895441
30
0
41
1
10
30.120029129197
20
-2.95584359606121
30
0
41
1
10
30.5503267855427
20
-2.99348622173272
30
0
41
1
10
30.6938894994957
20
-3.00426429788584
30
0
41
1
10
30.9805658709448
20
-3.02272818767801
30
0
41
1
10
31.1237258422609
20
-3.03007921756841
30
0
41
1
10
31.5531628887086
20
-3.04442410808843
30
0
41
1
10
31.8391707294293
20
-3.04515204973464
30
0
41
1
10
32.4112022221269
20
-3.03224686003108
30
0
41
1
10
32.6971345035624
20
-3.01897851715401
30
0
41
1
10
33.2700237365366
20
-2.97723417788021
30
0
41
1
10
33.5571727982137
20
-2.94732412511058
30
0
41
1
10
34.1299099897981
20
-2.87292091504233
30
0
41
1
10
34.4160607821988
20
-2.82852023249049
30
0
41
1
10
34.9879533893993
20
-2.72676252500389
30
0
41
1
10
35.2738347979271
20
-2.66873200181308
30
0
41
1
10
35.8463094934742
20
-2.53735083868554
30
0
41
1
10
36.1334797746251
20
-2.46501363529146
30
0
41
1
10
36.6890893394638
20
-2.31309655798262
30
0
41
1
10
36.9579578348702
20
-2.23523251777002
30
0
41
1
10
37.2265261368245
20
-2.1515829666904
30
0
0
SPLINE
5
B7
100
AcDbEntity
8
1
62
256
6
ByLayer
370
18
48
1
60
0
100
AcDbSpline
70
4
71
3
72
10
73
6
40
0
40
0
40
0
40
0
40
0.5
40
0.5
40
1
40
1
40
1
40
1
41
1
10
41.8722410622164
20
-3.11624115134424
30
0
41
1
10
41.9754644304892
20
-2.85412943986788
30
0
41
1
10
42.0800000181887
20
-2.58704779378255
30
0
41
1
10
42.287758541665
20
-2.04103221242758
30
0
41
1
10
42.3909913812121
20
-1.76209515713757
30
0
41
1
10
42.4911857762247
20
-1.47589515206121
30
0
0
SPLINE
5
B8
100
AcDbEntity
8
1
62
256
6
ByLayer
370
18
48
1
60
0
100
AcDbSpline
70
4
71
3
72
8
73
4
40
0
40
0
40
0
40
0
40
1
40
1
40
1
40
1
41
1
10
41.5678233674954
20
0.472571166053342
30
0
41
1
10
41.6815852128072
20
0.405405729430953
30
0
41
1
10
41.796100338714
20
0.341586007033527
30
0
41
1
10
41.9114280496029
20
0.281375400751188
30
0
0
SPLINE
5
B9
100
AcDbEntity
8
1
62
256
6
ByLayer
370
18
48
1
60
0
100
AcDbSpline
70
4
71
3
72
12
73
8
40
0
40
0
40
0
40
0
40
0.500000000000021
40
0.500000000000021
40
0.75000000000001
40
0.75000000000001
40
1
40
1
40
1
40
1
41
1
10
9.9743676725858
20
-2.99792164946734
30
0
41
1
10
9.90995108364208
20
-2.99451178169303
30
0
41
1
10
9.84407976264157
20
-2.9966581016576
30
0
41
1
10
9.7422015818741
20
-3.01150613942809
30
0
41
1
10
9.70749827397128
20
-3.01849892384763
30
0
41
1
10
9.63871830113177
20
-3.03682578769389
30
0
41
1
10
9.60449528865087
20
-3.04815664840558
30
0
41
1
10
9.57045968412248
20
-3.06194538565251
30
0
0
SPLINE
5
BA
100
AcDbEntity
8
1
62
256
6
ByLayer
370
18
48
1
60
0
100
AcDbSpline
70
4
71
3
72
16
73
12
40
0
40
0
40
0
40
0
40
0.132261452651332
40
0.132261452651332
40
0.421507635100901
40
0.421507635100901
40
0.566130726325685
40
0.566130726325685
40
0.710753817550469
40
0.710753817550469
40
1
40
1
40
1
40
1
41
1
10
41.5770743020561
20
0.45951104964368
30
0
41
1
10
41.5998304777601
20
0.478217503821526
30
0
41
1
10
41.6236502789637
20
0.498125999988304
30
0
41
1
10
41.7016609335227
20
0.563572781221382
30
0
41
1
10
41.7586825695212
20
0.611914228967862
30
0
41
1
10
41.8523371070486
20
0.686185896659879
30
0
41
1
10
41.8851593496555
20
0.711381724319295
30
0
41
1
10
41.9530488875161
20
0.760415049870971
30
0
41
1
10
41.9881292566822
20
0.78428061820199
30
0
41
1
10
42.0978926766117
20
0.852085507262416
30
0
41
1
10
42.1781146384405
20
0.89243078446907
30
0
41
1
10
42.2633221822443
20
0.91989295565628
30
0
0
SPLINE
5
BB
100
AcDbEntity
8
1
62
256
6
ByLayer
370
18
48
1
60
0
100
AcDbSpline
70
4
71
3
72
16
73
12
40
0
40
0
40
0
40
0
40
0.155414153762156
40
0.155414153762156
40
0.296178461468464
40
0.296178461468464
40
0.436942769174771
40
0.436942769174771
40
0.718471384587385
40
0.718471384587385
40
1
40
1
40
1
40
1
41
1
10
10.4125639746847
20
3.00814870600999
30
0
41
1
10
10.5940413063913
20
3.00741916839792
30
0
41
1
10
10.7772412939155
20
3.00100086937084
30
0
41
1
10
11.1289676785883
20
2.98065669373804
30
0
41
1
10
11.2972804992735
20
2.96737105566083
30
0
41
1
10
11.6358145648664
20
2.93510410506019
30
0
41
1
10
11.806005679238
20
2.91624427061677
30
0
41
1
10
12.319396454832
20
2.8512685428567
30
0
41
1
10
12.6655181925965
20
2.79633419384871
30
0
41
1
10
13.3641806865326
20
2.66827577620452
30
0
41
1
10
13.7152440974016
20
2.5946837070195
30
0
41
1
10
14.0673764746087
20
2.51353310563783
30
0
0
SPLINE
5
BC
100
AcDbEntity
8
1
62
256
6
ByLayer
370
18
48
1
60
0
100
AcDbSpline
70
4
71
3
72
8
73
4
40
0
40
0
40
0
40
0
40
1
40
1
40
1
40
1
41
1
10
42.9571500820731
20
-0.184300732964516
30
0
41
1
10
42.8492096354523
20
-0.489769149232586
30
0
41
1
10
42.7418292191062
20
-0.795431507597982
30
0
41
1
10
42.6350109732155
20
-1.10128854921916
30
0
0
SPLINE
5
BD
100
AcDbEntity
8
1
62
256
6
ByLayer
370
18
48
1
60
0
100
AcDbSpline
70
4
71
3
72
8
73
4
40
0
40
0
40
0
40
0
40
1
40
1
40
1
40
1
41
1
10
42.9998122354287
20
0.0646363884897312
30
0
41
1
10
42.9854946363402
20
0.104440078567393
30
0
41
1
10
42.9712748129248
20
0.144328143462275
30
0
41
1
10
42.9571500820673
20
0.184300732981058
30
0
0
SPLINE
5
BE
100
AcDbEntity
8
1
62
256
6
ByLayer
370
18
48
1
60
0
100
AcDbSpline
70
4
71
3
72
8
73
4
40
0
40
0
40
0
40
0
40
1
40
1
40
1
40
1
41
1
10
42.9998122354295
20
0.064636388491067
30
0
41
1
10
43.0000625881859
20
0.0215454628312557
30
0
41
1
10
43.0000625881858
20
-0.021545462828584
30
0
41
1
10
42.9998122354295
20
-0.0646363884883669
30
0
0
SPLINE
5
BF
100
AcDbEntity
8
1
62
256
6
ByLayer
370
18
48
1
60
0
100
AcDbSpline
70
4
71
3
72
10
73
6
40
0
40
0
40
0
40
0
40
0.5
40
0.5
40
1
40
1
40
1
40
1
41
1
10
42.2633221822442
20
0.919892955656195
30
0
41
1
10
42.3292290931391
20
0.941134582730712
30
0
41
1
10
42.3944081699991
20
0.965213121783506
30
0
41
1
10
42.5203559484222
20
1.02345693304739
30
0
41
1
10
42.5811322740933
20
1.05722458108161
30
0
41
1
10
42.6350109732155
20
1.10128854921911
30
0
0
SPLINE
5
C0
100
AcDbEntity
8
1
62
256
6
ByLayer
370
18
48
1
60
0
100
AcDbSpline
70
4
71
4
72
10
73
5
40
0
40
0
40
0
40
0
40
0
40
1
40
1
40
1
40
1
40
1
41
1
10
14.3366966793295
20
-1.77646820936815
30
0
41
1
10
14.2693666281493
20
-1.96073443343559
30
0
41
1
10
14.2020365769691
20
-2.145000657503
30
0
41
1
10
14.1347065257889
20
-2.32926688157045
30
0
41
1
10
14.0673764746087
20
-2.51353310563789
30
0
0
SPLINE
5
C1
100
AcDbEntity
8
1
62
256
6
ByLayer
370
18
48
1
60
0
100
AcDbSpline
70
4
71
3
72
16
73
12
40
0
40
0
40
0
40
0
40
0.125
40
0.125
40
0.249999999999999
40
0.249999999999999
40
0.499999999999999
40
0.499999999999999
40
0.75
40
0.75
40
1
40
1
40
1
40
1
41
1
10
9.56482073179046
20
0.857509048492517
30
0
41
1
10
9.56477522437655
20
0.838518756037217
30
0
41
1
10
9.56929075197715
20
0.820200348749466
30
0
41
1
10
9.5838698112178
20
0.785050246450623
30
0
41
1
10
9.59366058277823
20
0.768849648897287
30
0
41
1
10
9.62767055359112
20
0.722791615856153
30
0
41
1
10
9.65578958831705
20
0.696334909456482
30
0
41
1
10
9.71592656306274
20
0.648774764047971
30
0
41
1
10
9.74844406521129
20
0.627503228250873
30
0
41
1
10
9.81528834407337
20
0.589091880848144
30
0
41
1
10
9.84983697918699
20
0.571823120817498
30
0
41
1
10
9.88535159746394
20
0.556228642102155
30
0
0
SPLINE
5
C2
100
AcDbEntity
8
1
62
256
6
ByLayer
370
18
48
1
60
0
100
AcDbSpline
70
4
71
3
72
30
73
26
40
0
40
0
40
0
40
0
40
0.0731742495982427
40
0.0731742495982427
40
0.146348499196485
40
0.146348499196485
40
0.219522748794728
40
0.219522748794728
40
0.292696998392971
40
0.292696998392971
40
0.365871247991214
40
0.365871247991214
40
0.439045497589456
40
0.439045497589456
40
0.585393996785942
40
0.585393996785942
40
0.658568246384184
40
0.658568246384184
40
0.731742495982426
40
0.731742495982426
40
0.804916745580668
40
0.804916745580668
40
0.87809099517891
40
0.87809099517891
40
1
40
1
40
1
40
1
41
1
10
9.88535159746402
20
0.556228642102269
30
0
41
1
10
10.2194410684155
20
0.409529862936068
30
0
41
1
10
10.553534043782
20
0.260658596404483
30
0
41
1
10
11.2206055919345
20
-0.0376076575743696
30
0
41
1
10
11.5537649773173
20
-0.187012874552607
30
0
41
1
10
12.220651069012
20
-0.483410875656574
30
0
41
1
10
12.5546925545283
20
-0.630928723509157
30
0
41
1
10
13.2219002450307
20
-0.920308882420898
30
0
41
1
10
13.5548289104613
20
-1.06205590627798
30
0
41
1
10
14.2203927082645
20
-1.33744091228019
30
0
41
1
10
14.5529880541225
20
-1.47114903798629
30
0
41
1
10
15.2194240358132
20
-1.7273373312847
30
0
41
1
10
15.5536017882092
20
-1.85034488021952
30
0
41
1
10
16.5534719526756
20
-2.19843043417316
30
0
41
1
10
17.217866081304
20
-2.40220759266919
30
0
41
1
10
18.2175921047825
20
-2.6556452028041
30
0
41
1
10
18.551600104303
20
-2.73140380877314
30
0
41
1
10
19.2177457838893
20
-2.86293996951682
30
0
41
1
10
19.5502445169529
20
-2.91900973331534
30
0
41
1
10
20.2155291263646
20
-3.01057828209483
30
0
41
1
10
20.5483013479711
20
-3.04611050481134
30
0
41
1
10
21.2150696031197
20
-3.09598547759919
30
0
41
1
10
21.5486964967613
20
-3.11023730978488
30
0
41
1
10
22.4359956726577
20
-3.11930029582069
30
0
41
1
10
22.9893478655463
20
-3.0949491811617
30
0
41
1
10
23.5442924177852
20
-3.04105761611956
30
0
0
SPLINE
5
C3
100
AcDbEntity
8
1
62
256
6
ByLayer
370
18
48
1
60
0
100
AcDbSpline
70
4
71
3
72
8
73
4
40
0
40
0
40
0
40
0
40
1
40
1
40
1
40
1
41
1
10
42.4911857762247
20
1.47589515206118
30
0
41
1
10
42.5365315383718
20
1.34636737403466
30
0
41
1
10
42.5844184471946
20
1.221684024816
30
0
41
1
10
42.6350109732239
20
1.10128854919898
30
0
0
SPLINE
5
C4
100
AcDbEntity
8
1
62
256
6
ByLayer
370
18
48
1
60
0
100
AcDbSpline
70
4
71
3
72
8
73
4
40
0
40
0
40
0
40
0
40
1
40
1
40
1
40
1
41
1
10
41.82283292684
20
-3.02763187285962
30
0
41
1
10
41.8254770961226
20
-3.0145164476786
30
0
41
1
10
41.8277348633575
20
-3.00193877999212
30
0
41
1
10
41.8296128972645
20
-2.98988335956974
30
0
0
SPLINE
5
C5
100
AcDbEntity
8
1
62
256
6
ByLayer
370
18
48
1
60
0
100
AcDbSpline
70
4
71
3
72
26
73
22
40
0
40
0
40
0
40
0
40
0.25
40
0.25
40
0.375000000000002
40
0.375000000000002
40
0.500000000000003
40
0.500000000000003
40
0.562500000000003
40
0.562500000000003
40
0.625000000000002
40
0.625000000000002
40
0.687500000000002
40
0.687500000000002
40
0.750000000000001
40
0.750000000000001
40
0.875
40
0.875
40
0.9375
40
0.9375
40
1
40
1
40
1
40
1
41
1
10
9.57045968412109
20
-3.06194538565529
30
0
41
1
10
9.30914623594111
20
-3.03678526710405
30
0
41
1
10
9.05862775735227
20
-2.99565552003952
30
0
41
1
10
8.7072995967153
20
-2.89620586650918
30
0
41
1
10
8.59431343081428
20
-2.85668337796633
30
0
41
1
10
8.37960113905245
20
-2.75988823852163
30
0
41
1
10
8.27716646769852
20
-2.7020129900483
30
0
41
1
10
8.14169320250497
20
-2.59928881913365
30
0
41
1
10
8.09938506637465
20
-2.5623217518432
30
0
41
1
10
8.02157585308817
20
-2.48183072735273
30
0
41
1
10
7.98607232905658
20
-2.43816319599364
30
0
41
1
10
7.92497656306833
20
-2.34552318022071
30
0
41
1
10
7.8991121753009
20
-2.29631500642961
30
0
41
1
10
7.85794558787393
20
-2.19134893002385
30
0
41
1
10
7.84256679168533
20
-2.13505339892643
30
0
41
1
10
7.81533223956512
20
-1.95856800227435
30
0
41
1
10
7.82228249237053
20
-1.83403347030011
30
0
41
1
10
7.8690361148887
20
-1.63721241260456
30
0
41
1
10
7.89041694586697
20
-1.57126957395744
30
0
41
1
10
7.94279143783317
20
-1.44024873343613
30
0
41
1
10
7.97385111341603
20
-1.37491641989629
30
0
41
1
10
8.00922139072864
20
-1.30974493259132
30
0
0
SPLINE
5
C6
100
AcDbEntity
8
1
62
256
6
ByLayer
370
13
48
1
60
0
100
AcDbSpline
70
4
71
3
72
28
73
24
40
0
40
0
40
0
40
0
40
0.0673007235896271
40
0.0673007235896271
40
0.134601447179254
40
0.134601447179254
40
0.269202894358509
40
0.269202894358509
40
0.336503617948136
40
0.336503617948136
40
0.403804341537763
40
0.403804341537763
40
0.538405788717018
40
0.538405788717018
40
0.605706512306645
40
0.605706512306645
40
0.673007235896272
40
0.673007235896272
40
0.807608683075526
40
0.807608683075526
40
0.94221013025478
40
0.94221013025478
40
1
40
1
40
1
40
1
41
1
10
9.97442922363609
20
0.717623911590437
30
0
41
1
10
9.97442887949742
20
0.804108078288181
30
0
41
1
10
9.97442761273774
20
0.8893736388587
30
0
41
1
10
9.97442368180765
20
1.0574860102968
30
0
41
1
10
9.97442100451502
20
1.14061717455894
30
0
41
1
10
9.97441160356834
20
1.38355326055779
30
0
41
1
10
9.97440355443416
20
1.53725132780104
30
0
41
1
10
9.97439109556274
20
1.75572521953816
30
0
41
1
10
9.97438687118665
20
1.82652589924299
30
0
41
1
10
9.97437859221375
20
1.96398932970297
30
0
41
1
10
9.97437452735983
20
2.03083468783828
30
0
41
1
10
9.97436321627507
20
2.22127587471724
30
0
41
1
10
9.97435680425465
20
2.33609677398201
30
0
41
1
10
9.97434980394669
20
2.49044184883309
30
0
41
1
10
9.97434790008523
20
2.53889203037929
30
0
41
1
10
9.97434503017175
20
2.62963818416475
30
0
41
1
10
9.97434407190718
20
2.67183948343489
30
0
41
1
10
9.97434263360555
20
2.78670563603421
30
0
41
1
10
9.97434358008928
20
2.8486604301126
30
0
41
1
10
9.97434824660289
20
2.94361601846347
30
0
41
1
10
9.97435200703666
20
2.97661915170443
30
0
41
1
10
9.97435783227058
20
3.00103888367474
30
0
41
1
10
9.97435963976125
20
3.0054847014249
30
0
41
1
10
9.97436137826111
20
3.00702090756243
30
0
0
SPLINE
5
C7
100
AcDbEntity
8
1
62
256
6
ByLayer
370
18
48
1
60
0
100
AcDbSpline
70
4
71
3
72
8
73
4
40
0
40
0
40
0
40
0
40
1
40
1
40
1
40
1
41
1
10
42.4911857762247
20
-1.47589515206118
30
0
41
1
10
42.5365315383718
20
-1.34636737403488
30
0
41
1
10
42.5844184471944
20
-1.22168402481643
30
0
41
1
10
42.6350109732236
20
-1.10128854919958
30
0
0
SPLINE
5
C8
100
AcDbEntity
8
1
62
256
6
ByLayer
370
18
48
1
60
0
100
AcDbSpline
70
4
71
3
72
26
73
22
40
0
40
0
40
0
40
0
40
0.0302694702566068
40
0.0302694702566068
40
0.168802403077091
40
0.168802403077091
40
0.238068869487334
40
0.238068869487334
40
0.307335335897576
40
0.307335335897576
40
0.445868268718061
40
0.445868268718061
40
0.584401201538545
40
0.584401201538545
40
0.72293413435903
40
0.72293413435903
40
0.792200600769273
40
0.792200600769273
40
0.861467067179515
40
0.861467067179515
40
1
40
1
40
1
40
1
41
1
10
9.57022483122969
20
3.09201188281213
30
0
41
1
10
9.57019901010653
20
3.09200097561106
30
0
41
1
10
9.57017221855634
20
3.09119760209154
30
0
41
1
10
9.57001824872594
20
3.0822988706083
30
0
41
1
10
9.56987426125158
20
3.05868253101963
30
0
41
1
10
9.56963426741612
20
2.99918856148673
30
0
41
1
10
9.56955018925518
20
2.97532201829779
30
0
41
1
10
9.56937331885885
20
2.9192913672571
30
0
41
1
10
9.56928079659826
20
2.88718354109037
30
0
41
1
10
9.56899453138578
20
2.78034844070473
30
0
41
1
10
9.56879072515881
20
2.69469502146066
30
0
41
1
10
9.56834681304844
20
2.49469435739482
30
0
41
1
10
9.56810438803444
20
2.37915475018735
30
0
41
1
10
9.56758482136752
20
2.12730315542521
30
0
41
1
10
9.56730625844625
20
1.99040975956231
30
0
41
1
10
9.56684635130227
20
1.76853687083619
30
0
41
1
10
9.5666852264566
20
1.6914482007266
30
0
41
1
10
9.56634962425653
20
1.53328759631248
30
0
41
1
10
9.566175924394
20
1.45257684956823
30
0
41
1
10
9.56563417174604
20
1.20569067865978
30
0
41
1
10
9.56524557924732
20
1.03479835545369
30
0
41
1
10
9.56482073176841
20
0.857509048496581
30
0
0
SPLINE
5
C9
100
AcDbEntity
8
1
62
256
6
ByLayer
370
18
48
1
60
0
100
AcDbSpline
70
4
71
3
72
18
73
14
40
0
40
0
40
0
40
0
40
0.161394934680641
40
0.161394934680641
40
0.322789869361282
40
0.322789869361282
40
0.484184804041923
40
0.484184804041923
40
0.645579738722565
40
0.645579738722565
40
0.968369608083843
40
0.968369608083843
40
1
40
1
40
1
40
1
41
1
10
16.1454790237082
20
-2.33335049057027
30
0
41
1
10
16.4155413154074
20
-2.41391943718244
30
0
41
1
10
16.6848002022145
20
-2.48841625757706
30
0
41
1
10
17.2218427841575
20
-2.62558465141782
30
0
41
1
10
17.4894020090133
20
-2.68850584996682
30
0
41
1
10
18.0238640400448
20
-2.80158954316596
30
0
41
1
10
18.2906330441163
20
-2.85192875263164
30
0
41
1
10
18.8238076001058
20
-2.93973537660355
30
0
41
1
10
19.0900248646805
20
-2.97732056689156
30
0
41
1
10
19.8897961274083
20
-3.0695976260408
30
0
41
1
10
20.4232205855601
20
-3.10458788758962
30
0
41
1
10
21.0122024236669
20
-3.11223865504769
30
0
41
1
10
21.0647883475268
20
-3.1126531647995
30
0
41
1
10
21.1173997556759
20
-3.11279823746278
30
0
0
SPLINE
5
CA
100
AcDbEntity
8
1
62
256
6
ByLayer
370
18
48
1
60
0
100
AcDbSpline
70
4
71
3
72
14
73
10
40
0
40
0
40
0
40
0
40
0.30891395070722
40
0.30891395070722
40
0.481685463030417
40
0.481685463030417
40
0.654456975353614
40
0.654456975353614
40
1
40
1
40
1
40
1
41
1
10
37.2156253741545
20
2.14498630364082
30
0
41
1
10
37.6923231845523
20
2.30352393904934
30
0
41
1
10
38.1701760618473
20
2.44764134097648
30
0
41
1
10
38.9204079016922
20
2.64415125395956
30
0
41
1
10
39.1902417584461
20
2.70927558500256
30
0
41
1
10
39.7279379803181
20
2.82613421816294
30
0
41
1
10
39.9962432047935
20
2.87823615713478
30
0
41
1
10
40.8003734304393
20
3.01485557086406
30
0
41
1
10
41.3355557985129
20
3.07953799714713
30
0
41
1
10
41.8722410622165
20
3.11624115134424
30
0
0
SPLINE
5
CB
100
AcDbEntity
8
1
62
256
6
ByLayer
370
18
48
1
60
0
100
AcDbSpline
70
4
71
3
72
30
73
26
40
0
40
0
40
0
40
0
40
0.0884370022004061
40
0.0884370022004061
40
0.176874004400812
40
0.176874004400812
40
0.265311006601218
40
0.265311006601218
40
0.353748008801624
40
0.353748008801624
40
0.44218501100203
40
0.44218501100203
40
0.530622013202436
40
0.530622013202436
40
0.619059015402842
40
0.619059015402842
40
0.707496017603249
40
0.707496017603249
40
0.795933019803655
40
0.795933019803655
40
0.884370022004061
40
0.884370022004061
40
0.972807024204467
40
0.972807024204467
40
1
40
1
40
1
40
1
41
1
10
41.5678233674954
20
0.472571166053342
30
0
41
1
10
41.2818052361039
20
0.597282422150641
30
0
41
1
10
40.9958408680187
20
0.720261137439479
30
0
41
1
10
40.4239582785275
20
0.962635525075797
30
0
41
1
10
40.1381183113503
20
1.08216184053018
30
0
41
1
10
39.5654987495428
20
1.31490244349718
30
0
41
1
10
39.2785567554165
20
1.42827156178083
30
0
41
1
10
38.7063950211568
20
1.64552860366112
30
0
41
1
10
38.4203748457129
20
1.74974334065521
30
0
41
1
10
37.8486245959837
20
1.9500301968765
30
0
41
1
10
37.562838249315
20
2.04597639907655
30
0
41
1
10
36.9906122676359
20
2.22578134878915
30
0
41
1
10
36.7036044618153
20
2.30916467186535
30
0
41
1
10
36.130715853243
20
2.46573209812306
30
0
41
1
10
35.8443853786114
20
2.53781986784838
30
0
41
1
10
35.272421898633
20
2.66902864641779
30
0
41
1
10
34.9865495074886
20
2.72703682941022
30
0
41
1
10
34.4142375623239
20
2.82881999251833
30
0
41
1
10
34.1274724778971
20
2.87328481514675
30
0
41
1
10
33.5539990350628
20
2.94768871066182
30
0
41
1
10
33.2677129861631
20
2.97743892767852
30
0
41
1
10
32.6955036162518
20
3.01906072854095
30
0
41
1
10
32.4096815533849
20
3.03230858247053
30
0
41
1
10
32.0356111360748
20
3.04071176879711
30
0
41
1
10
31.9476211114447
20
3.04200935778158
30
0
41
1
10
31.8596022773091
20
3.04257868877994
30
0
0
SPLINE
5
CC
100
AcDbEntity
8
1
62
256
6
ByLayer
370
18
48
1
60
0
100
AcDbSpline
70
4
71
3
72
10
73
6
40
0
40
0
40
0
40
0
40
0.386880627797012
40
0.386880627797012
40
1
40
1
40
1
40
1
41
1
10
15.4710211693201
20
-2.13015584302534
30
0
41
1
10
15.290264735503
20
-2.18567223844795
30
0
41
1
10
15.1094851008096
20
-2.23878107404525
30
0
41
1
10
14.6420141021434
20
-2.36979448016524
30
0
41
1
10
14.3551612352204
20
-2.44488672767756
30
0
41
1
10
14.0673764746087
20
-2.51353310563789
30
0
0
SPLINE
5
CD
100
AcDbEntity
8
1
62
256
6
ByLayer
370
18
48
1
60
0
100
AcDbSpline
70
4
71
3
72
8
73
4
40
0
40
0
40
0
40
0
40
1
40
1
40
1
40
1
41
1
10
42.957150082072
20
0.184300732967728
30
0
41
1
10
42.8492099462703
20
0.489768269626666
30
0
41
1
10
42.7418295270862
20
0.795430625746349
30
0
41
1
10
42.6350109732155
20
1.10128854921911
30
0
0
SPLINE
5
CE
100
AcDbEntity
8
1
62
256
6
ByLayer
370
18
48
1
60
0
100
AcDbSpline
70
4
71
3
72
18
73
14
40
0
40
0
40
0
40
0
40
0.25
40
0.25
40
0.375
40
0.375
40
0.5
40
0.5
40
0.75
40
0.75
40
0.875
40
0.875
40
1
40
1
40
1
40
1
41
1
10
41.5678233674954
20
0.472571166053342
30
0
41
1
10
41.5247577299191
20
0.286702072831758
30
0
41
1
10
41.4901300978426
20
0.0992179369097528
30
0
41
1
10
41.4510840116178
20
-0.184476452148857
30
0
41
1
10
41.4402308567271
20
-0.279455097121314
30
0
41
1
10
41.4230647566932
20
-0.470281387757609
30
0
41
1
10
41.4168536565711
20
-0.565215025876228
30
0
41
1
10
41.4054353867475
20
-0.845123399252174
30
0
41
1
10
41.4072446830519
20
-1.02670845041439
30
0
41
1
10
41.4242882377256
20
-1.29145004186702
30
0
41
1
10
41.4324166194939
20
-1.37855647158781
30
0
41
1
10
41.4532169954437
20
-1.54694579190235
30
0
41
1
10
41.4659041836365
20
-1.62864164484748
30
0
41
1
10
41.480850928232
20
-1.70786867606213
30
0
0
SPLINE
5
CF
100
AcDbEntity
8
1
62
256
6
ByLayer
370
13
48
1
60
0
100
AcDbSpline
70
4
71
3
72
10
73
6
40
0
40
0
40
0
40
0
40
0.5
40
0.5
40
1
40
1
40
1
40
1
41
1
10
9.97442922363609
20
0.717623911590437
30
0
41
1
10
9.90377571996669
20
0.738436129669338
30
0
41
1
10
9.8342323832415
20
0.760253596399565
30
0
41
1
10
9.69754139106726
20
0.806628288678951
30
0
41
1
10
9.62999570721482
20
0.831341630386675
30
0
41
1
10
9.56482073179049
20
0.857509048492517
30
0
0
SPLINE
5
D0
100
AcDbEntity
8
1
62
256
6
ByLayer
370
18
48
1
60
0
100
AcDbSpline
70
4
71
3
72
16
73
12
40
0
40
0
40
0
40
0
40
0.249999999999997
40
0.249999999999997
40
0.499999999999994
40
0.499999999999994
40
0.624999999999994
40
0.624999999999994
40
0.749999999999995
40
0.749999999999995
40
1
40
1
40
1
40
1
41
1
10
14.0673764746087
20
-2.51353310563783
30
0
41
1
10
13.7160469562915
20
-2.59449868432364
30
0
41
1
10
13.3663128223686
20
-2.66782317353864
30
0
41
1
10
12.6705268430312
20
-2.79547732495473
30
0
41
1
10
12.3243906363342
20
-2.85056720208058
30
0
41
1
10
11.808345362226
20
-2.915982304967
30
0
41
1
10
11.6371400869876
20
-2.93497098785809
30
0
41
1
10
11.2971930869235
20
-2.96738613934244
30
0
41
1
10
11.1283518415427
20
-2.98070547875946
30
0
41
1
10
10.6259118768316
20
-3.00972746220421
30
0
41
1
10
10.2962569432091
20
-3.01496073627394
30
0
41
1
10
9.97436767258574
20
-2.99792164946734
30
0
0
SPLINE
5
D1
100
AcDbEntity
8
1
62
256
6
ByLayer
370
13
48
1
60
0
100
AcDbSpline
70
4
71
3
72
74
73
70
40
0
40
0
40
0
40
0
40
0.0043716707578661
40
0.0291375812787844
40
0.0373928847857567
40
0.0539034917997017
40
0.070414098813648
40
0.103435312841538
40
0.111690616348511
40
0.119945919855483
40
0.136456526869428
40
0.144711830376401
40
0.152967133883374
40
0.169477740897319
40
0.185988347911264
40
0.20249895492521
40
0.227264865446128
40
0.2355201689531
40
0.252030775967045
40
0.268541382980991
40
0.301562597008881
40
0.309817900515854
40
0.318073204022826
40
0.334583811036772
40
0.342839114543744
40
0.351094418050717
40
0.367605025064662
40
0.384115632078608
40
0.400626239092553
40
0.425392149613471
40
0.433647453120444
40
0.450158060134389
40
0.466668667148334
40
0.499689881176224
40
0.507945184683196
40
0.51620048819017
40
0.532711095204115
40
0.540966398711088
40
0.549221702218061
40
0.565732309232006
40
0.582242916245951
40
0.598753523259896
40
0.623519433780814
40
0.631774737287787
40
0.648285344301733
40
0.664795951315677
40
0.697817165343568
40
0.706072468850541
40
0.714327772357513
40
0.730838379371458
40
0.739093682878431
40
0.747348986385404
40
0.763859593399349
40
0.780370200413295
40
0.79688080742724
40
0.821646717948158
40
0.82990202145513
40
0.846412628469076
40
0.862923235483021
40
0.895944449510911
40
0.904199753017884
40
0.912455056524857
40
0.928965663538802
40
0.937220967045775
40
0.945476270552747
40
0.961986877566693
40
0.978497484580638
40
0.995008091594583
40
1
40
1
40
1
40
1
41
1
10
35.0036435454377
20
-1.3285441598666
30
0
41
1
10
34.983647738603
20
-1.33041183491474
30
0
41
1
10
34.8503728708376
20
-1.34275055348823
30
0
41
1
10
34.6793241221272
20
-1.3576545571409
30
0
41
1
10
34.4527498885852
20
-1.37594236427395
30
0
41
1
10
34.2639595541918
20
-1.3902152493641
30
0
41
1
10
33.9619099739622
20
-1.41100953378745
30
0
41
1
10
33.697570430306
20
-1.42667258477351
30
0
41
1
10
33.4709693329456
20
-1.43826137850681
30
0
41
1
10
33.3199357116503
20
-1.4453796297737
30
0
41
1
10
33.168893606492
20
-1.45174995759405
30
0
41
1
10
33.0178441318204
20
-1.45737195263067
30
0
41
1
10
32.8668108571551
20
-1.4624174221141
30
0
41
1
10
32.6780197458862
20
-1.46774484377536
30
0
41
1
10
32.4514591462804
20
-1.47260937592136
30
0
41
1
10
32.1871507737765
20
-1.47638428613138
30
0
41
1
10
31.9605740025687
20
-1.47774163746905
30
0
41
1
10
31.7339997405849
20
-1.4775280779441
30
0
41
1
10
31.5452094295021
20
-1.47627545250569
30
0
41
1
10
31.2431599333668
20
-1.4720822571858
30
0
41
1
10
30.9788204525595
20
-1.46584641783784
30
0
41
1
10
30.7522193157559
20
-1.45866616519618
30
0
41
1
10
30.6011856661503
20
-1.45320047569422
30
0
41
1
10
30.4501435299146
20
-1.44699541796464
30
0
41
1
10
30.2990940271343
20
-1.44006016583859
30
0
41
1
10
30.1480607221878
20
-1.43252542301181
30
0
41
1
10
29.9592695746255
20
-1.42214626369636
30
0
41
1
10
29.732708989318
20
-1.40823478125063
30
0
41
1
10
29.4684006973156
20
-1.39016284763511
30
0
41
1
10
29.2418240059383
20
-1.37294215140534
30
0
41
1
10
29.0152497717814
20
-1.35426203358608
30
0
41
1
10
28.8264594383594
20
-1.3376681080978
30
0
41
1
10
28.5244098625285
20
-1.30910382858639
30
0
41
1
10
28.26007032595
20
-1.28189231513753
30
0
41
1
10
28.0334692362763
20
-1.25702068400085
30
0
41
1
10
27.8824356205358
20
-1.23979438145824
30
0
41
1
10
27.731393521509
20
-1.22195167720949
30
0
41
1
10
27.5803440534445
20
-1.20350902646499
30
0
41
1
10
27.4293107856596
20
-1.18453551827241
30
0
41
1
10
27.2405196833921
20
-1.16002290508484
30
0
41
1
10
27.0139590965096
20
-1.12944313765456
30
0
41
1
10
26.7496507418283
20
-1.09226445447692
30
0
41
1
10
26.5230739878576
20
-1.05908149496855
30
0
41
1
10
26.2964997435291
20
-1.02477928330924
30
0
41
1
10
26.107709447143
20
-0.99537562466503
30
0
41
1
10
25.8056599734068
20
-0.946803656651724
30
0
41
1
10
25.5413205093519
20
-0.902775093869934
30
0
41
1
10
25.3147193835654
20
-0.864006926957103
30
0
41
1
10
25.1636857411453
20
-0.837646883798868
30
0
41
1
10
25.0126436116686
20
-0.810885574738876
30
0
41
1
10
24.8615941151889
20
-0.783744643725612
30
0
41
1
10
24.7105608161719
20
-0.756221598210885
30
0
41
1
10
24.5217696753021
20
-0.721307138189076
30
0
41
1
10
24.29520909672
20
-0.678713472014749
30
0
41
1
10
24.0309008106897
20
-0.628085884948291
30
0
41
1
10
23.8043241221273
20
-0.583989420090063
30
0
41
1
10
23.5777498885853
20
-0.539283340209209
30
0
41
1
10
23.3889595541919
20
-0.501542485251406
30
0
41
1
10
23.0869099739623
20
-0.440351028926841
30
0
41
1
10
22.8225704303061
20
-0.386203870427693
30
0
41
1
10
22.5959693329455
20
-0.339440210673189
30
0
41
1
10
22.4449357116503
20
-0.307959576853023
30
0
41
1
10
22.293893606492
20
-0.276355153623342
30
0
41
1
10
22.1428441318204
20
-0.244650642557161
30
0
41
1
10
21.9918108571551
20
-0.212771939466308
30
0
41
1
10
21.8030197458862
20
-0.172777712707045
30
0
41
1
10
21.5764591462803
20
-0.124666123491465
30
0
41
1
10
21.4025936597626
20
-0.0875956037690457
30
0
41
1
10
21.3042388044627
20
-0.0666303652151328
30
0
41
1
10
21.2814050174105
20
-0.0617633276585536
30
0
0
SPLINE
5
D2
100
AcDbEntity
8
1
62
256
6
ByLayer
370
18
48
1
60
0
100
AcDbSpline
70
4
71
4
72
10
73
5
40
0
40
0
40
0
40
0
40
0
40
1
40
1
40
1
40
1
40
1
41
1
10
16.145479023708
20
2.33335049057021
30
0
41
1
10
16.1074208339182
20
2.23856328982569
30
0
41
1
10
16.0693626441283
20
2.14377608908117
30
0
41
1
10
16.0313044543385
20
2.04898888833665
30
0
41
1
10
15.9932462645486
20
1.95420168759213
30
0
0
SPLINE
5
D3
100
AcDbEntity
8
1
62
256
6
ByLayer
370
18
48
1
60
0
100
AcDbSpline
70
4
71
3
72
10
73
6
40
0
40
0
40
0
40
0
40
0.5
40
0.5
40
1
40
1
40
1
40
1
41
1
10
12.2661755794506
20
-1.02168036085845
30
0
41
1
10
12.9149633869112
20
-1.2823206066067
30
0
41
1
10
13.5628839718471
20
-1.51955310176936
30
0
41
1
10
14.8561841918873
20
-1.95589374007599
30
0
41
1
10
15.5015730676387
20
-2.15486320530187
30
0
41
1
10
16.1454790237082
20
-2.3333504905703
30
0
0
SPLINE
5
D4
100
AcDbEntity
8
1
62
256
6
ByLayer
370
18
48
1
60
0
100
AcDbSpline
70
4
71
3
72
10
73
6
40
0
40
0
40
0
40
0
40
0.5
40
0.5
40
1
40
1
40
1
40
1
41
1
10
41.8296128972613
20
-2.98988335959177
30
0
41
1
10
41.8278689956543
20
-2.96131373631704
30
0
41
1
10
41.8225368349314
20
-2.93686265599032
30
0
41
1
10
41.8077298285365
20
-2.89709403610149
30
0
41
1
10
41.7981061447445
20
-2.8811273299124
30
0
41
1
10
41.7870678090271
20
-2.86868697409662
30
0
0
SPLINE
5
D5
100
AcDbEntity
8
1
62
256
6
ByLayer
370
18
48
1
60
0
100
AcDbSpline
70
4
71
3
72
10
73
6
40
0
40
0
40
0
40
0
40
0.5
40
0.5
40
1
40
1
40
1
40
1
41
1
10
41.8722410622164
20
3.11624115134421
30
0
41
1
10
41.9754570401377
20
2.85414820594477
30
0
41
1
10
42.079988684605
20
2.58707700802137
30
0
41
1
10
42.2877471432121
20
2.04106274078322
30
0
41
1
10
42.3909838893828
20
1.76211655715298
30
0
41
1
10
42.4911857762247
20
1.47589515206121
30
0
0
SPLINE
5
D6
100
AcDbEntity
8
1
62
256
6
ByLayer
370
13
48
1
60
0
100
AcDbSpline
70
4
71
3
72
22
73
18
40
0
40
0
40
0
40
0
40
0.0431035605756819
40
0.0818900877813062
40
0.120676614986929
40
0.19824966939818
40
0.275822723809429
40
0.35339577822068
40
0.469755359837543
40
0.508541887043176
40
0.586114941454422
40
0.663687995865676
40
0.818834104688172
40
0.857620631893798
40
0.896407159099414
40
0.973980213510671
40
1
40
1
40
1
40
1
41
1
10
42.4911857756373
20
1.47589515205615
30
0
41
1
10
42.4492224488156
20
1.4755353794886
30
0
41
1
10
42.3695001889878
20
1.47470347723117
30
0
41
1
10
42.2520222031963
20
1.4730614249022
30
0
41
1
10
42.1009721830993
20
1.47036620471471
30
0
41
1
10
41.9121591747069
20
1.4660152054638
30
0
41
1
10
41.6855947616615
20
1.45926696927401
30
0
41
1
10
41.4212572348863
20
1.44953199784768
30
0
41
1
10
41.1947089121656
20
1.43932103233399
30
0
41
1
10
40.9681581346386
20
1.42755917591526
30
0
41
1
10
40.7793443130899
20
1.41674187295706
30
0
41
1
10
40.4772272558971
20
1.39738050703227
30
0
41
1
10
40.2129209426742
20
1.37791330477876
30
0
41
1
10
39.9863969941475
20
1.35943382999957
30
0
41
1
10
39.8353472846987
20
1.34656635703652
30
0
41
1
10
39.6967350067611
20
1.33410863891905
30
0
41
1
10
39.5958874136578
20
1.32462757032923
30
0
41
1
10
39.57055664105
20
1.32221893972729
30
0
0
SPLINE
5
D7
100
AcDbEntity
8
1
62
256
6
ByLayer
370
18
48
1
60
0
100
AcDbSpline
70
4
71
3
72
10
73
6
40
0
40
0
40
0
40
0
40
0.414721550855152
40
0.414721550855152
40
1
40
1
40
1
40
1
41
1
10
22.4955926728017
20
-3.02755149127802
30
0
41
1
10
22.2987436501823
20
-3.02694538502209
30
0
41
1
10
22.102213957279
20
-3.02262589828501
30
0
41
1
10
21.6287849791998
20
-3.00337548877189
30
0
41
1
10
21.3521183164712
20
-2.9849955490329
30
0
41
1
10
21.0755509067824
20
-2.95958862149513
30
0
0
SPLINE
5
D8
100
AcDbEntity
8
1
62
256
6
ByLayer
370
13
48
1
60
0
100
AcDbSpline
70
4
71
3
72
22
73
18
40
0
40
0
40
0
40
0
40
0.104024959654994
40
0.104024959654994
40
0.193622463689495
40
0.193622463689495
40
0.283219967723997
40
0.283219967723997
40
0.462414975792999
40
0.462414975792999
40
0.552012479827499
40
0.552012479827499
40
0.641609983861999
40
0.641609983861999
40
0.820804991931
40
0.820804991931
40
1
40
1
40
1
40
1
41
1
10
21.0755509068526
20
-2.95958862150158
30
0
41
1
10
20.6928198292581
20
-2.92442894464239
30
0
41
1
10
20.3102788285324
20
-2.87581206949943
30
0
41
1
10
19.5970183976012
20
-2.76069784280898
30
0
41
1
10
19.266523051609
20
-2.69782175823579
30
0
41
1
10
18.6033884799631
20
-2.55357008061966
30
0
41
1
10
18.2703800739189
20
-2.47216347896324
30
0
41
1
10
17.2699757655082
20
-2.20286203140742
30
0
41
1
10
16.6055938919147
20
-1.99061949799861
30
0
41
1
10
15.6064597899792
20
-1.63549774601034
30
0
41
1
10
15.2722500089716
20
-1.5107168379048
30
0
41
1
10
14.6070241606125
20
-1.25283104466337
30
0
41
1
10
14.275676665383
20
-1.11952392292872
30
0
41
1
10
13.283496255323
20
-0.710857689988956
30
0
41
1
10
12.6247073420774
20
-0.426314813212116
30
0
41
1
10
11.303879301853
20
0.147042181666109
30
0
41
1
10
10.6421402653022
20
0.436426422266976
30
0
41
1
10
9.97442922363612
20
0.717623911590437
30
0
0
SPLINE
5
D9
100
AcDbEntity
8
1
62
256
6
ByLayer
370
18
48
1
60
0
100
AcDbSpline
70
4
71
3
72
8
73
4
40
0
40
0
40
0
40
0
40
1
40
1
40
1
40
1
41
1
10
15.4794671623042
20
2.14163896169077
30
0
41
1
10
15.7016410750122
20
2.20793882510728
30
0
41
1
10
15.9236480502612
20
2.27186013182182
30
0
41
1
10
16.1454790237082
20
2.3333504905703
30
0
0
SPLINE
5
DA
100
AcDbEntity
8
1
62
256
6
ByLayer
370
18
48
1
60
0
100
AcDbSpline
70
4
71
3
72
8
73
4
40
0
40
0
40
0
40
0
40
1
40
1
40
1
40
1
41
1
10
42.9998122354293
20
-0.0646363884881112
30
0
41
1
10
42.9854871789708
20
-0.104460810452451
30
0
41
1
10
42.9712674150023
20
-0.144349079373797
30
0
41
1
10
42.9571500820672
20
-0.184300732981228
30
0
0
SPLINE
5
DB
100
AcDbEntity
8
1
62
256
6
ByLayer
370
18
48
1
60
0
100
AcDbSpline
70
4
71
3
72
40
73
36
40
0
40
0
40
0
40
0
40
0.0937011268839185
40
0.0937011268839185
40
0.194401001674594
40
0.194401001674594
40
0.244750939069932
40
0.244750939069932
40
0.295100876465271
40
0.295100876465271
40
0.345450813860609
40
0.345450813860609
40
0.395800751255947
40
0.395800751255947
40
0.496500626046623
40
0.496500626046623
40
0.546850563441962
40
0.546850563441962
40
0.5972005008373
40
0.5972005008373
40
0.647550438232638
40
0.647550438232638
40
0.697900375627976
40
0.697900375627976
40
0.798600250418651
40
0.798600250418651
40
0.848950187813988
40
0.848950187813988
40
0.899300125209325
40
0.899300125209325
40
0.949650062604663
40
0.949650062604663
40
0.974825031302331
40
0.974825031302331
40
1
40
1
40
1
40
1
41
1
10
22.0191439454576
20
3.11442640771955
30
0
41
1
10
22.6382738029019
20
3.11520747564441
30
0
41
1
10
23.2562780057416
20
3.07859333100959
30
0
41
1
10
24.5439727571556
20
2.92641563786768
30
0
41
1
10
25.2082489491306
20
2.80583452677817
30
0
41
1
10
26.2059873313125
20
2.56931133961211
30
0
41
1
10
26.5391939583408
20
2.48108183675979
30
0
41
1
10
27.2057993953301
20
2.28774648743493
30
0
41
1
10
27.5383360337152
20
2.18293811648067
30
0
41
1
10
28.203063305441
20
1.95899339134479
30
0
41
1
10
28.5352780110735
20
1.83990198948362
30
0
41
1
10
29.2004556768084
20
1.5892855408463
30
0
41
1
10
29.5339953793648
20
1.45758763027896
30
0
41
1
10
30.5328317340673
20
1.04913259261832
30
0
41
1
10
31.1961947975548
20
0.759376590716329
30
0
41
1
10
32.1941874959302
20
0.312915099627531
30
0
41
1
10
32.52781341291
20
0.162096554684638
30
0
41
1
10
33.1931187941344
20
-0.13899659286983
30
0
41
1
10
33.5251608059977
20
-0.289580948652741
30
0
41
1
10
34.1894044773204
20
-0.587761786617733
30
0
41
1
10
34.5216122978885
20
-0.735346824163884
30
0
41
1
10
35.1872561850393
20
-1.02518474582362
30
0
41
1
10
35.520532879247
20
-1.16748161393727
30
0
41
1
10
36.5175551008206
20
-1.57958552203226
30
0
41
1
10
37.180611266251
20
-1.83567418355383
30
0
41
1
10
38.1795071825604
20
-2.17893576139104
30
0
41
1
10
38.5120265056527
20
-2.28596546205324
30
0
41
1
10
39.1749429070829
20
-2.48308744023495
30
0
41
1
10
39.5056073530997
20
-2.57342364819482
30
0
41
1
10
40.1667411785847
20
-2.73584012617204
30
0
41
1
10
40.4972473422457
20
-2.80789493149456
30
0
41
1
10
40.9936545693036
20
-2.90143135391864
30
0
41
1
10
41.1592305453619
20
-2.93018625882689
30
0
41
1
10
41.4907294583836
20
-2.9826993106214
30
0
41
1
10
41.656510721245
20
-3.00654704936755
30
0
41
1
10
41.8228329268372
20
-3.02763187286669
30
0
0
SPLINE
5
DC
100
AcDbEntity
8
1
62
256
6
ByLayer
370
18
48
1
60
0
100
AcDbSpline
70
4
71
3
72
20
73
16
40
0
40
0
40
0
40
0
40
0.125000000000001
40
0.125000000000001
40
0.250000000000003
40
0.250000000000003
40
0.375000000000004
40
0.375000000000004
40
0.500000000000005
40
0.500000000000005
40
0.750000000000002
40
0.750000000000002
40
0.875000000000001
40
0.875000000000001
40
1
40
1
40
1
40
1
41
1
10
42.4421359607322
20
-0.904738635070856
30
0
41
1
10
42.4033094460626
20
-0.90556407864392
30
0
41
1
10
42.3666132791981
20
-0.895976081948191
30
0
41
1
10
42.2966836264678
20
-0.859874015891847
30
0
41
1
10
42.2631406391448
20
-0.832892599408154
30
0
41
1
10
42.2011995244148
20
-0.765727002799366
30
0
41
1
10
42.1727134001623
20
-0.725723329457651
30
0
41
1
10
42.1199341344187
20
-0.634879459057572
30
0
41
1
10
42.0954936342386
20
-0.583589559524484
30
0
41
1
10
42.0293395453957
20
-0.418166356373376
30
0
41
1
10
41.9945744304875
20
-0.293406946925614
30
0
41
1
10
41.954089419715
20
-0.0881857400430306
30
0
41
1
10
41.9425806691171
20
-0.0164811284751636
30
0
41
1
10
41.9239022138676
20
0.129789231607958
30
0
41
1
10
41.9166490188829
20
0.204711715184288
30
0
41
1
10
41.9114280496029
20
0.281375400751188
30
0
0
SPLINE
5
DD
100
AcDbEntity
8
1
62
256
6
ByLayer
370
18
48
1
60
0
100
AcDbSpline
70
4
71
3
72
16
73
12
40
0
40
0
40
0
40
0
40
0.25
40
0.25
40
0.5
40
0.5
40
0.75
40
0.75
40
0.875
40
0.875
40
1
40
1
40
1
40
1
41
1
10
42.4460903603002
20
-0.908690323027741
30
0
41
1
10
42.4850979642531
20
-0.886944176270532
30
0
41
1
10
42.5276982108731
20
-0.845981388984484
30
0
41
1
10
42.6209588520995
20
-0.727237825152571
30
0
41
1
10
42.6691792054423
20
-0.652531001670383
30
0
41
1
10
42.7683719237588
20
-0.475768676320143
30
0
41
1
10
42.8172692826327
20
-0.377353621699854
30
0
41
1
10
42.8888357622569
20
-0.217139794087331
30
0
41
1
10
42.9121836105058
20
-0.162036266454436
30
0
41
1
10
42.9571455879114
20
-0.0502531349105482
30
0
41
1
10
42.9788727102284
20
0.0066797819062572
30
0
41
1
10
42.9998122354304
20
0.0646363884903565
30
0
0
SPLINE
5
DE
100
AcDbEntity
8
1
62
256
6
ByLayer
370
18
48
1
60
0
100
AcDbSpline
70
4
71
3
72
28
73
24
40
0
40
0
40
0
40
0
40
0.0312499999999984
40
0.0312499999999984
40
0.0624999999999968
40
0.0624999999999968
40
0.124999999999997
40
0.124999999999997
40
0.187499999999997
40
0.187499999999997
40
0.249999999999997
40
0.249999999999997
40
0.312499999999998
40
0.312499999999998
40
0.374999999999998
40
0.374999999999998
40
0.499999999999998
40
0.499999999999998
40
0.624999999999999
40
0.624999999999999
40
0.749999999999999
40
0.749999999999999
40
1
40
1
40
1
40
1
41
1
10
8.0092213907285
20
-1.30974493259154
30
0
41
1
10
8.03046413551959
20
-1.27060412348052
30
0
41
1
10
8.05685713491431
20
-1.23446240154703
30
0
41
1
10
8.11708963053005
20
-1.16659907477702
30
0
41
1
10
8.15116962593854
20
-1.13478621174977
30
0
41
1
10
8.25858749586712
20
-1.04732716013825
30
0
41
1
10
8.33800654237973
20
-0.998127509963751
30
0
41
1
10
8.50551951943797
20
-0.911007724774294
30
0
41
1
10
8.59189729134278
20
-0.874132433839662
30
0
41
1
10
8.76806328484548
20
-0.809247871848356
30
0
41
1
10
8.85788652253677
20
-0.781324862117657
30
0
41
1
10
9.040195808649
20
-0.732517256071787
30
0
41
1
10
9.13300223737647
20
-0.711610298635975
30
0
41
1
10
9.31868174300899
20
-0.676256497373316
30
0
41
1
10
9.41170568889777
20
-0.661754598230345
30
0
41
1
10
9.69125237022422
20
-0.62651575037691
30
0
41
1
10
9.87824441928746
20
-0.61395783355519
30
0
41
1
10
10.2533169139028
20
-0.607989799223844
30
0
41
1
10
10.4414010368409
20
-0.61464155273319
30
0
41
1
10
10.8186585908397
20
-0.647008352344415
30
0
41
1
10
11.0054639307544
20
-0.672576025825407
30
0
41
1
10
11.5580471979249
20
-0.776198188319285
30
0
41
1
10
11.9172143247056
20
-0.881490693069566
30
0
41
1
10
12.2661755794507
20
-1.02168036085843
30
0
0
SPLINE
5
DF
100
AcDbEntity
8
1
62
256
6
ByLayer
370
18
48
1
60
0
100
AcDbSpline
70
4
71
3
72
10
73
6
40
0
40
0
40
0
40
0
40
0.641983339004113
40
0.641983339004113
40
1
40
1
40
1
40
1
41
1
10
9.57045968411819
20
-3.06194538565435
30
0
41
1
10
9.57041917820027
20
-3.07470927962797
30
0
41
1
10
9.57037225871002
20
-3.08345969088864
30
0
41
1
10
9.57029003384815
20
-3.09069990109168
30
0
41
1
10
9.57025869613852
20
-3.09200119306283
30
0
41
1
10
9.57022577503798
20
-3.09201192842815
30
0
0
SPLINE
5
E0
100
AcDbEntity
8
1
62
256
6
ByLayer
370
18
48
1
60
0
100
AcDbSpline
70
4
71
1
72
4
73
2
40
0
40
0
40
1
40
1
41
1
10
42.4366627949613
20
-0.940517250242721
30
0
41
1
10
42.4460903602991
20
-0.908690323049257
30
0
0
SPLINE
5
E1
100
AcDbEntity
8
1
62
256
6
ByLayer
370
13
48
1
60
0
100
AcDbSpline
70
4
71
3
72
34
73
30
40
0
40
0
40
0
40
0
40
0.0599859271768168
40
0.0599859271768168
40
0.119971854353634
40
0.119971854353634
40
0.239943708707265
40
0.239943708707265
40
0.299929635884082
40
0.299929635884082
40
0.32992259947249
40
0.32992259947249
40
0.359915563060899
40
0.359915563060899
40
0.479887417414532
40
0.479887417414532
40
0.599859271768166
40
0.599859271768166
40
0.659845198944982
40
0.659845198944982
40
0.719831126121797
40
0.719831126121797
40
0.779817053298613
40
0.779817053298613
40
0.839802980475429
40
0.839802980475429
40
0.95977483482906
40
0.95977483482906
40
1
40
1
40
1
40
1
41
1
10
41.7870678090313
20
-2.86868697410134
30
0
41
1
10
41.4541568532965
20
-2.81652659695086
30
0
41
1
10
41.1216048671961
20
-2.75456757432539
30
0
41
1
10
40.4596179589549
20
-2.61301010413789
30
0
41
1
10
40.1297058977742
20
-2.5333339547947
30
0
41
1
10
39.1417373932585
20
-2.26973720423609
30
0
41
1
10
38.4849558281467
20
-2.06168442596012
30
0
41
1
10
37.4969548739906
20
-1.71110016184741
30
0
41
1
10
37.1670932715765
20
-1.58788548685158
30
0
41
1
10
36.6705537293107
20
-1.39522680244104
30
0
41
1
10
36.5047748051872
20
-1.32966874231349
30
0
41
1
10
36.1725722778619
20
-1.19609348771459
30
0
41
1
10
36.0058941316082
20
-1.12797641068357
30
0
41
1
10
35.1744103503397
20
-0.783550934280328
30
0
41
1
10
34.5146686743377
20
-0.496326316448403
30
0
41
1
10
33.1979695384199
20
0.0825537991642022
30
0
41
1
10
32.5407412843109
20
0.373567274540591
30
0
41
1
10
31.5506536531868
20
0.798646013750982
30
0
41
1
10
31.2199424992432
20
0.938488018252173
30
0
41
1
10
30.5556347842149
20
1.21093307319882
30
0
41
1
10
30.2219110766684
20
1.34415570438375
30
0
41
1
10
29.556486581947
20
1.59945985072307
30
0
41
1
10
29.2241306274108
20
1.72184083392764
30
0
41
1
10
28.5589594020528
20
1.95373869415664
30
0
41
1
10
28.2258434464206
20
2.06337045856455
30
0
41
1
10
27.2262883463538
20
2.36958701097709
30
0
41
1
10
26.5622805414568
20
2.54287470579081
30
0
41
1
10
25.672885584903
20
2.72421284801069
30
0
41
1
10
25.4493148829425
20
2.76560610184924
30
0
41
1
10
25.2258487871168
20
2.80261773966245
30
0
0
SPLINE
5
E2
100
AcDbEntity
8
1
62
256
6
ByLayer
370
18
48
1
60
0
100
AcDbSpline
70
4
71
2
72
6
73
3
40
0
40
0
40
0
40
1
40
1
40
1
41
1
10
21.2978505396683
20
-0.065268736905864
30
0
41
1
10
20.8129859944631
20
0.0373035664441375
30
0
41
1
10
20.3295510106343
20
0.250144778388346
30
0
0
SPLINE
5
E3
100
AcDbEntity
8
1
62
256
6
ByLayer
370
18
48
1
60
0
100
AcDbSpline
70
4
71
2
72
6
73
3
40
0
40
0
40
0
40
1
40
1
40
1
41
1
10
10.4145007430692
20
3.00796907933406
30
0
41
1
10
10.1943231215875
20
3.00805266432445
30
0
41
1
10
9.97434280920947
20
3.00685223033199
30
0
0
SPLINE
5
E4
100
AcDbEntity
8
1
62
256
6
ByLayer
370
18
48
1
60
0
100
AcDbSpline
70
4
71
3
72
26
73
22
40
0
40
0
40
0
40
0
40
0.0846634979305567
40
0.156518453083839
40
0.20471977149447
40
0.248145236388061
40
0.30118380448979
40
0.365692283777648
40
0.430287924969784
40
0.47700231814817
40
0.522256675143614
40
0.575962007688949
40
0.636695259167079
40
0.682558078334865
40
0.725021067745589
40
0.785639044948941
40
0.834299961090676
40
0.874592234983059
40
0.910936921709632
40
0.971813849635493
40
1
40
1
40
1
40
1
41
1
10
22.5061896453435
20
-3.02756918705794
30
0
41
1
10
22.7674463125314
20
-3.02772110048187
30
0
41
1
10
23.2505047485183
20
-3.02824044887527
30
0
41
1
10
23.8819244796082
20
-3.02972599275765
30
0
41
1
10
24.3870179228596
20
-3.03095927882413
30
0
41
1
10
24.8340531747385
20
-3.03165558408779
30
0
41
1
10
25.3314601709589
20
-3.0320570985493
30
0
41
1
10
25.8943114173302
20
-3.03349645349735
30
0
41
1
10
26.4375927924169
20
-3.03472203729072
30
0
41
1
10
26.9214064108729
20
-3.03481100604188
30
0
41
1
10
27.3715612398296
20
-3.03482808315587
30
0
41
1
10
27.8650366320157
20
-3.03635256999894
30
0
41
1
10
28.360391472524
20
-3.03713252176314
30
0
41
1
10
28.8210046936169
20
-3.03860619678585
30
0
41
1
10
29.2812641745875
20
-3.03943331903699
30
0
41
1
10
29.750167868423
20
-3.03907313272001
30
0
41
1
10
30.2123639780389
20
-3.03942230036051
30
0
41
1
10
30.5995504737248
20
-3.03989900615409
30
0
41
1
10
31.024486159634
20
-3.04228477026055
30
0
41
1
10
31.4120054919416
20
-3.04304120432497
30
0
41
1
10
31.6872225521573
20
-3.04302190556035
30
0
41
1
10
31.7743217478929
20
-3.04294514180199
30
0
0
SPLINE
5
E5
100
AcDbEntity
8
1
62
256
6
ByLayer
370
18
48
1
60
0
100
AcDbSpline
70
4
71
2
72
6
73
3
40
0
40
0
40
0
40
1
40
1
40
1
41
1
10
9.97434280920945
20
-3.00685223033199
30
0
41
1
10
10.1978027714736
20
-3.00806676969688
30
0
41
1
10
10.4214631632054
20
-3.00797698383519
30
0
0
SPLINE
5
E6
100
AcDbEntity
8
1
62
256
6
ByLayer
370
18
48
1
60
0
100
AcDbSpline
70
4
71
3
72
26
73
22
40
0
40
0
40
0
40
0
40
0.0477083778754432
40
0.133268205325409
40
0.199689846462877
40
0.249664467841659
40
0.291794232305323
40
0.325607686781543
40
0.380333968209607
40
0.44150622496997
40
0.481503751734626
40
0.523390848125697
40
0.608463499983314
40
0.665735858457161
40
0.72176975199513
40
0.797656570069477
40
0.848385271524425
40
0.903092689290892
40
0.943767965955675
40
0.977463621879057
40
1
40
1
40
1
40
1
41
1
10
31.8580760470133
20
3.04247743000059
30
0
41
1
10
31.7261364577228
20
3.04244072251907
30
0
41
1
10
31.3574319946895
20
3.04218871718592
30
0
41
1
10
30.8039006322731
20
3.04065442977034
30
0
41
1
10
30.244200086236
20
3.03933522148924
30
0
41
1
10
29.8040064453543
20
3.03917797139735
30
0
41
1
10
29.4545144182759
20
3.0392053103825
30
0
41
1
10
29.09179420669
20
3.03927278771769
30
0
41
1
10
28.6762279920548
20
3.03801106529494
30
0
41
1
10
28.243491376178
20
3.03709258042861
30
0
41
1
10
27.8463946937856
20
3.03623634469466
30
0
41
1
10
27.3829559978762
20
3.0347558330943
30
0
41
1
10
26.8715649154462
20
3.03486591505228
30
0
41
1
10
26.3209018890006
20
3.03455460908634
30
0
41
1
10
25.7957482140801
20
3.0331778261764
30
0
41
1
10
25.2887606978822
20
3.03204267629329
30
0
41
1
10
24.7854446380866
20
3.0315823791297
30
0
41
1
10
24.3798735284653
20
3.03093011357757
30
0
41
1
10
24.0215656664362
20
3.03004367369024
30
0
41
1
10
23.752604451968
20
3.02949267495524
30
0
41
1
10
23.5965167097063
20
3.02924176301477
30
0
41
1
10
23.5339596428642
20
3.02914702292136
30
0
0
SPLINE
5
E7
100
AcDbEntity
8
1
62
256
6
ByLayer
370
18
48
1
60
0
100
AcDbSpline
70
4
71
2
72
6
73
3
40
0
40
0
40
0
40
1
40
1
40
1
41
1
10
31.5909888435972
20
0.0646982988099296
30
0
41
1
10
32.1249449215453
20
-0.0493291828388465
30
0
41
1
10
32.6548896971816
20
-0.2911909247116
30
0
0
LINE
5
7B
100
AcDbEntity
8
SK1
62
256
6
ByLayer
370
18
48
1
60
0
100
AcDbLine
10
-34.845299
20
4
30
0
11
-34.845299
21
-4
31
0
39
0
210
0
220
0
230
1
0
LINE
5
7D
100
AcDbEntity
8
SK1
62
256
6
ByLayer
370
18
48
1
60
0
100
AcDbLine
10
-36
20
2
30
0
11
-36
21
-2
31
0
39
0
210
0
220
0
230
1
0
LINE
5
7E
100
AcDbEntity
8
SK1
62
256
6
ByLayer
370
18
48
1
60
0
100
AcDbLine
10
0
20
-4
30
0
11
0
21
4
31
0
39
0
210
0
220
0
230
1
0
LINE
5
7F
100
AcDbEntity
8
1
62
256
6
ByLayer
370
13
48
1
60
0
100
AcDbLine
10
0.755888
20
3.538759
30
0
11
0.755888
21
-3.538759
31
0
39
0
210
0
220
0
230
1
0
LINE
5
80
100
AcDbEntity
8
1
62
256
6
ByLayer
370
18
48
1
60
0
100
AcDbLine
10
41.480851
20
-1.707869
30
0
11
42.436663
21
-0.940517
31
0
39
0
210
0
220
0
230
1
0
LINE
5
81
100
AcDbEntity
8
1
62
256
6
ByLayer
370
13
48
1
60
0
100
AcDbLine
10
1.513306
20
3.077519
30
0
11
1.513306
21
-3.077519
31
0
39
0
210
0
220
0
230
1
0
LINE
5
82
100
AcDbEntity
8
1
62
256
6
ByLayer
370
18
48
1
60
0
100
AcDbLine
10
0
20
-4
30
0
11
0
21
4
31
0
39
0
210
0
220
0
230
1
0
LINE
5
83
100
AcDbEntity
8
1
62
256
6
ByLayer
370
18
48
1
60
0
100
AcDbLine
10
42.436663
20
-0.940517
30
0
11
42.442136
21
-0.904739
31
0
39
0
210
0
220
0
230
1
0
LINE
5
84
100
AcDbEntity
8
1
62
256
6
ByLayer
370
13
48
1
60
0
100
AcDbLine
10
9.974363
20
-3.007629
30
0
11
9.974368
21
-2.997922
31
0
39
0
210
0
220
0
230
1
0
LINE
5
85
100
AcDbEntity
8
80
62
256
6
ByLayer
370
18
48
1
60
0
100
AcDbLine
10
0
20
0
30
0
11
-5
21
0
31
0
39
0
210
0
220
0
230
1
0
LINE
5
86
100
AcDbEntity
8
4
62
256
6
ByLayer
370
18
48
0.05
60
0
100
AcDbLine
10
43
20
0
30
0
11
0
21
0
31
0
39
0
210
0
220
0
230
1
0
LINE
5
88
100
AcDbEntity
8
SK4
62
256
6
ByLayer
370
18
48
0.05
60
0
100
AcDbLine
10
48
20
0
30
0
11
-41
21
0
31
0
39
0
210
0
220
0
230
1
0
LINE
5
8A
100
AcDbEntity
8
SK1
62
256
6
ByLayer
370
18
48
1
60
0
100
AcDbLine
10
-36
20
-2
30
0
11
-34.845299
21
-4
31
0
39
0
210
0
220
0
230
1
0
LINE
5
8B
100
AcDbEntity
8
SK1
62
256
6
ByLayer
370
18
48
1
60
0
100
AcDbLine
10
-34.845299
20
4
30
0
11
-36
21
2
31
0
39
0
210
0
220
0
230
1
0
LINE
5
8C
100
AcDbEntity
8
SK1
62
256
6
ByLayer
370
18
48
1
60
0
100
AcDbLine
10
-34.845299
20
-4
30
0
11
0
21
-4
31
0
39
0
210
0
220
0
230
1
0
LINE
5
8D
100
AcDbEntity
8
SK1
62
256
6
ByLayer
370
18
48
1
60
0
100
AcDbLine
10
0
20
4
30
0
11
-34.845299
21
4
31
0
39
0
210
0
220
0
230
1
0
LINE
5
8E
100
AcDbEntity
8
1
62
256
6
ByLayer
370
18
48
1
60
0
100
AcDbLine
10
1.513306
20
-3.077519
30
0
11
9.570219
21
-3.092022
31
0
39
0
210
0
220
0
230
1
0
LINE
5
8F
100
AcDbEntity
8
1
62
256
6
ByLayer
370
18
48
1
60
0
100
AcDbLine
10
21.131312
20
-3.112832
30
0
11
22.011434
21
-3.114416
31
0
39
0
210
0
220
0
230
1
0
LINE
5
90
100
AcDbEntity
8
1
62
256
6
ByLayer
370
18
48
1
60
0
100
AcDbLine
10
22.011434
20
3.114416
30
0
11
21.131312
21
3.112832
31
0
39
0
210
0
220
0
230
1
0
LINE
5
91
100
AcDbEntity
8
1
62
256
6
ByLayer
370
18
48
1
60
0
100
AcDbLine
10
9.570219
20
3.092022
30
0
11
1.513306
21
3.077519
31
0
39
0
210
0
220
0
230
1
0
LINE
5
92
100
AcDbEntity
8
81
62
256
6
ByLayer
370
18
48
1
60
0
100
AcDbLine
10
43
20
0
30
0
11
48
21
0
31
0
39
0
210
0
220
0
230
1
0
LINE
5
93
100
AcDbEntity
8
SK2
62
256
6
ByLayer
370
13
48
1
60
0
100
AcDbLine
10
-44.625163
20
-4
30
0
11
-44.625163
21
33.117107
31
0
39
0
210
0
220
0
230
1
0
LINE
5
95
100
AcDbEntity
8
SK2
62
256
6
ByLayer
370
13
48
1
60
0
100
AcDbLine
10
-37.5875
20
4
30
0
11
-46.625163
21
4
31
0
39
0
210
0
220
0
230
1
0
LINE
5
96
100
AcDbEntity
8
SK2
62
256
6
ByLayer
370
13
48
1
60
0
100
AcDbLine
10
-37.5875
20
-4
30
0
11
-46.625163
21
-4
31
0
39
0
210
0
220
0
230
1
0
LINE
5
97
100
AcDbEntity
8
1
62
256
6
ByLayer
370
18
48
1
60
1
100
AcDbLine
10
-44.625163
20
4
30
0
11
-44.164379
21
0.500002
31
0
39
0
210
0
220
0
230
1
0
LINE
5
98
100
AcDbEntity
8
1
62
256
6
ByLayer
370
18
48
1
60
1
100
AcDbLine
10
-44.164379
20
0.500002
30
0
11
-45.085946
21
0.499998
31
0
39
0
210
0
220
0
230
1
0
LINE
5
99
100
AcDbEntity
8
1
62
256
6
ByLayer
370
18
48
1
60
1
100
AcDbLine
10
-45.085946
20
0.499998
30
0
11
-44.625163
21
4
31
0
39
0
210
0
220
0
230
1
0
LINE
5
9A
100
AcDbEntity
8
1
62
256
6
ByLayer
370
18
48
1
60
1
100
AcDbLine
10
-44.625163
20
-4
30
0
11
-45.085946
21
-0.500002
31
0
39
0
210
0
220
0
230
1
0
LINE
5
9B
100
AcDbEntity
8
1
62
256
6
ByLayer
370
18
48
1
60
1
100
AcDbLine
10
-45.085946
20
-0.500002
30
0
11
-44.164379
21
-0.499998
31
0
39
0
210
0
220
0
230
1
0
LINE
5
9C
100
AcDbEntity
8
1
62
256
6
ByLayer
370
18
48
1
60
1
100
AcDbLine
10
-44.164379
20
-0.499998
30
0
11
-44.625163
21
-4
31
0
39
0
210
0
220
0
230
1
0
LINE
5
9D
100
AcDbEntity
8
2
62
256
6
ByLayer
370
13
48
1
60
0
100
AcDbLine
10
55.083343
20
30.860193
30
0
11
55.083343
21
-11.9
31
0
39
0
210
0
220
0
230
1
0
LINE
5
9F
100
AcDbEntity
8
2
62
256
6
ByLayer
370
13
48
1
60
0
100
AcDbLine
10
43.3678
20
3.15
30
0
11
57.083343
21
3.15
31
0
39
0
210
0
220
0
230
1
0
LINE
5
A0
100
AcDbEntity
8
2
62
256
6
ByLayer
370
13
48
1
60
0
100
AcDbLine
10
43.3678
20
-3.15
30
0
11
57.083343
21
-3.15
31
0
39
0
210
0
220
0
230
1
0
LINE
5
A1
100
AcDbEntity
8
1
62
256
6
ByLayer
370
18
48
1
60
1
100
AcDbLine
10
55.083343
20
3.15
30
0
11
54.622559
21
6.649998
31
0
39
0
210
0
220
0
230
1
0
LINE
5
A2
100
AcDbEntity
8
1
62
256
6
ByLayer
370
18
48
1
60
1
100
AcDbLine
10
54.622559
20
6.649998
30
0
11
55.544126
21
6.650002
31
0
39
0
210
0
220
0
230
1
0
LINE
5
A3
100
AcDbEntity
8
1
62
256
6
ByLayer
370
18
48
1
60
1
100
AcDbLine
10
55.544126
20
6.650002
30
0
11
55.083343
21
3.15
31
0
39
0
210
0
220
0
230
1
0
LINE
5
A4
100
AcDbEntity
8
1
62
256
6
ByLayer
370
18
48
1
60
1
100
AcDbLine
10
55.083343
20
-3.15
30
0
11
55.544126
21
-6.649998
31
0
39
0
210
0
220
0
230
1
0
LINE
5
A5
100
AcDbEntity
8
1
62
256
6
ByLayer
370
18
48
1
60
1
100
AcDbLine
10
55.544126
20
-6.649998
30
0
11
54.622559
21
-6.650002
31
0
39
0
210
0
220
0
230
1
0
LINE
5
A6
100
AcDbEntity
8
1
62
256
6
ByLayer
370
18
48
1
60
1
100
AcDbLine
10
54.622559
20
-6.650002
30
0
11
55.083343
21
-3.15
31
0
39
0
210
0
220
0
230
1
0
LINE
5
EE
100
AcDbEntity
8
1
62
256
6
ByLayer
370
18
48
1
60
1
100
AcDbLine
10
-44.625163
20
4
30
0
11
-44.164379
21
0.500002
31
0
39
0
210
0
220
0
230
1
0
LINE
5
EF
100
AcDbEntity
8
1
62
256
6
ByLayer
370
18
48
1
60
1
100
AcDbLine
10
-44.164379
20
0.500002
30
0
11
-45.085946
21
0.499998
31
0
39
0
210
0
220
0
230
1
0
LINE
5
F0
100
AcDbEntity
8
1
62
256
6
ByLayer
370
18
48
1
60
1
100
AcDbLine
10
-45.085946
20
0.499998
30
0
11
-44.625163
21
4
31
0
39
0
210
0
220
0
230
1
0
LINE
5
F2
100
AcDbEntity
8
1
62
256
6
ByLayer
370
18
48
1
60
1
100
AcDbLine
10
-44.625163
20
-4
30
0
11
-45.085946
21
-0.500002
31
0
39
0
210
0
220
0
230
1
0
LINE
5
F3
100
AcDbEntity
8
1
62
256
6
ByLayer
370
18
48
1
60
1
100
AcDbLine
10
-45.085946
20
-0.500002
30
0
11
-44.164379
21
-0.499998
31
0
39
0
210
0
220
0
230
1
0
LINE
5
F4
100
AcDbEntity
8
1
62
256
6
ByLayer
370
18
48
1
60
1
100
AcDbLine
10
-44.164379
20
-0.499998
30
0
11
-44.625163
21
-4
31
0
39
0
210
0
220
0
230
1
0
LINE
5
F8
100
AcDbEntity
8
1
62
256
6
ByLayer
370
18
48
1
60
1
100
AcDbLine
10
55.083343
20
3.15
30
0
11
54.622559
21
6.649998
31
0
39
0
210
0
220
0
230
1
0
LINE
5
F9
100
AcDbEntity
8
1
62
256
6
ByLayer
370
18
48
1
60
1
100
AcDbLine
10
54.622559
20
6.649998
30
0
11
55.544126
21
6.650002
31
0
39
0
210
0
220
0
230
1
0
LINE
5
FA
100
AcDbEntity
8
1
62
256
6
ByLayer
370
18
48
1
60
1
100
AcDbLine
10
55.544126
20
6.650002
30
0
11
55.083343
21
3.15
31
0
39
0
210
0
220
0
230
1
0
LINE
5
FC
100
AcDbEntity
8
1
62
256
6
ByLayer
370
18
48
1
60
1
100
AcDbLine
10
55.083343
20
-3.15
30
0
11
55.544126
21
-6.649998
31
0
39
0
210
0
220
0
230
1
0
LINE
5
FD
100
AcDbEntity
8
1
62
256
6
ByLayer
370
18
48
1
60
1
100
AcDbLine
10
55.544126
20
-6.649998
30
0
11
54.622559
21
-6.650002
31
0
39
0
210
0
220
0
230
1
0
LINE
5
FE
100
AcDbEntity
8
1
62
256
6
ByLayer
370
18
48
1
60
1
100
AcDbLine
10
54.622559
20
-6.650002
30
0
11
55.083343
21
-3.15
31
0
39
0
210
0
220
0
230
1
0
MTEXT
5
E8
100
AcDbEntity
8
SK6
62
256
6
ByLayer
370
13
48
1
60
0
100
AcDbMText
10
-24.793293
20
35.690328
30
0
210
0
220
0
230
1
1
\W0.7433;860.1-0630-024A1-PM P1BM
40
3.5
41
0
44
1.084337
50
0
71
7
72
5
7
iso_b_vert
0
MTEXT
5
EC
100
AcDbEntity
8
SK2
62
256
6
ByLayer
370
18
48
1
60
0
100
AcDbMText
10
-46.189796
20
17.409024
30
0
210
0
220
0
230
1
1
%%c
40
3.5
41
0
44
1.084337
50
90
71
7
72
5
7
iso_b_vert
0
MTEXT
5
ED
100
AcDbEntity
8
SK2
62
256
6
ByLayer
370
18
48
1
60
0
100
AcDbMText
10
-46.189796
20
22.63168
30
0
210
0
220
0
230
1
1
\W0.7317;8,000
40
3.5
41
0
44
1.084337
50
90
71
7
72
5
7
iso_b_vert
0
MTEXT
5
F6
100
AcDbEntity
8
2
62
256
6
ByLayer
370
18
48
1
60
0
100
AcDbMText
10
53.518709
20
15.15211
30
0
210
0
220
0
230
1
1
%%c
40
3.5
41
0
44
1.084337
50
90
71
7
72
5
7
iso_b_vert
0
MTEXT
5
F7
100
AcDbEntity
8
2
62
256
6
ByLayer
370
18
48
1
60
0
100
AcDbMText
10
53.518709
20
20.374766
30
0
210
0
220
0
230
1
1
\W0.7317;6,300
40
3.5
41
0
44
1.084337
50
90
71
7
72
5
7
iso_b_vert
0
HATCH
5
F1
100
AcDbEntity
8
SK2
62
256
6
ByLayer
370
13
48
1
60
0
100
AcDbHatch
10
0
20
0
30
0
210
0
220
0
230
1
2
ANSI31
70
0
71
0
91
1
92
5
93
3
72
1
10
-44.6251625675374
20
4
11
-44.1643788259847
21
0.500001692553184
72
1
10
-44.1643788259847
20
0.500001692553184
11
-45.0859463090902
21
0.499998307446816
72
1
10
-45.0859463090902
20
0.499998307446816
11
-44.6251625675374
21
4
97
0
75
0
76
1
52
0
41
0.0062
77
0
78
1
53
45
43
0
44
0
45
-0.0139193969876572
46
0.0139193969876572
79
0
47
0
98
1
10
0
20
0
0
HATCH
5
F5
100
AcDbEntity
8
SK2
62
256
6
ByLayer
370
13
48
1
60
0
100
AcDbHatch
10
0
20
0
30
0
210
0
220
0
230
1
2
ANSI31
70
0
71
0
91
1
92
5
93
3
72
1
10
-44.6251625675374
20
-4
11
-45.0859463090902
21
-0.500001692553184
72
1
10
-45.0859463090902
20
-0.500001692553184
11
-44.1643788259847
21
-0.499998307446816
72
1
10
-44.1643788259847
20
-0.499998307446816
11
-44.6251625675374
21
-4
97
0
75
0
76
1
52
0
41
0.0062
77
0
78
1
53
45
43
0
44
0
45
-0.0139193969876572
46
0.0139193969876572
79
0
47
0
98
1
10
0
20
0
0
HATCH
5
FB
100
AcDbEntity
8
2
62
256
6
ByLayer
370
13
48
1
60
0
100
AcDbHatch
10
0
20
0
30
0
210
0
220
0
230
1
2
ANSI31
70
0
71
0
91
1
92
5
93
3
72
1
10
55.083342615295
20
3.15000000000001
11
54.6225588737423
21
6.64999830744682
72
1
10
54.6225588737423
20
6.64999830744682
11
55.5441263568478
21
6.65000169255319
72
1
10
55.5441263568478
20
6.65000169255319
11
55.083342615295
21
3.15000000000001
97
0
75
0
76
1
52
0
41
0.0062
77
0
78
1
53
45
43
0
44
0
45
-0.0139193969876572
46
0.0139193969876572
79
0
47
0
98
1
10
0
20
0
0
HATCH
5
FF
100
AcDbEntity
8
2
62
256
6
ByLayer
370
13
48
1
60
0
100
AcDbHatch
10
0
20
0
30
0
210
0
220
0
230
1
2
ANSI31
70
0
71
0
91
1
92
5
93
3
72
1
10
55.083342615295
20
-3.14999999999998
11
55.5441263568478
21
-6.64999830744679
72
1
10
55.5441263568478
20
-6.64999830744679
11
54.6225588737423
21
-6.65000169255316
72
1
10
54.6225588737423
20
-6.65000169255316
11
55.083342615295
21
-3.14999999999998
97
0
75
0
76
1
52
0
41
0.0062
77
0
78
1
53
45
43
0
44
0
45
-0.0139193969876572
46
0.0139193969876572
79
0
47
0
98
1
10
0
20
0
0
DIMENSION
5
101
100
AcDbEntity
8
2
62
256
6
ByLayer
370
13
48
1
60
0
100
AcDbDimension
2
_U0
10
41.7803
20
-13.363398
30
0
11
20.89015
21
-13.363398
31
0
70
32
71
1
72
1
41
1
210
0
220
0
230
1
3
Standard
100
AcDbAlignedDimension
13
0
23
0
33
0
14
41.7803
24
-3.15
34
0
50
0
100
AcDbRotatedDimension
1001
ACAD
1000
DSTYLE
1002
{
1070
   371
1070
    13
1070
   372
1070
    13
1070
   170
1070
     0
1070
   144
1040
1.0
1070
   277
1070
     2
1070
   278
1070
    44
1070
   146
1040
1.0
1070
   345
1005
16
1070
   347
1005
16
1070
   346
1005
16
1070
   344
1005
0
1070
   343
1005
0
1070
   172
1070
     1
1070
    76
1070
     0
1070
    75
1070
     0
1070
   282
1070
     0
1070
   281
1070
     0
1070
    71
1070
     0
1070
    74
1070
     0
1070
   279
1070
     0
1070
   173
1070
     1
1070
   340
1005
E9
1070
   271
1070
     2
1070
   272
1070
     2
1070
    77
1070
     1
1070
    73
1070
     1
1070
   171
1070
     3
1070
   274
1070
     4
1070
   177
1070
    35
1070
   176
1070
    35
1070
   178
1070
    35
1070
    48
1040
-0.1
1070
    41
1040
3.5
1070
   147
1040
1.75
1070
    42
1040
1.5875
1070
    44
1040
2.0
1070
   140
1040
3.5
1002
}
1001
ACAD_DSTYLE_DIM_LINETYPE
1070
   380
1005
16
1001
ACAD_DSTYLE_DIM_EXT1_LINETYPE
1070
   381
1005
16
1001
ACAD_DSTYLE_DIM_EXT2_LINETYPE
1070
   382
1005
16
0
DIMENSION
5
11A
100
AcDbEntity
8
SK2
62
256
6
ByLayer
370
13
48
1
60
0
100
AcDbDimension
2
_U1
10
43
20
-32.692985
30
0
11
3.5
21
-32.692985
31
0
70
32
71
1
72
1
41
1
210
0
220
0
230
1
3
Standard
100
AcDbAlignedDimension
13
-36
23
-4
33
0
14
43
24
0
34
0
50
0
100
AcDbRotatedDimension
1001
ACAD
1000
DSTYLE
1002
{
1070
   371
1070
    13
1070
   372
1070
    13
1070
   170
1070
     0
1070
   144
1040
1.0
1070
   277
1070
     2
1070
   278
1070
    44
1070
   146
1040
1.0
1070
   345
1005
16
1070
   347
1005
16
1070
   346
1005
16
1070
   344
1005
0
1070
   343
1005
0
1070
   172
1070
     1
1070
    76
1070
     0
1070
    75
1070
     0
1070
   282
1070
     0
1070
   281
1070
     0
1070
    71
1070
     0
1070
    74
1070
     0
1070
   279
1070
     0
1070
   173
1070
     1
1070
   340
1005
E9
1070
   271
1070
     2
1070
   272
1070
     2
1070
    77
1070
     1
1070
    73
1070
     1
1070
   171
1070
     3
1070
   274
1070
     4
1070
   177
1070
    35
1070
   176
1070
    35
1070
   178
1070
    35
1070
    48
1040
-0.1
1070
    41
1040
3.5
1070
   147
1040
1.75
1070
    42
1040
1.5875
1070
    44
1040
2.0
1070
   140
1040
3.5
1002
}
1001
ACAD_DSTYLE_DIM_LINETYPE
1070
   380
1005
16
1001
ACAD_DSTYLE_DIM_EXT1_LINETYPE
1070
   381
1005
16
1001
ACAD_DSTYLE_DIM_EXT2_LINETYPE
1070
   382
1005
16
0
DIMENSION
5
132
100
AcDbEntity
8
SK2
62
256
6
ByLayer
370
13
48
1
60
0
100
AcDbDimension
2
_U2
10
43
20
14.759119
30
0
11
32.94
21
14.759119
31
0
70
32
71
1
72
1
41
1
210
0
220
0
230
1
3
Standard
100
AcDbAlignedDimension
13
22.88
23
3.15
33
0
14
43
24
0
34
0
50
0
100
AcDbRotatedDimension
1001
ACAD
1000
DSTYLE
1002
{
1070
   371
1070
    13
1070
   372
1070
    13
1070
   170
1070
     0
1070
   144
1040
1.0
1070
   277
1070
     2
1070
   278
1070
    44
1070
   146
1040
1.0
1070
   345
1005
16
1070
   347
1005
16
1070
   346
1005
16
1070
   344
1005
0
1070
   343
1005
0
1070
   172
1070
     1
1070
    76
1070
     0
1070
    75
1070
     0
1070
   282
1070
     0
1070
   281
1070
     0
1070
    71
1070
     0
1070
    74
1070
     0
1070
   279
1070
     0
1070
   173
1070
     1
1070
   340
1005
E9
1070
   271
1070
     2
1070
   272
1070
     2
1070
    77
1070
     1
1070
    73
1070
     1
1070
   171
1070
     3
1070
   274
1070
     4
1070
   177
1070
    35
1070
   176
1070
    35
1070
   178
1070
    35
1070
    48
1040
-0.1
1070
    41
1040
3.5
1070
   147
1040
1.75
1070
    42
1040
1.5875
1070
    44
1040
2.0
1070
   140
1040
3.5
1002
}
1001
ACAD_DSTYLE_DIM_LINETYPE
1070
   380
1005
16
1001
ACAD_DSTYLE_DIM_EXT1_LINETYPE
1070
   381
1005
16
1001
ACAD_DSTYLE_DIM_EXT2_LINETYPE
1070
   382
1005
16
0
DIMENSION
5
14A
100
AcDbEntity
8
SK2
62
256
6
ByLayer
370
13
48
1
60
0
100
AcDbDimension
2
_U3
10
41.7803
20
-15.952503
30
0
11
60.333333
21
-15.952503
31
0
70
32
71
1
72
1
41
1
210
0
220
0
230
1
3
Standard
100
AcDbAlignedDimension
13
43
23
0
33
0
14
41.7803
24
-3.15
34
0
50
0
100
AcDbRotatedDimension
1001
ACAD
1000
DSTYLE
1002
{
1070
   371
1070
    13
1070
   372
1070
    13
1070
   170
1070
     0
1070
   144
1040
1.0
1070
   277
1070
     2
1070
   278
1070
    44
1070
   146
1040
1.0
1070
   345
1005
16
1070
   347
1005
16
1070
   346
1005
16
1070
   344
1005
0
1070
   343
1005
0
1070
   172
1070
     1
1070
    76
1070
     0
1070
    75
1070
     0
1070
   282
1070
     0
1070
   281
1070
     0
1070
    71
1070
     0
1070
    74
1070
     0
1070
   279
1070
     0
1070
   173
1070
     1
1070
   340
1005
E9
1070
   271
1070
     2
1070
   272
1070
     2
1070
    77
1070
     1
1070
    73
1070
     1
1070
   171
1070
     3
1070
   274
1070
     4
1070
   177
1070
    35
1070
   176
1070
    35
1070
   178
1070
    35
1070
    48
1040
-0.1
1070
    41
1040
3.5
1070
   147
1040
1.75
1070
    42
1040
1.5875
1070
    44
1040
2.0
1070
   140
1040
3.5
1002
}
1001
ACAD_DSTYLE_DIM_LINETYPE
1070
   380
1005
16
1001
ACAD_DSTYLE_DIM_EXT1_LINETYPE
1070
   381
1005
16
1001
ACAD_DSTYLE_DIM_EXT2_LINETYPE
1070
   382
1005
16
0
DIMENSION
5
164
100
AcDbEntity
8
SK2
62
256
6
ByLayer
370
13
48
1
60
0
100
AcDbDimension
2
_U4
10
41.7803
20
-22.343428
30
0
11
2.89015
21
-22.343428
31
0
70
32
71
1
72
1
41
1
210
0
220
0
230
1
3
Standard
100
AcDbAlignedDimension
13
-36
23
-4
33
0
14
41.7803
24
-3.15
34
0
50
0
100
AcDbRotatedDimension
1001
ACAD
1000
DSTYLE
1002
{
1070
   371
1070
    13
1070
   372
1070
    13
1070
   170
1070
     0
1070
   144
1040
1.0
1070
   277
1070
     2
1070
   278
1070
    44
1070
   146
1040
1.0
1070
   345
1005
16
1070
   347
1005
16
1070
   346
1005
16
1070
   344
1005
0
1070
   343
1005
0
1070
   172
1070
     1
1070
    76
1070
     0
1070
    75
1070
     0
1070
   282
1070
     0
1070
   281
1070
     0
1070
    71
1070
     0
1070
    74
1070
     0
1070
   279
1070
     0
1070
   173
1070
     1
1070
   340
1005
E9
1070
   271
1070
     2
1070
   272
1070
     2
1070
    77
1070
     1
1070
    73
1070
     1
1070
   171
1070
     3
1070
   274
1070
     4
1070
   177
1070
    35
1070
   176
1070
    35
1070
   178
1070
    35
1070
    48
1040
-0.1
1070
    41
1040
3.5
1070
   147
1040
1.75
1070
    42
1040
1.5875
1070
    44
1040
2.0
1070
   140
1040
3.5
1002
}
1001
ACAD_DSTYLE_DIM_LINETYPE
1070
   380
1005
16
1001
ACAD_DSTYLE_DIM_EXT1_LINETYPE
1070
   381
1005
16
1001
ACAD_DSTYLE_DIM_EXT2_LINETYPE
1070
   382
1005
16
0
ENDSEC
0
SECTION
2
OBJECTS
0
DICTIONARY
5
1ec
330
0
100
AcDbDictionary
280
0
281
1
3
ACAD_GROUP
350
1ed
3
ACAD_MLINESTYLE
350
1ee
0
DICTIONARY
5
1ed
330
0
100
AcDbDictionary
280
0
281
1
0
DICTIONARY
5
1ee
330
0
100
AcDbDictionary
280
0
281
1
3
Standard
350
18
0
MLINESTYLE
5
18
330
1ee
100
AcDbMlineStyle
2
Standard
70
0
3

62
256
51
90
52
90
71
2
49
-0.5
62
256
6
ByLayer
49
0.5
62
256
6
ByLayer
0
RASTERVARIABLES
5
1da
330

100
AcDbRasterVariables
90
0
70
1
71
1
72
1
0
ENDSEC
0
EOF
