0
SECTION
2
HEADER
9
$ACADVER
1
AC1015
9
$DWGCODEPAGE
3
ANSI_1252
9
$HANDSEED
5
382
9
$ANGBASE
50
0
9
$ANGDIR
70
0
9
$ATTMODE
70
1
9
$AUNITS
70
0
9
$AUPREC
70
0
9
$CECOLOR
62
256
9
$CELTSCALE
40
1
9
$CELTYPE
6
ByLayer
9
$CELWEIGHT
370
18
9
$CLAYER
8
0
9
$CMLJUST
70
0
9
$CMLSCALE
40
1
9
$CMLSTYLE
2
Standard
9
$DIMSTYLE
2
Standard
9
$TEXTSIZE
40
0.2
9
$TEXTSTYLE
7
Standard
9
$LUNITS
70
2
9
$LUPREC
70
4
9
$EXTNAMES
290
1
9
$INSUNITS
70
4
9
$LTSCALE
40
1
9
$LWDISPLAY
290
1
9
$PDMODE
70
0
9
$PDSIZE
40
0
9
$PLINEGEN
70
0
0
ENDSEC
0
SECTION
2
CLASSES
0
CLASS
1
RASTERVARIABLES
2
AcDbRasterVariables
3
ISM
90
0
280
0
281
0
0
ENDSEC
0
SECTION
2
TABLES
0
TABLE
2
VPORT
5
378
100
AcDbSymbolTable
0
VPORT
5
1
100
AcDbSymbolTableRecord
100
AcDbViewportTableRecord
2
*Active
70
0
10
0
20
0
11
1
21
1
12
-1
22
1
13
0
23
0
14
0.5
24
0.5
15
10
25
10
16
0
26
0
36
1
17
0
27
0
37
0
0
ENDTAB
0
TABLE
2
LTYPE
5
379
100
AcDbSymbolTable
0
LTYPE
5
14
100
AcDbSymbolTableRecord
100
AcDbLinetypeTableRecord
70
0
2
ByBlock
3

72
65
73
0
40
0
0
LTYPE
5
15
100
AcDbSymbolTableRecord
100
AcDbLinetypeTableRecord
70
0
2
ByLayer
3

72
65
73
0
40
0
0
LTYPE
5
16
100
AcDbSymbolTableRecord
100
AcDbLinetypeTableRecord
70
0
2
Continuous
3
Solid line
72
65
73
0
40
0
0
LTYPE
5
6E
100
AcDbSymbolTableRecord
100
AcDbLinetypeTableRecord
70
0
2
CENTER
3
____ _ ____ _ ____ _ ____
72
65
73
4
40
47.5
49
22
74
0
49
-8.5
74
0
49
8.5
74
0
49
-8.5
74
0
0
LTYPE
5
6F
100
AcDbSymbolTableRecord
100
AcDbLinetypeTableRecord
70
0
2
DASHED
3
__ __ __ __ __ __ __ __ __
72
65
73
2
40
25.72
49
12.86
74
0
49
-12.86
74
0
0
ENDTAB
0
TABLE
2
LAYER
5
37a
100
AcDbSymbolTable
0
LAYER
5
10
100
AcDbSymbolTableRecord
100
AcDbLayerTableRecord
2
0
70
0
62
7
6
Continuous
290
1
370
-3
390
0
0
LAYER
5
71
100
AcDbSymbolTableRecord
100
AcDbLayerTableRecord
2
81
70
0
62
-3
6
Continuous
290
1
370
-3
390
0
0
LAYER
5
73
100
AcDbSymbolTableRecord
100
AcDbLayerTableRecord
2
80
70
0
62
-6
6
Continuous
290
1
370
-3
390
0
0
LAYER
5
75
100
AcDbSymbolTableRecord
100
AcDbLayerTableRecord
2
1
70
0
62
4
6
Continuous
290
1
370
-3
390
0
0
LAYER
5
2A6
100
AcDbSymbolTableRecord
100
AcDbLayerTableRecord
2
Defpoints
70
0
62
7
6
Continuous
290
0
370
-3
390
0
0
LAYER
5
2B3
100
AcDbSymbolTableRecord
100
AcDbLayerTableRecord
2
2
70
0
62
7
6
Continuous
290
1
370
-3
390
0
0
LAYER
5
367
100
AcDbSymbolTableRecord
100
AcDbLayerTableRecord
2
SK6
70
0
62
5
6
Continuous
290
1
370
-3
390
0
0
ENDTAB
0
TABLE
2
STYLE
5
37b
100
AcDbSymbolTable
0
STYLE
5
11
100
AcDbSymbolTableRecord
100
AcDbTextStyleTableRecord
2
Standard
3
txt
70
0
71
0
40
0
41
1
42
0
50
0
0
STYLE
5
29F
100
AcDbSymbolTableRecord
100
AcDbTextStyleTableRecord
2
iso_b_vert
3
simplex.shx
70
0
71
0
40
0
41
1
42
0
50
0
0
STYLE
5
2A0
100
AcDbSymbolTableRecord
100
AcDbTextStyleTableRecord
2
DWGDirectTextStyle
3
simplex
70
0
71
0
40
0
41
1
42
0
50
0
0
ENDTAB
0
TABLE
2
DIMSTYLE
5
37c
100
AcDbSymbolTable
100
AcDbDimStyleTable
0
DIMSTYLE
105
27
100
AcDbSymbolTableRecord
100
AcDbDimStyleTableRecord
2
Standard
70
0
3
<>
41
0.18
42
0.0625
44
0.18
140
0.18
147
0.09
73
0
74
0
77
1
271
2
275
0
278
52
280
0
340
11
0
ENDTAB
0
TABLE
2
VIEW
5
37d
100
AcDbSymbolTable
0
ENDTAB
0
TABLE
2
UCS
5
37e
100
AcDbSymbolTable
0
ENDTAB
0
TABLE
2
APPID
5
37f
100
AcDbSymbolTable
0
APPID
5
12
100
AcDbSymbolTableRecord
100
AcDbRegAppTableRecord
2
ACAD
70
0
0
APPID
5
2A2
100
AcDbSymbolTableRecord
100
AcDbRegAppTableRecord
2
ACAD_DSTYLE_DIMBREAK
70
0
0
APPID
5
326
100
AcDbSymbolTableRecord
100
AcDbRegAppTableRecord
2
ACAD_DSTYLE_DIM_LINETYPE
70
0
0
APPID
5
327
100
AcDbSymbolTableRecord
100
AcDbRegAppTableRecord
2
ACAD_DSTYLE_DIM_EXT1_LINETYPE
70
0
0
APPID
5
328
100
AcDbSymbolTableRecord
100
AcDbRegAppTableRecord
2
ACAD_DSTYLE_DIM_EXT2_LINETYPE
70
0
0
APPID
5
363
100
AcDbSymbolTableRecord
100
AcDbRegAppTableRecord
2
ACAD_MLEADERVER
70
0
0
ENDTAB
0
TABLE
2
BLOCK_RECORD
5
380
100
AcDbSymbolTable
0
BLOCK_RECORD
5
1F
100
AcDbSymbolTableRecord
100
AcDbBlockTableRecord
2
*Model_Space
340
0
70
0
0
BLOCK_RECORD
5
1B
100
AcDbSymbolTableRecord
100
AcDbBlockTableRecord
2
*Paper_Space
340
0
70
0
0
BLOCK_RECORD
5
23
100
AcDbSymbolTableRecord
100
AcDbBlockTableRecord
2
*Paper_Space0
340
0
70
0
0
BLOCK_RECORD
5
2A7
100
AcDbSymbolTableRecord
100
AcDbBlockTableRecord
2
*D1
340
0
70
0
0
BLOCK_RECORD
5
2B4
100
AcDbSymbolTableRecord
100
AcDbBlockTableRecord
2
_U0
340
0
70
0
0
BLOCK_RECORD
5
2C0
100
AcDbSymbolTableRecord
100
AcDbBlockTableRecord
2
*D3
340
0
70
0
0
BLOCK_RECORD
5
2CD
100
AcDbSymbolTableRecord
100
AcDbBlockTableRecord
2
_U1
340
0
70
0
0
BLOCK_RECORD
5
2D9
100
AcDbSymbolTableRecord
100
AcDbBlockTableRecord
2
*D5
340
0
70
0
0
BLOCK_RECORD
5
2E6
100
AcDbSymbolTableRecord
100
AcDbBlockTableRecord
2
_U2
340
0
70
0
0
BLOCK_RECORD
5
2F2
100
AcDbSymbolTableRecord
100
AcDbBlockTableRecord
2
*D7
340
0
70
0
0
BLOCK_RECORD
5
2FF
100
AcDbSymbolTableRecord
100
AcDbBlockTableRecord
2
_U3
340
0
70
0
0
ENDTAB
0
ENDSEC
0
SECTION
2
BLOCKS
0
BLOCK
5
20
100
AcDbEntity
8
0
100
AcDbBlockBegin
2
*Model_Space
70
0
10
0
20
0
30
0
3
*Model_Space
0
ENDBLK
5
21
100
AcDbEntity
8
0
100
AcDbBlockEnd
0
BLOCK
5
1C
100
AcDbEntity
8
0
100
AcDbBlockBegin
2
*Paper_Space
70
0
10
0
20
0
30
0
3
*Paper_Space
0
ENDBLK
5
1D
100
AcDbEntity
8
0
100
AcDbBlockEnd
0
BLOCK
5
24
100
AcDbEntity
8
0
100
AcDbBlockBegin
2
*Paper_Space0
70
0
10
0
20
0
30
0
3
*Paper_Space0
0
ENDBLK
5
25
100
AcDbEntity
8
0
100
AcDbBlockEnd
0
BLOCK
5
2A8
100
AcDbEntity
8
0
100
AcDbBlockBegin
2
*D1
70
1
10
0
20
0
30
0
3
*D1
0
LINE
5
2AA
100
AcDbEntity
8
0
62
256
6
ByLayer
370
-2
48
1
60
0
100
AcDbLine
10
0
20
-1.5875
30
0
11
0
21
-13.75
31
0
39
0
210
0
220
0
230
1
0
LINE
5
2AB
100
AcDbEntity
8
0
62
256
6
ByLayer
370
-2
48
1
60
0
100
AcDbLine
10
24
20
12.4125
30
0
11
24
21
-13.75
31
0
39
0
210
0
220
0
230
1
0
LINE
5
2AC
100
AcDbEntity
8
0
62
256
6
ByLayer
370
-2
48
1
60
0
100
AcDbLine
10
3.5
20
-11.75
30
0
11
20.5
21
-11.75
31
0
39
0
210
0
220
0
230
1
0
SOLID
5
2AD
100
AcDbEntity
8
0
62
256
6
ByLayer
370
-1
48
1
60
0
100
AcDbTrace
10
3.5
20
-11.166667
30
0
11
3.5
21
-12.333333
31
0
12
0
22
-11.75
32
0
13
0
23
-11.75
33
0
39
0
210
0
220
0
230
1
0
SOLID
5
2AE
100
AcDbEntity
8
0
62
256
6
ByLayer
370
-1
48
1
60
0
100
AcDbTrace
10
20.5
20
-12.333333
30
0
11
20.5
21
-11.166667
31
0
12
24
22
-11.75
32
0
13
24
23
-11.75
33
0
39
0
210
0
220
0
230
1
0
MTEXT
5
2AF
100
AcDbEntity
8
0
62
256
6
ByLayer
370
18
48
1
60
0
100
AcDbMText
10
12
20
-4.75
30
0
210
0
220
0
230
1
1
\A1;24
40
3.5
41
0
44
1
50
0
71
5
72
5
7
iso_b_vert
0
POINT
5
2B0
100
AcDbEntity
8
Defpoints
62
0
6
ByLayer
370
-1
48
1
60
0
100
AcDbPoint
10
0
20
0
30
0
39
0
210
0
220
0
230
1
50
360
0
POINT
5
2B1
100
AcDbEntity
8
Defpoints
62
0
6
ByLayer
370
-1
48
1
60
0
100
AcDbPoint
10
24
20
14
30
0
39
0
210
0
220
0
230
1
50
360
0
POINT
5
2B2
100
AcDbEntity
8
Defpoints
62
0
6
ByLayer
370
-1
48
1
60
0
100
AcDbPoint
10
24
20
-11.75
30
0
39
0
210
0
220
0
230
1
50
360
0
ENDBLK
5
2A9
100
AcDbEntity
8
0
100
AcDbBlockEnd
0
BLOCK
5
2BB
100
AcDbEntity
8
0
100
AcDbBlockBegin
2
_U0
70
0
10
0
20
0
30
0
3
_U0
0
MTEXT
5
2B5
100
AcDbEntity
8
2
62
256
6
ByLayer
370
18
48
1
60
0
100
AcDbMText
10
9.910767
20
-10.717366
30
0
210
0
220
0
230
1
1
\W0.7167;24
40
3.5
41
0
44
1.084337
50
0
71
7
72
5
7
iso_b_vert
0
LINE
5
2B6
100
AcDbEntity
8
2
62
256
6
ByLayer
370
13
48
1
60
0
100
AcDbLine
10
0
20
-1.5875
30
0
11
0
21
-13.75
31
0
39
0
210
0
220
0
230
1
0
LINE
5
2B7
100
AcDbEntity
8
2
62
256
6
ByLayer
370
13
48
1
60
0
100
AcDbLine
10
24
20
12.4125
30
0
11
24
21
-13.75
31
0
39
0
210
0
220
0
230
1
0
LINE
5
2B8
100
AcDbEntity
8
2
62
256
6
ByLayer
370
13
48
1
60
0
100
AcDbLine
10
0
20
-11.75
30
0
11
24
21
-11.75
31
0
39
0
210
0
220
0
230
1
0
SOLID
5
2B9
100
AcDbEntity
8
2
62
256
6
ByLayer
370
18
48
1
60
0
100
AcDbTrace
10
0
20
-11.75
30
0
11
3.499998
21
-11.289216
31
0
12
3.500002
22
-12.210784
32
0
13
3.500002
23
-12.210784
33
0
39
0
210
0
220
0
230
1
0
SOLID
5
2BA
100
AcDbEntity
8
2
62
256
6
ByLayer
370
18
48
1
60
0
100
AcDbTrace
10
24
20
-11.75
30
0
11
20.500002
21
-12.210784
31
0
12
20.499998
22
-11.289216
32
0
13
20.499998
23
-11.289216
33
0
39
0
210
0
220
0
230
1
0
ENDBLK
5
2BC
100
AcDbEntity
8
0
100
AcDbBlockEnd
0
BLOCK
5
2C1
100
AcDbEntity
8
0
100
AcDbBlockBegin
2
*D3
70
1
10
0
20
0
30
0
3
*D3
0
LINE
5
2C3
100
AcDbEntity
8
0
62
256
6
ByLayer
370
-2
48
1
60
0
100
AcDbLine
10
17
20
15.5875
30
0
11
17
21
24.25
31
0
39
0
210
0
220
0
230
1
0
LINE
5
2C4
100
AcDbEntity
8
0
62
256
6
ByLayer
370
-2
48
1
60
0
100
AcDbLine
10
24
20
15.5875
30
0
11
24
21
24.25
31
0
39
0
210
0
220
0
230
1
0
LINE
5
2C5
100
AcDbEntity
8
0
62
256
6
ByLayer
370
-2
48
1
60
0
100
AcDbLine
10
13.5
20
22.25
30
0
11
10
21
22.25
31
0
39
0
210
0
220
0
230
1
0
LINE
5
2C6
100
AcDbEntity
8
0
62
256
6
ByLayer
370
-2
48
1
60
0
100
AcDbLine
10
27.5
20
22.25
30
0
11
31
21
22.25
31
0
39
0
210
0
220
0
230
1
0
SOLID
5
2C7
100
AcDbEntity
8
0
62
256
6
ByLayer
370
-1
48
1
60
0
100
AcDbTrace
10
13.5
20
21.666667
30
0
11
13.5
21
22.833333
31
0
12
17
22
22.25
32
0
13
17
23
22.25
33
0
39
0
210
0
220
0
230
1
0
SOLID
5
2C8
100
AcDbEntity
8
0
62
256
6
ByLayer
370
-1
48
1
60
0
100
AcDbTrace
10
27.5
20
22.833333
30
0
11
27.5
21
21.666667
31
0
12
24
22
22.25
32
0
13
24
23
22.25
33
0
39
0
210
0
220
0
230
1
0
MTEXT
5
2C9
100
AcDbEntity
8
0
62
256
6
ByLayer
370
18
48
1
60
0
100
AcDbMText
10
20.5
20
29.25
30
0
210
0
220
0
230
1
1
\A1;7
40
3.5
41
0
44
1
50
0
71
5
72
5
7
iso_b_vert
0
POINT
5
2CA
100
AcDbEntity
8
Defpoints
62
0
6
ByLayer
370
-1
48
1
60
0
100
AcDbPoint
10
17
20
14
30
0
39
0
210
0
220
0
230
1
50
360
0
POINT
5
2CB
100
AcDbEntity
8
Defpoints
62
0
6
ByLayer
370
-1
48
1
60
0
100
AcDbPoint
10
24
20
14
30
0
39
0
210
0
220
0
230
1
50
360
0
POINT
5
2CC
100
AcDbEntity
8
Defpoints
62
0
6
ByLayer
370
-1
48
1
60
0
100
AcDbPoint
10
24
20
22.25
30
0
39
0
210
0
220
0
230
1
50
360
0
ENDBLK
5
2C2
100
AcDbEntity
8
0
100
AcDbBlockEnd
0
BLOCK
5
2D4
100
AcDbEntity
8
0
100
AcDbBlockBegin
2
_U1
70
0
10
0
20
0
30
0
3
_U1
0
MTEXT
5
2CE
100
AcDbEntity
8
2
62
256
6
ByLayer
370
18
48
1
60
0
100
AcDbMText
10
19.902767
20
23.282634
30
0
210
0
220
0
230
1
1
\W0.5404;7
40
3.5
41
0
44
1.084337
50
0
71
7
72
5
7
iso_b_vert
0
LINE
5
2CF
100
AcDbEntity
8
2
62
256
6
ByLayer
370
13
48
1
60
0
100
AcDbLine
10
17
20
15.5875
30
0
11
17
21
24.25
31
0
39
0
210
0
220
0
230
1
0
LINE
5
2D0
100
AcDbEntity
8
2
62
256
6
ByLayer
370
13
48
1
60
0
100
AcDbLine
10
24
20
15.5875
30
0
11
24
21
24.25
31
0
39
0
210
0
220
0
230
1
0
LINE
5
2D1
100
AcDbEntity
8
2
62
256
6
ByLayer
370
13
48
1
60
0
100
AcDbLine
10
8.25
20
22.25
30
0
11
32.75
21
22.25
31
0
39
0
210
0
220
0
230
1
0
SOLID
5
2D2
100
AcDbEntity
8
2
62
256
6
ByLayer
370
18
48
1
60
0
100
AcDbTrace
10
17
20
22.25
30
0
11
13.500002
21
21.789216
31
0
12
13.499998
22
22.710784
32
0
13
13.499998
23
22.710784
33
0
39
0
210
0
220
0
230
1
0
SOLID
5
2D3
100
AcDbEntity
8
2
62
256
6
ByLayer
370
18
48
1
60
0
100
AcDbTrace
10
24
20
22.25
30
0
11
27.499998
21
22.710784
31
0
12
27.500002
22
21.789216
32
0
13
27.500002
23
21.789216
33
0
39
0
210
0
220
0
230
1
0
ENDBLK
5
2D5
100
AcDbEntity
8
0
100
AcDbBlockEnd
0
BLOCK
5
2DA
100
AcDbEntity
8
0
100
AcDbBlockBegin
2
*D5
70
1
10
0
20
0
30
0
3
*D5
0
LINE
5
2DC
100
AcDbEntity
8
0
62
256
6
ByLayer
370
-2
48
1
60
0
100
AcDbLine
10
25.5875
20
14
30
0
11
50.75
21
14
31
0
39
0
210
0
220
0
230
1
0
LINE
5
2DD
100
AcDbEntity
8
0
62
256
6
ByLayer
370
-2
48
1
60
0
100
AcDbLine
10
1.5875
20
0
30
0
11
50.75
21
0
31
0
39
0
210
0
220
0
230
1
0
LINE
5
2DE
100
AcDbEntity
8
0
62
256
6
ByLayer
370
-2
48
1
60
0
100
AcDbLine
10
48.75
20
17.5
30
0
11
48.75
21
21
31
0
39
0
210
0
220
0
230
1
0
LINE
5
2DF
100
AcDbEntity
8
0
62
256
6
ByLayer
370
-2
48
1
60
0
100
AcDbLine
10
48.75
20
-3.5
30
0
11
48.75
21
-7
31
0
39
0
210
0
220
0
230
1
0
SOLID
5
2E0
100
AcDbEntity
8
0
62
256
6
ByLayer
370
-1
48
1
60
0
100
AcDbTrace
10
48.166667
20
17.5
30
0
11
49.333333
21
17.5
31
0
12
48.75
22
14
32
0
13
48.75
23
14
33
0
39
0
210
0
220
0
230
1
0
SOLID
5
2E1
100
AcDbEntity
8
0
62
256
6
ByLayer
370
-1
48
1
60
0
100
AcDbTrace
10
49.333333
20
-3.5
30
0
11
48.166667
21
-3.5
31
0
12
48.75
22
0
32
0
13
48.75
23
0
33
0
39
0
210
0
220
0
230
1
0
MTEXT
5
2E2
100
AcDbEntity
8
0
62
256
6
ByLayer
370
18
48
1
60
0
100
AcDbMText
10
41.75
20
7
30
0
210
0
220
0
230
1
1
\A1;14
40
3.5
41
0
44
1
50
90
71
5
72
5
7
iso_b_vert
0
POINT
5
2E3
100
AcDbEntity
8
Defpoints
62
0
6
ByLayer
370
-1
48
1
60
0
100
AcDbPoint
10
24
20
14
30
0
39
0
210
0
220
0
230
1
50
360
0
POINT
5
2E4
100
AcDbEntity
8
Defpoints
62
0
6
ByLayer
370
-1
48
1
60
0
100
AcDbPoint
10
0
20
0
30
0
39
0
210
0
220
0
230
1
50
360
0
POINT
5
2E5
100
AcDbEntity
8
Defpoints
62
0
6
ByLayer
370
-1
48
1
60
0
100
AcDbPoint
10
48.75
20
0
30
0
39
0
210
0
220
0
230
1
50
360
0
ENDBLK
5
2DB
100
AcDbEntity
8
0
100
AcDbBlockEnd
0
BLOCK
5
2ED
100
AcDbEntity
8
0
100
AcDbBlockBegin
2
_U2
70
0
10
0
20
0
30
0
3
_U2
0
MTEXT
5
2E7
100
AcDbEntity
8
2
62
256
6
ByLayer
370
18
48
1
60
0
100
AcDbMText
10
48.060366
20
5.3202
30
0
210
0
220
0
230
1
1
\W0.5785;14
40
3.5
41
0
44
1.084337
50
90
71
7
72
5
7
iso_b_vert
0
LINE
5
2E8
100
AcDbEntity
8
2
62
256
6
ByLayer
370
13
48
1
60
0
100
AcDbLine
10
25.5875
20
14
30
0
11
50.75
21
14
31
0
39
0
210
0
220
0
230
1
0
LINE
5
2E9
100
AcDbEntity
8
2
62
256
6
ByLayer
370
13
48
1
60
0
100
AcDbLine
10
1.5875
20
0
30
0
11
50.75
21
0
31
0
39
0
210
0
220
0
230
1
0
LINE
5
2EA
100
AcDbEntity
8
2
62
256
6
ByLayer
370
13
48
1
60
0
100
AcDbLine
10
48.75
20
14
30
0
11
48.75
21
0
31
0
39
0
210
0
220
0
230
1
0
SOLID
5
2EB
100
AcDbEntity
8
2
62
256
6
ByLayer
370
18
48
1
60
0
100
AcDbTrace
10
48.75
20
14
30
0
11
49.210784
21
10.500002
31
0
12
48.289216
22
10.499998
32
0
13
48.289216
23
10.499998
33
0
39
0
210
0
220
0
230
1
0
SOLID
5
2EC
100
AcDbEntity
8
2
62
256
6
ByLayer
370
18
48
1
60
0
100
AcDbTrace
10
48.75
20
0
30
0
11
48.289216
21
3.499998
31
0
12
49.210784
22
3.500002
32
0
13
49.210784
23
3.500002
33
0
39
0
210
0
220
0
230
1
0
ENDBLK
5
2EE
100
AcDbEntity
8
0
100
AcDbBlockEnd
0
BLOCK
5
2F3
100
AcDbEntity
8
0
100
AcDbBlockBegin
2
*D7
70
1
10
0
20
0
30
0
3
*D7
0
LINE
5
2F5
100
AcDbEntity
8
0
62
256
6
ByLayer
370
-2
48
1
60
0
100
AcDbLine
10
25.5875
20
14
30
0
11
37.75
21
14
31
0
39
0
210
0
220
0
230
1
0
LINE
5
2F6
100
AcDbEntity
8
0
62
256
6
ByLayer
370
-2
48
1
60
0
100
AcDbLine
10
25.5875
20
11.5
30
0
11
37.75
21
11.5
31
0
39
0
210
0
220
0
230
1
0
LINE
5
2F7
100
AcDbEntity
8
0
62
256
6
ByLayer
370
-2
48
1
60
0
100
AcDbLine
10
35.75
20
17.5
30
0
11
35.75
21
21
31
0
39
0
210
0
220
0
230
1
0
LINE
5
2F8
100
AcDbEntity
8
0
62
256
6
ByLayer
370
-2
48
1
60
0
100
AcDbLine
10
35.75
20
8
30
0
11
35.75
21
4.5
31
0
39
0
210
0
220
0
230
1
0
SOLID
5
2F9
100
AcDbEntity
8
0
62
256
6
ByLayer
370
-1
48
1
60
0
100
AcDbTrace
10
35.166667
20
17.5
30
0
11
36.333333
21
17.5
31
0
12
35.75
22
14
32
0
13
35.75
23
14
33
0
39
0
210
0
220
0
230
1
0
SOLID
5
2FA
100
AcDbEntity
8
0
62
256
6
ByLayer
370
-1
48
1
60
0
100
AcDbTrace
10
36.333333
20
8
30
0
11
35.166667
21
8
31
0
12
35.75
22
11.5
32
0
13
35.75
23
11.5
33
0
39
0
210
0
220
0
230
1
0
MTEXT
5
2FB
100
AcDbEntity
8
0
62
256
6
ByLayer
370
18
48
1
60
0
100
AcDbMText
10
28.75
20
12.75
30
0
210
0
220
0
230
1
1
\A1;2.5
40
3.5
41
0
44
1
50
90
71
5
72
5
7
iso_b_vert
0
POINT
5
2FC
100
AcDbEntity
8
Defpoints
62
0
6
ByLayer
370
-1
48
1
60
0
100
AcDbPoint
10
24
20
14
30
0
39
0
210
0
220
0
230
1
50
360
0
POINT
5
2FD
100
AcDbEntity
8
Defpoints
62
0
6
ByLayer
370
-1
48
1
60
0
100
AcDbPoint
10
24
20
11.5
30
0
39
0
210
0
220
0
230
1
50
360
0
POINT
5
2FE
100
AcDbEntity
8
Defpoints
62
0
6
ByLayer
370
-1
48
1
60
0
100
AcDbPoint
10
35.75
20
11.5
30
0
39
0
210
0
220
0
230
1
50
360
0
ENDBLK
5
2F4
100
AcDbEntity
8
0
100
AcDbBlockEnd
0
BLOCK
5
306
100
AcDbEntity
8
0
100
AcDbBlockBegin
2
_U3
70
0
10
0
20
0
30
0
3
_U3
0
MTEXT
5
300
100
AcDbEntity
8
2
62
256
6
ByLayer
370
18
48
1
60
0
100
AcDbMText
10
35.060366
20
10.108034
30
0
210
0
220
0
230
1
1
\W0.7121;2.5
40
3.5
41
0
44
1.084337
50
90
71
7
72
5
7
iso_b_vert
0
LINE
5
301
100
AcDbEntity
8
2
62
256
6
ByLayer
370
13
48
1
60
0
100
AcDbLine
10
25.5875
20
14
30
0
11
37.75
21
14
31
0
39
0
210
0
220
0
230
1
0
LINE
5
302
100
AcDbEntity
8
2
62
256
6
ByLayer
370
13
48
1
60
0
100
AcDbLine
10
25.5875
20
11.5
30
0
11
37.75
21
11.5
31
0
39
0
210
0
220
0
230
1
0
LINE
5
303
100
AcDbEntity
8
2
62
256
6
ByLayer
370
13
48
1
60
0
100
AcDbLine
10
35.75
20
22.75
30
0
11
35.75
21
2.75
31
0
39
0
210
0
220
0
230
1
0
SOLID
5
304
100
AcDbEntity
8
2
62
256
6
ByLayer
370
18
48
1
60
0
100
AcDbTrace
10
35.75
20
14
30
0
11
35.289216
21
17.499998
31
0
12
36.210784
22
17.500002
32
0
13
36.210784
23
17.500002
33
0
39
0
210
0
220
0
230
1
0
SOLID
5
305
100
AcDbEntity
8
2
62
256
6
ByLayer
370
18
48
1
60
0
100
AcDbTrace
10
35.75
20
11.5
30
0
11
36.210784
21
8.000002
31
0
12
35.289216
22
7.999998
32
0
13
35.289216
23
7.999998
33
0
39
0
210
0
220
0
230
1
0
ENDBLK
5
307
100
AcDbEntity
8
0
100
AcDbBlockEnd
0
ENDSEC
0
SECTION
2
ENTITIES
0
ARC
5
18A
100
AcDbEntity
8
1
62
256
6
ByLayer
370
18
48
1
60
0
100
AcDbCircle
39
0
10
16.8
20
11
30
0
40
0.800000000000084
210
0
220
0
230
1
100
AcDbArc
50
90
51
180
0
ARC
5
18B
100
AcDbEntity
8
1
62
256
6
ByLayer
370
13
48
1
60
0
100
AcDbCircle
39
0
10
21.991053
20
12.536511
30
0
40
0.600000000006946
210
0
220
0
230
1
100
AcDbArc
50
180
51
221.409622
0
ARC
5
18C
100
AcDbEntity
8
1
62
256
6
ByLayer
370
13
48
1
60
0
100
AcDbCircle
39
0
10
21.991053
20
12.963489
30
0
40
0.600000000003532
210
0
220
0
230
1
100
AcDbArc
50
138.590378
51
180
0
ELLIPSE
5
18D
100
AcDbEntity
8
1
62
256
6
ByLayer
370
18
48
1
60
0
100
AcDbEllipse
10
15.393671
20
11
30
0
11
-1.13137084989938
21
1.3854839313162E-16
31
0
210
0
220
0
230
1
40
0.707107
41
-0.653910570374581
42
0
0
ELLIPSE
5
18E
100
AcDbEntity
8
1
62
256
6
ByLayer
370
18
48
1
60
0
100
AcDbEllipse
10
6.282241
20
-0.174981
30
0
11
0.257344035566172
21
0.133211075095873
31
0
210
0
220
0
230
1
40
0.267949
41
-2.66393434452706
42
-2.02239064572445
0
ELLIPSE
5
18F
100
AcDbEntity
8
1
62
256
6
ByLayer
370
18
48
1
60
0
100
AcDbEllipse
10
12.311648
20
8.7
30
0
11
-5.00915804604042E-16
21
0.394100000000301
31
0
210
0
220
0
230
1
40
0.346287
41
0.288932900935059
42
1.5707963267949
0
ELLIPSE
5
190
100
AcDbEntity
8
1
62
256
6
ByLayer
370
18
48
1
60
0
100
AcDbEllipse
10
12.311648
20
8.7
30
0
11
-5.00915804603692E-16
21
0.394100000000026
31
0
210
0
220
0
230
1
40
0.346287
41
1.5707963267949
42
2.85265975265525
0
ELLIPSE
5
191
100
AcDbEntity
8
1
62
256
6
ByLayer
370
18
48
1
60
0
100
AcDbEllipse
10
12.17119
20
7.9583
30
0
11
0.121171457408378
21
0.351534530983058
31
0
210
0
220
0
230
1
40
0.389005
41
-2.36827450576221
42
0.0536382629194013
0
ELLIPSE
5
192
100
AcDbEntity
8
1
62
256
6
ByLayer
370
18
48
1
60
0
100
AcDbEllipse
10
12.17119
20
9.4417
30
0
11
-0.121171457408375
21
0.351534530983057
31
0
210
0
220
0
230
1
40
0.389005
41
3.08795439067045
42
-0.773318147827518
0
ELLIPSE
5
193
100
AcDbEntity
8
1
62
256
6
ByLayer
370
18
48
1
60
0
100
AcDbEllipse
10
11.787223
20
9.984575
30
0
11
-0.218676673814364
21
0.230682904361763
31
0
210
0
220
0
230
1
40
0.53233
41
1.63352851572539
42
1.80691957644726
0
ELLIPSE
5
194
100
AcDbEntity
8
1
62
256
6
ByLayer
370
18
48
1
60
0
100
AcDbEllipse
10
11.787223
20
9.984575
30
0
11
-0.218676673814284
21
0.230682904361414
31
0
210
0
220
0
230
1
40
0.53233
41
1.8069195764461
42
2.72791638678874
0
ELLIPSE
5
195
100
AcDbEntity
8
1
62
256
6
ByLayer
370
18
48
1
60
0
100
AcDbEllipse
10
11.787223
20
7.415425
30
0
11
0.218676673814422
21
0.230682904361919
31
0
210
0
220
0
230
1
40
0.53233
41
0.45619697717722
42
1.33467307714215
0
ELLIPSE
5
196
100
AcDbEntity
8
1
62
256
6
ByLayer
370
18
48
1
60
0
100
AcDbEllipse
10
10.767822
20
8.7
30
0
11
7.90054789168507E-17
21
1.2903
31
0
210
0
220
0
230
1
40
0.707107
41
-1.57079648201788
42
-0.651193177373557
0
ELLIPSE
5
197
100
AcDbEntity
8
1
62
256
6
ByLayer
370
18
48
1
60
0
100
AcDbEllipse
10
10.767822
20
8.7
30
0
11
7.90054789168507E-17
21
1.2903
31
0
210
0
220
0
230
1
40
0.707107
41
-2.49039985166715
42
-1.57079648201789
0
ELLIPSE
5
198
100
AcDbEntity
8
1
62
256
6
ByLayer
370
18
48
1
60
0
100
AcDbEllipse
10
11.262797
20
8.7
30
0
11
-2.37016436750552E-16
21
-1.2903
31
0
210
0
220
0
230
1
40
0.707107
41
0.523598775598299
42
1.5707963267949
0
ELLIPSE
5
199
100
AcDbEntity
8
1
62
256
6
ByLayer
370
18
48
1
60
0
100
AcDbEllipse
10
11.262797
20
8.7
30
0
11
-2.37016436750552E-16
21
-1.2903
31
0
210
0
220
0
230
1
40
0.707107
41
1.5707963267949
42
2.61799387799149
0
ELLIPSE
5
19A
100
AcDbEntity
8
1
62
256
6
ByLayer
370
18
48
1
60
0
100
AcDbEllipse
10
11.262797
20
8.7
30
0
11
-2.37016436750552E-16
21
-1.2903
31
0
210
0
220
0
230
1
40
0.707107
41
2.61799387799149
42
2.67501724827721
0
ELLIPSE
5
19B
100
AcDbEntity
8
1
62
256
6
ByLayer
370
18
48
1
60
0
100
AcDbEllipse
10
12.252746
20
8.7
30
0
11
-3.07939513732175E-16
21
-1.6764
31
0
210
0
220
0
230
1
40
0.707107
41
-1.0471975511966
42
0
0
ELLIPSE
5
19C
100
AcDbEntity
8
1
62
256
6
ByLayer
370
18
48
1
60
0
100
AcDbEllipse
10
12.252746
20
8.7
30
0
11
-3.07939513732175E-16
21
-1.6764
31
0
210
0
220
0
230
1
40
0.707107
41
-2.09439510239318
42
-1.0471975511966
0
ELLIPSE
5
19D
100
AcDbEntity
8
1
62
256
6
ByLayer
370
18
48
1
60
0
100
AcDbEllipse
10
12.252746
20
8.7
30
0
11
-3.07939513732175E-16
21
-1.6764
31
0
210
0
220
0
230
1
40
0.707107
41
3.14159265358979
42
-2.09439510239318
0
ELLIPSE
5
19E
100
AcDbEntity
8
1
62
256
6
ByLayer
370
18
48
1
60
0
100
AcDbEllipse
10
12.252746
20
8.7
30
0
11
-3.07939513732175E-16
21
-1.6764
31
0
210
0
220
0
230
1
40
0.707107
41
2.0943951023932
42
3.14159265358979
0
ELLIPSE
5
19F
100
AcDbEntity
8
1
62
256
6
ByLayer
370
18
48
1
60
0
100
AcDbEllipse
10
12.252746
20
8.7
30
0
11
-3.07939513732175E-16
21
-1.6764
31
0
210
0
220
0
230
1
40
0.707107
41
1.0471975511966
42
2.0943951023932
0
ELLIPSE
5
1A0
100
AcDbEntity
8
1
62
256
6
ByLayer
370
18
48
1
60
0
100
AcDbEllipse
10
12.252746
20
8.7
30
0
11
-3.07939513732175E-16
21
-1.6764
31
0
210
0
220
0
230
1
40
0.707107
41
0
42
1.0471975511966
0
ELLIPSE
5
1A1
100
AcDbEntity
8
1
62
256
6
ByLayer
370
18
48
1
60
0
100
AcDbEllipse
10
12.252746
20
8.7
30
0
11
-4.06668490926528E-16
21
-2.21387326987261
31
0
210
0
220
0
230
1
40
0.707107
41
0
42
6.28318530717959
0
ELLIPSE
5
1A2
100
AcDbEntity
8
1
62
256
6
ByLayer
370
18
48
1
60
0
100
AcDbEllipse
10
12.07597
20
8.7
30
0
11
-5.05150120951731E-16
21
-2.75
31
0
210
0
220
0
230
1
40
0.707107
41
0
42
6.28318530717959
0
ELLIPSE
5
1A3
100
AcDbEntity
8
1
62
256
6
ByLayer
370
18
48
1
60
0
100
AcDbEllipse
10
11.61635
20
8.7
30
0
11
-5.05150120951731E-16
21
-2.75
31
0
210
0
220
0
230
1
40
0.707107
41
-0.119576966305577
42
0
0
ELLIPSE
5
1A4
100
AcDbEntity
8
1
62
256
6
ByLayer
370
18
48
1
60
0
100
AcDbEllipse
10
11.61635
20
8.7
30
0
11
-5.05150120951731E-16
21
-2.75
31
0
210
0
220
0
230
1
40
0.707107
41
-3.14159247577836
42
-3.02201551072463
0
ELLIPSE
5
1A5
100
AcDbEntity
8
1
62
256
6
ByLayer
370
13
48
1
60
0
100
AcDbEllipse
10
10.794058
20
3.057524
30
0
11
12.3324800688088
21
10.2435293041729
31
0
210
0
220
0
230
1
40
0.106039
41
-0.0604429474183988
42
0.138735868496462
0
ELLIPSE
5
1A6
100
AcDbEntity
8
1
62
256
6
ByLayer
370
13
48
1
60
0
100
AcDbEllipse
10
23.364812
20
11.676334
30
0
11
-0.834899454911706
21
1.68857023905715
31
0
210
0
220
0
230
1
40
0.159261
41
-0.0701593716128852
42
-0.0374566528285972
0
ELLIPSE
5
1A7
100
AcDbEntity
8
1
62
256
6
ByLayer
370
13
48
1
60
0
100
AcDbEllipse
10
9.895432
20
21.175619
30
0
11
13.2575025515528
21
-9.01435429460089
31
0
210
0
220
0
230
1
40
0.106039
41
-0.169700856680877
42
0.0556295533224175
0
ELLIPSE
5
1A8
100
AcDbEntity
8
1
62
256
6
ByLayer
370
13
48
1
60
0
100
AcDbEllipse
10
23.364812
20
13.540969
30
0
11
-0.837520636465338
21
-1.46961781006813
31
0
210
0
220
0
230
1
40
0.177356
41
0.0473558750925516
42
0.0909599813982652
0
ELLIPSE
5
1A9
100
AcDbEntity
8
1
62
256
6
ByLayer
370
13
48
1
60
0
100
AcDbEllipse
10
22.540569
20
12.094649
30
0
11
-0.59998852110312
21
0.0789796477148858
31
0
210
0
220
0
230
1
40
0.046991
41
1.227916104973
42
1.57698195556217
0
ELLIPSE
5
1AA
100
AcDbEntity
8
1
62
256
6
ByLayer
370
13
48
1
60
0
100
AcDbEllipse
10
22.540569
20
13.343352
30
0
11
0.599992953802378
21
0.0697622886130981
31
0
210
0
220
0
230
1
40
0.041682
41
1.56594986910316
42
1.91501571937224
0
ELLIPSE
5
1AB
100
AcDbEntity
8
1
62
256
6
ByLayer
370
13
48
1
60
0
100
AcDbEllipse
10
23.364812
20
13.540968
30
0
11
0.863864740327128
21
1.51584442310349
31
0
210
0
220
0
230
1
40
0.343895
41
-3.09423676942086
42
-3.05063265707578
0
ELLIPSE
5
1AC
100
AcDbEntity
8
1
62
256
6
ByLayer
370
13
48
1
60
0
100
AcDbEllipse
10
22.540569
20
12.094649
30
0
11
-0.560946444030435
21
0.227299173503813
31
0
210
0
220
0
230
1
40
0.134125
41
1.25114389210004
42
1.60020974245863
0
ELLIPSE
5
1AD
100
AcDbEntity
8
1
62
256
6
ByLayer
370
13
48
1
60
0
100
AcDbEllipse
10
22.540569
20
13.343352
30
0
11
0.569114920675384
21
0.20255887039905
31
0
210
0
220
0
230
1
40
0.120232
41
1.54750119750471
42
1.89656704758096
0
ELLIPSE
5
1AE
100
AcDbEntity
8
1
62
256
6
ByLayer
370
13
48
1
60
0
100
AcDbEllipse
10
23.364812
20
11.676335
30
0
11
-0.856075512061373
21
1.73139842270366
31
0
210
0
220
0
230
1
40
0.310643
41
-0.07015939103795
42
-0.037456664488663
0
ELLIPSE
5
1AF
100
AcDbEntity
8
1
62
256
6
ByLayer
370
13
48
1
60
0
100
AcDbEllipse
10
9.895432
20
21.175619
30
0
11
-13.2838091710905
21
9.03224131275207
31
0
210
0
220
0
230
1
40
0.124505
41
2.9718917969071
42
-3.0859631002668
0
ELLIPSE
5
1B0
100
AcDbEntity
8
1
62
256
6
ByLayer
370
13
48
1
60
0
100
AcDbEllipse
10
10.794058
20
3.057524
30
0
11
12.3569511837986
21
10.2638553523129
31
0
210
0
220
0
230
1
40
0.124505
41
-0.0604429474175358
42
0.138735868494374
0
ELLIPSE
5
1B1
100
AcDbEntity
8
1
62
256
6
ByLayer
370
13
48
1
60
0
100
AcDbEllipse
10
24.21653
20
15.035499
30
0
11
1.94543337458735
21
3.41369921064088
31
0
210
0
220
0
230
1
40
0.152706
41
2.83988267828
42
-3.05063267219058
0
ELLIPSE
5
1B2
100
AcDbEntity
8
1
62
256
6
ByLayer
370
13
48
1
60
0
100
AcDbEllipse
10
24.21653
20
9.953749
30
0
11
-1.94103991234448
21
3.92572088713453
31
0
210
0
220
0
230
1
40
0.137006
41
-0.0701593716119802
42
0.311609197570517
0
ELLIPSE
5
1B3
100
AcDbEntity
8
1
62
256
6
ByLayer
370
13
48
1
60
0
100
AcDbEllipse
10
8.557873
20
1.200117
30
0
11
15.2260830457518
21
12.6469961432414
31
0
210
0
220
0
230
1
40
0.101044
41
-0.0604429474204293
42
0.138735868501303
0
ELLIPSE
5
1B4
100
AcDbEntity
8
1
62
256
6
ByLayer
370
13
48
1
60
0
100
AcDbEllipse
10
7.491517
20
22.810145
30
0
11
-16.3681460430461
21
11.1294164948497
31
0
210
0
220
0
230
1
40
0.101044
41
2.97189179690732
42
-3.08596310026686
0
ELLIPSE
5
1B5
100
AcDbEntity
8
1
62
256
6
ByLayer
370
13
48
1
60
0
100
AcDbEllipse
10
24.21653
20
9.953749
30
0
11
-1.94809872812731
21
3.93999722446668
31
0
210
0
220
0
230
1
40
0.159261
41
-0.0701593716128733
42
0.311609197574544
0
ELLIPSE
5
1B6
100
AcDbEntity
8
1
62
256
6
ByLayer
370
13
48
1
60
0
100
AcDbEllipse
10
8.557873
20
1.200117
30
0
11
15.2342400849991
21
12.6537714933901
31
0
210
0
220
0
230
1
40
0.106039
41
-0.0604429474183987
42
0.138735868496463
0
ELLIPSE
5
1B7
100
AcDbEntity
8
1
62
256
6
ByLayer
370
13
48
1
60
0
100
AcDbEllipse
10
-127.718471
20
18.003377
30
0
11
-151.71384913687
21
5.39734360514211
31
0
210
0
220
0
230
1
40
0.119228
41
3.13227327140907
42
-3.11617387220554
0
ELLIPSE
5
1B8
100
AcDbEntity
8
1
62
256
6
ByLayer
370
13
48
1
60
0
100
AcDbEllipse
10
7.491517
20
22.810145
30
0
11
16.3769149166241
21
-11.135378834507
31
0
210
0
220
0
230
1
40
0.106039
41
-0.169706629963041
42
0.0556295533224128
0
ELLIPSE
5
1B9
100
AcDbEntity
8
1
62
256
6
ByLayer
370
13
48
1
60
0
100
AcDbEllipse
10
24.21653
20
15.035499
30
0
11
-1.95421481841912
21
-3.4291082234923
31
0
210
0
220
0
230
1
40
0.177356
41
-0.301709975306319
42
0.0909599813982618
0
ELLIPSE
5
1BA
100
AcDbEntity
8
1
62
256
6
ByLayer
370
13
48
1
60
0
100
AcDbEllipse
10
-127.718469
20
18.003377
30
0
11
-151.701931767315
21
5.39691963516657
31
0
210
0
220
0
230
1
40
0.118579
41
3.13227327134481
42
-3.11617387202986
0
ELLIPSE
5
1BB
100
AcDbEntity
8
1
62
256
6
ByLayer
370
13
48
1
60
0
100
AcDbEllipse
10
21.956078
20
6.636752
30
0
11
-1.22810569752846E-15
21
-6.68571683570075
31
0
210
0
220
0
230
1
40
0.785256
41
2.91993572988701
42
3.03002965844048
0
ELLIPSE
5
1BC
100
AcDbEntity
8
1
62
256
6
ByLayer
370
13
48
1
60
0
100
AcDbEllipse
10
21.956078
20
18.863248
30
0
11
4.09368565842819E-16
21
6.68571683570075
31
0
210
0
220
0
230
1
40
0.785256
41
-3.03002965844048
42
-2.91993572988701
0
ELLIPSE
5
1BD
100
AcDbEntity
8
1
62
256
6
ByLayer
370
13
48
1
60
0
100
AcDbEllipse
10
23.203115
20
12.407171
30
0
11
-0.300447500661576
21
0.0130088005202922
31
0
210
0
220
0
230
1
40
0.136082
41
1.56121457919231
42
1.68108807342368
0
ELLIPSE
5
1BE
100
AcDbEntity
8
1
62
256
6
ByLayer
370
13
48
1
60
0
100
AcDbEllipse
10
23.188373
20
13.09706
30
0
11
0.299744142248303
21
0.027581750852679
31
0
210
0
220
0
230
1
40
0.139614
41
1.46020557826591
42
1.58237862663415
0
ELLIPSE
5
1BF
100
AcDbEntity
8
1
62
256
6
ByLayer
370
13
48
1
60
0
100
AcDbEllipse
10
23.187623
20
13.136406
30
0
11
-0.087988404628727
21
-0.234004360324528
31
0
210
0
220
0
230
1
40
0.105093
41
0.652766239941298
42
1.63288530239534
0
ELLIPSE
5
1C0
100
AcDbEntity
8
1
62
256
6
ByLayer
370
13
48
1
60
0
100
AcDbEllipse
10
23.204721
20
12.36849
30
0
11
-0.0882505851003169
21
0.233905609657938
31
0
210
0
220
0
230
1
40
0.106542
41
-1.62544560841719
42
-0.652884824079877
0
ELLIPSE
5
1C1
100
AcDbEntity
8
1
62
256
6
ByLayer
370
13
48
1
60
0
100
AcDbEllipse
10
23.447295
20
12.460011
30
0
11
-0.0882505851003169
21
0.233905609657938
31
0
210
0
220
0
230
1
40
0.106542
41
-1.62544560841719
42
-0.652884824079877
0
ELLIPSE
5
1C2
100
AcDbEntity
8
1
62
256
6
ByLayer
370
13
48
1
60
0
100
AcDbEllipse
10
23.335127
20
13.080943
30
0
11
-0.087988404628727
21
-0.234004360324528
31
0
210
0
220
0
230
1
40
0.105093
41
0.65276623994113
42
1.63288530239534
0
ELLIPSE
5
1C3
100
AcDbEntity
8
1
62
256
6
ByLayer
370
13
48
1
60
0
100
AcDbEllipse
10
-16.057724
20
14.031136
30
0
11
-65.3065860986068
21
16.8608926080607
31
0
210
0
220
0
230
1
40
0.161245
41
-2.17982133703051
42
-2.17661673334334
0
ELLIPSE
5
1C4
100
AcDbEntity
8
1
62
256
6
ByLayer
370
13
48
1
60
0
100
AcDbEllipse
10
23.502027
20
13.018116
30
0
11
-0.088163411772976
21
-0.23393848085458
31
0
210
0
220
0
230
1
40
0.10606
41
0.652845209840483
42
1.62992570031279
0
ELLIPSE
5
1C5
100
AcDbEntity
8
1
62
256
6
ByLayer
370
13
48
1
60
0
100
AcDbEllipse
10
23.505237
20
12.481884
30
0
11
-0.0883401234821404
21
0.233871808012766
31
0
210
0
220
0
230
1
40
0.107037
41
-1.62424218279909
42
-0.652925705810634
0
ELLIPSE
5
1C6
100
AcDbEntity
8
1
62
256
6
ByLayer
370
13
48
1
60
0
100
AcDbEllipse
10
22.420862
20
12.220426
30
0
11
0.0428091736648996
21
0.246307479890742
31
0
210
0
220
0
230
1
40
0.337548
41
0.714439826773272
42
1.62939625811178
0
ELLIPSE
5
1C7
100
AcDbEntity
8
1
62
256
6
ByLayer
370
13
48
1
60
0
100
AcDbEllipse
10
21.870573
20
19.013279
30
0
11
-2.366142364404
21
6.64725242813057
31
0
210
0
220
0
230
1
40
0.705038
41
2.73761621865562
42
2.76269666662333
0
ELLIPSE
5
1C8
100
AcDbEntity
8
1
62
256
6
ByLayer
370
13
48
1
60
0
100
AcDbEllipse
10
22.420862
20
13.279574
30
0
11
0.0428091736649
21
-0.246307479890742
31
0
210
0
220
0
230
1
40
0.337548
41
-1.62939625811176
42
-0.714439826773357
0
ELLIPSE
5
1C9
100
AcDbEntity
8
1
62
256
6
ByLayer
370
13
48
1
60
0
100
AcDbEllipse
10
21.870573
20
6.486719
30
0
11
2.36614202260339
21
6.64725474057369
31
0
210
0
220
0
230
1
40
0.705037
41
0.378895823622632
42
0.40397626763592
0
ELLIPSE
5
1CA
100
AcDbEntity
8
1
62
256
6
ByLayer
370
13
48
1
60
0
100
AcDbEllipse
10
21.956078
20
18.934213
30
0
11
4.09368565842819E-16
21
6.68571683570075
31
0
210
0
220
0
230
1
40
0.785256
41
-3.13545820298709
42
-3.10085955288924
0
ELLIPSE
5
1CB
100
AcDbEntity
8
1
62
256
6
ByLayer
370
13
48
1
60
0
100
AcDbEllipse
10
21.956078
20
6.565787
30
0
11
-1.22810569752846E-15
21
-6.68571683570075
31
0
210
0
220
0
230
1
40
0.785256
41
3.10085955288924
42
3.13545820298709
0
ELLIPSE
5
1CC
100
AcDbEntity
8
1
62
256
6
ByLayer
370
13
48
1
60
0
100
AcDbEllipse
10
23.148154
20
12.598682
30
0
11
0.0485084943552167
21
0.0317451514258939
31
0
210
0
220
0
230
1
40
0.610315
41
-2.03990898815568
42
-1.92003549090554
0
ELLIPSE
5
1CD
100
AcDbEntity
8
1
62
256
6
ByLayer
370
13
48
1
60
0
100
AcDbEllipse
10
23.133412
20
12.905549
30
0
11
-0.0504283193849905
21
0.0333970860749033
31
0
210
0
220
0
230
1
40
0.576304
41
-1.19229103428433
42
-1.07011798513042
0
ELLIPSE
5
1CE
100
AcDbEntity
8
1
62
256
6
ByLayer
370
13
48
1
60
0
100
AcDbEllipse
10
-16.142616
20
13.840364
30
0
11
-65.3315620281271
21
16.6570153175563
31
0
210
0
220
0
230
1
40
0.159195
41
-2.18060200987481
42
-2.17739862017493
0
ELLIPSE
5
1CF
100
AcDbEntity
8
1
62
256
6
ByLayer
370
13
48
1
60
0
100
AcDbEllipse
10
22.289574
20
12.245356
30
0
11
0.0504245190824713
21
0.244861936354554
31
0
210
0
220
0
230
1
40
0.335791
41
0.715521115426336
42
1.63983596461221
0
ELLIPSE
5
1D0
100
AcDbEntity
8
1
62
256
6
ByLayer
370
13
48
1
60
0
100
AcDbEllipse
10
22.289574
20
13.254644
30
0
11
0.0504245190824714
21
-0.244861936354554
31
0
210
0
220
0
230
1
40
0.335791
41
-1.63983596461221
42
-0.715521115426336
0
ELLIPSE
5
1D1
100
AcDbEntity
8
1
62
256
6
ByLayer
370
13
48
1
60
0
100
AcDbEllipse
10
21.956078
20
6.565787
30
0
11
-8.24827311765386E-15
21
6.48940282137714
31
0
210
0
220
0
230
1
40
0.770487
41
-0.0407331006586126
42
-0.00613445059645935
0
ELLIPSE
5
1D2
100
AcDbEntity
8
1
62
256
6
ByLayer
370
13
48
1
60
0
100
AcDbEllipse
10
21.955999
20
6.394752
30
0
11
3.53992957626207
21
7.76327005601271
31
0
210
0
220
0
230
1
40
0.456388
41
0.778816445400187
42
0.781849730994772
0
ELLIPSE
5
1D3
100
AcDbEntity
8
1
62
256
6
ByLayer
370
13
48
1
60
0
100
AcDbEllipse
10
21.956078
20
6.636752
30
0
11
-8.24827310196285E-15
21
6.4894028090321
31
0
210
0
220
0
230
1
40
0.770487
41
-0.221656923685664
42
-0.111562995141284
0
ELLIPSE
5
1D4
100
AcDbEntity
8
1
62
256
6
ByLayer
370
13
48
1
60
0
100
AcDbEllipse
10
21.956078
20
6.48672
30
0
11
2.22323936477121
21
6.48254112514812
31
0
210
0
220
0
230
1
40
0.69086
41
0.372134662447231
42
0.397215108665496
0
ELLIPSE
5
1D5
100
AcDbEntity
8
1
62
256
6
ByLayer
370
13
48
1
60
0
100
AcDbEllipse
10
21.956104
20
19.075247
30
0
11
-3.53799273197487
21
7.73232805328719
31
0
210
0
220
0
230
1
40
0.456396
41
2.35801532240324
42
2.36105546932513
0
ELLIPSE
5
1D6
100
AcDbEntity
8
1
62
256
6
ByLayer
370
13
48
1
60
0
100
AcDbEllipse
10
21.956078
20
18.934214
30
0
11
-4.7565036749982E-08
21
6.48940382883275
31
0
210
0
220
0
230
1
40
0.770487
41
-3.13545820911647
42
-3.10085956174078
0
ELLIPSE
5
1D7
100
AcDbEntity
8
1
62
256
6
ByLayer
370
13
48
1
60
0
100
AcDbEllipse
10
21.956078
20
19.01328
30
0
11
-2.22323928911863
21
6.48254174638352
31
0
210
0
220
0
230
1
40
0.69086
41
2.74437758843402
42
2.76945803354718
0
ELLIPSE
5
1D8
100
AcDbEntity
8
1
62
256
6
ByLayer
370
13
48
1
60
0
100
AcDbEllipse
10
21.956078
20
18.863248
30
0
11
-8.24827309822717E-15
21
6.48940280609302
31
0
210
0
220
0
230
1
40
0.770487
41
-3.03002965842518
42
-2.9199357298547
0
ELLIPSE
5
1D9
100
AcDbEntity
8
1
62
256
6
ByLayer
370
13
48
1
60
0
100
AcDbEllipse
10
21.973106
20
12.06539
30
0
11
0.308628239148759
21
0.393380998524251
31
0
210
0
220
0
230
1
40
0.618331
41
0.907274004013144
42
1.06105114734752
0
ELLIPSE
5
1DA
100
AcDbEntity
8
1
62
256
6
ByLayer
370
13
48
1
60
0
100
AcDbEllipse
10
21.973106
20
13.43461
30
0
11
-0.308628239148796
21
0.393380998524222
31
0
210
0
220
0
230
1
40
0.618331
41
2.08054150624042
42
2.23431864957658
0
ELLIPSE
5
1DB
100
AcDbEntity
8
1
62
256
6
ByLayer
370
13
48
1
60
0
100
AcDbEllipse
10
21.956078
20
6.723486
30
0
11
-8.03108483299034E-15
21
6.31852799131739
31
0
210
0
220
0
230
1
40
0.791324
41
-0.221656923698286
42
-0.00309605088765169
0
ELLIPSE
5
1DC
100
AcDbEntity
8
1
62
256
6
ByLayer
370
13
48
1
60
0
100
AcDbEllipse
10
21.956078
20
18.776514
30
0
11
-8.03108483206931E-15
21
6.31852799059276
31
0
210
0
220
0
230
1
40
0.791324
41
-3.1384966027021
42
-2.91993572987872
0
ELLIPSE
5
1DD
100
AcDbEntity
8
1
62
256
6
ByLayer
370
13
48
1
60
0
100
AcDbEllipse
10
23.245263
20
12.75
30
0
11
-1.83690953073357E-17
21
-0.1
31
0
210
0
220
0
230
1
40
0.34202
41
0.698131700797745
42
2.44346095279205
0
ELLIPSE
5
1DE
100
AcDbEntity
8
1
62
256
6
ByLayer
370
13
48
1
60
0
100
AcDbEllipse
10
21.956078
20
18.776514
30
0
11
3.82077328119964E-16
21
6.24000237998737
31
0
210
0
220
0
230
1
40
0.785256
41
-3.14159265358979
42
-2.91993572988701
0
ELLIPSE
5
1DF
100
AcDbEntity
8
1
62
256
6
ByLayer
370
13
48
1
60
0
100
AcDbEllipse
10
21.956078
20
6.723486
30
0
11
-1.14623198435989E-15
21
-6.24000237998737
31
0
210
0
220
0
230
1
40
0.785256
41
2.91993572988701
42
3.14159265358979
0
ELLIPSE
5
1E0
100
AcDbEntity
8
1
62
256
6
ByLayer
370
13
48
1
60
0
100
AcDbEllipse
10
22.344607
20
12.963489
30
0
11
-0.600000000000931
21
7.34763812294566E-17
31
0
210
0
220
0
230
1
40
0.166667
41
-0.8664333352758
42
0
0
ELLIPSE
5
1E1
100
AcDbEntity
8
1
62
256
6
ByLayer
370
13
48
1
60
0
100
AcDbEllipse
10
21.956078
20
13.420703
30
0
11
-0.323774272535358
21
0.381012100128329
31
0
210
0
220
0
230
1
40
0.606103
41
1.894342402703
42
2.19036109750771
0
ELLIPSE
5
1E2
100
AcDbEntity
8
1
62
256
6
ByLayer
370
13
48
1
60
0
100
AcDbEllipse
10
21.956078
20
12.079297
30
0
11
-0.323774272535361
21
-0.381012100128326
31
0
210
0
220
0
230
1
40
0.606103
41
-2.19036109750771
42
-1.89434240270316
0
ELLIPSE
5
1E3
100
AcDbEntity
8
1
62
256
6
ByLayer
370
13
48
1
60
0
100
AcDbEllipse
10
22.344607
20
12.536511
30
0
11
-0.59999999999856
21
7.34763812291663E-17
31
0
210
0
220
0
230
1
40
0.166667
41
0
42
0.866433335277646
0
ELLIPSE
5
1E4
100
AcDbEntity
8
1
62
256
6
ByLayer
370
13
48
1
60
0
100
AcDbEllipse
10
20.259084
20
12.75
30
0
11
0.242352949403726
21
0.0613599862721227
31
0
210
0
220
0
230
1
40
0.465769
41
-0.912248331399618
42
-0.49790410125055
0
ELLIPSE
5
1E5
100
AcDbEntity
8
1
62
256
6
ByLayer
370
13
48
1
60
0
100
AcDbEllipse
10
20.259084
20
12.75
30
0
11
-0.242352949403726
21
0.0613599862721224
31
0
210
0
220
0
230
1
40
0.465769
41
-2.64368855233924
42
-2.22934432219016
0
ELLIPSE
5
1E6
100
AcDbEntity
8
1
62
256
6
ByLayer
370
13
48
1
60
0
100
AcDbEllipse
10
20.801354
20
12.832087
30
0
11
-1.17047975801359E-15
21
0.920885443010012
31
0
210
0
220
0
230
1
40
0.542956
41
0.627243126933878
42
0.897742874809381
0
ELLIPSE
5
1E7
100
AcDbEntity
8
1
62
256
6
ByLayer
370
13
48
1
60
0
100
AcDbEllipse
10
20.3482
20
13.101981
30
0
11
-0.242352949403726
21
0.0613599862721224
31
0
210
0
220
0
230
1
40
0.465769
41
-2.64368855233924
42
-1.79524588730301
0
ELLIPSE
5
1E8
100
AcDbEntity
8
1
62
256
6
ByLayer
370
13
48
1
60
0
100
AcDbEllipse
10
20.3482
20
12.398019
30
0
11
-0.242352949403726
21
-0.0613599862721224
31
0
210
0
220
0
230
1
40
0.465769
41
1.79524588730303
42
2.64368855233924
0
ELLIPSE
5
1E9
100
AcDbEntity
8
1
62
256
6
ByLayer
370
13
48
1
60
0
100
AcDbEllipse
10
20.801354
20
12.667913
30
0
11
-1.17047975801696E-15
21
0.920885443012662
31
0
210
0
220
0
230
1
40
0.542956
41
2.24384977877984
42
2.51434952665434
0
ELLIPSE
5
1EA
100
AcDbEntity
8
1
62
256
6
ByLayer
370
13
48
1
60
0
100
AcDbEllipse
10
20.801354
20
12.712798
30
0
11
-1.17047975801731E-15
21
0.920885443012935
31
0
210
0
220
0
230
1
40
0.271478
41
0.463536993995623
42
1.1344640137976
0
ELLIPSE
5
1EB
100
AcDbEntity
8
1
62
256
6
ByLayer
370
13
48
1
60
0
100
AcDbEllipse
10
20.801354
20
12.787202
30
0
11
-1.17047975801605E-15
21
0.920885443011943
31
0
210
0
220
0
230
1
40
0.271478
41
2.00712863979186
42
2.67805565959455
0
ELLIPSE
5
1EC
100
AcDbEntity
8
1
62
256
6
ByLayer
370
18
48
1
60
0
100
AcDbEllipse
10
21.894607
20
11.521051
30
0
11
-0.499516780237152
21
0.290616329346759
31
0
210
0
220
0
230
1
40
0.075622
41
-1.48392770745733
42
-0.829809115715778
0
ELLIPSE
5
1ED
100
AcDbEntity
8
1
62
256
6
ByLayer
370
18
48
1
60
0
100
AcDbEllipse
10
21.894607
20
13.978949
30
0
11
0.499516780224041
21
0.290616329338178
31
0
210
0
220
0
230
1
40
0.075622
41
-2.31178353787158
42
-1.65766494611466
0
ELLIPSE
5
1EE
100
AcDbEntity
8
1
62
256
6
ByLayer
370
18
48
1
60
0
100
AcDbEllipse
10
21.325336
20
11.4
30
0
11
-0.492201317790842
21
6.02752861126412E-17
31
0
210
0
220
0
230
1
40
0.812676
41
-2.02447093777589
42
-1.5707963267949
0
ELLIPSE
5
1EF
100
AcDbEntity
8
1
62
256
6
ByLayer
370
18
48
1
60
0
100
AcDbEllipse
10
21.325336
20
14.1
30
0
11
-0.492201317784865
21
6.02752861119093E-17
31
0
210
0
220
0
230
1
40
0.812676
41
1.5707963267949
42
2.02447093778148
0
ELLIPSE
5
1F0
100
AcDbEntity
8
1
62
256
6
ByLayer
370
18
48
1
60
0
100
AcDbEllipse
10
21.894607
20
13.960743
30
0
11
0.499994737144355
21
0.0219982925633964
31
0
210
0
220
0
230
1
40
0.087321
41
-1.61753871355945
42
-1.57463802132109
0
ELLIPSE
5
1F1
100
AcDbEntity
8
1
62
256
6
ByLayer
370
18
48
1
60
0
100
AcDbEllipse
10
21.894607
20
11.539256
30
0
11
-0.49999659255417
21
0.0219983827294178
31
0
210
0
220
0
230
1
40
0.087321
41
-1.56695445140971
42
-1.52405391831742
0
POINT
5
70
100
AcDbEntity
8
81
62
256
6
ByLayer
370
18
48
1
60
0
100
AcDbPoint
10
24
20
14
30
0
39
0
210
0
220
0
230
1
50
360
0
POINT
5
72
100
AcDbEntity
8
80
62
256
6
ByLayer
370
18
48
1
60
0
100
AcDbPoint
10
0
20
0
30
0
39
0
210
0
220
0
230
1
50
360
0
POINT
5
74
100
AcDbEntity
8
1
62
256
6
ByLayer
370
18
48
1
60
1
100
AcDbPoint
10
0
20
0
30
0
39
0
210
0
220
0
230
1
50
360
0
POINT
5
76
100
AcDbEntity
8
1
62
256
6
ByLayer
370
18
48
1
60
1
100
AcDbPoint
10
24
20
14
30
0
39
0
210
0
220
0
230
1
50
360
0
POINT
5
77
100
AcDbEntity
8
1
62
256
6
ByLayer
370
18
48
1
60
1
100
AcDbPoint
10
17
20
14
30
0
39
0
210
0
220
0
230
1
50
360
0
POINT
5
78
100
AcDbEntity
8
1
62
256
6
ByLayer
370
18
48
1
60
1
100
AcDbPoint
10
24
20
14
30
0
39
0
210
0
220
0
230
1
50
360
0
POINT
5
79
100
AcDbEntity
8
1
62
256
6
ByLayer
370
18
48
1
60
1
100
AcDbPoint
10
24
20
14
30
0
39
0
210
0
220
0
230
1
50
360
0
POINT
5
7A
100
AcDbEntity
8
1
62
256
6
ByLayer
370
18
48
1
60
1
100
AcDbPoint
10
0
20
0
30
0
39
0
210
0
220
0
230
1
50
360
0
POINT
5
7B
100
AcDbEntity
8
1
62
256
6
ByLayer
370
18
48
1
60
1
100
AcDbPoint
10
24
20
14
30
0
39
0
210
0
220
0
230
1
50
360
0
POINT
5
7C
100
AcDbEntity
8
1
62
256
6
ByLayer
370
18
48
1
60
1
100
AcDbPoint
10
24
20
11.5
30
0
39
0
210
0
220
0
230
1
50
360
0
SPLINE
5
1F2
100
AcDbEntity
8
1
62
256
6
ByLayer
370
18
48
1
60
0
100
AcDbSpline
70
4
71
3
72
8
73
4
40
0
40
0
40
0
40
0
40
1
40
1
40
1
40
1
41
1
10
2.98717295880792
20
-2.84178080426469
30
0
41
1
10
2.94318933435073
20
-3.00845111830077
30
0
41
1
10
2.89919310115005
20
-3.17511797202857
30
0
41
1
10
2.85518238924047
20
-3.34178080426469
30
0
0
SPLINE
5
1F3
100
AcDbEntity
8
1
62
256
6
ByLayer
370
18
48
1
60
0
100
AcDbSpline
70
4
71
3
72
8
73
4
40
0
40
0
40
0
40
0
40
1
40
1
40
1
40
1
41
1
10
2.84163477523549
20
-2.84178080426469
30
0
41
1
10
2.79765115095014
20
-3.0084511176496
30
0
41
1
10
2.75365491839159
20
-3.17511796894618
30
0
41
1
10
2.70964420566804
20
-3.34178080426469
30
0
0
SPLINE
5
1F4
100
AcDbEntity
8
1
62
256
6
ByLayer
370
18
48
1
60
0
100
AcDbSpline
70
4
71
3
72
12
73
8
40
0
40
0
40
0
40
0
40
0.137062673116006
40
0.137062673116006
40
0.424708448744004
40
0.424708448744004
40
1
40
1
40
1
40
1
41
1
10
10.4988009446467
20
6.69120569916234
30
0
41
1
10
10.5162641936776
20
6.67777671034082
30
0
41
1
10
10.5339053976397
20
6.66491194938016
30
0
41
1
10
10.589129477013
20
6.62677306612699
30
0
41
1
10
10.6273348321139
20
6.60339010675773
30
0
41
1
10
10.744418741051
20
6.54049165255532
30
0
41
1
10
10.8256837108291
20
6.50817550562087
30
0
41
1
10
10.9105669306872
20
6.48584101745175
30
0
0
SPLINE
5
1F5
100
AcDbEntity
8
1
62
256
6
ByLayer
370
18
48
1
60
0
100
AcDbSpline
70
4
71
3
72
16
73
12
40
0
40
0
40
0
40
0
40
0.299513208532933
40
0.299513208532933
40
0.599026417065867
40
0.599026417065867
40
0.748783021332333
40
0.748783021332333
40
0.8985396255988
40
0.8985396255988
40
1
40
1
40
1
40
1
41
1
10
10.9106224242961
20
10.9141589825485
30
0
41
1
10
10.8687105685706
20
10.9031168996501
30
0
41
1
10
10.8275278867961
20
10.8895714795839
30
0
41
1
10
10.7463802536805
20
10.8574816056362
30
0
41
1
10
10.7064117341306
20
10.838937116827
30
0
41
1
10
10.6473689982982
20
10.8072990684716
30
0
41
1
10
10.627841830198
20
10.7961153619686
30
0
41
1
10
10.5891232054473
20
10.772450592416
30
0
41
1
10
10.5700260608562
20
10.7600245567039
30
0
41
1
10
10.5385271016229
20
10.7382708718775
30
0
41
1
10
10.5259418643071
20
10.7292307662909
30
0
41
1
10
10.5134899377227
20
10.7199382429115
30
0
0
SPLINE
5
1F6
100
AcDbEntity
8
1
62
256
6
ByLayer
370
18
48
1
60
0
100
AcDbSpline
70
4
71
3
72
8
73
4
40
0
40
0
40
0
40
0
40
1
40
1
40
1
40
1
41
1
10
8.97509300114021
20
-0.269594177820636
30
0
41
1
10
8.97048024229872
20
-0.263188796058728
30
0
41
1
10
8.96535566342396
20
-0.256648768658465
30
0
41
1
10
8.95982040671319
20
-0.249999999999829
30
0
0
SPLINE
5
1F7
100
AcDbEntity
8
1
62
256
6
ByLayer
370
18
48
1
60
0
100
AcDbSpline
70
4
71
3
72
8
73
4
40
0
40
0
40
0
40
0
40
1
40
1
40
1
40
1
41
1
10
8.97509300113904
20
-0.269594177821347
30
0
41
1
10
8.96602634583104
20
-0.263052313104737
30
0
41
1
10
8.95695689263579
20
-0.256520867363747
30
0
41
1
10
8.94788459874798
20
-0.25
30
0
0
SPLINE
5
1F8
100
AcDbEntity
8
1
62
256
6
ByLayer
370
18
48
1
60
0
100
AcDbSpline
70
4
71
3
72
20
73
16
40
0
40
0
40
0
40
0
40
0.124999999999998
40
0.124999999999998
40
0.249999999999996
40
0.249999999999996
40
0.374999999999993
40
0.374999999999993
40
0.499999999999991
40
0.499999999999991
40
0.624999999999989
40
0.624999999999989
40
0.749999999999986
40
0.749999999999986
40
1
40
1
40
1
40
1
41
1
10
9.50709651305351
20
-0.324980947040331
30
0
41
1
10
9.50446904941916
20
-0.324981271127172
30
0
41
1
10
9.50120780967663
20
-0.324326015422287
30
0
41
1
10
9.49384001757409
20
-0.321979865295134
30
0
41
1
10
9.48970857560775
20
-0.320288636945406
30
0
41
1
10
9.48067860099223
20
-0.31601876079111
30
0
41
1
10
9.47584314069391
20
-0.313468103995831
30
0
41
1
10
9.46575775304058
20
-0.307743130360137
30
0
41
1
10
9.46048816860562
20
-0.304558656068821
30
0
41
1
10
9.44955439368906
20
-0.297628488809039
30
0
41
1
10
9.44387428955613
20
-0.293870098687961
30
0
41
1
10
9.43240501314261
20
-0.286014331367085
30
0
41
1
10
9.42658585407256
20
-0.28189852096969
30
0
41
1
10
9.40890515618776
20
-0.269050847203459
30
0
41
1
10
9.39682309167239
20
-0.259824841667751
30
0
41
1
10
9.3844789550599
20
-0.25
30
0
0
SPLINE
5
1F9
100
AcDbEntity
8
1
62
256
6
ByLayer
370
18
48
1
60
0
100
AcDbSpline
70
4
71
2
72
6
73
3
40
0
40
0
40
0
40
1
40
1
40
1
41
1
10
9.57062122153147
20
-0.324980947161691
30
0
41
1
10
9.53999786148736
20
-0.324980947161691
30
0
41
1
10
9.50723215695228
20
-0.324980947161691
30
0
0
SPLINE
5
1FA
100
AcDbEntity
8
1
62
256
6
ByLayer
370
18
48
1
60
0
100
AcDbSpline
70
4
71
3
72
22
73
18
40
0
40
0
40
0
40
0
40
0.125
40
0.125
40
0.25
40
0.25
40
0.375
40
0.375
40
0.5
40
0.5
40
0.625
40
0.625
40
0.75
40
0.75
40
0.875
40
0.875
40
1
40
1
40
1
40
1
41
1
10
9.53081289439862
20
-0.249999999999943
30
0
41
1
10
9.53505931314226
20
-0.254861141173507
30
0
41
1
10
9.53914014588514
20
-0.259653435704053
30
0
41
1
10
9.5469222663894
20
-0.26908108225922
30
0
41
1
10
9.55063275024946
20
-0.273730195609943
30
0
41
1
10
9.55744018536603
20
-0.282630010692884
30
0
41
1
10
9.56055905507199
20
-0.28690587896952
30
0
41
1
10
9.56613810398775
20
-0.295057128232287
30
0
41
1
10
9.56861585716385
20
-0.298965833156615
30
0
41
1
10
9.57263907119452
20
-0.306067076874996
30
0
41
1
10
9.5741997112676
20
-0.309275100347463
30
0
41
1
10
9.57631860575586
20
-0.314932710155148
30
0
41
1
10
9.57685514810564
20
-0.317350053736362
30
0
41
1
10
9.57683167984811
20
-0.321175545408039
30
0
41
1
10
9.57628182451117
20
-0.322618634072569
30
0
41
1
10
9.57410536556662
20
-0.324533102723962
30
0
41
1
10
9.57251449079982
20
-0.324980699935452
30
0
41
1
10
9.57048139756094
20
-0.324980947060027
30
0
0
SPLINE
5
1FB
100
AcDbEntity
8
1
62
256
6
ByLayer
370
18
48
1
60
0
100
AcDbSpline
70
4
71
3
72
8
73
4
40
0
40
0
40
0
40
0
40
1
40
1
40
1
40
1
41
1
10
-14.999999999999
20
-0.324584329460606
30
0
41
1
10
-14.9997628938501
20
-0.324848409720573
30
0
41
1
10
-14.9996560915048
20
-0.324980947161691
30
0
41
1
10
-14.9996805655565
20
-0.324980947161691
30
0
0
SPLINE
5
1FC
100
AcDbEntity
8
1
62
256
6
ByLayer
370
18
48
1
60
0
100
AcDbSpline
70
4
71
3
72
8
73
4
40
0
40
0
40
0
40
0
40
1
40
1
40
1
40
1
41
1
10
-15
20
-0.27020223355629
30
0
41
1
10
-15
20
-0.257071540155863
30
0
41
1
10
-15
20
-0.241582560475905
30
0
41
1
10
-15
20
-0.223745441164851
30
0
0
SPLINE
5
1FD
100
AcDbEntity
8
1
62
256
6
ByLayer
370
18
48
1
60
0
100
AcDbSpline
70
4
71
3
72
20
73
16
40
0
40
0
40
0
40
0
40
0.124999999999997
40
0.124999999999997
40
0.249999999999994
40
0.249999999999994
40
0.374999999999991
40
0.374999999999991
40
0.499999999999987
40
0.499999999999987
40
0.749999999999994
40
0.749999999999994
40
0.874999999999997
40
0.874999999999997
40
1
40
1
40
1
40
1
41
1
10
-14.9346150246876
20
-0.324980947161663
30
0
41
1
10
-14.9351960628938
20
-0.324980947161663
30
0
41
1
10
-14.9361514874016
20
-0.324597889447574
30
0
41
1
10
-14.9387793708072
20
-0.323098049212661
30
0
41
1
10
-14.9404671470411
20
-0.321968341354079
30
0
41
1
10
-14.9444011163564
20
-0.319097505700995
30
0
41
1
10
-14.9466553429714
20
-0.317353282869305
30
0
41
1
10
-14.9516798283772
20
-0.313310565568798
30
0
41
1
10
-14.9544703083151
20
-0.31099443549644
30
0
41
1
10
-14.9633533330353
20
-0.303451213054444
30
0
41
1
10
-14.9699738615772
20
-0.297622426598366
30
0
41
1
10
-14.9807402813477
20
-0.287926616289497
30
0
41
1
10
-14.9844882735708
20
-0.28451699884036
30
0
41
1
10
-14.9921302738531
20
-0.27750555619113
30
0
41
1
10
-14.9960297422587
20
-0.273899129497067
30
0
41
1
10
-15
20
-0.270202233556347
30
0
0
SPLINE
5
1FE
100
AcDbEntity
8
1
62
256
6
ByLayer
370
18
48
1
60
0
100
AcDbSpline
70
4
71
3
72
20
73
16
40
0
40
0
40
0
40
0
40
0.250000000000013
40
0.250000000000013
40
0.375000000000011
40
0.375000000000011
40
0.500000000000009
40
0.500000000000009
40
0.625000000000007
40
0.625000000000007
40
0.750000000000004
40
0.750000000000004
40
0.875000000000002
40
0.875000000000002
40
1
40
1
40
1
40
1
41
1
10
-14.9753453687125
20
-0.249980947161646
30
0
41
1
10
-14.9662515233099
20
-0.259655945205822
30
0
41
1
10
-14.9577162038731
20
-0.268908634755377
30
0
41
1
10
-14.9459410415359
20
-0.282004553673318
30
0
41
1
10
-14.9421889927718
20
-0.286238019067014
30
0
41
1
10
-14.9351011007809
20
-0.294386390844608
30
0
41
1
10
-14.9318428689822
20
-0.298212586336746
30
0
41
1
10
-14.9259982526922
20
-0.305268294748061
30
0
41
1
10
-14.923404447017
20
-0.308506088876527
30
0
41
1
10
-14.9189885153423
20
-0.314298463839066
30
0
41
1
10
-14.9172307849958
20
-0.316769769154689
30
0
41
1
10
-14.9146776722624
20
-0.32079148230909
30
0
41
1
10
-14.9138767637695
20
-0.322348878423497
30
0
41
1
10
-14.9133247728507
20
-0.32446139838612
30
0
41
1
10
-14.9135864546257
20
-0.324980947161663
30
0
41
1
10
-14.9143591280969
20
-0.324980947161663
30
0
0
SPLINE
5
1FF
100
AcDbEntity
8
1
62
256
6
ByLayer
370
18
48
1
60
0
100
AcDbSpline
70
4
71
3
72
8
73
4
40
0
40
0
40
0
40
0
40
1
40
1
40
1
40
1
41
1
10
-15.0000000000001
20
-0.22374544116488
30
0
41
1
10
-14.9917827872739
20
-0.232491309805027
30
0
41
1
10
-14.9835645783271
20
-0.24123647951069
30
0
41
1
10
-14.9753453687125
20
-0.249980947161646
30
0
0
SPLINE
5
200
100
AcDbEntity
8
1
62
256
6
ByLayer
370
18
48
1
60
0
100
AcDbSpline
70
4
71
3
72
8
73
4
40
0
40
0
40
0
40
0
40
1
40
1
40
1
40
1
41
1
10
-15
20
-0.0881855234951843
30
0
41
1
10
-15
20
-0.0450386405618417
30
0
41
1
10
-15
20
0.0035748039516363
30
0
41
1
10
-15
20
0.0572951840070743
30
0
0
SPLINE
5
201
100
AcDbEntity
8
1
62
256
6
ByLayer
370
18
48
1
60
0
100
AcDbSpline
70
4
71
3
72
8
73
4
40
0
40
0
40
0
40
0
40
1
40
1
40
1
40
1
41
1
10
-14.8184692127086
20
-0.249980947161674
30
0
41
1
10
-14.8790693886891
20
-0.19612417975091
30
0
41
1
10
-14.9395788093494
20
-0.142191669333499
30
0
41
1
10
-15
20
-0.0881855234951843
30
0
0
SPLINE
5
202
100
AcDbEntity
8
1
62
256
6
ByLayer
370
18
48
1
60
0
100
AcDbSpline
70
4
71
3
72
18
73
14
40
0
40
0
40
0
40
0
40
0.125000000000003
40
0.125000000000003
40
0.250000000000006
40
0.250000000000006
40
0.500000000000007
40
0.500000000000007
40
0.625000000000005
40
0.625000000000005
40
0.750000000000004
40
0.750000000000004
40
1
40
1
40
1
40
1
41
1
10
-14.7171680292953
20
-0.324980947161748
30
0
41
1
10
-14.7186893510728
20
-0.32498094716172
30
0
41
1
10
-14.7207746365131
20
-0.324388699392443
30
0
41
1
10
-14.7259716490943
20
-0.322125675212874
30
0
41
1
10
-14.729075461519
20
-0.320451985953838
30
0
41
1
10
-14.7393963271011
20
-0.314194627055087
30
0
41
1
10
-14.7478183865456
20
-0.308259492032192
30
0
41
1
10
-14.7614560038651
20
-0.29790260373386
30
0
41
1
10
-14.7661922846909
20
-0.294192871663853
30
0
41
1
10
-14.7760027492335
20
-0.286317935978389
30
0
41
1
10
-14.7810985572145
20
-0.282134384874752
30
0
41
1
10
-14.7967015141747
20
-0.269079983040143
30
0
41
1
10
-14.8074408879534
20
-0.25978207251589
30
0
41
1
10
-14.8184692127086
20
-0.249980947161674
30
0
0
SPLINE
5
203
100
AcDbEntity
8
1
62
256
6
ByLayer
370
18
48
1
60
0
100
AcDbSpline
70
4
71
3
72
20
73
16
40
0
40
0
40
0
40
0
40
0.250000000000012
40
0.250000000000012
40
0.37500000000001
40
0.37500000000001
40
0.500000000000008
40
0.500000000000008
40
0.625000000000006
40
0.625000000000006
40
0.750000000000004
40
0.750000000000004
40
0.875000000000002
40
0.875000000000002
40
1
40
1
40
1
40
1
41
1
10
-14.7247732958313
20
-0.249980947161618
30
0
41
1
10
-14.7160856128306
20
-0.25966499009715
30
0
41
1
10
-14.7080160142678
20
-0.269003753433594
30
0
41
1
10
-14.6971169070188
20
-0.282333373224049
30
0
41
1
10
-14.6936983491387
20
-0.286651536783268
30
0
41
1
10
-14.6875427104299
20
-0.294755516082461
30
0
41
1
10
-14.6847781383767
20
-0.298574112041251
30
0
41
1
10
-14.6799726609356
20
-0.305670425072748
30
0
41
1
10
-14.6779407469499
20
-0.308942418691345
30
0
41
1
10
-14.6748584845949
20
-0.314608332497528
30
0
41
1
10
-14.6737810588642
20
-0.317039997313913
30
0
41
1
10
-14.6726463444543
20
-0.321018519668684
30
0
41
1
10
-14.6726091838397
20
-0.322509185712022
30
0
41
1
10
-14.6735565772182
20
-0.324486073179997
30
0
41
1
10
-14.6745491156942
20
-0.324980947161691
30
0
41
1
10
-14.6760280503601
20
-0.324980947161691
30
0
0
SPLINE
5
204
100
AcDbEntity
8
1
62
256
6
ByLayer
370
18
48
1
60
0
100
AcDbSpline
70
4
71
3
72
8
73
4
40
0
40
0
40
0
40
0
40
1
40
1
40
1
40
1
41
1
10
-15
20
0.0572951840070743
30
0
41
1
10
-14.9083466946
20
-0.0451898337671821
30
0
41
1
10
-14.81660601573
20
-0.147616254260868
30
0
41
1
10
-14.7247732958313
20
-0.249980947161618
30
0
0
SPLINE
5
205
100
AcDbEntity
8
1
62
256
6
ByLayer
370
18
48
1
60
0
100
AcDbSpline
70
4
71
1
72
4
73
2
40
0
40
0
40
1
40
1
41
1
10
6.34715640488454
20
-0.250000000000199
30
0
41
1
10
6.34714041778952
20
-0.249980947161873
30
0
0
SPLINE
5
206
100
AcDbEntity
8
1
62
256
6
ByLayer
370
18
48
1
60
0
100
AcDbSpline
70
4
71
3
72
8
73
4
40
0
40
0
40
0
40
0
40
1
40
1
40
1
40
1
41
1
10
6.34714041778707
20
-0.249980947161674
30
0
41
1
10
6.33950610219645
20
-0.240883110744079
30
0
41
1
10
6.33187131125305
20
-0.231785574232191
30
0
41
1
10
6.32423603888447
20
-0.222688341457172
30
0
0
SPLINE
5
207
100
AcDbEntity
8
1
62
256
6
ByLayer
370
18
48
1
60
0
100
AcDbSpline
70
4
71
3
72
8
73
4
40
0
40
0
40
0
40
0
40
1
40
1
40
1
40
1
41
1
10
19.0582136773477
20
13.7
30
0
41
1
10
17.6213559503379
20
13.7
30
0
41
1
10
16.2670516052154
20
13.7
30
0
41
1
10
14.4956890143242
20
13.7
30
0
0
SPLINE
5
208
100
AcDbEntity
8
1
62
256
6
ByLayer
370
18
48
1
60
0
100
AcDbSpline
70
4
71
3
72
8
73
4
40
0
40
0
40
0
40
0
40
1
40
1
40
1
40
1
41
1
10
19.0582136773477
20
11.8
30
0
41
1
10
17.8816176825503
20
11.8
30
0
41
1
10
16.76037735181
20
11.8
30
0
41
1
10
15.4201626678169
20
11.8
30
0
0
SPLINE
5
209
100
AcDbEntity
8
1
62
256
6
ByLayer
370
18
48
1
60
0
100
AcDbSpline
70
2053
71
3
72
123
73
119
40
0
40
0
40
0
40
0
40
0.0156250000000032
40
0.0156250000000032
40
0.0234375000000056
40
0.0234375000000056
40
0.0312500000000078
40
0.0312500000000078
40
0.0625000000000181
40
0.0625000000000181
40
0.0781250000000234
40
0.0781250000000234
40
0.0859375000000262
40
0.0859375000000262
40
0.093750000000029
40
0.093750000000029
40
0.125000000000041
40
0.125000000000041
40
0.132812500000043
40
0.132812500000043
40
0.140625000000045
40
0.140625000000045
40
0.15625000000005
40
0.15625000000005
40
0.18750000000006
40
0.18750000000006
40
0.195312500000061
40
0.195312500000061
40
0.203125000000062
40
0.203125000000062
40
0.218750000000066
40
0.218750000000066
40
0.250000000000071
40
0.250000000000071
40
0.265625000000073
40
0.265625000000073
40
0.281250000000076
40
0.281250000000076
40
0.312500000000081
40
0.312500000000081
40
0.320312500000082
40
0.320312500000082
40
0.328125000000084
40
0.328125000000084
40
0.343750000000085
40
0.359375000000086
40
0.359375000000086
40
0.375000000000088
40
0.375000000000088
40
0.40625000000009
40
0.40625000000009
40
0.41406250000009
40
0.41406250000009
40
0.421875000000091
40
0.421875000000091
40
0.437500000000092
40
0.453125000000093
40
0.460937500000093
40
0.460937500000093
40
0.468750000000093
40
0.468750000000093
40
0.500000000000091
40
0.500000000000091
40
0.50781250000009
40
0.50781250000009
40
0.515625000000088
40
0.515625000000088
40
0.531250000000084
40
0.531250000000084
40
0.562500000000076
40
0.562500000000076
40
0.570312500000074
40
0.570312500000074
40
0.578125000000072
40
0.578125000000072
40
0.59375000000007
40
0.609375000000068
40
0.617187500000067
40
0.617187500000067
40
0.625000000000066
40
0.625000000000066
40
0.656250000000058
40
0.656250000000058
40
0.671875000000054
40
0.671875000000054
40
0.68750000000005
40
0.68750000000005
40
0.718750000000043
40
0.718750000000043
40
0.73437500000004
40
0.73437500000004
40
0.750000000000037
40
0.750000000000037
40
0.781250000000031
40
0.781250000000031
40
0.796875000000028
40
0.796875000000028
40
0.812500000000025
40
0.812500000000025
40
0.843750000000021
40
0.843750000000021
40
0.859375000000017
40
0.859375000000017
40
0.875000000000014
40
0.890625000000011
40
0.898437500000009
40
0.898437500000009
40
0.906250000000008
40
0.906250000000008
40
0.937500000000007
40
0.937500000000007
40
0.945312500000006
40
0.945312500000006
40
0.953125000000005
40
0.953125000000005
40
0.968750000000003
40
0.968750000000003
40
1
40
1
40
1
40
1
41
1
10
18.7126501613157
20
12.75
30
0
41
1
10
18.7126501613157
20
12.7706630516599
30
0
41
1
10
18.7119929781411
20
12.7912529093751
30
0
41
1
10
18.7100387255702
20
12.8219348409462
30
0
41
1
10
18.709225568927
20
12.8321336230834
30
0
41
1
10
18.707274806495
20
12.852473951774
30
0
41
1
10
18.706133556582
20
12.8626402915851
30
0
41
1
10
18.6996704052512
20
12.9128723359668
30
0
41
1
10
18.6920974940717
20
12.9513520425025
30
0
41
1
10
18.6773637722202
20
13.0066726255385
30
0
41
1
10
18.6718854746415
20
13.0247096657816
30
0
41
1
10
18.6628061771222
20
13.0511520262571
30
0
41
1
10
18.6596316514785
20
13.0598711447607
30
0
41
1
10
18.6530777685516
20
13.0768855163927
30
0
41
1
10
18.6496891851709
20
13.0852091430552
30
0
41
1
10
18.6322055164893
20
13.1259377498587
30
0
41
1
10
18.6165041758474
20
13.1557003513938
30
0
41
1
10
18.5948403401082
20
13.1895464679089
30
0
41
1
10
18.5904047454462
20
13.1961462467688
30
0
41
1
10
18.5813267472149
20
13.2090048975725
30
0
41
1
10
18.5766717665856
20
13.2152796153813
30
0
41
1
10
18.5624880005685
20
13.2334650003422
30
0
41
1
10
18.552781674139
20
13.2446941877159
30
0
41
1
10
18.5229522098847
20
13.2758430918986
30
0
41
1
10
18.502124758003
20
13.2932458737175
30
0
41
1
10
18.4749433564044
20
13.3108997700645
30
0
41
1
10
18.4694492166234
20
13.3142237918372
30
0
41
1
10
18.4583439273348
20
13.3204538008538
30
0
41
1
10
18.4527227872969
20
13.3233635220765
30
0
41
1
10
18.4358488954157
20
13.3313805299668
30
0
41
1
10
18.4245390125767
20
13.3358069383816
30
0
41
1
10
18.3904333514164
20
13.3464289360094
30
0
41
1
10
18.3674631151809
20
13.3499900969077
30
0
41
1
10
18.3326516807296
20
13.3500049208811
30
0
41
1
10
18.3209382738412
20
13.3491033776751
30
0
41
1
10
18.2977870237489
20
13.3455139624198
30
0
41
1
10
18.2863171513212
20
13.3428339814218
30
0
41
1
10
18.2522194246659
20
13.3321757815804
30
0
41
1
10
18.2299004668932
20
13.321604158959
30
0
41
1
10
18.2025432721217
20
13.3038227917621
30
0
41
1
10
18.1970985461633
20
13.3000341389965
30
0
41
1
10
18.1863687825877
20
13.2920648650258
30
0
41
1
10
18.1810704536299
20
13.2878760282301
30
0
41
1
10
18.165373964369
20
13.2747003343439
30
0
41
1
10
18.1449737086466
20
13.2555110772235
30
0
41
1
10
18.125640170575
20
13.2330472250962
30
0
41
1
10
18.1068603416365
20
13.2088837221285
30
0
41
1
10
18.097711190662
20
13.1958865938464
30
0
41
1
10
18.0716321047223
20
13.1549712126212
30
0
41
1
10
18.0559240189218
20
13.1250201842361
30
0
41
1
10
18.0384742318228
20
13.0841021918676
30
0
41
1
10
18.0350945590414
20
13.0757430184269
30
0
41
1
10
18.028562358472
20
13.0586631640026
30
0
41
1
10
18.0254087511462
20
13.049935829134
30
0
41
1
10
18.0163989623544
20
13.0234975589466
30
0
41
1
10
18.0055113613603
20
12.9873772185295
30
0
41
1
10
17.9947054992132
20
12.9400623344885
30
0
41
1
10
17.9895178568189
20
12.9106734337891
30
0
41
1
10
17.9863563079961
20
12.8908517878898
30
0
41
1
10
17.9849216057917
20
12.8808059226508
30
0
41
1
10
17.978581405049
20
12.8305937075291
30
0
41
1
10
17.9760748690474
20
12.7900746411631
30
0
41
1
10
17.9761162081234
20
12.7389937456408
30
0
41
1
10
17.976284745143
20
12.7287557522766
30
0
41
1
10
17.9769478555738
20
12.7082353878023
30
0
41
1
10
17.9774449447999
20
12.6979189856353
30
0
41
1
10
17.9794164263329
20
12.6672012382019
30
0
41
1
10
17.9813634426262
20
12.6470388055394
30
0
41
1
10
17.9890202121193
20
12.5874587682595
30
0
41
1
10
17.9965279435872
20
12.5489395293397
30
0
41
1
10
18.0089310844986
20
12.5022999030388
30
0
41
1
10
18.0115643282124
20
12.4930527523269
30
0
41
1
10
18.0170639885722
20
12.4749489543764
30
0
41
1
10
18.0199383419962
20
12.4660612349944
30
0
41
1
10
18.0289238528209
20
12.4398760962029
30
0
41
1
10
18.0418692362615
20
12.4062348848838
30
0
41
1
10
18.0603755703039
20
12.3672509668285
30
0
41
1
10
18.0725183259211
20
12.3452323415754
30
0
41
1
10
18.080847160717
20
12.3308618238456
30
0
41
1
10
18.0851395491239
20
12.3238135231931
30
0
41
1
10
18.1069497734764
20
12.2897198617853
30
0
41
1
10
18.1256202860546
20
12.2658493132409
30
0
41
1
10
18.1553176441549
20
12.2347567653426
30
0
41
1
10
18.1655009879042
20
12.2251844556273
30
0
41
1
10
18.1864376368516
20
12.2076274315154
30
0
41
1
10
18.1972477978108
20
12.1996109279676
30
0
41
1
10
18.2299583839823
20
12.1783747151962
30
0
41
1
10
18.2522161093732
20
12.1678300941895
30
0
41
1
10
18.2862505497009
20
12.1571844243118
30
0
41
1
10
18.2977041065447
20
12.1545038056259
30
0
41
1
10
18.3208330121332
20
12.1509080697125
30
0
41
1
10
18.3325406837102
20
12.1500009470075
30
0
41
1
10
18.367341887492
20
12.1499981082354
30
0
41
1
10
18.3903172972001
20
12.1535455390243
30
0
41
1
10
18.4244475895286
20
12.164159313573
30
0
41
1
10
18.4357685142774
20
12.1685850362519
30
0
41
1
10
18.4582948161355
20
12.1792800878421
30
0
41
1
10
18.4694170361098
20
12.1855164808654
30
0
41
1
10
18.5020302527067
20
12.2066817963455
30
0
41
1
10
18.5229149872854
20
12.2241081585372
30
0
41
1
10
18.5529006965856
20
12.2554350645314
30
0
41
1
10
18.5627137221073
20
12.2668090799212
30
0
41
1
10
18.5815354867641
20
12.2909719105173
30
0
41
1
10
18.5996048981753
20
12.3165814231732
30
0
41
1
10
18.6203030379232
20
12.3522224063246
30
0
41
1
10
18.6318435884924
20
12.3752932757901
30
0
41
1
10
18.6393355091911
20
12.3910610403702
30
0
41
1
10
18.6429894844444
20
12.3991589914447
30
0
41
1
10
18.6605703105713
20
12.4402434885217
30
0
41
1
10
18.6725442314622
20
12.4751588263289
30
0
41
1
10
18.68483967501
20
12.5214157388028
30
0
41
1
10
18.687163908166
20
12.5307989894563
30
0
41
1
10
18.691535895527
20
12.5498357459055
30
0
41
1
10
18.6935887383798
20
12.5595161483367
30
0
41
1
10
18.6992802860374
20
12.5887741450753
30
0
41
1
10
18.7024391109221
20
12.6084735023335
30
0
41
1
10
18.7100478679045
20
12.6681414975278
30
0
41
1
10
18.7126501613157
20
12.7086738966802
30
0
41
1
10
18.7126501613157
20
12.75
30
0
0
SPLINE
5
20A
100
AcDbEntity
8
1
62
256
6
ByLayer
370
18
48
1
60
0
100
AcDbSpline
70
4
71
3
72
18
73
14
40
0
40
0
40
0
40
0
40
0.249999999999997
40
0.249999999999997
40
0.499999999999995
40
0.499999999999995
40
0.624999999999996
40
0.624999999999996
40
0.749999999999997
40
0.749999999999997
40
0.874999999999999
40
0.874999999999999
40
1
40
1
40
1
40
1
41
1
10
15.4201626678169
20
11.8
30
0
41
1
10
15.342838086321
20
11.8
30
0
41
1
10
15.265178802002
20
11.7950721087048
30
0
41
1
10
15.1092407635679
20
11.7740233818022
30
0
41
1
10
15.0309582168963
20
11.7579427146964
30
0
41
1
10
14.9132295214236
20
11.7230927611474
30
0
41
1
10
14.8739355792402
20
11.7096711224617
30
0
41
1
10
14.7953154510898
20
11.678476900977
30
0
41
1
10
14.7564005793915
20
11.6608680957958
30
0
41
1
10
14.6796151650855
20
11.6208577386101
30
0
41
1
10
14.6417410192222
20
11.5984675951858
30
0
41
1
10
14.5674469796097
20
11.547638273074
30
0
41
1
10
14.531017059957
20
11.5192310719725
30
0
41
1
10
14.4956890143242
20
11.4866359296807
30
0
0
SPLINE
5
20B
100
AcDbEntity
8
1
62
256
6
ByLayer
370
18
48
1
60
0
100
AcDbSpline
70
4
71
3
72
14
73
10
40
0
40
0
40
0
40
0
40
0.0895280379196381
40
0.0895280379196381
40
0.393018691946425
40
0.393018691946425
40
0.696509345973213
40
0.696509345973213
40
1
40
1
40
1
40
1
41
1
10
-9.23068211835479
20
-0.311031107089832
30
0
41
1
10
-9.23599041979892
20
-0.311722568749332
30
0
41
1
10
-9.24129652213935
20
-0.312397958589713
30
0
41
1
10
-9.26457997646619
20
-0.315286566709972
30
0
41
1
10
-9.28249101400507
20
-0.317312254455885
30
0
41
1
10
-9.31797168260601
20
-0.320786518582878
30
0
41
1
10
-9.33556565194363
20
-0.322240624309416
30
0
41
1
10
-9.37037718981716
20
-0.324333792044314
30
0
41
1
10
-9.38759748482599
20
-0.324980947161663
30
0
41
1
10
-9.40454881002677
20
-0.324980947161663
30
0
0
SPLINE
5
20C
100
AcDbEntity
8
1
62
256
6
ByLayer
370
18
48
1
60
0
100
AcDbSpline
70
4
71
3
72
16
73
12
40
0
40
0
40
0
40
0
40
0.124999999999998
40
0.124999999999998
40
0.249999999999996
40
0.249999999999996
40
0.499999999999997
40
0.499999999999997
40
0.749999999999999
40
0.749999999999999
40
1
40
1
40
1
40
1
41
1
10
-10.2470436468638
20
-0.324980947161663
30
0
41
1
10
-10.2368176996361
20
-0.324980947160697
30
0
41
1
10
-10.2261105645493
20
-0.324200732781947
30
0
41
1
10
-10.2040252939894
20
-0.321595212906118
30
0
41
1
10
-10.1925916480195
20
-0.319751268507474
30
0
41
1
10
-10.1578378552942
20
-0.313070425791182
30
0
41
1
10
-10.1343736234427
20
-0.307193150124277
30
0
41
1
10
-10.0870307140287
20
-0.293653557543223
30
0
41
1
10
-10.0631479963768
20
-0.285965246733184
30
0
41
1
10
-10.0150264157268
20
-0.269095229194733
30
0
41
1
10
-9.99078675577496
20
-0.259909297798572
30
0
41
1
10
-9.96637832280626
20
-0.249980947161703
30
0
0
SPLINE
5
20D
100
AcDbEntity
8
1
62
256
6
ByLayer
370
18
48
1
60
0
100
AcDbSpline
70
4
71
3
72
8
73
4
40
0
40
0
40
0
40
0
40
1
40
1
40
1
40
1
41
1
10
-11.1539311130556
20
-0.249980947161646
30
0
41
1
10
-11.1370643731009
20
-0.237366129676531
30
0
41
1
10
-11.1201660472021
20
-0.224786456048179
30
0
41
1
10
-11.103235063126
20
-0.212243119288502
30
0
0
SPLINE
5
20E
100
AcDbEntity
8
1
62
256
6
ByLayer
370
18
48
1
60
0
100
AcDbSpline
70
4
71
3
72
20
73
16
40
0
40
0
40
0
40
0
40
0.125
40
0.125
40
0.249999999999999
40
0.249999999999999
40
0.374999999999999
40
0.374999999999999
40
0.499999999999998
40
0.499999999999998
40
0.749999999999999
40
0.749999999999999
40
0.874999999999999
40
0.874999999999999
40
1
40
1
40
1
40
1
41
1
10
-11.2871772280888
20
-0.324980947161919
30
0
41
1
10
-11.2841126650964
20
-0.32498094716189
30
0
41
1
10
-11.2804336330612
20
-0.324326717375243
30
0
41
1
10
-11.2720438166112
20
-0.32192703352834
30
0
41
1
10
-11.2673785357809
20
-0.320189385940665
30
0
41
1
10
-11.2574809997012
20
-0.315925042907423
30
0
41
1
10
-11.2522175048208
20
-0.313387918152586
30
0
41
1
10
-11.2411564914624
20
-0.307626792034881
30
0
41
1
10
-11.2353751890957
20
-0.30440847513853
30
0
41
1
10
-11.2177208346944
20
-0.294078861253268
30
0
41
1
10
-11.205414819476
20
-0.286238759708993
30
0
41
1
10
-11.1863183862468
20
-0.273317667880235
30
0
41
1
10
-11.1798450150413
20
-0.268812423928665
30
0
41
1
10
-11.1669160865667
20
-0.259584653592867
30
0
41
1
10
-11.1604321264514
20
-0.25484312549068
30
0
41
1
10
-11.1539311130559
20
-0.249980947163749
30
0
0
SPLINE
5
20F
100
AcDbEntity
8
1
62
256
6
ByLayer
370
18
48
1
60
0
100
AcDbSpline
70
4
71
3
72
20
73
16
40
0
40
0
40
0
40
0
40
0.125000000000001
40
0.125000000000001
40
0.250000000000002
40
0.250000000000002
40
0.375000000000003
40
0.375000000000003
40
0.500000000000005
40
0.500000000000005
40
0.625000000000006
40
0.625000000000006
40
0.750000000000007
40
0.750000000000007
40
1
40
1
40
1
40
1
41
1
10
-11.1320782392768
20
-0.32498094716172
30
0
41
1
10
-11.1352154340645
20
-0.324980947161748
30
0
41
1
10
-11.1379995838844
20
-0.324581478083132
30
0
41
1
10
-11.1425602775149
20
-0.322880490367169
30
0
41
1
10
-11.144369831987
20
-0.321572901964032
30
0
41
1
10
-11.1468472060191
20
-0.317947251651276
30
0
41
1
10
-11.1474895836546
20
-0.315677537184769
30
0
41
1
10
-11.147578789301
20
-0.310212255459192
30
0
41
1
10
-11.1470034295451
20
-0.306969143037406
30
0
41
1
10
-11.144726887278
20
-0.299850985633043
30
0
41
1
10
-11.1430395586907
20
-0.295963417004657
30
0
41
1
10
-11.1386768099728
20
-0.287590100828396
30
0
41
1
10
-11.1360204178412
20
-0.28315009281971
30
0
41
1
10
-11.1270564855545
20
-0.269508983787887
30
0
41
1
10
-11.1195900678454
20
-0.25973564678992
30
0
41
1
10
-11.1114500274047
20
-0.249980947161333
30
0
0
SPLINE
5
210
100
AcDbEntity
8
1
62
256
6
ByLayer
370
18
48
1
60
0
100
AcDbSpline
70
4
71
3
72
16
73
12
40
0
40
0
40
0
40
0
40
0.0991241039890685
40
0.0991241039890685
40
0.324343077991802
40
0.324343077991802
40
0.549562051994534
40
0.549562051994534
40
0.774781025997267
40
0.774781025997267
40
1
40
1
40
1
40
1
41
1
10
-10.9369189903123
20
-0.296247252501388
30
0
41
1
10
-10.9401655207042
20
-0.297843114270251
30
0
41
1
10
-10.9433966326857
20
-0.29939604029272
30
0
41
1
10
-10.9539161602598
20
-0.304330463663064
30
0
41
1
10
-10.9611695861205
20
-0.3075343818509
30
0
41
1
10
-10.9751929157508
20
-0.313258941423413
30
0
41
1
10
-10.9819859246727
20
-0.315793026802652
30
0
41
1
10
-10.9950506921146
20
-0.320074036858045
30
0
41
1
10
-11.0013242982397
20
-0.321823931556111
30
0
41
1
10
-11.0131968590635
20
-0.324294057072905
30
0
41
1
10
-11.018648143183
20
-0.324980947167972
30
0
41
1
10
-11.0234674519048
20
-0.324980947168172
30
0
0
SPLINE
5
211
100
AcDbEntity
8
1
62
256
6
ByLayer
370
18
48
1
60
0
100
AcDbSpline
70
4
71
3
72
8
73
4
40
0
40
0
40
0
40
0
40
1
40
1
40
1
40
1
41
1
10
-9.96637832280635
20
-0.249980947161504
30
0
41
1
10
-9.86535047201181
20
-0.208886956077947
30
0
41
1
10
-9.76333499207163
20
-0.169915419792972
30
0
41
1
10
-9.66021760533914
20
-0.133311925570638
30
0
0
SPLINE
5
212
100
AcDbEntity
8
1
62
256
6
ByLayer
370
18
48
1
60
0
100
AcDbSpline
70
4
71
3
72
12
73
8
40
0
40
0
40
0
40
0
40
0.25
40
0.25
40
0.5
40
0.5
40
1
40
1
40
1
40
1
41
1
10
16
20
2.36026103021607
30
0
41
1
10
16
20
2.31551153683159
30
0
41
1
10
16
20
2.268457871745
30
0
41
1
10
16
20
2.17102837496964
30
0
41
1
10
16
20
2.12067686020717
30
0
41
1
10
16
20
1.96643149619226
30
0
41
1
10
15.9999999982116
20
1.85935519342999
30
0
41
1
10
15.9999999999777
20
1.75227378683709
30
0
0
SPLINE
5
213
100
AcDbEntity
8
1
62
256
6
ByLayer
370
18
48
1
60
0
100
AcDbSpline
70
4
71
3
72
29
73
25
40
0
40
0
40
0
40
0
40
0.125
40
0.125
40
0.250000000000001
40
0.250000000000001
40
0.375000000000001
40
0.375000000000001
40
0.437500000000002
40
0.437500000000002
40
0.500000000000002
40
0.500000000000002
40
0.625000000000002
40
0.625000000000002
40
0.656250000000002
40
0.656250000000002
40
0.687500000000002
40
0.687500000000002
40
0.750000000000002
40
0.812500000000001
40
0.812500000000001
40
0.875000000000001
40
0.875000000000001
40
1
40
1
40
1
40
1
41
1
10
14.2622997588293
20
2.74530463801145
30
0
41
1
10
14.3350821545137
20
2.73709921195211
30
0
41
1
10
14.4078602755523
20
2.71877448375955
30
0
41
1
10
14.5529544036008
20
2.66901428497801
30
0
41
1
10
14.6253187551604
20
2.6375178168982
30
0
41
1
10
14.7698397415041
20
2.56700305800277
30
0
41
1
10
14.8419950391431
20
2.52792850690094
30
0
41
1
10
14.9501841663682
20
2.4681651043272
30
0
41
1
10
14.9862412942269
20
2.44805935176217
30
0
41
1
10
15.0583738234605
20
2.40841824117715
30
0
41
1
10
15.0944491597842
20
2.38888085263548
30
0
41
1
10
15.2027573432686
20
2.33283370482707
30
0
41
1
10
15.2750695090181
20
2.29879981777384
30
0
41
1
10
15.3658296152703
20
2.26780358993952
30
0
41
1
10
15.3840003144651
20
2.26218736285881
30
0
41
1
10
15.4203850626771
20
2.25230804194857
30
0
41
1
10
15.4386040850588
20
2.24804553630656
30
0
41
1
10
15.4932032361543
20
2.2375527790287
30
0
41
1
10
15.5659240569026
20
2.22972289970926
30
0
41
1
10
15.6384745216013
20
2.23533962524655
30
0
41
1
10
15.7109458607444
20
2.24720191752331
30
0
41
1
10
15.7471421765335
20
2.25623935054554
30
0
41
1
10
15.8556370556785
20
2.29077667629338
30
0
41
1
10
15.9278429490805
20
2.32359122707092
30
0
41
1
10
16
20
2.36026103021604
30
0
0
SPLINE
5
214
100
AcDbEntity
8
1
62
256
6
ByLayer
370
18
48
1
60
0
100
AcDbSpline
70
4
71
3
72
26
73
22
40
0
40
0
40
0
40
0
40
0.124999999999999
40
0.249999999999997
40
0.249999999999997
40
0.312499999999998
40
0.312499999999998
40
0.374999999999999
40
0.374999999999999
40
0.5
40
0.5
40
0.5625
40
0.5625
40
0.625000000000001
40
0.625000000000001
40
0.750000000000001
40
0.875000000000001
40
0.875000000000001
40
0.9375
40
0.9375
40
1
40
1
40
1
40
1
41
1
10
11.9501046020625
20
2.61880623375626
30
0
41
1
10
11.9231494760189
20
2.59708699525035
30
0
41
1
10
11.8716192545651
20
2.54895070485122
30
0
41
1
10
11.8247771993502
20
2.4915606973747
30
0
41
1
10
11.7914698734602
20
2.44491747168596
30
0
41
1
10
11.7807333220557
20
2.42884687932556
30
0
41
1
10
11.7601605932795
20
2.39595229192324
30
0
41
1
10
11.7502950480779
20
2.37908759531896
30
0
41
1
10
11.7219412294878
20
2.32726077789627
30
0
41
1
10
11.7046904960133
20
2.29107116372813
30
0
41
1
10
11.6813106688988
20
2.23431073455822
30
0
41
1
10
11.6739347470124
20
2.21497662583403
30
0
41
1
10
11.6600373186516
20
2.17546092926665
30
0
41
1
10
11.653528880012
20
2.15530152526313
30
0
41
1
10
11.6355722209235
20
2.09444807282679
30
0
41
1
10
11.6155888460669
20
2.01173546584624
30
0
41
1
10
11.6033513854328
20
1.9259418375878
30
0
41
1
10
11.5971665120119
20
1.86040602990212
30
0
41
1
10
11.5956069381308
20
1.83833818040299
30
0
41
1
10
11.5935342911927
20
1.79422694793715
30
0
41
1
10
11.5930151249535
20
1.77213280976275
30
0
41
1
10
11.5930151249535
20
1.75
30
0
0
SPLINE
5
215
100
AcDbEntity
8
1
62
256
6
ByLayer
370
18
48
1
60
0
100
AcDbSpline
70
4
71
3
72
14
73
10
40
0
40
0
40
0
40
0
40
0.25
40
0.25
40
0.5
40
0.5
40
0.75
40
0.75
40
1
40
1
40
1
40
1
41
1
10
11.9501046020526
20
2.61880623374827
30
0
41
1
10
12.142718076977
20
2.62256864219745
30
0
41
1
10
12.3353519578017
20
2.63016328218475
30
0
41
1
10
12.7206479610659
20
2.65065634222023
30
0
41
1
10
12.9133099219067
20
2.6635244139909
30
0
41
1
10
13.2986404696727
20
2.69050493730654
30
0
41
1
10
13.4912976825884
20
2.70460027315212
30
0
41
1
10
13.8766962160672
20
2.72911502634005
30
0
41
1
10
14.0694404613334
20
2.73954588759554
30
0
41
1
10
14.2622997588293
20
2.74530463801145
30
0
0
SPLINE
5
216
100
AcDbEntity
8
1
62
256
6
ByLayer
370
18
48
1
60
0
100
AcDbSpline
70
4
71
3
72
8
73
4
40
0
40
0
40
0
40
0
40
1
40
1
40
1
40
1
41
1
10
10.9106224242956
20
10.9141589825481
30
0
41
1
10
11.0684380299981
20
11.045428917578
30
0
41
1
10
11.2263871090405
20
11.1763770129423
30
0
41
1
10
11.3844191771041
20
11.3071249997364
30
0
0
SPLINE
5
217
100
AcDbEntity
8
1
62
256
6
ByLayer
370
18
48
1
60
0
100
AcDbSpline
70
4
71
3
72
8
73
4
40
0
40
0
40
0
40
0
40
1
40
1
40
1
40
1
41
1
10
11.384419177103
20
6.09284217651387
30
0
41
1
10
11.2263641326665
20
6.22359029801157
30
0
41
1
10
11.0683932702969
20
6.35454141103008
30
0
41
1
10
10.910566930688
20
6.48584101745155
30
0
0
SPLINE
5
218
100
AcDbEntity
8
1
62
256
6
ByLayer
370
18
48
1
60
0
100
AcDbSpline
70
4
71
3
72
31
73
27
40
0
40
0
40
0
40
0
40
0.0151310259745072
40
0.0843802238686652
40
0.119004822815744
40
0.153629421762823
40
0.222878619656981
40
0.25750321860406
40
0.292127817551139
40
0.361377015445297
40
0.396001614392376
40
0.430626213339455
40
0.499875411233613
40
0.569124609127771
40
0.638373807021929
40
0.672998405969008
40
0.707623004916087
40
0.742247603863166
40
0.776872202810245
40
0.811496801757324
40
0.846121400704403
40
0.880745999651482
40
0.915370598598561
40
0.94999519754564
40
0.984619796492719
40
1
40
1
40
1
40
1
41
1
10
11.3844191771041
20
11.3071249997363
30
0
41
1
10
11.3584115323997
20
11.3009881292815
30
0
41
1
10
11.2136897188786
20
11.2618829672801
30
0
41
1
10
11.0089297153007
20
11.1671907292454
30
0
41
1
10
10.7958264847558
20
11.0136712132589
30
0
41
1
10
10.5954670797082
20
10.8308968054651
30
0
41
1
10
10.4098639069273
20
10.5987726247517
30
0
41
1
10
10.2575325892529
20
10.3429096485485
30
0
41
1
10
10.1237306163342
20
10.0684005287831
30
0
41
1
10
10.0149640691537
20
9.75843497728673
30
0
41
1
10
9.94103645975653
20
9.44398551489704
30
0
41
1
10
9.8879735689143
20
9.12177915809175
30
0
41
1
10
9.86069617163807
20
8.69999999984336
30
0
41
1
10
9.89311387277974
20
8.19873844064605
30
0
41
1
10
9.97447371022133
20
7.79025307702562
30
0
41
1
10
10.0689235256428
20
7.4864492200756
30
0
41
1
10
10.1558569279704
20
7.26568889227565
30
0
41
1
10
10.2575325882726
20
7.05709035333132
30
0
41
1
10
10.3732446532404
20
6.86273482722925
30
0
41
1
10
10.5022502264014
20
6.68479951966242
30
0
41
1
10
10.6434875273144
20
6.52529737357801
30
0
41
1
10
10.7958264872494
20
6.38632880752627
30
0
41
1
10
10.9577958523635
20
6.26964610224061
30
0
41
1
10
11.1278351112777
20
6.17705245540239
30
0
41
1
10
11.271428543692
20
6.12224268400289
30
0
41
1
10
11.3577572265597
20
6.099085086922
30
0
41
1
10
11.3844191771006
20
6.09284217651421
30
0
0
SPLINE
5
219
100
AcDbEntity
8
1
62
256
6
ByLayer
370
18
48
1
60
0
100
AcDbSpline
70
4
71
3
72
81
73
77
40
0
40
0
40
0
40
0
40
0.007812500000003
40
0.007812500000003
40
0.0117187500000045
40
0.0117187500000045
40
0.0156250000000062
40
0.0156250000000062
40
0.017578125000007
40
0.017578125000007
40
0.0195312500000077
40
0.0195312500000077
40
0.0214843750000084
40
0.0214843750000084
40
0.0234375000000092
40
0.0234375000000092
40
0.0273437500000094
40
0.0273437500000094
40
0.0312500000000097
40
0.0312500000000097
40
0.03906250000001
40
0.03906250000001
40
0.0468750000000104
40
0.0468750000000104
40
0.0625000000000104
40
0.0625000000000104
40
0.0937500000000103
40
0.0937500000000103
40
0.12500000000001
40
0.12500000000001
40
0.18750000000001
40
0.18750000000001
40
0.25000000000001
40
0.25000000000001
40
0.31250000000001
40
0.31250000000001
40
0.375000000000011
40
0.375000000000011
40
0.500000000000011
40
0.625000000000011
40
0.625000000000011
40
0.750000000000011
40
0.750000000000011
40
0.812500000000011
40
0.812500000000011
40
0.875000000000012
40
0.875000000000012
40
0.906250000000012
40
0.906250000000012
40
0.937500000000012
40
0.937500000000012
40
0.953125000000012
40
0.953125000000012
40
0.960937500000012
40
0.960937500000012
40
0.968750000000012
40
0.968750000000012
40
0.972656250000012
40
0.972656250000012
40
0.976562500000011
40
0.976562500000011
40
0.97851562500001
40
0.97851562500001
40
0.980468750000009
40
0.980468750000009
40
0.981445312500009
40
0.981445312500009
40
0.982421875000008
40
0.982421875000008
40
0.984375000000007
40
0.984375000000007
40
0.988281250000005
40
0.988281250000005
40
0.992187500000004
40
0.992187500000004
40
1
40
1
40
1
40
1
41
1
10
1.91224221527514
20
0.394519052843208
30
0
41
1
10
1.92260027365023
20
0.397470382277874
30
0
41
1
10
1.93283786110601
20
0.400656000617488
30
0
41
1
10
1.9477945618631
20
0.406204007763904
30
0
41
1
10
1.95271325741291
20
0.408182097958047
30
0
41
1
10
1.96229755695083
20
0.41262379380953
30
0
41
1
10
1.9669246031919
20
0.415043395047633
30
0
41
1
10
1.97308244679516
20
0.419356299912863
30
0
41
1
10
1.97498510374749
20
0.42090179409135
30
0
41
1
10
1.9781435682315
20
0.424317649885893
30
0
41
1
10
1.97937553127656
20
0.426188446354075
30
0
41
1
10
1.98041974242781
20
0.430094718808931
30
0
41
1
10
1.98016767343265
20
0.432084882313774
30
0
41
1
10
1.97833650493769
20
0.435660915574744
30
0
41
1
10
1.97684146809311
20
0.437229800282665
30
0
41
1
10
1.97155211298238
20
0.441419320218813
30
0
41
1
10
1.96714261473858
20
0.44349685736978
30
0
41
1
10
1.95788625907426
20
0.447126197110293
30
0
41
1
10
1.95306542600403
20
0.448616583755751
30
0
41
1
10
1.9383242332639
20
0.452621312482364
30
0
41
1
10
1.92812264321537
20
0.454664943117905
30
0
41
1
10
1.90740435871538
20
0.458233151164734
30
0
41
1
10
1.89692280726226
20
0.459723906732535
30
0
41
1
10
1.86538741092312
20
0.463682824017269
30
0
41
1
10
1.84417449210701
20
0.465656248769307
30
0
41
1
10
1.78025703058884
20
0.470645781454891
30
0
41
1
10
1.73725264988883
20
0.472719601202726
30
0
41
1
10
1.65098443404071
20
0.475886802092418
30
0
41
1
10
1.60778691374236
20
0.4769254973817
30
0
41
1
10
1.47807229819856
20
0.479177404442254
30
0
41
1
10
1.39143454900702
20
0.479542216888063
30
0
41
1
10
1.21796857575347
20
0.479493958295478
30
0
41
1
10
1.13113690460082
20
0.479041949024122
30
0
41
1
10
0.957329148831093
20
0.477882761325304
30
0
41
1
10
0.870323792926769
20
0.477166899227541
30
0
41
1
10
0.696349175854067
20
0.475776693033907
30
0
41
1
10
0.609388405753549
20
0.475099760634464
30
0
41
1
10
0.348574051787381
20
0.473386319949782
30
0
41
1
10
0.001000350770255
20
0.472003670559218
30
0
41
1
10
-0.346258593410283
20
0.47337527519457
30
0
41
1
10
-0.693339956070645
20
0.475647183276351
30
0
41
1
10
-0.866793441191021
20
0.477269893009037
30
0
41
1
10
-1.12678156308007
20
0.479017268009557
30
0
41
1
10
-1.21341185681177
20
0.479476207823097
30
0
41
1
10
-1.38658196181285
20
0.479556475236905
30
0
41
1
10
-1.47312342215608
20
0.479215768728096
30
0
41
1
10
-1.60282241164018
20
0.477033463499424
30
0
41
1
10
-1.64603636785358
20
0.476023509055096
30
0
41
1
10
-1.73240444053843
20
0.472937703046767
30
0
41
1
10
-1.77556093947112
20
0.470916772337631
30
0
41
1
10
-1.84020397899022
20
0.466007269746598
30
0
41
1
10
-1.86179262627181
20
0.464054865240939
30
0
41
1
10
-1.89394318273966
20
0.46012930420423
30
0
41
1
10
-1.90457892025174
20
0.458657307765122
30
0
41
1
10
-1.92557687187187
20
0.455151548859845
30
0
41
1
10
-1.93595107519309
20
0.453143056337922
30
0
41
1
10
-1.95106731633297
20
0.449203062644926
30
0
41
1
10
-1.95606843466194
20
0.447721193247531
30
0
41
1
10
-1.96555805505901
20
0.444199414509001
30
0
41
1
10
-1.97009904328166
20
0.442195860936493
30
0
41
1
10
-1.97581374795706
20
0.438152979130365
30
0
41
1
10
-1.97748212350399
20
0.436651382667037
30
0
41
1
10
-1.97980883341026
20
0.433156040209923
30
0
41
1
10
-1.98037246688361
20
0.431176687394185
30
0
41
1
10
-1.97997556416331
20
0.428196550109306
30
0
41
1
10
-1.97964165466797
20
0.427187280234818
30
0
41
1
10
-1.97867307624981
20
0.425265399837969
30
0
41
1
10
-1.97804087537776
20
0.424340153169737
30
0
41
1
10
-1.97580369573095
20
0.42164665894893
30
0
41
1
10
-1.9739517124244
20
0.420048670860694
30
0
41
1
10
-1.96785173654865
20
0.415569664711143
30
0
41
1
10
-1.96318270865137
20
0.413077560163458
30
0
41
1
10
-1.95359149055503
20
0.40855281328524
30
0
41
1
10
-1.94859288444931
20
0.40651666926243
30
0
41
1
10
-1.93328703299224
20
0.400792642800013
30
0
41
1
10
-1.92282156572267
20
0.397533435195697
30
0
41
1
10
-1.91224221525806
20
0.394519052838319
30
0
0
SPLINE
5
21A
100
AcDbEntity
8
1
62
256
6
ByLayer
370
18
48
1
60
0
100
AcDbSpline
70
4
71
3
72
17
73
13
40
0
40
0
40
0
40
0
40
0.25
40
0.25
40
0.5
40
0.5
40
0.5625
40
0.5625
40
0.625
40
0.75
40
0.75
40
1
40
1
40
1
40
1
41
1
10
-1.91224221525806
20
0.394519052838319
30
0
41
1
10
-1.60176192357292
20
0.306053667681084
30
0
41
1
10
-1.28776911723043
20
0.236983023929497
30
0
41
1
10
-0.651754427739917
20
0.143175179431864
30
0
41
1
10
-0.329727668873318
20
0.118464900509792
30
0
41
1
10
0.078362911948318
20
0.118261377257653
30
0
41
1
10
0.160394283176998
20
0.119762754674156
30
0
41
1
10
0.323519502227128
20
0.125806964439079
30
0
41
1
10
0.567279119098686
20
0.139418800322915
30
0
41
1
10
0.808326323249617
20
0.166313521539138
30
0
41
1
10
1.28701472260653
20
0.23678244121848
30
0
41
1
10
1.60159777754302
20
0.306006897427409
30
0
41
1
10
1.91224221527617
20
0.394519052843492
30
0
0
SPLINE
5
21B
100
AcDbEntity
8
1
62
256
6
ByLayer
370
18
48
1
60
0
100
AcDbSpline
70
4
71
3
72
8
73
4
40
0
40
0
40
0
40
0
40
1
40
1
40
1
40
1
41
1
10
-14.4578369788356
20
-0.249980947161674
30
0
41
1
10
-14.6394306929311
20
-0.100296517065374
30
0
41
1
10
-14.8201288407417
20
0.0501913342881721
30
0
41
1
10
-15
20
0.201421085145398
30
0
0
SPLINE
5
21C
100
AcDbEntity
8
1
62
256
6
ByLayer
370
18
48
1
60
0
100
AcDbSpline
70
4
71
3
72
18
73
14
40
0
40
0
40
0
40
0
40
0.124999999999996
40
0.124999999999996
40
0.249999999999992
40
0.249999999999992
40
0.374999999999987
40
0.374999999999987
40
0.499999999999983
40
0.499999999999983
40
0.749999999999992
40
0.749999999999992
40
1
40
1
40
1
40
1
41
1
10
-14.3404094665877
20
-0.324980947162061
30
0
41
1
10
-14.3428275698333
20
-0.324980947162004
30
0
41
1
10
-14.3458092380306
20
-0.324364918876341
30
0
41
1
10
-14.3527508733247
20
-0.322062263158244
30
0
41
1
10
-14.3567143610261
20
-0.320365559095109
30
0
41
1
10
-14.3651840352354
20
-0.316182364956489
30
0
41
1
10
-14.3697267873568
20
-0.313684202569107
30
0
41
1
10
-14.3793387413553
20
-0.307993218527116
30
0
41
1
10
-14.384440931052
20
-0.304777042175289
30
0
41
1
10
-14.4001159320001
20
-0.294416799403393
30
0
41
1
10
-14.4111058327401
20
-0.286550099207148
30
0
41
1
10
-14.4339459613889
20
-0.269299001129753
30
0
41
1
10
-14.4458346359039
20
-0.259874262414854
30
0
41
1
10
-14.4578369788356
20
-0.249980947161674
30
0
0
SPLINE
5
21D
100
AcDbEntity
8
1
62
256
6
ByLayer
370
18
48
1
60
0
100
AcDbSpline
70
4
71
3
72
16
73
12
40
0
40
0
40
0
40
0
40
0.25
40
0.25
40
0.5
40
0.5
40
0.75
40
0.75
40
0.875
40
0.875
40
1
40
1
40
1
40
1
41
1
10
-14.313522568363
20
-0.249980947161589
30
0
41
1
10
-14.3051410809773
20
-0.259699912460548
30
0
41
1
10
-14.2974781139706
20
-0.269127182196485
30
0
41
1
10
-14.2841059461676
20
-0.287182513382561
30
0
41
1
10
-14.2786667513312
20
-0.295449047552694
30
0
41
1
10
-14.2711853238027
20
-0.30980237410327
30
0
41
1
10
-14.2693869816465
20
-0.315430275418464
30
0
41
1
10
-14.2699448293846
20
-0.321230606672941
30
0
41
1
10
-14.2706726418158
20
-0.322645029727624
30
0
41
1
10
-14.2731203425355
20
-0.32452170104844
30
0
41
1
10
-14.2748603990471
20
-0.324980947161663
30
0
41
1
10
-14.2770266676248
20
-0.324980947161663
30
0
0
SPLINE
5
21E
100
AcDbEntity
8
1
62
256
6
ByLayer
370
18
48
1
60
0
100
AcDbSpline
70
4
71
3
72
8
73
4
40
0
40
0
40
0
40
0
40
1
40
1
40
1
40
1
41
1
10
-14.8682534145172
20
0.394519052838319
30
0
41
1
10
-14.6835652647235
20
0.179542325069718
30
0
41
1
10
-14.4986632780004
20
-0.0352963631990519
30
0
41
1
10
-14.313522568363
20
-0.249980947161589
30
0
0
SPLINE
5
21F
100
AcDbEntity
8
1
62
256
6
ByLayer
370
18
48
1
60
0
100
AcDbSpline
70
4
71
3
72
32
73
28
40
0
40
0
40
0
40
0
40
0.125000000000005
40
0.125000000000005
40
0.25000000000001
40
0.25000000000001
40
0.375000000000015
40
0.375000000000015
40
0.437500000000014
40
0.437500000000014
40
0.500000000000013
40
0.500000000000013
40
0.562500000000011
40
0.562500000000011
40
0.62500000000001
40
0.62500000000001
40
0.687500000000009
40
0.687500000000009
40
0.718750000000009
40
0.718750000000009
40
0.750000000000008
40
0.750000000000008
40
0.812500000000007
40
0.812500000000007
40
0.875000000000006
40
0.875000000000006
40
1
40
1
40
1
40
1
41
1
10
-14.763917126115
20
0.394519052838319
30
0
41
1
10
-14.7768921216547
20
0.404689245337835
30
0
41
1
10
-14.7896289160425
20
0.414282737877556
30
0
41
1
10
-14.8145803020921
20
0.43222224109465
30
0
41
1
10
-14.8268032524338
20
0.440577541932441
30
0
41
1
10
-14.8505614093855
20
0.45570337402475
30
0
41
1
10
-14.8617513467393
20
0.462257197918149
30
0
41
1
10
-14.877198237839
20
0.470133828828523
30
0
41
1
10
-14.8821483926624
20
0.472438217806172
30
0
41
1
10
-14.8912520309425
20
0.476137493504382
30
0
41
1
10
-14.8954299919995
20
0.47754827091245
30
0
41
1
10
-14.9029041322799
20
0.479333769694278
30
0
41
1
10
-14.9062201215258
20
0.479699997169291
30
0
41
1
10
-14.9115395238669
20
0.479163736414336
30
0
41
1
10
-14.9135773792543
20
0.478278122934341
30
0
41
1
10
-14.9162311207704
20
0.475091840770602
30
0
41
1
10
-14.9168007805015
20
0.472820296868008
30
0
41
1
10
-14.9165096405904
20
0.468474844028179
30
0
41
1
10
-14.9162232653761
20
0.466866620773572
30
0
41
1
10
-14.9152677913449
20
0.463326801657559
30
0
41
1
10
-14.9145949690801
20
0.461390996456259
30
0
41
1
10
-14.912069506678
20
0.455257977425987
30
0
41
1
10
-14.9097043954398
20
0.450693621235928
30
0
41
1
10
-14.9037591920353
20
0.440713921304166
30
0
41
1
10
-14.9002230031219
20
0.435378487933264
30
0
41
1
10
-14.8884203459068
20
0.418813732340283
30
0
41
1
10
-14.8787895654669
20
0.406783116650587
30
0
41
1
10
-14.8682534145172
20
0.394519052838319
30
0
0
SPLINE
5
220
100
AcDbEntity
8
1
62
256
6
ByLayer
370
18
48
1
60
0
100
AcDbSpline
70
4
71
3
72
8
73
4
40
0
40
0
40
0
40
0
40
1
40
1
40
1
40
1
41
1
10
-13.9273497265336
20
-0.249980947161674
30
0
41
1
10
-14.2084189343851
20
-0.0373023836789912
30
0
41
1
10
-14.4871908232644
20
0.17761263764541
30
0
41
1
10
-14.763917126115
20
0.394519052838319
30
0
0
SPLINE
5
221
100
AcDbEntity
8
1
62
256
6
ByLayer
370
18
48
1
60
0
100
AcDbSpline
70
4
71
3
72
16
73
12
40
0
40
0
40
0
40
0
40
0.125
40
0.125
40
0.25
40
0.25
40
0.5
40
0.5
40
0.75
40
0.75
40
1
40
1
40
1
40
1
41
1
10
-13.7912890092361
20
-0.324980947163652
30
0
41
1
10
-13.7947211231747
20
-0.324980947163425
30
0
41
1
10
-13.7987038822678
20
-0.3243439697697
30
0
41
1
10
-13.8075818891419
20
-0.322012470654755
30
0
41
1
10
-13.8124983254929
20
-0.320301845067462
30
0
41
1
10
-13.8279050504171
20
-0.314006523917868
30
0
41
1
10
-13.8392323105369
20
-0.308231113448897
30
0
41
1
10
-13.8632846302391
20
-0.294416067556767
30
0
41
1
10
-13.8756867854771
20
-0.286560850671492
30
0
41
1
10
-13.9010856072335
20
-0.269365680292793
30
0
41
1
10
-13.9141383585476
20
-0.259977683504246
30
0
41
1
10
-13.9273497265336
20
-0.249980947161674
30
0
0
SPLINE
5
222
100
AcDbEntity
8
1
62
256
6
ByLayer
370
18
48
1
60
0
100
AcDbSpline
70
4
71
3
72
22
73
18
40
0
40
0
40
0
40
0
40
0.125
40
0.125
40
0.25
40
0.25
40
0.375
40
0.375
40
0.5
40
0.5
40
0.625
40
0.625
40
0.75
40
0.75
40
0.875
40
0.875
40
1
40
1
40
1
40
1
41
1
10
-13.7271595028412
20
-0.249980947161532
30
0
41
1
10
-13.7230711169545
20
-0.254870580017553
30
0
41
1
10
-13.7191978620381
20
-0.259701365260099
30
0
41
1
10
-13.7119504301191
20
-0.269226009096116
30
0
41
1
10
-13.7085556247415
20
-0.273950228042338
30
0
41
1
10
-13.7024739620712
20
-0.283086608544551
30
0
41
1
10
-13.699812285762
20
-0.287456554264992
30
0
41
1
10
-13.6953495169544
20
-0.295745119604987
30
0
41
1
10
-13.6935353207013
20
-0.299707252978664
30
0
41
1
10
-13.6910284293275
20
-0.306819145366916
30
0
41
1
10
-13.6903199496591
20
-0.309978932734424
30
0
41
1
10
-13.6900300661806
20
-0.31547687530076
30
0
41
1
10
-13.690469285274
20
-0.317827037319773
30
0
41
1
10
-13.6924447562858
20
-0.321476351282854
30
0
41
1
10
-13.6939679064126
20
-0.322810804878514
30
0
41
1
10
-13.698003023329
20
-0.32457223002757
30
0
41
1
10
-13.7004864228398
20
-0.32498094716172
30
0
41
1
10
-13.7033273915928
20
-0.32498094716172
30
0
0
SPLINE
5
223
100
AcDbEntity
8
1
62
256
6
ByLayer
370
18
48
1
60
0
100
AcDbSpline
70
4
71
3
72
8
73
4
40
0
40
0
40
0
40
0
40
1
40
1
40
1
40
1
41
1
10
-14.2655750866984
20
0.394519052838319
30
0
41
1
10
-14.0862027304346
20
0.179623374600055
30
0
41
1
10
-13.9067347108406
20
-0.035212365746446
30
0
41
1
10
-13.7271595028413
20
-0.249980947161504
30
0
0
SPLINE
5
224
100
AcDbEntity
8
1
62
256
6
ByLayer
370
18
48
1
60
0
100
AcDbSpline
70
4
71
3
72
36
73
32
40
0
40
0
40
0
40
0
40
0.125
40
0.125
40
0.249999999999999
40
0.249999999999999
40
0.312500000000001
40
0.312500000000001
40
0.375000000000002
40
0.375000000000002
40
0.437500000000004
40
0.437500000000004
40
0.500000000000005
40
0.500000000000005
40
0.562500000000007
40
0.562500000000007
40
0.625000000000008
40
0.625000000000008
40
0.68750000000001
40
0.68750000000001
40
0.750000000000011
40
0.750000000000011
40
0.78125000000001
40
0.78125000000001
40
0.812500000000008
40
0.812500000000008
40
0.875000000000006
40
0.875000000000006
40
0.937500000000003
40
0.937500000000003
40
1
40
1
40
1
40
1
41
1
10
-14.1255646241438
20
0.394519052838319
30
0
41
1
10
-14.1394710770359
20
0.404489622046128
30
0
41
1
10
-14.1531891256639
20
0.413867112124933
30
0
41
1
10
-14.1802225014732
20
0.431373754650593
30
0
41
1
10
-14.1935390957799
20
0.439506751248615
30
0
41
1
10
-14.2131449243125
20
0.450573991117722
30
0
41
1
10
-14.2196336197054
20
0.454078795623701
30
0
41
1
10
-14.2322228540823
20
0.460520725310033
30
0
41
1
10
-14.2383514182248
20
0.463474796430233
30
0
41
1
10
-14.2502293710657
20
0.468773718754022
30
0
41
1
10
-14.2559794178474
20
0.471119640285877
30
0
41
1
10
-14.2670211051816
20
0.475074458444681
30
0
41
1
10
-14.2722259261514
20
0.476650936816839
30
0
41
1
10
-14.2818410972795
20
0.478850703577962
30
0
41
1
10
-14.2862625152793
20
0.479479731271653
30
0
41
1
10
-14.2941373580524
20
0.479554848429672
30
0
41
1
10
-14.2974997750463
20
0.478992735534973
30
0
41
1
10
-14.3028010571971
20
0.476498487128225
30
0
41
1
10
-14.3047638284419
20
0.474520523657958
30
0
41
1
10
-14.3069086232189
20
0.469181053338957
30
0
41
1
10
-14.3071284482325
20
0.465834428936034
30
0
41
1
10
-14.3061330482862
20
0.459758935437492
30
0
41
1
10
-14.3055769996616
20
0.457562174581426
30
0
41
1
10
-14.3040654324165
20
0.452948725894231
30
0
41
1
10
-14.3031080979561
20
0.450518030421819
30
0
41
1
10
-14.2996681948549
20
0.442875980593385
30
0
41
1
10
-14.296581967691
20
0.437266289211095
30
0
41
1
10
-14.2893548863109
20
0.4256951480927
30
0
41
1
10
-14.285198719441
20
0.41968620333094
30
0
41
1
10
-14.2759783827551
20
0.407293077501066
30
0
41
1
10
-14.270915231805
20
0.400916772801736
30
0
41
1
10
-14.2655750866985
20
0.394519052838319
30
0
0
SPLINE
5
225
100
AcDbEntity
8
1
62
256
6
ByLayer
370
18
48
1
60
0
100
AcDbSpline
70
4
71
3
72
8
73
4
40
0
40
0
40
0
40
0
40
1
40
1
40
1
40
1
41
1
10
-13.2065548385553
20
-0.249980947161674
30
0
41
1
10
-13.5156891436445
20
-0.0381396122572824
30
0
41
1
10
-13.8219161595784
20
0.176810910131763
30
0
41
1
10
-14.1255646241438
20
0.394519052838319
30
0
0
SPLINE
5
226
100
AcDbEntity
8
1
62
256
6
ByLayer
370
18
48
1
60
0
100
AcDbSpline
70
4
71
3
72
18
73
14
40
0
40
0
40
0
40
0
40
0.125000000000004
40
0.125000000000004
40
0.250000000000008
40
0.250000000000008
40
0.500000000000007
40
0.500000000000007
40
0.625000000000007
40
0.625000000000007
40
0.750000000000006
40
0.750000000000006
40
1
40
1
40
1
40
1
41
1
10
-13.0480635116142
20
-0.324980947169223
30
0
41
1
10
-13.0526835673825
20
-0.324980947168598
30
0
41
1
10
-13.0578276924747
20
-0.324325815519558
30
0
41
1
10
-13.0689460777359
20
-0.321974818101211
30
0
41
1
10
-13.0749605537727
20
-0.320259096726829
30
0
41
1
10
-13.0935302985872
20
-0.313958174179788
30
0
41
1
10
-13.1067398789887
20
-0.308231131630805
30
0
41
1
10
-13.127467619425
20
-0.297960016390789
30
0
41
1
10
-13.1345354389664
20
-0.29424506725934
30
0
41
1
10
-13.148698967419
20
-0.286431559643603
30
0
41
1
10
-13.1558285169502
20
-0.282316542817881
30
0
41
1
10
-13.1773484039918
20
-0.269403809868607
30
0
41
1
10
-13.1918683483694
20
-0.260045199607333
30
0
41
1
10
-13.2065548385553
20
-0.249980947161674
30
0
0
SPLINE
5
227
100
AcDbEntity
8
1
62
256
6
ByLayer
370
18
48
1
60
0
100
AcDbSpline
70
4
71
3
72
23
73
19
40
0
40
0
40
0
40
0
40
0.124999999999992
40
0.124999999999992
40
0.249999999999984
40
0.249999999999984
40
0.374999999999976
40
0.374999999999976
40
0.437499999999977
40
0.437499999999977
40
0.499999999999979
40
0.624999999999984
40
0.624999999999984
40
0.749999999999989
40
0.749999999999989
40
0.874999999999995
40
0.874999999999995
40
1
40
1
40
1
40
1
41
1
10
-12.9419043311969
20
-0.249980947161362
30
0
41
1
10
-12.9378497028419
20
-0.254925918244197
30
0
41
1
10
-12.9340500009027
20
-0.259832030827425
30
0
41
1
10
-12.927060961591
20
-0.26955094003489
30
0
41
1
10
-12.9238503710632
20
-0.274403028467305
30
0
41
1
10
-12.9183740783399
20
-0.283688995222491
30
0
41
1
10
-12.9160876840443
20
-0.288143993684287
30
0
41
1
10
-12.9134525305584
20
-0.294494826399216
30
0
41
1
10
-12.9127048890146
20
-0.296567433923769
30
0
41
1
10
-12.9115299156306
20
-0.300494947426273
30
0
41
1
10
-12.9102338827603
20
-0.306085646339653
30
0
41
1
10
-12.9103315847486
20
-0.310777985080392
30
0
41
1
10
-12.9117605960215
20
-0.316192959110282
30
0
41
1
10
-12.9130939065335
20
-0.318369971001488
30
0
41
1
10
-12.9168431622452
20
-0.321793174571241
30
0
41
1
10
-12.9192871440886
20
-0.32303667882033
30
0
41
1
10
-12.9249370215666
20
-0.324620114170159
30
0
41
1
10
-12.9281546626962
20
-0.324980947161777
30
0
41
1
10
-12.9317003032969
20
-0.324980947161777
30
0
0
SPLINE
5
228
100
AcDbEntity
8
1
62
256
6
ByLayer
370
18
48
1
60
0
100
AcDbSpline
70
4
71
3
72
8
73
4
40
0
40
0
40
0
40
0
40
1
40
1
40
1
40
1
41
1
10
-13.4702748862138
20
0.394519052838319
30
0
41
1
10
-13.2941699218972
20
0.179674312264069
30
0
41
1
10
-13.1180471579123
20
-0.0351594867746314
30
0
41
1
10
-12.941904331197
20
-0.249980947161362
30
0
0
SPLINE
5
229
100
AcDbEntity
8
1
62
256
6
ByLayer
370
18
48
1
60
0
100
AcDbSpline
70
4
71
3
72
38
73
34
40
0
40
0
40
0
40
0
40
0.124999999999979
40
0.124999999999979
40
0.249999999999958
40
0.249999999999958
40
0.374999999999937
40
0.374999999999937
40
0.43749999999993
40
0.43749999999993
40
0.499999999999923
40
0.499999999999923
40
0.562499999999916
40
0.562499999999916
40
0.59374999999992
40
0.59374999999992
40
0.624999999999925
40
0.624999999999925
40
0.687499999999934
40
0.687499999999934
40
0.718749999999945
40
0.718749999999945
40
0.749999999999956
40
0.749999999999956
40
0.812499999999969
40
0.812499999999969
40
0.843749999999976
40
0.843749999999976
40
0.874999999999982
40
0.874999999999982
40
0.937499999999991
40
0.937499999999991
40
1
40
1
40
1
40
1
41
1
10
-13.2887133686799
20
0.394519052838319
30
0
41
1
10
-13.3038332306427
20
0.4042879581867
30
0
41
1
10
-13.3188052716475
20
0.413449436874572
30
0
41
1
10
-13.3484408250735
20
0.430527273477082
30
0
41
1
10
-13.3631049887933
20
0.438446193463477
30
0
41
1
10
-13.3920697914074
20
0.452832519259857
30
0
41
1
10
-13.4064644692924
20
0.459334429025461
30
0
41
1
10
-13.4269699921963
20
0.467341554080946
30
0
41
1
10
-13.433645567981
20
0.469730324423068
30
0
41
1
10
-13.4466202325067
20
0.473845750572934
30
0
41
1
10
-13.4529523427325
20
0.475578705664162
30
0
41
1
10
-13.464897709421
20
0.478164746211974
30
0
41
1
10
-13.470530542591
20
0.479028435196653
30
0
41
1
10
-13.4783549901368
20
0.479532351315839
30
0
41
1
10
-13.4808583852178
20
0.479567589455002
30
0
41
1
10
-13.4856250849189
20
0.47933332242323
30
0
41
1
10
-13.48788734398
20
0.479061483870908
30
0
41
1
10
-13.4941255566638
20
0.477748652573382
30
0
41
1
10
-13.4976100463299
20
0.476217282345146
30
0
41
1
10
-13.5015835740845
20
0.472696292951213
30
0
41
1
10
-13.5026851457819
20
0.471320945690934
30
0
41
1
10
-13.5043739139207
20
0.468214962997223
30
0
41
1
10
-13.5049704660339
20
0.466476927786175
30
0
41
1
10
-13.5059946892605
20
0.460690215559282
30
0
41
1
10
-13.5056210814372
20
0.455977741753941
30
0
41
1
10
-13.5035321270411
20
0.448145570507165
30
0
41
1
10
-13.502589347411
20
0.445402644548608
30
0
41
1
10
-13.5002379631946
20
0.439666430659713
30
0
41
1
10
-13.4988176392413
20
0.436652706244104
30
0
41
1
10
-13.4939949832355
20
0.427453269472068
30
0
41
1
10
-13.490039825823
20
0.421090866571319
30
0
41
1
10
-13.4809501781441
20
0.407998820378509
30
0
41
1
10
-13.4757943146984
20
0.401252651663839
30
0
41
1
10
-13.4702748862138
20
0.394519052838319
30
0
0
SPLINE
5
22A
100
AcDbEntity
8
1
62
256
6
ByLayer
370
18
48
1
60
0
100
AcDbSpline
70
4
71
3
72
8
73
4
40
0
40
0
40
0
40
0
40
1
40
1
40
1
40
1
41
1
10
-12.2619374897428
20
-0.249980947161674
30
0
41
1
10
-12.6077628641246
20
-0.0394093519147987
30
0
41
1
10
-12.9498764087536
20
0.175597332640279
30
0
41
1
10
-13.2887133686799
20
0.394519052838319
30
0
0
SPLINE
5
22B
100
AcDbEntity
8
1
62
256
6
ByLayer
370
18
48
1
60
0
100
AcDbSpline
70
4
71
3
72
18
73
14
40
0
40
0
40
0
40
0
40
0.125000000000004
40
0.125000000000004
40
0.250000000000007
40
0.250000000000007
40
0.499999999999999
40
0.499999999999999
40
0.625000000000004
40
0.625000000000004
40
0.750000000000008
40
0.750000000000008
40
1
40
1
40
1
40
1
41
1
10
-12.0749439034002
20
-0.324980947161691
30
0
41
1
10
-12.081008255091
20
-0.324980947161094
30
0
41
1
10
-12.0875370462496
20
-0.324314999120048
30
0
41
1
10
-12.1012908516914
20
-0.321980394436167
30
0
41
1
10
-12.1085189695399
20
-0.320307354028273
30
0
41
1
10
-12.1310821815719
20
-0.314018794774057
30
0
41
1
10
-12.1466956039985
20
-0.308331973172614
30
0
41
1
10
-12.1707074902566
20
-0.298228829183756
30
0
41
1
10
-12.1788139447434
20
-0.294590398040555
30
0
41
1
10
-12.1952158399689
20
-0.286815352002606
30
0
41
1
10
-12.2035319977383
20
-0.282666955587643
30
0
41
1
10
-12.2284787618342
20
-0.26964953894975
30
0
41
1
10
-12.245175409905
20
-0.260187306071572
30
0
41
1
10
-12.2619374897428
20
-0.249980947161674
30
0
0
SPLINE
5
22C
100
AcDbEntity
8
1
62
256
6
ByLayer
370
18
48
1
60
0
100
AcDbSpline
70
4
71
3
72
24
73
20
40
0
40
0
40
0
40
0
40
0.124999999999996
40
0.124999999999996
40
0.249999999999991
40
0.249999999999991
40
0.312499999999994
40
0.312499999999994
40
0.374999999999997
40
0.374999999999997
40
0.499999999999998
40
0.499999999999998
40
0.624999999999998
40
0.624999999999998
40
0.749999999999999
40
0.749999999999999
40
0.874999999999999
40
0.874999999999999
40
1
40
1
40
1
40
1
41
1
10
-11.9185094462045
20
-0.249980947160964
30
0
41
1
10
-11.9143984087425
20
-0.255008549371979
30
0
41
1
10
-11.9105940690078
20
-0.260025649179823
30
0
41
1
10
-11.9037537286027
20
-0.270033424617793
30
0
41
1
10
-11.9007316163329
20
-0.275018276597791
30
0
41
1
10
-11.8970946969525
20
-0.282167946486851
30
0
41
1
10
-11.8960240148197
20
-0.284507876358191
30
0
41
1
10
-11.894194011411
20
-0.289092391428142
30
0
41
1
10
-11.8934309418025
20
-0.291353045960363
30
0
41
1
10
-11.8916984067637
20
-0.297837448784492
30
0
41
1
10
-11.891274090198
20
-0.301756712238841
30
0
41
1
10
-11.8919008982492
20
-0.30877759856898
30
0
41
1
10
-11.8929836812652
20
-0.311879900363635
30
0
41
1
10
-11.8964381114455
20
-0.31696313099431
30
0
41
1
10
-11.8988364705387
20
-0.3190154121788
30
0
41
1
10
-11.9046064730614
20
-0.322151899954548
30
0
41
1
10
-11.9079485979119
20
-0.323240679223716
30
0
41
1
10
-11.9153564824702
20
-0.32465661851694
30
0
41
1
10
-11.9194457489923
20
-0.324980947161691
30
0
41
1
10
-11.9237814416149
20
-0.324980947161691
30
0
0
SPLINE
5
22D
100
AcDbEntity
8
1
62
256
6
ByLayer
370
18
48
1
60
0
100
AcDbSpline
70
4
71
3
72
8
73
4
40
0
40
0
40
0
40
0
40
1
40
1
40
1
40
1
41
1
10
-12.4454802424853
20
0.394519052838319
30
0
41
1
10
-12.2698302504262
20
0.179681463779445
30
0
41
1
10
-12.0941736247426
20
-0.0351520577178803
30
0
41
1
10
-11.9185094462047
20
-0.249980947160964
30
0
0
SPLINE
5
22E
100
AcDbEntity
8
1
62
256
6
ByLayer
370
18
48
1
60
0
100
AcDbSpline
70
4
71
3
72
34
73
30
40
0
40
0
40
0
40
0
40
0.125000000000017
40
0.125000000000017
40
0.250000000000034
40
0.250000000000034
40
0.375000000000051
40
0.375000000000051
40
0.437500000000056
40
0.437500000000056
40
0.50000000000006
40
0.50000000000006
40
0.625000000000069
40
0.625000000000069
40
0.68750000000007
40
0.68750000000007
40
0.718750000000063
40
0.718750000000063
40
0.750000000000057
40
0.750000000000057
40
0.812500000000047
40
0.812500000000047
40
0.875000000000036
40
0.875000000000036
40
0.906250000000027
40
0.906250000000027
40
0.937500000000018
40
0.937500000000018
40
1
40
1
40
1
40
1
41
1
10
-12.21262584537
20
0.394519052838319
30
0
41
1
10
-12.2293879167133
20
0.404069856331262
30
0
41
1
10
-12.2460474242469
20
0.413010889696807
30
0
41
1
10
-12.2791555920721
20
0.42966862177019
30
0
41
1
10
-12.2956045495883
20
0.437386982382037
30
0
41
1
10
-12.3282608368065
20
0.451436957631131
30
0
41
1
10
-12.3445735365323
20
0.457805604881315
30
0
41
1
10
-12.3682424193965
20
0.465816634568256
30
0
41
1
10
-12.3760079072084
20
0.46823433620375
30
0
41
1
10
-12.3912507161595
20
0.47248177544077
30
0
41
1
10
-12.3987563531805
20
0.474318017873884
30
0
41
1
10
-12.4205497597283
20
0.478701530894455
30
0
41
1
10
-12.4339597259438
20
0.480156666608053
30
0
41
1
10
-12.4514152534258
20
0.478821439948945
30
0
41
1
10
-12.4568329303759
20
0.477746501187454
30
0
41
1
10
-12.4636450953421
20
0.474958205581402
30
0
41
1
10
-12.4657065335109
20
0.473834537101368
30
0
41
1
10
-12.4693513853986
20
0.471142526978696
30
0
41
1
10
-12.4709433497244
20
0.469557994706776
30
0
41
1
10
-12.47477611418
20
0.464180222176765
30
0
41
1
10
-12.4761223246413
20
0.459769092372454
30
0
41
1
10
-12.4760958204852
20
0.449081203462839
30
0
41
1
10
-12.4747089449443
20
0.443053990405275
30
0
41
1
10
-12.470827460083
20
0.433240182207101
30
0
41
1
10
-12.4692288824021
20
0.429837099363681
30
0
41
1
10
-12.4655825007595
20
0.422985527209818
30
0
41
1
10
-12.4635248995896
20
0.419510621874565
30
0
41
1
10
-12.45673743798
20
0.408956814071217
30
0
41
1
10
-12.4513585152094
20
0.401708771010675
30
0
41
1
10
-12.4454802424853
20
0.394519052838319
30
0
0
SPLINE
5
22F
100
AcDbEntity
8
1
62
256
6
ByLayer
370
18
48
1
60
0
100
AcDbSpline
70
4
71
3
72
8
73
4
40
0
40
0
40
0
40
0
40
1
40
1
40
1
40
1
41
1
10
-11.036173761814
20
-0.249980947161674
30
0
41
1
10
-11.4329616463352
20
-0.0414960685943413
30
0
41
1
10
-11.8249154221809
20
0.173606852417663
30
0
41
1
10
-12.21262584537
20
0.394519052838319
30
0
0
SPLINE
5
230
100
AcDbEntity
8
1
62
256
6
ByLayer
370
18
48
1
60
0
100
AcDbSpline
70
4
71
3
72
18
73
14
40
0
40
0
40
0
40
0
40
0.12500000000001
40
0.12500000000001
40
0.250000000000021
40
0.250000000000021
40
0.500000000000027
40
0.500000000000027
40
0.625000000000022
40
0.625000000000022
40
0.750000000000017
40
0.750000000000017
40
1
40
1
40
1
40
1
41
1
10
-10.8100221617362
20
-0.324980947161663
30
0
41
1
10
-10.8180111708274
20
-0.324980947160952
30
0
41
1
10
-10.8264247732998
20
-0.324303802427465
30
0
41
1
10
-10.8438730220197
20
-0.321952441620653
30
0
41
1
10
-10.8529592725557
20
-0.320261231068514
30
0
41
1
10
-10.8805796347572
20
-0.314041022539698
30
0
41
1
10
-10.8994387758157
20
-0.308419743129093
30
0
41
1
10
-10.9282051094206
20
-0.298394950509135
30
0
41
1
10
-10.937875944648
20
-0.294780090670855
30
0
41
1
10
-10.9573700935552
20
-0.28704319003694
30
0
41
1
10
-10.96721760504
20
-0.282909900397783
30
0
41
1
10
-10.9967579988525
20
-0.269872232720218
30
0
41
1
10
-11.0164600587409
20
-0.260339148990965
30
0
41
1
10
-11.036173761814
20
-0.249980947161674
30
0
0
SPLINE
5
231
100
AcDbEntity
8
1
62
256
6
ByLayer
370
18
48
1
60
0
100
AcDbSpline
70
4
71
3
72
22
73
18
40
0
40
0
40
0
40
0
40
0.125
40
0.125
40
0.25
40
0.25
40
0.375
40
0.375
40
0.5
40
0.5
40
0.625
40
0.625
40
0.75
40
0.75
40
0.875
40
0.875
40
1
40
1
40
1
40
1
41
1
10
-10.5881465384971
20
-0.249980947159855
30
0
41
1
10
-10.5838159736943
20
-0.255144731035841
30
0
41
1
10
-10.5798645746345
20
-0.260343891665031
30
0
41
1
10
-10.572985089628
20
-0.27083784852482
30
0
41
1
10
-10.5701679829124
20
-0.275969703602755
30
0
41
1
10
-10.5660666715437
20
-0.285914845664877
30
0
41
1
10
-10.5647901952417
20
-0.290809930744786
30
0
41
1
10
-10.5642045954565
20
-0.299573635406631
30
0
41
1
10
-10.5648541823852
20
-0.303528393936119
30
0
41
1
10
-10.5679631001512
20
-0.310436416643597
30
0
41
1
10
-10.5703512144502
20
-0.313281206585003
30
0
41
1
10
-10.5764671398954
20
-0.317988035234293
30
0
41
1
10
-10.5801191826617
20
-0.319788199103215
30
0
41
1
10
-10.588214010157
20
-0.322533301974119
30
0
41
1
10
-10.5926877142223
20
-0.323486343691656
30
0
41
1
10
-10.6022321565405
20
-0.32471243842005
30
0
41
1
10
-10.6072496942068
20
-0.324980947163254
30
0
41
1
10
-10.6124575382184
20
-0.324980947163198
30
0
0
SPLINE
5
232
100
AcDbEntity
8
1
62
256
6
ByLayer
370
18
48
1
60
0
100
AcDbSpline
70
4
71
3
72
8
73
4
40
0
40
0
40
0
40
0
40
1
40
1
40
1
40
1
41
1
10
-11.1279670839746
20
0.394519052838319
30
0
41
1
10
-10.9481691234915
20
0.179596378150762
30
0
41
1
10
-10.768236065224
20
-0.0352414300963915
30
0
41
1
10
-10.5881465384975
20
-0.249980947159912
30
0
0
SPLINE
5
233
100
AcDbEntity
8
1
62
256
6
ByLayer
370
18
48
1
60
0
100
AcDbSpline
70
4
71
3
72
39
73
35
40
0
40
0
40
0
40
0
40
0.125
40
0.125
40
0.250000000000001
40
0.250000000000001
40
0.375000000000001
40
0.375000000000001
40
0.437500000000001
40
0.437500000000001
40
0.500000000000001
40
0.500000000000001
40
0.562500000000001
40
0.562500000000001
40
0.625000000000001
40
0.625000000000001
40
0.687500000000001
40
0.687500000000001
40
0.718750000000001
40
0.718750000000001
40
0.75
40
0.781249999999999
40
0.781249999999999
40
0.812499999999999
40
0.812499999999999
40
0.843749999999998
40
0.843749999999998
40
0.874999999999997
40
0.874999999999997
40
0.906249999999996
40
0.906249999999996
40
0.937499999999996
40
0.937499999999996
40
1
40
1
40
1
40
1
41
1
10
-10.8261977204867
20
0.394519052838319
30
0
41
1
10
-10.8453613808029
20
0.403822742416708
30
0
41
1
10
-10.8644350163226
20
0.412508030361977
30
0
41
1
10
-10.9024018906364
20
0.428670682946205
30
0
41
1
10
-10.921295250441
20
0.436148777585913
30
0
41
1
10
-10.9588828842931
20
0.449784789803459
30
0
41
1
10
-10.977577812225
20
0.455947419880573
30
0
41
1
10
-11.0054357249663
20
0.463959959019917
30
0
41
1
10
-11.0147120130598
20
0.466427265972556
30
0
41
1
10
-11.0329270751787
20
0.47080817215442
30
0
41
1
10
-11.0418937770116
20
0.472731225930374
30
0
41
1
10
-11.0594969792526
20
0.475947166332247
30
0
41
1
10
-11.0681342039559
20
0.477241484467214
30
0
41
1
10
-11.0849977650712
20
0.479041057890981
30
0
41
1
10
-11.0932713386151
20
0.479548725267819
30
0
41
1
10
-11.1090219945276
20
0.479486703751746
30
0
41
1
10
-11.1164767895556
20
0.478927144527404
30
0
41
1
10
-11.1267820133679
20
0.476978430843019
30
0
41
1
10
-11.1300670569309
20
0.476138633700827
30
0
41
1
10
-11.1361417146118
20
0.474049581821959
30
0
41
1
10
-11.1417572439761
20
0.471546531684709
30
0
41
1
10
-11.1462927930954
20
0.468066856897167
30
0
41
1
10
-11.1501654640367
20
0.463986118035706
30
0
41
1
10
-11.1517438299299
20
0.461655824862362
30
0
41
1
10
-11.1540017219895
20
0.456500109917954
30
0
41
1
10
-11.1547000127545
20
0.453656662833254
30
0
41
1
10
-11.1551425423025
20
0.447385299333632
30
0
41
1
10
-11.1548792054189
20
0.444063384204014
30
0
41
1
10
-11.1534486470363
20
0.43707126200934
30
0
41
1
10
-11.152266129461
20
0.433367252098947
30
0
41
1
10
-11.1491042633322
20
0.425789142768139
30
0
41
1
10
-11.1471480008521
20
0.421949799605244
30
0
41
1
10
-11.1403381258877
20
0.410305290730918
30
0
41
1
10
-11.1344994067131
20
0.402327507790147
30
0
41
1
10
-11.1279670839747
20
0.394519052838319
30
0
0
SPLINE
5
234
100
AcDbEntity
8
1
62
256
6
ByLayer
370
18
48
1
60
0
100
AcDbSpline
70
4
71
3
72
8
73
4
40
0
40
0
40
0
40
0
40
1
40
1
40
1
40
1
41
1
10
-9.42014604979892
20
-0.249980947161674
30
0
41
1
10
-9.89509800998107
20
-0.0454035327947224
30
0
41
1
10
-10.3635024894918
20
0.169886976943701
30
0
41
1
10
-10.8261977204867
20
0.394519052838319
30
0
0
SPLINE
5
235
100
AcDbEntity
8
1
62
256
6
ByLayer
370
18
48
1
60
0
100
AcDbSpline
70
4
71
3
72
18
73
14
40
0
40
0
40
0
40
0
40
0.125000000000002
40
0.125000000000002
40
0.250000000000004
40
0.250000000000004
40
0.375000000000006
40
0.375000000000006
40
0.500000000000008
40
0.500000000000008
40
0.750000000000004
40
0.750000000000004
40
1
40
1
40
1
40
1
41
1
10
-9.13284665392283
20
-0.324980947161691
30
0
41
1
10
-9.14372986088298
20
-0.324980947161151
30
0
41
1
10
-9.15494813399812
20
-0.324297936899598
30
0
41
1
10
-9.17785494091444
20
-0.321962244274374
30
0
41
1
10
-9.18954659680892
20
-0.320303380454163
30
0
41
1
10
-9.21330961472543
20
-0.316195905728222
30
0
41
1
10
-9.22532162877258
20
-0.313754324838584
30
0
41
1
10
-9.24935609579754
20
-0.308270592014935
30
0
41
1
10
-9.2614134877625
20
-0.305221378626044
30
0
41
1
10
-9.29769042100256
20
-0.295264739422492
30
0
41
1
10
-9.32201317218872
20
-0.287558568041931
30
0
41
1
10
-9.37090801645891
20
-0.270230194328235
30
0
41
1
10
-9.39555423460419
20
-0.260573449959651
30
0
41
1
10
-9.42014604979892
20
-0.249980947161674
30
0
0
SPLINE
5
236
100
AcDbEntity
8
1
62
256
6
ByLayer
370
18
48
1
60
0
100
AcDbSpline
70
4
71
3
72
28
73
24
40
0
40
0
40
0
40
0
40
0.0625000000000084
40
0.0625000000000084
40
0.125000000000017
40
0.125000000000017
40
0.187500000000025
40
0.187500000000025
40
0.250000000000034
40
0.250000000000034
40
0.312500000000042
40
0.312500000000042
40
0.375000000000051
40
0.375000000000051
40
0.437500000000059
40
0.437500000000059
40
0.500000000000068
40
0.500000000000068
40
0.625000000000051
40
0.625000000000051
40
0.750000000000034
40
0.750000000000034
40
1
40
1
40
1
40
1
41
1
10
-8.81287846405189
20
-0.249980947155819
30
0
41
1
10
-8.81042372701609
20
-0.25268050799562
30
0
41
1
10
-8.80809426650316
20
-0.255412160239644
30
0
41
1
10
-8.80374131425177
20
-0.260953956620313
30
0
41
1
10
-8.80171509926652
20
-0.263772010194657
30
0
41
1
10
-8.79813432448739
20
-0.269361345622173
30
0
41
1
10
-8.79656638697125
20
-0.272147870695989
30
0
41
1
10
-8.79395351452445
20
-0.277701759323776
30
0
41
1
10
-8.79290203059378
20
-0.280494627087478
30
0
41
1
10
-8.79146539182051
20
-0.285933125165428
30
0
41
1
10
-8.79108275102183
20
-0.288549776175699
30
0
41
1
10
-8.79100712746285
20
-0.293571945582585
30
0
41
1
10
-8.79132427301073
20
-0.295998566424203
30
0
41
1
10
-8.7926186579657
20
-0.30047339121117
30
0
41
1
10
-8.79358803963595
20
-0.302536520574051
30
0
41
1
10
-8.79609940480191
20
-0.306352422583785
30
0
41
1
10
-8.7976486634681
20
-0.308104402530773
30
0
41
1
10
-8.80288537420063
20
-0.312803317823807
30
0
41
1
10
-8.80719346932867
20
-0.315274284744561
30
0
41
1
10
-8.81692618508794
20
-0.319278475547179
30
0
41
1
10
-8.8222169951448
20
-0.32075719148483
30
0
41
1
10
-8.83894481110514
20
-0.324132477893784
30
0
41
1
10
-8.85129538935936
20
-0.32498094716226
30
0
41
1
10
-8.86408179867607
20
-0.324980947162231
30
0
0
SPLINE
5
237
100
AcDbEntity
8
1
62
256
6
ByLayer
370
18
48
1
60
0
100
AcDbSpline
70
4
71
3
72
8
73
4
40
0
40
0
40
0
40
0
40
1
40
1
40
1
40
1
41
1
10
-9.39538846338749
20
0.394519052838319
30
0
41
1
10
-9.20190632438587
20
0.179219444300429
30
0
41
1
10
-9.00777851679246
20
-0.0356424895420275
30
0
41
1
10
-8.81287846405283
20
-0.249980947156075
30
0
0
SPLINE
5
238
100
AcDbEntity
8
1
62
256
6
ByLayer
370
18
48
1
60
0
100
AcDbSpline
70
4
71
3
72
38
73
34
40
0
40
0
40
0
40
0
40
0.250000000000034
40
0.250000000000034
40
0.375000000000049
40
0.375000000000049
40
0.500000000000063
40
0.500000000000063
40
0.562500000000069
40
0.562500000000069
40
0.625000000000074
40
0.625000000000074
40
0.687500000000079
40
0.687500000000079
40
0.750000000000085
40
0.750000000000085
40
0.781250000000081
40
0.781250000000081
40
0.812500000000078
40
0.812500000000078
40
0.843750000000075
40
0.843750000000075
40
0.85937500000007
40
0.85937500000007
40
0.875000000000065
40
0.875000000000065
40
0.906250000000048
40
0.906250000000048
40
0.937500000000032
40
0.937500000000032
40
0.968750000000016
40
0.968750000000016
40
1
40
1
40
1
40
1
41
1
10
-8.98692851463412
20
0.394519052838405
30
0
41
1
10
-9.03326195647867
20
0.412493674837833
30
0
41
1
10
-9.07924677772201
20
0.428095750861701
30
0
41
1
10
-9.14767753970094
20
0.447892731526878
30
0
41
1
10
-9.17039514074546
20
0.453877630445248
30
0
41
1
10
-9.21561276810883
20
0.464384190703157
30
0
41
1
10
-9.23811409009974
20
0.468915971092088
30
0
41
1
10
-9.27164840317892
20
0.474201921571563
30
0
41
1
10
-9.28280754864176
20
0.475708447562795
30
0
41
1
10
-9.30470496885971
20
0.478037327116795
30
0
41
1
10
-9.31547973767181
20
0.478868132934792
30
0
41
1
10
-9.33658051127512
20
0.479660016760334
30
0
41
1
10
-9.34696068021981
20
0.479621526876542
30
0
41
1
10
-9.36677891891833
20
0.478317730661246
30
0
41
1
10
-9.37622144042913
20
0.477070148566497
30
0
41
1
10
-9.38930097964749
20
0.473801534714227
30
0
41
1
10
-9.3934960628138
20
0.472464916766313
30
0
41
1
10
-9.4012147014825
20
0.469229096419326
30
0
41
1
10
-9.4047572219703
20
0.467329854200074
30
0
41
1
10
-9.41101084625674
20
0.462790271628421
30
0
41
1
10
-9.41370522919752
20
0.460142637892375
30
0
41
1
10
-9.41676860092068
20
0.455629436905042
30
0
41
1
10
-9.41763416504898
20
0.454029340103233
30
0
41
1
10
-9.4190188210097
20
0.450615689000983
30
0
41
1
10
-9.41953665683744
20
0.448791861472614
30
0
41
1
10
-9.42048798744287
20
0.44314609700092
30
0
41
1
10
-9.42034760074208
20
0.439106172816139
30
0
41
1
10
-9.41852742540974
20
0.430476184279087
30
0
41
1
10
-9.41685123823538
20
0.425966268108198
30
0
41
1
10
-9.41232312472616
20
0.416909228814092
30
0
41
1
10
-9.40943685546659
20
0.41229412988929
30
0
41
1
10
-9.40294265258254
20
0.403307302163142
30
0
41
1
10
-9.39931252043951
20
0.398885595145714
30
0
41
1
10
-9.39538846339326
20
0.394519052837154
30
0
0
SPLINE
5
239
100
AcDbEntity
8
1
62
256
6
ByLayer
370
18
48
1
60
0
100
AcDbSpline
70
4
71
3
72
8
73
4
40
0
40
0
40
0
40
0
40
1
40
1
40
1
40
1
41
1
10
-7.15410175340955
20
-0.249980947161674
30
0
41
1
10
-7.77427580892299
20
-0.0548377836275904
30
0
41
1
10
-8.38478343725888
20
0.160922546217108
30
0
41
1
10
-8.98692851463412
20
0.394519052838319
30
0
0
SPLINE
5
23A
100
AcDbEntity
8
1
62
256
6
ByLayer
370
18
48
1
60
0
100
AcDbSpline
70
4
71
3
72
17
73
13
40
0
40
0
40
0
40
0
40
0.124999999999999
40
0.124999999999999
40
0.249999999999997
40
0.249999999999997
40
0.374999999999996
40
0.374999999999996
40
0.499999999999994
40
0.499999999999994
40
0.749999999999997
40
1
40
1
40
1
40
1
41
1
10
-6.74249188881692
20
-0.324980947161663
30
0
41
1
10
-6.75895378391405
20
-0.324980947161606
30
0
41
1
10
-6.77560867949231
20
-0.324310745266985
30
0
41
1
10
-6.80917906795565
20
-0.322040380930361
30
0
41
1
10
-6.82609666353429
20
-0.320433354681313
30
0
41
1
10
-6.86013732462243
20
-0.316470394553619
30
0
41
1
10
-6.87726105822398
20
-0.314112278634411
30
0
41
1
10
-6.91168423969077
20
-0.308745403149373
30
0
41
1
10
-6.92901200463655
20
-0.305730156657205
30
0
41
1
10
-6.9809865191651
20
-0.295834974764006
30
0
41
1
10
-7.05026156071168
20
-0.280409342926959
30
0
41
1
10
-7.11949273474013
20
-0.260870976065661
30
0
41
1
10
-7.15410175340952
20
-0.249980947161816
30
0
0
SPLINE
5
23B
100
AcDbEntity
8
1
62
256
6
ByLayer
370
18
48
1
60
0
100
AcDbSpline
70
4
71
3
72
28
73
24
40
0
40
0
40
0
40
0
40
0.0624999999999971
40
0.0624999999999971
40
0.124999999999994
40
0.124999999999994
40
0.187499999999991
40
0.187499999999991
40
0.249999999999989
40
0.249999999999989
40
0.312499999999986
40
0.312499999999986
40
0.374999999999983
40
0.374999999999983
40
0.43749999999998
40
0.43749999999998
40
0.499999999999977
40
0.499999999999977
40
0.624999999999986
40
0.624999999999986
40
0.749999999999994
40
0.749999999999994
40
1
40
1
40
1
40
1
41
1
10
-6.22292588127013
20
-0.249980947140926
30
0
41
1
10
-6.21958846278577
20
-0.252886604389005
30
0
41
1
10
-6.21643658084903
20
-0.2558747816623
30
0
41
1
10
-6.21065250989102
20
-0.262082766471423
30
0
41
1
10
-6.20799059239883
20
-0.265341649736172
30
0
41
1
10
-6.20359999834142
20
-0.272014335422199
30
0
41
1
10
-6.20188043678104
20
-0.275412687019298
30
0
41
1
10
-6.19979992398464
20
-0.282212586931081
30
0
41
1
10
-6.19947715640598
20
-0.285483953660503
30
0
41
1
10
-6.20034973300659
20
-0.291754064168089
30
0
41
1
10
-6.20153703134218
20
-0.294630037775505
30
0
41
1
10
-6.20507139005892
20
-0.299823372219635
30
0
41
1
10
-6.20738715966183
20
-0.302109007415226
30
0
41
1
10
-6.21267351534146
20
-0.306146729630399
30
0
41
1
10
-6.21568609914897
20
-0.307929189855884
30
0
41
1
10
-6.22210698144565
20
-0.311076075105149
30
0
41
1
10
-6.22550351037774
20
-0.312439632077798
30
0
41
1
10
-6.23609002146512
20
-0.316080959786575
30
0
41
1
10
-6.24369435696312
20
-0.317921804204587
30
0
41
1
10
-6.25943326740025
20
-0.32085518881064
30
0
41
1
10
-6.26749588936968
20
-0.3219300952467
30
0
41
1
10
-6.29206351344473
20
-0.324375867069932
30
0
41
1
10
-6.30894164051659
20
-0.324980947161663
30
0
41
1
10
-6.32610759209314
20
-0.324980947161663
30
0
0
SPLINE
5
23C
100
AcDbEntity
8
1
62
256
6
ByLayer
370
18
48
1
60
0
100
AcDbSpline
70
4
71
3
72
8
73
4
40
0
40
0
40
0
40
0
40
1
40
1
40
1
40
1
41
1
10
-6.94370199058139
20
0.394519052846164
30
0
41
1
10
-6.70648353684913
20
0.177135671778956
30
0
41
1
10
-6.46649386217507
20
-0.0379233125592862
30
0
41
1
10
-6.2229258812699
20
-0.249980947141125
30
0
0
SPLINE
5
23D
100
AcDbEntity
8
1
62
256
6
ByLayer
370
18
48
1
60
0
100
AcDbSpline
70
4
71
3
72
38
73
34
40
0
40
0
40
0
40
0
40
0.250000000000007
40
0.250000000000007
40
0.37500000000001
40
0.37500000000001
40
0.500000000000013
40
0.500000000000013
40
0.625000000000016
40
0.625000000000016
40
0.687500000000016
40
0.687500000000016
40
0.750000000000015
40
0.750000000000015
40
0.812500000000015
40
0.812500000000015
40
0.843750000000015
40
0.843750000000015
40
0.859375000000017
40
0.859375000000017
40
0.875000000000018
40
0.875000000000018
40
0.906250000000013
40
0.906250000000013
40
0.921875000000012
40
0.921875000000012
40
0.93750000000001
40
0.93750000000001
40
0.953125000000008
40
0.953125000000008
40
0.968750000000007
40
0.968750000000007
40
1
40
1
40
1
40
1
41
1
10
-6.31056345909093
20
0.394519052838348
30
0
41
1
10
-6.37481328661499
20
0.411390584813802
30
0
41
1
10
-6.4389694704839
20
0.426235064493284
30
0
41
1
10
-6.53505244750011
20
0.445376954980162
30
0
41
1
10
-6.56705479948465
20
0.45122594227513
30
0
41
1
10
-6.63100511187699
20
0.461668317288456
30
0
41
1
10
-6.66283482363733
20
0.466246113725987
30
0
41
1
10
-6.72600609435807
20
0.473707937007589
30
0
41
1
10
-6.75736948054694
20
0.476614959194904
30
0
41
1
10
-6.80391672915468
20
0.479030439617617
30
0
41
1
10
-6.8192776629009
20
0.479502300680395
30
0
41
1
10
-6.84957718699201
20
0.479534942910078
30
0
41
1
10
-6.86452894473766
20
0.479103966091572
30
0
41
1
10
-6.89376528285246
20
0.476844350448005
30
0
41
1
10
-6.90791400682016
20
0.4750543513058
30
0
41
1
10
-6.92784789138949
20
0.470525557036069
30
0
41
1
10
-6.93431043459842
20
0.468687677725654
30
0
41
1
10
-6.94329636119863
20
0.465259768495429
30
0
41
1
10
-6.94617531050883
20
0.464004555023422
30
0
41
1
10
-6.95163771381618
20
0.461207412587328
30
0
41
1
10
-6.95423460303789
20
0.459654605417683
30
0
41
1
10
-6.96127333728364
20
0.454550304275358
30
0
41
1
10
-6.96505057587041
20
0.450546752278541
30
0
41
1
10
-6.96837681670806
20
0.443136098555243
30
0
41
1
10
-6.96904305703379
20
0.440519738407147
30
0
41
1
10
-6.96942508964176
20
0.434972492094005
30
0
41
1
10
-6.96912327074088
20
0.432023475756551
30
0
41
1
10
-6.96761586971701
20
0.426116302508717
30
0
41
1
10
-6.96640667044261
20
0.423099880063631
30
0
41
1
10
-6.96325940256423
20
0.417097475848209
30
0
41
1
10
-6.96135311381406
20
0.41415595474092
30
0
41
1
10
-6.95487075366239
20
0.405468539491409
30
0
41
1
10
-6.94950896079718
20
0.399840471978024
30
0
41
1
10
-6.94370199058511
20
0.394519052844345
30
0
0
SPLINE
5
23E
100
AcDbEntity
8
1
62
256
6
ByLayer
370
18
48
1
60
0
100
AcDbSpline
70
4
71
3
72
8
73
4
40
0
40
0
40
0
40
0
40
1
40
1
40
1
40
1
41
1
10
-3.02046224885024
20
-0.249980947161674
30
0
41
1
10
-4.13598610112703
20
-0.107222523982642
30
0
41
1
10
-5.23174171602651
20
0.111228400779481
30
0
41
1
10
-6.31056345909099
20
0.394519052838035
30
0
0
SPLINE
5
23F
100
AcDbEntity
8
1
62
256
6
ByLayer
370
18
48
1
60
0
100
AcDbSpline
70
4
71
3
72
14
73
10
40
0
40
0
40
0
40
0
40
0.25
40
0.25
40
0.5
40
0.5
40
0.75
40
0.75
40
1
40
1
40
1
40
1
41
1
10
-1.73594520006372
20
-0.324980947161805
30
0
41
1
10
-1.8431497961038
20
-0.324980947161777
30
0
41
1
10
-1.95042328219907
20
-0.323449254272589
30
0
41
1
10
-2.16478964220167
20
-0.317513647984981
30
0
41
1
10
-2.27190023278092
20
-0.31310074243703
30
0
41
1
10
-2.48598486060456
20
-0.301152741664794
30
0
41
1
10
-2.59295877928983
20
-0.293621089038197
30
0
41
1
10
-2.80678930238884
20
-0.274859400504965
30
0
41
1
10
-2.91364525025659
20
-0.263650781524092
30
0
41
1
10
-3.02046224885024
20
-0.249980947161674
30
0
0
SPLINE
5
240
100
AcDbEntity
8
1
62
256
6
ByLayer
370
18
48
1
60
0
100
AcDbSpline
70
4
71
3
72
14
73
10
40
0
40
0
40
0
40
0
40
0.25
40
0.25
40
0.5
40
0.5
40
0.75
40
0.75
40
1
40
1
40
1
40
1
41
1
10
3.02046224885024
20
-0.249980947161873
30
0
41
1
10
2.913676180983
20
-0.263646823185127
30
0
41
1
10
2.8066668841391
20
-0.274872902970941
30
0
41
1
10
2.59260836335608
20
-0.293649067375753
30
0
41
1
10
2.48557990191353
20
-0.301179376033105
30
0
41
1
10
2.27148283436756
20
-0.313119988055348
30
0
41
1
10
2.1644144863391
20
-0.317526654577222
30
0
41
1
10
1.950220754567
20
-0.323452236129214
30
0
41
1
10
1.84309474173688
20
-0.324980947161691
30
0
41
1
10
1.73594520006375
20
-0.324980947161691
30
0
0
SPLINE
5
241
100
AcDbEntity
8
1
62
256
6
ByLayer
370
18
48
1
60
0
100
AcDbSpline
70
4
71
3
72
8
73
4
40
0
40
0
40
0
40
0
40
1
40
1
40
1
40
1
41
1
10
6.31056345909099
20
0.394519052838035
30
0
41
1
10
5.23174171602651
20
0.111228400779481
30
0
41
1
10
4.13598610112703
20
-0.107222523982642
30
0
41
1
10
3.02046224885024
20
-0.249980947161674
30
0
0
SPLINE
5
242
100
AcDbEntity
8
1
62
256
6
ByLayer
370
18
48
1
60
0
100
AcDbSpline
70
4
71
3
72
40
73
36
40
0
40
0
40
0
40
0
40
0.031249999999995
40
0.031249999999995
40
0.06249999999999
40
0.06249999999999
40
0.0781249999999879
40
0.0781249999999879
40
0.0937499999999857
40
0.0937499999999857
40
0.109374999999984
40
0.109374999999984
40
0.124999999999982
40
0.124999999999982
40
0.156249999999982
40
0.156249999999982
40
0.187499999999982
40
0.187499999999982
40
0.218749999999982
40
0.218749999999982
40
0.249999999999983
40
0.249999999999983
40
0.312499999999983
40
0.312499999999983
40
0.374999999999984
40
0.374999999999984
40
0.437499999999985
40
0.437499999999985
40
0.499999999999985
40
0.499999999999985
40
0.624999999999989
40
0.624999999999989
40
0.749999999999992
40
0.749999999999992
40
1
40
1
40
1
40
1
41
1
10
6.94370199057281
20
0.394519052838319
30
0
41
1
10
6.94949560394593
20
0.39982823196766
30
0
41
1
10
6.95476963852033
20
0.405342643436654
30
0
41
1
10
6.96353664392512
20
0.417072710650359
30
0
41
1
10
6.96690761888618
20
0.423224118274902
30
0
41
1
10
6.96915785814357
20
0.432219602519865
30
0
41
1
10
6.96943324881502
20
0.435114089853443
30
0
41
1
10
6.96901235433288
20
0.440690505253485
30
0
41
1
10
6.96829725749944
20
0.443380727673969
30
0
41
1
10
6.96602843721033
20
0.448294122549783
30
0
41
1
10
6.96446307291566
20
0.450572101252135
30
0
41
1
10
6.96069380192031
20
0.454727700184236
30
0
41
1
10
6.95851683437999
20
0.456587871636742
30
0
41
1
10
6.95132320037953
20
0.461676155240184
30
0
41
1
10
6.94560309325277
20
0.464430091165298
30
0
41
1
10
6.93346671813305
20
0.468952428293051
30
0
41
1
10
6.92700114264699
20
0.470750396595264
30
0
41
1
10
6.91354439935381
20
0.473737864933412
30
0
41
1
10
6.90651936764408
20
0.47492561812976
30
0
41
1
10
6.8922792992787
20
0.476824350812876
30
0
41
1
10
6.88505053830141
20
0.477539240813599
30
0
41
1
10
6.86312052932394
20
0.479163283900618
30
0
41
1
10
6.84817943934419
20
0.479560419705763
30
0
41
1
10
6.81787500488076
20
0.479471186456607
30
0
41
1
10
6.80250792684515
20
0.478976540973378
30
0
41
1
10
6.7714511059956
20
0.477324643892985
30
0
41
1
10
6.75572610148623
20
0.476161098836968
30
0
41
1
10
6.72426466291995
20
0.473326678573329
30
0
41
1
10
6.70850783880172
20
0.471655016990979
30
0
41
1
10
6.66117064223536
20
0.466019194826799
30
0
41
1
10
6.62952417807873
20
0.461442125692656
30
0
41
1
10
6.56608797546141
20
0.451051827023463
30
0
41
1
10
6.53429778488396
20
0.445232963789806
30
0
41
1
10
6.43873436581814
20
0.426175341576084
30
0
41
1
10
6.37477160274273
20
0.411379638935813
30
0
41
1
10
6.31056345909093
20
0.394519052838518
30
0
0
SPLINE
5
243
100
AcDbEntity
8
1
62
256
6
ByLayer
370
18
48
1
60
0
100
AcDbSpline
70
4
71
3
72
8
73
4
40
0
40
0
40
0
40
0
40
1
40
1
40
1
40
1
41
1
10
6.2229258812699
20
-0.249980947141125
30
0
41
1
10
6.46649386217214
20
-0.0379233125618441
30
0
41
1
10
6.70648353684336
20
0.177135671773783
30
0
41
1
10
6.94370199057281
20
0.394519052838319
30
0
0
SPLINE
5
244
100
AcDbEntity
8
1
62
256
6
ByLayer
370
18
48
1
60
0
100
AcDbSpline
70
4
71
3
72
18
73
14
40
0
40
0
40
0
40
0
40
0.125
40
0.125
40
0.250000000000001
40
0.250000000000001
40
0.375000000000001
40
0.375000000000001
40
0.500000000000002
40
0.500000000000002
40
0.750000000000001
40
0.750000000000001
40
1
40
1
40
1
40
1
41
1
10
6.20205188049894
20
-0.295156884061328
30
0
41
1
10
6.20119673291418
20
-0.293549144678792
30
0
41
1
10
6.2005602916521
20
-0.291854679827367
30
0
41
1
10
6.1997805514857
20
-0.288270462565094
30
0
41
1
10
6.19964226382973
20
-0.286355682273296
30
0
41
1
10
6.19990600387953
20
-0.282479895847757
30
0
41
1
10
6.20029894467774
20
-0.280511134286684
30
0
41
1
10
6.20156773602287
20
-0.276516585288988
30
0
41
1
10
6.20245423870119
20
-0.27447648972273
30
0
41
1
10
6.20565946889027
20
-0.268490533759859
30
0
41
1
10
6.20853530698335
20
-0.26459821841388
30
0
41
1
10
6.21521779286516
20
-0.257034440081924
30
0
41
1
10
6.21894655766801
20
-0.25344546632715
30
0
41
1
10
6.22292588124984
20
-0.249980947131121
30
0
0
SPLINE
5
245
100
AcDbEntity
8
1
62
256
6
ByLayer
370
18
48
1
60
0
100
AcDbSpline
70
4
71
3
72
8
73
4
40
0
40
0
40
0
40
0
40
1
40
1
40
1
40
1
41
1
10
6.20205188049894
20
-0.295156884061328
30
0
41
1
10
6.69990666630699
20
-0.0071871614517818
30
0
41
1
10
7.19576649928771
20
0.287163910111644
30
0
41
1
10
7.6898703156005
20
0.58713203435596
30
0
0
SPLINE
5
246
100
AcDbEntity
8
1
62
256
6
ByLayer
370
18
48
1
60
0
100
AcDbSpline
70
4
71
3
72
16
73
12
40
0
40
0
40
0
40
0
40
0.250000000000016
40
0.250000000000016
40
0.375000000000018
40
0.375000000000018
40
0.50000000000002
40
0.50000000000002
40
0.75000000000001
40
0.75000000000001
40
1
40
1
40
1
40
1
41
1
10
7.94644884263471
20
0.675000000000011
30
0
41
1
10
7.92582385566948
20
0.675000000000011
30
0
41
1
10
7.90438215582353
20
0.672420916946464
30
0
41
1
10
7.87124649511088
20
0.665488321455001
30
0
41
1
10
7.86010370327333
20
0.662667396699788
30
0
41
1
10
7.83803867503127
20
0.656240139364172
30
0
41
1
10
7.82705374157911
20
0.652620554488038
30
0
41
1
10
7.79422525944298
20
0.640685411851848
30
0
41
1
10
7.77235448458234
20
0.631215194914319
30
0
41
1
10
7.73018881652743
20
0.610493459265086
30
0
41
1
10
7.70975573667923
20
0.59920438082267
30
0
41
1
10
7.68987031560024
20
0.58713203435633
30
0
0
SPLINE
5
247
100
AcDbEntity
8
1
62
256
6
ByLayer
370
18
48
1
60
0
100
AcDbSpline
70
4
71
3
72
8
73
4
40
0
40
0
40
0
40
0
40
1
40
1
40
1
40
1
41
1
10
-15
20
0.201421085145398
30
0
41
1
10
-15
20
0.337320665961784
30
0
41
1
10
-15
20
0.496356496408538
30
0
41
1
10
-15
20
0.674999999999983
30
0
0
SPLINE
5
248
100
AcDbEntity
8
1
62
256
6
ByLayer
370
18
48
1
60
0
100
AcDbSpline
70
4
71
3
72
28
73
24
40
0
40
0
40
0
40
0
40
0.125
40
0.125
40
0.1875
40
0.218749999999999
40
0.218749999999999
40
0.249999999999999
40
0.249999999999999
40
0.374999999999999
40
0.374999999999999
40
0.499999999999998
40
0.499999999999998
40
0.562499999999998
40
0.593749999999998
40
0.593749999999998
40
0.624999999999998
40
0.624999999999998
40
0.749999999999999
40
0.749999999999999
40
0.874999999999999
40
0.874999999999999
40
1
40
1
40
1
40
1
41
1
10
-11.3047186257614
20
10.1952813742386
30
0
41
1
10
-11.062644020503
20
10.437355979497
30
0
41
1
10
-10.8091218586599
20
10.6702192528417
30
0
41
1
10
-10.4104793612279
20
11.0054949832602
30
0
41
1
10
-10.2065611567224
20
11.169618735292
30
0
41
1
10
-9.99545111664582
20
11.3283485164476
30
0
41
1
10
-9.85307403355034
20
11.4329500047463
30
0
41
1
10
-9.78108801638794
20
11.4846244561988
30
0
41
1
10
-9.41802316662108
20
11.7391823209937
30
0
41
1
10
-9.11678326206268
20
11.9312329484759
30
0
41
1
10
-8.49134300306719
20
12.2910989461903
30
0
41
1
10
-8.16714930444758
20
12.4589200190206
30
0
41
1
10
-7.66210843091747
20
12.6910228254173
30
0
41
1
10
-7.40489174392968
20
12.8021557657622
30
0
41
1
10
-7.14024828741518
20
12.9055192432803
30
0
41
1
10
-6.96211854912968
20
12.9726484807529
30
0
41
1
10
-6.872083508245
20
13.0053637028685
30
0
41
1
10
-6.41981863929013
20
13.1635662419114
30
0
41
1
10
-6.05034485934979
20
13.2733995976006
30
0
41
1
10
-5.2955272325689
20
13.4581893341003
30
0
41
1
10
-4.91018640835517
20
13.5331540073986
30
0
41
1
10
-4.12268687902017
20
13.6456500923866
30
0
41
1
10
-3.72053381169442
20
13.6831982169379
30
0
41
1
10
-3.30923312737318
20
13.7
30
0
0
SPLINE
5
249
100
AcDbEntity
8
1
62
256
6
ByLayer
370
18
48
1
60
0
100
AcDbSpline
70
4
71
3
72
26
73
22
40
0
40
0
40
0
40
0
40
0.0624999999999994
40
0.0624999999999994
40
0.124999999999999
40
0.124999999999999
40
0.249999999999998
40
0.249999999999998
40
0.312499999999999
40
0.312499999999999
40
0.374999999999999
40
0.374999999999999
40
0.5
40
0.625
40
0.625
40
0.687500000000001
40
0.687500000000001
40
0.750000000000001
40
0.750000000000001
40
0.875
40
1
40
1
40
1
40
1
41
1
10
11.3844191771034
20
2.61880623374827
30
0
41
1
10
11.3709000476401
20
2.60791312211003
30
0
41
1
10
11.3575301650333
20
2.59629673996452
30
0
41
1
10
11.3315134263127
20
2.57197500299367
30
0
41
1
10
11.3188511911257
20
2.55926455842393
30
0
41
1
10
11.2818803885105
20
2.51952022026035
30
0
41
1
10
11.2585834684392
20
2.49088007904319
30
0
41
1
10
11.2256540603367
20
2.4447189986351
30
0
41
1
10
11.2150146557944
20
2.42879679564609
30
0
41
1
10
11.1944216071206
20
2.39586357050317
30
0
41
1
10
11.1844346275439
20
2.37878994990518
30
0
41
1
10
11.1557951769687
20
2.32637341434682
30
0
41
1
10
11.1212537727733
20
2.25362969689118
30
0
41
1
10
11.0937575976421
20
2.17536698156704
30
0
41
1
10
11.0758256053051
20
2.11456257974427
30
0
41
1
10
11.0702866365886
20
2.09389423304003
30
0
41
1
10
11.0601852154168
20
2.05204578255399
30
0
41
1
10
11.0556518084438
20
2.03099710974132
30
0
41
1
10
11.0435646346477
20
1.96748709802631
30
0
41
1
10
11.0314705549806
20
1.88183947453294
30
0
41
1
10
11.0273297000043
20
1.79427854624328
30
0
41
1
10
11.0273297000043
20
1.75
30
0
0
SPLINE
5
24A
100
AcDbEntity
8
1
62
256
6
ByLayer
370
18
48
1
60
0
100
AcDbSpline
70
4
71
3
72
14
73
10
40
0
40
0
40
0
40
0
40
0.25
40
0.25
40
0.5
40
0.5
40
0.75
40
0.75
40
1
40
1
40
1
40
1
41
1
10
11.3844191771034
20
2.61880623374824
30
0
41
1
10
11.1841714948292
20
2.62271776471468
30
0
41
1
10
10.983945899625
20
2.63077725116233
30
0
41
1
10
10.5835244964753
20
2.65249027632748
30
0
41
1
10
10.3833284939475
20
2.66610727243679
30
0
41
1
10
9.98294159839813
20
2.69430083076966
30
0
41
1
10
9.78275061250622
20
2.70885995194408
30
0
41
1
10
9.38234394242315
20
2.73333984950733
30
0
41
1
10
9.18212834741706
20
2.74327737486476
30
0
41
1
10
8.98188309203678
20
2.74764467692199
30
0
0
SPLINE
5
24B
100
AcDbEntity
8
1
62
256
6
ByLayer
370
18
48
1
60
0
100
AcDbSpline
70
4
71
3
72
8
73
4
40
0
40
0
40
0
40
0
40
1
40
1
40
1
40
1
41
1
10
8.74075718766488
20
2.75
30
0
41
1
10
8.82291673448236
20
2.75
30
0
41
1
10
8.90330543194972
20
2.74935843726001
30
0
41
1
10
8.98188309203678
20
2.74764467692199
30
0
0
SPLINE
5
24C
100
AcDbEntity
8
1
62
256
6
ByLayer
370
18
48
1
60
0
100
AcDbSpline
70
4
71
3
72
14
73
10
40
0
40
0
40
0
40
0
40
0.124999999999999
40
0.124999999999999
40
0.249999999999998
40
0.249999999999998
40
0.499999999999998
40
0.499999999999998
40
1
40
1
40
1
40
1
41
1
10
5.61590806370137
20
2.75000000000088
30
0
41
1
10
5.57971838965312
20
2.75000000000088
30
0
41
1
10
5.54343259751812
20
2.74992847907862
30
0
41
1
10
5.47066697527507
20
2.74961332673701
30
0
41
1
10
5.4341766571699
20
2.74936945065704
30
0
41
1
10
5.32472897283313
20
2.74833597369189
30
0
41
1
10
5.2516941519697
20
2.7472455708064
30
0
41
1
10
5.03239314692971
20
2.7423789414371
30
0
41
1
10
4.8859297831705
20
2.73703859482043
30
0
41
1
10
4.73924240491749
20
2.72826319144721
30
0
0
SPLINE
5
24D
100
AcDbEntity
8
1
62
256
6
ByLayer
370
18
48
1
60
0
100
AcDbSpline
70
4
71
3
72
24
73
20
40
0
40
0
40
0
40
0
40
0.125
40
0.125
40
0.25
40
0.25
40
0.375
40
0.375
40
0.5
40
0.5
40
0.625
40
0.625
40
0.75
40
0.75
40
0.875
40
0.875
40
0.9375
40
0.9375
40
1
40
1
40
1
40
1
41
1
10
4.73924240491749
20
2.72826319144716
30
0
41
1
10
4.54124781454598
20
2.71641839323124
30
0
41
1
10
4.34348633547717
20
2.70028739494009
30
0
41
1
10
3.94830929525136
20
2.66166503160318
30
0
41
1
10
3.75089431612875
20
2.63916296473499
30
0
41
1
10
3.35630506623085
20
2.5897329446326
30
0
41
1
10
3.15920846027745
20
2.56280531060921
30
0
41
1
10
2.76543353384352
20
2.50654522199463
30
0
41
1
10
2.56871284967858
20
2.4771954595526
30
0
41
1
10
2.17528945698572
20
2.4183644720525
30
0
41
1
10
1.97858884102231
20
2.3888679432807
30
0
41
1
10
1.58479378373878
20
2.33275507916488
30
0
41
1
10
1.38770044578732
20
2.30613067446942
30
0
41
1
10
0.992551521551064
20
2.25991915020569
30
0
41
1
10
0.79434143805662
20
2.24037575072032
30
0
41
1
10
0.496769243033441
20
2.22009857510443
30
0
41
1
10
0.39751615260414
20
2.21484248886415
30
0
41
1
10
0.198867184515365
20
2.20777177783998
30
0
41
1
10
0.0994711669691526
20
2.20596052460996
30
0
41
1
10
3.1264E-12
20
2.20596052460994
30
0
0
SPLINE
5
24E
100
AcDbEntity
8
1
62
256
6
ByLayer
370
18
48
1
60
0
100
AcDbSpline
70
4
71
3
72
10
73
6
40
0
40
0
40
0
40
0
40
0.5
40
0.5
40
1
40
1
40
1
40
1
41
1
10
-1.86655562837905
20
1.75
30
0
41
1
10
-1.55599622102986
20
1.82817323494751
30
0
41
1
10
-1.24541992424426
20
1.90635520084291
30
0
41
1
10
-0.623502570128323
20
2.0594585635431
30
0
41
1
10
-0.312155001546842
20
2.13439076268122
30
0
41
1
10
3.2117E-12
20
2.20596052460786
30
0
0
SPLINE
5
24F
100
AcDbEntity
8
1
62
256
6
ByLayer
370
18
48
1
60
0
100
AcDbSpline
70
4
71
3
72
8
73
4
40
0
40
0
40
0
40
0
40
1
40
1
40
1
40
1
41
1
10
15.9999999999771
20
1.75227378683758
30
0
41
1
10
15.9999982766238
20
1.75151587621136
30
0
41
1
10
15.9999974148886
20
1.75075794726632
30
0
41
1
10
15.9999974148886
20
1.75
30
0
0
SPLINE
5
250
100
AcDbEntity
8
1
62
256
6
ByLayer
370
18
48
1
60
0
100
AcDbSpline
70
4
71
3
72
18
73
14
40
0
40
0
40
0
40
0
40
0.250000000000005
40
0.250000000000005
40
0.50000000000001
40
0.50000000000001
40
0.625000000000007
40
0.625000000000007
40
0.750000000000005
40
0.750000000000005
40
0.875000000000002
40
0.875000000000002
40
1
40
1
40
1
40
1
41
1
10
8.97509300113904
20
-0.269594177821347
30
0
41
1
10
9.01152662564178
20
-0.276266392229843
30
0
41
1
10
9.04786957329972
20
-0.28271869297447
30
0
41
1
10
9.12036951706793
20
-0.294911495176365
30
0
41
1
10
9.15652663639639
20
-0.300657716910649
30
0
41
1
10
9.21061564223996
20
-0.3083950976756
30
0
41
1
10
9.22862081787034
20
-0.310825376543932
30
0
41
1
10
9.26457997674549
20
-0.31528656674277
30
0
41
1
10
9.28249101416728
20
-0.317312254472938
30
0
41
1
10
9.317971682669
20
-0.320786518587909
30
0
41
1
10
9.33556565196983
20
-0.322240624311093
30
0
41
1
10
9.37037718980264
20
-0.324333792043348
30
0
41
1
10
9.38759748480729
20
-0.324980947161663
30
0
41
1
10
9.40454881002665
20
-0.324980947161663
30
0
0
SPLINE
5
251
100
AcDbEntity
8
1
62
256
6
ByLayer
370
18
48
1
60
0
100
AcDbSpline
70
4
71
3
72
19
73
15
40
0
40
0
40
0
40
0
40
0.124999999999997
40
0.124999999999997
40
0.249999999999994
40
0.374999999999992
40
0.374999999999992
40
0.499999999999989
40
0.499999999999989
40
0.749999999999999
40
0.749999999999999
40
0.874999999999999
40
0.874999999999999
40
1
40
1
40
1
40
1
41
1
10
15.8492823178349
20
0.58713203435596
30
0
41
1
10
15.855989222242
20
0.593267654640385
30
0
41
1
10
15.8625495772864
20
0.599229479786004
30
0
41
1
10
15.8752002945529
20
0.610640621262888
30
0
41
1
10
15.8874197265098
20
0.621574859068204
30
0
41
1
10
15.8987017014005
20
0.631476512433466
30
0
41
1
10
15.9094585350314
20
0.64080174528678
30
0
41
1
10
15.9145991445754
20
0.64519691870052
30
0
41
1
10
15.9289241818296
20
0.657228512385103
30
0
41
1
10
15.9369354392518
20
0.663653917691278
30
0
41
1
10
15.9461387111183
20
0.670383239817596
30
0
41
1
10
15.948702816892
20
0.672112003605719
30
0
41
1
10
15.9526537840417
20
0.674411803172546
30
0
41
1
10
15.9540636053782
20
0.675000000000011
30
0
41
1
10
15.9548811723345
20
0.675000000000011
30
0
0
SPLINE
5
252
100
AcDbEntity
8
1
62
256
6
ByLayer
370
18
48
1
60
0
100
AcDbSpline
70
4
71
3
72
8
73
4
40
0
40
0
40
0
40
0
40
1
40
1
40
1
40
1
41
1
10
15.2840285091941
20
0.0792468245269333
30
0
41
1
10
15.474570468146
20
0.247341989480418
30
0
41
1
10
15.6629415722977
20
0.416663515837342
30
0
41
1
10
15.8492823178349
20
0.58713203435596
30
0
0
SPLINE
5
253
100
AcDbEntity
8
1
62
256
6
ByLayer
370
18
48
1
60
0
100
AcDbSpline
70
4
71
3
72
8
73
4
40
0
40
0
40
0
40
0
40
1
40
1
40
1
40
1
41
1
10
14.8184692127086
20
-0.249980947161674
30
0
41
1
10
14.9412886767734
20
-0.14082847024838
30
0
41
1
10
15.0637358213392
20
-0.0313652611574469
30
0
41
1
10
15.185830519393
20
0.0783920944190584
30
0
0
SPLINE
5
254
100
AcDbEntity
8
1
62
256
6
ByLayer
370
18
48
1
60
0
100
AcDbSpline
70
4
71
3
72
18
73
14
40
0
40
0
40
0
40
0
40
0.124999999999999
40
0.124999999999999
40
0.249999999999997
40
0.249999999999997
40
0.500000000000001
40
0.500000000000001
40
0.625
40
0.625
40
0.749999999999999
40
0.749999999999999
40
1
40
1
40
1
40
1
41
1
10
14.7171680292953
20
-0.324980947161748
30
0
41
1
10
14.7186893510728
20
-0.32498094716172
30
0
41
1
10
14.7207746365131
20
-0.324388699392443
30
0
41
1
10
14.7259716490943
20
-0.322125675212902
30
0
41
1
10
14.729075461519
20
-0.320451985953838
30
0
41
1
10
14.7393963271011
20
-0.314194627055087
30
0
41
1
10
14.7478183865456
20
-0.308259492032192
30
0
41
1
10
14.7614560038651
20
-0.29790260373386
30
0
41
1
10
14.7661922846909
20
-0.294192871663853
30
0
41
1
10
14.7760027492335
20
-0.286317935978389
30
0
41
1
10
14.7810985572145
20
-0.282134384874752
30
0
41
1
10
14.7967015141747
20
-0.269079983040143
30
0
41
1
10
14.8074408879534
20
-0.25978207251589
30
0
41
1
10
14.8184692127086
20
-0.249980947161674
30
0
0
SPLINE
5
255
100
AcDbEntity
8
1
62
256
6
ByLayer
370
18
48
1
60
0
100
AcDbSpline
70
4
71
3
72
12
73
8
40
0
40
0
40
0
40
0
40
0.359001265546587
40
0.359001265546587
40
0.718002531093174
40
0.718002531093174
40
1
40
1
40
1
40
1
41
1
10
9.13284665391046
20
-0.324980947161691
30
0
41
1
10
9.14372986087088
20
-0.324980947161691
30
0
41
1
10
9.15494813398635
20
-0.324297936900479
30
0
41
1
10
9.17785494090344
20
-0.321962244275824
30
0
41
1
10
9.18954659679835
20
-0.320303380455783
30
0
41
1
10
9.21076109640276
20
-0.316636421097058
30
0
41
1
10
9.22017461115391
20
-0.314783892318161
30
0
41
1
10
9.22960792761003
20
-0.312734493645962
30
0
0
SPLINE
5
256
100
AcDbEntity
8
1
62
256
6
ByLayer
370
18
48
1
60
0
100
AcDbSpline
70
4
71
3
72
40
73
36
40
0
40
0
40
0
40
0
40
0.0624999999999973
40
0.0624999999999973
40
0.0937499999999974
40
0.0937499999999974
40
0.124999999999998
40
0.124999999999998
40
0.187499999999999
40
0.187499999999999
40
0.250000000000001
40
0.250000000000001
40
0.312500000000003
40
0.312500000000003
40
0.375000000000004
40
0.375000000000004
40
0.437500000000006
40
0.437500000000006
40
0.500000000000007
40
0.500000000000007
40
0.625000000000011
40
0.625000000000011
40
0.687500000000009
40
0.687500000000009
40
0.750000000000008
40
0.750000000000008
40
0.812500000000007
40
0.812500000000007
40
0.875000000000005
40
0.875000000000005
40
0.906250000000003
40
0.906250000000003
40
0.9375
40
0.9375
40
1
40
1
40
1
40
1
41
1
10
13.1814799251733
20
9.07776395172382
30
0
41
1
10
13.1655689216362
20
9.06947517434944
30
0
41
1
10
13.1512061089554
20
9.05891030987644
30
0
41
1
10
13.1312434390792
20
9.04075795535292
30
0
41
1
10
13.1248656102241
20
9.03430925926702
30
0
41
1
10
13.1127629045413
20
9.02091111947334
30
0
41
1
10
13.1070114277007
20
9.01393769701733
30
0
41
1
10
13.0905492363477
20
8.99229584498752
30
0
41
1
10
13.0807374298729
20
8.97706531286423
30
0
41
1
10
13.0630536686756
20
8.94540074023681
30
0
41
1
10
13.0552146981014
20
8.92900442766404
30
0
41
1
10
13.0414061261868
20
8.89551445491568
30
0
41
1
10
13.0354031751567
20
8.87832676164876
30
0
41
1
10
13.0251909745706
20
8.84354050704087
30
0
41
1
10
13.0209716303144
20
8.82592899364874
30
0
41
1
10
13.0142179161181
20
8.79029177601495
30
0
41
1
10
13.0116917398258
20
8.7722754610418
30
0
41
1
10
13.0083370810769
20
8.73620084791781
30
0
41
1
10
13.0074992474401
20
8.71809653824522
30
0
41
1
10
13.0075060766009
20
8.66358614703677
30
0
41
1
10
13.0108328877745
20
8.62757315209228
30
0
41
1
10
13.0209731175315
20
8.57406155828758
30
0
41
1
10
13.0252055621192
20
8.55640520873541
30
0
41
1
10
13.0354102484195
20
8.52165374819188
30
0
41
1
10
13.0414032115821
20
8.50448946364662
30
0
41
1
10
13.0552424296488
20
8.47093147081944
30
0
41
1
10
13.0630917821402
20
8.45452391928242
30
0
41
1
10
13.0807788943602
20
8.42286756719722
30
0
41
1
10
13.0906339974846
20
8.40758359114099
30
0
41
1
10
13.1070649978692
20
8.38599648438438
30
0
41
1
10
13.1128106253653
20
8.37903276600298
30
0
41
1
10
13.12491618326
20
8.3656380671334
30
0
41
1
10
13.1312978463261
20
8.35918998491024
30
0
41
1
10
13.151217644376
20
8.3410843971302
30
0
41
1
10
13.1655611357973
20
8.330528881654
30
0
41
1
10
13.1814799251734
20
8.32223604827618
30
0
0
SPLINE
5
257
100
AcDbEntity
8
1
62
256
6
ByLayer
370
18
48
1
60
0
100
AcDbSpline
70
4
71
3
72
8
73
4
40
0
40
0
40
0
40
0
40
1
40
1
40
1
40
1
41
1
10
13.1814799251733
20
8.32223604827618
30
0
41
1
10
13.1881225509026
20
8.31877559741756
30
0
41
1
10
13.1947657720017
20
8.31531560569857
30
0
41
1
10
13.2014095643229
20
8.31185605589161
30
0
0
SPLINE
5
258
100
AcDbEntity
8
1
62
256
6
ByLayer
370
18
48
1
60
0
100
AcDbSpline
70
4
71
3
72
8
73
4
40
0
40
0
40
0
40
0
40
1
40
1
40
1
40
1
41
1
10
13.2014095643229
20
9.0881439441084
30
0
41
1
10
13.1947657720017
20
9.08468439430143
30
0
41
1
10
13.1881225509026
20
9.08122440258242
30
0
41
1
10
13.1814799251734
20
9.07776395172382
30
0
0
SPLINE
5
259
100
AcDbEntity
8
1
62
256
6
ByLayer
370
18
48
1
60
0
100
AcDbSpline
70
4
71
3
72
31
73
27
40
0
40
0
40
0
40
0
40
0.249999999999989
40
0.249999999999989
40
0.374999999999983
40
0.374999999999983
40
0.499999999999977
40
0.499999999999977
40
0.56249999999998
40
0.56249999999998
40
0.624999999999983
40
0.624999999999983
40
0.687499999999986
40
0.687499999999986
40
0.749999999999988
40
0.749999999999988
40
0.781249999999988
40
0.781249999999988
40
0.812499999999987
40
0.843749999999986
40
0.843749999999986
40
0.874999999999985
40
0.874999999999985
40
0.937499999999993
40
0.937499999999993
40
1
40
1
40
1
40
1
41
1
10
13.2793274556009
20
7.86180000000002
30
0
41
1
10
13.2949632254846
20
7.90009965795059
30
0
41
1
10
13.3077284634638
20
7.94035588204659
30
0
41
1
10
13.3213311329392
20
8.0026692479282
30
0
41
1
10
13.3249360935448
20
8.02379793607528
30
0
41
1
10
13.3297986644483
20
8.06656383919685
30
0
41
1
10
13.3310669241193
20
8.08822424964254
30
0
41
1
10
13.3305732965744
20
8.1208882115489
30
0
41
1
10
13.330004142126
20
8.13182611659118
30
0
41
1
10
13.3278928634691
20
8.15362211061418
30
0
41
1
10
13.326342131389
20
8.16454890137581
30
0
41
1
10
13.3220670886983
20
8.18608204522889
30
0
41
1
10
13.3193544732996
20
8.19666343314151
30
0
41
1
10
13.3125037363481
20
8.21736455622923
30
0
41
1
10
13.3083705741686
20
8.22748592248533
30
0
41
1
10
13.3007505588838
20
8.24220569022401
30
0
41
1
10
13.297950095956
20
8.24706611457842
30
0
41
1
10
13.2919013176561
20
8.25641294074742
30
0
41
1
10
13.2854159619592
20
8.26538402763541
30
0
41
1
10
13.2779800608967
20
8.27353822326373
30
0
41
1
10
13.2700176728163
20
8.28124052672985
30
0
41
1
10
13.2657646025325
20
8.28486305407267
30
0
41
1
10
13.2525698781779
20
8.29467914512148
30
0
41
1
10
13.2430759279811
20
8.29995261023117
30
0
41
1
10
13.2226801131635
20
8.30794353313283
30
0
41
1
10
13.2121578445211
20
8.31051266806361
30
0
41
1
10
13.2014095643229
20
8.31185605589161
30
0
0
SPLINE
5
25A
100
AcDbEntity
8
1
62
256
6
ByLayer
370
18
48
1
60
0
100
AcDbSpline
70
4
71
3
72
32
73
28
40
0
40
0
40
0
40
0
40
0.125000000000011
40
0.125000000000011
40
0.250000000000022
40
0.250000000000022
40
0.375000000000033
40
0.375000000000033
40
0.500000000000044
40
0.500000000000044
40
0.562500000000044
40
0.562500000000044
40
0.625000000000044
40
0.625000000000044
40
0.687500000000044
40
0.687500000000044
40
0.750000000000044
40
0.750000000000044
40
0.812500000000044
40
0.812500000000044
40
0.843750000000037
40
0.843750000000037
40
0.87500000000003
40
0.87500000000003
40
0.937500000000015
40
0.937500000000015
40
1
40
1
40
1
40
1
41
1
10
13.2793274556009
20
9.53820000000002
30
0
41
1
10
13.2871507510879
20
9.51903691794976
30
0
41
1
10
13.2942177190287
20
9.49944603427079
30
0
41
1
10
13.3067721314962
20
9.45937832340331
30
0
41
1
10
13.3122528649034
20
9.43891517171696
30
0
41
1
10
13.3213327403066
20
9.39732620346453
30
0
41
1
10
13.3249373299446
20
9.37620222244112
30
0
41
1
10
13.3298049590374
20
9.33336975079334
30
0
41
1
10
13.3310709161797
20
9.31173026636716
30
0
41
1
10
13.3305691456354
20
9.27899294388163
30
0
41
1
10
13.3299982630446
20
9.26808944188298
30
0
41
1
10
13.327883840464
20
9.24630865588352
30
0
41
1
10
13.3263335993659
20
9.23539003295451
30
0
41
1
10
13.3220382670697
20
9.21379103036682
30
0
41
1
10
13.3193085989001
20
9.20316054405129
30
0
41
1
10
13.3123889122619
20
9.18232675805532
30
0
41
1
10
13.3081877564552
20
9.1720897037238
30
0
41
1
10
13.2978835701196
20
9.15233091984973
30
0
41
1
10
13.2918990204259
20
9.14303141886148
30
0
41
1
10
13.2813679187498
20
9.13016290724721
30
0
41
1
10
13.2775827897793
20
9.12604830727886
30
0
41
1
10
13.2696489408537
20
9.11843492487995
30
0
41
1
10
13.26547915104
20
9.11490708021717
30
0
41
1
10
13.2523404534926
20
9.10518684134391
30
0
41
1
10
13.242582501541
20
9.09982136881649
30
0
41
1
10
13.2225103112206
20
9.09202373945706
30
0
41
1
10
13.2121178899725
20
9.08948233816503
30
0
41
1
10
13.2014095643229
20
9.0881439441084
30
0
0
SPLINE
5
25B
100
AcDbEntity
8
1
62
256
6
ByLayer
370
18
48
1
60
0
100
AcDbSpline
70
4
71
3
72
42
73
38
40
0
40
0
40
0
40
0
40
0.0624999999999968
40
0.0624999999999968
40
0.0937499999999957
40
0.0937499999999957
40
0.124999999999995
40
0.124999999999995
40
0.187499999999995
40
0.187499999999995
40
0.249999999999995
40
0.249999999999995
40
0.312499999999996
40
0.312499999999996
40
0.374999999999996
40
0.374999999999996
40
0.437499999999996
40
0.437499999999996
40
0.499999999999997
40
0.499999999999997
40
0.562499999999997
40
0.562499999999997
40
0.624999999999997
40
0.624999999999997
40
0.749999999999993
40
0.749999999999993
40
0.781249999999994
40
0.781249999999994
40
0.812499999999994
40
0.812499999999994
40
0.874999999999996
40
0.874999999999996
40
0.906249999999997
40
0.906249999999997
40
0.937499999999997
40
0.937499999999997
40
1
40
1
40
1
40
1
41
1
10
12.4451643447532
20
7.27416649003328
30
0
41
1
10
12.4391510936766
20
7.29015346833256
30
0
41
1
10
12.435513935252
20
7.30588021643493
30
0
41
1
10
12.4324924527132
20
7.32924341314495
30
0
41
1
10
12.4319078383071
20
7.33698880696562
30
0
41
1
10
12.431483228958
20
7.35220019898392
30
0
41
1
10
12.4316390894358
20
7.35969722605049
30
0
41
1
10
12.4330838282747
20
7.38191541940887
30
0
41
1
10
12.4353291336561
20
7.39621024246554
30
0
41
1
10
12.4419092189158
20
7.42395469028818
30
0
41
1
10
12.4462439483244
20
7.43736020383972
30
0
41
1
10
12.4566756053154
20
7.46320348535457
30
0
41
1
10
12.4628055247067
20
7.47570924309244
30
0
41
1
10
12.4766199156639
20
7.49971682591098
30
0
41
1
10
12.4843053575839
20
7.51123256137441
30
0
41
1
10
12.5011706214044
20
7.53337435729873
30
0
41
1
10
12.5103497059694
20
7.54398916190598
30
0
41
1
10
12.5299930312222
20
7.56415851312985
30
0
41
1
10
12.540479765083
20
7.57374287563772
30
0
41
1
10
12.5627788632306
20
7.59191025941007
30
0
41
1
10
12.5745141825289
20
7.60043079772387
30
0
41
1
10
12.5991540093307
20
7.61633658131643
30
0
41
1
10
12.6121085975247
20
7.62374448630351
30
0
41
1
10
12.6522846315251
20
7.6439117406791
30
0
41
1
10
12.6808305993899
20
7.65473246720796
30
0
41
1
10
12.7189102877437
20
7.66427541839809
30
0
41
1
10
12.7266484021864
20
7.66597995439969
30
0
41
1
10
12.7423860182762
20
7.66893760315963
30
0
41
1
10
12.7504025895392
20
7.67019146596044
30
0
41
1
10
12.7745629672498
20
7.67315347691411
30
0
41
1
10
12.7909009017472
20
7.67409582623884
30
0
41
1
10
12.8157925462116
20
7.67356579525674
30
0
41
1
10
12.8241543377089
20
7.67306250742223
30
0
41
1
10
12.841022622999
20
7.67128122360512
30
0
41
1
10
12.8495663105329
20
7.66999324276358
30
0
41
1
10
12.8749136946065
20
7.66481297157344
30
0
41
1
10
12.8915680502723
20
7.65966083557382
30
0
41
1
10
12.9078288072236
20
7.65193044175709
30
0
0
SPLINE
5
25C
100
AcDbEntity
8
1
62
256
6
ByLayer
370
18
48
1
60
0
100
AcDbSpline
70
4
71
3
72
8
73
4
40
0
40
0
40
0
40
0
40
1
40
1
40
1
40
1
41
1
10
12.4526914039474
20
7.25416649003327
30
0
41
1
10
12.4501812700626
20
7.26083229416642
30
0
41
1
10
12.4476722354205
20
7.26749894976851
30
0
41
1
10
12.4451643447532
20
7.27416649003328
30
0
0
SPLINE
5
25D
100
AcDbEntity
8
1
62
256
6
ByLayer
370
18
48
1
60
0
100
AcDbSpline
70
4
71
3
72
32
73
28
40
0
40
0
40
0
40
0
40
0.12500000000001
40
0.12500000000001
40
0.25000000000002
40
0.25000000000002
40
0.375000000000029
40
0.375000000000029
40
0.500000000000039
40
0.500000000000039
40
0.56250000000004
40
0.56250000000004
40
0.62500000000004
40
0.62500000000004
40
0.68750000000004
40
0.68750000000004
40
0.75000000000004
40
0.75000000000004
40
0.812500000000041
40
0.812500000000041
40
0.843750000000034
40
0.843750000000034
40
0.875000000000028
40
0.875000000000028
40
0.937500000000014
40
0.937500000000014
40
1
40
1
40
1
40
1
41
1
10
13.2793274556009
20
7.86180000000002
30
0
41
1
10
13.2715041601139
20
7.84263691794976
30
0
41
1
10
13.2629451097251
20
7.82395203000985
30
0
41
1
10
13.2442902120681
20
7.78757285584808
30
0
41
1
10
13.2341993788884
20
7.76989361490078
30
0
41
1
10
13.2124280452155
20
7.73591286296889
30
0
41
1
10
13.200752367744
20
7.71960798644056
30
0
41
1
10
13.1755505654937
20
7.68878569444209
30
0
41
1
10
13.162072369308
20
7.67430952652504
30
0
41
1
10
13.1401332644805
20
7.65453631857145
30
0
41
1
10
13.1325673403637
20
7.64830553810197
30
0
41
1
10
13.1168213639123
20
7.63669597271647
30
0
41
1
10
13.1086097280656
20
7.63129757753629
30
0
41
1
10
13.0915585182166
20
7.62165118889817
30
0
41
1
10
13.0827619695949
20
7.61742091377573
30
0
41
1
10
13.0644797319652
20
7.61042224766595
30
0
41
1
10
13.0549645681589
20
7.60764269390958
30
0
41
1
10
13.0351277489339
20
7.60405139129924
30
0
41
1
10
13.0250308616113
20
7.60327776344684
30
0
41
1
10
13.0095404125917
20
7.60399840461207
30
0
41
1
10
13.0043053757414
20
7.60456147010106
30
0
41
1
10
12.9939894458528
20
7.60633996961451
30
0
41
1
10
12.9888754013456
20
7.60755487209107
30
0
41
1
10
12.973666474633
20
7.61220410585889
30
0
41
1
10
12.9635726977454
20
7.61674697865024
30
0
41
1
10
12.944903659244
20
7.62798161399775
30
0
41
1
10
12.9362046655439
20
7.63467104869906
30
0
41
1
10
12.9280687088559
20
7.64231043414168
30
0
0
SPLINE
5
25E
100
AcDbEntity
8
1
62
256
6
ByLayer
370
18
48
1
60
0
100
AcDbSpline
70
4
71
3
72
8
73
4
40
0
40
0
40
0
40
0
40
1
40
1
40
1
40
1
41
1
10
12.9280687088559
20
7.64231043414168
30
0
41
1
10
12.9213215090877
20
7.64551668846786
30
0
41
1
10
12.9145748673327
20
7.64872335235091
30
0
41
1
10
12.9078288072236
20
7.65193044175709
30
0
0
SPLINE
5
25F
100
AcDbEntity
8
1
62
256
6
ByLayer
370
18
48
1
60
0
100
AcDbSpline
70
4
71
3
72
40
73
36
40
0
40
0
40
0
40
0
40
0.0625000000000063
40
0.0625000000000063
40
0.0937500000000067
40
0.0937500000000067
40
0.125000000000007
40
0.125000000000007
40
0.187500000000009
40
0.187500000000009
40
0.250000000000011
40
0.250000000000011
40
0.312500000000013
40
0.312500000000013
40
0.375000000000015
40
0.375000000000015
40
0.437500000000016
40
0.437500000000016
40
0.500000000000019
40
0.500000000000019
40
0.62500000000002
40
0.62500000000002
40
0.687500000000016
40
0.687500000000016
40
0.750000000000013
40
0.750000000000013
40
0.812500000000009
40
0.812500000000009
40
0.875000000000006
40
0.875000000000006
40
0.906250000000003
40
0.906250000000003
40
0.9375
40
0.9375
40
1
40
1
40
1
40
1
41
1
10
12.4451643447532
20
10.1258335099667
30
0
41
1
10
12.439157223638
20
10.1098628289349
30
0
41
1
10
12.4355214749111
20
10.0941518602827
30
0
41
1
10
12.4324979311312
20
10.0708119991814
30
0
41
1
10
12.4319118411192
20
10.0630738903782
30
0
41
1
10
12.4314831425645
20
10.0478766694545
30
0
41
1
10
12.4316363729927
20
10.0403865720216
30
0
41
1
10
12.433071636798
20
10.0181887912193
30
0
41
1
10
12.4353088231673
20
10.0039054389601
30
0
41
1
10
12.4418692188381
20
9.97618419801671
30
0
41
1
10
12.4461928282921
20
9.96278839556447
30
0
41
1
10
12.4565992055296
20
9.93696409874289
30
0
41
1
10
12.4627149731812
20
9.92446711490325
30
0
41
1
10
12.4764993514131
20
9.90047399583455
30
0
41
1
10
12.4841684784623
20
9.88896482070663
30
0
41
1
10
12.5009982022373
20
9.86683464893039
30
0
41
1
10
12.5101590534949
20
9.8562237097961
30
0
41
1
10
12.5297633709151
20
9.83606054628919
30
0
41
1
10
12.5402280726395
20
9.82647941152706
30
0
41
1
10
12.5736138004118
20
9.79922853296122
30
0
41
1
10
12.5981397947302
20
9.78331434623706
30
0
41
1
10
12.6384062544193
20
9.76303204883459
30
0
41
1
10
12.6523438461239
20
9.75691574007155
30
0
41
1
10
12.681136888156
20
9.74613521391487
30
0
41
1
10
12.6960500214945
20
9.74144963311051
30
0
41
1
10
12.7267243462889
20
9.73377020468951
30
0
41
1
10
12.7424963961095
20
9.73077119038351
30
0
41
1
10
12.7747142396001
20
9.72683466526595
30
0
41
1
10
12.7911943328037
20
9.72589079607721
30
0
41
1
10
12.8162086271313
20
9.72645321236141
30
0
41
1
10
12.8245858723472
20
9.72697081013098
30
0
41
1
10
12.841423645034
20
9.72877399740673
30
0
41
1
10
12.8499099764397
20
9.73006671611998
30
0
41
1
10
12.8751063063128
20
9.73524749332171
30
0
41
1
10
12.8916621414544
20
9.74038389554755
30
0
41
1
10
12.9078288072236
20
9.74806955824292
30
0
0
SPLINE
5
260
100
AcDbEntity
8
1
62
256
6
ByLayer
370
18
48
1
60
0
100
AcDbSpline
70
4
71
3
72
8
73
4
40
0
40
0
40
0
40
0
40
1
40
1
40
1
40
1
41
1
10
12.9078288072236
20
9.74806955824292
30
0
41
1
10
12.9145748673327
20
9.75127664764906
30
0
41
1
10
12.9213215090877
20
9.75448331153214
30
0
41
1
10
12.9280687088559
20
9.75768956585833
30
0
0
SPLINE
5
261
100
AcDbEntity
8
1
62
256
6
ByLayer
370
18
48
1
60
0
100
AcDbSpline
70
4
71
3
72
31
73
27
40
0
40
0
40
0
40
0
40
0.25
40
0.25
40
0.374999999999997
40
0.374999999999997
40
0.499999999999993
40
0.499999999999993
40
0.562499999999991
40
0.562499999999991
40
0.624999999999989
40
0.624999999999989
40
0.687499999999987
40
0.687499999999987
40
0.749999999999985
40
0.749999999999985
40
0.781249999999987
40
0.781249999999987
40
0.81249999999999
40
0.843749999999992
40
0.843749999999992
40
0.874999999999995
40
0.874999999999995
40
0.937499999999998
40
0.937499999999998
40
1
40
1
40
1
40
1
41
1
10
13.2793274556009
20
9.53820000000002
30
0
41
1
10
13.2636916857172
20
9.57649965795059
30
0
41
1
10
13.2450514910871
20
9.6131707188986
30
0
41
1
10
13.2124300492649
20
9.66408283951012
30
0
41
1
10
13.2007514888775
20
9.68039097926891
30
0
41
1
10
13.1755904242482
20
9.71116766342595
30
0
41
1
10
13.1620998428256
20
9.72565888285456
30
0
41
1
10
13.1402144030136
20
9.7453939456758
30
0
41
1
10
13.1326268801988
20
9.75164746195807
30
0
41
1
10
13.1168729097366
20
9.76326910157607
30
0
41
1
10
13.1086555625267
20
9.76867211619398
30
0
41
1
10
13.091661070817
20
9.77829513224688
30
0
41
1
10
13.0829080723461
20
9.7825096007121
30
0
41
1
10
13.0647587810481
20
9.78948417060431
30
0
41
1
10
13.055364815057
20
9.79224908932366
30
0
41
1
10
13.0406246721757
20
9.79497000109984
30
0
41
1
10
13.0355669303756
20
9.79563875818982
30
0
41
1
10
13.0253943469232
20
9.79639315044315
30
0
41
1
10
13.0151733473621
20
9.79657248488309
30
0
41
1
10
13.0048428790218
20
9.79550850211146
30
0
41
1
10
12.9944498530988
20
9.79376002110928
30
0
41
1
10
12.9892179464952
20
9.79253514329164
30
0
41
1
10
12.9739088864815
20
9.78789809575252
30
0
41
1
10
12.9640538317476
20
9.78350915250269
30
0
41
1
10
12.9450401003566
20
9.77213283042386
30
0
41
1
10
12.936235022155
20
9.76535745512192
30
0
41
1
10
12.9280687088559
20
9.75768956585833
30
0
0
SPLINE
5
262
100
AcDbEntity
8
1
62
256
6
ByLayer
370
18
48
1
60
0
100
AcDbSpline
70
4
71
3
72
8
73
4
40
0
40
0
40
0
40
0
40
1
40
1
40
1
40
1
41
1
10
12.4526914039474
20
10.1458335099667
30
0
41
1
10
12.4501812700626
20
10.1391677058336
30
0
41
1
10
12.4476722354205
20
10.1325010502315
30
0
41
1
10
12.4451643447532
20
10.1258335099667
30
0
0
SPLINE
5
263
100
AcDbEntity
8
1
62
256
6
ByLayer
370
18
48
1
60
0
100
AcDbSpline
70
4
71
3
72
32
73
28
40
0
40
0
40
0
40
0
40
0.124999999999997
40
0.124999999999997
40
0.249999999999994
40
0.249999999999994
40
0.374999999999991
40
0.374999999999991
40
0.499999999999988
40
0.499999999999988
40
0.56249999999999
40
0.56249999999999
40
0.624999999999992
40
0.624999999999992
40
0.687499999999994
40
0.687499999999994
40
0.749999999999996
40
0.749999999999996
40
0.812499999999998
40
0.812499999999998
40
0.843749999999999
40
0.843749999999999
40
0.874999999999999
40
0.874999999999999
40
0.937499999999999
40
0.937499999999999
40
1
40
1
40
1
40
1
41
1
10
12.2527463044005
20
7.02359999999999
30
0
41
1
10
12.2683928953746
20
7.02359999999999
30
0
41
1
10
12.2838276792976
20
7.02450599573908
30
0
41
1
10
12.3142455050339
20
7.02819453244476
30
0
41
1
10
12.3292168119346
20
7.03097844318384
30
0
41
1
10
12.3583813538354
20
7.03858665950438
30
0
41
1
10
12.3725771637856
20
7.04340576399943
30
0
41
1
10
12.399834211515
20
7.05541594364874
30
0
41
1
10
12.4128588628997
20
7.06257926015786
30
0
41
1
10
12.4310146258895
20
7.0755433746898
30
0
41
1
10
12.4368027099258
20
7.08021609621898
30
0
41
1
10
12.4477326394221
20
7.09038731683296
30
0
41
1
10
12.4528935310104
20
7.09590754458176
30
0
41
1
10
12.4622955888078
20
7.10786015853134
30
0
41
1
10
12.4665186737815
20
7.11426036972446
30
0
41
1
10
12.4737525087019
20
7.12809548961062
30
0
41
1
10
12.4767751246864
20
7.1355529901858
30
0
41
1
10
12.4811377746761
20
7.15172047144949
30
0
41
1
10
12.4824304034954
20
7.16024634458537
30
0
41
1
10
12.4827005980777
20
7.17383549736485
30
0
41
1
10
12.4825048964365
20
7.17851316282218
30
0
41
1
10
12.481513417595
20
7.18790504473455
30
0
41
1
10
12.4807200827455
20
7.1926477918739
30
0
41
1
10
12.4774159687417
20
7.20701726451497
30
0
41
1
10
12.4738935268147
20
7.21692560983374
30
0
41
1
10
12.4647745948802
20
7.2359578745407
30
0
41
1
10
12.4591881693787
20
7.24518871053405
30
0
41
1
10
12.4526914039474
20
7.25416649003327
30
0
0
SPLINE
5
264
100
AcDbEntity
8
1
62
256
6
ByLayer
370
18
48
1
60
0
100
AcDbSpline
70
4
71
3
72
32
73
28
40
0
40
0
40
0
40
0
40
0.125000000000003
40
0.125000000000003
40
0.250000000000007
40
0.250000000000007
40
0.37500000000001
40
0.37500000000001
40
0.500000000000014
40
0.500000000000014
40
0.562500000000012
40
0.562500000000012
40
0.625000000000011
40
0.625000000000011
40
0.68750000000001
40
0.68750000000001
40
0.750000000000009
40
0.750000000000009
40
0.812500000000008
40
0.812500000000008
40
0.843750000000004
40
0.843750000000004
40
0.875000000000001
40
0.875000000000001
40
0.9375
40
0.9375
40
1
40
1
40
1
40
1
41
1
10
12.2527463044005
20
10.3764
30
0
41
1
10
12.2683928953746
20
10.3764
30
0
41
1
10
12.2838276792976
20
10.3754940042609
30
0
41
1
10
12.3142455050339
20
10.3718054675552
30
0
41
1
10
12.3292168119346
20
10.3690215568162
30
0
41
1
10
12.3583813538354
20
10.3614133404956
30
0
41
1
10
12.3725771637856
20
10.3565942360006
30
0
41
1
10
12.399834211515
20
10.3445840563513
30
0
41
1
10
12.4128588628997
20
10.3374207398421
30
0
41
1
10
12.4310146258895
20
10.3244566253102
30
0
41
1
10
12.4368027099258
20
10.319783903781
30
0
41
1
10
12.4477326394221
20
10.309612683167
30
0
41
1
10
12.4528935310104
20
10.3040924554182
30
0
41
1
10
12.4622955888078
20
10.2921398414687
30
0
41
1
10
12.4665186737815
20
10.2857396302756
30
0
41
1
10
12.4737525087019
20
10.2719045103894
30
0
41
1
10
12.4767751246864
20
10.2644470098142
30
0
41
1
10
12.4811377746761
20
10.2482795285505
30
0
41
1
10
12.4824304034954
20
10.2397536554146
30
0
41
1
10
12.4827005980777
20
10.2261645026352
30
0
41
1
10
12.4825048964365
20
10.2214868371778
30
0
41
1
10
12.481513417595
20
10.2120949552654
30
0
41
1
10
12.4807200827456
20
10.2073522081261
30
0
41
1
10
12.4774159687417
20
10.192982735485
30
0
41
1
10
12.4738935268147
20
10.1830743901662
30
0
41
1
10
12.4647745948802
20
10.1640421254593
30
0
41
1
10
12.4591881693787
20
10.154811289466
30
0
41
1
10
12.4526914039474
20
10.1458335099667
30
0
0
SPLINE
5
265
100
AcDbEntity
8
1
62
256
6
ByLayer
370
18
48
1
60
0
100
AcDbSpline
70
4
71
3
72
40
73
36
40
0
40
0
40
0
40
0
40
0.0625000000000016
40
0.0625000000000016
40
0.0937500000000014
40
0.0937500000000014
40
0.125000000000001
40
0.125000000000001
40
0.187500000000001
40
0.187500000000001
40
0.250000000000001
40
0.250000000000001
40
0.312500000000001
40
0.312500000000001
40
0.375
40
0.375
40
0.4375
40
0.4375
40
0.5
40
0.5
40
0.624999999999999
40
0.624999999999999
40
0.687499999999999
40
0.687499999999999
40
0.749999999999999
40
0.749999999999999
40
0.812499999999999
40
0.812499999999999
40
0.874999999999998
40
0.874999999999998
40
0.906249999999998
40
0.906249999999998
40
0.937499999999998
40
0.937499999999998
40
1
40
1
40
1
40
1
41
1
10
11.4351976463833
20
9.74806955824292
30
0
41
1
10
11.4388466525326
20
9.74038765458542
30
0
41
1
10
11.4437257681332
20
9.73524155040624
30
0
41
1
10
11.4523484734397
20
9.73005404382849
30
0
41
1
10
11.4554478536556
20
9.7287646311112
30
0
41
1
10
11.4619578663585
20
9.72696554998117
30
0
41
1
10
11.4653798479351
20
9.72644887500428
30
0
41
1
10
11.476104274776
20
9.72589294623177
30
0
41
1
10
11.4837859307269
20
9.72684012609591
30
0
41
1
10
11.5000536172037
20
9.73078345777989
30
0
41
1
10
11.508621086981
20
9.73378396790045
30
0
41
1
10
11.526440690156
20
9.7414496438272
30
0
41
1
10
11.5357433559913
20
9.74614035325448
30
0
41
1
10
11.5549166049333
20
9.75693348879366
30
0
41
1
10
11.5647930638889
20
9.76303582705788
30
0
41
1
10
11.5851431640786
20
9.77654287291546
30
0
41
1
10
11.5956126810717
20
9.78394824875429
30
0
41
1
10
11.6169527534189
20
9.79985969837139
30
0
41
1
10
11.6278493654442
20
9.80838287328183
30
0
41
1
10
11.6612315683693
20
9.83564238592447
30
0
41
1
10
11.6840491981157
20
9.8557411941448
30
0
41
1
10
11.7190300675965
20
9.888970490547
30
0
41
1
10
11.7307534299735
20
9.90051053133612
30
0
41
1
10
11.7541615103951
20
9.92448146572298
30
0
41
1
10
11.7658931146174
20
9.93696016946387
30
0
41
1
10
11.7891376732579
20
9.96283873387009
30
0
41
1
10
11.8006600531398
20
9.97624727110107
30
0
41
1
10
11.8231684043086
20
10.0039670980687
30
0
41
1
10
11.8341795063812
20
10.0183072049362
30
0
41
1
10
11.8499216903062
20
10.040456727977
30
0
41
1
10
11.8550333925885
20
10.047938044128
30
0
41
1
10
11.864930506115
20
10.0631359302734
30
0
41
1
10
11.869728918567
20
10.0708767312098
30
0
41
1
10
11.8833035863092
20
10.0941630961915
30
0
41
1
10
11.891356295447
20
10.1098550138936
30
0
41
1
10
11.8978621088537
20
10.1258335099667
30
0
0
SPLINE
5
266
100
AcDbEntity
8
1
62
256
6
ByLayer
370
18
48
1
60
0
100
AcDbSpline
70
4
71
3
72
8
73
4
40
0
40
0
40
0
40
0
40
1
40
1
40
1
40
1
41
1
10
11.8978621088537
20
10.1258335099667
30
0
41
1
10
11.9005768682807
20
10.1325010502315
30
0
41
1
10
11.9032927442346
20
10.1391677058336
30
0
41
1
10
11.9060096930135
20
10.1458335099667
30
0
0
SPLINE
5
267
100
AcDbEntity
8
1
62
256
6
ByLayer
370
18
48
1
60
0
100
AcDbSpline
70
4
71
3
72
31
73
27
40
0
40
0
40
0
40
0
40
0.249999999999996
40
0.249999999999996
40
0.374999999999994
40
0.374999999999994
40
0.499999999999991
40
0.499999999999991
40
0.56249999999999
40
0.56249999999999
40
0.624999999999989
40
0.624999999999989
40
0.687499999999987
40
0.687499999999987
40
0.749999999999986
40
0.749999999999986
40
0.781249999999987
40
0.781249999999987
40
0.812499999999987
40
0.843749999999988
40
0.843749999999988
40
0.874999999999988
40
0.874999999999988
40
0.937499999999994
40
0.937499999999994
40
1
40
1
40
1
40
1
41
1
10
12.2527463044005
20
10.3764
30
0
41
1
10
12.2214747646331
20
10.3764
30
0
41
1
10
12.1893273087877
20
10.372814836852
30
0
41
1
10
12.1405756196526
20
10.3614135915819
30
0
41
1
10
12.1242072697267
20
10.3565930431936
30
0
41
1
10
12.0913762545503
20
10.3446038242291
30
0
41
1
10
12.074896467546
20
10.337434633212
30
0
41
1
10
12.0502324230241
20
10.3245057341269
30
0
41
1
10
12.0420043065809
20
10.3198213453669
30
0
41
1
10
12.0256594844046
20
10.3096469909619
30
0
41
1
10
12.0174914378812
20
10.3041232148182
30
0
41
1
10
12.0014306556324
20
10.292213087018
30
0
41
1
10
11.9935563915953
20
10.2858461675706
30
0
41
1
10
11.9781635859381
20
10.2721196143751
30
0
41
1
10
11.9706441037373
20
10.2647631668383
30
0
41
1
10
11.9596916657092
20
10.2527643108758
30
0
41
1
10
11.9560721459652
20
10.2485726436114
30
0
41
1
10
11.949099429622
20
10.2399802096957
30
0
41
1
10
11.9423945191839
20
10.2311883943835
30
0
41
1
10
11.9362616413698
20
10.2219702788477
30
0
41
1
10
11.9304406964296
20
10.2125194943794
30
0
41
1
10
11.927687788971
20
10.207672089219
30
0
41
1
10
11.9201722648083
20
10.1932189506311
30
0
41
1
10
11.9160536503476
20
10.1835565422715
30
0
41
1
10
11.9095909276513
20
10.164189297291
30
0
41
1
10
11.9073667651618
20
10.1548447870583
30
0
41
1
10
11.9060096930135
20
10.1458335099667
30
0
0
SPLINE
5
268
100
AcDbEntity
8
1
62
256
6
ByLayer
370
18
48
1
60
0
100
AcDbSpline
70
4
71
3
72
8
73
4
40
0
40
0
40
0
40
0
40
1
40
1
40
1
40
1
41
1
10
11.430632388105
20
9.75768956585833
30
0
41
1
10
11.4321525052096
20
9.75448331153214
30
0
41
1
10
11.4336742363685
20
9.75127664764906
30
0
41
1
10
11.4351976463833
20
9.74806955824292
30
0
0
SPLINE
5
269
100
AcDbEntity
8
1
62
256
6
ByLayer
370
18
48
1
60
0
100
AcDbSpline
70
4
71
3
72
8
73
4
40
0
40
0
40
0
40
0
40
1
40
1
40
1
40
1
41
1
10
11.4351976463833
20
7.65193044175709
30
0
41
1
10
11.4336742363685
20
7.64872335235091
30
0
41
1
10
11.4321525052096
20
7.64551668846786
30
0
41
1
10
11.430632388105
20
7.64231043414168
30
0
0
SPLINE
5
26A
100
AcDbEntity
8
1
62
256
6
ByLayer
370
18
48
1
60
0
100
AcDbSpline
70
4
71
3
72
31
73
27
40
0
40
0
40
0
40
0
40
0.250000000000002
40
0.250000000000002
40
0.375000000000003
40
0.375000000000003
40
0.500000000000003
40
0.500000000000003
40
0.562500000000007
40
0.562500000000007
40
0.625000000000011
40
0.625000000000011
40
0.687500000000015
40
0.687500000000015
40
0.750000000000019
40
0.750000000000019
40
0.781250000000018
40
0.781250000000018
40
0.812500000000017
40
0.843750000000015
40
0.843750000000015
40
0.875000000000014
40
0.875000000000014
40
0.937500000000007
40
0.937500000000007
40
1
40
1
40
1
40
1
41
1
10
12.2527463044005
20
7.02359999999999
30
0
41
1
10
12.2214747646331
20
7.02359999999999
30
0
41
1
10
12.1893273087877
20
7.02718516314798
30
0
41
1
10
12.1405756196526
20
7.03858640841807
30
0
41
1
10
12.1242072697266
20
7.04340695680639
30
0
41
1
10
12.0913762545503
20
7.05539617577091
30
0
41
1
10
12.074896467546
20
7.06256536678796
30
0
41
1
10
12.0502324230241
20
7.07549426587312
30
0
41
1
10
12.0420043065809
20
7.0801786546331
30
0
41
1
10
12.0256594844046
20
7.09035300903813
30
0
41
1
10
12.0174914378812
20
7.09587678518184
30
0
41
1
10
12.0014306556323
20
7.10778691298202
30
0
41
1
10
11.9935563915953
20
7.11415383242942
30
0
41
1
10
11.9781635859381
20
7.12788038562491
30
0
41
1
10
11.9706441037373
20
7.13523683316168
30
0
41
1
10
11.9596916657091
20
7.14723568912419
30
0
41
1
10
11.9560721459652
20
7.15142735638861
30
0
41
1
10
11.949099429622
20
7.16001979030432
30
0
41
1
10
11.9423945191839
20
7.16881160561653
30
0
41
1
10
11.9362616413698
20
7.17802972115229
30
0
41
1
10
11.9304406964296
20
7.18748050562061
30
0
41
1
10
11.9276877889709
20
7.19232791078107
30
0
41
1
10
11.9201722648083
20
7.20678104936897
30
0
41
1
10
11.9160536503476
20
7.21644345772853
30
0
41
1
10
11.9095909276513
20
7.23581070270902
30
0
41
1
10
11.9073667651618
20
7.24515521294168
30
0
41
1
10
11.9060096930135
20
7.25416649003327
30
0
0
SPLINE
5
26B
100
AcDbEntity
8
1
62
256
6
ByLayer
370
18
48
1
60
0
100
AcDbSpline
70
4
71
3
72
8
73
4
40
0
40
0
40
0
40
0
40
1
40
1
40
1
40
1
41
1
10
11.8978621088537
20
7.27416649003328
30
0
41
1
10
11.9005768682807
20
7.26749894976851
30
0
41
1
10
11.9032927442346
20
7.26083229416642
30
0
41
1
10
11.9060096930135
20
7.25416649003327
30
0
0
SPLINE
5
26C
100
AcDbEntity
8
1
62
256
6
ByLayer
370
18
48
1
60
0
100
AcDbSpline
70
4
71
3
72
40
73
36
40
0
40
0
40
0
40
0
40
0.0312499999999981
40
0.0312499999999981
40
0.0624999999999964
40
0.0624999999999964
40
0.124999999999992
40
0.124999999999992
40
0.156249999999991
40
0.156249999999991
40
0.187499999999991
40
0.187499999999991
40
0.249999999999989
40
0.249999999999989
40
0.312499999999987
40
0.312499999999987
40
0.374999999999985
40
0.374999999999985
40
0.499999999999988
40
0.499999999999988
40
0.624999999999991
40
0.624999999999991
40
0.687499999999992
40
0.687499999999992
40
0.749999999999993
40
0.749999999999993
40
0.812499999999993
40
0.812499999999993
40
0.874999999999994
40
0.874999999999994
40
0.906249999999995
40
0.906249999999995
40
0.937499999999996
40
0.937499999999996
40
1
40
1
40
1
40
1
41
1
10
11.4351976463833
20
7.65193044175709
30
0
41
1
10
11.4370302510232
20
7.65578844903635
30
0
41
1
10
11.4391899390229
20
7.65901191948859
30
0
41
1
10
11.4440544882874
20
7.66442589918535
30
0
41
1
10
11.4467591334868
20
7.6666054116755
30
0
41
1
10
11.4554183864487
20
7.67174670105436
30
0
41
1
10
11.4619597808673
20
7.67339507349433
30
0
41
1
10
11.4727057376913
20
7.67391988255278
30
0
41
1
10
11.4764504688724
20
7.67376044393075
30
0
41
1
10
11.4841286711882
20
7.67286368294495
30
0
41
1
10
11.4880756419528
20
7.67212760080835
30
0
41
1
10
11.5002235650654
20
7.66915962677325
30
0
41
1
10
11.5087297078411
20
7.66617447423718
30
0
41
1
10
11.5265339159773
20
7.65850502423785
30
0
41
1
10
11.5358793379258
20
7.65378751445536
30
0
41
1
10
11.5550149870798
20
7.64300665925035
30
0
41
1
10
11.564833566175
20
7.63693549435993
30
0
41
1
10
11.595055933615
20
7.61688126418071
30
0
41
1
10
11.6162242186566
20
7.60108787721779
30
0
41
1
10
11.6607593113405
20
7.56476498229944
30
0
41
1
10
11.6837686595371
20
7.54451388438164
30
0
41
1
10
11.7188038718169
20
7.51124999642894
30
0
41
1
10
11.7305363720545
20
7.49970627532718
30
0
41
1
10
11.7539716234267
20
7.47571836341507
30
0
41
1
10
11.7657167854658
20
7.46323067205805
30
0
41
1
10
11.7889907042102
20
7.43733028255937
30
0
41
1
10
11.8005275979021
20
7.42391034265987
30
0
41
1
10
11.8230660568436
20
7.39616439885151
30
0
41
1
10
11.8340918207564
20
7.38181075421286
30
0
41
1
10
11.8498560501041
20
7.35963830880908
30
0
41
1
10
11.8549748917284
20
7.35214919902515
30
0
41
1
10
11.8648857595431
20
7.33693534521538
30
0
41
1
10
11.8696910025593
20
7.32918603883434
30
0
41
1
10
11.8832850087118
20
7.30587329301974
30
0
41
1
10
11.8913487553011
20
7.29016350495789
30
0
41
1
10
11.8978621088537
20
7.27416649003328
30
0
0
SPLINE
5
26D
100
AcDbEntity
8
1
62
256
6
ByLayer
370
18
48
1
60
0
100
AcDbSpline
70
4
71
3
72
31
73
27
40
0
40
0
40
0
40
0
40
0.250000000000012
40
0.250000000000012
40
0.375000000000016
40
0.375000000000016
40
0.50000000000002
40
0.50000000000002
40
0.562500000000015
40
0.562500000000015
40
0.62500000000001
40
0.62500000000001
40
0.687500000000005
40
0.687500000000005
40
0.75
40
0.75
40
0.781250000000002
40
0.781250000000002
40
0.812500000000004
40
0.843750000000006
40
0.843750000000006
40
0.875000000000008
40
0.875000000000008
40
0.937500000000004
40
0.937500000000004
40
1
40
1
40
1
40
1
41
1
10
11.2261651532001
20
7.86179999999999
30
0
41
1
10
11.2418009230838
20
7.82350034204941
30
0
41
1
10
11.2589570712415
20
7.7868292811014
30
0
41
1
10
11.286523357389
20
7.73591716048986
30
0
41
1
10
11.2960322599105
20
7.7196090207311
30
0
41
1
10
11.3155785652527
20
7.68883233657405
30
0
41
1
10
11.3256272548539
20
7.67434111714545
30
0
41
1
10
11.3409682301562
20
7.6546060543242
30
0
41
1
10
11.3461362568173
20
7.64835253804193
30
0
41
1
10
11.3564859665376
20
7.63673089842393
30
0
41
1
10
11.3617004509603
20
7.63132788380602
30
0
41
1
10
11.3720122762104
20
7.62170486775312
30
0
41
1
10
11.3770975127515
20
7.6174903992879
30
0
41
1
10
11.387058301428
20
7.61051582939567
30
0
41
1
10
11.3919349106409
20
7.60775091067634
30
0
41
1
10
11.3990104326588
20
7.60502999890016
30
0
41
1
10
11.4013436927156
20
7.60436124181015
30
0
41
1
10
11.4058184537868
20
7.60360684955685
30
0
41
1
10
11.4101006840151
20
7.60342770208072
30
0
41
1
10
11.4139547674675
20
7.60449149788855
30
0
41
1
10
11.4175671791953
20
7.60623997889073
30
0
41
1
10
11.4192509435213
20
7.60746485670836
30
0
41
1
10
11.4237576265278
20
7.61210190424748
30
0
41
1
10
11.4260976614146
20
7.61649084749732
30
0
41
1
10
11.4294217805598
20
7.62786716957615
30
0
41
1
10
11.4303441529006
20
7.63464254487806
30
0
41
1
10
11.430632388105
20
7.64231043414168
30
0
0
SPLINE
5
26E
100
AcDbEntity
8
1
62
256
6
ByLayer
370
18
48
1
60
0
100
AcDbSpline
70
4
71
3
72
32
73
28
40
0
40
0
40
0
40
0
40
0.125000000000011
40
0.125000000000011
40
0.250000000000022
40
0.250000000000022
40
0.375000000000032
40
0.375000000000032
40
0.500000000000043
40
0.500000000000043
40
0.562500000000043
40
0.562500000000043
40
0.625000000000042
40
0.625000000000042
40
0.687500000000041
40
0.687500000000041
40
0.750000000000041
40
0.750000000000041
40
0.81250000000004
40
0.81250000000004
40
0.843750000000033
40
0.843750000000033
40
0.875000000000027
40
0.875000000000027
40
0.937500000000013
40
0.937500000000013
40
1
40
1
40
1
40
1
41
1
10
11.2261651532001
20
9.53819999999999
30
0
41
1
10
11.2339884486871
20
9.55736308205022
30
0
41
1
10
11.2421650302628
20
9.57604796999013
30
0
41
1
10
11.2592369591435
20
9.61242714415189
30
0
41
1
10
11.2681272729507
20
9.6301063850992
30
0
41
1
10
11.286525272273
20
9.66408713703109
30
0
41
1
10
11.296032035426
20
9.68039201355944
30
0
41
1
10
11.3156090704488
20
9.71121430555792
30
0
41
1
10
11.3256482627479
20
9.72569047347494
30
0
41
1
10
11.3410242249886
20
9.74546368142856
30
0
41
1
10
11.3461762341261
20
9.75169446189804
30
0
41
1
10
11.3565189618284
20
9.76330402728351
30
0
41
1
10
11.3617295913545
20
9.76870242246372
30
0
41
1
10
11.3720731616928
20
9.77834881110184
30
0
41
1
10
11.3771821193577
20
9.78257908622427
30
0
41
1
10
11.3872069248452
20
9.78957775233405
30
0
41
1
10
11.3921393046213
20
9.79235730609042
30
0
41
1
10
11.4016361580468
20
9.79594860870077
30
0
41
1
10
11.4060936277503
20
9.79672223655317
30
0
41
1
10
11.4122057712475
20
9.79600159538793
30
0
41
1
10
11.4141495890559
20
9.79543852989895
30
0
41
1
10
11.4177183993353
20
9.7936600303855
30
0
41
1
10
11.4193572647567
20
9.79244512790893
30
0
41
1
10
11.4238175051311
20
9.78779589414111
30
0
41
1
10
11.4261947482927
20
9.78325302134976
30
0
41
1
10
11.4294322265631
20
9.77201838600226
30
0
41
1
10
11.4303452243565
20
9.76532895130092
30
0
41
1
10
11.430632388105
20
9.75768956585833
30
0
0
SPLINE
5
26F
100
AcDbEntity
8
1
62
256
6
ByLayer
370
18
48
1
60
0
100
AcDbSpline
70
4
71
3
72
40
73
36
40
0
40
0
40
0
40
0
40
0.0624999999999973
40
0.0624999999999973
40
0.0937499999999976
40
0.0937499999999976
40
0.124999999999998
40
0.124999999999998
40
0.187499999999998
40
0.187499999999998
40
0.249999999999999
40
0.249999999999999
40
0.3125
40
0.3125
40
0.375
40
0.375
40
0.437500000000001
40
0.437500000000001
40
0.500000000000001
40
0.500000000000001
40
0.625000000000003
40
0.625000000000003
40
0.6875
40
0.6875
40
0.749999999999998
40
0.749999999999998
40
0.812499999999996
40
0.812499999999996
40
0.874999999999993
40
0.874999999999993
40
0.906249999999996
40
0.906249999999996
40
0.937499999999999
40
0.937499999999999
40
1
40
1
40
1
40
1
41
1
10
11.1615465284336
20
8.32223604827618
30
0
41
1
10
11.1649477794254
20
8.33052482565054
30
0
41
1
10
11.1676146953996
20
8.34108969012357
30
0
41
1
10
11.1709445236961
20
8.35924204464709
30
0
41
1
10
11.1719376352968
20
8.36569074073299
30
0
41
1
10
11.1737123521292
20
8.37908888052667
30
0
41
1
10
11.1744983775855
20
8.38606230298265
30
0
41
1
10
11.1766145123038
20
8.40770415501248
30
0
41
1
10
11.1776916449922
20
8.42293468713578
30
0
41
1
10
11.1794224654068
20
8.45459925976317
30
0
41
1
10
11.1800712154792
20
8.47099557233597
30
0
41
1
10
11.1810890954396
20
8.50448554508432
30
0
41
1
10
11.181459940777
20
8.52167323835121
30
0
41
1
10
11.182025481611
20
8.55645949295914
30
0
41
1
10
11.1822208011677
20
8.57407100635123
30
0
41
1
10
11.1825078398009
20
8.60970822398505
30
0
41
1
10
11.1825989949792
20
8.6277245389582
30
0
41
1
10
11.1827158460844
20
8.66379915208219
30
0
41
1
10
11.1827418330494
20
8.68190346175479
30
0
41
1
10
11.1827416125159
20
8.73641385296324
30
0
41
1
10
11.1826516945454
20
8.77242684790772
30
0
41
1
10
11.1822207438859
20
8.8259384417124
30
0
41
1
10
11.1820247298184
20
8.84359479126459
30
0
41
1
10
11.1814594928977
20
8.8783462518081
30
0
41
1
10
11.181089397828
20
8.89551053635338
30
0
41
1
10
11.1800690835869
20
8.92906852918057
30
0
41
1
10
11.1794190962009
20
8.94547608071758
30
0
41
1
10
11.1776872237771
20
8.97713243280279
30
0
41
1
10
11.1766043446395
20
8.99241640885901
30
0
41
1
10
11.174491124219
20
9.01400351561563
30
0
41
1
10
11.1737056658478
20
9.02096723399703
30
0
41
1
10
11.1719299054221
20
9.0343619328666
30
0
41
1
10
11.1709357305805
20
9.04081001508976
30
0
41
1
10
11.1676122043689
20
9.0589156028698
30
0
41
1
10
11.1649494437826
20
9.069471118346
30
0
41
1
10
11.1615465284336
20
9.07776395172382
30
0
0
SPLINE
5
270
100
AcDbEntity
8
1
62
256
6
ByLayer
370
18
48
1
60
0
100
AcDbSpline
70
4
71
3
72
8
73
4
40
0
40
0
40
0
40
0
40
1
40
1
40
1
40
1
41
1
10
11.1615465284336
20
9.07776395172382
30
0
41
1
10
11.1601265527986
20
9.08122440258242
30
0
41
1
10
11.1587082422956
20
9.08468439430143
30
0
41
1
10
11.1572915326381
20
9.0881439441084
30
0
0
SPLINE
5
271
100
AcDbEntity
8
1
62
256
6
ByLayer
370
18
48
1
60
0
100
AcDbSpline
70
4
71
3
72
31
73
27
40
0
40
0
40
0
40
0
40
0.250000000000003
40
0.250000000000003
40
0.375000000000006
40
0.375000000000006
40
0.500000000000008
40
0.500000000000008
40
0.56250000000001
40
0.56250000000001
40
0.625000000000012
40
0.625000000000012
40
0.687500000000014
40
0.687500000000014
40
0.750000000000016
40
0.750000000000016
40
0.781250000000015
40
0.781250000000015
40
0.812500000000014
40
0.843750000000013
40
0.843750000000013
40
0.875000000000012
40
0.875000000000012
40
0.937500000000006
40
0.937500000000006
40
1
40
1
40
1
40
1
41
1
10
11.2261651532001
20
9.53819999999999
30
0
41
1
10
11.2105293833164
20
9.49990034204939
30
0
41
1
10
11.1962800988649
20
9.45964411795339
30
0
41
1
10
11.1776222737146
20
9.39733075207178
30
0
41
1
10
11.1718476552431
20
9.37620206392469
30
0
41
1
10
11.1613703250526
20
9.33343616080316
30
0
41
1
10
11.1566601735602
20
9.31177575035744
30
0
41
1
10
11.1506093365954
20
9.27911178845108
30
0
41
1
10
11.1487589948901
20
9.26817388340882
30
0
41
1
10
11.1454660128051
20
9.2463778893858
30
0
41
1
10
11.144013882098
20
9.2354510986242
30
0
41
1
10
11.1416062583291
20
9.21391795477112
30
0
41
1
10
11.140651111798
20
9.2033365668585
30
0
41
1
10
11.1393133461281
20
9.18263544377078
30
0
41
1
10
11.1389291515293
20
9.17251407751468
30
0
41
1
10
11.1388845459507
20
9.15779430977599
30
0
41
1
10
11.1389605271352
20
9.15293388542159
30
0
41
1
10
11.1393114830538
20
9.14358705925255
30
0
41
1
10
11.1398581964091
20
9.13461609646424
30
0
41
1
10
11.1408175855926
20
9.12646177673628
30
0
41
1
10
11.1419993594778
20
9.11875947327016
30
0
41
1
10
11.142704287484
20
9.11513694592733
30
0
41
1
10
11.1450966348314
20
9.10532085487853
30
0
41
1
10
11.1470755651811
20
9.10004738976883
30
0
41
1
10
11.1517817677529
20
9.09205646686718
30
0
41
1
10
11.1544213305346
20
9.0894873319364
30
0
41
1
10
11.1572915326381
20
9.0881439441084
30
0
0
SPLINE
5
272
100
AcDbEntity
8
1
62
256
6
ByLayer
370
18
48
1
60
0
100
AcDbSpline
70
4
71
3
72
32
73
28
40
0
40
0
40
0
40
0
40
0.124999999999993
40
0.124999999999993
40
0.249999999999987
40
0.249999999999987
40
0.374999999999981
40
0.374999999999981
40
0.499999999999974
40
0.499999999999974
40
0.562499999999975
40
0.562499999999975
40
0.624999999999975
40
0.624999999999975
40
0.687499999999976
40
0.687499999999976
40
0.749999999999977
40
0.749999999999977
40
0.812499999999977
40
0.812499999999977
40
0.843749999999979
40
0.843749999999979
40
0.87499999999998
40
0.87499999999998
40
0.93749999999999
40
0.93749999999999
40
1
40
1
40
1
40
1
41
1
10
11.2261651532001
20
7.86179999999999
30
0
41
1
10
11.218341857713
20
7.88096308205024
30
0
41
1
10
11.2108924209592
20
7.90055396572922
30
0
41
1
10
11.1967550397154
20
7.94062167659669
30
0
41
1
10
11.1900737869357
20
7.96108482828305
30
0
41
1
10
11.1776205771819
20
8.00267379653548
30
0
41
1
10
11.1718470732254
20
8.02379777755888
30
0
41
1
10
11.1613546769051
20
8.06663024920667
30
0
41
1
10
11.1566497158761
20
8.08826973363284
30
0
41
1
10
11.1505883438337
20
8.12100705611837
30
0
41
1
10
11.1487453114452
20
8.13191055811703
30
0
41
1
10
11.1454564852766
20
8.15369134411648
30
0
41
1
10
11.1440057200542
20
8.16460996704549
30
0
41
1
10
11.1415934128396
20
8.18620896963316
30
0
41
1
10
11.1406354900525
20
8.19683945594872
30
0
41
1
10
11.1392977445485
20
8.21767324194465
30
0
41
1
10
11.138916116325
20
8.22791029627621
30
0
41
1
10
11.138880336861
20
8.24766908015027
30
0
41
1
10
11.1392254689358
20
8.25696858113852
30
0
41
1
10
11.1403782650894
20
8.26983709275279
30
0
41
1
10
11.140872175018
20
8.27395169272111
30
0
41
1
10
11.1420589043344
20
8.28156507512003
30
0
41
1
10
11.1427535150624
20
8.28509291978284
30
0
41
1
10
11.1451435262715
20
8.2948131586561
30
0
41
1
10
11.1471849444971
20
8.30017863118351
30
0
41
1
10
11.1518255745864
20
8.30797626054294
30
0
41
1
10
11.1544319999279
20
8.31051766183498
30
0
41
1
10
11.1572915326381
20
8.31185605589161
30
0
0
SPLINE
5
273
100
AcDbEntity
8
1
62
256
6
ByLayer
370
18
48
1
60
0
100
AcDbSpline
70
4
71
3
72
8
73
4
40
0
40
0
40
0
40
0
40
1
40
1
40
1
40
1
41
1
10
11.1572915326381
20
8.31185605589161
30
0
41
1
10
11.1587082422956
20
8.31531560569857
30
0
41
1
10
11.1601265527986
20
8.31877559741756
30
0
41
1
10
11.1615465284336
20
8.32223604827618
30
0
0
SPLINE
5
274
100
AcDbEntity
8
1
62
256
6
ByLayer
370
13
48
1
60
0
100
AcDbSpline
70
4
71
3
72
12
73
8
40
0
40
0
40
0
40
0
40
0.249999999999988
40
0.249999999999988
40
0.499999999999976
40
0.499999999999976
40
1
40
1
40
1
40
1
41
1
10
22.3353570701806
20
13.2795736905416
30
0
41
1
10
22.3517926402837
20
13.2812400197662
30
0
41
1
10
22.368481448836
20
13.2825245763347
30
0
41
1
10
22.4023703558069
20
13.284317610109
30
0
41
1
10
22.4194500887891
20
13.2848187232837
30
0
41
1
10
22.4708971297112
20
13.2851496974672
30
0
41
1
10
22.505551876479
20
13.2838196266903
30
0
41
1
10
22.540569156176
20
13.2809054553859
30
0
0
SPLINE
5
275
100
AcDbEntity
8
1
62
256
6
ByLayer
370
13
48
1
60
0
100
AcDbSpline
70
4
71
3
72
12
73
8
40
0
40
0
40
0
40
0
40
0.25
40
0.25
40
0.5
40
0.5
40
1
40
1
40
1
40
1
41
1
10
22.540569156176
20
12.2190945446141
30
0
41
1
10
22.5230600287214
20
12.2176374183828
30
0
41
1
10
22.5055636073593
20
12.2165718656215
30
0
41
1
10
22.4705964204029
20
12.2152284859195
30
0
41
1
10
22.453250130732
20
12.2149564070015
30
0
41
1
10
22.401810237064
20
12.2153099336155
30
0
41
1
10
22.3682251831746
20
12.2170939579247
30
0
41
1
10
22.3353570701806
20
12.2204263094584
30
0
0
SPLINE
5
276
100
AcDbEntity
8
1
62
256
6
ByLayer
370
13
48
1
60
0
100
AcDbSpline
70
4
71
2
72
6
73
3
40
0
40
0
40
0
40
1
40
1
40
1
41
0.500000056910576
10
23.5349530955253
20
12.478833085537
30
0
41
0.499999943089424
10
23.5059912939891
20
12.4677273632197
30
0
41
0.500000056910576
10
23.4769991282197
20
12.4566228625375
30
0
0
SPLINE
5
277
100
AcDbEntity
8
1
62
256
6
ByLayer
370
13
48
1
60
0
100
AcDbSpline
70
4
71
3
72
8
73
4
40
0
40
0
40
0
40
0
40
1
40
1
40
1
40
1
41
1
10
21.8946067811865
20
13.2684513568271
30
0
41
1
10
21.8957573725751
20
13.2679921920678
30
0
41
1
10
21.8969123386977
20
13.2675438486619
30
0
41
1
10
21.898071274708
20
13.2671061728187
30
0
0
SPLINE
5
278
100
AcDbEntity
8
1
62
256
6
ByLayer
370
13
48
1
60
0
100
AcDbSpline
70
4
71
3
72
8
73
4
40
0
40
0
40
0
40
0
40
1
40
1
40
1
40
1
41
1
10
21.898071274708
20
12.2328938271813
30
0
41
1
10
21.8969123386977
20
12.232456151338
30
0
41
1
10
21.8957573725751
20
12.2320078079321
30
0
41
1
10
21.8946067811865
20
12.2315486431729
30
0
0
SPLINE
5
279
100
AcDbEntity
8
1
62
256
6
ByLayer
370
13
48
1
60
0
100
AcDbSpline
70
4
71
3
72
40
73
36
40
0
40
0
40
0
40
0
40
0.125000000000002
40
0.125000000000002
40
0.187500000000003
40
0.187500000000003
40
0.250000000000004
40
0.250000000000004
40
0.312500000000005
40
0.312500000000005
40
0.375000000000006
40
0.375000000000006
40
0.406250000000004
40
0.406250000000004
40
0.437500000000002
40
0.437500000000002
40
0.46875
40
0.46875
40
0.499999999999998
40
0.499999999999998
40
0.5625
40
0.5625
40
0.59375
40
0.59375
40
0.624999999999999
40
0.624999999999999
40
0.687499999999999
40
0.687499999999999
40
0.749999999999999
40
0.749999999999999
40
0.874999999999998
40
0.874999999999998
40
0.937499999999999
40
0.937499999999999
40
1
40
1
40
1
40
1
41
1
10
23.5320048078368
20
13.0226058211793
30
0
41
1
10
23.5640532784217
20
13.0103720413439
30
0
41
1
10
23.5952866443631
20
12.996509135708
30
0
41
1
10
23.6404595572635
20
12.9723660396622
30
0
41
1
10
23.6552348335647
20
12.9637545624127
30
0
41
1
10
23.6840758109443
20
12.9451155232641
30
0
41
1
10
23.6981195908422
20
12.9350933289713
30
0
41
1
10
23.7247519390918
20
12.9136268868273
30
0
41
1
10
23.7374050552684
20
12.9021511351507
30
0
41
1
10
23.7609328403358
20
12.877208587186
30
0
41
1
10
23.7718878446762
20
12.8636035536231
30
0
41
1
10
23.7858169873769
20
12.8419150288305
30
0
41
1
10
23.790061843674
20
12.8344553471163
30
0
41
1
10
23.7976250013161
20
12.8190004293824
30
0
41
1
10
23.8009611789668
20
12.8109511147369
30
0
41
1
10
23.8064399235676
20
12.794473338275
30
0
41
1
10
23.8085667137135
20
12.7861145637775
30
0
41
1
10
23.8115120181706
20
12.7691409855355
30
0
41
1
10
23.8123310114943
20
12.7604905561153
30
0
41
1
10
23.8126519793326
20
12.7343511297476
30
0
41
1
10
23.8100465386652
20
12.7173328964532
30
0
41
1
10
23.8023371333139
20
12.6923556929607
30
0
41
1
10
23.7991788231441
20
12.6842779411786
30
0
41
1
10
23.7918619833993
20
12.6685997265486
30
0
41
1
10
23.787680398629
20
12.6609600073241
30
0
41
1
10
23.7739403390344
20
12.6388730638757
30
0
41
1
10
23.7633147567221
20
12.625376127374
30
0
41
1
10
23.7399736181069
20
12.600133293139
30
0
41
1
10
23.727173196392
20
12.5883492563139
30
0
41
1
10
23.6873131038452
20
12.5558420222145
30
0
41
1
10
23.6585835598181
20
12.5375593182365
30
0
41
1
10
23.6134975066954
20
12.5132679921993
30
0
41
1
10
23.5981001914538
20
12.5057043450133
30
0
41
1
10
23.5668251632668
20
12.4915531744203
30
0
41
1
10
23.5509787231995
20
12.4849782892685
30
0
41
1
10
23.5349530955269
20
12.4788330855364
30
0
0
SPLINE
5
27A
100
AcDbEntity
8
1
62
256
6
ByLayer
370
13
48
1
60
0
100
AcDbSpline
70
4
71
3
72
8
73
4
40
0
40
0
40
0
40
0
40
1
40
1
40
1
40
1
41
1
10
21.8980712747079
20
13.2671061728187
30
0
41
1
10
21.9123992365495
20
13.2616951727931
30
0
41
1
10
21.927168741563
20
13.2579429429717
30
0
41
1
10
21.9422461403224
20
13.2553473949973
30
0
0
SPLINE
5
27B
100
AcDbEntity
8
1
62
256
6
ByLayer
370
13
48
1
60
0
100
AcDbSpline
70
4
71
3
72
8
73
4
40
0
40
0
40
0
40
0
40
1
40
1
40
1
40
1
41
1
10
21.9422461403224
20
12.2446526050027
30
0
41
1
10
21.9271687415634
20
12.2420570570284
30
0
41
1
10
21.9123992365483
20
12.2383048272137
30
0
41
1
10
21.8980712747067
20
12.2328938271885
30
0
0
SPLINE
5
27C
100
AcDbEntity
8
1
62
256
6
ByLayer
370
13
48
1
60
0
100
AcDbSpline
70
4
71
3
72
8
73
4
40
0
40
0
40
0
40
0
40
1
40
1
40
1
40
1
41
1
10
21.9422461403221
20
13.2553473949974
30
0
41
1
10
21.9574798365237
20
13.2527249406901
30
0
41
1
10
21.9728339231564
20
13.2514988252878
30
0
41
1
10
21.9882833178162
20
13.2513781325152
30
0
0
SPLINE
5
27D
100
AcDbEntity
8
1
62
256
6
ByLayer
370
13
48
1
60
0
100
AcDbSpline
70
4
71
3
72
8
73
4
40
0
40
0
40
0
40
0
40
1
40
1
40
1
40
1
41
1
10
21.9882833178163
20
12.2486218674842
30
0
41
1
10
21.9728339231566
20
12.2485011747116
30
0
41
1
10
21.9574798365241
20
12.2472750593099
30
0
41
1
10
21.9422461403224
20
12.2446526050027
30
0
0
SPLINE
5
27E
100
AcDbEntity
8
1
62
256
6
ByLayer
370
13
48
1
60
0
100
AcDbSpline
70
4
71
2
72
6
73
3
40
0
40
0
40
0
40
1
40
1
40
1
41
0.500000056678546
10
23.3923334915963
20
12.6515220050859
30
0
41
0.499999943321454
10
23.4213194814357
20
12.6624581710324
30
0
41
0.500000056678546
10
23.450275134015
20
12.6733955556881
30
0
0
SPLINE
5
27F
100
AcDbEntity
8
1
62
256
6
ByLayer
370
13
48
1
60
0
100
AcDbSpline
70
4
71
3
72
17
73
13
40
0
40
0
40
0
40
0
40
0.112200082986486
40
0.220222235549786
40
0.32453406121567
40
0.425654648685177
40
0.524153553012385
40
0.620646764194477
40
0.715789237159549
40
0.810264023354966
40
0.904768652863336
40
1
40
1
40
1
40
1
41
1
10
22.2040693162617
20
12.2453555513644
30
0
41
1
10
22.2029787736379
20
12.24611121194
30
0
41
1
10
22.2008382963033
20
12.2475943949899
30
0
41
1
10
22.197480690241
20
12.2495116634311
30
0
41
1
10
22.1941005279818
20
12.2511417192711
30
0
41
1
10
22.190687857892
20
12.2524675138958
30
0
41
1
10
22.1872504621946
20
12.253492993165
30
0
41
1
10
22.1837919304127
20
12.2542161073813
30
0
41
1
10
22.180316749983
20
12.2546386447135
30
0
41
1
10
22.1768308903406
20
12.2547532901572
30
0
41
1
10
22.173334462899
20
12.2545859360039
30
0
41
1
10
22.1710259695459
20
12.254223592285
30
0
41
1
10
22.1698673019291
20
12.2540417265098
30
0
0
SPLINE
5
280
100
AcDbEntity
8
1
62
256
6
ByLayer
370
13
48
1
60
0
100
AcDbSpline
70
4
71
3
72
18
73
14
40
0
40
0
40
0
40
0
40
0.0866151491831025
40
0.172577749886535
40
0.258410546695184
40
0.344638644974428
40
0.431780004238169
40
0.520336560699909
40
0.610786693519096
40
0.703579500342795
40
0.799131052428659
40
0.897822535599228
40
1
40
1
40
1
40
1
41
1
10
22.1698673019291
20
13.2459582734902
30
0
41
1
10
22.170920706762
20
13.2457905764785
30
0
41
1
10
22.1730195801979
20
13.2454564458649
30
0
41
1
10
22.1761963003919
20
13.2452657352321
30
0
41
1
10
22.1793650041883
20
13.2453077583085
30
0
41
1
10
22.1825260485369
20
13.2456039337092
30
0
41
1
10
22.185674840938
20
13.2461483942704
30
0
41
1
10
22.1888082677003
20
13.2469424203703
30
0
41
1
10
22.1919227047017
20
13.2479855591112
30
0
41
1
10
22.1950157022492
20
13.2492767386169
30
0
41
1
10
22.198081119515
20
13.2508192131877
30
0
41
1
10
22.2011276090846
20
13.2525988870556
30
0
41
1
10
22.2030774675927
20
13.2539547513244
30
0
41
1
10
22.2040693162617
20
13.2546444486356
30
0
0
SPLINE
5
281
100
AcDbEntity
8
1
62
256
6
ByLayer
370
13
48
1
60
0
100
AcDbSpline
70
4
71
3
72
8
73
4
40
0
40
0
40
0
40
0
40
1
40
1
40
1
40
1
41
1
10
21.9867497147842
20
13.05506779861
30
0
41
1
10
21.9612073397821
20
13.0601092941521
30
0
41
1
10
21.9360753395102
20
13.0670646195108
30
0
41
1
10
21.9113863738219
20
13.0760846690788
30
0
0
SPLINE
5
282
100
AcDbEntity
8
1
62
256
6
ByLayer
370
13
48
1
60
0
100
AcDbSpline
70
4
71
3
72
10
73
6
40
0
40
0
40
0
40
0
40
0.5
40
0.5
40
1
40
1
40
1
40
1
41
1
10
22.5127362275078
20
13.085811852921
30
0
41
1
10
22.4932765294792
20
13.0886412768871
30
0
41
1
10
22.474007042853
20
13.0898927408481
30
0
41
1
10
22.4358439112797
20
13.0892951340651
30
0
41
1
10
22.416843633472
20
13.0873994241559
30
0
41
1
10
22.3987295130659
20
13.0840304942318
30
0
0
SPLINE
5
283
100
AcDbEntity
8
1
62
256
6
ByLayer
370
13
48
1
60
0
100
AcDbSpline
70
4
71
3
72
12
73
8
40
0
40
0
40
0
40
0
40
0.250000000000021
40
0.250000000000021
40
0.500000000000042
40
0.500000000000042
40
1
40
1
40
1
40
1
41
1
10
22.2736935569527
20
13.0587269039624
30
0
41
1
10
22.2646729640165
20
13.0567538650597
30
0
41
1
10
22.2554341324016
20
13.0550683338297
30
0
41
1
10
22.2367137994536
20
13.0523210853847
30
0
41
1
10
22.2272740668904
20
13.0512631066805
30
0
41
1
10
22.198718318175
20
13.0490229156086
30
0
41
1
10
22.1793677308116
20
13.0487660445457
30
0
41
1
10
22.1596868425108
20
13.0498070839785
30
0
0
SPLINE
5
284
100
AcDbEntity
8
1
62
256
6
ByLayer
370
13
48
1
60
0
100
AcDbSpline
70
4
71
3
72
8
73
4
40
0
40
0
40
0
40
0
40
1
40
1
40
1
40
1
41
1
10
21.9113863738227
20
12.4239153309215
30
0
41
1
10
21.9360753395107
20
12.4329353804893
30
0
41
1
10
21.9612073397824
20
12.4398907058479
30
0
41
1
10
21.9867497147842
20
12.44493220139
30
0
0
SPLINE
5
285
100
AcDbEntity
8
1
62
256
6
ByLayer
370
13
48
1
60
0
100
AcDbSpline
70
4
71
3
72
12
73
8
40
0
40
0
40
0
40
0
40
0.250000000000022
40
0.250000000000022
40
0.500000000000044
40
0.500000000000044
40
1
40
1
40
1
40
1
41
1
10
22.1596868425108
20
12.4501929160215
30
0
41
1
10
22.1695261059019
20
12.4507133732805
30
0
41
1
10
22.1793915769302
20
12.4509104717421
30
0
41
1
10
22.1989417467469
20
12.4506575181151
30
0
41
1
10
22.208584395022
20
12.4502106383308
30
0
41
1
10
22.2371323461155
20
12.4479480059409
30
0
41
1
10
22.2556603966106
20
12.4452174184503
30
0
41
1
10
22.2736935569527
20
12.4412730960376
30
0
0
SPLINE
5
286
100
AcDbEntity
8
1
62
256
6
ByLayer
370
13
48
1
60
0
100
AcDbSpline
70
4
71
3
72
10
73
6
40
0
40
0
40
0
40
0
40
0.5
40
0.5
40
1
40
1
40
1
40
1
41
1
10
22.3987295130659
20
12.4159695057682
30
0
41
1
10
22.4168349571092
20
12.4126021895056
30
0
41
1
10
22.4354211401402
20
12.4107351463176
30
0
41
1
10
22.473573472079
20
12.4100909135694
30
0
41
1
10
22.4932735013567
20
12.4113582828264
30
0
41
1
10
22.5127362275078
20
12.414188147079
30
0
0
SPLINE
5
287
100
AcDbEntity
8
1
62
256
6
ByLayer
370
13
48
1
60
0
100
AcDbSpline
70
4
71
3
72
8
73
4
40
0
40
0
40
0
40
0
40
1
40
1
40
1
40
1
41
1
10
21.8400648952718
20
12.3864907939525
30
0
41
1
10
21.8632246023091
20
12.4006953015476
30
0
41
1
10
21.8870291512197
20
12.413112996998
30
0
41
1
10
21.9113863738226
20
12.4239153309215
30
0
0
SPLINE
5
288
100
AcDbEntity
8
1
62
256
6
ByLayer
370
13
48
1
60
0
100
AcDbSpline
70
4
71
3
72
8
73
4
40
0
40
0
40
0
40
0
40
1
40
1
40
1
40
1
41
1
10
21.9113863738227
20
13.0760846690785
30
0
41
1
10
21.8870291512197
20
13.0868870030019
30
0
41
1
10
21.8632246023119
20
13.0993046984605
30
0
41
1
10
21.8400648952751
20
13.1135092060557
30
0
0
SPLINE
5
289
100
AcDbEntity
8
1
62
256
6
ByLayer
370
13
48
1
60
0
100
AcDbSpline
70
4
71
3
72
44
73
40
40
0
40
0
40
0
40
0
40
0.124999999999974
40
0.124999999999974
40
0.249999999999949
40
0.249999999999949
40
0.312499999999945
40
0.312499999999945
40
0.374999999999941
40
0.374999999999941
40
0.406249999999941
40
0.406249999999941
40
0.437499999999941
40
0.437499999999941
40
0.453124999999943
40
0.453124999999943
40
0.468749999999945
40
0.468749999999945
40
0.484374999999947
40
0.484374999999947
40
0.499999999999949
40
0.499999999999949
40
0.515624999999952
40
0.515624999999952
40
0.531249999999954
40
0.531249999999954
40
0.562499999999965
40
0.562499999999965
40
0.593749999999977
40
0.593749999999977
40
0.624999999999989
40
0.624999999999989
40
0.687499999999991
40
0.687499999999991
40
0.749999999999994
40
0.749999999999994
40
0.874999999999997
40
0.874999999999997
40
1
40
1
40
1
40
1
41
1
10
23.4502751340149
20
12.6733955556881
30
0
41
1
10
23.4722424993709
20
12.676059268453
30
0
41
1
10
23.4941496893019
20
12.6790424845237
30
0
41
1
10
23.5377917222756
20
12.6859272772606
30
0
41
1
10
23.5595296263094
20
12.6898124254367
30
0
41
1
10
23.5919164571761
20
12.6968163037149
30
0
41
1
10
23.6026749094078
20
12.6993495712014
30
0
41
1
10
23.6240776009093
20
12.7050275565598
30
0
41
1
10
23.6347426406841
20
12.7081645745075
30
0
41
1
10
23.650524723579
20
12.7136949835002
30
0
41
1
10
23.6557233737959
20
12.7156695314367
30
0
41
1
10
23.6659293446926
20
12.72002292518
30
0
41
1
10
23.6709406525031
20
12.7223933433425
30
0
41
1
10
23.678196942008
20
12.7264998801249
30
0
41
1
10
23.680571637113
20
12.7279618602184
30
0
41
1
10
23.6851810978036
20
12.7311815676188
30
0
41
1
10
23.6874438645879
20
12.7329587567218
30
0
41
1
10
23.6915587084126
20
12.7369214460092
30
0
41
1
10
23.6934405677666
20
12.7391217902736
30
0
41
1
10
23.696267296111
20
12.7441665966085
30
0
41
1
10
23.697144880093
20
12.7470286062878
30
0
41
1
10
23.6970306161986
20
12.7528200511545
30
0
41
1
10
23.6960300008063
20
12.7556832900295
30
0
41
1
10
23.6930904839192
20
12.7606182068255
30
0
41
1
10
23.6911594228323
20
12.762803555973
30
0
41
1
10
23.6849278133535
20
12.7686520003649
30
0
41
1
10
23.6800973051182
20
12.7717712245471
30
0
41
1
10
23.670240345643
20
12.7772819728914
30
0
41
1
10
23.6651584363405
20
12.7796603403305
30
0
41
1
10
23.6548349759082
20
12.7840249278521
30
0
41
1
10
23.6495897533987
20
12.7860021234868
30
0
41
1
10
23.6336926690549
20
12.7915373283427
30
0
41
1
10
23.6228799669547
20
12.7947050857487
30
0
41
1
10
23.6012180910969
20
12.8004270455901
30
0
41
1
10
23.5903315110305
20
12.8029809605905
30
0
41
1
10
23.557562944613
20
12.8100432208318
30
0
41
1
10
23.535574030084
20
12.8139625904572
30
0
41
1
10
23.4914333999183
20
12.8209080877259
30
0
41
1
10
23.4692787140038
20
12.8239177675928
30
0
41
1
10
23.4470649583898
20
12.8266044443119
30
0
0
SPLINE
5
28A
100
AcDbEntity
8
1
62
256
6
ByLayer
370
13
48
1
60
0
100
AcDbSpline
70
4
71
3
72
8
73
4
40
0
40
0
40
0
40
0
40
1
40
1
40
1
40
1
41
1
10
21.9715578838514
20
13.0419839473122
30
0
41
1
10
21.9663931772983
20
13.0412558131585
30
0
41
1
10
21.9612327829711
20
13.0404920489046
30
0
41
1
10
21.9560776541441
20
13.0396910394616
30
0
0
SPLINE
5
28B
100
AcDbEntity
8
1
62
256
6
ByLayer
370
13
48
1
60
0
100
AcDbSpline
70
4
71
3
72
8
73
4
40
0
40
0
40
0
40
0
40
1
40
1
40
1
40
1
41
1
10
21.9560776541441
20
12.4603089605384
30
0
41
1
10
21.9612327829711
20
12.4595079510954
30
0
41
1
10
21.9663931772983
20
12.4587441868415
30
0
41
1
10
21.9715578838514
20
12.4580160526878
30
0
0
SPLINE
5
28C
100
AcDbEntity
8
1
62
256
6
ByLayer
370
13
48
1
60
0
100
AcDbSpline
70
4
71
3
72
21
73
17
40
0
40
0
40
0
40
0
40
0.249999999999982
40
0.249999999999982
40
0.374999999999986
40
0.374999999999986
40
0.499999999999989
40
0.499999999999989
40
0.624999999999993
40
0.624999999999993
40
0.749999999999996
40
0.875
40
0.875
40
0.9375
40
0.9375
40
1
40
1
40
1
40
1
41
1
10
21.8946067811865
20
13.2684513568271
30
0
41
1
10
21.8613325391711
20
13.2750907074587
30
0
41
1
10
21.8287230852442
20
13.2821368046602
30
0
41
1
10
21.7807320752125
20
13.2932057018404
30
0
41
1
10
21.7648902430003
20
13.2969796481339
30
0
41
1
10
21.7335194334222
20
13.3046887908441
30
0
41
1
10
21.7179526595924
20
13.3086344280498
30
0
41
1
10
21.687516762641
20
13.3165868878011
30
0
41
1
10
21.6726583769609
20
13.3205904686275
30
0
41
1
10
21.6439256631098
20
13.3285678721991
30
0
41
1
10
21.61608802764
20
13.3365386601313
30
0
41
1
10
21.59001208778
20
13.3444918544402
30
0
41
1
10
21.5711244871284
20
13.3504501371157
30
0
41
1
10
21.5649403790546
20
13.3524351456355
30
0
41
1
10
21.5527996470463
20
13.3564031815936
30
0
41
1
10
21.5468012857265
20
13.3583986756753
30
0
41
1
10
21.5410533905933
20
13.3603513160956
30
0
0
SPLINE
5
28D
100
AcDbEntity
8
1
62
256
6
ByLayer
370
13
48
1
60
0
100
AcDbSpline
70
4
71
3
72
19
73
15
40
0
40
0
40
0
40
0
40
0.0625000000000004
40
0.0625000000000004
40
0.125000000000001
40
0.125000000000001
40
0.250000000000002
40
0.375000000000002
40
0.375000000000002
40
0.500000000000003
40
0.500000000000003
40
0.750000000000002
40
0.750000000000002
40
1
40
1
40
1
40
1
41
1
10
21.5410533905933
20
12.1396486839044
30
0
41
1
10
21.5467909541955
20
12.1415978145592
30
0
41
1
10
21.5528178505205
20
12.1436029052408
30
0
41
1
10
21.5649912237507
20
12.1475813342247
30
0
41
1
10
21.571191088019
20
12.1495711669706
30
0
41
1
10
21.5901239097579
20
12.1555428260552
30
0
41
1
10
21.6162546865873
20
12.1635109358332
30
0
41
1
10
21.6441326330961
20
12.1714908358039
30
0
41
1
10
21.6728964769207
20
12.179474374079
30
0
41
1
10
21.6877474519929
20
12.1834748196656
30
0
41
1
10
21.7335251235175
20
12.1954315296135
30
0
41
1
10
21.7647594641591
20
12.2031098608952
30
0
41
1
10
21.828612762915
20
12.2178381802785
30
0
41
1
10
21.8612310971897
20
12.2248890513925
30
0
41
1
10
21.8946067811865
20
12.2315486431729
30
0
0
SPLINE
5
28E
100
AcDbEntity
8
1
62
256
6
ByLayer
370
13
48
1
60
0
100
AcDbSpline
70
4
71
3
72
8
73
4
40
0
40
0
40
0
40
0
40
1
40
1
40
1
40
1
41
1
10
21.8400648952719
20
13.1135092060474
30
0
41
1
10
21.838108771452
20
13.1146998349842
30
0
41
1
10
21.8361585382363
20
13.1159029139388
30
0
41
1
10
21.8342145597676
20
13.1171183799396
30
0
0
SPLINE
5
28F
100
AcDbEntity
8
1
62
256
6
ByLayer
370
13
48
1
60
0
100
AcDbSpline
70
4
71
3
72
21
73
17
40
0
40
0
40
0
40
0
40
0.062499999999996
40
0.062499999999996
40
0.124999999999992
40
0.124999999999992
40
0.249999999999992
40
0.374999999999992
40
0.374999999999992
40
0.499999999999992
40
0.499999999999992
40
0.624999999999992
40
0.624999999999992
40
0.749999999999992
40
0.749999999999992
40
1
40
1
40
1
40
1
41
1
10
21.5410533905933
20
13.3603513160956
30
0
41
1
10
21.5456910981997
20
13.3552573728609
30
0
41
1
10
21.550552812055
20
13.3500413318651
30
0
41
1
10
21.5604007363733
20
13.3396595148355
30
0
41
1
10
21.5654254160899
20
13.3344604544859
30
0
41
1
10
21.5807963358663
20
13.3188379678231
30
0
41
1
10
21.6020808284632
20
13.2979401428939
30
0
41
1
10
21.6249323219724
20
13.2769060745296
30
0
41
1
10
21.6485894512939
20
13.2558097008927
30
0
41
1
10
21.6608587933517
20
13.2451986572543
30
0
41
1
10
21.6860730716475
20
13.2240805597213
30
0
41
1
10
21.6990017818881
20
13.2135886042068
30
0
41
1
10
21.7251105642764
20
13.1930849879282
30
0
41
1
10
21.7383268133867
20
13.1830415120039
30
0
41
1
10
21.7784871187348
20
13.1535734851726
30
0
41
1
10
21.8059345323981
20
13.1348003719588
30
0
41
1
10
21.8342145597669
20
13.1171183799401
30
0
0
SPLINE
5
290
100
AcDbEntity
8
1
62
256
6
ByLayer
370
13
48
1
60
0
100
AcDbSpline
70
4
71
3
72
20
73
16
40
0
40
0
40
0
40
0
40
0.0625000000000029
40
0.0625000000000029
40
0.125000000000006
40
0.125000000000006
40
0.250000000000012
40
0.250000000000012
40
0.500000000000023
40
0.500000000000023
40
0.625000000000019
40
0.625000000000019
40
0.750000000000015
40
0.750000000000015
40
1
40
1
40
1
40
1
41
1
10
21.5410533905927
20
12.139648683905
30
0
41
1
10
21.5456943540445
20
12.1447462028316
30
0
41
1
10
21.5505590550023
20
12.1499653566256
30
0
41
1
10
21.5604106255197
20
12.1603508031482
30
0
41
1
10
21.5654362213121
20
12.1655506559897
30
0
41
1
10
21.5808068612559
20
12.1811724725851
30
0
41
1
10
21.5914448917661
20
12.191616881683
30
0
41
1
10
21.6245195746165
20
12.2230399797231
30
0
41
1
10
21.6481181162352
20
12.24412656266
30
0
41
1
10
21.6859754275526
20
12.2758395899225
30
0
41
1
10
21.6989108262953
20
12.2863385435047
30
0
41
1
10
21.7250365678339
20
12.3068583161071
30
0
41
1
10
21.7382615121663
20
12.3169095951533
30
0
41
1
10
21.7784485679075
20
12.3464001764479
30
0
41
1
10
21.8059146796899
20
12.3651872152021
30
0
41
1
10
21.8342145597669
20
12.3828816200599
30
0
0
SPLINE
5
291
100
AcDbEntity
8
1
62
256
6
ByLayer
370
13
48
1
60
0
100
AcDbSpline
70
4
71
3
72
8
73
4
40
0
40
0
40
0
40
0
40
1
40
1
40
1
40
1
41
1
10
21.8342145597676
20
12.3828816200604
30
0
41
1
10
21.8361585382363
20
12.3840970860612
30
0
41
1
10
21.838108771452
20
12.3853001650157
30
0
41
1
10
21.8400648952719
20
12.3864907939526
30
0
0
SPLINE
5
292
100
AcDbEntity
8
1
62
256
6
ByLayer
370
13
48
1
60
0
100
AcDbSpline
70
4
71
3
72
10
73
6
40
0
40
0
40
0
40
0
40
0.5
40
0.5
40
1
40
1
40
1
40
1
41
1
10
20.507896299856
20
13.6253967646475
30
0
41
1
10
20.5199030806929
20
13.6253967646475
30
0
41
1
10
20.531753360594
20
13.6245024475628
30
0
41
1
10
20.5550816040238
20
13.6205862293565
30
0
41
1
10
20.5665609829459
20
13.6175724164332
30
0
41
1
10
20.5777964183276
20
13.6131645998584
30
0
0
SPLINE
5
293
100
AcDbEntity
8
1
62
256
6
ByLayer
370
13
48
1
60
0
100
AcDbSpline
70
4
71
3
72
10
73
6
40
0
40
0
40
0
40
0
40
0.5
40
0.5
40
1
40
1
40
1
40
1
41
1
10
20.5777964183276
20
11.8868354001416
30
0
41
1
10
20.5665609829459
20
11.8824275835668
30
0
41
1
10
20.5550816040239
20
11.879413770642
30
0
41
1
10
20.531753360594
20
11.8754975524362
30
0
41
1
10
20.5199030806926
20
11.8746032353525
30
0
41
1
10
20.5078962998557
20
11.8746032353525
30
0
0
SPLINE
5
294
100
AcDbEntity
8
1
62
256
6
ByLayer
370
13
48
1
60
0
100
AcDbSpline
70
4
71
3
72
10
73
6
40
0
40
0
40
0
40
0
40
0.5
40
0.5
40
1
40
1
40
1
40
1
41
1
10
20.5630664829401
20
13.5756182921988
30
0
41
1
10
20.5540396333642
20
13.5780929560405
30
0
41
1
10
20.5447262431334
20
13.5792207339608
30
0
41
1
10
20.5263033193115
20
13.5796723799069
30
0
41
1
10
20.5170977162089
20
13.5790061206068
30
0
41
1
10
20.507896299856
20
13.5776808886215
30
0
0
SPLINE
5
295
100
AcDbEntity
8
1
62
256
6
ByLayer
370
13
48
1
60
0
100
AcDbSpline
70
4
71
3
72
14
73
10
40
0
40
0
40
0
40
0
40
0.500000000000018
40
0.500000000000018
40
0.750000000000037
40
0.750000000000037
40
0.875000000000018
40
0.875000000000018
40
1
40
1
40
1
40
1
41
1
10
20.5777964183276
20
13.6131645998584
30
0
41
1
10
20.598259715283
20
13.6019253519787
30
0
41
1
10
20.6178185819195
20
13.5899383937109
30
0
41
1
10
20.6458645830926
20
13.570763764849
30
0
41
1
10
20.6550123683137
20
13.5641583326222
30
0
41
1
10
20.6683385027421
20
13.5539609118494
30
0
41
1
10
20.6727021084397
20
13.5505232313421
30
0
41
1
10
20.6812727765436
20
13.5435653123356
30
0
41
1
10
20.6854890531768
20
13.5400222245633
30
0
41
1
10
20.6895750822519
20
13.5365080883813
30
0
0
SPLINE
5
296
100
AcDbEntity
8
1
62
256
6
ByLayer
370
13
48
1
60
0
100
AcDbSpline
70
4
71
3
72
12
73
8
40
0
40
0
40
0
40
0
40
0.250000000000017
40
0.250000000000017
40
0.500000000000035
40
0.500000000000035
40
1
40
1
40
1
40
1
41
1
10
20.6895750822519
20
13.5365080883813
30
0
41
1
10
20.6797877909998
20
13.5398053640222
30
0
41
1
10
20.6696528470764
20
13.5431851999826
30
0
41
1
10
20.6491013511466
20
13.5499063320938
30
0
41
1
10
20.6386633397842
20
13.5532508422353
30
0
41
1
10
20.6070021243873
20
13.5631204921061
30
0
41
1
10
20.5853624046735
20
13.5695059812684
30
0
41
1
10
20.5630664829401
20
13.5756182921987
30
0
0
SPLINE
5
297
100
AcDbEntity
8
1
62
256
6
ByLayer
370
13
48
1
60
0
100
AcDbSpline
70
4
71
3
72
10
73
6
40
0
40
0
40
0
40
0
40
0.5
40
0.5
40
1
40
1
40
1
40
1
41
1
10
20.5078962998556
20
11.9223191113785
30
0
41
1
10
20.5171169809717
20
11.9209911047899
30
0
41
1
10
20.526430419855
20
11.9203224746175
30
0
41
1
10
20.5448517691592
20
11.9207907187632
30
0
41
1
10
20.554004508237
20
11.9218974145888
30
0
41
1
10
20.5630664829401
20
11.9243817078013
30
0
0
SPLINE
5
298
100
AcDbEntity
8
1
62
256
6
ByLayer
370
13
48
1
60
0
100
AcDbSpline
70
4
71
3
72
12
73
8
40
0
40
0
40
0
40
0
40
0.499999999999994
40
0.499999999999994
40
0.749999999999997
40
0.749999999999997
40
1
40
1
40
1
40
1
41
1
10
20.5630664829401
20
11.9243817078013
30
0
41
1
10
20.5853883500682
20
11.9305011315265
30
0
41
1
10
20.6070280741521
20
11.9368875070525
30
0
41
1
10
20.6386623386886
20
11.9467488907556
30
0
41
1
10
20.6490681138889
20
11.950082919295
30
0
41
1
10
20.6696309264217
20
11.9568075101878
30
0
41
1
10
20.6797910047871
20
11.9601957188036
30
0
41
1
10
20.6895750822519
20
11.9634919116188
30
0
0
SPLINE
5
299
100
AcDbEntity
8
1
62
256
6
ByLayer
370
13
48
1
60
0
100
AcDbSpline
70
4
71
3
72
14
73
10
40
0
40
0
40
0
40
0
40
0.124999999999979
40
0.124999999999979
40
0.249999999999957
40
0.249999999999957
40
0.499999999999972
40
0.499999999999972
40
1
40
1
40
1
40
1
41
1
10
20.689575082252
20
11.9634919116187
30
0
41
1
10
20.6854906253668
20
11.9599791275773
30
0
41
1
10
20.6812686429088
20
11.9564311753548
30
0
41
1
10
20.6726870754496
20
11.9494647212888
30
0
41
1
10
20.6683124188113
20
11.9460187104927
30
0
41
1
10
20.654979693661
20
11.935817503529
30
0
41
1
10
20.6458614098373
20
11.929234200464
30
0
41
1
10
20.6178411008007
20
11.910076732199
30
0
41
1
10
20.5982832905099
20
11.8980875964635
30
0
41
1
10
20.5777964183276
20
11.8868354001416
30
0
0
SPLINE
5
29A
100
AcDbEntity
8
1
62
256
6
ByLayer
370
18
48
1
60
0
100
AcDbSpline
70
4
71
3
72
8
73
4
40
0
40
0
40
0
40
0
40
1
40
1
40
1
40
1
41
1
10
21.5736393071979
20
11.7450919662651
30
0
41
1
10
21.5625061390313
20
11.7505780918719
30
0
41
1
10
21.5516209883488
20
11.7553495974201
30
0
41
1
10
21.5410533905926
20
11.7595370790307
30
0
0
SPLINE
5
29B
100
AcDbEntity
8
1
62
256
6
ByLayer
370
18
48
1
60
0
100
AcDbSpline
70
4
71
3
72
8
73
4
40
0
40
0
40
0
40
0
40
1
40
1
40
1
40
1
41
1
10
21.5410533905933
20
13.7404629209734
30
0
41
1
10
21.5516209883493
20
13.744650402584
30
0
41
1
10
21.5625061390312
20
13.7494219081281
30
0
41
1
10
21.5736393071979
20
13.7549080337349
30
0
0
SPLINE
5
29C
100
AcDbEntity
8
1
62
256
6
ByLayer
370
18
48
1
60
0
100
AcDbSpline
70
4
71
2
72
6
73
3
40
0
40
0
40
0
40
1
40
1
40
1
41
1.03026900348646
10
23.7912761225269
20
13.9998096443164
30
0
41
0.712444466878672
10
24
20
14.0089227256143
30
0
41
1.03026900348646
10
24
20
13.8
30
0
0
SPLINE
5
29D
100
AcDbEntity
8
1
62
256
6
ByLayer
370
18
48
1
60
0
100
AcDbSpline
70
4
71
2
72
6
73
3
40
0
40
0
40
0
40
1
40
1
40
1
41
1.03026900348646
10
24
20
11.7
30
0
41
0.712444466878672
10
24
20
11.4910772743856
30
0
41
1.03026900348646
10
23.7912761225269
20
11.5001903556836
30
0
0
LINE
5
7D
100
AcDbEntity
8
80
62
256
6
ByLayer
370
18
48
1
60
0
100
AcDbLine
10
0
20
0
30
0
11
0
21
-5
31
0
39
0
210
0
220
0
230
1
0
LINE
5
7E
100
AcDbEntity
8
81
62
256
6
ByLayer
370
18
48
1
60
0
100
AcDbLine
10
24
20
14
30
0
11
29
21
14
31
0
39
0
210
0
220
0
230
1
0
LINE
5
7F
100
AcDbEntity
8
1
62
256
6
ByLayer
370
18
48
1
60
0
100
AcDbLine
10
2.866025
20
-3.341781
30
0
11
3
21
-2.841781
31
0
39
0
210
0
220
0
230
1
0
LINE
5
80
100
AcDbEntity
8
1
62
256
6
ByLayer
370
18
48
1
60
0
100
AcDbLine
10
-3
20
-2.841781
30
0
11
-2.866025
21
-3.341781
31
0
39
0
210
0
220
0
230
1
0
LINE
5
81
100
AcDbEntity
8
1
62
256
6
ByLayer
370
18
48
1
60
0
100
AcDbLine
10
-2.39282
20
13.808219
30
0
11
-2.421819
21
13.699994
31
0
39
0
210
0
220
0
230
1
0
LINE
5
82
100
AcDbEntity
8
1
62
256
6
ByLayer
370
18
48
1
60
0
100
AcDbLine
10
2.421819
20
13.699994
30
0
11
2.39282
21
13.808219
31
0
39
0
210
0
220
0
230
1
0
LINE
5
83
100
AcDbEntity
8
1
62
256
6
ByLayer
370
18
48
1
60
0
100
AcDbLine
10
-3
20
-0.324968
30
0
11
-3
21
-2.841781
31
0
39
0
210
0
220
0
230
1
0
LINE
5
84
100
AcDbEntity
8
1
62
256
6
ByLayer
370
18
48
1
60
0
100
AcDbLine
10
3
20
-2.841781
30
0
11
3
21
-0.324968
31
0
39
0
210
0
220
0
230
1
0
LINE
5
85
100
AcDbEntity
8
1
62
256
6
ByLayer
370
18
48
1
60
0
100
AcDbLine
10
11.927128
20
9.726185
30
0
11
12.800821
21
9.726185
31
0
39
0
210
0
220
0
230
1
0
LINE
5
86
100
AcDbEntity
8
1
62
256
6
ByLayer
370
18
48
1
60
0
100
AcDbLine
10
12.802057
20
7.673815
30
0
11
11.927128
21
7.673815
31
0
39
0
210
0
220
0
230
1
0
LINE
5
87
100
AcDbEntity
8
1
62
256
6
ByLayer
370
18
48
1
60
0
100
AcDbLine
10
10.598466
20
9.726185
30
0
11
11.472162
21
9.726185
31
0
39
0
210
0
220
0
230
1
0
LINE
5
88
100
AcDbEntity
8
1
62
256
6
ByLayer
370
18
48
1
60
0
100
AcDbLine
10
11.47214
20
7.673815
30
0
11
10.598466
21
7.673815
31
0
39
0
210
0
220
0
230
1
0
LINE
5
89
100
AcDbEntity
8
1
62
256
6
ByLayer
370
18
48
1
60
0
100
AcDbLine
10
12.07597
20
11.45
30
0
11
11.61635
21
11.45
31
0
39
0
210
0
220
0
230
1
0
LINE
5
8A
100
AcDbEntity
8
1
62
256
6
ByLayer
370
18
48
1
60
0
100
AcDbLine
10
11.61635
20
5.95
30
0
11
12.07597
21
5.95
31
0
39
0
210
0
220
0
230
1
0
LINE
5
8B
100
AcDbEntity
8
1
62
256
6
ByLayer
370
18
48
1
60
0
100
AcDbLine
10
11.04923
20
1.931992
30
0
11
11.13605
21
2.018812
31
0
39
0
210
0
220
0
230
1
0
LINE
5
8C
100
AcDbEntity
8
1
62
256
6
ByLayer
370
18
48
1
60
0
100
AcDbLine
10
2.855182
20
-3.341781
30
0
11
2.709645
21
-3.341781
31
0
39
0
210
0
220
0
230
1
0
LINE
5
8D
100
AcDbEntity
8
1
62
256
6
ByLayer
370
18
48
1
60
0
100
AcDbLine
10
2.987173
20
-2.841781
30
0
11
2.841635
21
-2.841781
31
0
39
0
210
0
220
0
230
1
0
LINE
5
8E
100
AcDbEntity
8
1
62
256
6
ByLayer
370
18
48
1
60
0
100
AcDbLine
10
2.39282
20
13.808219
30
0
11
2.340531
21
13.808219
31
0
39
0
210
0
220
0
230
1
0
LINE
5
8F
100
AcDbEntity
8
1
62
256
6
ByLayer
370
18
48
1
60
0
100
AcDbLine
10
2.340531
20
13.808219
30
0
11
-2.39282
21
13.808219
31
0
39
0
210
0
220
0
230
1
0
LINE
5
90
100
AcDbEntity
8
1
62
256
6
ByLayer
370
18
48
1
60
0
100
AcDbLine
10
2.855182
20
-3.341781
30
0
11
2.866025
21
-3.341781
31
0
39
0
210
0
220
0
230
1
0
LINE
5
91
100
AcDbEntity
8
1
62
256
6
ByLayer
370
18
48
1
60
0
100
AcDbLine
10
2.709644
20
-3.341781
30
0
11
-2.866025
21
-3.341781
31
0
39
0
210
0
220
0
230
1
0
LINE
5
92
100
AcDbEntity
8
1
62
256
6
ByLayer
370
18
48
1
60
0
100
AcDbLine
10
2.841635
20
-2.841781
30
0
11
-3
21
-2.841781
31
0
39
0
210
0
220
0
230
1
0
LINE
5
93
100
AcDbEntity
8
1
62
256
6
ByLayer
370
18
48
1
60
0
100
AcDbLine
10
2.987173
20
-2.841781
30
0
11
3
21
-2.841781
31
0
39
0
210
0
220
0
230
1
0
LINE
5
94
100
AcDbEntity
8
1
62
256
6
ByLayer
370
18
48
1
60
0
100
AcDbLine
10
6.069918
20
-0.324981
30
0
11
9.132847
21
-0.324981
31
0
39
0
210
0
220
0
230
1
0
LINE
5
95
100
AcDbEntity
8
1
62
256
6
ByLayer
370
18
48
1
60
0
100
AcDbLine
10
9.404549
20
-0.324981
30
0
11
9.476736
21
-0.324981
31
0
39
0
210
0
220
0
230
1
0
LINE
5
96
100
AcDbEntity
8
1
62
256
6
ByLayer
370
18
48
1
60
0
100
AcDbLine
10
6.347156
20
-0.25
30
0
11
9.530813
21
-0.25
31
0
39
0
210
0
220
0
230
1
0
LINE
5
97
100
AcDbEntity
8
1
62
256
6
ByLayer
370
18
48
1
60
0
100
AcDbLine
10
9.57055
20
-0.324981
30
0
11
14.717168
21
-0.324981
31
0
39
0
210
0
220
0
230
1
0
LINE
5
98
100
AcDbEntity
8
1
62
256
6
ByLayer
370
13
48
1
60
0
100
AcDbLine
10
6.34714
20
-0.249981
30
0
11
14.818469
21
-0.249981
31
0
39
0
210
0
220
0
230
1
0
LINE
5
99
100
AcDbEntity
8
1
62
256
6
ByLayer
370
13
48
1
60
0
100
AcDbLine
10
15.849282
20
0.587132
30
0
11
7.69001
21
0.587132
31
0
39
0
210
0
220
0
230
1
0
LINE
5
9A
100
AcDbEntity
8
1
62
256
6
ByLayer
370
18
48
1
60
0
100
AcDbLine
10
-14.999681
20
-0.324981
30
0
11
-15
21
-0.324981
31
0
39
0
210
0
220
0
230
1
0
LINE
5
9B
100
AcDbEntity
8
1
62
256
6
ByLayer
370
18
48
1
60
0
100
AcDbLine
10
-15
20
-0.306072
30
0
11
-15
21
-0.324584
31
0
39
0
210
0
220
0
230
1
0
LINE
5
9C
100
AcDbEntity
8
1
62
256
6
ByLayer
370
18
48
1
60
0
100
AcDbLine
10
-14.999681
20
-0.324981
30
0
11
-14.9346
21
-0.324981
31
0
39
0
210
0
220
0
230
1
0
LINE
5
9D
100
AcDbEntity
8
1
62
256
6
ByLayer
370
18
48
1
60
0
100
AcDbLine
10
-14.914359
20
-0.324981
30
0
11
-14.717119
21
-0.324981
31
0
39
0
210
0
220
0
230
1
0
LINE
5
9E
100
AcDbEntity
8
1
62
256
6
ByLayer
370
18
48
1
60
0
100
AcDbLine
10
-14.914359
20
-0.324981
30
0
11
-14.934615
21
-0.324981
31
0
39
0
210
0
220
0
230
1
0
LINE
5
9F
100
AcDbEntity
8
1
62
256
6
ByLayer
370
18
48
1
60
0
100
AcDbLine
10
-15
20
-0.118631
30
0
11
-15
21
-0.223745
31
0
39
0
210
0
220
0
230
1
0
LINE
5
A0
100
AcDbEntity
8
1
62
256
6
ByLayer
370
13
48
1
60
0
100
AcDbLine
10
-14.975345
20
-0.249981
30
0
11
-14.818342
21
-0.249981
31
0
39
0
210
0
220
0
230
1
0
LINE
5
A1
100
AcDbEntity
8
1
62
256
6
ByLayer
370
18
48
1
60
0
100
AcDbLine
10
20.310196
20
13.7
30
0
11
19.058214
21
13.7
31
0
39
0
210
0
220
0
230
1
0
LINE
5
A2
100
AcDbEntity
8
1
62
256
6
ByLayer
370
18
48
1
60
0
100
AcDbLine
10
20.310196
20
11.8
30
0
11
19.058214
21
11.8
31
0
39
0
210
0
220
0
230
1
0
LINE
5
A3
100
AcDbEntity
8
1
62
256
6
ByLayer
370
18
48
1
60
0
100
AcDbLine
10
20.310196
20
11.8
30
0
11
20.372136
21
11.974762
31
0
39
0
210
0
220
0
230
1
0
LINE
5
A4
100
AcDbEntity
8
1
62
256
6
ByLayer
370
18
48
1
60
0
100
AcDbLine
10
20.372136
20
11.974762
30
0
11
20.43
21
12.1549
31
0
39
0
210
0
220
0
230
1
0
LINE
5
A5
100
AcDbEntity
8
1
62
256
6
ByLayer
370
18
48
1
60
0
100
AcDbLine
10
20.43
20
12.1549
30
0
11
20.43
21
13.3451
31
0
39
0
210
0
220
0
230
1
0
LINE
5
A6
100
AcDbEntity
8
1
62
256
6
ByLayer
370
18
48
1
60
0
100
AcDbLine
10
20.43
20
13.3451
30
0
11
20.372136
21
13.525238
31
0
39
0
210
0
220
0
230
1
0
LINE
5
A7
100
AcDbEntity
8
1
62
256
6
ByLayer
370
18
48
1
60
0
100
AcDbLine
10
20.372136
20
13.525238
30
0
11
20.310196
21
13.7
31
0
39
0
210
0
220
0
230
1
0
LINE
5
A8
100
AcDbEntity
8
1
62
256
6
ByLayer
370
18
48
1
60
0
100
AcDbLine
10
-14.676028
20
-0.324981
30
0
11
-14.340375
21
-0.324981
31
0
39
0
210
0
220
0
230
1
0
LINE
5
A9
100
AcDbEntity
8
1
62
256
6
ByLayer
370
18
48
1
60
0
100
AcDbLine
10
-14.676028
20
-0.324981
30
0
11
-14.717168
21
-0.324981
31
0
39
0
210
0
220
0
230
1
0
LINE
5
AA
100
AcDbEntity
8
1
62
256
6
ByLayer
370
18
48
1
60
0
100
AcDbLine
10
-15
20
0.170971
30
0
11
-15
21
0.057295
31
0
39
0
210
0
220
0
230
1
0
LINE
5
AB
100
AcDbEntity
8
1
62
256
6
ByLayer
370
13
48
1
60
0
100
AcDbLine
10
-14.724773
20
-0.249981
30
0
11
-14.457784
21
-0.249981
31
0
39
0
210
0
220
0
230
1
0
LINE
5
AC
100
AcDbEntity
8
1
62
256
6
ByLayer
370
18
48
1
60
0
100
AcDbLine
10
-14.277027
20
-0.324981
30
0
11
-13.791229
21
-0.324981
31
0
39
0
210
0
220
0
230
1
0
LINE
5
AD
100
AcDbEntity
8
1
62
256
6
ByLayer
370
18
48
1
60
0
100
AcDbLine
10
-11.023492
20
-0.324981
30
0
11
-10.810031
21
-0.324981
31
0
39
0
210
0
220
0
230
1
0
LINE
5
AE
100
AcDbEntity
8
1
62
256
6
ByLayer
370
18
48
1
60
0
100
AcDbLine
10
-10.247047
20
-0.324981
30
0
11
-9.769771
21
-0.324981
31
0
39
0
210
0
220
0
230
1
0
LINE
5
AF
100
AcDbEntity
8
1
62
256
6
ByLayer
370
13
48
1
60
0
100
AcDbLine
10
-14.313523
20
-0.249981
30
0
11
-13.927342
21
-0.249981
31
0
39
0
210
0
220
0
230
1
0
LINE
5
B0
100
AcDbEntity
8
1
62
256
6
ByLayer
370
13
48
1
60
0
100
AcDbLine
10
-14.868253
20
0.394519
30
0
11
-14.763862
21
0.394519
31
0
39
0
210
0
220
0
230
1
0
LINE
5
B1
100
AcDbEntity
8
1
62
256
6
ByLayer
370
18
48
1
60
0
100
AcDbLine
10
-13.703327
20
-0.324981
30
0
11
-13.048061
21
-0.324981
31
0
39
0
210
0
220
0
230
1
0
LINE
5
B2
100
AcDbEntity
8
1
62
256
6
ByLayer
370
18
48
1
60
0
100
AcDbLine
10
-11.287197
20
-0.324981
30
0
11
-11.132078
21
-0.324981
31
0
39
0
210
0
220
0
230
1
0
LINE
5
B3
100
AcDbEntity
8
1
62
256
6
ByLayer
370
13
48
1
60
0
100
AcDbLine
10
-13.72716
20
-0.249981
30
0
11
-13.206552
21
-0.249981
31
0
39
0
210
0
220
0
230
1
0
LINE
5
B4
100
AcDbEntity
8
1
62
256
6
ByLayer
370
18
48
1
60
0
100
AcDbLine
10
6.347156
20
-0.25
30
0
11
6.281861
21
-0.25
31
0
39
0
210
0
220
0
230
1
0
LINE
5
B5
100
AcDbEntity
8
1
62
256
6
ByLayer
370
13
48
1
60
0
100
AcDbLine
10
-14.265575
20
0.394519
30
0
11
-14.125544
21
0.394519
31
0
39
0
210
0
220
0
230
1
0
LINE
5
B6
100
AcDbEntity
8
1
62
256
6
ByLayer
370
18
48
1
60
0
100
AcDbLine
10
11.027336
20
0.675
30
0
11
11.136049
21
0.675
31
0
39
0
210
0
220
0
230
1
0
LINE
5
B7
100
AcDbEntity
8
1
62
256
6
ByLayer
370
18
48
1
60
0
100
AcDbLine
10
-12.9317
20
-0.324981
30
0
11
-12.074956
21
-0.324981
31
0
39
0
210
0
220
0
230
1
0
LINE
5
B8
100
AcDbEntity
8
1
62
256
6
ByLayer
370
13
48
1
60
0
100
AcDbLine
10
-12.941904
20
-0.249981
30
0
11
-12.261918
21
-0.249981
31
0
39
0
210
0
220
0
230
1
0
LINE
5
B9
100
AcDbEntity
8
1
62
256
6
ByLayer
370
13
48
1
60
0
100
AcDbLine
10
-13.470275
20
0.394519
30
0
11
-13.288685
21
0.394519
31
0
39
0
210
0
220
0
230
1
0
LINE
5
BA
100
AcDbEntity
8
1
62
256
6
ByLayer
370
13
48
1
60
0
100
AcDbLine
10
19.058214
20
13.7
30
0
11
19.058214
21
11.8
31
0
39
0
210
0
220
0
230
1
0
LINE
5
BB
100
AcDbEntity
8
1
62
256
6
ByLayer
370
18
48
1
60
0
100
AcDbLine
10
16
20
11
30
0
11
16
21
2.360261
31
0
39
0
210
0
220
0
230
1
0
LINE
5
BC
100
AcDbEntity
8
1
62
256
6
ByLayer
370
13
48
1
60
0
100
AcDbLine
10
16
20
11
30
0
11
14.2623
21
11
31
0
39
0
210
0
220
0
230
1
0
LINE
5
BD
100
AcDbEntity
8
1
62
256
6
ByLayer
370
18
48
1
60
0
100
AcDbLine
10
-11.923781
20
-0.324981
30
0
11
-11.287177
21
-0.324981
31
0
39
0
210
0
220
0
230
1
0
LINE
5
BE
100
AcDbEntity
8
1
62
256
6
ByLayer
370
13
48
1
60
0
100
AcDbLine
10
-11.918509
20
-0.249981
30
0
11
-11.153931
21
-0.249981
31
0
39
0
210
0
220
0
230
1
0
LINE
5
BF
100
AcDbEntity
8
1
62
256
6
ByLayer
370
13
48
1
60
0
100
AcDbLine
10
-12.44548
20
0.394519
30
0
11
-12.212601
21
0.394519
31
0
39
0
210
0
220
0
230
1
0
LINE
5
C0
100
AcDbEntity
8
1
62
256
6
ByLayer
370
18
48
1
60
0
100
AcDbLine
10
-10.612458
20
-0.324981
30
0
11
-10.247044
21
-0.324981
31
0
39
0
210
0
220
0
230
1
0
LINE
5
C1
100
AcDbEntity
8
1
62
256
6
ByLayer
370
18
48
1
60
0
100
AcDbLine
10
11.593015
20
0.675
30
0
11
15.999997
21
0.675
31
0
39
0
210
0
220
0
230
1
0
LINE
5
C2
100
AcDbEntity
8
1
62
256
6
ByLayer
370
18
48
1
60
0
100
AcDbLine
10
11.384426
20
13.7
30
0
11
11.950105
21
13.7
31
0
39
0
210
0
220
0
230
1
0
LINE
5
C3
100
AcDbEntity
8
1
62
256
6
ByLayer
370
18
48
1
60
0
100
AcDbLine
10
-9.404549
20
-0.324981
30
0
11
-9.769771
21
-0.324981
31
0
39
0
210
0
220
0
230
1
0
LINE
5
C4
100
AcDbEntity
8
1
62
256
6
ByLayer
370
18
48
1
60
0
100
AcDbLine
10
-11.023467
20
-0.324981
30
0
11
-11.132078
21
-0.324981
31
0
39
0
210
0
220
0
230
1
0
LINE
5
C5
100
AcDbEntity
8
1
62
256
6
ByLayer
370
13
48
1
60
0
100
AcDbLine
10
-10.588147
20
-0.249981
30
0
11
-9.966378
21
-0.249981
31
0
39
0
210
0
220
0
230
1
0
LINE
5
C6
100
AcDbEntity
8
1
62
256
6
ByLayer
370
13
48
1
60
0
100
AcDbLine
10
-11.127967
20
0.394519
30
0
11
-10.82614
21
0.394519
31
0
39
0
210
0
220
0
230
1
0
LINE
5
C7
100
AcDbEntity
8
1
62
256
6
ByLayer
370
13
48
1
60
0
100
AcDbLine
10
15.999997
20
1.75
30
0
11
11.593015
21
1.75
31
0
39
0
210
0
220
0
230
1
0
LINE
5
C8
100
AcDbEntity
8
1
62
256
6
ByLayer
370
18
48
1
60
0
100
AcDbLine
10
11.13605
20
0.675
30
0
11
11.593015
21
0.675
31
0
39
0
210
0
220
0
230
1
0
LINE
5
C9
100
AcDbEntity
8
1
62
256
6
ByLayer
370
18
48
1
60
0
100
AcDbLine
10
11.13605
20
0.675
30
0
11
11.13605
21
2.256729
31
0
39
0
210
0
220
0
230
1
0
LINE
5
CA
100
AcDbEntity
8
1
62
256
6
ByLayer
370
18
48
1
60
0
100
AcDbLine
10
11.593015
20
0.675
30
0
11
11.593015
21
1.75
31
0
39
0
210
0
220
0
230
1
0
LINE
5
CB
100
AcDbEntity
8
1
62
256
6
ByLayer
370
18
48
1
60
0
100
AcDbLine
10
14.495689
20
13.7
30
0
11
11.950105
21
13.7
31
0
39
0
210
0
220
0
230
1
0
LINE
5
CC
100
AcDbEntity
8
1
62
256
6
ByLayer
370
18
48
1
60
0
100
AcDbLine
10
11.950105
20
11.450018
30
0
11
11.950105
21
13.7
31
0
39
0
210
0
220
0
230
1
0
LINE
5
CD
100
AcDbEntity
8
1
62
256
6
ByLayer
370
18
48
1
60
0
100
AcDbLine
10
11.950105
20
2.618806
30
0
11
11.950105
21
5.94995
31
0
39
0
210
0
220
0
230
1
0
LINE
5
CE
100
AcDbEntity
8
1
62
256
6
ByLayer
370
18
48
1
60
0
100
AcDbLine
10
14.2623
20
2.745305
30
0
11
14.2623
21
11
31
0
39
0
210
0
220
0
230
1
0
LINE
5
CF
100
AcDbEntity
8
1
62
256
6
ByLayer
370
13
48
1
60
0
100
AcDbLine
10
14.495689
20
13.7
30
0
11
14.495689
21
11.486636
31
0
39
0
210
0
220
0
230
1
0
LINE
5
D0
100
AcDbEntity
8
1
62
256
6
ByLayer
370
18
48
1
60
0
100
AcDbLine
10
-8.864082
20
-0.324981
30
0
11
-6.742319
21
-0.324981
31
0
39
0
210
0
220
0
230
1
0
LINE
5
D1
100
AcDbEntity
8
1
62
256
6
ByLayer
370
13
48
1
60
0
100
AcDbLine
10
-8.812878
20
-0.249981
30
0
11
-7.153919
21
-0.249981
31
0
39
0
210
0
220
0
230
1
0
LINE
5
D2
100
AcDbEntity
8
1
62
256
6
ByLayer
370
13
48
1
60
0
100
AcDbLine
10
-9.395388
20
0.394519
30
0
11
-8.986729
21
0.394519
31
0
39
0
210
0
220
0
230
1
0
LINE
5
D3
100
AcDbEntity
8
1
62
256
6
ByLayer
370
18
48
1
60
0
100
AcDbLine
10
-6.326108
20
-0.324981
30
0
11
-1.735827
21
-0.324981
31
0
39
0
210
0
220
0
230
1
0
LINE
5
D4
100
AcDbEntity
8
1
62
256
6
ByLayer
370
18
48
1
60
0
100
AcDbLine
10
1.735888
20
-0.324981
30
0
11
6.070109
21
-0.324981
31
0
39
0
210
0
220
0
230
1
0
LINE
5
D5
100
AcDbEntity
8
1
62
256
6
ByLayer
370
13
48
1
60
0
100
AcDbLine
10
-6.222926
20
-0.249981
30
0
11
-3.020453
21
-0.249981
31
0
39
0
210
0
220
0
230
1
0
LINE
5
D6
100
AcDbEntity
8
1
62
256
6
ByLayer
370
13
48
1
60
0
100
AcDbLine
10
3.020453
20
-0.249981
30
0
11
6.222926
21
-0.249981
31
0
39
0
210
0
220
0
230
1
0
LINE
5
D7
100
AcDbEntity
8
1
62
256
6
ByLayer
370
18
48
1
60
0
100
AcDbLine
10
11.384419
20
13.7
30
0
11
8.981883
21
13.7
31
0
39
0
210
0
220
0
230
1
0
LINE
5
D8
100
AcDbEntity
8
1
62
256
6
ByLayer
370
18
48
1
60
0
100
AcDbLine
10
11.384419
20
6.092842
30
0
11
11.384419
21
2.618806
31
0
39
0
210
0
220
0
230
1
0
LINE
5
D9
100
AcDbEntity
8
1
62
256
6
ByLayer
370
18
48
1
60
0
100
AcDbLine
10
11.384419
20
13.7
30
0
11
11.384419
21
11.307125
31
0
39
0
210
0
220
0
230
1
0
LINE
5
DA
100
AcDbEntity
8
1
62
256
6
ByLayer
370
13
48
1
60
0
100
AcDbLine
10
-6.943702
20
0.394519
30
0
11
-6.310523
21
0.394519
31
0
39
0
210
0
220
0
230
1
0
LINE
5
DB
100
AcDbEntity
8
1
62
256
6
ByLayer
370
13
48
1
60
0
100
AcDbLine
10
6.310523
20
0.394519
30
0
11
6.943702
21
0.394519
31
0
39
0
210
0
220
0
230
1
0
LINE
5
DC
100
AcDbEntity
8
1
62
256
6
ByLayer
370
13
48
1
60
0
100
AcDbLine
10
-1.912242
20
0.394519
30
0
11
1.912242
21
0.394519
31
0
39
0
210
0
220
0
230
1
0
LINE
5
DD
100
AcDbEntity
8
1
62
256
6
ByLayer
370
18
48
1
60
0
100
AcDbLine
10
-14.277027
20
-0.324981
30
0
11
-14.340409
21
-0.324981
31
0
39
0
210
0
220
0
230
1
0
LINE
5
DE
100
AcDbEntity
8
1
62
256
6
ByLayer
370
18
48
1
60
0
100
AcDbLine
10
-13.703327
20
-0.324981
30
0
11
-13.791289
21
-0.324981
31
0
39
0
210
0
220
0
230
1
0
LINE
5
DF
100
AcDbEntity
8
1
62
256
6
ByLayer
370
18
48
1
60
0
100
AcDbLine
10
-12.9317
20
-0.324981
30
0
11
-13.048064
21
-0.324981
31
0
39
0
210
0
220
0
230
1
0
LINE
5
E0
100
AcDbEntity
8
1
62
256
6
ByLayer
370
18
48
1
60
0
100
AcDbLine
10
-11.923781
20
-0.324981
30
0
11
-12.074944
21
-0.324981
31
0
39
0
210
0
220
0
230
1
0
LINE
5
E1
100
AcDbEntity
8
1
62
256
6
ByLayer
370
18
48
1
60
0
100
AcDbLine
10
-10.612458
20
-0.324981
30
0
11
-10.810022
21
-0.324981
31
0
39
0
210
0
220
0
230
1
0
LINE
5
E2
100
AcDbEntity
8
1
62
256
6
ByLayer
370
18
48
1
60
0
100
AcDbLine
10
-8.864082
20
-0.324981
30
0
11
-9.132847
21
-0.324981
31
0
39
0
210
0
220
0
230
1
0
LINE
5
E3
100
AcDbEntity
8
1
62
256
6
ByLayer
370
18
48
1
60
0
100
AcDbLine
10
-6.326108
20
-0.324981
30
0
11
-6.742492
21
-0.324981
31
0
39
0
210
0
220
0
230
1
0
LINE
5
E4
100
AcDbEntity
8
1
62
256
6
ByLayer
370
18
48
1
60
0
100
AcDbLine
10
1.735945
20
-0.324981
30
0
11
-1.735945
21
-0.324981
31
0
39
0
210
0
220
0
230
1
0
LINE
5
E5
100
AcDbEntity
8
1
62
256
6
ByLayer
370
18
48
1
60
0
100
AcDbLine
10
-1.866556
20
13.7
30
0
11
-3.309233
21
13.7
31
0
39
0
210
0
220
0
230
1
0
LINE
5
E6
100
AcDbEntity
8
1
62
256
6
ByLayer
370
18
48
1
60
0
100
AcDbLine
10
-15
20
0.675
30
0
11
-15
21
6.5
31
0
39
0
210
0
220
0
230
1
0
LINE
5
E7
100
AcDbEntity
8
1
62
256
6
ByLayer
370
18
48
1
60
0
100
AcDbLine
10
-15
20
0.675
30
0
11
7.946449
21
0.675
31
0
39
0
210
0
220
0
230
1
0
LINE
5
E8
100
AcDbEntity
8
1
62
256
6
ByLayer
370
18
48
1
60
0
100
AcDbLine
10
7.946449
20
0.675
30
0
11
11.02733
21
0.675
31
0
39
0
210
0
220
0
230
1
0
LINE
5
E9
100
AcDbEntity
8
1
62
256
6
ByLayer
370
18
48
1
60
0
100
AcDbLine
10
11.02733
20
1.75
30
0
11
11.02733
21
0.675
31
0
39
0
210
0
220
0
230
1
0
LINE
5
EA
100
AcDbEntity
8
1
62
256
6
ByLayer
370
18
48
1
60
0
100
AcDbLine
10
-15
20
6.5
30
0
11
-11.304719
21
10.195281
31
0
39
0
210
0
220
0
230
1
0
LINE
5
EB
100
AcDbEntity
8
1
62
256
6
ByLayer
370
18
48
1
60
0
100
AcDbLine
10
4.739242
20
13.7
30
0
11
8.981883
21
13.7
31
0
39
0
210
0
220
0
230
1
0
LINE
5
EC
100
AcDbEntity
8
1
62
256
6
ByLayer
370
13
48
1
60
0
100
AcDbLine
10
8.981883
20
13.7
30
0
11
8.981883
21
2.747645
31
0
39
0
210
0
220
0
230
1
0
LINE
5
ED
100
AcDbEntity
8
1
62
256
6
ByLayer
370
18
48
1
60
0
100
AcDbLine
10
5.615908
20
2.75
30
0
11
8.740757
21
2.75
31
0
39
0
210
0
220
0
230
1
0
LINE
5
EE
100
AcDbEntity
8
1
62
256
6
ByLayer
370
13
48
1
60
0
100
AcDbLine
10
4.739242
20
13.7
30
0
11
4.739242
21
2.728263
31
0
39
0
210
0
220
0
230
1
0
LINE
5
EF
100
AcDbEntity
8
1
62
256
6
ByLayer
370
18
48
1
60
0
100
AcDbLine
10
0
20
13.7
30
0
11
4.739242
21
13.7
31
0
39
0
210
0
220
0
230
1
0
LINE
5
F0
100
AcDbEntity
8
1
62
256
6
ByLayer
370
13
48
1
60
0
100
AcDbLine
10
11.02733
20
1.75
30
0
11
-1.866556
21
1.75
31
0
39
0
210
0
220
0
230
1
0
LINE
5
F1
100
AcDbEntity
8
1
62
256
6
ByLayer
370
18
48
1
60
0
100
AcDbLine
10
0
20
13.7
30
0
11
0
21
2.205961
31
0
39
0
210
0
220
0
230
1
0
LINE
5
F2
100
AcDbEntity
8
1
62
256
6
ByLayer
370
18
48
1
60
0
100
AcDbLine
10
0
20
13.7
30
0
11
-1.866556
21
13.7
31
0
39
0
210
0
220
0
230
1
0
LINE
5
F3
100
AcDbEntity
8
1
62
256
6
ByLayer
370
13
48
1
60
0
100
AcDbLine
10
-1.866556
20
1.75
30
0
11
-1.866556
21
13.7
31
0
39
0
210
0
220
0
230
1
0
LINE
5
F4
100
AcDbEntity
8
1
62
256
6
ByLayer
370
18
48
1
60
0
100
AcDbLine
10
15.999997
20
0.675
30
0
11
15.999997
21
1.75
31
0
39
0
210
0
220
0
230
1
0
LINE
5
F5
100
AcDbEntity
8
1
62
256
6
ByLayer
370
18
48
1
60
0
100
AcDbLine
10
15.284029
20
0.079247
30
0
11
6.833472
21
0.079247
31
0
39
0
210
0
220
0
230
1
0
LINE
5
F6
100
AcDbEntity
8
1
62
256
6
ByLayer
370
18
48
1
60
0
100
AcDbLine
10
12.284856
20
8.311856
30
0
11
12.272764
21
8.322236
31
0
39
0
210
0
220
0
230
1
0
LINE
5
F7
100
AcDbEntity
8
1
62
256
6
ByLayer
370
18
48
1
60
0
100
AcDbLine
10
12.272764
20
9.077764
30
0
11
12.284856
21
9.088144
31
0
39
0
210
0
220
0
230
1
0
LINE
5
F8
100
AcDbEntity
8
1
62
256
6
ByLayer
370
13
48
1
60
0
100
AcDbLine
10
13.18148
20
8.322236
30
0
11
12.272764
21
8.322236
31
0
39
0
210
0
220
0
230
1
0
LINE
5
F9
100
AcDbEntity
8
1
62
256
6
ByLayer
370
13
48
1
60
0
100
AcDbLine
10
13.18148
20
9.077764
30
0
11
12.272764
21
9.077764
31
0
39
0
210
0
220
0
230
1
0
LINE
5
FA
100
AcDbEntity
8
1
62
256
6
ByLayer
370
18
48
1
60
0
100
AcDbLine
10
13.20141
20
8.311856
30
0
11
12.284856
21
8.311856
31
0
39
0
210
0
220
0
230
1
0
LINE
5
FB
100
AcDbEntity
8
1
62
256
6
ByLayer
370
18
48
1
60
0
100
AcDbLine
10
13.20141
20
9.088144
30
0
11
12.284856
21
9.088144
31
0
39
0
210
0
220
0
230
1
0
LINE
5
FC
100
AcDbEntity
8
1
62
256
6
ByLayer
370
13
48
1
60
0
100
AcDbLine
10
12.445164
20
10.125834
30
0
11
11.897876
21
10.125834
31
0
39
0
210
0
220
0
230
1
0
LINE
5
FD
100
AcDbEntity
8
1
62
256
6
ByLayer
370
13
48
1
60
0
100
AcDbLine
10
12.445164
20
7.274166
30
0
11
11.897876
21
7.274166
31
0
39
0
210
0
220
0
230
1
0
LINE
5
FE
100
AcDbEntity
8
1
62
256
6
ByLayer
370
18
48
1
60
0
100
AcDbLine
10
12.452691
20
7.254166
30
0
11
11.90601
21
7.254166
31
0
39
0
210
0
220
0
230
1
0
LINE
5
FF
100
AcDbEntity
8
1
62
256
6
ByLayer
370
18
48
1
60
0
100
AcDbLine
10
12.452691
20
10.145834
30
0
11
11.90601
21
10.145834
31
0
39
0
210
0
220
0
230
1
0
LINE
5
100
100
AcDbEntity
8
1
62
256
6
ByLayer
370
13
48
1
60
0
100
AcDbLine
10
11.435198
20
9.74807
30
0
11
11.344014
21
9.74807
31
0
39
0
210
0
220
0
230
1
0
LINE
5
101
100
AcDbEntity
8
1
62
256
6
ByLayer
370
13
48
1
60
0
100
AcDbLine
10
11.435198
20
7.65193
30
0
11
11.343403
21
7.65193
31
0
39
0
210
0
220
0
230
1
0
LINE
5
102
100
AcDbEntity
8
1
62
256
6
ByLayer
370
18
48
1
60
0
100
AcDbLine
10
11.430632
20
7.64231
30
0
11
11.352067
21
7.64231
31
0
39
0
210
0
220
0
230
1
0
LINE
5
103
100
AcDbEntity
8
1
62
256
6
ByLayer
370
18
48
1
60
0
100
AcDbLine
10
11.430632
20
9.75769
30
0
11
11.352482
21
9.75769
31
0
39
0
210
0
220
0
230
1
0
LINE
5
104
100
AcDbEntity
8
1
62
256
6
ByLayer
370
13
48
1
60
0
100
AcDbLine
10
23.185573
20
12.253373
30
0
11
23.198466
21
12.366412
31
0
39
0
210
0
220
0
230
1
0
LINE
5
105
100
AcDbEntity
8
1
62
256
6
ByLayer
370
13
48
1
60
0
100
AcDbLine
10
23.181051
20
13.138586
30
0
11
23.169631
21
13.203352
31
0
39
0
210
0
220
0
230
1
0
LINE
5
106
100
AcDbEntity
8
1
62
256
6
ByLayer
370
13
48
1
60
0
100
AcDbLine
10
23.169631
20
13.203352
30
0
11
23.205637
21
13.209701
31
0
39
0
210
0
220
0
230
1
0
LINE
5
107
100
AcDbEntity
8
1
62
256
6
ByLayer
370
13
48
1
60
0
100
AcDbLine
10
22.857829
20
13.383476
30
0
11
22.550819
21
13.370071
31
0
39
0
210
0
220
0
230
1
0
LINE
5
108
100
AcDbEntity
8
1
62
256
6
ByLayer
370
13
48
1
60
0
100
AcDbLine
10
22.857829
20
13.383476
30
0
11
22.855556
21
13.435521
31
0
39
0
210
0
220
0
230
1
0
LINE
5
109
100
AcDbEntity
8
1
62
256
6
ByLayer
370
13
48
1
60
0
100
AcDbLine
10
22.548547
20
13.422116
30
0
11
22.550819
21
13.370071
31
0
39
0
210
0
220
0
230
1
0
LINE
5
10A
100
AcDbEntity
8
1
62
256
6
ByLayer
370
13
48
1
60
0
100
AcDbLine
10
23.221218
20
12.249308
30
0
11
23.185573
21
12.253373
31
0
39
0
210
0
220
0
230
1
0
LINE
5
10B
100
AcDbEntity
8
1
62
256
6
ByLayer
370
13
48
1
60
0
100
AcDbLine
10
22.55443
20
12.063934
30
0
11
22.80106
21
12.053329
31
0
39
0
210
0
220
0
230
1
0
LINE
5
10C
100
AcDbEntity
8
1
62
256
6
ByLayer
370
13
48
1
60
0
100
AcDbLine
10
22.7985
20
11.9938
30
0
11
22.80106
21
12.053329
31
0
39
0
210
0
220
0
230
1
0
LINE
5
10D
100
AcDbEntity
8
1
62
256
6
ByLayer
370
13
48
1
60
0
100
AcDbLine
10
22.55443
20
12.063934
30
0
11
22.55187
21
12.004405
31
0
39
0
210
0
220
0
230
1
0
LINE
5
10E
100
AcDbEntity
8
1
62
256
6
ByLayer
370
13
48
1
60
0
100
AcDbLine
10
22.529478
20
13.416478
30
0
11
22.540569
21
13.368699
31
0
39
0
210
0
220
0
230
1
0
LINE
5
10F
100
AcDbEntity
8
1
62
256
6
ByLayer
370
13
48
1
60
0
100
AcDbLine
10
22.526593
20
12.01276
30
0
11
22.540569
21
12.065967
31
0
39
0
210
0
220
0
230
1
0
LINE
5
110
100
AcDbEntity
8
1
62
256
6
ByLayer
370
13
48
1
60
0
100
AcDbLine
10
22.540569
20
12.219095
30
0
11
22.540569
21
12.065967
31
0
39
0
210
0
220
0
230
1
0
LINE
5
111
100
AcDbEntity
8
1
62
256
6
ByLayer
370
13
48
1
60
0
100
AcDbLine
10
22.540569
20
13.368699
30
0
11
22.540569
21
13.280905
31
0
39
0
210
0
220
0
230
1
0
LINE
5
112
100
AcDbEntity
8
1
62
256
6
ByLayer
370
13
48
1
60
0
100
AcDbLine
10
22.335357
20
12.094649
30
0
11
22.335357
21
12.220426
31
0
39
0
210
0
220
0
230
1
0
LINE
5
113
100
AcDbEntity
8
1
62
256
6
ByLayer
370
13
48
1
60
0
100
AcDbLine
10
22.335357
20
13.279574
30
0
11
22.335357
21
13.343352
31
0
39
0
210
0
220
0
230
1
0
LINE
5
114
100
AcDbEntity
8
1
62
256
6
ByLayer
370
13
48
1
60
0
100
AcDbLine
10
22.7985
20
11.9938
30
0
11
22.55187
21
12.004405
31
0
39
0
210
0
220
0
230
1
0
LINE
5
115
100
AcDbEntity
8
1
62
256
6
ByLayer
370
13
48
1
60
0
100
AcDbLine
10
22.55187
20
12.004405
30
0
11
22.326491
21
11.608927
31
0
39
0
210
0
220
0
230
1
0
LINE
5
116
100
AcDbEntity
8
1
62
256
6
ByLayer
370
13
48
1
60
0
100
AcDbLine
10
22.204069
20
11.864275
30
0
11
22.335357
21
12.094649
31
0
39
0
210
0
220
0
230
1
0
LINE
5
117
100
AcDbEntity
8
1
62
256
6
ByLayer
370
13
48
1
60
0
100
AcDbLine
10
22.548547
20
13.422116
30
0
11
22.855556
21
13.435521
31
0
39
0
210
0
220
0
230
1
0
LINE
5
118
100
AcDbEntity
8
1
62
256
6
ByLayer
370
13
48
1
60
0
100
AcDbLine
10
22.31797
20
13.888454
30
0
11
22.548547
21
13.422116
31
0
39
0
210
0
220
0
230
1
0
LINE
5
119
100
AcDbEntity
8
1
62
256
6
ByLayer
370
13
48
1
60
0
100
AcDbLine
10
22.335357
20
13.343352
30
0
11
22.204069
21
13.60888
31
0
39
0
210
0
220
0
230
1
0
LINE
5
11A
100
AcDbEntity
8
1
62
256
6
ByLayer
370
13
48
1
60
0
100
AcDbLine
10
23.205637
20
13.209701
30
0
11
23.217628
21
13.141697
31
0
39
0
210
0
220
0
230
1
0
LINE
5
11B
100
AcDbEntity
8
1
62
256
6
ByLayer
370
13
48
1
60
0
100
AcDbLine
10
23.234426
20
12.365102
30
0
11
23.221218
21
12.249308
31
0
39
0
210
0
220
0
230
1
0
LINE
5
11C
100
AcDbEntity
8
1
62
256
6
ByLayer
370
13
48
1
60
0
100
AcDbLine
10
23.221218
20
12.249308
30
0
11
23.896869
21
11.789903
31
0
39
0
210
0
220
0
230
1
0
LINE
5
11D
100
AcDbEntity
8
1
62
256
6
ByLayer
370
13
48
1
60
0
100
AcDbLine
10
23.434617
20
11.561276
30
0
11
22.7985
21
11.9938
31
0
39
0
210
0
220
0
230
1
0
LINE
5
11E
100
AcDbEntity
8
1
62
256
6
ByLayer
370
13
48
1
60
0
100
AcDbLine
10
23.833344
20
13.731084
30
0
11
23.205637
21
13.209701
31
0
39
0
210
0
220
0
230
1
0
LINE
5
11F
100
AcDbEntity
8
1
62
256
6
ByLayer
370
13
48
1
60
0
100
AcDbLine
10
22.855556
20
13.435521
30
0
11
23.460936
21
13.938357
31
0
39
0
210
0
220
0
230
1
0
LINE
5
120
100
AcDbEntity
8
1
62
256
6
ByLayer
370
13
48
1
60
0
100
AcDbLine
10
23.950722
20
13.065401
30
0
11
23.833344
21
13.731084
31
0
39
0
210
0
220
0
230
1
0
LINE
5
121
100
AcDbEntity
8
1
62
256
6
ByLayer
370
13
48
1
60
0
100
AcDbLine
10
23.845346
20
13.7332
30
0
11
23.833344
21
13.731084
31
0
39
0
210
0
220
0
230
1
0
LINE
5
122
100
AcDbEntity
8
1
62
256
6
ByLayer
370
13
48
1
60
0
100
AcDbLine
10
23.460178
20
13.955705
30
0
11
23.460936
21
13.938357
31
0
39
0
210
0
220
0
230
1
0
LINE
5
123
100
AcDbEntity
8
1
62
256
6
ByLayer
370
13
48
1
60
0
100
AcDbLine
10
22.31797
20
13.888454
30
0
11
22.317212
21
13.905802
31
0
39
0
210
0
220
0
230
1
0
LINE
5
124
100
AcDbEntity
8
1
62
256
6
ByLayer
370
13
48
1
60
0
100
AcDbLine
10
23.460936
20
13.938357
30
0
11
22.31797
21
13.888454
31
0
39
0
210
0
220
0
230
1
0
LINE
5
125
100
AcDbEntity
8
1
62
256
6
ByLayer
370
13
48
1
60
0
100
AcDbLine
10
23.896869
20
11.789903
30
0
11
23.970911
21
12.439052
31
0
39
0
210
0
220
0
230
1
0
LINE
5
126
100
AcDbEntity
8
1
62
256
6
ByLayer
370
13
48
1
60
0
100
AcDbLine
10
23.962724
20
13.067517
30
0
11
23.950722
21
13.065401
31
0
39
0
210
0
220
0
230
1
0
LINE
5
127
100
AcDbEntity
8
1
62
256
6
ByLayer
370
13
48
1
60
0
100
AcDbLine
10
23.970911
20
12.439052
30
0
11
23.982793
21
12.437696
31
0
39
0
210
0
220
0
230
1
0
LINE
5
128
100
AcDbEntity
8
1
62
256
6
ByLayer
370
13
48
1
60
0
100
AcDbLine
10
23.896869
20
11.789903
30
0
11
23.908751
21
11.788548
31
0
39
0
210
0
220
0
230
1
0
LINE
5
129
100
AcDbEntity
8
1
62
256
6
ByLayer
370
13
48
1
60
0
100
AcDbLine
10
22.325637
20
11.589084
30
0
11
22.326491
21
11.608927
31
0
39
0
210
0
220
0
230
1
0
LINE
5
12A
100
AcDbEntity
8
1
62
256
6
ByLayer
370
13
48
1
60
0
100
AcDbLine
10
23.434617
20
11.561276
30
0
11
23.433764
21
11.541434
31
0
39
0
210
0
220
0
230
1
0
LINE
5
12B
100
AcDbEntity
8
1
62
256
6
ByLayer
370
13
48
1
60
0
100
AcDbLine
10
22.326491
20
11.608927
30
0
11
23.434617
21
11.561276
31
0
39
0
210
0
220
0
230
1
0
LINE
5
12C
100
AcDbEntity
8
1
62
256
6
ByLayer
370
13
48
1
60
0
100
AcDbLine
10
22.204069
20
12.245356
30
0
11
22.204069
21
11.864275
31
0
39
0
210
0
220
0
230
1
0
LINE
5
12D
100
AcDbEntity
8
1
62
256
6
ByLayer
370
13
48
1
60
0
100
AcDbLine
10
22.169867
20
11.864275
30
0
11
22.204069
21
11.864275
31
0
39
0
210
0
220
0
230
1
0
LINE
5
12E
100
AcDbEntity
8
1
62
256
6
ByLayer
370
13
48
1
60
0
100
AcDbLine
10
22.204069
20
13.60888
30
0
11
22.204069
21
13.254644
31
0
39
0
210
0
220
0
230
1
0
LINE
5
12F
100
AcDbEntity
8
1
62
256
6
ByLayer
370
13
48
1
60
0
100
AcDbLine
10
22.204069
20
13.60888
30
0
11
22.169867
21
13.60888
31
0
39
0
210
0
220
0
230
1
0
LINE
5
130
100
AcDbEntity
8
1
62
256
6
ByLayer
370
13
48
1
60
0
100
AcDbLine
10
22.169867
20
13.245958
30
0
11
22.169867
21
13.60888
31
0
39
0
210
0
220
0
230
1
0
LINE
5
131
100
AcDbEntity
8
1
62
256
6
ByLayer
370
13
48
1
60
0
100
AcDbLine
10
22.317212
20
13.905802
30
0
11
23.460178
21
13.955705
31
0
39
0
210
0
220
0
230
1
0
LINE
5
132
100
AcDbEntity
8
1
62
256
6
ByLayer
370
13
48
1
60
0
100
AcDbLine
10
23.845346
20
13.7332
30
0
11
23.962724
21
13.067517
31
0
39
0
210
0
220
0
230
1
0
LINE
5
133
100
AcDbEntity
8
1
62
256
6
ByLayer
370
13
48
1
60
0
100
AcDbLine
10
23.982793
20
12.437696
30
0
11
23.908751
21
11.788548
31
0
39
0
210
0
220
0
230
1
0
LINE
5
134
100
AcDbEntity
8
1
62
256
6
ByLayer
370
13
48
1
60
0
100
AcDbLine
10
23.433741
20
11.541435
30
0
11
22.325637
21
11.589084
31
0
39
0
210
0
220
0
230
1
0
LINE
5
135
100
AcDbEntity
8
1
62
256
6
ByLayer
370
13
48
1
60
0
100
AcDbLine
10
22.169867
20
11.864275
30
0
11
22.169867
21
12.254042
31
0
39
0
210
0
220
0
230
1
0
LINE
5
136
100
AcDbEntity
8
1
62
256
6
ByLayer
370
13
48
1
60
0
100
AcDbLine
10
23.970911
20
12.439052
30
0
11
23.476999
21
12.456623
31
0
39
0
210
0
220
0
230
1
0
LINE
5
137
100
AcDbEntity
8
1
62
256
6
ByLayer
370
13
48
1
60
0
100
AcDbLine
10
23.365132
20
13.086233
30
0
11
23.950722
21
13.065401
31
0
39
0
210
0
220
0
230
1
0
LINE
5
138
100
AcDbEntity
8
1
62
256
6
ByLayer
370
13
48
1
60
0
100
AcDbLine
10
23.110271
20
13.158899
30
0
11
23.055309
21
12.967388
31
0
39
0
210
0
220
0
230
1
0
LINE
5
139
100
AcDbEntity
8
1
62
256
6
ByLayer
370
13
48
1
60
0
100
AcDbLine
10
23.110271
20
13.158899
30
0
11
23.181051
21
13.138586
31
0
39
0
210
0
220
0
230
1
0
LINE
5
13A
100
AcDbEntity
8
1
62
256
6
ByLayer
370
13
48
1
60
0
100
AcDbLine
10
23.198466
20
12.366412
30
0
11
23.110271
21
12.341101
31
0
39
0
210
0
220
0
230
1
0
LINE
5
13B
100
AcDbEntity
8
1
62
256
6
ByLayer
370
13
48
1
60
0
100
AcDbLine
10
23.110271
20
12.341101
30
0
11
23.055309
21
12.532612
31
0
39
0
210
0
220
0
230
1
0
LINE
5
13C
100
AcDbEntity
8
1
62
256
6
ByLayer
370
13
48
1
60
0
100
AcDbLine
10
23.198466
20
12.366412
30
0
11
23.143505
21
12.557923
31
0
39
0
210
0
220
0
230
1
0
LINE
5
13D
100
AcDbEntity
8
1
62
256
6
ByLayer
370
13
48
1
60
0
100
AcDbLine
10
23.181051
20
13.138586
30
0
11
23.12609
21
12.947075
31
0
39
0
210
0
220
0
230
1
0
LINE
5
13E
100
AcDbEntity
8
1
62
256
6
ByLayer
370
13
48
1
60
0
100
AcDbLine
10
23.217628
20
13.141697
30
0
11
23.365132
21
13.086233
31
0
39
0
210
0
220
0
230
1
0
LINE
5
13F
100
AcDbEntity
8
1
62
256
6
ByLayer
370
13
48
1
60
0
100
AcDbLine
10
23.476999
20
12.456623
30
0
11
23.234426
21
12.365102
31
0
39
0
210
0
220
0
230
1
0
LINE
5
140
100
AcDbEntity
8
1
62
256
6
ByLayer
370
13
48
1
60
0
100
AcDbLine
10
22.540569
20
13.280905
30
0
11
22.512736
21
13.085812
31
0
39
0
210
0
220
0
230
1
0
LINE
5
141
100
AcDbEntity
8
1
62
256
6
ByLayer
370
13
48
1
60
0
100
AcDbLine
10
22.540569
20
12.219095
30
0
11
22.512736
21
12.414188
31
0
39
0
210
0
220
0
230
1
0
LINE
5
142
100
AcDbEntity
8
1
62
256
6
ByLayer
370
13
48
1
60
0
100
AcDbLine
10
21.840065
20
13.113509
30
0
11
21.898071
21
13.267106
31
0
39
0
210
0
220
0
230
1
0
LINE
5
143
100
AcDbEntity
8
1
62
256
6
ByLayer
370
13
48
1
60
0
100
AcDbLine
10
21.898071
20
12.232894
30
0
11
21.840065
21
12.386491
31
0
39
0
210
0
220
0
230
1
0
LINE
5
144
100
AcDbEntity
8
1
62
256
6
ByLayer
370
13
48
1
60
0
100
AcDbLine
10
21.942246
20
13.255347
30
0
11
21.911386
21
13.076085
31
0
39
0
210
0
220
0
230
1
0
LINE
5
145
100
AcDbEntity
8
1
62
256
6
ByLayer
370
13
48
1
60
0
100
AcDbLine
10
21.942246
20
12.244653
30
0
11
21.911386
21
12.423915
31
0
39
0
210
0
220
0
230
1
0
LINE
5
146
100
AcDbEntity
8
1
62
256
6
ByLayer
370
13
48
1
60
0
100
AcDbLine
10
21.98675
20
12.444932
30
0
11
21.988283
21
12.248622
31
0
39
0
210
0
220
0
230
1
0
LINE
5
147
100
AcDbEntity
8
1
62
256
6
ByLayer
370
13
48
1
60
0
100
AcDbLine
10
21.988283
20
13.251378
30
0
11
21.98675
21
13.055068
31
0
39
0
210
0
220
0
230
1
0
LINE
5
148
100
AcDbEntity
8
1
62
256
6
ByLayer
370
13
48
1
60
0
100
AcDbLine
10
23.055309
20
12.532612
30
0
11
23.143505
21
12.557923
31
0
39
0
210
0
220
0
230
1
0
LINE
5
149
100
AcDbEntity
8
1
62
256
6
ByLayer
370
13
48
1
60
0
100
AcDbLine
10
23.14976
20
12.560001
30
0
11
23.392333
21
12.651522
31
0
39
0
210
0
220
0
230
1
0
LINE
5
14A
100
AcDbEntity
8
1
62
256
6
ByLayer
370
13
48
1
60
0
100
AcDbLine
10
23.12609
20
12.947075
30
0
11
23.055309
21
12.967388
31
0
39
0
210
0
220
0
230
1
0
LINE
5
14B
100
AcDbEntity
8
1
62
256
6
ByLayer
370
13
48
1
60
0
100
AcDbLine
10
23.280166
20
12.889432
30
0
11
23.132661
21
12.944895
31
0
39
0
210
0
220
0
230
1
0
LINE
5
14C
100
AcDbEntity
8
1
62
256
6
ByLayer
370
13
48
1
60
0
100
AcDbLine
10
22.159687
20
12.450193
30
0
11
22.169867
21
12.254042
31
0
39
0
210
0
220
0
230
1
0
LINE
5
14D
100
AcDbEntity
8
1
62
256
6
ByLayer
370
13
48
1
60
0
100
AcDbLine
10
22.159687
20
13.049807
30
0
11
22.169867
21
13.245958
31
0
39
0
210
0
220
0
230
1
0
LINE
5
14E
100
AcDbEntity
8
1
62
256
6
ByLayer
370
13
48
1
60
0
100
AcDbLine
10
23.055309
20
12.967388
30
0
11
23.055309
21
12.887428
31
0
39
0
210
0
220
0
230
1
0
LINE
5
14F
100
AcDbEntity
8
1
62
256
6
ByLayer
370
13
48
1
60
0
100
AcDbLine
10
23.055309
20
12.612572
30
0
11
23.055309
21
12.532612
31
0
39
0
210
0
220
0
230
1
0
LINE
5
150
100
AcDbEntity
8
1
62
256
6
ByLayer
370
13
48
1
60
0
100
AcDbLine
10
23.450275
20
12.673396
30
0
11
23.267248
21
12.673396
31
0
39
0
210
0
220
0
230
1
0
LINE
5
151
100
AcDbEntity
8
1
62
256
6
ByLayer
370
13
48
1
60
0
100
AcDbLine
10
23.267248
20
12.826604
30
0
11
23.447065
21
12.826604
31
0
39
0
210
0
220
0
230
1
0
LINE
5
152
100
AcDbEntity
8
1
62
256
6
ByLayer
370
13
48
1
60
0
100
AcDbLine
10
21.956078
20
12.963489
30
0
11
21.956078
21
13.039691
31
0
39
0
210
0
220
0
230
1
0
LINE
5
153
100
AcDbEntity
8
1
62
256
6
ByLayer
370
13
48
1
60
0
100
AcDbLine
10
23.267248
20
12.673396
30
0
11
23.055309
21
12.612572
31
0
39
0
210
0
220
0
230
1
0
LINE
5
154
100
AcDbEntity
8
1
62
256
6
ByLayer
370
13
48
1
60
0
100
AcDbLine
10
21.956078
20
12.460309
30
0
11
21.956078
21
12.536511
31
0
39
0
210
0
220
0
230
1
0
LINE
5
155
100
AcDbEntity
8
1
62
256
6
ByLayer
370
13
48
1
60
0
100
AcDbLine
10
23.055309
20
12.612572
30
0
11
23.033325
21
12.689176
31
0
39
0
210
0
220
0
230
1
0
LINE
5
156
100
AcDbEntity
8
1
62
256
6
ByLayer
370
13
48
1
60
0
100
AcDbLine
10
23.267248
20
12.673396
30
0
11
23.245263
21
12.75
31
0
39
0
210
0
220
0
230
1
0
LINE
5
157
100
AcDbEntity
8
1
62
256
6
ByLayer
370
13
48
1
60
0
100
AcDbLine
10
23.245263
20
12.75
30
0
11
23.267248
21
12.826604
31
0
39
0
210
0
220
0
230
1
0
LINE
5
158
100
AcDbEntity
8
1
62
256
6
ByLayer
370
13
48
1
60
0
100
AcDbLine
10
23.055309
20
12.887428
30
0
11
23.267248
21
12.826604
31
0
39
0
210
0
220
0
230
1
0
LINE
5
159
100
AcDbEntity
8
1
62
256
6
ByLayer
370
13
48
1
60
0
100
AcDbLine
10
23.033325
20
12.810824
30
0
11
23.055309
21
12.887428
31
0
39
0
210
0
220
0
230
1
0
LINE
5
15A
100
AcDbEntity
8
1
62
256
6
ByLayer
370
13
48
1
60
0
100
AcDbLine
10
21.956078
20
12.963489
30
0
11
21.744607
21
12.963489
31
0
39
0
210
0
220
0
230
1
0
LINE
5
15B
100
AcDbEntity
8
1
62
256
6
ByLayer
370
13
48
1
60
0
100
AcDbLine
10
21.744607
20
12.536511
30
0
11
21.956078
21
12.536511
31
0
39
0
210
0
220
0
230
1
0
LINE
5
15C
100
AcDbEntity
8
1
62
256
6
ByLayer
370
13
48
1
60
0
100
AcDbLine
10
23.033325
20
12.689176
30
0
11
23.245263
21
12.75
31
0
39
0
210
0
220
0
230
1
0
LINE
5
15D
100
AcDbEntity
8
1
62
256
6
ByLayer
370
13
48
1
60
0
100
AcDbLine
10
23.245263
20
12.75
30
0
11
23.033325
21
12.810824
31
0
39
0
210
0
220
0
230
1
0
LINE
5
15E
100
AcDbEntity
8
1
62
256
6
ByLayer
370
13
48
1
60
0
100
AcDbLine
10
21.894607
20
13.916999
30
0
11
21.894607
21
13.268451
31
0
39
0
210
0
220
0
230
1
0
LINE
5
15F
100
AcDbEntity
8
1
62
256
6
ByLayer
370
13
48
1
60
0
100
AcDbLine
10
21.894607
20
13.268451
30
0
11
21.834215
21
13.117118
31
0
39
0
210
0
220
0
230
1
0
LINE
5
160
100
AcDbEntity
8
1
62
256
6
ByLayer
370
13
48
1
60
0
100
AcDbLine
10
21.894607
20
12.231549
30
0
11
21.834215
21
12.382882
31
0
39
0
210
0
220
0
230
1
0
LINE
5
161
100
AcDbEntity
8
1
62
256
6
ByLayer
370
13
48
1
60
0
100
AcDbLine
10
21.894607
20
12.231549
30
0
11
21.894607
21
11.583001
31
0
39
0
210
0
220
0
230
1
0
LINE
5
162
100
AcDbEntity
8
1
62
256
6
ByLayer
370
13
48
1
60
0
100
AcDbLine
10
21.744607
20
12.963489
30
0
11
21.744607
21
12.536511
31
0
39
0
210
0
220
0
230
1
0
LINE
5
163
100
AcDbEntity
8
1
62
256
6
ByLayer
370
13
48
1
60
0
100
AcDbLine
10
21.391053
20
12.963489
30
0
11
21.744607
21
12.963489
31
0
39
0
210
0
220
0
230
1
0
LINE
5
164
100
AcDbEntity
8
1
62
256
6
ByLayer
370
13
48
1
60
0
100
AcDbLine
10
21.391053
20
12.536511
30
0
11
21.744607
21
12.536511
31
0
39
0
210
0
220
0
230
1
0
LINE
5
165
100
AcDbEntity
8
1
62
256
6
ByLayer
370
13
48
1
60
0
100
AcDbLine
10
20.485661
20
12.75
30
0
11
20.574777
21
12.398019
31
0
39
0
210
0
220
0
230
1
0
LINE
5
166
100
AcDbEntity
8
1
62
256
6
ByLayer
370
13
48
1
60
0
100
AcDbLine
10
20.574777
20
13.101981
30
0
11
20.485661
21
12.75
31
0
39
0
210
0
220
0
230
1
0
LINE
5
167
100
AcDbEntity
8
1
62
256
6
ByLayer
370
18
48
1
60
0
100
AcDbLine
10
21.134342
20
11.8
30
0
11
21.325336
21
11.8
31
0
39
0
210
0
220
0
230
1
0
LINE
5
168
100
AcDbEntity
8
1
62
256
6
ByLayer
370
18
48
1
60
0
100
AcDbLine
10
21.325336
20
13.7
30
0
11
21.134342
21
13.7
31
0
39
0
210
0
220
0
230
1
0
LINE
5
169
100
AcDbEntity
8
1
62
256
6
ByLayer
370
13
48
1
60
0
100
AcDbLine
10
21.541053
20
11.759537
30
0
11
21.541053
21
12.139649
31
0
39
0
210
0
220
0
230
1
0
LINE
5
16A
100
AcDbEntity
8
1
62
256
6
ByLayer
370
13
48
1
60
0
100
AcDbLine
10
21.391053
20
12.536511
30
0
11
21.391053
21
12.963489
31
0
39
0
210
0
220
0
230
1
0
LINE
5
16B
100
AcDbEntity
8
1
62
256
6
ByLayer
370
13
48
1
60
0
100
AcDbLine
10
21.541053
20
13.360351
30
0
11
21.541053
21
13.740463
31
0
39
0
210
0
220
0
230
1
0
LINE
5
16C
100
AcDbEntity
8
1
62
256
6
ByLayer
370
18
48
1
60
0
100
AcDbLine
10
20.577796
20
11.8
30
0
11
20.31019
21
11.8
31
0
39
0
210
0
220
0
230
1
0
LINE
5
16D
100
AcDbEntity
8
1
62
256
6
ByLayer
370
18
48
1
60
0
100
AcDbLine
10
20.577796
20
13.7
30
0
11
20.31019
21
13.7
31
0
39
0
210
0
220
0
230
1
0
LINE
5
16E
100
AcDbEntity
8
1
62
256
6
ByLayer
370
13
48
1
60
0
100
AcDbLine
10
20.507896
20
11.874603
30
0
11
20.336601
21
11.874603
31
0
39
0
210
0
220
0
230
1
0
LINE
5
16F
100
AcDbEntity
8
1
62
256
6
ByLayer
370
13
48
1
60
0
100
AcDbLine
10
20.353528
20
11.922319
30
0
11
20.507896
21
11.922319
31
0
39
0
210
0
220
0
230
1
0
LINE
5
170
100
AcDbEntity
8
1
62
256
6
ByLayer
370
13
48
1
60
0
100
AcDbLine
10
20.507896
20
13.577681
30
0
11
20.353528
21
13.577681
31
0
39
0
210
0
220
0
230
1
0
LINE
5
171
100
AcDbEntity
8
1
62
256
6
ByLayer
370
13
48
1
60
0
100
AcDbLine
10
20.507896
20
13.577681
30
0
11
20.507896
21
13.625397
31
0
39
0
210
0
220
0
230
1
0
LINE
5
172
100
AcDbEntity
8
1
62
256
6
ByLayer
370
13
48
1
60
0
100
AcDbLine
10
20.336601
20
13.625397
30
0
11
20.507896
21
13.625397
31
0
39
0
210
0
220
0
230
1
0
LINE
5
173
100
AcDbEntity
8
1
62
256
6
ByLayer
370
13
48
1
60
0
100
AcDbLine
10
20.507896
20
11.922319
30
0
11
20.507896
21
11.874603
31
0
39
0
210
0
220
0
230
1
0
LINE
5
174
100
AcDbEntity
8
1
62
256
6
ByLayer
370
18
48
1
60
0
100
AcDbLine
10
20.577796
20
13.7
30
0
11
20.689575
21
13.7
31
0
39
0
210
0
220
0
230
1
0
LINE
5
175
100
AcDbEntity
8
1
62
256
6
ByLayer
370
13
48
1
60
0
100
AcDbLine
10
20.577796
20
13.613165
30
0
11
20.577796
21
13.7
31
0
39
0
210
0
220
0
230
1
0
LINE
5
176
100
AcDbEntity
8
1
62
256
6
ByLayer
370
13
48
1
60
0
100
AcDbLine
10
20.577796
20
13.613165
30
0
11
20.563066
21
13.575618
31
0
39
0
210
0
220
0
230
1
0
LINE
5
177
100
AcDbEntity
8
1
62
256
6
ByLayer
370
13
48
1
60
0
100
AcDbLine
10
20.563066
20
11.924382
30
0
11
20.577796
21
11.886835
31
0
39
0
210
0
220
0
230
1
0
LINE
5
178
100
AcDbEntity
8
1
62
256
6
ByLayer
370
18
48
1
60
0
100
AcDbLine
10
20.577796
20
11.8
30
0
11
20.689575
21
11.8
31
0
39
0
210
0
220
0
230
1
0
LINE
5
179
100
AcDbEntity
8
1
62
256
6
ByLayer
370
13
48
1
60
0
100
AcDbLine
10
20.577796
20
11.8
30
0
11
20.577796
21
11.886835
31
0
39
0
210
0
220
0
230
1
0
LINE
5
17A
100
AcDbEntity
8
1
62
256
6
ByLayer
370
18
48
1
60
0
100
AcDbLine
10
20.689575
20
11.8
30
0
11
20.801354
21
11.8
31
0
39
0
210
0
220
0
230
1
0
LINE
5
17B
100
AcDbEntity
8
1
62
256
6
ByLayer
370
18
48
1
60
0
100
AcDbLine
10
20.801354
20
13.7
30
0
11
20.689575
21
13.7
31
0
39
0
210
0
220
0
230
1
0
LINE
5
17C
100
AcDbEntity
8
1
62
256
6
ByLayer
370
13
48
1
60
0
100
AcDbLine
10
20.689575
20
13.7
30
0
11
20.689575
21
13.536508
31
0
39
0
210
0
220
0
230
1
0
LINE
5
17D
100
AcDbEntity
8
1
62
256
6
ByLayer
370
13
48
1
60
0
100
AcDbLine
10
20.574777
20
12.398019
30
0
11
20.574777
21
13.101981
31
0
39
0
210
0
220
0
230
1
0
LINE
5
17E
100
AcDbEntity
8
1
62
256
6
ByLayer
370
13
48
1
60
0
100
AcDbLine
10
20.689575
20
11.963492
30
0
11
20.689575
21
11.8
31
0
39
0
210
0
220
0
230
1
0
LINE
5
17F
100
AcDbEntity
8
1
62
256
6
ByLayer
370
18
48
1
60
0
100
AcDbLine
10
20.957566
20
11.8
30
0
11
21.134342
21
11.8
31
0
39
0
210
0
220
0
230
1
0
LINE
5
180
100
AcDbEntity
8
1
62
256
6
ByLayer
370
13
48
1
60
0
100
AcDbLine
10
21.134342
20
13.7
30
0
11
21.134342
21
11.8
31
0
39
0
210
0
220
0
230
1
0
LINE
5
181
100
AcDbEntity
8
1
62
256
6
ByLayer
370
18
48
1
60
0
100
AcDbLine
10
21.134342
20
13.7
30
0
11
20.957566
21
13.7
31
0
39
0
210
0
220
0
230
1
0
LINE
5
182
100
AcDbEntity
8
1
62
256
6
ByLayer
370
13
48
1
60
0
100
AcDbLine
10
20.801354
20
13.7
30
0
11
20.801354
21
11.8
31
0
39
0
210
0
220
0
230
1
0
LINE
5
183
100
AcDbEntity
8
1
62
256
6
ByLayer
370
18
48
1
60
0
100
AcDbLine
10
20.801354
20
11.8
30
0
11
20.957566
21
11.8
31
0
39
0
210
0
220
0
230
1
0
LINE
5
184
100
AcDbEntity
8
1
62
256
6
ByLayer
370
13
48
1
60
0
100
AcDbLine
10
20.957566
20
11.8
30
0
11
20.957566
21
13.7
31
0
39
0
210
0
220
0
230
1
0
LINE
5
185
100
AcDbEntity
8
1
62
256
6
ByLayer
370
18
48
1
60
0
100
AcDbLine
10
20.957566
20
13.7
30
0
11
20.801354
21
13.7
31
0
39
0
210
0
220
0
230
1
0
LINE
5
186
100
AcDbEntity
8
1
62
256
6
ByLayer
370
18
48
1
60
0
100
AcDbLine
10
21.894607
20
13.916999
30
0
11
23.791276
21
13.99981
31
0
39
0
210
0
220
0
230
1
0
LINE
5
187
100
AcDbEntity
8
1
62
256
6
ByLayer
370
18
48
1
60
0
100
AcDbLine
10
24
20
13.8
30
0
11
24
21
11.7
31
0
39
0
210
0
220
0
230
1
0
LINE
5
188
100
AcDbEntity
8
1
62
256
6
ByLayer
370
18
48
1
60
0
100
AcDbLine
10
23.791276
20
11.50019
30
0
11
21.894607
21
11.583001
31
0
39
0
210
0
220
0
230
1
0
LINE
5
189
100
AcDbEntity
8
1
62
256
6
ByLayer
370
18
48
1
60
0
100
AcDbLine
10
11.136057
20
2.1
30
0
11
11.097578
21
2.1
31
0
39
0
210
0
220
0
230
1
0
MTEXT
5
29E
100
AcDbEntity
8
SK6
62
256
6
ByLayer
370
18
48
1
60
0
100
AcDbMText
10
-27.819324
20
-49.711825
30
0
210
0
220
0
230
1
1
\W0.7687;SL-QI-LF07C32-42
40
3.5
41
0
44
1.084337
50
0
71
7
72
5
7
iso_b_vert
0
DIMENSION
5
2A3
100
AcDbEntity
8
2
62
256
6
ByLayer
370
18
48
1
60
0
100
AcDbDimension
2
_U0
10
24
20
-11.75
30
0
11
12
21
-11.75
31
0
70
32
71
1
72
1
41
1
210
0
220
0
230
1
3
Standard
100
AcDbAlignedDimension
13
0
23
0
33
0
14
24
24
14
34
0
50
0
100
AcDbRotatedDimension
1001
ACAD
1000
DSTYLE
1002
{
1070
   371
1070
    13
1070
   372
1070
    13
1070
   170
1070
     0
1070
   144
1040
1.0
1070
   277
1070
     2
1070
   284
1070
     8
1070
   278
1070
    46
1070
   146
1040
1.0
1070
   345
1005
16
1070
   347
1005
16
1070
   346
1005
16
1070
   344
1005
0
1070
   343
1005
0
1070
   172
1070
     1
1070
    76
1070
     0
1070
    75
1070
     0
1070
   282
1070
     0
1070
   281
1070
     0
1070
    71
1070
     0
1070
    74
1070
     0
1070
   279
1070
     0
1070
   173
1070
     1
1070
   340
1005
29F
1070
   271
1070
     2
1070
   272
1070
     2
1070
    77
1070
     1
1070
    73
1070
     1
1070
   171
1070
     3
1070
   274
1070
     4
1070
   177
1070
     2
1070
   176
1070
     2
1070
   178
1070
     2
1070
    78
1070
     8
1070
    48
1040
-0.1
1070
    41
1040
3.5
1070
   147
1040
1.75
1070
    42
1040
1.5875
1070
    44
1040
2.0
1070
   140
1040
3.5
1002
}
1001
ACAD_DSTYLE_DIM_LINETYPE
1070
   380
1005
16
1001
ACAD_DSTYLE_DIM_EXT1_LINETYPE
1070
   381
1005
16
1001
ACAD_DSTYLE_DIM_EXT2_LINETYPE
1070
   382
1005
16
0
DIMENSION
5
2BD
100
AcDbEntity
8
2
62
256
6
ByLayer
370
18
48
1
60
0
100
AcDbDimension
2
_U1
10
24
20
22.25
30
0
11
20.5
21
22.25
31
0
70
32
71
1
72
1
41
1
210
0
220
0
230
1
3
Standard
100
AcDbAlignedDimension
13
17
23
14
33
0
14
24
24
14
34
0
50
0
100
AcDbRotatedDimension
1001
ACAD
1000
DSTYLE
1002
{
1070
   371
1070
    13
1070
   372
1070
    13
1070
   170
1070
     0
1070
   144
1040
1.0
1070
   277
1070
     2
1070
   284
1070
     8
1070
   278
1070
    46
1070
   146
1040
1.0
1070
   345
1005
16
1070
   347
1005
16
1070
   346
1005
16
1070
   344
1005
0
1070
   343
1005
0
1070
   172
1070
     1
1070
    76
1070
     0
1070
    75
1070
     0
1070
   282
1070
     0
1070
   281
1070
     0
1070
    71
1070
     0
1070
    74
1070
     0
1070
   279
1070
     0
1070
   173
1070
     1
1070
   340
1005
29F
1070
   271
1070
     2
1070
   272
1070
     2
1070
    77
1070
     1
1070
    73
1070
     1
1070
   171
1070
     3
1070
   274
1070
     4
1070
   177
1070
     2
1070
   176
1070
     2
1070
   178
1070
     2
1070
    78
1070
     8
1070
    48
1040
-0.1
1070
    41
1040
3.5
1070
   147
1040
1.75
1070
    42
1040
1.5875
1070
    44
1040
2.0
1070
   140
1040
3.5
1002
}
1001
ACAD_DSTYLE_DIM_LINETYPE
1070
   380
1005
16
1001
ACAD_DSTYLE_DIM_EXT1_LINETYPE
1070
   381
1005
16
1001
ACAD_DSTYLE_DIM_EXT2_LINETYPE
1070
   382
1005
16
0
DIMENSION
5
2D6
100
AcDbEntity
8
2
62
256
6
ByLayer
370
18
48
1
60
0
100
AcDbDimension
2
_U2
10
48.75
20
0
30
0
11
48.75
21
7
31
0
70
32
71
1
72
1
41
1
210
0
220
0
230
1
3
Standard
100
AcDbAlignedDimension
13
24
23
14
33
0
14
0
24
0
34
0
50
90
100
AcDbRotatedDimension
1001
ACAD
1000
DSTYLE
1002
{
1070
   371
1070
    13
1070
   372
1070
    13
1070
   170
1070
     0
1070
   144
1040
1.0
1070
   277
1070
     2
1070
   284
1070
     8
1070
   278
1070
    46
1070
   146
1040
1.0
1070
   345
1005
16
1070
   347
1005
16
1070
   346
1005
16
1070
   344
1005
0
1070
   343
1005
0
1070
   172
1070
     1
1070
    76
1070
     0
1070
    75
1070
     0
1070
   282
1070
     0
1070
   281
1070
     0
1070
    71
1070
     0
1070
    74
1070
     0
1070
   279
1070
     0
1070
   173
1070
     1
1070
   340
1005
29F
1070
   271
1070
     2
1070
   272
1070
     2
1070
    77
1070
     1
1070
    73
1070
     0
1070
   171
1070
     3
1070
   274
1070
     4
1070
   177
1070
     2
1070
   176
1070
     2
1070
   178
1070
     2
1070
    78
1070
     8
1070
    48
1040
-0.1
1070
    41
1040
3.5
1070
   147
1040
1.75
1070
    42
1040
1.5875
1070
    44
1040
2.0
1070
   140
1040
3.5
1002
}
1001
ACAD_DSTYLE_DIM_LINETYPE
1070
   380
1005
16
1001
ACAD_DSTYLE_DIM_EXT1_LINETYPE
1070
   381
1005
16
1001
ACAD_DSTYLE_DIM_EXT2_LINETYPE
1070
   382
1005
16
0
DIMENSION
5
2EF
100
AcDbEntity
8
2
62
256
6
ByLayer
370
18
48
1
60
0
100
AcDbDimension
2
_U3
10
35.75
20
11.5
30
0
11
35.75
21
12.75
31
0
70
32
71
1
72
1
41
1
210
0
220
0
230
1
3
Standard
100
AcDbAlignedDimension
13
24
23
14
33
0
14
24
24
11.5
34
0
50
90
100
AcDbRotatedDimension
1001
ACAD
1000
DSTYLE
1002
{
1070
   371
1070
    13
1070
   372
1070
    13
1070
   170
1070
     0
1070
   144
1040
1.0
1070
   277
1070
     2
1070
   284
1070
     8
1070
   278
1070
    46
1070
   146
1040
1.0
1070
   345
1005
16
1070
   347
1005
16
1070
   346
1005
16
1070
   344
1005
0
1070
   343
1005
0
1070
   172
1070
     1
1070
    76
1070
     0
1070
    75
1070
     0
1070
   282
1070
     0
1070
   281
1070
     0
1070
    71
1070
     0
1070
    74
1070
     0
1070
   279
1070
     0
1070
   173
1070
     1
1070
   340
1005
29F
1070
   271
1070
     2
1070
   272
1070
     2
1070
    77
1070
     1
1070
    73
1070
     0
1070
   171
1070
     3
1070
   274
1070
     4
1070
   177
1070
     2
1070
   176
1070
     2
1070
   178
1070
     2
1070
    78
1070
     8
1070
    48
1040
-0.1
1070
    41
1040
3.5
1070
   147
1040
1.75
1070
    42
1040
1.5875
1070
    44
1040
2.0
1070
   140
1040
3.5
1002
}
1001
ACAD_DSTYLE_DIM_LINETYPE
1070
   380
1005
16
1001
ACAD_DSTYLE_DIM_EXT1_LINETYPE
1070
   381
1005
16
1001
ACAD_DSTYLE_DIM_EXT2_LINETYPE
1070
   382
1005
16
0
ENDSEC
0
SECTION
2
OBJECTS
0
DICTIONARY
5
375
330
0
100
AcDbDictionary
280
0
281
1
3
ACAD_GROUP
350
376
3
ACAD_MLINESTYLE
350
377
0
DICTIONARY
5
376
330
0
100
AcDbDictionary
280
0
281
1
0
DICTIONARY
5
377
330
0
100
AcDbDictionary
280
0
281
1
3
Standard
350
18
0
MLINESTYLE
5
18
330
377
100
AcDbMlineStyle
2
Standard
70
0
3

62
256
51
90
52
90
71
2
49
-0.5
62
256
6
ByLayer
49
0.5
62
256
6
ByLayer
0
RASTERVARIABLES
5
366
330

100
AcDbRasterVariables
90
0
70
1
71
1
72
1
0
ENDSEC
0
EOF
