0
SECTION
2
HEADER
9
$ACADVER
1
AC1015
9
$DWGCODEPAGE
3
ANSI_1252
9
$HANDSEED
5
262
9
$ANGBASE
50
0
9
$ANGDIR
70
0
9
$ATTMODE
70
1
9
$AUNITS
70
0
9
$AUPREC
70
0
9
$CECOLOR
62
256
9
$CELTSCALE
40
1
9
$CELTYPE
6
ByLayer
9
$CELWEIGHT
370
18
9
$CLAYER
8
0
9
$CMLJUST
70
0
9
$CMLSCALE
40
1
9
$CMLSTYLE
2
Standard
9
$DIMSTYLE
2
Standard
9
$TEXTSIZE
40
0.2
9
$TEXTSTYLE
7
Standard
9
$LUNITS
70
2
9
$LUPREC
70
4
9
$EXTNAMES
290
1
9
$INSUNITS
70
4
9
$LTSCALE
40
1
9
$LWDISPLAY
290
1
9
$PDMODE
70
0
9
$PDSIZE
40
0
9
$PLINEGEN
70
0
0
ENDSEC
0
SECTION
2
CLASSES
0
CLASS
1
RASTERVARIABLES
2
AcDbRasterVariables
3
ISM
90
0
280
0
281
0
0
ENDSEC
0
SECTION
2
TABLES
0
TABLE
2
VPORT
5
258
100
AcDbSymbolTable
0
VPORT
5
1
100
AcDbSymbolTableRecord
100
AcDbViewportTableRecord
2
*Active
70
0
10
0
20
0
11
1
21
1
12
-1
22
1
13
0
23
0
14
0.5
24
0.5
15
10
25
10
16
0
26
0
36
1
17
0
27
0
37
0
0
ENDTAB
0
TABLE
2
LTYPE
5
259
100
AcDbSymbolTable
0
LTYPE
5
14
100
AcDbSymbolTableRecord
100
AcDbLinetypeTableRecord
70
0
2
ByBlock
3

72
65
73
0
40
0
0
LTYPE
5
15
100
AcDbSymbolTableRecord
100
AcDbLinetypeTableRecord
70
0
2
ByLayer
3

72
65
73
0
40
0
0
LTYPE
5
16
100
AcDbSymbolTableRecord
100
AcDbLinetypeTableRecord
70
0
2
Continuous
3
Solid line
72
65
73
0
40
0
0
LTYPE
5
6E
100
AcDbSymbolTableRecord
100
AcDbLinetypeTableRecord
70
0
2
CENTER
3
____ _ ____ _ ____ _ ____
72
65
73
4
40
47.5
49
22
74
0
49
-8.5
74
0
49
8.5
74
0
49
-8.5
74
0
0
LTYPE
5
6F
100
AcDbSymbolTableRecord
100
AcDbLinetypeTableRecord
70
0
2
DASHED
3
__ __ __ __ __ __ __ __ __
72
65
73
2
40
25.72
49
12.86
74
0
49
-12.86
74
0
0
ENDTAB
0
TABLE
2
LAYER
5
25a
100
AcDbSymbolTable
0
LAYER
5
10
100
AcDbSymbolTableRecord
100
AcDbLayerTableRecord
2
0
70
0
62
7
6
Continuous
290
1
370
-3
390
0
0
LAYER
5
71
100
AcDbSymbolTableRecord
100
AcDbLayerTableRecord
2
80
70
0
62
-6
6
Continuous
290
1
370
-3
390
0
0
LAYER
5
73
100
AcDbSymbolTableRecord
100
AcDbLayerTableRecord
2
1
70
0
62
4
6
Continuous
290
1
370
-3
390
0
0
LAYER
5
75
100
AcDbSymbolTableRecord
100
AcDbLayerTableRecord
2
81
70
0
62
-3
6
Continuous
290
1
370
-3
390
0
0
LAYER
5
D9
100
AcDbSymbolTableRecord
100
AcDbLayerTableRecord
2
2
70
0
62
7
6
Continuous
290
1
370
-3
390
0
0
LAYER
5
1CF
100
AcDbSymbolTableRecord
100
AcDbLayerTableRecord
2
Defpoints
70
0
62
7
6
Continuous
290
0
370
-3
390
0
0
LAYER
5
244
100
AcDbSymbolTableRecord
100
AcDbLayerTableRecord
2
SK4
70
0
62
2
6
CENTER
290
1
370
-3
390
0
0
LAYER
5
245
100
AcDbSymbolTableRecord
100
AcDbLayerTableRecord
2
SK1
70
0
62
4
6
Continuous
290
1
370
-3
390
0
0
LAYER
5
246
100
AcDbSymbolTableRecord
100
AcDbLayerTableRecord
2
SK2
70
0
62
7
6
Continuous
290
1
370
-3
390
0
0
LAYER
5
247
100
AcDbSymbolTableRecord
100
AcDbLayerTableRecord
2
SK6
70
0
62
5
6
Continuous
290
1
370
-3
390
0
0
ENDTAB
0
TABLE
2
STYLE
5
25b
100
AcDbSymbolTable
0
STYLE
5
11
100
AcDbSymbolTableRecord
100
AcDbTextStyleTableRecord
2
Standard
3
txt
70
0
71
0
40
0
41
1
42
0
50
0
0
STYLE
5
1B4
100
AcDbSymbolTableRecord
100
AcDbTextStyleTableRecord
2
iso_b_vert
3
simplex.shx
70
0
71
0
40
0
41
1
42
0
50
0
0
STYLE
5
1B5
100
AcDbSymbolTableRecord
100
AcDbTextStyleTableRecord
2
DWGDirectTextStyle
3
simplex
70
0
71
0
40
0
41
1
42
0
50
0
0
ENDTAB
0
TABLE
2
DIMSTYLE
5
25c
100
AcDbSymbolTable
100
AcDbDimStyleTable
0
DIMSTYLE
105
27
100
AcDbSymbolTableRecord
100
AcDbDimStyleTableRecord
2
Standard
70
0
3
<>
41
0.18
42
0.0625
44
0.18
140
0.18
147
0.09
73
0
74
0
77
1
271
2
275
0
278
52
280
0
340
11
0
ENDTAB
0
TABLE
2
VIEW
5
25d
100
AcDbSymbolTable
0
ENDTAB
0
TABLE
2
UCS
5
25e
100
AcDbSymbolTable
0
ENDTAB
0
TABLE
2
APPID
5
25f
100
AcDbSymbolTable
0
APPID
5
12
100
AcDbSymbolTableRecord
100
AcDbRegAppTableRecord
2
ACAD
70
0
0
APPID
5
1CB
100
AcDbSymbolTableRecord
100
AcDbRegAppTableRecord
2
ACAD_DSTYLE_DIMBREAK
70
0
0
APPID
5
203
100
AcDbSymbolTableRecord
100
AcDbRegAppTableRecord
2
ACAD_DSTYLE_DIM_LINETYPE
70
0
0
APPID
5
204
100
AcDbSymbolTableRecord
100
AcDbRegAppTableRecord
2
ACAD_DSTYLE_DIM_EXT1_LINETYPE
70
0
0
APPID
5
205
100
AcDbSymbolTableRecord
100
AcDbRegAppTableRecord
2
ACAD_DSTYLE_DIM_EXT2_LINETYPE
70
0
0
APPID
5
240
100
AcDbSymbolTableRecord
100
AcDbRegAppTableRecord
2
ACAD_MLEADERVER
70
0
0
ENDTAB
0
TABLE
2
BLOCK_RECORD
5
260
100
AcDbSymbolTable
0
BLOCK_RECORD
5
1F
100
AcDbSymbolTableRecord
100
AcDbBlockTableRecord
2
*Model_Space
340
0
70
0
0
BLOCK_RECORD
5
1B
100
AcDbSymbolTableRecord
100
AcDbBlockTableRecord
2
*Paper_Space
340
0
70
0
0
BLOCK_RECORD
5
23
100
AcDbSymbolTableRecord
100
AcDbBlockTableRecord
2
*Paper_Space0
340
0
70
0
0
BLOCK_RECORD
5
1D0
100
AcDbSymbolTableRecord
100
AcDbBlockTableRecord
2
*D1
340
0
70
0
0
BLOCK_RECORD
5
1DC
100
AcDbSymbolTableRecord
100
AcDbBlockTableRecord
2
_U0
340
0
70
0
0
ENDTAB
0
ENDSEC
0
SECTION
2
BLOCKS
0
BLOCK
5
20
100
AcDbEntity
8
0
100
AcDbBlockBegin
2
*Model_Space
70
0
10
0
20
0
30
0
3
*Model_Space
0
ENDBLK
5
21
100
AcDbEntity
8
0
100
AcDbBlockEnd
0
BLOCK
5
1C
100
AcDbEntity
8
0
100
AcDbBlockBegin
2
*Paper_Space
70
0
10
0
20
0
30
0
3
*Paper_Space
0
ENDBLK
5
1D
100
AcDbEntity
8
0
100
AcDbBlockEnd
0
BLOCK
5
24
100
AcDbEntity
8
0
100
AcDbBlockBegin
2
*Paper_Space0
70
0
10
0
20
0
30
0
3
*Paper_Space0
0
ENDBLK
5
25
100
AcDbEntity
8
0
100
AcDbBlockEnd
0
BLOCK
5
1D1
100
AcDbEntity
8
0
100
AcDbBlockBegin
2
*D1
70
1
10
0
20
0
30
0
3
*D1
0
LINE
5
1D3
100
AcDbEntity
8
0
62
256
6
ByLayer
370
-2
48
1
60
0
100
AcDbLine
10
30
20
11.5875
30
0
11
30
21
32.25
31
0
39
0
210
0
220
0
230
1
0
LINE
5
1D4
100
AcDbEntity
8
0
62
256
6
ByLayer
370
-2
48
1
60
0
100
AcDbLine
10
0
20
11.2375
30
0
11
0
21
32.25
31
0
39
0
210
0
220
0
230
1
0
LINE
5
1D5
100
AcDbEntity
8
0
62
256
6
ByLayer
370
-2
48
1
60
0
100
AcDbLine
10
26.5
20
30.25
30
0
11
3.5
21
30.25
31
0
39
0
210
0
220
0
230
1
0
SOLID
5
1D6
100
AcDbEntity
8
0
62
256
6
ByLayer
370
-1
48
1
60
0
100
AcDbTrace
10
26.5
20
29.666667
30
0
11
26.5
21
30.833333
31
0
12
30
22
30.25
32
0
13
30
23
30.25
33
0
39
0
210
0
220
0
230
1
0
SOLID
5
1D7
100
AcDbEntity
8
0
62
256
6
ByLayer
370
-1
48
1
60
0
100
AcDbTrace
10
3.5
20
30.833333
30
0
11
3.5
21
29.666667
31
0
12
0
22
30.25
32
0
13
0
23
30.25
33
0
39
0
210
0
220
0
230
1
0
MTEXT
5
1D8
100
AcDbEntity
8
0
62
256
6
ByLayer
370
18
48
1
60
0
100
AcDbMText
10
15
20
37.25
30
0
210
0
220
0
230
1
1
\A1;30
40
3.5
41
0
44
1
50
0
71
5
72
5
7
iso_b_vert
0
POINT
5
1D9
100
AcDbEntity
8
Defpoints
62
0
6
ByLayer
370
-1
48
1
60
0
100
AcDbPoint
10
30
20
10
30
0
39
0
210
0
220
0
230
1
50
360
0
POINT
5
1DA
100
AcDbEntity
8
Defpoints
62
0
6
ByLayer
370
-1
48
1
60
0
100
AcDbPoint
10
0
20
9.65
30
0
39
0
210
0
220
0
230
1
50
360
0
POINT
5
1DB
100
AcDbEntity
8
Defpoints
62
0
6
ByLayer
370
-1
48
1
60
0
100
AcDbPoint
10
0
20
30.25
30
0
39
0
210
0
220
0
230
1
50
360
0
ENDBLK
5
1D2
100
AcDbEntity
8
0
100
AcDbBlockEnd
0
BLOCK
5
1E3
100
AcDbEntity
8
0
100
AcDbBlockBegin
2
_U0
70
0
10
0
20
0
30
0
3
_U0
0
MTEXT
5
1DD
100
AcDbEntity
8
SK2
62
256
6
ByLayer
370
18
48
1
60
0
100
AcDbMText
10
13.095034
20
31.282634
30
0
210
0
220
0
230
1
1
\W0.6740;30
40
3.5
41
0
44
1.084337
50
0
71
7
72
5
7
iso_b_vert
0
LINE
5
1DE
100
AcDbEntity
8
SK2
62
256
6
ByLayer
370
13
48
1
60
0
100
AcDbLine
10
30
20
11.5875
30
0
11
30
21
32.25
31
0
39
0
210
0
220
0
230
1
0
LINE
5
1DF
100
AcDbEntity
8
SK2
62
256
6
ByLayer
370
13
48
1
60
0
100
AcDbLine
10
0
20
11.2375
30
0
11
0
21
32.25
31
0
39
0
210
0
220
0
230
1
0
LINE
5
1E0
100
AcDbEntity
8
SK2
62
256
6
ByLayer
370
13
48
1
60
0
100
AcDbLine
10
30
20
30.25
30
0
11
0
21
30.25
31
0
39
0
210
0
220
0
230
1
0
SOLID
5
1E1
100
AcDbEntity
8
SK2
62
256
6
ByLayer
370
18
48
1
60
0
100
AcDbTrace
10
30
20
30.25
30
0
11
26.500002
21
29.789216
31
0
12
26.499998
22
30.710784
32
0
13
26.499998
23
30.710784
33
0
39
0
210
0
220
0
230
1
0
SOLID
5
1E2
100
AcDbEntity
8
SK2
62
256
6
ByLayer
370
18
48
1
60
0
100
AcDbTrace
10
0
20
30.25
30
0
11
3.499998
21
30.710784
31
0
12
3.500002
22
29.789216
32
0
13
3.500002
23
29.789216
33
0
39
0
210
0
220
0
230
1
0
ENDBLK
5
1E4
100
AcDbEntity
8
0
100
AcDbBlockEnd
0
ENDSEC
0
SECTION
2
ENTITIES
0
ARC
5
EC
100
AcDbEntity
8
1
62
256
6
ByLayer
370
18
48
1
60
0
100
AcDbCircle
39
0
10
19.683747
20
-10.675166
30
0
40
2
210
0
220
0
230
1
100
AcDbArc
50
77.719705
51
88.119426
0
ARC
5
ED
100
AcDbEntity
8
1
62
256
6
ByLayer
370
18
48
1
60
0
100
AcDbCircle
39
0
10
9.352388
20
-0.35
30
0
40
10
210
0
220
0
230
1
100
AcDbArc
50
82.589259
51
90
0
ARC
5
EE
100
AcDbEntity
8
1
62
256
6
ByLayer
370
18
48
1
60
0
100
AcDbCircle
39
0
10
9.352388
20
0.35
30
0
40
10
210
0
220
0
230
1
100
AcDbArc
50
270
51
277.410741
0
ARC
5
EF
100
AcDbEntity
8
SK1
62
256
6
ByLayer
370
18
48
1
60
0
100
AcDbCircle
39
0
10
-16
20
5.1
30
0
40
0.5
210
0
220
0
230
1
100
AcDbArc
50
270
51
0
0
ARC
5
F0
100
AcDbEntity
8
SK1
62
256
6
ByLayer
370
18
48
1
60
0
100
AcDbCircle
39
0
10
-16
20
-5.1
30
0
40
0.5
210
0
220
0
230
1
100
AcDbArc
50
0
51
90
0
ARC
5
F1
100
AcDbEntity
8
SK1
62
256
6
ByLayer
370
18
48
1
60
0
100
AcDbCircle
39
0
10
-0.4
20
7.750053
30
0
40
0.4
210
0
220
0
230
1
100
AcDbArc
50
272.2
51
0
0
ARC
5
F2
100
AcDbEntity
8
SK1
62
256
6
ByLayer
370
18
48
1
60
0
100
AcDbCircle
39
0
10
-0.4
20
-7.750053
30
0
40
0.4
210
0
220
0
230
1
100
AcDbArc
50
0
51
87.8
0
ELLIPSE
5
F3
100
AcDbEntity
8
1
62
256
6
ByLayer
370
18
48
1
60
0
100
AcDbEllipse
10
21.19036
20
-0.029207
30
0
11
0.157151656796243
21
-8.92582337066482
31
0
210
0
220
0
230
1
40
0.378512
41
-3.13242329447446
42
-3.12049305170004
0
ELLIPSE
5
F4
100
AcDbEntity
8
1
62
256
6
ByLayer
370
18
48
1
60
0
100
AcDbEllipse
10
25.655493
20
-6.105518
30
0
11
0.733987859080258
21
-0.736791573460747
31
0
210
0
220
0
230
1
40
0.992404
41
0
42
6.28318530717959
0
ELLIPSE
5
F5
100
AcDbEntity
8
1
62
256
6
ByLayer
370
18
48
1
60
0
100
AcDbEllipse
10
25.655493
20
-6.105518
30
0
11
-0.917484823850347
21
0.920989466825952
31
0
210
0
220
0
230
1
40
0.992404
41
-2.4279139358987
42
0.351413740475515
0
ELLIPSE
5
F6
100
AcDbEntity
8
1
62
256
6
ByLayer
370
18
48
1
60
0
100
AcDbEllipse
10
25.664208
20
-6.096836
30
0
11
0.988060579531126
21
-0.991834810427939
31
0
210
0
220
0
230
1
40
0.992404
41
0.713678717691194
42
3.04297339603075
0
ELLIPSE
5
F7
100
AcDbEntity
8
1
62
256
6
ByLayer
370
18
48
1
60
0
100
AcDbEllipse
10
21.19036
20
0.029207
30
0
11
0.157151656820854
21
8.9258233687012
31
0
210
0
220
0
230
1
40
0.378512
41
3.12049305170022
42
-2.99053031080291
0
ELLIPSE
5
F8
100
AcDbEntity
8
1
62
256
6
ByLayer
370
18
48
1
60
0
100
AcDbEllipse
10
195.03337
20
-0.870913
30
0
11
201.974476616436
21
-1.54808240645556
31
0
210
0
220
0
230
1
40
0.071878
41
-2.57767630842101
42
-2.55422286662555
0
ELLIPSE
5
F9
100
AcDbEntity
8
1
62
256
6
ByLayer
370
18
48
1
60
0
100
AcDbEllipse
10
29.268582
20
-0.004261
30
0
11
0.297685541215312
21
-9.45771975354211
31
0
210
0
220
0
230
1
40
0.844099
41
-0.726928540219858
42
-0.713062813053285
0
ELLIPSE
5
FA
100
AcDbEntity
8
1
62
256
6
ByLayer
370
18
48
1
60
0
100
AcDbEllipse
10
24.290075
20
0.035387
30
0
11
0.719955293798496
21
9.22277487326406
31
0
210
0
220
0
230
1
40
0.08055
41
-2.47310885438107
42
-2.25710884884546
0
ELLIPSE
5
FB
100
AcDbEntity
8
1
62
256
6
ByLayer
370
18
48
1
60
0
100
AcDbEllipse
10
27.107721
20
0.035922
30
0
11
0.73083707887484
21
9.36217277061687
31
0
210
0
220
0
230
1
40
0.08055
41
-2.51321334633238
42
-2.27190633012831
0
ELLIPSE
5
FC
100
AcDbEntity
8
1
62
256
6
ByLayer
370
18
48
1
60
0
100
AcDbEllipse
10
22.475356
20
0.081702
30
0
11
10.5181421480424
21
3.78916158393457
31
0
210
0
220
0
230
1
40
0.788441
41
-1.43613823776161
42
-1.4249481567563
0
ELLIPSE
5
FD
100
AcDbEntity
8
1
62
256
6
ByLayer
370
18
48
1
60
0
100
AcDbEllipse
10
146.960115
20
-0.753689
30
0
11
174.789216903766
21
-1.3397138198395
31
0
210
0
220
0
230
1
40
0.071878
41
-2.35441575744487
42
-2.32222728656514
0
ELLIPSE
5
FE
100
AcDbEntity
8
1
62
256
6
ByLayer
370
13
48
1
60
0
100
AcDbEllipse
10
25.358887
20
6.667644
30
0
11
-1.22879864020433
21
-1.23349245138311
31
0
210
0
220
0
230
1
40
0.992404
41
-0.155533598419463
42
0
0
ELLIPSE
5
FF
100
AcDbEntity
8
1
62
256
6
ByLayer
370
13
48
1
60
0
100
AcDbEllipse
10
25.358887
20
6.667644
30
0
11
-1.22879864020433
21
-1.23349245138311
31
0
210
0
220
0
230
1
40
0.992404
41
0
42
-2.986010142136
0
ELLIPSE
5
100
100
AcDbEntity
8
1
62
256
6
ByLayer
370
13
48
1
60
0
100
AcDbEllipse
10
25.358245
20
6.668283
30
0
11
-1.23386924600986
21
-1.23858242607906
31
0
210
0
220
0
230
1
40
0.992404
41
-0.207958642021362
42
0
0
ELLIPSE
5
101
100
AcDbEntity
8
1
62
256
6
ByLayer
370
13
48
1
60
0
100
AcDbEllipse
10
25.358245
20
6.668283
30
0
11
-1.23386924600986
21
-1.23858242607906
31
0
210
0
220
0
230
1
40
0.992404
41
0
42
-2.93358503621463
0
ELLIPSE
5
102
100
AcDbEntity
8
1
62
256
6
ByLayer
370
18
48
1
60
0
100
AcDbEllipse
10
22.90124
20
10.745717
30
0
11
2.99734989070267
21
0.141412794422424
31
0
210
0
220
0
230
1
40
0.340279
41
-1.65662980835859
42
-1.4820968831404
0
ELLIPSE
5
103
100
AcDbEntity
8
1
62
256
6
ByLayer
370
18
48
1
60
0
100
AcDbEllipse
10
35.34534
20
10.357647
30
0
11
13.1010951954472
21
-7.73798676887985
31
0
210
0
220
0
230
1
40
0.981525
41
-2.39243486316424
42
-2.22026469456375
0
ELLIPSE
5
104
100
AcDbEntity
8
1
62
256
6
ByLayer
370
18
48
1
60
0
100
AcDbEllipse
10
22.572933
20
8.690356
30
0
11
1.09874559176717
21
-0.447428206980518
31
0
210
0
220
0
230
1
40
0.836412
41
2.04396610550003
42
2.70616263355085
0
ELLIPSE
5
105
100
AcDbEntity
8
1
62
256
6
ByLayer
370
18
48
1
60
0
100
AcDbEllipse
10
25.258818
20
6.767332
30
0
11
1.44468184422729
21
1.45020029417394
31
0
210
0
220
0
230
1
40
0.992404
41
-0.25734503639921
42
1.97158025460441
0
ELLIPSE
5
106
100
AcDbEntity
8
1
62
256
6
ByLayer
370
18
48
1
60
0
100
AcDbEllipse
10
25.267512
20
6.758671
30
0
11
-1.36918297269846
21
-1.37441302922097
31
0
210
0
220
0
230
1
40
0.992404
41
2.88424761719066
42
-1.17001239898531
0
ELLIPSE
5
107
100
AcDbEntity
8
1
62
256
6
ByLayer
370
13
48
1
60
0
100
AcDbEllipse
10
25.330852
20
6.695572
30
0
11
-1.33331717632174
21
-1.33841023132873
31
0
210
0
220
0
230
1
40
0.992404
41
-0.791117117001633
42
-0.431503173939742
0
ELLIPSE
5
108
100
AcDbEntity
8
1
62
256
6
ByLayer
370
18
48
1
60
0
100
AcDbEllipse
10
25.330852
20
6.695572
30
0
11
-1.33331717632174
21
-1.33841023132873
31
0
210
0
220
0
230
1
40
0.992404
41
-0.431502641278995
42
-9.47466295180952E-16
0
ELLIPSE
5
109
100
AcDbEntity
8
1
62
256
6
ByLayer
370
18
48
1
60
0
100
AcDbEllipse
10
25.330852
20
6.695572
30
0
11
-1.33331717632174
21
-1.33841023132873
31
0
210
0
220
0
230
1
40
0.992404
41
0
42
0.579795717973803
0
ELLIPSE
5
10A
100
AcDbEntity
8
1
62
256
6
ByLayer
370
18
48
1
60
0
100
AcDbEllipse
10
25.330852
20
6.695572
30
0
11
-1.33331717632174
21
-1.33841023132873
31
0
210
0
220
0
230
1
40
0.992404
41
2.54221114338502
42
-2.72133087125316
0
ELLIPSE
5
10B
100
AcDbEntity
8
1
62
256
6
ByLayer
370
13
48
1
60
0
100
AcDbEllipse
10
25.330852
20
6.695572
30
0
11
-1.33331717632174
21
-1.33841023132873
31
0
210
0
220
0
230
1
40
0.992404
41
-2.72133087125317
42
-0.791116585686019
0
ELLIPSE
5
10C
100
AcDbEntity
8
1
62
256
6
ByLayer
370
18
48
1
60
0
100
AcDbEllipse
10
25.267512
20
6.758671
30
0
11
-1.36918297269846
21
-1.37441302922097
31
0
210
0
220
0
230
1
40
0.992404
41
-0.257345036396626
42
1.97158025460699
0
ELLIPSE
5
10D
100
AcDbEntity
8
1
62
256
6
ByLayer
370
18
48
1
60
0
100
AcDbEllipse
10
25.258818
20
6.767332
30
0
11
1.44468184422726
21
1.45020029417392
31
0
210
0
220
0
230
1
40
0.992404
41
2.88424761719309
42
-1.17001239898287
0
ELLIPSE
5
10E
100
AcDbEntity
8
1
62
256
6
ByLayer
370
18
48
1
60
0
100
AcDbEllipse
10
26.925972
20
10.573894
30
0
11
2.07197968892876
21
0.0868431221979179
31
0
210
0
220
0
230
1
40
0.319439
41
-1.82292427897697
42
-1.35859257324323
0
ELLIPSE
5
10F
100
AcDbEntity
8
1
62
256
6
ByLayer
370
18
48
1
60
0
100
AcDbEllipse
10
15.515949
20
2.834671
30
0
11
9.09578588844791
21
11.8767090598285
31
0
210
0
220
0
230
1
40
0.968749
41
-0.69305281950572
42
-0.498736675768216
0
ELLIPSE
5
110
100
AcDbEntity
8
1
62
256
6
ByLayer
370
13
48
1
60
0
100
AcDbEllipse
10
18.750868
20
-2.117654
30
0
11
5.67300823200334
21
-10.9946892483145
31
0
210
0
220
0
230
1
40
0.88596
41
0.793988599848802
42
0.810364906001649
0
ELLIPSE
5
111
100
AcDbEntity
8
1
62
256
6
ByLayer
370
13
48
1
60
0
100
AcDbEllipse
10
29.342187
20
-5.528372
30
0
11
0.344955071902623
21
0.202499378687087
31
0
210
0
220
0
230
1
40
0.446047
41
-0.79390538932642
42
-0.261986299317334
0
ELLIPSE
5
112
100
AcDbEntity
8
1
62
256
6
ByLayer
370
13
48
1
60
0
100
AcDbEllipse
10
29.368179
20
-6.272885
30
0
11
0.388522108227179
21
-0.0951344912148482
31
0
210
0
220
0
230
1
40
0.377756
41
0.151471221573183
42
0.760524883166859
0
ELLIPSE
5
113
100
AcDbEntity
8
1
62
256
6
ByLayer
370
13
48
1
60
0
100
AcDbEllipse
10
29.036842
20
-5.378329
30
0
11
-0.311794519640935
21
0.250567710453439
31
0
210
0
220
0
230
1
40
0.961338
41
-2.39404041545589
42
-1.64652586134929
0
ELLIPSE
5
114
100
AcDbEntity
8
1
62
256
6
ByLayer
370
13
48
1
60
0
100
AcDbEllipse
10
29.095504
20
-7.058642
30
0
11
0.23177315446029
21
-0.32600798283405
31
0
210
0
220
0
230
1
40
0.975413
41
0.723322121238804
42
1.01496025289523
0
ELLIPSE
5
115
100
AcDbEntity
8
1
62
256
6
ByLayer
370
13
48
1
60
0
100
AcDbEllipse
10
24.422867
20
-0.837139
30
0
11
5.36283245304507
21
-5.96306820083567
31
0
210
0
220
0
230
1
40
0.643693
41
-0.16090700217777
42
-0.0738388570696075
0
ELLIPSE
5
116
100
AcDbEntity
8
1
62
256
6
ByLayer
370
18
48
1
60
0
100
AcDbEllipse
10
15.515949
20
-2.834671
30
0
11
9.09578588139735
21
-11.8767090640673
31
0
210
0
220
0
230
1
40
0.968749
41
0.498736676310844
42
0.693052820055519
0
ELLIPSE
5
117
100
AcDbEntity
8
1
62
256
6
ByLayer
370
18
48
1
60
0
100
AcDbEllipse
10
22.90124
20
-10.745717
30
0
11
2.9973498920891
21
-0.141412794485798
31
0
210
0
220
0
230
1
40
0.340279
41
1.48209688317954
42
1.65662980831679
0
ELLIPSE
5
118
100
AcDbEntity
8
1
62
256
6
ByLayer
370
18
48
1
60
0
100
AcDbEllipse
10
26.925972
20
-10.573894
30
0
11
2.07197968889905
21
-0.0868431221962351
31
0
210
0
220
0
230
1
40
0.319439
41
1.35859257323947
42
1.82292427898
0
ELLIPSE
5
119
100
AcDbEntity
8
1
62
256
6
ByLayer
370
18
48
1
60
0
100
AcDbEllipse
10
22.572933
20
-8.690356
30
0
11
1.09874559176644
21
0.447428206972754
31
0
210
0
220
0
230
1
40
0.836412
41
-2.7061626335456
42
-2.04396610549343
0
ELLIPSE
5
11A
100
AcDbEntity
8
1
62
256
6
ByLayer
370
18
48
1
60
0
100
AcDbEllipse
10
15.022166
20
-3.016887
30
0
11
-10.4141952317561
21
10.4539757656863
31
0
210
0
220
0
230
1
40
0.992404
41
-2.71734497836103
42
-2.65383023818931
0
ELLIPSE
5
11B
100
AcDbEntity
8
1
62
256
6
ByLayer
370
18
48
1
60
0
100
AcDbEllipse
10
23.99285
20
-7.762889
30
0
11
0.952779996052878
21
0.521490231459158
31
0
210
0
220
0
230
1
40
0.920172
41
-2.57144543249353
42
-2.18767129689211
0
ELLIPSE
5
11C
100
AcDbEntity
8
1
62
256
6
ByLayer
370
18
48
1
60
0
100
AcDbEllipse
10
25.345974
20
6.680508
30
0
11
0.558395378946474
21
0.560528358578961
31
0
210
0
220
0
230
1
40
0.992404
41
1.90431516030042
42
2.95151271149702
0
ELLIPSE
5
11D
100
AcDbEntity
8
1
62
256
6
ByLayer
370
18
48
1
60
0
100
AcDbEllipse
10
25.345974
20
6.680508
30
0
11
0.558395378946474
21
0.560528358578961
31
0
210
0
220
0
230
1
40
0.992404
41
2.95151271149702
42
-2.59680190165313
0
ELLIPSE
5
11E
100
AcDbEntity
8
1
62
256
6
ByLayer
370
18
48
1
60
0
100
AcDbEllipse
10
25.345974
20
6.680508
30
0
11
0.558395378946474
21
0.560528358578961
31
0
210
0
220
0
230
1
40
0.992404
41
-0.00500468740409034
42
0.857117609103808
0
ELLIPSE
5
11F
100
AcDbEntity
8
1
62
256
6
ByLayer
370
18
48
1
60
0
100
AcDbEllipse
10
25.345974
20
6.680508
30
0
11
-0.558395378946515
21
-0.560528358578919
31
0
210
0
220
0
230
1
40
0.992404
41
-2.28447504448597
42
-1.23727749328938
0
ELLIPSE
5
120
100
AcDbEntity
8
1
62
256
6
ByLayer
370
18
48
1
60
0
100
AcDbEllipse
10
25.345974
20
6.680508
30
0
11
0.558395378946474
21
0.560528358578961
31
0
210
0
220
0
230
1
40
0.992404
41
-0.895350834382516
42
-0.239952267379781
0
ELLIPSE
5
121
100
AcDbEntity
8
1
62
256
6
ByLayer
370
18
48
1
60
0
100
AcDbEllipse
10
25.345974
20
6.680508
30
0
11
0.558395378946474
21
0.560528358578961
31
0
210
0
220
0
230
1
40
0.992404
41
-2.1042919614497
42
-1.48389291277143
0
ELLIPSE
5
122
100
AcDbEntity
8
1
62
256
6
ByLayer
370
18
48
1
60
0
100
AcDbEllipse
10
24.528452
20
7.073006
30
0
11
0.105894991119522
21
0.217050274071219
31
0
210
0
220
0
230
1
40
0.501117
41
-2.79928989367906
42
-1.56763963193985
0
ELLIPSE
5
123
100
AcDbEntity
8
1
62
256
6
ByLayer
370
18
48
1
60
0
100
AcDbEllipse
10
24.528452
20
7.073006
30
0
11
0.105894991119716
21
0.217050274070431
31
0
210
0
220
0
230
1
40
0.501117
41
-1.56763963193526
42
-0.335989370193578
0
ELLIPSE
5
124
100
AcDbEntity
8
1
62
256
6
ByLayer
370
18
48
1
60
0
100
AcDbEllipse
10
25.282525
20
7.587384
30
0
11
0.240147504709071
21
0.01924345139437
31
0
210
0
220
0
230
1
40
0.503564
41
-2.80753807869891
42
-1.57588781695693
0
ELLIPSE
5
125
100
AcDbEntity
8
1
62
256
6
ByLayer
370
18
48
1
60
0
100
AcDbEllipse
10
25.282525
20
7.587384
30
0
11
0.240147504709377
21
0.0192434513941235
31
0
210
0
220
0
230
1
40
0.503564
41
-1.57588781695456
42
-0.344237555213844
0
ELLIPSE
5
126
100
AcDbEntity
8
1
62
256
6
ByLayer
370
18
48
1
60
0
100
AcDbEllipse
10
24.438465
20
6.610129
30
0
11
0.0161769694423954
21
-0.240110512293326
31
0
210
0
220
0
230
1
40
0.504663
41
2.95166015687623
42
-0.796662203598844
0
ELLIPSE
5
127
100
AcDbEntity
8
1
62
256
6
ByLayer
370
18
48
1
60
0
100
AcDbEllipse
10
24.591901
20
6.16613
30
0
11
0.134447583300403
21
-0.198721703902931
31
0
210
0
220
0
230
1
40
0.507716
41
1.57273182406916
42
1.96507042314003
0
ELLIPSE
5
128
100
AcDbEntity
8
1
62
256
6
ByLayer
370
18
48
1
60
0
100
AcDbEllipse
10
24.591901
20
6.16613
30
0
11
0.134447583299331
21
-0.198721703902224
31
0
210
0
220
0
230
1
40
0.507716
41
0.341081562326842
42
1.57273182407368
0
ELLIPSE
5
129
100
AcDbEntity
8
1
62
256
6
ByLayer
370
18
48
1
60
0
100
AcDbEllipse
10
25.744771
20
7.501204
30
0
11
0.216582133317092
21
-0.103547693721292
31
0
210
0
220
0
230
1
40
0.507157
41
1.13798030819496
42
-2.94977090752309
0
ELLIPSE
5
12A
100
AcDbEntity
8
1
62
256
6
ByLayer
370
18
48
1
60
0
100
AcDbEllipse
10
26.100046
20
7.194886
30
0
11
0.134447583300397
21
-0.198721703902644
31
0
210
0
220
0
230
1
40
0.507716
41
-1.17652249304761
42
-0.33721056777878
0
ELLIPSE
5
12B
100
AcDbEntity
8
1
62
256
6
ByLayer
370
18
48
1
60
0
100
AcDbEllipse
10
24.947176
20
5.859812
30
0
11
0.216582133317094
21
-0.103547693721288
31
0
210
0
220
0
230
1
40
0.507157
41
2.94332903305863
42
-2.19592384043662
0
ELLIPSE
5
12C
100
AcDbEntity
8
1
62
256
6
ByLayer
370
18
48
1
60
0
100
AcDbEllipse
10
25.258818
20
6.767332
30
0
11
0.7304943591741
21
0.733284728952418
31
0
210
0
220
0
230
1
40
0.992404
41
1.38071638470212
42
2.42791393589872
0
ELLIPSE
5
12D
100
AcDbEntity
8
1
62
256
6
ByLayer
370
18
48
1
60
0
100
AcDbEllipse
10
25.258818
20
6.767332
30
0
11
0.7304943591741
21
0.733284728952418
31
0
210
0
220
0
230
1
40
0.992404
41
0.333518833505521
42
1.38071638470212
0
ELLIPSE
5
12E
100
AcDbEntity
8
1
62
256
6
ByLayer
370
18
48
1
60
0
100
AcDbEllipse
10
25.258818
20
6.767332
30
0
11
0.7304943591741
21
0.733284728952418
31
0
210
0
220
0
230
1
40
0.992404
41
-0.713678717691075
42
0.333518833505521
0
ELLIPSE
5
12F
100
AcDbEntity
8
1
62
256
6
ByLayer
370
18
48
1
60
0
100
AcDbEllipse
10
25.258818
20
6.767332
30
0
11
0.7304943591741
21
0.733284728952418
31
0
210
0
220
0
230
1
40
0.992404
41
-1.76087626888768
42
-0.713678717691075
0
ELLIPSE
5
130
100
AcDbEntity
8
1
62
256
6
ByLayer
370
18
48
1
60
0
100
AcDbEllipse
10
25.258818
20
6.767332
30
0
11
0.7304943591741
21
0.733284728952418
31
0
210
0
220
0
230
1
40
0.992404
41
-2.80807382008427
42
-1.76087626888768
0
ELLIPSE
5
131
100
AcDbEntity
8
1
62
256
6
ByLayer
370
18
48
1
60
0
100
AcDbEllipse
10
25.258818
20
6.767332
30
0
11
0.7304943591741
21
0.733284728952418
31
0
210
0
220
0
230
1
40
0.992404
41
2.42791393589872
42
-2.80807382008427
0
ELLIPSE
5
132
100
AcDbEntity
8
1
62
256
6
ByLayer
370
13
48
1
60
0
100
AcDbEllipse
10
25.258818
20
6.767332
30
0
11
-0.917484823850444
21
-0.920989466825828
31
0
210
0
220
0
230
1
40
0.992404
41
0
42
6.28318530717959
0
ELLIPSE
5
133
100
AcDbEntity
8
1
62
256
6
ByLayer
370
18
48
1
60
0
100
AcDbEllipse
10
25.260791
20
6.765366
30
0
11
-1.21743178549386
21
-1.22208217713427
31
0
210
0
220
0
230
1
40
0.992404
41
0
42
6.28318530717959
0
ELLIPSE
5
134
100
AcDbEntity
8
1
62
256
6
ByLayer
370
18
48
1
60
0
100
AcDbEllipse
10
25.337258
20
6.68919
30
0
11
-1.21743178549386
21
-1.22208217713427
31
0
210
0
220
0
230
1
40
0.992404
41
5.17665932322874E-05
42
3.14154610260872
0
POINT
5
70
100
AcDbEntity
8
80
62
256
6
ByLayer
370
18
48
1
60
0
100
AcDbPoint
10
0
20
0
30
0
39
0
210
0
220
0
230
1
50
360
0
POINT
5
72
100
AcDbEntity
8
1
62
256
6
ByLayer
370
18
48
1
60
0
100
AcDbPoint
10
0
20
0
30
0
39
0
210
0
220
0
230
1
50
360
0
POINT
5
74
100
AcDbEntity
8
81
62
256
6
ByLayer
370
18
48
1
60
0
100
AcDbPoint
10
30
20
10
30
0
39
0
210
0
220
0
230
1
50
360
0
POINT
5
76
100
AcDbEntity
8
1
62
256
6
ByLayer
370
18
48
1
60
1
100
AcDbPoint
10
0
20
9.65
30
0
39
0
210
0
220
0
230
1
50
360
0
SPLINE
5
135
100
AcDbEntity
8
1
62
256
6
ByLayer
370
18
48
1
60
0
100
AcDbSpline
70
4
71
3
72
36
73
32
40
0
40
0
40
0
40
0
40
0.062499999999995
40
0.062499999999995
40
0.12499999999999
40
0.12499999999999
40
0.187499999999985
40
0.187499999999985
40
0.24999999999998
40
0.24999999999998
40
0.374999999999978
40
0.374999999999978
40
0.43749999999998
40
0.43749999999998
40
0.499999999999982
40
0.499999999999982
40
0.624999999999986
40
0.624999999999986
40
0.656249999999987
40
0.656249999999987
40
0.687499999999988
40
0.749999999999991
40
0.812499999999993
40
0.812499999999993
40
0.874999999999995
40
0.874999999999995
40
0.906249999999997
40
0.906249999999997
40
0.937499999999998
40
0.937499999999998
40
1
40
1
40
1
40
1
41
1
10
20.9619630178838
20
8.8933743080503
30
0
41
1
10
20.9445313640742
20
8.89012111641881
30
0
41
1
10
20.9271341507761
20
8.88686229609212
30
0
41
1
10
20.8923821350807
20
8.8803239228949
30
0
41
1
10
20.8750064163124
20
8.87703797476901
30
0
41
1
10
20.8403912085683
20
8.87047339598925
30
0
41
1
10
20.8231741320776
20
8.86720194597839
30
0
41
1
10
20.7892958542433
20
8.86078734382968
30
0
41
1
10
20.7726576295154
20
8.85765082809897
30
0
41
1
10
20.7237818502238
20
8.84847270681101
30
0
41
1
10
20.6925807327332
20
8.84266340106046
30
0
41
1
10
20.648140543147
20
8.83438147394915
30
0
41
1
10
20.6339078903065
20
8.83172707579642
30
0
41
1
10
20.6067680276215
20
8.82664531179275
30
0
41
1
10
20.5938316790688
20
8.82421253507619
30
0
41
1
10
20.5569544995164
20
8.81722176340502
30
0
41
1
10
20.5349168008829
20
8.81296615454764
30
0
41
1
10
20.5110092237545
20
8.80816401653061
30
0
41
1
10
20.5064177438165
20
8.80723095778337
30
0
41
1
10
20.4977076191267
20
8.80543690606855
30
0
41
1
10
20.4853155307098
20
8.80284668121867
30
0
41
1
10
20.4679954789616
20
8.79901684001713
30
0
41
1
10
20.4577007971447
20
8.79645219488607
30
0
41
1
10
20.4492341122167
20
8.79413612328599
30
0
41
1
10
20.4459991623515
20
8.79311988693148
30
0
41
1
10
20.4414895196873
20
8.79155630679239
30
0
41
1
10
20.4400363531444
20
8.79102720831683
30
0
41
1
10
20.4370397782953
20
8.78991266173632
30
0
41
1
10
20.4355100653925
20
8.78933013409971
30
0
41
1
10
20.4308641802896
20
8.78751494750324
30
0
41
1
10
20.4276968542939
20
8.78621589900622
30
0
41
1
10
20.424536167519
20
8.78484437601355
30
0
0
SPLINE
5
136
100
AcDbEntity
8
1
62
256
6
ByLayer
370
18
48
1
60
0
100
AcDbSpline
70
4
71
3
72
23
73
19
40
0
40
0
40
0
40
0
40
0.292013576911714
40
0.292013576911714
40
0.365016971139647
40
0.365016971139647
40
0.438020365367581
40
0.438020365367581
40
0.584027153823443
40
0.657030548051374
40
0.657030548051374
40
0.730033942279305
40
0.730033942279305
40
0.876040730735171
40
0.876040730735171
40
0.949044124963106
40
0.949044124963106
40
1
40
1
40
1
40
1
41
1
10
21.0500572014908
20
5.61976383833061
30
0
41
1
10
21.023415644778
20
5.65861722523474
30
0
41
1
10
21.0003007275386
20
5.6995224470849
30
0
41
1
10
20.9765208322342
20
5.75361780530947
30
0
41
1
10
20.9720117101698
20
5.76461827567118
30
0
41
1
10
20.9636096459807
20
5.78674672156204
30
0
41
1
10
20.959714736583
20
5.79787360035489
30
0
41
1
10
20.9489616321376
20
5.83144461329526
30
0
41
1
10
20.9400673025891
20
5.86539563123777
30
0
41
1
10
20.9341144227856
20
5.89994323546877
30
0
41
1
10
20.9308285987604
20
5.92311248390331
30
0
41
1
10
20.9295268493377
20
5.93478874928533
30
0
41
1
10
20.9267212384245
20
5.96957894203901
30
0
41
1
10
20.9262882237242
20
5.99258898973903
30
0
41
1
10
20.9278319868729
20
6.02679411345842
30
0
41
1
10
20.9287130823176
20
6.038143874523
30
0
41
1
10
20.9308491362141
20
6.05731801611819
30
0
41
1
10
20.9319151246634
20
6.06519228579654
30
0
41
1
10
20.9331631025357
20
6.0729995572962
30
0
0
SPLINE
5
137
100
AcDbEntity
8
1
62
256
6
ByLayer
370
18
48
1
60
0
100
AcDbSpline
70
4
71
3
72
32
73
28
40
0
40
0
40
0
40
0
40
0.0240876332497784
40
0.0240876332497784
40
0.0684472862838776
40
0.0684472862838776
40
0.112806939317977
40
0.112806939317977
40
0.201526245386175
40
0.201526245386175
40
0.245885898420279
40
0.245885898420279
40
0.290245551454382
40
0.290245551454382
40
0.378964857522587
40
0.378964857522587
40
0.467684163590792
40
0.467684163590792
40
0.645122775727199
40
0.645122775727199
40
0.733842081795399
40
0.733842081795399
40
0.822561387863599
40
0.822561387863599
40
0.9112806939318
40
0.9112806939318
40
1
40
1
40
1
40
1
41
1
10
20.69658599755
20
5.18586538346176
30
0
41
1
10
20.7003556016003
20
5.18664037985491
30
0
41
1
10
20.7041733094584
20
5.18745923300617
30
0
41
1
10
20.7151006419055
20
5.19002143123315
30
0
41
1
10
20.7222893348257
20
5.19200302299235
30
0
41
1
10
20.7362188436181
20
5.19717770817515
30
0
41
1
10
20.7429567563002
20
5.20039471939016
30
0
41
1
10
20.7624748747828
20
5.21190859869448
30
0
41
1
10
20.7746473155306
20
5.2220118386731
30
0
41
1
10
20.79236567722
20
5.23935500958585
30
0
41
1
10
20.7981899033822
20
5.24547389234951
30
0
41
1
10
20.8096568083452
20
5.2579471359757
30
0
41
1
10
20.8153087847618
20
5.2643111986181
30
0
41
1
10
20.8320925457087
20
5.28348588883867
30
0
41
1
10
20.8430276243472
20
5.2964462291342
30
0
41
1
10
20.8642696447167
20
5.32293296574871
30
0
41
1
10
20.8745564437024
20
5.33647815860135
30
0
41
1
10
20.904696877115
20
5.37790960406006
30
0
41
1
10
20.9239190884018
20
5.40656473016035
30
0
41
1
10
20.952153876736
20
5.45046633085552
30
0
41
1
10
20.9614430148951
20
5.46527025510716
30
0
41
1
10
20.9797829720175
20
5.49520775909919
30
0
41
1
10
20.9888350250774
20
5.51033176585381
30
0
41
1
10
21.0066860660328
20
5.54107327326058
30
0
41
1
10
21.0154740415056
20
5.55675969487125
30
0
41
1
10
21.0328610201721
20
5.5883975460673
30
0
41
1
10
21.0414678120542
20
5.60428144879238
30
0
41
1
10
21.0500572014908
20
5.61976383833063
30
0
0
SPLINE
5
138
100
AcDbEntity
8
1
62
256
6
ByLayer
370
18
48
1
60
0
100
AcDbSpline
70
4
71
3
72
12
73
8
40
0
40
0
40
0
40
0
40
0.423436885780992
40
0.423436885780992
40
0.846873771561984
40
0.846873771561984
40
1
40
1
40
1
40
1
41
1
10
21.5434285369522
20
-8.80391834577675
30
0
41
1
10
21.5383748057302
20
-8.7674563800968
30
0
41
1
10
21.5337970679793
20
-8.73031281391737
30
0
41
1
10
21.525506878714
20
-8.65478663193562
30
0
41
1
10
21.5218300110819
20
-8.61672224250439
30
0
41
1
10
21.517400398256
20
-8.56472577028266
30
0
41
1
10
21.5162783363419
20
-8.55089395300622
30
0
41
1
10
21.5152103623323
20
-8.53703989361232
30
0
0
SPLINE
5
139
100
AcDbEntity
8
1
62
256
6
ByLayer
370
18
48
1
60
0
100
AcDbSpline
70
4
71
3
72
8
73
4
40
0
40
0
40
0
40
0
40
1
40
1
40
1
40
1
41
1
10
28.7392904448953
20
-8.27876759935575
30
0
41
1
10
28.8478819554999
20
-8.00190311358668
30
0
41
1
10
28.9426083353626
20
-7.72082134372972
30
0
41
1
10
29.0237529412713
20
-7.43560847693273
30
0
0
SPLINE
5
13A
100
AcDbEntity
8
1
62
256
6
ByLayer
370
18
48
1
60
0
100
AcDbSpline
70
4
71
3
72
53
73
49
40
0
40
0
40
0
40
0
40
0.002822546513914
40
0.002822546513914
40
0.0197238592848641
40
0.0197238592848641
40
0.0535264848267662
40
0.0535264848267662
40
0.121131735910571
40
0.121131735910571
40
0.188736986994377
40
0.188736986994377
40
0.222539612536279
40
0.222539612536279
40
0.256342238078182
40
0.256342238078182
40
0.290144863620084
40
0.290144863620084
40
0.307046176391035
40
0.307046176391035
40
0.323947489161986
40
0.323947489161986
40
0.391552740245789
40
0.391552740245789
40
0.459157991329593
40
0.459157991329593
40
0.594368493497199
40
0.594368493497199
40
0.661973744581002
40
0.661973744581002
40
0.729578995664805
40
0.729578995664805
40
0.746480308435756
40
0.746480308435756
40
0.763381621206706
40
0.763381621206706
40
0.780282933977656
40
0.780282933977656
40
0.797184246748606
40
0.797184246748606
40
0.830986872290506
40
0.830986872290506
40
0.864789497832404
40
0.932394748916202
40
0.932394748916202
40
0.966197374458101
40
0.966197374458101
40
1
40
1
40
1
40
1
41
1
10
20.4252653158169
20
5.40550815990849
30
0
41
1
10
20.4239216896072
20
5.40844019695018
30
0
41
1
10
20.4225839376921
20
5.4113762580179
30
0
41
1
10
20.4132768341016
20
5.43192150636439
30
0
41
1
10
20.4055117812166
20
5.44967472565502
30
0
41
1
10
20.3829777062178
20
5.50304931726575
30
0
41
1
10
20.3689173839952
20
5.53888942252887
30
0
41
1
10
20.3295036089854
20
5.64715272533283
30
0
41
1
10
20.306915720289
20
5.7203186622782
30
0
41
1
10
20.2691791996173
20
5.86863990120081
30
0
41
1
10
20.2540471157308
20
5.94379813654487
30
0
41
1
10
20.2373290594662
20
6.05811209272424
30
0
41
1
10
20.2327563530405
20
6.09648069298318
30
0
41
1
10
20.2256525303856
20
6.17375387569615
30
0
41
1
10
20.2231217385044
20
6.21249037615893
30
0
41
1
10
20.2201966173906
20
6.28985582653289
30
0
41
1
10
20.2199095606945
20
6.32853243965899
30
0
41
1
10
20.2206141465252
20
6.38654156396055
30
0
41
1
10
20.2210118926321
20
6.40587711339711
30
0
41
1
10
20.2218810984741
20
6.44454790496219
30
0
41
1
10
20.2222980144445
20
6.46388343847995
30
0
41
1
10
20.2243079866819
20
6.56056169679529
30
0
41
1
10
20.2259472457682
20
6.63790474565774
30
0
41
1
10
20.2295938371509
20
6.7925896204524
30
0
41
1
10
20.2315361926252
20
6.86993229446219
30
0
41
1
10
20.2375289346888
20
7.10195563421267
30
0
41
1
10
20.2417378278183
20
7.25663226619943
30
0
41
1
10
20.2480701379718
20
7.48864670169012
30
0
41
1
10
20.2501873700951
20
7.56598494921406
30
0
41
1
10
20.2544438755145
20
7.72065952033667
30
0
41
1
10
20.2566483772345
20
7.79798806941182
30
0
41
1
10
20.2592711691513
20
7.89466356687903
30
0
41
1
10
20.2597758694266
20
7.91400089544635
30
0
41
1
10
20.2607254887405
20
7.95268227171546
30
0
41
1
10
20.261142320829
20
7.9720294828454
30
0
41
1
10
20.2622037670552
20
8.01069823749515
30
0
41
1
10
20.2628880269415
20
8.03001531574547
30
0
41
1
10
20.2647718338978
20
8.06859142259297
30
0
41
1
10
20.2659435252741
20
8.08785358851468
30
0
41
1
10
20.270117519698
20
8.14556585176149
30
0
41
1
10
20.2737638220438
20
8.18394339514707
30
0
41
1
10
20.2831470983415
20
8.2604629524033
30
0
41
1
10
20.3003453958108
20
8.37489041731939
30
0
41
1
10
20.326469789705
20
8.48831228060413
30
0
41
1
10
20.358840441092
20
8.6010305354351
30
0
41
1
10
20.3707124311515
20
8.63858144823448
30
0
41
1
10
20.3962525601189
20
8.71246669664374
30
0
41
1
10
20.4099442914211
20
8.74890282825407
30
0
41
1
10
20.4245361675206
20
8.78484437601763
30
0
0
SPLINE
5
13B
100
AcDbEntity
8
1
62
256
6
ByLayer
370
18
48
1
60
0
100
AcDbSpline
70
4
71
3
72
8
73
4
40
0
40
0
40
0
40
0
40
1
40
1
40
1
40
1
41
1
10
20.4245361675214
20
8.78484437601406
30
0
41
1
10
20.3194001083675
20
8.76222398801728
30
0
41
1
10
20.2142689958405
20
8.73959580867354
30
0
41
1
10
20.1091354543993
20
8.71695475055596
30
0
0
SPLINE
5
13C
100
AcDbEntity
8
1
62
256
6
ByLayer
370
18
48
1
60
0
100
AcDbSpline
70
4
71
3
72
8
73
4
40
0
40
0
40
0
40
0
40
1
40
1
40
1
40
1
41
1
10
20.1091354543993
20
8.71695475055597
30
0
41
1
10
19.9905488436435
20
8.69141650358662
30
0
41
1
10
19.8706323266466
20
8.67679330299619
30
0
41
1
10
19.7493793812195
20
8.6730658984286
30
0
0
SPLINE
5
13D
100
AcDbEntity
8
1
62
256
6
ByLayer
370
18
48
1
60
0
100
AcDbSpline
70
4
71
3
72
20
73
16
40
0
40
0
40
0
40
0
40
0.500000000000013
40
0.500000000000013
40
0.625000000000016
40
0.625000000000016
40
0.687500000000013
40
0.687500000000013
40
0.750000000000011
40
0.750000000000011
40
0.812500000000008
40
0.812500000000008
40
0.875000000000005
40
0.875000000000005
40
1
40
1
40
1
40
1
41
1
10
19.7493793812195
20
8.67306589842862
30
0
41
1
10
19.5406032164167
20
8.66664796583699
30
0
41
1
10
19.3318094244733
20
8.66017876036561
30
0
41
1
10
19.0709804692398
20
8.6521249795627
30
0
41
1
10
19.0188286412152
20
8.65051843321235
30
0
41
1
10
18.9405758829081
20
8.6480875067131
30
0
41
1
10
18.9144873911386
20
8.64727372161006
30
0
41
1
10
18.8622890864577
20
8.64563286197192
30
0
41
1
10
18.8361782659724
20
8.6448052374876
30
0
41
1
10
18.7839101183781
20
8.64312440537566
30
0
41
1
10
18.7577525331677
20
8.64227115656095
30
0
41
1
10
18.7053693504192
20
8.64052797109633
30
0
41
1
10
18.6791450152559
20
8.63963876037174
30
0
41
1
10
18.600367961993
20
8.63691033691181
30
0
41
1
10
18.5477128630448
20
8.63501462179622
30
0
41
1
10
18.494889084157
20
8.63298101302661
30
0
0
SPLINE
5
13E
100
AcDbEntity
8
1
62
256
6
ByLayer
370
18
48
1
60
0
100
AcDbSpline
70
4
71
3
72
12
73
8
40
0
40
0
40
0
40
0
40
0.499999999999998
40
0.499999999999998
40
0.749999999999999
40
0.749999999999999
40
1
40
1
40
1
40
1
41
1
10
28.7392904448952
20
4.78294301685855
30
0
41
1
10
28.7938566716354
20
4.76006816883495
30
0
41
1
10
28.8447984388355
20
4.73632580620385
30
0
41
1
10
28.915879367622
20
4.699420974948
30
0
41
1
10
28.9386841515856
20
4.68690409019395
30
0
41
1
10
28.9825310615432
20
4.66144081374777
30
0
41
1
10
29.0035651158979
20
4.64856066268966
30
0
41
1
10
29.0237529412713
20
4.63523721954643
30
0
0
SPLINE
5
13F
100
AcDbEntity
8
1
62
256
6
ByLayer
370
18
48
1
60
0
100
AcDbSpline
70
4
71
3
72
28
73
24
40
0
40
0
40
0
40
0
40
0.125
40
0.125
40
0.249999999999999
40
0.249999999999999
40
0.374999999999999
40
0.374999999999999
40
0.437499999999999
40
0.437499999999999
40
0.499999999999999
40
0.499999999999999
40
0.562499999999999
40
0.562499999999999
40
0.624999999999999
40
0.624999999999999
40
0.656249999999999
40
0.656249999999999
40
0.687499999999998
40
0.687499999999998
40
0.749999999999998
40
0.749999999999998
40
1
40
1
40
1
40
1
41
1
10
18.494889084157
20
7.69025783290191
30
0
41
1
10
18.5509179445645
20
7.63876628051399
30
0
41
1
10
18.6055471007355
20
7.58488926505119
30
0
41
1
10
18.7124863670833
20
7.47237886342772
30
0
41
1
10
18.7648312912967
20
7.41375515674906
30
0
41
1
10
18.8673486417676
20
7.29168440745917
30
0
41
1
10
18.9175254580439
20
7.22820749523146
30
0
41
1
10
18.9910682360985
20
7.12935327347624
30
0
41
1
10
19.0152636124445
20
7.0958287027603
30
0
41
1
10
19.0629837821027
20
7.02761550280054
30
0
41
1
10
19.0865243449348
20
6.99293108286663
30
0
41
1
10
19.1331282791482
20
6.92244492938303
30
0
41
1
10
19.1561505244954
20
6.88663087466544
30
0
41
1
10
19.2021700085939
20
6.81401363800707
30
0
41
1
10
19.2251792013531
20
6.77721363168952
30
0
41
1
10
19.2603206646435
20
6.72147271033125
30
0
41
1
10
19.2721411718788
20
6.70280303406105
30
0
41
1
10
19.2961396916567
20
6.6653320240427
30
0
41
1
10
19.3083280788785
20
6.64653399696678
30
0
41
1
10
19.3453612992291
20
6.5899272412577
30
0
41
1
10
19.3707285591799
20
6.55192242927224
30
0
41
1
10
19.501297605766
20
6.36074380612638
30
0
41
1
10
19.6175680570963
20
6.20404510426602
30
0
41
1
10
19.7493793812195
20
6.04585614232666
30
0
0
SPLINE
5
140
100
AcDbEntity
8
1
62
256
6
ByLayer
370
13
48
1
60
0
100
AcDbSpline
70
4
71
3
72
38
73
34
40
0
40
0
40
0
40
0
40
0.0630051824016762
40
0.0630051824016762
40
0.126010364803352
40
0.126010364803352
40
0.189015547205029
40
0.189015547205029
40
0.252020729606705
40
0.252020729606705
40
0.315025912008381
40
0.315025912008381
40
0.378031094410057
40
0.378031094410057
40
0.441036276811734
40
0.441036276811734
40
0.50404145921341
40
0.50404145921341
40
0.567046641615086
40
0.567046641615086
40
0.630051824016762
40
0.630051824016762
40
0.693057006418438
40
0.693057006418438
40
0.756062188820115
40
0.756062188820115
40
0.819067371221791
40
0.819067371221791
40
0.882072553623467
40
0.882072553623467
40
0.945077736025144
40
0.945077736025144
40
1
40
1
40
1
40
1
41
1
10
18.494889084157
20
7.69025801827901
30
0
41
1
10
18.494889084157
20
7.47005338875233
30
0
41
1
10
18.494889084157
20
7.21350157882263
30
0
41
1
10
18.494889084157
20
6.63493182952338
30
0
41
1
10
18.494889084157
20
6.31292159939652
30
0
41
1
10
18.494889084157
20
5.61252292097746
30
0
41
1
10
18.494889084157
20
5.23414380525646
30
0
41
1
10
18.4948890841571
20
4.43168668147185
30
0
41
1
10
18.494889084157
20
4.00761936587307
30
0
41
1
10
18.494889084157
20
3.12575513233806
30
0
41
1
10
18.494889084157
20
2.66796996493906
30
0
41
1
10
18.494889084157
20
1.73159141919849
30
0
41
1
10
18.494889084157
20
1.25301051777859
30
0
41
1
10
18.494889084157
20
0.288549258573056
30
0
41
1
10
18.494889084157
20
-0.197318248098412
30
0
41
1
10
18.494889084157
20
-1.16263791803355
30
0
41
1
10
18.494889084157
20
-1.64207721874502
30
0
41
1
10
18.494889084157
20
-2.58100676590995
30
0
41
1
10
18.494889084157
20
-3.04048450145052
30
0
41
1
10
18.494889084157
20
-3.92652031878458
30
0
41
1
10
18.494889084157
20
-4.35306659445592
30
0
41
1
10
18.494889084157
20
-5.16119813115135
30
0
41
1
10
18.494889084157
20
-5.54277262410099
30
0
41
1
10
18.4948890841571
20
-6.25018837021375
30
0
41
1
10
18.494889084157
20
-6.57602019730565
30
0
41
1
10
18.4948890841571
20
-7.16275159500294
30
0
41
1
10
18.494889084157
20
-7.42364334761449
30
0
41
1
10
18.4948890841571
20
-7.87312845307244
30
0
41
1
10
18.494889084157
20
-8.06171581668457
30
0
41
1
10
18.4948890841571
20
-8.36126680188599
30
0
41
1
10
18.4948890841571
20
-8.47222643206153
30
0
41
1
10
18.4948890841571
20
-8.60433295703557
30
0
41
1
10
18.494889084157
20
-8.63517427283448
30
0
41
1
10
18.494889084157
20
-8.63504922436955
30
0
0
SPLINE
5
141
100
AcDbEntity
8
1
62
256
6
ByLayer
370
18
48
1
60
0
100
AcDbSpline
70
4
71
3
72
67
73
63
40
0
40
0
40
0
40
0
40
0.0312499999999962
40
0.0312499999999962
40
0.0624999999999923
40
0.0624999999999923
40
0.0703124999999909
40
0.0703124999999909
40
0.0781249999999894
40
0.0781249999999894
40
0.0937499999999884
40
0.0937499999999884
40
0.124999999999986
40
0.124999999999986
40
0.140624999999985
40
0.140624999999985
40
0.156249999999984
40
0.156249999999984
40
0.164062499999984
40
0.164062499999984
40
0.171874999999985
40
0.171874999999985
40
0.187499999999985
40
0.187499999999985
40
0.249999999999984
40
0.249999999999984
40
0.265624999999984
40
0.265624999999984
40
0.281249999999984
40
0.312499999999984
40
0.312499999999984
40
0.374999999999983
40
0.374999999999983
40
0.406249999999983
40
0.421874999999983
40
0.421874999999983
40
0.437499999999983
40
0.437499999999983
40
0.499999999999983
40
0.499999999999983
40
0.562499999999983
40
0.562499999999983
40
0.578124999999983
40
0.578124999999983
40
0.593749999999983
40
0.593749999999983
40
0.624999999999985
40
0.624999999999985
40
0.687499999999988
40
0.687499999999988
40
0.718749999999989
40
0.718749999999989
40
0.74999999999999
40
0.74999999999999
40
0.781249999999991
40
0.781249999999991
40
0.812499999999993
40
0.874999999999995
40
0.874999999999995
40
0.937499999999998
40
0.937499999999998
40
1
40
1
40
1
40
1
41
1
10
18.494889084157
20
8.6329800053653
30
0
41
1
10
18.4494247861186
20
8.63122963176795
30
0
41
1
10
18.4053981582379
20
8.62968184665077
30
0
41
1
10
18.3202006172316
20
8.62696233909847
30
0
41
1
10
18.2789824481799
20
8.62579257473642
30
0
41
1
10
18.229106364878
20
8.62452053057935
30
0
41
1
10
18.2192142640525
20
8.62427542424693
30
0
41
1
10
18.1995975490743
20
8.62380163490293
30
0
41
1
10
18.1898594710955
20
8.62357266016552
30
0
41
1
10
18.1611089769334
20
8.62291094805259
30
0
41
1
10
18.1424995674472
20
8.6225021753266
30
0
41
1
10
18.0883248241939
20
8.62132460099564
30
0
41
1
10
18.05439167508
20
8.62061065722807
30
0
41
1
10
18.0070881721341
20
8.61936054139014
30
0
41
1
10
17.9919243840328
20
8.61891262620857
30
0
41
1
10
17.9629324793908
20
8.61788622283449
30
0
41
1
10
17.9490585385698
20
8.61730439183552
30
0
41
1
10
17.9297761464867
20
8.61629147575928
30
0
41
1
10
17.9235882462682
20
8.61593004649042
30
0
41
1
10
17.9117092863902
20
8.6151501898315
30
0
41
1
10
17.9060574442629
20
8.61472786654893
30
0
41
1
10
17.8891887776643
20
8.61342636742501
30
0
41
1
10
17.8782510775853
20
8.61249656678736
30
0
41
1
10
17.8250946873935
20
8.60748932487468
30
0
41
1
10
17.7874465305984
20
8.60233307121975
30
0
41
1
10
17.7466269144146
20
8.59372046026603
30
0
41
1
10
17.7387656652324
20
8.59188683823582
30
0
41
1
10
17.7237445957766
20
8.5880035117429
30
0
41
1
10
17.7022645239
20
8.58185654279076
30
0
41
1
10
17.683912019206
20
8.57469576121854
30
0
41
1
10
17.6513511430612
20
8.55891409018827
30
0
41
1
10
17.6351567065085
20
8.54644272712765
30
0
41
1
10
17.6192234910411
20
8.52447362543835
30
0
41
1
10
17.6133510472027
20
8.51267509050227
30
0
41
1
10
17.6106788036036
20
8.49960262616447
30
0
41
1
10
17.6096180728841
20
8.49059913796879
30
0
41
1
10
17.609450263881
20
8.4859623767218
30
0
41
1
10
17.6104050333402
20
8.46222137740585
30
0
41
1
10
17.6169354311723
20
8.44133516620855
30
0
41
1
10
17.6402829327698
20
8.3960997389413
30
0
41
1
10
17.6570812866557
20
8.37175124918105
30
0
41
1
10
17.6839344671676
20
8.33939832752588
30
0
41
1
10
17.6895989384803
20
8.33283207725331
30
0
41
1
10
17.701505865005
20
8.31951531881205
30
0
41
1
10
17.7077562682796
20
8.31275672612223
30
0
41
1
10
17.7272804350449
20
8.29230003649212
30
0
41
1
10
17.7413347201286
20
8.27840994617949
30
0
41
1
10
17.7864095186519
20
8.23610135845937
30
0
41
1
10
17.8203081320162
20
8.20704091190784
30
0
41
1
10
17.8765711936753
20
8.162693795267
30
0
41
1
10
17.8962403207405
20
8.14778658260708
30
0
41
1
10
17.9374394802437
20
8.11782293726509
30
0
41
1
10
17.9590769391621
20
8.10278014227123
30
0
41
1
10
18.0032625261085
20
8.07253310430886
30
0
41
1
10
18.0256979895908
20
8.05731703795745
30
0
41
1
10
18.0701836243963
20
8.02657076865657
30
0
41
1
10
18.136650245529
20
7.98000761191307
30
0
41
1
10
18.2021187216462
20
7.93194816472283
30
0
41
1
10
18.2881795129292
20
7.86618374411262
30
0
41
1
10
18.3305954647815
20
7.83245700709637
30
0
41
1
10
18.4138714696337
20
7.76295058318156
30
0
41
1
10
18.4547262053505
20
7.72716730991199
30
0
41
1
10
18.494889084157
20
7.69025731028552
30
0
0
SPLINE
5
142
100
AcDbEntity
8
1
62
256
6
ByLayer
370
18
48
1
60
0
100
AcDbSpline
70
4
71
3
72
8
73
4
40
0
40
0
40
0
40
0
40
1
40
1
40
1
40
1
41
1
10
19.7493793812195
20
6.04585614232664
30
0
41
1
10
19.8621518194028
20
5.91051606399678
30
0
41
1
10
19.9826070279364
20
5.78114576404444
30
0
41
1
10
20.1091354543993
20
5.66093901159053
30
0
0
SPLINE
5
143
100
AcDbEntity
8
1
62
256
6
ByLayer
370
18
48
1
60
0
100
AcDbSpline
70
4
71
3
72
27
73
23
40
0
40
0
40
0
40
0
40
0.0888732597820153
40
0.0888732597820153
40
0.177746519564031
40
0.177746519564031
40
0.266619779346046
40
0.266619779346046
40
0.355493039128061
40
0.355493039128061
40
0.533239558692092
40
0.533239558692092
40
0.622112818474101
40
0.622112818474101
40
0.710986078256111
40
0.710986078256111
40
0.888732597820139
40
0.888732597820139
40
0.933169227711149
40
0.933169227711149
40
0.977605857602158
40
1
40
1
40
1
40
1
41
1
10
20.9619630178838
20
-8.89337430805024
30
0
41
1
10
20.9445313640742
20
-8.89012111641877
30
0
41
1
10
20.9271341507762
20
-8.88686229609206
30
0
41
1
10
20.8923821350808
20
-8.88032392289485
30
0
41
1
10
20.8750064163124
20
-8.87703797476895
30
0
41
1
10
20.8403912085683
20
-8.87047339598919
30
0
41
1
10
20.8231741320776
20
-8.86720194597835
30
0
41
1
10
20.7892958542433
20
-8.86078734382963
30
0
41
1
10
20.7726576295154
20
-8.85765082809891
30
0
41
1
10
20.7237818502238
20
-8.84847270681097
30
0
41
1
10
20.6925807327332
20
-8.84266340106041
30
0
41
1
10
20.648140543147
20
-8.83438147394911
30
0
41
1
10
20.6339078903065
20
-8.83172707579637
30
0
41
1
10
20.6067680276215
20
-8.82664531179269
30
0
41
1
10
20.5938316790688
20
-8.82421253507614
30
0
41
1
10
20.5569544995164
20
-8.81722176340497
30
0
41
1
10
20.5349168008829
20
-8.81296615454758
30
0
41
1
10
20.5110092237545
20
-8.80816401653055
30
0
41
1
10
20.5064177438165
20
-8.80723095778333
30
0
41
1
10
20.4977076191267
20
-8.80543690606851
30
0
41
1
10
20.4914952305244
20
-8.8041383772981
30
0
41
1
10
20.4857854976947
20
-8.80291331462054
30
0
41
1
10
20.4839287015443
20
-8.80251097891292
30
0
0
SPLINE
5
144
100
AcDbEntity
8
1
62
256
6
ByLayer
370
18
48
1
60
0
100
AcDbSpline
70
4
71
3
72
35
73
31
40
0
40
0
40
0
40
0
40
0.125000000000019
40
0.125000000000019
40
0.156250000000022
40
0.156250000000022
40
0.187500000000024
40
0.250000000000026
40
0.250000000000026
40
0.37500000000003
40
0.37500000000003
40
0.40625000000003
40
0.40625000000003
40
0.43750000000003
40
0.43750000000003
40
0.500000000000029
40
0.500000000000029
40
0.562500000000028
40
0.562500000000028
40
0.593750000000028
40
0.593750000000028
40
0.625000000000027
40
0.625000000000027
40
0.750000000000017
40
0.750000000000017
40
0.812500000000012
40
0.812500000000012
40
0.875000000000006
40
0.875000000000006
40
1
40
1
40
1
40
1
41
1
10
21.5434285369521
20
-8.80391834577577
30
0
41
1
10
21.513679664501
20
-8.78888344697835
30
0
41
1
10
21.4870402708846
20
-8.77374389035091
30
0
41
1
10
21.4579760200854
20
-8.75458249882524
30
0
41
1
10
21.4523706490795
20
-8.75073304113526
30
0
41
1
10
21.4417045319918
20
-8.74308072676958
30
0
41
1
10
21.4264842591234
20
-8.73164760396047
30
0
41
1
10
21.4136153781337
20
-8.72034466341982
30
0
41
1
10
21.391181442708
20
-8.69791240953936
30
0
41
1
10
21.3805921778489
20
-8.68318398207788
30
0
41
1
10
21.372804773932
20
-8.66497742257121
30
0
41
1
10
21.3715259416856
20
-8.66134972487689
30
0
41
1
10
21.3695449342971
20
-8.65419214887935
30
0
41
1
10
21.3688382187964
20
-8.65065250338208
30
0
41
1
10
21.3675580820455
20
-8.64014901040628
30
0
41
1
10
21.3678211936647
20
-8.63329981577007
30
0
41
1
10
21.3706007168452
20
-8.61991540639092
30
0
41
1
10
21.373116100658
20
-8.61337994940006
30
0
41
1
10
21.3786859837468
20
-8.60383894017615
30
0
41
1
10
21.3808430920783
20
-8.6007025316399
30
0
41
1
10
21.3857924954639
20
-8.59452578712613
30
0
41
1
10
21.3885956929581
20
-8.5914761816454
30
0
41
1
10
21.4041325778007
20
-8.57662448001153
30
0
41
1
10
21.4214030715722
20
-8.56603446062537
30
0
41
1
10
21.45371174056
20
-8.55192973386171
30
0
41
1
10
21.4655574201405
20
-8.54752753889618
30
0
41
1
10
21.4915006416671
20
-8.53937886263682
30
0
41
1
10
21.5056506125419
20
-8.53562730865792
30
0
41
1
10
21.5508029101536
20
-8.52571732671437
30
0
41
1
10
21.5847473306113
20
-8.52082138229983
30
0
41
1
10
21.6222620501711
20
-8.51761966808884
30
0
0
SPLINE
5
145
100
AcDbEntity
8
1
62
256
6
ByLayer
370
18
48
1
60
0
100
AcDbSpline
70
4
71
3
72
14
73
10
40
0
40
0
40
0
40
0
40
0.25
40
0.25
40
0.5
40
0.5
40
0.75
40
0.75
40
1
40
1
40
1
40
1
41
1
10
20.1091354543993
20
5.66093901159053
30
0
41
1
10
20.2115558661219
20
5.56363577766643
30
0
41
1
10
20.3196086535276
20
5.46882938992161
30
0
41
1
10
20.5475560387669
20
5.28611272407916
30
0
41
1
10
20.6674567842334
20
5.19821003396396
30
0
41
1
10
20.9194771222833
20
5.03097535345928
30
0
41
1
10
21.0515248456279
20
4.95157274531601
30
0
41
1
10
21.327661312183
20
4.80234999821882
30
0
41
1
10
21.471737495887
20
4.73251264507655
30
0
41
1
10
21.6222620501711
20
4.66847185130256
30
0
0
SPLINE
5
146
100
AcDbEntity
8
1
62
256
6
ByLayer
370
18
48
1
60
0
100
AcDbSpline
70
4
71
3
72
16
73
12
40
0
40
0
40
0
40
0
40
0.249999999999996
40
0.249999999999996
40
0.499999999999991
40
0.499999999999991
40
0.624999999999989
40
0.624999999999989
40
0.749999999999987
40
0.749999999999987
40
1
40
1
40
1
40
1
41
1
10
22.1121027707431
20
-8.50875928643657
30
0
41
1
10
22.066798331137
20
-8.5080824971274
30
0
41
1
10
22.0224098199133
20
-8.50766649039529
30
0
41
1
10
21.9352920185287
20
-8.50727905493409
30
0
41
1
10
21.8925791263576
20
-8.50733069310552
30
0
41
1
10
21.8299396213141
20
-8.50812109706402
30
0
41
1
10
21.8093040081909
20
-8.50851109593474
30
0
41
1
10
21.7692285097534
20
-8.50955361406268
30
0
41
1
10
21.7496918181423
20
-8.51020435692682
30
0
41
1
10
21.6925435841293
20
-8.51257749764441
30
0
41
1
10
21.6563753007281
20
-8.51470825410594
30
0
41
1
10
21.6222620501711
20
-8.51761966808884
30
0
0
SPLINE
5
147
100
AcDbEntity
8
1
62
256
6
ByLayer
370
18
48
1
60
0
100
AcDbSpline
70
4
71
3
72
10
73
6
40
0
40
0
40
0
40
0
40
0.5
40
0.5
40
1
40
1
40
1
40
1
41
1
10
22.112102770743
20
4.48201248999622
30
0
41
1
10
22.0261383776807
20
4.51100756772394
30
0
41
1
10
21.9424728116555
20
4.5411227677551
30
0
41
1
10
21.7793131983879
20
4.60335397170992
30
0
41
1
10
21.6998225318731
20
4.63547368142045
30
0
41
1
10
21.6222620501711
20
4.66847185130256
30
0
0
SPLINE
5
148
100
AcDbEntity
8
1
62
256
6
ByLayer
370
18
48
1
60
0
100
AcDbSpline
70
4
71
3
72
77
73
73
40
0
40
0
40
0
40
0
40
0.0624999999999998
40
0.0624999999999998
40
0.0781249999999995
40
0.0781249999999995
40
0.0937499999999993
40
0.0937499999999993
40
0.124999999999999
40
0.124999999999999
40
0.187499999999997
40
0.187499999999997
40
0.218749999999996
40
0.218749999999996
40
0.234374999999996
40
0.234374999999996
40
0.249999999999995
40
0.249999999999995
40
0.312499999999992
40
0.312499999999992
40
0.328124999999991
40
0.328124999999991
40
0.343749999999991
40
0.343749999999991
40
0.37499999999999
40
0.37499999999999
40
0.406249999999989
40
0.406249999999989
40
0.421874999999989
40
0.421874999999989
40
0.429687499999988
40
0.429687499999988
40
0.437499999999988
40
0.468749999999982
40
0.468749999999982
40
0.499999999999975
40
0.499999999999975
40
0.515624999999973
40
0.515624999999973
40
0.531249999999971
40
0.531249999999971
40
0.562499999999968
40
0.593749999999965
40
0.593749999999965
40
0.601562499999964
40
0.601562499999964
40
0.609374999999963
40
0.624999999999962
40
0.624999999999962
40
0.656249999999963
40
0.656249999999963
40
0.671874999999965
40
0.671874999999965
40
0.687499999999966
40
0.687499999999966
40
0.71874999999997
40
0.71874999999997
40
0.749999999999973
40
0.749999999999973
40
0.781249999999976
40
0.781249999999976
40
0.812499999999979
40
0.812499999999979
40
0.843749999999982
40
0.843749999999982
40
0.859374999999984
40
0.859374999999984
40
0.874999999999986
40
0.874999999999986
40
0.937499999999993
40
0.937499999999993
40
1
40
1
40
1
40
1
41
1
10
24.4085438191873
20
-5.85384518219902
30
0
41
1
10
24.420245620674
20
-5.77302707231947
30
0
41
1
10
24.4378515723699
20
-5.69177622716661
30
0
41
1
10
24.4681228468683
20
-5.58983669698269
30
0
41
1
10
24.4745928126341
20
-5.56943032179335
30
0
41
1
10
24.4883973941449
20
-5.52858623580264
30
0
41
1
10
24.495740938819
20
-5.5081251976613
30
0
41
1
10
24.5190670498146
20
-5.44686036747107
30
0
41
1
10
24.5362411011535
20
-5.40643227101475
30
0
41
1
10
24.5927962313733
20
-5.28652930840151
30
0
41
1
10
24.6371710981919
20
-5.20841827538439
30
0
41
1
10
24.714985035659
20
-5.0947888474099
30
0
41
1
10
24.7428068962362
20
-5.05750568465503
30
0
41
1
10
24.7876281735245
20
-5.00261935711158
30
0
41
1
10
24.8031083157534
20
-4.9844738459031
30
0
41
1
10
24.8348541643225
20
-4.94888612070686
30
0
41
1
10
24.8511492330318
20
-4.93140562159304
30
0
41
1
10
24.9347707419759
20
-4.84562380051017
30
0
41
1
10
25.0084712954107
20
-4.78213006832083
30
0
41
1
10
25.1102421810813
20
-4.71051829492194
30
0
41
1
10
25.1310830041832
20
-4.69658744454675
30
0
41
1
10
25.1737872318782
20
-4.66956012146132
30
0
41
1
10
25.1956694847188
20
-4.65645811123689
30
0
41
1
10
25.2621241191329
20
-4.61892672552968
30
0
41
1
10
25.3077456122785
20
-4.59610569282121
30
0
41
1
10
25.4017110462874
20
-4.55509407364966
30
0
41
1
10
25.450053980857
20
-4.53690167088784
30
0
41
1
10
25.5247491894265
20
-4.5133805027922
30
0
41
1
10
25.5500119336606
20
-4.50616945931148
30
0
41
1
10
25.5884797029493
20
-4.49635004761133
30
0
41
1
10
25.601399058642
20
-4.49324394440231
30
0
41
1
10
25.6272366087888
20
-4.487415786898
30
0
41
1
10
25.6919484357491
20
-4.4737756587743
30
0
41
1
10
25.7572441282439
20
-4.46475956552935
30
0
41
1
10
25.8624721071458
20
-4.45636844516693
30
0
41
1
10
25.9154633082804
20
-4.45518847521542
30
0
41
1
10
25.9955481825022
20
-4.45821235030415
30
0
41
1
10
26.0223431121719
20
-4.46002131645631
30
0
41
1
10
26.0761424178091
20
-4.46531525027868
30
0
41
1
10
26.10280685212
20
-4.46876739108265
30
0
41
1
10
26.1820445455106
20
-4.48147815607308
30
0
41
1
10
26.2857432789021
20
-4.50469468013837
30
0
41
1
10
26.3855823135069
20
-4.54025699971753
30
0
41
1
10
26.4467374522831
20
-4.56643671591928
30
0
41
1
10
26.4589022819611
20
-4.5718705065528
30
0
41
1
10
26.4829115548328
20
-4.58304417561017
30
0
41
1
10
26.5185197050096
20
-4.60029533025184
30
0
41
1
10
26.5529344458186
20
-4.61898461907991
30
0
41
1
10
26.6202192414167
20
-4.65821066881426
30
0
41
1
10
26.6630207918653
20
-4.68681941008366
30
0
41
1
10
26.724232438942
20
-4.73324882418176
30
0
41
1
10
26.7441455374523
20
-4.74932034737283
30
0
41
1
10
26.7829381118166
20
-4.78259408012664
30
0
41
1
10
26.8016398832694
20
-4.79964253911722
30
0
41
1
10
26.8557685727752
20
-4.85194101168335
30
0
41
1
10
26.8892247025628
20
-4.88834045110994
30
0
41
1
10
26.9512749663277
20
-4.96388120196539
30
0
41
1
10
26.9798812942902
20
-5.00304546447322
30
0
41
1
10
27.0324009772996
20
-5.0838091957921
30
0
41
1
10
27.0558937110274
20
-5.12474934446721
30
0
41
1
10
27.0979775876743
20
-5.20752855345664
30
0
41
1
10
27.1165659283316
20
-5.24936845425752
30
0
41
1
10
27.1492685866222
20
-5.3337892445591
30
0
41
1
10
27.1633813585256
20
-5.37637060882373
30
0
41
1
10
27.1814156771913
20
-5.44070850110076
30
0
41
1
10
27.1869077599156
20
-5.46224998054731
30
0
41
1
10
27.1968555492113
20
-5.50540196044459
30
0
41
1
10
27.2012871348761
20
-5.5269030598835
30
0
41
1
10
27.2208945425259
20
-5.63403530445352
30
0
41
1
10
27.2284914537444
20
-5.71854770585936
30
0
41
1
10
27.2302644298997
20
-5.8851985130448
30
0
41
1
10
27.2244164375075
20
-5.96733674440783
30
0
41
1
10
27.2125301236744
20
-6.04828311491876
30
0
0
SPLINE
5
149
100
AcDbEntity
8
1
62
256
6
ByLayer
370
18
48
1
60
0
100
AcDbSpline
70
4
71
3
72
10
73
6
40
0
40
0
40
0
40
0
40
0.5
40
0.5
40
1
40
1
40
1
40
1
41
1
10
22.1121027707431
20
-8.50875928643657
30
0
41
1
10
22.1677629501374
20
-8.50959077700765
30
0
41
1
10
22.222696257047
20
-8.51246184891251
30
0
41
1
10
22.3314477124015
20
-8.52132968493288
30
0
41
1
10
22.3852739833422
20
-8.52730217250094
30
0
41
1
10
22.4386506315435
20
-8.5345047827937
30
0
0
SPLINE
5
14A
100
AcDbEntity
8
1
62
256
6
ByLayer
370
18
48
1
60
0
100
AcDbSpline
70
4
71
3
72
24
73
20
40
0
40
0
40
0
40
0
40
0.125
40
0.125
40
0.187500000000005
40
0.187500000000005
40
0.250000000000009
40
0.250000000000009
40
0.500000000000001
40
0.500000000000001
40
0.624999999999998
40
0.624999999999998
40
0.687499999999996
40
0.687499999999996
40
0.749999999999994
40
0.749999999999994
40
0.874999999999997
40
0.874999999999997
40
1
40
1
40
1
40
1
41
1
10
22.4386506315435
20
-8.53450478279345
30
0
41
1
10
22.4867106634872
20
-8.53714829057581
30
0
41
1
10
22.5348316549272
20
-8.54052333592895
30
0
41
1
10
22.6070988442998
20
-8.54660038931966
30
0
41
1
10
22.6312030428065
20
-8.5487965995876
30
0
41
1
10
22.6790474719145
20
-8.55347773029573
30
0
41
1
10
22.7028384131375
20
-8.55596669984867
30
0
41
1
10
22.8211640472313
20
-8.56911506069983
30
0
41
1
10
22.9138393179789
20
-8.5818584014074
30
0
41
1
10
23.0500343761639
20
-8.60392740598084
30
0
41
1
10
23.0949577901434
20
-8.61178118183544
30
0
41
1
10
23.1616009687227
20
-8.62430497005364
30
0
41
1
10
23.1836913483492
20
-8.62860372780365
30
0
41
1
10
23.2276142665538
20
-8.63745315888006
30
0
41
1
10
23.2494881474329
20
-8.64201286557793
30
0
41
1
10
23.3143672583855
20
-8.65600700414184
30
0
41
1
10
23.3565705272896
20
-8.66573855438203
30
0
41
1
10
23.4387122157648
20
-8.68601070697885
30
0
41
1
10
23.478653004968
20
-8.69655070335764
30
0
41
1
10
23.5172993622048
20
-8.70752195560203
30
0
0
SPLINE
5
14B
100
AcDbEntity
8
1
62
256
6
ByLayer
370
18
48
1
60
0
100
AcDbSpline
70
4
71
3
72
34
73
30
40
0
40
0
40
0
40
0
40
0.125000000000004
40
0.125000000000004
40
0.187500000000006
40
0.187500000000006
40
0.250000000000008
40
0.250000000000008
40
0.281250000000009
40
0.281250000000009
40
0.31250000000001
40
0.31250000000001
40
0.37500000000001
40
0.37500000000001
40
0.406250000000009
40
0.406250000000009
40
0.421875000000009
40
0.421875000000009
40
0.437500000000008
40
0.437500000000008
40
0.468750000000007
40
0.468750000000007
40
0.500000000000006
40
0.500000000000006
40
0.625000000000005
40
0.625000000000005
40
0.750000000000003
40
0.750000000000003
40
1
40
1
40
1
40
1
41
1
10
22.112102770743
20
4.48201248999622
30
0
41
1
10
22.3279985545961
20
4.40919263039034
30
0
41
1
10
22.5478331334845
20
4.35119350234713
30
0
41
1
10
22.8834825873599
20
4.28765947575914
30
0
41
1
10
22.9963451528423
20
4.27037167882555
30
0
41
1
10
23.2239767657012
20
4.24349590140072
30
0
41
1
10
23.3387456299844
20
4.23390695867586
30
0
41
1
10
23.5123276543665
20
4.22535324339209
30
0
41
1
10
23.5704268645447
20
4.22347491706778
30
0
41
1
10
23.6871076499595
20
4.22169099080948
30
0
41
1
10
23.7453999025805
20
4.22178975200276
30
0
41
1
10
23.9196821088646
20
4.22502572216116
30
0
41
1
10
24.0352787809443
20
4.23106049857967
30
0
41
1
10
24.2076982303523
20
4.24650368354027
30
0
41
1
10
24.2649963184045
20
4.25279816384047
30
0
41
1
10
24.3507187675378
20
4.26371005694297
30
0
41
1
10
24.3792591474419
20
4.26756828684341
30
0
41
1
10
24.4362853100926
20
4.27564157881044
30
0
41
1
10
24.4647673721641
20
4.27988100227658
30
0
41
1
10
24.5501813835413
20
4.29280859852844
30
0
41
1
10
24.6070825674984
20
4.30169687463122
30
0
41
1
10
24.72086495859
20
4.31960022337565
30
0
41
1
10
24.7777445415282
20
4.3286259517112
30
0
41
1
10
25.0621216342759
20
4.37388078777639
30
0
41
1
10
25.2895340659436
20
4.41063620285776
30
0
41
1
10
25.7443269127083
20
4.48428857591087
30
0
41
1
10
25.971712519351
20
4.52115178305071
30
0
41
1
10
26.6539620816573
20
4.63103718840993
30
0
41
1
10
27.1088664804689
20
4.70369738750317
30
0
41
1
10
27.5637601685712
20
4.77629616780644
30
0
0
SPLINE
5
14C
100
AcDbEntity
8
1
62
256
6
ByLayer
370
18
48
1
60
0
100
AcDbSpline
70
4
71
3
72
32
73
28
40
0
40
0
40
0
40
0
40
0.125
40
0.249999999999999
40
0.249999999999999
40
0.281249999999996
40
0.281249999999996
40
0.312499999999992
40
0.374999999999987
40
0.374999999999987
40
0.49999999999997
40
0.49999999999997
40
0.53124999999997
40
0.53124999999997
40
0.56249999999997
40
0.56249999999997
40
0.624999999999968
40
0.624999999999968
40
0.74999999999997
40
0.74999999999997
40
0.781249999999974
40
0.781249999999974
40
0.812499999999978
40
0.812499999999978
40
0.874999999999985
40
0.874999999999985
40
1
40
1
40
1
40
1
41
1
10
28.7392904448952
20
-8.27876759935576
30
0
41
1
10
28.716453449943
20
-8.33699271132586
30
0
41
1
10
28.6623330910471
20
-8.448320685162
30
0
41
1
10
28.5918340972776
20
-8.54971593355458
30
0
41
1
10
28.5424419337359
20
-8.60985543974002
30
0
41
1
10
28.5322725298768
20
-8.62174545211464
30
0
41
1
10
28.5115484598029
20
-8.64501487030668
30
0
41
1
10
28.479860274986
20
-8.67918845592236
30
0
41
1
10
28.4463945604039
20
-8.71120525140866
30
0
41
1
10
28.3771280930155
20
-8.77240559171396
30
0
41
1
10
28.3278513254654
20
-8.80944545562599
30
0
41
1
10
28.2622839516565
20
-8.85092651539851
30
0
41
1
10
28.2489707710552
20
-8.85898041153244
30
0
41
1
10
28.2219378080341
20
-8.87459484790524
30
0
41
1
10
28.2082468108319
20
-8.88213713961743
30
0
41
1
10
28.1669266141711
20
-8.90382816244514
30
0
41
1
10
28.1389458388262
20
-8.91710382262866
30
0
41
1
10
28.0537314399561
20
-8.95345727363149
30
0
41
1
10
27.995233326296
20
-8.97308224026905
30
0
41
1
10
27.9199817351902
20
-8.99180012785193
30
0
41
1
10
27.9048243637096
20
-8.99525138511032
30
0
41
1
10
27.8742925640543
20
-9.00156120334442
30
0
41
1
10
27.8588879310176
20
-9.0044244409431
30
0
41
1
10
27.812593129906
20
-9.01206905526753
30
0
41
1
10
27.7816575441015
20
-9.01590719968215
30
0
41
1
10
27.688637964759
20
-9.0237221623387
30
0
41
1
10
27.6263424385215
20
-9.02402192059401
30
0
41
1
10
27.5637601685715
20
-9.01933723041485
30
0
0
SPLINE
5
14D
100
AcDbEntity
8
1
62
256
6
ByLayer
370
18
48
1
60
0
100
AcDbSpline
70
4
71
3
72
27
73
23
40
0
40
0
40
0
40
0
40
0.12499999999999
40
0.249999999999981
40
0.249999999999981
40
0.281249999999978
40
0.281249999999978
40
0.312499999999975
40
0.312499999999975
40
0.374999999999973
40
0.374999999999973
40
0.499999999999975
40
0.499999999999975
40
0.562499999999975
40
0.562499999999975
40
0.624999999999975
40
0.624999999999975
40
0.749999999999983
40
0.749999999999983
40
0.874999999999992
40
0.874999999999992
40
1
40
1
40
1
40
1
41
1
10
28.7392904448952
20
4.78294301685855
30
0
41
1
10
28.7170086598519
20
4.79228382118038
30
0
41
1
10
28.6643893581552
20
4.80870167800971
30
0
41
1
10
28.59612401774
20
4.82072907800156
30
0
41
1
10
28.5483820890467
20
4.82682416244828
30
0
41
1
10
28.538578545729
20
4.82797169951361
30
0
41
1
10
28.5184507532203
20
4.83012096625495
30
0
41
1
10
28.508111693867
20
4.83112363886465
30
0
41
1
10
28.476556825466
20
4.83388669056272
30
0
41
1
10
28.4547343616935
20
4.83541099313878
30
0
41
1
10
28.3869408235428
20
4.83904421103253
30
0
41
1
10
28.3386570809838
20
4.84021887862393
30
0
41
1
10
28.2614843885033
20
4.84006622995568
30
0
41
1
10
28.234965708915
20
4.83969491791991
30
0
41
1
10
28.180276275017
20
4.83828644090399
30
0
41
1
10
28.1520086315489
20
4.83724234218919
30
0
41
1
10
28.0661760300487
20
4.83314275940056
30
0
41
1
10
28.0071827583061
20
4.82912338995949
30
0
41
1
10
27.8856435150511
20
4.81850830879146
30
0
41
1
10
27.8230995327463
20
4.8119140261873
30
0
41
1
10
27.6941709977486
20
4.79594289943381
30
0
41
1
10
27.6292046437481
20
4.78674078200905
30
0
41
1
10
27.5637601685712
20
4.77629616780644
30
0
0
SPLINE
5
14E
100
AcDbEntity
8
1
62
256
6
ByLayer
370
13
48
1
60
0
100
AcDbSpline
70
4
71
3
72
52
73
48
40
0
40
0
40
0
40
0
40
0.0312517211051509
40
0.0312517211051509
40
0.0625034422103017
40
0.0625034422103017
40
0.0937551633154526
40
0.0937551633154526
40
0.125006884420604
40
0.156258605525754
40
0.187510326630905
40
0.218762047736056
40
0.250013768841207
40
0.281265489946358
40
0.312517211051509
40
0.34376893215666
40
0.375020653261811
40
0.406272374366962
40
0.406272374366962
40
0.437524095472113
40
0.437524095472113
40
0.468775816577264
40
0.468775816577264
40
0.500027537682415
40
0.500027537682415
40
0.531279258787566
40
0.531279258787566
40
0.562530979892717
40
0.562530979892717
40
0.593782700997867
40
0.593782700997867
40
0.625034422103018
40
0.656286143208169
40
0.68753786431332
40
0.718789585418471
40
0.750041306523622
40
0.781293027628773
40
0.812544748733924
40
0.843796469839075
40
0.875048190944226
40
0.906299912049377
40
0.906299912049377
40
0.937551633154528
40
0.937551633154528
40
0.968803354259678
40
0.968803354259678
40
1
40
1
40
1
40
1
41
1
10
17.3946639364338
20
-8.68819276310695
30
0
41
1
10
17.3946639364338
20
-8.68818632496321
30
0
41
1
10
17.3946639364338
20
-8.6742234568742
30
0
41
1
10
17.3946639364338
20
-8.61848691331844
30
0
41
1
10
17.3946639364338
20
-8.57671819959512
30
0
41
1
10
17.3946639364338
20
-8.46578188586672
30
0
41
1
10
17.3946639364338
20
-8.39661445754285
30
0
41
1
10
17.3946639364338
20
-8.23154708775176
30
0
41
1
10
17.3946639364338
20
-8.0397471983309
30
0
41
1
10
17.3946639364338
20
-7.67461978887354
30
0
41
1
10
17.3946639364338
20
-7.2355815954754
30
0
41
1
10
17.3946639364338
20
-6.72686079594156
30
0
41
1
10
17.3946639364338
20
-6.15335664966668
30
0
41
1
10
17.3946639364338
20
-5.52059231508858
30
0
41
1
10
17.3946639364338
20
-4.83466165865342
30
0
41
1
10
17.3946639364338
20
-4.10217056755054
30
0
41
1
10
17.3946639364338
20
-3.33017164717584
30
0
41
1
10
17.3946639364338
20
-2.79412643008655
30
0
41
1
10
17.3946639364338
20
-2.2499711270092
30
0
41
1
10
17.3946639364338
20
-1.97383927459241
30
0
41
1
10
17.3946639364338
20
-1.4161247634748
30
0
41
1
10
17.3946639364338
20
-1.13454296787364
30
0
41
1
10
17.3946639364338
20
-0.568640344335591
30
0
41
1
10
17.3946639364338
20
-0.284320392169974
30
0
41
1
10
17.3946639364338
20
0.284320392170017
30
0
41
1
10
17.3946639364338
20
0.568640344335634
30
0
41
1
10
17.3946639364338
20
1.13454296787368
30
0
41
1
10
17.3946639364338
20
1.41612476347484
30
0
41
1
10
17.3946639364338
20
1.97383927459245
30
0
41
1
10
17.3946639364338
20
2.24997112700925
30
0
41
1
10
17.3946639364338
20
2.79412561706449
30
0
41
1
10
17.3946639364338
20
3.33017090800106
30
0
41
1
10
17.3946639364338
20
4.10216825420375
30
0
41
1
10
17.3946639364338
20
4.83465947764516
30
0
41
1
10
17.3946639364338
20
5.52059028742315
30
0
41
1
10
17.3946639364338
20
6.15335479487162
30
0
41
1
10
17.3946639364338
20
6.72685913187956
30
0
41
1
10
17.3946639364338
20
7.23558013817227
30
0
41
1
10
17.3946639364338
20
7.67461855236392
30
0
41
1
10
17.3946639364338
20
8.0397467054292
30
0
41
1
10
17.3946639364338
20
8.23154675098702
30
0
41
1
10
17.3946639364338
20
8.3966144575429
30
0
41
1
10
17.3946639364338
20
8.46578188586676
30
0
41
1
10
17.3946639364338
20
8.57671819959515
30
0
41
1
10
17.3946639364338
20
8.61848691331848
30
0
41
1
10
17.3946639364338
20
8.67417434421162
30
0
41
1
10
17.3946639364338
20
8.68815288852123
30
0
41
1
10
17.3946639364338
20
8.68819423708567
30
0
0
SPLINE
5
14F
100
AcDbEntity
8
1
62
256
6
ByLayer
370
18
48
1
60
0
100
AcDbSpline
70
4
71
3
72
28
73
24
40
0
40
0
40
0
40
0
40
0.0624999999999984
40
0.0624999999999984
40
0.0937499999999998
40
0.0937499999999998
40
0.125000000000001
40
0.125000000000001
40
0.187500000000001
40
0.187500000000001
40
0.250000000000001
40
0.250000000000001
40
0.312500000000001
40
0.312500000000001
40
0.375000000000001
40
0.375000000000001
40
0.500000000000001
40
0.500000000000001
40
0.625000000000001
40
0.625000000000001
40
0.750000000000001
40
0.750000000000001
40
1
40
1
40
1
40
1
41
1
10
7.75
20
-5.39652666073279
30
0
41
1
10
7.75968505157059
20
-5.39652666073279
30
0
41
1
10
7.76911010794737
20
-5.39549154169632
30
0
41
1
10
7.78290311183613
20
-5.39256592317538
30
0
41
1
10
7.78744299968
20
-5.39136047911455
30
0
41
1
10
7.79641130073816
20
-5.38850497751717
30
0
41
1
10
7.80083058914727
20
-5.38685426498975
30
0
41
1
10
7.81360715776114
20
-5.38141040107003
30
0
41
1
10
7.82160724650697
20
-5.37709448890888
30
0
41
1
10
7.83676582285034
20
-5.3673417283365
30
0
41
1
10
7.84388612573022
20
-5.36191461798522
30
0
41
1
10
7.8570390232137
20
-5.35046375818706
30
0
41
1
10
7.86313401616974
20
-5.34439863549893
30
0
41
1
10
7.87453894005992
20
-5.33171031959988
30
0
41
1
10
7.87986170638911
20
-5.32506625994934
30
0
41
1
10
7.89471853091297
20
-5.30453888397415
30
0
41
1
10
7.90302345277735
20
-5.29028630347921
30
0
41
1
10
7.91734451448755
20
-5.26094667877454
30
0
41
1
10
7.92334549575418
20
-5.24585454065307
30
0
41
1
10
7.93344459170825
20
-5.21496020342478
30
0
41
1
10
7.93750373771269
20
-5.1992432511162
30
0
41
1
10
7.94703929108803
20
-5.15191995389941
30
0
41
1
10
7.95000000000002
20
-5.11991294147201
30
0
41
1
10
7.95000000000002
20
-5.08748464371143
30
0
0
SPLINE
5
150
100
AcDbEntity
8
1
62
256
6
ByLayer
370
18
48
1
60
0
100
AcDbSpline
70
4
71
3
72
28
73
24
40
0
40
0
40
0
40
0
40
0.249999999999997
40
0.249999999999997
40
0.374999999999998
40
0.374999999999998
40
0.499999999999999
40
0.499999999999999
40
0.562499999999999
40
0.562499999999999
40
0.624999999999999
40
0.624999999999999
40
0.750000000000004
40
0.750000000000004
40
0.812500000000004
40
0.812500000000004
40
0.875000000000004
40
0.875000000000004
40
0.937500000000003
40
0.937500000000003
40
0.968750000000002
40
0.968750000000002
40
1
40
1
40
1
40
1
41
1
10
2.05000000000001
20
-5.08748464371145
30
0
41
1
10
2.05000000000001
20
-5.11992407317909
30
0
41
1
10
2.05296518608071
20
-5.15184945416823
30
0
41
1
10
2.06241921673848
20
-5.19890669961669
30
0
41
1
10
2.0664163034856
20
-5.21445248368065
30
0
41
1
10
2.07642272870587
20
-5.2452247086932
30
0
41
1
10
2.08247142468426
20
-5.26053378376129
30
0
41
1
10
2.09328825705498
20
-5.28274749911557
30
0
41
1
10
2.09718644788504
20
-5.29003519639475
30
0
41
1
10
2.10565462671781
20
-5.30434549325457
30
0
41
1
10
2.11023974335512
20
-5.31138970011453
30
0
41
1
10
2.12508071264159
20
-5.33189496462809
30
0
41
1
10
2.13631396643058
20
-5.34467238787924
30
0
41
1
10
2.15610574239261
20
-5.36190978588412
30
0
41
1
10
2.16324423280741
20
-5.36734677719851
30
0
41
1
10
2.17834413643345
20
-5.37706462669934
30
0
41
1
10
2.18634088701563
20
-5.38138767596148
30
0
41
1
10
2.20346391562237
20
-5.3886846628729
30
0
41
1
10
2.2124097358807
20
-5.39156421174209
30
0
41
1
10
2.22617734429764
20
-5.39449566586781
30
0
41
1
10
2.23083888968236
20
-5.39524670817974
30
0
41
1
10
2.24031756199128
20
-5.39626280313733
30
0
41
1
10
2.24515891366875
20
-5.39652666073279
30
0
41
1
10
2.25
20
-5.39652666073279
30
0
0
SPLINE
5
151
100
AcDbEntity
8
1
62
256
6
ByLayer
370
18
48
1
60
0
100
AcDbSpline
70
4
71
3
72
28
73
24
40
0
40
0
40
0
40
0
40
0.0625000000000003
40
0.0625000000000003
40
0.0937499999999984
40
0.0937499999999984
40
0.124999999999997
40
0.124999999999997
40
0.187499999999996
40
0.187499999999996
40
0.249999999999994
40
0.249999999999994
40
0.312499999999993
40
0.312499999999993
40
0.374999999999992
40
0.374999999999992
40
0.499999999999994
40
0.499999999999994
40
0.624999999999995
40
0.624999999999995
40
0.749999999999997
40
0.749999999999997
40
1
40
1
40
1
40
1
41
1
10
2.25
20
5.39652666073283
30
0
41
1
10
2.24031494842944
20
5.39652666073283
30
0
41
1
10
2.23088989205263
20
5.39549154169636
30
0
41
1
10
2.21709688816389
20
5.39256592317543
30
0
41
1
10
2.21255700032
20
5.3913604791146
30
0
41
1
10
2.20358869926184
20
5.38850497751723
30
0
41
1
10
2.19916941085273
20
5.38685426498979
30
0
41
1
10
2.18639284223886
20
5.38141040107009
30
0
41
1
10
2.17839275349303
20
5.37709448890892
30
0
41
1
10
2.16323417714966
20
5.36734172833656
30
0
41
1
10
2.15611387426978
20
5.36191461798528
30
0
41
1
10
2.1429609767863
20
5.35046375818712
30
0
41
1
10
2.13686598383026
20
5.34439863549899
30
0
41
1
10
2.12546105994008
20
5.33171031959994
30
0
41
1
10
2.12013829361089
20
5.32506625994938
30
0
41
1
10
2.10528146908703
20
5.3045388839742
30
0
41
1
10
2.09697654722265
20
5.29028630347926
30
0
41
1
10
2.08265548551245
20
5.26094667877459
30
0
41
1
10
2.07665450424582
20
5.24585454065311
30
0
41
1
10
2.06655540829175
20
5.21496020342482
30
0
41
1
10
2.06249626228731
20
5.19924325111624
30
0
41
1
10
2.05296070891197
20
5.15191995389945
30
0
41
1
10
2.04999999999998
20
5.11991294147207
30
0
41
1
10
2.04999999999998
20
5.08748464371149
30
0
0
SPLINE
5
152
100
AcDbEntity
8
1
62
256
6
ByLayer
370
18
48
1
60
0
100
AcDbSpline
70
4
71
3
72
28
73
24
40
0
40
0
40
0
40
0
40
0.250000000000004
40
0.250000000000004
40
0.375000000000002
40
0.375000000000002
40
0.5
40
0.5
40
0.562499999999998
40
0.562499999999998
40
0.624999999999996
40
0.624999999999996
40
0.749999999999998
40
0.749999999999998
40
0.812499999999998
40
0.812499999999998
40
0.874999999999997
40
0.874999999999997
40
0.937500000000001
40
0.937500000000001
40
0.968750000000001
40
0.968750000000001
40
1
40
1
40
1
40
1
41
1
10
7.94999999999999
20
5.08748464371149
30
0
41
1
10
7.94999999999999
20
5.11992407317913
30
0
41
1
10
7.94703481391929
20
5.15184945416827
30
0
41
1
10
7.93758078326152
20
5.19890669961673
30
0
41
1
10
7.9335836965144
20
5.21445248368069
30
0
41
1
10
7.92357727129413
20
5.24522470869324
30
0
41
1
10
7.91752857531574
20
5.26053378376133
30
0
41
1
10
7.90671174294502
20
5.28274749911562
30
0
41
1
10
7.90281355211496
20
5.29003519639481
30
0
41
1
10
7.89434537328219
20
5.30434549325461
30
0
41
1
10
7.88976025664488
20
5.31138970011457
30
0
41
1
10
7.87491928735841
20
5.33189496462813
30
0
41
1
10
7.86368603356942
20
5.34467238787929
30
0
41
1
10
7.84389425760739
20
5.36190978588418
30
0
41
1
10
7.83675576719259
20
5.36734677719855
30
0
41
1
10
7.82165586356655
20
5.37706462669938
30
0
41
1
10
7.81365911298437
20
5.38138767596152
30
0
41
1
10
7.79653608437764
20
5.38868466287296
30
0
41
1
10
7.7875902641193
20
5.39156421174215
30
0
41
1
10
7.77382265570236
20
5.39449566586786
30
0
41
1
10
7.76916111031764
20
5.3952467081798
30
0
41
1
10
7.75968243800872
20
5.39626280313739
30
0
41
1
10
7.75484108633125
20
5.39652666073285
30
0
41
1
10
7.75
20
5.39652666073285
30
0
0
SPLINE
5
153
100
AcDbEntity
8
1
62
256
6
ByLayer
370
13
48
1
60
0
100
AcDbSpline
70
4
71
2
72
6
73
3
40
0
40
0
40
0
40
1
40
1
40
1
41
1
10
22.7716802312089
20
6.15975274156483
30
0
41
0.983799147171952
10
22.851428113249
20
6.21502546662519
30
0
41
1
10
22.9333938353551
20
6.2703778816488
30
0
0
SPLINE
5
154
100
AcDbEntity
8
1
62
256
6
ByLayer
370
18
48
1
60
0
100
AcDbSpline
70
4
71
3
72
67
73
63
40
0
40
0
40
0
40
0
40
0.0126948672388926
40
0.0253599885203207
40
0.0379968283995517
40
0.0506068612862394
40
0.0631915710124552
40
0.0757524503850201
40
0.0882910007226664
40
0.10080873137861
40
0.113307159249186
40
0.125787808269249
40
0.138252208895064
40
0.150701897575528
40
0.163138416212536
40
0.175563311611397
40
0.187978134922249
40
0.200384441073419
40
0.212783788197765
40
0.225177737053003
40
0.237567850437126
40
0.249955692599963
40
0.262342828651996
40
0.274730823971552
40
0.287121243611488
40
0.29951565170649
40
0.311915610882111
40
0.324322681666656
40
0.336738421907028
40
0.349164386189605
40
0.361602125267208
40
0.374053185493208
40
0.386519108263775
40
0.39900142946922
40
0.411501678955384
40
0.424021379995951
40
0.436562048776532
40
0.449125193891318
40
0.46171231585304
40
0.474324906616936
40
0.48696444911937
40
0.499632416831661
40
0.525014032817202
40
0.550283958939304
40
0.575454064162588
40
0.600536359155393
40
0.625542981107956
40
0.650486177671294
40
0.675378290111274
40
0.700231735784949
40
0.725058990057482
40
0.749872567787411
40
0.774685004515475
40
0.799508837497336
40
0.824356586723301
40
0.849240736068373
40
0.87417371471365
40
0.899167878975401
40
0.924235494671068
40
0.949388720142371
40
0.974639590044752
40
1
40
1
40
1
40
1
41
1
10
23.4954181910521
20
5.72978686314079
30
0
41
1
10
23.4915874294367
20
5.73662156926684
30
0
41
1
10
23.4839348822488
20
5.75027496678843
30
0
41
1
10
23.472745569594
20
5.77089180170533
30
0
41
1
10
23.4617865987489
20
5.79157696877341
30
0
41
1
10
23.4510778493609
20
5.81234185077551
30
0
41
1
10
23.4406143554618
20
5.83318315356164
30
0
41
1
10
23.4303977626719
20
5.85410150853521
30
0
41
1
10
23.4204279276435
20
5.87509650429671
30
0
41
1
10
23.4107051632898
20
5.89616801394418
30
0
41
1
10
23.4012296400589
20
5.91731584054442
30
0
41
1
10
23.392001547041
20
5.93853981196334
30
0
41
1
10
23.383021049989
20
5.95983975560951
30
0
41
1
10
23.3742883035879
20
5.98121550527136
30
0
41
1
10
23.3658034491873
20
6.00266689937196
30
0
41
1
10
23.3575666163877
20
6.02419378151527
30
0
41
1
10
23.3495779235625
20
6.04579600041686
30
0
41
1
10
23.341837478631
20
6.06747340999617
30
0
41
1
10
23.3343453797303
20
6.08922586942275
30
0
41
1
10
23.3271017158803
20
6.1110532431719
30
0
41
1
10
23.3201065676173
20
6.13295540107491
30
0
41
1
10
23.3133600076019
20
6.15493221836803
30
0
41
1
10
23.3068621011992
20
6.17698357573896
30
0
41
1
10
23.3006129070337
20
6.19910935937112
30
0
41
1
10
23.294612477516
20
6.22130946098595
30
0
41
1
10
23.2888608593435
20
6.24358377788288
30
0
41
1
10
23.283358093974
20
6.26593221297721
30
0
41
1
10
23.2781042180727
20
6.28835467483592
30
0
41
1
10
23.2730992639319
20
6.31085107771129
30
0
41
1
10
23.2683432598641
20
6.33342134157242
30
0
41
1
10
23.2638362305686
20
6.35606539213468
30
0
41
1
10
23.2595781974709
20
6.37878316088678
30
0
41
1
10
23.2555691790318
20
6.40157458511716
30
0
41
1
10
23.2518091910477
20
6.42443960793247
30
0
41
1
10
23.2482982468537
20
6.44737817829622
30
0
41
1
10
23.2450363577603
20
6.47039025098165
30
0
41
1
10
23.2420235324934
20
6.4934757868357
30
0
41
1
10
23.2392597802318
20
6.51663475186959
30
0
41
1
10
23.2367451000553
20
6.53986712072954
30
0
41
1
10
23.2344795211282
20
6.56317286376476
30
0
41
1
10
23.2324629528284
20
6.58655199548699
30
0
41
1
10
23.2301059658758
20
6.61783130282073
30
0
41
1
10
23.2277905366941
20
6.65695035977961
30
0
41
1
10
23.2260332399144
20
6.7038434947625
30
0
41
1
10
23.2253041265167
20
6.75058059938003
30
0
41
1
10
23.2256029859095
20
6.79716173144605
30
0
41
1
10
23.226929794734
20
6.84358723002573
30
0
41
1
10
23.2292844346791
20
6.88985747587253
30
0
41
1
10
23.2326667579841
20
6.93597295494891
30
0
41
1
10
23.2370765581953
20
6.98193424100479
30
0
41
1
10
23.2425135637514
20
7.02774199971917
30
0
41
1
10
23.2489774244359
20
7.0733969865248
30
0
41
1
10
23.2564676934962
20
7.11890004749945
30
0
41
1
10
23.264983824101
20
7.16425211351738
30
0
41
1
10
23.274525102649
20
7.20945421747827
30
0
41
1
10
23.2850908105885
20
7.2545074249424
30
0
41
1
10
23.2966795234617
20
7.29941308778184
30
0
41
1
10
23.3092916315254
20
7.34417188793908
30
0
41
1
10
23.3229197847332
20
7.38878741243629
30
0
41
1
10
23.3375845966514
20
7.43325274157057
30
0
41
1
10
23.3532005615255
20
7.4776007584354
30
0
41
1
10
23.3644270364935
20
7.50694237874004
30
0
41
1
10
23.3700524229358
20
7.52164494152387
30
0
0
SPLINE
5
155
100
AcDbEntity
8
1
62
256
6
ByLayer
370
13
48
1
60
0
100
AcDbSpline
70
4
71
3
72
33
73
29
40
0
40
0
40
0
40
0
40
0.0372606820808258
40
0.0746046883181708
40
0.112033678982133
40
0.149549303058886
40
0.18715319813675
40
0.224846990298503
40
0.262632294019935
40
0.300510712074594
40
0.338483835444574
40
0.376553243237408
40
0.414720502608897
40
0.452987168691789
40
0.491354784530331
40
0.529824881020475
40
0.568398976855714
40
0.607078578478486
40
0.645865180036958
40
0.684760263347166
40
0.723765297860371
40
0.76288174063554
40
0.80211103631681
40
0.841454617115889
40
0.880913902799207
40
0.920490300679752
40
0.960185205613449
40
1
40
1
40
1
40
1
41
1
10
22.9333938349198
20
6.2703778816215
30
0
41
1
10
22.9397535098893
20
6.26043387571207
30
0
41
1
10
22.9524870816441
20
6.24052362662167
30
0
41
1
10
22.9718714090743
20
6.21079750864411
30
0
41
1
10
22.9914896994086
20
6.18113205793591
30
0
41
1
10
23.0113607051334
20
6.15154004382731
30
0
41
1
10
23.0314789743635
20
6.12201852455667
30
0
41
1
10
23.0518455016349
20
6.09256878545891
30
0
41
1
10
23.0724594843463
20
6.06319097785918
30
0
41
1
10
23.093320537051
20
6.03388556041311
30
0
41
1
10
23.1144280936637
20
6.00465291130069
30
0
41
1
10
23.1357815658379
20
5.97549343228943
30
0
41
1
10
23.1573802979638
20
5.94640752051576
30
0
41
1
10
23.179223576839
20
5.91739557583713
30
0
41
1
10
23.2013106266067
20
5.88845799860741
30
0
41
1
10
23.2236406076454
20
5.85959519003583
30
0
41
1
10
23.2462126143255
20
5.83080755179333
30
0
41
1
10
23.2690256732226
20
5.80209548600729
30
0
41
1
10
23.2920787405362
20
5.77345939442534
30
0
41
1
10
23.3153707021343
20
5.74489968049453
30
0
41
1
10
23.3389003637597
20
5.71641674053738
30
0
41
1
10
23.3626664780091
20
5.68801099575424
30
0
41
1
10
23.386667633428
20
5.6596827711854
30
0
41
1
10
23.4109026603569
20
5.6314327482754
30
0
41
1
10
23.4353690997346
20
5.60326026733358
30
0
41
1
10
23.4600689329207
20
5.57516968970955
30
0
41
1
10
23.4849870921731
20
5.54714654659178
30
0
41
1
10
23.5017515676352
20
5.52857503392937
30
0
41
1
10
23.5101464446028
20
5.51927527598258
30
0
0
SPLINE
5
156
100
AcDbEntity
8
1
62
256
6
ByLayer
370
18
48
1
60
0
100
AcDbSpline
70
4
71
3
72
8
73
4
40
0
40
0
40
0
40
0
40
1
40
1
40
1
40
1
41
1
10
20.5120306856462
20
7.59685128644658
30
0
41
1
10
20.5091395233941
20
7.61342956172166
30
0
41
1
10
20.5064979855152
20
7.63013284467867
30
0
41
1
10
20.504113173706
20
7.64695075315376
30
0
0
SPLINE
5
157
100
AcDbEntity
8
1
62
256
6
ByLayer
370
18
48
1
60
0
100
AcDbSpline
70
4
71
3
72
18
73
14
40
0
40
0
40
0
40
0
40
0.0894181933373603
40
0.17921430359616
40
0.269362440576213
40
0.359836355270822
40
0.450609449555131
40
0.541654786400721
40
0.632945100654406
40
0.724452810419832
40
0.816150029081376
40
0.908008578011046
40
1
40
1
40
1
40
1
41
1
10
20.512151550238
20
7.59672528626787
30
0
41
1
10
20.5139359503341
20
7.58685784865044
30
0
41
1
10
20.5175122921121
20
7.56708126969166
30
0
41
1
10
20.523051485461
20
7.53736730605945
30
0
41
1
10
20.5287320529372
20
7.50754750029611
30
0
41
1
10
20.5345648219916
20
7.47763353963308
30
0
41
1
10
20.5405455565815
20
7.44763653992686
30
0
41
1
10
20.5466740101145
20
7.41756799811625
30
0
41
1
10
20.5529491365245
20
7.38743962359841
30
0
41
1
10
20.5593690936954
20
7.35726303922816
30
0
41
1
10
20.5659360643817
20
7.32705113530818
30
0
41
1
10
20.5726369148472
20
7.29681292035743
30
0
41
1
10
20.5772200787278
20
7.27666529557608
30
0
41
1
10
20.5795133168529
20
7.26658420258447
30
0
0
SPLINE
5
158
100
AcDbEntity
8
1
62
256
6
ByLayer
370
13
48
1
60
0
100
AcDbSpline
70
4
71
2
72
6
73
3
40
0
40
0
40
0
40
1
40
1
40
1
41
1
10
21.6430736681728
20
7.43201481051098
30
0
41
0.998837184066022
10
21.6376085965857
20
7.52171247880066
30
0
41
1
10
21.6313638282983
20
7.6109692087005
30
0
0
SPLINE
5
159
100
AcDbEntity
8
1
62
256
6
ByLayer
370
13
48
1
60
0
100
AcDbSpline
70
4
71
2
72
6
73
3
40
0
40
0
40
0
40
1
40
1
40
1
41
1
10
21.6430736681728
20
7.43201481051098
30
0
41
1
10
21.4128875706338
20
7.40243081804317
30
0
41
1
10
20.5795133168529
20
7.26658420258447
30
0
0
SPLINE
5
15A
100
AcDbEntity
8
1
62
256
6
ByLayer
370
13
48
1
60
0
100
AcDbSpline
70
4
71
3
72
21
73
17
40
0
40
0
40
0
40
0
40
0.0504169454457896
40
0.100892339677035
40
0.151427068825403
40
0.202022015905366
40
0.252678060782736
40
0.303396080143921
40
0.354176947465929
40
0.405021532987102
40
0.455930703678579
40
0.506905323216508
40
0.620985638893516
40
0.741190275291819
40
0.867526351990814
40
1
40
1
40
1
40
1
41
1
10
23.2908491137374
20
5.29364005340327
30
0
41
1
10
23.2816591531632
20
5.30789269763494
30
0
41
1
10
23.2632685780169
20
5.33641450930764
30
0
41
1
10
23.235851291978
20
5.3793518708984
30
0
41
1
10
23.2085391676561
20
5.42243419795314
30
0
41
1
10
23.1813467663204
20
5.46567142671559
30
0
41
1
10
23.1542718983407
20
5.5090616182226
30
0
41
1
10
23.1273168056417
20
5.55260599647822
30
0
41
1
10
23.1004824768412
20
5.59630491327131
30
0
41
1
10
23.0737701773453
20
5.64015892858991
30
0
41
1
10
23.0471810313335
20
5.68416853360856
30
0
41
1
10
23.0098066922083
20
5.74654036070693
30
0
41
1
10
22.9609215129828
20
5.82922406665938
30
0
41
1
10
22.8998775487564
20
5.93420884261177
30
0
41
1
10
22.8363906167026
20
6.04494718949219
30
0
41
1
10
22.7935887032479
20
6.12088395399195
30
0
41
1
10
22.7716802312092
20
6.15975274156413
30
0
0
SPLINE
5
15B
100
AcDbEntity
8
1
62
256
6
ByLayer
370
13
48
1
60
0
100
AcDbSpline
70
4
71
3
72
48
73
44
40
0
40
0
40
0
40
0
40
0.0260571365118073
40
0.0516706511736334
40
0.0768415818009415
40
0.101571021930696
40
0.125860124729833
40
0.149710107237356
40
0.17312225497296
40
0.196097926948709
40
0.218638561124258
40
0.240745680350559
40
0.26242089885196
40
0.311434787941557
40
0.361798167776651
40
0.413537259146969
40
0.4666762456766
40
0.521237448789615
40
0.58857625301254
40
0.652696085534625
40
0.713634443445105
40
0.77143501593755
40
0.787714821544245
40
0.803423743227291
40
0.818564167541657
40
0.833138760315598
40
0.847150510341024
40
0.860602781568393
40
0.87349937575966
40
0.885844608056496
40
0.897643398560999
40
0.908901383836448
40
0.91962505325276
40
0.92982191636071
40
0.939500708999581
40
0.94867164760316
40
0.957346743050674
40
0.965540187101422
40
0.973268825276834
40
0.980552728689993
40
0.987415871416017
40
0.993886905760739
40
1
40
1
40
1
40
1
41
1
10
22.7716802312089
20
6.15975274156483
30
0
41
1
10
22.7643015727369
20
6.17283691541091
30
0
41
1
10
22.749669877199
20
6.19878250549486
30
0
41
1
10
22.727607895517
20
6.23719481083006
30
0
41
1
10
22.7056991681448
20
6.27481091228974
30
0
41
1
10
22.6839228123154
20
6.31161903973694
30
0
41
1
10
22.6622840338667
20
6.34762212316069
30
0
41
1
10
22.6407812138273
20
6.3828192417602
30
0
41
1
10
22.619414621539
20
6.41721054680329
30
0
41
1
10
22.5981836931726
20
6.45079568104865
30
0
41
1
10
22.5770893724415
20
6.48357526791848
30
0
41
1
10
22.5561275885861
20
6.51554661898034
30
0
41
1
10
22.5264236015193
20
6.56003065660212
30
0
41
1
10
22.4866800986957
20
6.61738941557435
30
0
41
1
10
22.4353639877591
20
6.68777968104246
30
0
41
1
10
22.3810354810992
20
6.75888838511994
30
0
41
1
10
22.3236836235264
20
6.83070910380607
30
0
41
1
10
22.2590917506323
20
6.90823255627521
30
0
41
1
10
22.1887926065229
20
6.98922471783739
30
0
41
1
10
22.1141488459783
20
7.07128546226625
30
0
41
1
10
22.0411904332743
20
7.14740103936116
30
0
41
1
10
21.9857548611912
20
7.20206442528905
30
0
41
1
10
21.9481164694332
20
7.23759772653702
30
0
41
1
10
21.9281325377344
20
7.25600306404333
30
0
41
1
10
21.9086481718643
20
7.2734949260016
30
0
41
1
10
21.8896614628402
20
7.29007123519659
30
0
41
1
10
21.8711734213705
20
7.30573291899282
30
0
41
1
10
21.8531842633345
20
7.32048013929965
30
0
41
1
10
21.8356943479883
20
7.33431324911716
30
0
41
1
10
21.8187039376131
20
7.34723255309008
30
0
41
1
10
21.8022132532415
20
7.35923836971644
30
0
41
1
10
21.7862224537496
20
7.37033101784874
30
0
41
1
10
21.7707316313923
20
7.38051081834331
30
0
41
1
10
21.7557408003456
20
7.38977809977264
30
0
41
1
10
21.7412498809157
20
7.39813316546403
30
0
41
1
10
21.7272586864047
20
7.40557638203202
30
0
41
1
10
21.7137668819264
20
7.41210782198436
30
0
41
1
10
21.7007740228812
20
7.41772839607629
30
0
41
1
10
21.6882793111275
20
7.42243581219711
30
0
41
1
10
21.6762823298945
20
7.4262381419796
30
0
41
1
10
21.6647804930996
20
7.42910706586915
30
0
41
1
10
21.6537778731672
20
7.43113712350517
30
0
41
1
10
21.6465734192437
20
7.431727845406
30
0
41
1
10
21.6430736532104
20
7.43201480517639
30
0
0
SPLINE
5
15C
100
AcDbEntity
8
1
62
256
6
ByLayer
370
18
48
1
60
0
100
AcDbSpline
70
4
71
2
72
8
73
5
40
0
40
0
40
0
40
0.5
40
0.5
40
1
40
1
40
1
41
1
10
24.8349248407866
20
9.86797076297084
30
0
41
1
10
25.2571693147608
20
9.90071664589335
30
0
41
1
10
25.6394627951962
20
9.91246541508413
30
0
41
1
10
26.0743840814342
20
9.92583155934153
30
0
41
1
10
26.435948148969
20
9.91128407247687
30
0
0
SPLINE
5
15D
100
AcDbEntity
8
1
62
256
6
ByLayer
370
18
48
1
60
0
100
AcDbSpline
70
4
71
3
72
25
73
21
40
0
40
0
40
0
40
0
40
0.125000000000002
40
0.125000000000002
40
0.250000000000001
40
0.250000000000001
40
0.312500000000001
40
0.312500000000001
40
0.375000000000001
40
0.375000000000001
40
0.499999999999999
40
0.499999999999999
40
0.624999999999997
40
0.624999999999997
40
0.687499999999996
40
0.687499999999996
40
0.749999999999995
40
0.749999999999995
40
0.874999999999998
40
1
40
1
40
1
40
1
41
1
10
20.504113173706
20
7.64695075315376
30
0
41
1
10
20.4961149591369
20
7.70393492824245
30
0
41
1
10
20.4915350115431
20
7.76091231461118
30
0
41
1
10
20.4892165779451
20
7.87485350012238
30
0
41
1
10
20.4914769642389
20
7.93181730150448
30
0
41
1
10
20.5002288173879
20
8.0172523560226
30
0
41
1
10
20.5040420947893
20
8.04572892807555
30
0
41
1
10
20.5135328436783
20
8.10267836986924
30
0
41
1
10
20.5191580714419
20
8.13083579943404
30
0
41
1
10
20.5386272849851
20
8.21434892644177
30
0
41
1
10
20.5550569556951
20
8.26875905932563
30
0
41
1
10
20.5948271973283
20
8.37504490046467
30
0
41
1
10
20.6181664813981
20
8.42692108064571
30
0
41
1
10
20.6586068508988
20
8.50274348538882
30
0
41
1
10
20.673057634629
20
8.52777767595553
30
0
41
1
10
20.7034089696859
20
8.5764711783378
30
0
41
1
10
20.7193258190423
20
8.60017840708635
30
0
41
1
10
20.7692560010528
20
8.66941941470617
30
0
41
1
10
20.8416264687893
20
8.75673895943247
30
0
41
1
10
20.9255276396946
20
8.83410933490498
30
0
41
1
10
20.9704822310315
20
8.8702025416888
30
0
0
SPLINE
5
15E
100
AcDbEntity
8
1
62
256
6
ByLayer
370
13
48
1
60
0
100
AcDbSpline
70
4
71
2
72
6
73
3
40
0
40
0
40
0
40
1
40
1
40
1
41
1
10
20.5041131737066
20
7.64695075315376
30
0
41
1
10
21.3983653351121
20
7.61219152427225
30
0
41
1
10
21.6313638282983
20
7.6109692087005
30
0
0
SPLINE
5
15F
100
AcDbEntity
8
1
62
256
6
ByLayer
370
13
48
1
60
0
100
AcDbSpline
70
4
71
2
72
16
73
13
40
0
40
0
40
0
40
0.25
40
0.25
40
0.375
40
0.375
40
0.5
40
0.5
40
0.625
40
0.625
40
0.75
40
0.75
40
1
40
1
40
1
41
1
10
21.6313638282983
20
7.61096920870051
30
0
41
1
10
21.8486268211001
20
7.60983070600604
30
0
41
1
10
22.0915536881922
20
7.37797640549087
30
0
41
1
10
22.1710072763907
20
7.30214429875153
30
0
41
1
10
22.2525777594377
20
7.20322174047861
30
0
41
1
10
22.3138721518182
20
7.12888850282243
30
0
41
1
10
22.3947046047087
20
7.01793269444833
30
0
41
1
10
22.443718550966
20
6.95065300870203
30
0
41
1
10
22.5287167674538
20
6.8290615032692
30
0
41
1
10
22.6217159179156
20
6.69602451524895
30
0
41
1
10
22.6614209621493
20
6.64081350669865
30
0
41
1
10
22.7685759785815
20
6.49181136748329
30
0
41
1
10
22.9333938353551
20
6.2703778816488
30
0
0
SPLINE
5
160
100
AcDbEntity
8
1
62
256
6
ByLayer
370
13
48
1
60
0
100
AcDbSpline
70
4
71
2
72
12
73
9
40
0
40
0
40
0
40
0.25
40
0.25
40
0.5
40
0.5
40
0.75
40
0.75
40
1
40
1
40
1
41
1
10
27.0074888466019
20
8.01539455375102
30
0
41
1
10
26.872347767836
20
8.12681629593163
30
0
41
1
10
26.4680356398343
20
8.47304863937437
30
0
41
1
10
26.1554467781729
20
8.74073384249215
30
0
41
1
10
25.9306060221236
20
8.93216208282576
30
0
41
1
10
25.6577466208739
20
9.1644731458087
30
0
41
1
10
25.3845922434259
20
9.39643813484874
30
0
41
1
10
25.1801329279577
20
9.57006670091756
30
0
41
1
10
24.8349248407866
20
9.86797076297078
30
0
0
SPLINE
5
161
100
AcDbEntity
8
1
62
256
6
ByLayer
370
18
48
1
60
0
100
AcDbSpline
70
4
71
3
72
8
73
4
40
0
40
0
40
0
40
0
40
1
40
1
40
1
40
1
41
1
10
23.3700524229358
20
7.52164494152389
30
0
41
1
10
23.4058527431002
20
7.50561776174574
30
0
41
1
10
23.4416530632646
20
7.48959058196761
30
0
41
1
10
23.477453383429
20
7.47356340218947
30
0
0
SPLINE
5
162
100
AcDbEntity
8
1
62
256
6
ByLayer
370
18
48
1
60
0
100
AcDbSpline
70
4
71
3
72
35
73
31
40
0
40
0
40
0
40
0
40
0.0118847307246502
40
0.0254093522730369
40
0.0405739408936264
40
0.057378567798671
40
0.0758233040711513
40
0.0959082235684542
40
0.117633404730055
40
0.140998931750732
40
0.166004895368982
40
0.192651393412719
40
0.220938531186707
40
0.250866421753737
40
0.32107446828455
40
0.386063440457632
40
0.445832169120484
40
0.500379871011734
40
0.554650044935016
40
0.614437663919444
40
0.679741893601559
40
0.750561478682587
40
0.794232003141879
40
0.834333230068521
40
0.870865454821151
40
0.903828942030191
40
0.933223928876546
40
0.95905063063769
40
0.981309250681358
40
1
40
1
40
1
40
1
41
1
10
23.477453383429
20
7.47356340218947
30
0
41
1
10
23.4748384098066
20
7.46706319106858
30
0
41
1
10
23.4692476406509
20
7.45316585018249
30
0
41
1
10
23.4606315918664
20
7.43085684742788
30
0
41
1
10
23.4512719157146
20
7.40573313819068
30
0
41
1
10
23.4413065877843
20
7.37774924297865
30
0
41
1
10
23.4308557996029
20
7.3468707714331
30
0
41
1
10
23.4200631647491
20
7.31305967670943
30
0
41
1
10
23.409083110265
20
7.27628025227703
30
0
41
1
10
23.3980850161647
20
7.23649882178695
30
0
41
1
10
23.3872522069761
20
7.19368540130061
30
0
41
1
10
23.3767822191901
20
7.14781535366126
30
0
41
1
10
23.3668875175895
20
7.09886933342077
30
0
41
1
10
23.3538779769692
20
7.02445076221213
30
0
41
1
10
23.3415420887909
20
6.92806404797399
30
0
41
1
10
23.334072213737
20
6.81362918164217
30
0
41
1
10
23.3332500072661
20
6.70819441597148
30
0
41
1
10
23.3377023646092
20
6.60917837570251
30
0
41
1
10
23.3471366230359
20
6.51049790581011
30
0
41
1
10
23.3626834526761
20
6.40618956935131
30
0
41
1
10
23.3861934685419
20
6.293427337471
30
0
41
1
10
23.4142077218662
20
6.19148985960184
30
0
41
1
10
23.4428396681007
20
6.10529051804068
30
0
41
1
10
23.4676620643393
20
6.03913057580387
30
0
41
1
10
23.4923643850631
20
5.97970498619104
30
0
41
1
10
23.5163388232075
20
5.92683488726512
30
0
41
1
10
23.5390399437097
20
5.88032607634155
30
0
41
1
10
23.5600157136125
20
5.83999911419694
30
0
41
1
10
23.578799632606
20
5.80563081247104
30
0
41
1
10
23.5907932433008
20
5.78483810736891
30
0
41
1
10
23.5962675540023
20
5.77534757687302
30
0
0
SPLINE
5
163
100
AcDbEntity
8
1
62
256
6
ByLayer
370
13
48
1
60
0
100
AcDbSpline
70
4
71
2
72
6
73
3
40
0
40
0
40
0
40
1
40
1
40
1
41
1
10
27.235516553469
20
8.23232477749718
30
0
41
0.987555901011515
10
27.1221553524329
20
8.12884069206135
30
0
41
1
10
27.0074888453547
20
8.0153945536543
30
0
0
SPLINE
5
164
100
AcDbEntity
8
1
62
256
6
ByLayer
370
18
48
1
60
0
100
AcDbSpline
70
4
71
3
72
8
73
4
40
0
40
0
40
0
40
0
40
1
40
1
40
1
40
1
41
1
10
23.5962675540023
20
5.77534757687302
30
0
41
1
10
23.5626510996855
20
5.76016067229561
30
0
41
1
10
23.5290346453688
20
5.74497376771821
30
0
41
1
10
23.4954181910521
20
5.7297868631408
30
0
0
SPLINE
5
165
100
AcDbEntity
8
1
62
256
6
ByLayer
370
18
48
1
60
0
100
AcDbSpline
70
4
71
1
72
4
73
2
40
0
40
0
40
1
40
1
41
1
10
27.0575709783518
20
6.04377841180627
30
0
41
1
10
27.1475832516974
20
6.01301939041549
30
0
0
SPLINE
5
166
100
AcDbEntity
8
1
62
256
6
ByLayer
370
18
48
1
60
0
100
AcDbSpline
70
4
71
1
72
4
73
2
40
0
40
0
40
1
40
1
41
1
10
27.0222174835818
20
7.80487746878941
30
0
41
1
10
26.9387568077792
20
7.74199423711404
30
0
0
SPLINE
5
167
100
AcDbEntity
8
1
62
256
6
ByLayer
370
18
48
1
60
0
100
AcDbSpline
70
4
71
3
72
34
73
30
40
0
40
0
40
0
40
0
40
0.0123166076983867
40
0.0255410556998378
40
0.039673399047909
40
0.0547136906795196
40
0.0706619827955144
40
0.0875183278621855
40
0.105282779356877
40
0.123955392332348
40
0.143536223850287
40
0.164025333318767
40
0.185422782758093
40
0.207728637012546
40
0.269945241469838
40
0.32525778742682
40
0.373664783552492
40
0.41516506369393
40
0.482555820791141
40
0.55379145010437
40
0.628871586279616
40
0.707795430362029
40
0.774572506838367
40
0.833004762287537
40
0.883092419352475
40
0.924835651195979
40
0.958234587199595
40
0.983289328218321
40
1
40
1
40
1
40
1
41
1
10
27.0575709783518
20
6.04377841180627
30
0
41
1
10
27.0602790080559
20
6.05051613673974
30
0
41
1
10
27.0658946726285
20
6.06448821509362
30
0
41
1
10
27.0742983334799
20
6.08631822357624
30
0
41
1
10
27.0830065627721
20
6.10974960231739
30
0
41
1
10
27.0919360319079
20
6.13480953912857
30
0
41
1
10
27.1010300428243
20
6.16151229562253
30
0
41
1
10
27.1102184710333
20
6.1898753179061
30
0
41
1
10
27.119429495757
20
6.21991412640553
30
0
41
1
10
27.1285861098669
20
6.25164341428906
30
0
41
1
10
27.1376071031892
20
6.28507633339753
30
0
41
1
10
27.146406716387
20
6.32022417344569
30
0
41
1
10
27.1548948637818
20
6.35709634294152
30
0
41
1
10
27.1676868758764
20
6.41819736503257
30
0
41
1
10
27.1814683842969
20
6.4994788031817
30
0
41
1
10
27.19264032008
20
6.59660683880283
30
0
41
1
10
27.1983945342318
20
6.68193447252425
30
0
41
1
10
27.2008399344
20
6.77448408822906
30
0
41
1
10
27.1983840740861
20
6.88044977395877
30
0
41
1
10
27.1875383681621
20
7.00562521528866
30
0
41
1
10
27.1673320281113
20
7.13638883817043
30
0
41
1
10
27.1385664550374
20
7.26273858435674
30
0
41
1
10
27.1042606789743
20
7.37741464905228
30
0
41
1
10
27.0692106589166
20
7.47399697666629
30
0
41
1
10
27.0350902148878
20
7.55515418378261
30
0
41
1
10
27.0038434518071
20
7.62151874612873
30
0
41
1
10
26.977008797088
20
7.67370479218653
30
0
41
1
10
26.9558869164741
20
7.71232516331735
30
0
41
1
10
26.9436520675427
20
7.73351572563664
30
0
41
1
10
26.9387568077792
20
7.74199423711404
30
0
0
SPLINE
5
168
100
AcDbEntity
8
1
62
256
6
ByLayer
370
13
48
1
60
0
100
AcDbSpline
70
4
71
2
72
6
73
3
40
0
40
0
40
0
40
1
40
1
40
1
41
1
10
23.2908491137374
20
5.29364005340327
30
0
41
0.987556019973605
10
23.39547821679
20
5.40582688555716
30
0
41
1
10
23.5101464446028
20
5.51927527598258
30
0
0
SPLINE
5
169
100
AcDbEntity
8
1
62
256
6
ByLayer
370
13
48
1
60
0
100
AcDbSpline
70
4
71
3
72
24
73
20
40
0
40
0
40
0
40
0
40
0.0371865247609986
40
0.0975781660477965
40
0.156073781579545
40
0.212675117175065
40
0.282890464972375
40
0.351477012065687
40
0.418439242264188
40
0.48378197375706
40
0.547510392059101
40
0.609630086954161
40
0.670147094004847
40
0.729067941287594
40
0.786399702118408
40
0.842150054658724
40
0.896327349436066
40
0.94894068598362
40
1
40
1
40
1
40
1
41
1
10
23.8437888159709
20
4.23369825456412
30
0
41
1
10
23.8377196963558
20
4.24723944141715
30
0
41
1
10
23.821746920836
20
4.282750393144
30
0
41
1
10
23.7959895205589
20
4.33945382460209
30
0
41
1
10
23.766713529111
20
4.40306547989778
30
0
41
1
10
23.7354433192664
20
4.470071217165
30
0
41
1
10
23.7020208102212
20
4.54051140463326
30
0
41
1
10
23.6662770432403
20
4.61441919532051
30
0
41
1
10
23.6308162058604
20
4.68629664666453
30
0
41
1
10
23.5956365904938
20
4.75614304158503
30
0
41
1
10
23.5607359116127
20
4.82395740200676
30
0
41
1
10
23.5261120352305
20
4.88973882593184
30
0
41
1
10
23.4917626077269
20
4.95348627750951
30
0
41
1
10
23.4576858446295
20
5.0151990984174
30
0
41
1
10
23.4238778812581
20
5.07487525417675
30
0
41
1
10
23.3903422553502
20
5.13251761298342
30
0
41
1
10
23.3570560169594
20
5.1881114976256
30
0
41
1
10
23.324090910178
20
5.24170494867374
30
0
41
1
10
23.3018184265587
20
5.27650221877387
30
0
41
1
10
23.2908491137374
20
5.29364005340327
30
0
0
SPLINE
5
16A
100
AcDbEntity
8
1
62
256
6
ByLayer
370
13
48
1
60
0
100
AcDbSpline
70
4
71
2
72
10
73
7
40
0
40
0
40
0
40
0.390605972054822
40
0.390605972054822
40
0.781211944109644
40
0.781211944109644
40
1
40
1
40
1
41
1
10
23.5101464433441
20
5.51927527588497
30
0
41
1
10
23.6447454973463
20
5.4082971737252
30
0
41
1
10
24.0495713506781
20
5.06166234126208
30
0
41
1
10
24.3753089318215
20
4.78274736847244
30
0
41
1
10
24.586988978304
20
4.60257555671605
30
0
41
1
10
24.7398928779052
20
4.47243115683737
30
0
41
1
10
24.8928594560807
20
4.34236028375142
30
0
0
SPLINE
5
16B
100
AcDbEntity
8
1
62
256
6
ByLayer
370
18
48
1
60
0
100
AcDbSpline
70
4
71
3
72
67
73
63
40
0
40
0
40
0
40
0
40
0.0126948672389322
40
0.0253599885203968
40
0.0379968283996614
40
0.0506068612863825
40
0.0631915710126292
40
0.0757524503852245
40
0.0882910007228981
40
0.100808731378867
40
0.113307159249467
40
0.125787808269552
40
0.138252208895388
40
0.15070189757587
40
0.163138416212893
40
0.175563311611769
40
0.187978134922633
40
0.200384441073814
40
0.212783788198166
40
0.22517773705341
40
0.237567850437539
40
0.249955692600377
40
0.26234282865241
40
0.274730823971965
40
0.287121243611897
40
0.299515651706893
40
0.311915610882505
40
0.32432268166704
40
0.3367384219074
40
0.349164386189963
40
0.361602125267548
40
0.374053185493531
40
0.386519108264078
40
0.399001429469499
40
0.411501678955637
40
0.424021379996177
40
0.43656204877673
40
0.449125193891484
40
0.461712315853172
40
0.474324906617033
40
0.486964449119429
40
0.49963241683168
40
0.525014032817274
40
0.550283958939425
40
0.575454064162752
40
0.600536359155598
40
0.625542981108194
40
0.650486177671561
40
0.675378290111565
40
0.700231735785259
40
0.725058990057803
40
0.749872567787738
40
0.774685004515802
40
0.799508837497655
40
0.824356586723607
40
0.849240736068658
40
0.874173714713907
40
0.899167878975622
40
0.924235494671245
40
0.949388720142498
40
0.97463959004482
40
1
40
1
40
1
40
1
41
1
10
27.0222174835818
20
7.80487746878941
30
0
41
1
10
27.0260476714453
20
7.79804333423188
30
0
41
1
10
27.033699072474
20
7.78439107850804
30
0
41
1
10
27.0448795308665
20
7.76378306416022
30
0
41
1
10
27.0558249699458
20
7.74311137736542
30
0
41
1
10
27.0665153902429
20
7.72236475470638
30
0
41
1
10
27.0769563114124
20
7.7015459387538
30
0
41
1
10
27.0871464474591
20
7.68065393984747
30
0
41
1
10
27.0970863389978
20
7.65968877363171
30
0
41
1
10
27.1067760461177
20
7.63865019542529
30
0
41
1
10
27.1162157636395
20
7.61753803828248
30
0
41
1
10
27.1254056555835
20
7.59635212257089
30
0
41
1
10
27.1343458983243
20
7.57509228005611
30
0
41
1
10
27.143036668003
20
7.55375834738251
30
0
41
1
10
27.1514781428761
20
7.53235016773725
30
0
41
1
10
27.1596705017045
20
7.51086759032829
30
0
41
1
10
27.1676139232367
20
7.48931047044876
30
0
41
1
10
27.1753085854338
20
7.4676786693867
30
0
41
1
10
27.1827546647984
20
7.4459720543781
30
0
41
1
10
27.1899523357098
20
7.42419049855063
30
0
41
1
10
27.1969017697922
20
7.40233388087195
30
0
41
1
10
27.2036031353087
20
7.3804020860991
30
0
41
1
10
27.2100565965825
20
7.35839500472989
30
0
41
1
10
27.2162623134453
20
7.33631253295617
30
0
41
1
10
27.2222204407127
20
7.31415457261896
30
0
41
1
10
27.2279311276862
20
7.29192103116549
30
0
41
1
10
27.2333945176833
20
7.26961182160844
30
0
41
1
10
27.2386107475931
20
7.24722686248693
30
0
41
1
10
27.2435799474599
20
7.22476607782986
30
0
41
1
10
27.2483022400932
20
7.20222939712114
30
0
41
1
10
27.2527777407044
20
7.17961675526712
30
0
41
1
10
27.2570065565704
20
7.15692809256649
30
0
41
1
10
27.2609887867272
20
7.13416335468095
30
0
41
1
10
27.2647245216731
20
7.11132249261378
30
0
41
1
10
27.2682138431673
20
7.08840546266912
30
0
41
1
10
27.2714568237975
20
7.06541222649452
30
0
41
1
10
27.2744535275355
20
7.0423427508223
30
0
41
1
10
27.2772040067283
20
7.01919700834924
30
0
41
1
10
27.2797083125494
20
6.99597497436739
30
0
41
1
10
27.281966455203
20
6.97267663930845
30
0
41
1
10
27.2839785523468
20
6.94930196172838
30
0
41
1
10
27.2863335574951
20
6.91802462865759
30
0
41
1
10
27.2886539451323
20
6.87890063211172
30
0
41
1
10
27.2904290778925
20
6.83198972901985
30
0
41
1
10
27.2911876383018
20
6.78522328944568
30
0
41
1
10
27.2909293879005
20
6.73860170291775
30
0
41
1
10
27.2896537240809
20
6.69212525395548
30
0
41
1
10
27.2873599592825
20
6.64579436461065
30
0
41
1
10
27.2840472561812
20
6.59960953025661
30
0
41
1
10
27.2797146566319
20
6.55357133731094
30
0
41
1
10
27.2743610880462
20
6.50768045912925
30
0
41
1
10
27.2679853768052
20
6.4619376583157
30
0
41
1
10
27.2605862661423
20
6.41634378582924
30
0
41
1
10
27.2521624192714
20
6.37089978724526
30
0
41
1
10
27.2427124872664
20
6.32560668434293
30
0
41
1
10
27.2322349425376
20
6.28046564915614
30
0
41
1
10
27.2207287972507
20
6.23547773292545
30
0
41
1
10
27.2081910173603
20
6.19064488743653
30
0
41
1
10
27.1946263226856
20
6.14596614588562
30
0
41
1
10
27.1800105647218
20
6.10145194946253
30
0
41
1
10
27.1644282555803
20
6.05707040493579
30
0
41
1
10
27.1532063490014
20
6.02772423362657
30
0
41
1
10
27.1475832516974
20
6.01301939041549
30
0
0
SPLINE
5
16C
100
AcDbEntity
8
1
62
256
6
ByLayer
370
13
48
1
60
0
100
AcDbSpline
70
4
71
3
72
33
73
29
40
0
40
0
40
0
40
0
40
0.0372685593926204
40
0.0746198156245787
40
0.112055428121957
40
0.149577045117819
40
0.187186303536872
40
0.224884828886419
40
0.262674235153457
40
0.300556124707954
40
0.338532088212177
40
0.376603704536047
40
0.4147725406784
40
0.453040151694175
40
0.49140808062731
40
0.529877858449391
40
0.56845100400388
40
0.607129023955874
40
0.645913412747271
40
0.684805652557267
40
0.723807213268064
40
0.762919552435703
40
0.802144115265874
40
0.841482334594659
40
0.880935630874054
40
0.920505412162133
40
0.960193074117804
40
1
40
1
40
1
40
1
41
1
10
27.5762972186149
20
7.27220182697121
30
0
41
1
10
27.5701062573848
20
7.28197834227601
30
0
41
1
10
27.5577105975293
20
7.30155306642374
30
0
41
1
10
27.5388203212616
20
7.33078863611202
30
0
41
1
10
27.5196866747568
20
7.35997277130542
30
0
41
1
10
27.5002892241261
20
7.38909438494861
30
0
41
1
10
27.4806329004177
20
7.4181569369879
30
0
41
1
10
27.4607158622372
20
7.44715998742899
30
0
41
1
10
27.4405381388434
20
7.47610415629794
30
0
41
1
10
27.4200993085409
20
7.50498979013568
30
0
41
1
10
27.3993991253803
20
7.53381732072687
30
0
41
1
10
27.3784373530827
20
7.56258716878074
30
0
41
1
10
27.35721381219
20
7.5912997699815
30
0
41
1
10
27.3357283699019
20
7.61995556812721
30
0
41
1
10
27.3139809453647
20
7.64855501712134
30
0
41
1
10
27.2919715108201
20
7.67709858057052
30
0
41
1
10
27.2697000939554
20
7.70558673206554
30
0
41
1
10
27.2471667797508
20
7.73401995512101
30
0
41
1
10
27.2243717132795
20
7.76239874378699
30
0
41
1
10
27.2013150993313
20
7.79072360089405
30
0
41
1
10
27.1779972139751
20
7.81899504511466
30
0
41
1
10
27.1544183715029
20
7.84721358498362
30
0
41
1
10
27.1305790587033
20
7.87537981674066
30
0
41
1
10
27.1064794420643
20
7.90349405806001
30
0
41
1
10
27.0821212255212
20
7.93155772139866
30
0
41
1
10
27.0575006974007
20
7.95956816645995
30
0
41
1
10
27.0326348056458
20
7.98753799683618
30
0
41
1
10
27.0158792114643
20
8.00609975212149
30
0
41
1
10
27.0074888453547
20
8.0153945536543
30
0
0
SPLINE
5
16D
100
AcDbEntity
8
1
62
256
6
ByLayer
370
13
48
1
60
0
100
AcDbSpline
70
4
71
3
72
21
73
17
40
0
40
0
40
0
40
0
40
0.0504498510391845
40
0.100951486737592
40
0.151505791806752
40
0.202113648196365
40
0.252775935059831
40
0.303493528720432
40
0.35426730263817
40
0.405098127377313
40
0.455986870574573
40
0.506934396908007
40
0.621048091585388
40
0.741259007516417
40
0.867574265083201
40
1
40
1
40
1
40
1
41
1
10
27.235516553469
20
8.23232477749718
30
0
41
1
10
27.2445120609852
20
8.2182622866642
30
0
41
1
10
27.2625123095293
20
8.19012287044033
30
0
41
1
10
27.289312012467
20
8.14779239215575
30
0
41
1
10
27.315981080696
20
8.10534453700593
30
0
41
1
10
27.3425033140927
20
8.06277102102274
30
0
41
1
10
27.368882039221
20
8.02007262925871
30
0
41
1
10
27.3951153975995
20
7.97724774675868
30
0
41
1
10
27.421202980538
20
7.93429543647163
30
0
41
1
10
27.4471440287211
20
7.89121461152011
30
0
41
1
10
27.4729379803552
20
7.84800426168336
30
0
41
1
10
27.5091729188654
20
7.78676864042963
30
0
41
1
10
27.5565029937056
20
7.70563210548475
30
0
41
1
10
27.6154938675479
20
7.60269018115116
30
0
41
1
10
27.6767304719291
20
7.49420092062732
30
0
41
1
10
27.7179251675947
20
7.41987299957889
30
0
41
1
10
27.7390089463799
20
7.38183136777097
30
0
0
SPLINE
5
16E
100
AcDbEntity
8
1
62
256
6
ByLayer
370
18
48
1
60
0
100
AcDbSpline
70
4
71
3
72
8
73
4
40
0
40
0
40
0
40
0
40
1
40
1
40
1
40
1
41
1
10
27.548653219714
20
9.95703102929616
30
0
41
1
10
27.49598491966
20
9.95503296664658
30
0
41
1
10
27.4429386509663
20
9.95109767499211
30
0
41
1
10
27.3894804197784
20
9.94516083438494
30
0
0
SPLINE
5
16F
100
AcDbEntity
8
1
62
256
6
ByLayer
370
13
48
1
60
0
100
AcDbSpline
70
4
71
3
72
32
73
28
40
0
40
0
40
0
40
0
40
0.0486157693016098
40
0.0960473851315805
40
0.142295359254988
40
0.187360243761843
40
0.231242635395958
40
0.27394318047745
40
0.315462580518799
40
0.355801598654318
40
0.394961067027689
40
0.432941895312923
40
0.469745080582359
40
0.505371718783472
40
0.549475019715937
40
0.592556493754958
40
0.634618959760489
40
0.675665446532292
40
0.715699213464563
40
0.754723773702824
40
0.792742920158186
40
0.829760754790647
40
0.865781721639228
40
0.900810644154078
40
0.934852767476105
40
0.967913806415112
40
1
40
1
40
1
40
1
41
1
10
26.4359492675049
20
9.91128556793898
30
0
41
1
10
26.4471303478444
20
9.88337368922693
30
0
41
1
10
26.4692201665388
20
9.82822979244378
30
0
41
1
10
26.5022768295899
20
9.74663965349842
30
0
41
1
10
26.5347617149129
20
9.66716857310777
30
0
41
1
10
26.5666971234455
20
9.58982397341092
30
0
41
1
10
26.5980776417186
20
9.51460447868791
30
0
41
1
10
26.6289050021057
20
9.44151099251856
30
0
41
1
10
26.6591790931362
20
9.37054384078257
30
0
41
1
10
26.6889002835231
20
9.30170351082738
30
0
41
1
10
26.7180687880918
20
9.23499044649834
30
0
41
1
10
26.7466849558945
20
9.17040515083174
30
0
41
1
10
26.7747487457881
20
9.10794797808911
30
0
41
1
10
26.8047460214634
20
9.04217183867799
30
0
41
1
10
26.8368367110849
20
8.97303833042109
30
0
41
1
10
26.8711918926039
20
8.90051646640008
30
0
41
1
10
26.9053312840917
20
8.82995700956194
30
0
41
1
10
26.9392555973729
20
8.76136183002707
30
0
41
1
10
26.9729659709909
20
8.69473301278622
30
0
41
1
10
27.0064633690017
20
8.63007264083267
30
0
41
1
10
27.0397489261549
20
8.56738296672225
30
0
41
1
10
27.0728231382836
20
8.50666593910614
30
0
41
1
10
27.1056886140377
20
8.44792484803889
30
0
41
1
10
27.1383402160305
20
8.39115842856282
30
0
41
1
10
27.1708003000707
20
8.33638194478937
30
0
41
1
10
27.2029926998311
20
8.28355179828161
30
0
41
1
10
27.2247839617491
20
8.24922925336979
30
0
41
1
10
27.235516553469
20
8.23232477749718
30
0
0
SPLINE
5
170
100
AcDbEntity
8
1
62
256
6
ByLayer
370
13
48
1
60
0
100
AcDbSpline
70
4
71
2
72
6
73
3
40
0
40
0
40
0
40
1
40
1
40
1
41
1
10
27.7390089463871
20
7.38183136775804
30
0
41
0.983799121243191
10
27.6556593052097
20
7.33014733198797
30
0
41
1
10
27.5762972186221
20
7.27220182695903
30
0
0
SPLINE
5
171
100
AcDbEntity
8
1
62
256
6
ByLayer
370
13
48
1
60
0
100
AcDbSpline
70
4
71
3
72
48
73
44
40
0
40
0
40
0
40
0
40
0.0260635154248792
40
0.0516836500094632
40
0.0768614433602752
40
0.101597990854856
40
0.125894447549915
40
0.149752032422706
40
0.173172032978439
40
0.196155810260159
40
0.218704804301445
40
0.240820540066771
40
0.26250463392921
40
0.311524982010718
40
0.36189769263619
40
0.413648998266686
40
0.466803089599341
40
0.521382291355627
40
0.588747222817243
40
0.652897145091207
40
0.713869602415263
40
0.771708327018589
40
0.787967473705996
40
0.803656463824115
40
0.818777687104784
40
0.833333812919855
40
0.847327834023774
40
0.860763118808662
40
0.873643474026417
40
0.885973220435793
40
0.897757284472093
40
0.90900130984651
40
0.91971179399779
40
0.929896255575253
40
0.939563440648115
40
0.948723577087785
40
0.957388688438021
40
0.965572980258139
40
0.973293312715732
40
0.980569771792533
40
0.987426345494189
40
0.993891697143776
40
1
40
1
40
1
40
1
41
1
10
27.7390089463871
20
7.38183136775804
30
0
41
1
10
27.7461121637651
20
7.36902004987003
30
0
41
1
10
27.7601977617714
20
7.34361535449068
30
0
41
1
10
27.7814530168204
20
7.3060024091067
30
0
41
1
10
27.8025728979382
20
7.26916804737697
30
0
41
1
10
27.8235783723985
20
7.23312398956394
30
0
41
1
10
27.8444638389704
20
7.19786769206961
30
0
41
1
10
27.8652306412286
20
7.16340035374303
30
0
41
1
10
27.8858781933079
20
7.12972213905314
30
0
41
1
10
27.9064067594032
20
7.09683370600227
30
0
41
1
10
27.9268150400517
20
7.06473478360323
30
0
41
1
10
27.9471069231817
20
7.03342825517558
30
0
41
1
10
27.975872430773
20
6.98987804909234
30
0
41
1
10
28.0143998785365
20
6.93373127166147
30
0
41
1
10
28.0642031063009
20
6.86485035993094
30
0
41
1
10
28.1169686044551
20
6.79530085755663
30
0
41
1
10
28.1726888972692
20
6.72510767921158
30
0
41
1
10
28.235442046245
20
6.64941786125026
30
0
41
1
10
28.3037061907777
20
6.57045611085883
30
0
41
1
10
28.3761355168675
20
6.490607567154
30
0
41
1
10
28.4468734543042
20
6.41671281856668
30
0
41
1
10
28.5005572084421
20
6.36380234039211
30
0
41
1
10
28.5369657465671
20
6.32949947778127
30
0
41
1
10
28.5562688345804
20
6.31177411696454
30
0
41
1
10
28.5750854002033
20
6.2949491063619
30
0
41
1
10
28.5934179506548
20
6.2790260121605
30
0
41
1
10
28.6112659903813
20
6.26400337565734
30
0
41
1
10
28.62862983048
20
6.24988051765745
30
0
41
1
10
28.645509626283
20
6.23665657343797
30
0
41
1
10
28.6619056236095
20
6.2243307345887
30
0
41
1
10
28.677818101288
20
6.21290218649771
30
0
41
1
10
28.6932473921794
20
6.20237012229678
30
0
41
1
10
28.7081938872163
20
6.19273374154147
30
0
41
1
10
28.7226580464379
20
6.18399224501781
30
0
41
1
10
28.7366404143466
20
6.17614486812447
30
0
41
1
10
28.7501416320858
20
6.16919079354153
30
0
41
1
10
28.763162478994
20
6.16312950763856
30
0
41
1
10
28.7757038295011
20
6.15795967491498
30
0
41
1
10
28.7877669093727
20
6.15368315936011
30
0
41
1
10
28.7993525154788
20
6.15029152661842
30
0
41
1
10
28.8104637211264
20
6.1478125664655
30
0
41
1
10
28.8210965236938
20
6.14615181257766
30
0
41
1
10
28.8280626807945
20
6.14579850420266
30
0
41
1
10
28.8314468518241
20
6.14562686639002
30
0
0
SPLINE
5
172
100
AcDbEntity
8
1
62
256
6
ByLayer
370
18
48
1
60
0
100
AcDbSpline
70
4
71
3
72
31
73
27
40
0
40
0
40
0
40
0
40
0.125000000000008
40
0.125000000000008
40
0.250000000000015
40
0.250000000000015
40
0.281250000000017
40
0.281250000000017
40
0.312500000000019
40
0.312500000000019
40
0.375000000000018
40
0.375000000000018
40
0.500000000000011
40
0.500000000000011
40
0.562500000000007
40
0.562500000000007
40
0.593750000000008
40
0.593750000000008
40
0.625000000000008
40
0.625000000000008
40
0.750000000000005
40
0.875000000000003
40
0.875000000000003
40
0.937500000000001
40
0.937500000000001
40
1
40
1
40
1
40
1
41
1
10
29.0070503784938
20
9.04994609655479
30
0
41
1
10
28.9764579625854
20
9.12129912249959
30
0
41
1
10
28.9408850394667
20
9.18903694541106
30
0
41
1
10
28.8603687202447
20
9.31771084174798
30
0
41
1
10
28.8154223980467
20
9.37864479120773
30
0
41
1
10
28.7533481452972
20
9.45053587112771
30
0
41
1
10
28.7406372304951
20
9.46469918281821
30
0
41
1
10
28.7146163697746
20
9.49259098721069
30
0
41
1
10
28.7012776706726
20
9.50634745968041
30
0
41
1
10
28.6605868459625
20
9.54672131833109
30
0
41
1
10
28.6325987221659
20
9.57241801617103
30
0
41
1
10
28.5461333415304
20
9.64596620661158
30
0
41
1
10
28.4851679753336
20
9.69029406481972
30
0
41
1
10
28.3888114582254
20
9.74983453146443
30
0
41
1
10
28.3558712601842
20
9.76851815366535
30
0
41
1
10
28.305208235236
20
9.79476948686509
30
0
41
1
10
28.2880807129086
20
9.80323824002046
30
0
41
1
10
28.253556315395
20
9.81950318361257
30
0
41
1
10
28.2361859851523
20
9.82728853328416
30
0
41
1
10
28.14880280287
20
9.86450896832825
30
0
41
1
10
28.0056047931796
20
9.91319544970104
30
0
41
1
10
27.8558197757236
20
9.9407364144673
30
0
41
1
10
27.7409188048574
20
9.95316697588001
30
0
41
1
10
27.7024877182603
20
9.9558984562547
30
0
41
1
10
27.6256307265294
20
9.95855860191823
30
0
41
1
10
27.5871620347622
20
9.95849192750151
30
0
41
1
10
27.548653219714
20
9.95703102929618
30
0
0
SPLINE
5
173
100
AcDbEntity
8
1
62
256
6
ByLayer
370
18
48
1
60
0
100
AcDbSpline
70
4
71
3
72
8
73
4
40
0
40
0
40
0
40
0
40
1
40
1
40
1
40
1
41
1
10
29.9270406374238
20
6.01607843597075
30
0
41
1
10
29.929892322475
20
5.99953948721549
30
0
41
1
10
29.9324895762018
20
5.98288031941259
30
0
41
1
10
29.9348243332502
20
5.96611227471678
30
0
0
SPLINE
5
174
100
AcDbEntity
8
1
62
256
6
ByLayer
370
13
48
1
60
0
100
AcDbSpline
70
4
71
2
72
6
73
3
40
0
40
0
40
0
40
1
40
1
40
1
41
1
10
28.8314468364044
20
6.14562686033265
30
0
41
0.998837184066022
10
28.8354280276362
20
6.05736869508819
30
0
41
1
10
28.8416756666
20
5.96807093449195
30
0
0
SPLINE
5
175
100
AcDbEntity
8
1
62
256
6
ByLayer
370
18
48
1
60
0
100
AcDbSpline
70
4
71
3
72
18
73
14
40
0
40
0
40
0
40
0
40
0.0894181927945024
40
0.179214302561541
40
0.269362439120289
40
0.359836353483397
40
0.450609447545249
40
0.541654784296545
40
0.632945098603032
40
0.724452808587026
40
0.816150027651338
40
0.908008577186046
40
1
40
1
40
1
40
1
41
1
10
29.9269780411404
20
6.01614638957001
30
0
41
1
10
29.925252057784
20
6.02595563281977
30
0
41
1
10
29.9217927963765
20
6.04561557709647
30
0
41
1
10
29.9164833435272
20
6.07510067471026
30
0
41
1
10
29.9110732161807
20
6.10465106971718
30
0
41
1
10
29.9055559550887
20
6.1342507233101
30
0
41
1
10
29.8999352358248
20
6.16388907797347
30
0
41
1
10
29.8942120104854
20
6.19355393395412
30
0
41
1
10
29.8883877456222
20
6.22323316297341
30
0
41
1
10
29.8824643877146
20
6.25291503821492
30
0
41
1
10
29.8764412248663
20
6.28258520411896
30
0
41
1
10
29.8703275019282
20
6.31223852625804
30
0
41
1
10
29.8661750537287
20
6.33195707472142
30
0
41
1
10
29.8640973290865
20
6.34182347451359
30
0
0
SPLINE
5
176
100
AcDbEntity
8
1
62
256
6
ByLayer
370
13
48
1
60
0
100
AcDbSpline
70
4
71
2
72
6
73
3
40
0
40
0
40
0
40
1
40
1
40
1
41
1
10
28.8314468364044
20
6.14562686033265
30
0
41
1
10
29.0591784107158
20
6.18278225203609
30
0
41
1
10
29.8640973290864
20
6.34182347451357
30
0
0
SPLINE
5
177
100
AcDbEntity
8
1
62
256
6
ByLayer
370
18
48
1
60
0
100
AcDbSpline
70
4
71
3
72
25
73
21
40
0
40
0
40
0
40
0
40
0.125000000000001
40
0.125000000000001
40
0.250000000000003
40
0.250000000000003
40
0.312500000000004
40
0.312500000000004
40
0.375000000000004
40
0.375000000000004
40
0.500000000000004
40
0.500000000000004
40
0.625000000000004
40
0.625000000000004
40
0.687500000000005
40
0.687500000000005
40
0.750000000000005
40
0.750000000000005
40
0.875000000000003
40
1
40
1
40
1
40
1
41
1
10
29.9348243332502
20
5.96611227471678
30
0
41
1
10
29.9427008921967
20
5.90924929230707
30
0
41
1
10
29.9472628379557
20
5.85228983927256
30
0
41
1
10
29.94975272488
20
5.73817785288564
30
0
41
1
10
29.9476817595516
20
5.68102535135931
30
0
41
1
10
29.9393766103818
20
5.59514529274166
30
0
41
1
10
29.9357394039425
20
5.56649331974369
30
0
41
1
10
29.9266573258487
20
5.50913676230174
30
0
41
1
10
29.9212624441724
20
5.48074986322319
30
0
41
1
10
29.9025608895095
20
5.396471998595
30
0
41
1
10
29.8867449431361
20
5.34145047684385
30
0
41
1
10
29.8484063642459
20
5.23373842100682
30
0
41
1
10
29.8258849805566
20
5.18104745287631
30
0
41
1
10
29.7868319583953
20
5.10384298018654
30
0
41
1
10
29.7728725525593
20
5.07831928160904
30
0
41
1
10
29.7435450241308
20
5.02860586858638
30
0
41
1
10
29.7281611994611
20
5.00436764351861
30
0
41
1
10
29.6798922042859
20
4.93347177052431
30
0
41
1
10
29.6099018456799
20
4.84378117389453
30
0
41
1
10
29.5287093730129
20
4.76371240779524
30
0
41
1
10
29.4851947356016
20
4.7261847266446
30
0
0
SPLINE
5
178
100
AcDbEntity
8
1
62
256
6
ByLayer
370
13
48
1
60
0
100
AcDbSpline
70
4
71
2
72
6
73
3
40
0
40
0
40
0
40
1
40
1
40
1
41
1
10
29.9348243332496
20
5.96611227471676
30
0
41
1
10
29.071992979163
20
5.97388808019269
30
0
41
1
10
28.8416756666
20
5.96807093449195
30
0
0
SPLINE
5
179
100
AcDbEntity
8
1
62
256
6
ByLayer
370
13
48
1
60
0
100
AcDbSpline
70
4
71
2
72
16
73
13
40
0
40
0
40
0
40
0.25
40
0.25
40
0.375
40
0.375
40
0.5
40
0.5
40
0.625
40
0.625
40
0.75
40
0.75
40
1
40
1
40
1
41
1
10
28.8416756665999
20
5.96807093449193
30
0
41
1
10
28.6311807547289
20
5.96275320470112
30
0
41
1
10
28.395329798518
20
6.18735583488684
30
0
41
1
10
28.3179781526309
20
6.26101838599349
30
0
41
1
10
28.2386353471182
20
6.35770941421176
30
0
41
1
10
28.1790859451504
20
6.4302792315864
30
0
41
1
10
28.1003797613409
20
6.53914023013682
30
0
41
1
10
28.0526627018427
20
6.6051391960812
30
0
41
1
10
27.9699957282496
20
6.72440445788797
30
0
41
1
10
27.8794657516219
20
6.85501382816688
30
0
41
1
10
27.8408884599742
20
6.90908642046912
30
0
41
1
10
27.7365317750387
20
7.0553599466167
30
0
41
1
10
27.5762972186221
20
7.27220182695903
30
0
0
SPLINE
5
17A
100
AcDbEntity
8
1
62
256
6
ByLayer
370
13
48
1
60
0
100
AcDbSpline
70
4
71
3
72
22
73
18
40
0
40
0
40
0
40
0
40
0.125000000000002
40
0.125000000000002
40
0.250000000000004
40
0.250000000000004
40
0.375000000000006
40
0.375000000000006
40
0.500000000000008
40
0.500000000000008
40
0.625000000000009
40
0.625000000000009
40
0.687500000000008
40
0.687500000000008
40
0.750000000000008
40
0.750000000000008
40
1
40
1
40
1
40
1
41
1
10
29.7185394569462
20
-6.05400057697969
30
0
41
1
10
29.7236988108795
20
-6.03134745479682
30
0
41
1
10
29.7281007451877
20
-6.00827320379425
30
0
41
1
10
29.7351728156107
20
-5.96116184755532
30
0
41
1
10
29.737835189395
20
-5.93711438336867
30
0
41
1
10
29.7411194422489
20
-5.8887657523412
30
0
41
1
10
29.7417591409711
20
-5.86437002912179
30
0
41
1
10
29.7407953587303
20
-5.81508312823269
30
0
41
1
10
29.7391606573727
20
-5.79003726541033
30
0
41
1
10
29.7335345524253
20
-5.74090658624498
30
0
41
1
10
29.7295540719447
20
-5.71667556565497
30
0
41
1
10
29.7217865213582
20
-5.6808435969934
30
0
41
1
10
29.7188974083124
20
-5.66898549893224
30
0
41
1
10
29.7125057881601
20
-5.64544496185106
30
0
41
1
10
29.7089879329578
20
-5.63372277366931
30
0
41
1
10
29.6901638729476
20
-5.57653826010782
30
0
41
1
10
29.6710519768976
20
-5.53465946386572
30
0
41
1
10
29.6484331254052
20
-5.49612854296367
30
0
0
SPLINE
5
17B
100
AcDbEntity
8
1
62
256
6
ByLayer
370
13
48
1
60
0
100
AcDbSpline
70
4
71
3
72
10
73
6
40
0
40
0
40
0
40
0
40
0.5
40
0.5
40
1
40
1
40
1
40
1
41
1
10
29.802757206561
20
-6.15305817408604
30
0
41
1
10
29.8001298901295
20
-6.13759970150726
30
0
41
1
10
29.7914935996755
20
-6.12111501642985
30
0
41
1
10
29.7629838150406
20
-6.08758348197293
30
0
41
1
10
29.7431142943139
20
-6.07054130593683
30
0
41
1
10
29.7185282747338
20
-6.05399305079565
30
0
0
SPLINE
5
17C
100
AcDbEntity
8
1
62
256
6
ByLayer
370
13
48
1
60
0
100
AcDbSpline
70
4
71
3
72
32
73
28
40
0
40
0
40
0
40
0
40
0.0156250000000014
40
0.0156250000000014
40
0.0312500000000028
40
0.0625000000000035
40
0.125000000000004
40
0.125000000000004
40
0.250000000000007
40
0.250000000000007
40
0.312500000000005
40
0.312500000000005
40
0.375000000000004
40
0.375000000000004
40
0.500000000000002
40
0.500000000000002
40
0.562500000000001
40
0.562500000000001
40
0.625
40
0.625
40
0.750000000000004
40
0.750000000000004
40
0.812500000000003
40
0.812500000000003
40
0.875000000000002
40
0.875000000000002
40
1
40
1
40
1
40
1
41
1
10
29.3006765048269
20
-5.09833672240269
30
0
41
1
10
29.3015330113175
20
-5.09745283489646
30
0
41
1
10
29.3024403444147
20
-5.09657737938687
30
0
41
1
10
29.3042931546895
20
-5.09491041364475
30
0
41
1
10
29.3071610928841
20
-5.09250256695647
30
0
41
1
10
29.3144719624982
20
-5.08753454898103
30
0
41
1
10
29.3217933250006
20
-5.08440085817432
30
0
41
1
10
29.3378347411146
20
-5.07969207636626
30
0
41
1
10
29.350390064034
20
-5.07861532894087
30
0
41
1
10
29.3720478040272
20
-5.08058108690665
30
0
41
1
10
29.3796903054119
20
-5.08183416860847
30
0
41
1
10
29.3957399543958
20
-5.08559505718847
30
0
41
1
10
29.4041419778842
20
-5.08810467324321
30
0
41
1
10
29.430114436215
20
-5.09749101028562
30
0
41
1
10
29.4485453524613
20
-5.10623464761615
30
0
41
1
10
29.4774765798586
20
-5.12336852901112
30
0
41
1
10
29.4873348868888
20
-5.12975211435425
30
0
41
1
10
29.5074178899595
20
-5.14394510081461
30
0
41
1
10
29.517605659681
20
-5.15173502153363
30
0
41
1
10
29.5480185020234
20
-5.17683755554661
30
0
41
1
10
29.5682708501467
20
-5.19599879512943
30
0
41
1
10
29.5981780806719
20
-5.22842316353366
30
0
41
1
10
29.6080974075294
20
-5.23988232803829
30
0
41
1
10
29.6275757816358
20
-5.26389517390646
30
0
41
1
10
29.6370864279272
20
-5.27638440440515
30
0
41
1
10
29.6648710255067
20
-5.31525570108644
30
0
41
1
10
29.6823983981264
20
-5.3430359506238
30
0
41
1
10
29.6987652652693
20
-5.37263412688624
30
0
0
SPLINE
5
17D
100
AcDbEntity
8
1
62
256
6
ByLayer
370
13
48
1
60
0
100
AcDbSpline
70
4
71
3
72
27
73
23
40
0
40
0
40
0
40
0
40
0.250000000000008
40
0.250000000000008
40
0.312500000000009
40
0.312500000000009
40
0.375000000000011
40
0.500000000000007
40
0.500000000000007
40
0.625000000000004
40
0.625000000000004
40
0.750000000000001
40
0.750000000000001
40
0.812499999999999
40
0.812499999999999
40
0.874999999999998
40
0.874999999999998
40
0.937499999999996
40
0.968749999999998
40
0.984374999999999
40
0.984374999999999
40
1
40
1
40
1
40
1
41
1
10
29.6987652652693
20
-5.37263412688624
30
0
41
1
10
29.7296702291341
20
-5.42852329369276
30
0
41
1
10
29.75557399607
20
-5.48802863192317
30
0
41
1
10
29.7812331445091
20
-5.56728616544547
30
0
41
1
10
29.7860359391255
20
-5.58342339824659
30
0
41
1
10
29.7948546072903
20
-5.61585817359503
30
0
41
1
10
29.8069352959779
20
-5.66483713975671
30
0
41
1
10
29.8156298843643
20
-5.71478070720228
30
0
41
1
10
29.8242510554711
20
-5.78221827604563
30
0
41
1
10
29.8270729206956
20
-5.81652210646592
30
0
41
1
10
29.8297071488172
20
-5.88470550038853
30
0
41
1
10
29.829546979246
20
-5.9186834324278
30
0
41
1
10
29.8272253015684
20
-5.9694906847414
30
0
41
1
10
29.8261038885903
20
-5.98639978205125
30
0
41
1
10
29.8231817608063
20
-6.02016600852234
30
0
41
1
10
29.8213784546632
20
-6.03703497979105
30
0
41
1
10
29.8171352329328
20
-6.07051270210724
30
0
41
1
10
29.8134728601129
20
-6.09546447634327
30
0
41
1
10
29.8083932703493
20
-6.12431232909162
30
0
41
1
10
29.8060463802837
20
-6.13662046233124
30
0
41
1
10
29.8044443442484
20
-6.14481372117925
30
0
41
1
10
29.8036177073497
20
-6.14893781414479
30
0
41
1
10
29.8027863979444
20
-6.15298830826366
30
0
0
SPLINE
5
17E
100
AcDbEntity
8
1
62
256
6
ByLayer
370
18
48
1
60
0
100
AcDbSpline
70
4
71
3
72
8
73
4
40
0
40
0
40
0
40
0
40
1
40
1
40
1
40
1
41
1
10
29.9270406374238
20
-6.01607843597068
30
0
41
1
10
29.929892322475
20
-5.99953948721542
30
0
41
1
10
29.9324895762018
20
-5.9828803194125
30
0
41
1
10
29.9348243332502
20
-5.96611227471671
30
0
0
SPLINE
5
17F
100
AcDbEntity
8
1
62
256
6
ByLayer
370
18
48
1
60
0
100
AcDbSpline
70
4
71
3
72
25
73
21
40
0
40
0
40
0
40
0
40
0.125000000000001
40
0.125000000000001
40
0.250000000000003
40
0.250000000000003
40
0.312500000000004
40
0.312500000000004
40
0.375000000000006
40
0.375000000000006
40
0.500000000000007
40
0.500000000000007
40
0.625000000000009
40
0.625000000000009
40
0.687500000000009
40
0.687500000000009
40
0.750000000000009
40
0.750000000000009
40
0.875000000000004
40
1
40
1
40
1
40
1
41
1
10
29.9348243332503
20
-5.96611227471671
30
0
41
1
10
29.9427008921967
20
-5.90924929230699
30
0
41
1
10
29.9472628379557
20
-5.85228983927249
30
0
41
1
10
29.9497527248801
20
-5.73817785288556
30
0
41
1
10
29.9476817595516
20
-5.68102535135924
30
0
41
1
10
29.9393766103819
20
-5.59514529274159
30
0
41
1
10
29.9357394039425
20
-5.56649331974361
30
0
41
1
10
29.9266573258487
20
-5.50913676230165
30
0
41
1
10
29.9212624441725
20
-5.48074986322312
30
0
41
1
10
29.9025608895095
20
-5.39647199859492
30
0
41
1
10
29.8867449431361
20
-5.34145047684378
30
0
41
1
10
29.8484063642459
20
-5.23373842100675
30
0
41
1
10
29.8258849805566
20
-5.18104745287624
30
0
41
1
10
29.7868319583953
20
-5.10384298018647
30
0
41
1
10
29.7728725525593
20
-5.07831928160898
30
0
41
1
10
29.7435450241308
20
-5.02860586858631
30
0
41
1
10
29.7281611994611
20
-5.00436764351853
30
0
41
1
10
29.6798922042859
20
-4.93347177052423
30
0
41
1
10
29.6099018456799
20
-4.84378117389446
30
0
41
1
10
29.5287093730129
20
-4.76371240779517
30
0
41
1
10
29.4851947356017
20
-4.72618472664453
30
0
0
SPLINE
5
180
100
AcDbEntity
8
1
62
256
6
ByLayer
370
13
48
1
60
0
100
AcDbSpline
70
4
71
3
72
29
73
25
40
0
40
0
40
0
40
0
40
0.125000000000012
40
0.125000000000012
40
0.187500000000014
40
0.187500000000014
40
0.250000000000016
40
0.250000000000016
40
0.375000000000012
40
0.375000000000012
40
0.437500000000009
40
0.437500000000009
40
0.500000000000007
40
0.562500000000005
40
0.562500000000005
40
0.625000000000002
40
0.625000000000002
40
0.6875
40
0.6875
40
0.749999999999997
40
0.749999999999997
40
0.874999999999999
40
0.874999999999999
40
1
40
1
40
1
40
1
41
1
10
29.6484331254052
20
-5.4961285429637
30
0
41
1
10
29.6394639191199
20
-5.47543450913571
30
0
41
1
10
29.6297168465113
20
-5.45600307223067
30
0
41
1
10
29.6139687955307
20
-5.42902694215722
30
0
41
1
10
29.6085313803829
20
-5.42039829065565
30
0
41
1
10
29.5972857961073
20
-5.4039383700393
30
0
41
1
10
29.5915761715675
20
-5.39625346662054
30
0
41
1
10
29.5743261926278
20
-5.37491367204247
30
0
41
1
10
29.5626350268124
20
-5.36292609110147
30
0
41
1
10
29.5451129083407
20
-5.34833486037112
30
0
41
1
10
29.5392553958901
20
-5.34403316189726
30
0
41
1
10
29.5279345920384
20
-5.33676752903355
30
0
41
1
10
29.5169226927596
20
-5.33075936012465
30
0
41
1
10
29.5065690453487
20
-5.32703041361498
30
0
41
1
10
29.4965636151153
20
-5.32434945930812
30
0
41
1
10
29.4917213721966
20
-5.32353295697955
30
0
41
1
10
29.4824819688345
20
-5.32288037068228
30
0
41
1
10
29.4780906631041
20
-5.32304411394753
30
0
41
1
10
29.4698480216519
20
-5.32421365091289
30
0
41
1
10
29.4659796501757
20
-5.32521783293777
30
0
41
1
10
29.4550795436507
20
-5.32932335955621
30
0
41
1
10
29.4487500433331
20
-5.33350803481572
30
0
41
1
10
29.4377717854141
20
-5.34421735088146
30
0
41
1
10
29.4331244167679
20
-5.3507465127271
30
0
41
1
10
29.4292597880793
20
-5.35830679639218
30
0
0
SPLINE
5
181
100
AcDbEntity
8
1
62
256
6
ByLayer
370
13
48
1
60
0
100
AcDbSpline
70
4
71
3
72
28
73
24
40
0
40
0
40
0
40
0
40
0.0312500000000003
40
0.0312500000000003
40
0.0625000000000007
40
0.0625000000000007
40
0.125000000000001
40
0.125000000000001
40
0.187500000000002
40
0.187500000000002
40
0.250000000000003
40
0.250000000000003
40
0.312500000000004
40
0.312500000000004
40
0.375000000000004
40
0.375000000000004
40
0.500000000000004
40
0.500000000000004
40
0.625000000000003
40
0.625000000000003
40
0.750000000000003
40
0.750000000000003
40
1
40
1
40
1
40
1
41
1
10
29.4879220050064
20
-7.0386202060379
30
0
41
1
10
29.489774920152
20
-7.03643467016337
30
0
41
1
10
29.4917218327904
20
-7.03352290406511
30
0
41
1
10
29.4957180010516
20
-7.02652702150007
30
0
41
1
10
29.4977560909276
20
-7.02246889713034
30
0
41
1
10
29.5039644753829
20
-7.0089150853649
30
0
41
1
10
29.5082276579294
20
-6.99805514724058
30
0
41
1
10
29.5169120548496
20
-6.97368848613748
30
0
41
1
10
29.5213526673015
20
-6.96010265073571
30
0
41
1
10
29.5301307576807
20
-6.93155885821136
30
0
41
1
10
29.5344944845415
20
-6.91653094229321
30
0
41
1
10
29.5431660613101
20
-6.8853435154374
30
0
41
1
10
29.5474739246185
20
-6.86918087049546
30
0
41
1
10
29.5560295971356
20
-6.83595589177149
30
0
41
1
10
29.560279848706
20
-6.81887897890623
30
0
41
1
10
29.5728038847539
20
-6.76709813003259
30
0
41
1
10
29.5809045842769
20
-6.7316571433177
30
0
41
1
10
29.5966868598231
20
-6.6595241053536
30
0
41
1
10
29.6043673530827
20
-6.62282434360125
30
0
41
1
10
29.6193482850887
20
-6.54847930303626
30
0
41
1
10
29.6266483354732
20
-6.5108312202664
30
0
41
1
10
29.6480142977899
20
-6.39675786982978
30
0
41
1
10
29.6615479078936
20
-6.31921826218537
30
0
41
1
10
29.6744251694278
20
-6.24064149189654
30
0
0
SPLINE
5
182
100
AcDbEntity
8
1
62
256
6
ByLayer
370
13
48
1
60
0
100
AcDbSpline
70
4
71
2
72
6
73
3
40
0
40
0
40
0
40
1
40
1
40
1
41
1
10
29.3006548105478
20
-5.09837588425481
30
0
41
1
10
29.3959165342166
20
-4.9139357185341
30
0
41
1
10
29.4851946965464
20
-4.72618469159376
30
0
0
SPLINE
5
183
100
AcDbEntity
8
1
62
256
6
ByLayer
370
13
48
1
60
0
100
AcDbSpline
70
4
71
1
72
4
73
2
40
0
40
0
40
1
40
1
41
1
10
29.0237541947112
20
-5.44292557251391
30
0
41
1
10
29.3006766169497
20
-5.09833650529683
30
0
0
SPLINE
5
184
100
AcDbEntity
8
1
62
256
6
ByLayer
370
13
48
1
60
0
100
AcDbSpline
70
4
71
3
72
10
73
6
40
0
40
0
40
0
40
0
40
0.364766239158292
40
0.364766239158292
40
1
40
1
40
1
40
1
41
1
10
29.4292597880793
20
-5.35830679639217
30
0
41
1
10
29.3832603775854
20
-5.41554627099475
30
0
41
1
10
29.3372609670914
20
-5.47278574559736
30
0
41
1
10
29.2111544211564
20
-5.62970672253523
30
0
41
1
10
29.1310472857154
20
-5.72938822487066
30
0
41
1
10
29.0509401502744
20
-5.82906972720612
30
0
0
SPLINE
5
185
100
AcDbEntity
8
1
62
256
6
ByLayer
370
13
48
1
60
0
100
AcDbSpline
70
4
71
3
72
28
73
24
40
0
40
0
40
0
40
0
40
0.250000000000002
40
0.250000000000002
40
0.375000000000002
40
0.375000000000002
40
0.500000000000003
40
0.500000000000003
40
0.625000000000003
40
0.625000000000003
40
0.687500000000003
40
0.687500000000003
40
0.750000000000003
40
0.750000000000003
40
0.812500000000003
40
0.812500000000003
40
0.843750000000003
40
0.843750000000003
40
0.875000000000002
40
0.875000000000002
40
0.937500000000001
40
0.937500000000001
40
1
40
1
40
1
40
1
41
1
10
29.7576753448943
20
-6.3447845968755
30
0
41
1
10
29.73661138004
20
-6.43123168784993
30
0
41
1
10
29.714655586135
20
-6.51564772440524
30
0
41
1
10
29.6804591276504
20
-6.63805291427198
30
0
41
1
10
29.6688500296449
20
-6.67814529263192
30
0
41
1
10
29.6452267030277
20
-6.75657774073093
30
0
41
1
10
29.6332124451475
20
-6.79492201517849
30
0
41
1
10
29.6087970171514
20
-6.86934014404288
30
0
41
1
10
29.5963958099833
20
-6.9054249414669
30
0
41
1
10
29.5775203624933
20
-6.95716695924143
30
0
41
1
10
29.5712110912716
20
-6.97393134143191
30
0
41
1
10
29.5586951381555
20
-7.00601072374207
30
0
41
1
10
29.5524722692051
20
-7.02137109908149
30
0
41
1
10
29.5401370994305
20
-7.05047173945296
30
0
41
1
10
29.5340245548095
20
-7.06421403993394
30
0
41
1
10
29.5249796181974
20
-7.08333179129697
30
0
41
1
10
29.5219857430546
20
-7.08945159793467
30
0
41
1
10
29.5161160125915
20
-7.10100029101413
30
0
41
1
10
29.5132318610984
20
-7.10644711480251
30
0
41
1
10
29.5047490208407
20
-7.12172623820175
30
0
41
1
10
29.4993187960125
20
-7.1305038416745
30
0
41
1
10
29.4890242110901
20
-7.14469174910971
30
0
41
1
10
29.4841385346103
20
-7.15010651268635
30
0
41
1
10
29.47971646208
20
-7.15338732784713
30
0
0
SPLINE
5
186
100
AcDbEntity
8
1
62
256
6
ByLayer
370
13
48
1
60
0
100
AcDbSpline
70
4
71
3
72
10
73
6
40
0
40
0
40
0
40
0
40
0.5
40
0.5
40
1
40
1
40
1
40
1
41
1
10
29.47971646208
20
-7.15338732784714
30
0
41
1
10
29.4142201087113
20
-7.20198025065378
30
0
41
1
10
29.3484646320071
20
-7.24724411711583
30
0
41
1
10
29.2165173667875
20
-7.33194198434711
30
0
41
1
10
29.150326692126
20
-7.37137331920786
30
0
41
1
10
29.0839415744603
20
-7.40821536622296
30
0
0
SPLINE
5
187
100
AcDbEntity
8
1
62
256
6
ByLayer
370
18
48
1
60
0
100
AcDbSpline
70
4
71
3
72
18
73
14
40
0
40
0
40
0
40
0
40
0.0894181927944997
40
0.179214302561535
40
0.269362439120284
40
0.359836353483397
40
0.450609447545251
40
0.541654784296549
40
0.632945098603028
40
0.724452808587022
40
0.816150027651334
40
0.908008577186046
40
1
40
1
40
1
40
1
41
1
10
29.9269780411404
20
-6.01614638956994
30
0
41
1
10
29.925252057784
20
-6.0259556328197
30
0
41
1
10
29.9217927963765
20
-6.0456155770964
30
0
41
1
10
29.9164833435272
20
-6.07510067471018
30
0
41
1
10
29.9110732161807
20
-6.10465106971711
30
0
41
1
10
29.9055559550887
20
-6.13425072331003
30
0
41
1
10
29.8999352358249
20
-6.16388907797339
30
0
41
1
10
29.8942120104854
20
-6.19355393395405
30
0
41
1
10
29.8883877456222
20
-6.22323316297333
30
0
41
1
10
29.8824643877146
20
-6.25291503821485
30
0
41
1
10
29.8764412248663
20
-6.28258520411889
30
0
41
1
10
29.8703275019282
20
-6.31223852625797
30
0
41
1
10
29.8661750537287
20
-6.33195707472134
30
0
41
1
10
29.8640973290865
20
-6.34182347451352
30
0
0
SPLINE
5
188
100
AcDbEntity
8
1
62
256
6
ByLayer
370
13
48
1
60
0
100
AcDbSpline
70
4
71
3
72
12
73
8
40
0
40
0
40
0
40
0
40
0.207626281683156
40
0.411437295954285
40
0.611435192225269
40
0.807622074159429
40
1
40
1
40
1
40
1
41
1
10
29.9270373611294
20
-6.01607913854572
30
0
41
1
10
29.9185185384823
20
-6.02570440831391
30
0
41
1
10
29.9016374320722
20
-6.04477807728371
30
0
41
1
10
29.8764062887395
20
-6.07287026369133
30
0
41
1
10
29.8515445578045
20
-6.10025430847406
30
0
41
1
10
29.8270578054077
20
-6.12693994845736
30
0
41
1
10
29.81080779458
20
-6.14440543316094
30
0
41
1
10
29.8027624355681
20
-6.15305257169187
30
0
0
SPLINE
5
189
100
AcDbEntity
8
1
62
256
6
ByLayer
370
13
48
1
60
0
100
AcDbSpline
70
4
71
3
72
8
73
4
40
0
40
0
40
0
40
0
40
1
40
1
40
1
40
1
41
1
10
29.802757206561
20
-6.15305817408604
30
0
41
1
10
29.7882000551754
20
-6.2172833019406
30
0
41
1
10
29.7731708094119
20
-6.28119078440449
30
0
41
1
10
29.7576753448943
20
-6.34478459687551
30
0
0
SPLINE
5
18A
100
AcDbEntity
8
1
62
256
6
ByLayer
370
18
48
1
60
0
100
AcDbSpline
70
4
71
3
72
8
73
4
40
0
40
0
40
0
40
0
40
1
40
1
40
1
40
1
41
1
10
27.548653219714
20
-9.9570310292961
30
0
41
1
10
27.49598491966
20
-9.95503296664651
30
0
41
1
10
27.4429386509663
20
-9.95109767499204
30
0
41
1
10
27.3894804197784
20
-9.94516083438488
30
0
0
SPLINE
5
18B
100
AcDbEntity
8
1
62
256
6
ByLayer
370
18
48
1
60
0
100
AcDbSpline
70
4
71
3
72
31
73
27
40
0
40
0
40
0
40
0
40
0.124999999999998
40
0.124999999999998
40
0.249999999999995
40
0.249999999999995
40
0.281249999999995
40
0.281249999999995
40
0.312499999999994
40
0.312499999999994
40
0.374999999999995
40
0.374999999999995
40
0.499999999999992
40
0.499999999999992
40
0.562499999999991
40
0.562499999999991
40
0.593749999999993
40
0.593749999999993
40
0.624999999999994
40
0.624999999999994
40
0.749999999999996
40
0.874999999999998
40
0.874999999999998
40
0.937499999999999
40
0.937499999999999
40
1
40
1
40
1
40
1
41
1
10
29.0070503784939
20
-9.04994609655473
30
0
41
1
10
28.9764579625854
20
-9.12129912249952
30
0
41
1
10
28.9408850394667
20
-9.18903694541099
30
0
41
1
10
28.8603687202447
20
-9.31771084174791
30
0
41
1
10
28.8154223980467
20
-9.37864479120766
30
0
41
1
10
28.7533481452972
20
-9.45053587112764
30
0
41
1
10
28.7406372304951
20
-9.46469918281814
30
0
41
1
10
28.7146163697746
20
-9.49259098721062
30
0
41
1
10
28.7012776706726
20
-9.50634745968034
30
0
41
1
10
28.6605868459625
20
-9.54672131833102
30
0
41
1
10
28.632598722166
20
-9.57241801617096
30
0
41
1
10
28.5461333415304
20
-9.64596620661152
30
0
41
1
10
28.4851679753336
20
-9.69029406481965
30
0
41
1
10
28.3888114582255
20
-9.74983453146437
30
0
41
1
10
28.3558712601842
20
-9.76851815366528
30
0
41
1
10
28.305208235236
20
-9.79476948686502
30
0
41
1
10
28.2880807129086
20
-9.80323824002041
30
0
41
1
10
28.253556315395
20
-9.81950318361251
30
0
41
1
10
28.2361859851524
20
-9.8272885332841
30
0
41
1
10
28.14880280287
20
-9.86450896832817
30
0
41
1
10
28.0056047931796
20
-9.91319544970098
30
0
41
1
10
27.8558197757236
20
-9.94073641446722
30
0
41
1
10
27.7409188048575
20
-9.95316697587994
30
0
41
1
10
27.7024877182604
20
-9.95589845625464
30
0
41
1
10
27.6256307265294
20
-9.95855860191816
30
0
41
1
10
27.5871620347622
20
-9.95849192750144
30
0
41
1
10
27.548653219714
20
-9.9570310292961
30
0
0
SPLINE
5
18C
100
AcDbEntity
8
1
62
256
6
ByLayer
370
13
48
1
60
0
100
AcDbSpline
70
4
71
3
72
16
73
12
40
0
40
0
40
0
40
0
40
0.11004929029656
40
0.220364009473874
40
0.330944168806536
40
0.441789779573657
40
0.552900853058778
40
0.664277400549778
40
0.775919433338782
40
0.887826962722072
40
1
40
1
40
1
40
1
41
1
10
28.7836666946734
20
-8.28981694225473
30
0
41
1
10
28.7920581225084
20
-8.31746231281873
30
0
41
1
10
28.8088612175393
20
-8.37281973206657
30
0
41
1
10
28.8339197707665
20
-8.45617246969407
30
0
41
1
10
28.8589086331824
20
-8.5398840882561
30
0
41
1
10
28.8838140904035
20
-8.62397052390216
30
0
41
1
10
28.9086382015126
20
-8.70842823833522
30
0
41
1
10
28.9333798821001
20
-8.7932576361691
30
0
41
1
10
28.9580347707773
20
-8.87846288402258
30
0
41
1
10
28.9826148181698
20
-8.9640290509072
30
0
41
1
10
28.9988988348264
20
-9.02128454448787
30
0
41
1
10
29.0070504904326
20
-9.04994621163502
30
0
0
SPLINE
5
18D
100
AcDbEntity
8
1
62
256
6
ByLayer
370
18
48
1
60
0
100
AcDbSpline
70
4
71
2
72
8
73
5
40
0
40
0
40
0
40
0.5
40
0.5
40
1
40
1
40
1
41
1
10
24.8349248407866
20
-9.86797076297078
30
0
41
1
10
25.2571693147609
20
-9.9007166458933
30
0
41
1
10
25.6394627951962
20
-9.91246541508407
30
0
41
1
10
26.0743840814342
20
-9.92583155934148
30
0
41
1
10
26.4359481489691
20
-9.91128407247682
30
0
0
SPLINE
5
18E
100
AcDbEntity
8
1
62
256
6
ByLayer
370
13
48
1
60
0
100
AcDbSpline
70
4
71
2
72
6
73
3
40
0
40
0
40
0
40
1
40
1
40
1
41
1
10
27.3894803441744
20
-9.94516082942768
30
0
41
1
10
27.4759640612488
20
-9.50458712472791
30
0
41
1
10
27.5593641876536
20
-9.06867798390904
30
0
0
SPLINE
5
18F
100
AcDbEntity
8
1
62
256
6
ByLayer
370
18
48
1
60
0
100
AcDbSpline
70
4
71
3
72
12
73
8
40
0
40
0
40
0
40
0
40
0.250000000000002
40
0.250000000000002
40
0.500000000000004
40
0.500000000000004
40
1
40
1
40
1
40
1
41
1
10
29.0839415744603
20
-7.40821536622296
30
0
41
1
10
29.0872008877874
20
-7.3975421331087
30
0
41
1
10
29.0900203272847
20
-7.38676342516236
30
0
41
1
10
29.0947737278261
20
-7.36499368545113
30
0
41
1
10
29.0967104076925
20
-7.35397728927217
30
0
41
1
10
29.1011301650429
20
-7.32082930582806
30
0
41
1
10
29.1022436509502
20
-7.29860096316895
30
0
41
1
10
29.1014629481015
20
-7.27623860568791
30
0
0
SPLINE
5
190
100
AcDbEntity
8
1
62
256
6
ByLayer
370
18
48
1
60
0
100
AcDbSpline
70
4
71
3
72
12
73
8
40
0
40
0
40
0
40
0
40
0.501110894172467
40
0.501110894172467
40
0.751666341258701
40
0.751666341258701
40
1
40
1
40
1
40
1
41
1
10
29.0509401502744
20
-5.82906972720612
30
0
41
1
10
29.0500518875595
20
-5.8036264379927
30
0
41
1
10
29.0468721795178
20
-5.77862561032647
30
0
41
1
10
29.0386455042847
20
-5.74179191241824
30
0
41
1
10
29.0353236145824
20
-5.72962594216901
30
0
41
1
10
29.0275062128113
20
-5.70563418870539
30
0
41
1
10
29.0229942843146
20
-5.69375660658861
30
0
41
1
10
29.0179627443669
20
-5.68224131859493
30
0
0
SPLINE
5
191
100
AcDbEntity
8
1
62
256
6
ByLayer
370
18
48
1
60
0
100
AcDbSpline
70
4
71
3
72
32
73
28
40
0
40
0
40
0
40
0
40
0.125000000000005
40
0.125000000000005
40
0.250000000000009
40
0.250000000000009
40
0.281250000000009
40
0.281250000000009
40
0.312500000000008
40
0.375000000000008
40
0.375000000000008
40
0.500000000000007
40
0.500000000000007
40
0.531250000000006
40
0.531250000000006
40
0.562500000000005
40
0.625000000000005
40
0.625000000000005
40
0.750000000000009
40
0.750000000000009
40
0.781250000000009
40
0.781250000000009
40
0.812500000000009
40
0.812500000000009
40
0.875000000000007
40
0.875000000000007
40
1
40
1
40
1
40
1
41
1
10
27.5593642176947
20
-9.06867798585112
30
0
41
1
10
27.6248012127788
20
-9.07375275251343
30
0
41
1
10
27.6897018043827
20
-9.07344868091324
30
0
41
1
10
27.8184804888844
20
-9.0625873321202
30
0
41
1
10
27.8823584638214
20
-9.05202887206514
30
0
41
1
10
27.9615468339903
20
-9.03222162242068
30
0
41
1
10
27.9773628857893
20
-9.02792253371443
30
0
41
1
10
28.0086436256956
20
-9.01873606485437
30
0
41
1
10
28.0551434466237
20
-9.00404883642339
30
0
41
1
10
28.1004015893171
20
-8.98668683034859
30
0
41
1
10
28.1892900646276
20
-8.94845624952532
30
0
41
1
10
28.2463892391716
20
-8.91831661443756
30
0
41
1
10
28.3149957528389
20
-8.87468052172098
30
0
41
1
10
28.3286043604624
20
-8.86563473347863
30
0
41
1
10
28.3554064815502
20
-8.84702435277339
30
0
41
1
10
28.3949125258165
20
-8.81838688907689
30
0
41
1
10
28.4323665077398
20
-8.78762449452405
30
0
41
1
10
28.5045909506169
20
-8.72332089290572
30
0
41
1
10
28.5491798110832
20
-8.67676461454708
30
0
41
1
10
28.600376367419
20
-8.61386854950997
30
0
41
1
10
28.6103873249489
20
-8.60105287394859
30
0
41
1
10
28.6299445775455
20
-8.57494036024829
30
0
41
1
10
28.639475264488
20
-8.56166194716694
30
0
41
1
10
28.6671424983915
20
-8.52142278065855
30
0
41
1
10
28.684429037581
20
-8.49396229747749
30
0
41
1
10
28.7328629420225
20
-8.40970464296754
30
0
41
1
10
28.7606074410057
20
-8.35104377950989
30
0
41
1
10
28.7836666288599
20
-8.28981685062963
30
0
0
SPLINE
5
192
100
AcDbEntity
8
1
62
256
6
ByLayer
370
18
48
1
60
0
100
AcDbSpline
70
4
71
3
72
8
73
4
40
0
40
0
40
0
40
0
40
1
40
1
40
1
40
1
41
1
10
24.5838369756157
20
7.34056812343968
30
0
41
1
10
24.580286389146
20
7.34668962846766
30
0
41
1
10
24.5767365033477
20
7.35280959571297
30
0
41
1
10
24.5731872782935
20
7.35892811445018
30
0
0
SPLINE
5
193
100
AcDbEntity
8
1
62
256
6
ByLayer
370
18
48
1
60
0
100
AcDbSpline
70
4
71
3
72
26
73
22
40
0
40
0
40
0
40
0
40
0.25000000000001
40
0.25000000000001
40
0.375000000000012
40
0.375000000000012
40
0.500000000000014
40
0.500000000000014
40
0.625000000000016
40
0.625000000000016
40
0.687500000000013
40
0.687500000000013
40
0.75000000000001
40
0.75000000000001
40
0.812500000000008
40
0.812500000000008
40
0.875000000000005
40
0.875000000000005
40
0.937500000000003
40
0.937500000000003
40
1
40
1
40
1
40
1
41
1
10
24.6822277032189
20
7.61776561342785
30
0
41
1
10
24.6595403526158
20
7.60228980800926
30
0
41
1
10
24.6382016174619
20
7.58485218542165
30
0
41
1
10
24.6090891910961
20
7.55581844417151
30
0
41
1
10
24.5998719110999
20
7.54565136416639
30
0
41
1
10
24.5827532940221
20
7.52432123975113
30
0
41
1
10
24.574831010026
20
7.51313680833584
30
0
41
1
10
24.560880443231
20
7.48973464496628
30
0
41
1
10
24.5548259703888
20
7.47748930802594
30
0
41
1
10
24.5479825697718
20
7.45837927097523
30
0
41
1
10
24.5460862355438
20
7.45190511559154
30
0
41
1
10
24.5432773233655
20
7.43879250846102
30
0
41
1
10
24.5423720817012
20
7.43215415026067
30
0
41
1
10
24.5418210929935
20
7.4190549591315
30
0
41
1
10
24.5421613468661
20
7.41255065905939
30
0
41
1
10
24.544393766115
20
7.39966494918605
30
0
41
1
10
24.5462728255909
20
7.39345818991325
30
0
41
1
10
24.5515847183698
20
7.38186349410434
30
0
41
1
10
24.5550759947901
20
7.37640551206762
30
0
41
1
10
24.563239985312
20
7.36681876773932
30
0
41
1
10
24.5679740118922
20
7.36257900958715
30
0
41
1
10
24.5731872782935
20
7.35892811445018
30
0
0
SPLINE
5
194
100
AcDbEntity
8
1
62
256
6
ByLayer
370
18
48
1
60
0
100
AcDbSpline
70
4
71
3
72
8
73
4
40
0
40
0
40
0
40
0
40
1
40
1
40
1
40
1
41
1
10
24.3847593132784
20
6.93088043263965
30
0
41
1
10
24.3778566521135
20
6.93010360600604
30
0
41
1
10
24.370955780834
20
6.92932748311462
30
0
41
1
10
24.3640565953109
20
6.92855202111745
30
0
0
SPLINE
5
195
100
AcDbEntity
8
1
62
256
6
ByLayer
370
18
48
1
60
0
100
AcDbSpline
70
4
71
3
72
30
73
26
40
0
40
0
40
0
40
0
40
0.0624999999999994
40
0.0624999999999994
40
0.124999999999999
40
0.124999999999999
40
0.187499999999998
40
0.187499999999998
40
0.249999999999998
40
0.249999999999998
40
0.312499999999997
40
0.312499999999997
40
0.374999999999997
40
0.374999999999997
40
0.499999999999997
40
0.499999999999997
40
0.624999999999997
40
0.624999999999997
40
0.749999999999997
40
0.749999999999997
40
0.874999999999997
40
0.874999999999997
40
0.937499999999999
40
0.937499999999999
40
1
40
1
40
1
40
1
41
1
10
24.5838369756158
20
7.3405681234395
30
0
41
1
10
24.5889602562469
20
7.33173516347138
30
0
41
1
10
24.5928060549755
20
7.32212285641654
30
0
41
1
10
24.5984999422707
20
7.30243074083599
30
0
41
1
10
24.6003871251514
20
7.29226543224112
30
0
41
1
10
24.6026827872193
20
7.27141964219948
30
0
41
1
10
24.6030672260306
20
7.26086429551755
30
0
41
1
10
24.6026253767732
20
7.23980991425705
30
0
41
1
10
24.6018004194658
20
7.22926045745683
30
0
41
1
10
24.5991093873715
20
7.20811002957545
30
0
41
1
10
24.5972277216514
20
7.19745403148723
30
0
41
1
10
24.5925697831981
20
7.17641802630162
30
0
41
1
10
24.5897988162693
20
7.16603279024827
30
0
41
1
10
24.5802789339909
20
7.13523641328578
30
0
41
1
10
24.572341639944
20
7.11517868078523
30
0
41
1
10
24.5533408840899
20
7.07598573353823
30
0
41
1
10
24.5424919866075
20
7.05729350871921
30
0
41
1
10
24.517963485696
20
7.02183629956126
30
0
41
1
10
24.5043914896852
20
7.00524191322934
30
0
41
1
10
24.4746274267226
20
6.97536236168712
30
0
41
1
10
24.4584039980402
20
6.96202252862155
30
0
41
1
10
24.4321360031655
20
6.94622657412941
30
0
41
1
10
24.4229889049775
20
6.9416440747724
30
0
41
1
10
24.4042774134911
20
6.93455179446345
30
0
41
1
10
24.3946924915891
20
6.93199831417607
30
0
41
1
10
24.3847593132784
20
6.93088043263965
30
0
0
SPLINE
5
196
100
AcDbEntity
8
1
62
256
6
ByLayer
370
18
48
1
60
0
100
AcDbSpline
70
4
71
3
72
26
73
22
40
0
40
0
40
0
40
0
40
0.250000000000001
40
0.250000000000001
40
0.374999999999997
40
0.374999999999997
40
0.499999999999994
40
0.499999999999994
40
0.62499999999999
40
0.62499999999999
40
0.687499999999992
40
0.687499999999992
40
0.749999999999993
40
0.749999999999993
40
0.812499999999995
40
0.812499999999995
40
0.874999999999997
40
0.874999999999997
40
0.937499999999998
40
0.937499999999998
40
1
40
1
40
1
40
1
41
1
10
24.2302182504139
20
6.6875622608006
30
0
41
1
10
24.2283093024615
20
6.71484693237643
30
0
41
1
10
24.2287598732659
20
6.74225015399692
30
0
41
1
10
24.2334563464141
20
6.78279272687345
30
0
41
1
10
24.2357019537992
20
6.79621545501671
30
0
41
1
10
24.2417751711566
20
6.82261247880875
30
0
41
1
10
24.245606591232
20
6.83561633563676
30
0
41
1
10
24.2552314281949
20
6.86073067890008
30
0
41
1
10
24.2610303212228
20
6.87287872710625
30
0
41
1
10
24.2716707497529
20
6.88974916875691
30
0
41
1
10
24.2755332441889
20
6.89512627377771
30
0
41
1
10
24.2839852682261
20
6.90518787363843
30
0
41
1
10
24.288579194455
20
6.90986641241703
30
0
41
1
10
24.2983961086897
20
6.91810362922536
30
0
41
1
10
24.3036442653931
20
6.92169944462496
30
0
41
1
10
24.3149888068886
20
6.92756583520149
30
0
41
1
10
24.3209418385107
20
6.9297430212761
30
0
41
1
10
24.3331568795723
20
6.93235451437853
30
0
41
1
10
24.3395086739129
20
6.93278327507092
30
0
41
1
10
24.3518988716393
20
6.9318937650287
30
0
41
1
10
24.3580605639942
20
6.93059204164952
30
0
41
1
10
24.3640565953109
20
6.92855202111745
30
0
0
SPLINE
5
197
100
AcDbEntity
8
1
62
256
6
ByLayer
370
18
48
1
60
0
100
AcDbSpline
70
4
71
3
72
34
73
30
40
0
40
0
40
0
40
0
40
0.0312500000000051
40
0.0312500000000051
40
0.0625000000000102
40
0.0625000000000102
40
0.125000000000002
40
0.125000000000002
40
0.250000000000006
40
0.250000000000006
40
0.312500000000007
40
0.312500000000007
40
0.375000000000009
40
0.375000000000009
40
0.437500000000011
40
0.437500000000011
40
0.500000000000013
40
0.500000000000013
40
0.625000000000036
40
0.625000000000036
40
0.687500000000038
40
0.687500000000038
40
0.750000000000041
40
0.750000000000041
40
0.875000000000028
40
0.875000000000028
40
0.937500000000014
40
0.937500000000014
40
1
40
1
40
1
40
1
41
1
10
24.9783793343614
20
7.60969874517374
30
0
41
1
10
24.9816206266967
20
7.60577096334833
30
0
41
1
10
24.9851685120553
20
7.60205431216629
30
0
41
1
10
24.99266045326
20
7.59508612970325
30
0
41
1
10
24.9966023781702
20
7.59183190829782
30
0
41
1
10
25.008918031378
20
7.58263793770296
30
0
41
1
10
25.0177757678461
20
7.57725998677601
30
0
41
1
10
25.0458897704985
20
7.56286517874297
30
0
41
1
10
25.0661611801491
20
7.55582428312603
30
0
41
1
10
25.0974324639751
20
7.54811487841253
30
0
41
1
10
25.1080521220308
20
7.54602201094204
30
0
41
1
10
25.1294398151661
20
7.54273291798775
30
0
41
1
10
25.1402010856329
20
7.54153513931027
30
0
41
1
10
25.1618513087594
20
7.53996894415705
30
0
41
1
10
25.1727434981964
20
7.53960349489562
30
0
41
1
10
25.1944396620213
20
7.53967960385727
30
0
41
1
10
25.2052707123333
20
7.5401186739039
30
0
41
1
10
25.237712556357
20
7.54263294689328
30
0
41
1
10
25.2590798636663
20
7.5458850883487
30
0
41
1
10
25.2902227235357
20
7.55316775913145
30
0
41
1
10
25.3004760384863
20
7.55600545551842
30
0
41
1
10
25.3205123482197
20
7.5625073430168
30
0
41
1
10
25.3302968359367
20
7.56616813339281
30
0
41
1
10
25.3588908415343
20
7.57853097670872
30
0
41
1
10
25.3769397668501
20
7.58858389073283
30
0
41
1
10
25.400731701277
20
7.60694933654601
30
0
41
1
10
25.4081603895577
20
7.61367623828889
30
0
41
1
10
25.4212328421106
20
7.62826344910113
30
0
41
1
10
25.4269247070246
20
7.63612717906057
30
0
41
1
10
25.4314034912025
20
7.64483165256591
30
0
0
SPLINE
5
198
100
AcDbEntity
8
1
62
256
6
ByLayer
370
18
48
1
60
0
100
AcDbSpline
70
4
71
3
72
8
73
4
40
0
40
0
40
0
40
0
40
1
40
1
40
1
40
1
41
1
10
25.4314034912025
20
7.64483165256591
30
0
41
1
10
25.4345205405749
20
7.65088960771611
30
0
41
1
10
25.4376361240556
20
7.65694604573338
30
0
41
1
10
25.4407503294213
20
7.66300105467511
30
0
0
SPLINE
5
199
100
AcDbEntity
8
1
62
256
6
ByLayer
370
18
48
1
60
0
100
AcDbSpline
70
4
71
3
72
28
73
24
40
0
40
0
40
0
40
0
40
0.250000000000008
40
0.250000000000008
40
0.375000000000028
40
0.375000000000028
40
0.500000000000049
40
0.500000000000049
40
0.562500000000043
40
0.562500000000043
40
0.625000000000037
40
0.625000000000037
40
0.68750000000003
40
0.68750000000003
40
0.750000000000024
40
0.750000000000024
40
0.812500000000018
40
0.812500000000018
40
0.875000000000012
40
0.875000000000012
40
0.937500000000006
40
0.937500000000006
40
1
40
1
40
1
40
1
41
1
10
24.6822277032189
20
7.61776561342785
30
0
41
1
10
24.7049181294801
20
7.63324351685635
30
0
41
1
10
24.728947704062
20
7.64675531939396
30
0
41
1
10
24.7666841204339
20
7.66331390275302
30
0
41
1
10
24.7795270351559
20
7.66819762602979
30
0
41
1
10
24.8057167410413
20
7.67640069311261
30
0
41
1
10
24.8190533876428
20
7.67971935516545
30
0
41
1
10
24.8392924522197
20
7.68310750477616
30
0
41
1
10
24.8460628933037
20
7.68396801531489
30
0
41
1
10
24.8596592203798
20
7.68505124812668
30
0
41
1
10
24.8665101495531
20
7.68527212452906
30
0
41
1
10
24.8800462807157
20
7.68493029206981
30
0
41
1
10
24.8867512105633
20
7.68437271114122
30
0
41
1
10
24.90000080167
20
7.6823034404558
30
0
41
1
10
24.9066036606383
20
7.68077381007924
30
0
41
1
10
24.9192895045412
20
7.67655347926036
30
0
41
1
10
24.9253403582594
20
7.67388527390396
30
0
41
1
10
24.9367169207911
20
7.66718152404326
30
0
41
1
10
24.9418777015122
20
7.66323001189571
30
0
41
1
10
24.9509092905243
20
7.65417331242716
30
0
41
1
10
24.9548214970709
20
7.64898056795144
30
0
41
1
10
24.9609507888543
20
7.63802739996417
30
0
41
1
10
24.9632462215791
20
7.63221274797679
30
0
41
1
10
24.9648493658707
20
7.62609400628094
30
0
0
SPLINE
5
19A
100
AcDbEntity
8
1
62
256
6
ByLayer
370
18
48
1
60
0
100
AcDbSpline
70
4
71
3
72
8
73
4
40
0
40
0
40
0
40
0
40
1
40
1
40
1
40
1
41
1
10
24.9648493658707
20
7.62609400628094
30
0
41
1
10
24.9693583815087
20
7.62063019300396
30
0
41
1
10
24.973868351565
20
7.61516513154398
30
0
41
1
10
24.9783793343614
20
7.60969874517376
30
0
0
SPLINE
5
19B
100
AcDbEntity
8
1
62
256
6
ByLayer
370
18
48
1
60
0
100
AcDbSpline
70
4
71
3
72
26
73
22
40
0
40
0
40
0
40
0
40
0.250000000000003
40
0.250000000000003
40
0.375000000000003
40
0.375000000000003
40
0.500000000000003
40
0.500000000000003
40
0.625000000000004
40
0.625000000000004
40
0.687500000000003
40
0.687500000000003
40
0.750000000000002
40
0.750000000000002
40
0.812500000000002
40
0.812500000000002
40
0.875000000000001
40
0.875000000000001
40
0.937500000000001
40
0.937500000000001
40
1
40
1
40
1
40
1
41
1
10
25.7108272901196
20
7.69753551859706
30
0
41
1
10
25.686230991564
20
7.70934438475423
30
0
41
1
10
25.6606846430564
20
7.71901423275206
30
0
41
1
10
25.6214598906335
20
7.72959665944073
30
0
41
1
10
25.6082285614354
20
7.73246204824426
30
0
41
1
10
25.5816230616049
20
7.7365678191979
30
0
41
1
10
25.5682201049087
20
7.73781552758476
30
0
41
1
10
25.5415538200248
20
7.73817447521166
30
0
41
1
10
25.5282536473755
20
7.73729440791574
30
0
41
1
10
25.5088800610034
20
7.73369127984105
30
0
41
1
10
25.5025407198049
20
7.73210936941956
30
0
41
1
10
25.4902522872898
20
7.72802320581917
30
0
41
1
10
25.484307201091
20
7.72551272951677
30
0
41
1
10
25.4732394627636
20
7.71950382191254
30
0
41
1
10
25.4680735429667
20
7.71599584523206
30
0
41
1
10
25.4586802027725
20
7.70771622874791
30
0
41
1
10
25.4545894164862
20
7.70304218858955
30
0
41
1
10
25.4479230400774
20
7.6927740313569
30
0
41
1
10
25.4453214967576
20
7.68709541909492
30
0
41
1
10
25.4418538662434
20
7.67538875069403
30
0
41
1
10
25.4409296262376
20
7.66925347436535
30
0
41
1
10
25.4407503294213
20
7.66300105467511
30
0
0
SPLINE
5
19C
100
AcDbEntity
8
1
62
256
6
ByLayer
370
18
48
1
60
0
100
AcDbSpline
70
4
71
3
72
32
73
28
40
0
40
0
40
0
40
0
40
0.062500000000009
40
0.062500000000009
40
0.125000000000018
40
0.125000000000018
40
0.250000000000017
40
0.250000000000017
40
0.312500000000016
40
0.312500000000016
40
0.375000000000016
40
0.375000000000016
40
0.437500000000015
40
0.437500000000015
40
0.500000000000015
40
0.500000000000015
40
0.625000000000014
40
0.625000000000014
40
0.750000000000013
40
0.750000000000013
40
0.81250000000001
40
0.81250000000001
40
0.875000000000006
40
0.875000000000006
40
0.937500000000003
40
0.937500000000003
40
1
40
1
40
1
40
1
41
1
10
24.4179567033604
20
6.45638877121109
30
0
41
1
10
24.4279903281883
20
6.45584541072544
30
0
41
1
10
24.4379107400119
20
6.45389400972851
30
0
41
1
10
24.4576148161112
20
6.44802107721159
30
0
41
1
10
24.4673276883533
20
6.44409845878458
30
0
41
1
10
24.4957605726245
20
6.43023846273175
30
0
41
1
10
24.5136847383982
20
6.41831857308431
30
0
41
1
10
24.5389343474917
20
6.39812958290936
30
0
41
1
10
24.5471078999862
20
6.39097330709804
30
0
41
1
10
24.5628608624179
20
6.37603842094117
30
0
41
1
10
24.57043865059
20
6.36826475906644
30
0
41
1
10
24.5850424818122
20
6.35214975299586
30
0
41
1
10
24.5920671067752
20
6.34380553761683
30
0
41
1
10
24.6054484700055
20
6.32673362776652
30
0
41
1
10
24.6118247714381
20
6.3179846914914
30
0
41
1
10
24.6300069650648
20
6.29111456149622
30
0
41
1
10
24.6407787907893
20
6.27248607256529
30
0
41
1
10
24.658954505817
20
6.23480364037238
30
0
41
1
10
24.6664517082299
20
6.21565832297483
30
0
41
1
10
24.6747827634873
20
6.18628773253329
30
0
41
1
10
24.6770506889524
20
6.1764126257405
30
0
41
1
10
24.6803180876113
20
6.1568746098003
30
0
41
1
10
24.6813380295577
20
6.1471566831524
30
0
41
1
10
24.6818579806703
20
6.12781111496635
30
0
41
1
10
24.6813441282376
20
6.11809695774353
30
0
41
1
10
24.6783064324314
20
6.09941399016003
30
0
41
1
10
24.675814265678
20
6.09039796539432
30
0
41
1
10
24.671903197864
20
6.08183398780325
30
0
0
SPLINE
5
19D
100
AcDbEntity
8
1
62
256
6
ByLayer
370
18
48
1
60
0
100
AcDbSpline
70
4
71
3
72
8
73
4
40
0
40
0
40
0
40
0
40
1
40
1
40
1
40
1
41
1
10
24.3970116350257
20
6.45752428345232
30
0
41
1
10
24.4039915787785
20
6.45714546475271
30
0
41
1
10
24.4109732329978
20
6.45676695376356
30
0
41
1
10
24.4179567033604
20
6.45638877121109
30
0
0
SPLINE
5
19E
100
AcDbEntity
8
1
62
256
6
ByLayer
370
18
48
1
60
0
100
AcDbSpline
70
4
71
3
72
28
73
24
40
0
40
0
40
0
40
0
40
0.249999999999997
40
0.249999999999997
40
0.374999999999987
40
0.374999999999987
40
0.499999999999978
40
0.499999999999978
40
0.562499999999981
40
0.562499999999981
40
0.624999999999983
40
0.624999999999983
40
0.687499999999986
40
0.687499999999986
40
0.749999999999989
40
0.749999999999989
40
0.812499999999992
40
0.812499999999992
40
0.874999999999994
40
0.874999999999994
40
0.937499999999997
40
0.937499999999997
40
1
40
1
40
1
40
1
41
1
10
24.2302182504139
20
6.6875622608006
30
0
41
1
10
24.2321274571569
20
6.66027389032132
30
0
41
1
10
24.2363936934634
20
6.63311414626014
30
0
41
1
10
24.2467207858063
20
6.59326628734952
30
0
41
1
10
24.2508203894802
20
6.58015689743017
30
0
41
1
10
24.2605445385159
20
6.55447501788305
30
0
41
1
10
24.2661634216978
20
6.5419110709261
30
0
41
1
10
24.2759677578768
20
6.52382529055735
30
0
41
1
10
24.2794590428875
20
6.51793753077952
30
0
41
1
10
24.2869693155193
20
6.50649609577044
30
0
41
1
10
24.2910051113578
20
6.50092362769747
30
0
41
1
10
24.2995806595818
20
6.49037326784619
30
0
41
1
10
24.3041285638965
20
6.48537668156057
30
0
41
1
10
24.3138625492274
20
6.47607254386344
30
0
41
1
10
24.3190982226394
20
6.47172934270796
30
0
41
1
10
24.33014556839
20
6.46413709905599
30
0
41
1
10
24.3359201500054
20
6.46090034533279
30
0
41
1
10
24.3480770734156
20
6.45580252273963
30
0
41
1
10
24.3542932904675
20
6.45402302360459
30
0
41
1
10
24.3668207382371
20
6.45216055318691
30
0
41
1
10
24.3732248294843
20
6.45209593045404
30
0
41
1
10
24.3854271434585
20
6.45364061083572
30
0
41
1
10
24.3913153082388
20
6.45521954626635
30
0
41
1
10
24.3970116350257
20
6.45752428345232
30
0
0
SPLINE
5
19F
100
AcDbEntity
8
1
62
256
6
ByLayer
370
18
48
1
60
0
100
AcDbSpline
70
4
71
3
72
8
73
4
40
0
40
0
40
0
40
0
40
1
40
1
40
1
40
1
41
1
10
24.6637819155938
20
6.06405523851376
30
0
41
1
10
24.6664885988118
20
6.06997920488379
30
0
41
1
10
24.6691956849752
20
6.0759054074741
30
0
41
1
10
24.671903197864
20
6.08183398780322
30
0
0
SPLINE
5
1A0
100
AcDbEntity
8
1
62
256
6
ByLayer
370
18
48
1
60
0
100
AcDbSpline
70
4
71
3
72
28
73
24
40
0
40
0
40
0
40
0
40
0.24999999999999
40
0.24999999999999
40
0.374999999999982
40
0.374999999999982
40
0.499999999999975
40
0.499999999999975
40
0.562499999999978
40
0.562499999999978
40
0.624999999999981
40
0.624999999999981
40
0.687499999999984
40
0.687499999999984
40
0.749999999999987
40
0.749999999999987
40
0.812499999999991
40
0.812499999999991
40
0.874999999999994
40
0.874999999999994
40
0.937499999999997
40
0.937499999999997
40
1
40
1
40
1
40
1
41
1
10
24.80680838451
20
5.83712881333921
30
0
41
1
10
24.7822087515057
20
5.84893928039
30
0
41
1
10
24.7586895204865
20
5.86276131761471
30
0
41
1
10
24.7258608810439
20
5.88656539374384
30
0
41
1
10
24.7153506731988
20
5.89500453828958
30
0
41
1
10
24.695469084243
20
5.91298922245191
30
0
41
1
10
24.6861031326548
20
5.92252694519013
30
0
41
1
10
24.6733501802216
20
5.93771171800194
30
0
41
1
10
24.6693258620657
20
5.94290899061139
30
0
41
1
10
24.6618167096398
20
5.95362024375204
30
0
41
1
10
24.6583214510558
20
5.9591555976772
30
0
41
1
10
24.6521075744059
20
5.97041869046373
30
0
41
1
10
24.6493748925282
20
5.97616050160981
30
0
41
1
10
24.6448366553986
20
5.98790697618004
30
0
41
1
10
24.6430190466044
20
5.99396691366304
30
0
41
1
10
24.640670268366
20
6.0061330932529
30
0
41
1
10
24.6401345240386
20
6.0122036653558
30
0
41
1
10
24.6406343051731
20
6.02429937956963
30
0
41
1
10
24.6416743613927
20
6.03015438550294
30
0
41
1
10
24.6454089068454
20
6.04126088175396
30
0
41
1
10
24.6481616993101
20
6.04658169041807
30
0
41
1
10
24.6549943440649
20
6.05604628832168
30
0
41
1
10
24.6590848244989
20
6.06027669280408
30
0
41
1
10
24.6637819155938
20
6.06405523851376
30
0
0
SPLINE
5
1A1
100
AcDbEntity
8
1
62
256
6
ByLayer
370
18
48
1
60
0
100
AcDbSpline
70
4
71
3
72
34
73
30
40
0
40
0
40
0
40
0
40
0.0312499999999981
40
0.0312499999999981
40
0.0624999999999963
40
0.0624999999999963
40
0.124999999999993
40
0.124999999999993
40
0.249999999999983
40
0.249999999999983
40
0.31249999999998
40
0.31249999999998
40
0.374999999999978
40
0.374999999999978
40
0.437499999999975
40
0.437499999999975
40
0.499999999999972
40
0.499999999999972
40
0.624999999999978
40
0.624999999999978
40
0.687499999999988
40
0.687499999999988
40
0.749999999999997
40
0.749999999999997
40
0.874999999999998
40
0.874999999999998
40
0.937499999999999
40
0.937499999999999
40
1
40
1
40
1
40
1
41
1
10
25.8591432400302
20
7.4394706128714
30
0
41
1
10
25.8576516766488
20
7.43475858095015
30
0
41
1
10
25.8564874392349
20
7.42988611837684
30
0
41
1
10
25.8547355856401
20
7.42002778803875
30
0
41
1
10
25.8541447123537
20
7.41504243691901
30
0
41
1
10
25.8530783208336
20
7.39994256072271
30
0
41
1
10
25.8533004817747
20
7.38968589092273
30
0
41
1
10
25.856135079936
20
7.35843559323395
30
0
41
1
10
25.8608358461763
20
7.33752994770312
30
0
41
1
10
25.8705498790049
20
7.3068040179522
30
0
41
1
10
25.8742595608788
20
7.29662359649296
30
0
41
1
10
25.882448307331
20
7.27656651407878
30
0
41
1
10
25.88692278213
20
7.26669495036548
30
0
41
1
10
25.8965735856399
20
7.24723968185519
30
0
41
1
10
25.9017538264887
20
7.23765460733505
30
0
41
1
10
25.9126876055363
20
7.21894724420635
30
0
41
1
10
25.9184528150936
20
7.20980037302195
30
0
41
1
10
25.9366370983386
20
7.18297706422443
30
0
41
1
10
25.9498320056072
20
7.16607402180757
30
0
41
1
10
25.9710172521494
20
7.14265802386058
30
0
41
1
10
25.9783305001988
20
7.13515987674208
30
0
41
1
10
25.9933625581383
20
7.12096824422322
30
0
41
1
10
26.0010794633472
20
7.11427182611251
30
0
41
1
10
26.0249317175752
20
7.09550704702325
30
0
41
1
10
26.0417431035976
20
7.08474933532681
30
0
41
1
10
26.0679621507195
20
7.07305800266114
30
0
41
1
10
26.0769366861389
20
7.06989081053042
30
0
41
1
10
26.0949241021048
20
7.06565938736695
30
0
41
1
10
26.1039630432748
20
7.06455505697528
30
0
41
1
10
26.1130897345339
20
7.06491582946356
30
0
0
SPLINE
5
1A2
100
AcDbEntity
8
1
62
256
6
ByLayer
370
18
48
1
60
0
100
AcDbSpline
70
4
71
3
72
8
73
4
40
0
40
0
40
0
40
0
40
1
40
1
40
1
40
1
41
1
10
26.1130897345339
20
7.06491582946356
30
0
41
1
10
26.1194415358557
20
7.06516691226048
30
0
41
1
10
26.1257908201945
20
7.06541836479354
30
0
41
1
10
26.1321377372814
20
7.06567016390217
30
0
0
SPLINE
5
1A3
100
AcDbEntity
8
1
62
256
6
ByLayer
370
18
48
1
60
0
100
AcDbSpline
70
4
71
3
72
28
73
24
40
0
40
0
40
0
40
0
40
0.249999999999996
40
0.249999999999996
40
0.374999999999997
40
0.374999999999997
40
0.499999999999998
40
0.499999999999998
40
0.562499999999998
40
0.562499999999998
40
0.624999999999998
40
0.624999999999998
40
0.687499999999999
40
0.687499999999999
40
0.749999999999999
40
0.749999999999999
40
0.812499999999999
40
0.812499999999999
40
0.874999999999999
40
0.874999999999999
40
0.9375
40
0.9375
40
1
40
1
40
1
40
1
41
1
10
25.7108272901196
20
7.69753551859706
30
0
41
1
10
25.7354269231239
20
7.68572505154629
30
0
41
1
10
25.7590680558901
20
7.67178157644746
30
0
41
1
10
25.7923106311304
20
7.64756513967136
30
0
41
1
10
25.802998013192
20
7.6389494951105
30
0
41
1
10
25.8233374766462
20
7.62050867880045
30
0
41
1
10
25.8329836015064
20
7.61069184893417
30
0
41
1
10
25.8462666392284
20
7.59497900796816
30
0
41
1
10
25.850485726971
20
7.58958770692895
30
0
41
1
10
25.8584303996554
20
7.57844259081598
30
0
41
1
10
25.8621674659884
20
7.57266634929323
30
0
41
1
10
25.8689165434697
20
7.56087009227615
30
0
41
1
10
25.871942969689
20
7.55483565457432
30
0
41
1
10
25.8771377278395
20
7.54243515724386
30
0
41
1
10
25.8793216776933
20
7.53601027273962
30
0
41
1
10
25.8824805773362
20
7.52303705450176
30
0
41
1
10
25.8834570988527
20
7.51652738250009
30
0
41
1
10
25.8839319020555
20
7.50346079253661
30
0
41
1
10
25.8834127459429
20
7.49708686867839
30
0
41
1
10
25.8807797888994
20
7.48488297589464
30
0
41
1
10
25.8786168885335
20
7.47897451984926
30
0
41
1
10
25.872961074108
20
7.4683375698111
30
0
41
1
10
25.8694648932515
20
7.46351512724056
30
0
41
1
10
25.8653674567134
20
7.45913920884072
30
0
0
SPLINE
5
1A4
100
AcDbEntity
8
1
62
256
6
ByLayer
370
18
48
1
60
0
100
AcDbSpline
70
4
71
3
72
8
73
4
40
0
40
0
40
0
40
0
40
1
40
1
40
1
40
1
41
1
10
25.8653674567134
20
7.45913920884072
30
0
41
1
10
25.8632938001611
20
7.45258462466248
30
0
41
1
10
25.8612190838783
20
7.44602845854995
30
0
41
1
10
25.8591432400302
20
7.43947061287143
30
0
0
SPLINE
5
1A5
100
AcDbEntity
8
1
62
256
6
ByLayer
370
18
48
1
60
0
100
AcDbSpline
70
4
71
3
72
26
73
22
40
0
40
0
40
0
40
0
40
0.249999999999996
40
0.249999999999996
40
0.374999999999994
40
0.374999999999994
40
0.499999999999992
40
0.499999999999992
40
0.62499999999999
40
0.62499999999999
40
0.687499999999991
40
0.687499999999991
40
0.749999999999993
40
0.749999999999993
40
0.812499999999995
40
0.812499999999995
40
0.874999999999997
40
0.874999999999997
40
0.937499999999998
40
0.937499999999998
40
1
40
1
40
1
40
1
41
1
10
26.2874174242156
20
6.84710207113734
30
0
41
1
10
26.285508476263
20
6.87438674271311
30
0
41
1
10
26.281361864484
20
6.90143344385329
30
0
41
1
10
26.2714563342652
20
6.94084360287435
30
0
41
1
10
26.2675309365612
20
6.95378775753088
30
0
41
1
10
26.2582727741536
20
6.97899580290452
30
0
41
1
10
26.252932221975
20
6.99128835538609
30
0
41
1
10
26.240569772856
20
7.01469754170782
30
0
41
1
10
26.2335372099819
20
7.02585048546958
30
0
41
1
10
26.2214106517291
20
7.04095530286779
30
0
41
1
10
26.2171159551471
20
7.04569980180727
30
0
41
1
10
26.2079674904904
20
7.05439644942426
30
0
41
1
10
26.20311061355
20
7.05834205997492
30
0
41
1
10
26.1929943140996
20
7.06503341716441
30
0
41
1
10
26.1877065600159
20
7.06781215212277
30
0
41
1
10
26.1765661054395
20
7.07193478737686
30
0
41
1
10
26.1708571922234
20
7.07320756687223
30
0
41
1
10
26.1594295965997
20
7.07398552736365
30
0
41
1
10
26.1536308063578
20
7.07347198651111
30
0
41
1
10
26.142588267384
20
7.07076522201127
30
0
41
1
10
26.1372306919193
20
7.06857015693403
30
0
41
1
10
26.1321377372814
20
7.06567016390217
30
0
0
SPLINE
5
1A6
100
AcDbEntity
8
1
62
256
6
ByLayer
370
18
48
1
60
0
100
AcDbSpline
70
4
71
3
72
34
73
30
40
0
40
0
40
0
40
0
40
0.0312500000000037
40
0.0312500000000037
40
0.0625000000000075
40
0.0625000000000075
40
0.125000000000015
40
0.125000000000015
40
0.250000000000027
40
0.250000000000027
40
0.312500000000027
40
0.312500000000027
40
0.375000000000027
40
0.375000000000027
40
0.437500000000026
40
0.437500000000026
40
0.500000000000026
40
0.500000000000026
40
0.625000000000017
40
0.625000000000017
40
0.687500000000015
40
0.687500000000015
40
0.750000000000012
40
0.750000000000012
40
0.875000000000008
40
0.875000000000008
40
0.937500000000004
40
0.937500000000004
40
1
40
1
40
1
40
1
41
1
10
26.1462871246159
20
6.590424168035
30
0
41
1
10
26.1417812065881
20
6.58941384381674
30
0
41
1
10
26.1372910625676
20
6.58803689836958
30
0
41
1
10
26.1284754120875
20
6.58472023539353
30
0
41
1
10
26.1241488700181
20
6.58278363441889
30
0
41
1
10
26.111365161046
20
6.57628166990986
30
0
41
1
10
26.1031014653215
20
6.57103248634934
30
0
41
1
10
26.0788660131794
20
6.55313701689833
30
0
41
1
10
26.0638770538197
20
6.53869279641731
30
0
41
1
10
26.0430219204572
20
6.51497682551459
30
0
41
1
10
26.0363182175046
20
6.50668378322851
30
0
41
1
10
26.023473145868
20
6.48956326532351
30
0
41
1
10
26.0173340199056
20
6.48074237251004
30
0
41
1
10
26.0055719605708
20
6.46261684209864
30
0
41
1
10
25.9999495166589
20
6.45330805275606
30
0
41
1
10
25.9893062094181
20
6.43440595625515
30
0
41
1
10
25.9842702825788
20
6.42479021494016
30
0
41
1
10
25.9700128450432
20
6.39545251037913
30
0
41
1
10
25.9617206180108
20
6.37541669752078
30
0
41
1
10
25.9514069866486
20
6.34507269206982
30
0
41
1
10
25.9483185131235
20
6.33488469045636
30
0
41
1
10
25.9429603770368
20
6.31454370809534
30
0
41
1
10
25.9406875387442
20
6.30439097433289
30
0
41
1
10
25.9352429179859
20
6.27396354668608
30
0
41
1
10
25.9334211759896
20
6.25373490060086
30
0
41
1
10
25.9348078181452
20
6.22471463335687
30
0
41
1
10
25.9359765323908
20
6.2151962372719
30
0
41
1
10
25.9400915586978
20
6.1971744963999
30
0
41
1
10
25.9430153672753
20
6.18862809306607
30
0
41
1
10
25.9472094622785
20
6.18073647723499
30
0
0
SPLINE
5
1A7
100
AcDbEntity
8
1
62
256
6
ByLayer
370
18
48
1
60
0
100
AcDbSpline
70
4
71
3
72
8
73
4
40
0
40
0
40
0
40
0
40
1
40
1
40
1
40
1
41
1
10
25.9472094622785
20
6.18073647723499
30
0
41
1
10
25.9501283797075
20
6.17524423755639
30
0
41
1
10
25.9530458956253
20
6.1697542338333
30
0
41
1
10
25.9559620940136
20
6.1642663329043
30
0
0
SPLINE
5
1A8
100
AcDbEntity
8
1
62
256
6
ByLayer
370
18
48
1
60
0
100
AcDbSpline
70
4
71
3
72
28
73
24
40
0
40
0
40
0
40
0
40
0.249999999999993
40
0.249999999999993
40
0.374999999999989
40
0.374999999999989
40
0.499999999999985
40
0.499999999999985
40
0.562499999999987
40
0.562499999999987
40
0.624999999999989
40
0.624999999999989
40
0.687499999999991
40
0.687499999999991
40
0.749999999999993
40
0.749999999999993
40
0.812499999999994
40
0.812499999999994
40
0.874999999999996
40
0.874999999999996
40
0.937499999999998
40
0.937499999999998
40
1
40
1
40
1
40
1
41
1
10
26.2874174242156
20
6.84710207113734
30
0
41
1
10
26.2893266309586
20
6.81981370065806
30
0
41
1
10
26.2889991400165
20
6.79229770408456
30
0
41
1
10
26.2847122667837
20
6.75131650362594
30
0
41
1
10
26.2826453212315
20
6.73772888578073
30
0
41
1
10
26.2770240160496
20
6.71085693631402
30
0
41
1
10
26.2734735809442
20
6.69758189083086
30
0
41
1
10
26.2667825967336
20
6.67821686617704
30
0
41
1
10
26.2643286281857
20
6.67186804038421
30
0
41
1
10
26.2588947339232
20
6.6594227599733
30
0
41
1
10
26.2559017749574
20
6.65330519824938
30
0
41
1
10
26.2493823216919
20
6.64158419157627
30
0
41
1
10
26.2458506902343
20
6.63596102152515
30
0
41
1
10
26.2381241177887
20
6.62530278349999
30
0
41
1
10
26.2338883792039
20
6.6202250558617
30
0
41
1
10
26.2247664956461
20
6.61106864911874
30
0
41
1
10
26.2199125520389
20
6.60700763252406
30
0
41
1
10
26.2094980848787
20
6.60015935454646
30
0
41
1
10
26.2040785980985
20
6.59747748387339
30
0
41
1
10
26.1929648462475
20
6.5937815922918
30
0
41
1
10
26.1871846853844
20
6.5927720570315
30
0
41
1
10
26.1759879943402
20
6.59250209891329
30
0
41
1
10
26.1704935305476
20
6.59319828928608
30
0
41
1
10
26.1650927769963
20
6.59464242623703
30
0
0
SPLINE
5
1A9
100
AcDbEntity
8
1
62
256
6
ByLayer
370
18
48
1
60
0
100
AcDbSpline
70
4
71
3
72
8
73
4
40
0
40
0
40
0
40
0
40
1
40
1
40
1
40
1
41
1
10
26.1650927769963
20
6.59464242623703
30
0
41
1
10
26.1588266181389
20
6.59323634643164
30
0
41
1
10
26.15255811674
20
6.591830260018
30
0
41
1
10
26.1462871246159
20
6.590424168035
30
0
0
SPLINE
5
1AA
100
AcDbEntity
8
1
62
256
6
ByLayer
370
18
48
1
60
0
100
AcDbSpline
70
4
71
3
72
26
73
22
40
0
40
0
40
0
40
0
40
0.250000000000004
40
0.250000000000004
40
0.375000000000003
40
0.375000000000003
40
0.500000000000003
40
0.500000000000003
40
0.625000000000002
40
0.625000000000002
40
0.687500000000002
40
0.687500000000002
40
0.750000000000001
40
0.750000000000001
40
0.812500000000001
40
0.812500000000001
40
0.875000000000001
40
0.875000000000001
40
0.9375
40
0.9375
40
1
40
1
40
1
40
1
41
1
10
25.8354079714107
20
5.91689871850841
30
0
41
1
10
25.8580953220139
20
5.93237452392701
30
0
41
1
10
25.879556060317
20
5.94969060762413
30
0
41
1
10
25.9090820783595
20
5.97831233103877
30
0
41
1
10
25.9184766613514
20
5.98830278273962
30
0
41
1
10
25.9360527191196
20
6.00917720716437
30
0
41
1
10
25.9442552441587
20
6.02008246393852
30
0
41
1
10
25.9589123488933
20
6.0427807779586
30
0
41
1
10
25.9653930956016
20
6.05460146313359
30
0
41
1
10
25.9730437512233
20
6.07290731702869
30
0
41
1
10
25.9752367062283
20
6.07908598036694
30
0
41
1
10
25.9787077297665
20
6.09153899567119
30
0
41
1
10
25.9799789066192
20
6.09781281117696
30
0
41
1
10
25.9813307956654
20
6.11011414963527
30
0
41
1
10
25.9814273809643
20
6.11618327284079
30
0
41
1
10
25.9801655714487
20
6.12810206644392
30
0
41
1
10
25.9788083770651
20
6.13378894647862
30
0
41
1
10
25.9745978314143
20
6.14428648611784
30
0
41
1
10
25.9716946139905
20
6.1491586469
30
0
41
1
10
25.9647087875933
20
6.15757171037383
30
0
41
1
10
25.9605761432555
20
6.1612123747245
30
0
41
1
10
25.9559620940136
20
6.1642663329043
30
0
0
SPLINE
5
1AB
100
AcDbEntity
8
1
62
256
6
ByLayer
370
18
48
1
60
0
100
AcDbSpline
70
4
71
3
72
34
73
30
40
0
40
0
40
0
40
0
40
0.0312500000000165
40
0.0312500000000165
40
0.062500000000033
40
0.062500000000033
40
0.12500000000005
40
0.12500000000005
40
0.250000000000066
40
0.250000000000066
40
0.312500000000064
40
0.312500000000064
40
0.375000000000063
40
0.375000000000063
40
0.437500000000062
40
0.437500000000062
40
0.500000000000061
40
0.500000000000061
40
0.625000000000058
40
0.625000000000058
40
0.687500000000057
40
0.687500000000057
40
0.750000000000056
40
0.750000000000056
40
0.875000000000036
40
0.875000000000036
40
0.937500000000018
40
0.937500000000018
40
1
40
1
40
1
40
1
41
1
10
25.5526671035328
20
5.91160585550092
30
0
41
1
10
25.5498796865752
20
5.91508148908153
30
0
41
1
10
25.5467757587207
20
5.91835587215176
30
0
41
1
10
25.5401401061548
20
5.92447102441284
30
0
41
1
10
25.536610693499
20
5.92731430329756
30
0
41
1
10
25.5254917118027
20
5.93531615607725
30
0
41
1
10
25.5173777349395
20
5.93995317762921
30
0
41
1
10
25.4913516369853
20
5.95226802607172
30
0
41
1
10
25.4722435954358
20
5.95814998055442
30
0
41
1
10
25.4423765468796
20
5.96446049353732
30
0
41
1
10
25.4321694352824
20
5.96614238441315
30
0
41
1
10
25.4114894922401
20
5.96872642047722
30
0
41
1
10
25.4010235611841
20
5.9696299835994
30
0
41
1
10
25.3798480586214
20
5.97072326464395
30
0
41
1
10
25.3691348785369
20
5.97091038573762
30
0
41
1
10
25.347676869785
20
5.97059702795488
30
0
41
1
10
25.3369056473038
20
5.97009835774034
30
0
41
1
10
25.3044640497663
20
5.96758383920267
30
0
41
1
10
25.2828570884734
20
5.9645704397751
30
0
41
1
10
25.2510021925342
20
5.95799709554996
30
0
41
1
10
25.2404520643357
20
5.95545508294697
30
0
41
1
10
25.2197079860166
20
5.94965827076103
30
0
41
1
10
25.2095129867307
20
5.94640642983356
30
0
41
1
10
25.1795132423558
20
5.93544397603436
30
0
41
1
10
25.1602959116341
20
5.92655502128092
30
0
41
1
10
25.1344230361284
20
5.91026259793749
30
0
41
1
10
25.1262400820614
20
5.90428709177181
30
0
41
1
10
25.1115677552967
20
5.89129366716702
30
0
41
1
10
25.1050293550256
20
5.88427325124214
30
0
41
1
10
25.0996429466918
20
5.87647294810876
30
0
0
SPLINE
5
1AC
100
AcDbEntity
8
1
62
256
6
ByLayer
370
18
48
1
60
0
100
AcDbSpline
70
4
71
3
72
8
73
4
40
0
40
0
40
0
40
0
40
1
40
1
40
1
40
1
41
1
10
25.0996429466918
20
5.87647294810876
30
0
41
1
10
25.0958942282785
20
5.87104425830793
30
0
41
1
10
25.0921462749173
20
5.86561778381288
30
0
41
1
10
25.0883990428858
20
5.86019339267936
30
0
0
SPLINE
5
1AD
100
AcDbEntity
8
1
62
256
6
ByLayer
370
18
48
1
60
0
100
AcDbSpline
70
4
71
3
72
26
73
22
40
0
40
0
40
0
40
0
40
0.250000000000024
40
0.250000000000024
40
0.375000000000035
40
0.375000000000035
40
0.500000000000046
40
0.500000000000046
40
0.625000000000057
40
0.625000000000057
40
0.687500000000047
40
0.687500000000047
40
0.750000000000038
40
0.750000000000038
40
0.812500000000028
40
0.812500000000028
40
0.875000000000019
40
0.875000000000019
40
0.93750000000001
40
0.93750000000001
40
1
40
1
40
1
40
1
41
1
10
24.80680838451
20
5.83712881333921
30
0
41
1
10
24.8314046830656
20
5.82531994718204
30
0
41
1
10
24.8570730347225
20
5.81552856029373
30
0
41
1
10
24.8967113788222
20
5.80453411576954
30
0
41
1
10
24.9101200110159
20
5.80149209866177
30
0
41
1
10
24.9371829515369
20
5.79693062771763
30
0
41
1
10
24.9508661492759
20
5.79540374468961
30
0
41
1
10
24.9782389720996
20
5.79434094771322
30
0
41
1
10
24.9919654186149
20
5.79479636324378
30
0
41
1
10
25.0121462599916
20
5.79759530816287
30
0
41
1
10
25.0187822219672
20
5.79888172653892
30
0
41
1
10
25.0317327658421
20
5.80230829831304
30
0
41
1
10
25.0380437872294
20
5.80445423192089
30
0
41
1
10
25.0499124258953
20
5.80966528685423
30
0
41
1
10
25.0555151848637
20
5.81273808666812
30
0
41
1
10
25.0658791347911
20
5.82005078688205
30
0
41
1
10
25.0704917861698
20
5.82420494780233
30
0
41
1
10
25.0782595097066
20
5.83337594886527
30
0
41
1
10
25.081449112023
20
5.8384687398727
30
0
41
1
10
25.0860949066619
20
5.84900172741911
30
0
41
1
10
25.0876205289102
20
5.85453790994632
30
0
41
1
10
25.0883990428858
20
5.86019339267938
30
0
0
SPLINE
5
1AE
100
AcDbEntity
8
1
62
256
6
ByLayer
370
18
48
1
60
0
100
AcDbSpline
70
4
71
3
72
28
73
24
40
0
40
0
40
0
40
0
40
0.249999999999968
40
0.249999999999968
40
0.374999999999952
40
0.374999999999952
40
0.499999999999937
40
0.499999999999937
40
0.562499999999944
40
0.562499999999944
40
0.624999999999952
40
0.624999999999952
40
0.68749999999996
40
0.68749999999996
40
0.749999999999968
40
0.749999999999968
40
0.812499999999976
40
0.812499999999976
40
0.874999999999984
40
0.874999999999984
40
0.937499999999992
40
0.937499999999992
40
1
40
1
40
1
40
1
41
1
10
25.8354079714107
20
5.91689871850841
30
0
41
1
10
25.8127175451495
20
5.90142081507992
30
0
41
1
10
25.7888098723147
20
5.88778757466818
30
0
41
1
10
25.7514873917404
20
5.87081663066218
30
0
41
1
10
25.738821651235
20
5.86575640737027
30
0
41
1
10
25.713089819848
20
5.85709720813973
30
0
41
1
10
25.7000333465183
20
5.85349943895883
30
0
41
1
10
25.6803243672302
20
5.84958322119394
30
0
41
1
10
25.6737486957331
20
5.84852868222544
30
0
41
1
10
25.6605878889154
20
5.84701158644133
30
0
41
1
10
25.6539787674911
20
5.84654982244136
30
0
41
1
10
25.6409778371599
20
5.84635849067007
30
0
41
1
10
25.6345666516539
20
5.84662344504289
30
0
41
1
10
25.6219735815682
20
5.84803869296809
30
0
41
1
10
25.6157370636594
20
5.84920337632342
30
0
41
1
10
25.603861341161
20
5.85261666849431
30
0
41
1
10
25.5982512646319
20
5.85484577395192
30
0
41
1
10
25.5878492864375
20
5.86057864806297
30
0
41
1
10
25.5832094058234
20
5.86401124228567
30
0
41
1
10
25.5752794052206
20
5.87197054522146
30
0
41
1
10
25.5719570907727
20
5.87657564231588
30
0
41
1
10
25.5670046293186
20
5.88635645816859
30
0
41
1
10
25.5653034961713
20
5.89157907206784
30
0
41
1
10
25.5643000064365
20
5.89710044107355
30
0
0
SPLINE
5
1AF
100
AcDbEntity
8
1
62
256
6
ByLayer
370
18
48
1
60
0
100
AcDbSpline
70
4
71
3
72
8
73
4
40
0
40
0
40
0
40
0
40
1
40
1
40
1
40
1
41
1
10
25.5643000064365
20
5.89710044107355
30
0
41
1
10
25.5604240174643
20
5.90193363654231
30
0
41
1
10
25.5565464172884
20
5.90676873448007
30
0
41
1
10
25.5526671035328
20
5.91160585550089
30
0
0
SPLINE
5
1B0
100
AcDbEntity
8
1
62
256
6
ByLayer
370
18
48
1
60
0
100
AcDbSpline
70
4
71
3
72
9
73
5
40
0
40
0
40
0
40
0
40
0.600630492602252
40
1
40
1
40
1
40
1
41
1
10
21.2515727081283
20
4.86657148799421
30
0
41
1
10
21.2534997458016
20
4.90399170051325
30
0
41
1
10
21.2595600848638
20
4.96612087728154
30
0
41
1
10
21.2709220040173
20
5.02745714380528
30
0
41
1
10
21.2760600468392
20
5.05184795392657
30
0
0
SPLINE
5
1B1
100
AcDbEntity
8
1
62
256
6
ByLayer
370
18
48
1
60
0
100
AcDbSpline
70
4
71
3
72
11
73
7
40
0
40
0
40
0
40
0
40
0.279637961486684
40
0.500000000000121
40
0.720362038513595
40
1
40
1
40
1
40
1
41
1
10
17.3946639364338
20
-8.6881912004507
30
0
41
1
10
17.4965907021289
20
-8.67416848920189
30
0
41
1
10
17.679223035927
20
-8.65362690015415
30
0
41
1
10
17.9434286641056
20
-8.63371497039064
30
0
41
1
10
18.208323481947
20
-8.62807277322592
30
0
41
1
10
18.3920853605311
20
-8.63091850834005
30
0
41
1
10
18.494889084157
20
-8.63505328819596
30
0
0
SPLINE
5
1B2
100
AcDbEntity
8
1
62
256
6
ByLayer
370
18
48
1
60
0
100
AcDbSpline
70
4
71
3
72
11
73
7
40
0
40
0
40
0
40
0
40
0.279637961486405
40
0.499999999999878
40
0.720362038513316
40
1
40
1
40
1
40
1
41
1
10
18.494889084157
20
8.635053288196
30
0
41
1
10
18.3920853605311
20
8.63091850834009
30
0
41
1
10
18.208323481947
20
8.62807277322597
30
0
41
1
10
17.9434286641055
20
8.63371497039068
30
0
41
1
10
17.679223035927
20
8.65362690015419
30
0
41
1
10
17.4965907021289
20
8.67416848920193
30
0
41
1
10
17.3946639364338
20
8.68819120045075
30
0
0
LINE
5
77
100
AcDbEntity
8
80
62
256
6
ByLayer
370
18
48
1
60
0
100
AcDbLine
10
0
20
0
30
0
11
-5
21
0
31
0
39
0
210
0
220
0
230
1
0
LINE
5
78
100
AcDbEntity
8
SK4
62
256
6
ByLayer
370
18
48
0.05
60
0
100
AcDbLine
10
-24.5
20
0
30
0
11
35
21
0
31
0
39
0
210
0
220
0
230
1
0
LINE
5
7A
100
AcDbEntity
8
81
62
256
6
ByLayer
370
18
48
1
60
0
100
AcDbLine
10
30
20
10
30
0
11
35
21
10
31
0
39
0
210
0
220
0
230
1
0
LINE
5
7B
100
AcDbEntity
8
1
62
256
6
ByLayer
370
13
48
1
60
0
100
AcDbLine
10
20.109135
20
8.720928
30
0
11
20.109135
21
8.716955
31
0
39
0
210
0
220
0
230
1
0
LINE
5
7C
100
AcDbEntity
8
1
62
256
6
ByLayer
370
13
48
1
60
0
100
AcDbLine
10
19.749379
20
8.676243
30
0
11
19.749379
21
8.673066
31
0
39
0
210
0
220
0
230
1
0
LINE
5
7D
100
AcDbEntity
8
1
62
256
6
ByLayer
370
13
48
1
60
0
100
AcDbLine
10
27.055483
20
-6.204732
30
0
11
26.947391
21
-6.205708
31
0
39
0
210
0
220
0
230
1
0
LINE
5
7E
100
AcDbEntity
8
1
62
256
6
ByLayer
370
18
48
1
60
0
100
AcDbLine
10
26.847919
20
-7.627463
30
0
11
26.947391
21
-6.205708
31
0
39
0
210
0
220
0
230
1
0
LINE
5
7F
100
AcDbEntity
8
1
62
256
6
ByLayer
370
18
48
1
60
0
100
AcDbLine
10
24.343861
20
-6.287384
30
0
11
24.271468
21
-7.322092
31
0
39
0
210
0
220
0
230
1
0
LINE
5
80
100
AcDbEntity
8
1
62
256
6
ByLayer
370
18
48
1
60
0
100
AcDbLine
10
27.055483
20
-6.204732
30
0
11
26.959788
21
-7.572506
31
0
39
0
210
0
220
0
230
1
0
LINE
5
81
100
AcDbEntity
8
1
62
256
6
ByLayer
370
13
48
1
60
0
100
AcDbLine
10
7.75
20
-5.396527
30
0
11
7.75
21
5.396527
31
0
39
0
210
0
220
0
230
1
0
LINE
5
82
100
AcDbEntity
8
1
62
256
6
ByLayer
370
13
48
1
60
0
100
AcDbLine
10
2.25
20
5.396527
30
0
11
2.25
21
-5.396527
31
0
39
0
210
0
220
0
230
1
0
LINE
5
83
100
AcDbEntity
8
1
62
256
6
ByLayer
370
13
48
1
60
0
100
AcDbLine
10
27.055483
20
-6.204732
30
0
11
27.21253
21
-6.048283
31
0
39
0
210
0
220
0
230
1
0
LINE
5
84
100
AcDbEntity
8
1
62
256
6
ByLayer
370
18
48
1
60
0
100
AcDbLine
10
29.023753
20
-7.435608
30
0
11
29.023753
21
4.635237
31
0
39
0
210
0
220
0
230
1
0
LINE
5
85
100
AcDbEntity
8
1
62
256
6
ByLayer
370
13
48
1
60
0
100
AcDbLine
10
18.494889
20
8.63505
30
0
11
18.494889
21
8.632981
31
0
39
0
210
0
220
0
230
1
0
LINE
5
86
100
AcDbEntity
8
1
62
256
6
ByLayer
370
13
48
1
60
0
100
AcDbLine
10
19.749379
20
-8.676243
30
0
11
19.749379
21
6.045856
31
0
39
0
210
0
220
0
230
1
0
LINE
5
87
100
AcDbEntity
8
1
62
256
6
ByLayer
370
13
48
1
60
0
100
AcDbLine
10
20.109135
20
5.660939
30
0
11
20.109135
21
-8.720928
31
0
39
0
210
0
220
0
230
1
0
LINE
5
88
100
AcDbEntity
8
1
62
256
6
ByLayer
370
13
48
1
60
0
100
AcDbLine
10
21.622262
20
-8.51762
30
0
11
21.622262
21
4.668472
31
0
39
0
210
0
220
0
230
1
0
LINE
5
89
100
AcDbEntity
8
1
62
256
6
ByLayer
370
13
48
1
60
0
100
AcDbLine
10
22.112103
20
4.482012
30
0
11
22.112103
21
-8.508759
31
0
39
0
210
0
220
0
230
1
0
LINE
5
8A
100
AcDbEntity
8
1
62
256
6
ByLayer
370
13
48
1
60
0
100
AcDbLine
10
28.73929
20
4.782943
30
0
11
28.73929
21
-8.278768
31
0
39
0
210
0
220
0
230
1
0
LINE
5
8B
100
AcDbEntity
8
1
62
256
6
ByLayer
370
13
48
1
60
0
100
AcDbLine
10
27.56376
20
-9.019337
30
0
11
27.56376
21
4.776296
31
0
39
0
210
0
220
0
230
1
0
LINE
5
8C
100
AcDbEntity
8
1
62
256
6
ByLayer
370
13
48
1
60
0
100
AcDbLine
10
10.642203
20
-9.56647
30
0
11
10.642203
21
9.56647
31
0
39
0
210
0
220
0
230
1
0
LINE
5
8D
100
AcDbEntity
8
1
62
256
6
ByLayer
370
18
48
1
60
0
100
AcDbLine
10
0
20
-9.65
30
0
11
0
21
9.65
31
0
39
0
210
0
220
0
230
1
0
LINE
5
8E
100
AcDbEntity
8
1
62
256
6
ByLayer
370
13
48
1
60
0
100
AcDbLine
10
9.352388
20
9.65
30
0
11
9.352388
21
-9.65
31
0
39
0
210
0
220
0
230
1
0
LINE
5
8F
100
AcDbEntity
8
1
62
256
6
ByLayer
370
18
48
1
60
0
100
AcDbLine
10
2.25
20
-5.396527
30
0
11
7.75
21
-5.396527
31
0
39
0
210
0
220
0
230
1
0
LINE
5
90
100
AcDbEntity
8
1
62
256
6
ByLayer
370
18
48
1
60
0
100
AcDbLine
10
2.05
20
5.087485
30
0
11
2.05
21
-5.087485
31
0
39
0
210
0
220
0
230
1
0
LINE
5
91
100
AcDbEntity
8
1
62
256
6
ByLayer
370
18
48
1
60
0
100
AcDbLine
10
7.75
20
5.396527
30
0
11
2.25
21
5.396527
31
0
39
0
210
0
220
0
230
1
0
LINE
5
92
100
AcDbEntity
8
1
62
256
6
ByLayer
370
18
48
1
60
0
100
AcDbLine
10
7.95
20
-5.087485
30
0
11
7.95
21
5.087485
31
0
39
0
210
0
220
0
230
1
0
LINE
5
93
100
AcDbEntity
8
1
62
256
6
ByLayer
370
13
48
1
60
0
100
AcDbLine
10
22.74309
20
4.3218
30
0
11
21.643074
21
7.432015
31
0
39
0
210
0
220
0
230
1
0
LINE
5
94
100
AcDbEntity
8
1
62
256
6
ByLayer
370
13
48
1
60
0
100
AcDbLine
10
22.933394
20
6.270378
30
0
11
22.692225
21
9.717413
31
0
39
0
210
0
220
0
230
1
0
LINE
5
95
100
AcDbEntity
8
1
62
256
6
ByLayer
370
18
48
1
60
0
100
AcDbLine
10
22.40534
20
9.712285
30
0
11
22.692225
21
9.717413
31
0
39
0
210
0
220
0
230
1
0
LINE
5
96
100
AcDbEntity
8
1
62
256
6
ByLayer
370
18
48
1
60
0
100
AcDbLine
10
20.970482
20
8.870203
30
0
11
21.734565
21
9.48367
31
0
39
0
210
0
220
0
230
1
0
LINE
5
97
100
AcDbEntity
8
1
62
256
6
ByLayer
370
13
48
1
60
0
100
AcDbLine
10
23.214685
20
9.742318
30
0
11
23.370052
21
7.521645
31
0
39
0
210
0
220
0
230
1
0
LINE
5
98
100
AcDbEntity
8
1
62
256
6
ByLayer
370
18
48
1
60
0
100
AcDbLine
10
23.214685
20
9.742318
30
0
11
24.834925
21
9.867971
31
0
39
0
210
0
220
0
230
1
0
LINE
5
99
100
AcDbEntity
8
1
62
256
6
ByLayer
370
13
48
1
60
0
100
AcDbLine
10
23.495418
20
5.729787
30
0
11
23.510146
21
5.519275
31
0
39
0
210
0
220
0
230
1
0
LINE
5
9A
100
AcDbEntity
8
1
62
256
6
ByLayer
370
13
48
1
60
0
100
AcDbLine
10
27.022217
20
7.804877
30
0
11
27.007489
21
8.015395
31
0
39
0
210
0
220
0
230
1
0
LINE
5
9B
100
AcDbEntity
8
1
62
256
6
ByLayer
370
13
48
1
60
0
100
AcDbLine
10
27.237772
20
4.723953
30
0
11
27.147583
21
6.013019
31
0
39
0
210
0
220
0
230
1
0
LINE
5
9C
100
AcDbEntity
8
1
62
256
6
ByLayer
370
13
48
1
60
0
100
AcDbLine
10
27.548653
20
9.957031
30
0
11
28.831447
21
6.145627
31
0
39
0
210
0
220
0
230
1
0
LINE
5
9D
100
AcDbEntity
8
1
62
256
6
ByLayer
370
13
48
1
60
0
100
AcDbLine
10
27.576297
20
7.272202
30
0
11
27.74908
21
4.802616
31
0
39
0
210
0
220
0
230
1
0
LINE
5
9E
100
AcDbEntity
8
1
62
256
6
ByLayer
370
18
48
1
60
0
100
AcDbLine
10
29.485195
20
4.726185
30
0
11
29.02376
21
4.328236
31
0
39
0
210
0
220
0
230
1
0
LINE
5
9F
100
AcDbEntity
8
SK1
62
256
6
ByLayer
370
18
48
1
60
0
100
AcDbLine
10
-19.3
20
-4.6
30
0
11
-19.3
21
4.6
31
0
39
0
210
0
220
0
230
1
0
LINE
5
A1
100
AcDbEntity
8
SK1
62
256
6
ByLayer
370
18
48
1
60
0
100
AcDbLine
10
-19.5
20
-4.4
30
0
11
-19.5
21
4.4
31
0
39
0
210
0
220
0
230
1
0
LINE
5
A2
100
AcDbEntity
8
SK1
62
256
6
ByLayer
370
13
48
1
60
0
100
AcDbLine
10
-16
20
-4.6
30
0
11
-16
21
4.6
31
0
39
0
210
0
220
0
230
1
0
LINE
5
A3
100
AcDbEntity
8
SK1
62
256
6
ByLayer
370
18
48
1
60
0
100
AcDbLine
10
-15.5
20
-5.969417
30
0
11
-15.5
21
5.969417
31
0
39
0
210
0
220
0
230
1
0
LINE
5
A4
100
AcDbEntity
8
SK1
62
256
6
ByLayer
370
18
48
1
60
0
100
AcDbLine
10
-3.5
20
-7.230668
30
0
11
-3.5
21
7.230668
31
0
39
0
210
0
220
0
230
1
0
LINE
5
A5
100
AcDbEntity
8
SK1
62
256
6
ByLayer
370
13
48
1
60
0
100
AcDbLine
10
-0.384645
20
7.350348
30
0
11
-0.384645
21
-7.350348
31
0
39
0
210
0
220
0
230
1
0
LINE
5
A6
100
AcDbEntity
8
1
62
256
6
ByLayer
370
13
48
1
60
0
100
AcDbLine
10
29.674425
20
-6.240641
30
0
11
29.648433
21
-5.496129
31
0
39
0
210
0
220
0
230
1
0
LINE
5
A7
100
AcDbEntity
8
1
62
256
6
ByLayer
370
18
48
1
60
0
100
AcDbLine
10
29.485195
20
-4.726185
30
0
11
29.02376
21
-4.328236
31
0
39
0
210
0
220
0
230
1
0
LINE
5
A8
100
AcDbEntity
8
1
62
256
6
ByLayer
370
13
48
1
60
0
100
AcDbLine
10
29.487922
20
-7.03862
30
0
11
29.42926
21
-5.358307
31
0
39
0
210
0
220
0
230
1
0
LINE
5
A9
100
AcDbEntity
8
1
62
256
6
ByLayer
370
18
48
1
60
0
100
AcDbLine
10
22.40534
20
-9.712285
30
0
11
22.692225
21
-9.717413
31
0
39
0
210
0
220
0
230
1
0
LINE
5
AA
100
AcDbEntity
8
1
62
256
6
ByLayer
370
18
48
1
60
0
100
AcDbLine
10
23.214685
20
-9.742318
30
0
11
24.834925
21
-9.867971
31
0
39
0
210
0
220
0
230
1
0
LINE
5
AB
100
AcDbEntity
8
1
62
256
6
ByLayer
370
13
48
1
60
0
100
AcDbLine
10
23.833095
20
-8.779699
30
0
11
22.40534
21
-9.712285
31
0
39
0
210
0
220
0
230
1
0
LINE
5
AC
100
AcDbEntity
8
1
62
256
6
ByLayer
370
18
48
1
60
0
100
AcDbLine
10
21.002239
20
-8.8957
30
0
11
21.734565
21
-9.48367
31
0
39
0
210
0
220
0
230
1
0
LINE
5
AD
100
AcDbEntity
8
1
62
256
6
ByLayer
370
13
48
1
60
0
100
AcDbLine
10
21.734565
20
-9.48367
30
0
11
23.064766
21
-8.614805
31
0
39
0
210
0
220
0
230
1
0
LINE
5
AE
100
AcDbEntity
8
1
62
256
6
ByLayer
370
18
48
1
60
0
100
AcDbLine
10
29.05094
20
-5.82907
30
0
11
29.101463
21
-7.276239
31
0
39
0
210
0
220
0
230
1
0
LINE
5
AF
100
AcDbEntity
8
1
62
256
6
ByLayer
370
18
48
1
60
0
100
AcDbLine
10
23.833095
20
-8.779699
30
0
11
27.559364
21
-9.068678
31
0
39
0
210
0
220
0
230
1
0
LINE
5
B0
100
AcDbEntity
8
1
62
256
6
ByLayer
370
18
48
1
60
0
100
AcDbLine
10
25.955962
20
6.164266
30
0
11
25.965635
21
6.154631
31
0
39
0
210
0
220
0
230
1
0
LINE
5
B1
100
AcDbEntity
8
1
62
256
6
ByLayer
370
18
48
1
60
0
100
AcDbLine
10
24.654586
20
7.277839
30
0
11
24.664287
21
7.260424
31
0
39
0
210
0
220
0
230
1
0
LINE
5
B2
100
AcDbEntity
8
1
62
256
6
ByLayer
370
18
48
1
60
0
100
AcDbLine
10
24.46521
20
6.850736
30
0
11
24.445455
21
6.847463
31
0
39
0
210
0
220
0
230
1
0
LINE
5
B3
100
AcDbEntity
8
1
62
256
6
ByLayer
370
13
48
1
60
0
100
AcDbLine
10
24.384759
20
6.93088
30
0
11
24.46521
21
6.850736
31
0
39
0
210
0
220
0
230
1
0
LINE
5
B4
100
AcDbEntity
8
1
62
256
6
ByLayer
370
13
48
1
60
0
100
AcDbLine
10
24.583837
20
7.340568
30
0
11
24.664287
21
7.260424
31
0
39
0
210
0
220
0
230
1
0
LINE
5
B5
100
AcDbEntity
8
1
62
256
6
ByLayer
370
13
48
1
60
0
100
AcDbLine
10
25.431403
20
7.644832
30
0
11
25.511854
21
7.564687
31
0
39
0
210
0
220
0
230
1
0
LINE
5
B6
100
AcDbEntity
8
1
62
256
6
ByLayer
370
18
48
1
60
0
100
AcDbLine
10
25.522149
20
7.581912
30
0
11
25.511854
21
7.564687
31
0
39
0
210
0
220
0
230
1
0
LINE
5
B7
100
AcDbEntity
8
1
62
256
6
ByLayer
370
18
48
1
60
0
100
AcDbLine
10
24.573187
20
7.358928
30
0
11
24.654586
21
7.277839
31
0
39
0
210
0
220
0
230
1
0
LINE
5
B8
100
AcDbEntity
8
1
62
256
6
ByLayer
370
18
48
1
60
0
100
AcDbLine
10
24.364057
20
6.928552
30
0
11
24.445455
21
6.847463
31
0
39
0
210
0
220
0
230
1
0
LINE
5
B9
100
AcDbEntity
8
1
62
256
6
ByLayer
370
18
48
1
60
0
100
AcDbLine
10
24.752354
20
6.00169
30
0
11
24.745181
21
5.982966
31
0
39
0
210
0
220
0
230
1
0
LINE
5
BA
100
AcDbEntity
8
1
62
256
6
ByLayer
370
13
48
1
60
0
100
AcDbLine
10
24.671903
20
6.081834
30
0
11
24.752354
21
6.00169
31
0
39
0
210
0
220
0
230
1
0
LINE
5
BB
100
AcDbEntity
8
1
62
256
6
ByLayer
370
18
48
1
60
0
100
AcDbLine
10
25.44075
20
7.663001
30
0
11
25.522149
21
7.581912
31
0
39
0
210
0
220
0
230
1
0
LINE
5
BC
100
AcDbEntity
8
1
62
256
6
ByLayer
370
13
48
1
60
0
100
AcDbLine
10
26.11309
20
7.064916
30
0
11
26.19354
21
6.984772
31
0
39
0
210
0
220
0
230
1
0
LINE
5
BD
100
AcDbEntity
8
1
62
256
6
ByLayer
370
18
48
1
60
0
100
AcDbLine
10
26.213537
20
6.984581
30
0
11
26.19354
21
6.984772
31
0
39
0
210
0
220
0
230
1
0
LINE
5
BE
100
AcDbEntity
8
1
62
256
6
ByLayer
370
13
48
1
60
0
100
AcDbLine
10
25.552667
20
5.911606
30
0
11
25.61483
21
5.849679
31
0
39
0
210
0
220
0
230
1
0
LINE
5
BF
100
AcDbEntity
8
1
62
256
6
ByLayer
370
18
48
1
60
0
100
AcDbLine
10
24.663782
20
6.064055
30
0
11
24.745181
21
5.982966
31
0
39
0
210
0
220
0
230
1
0
LINE
5
C0
100
AcDbEntity
8
1
62
256
6
ByLayer
370
18
48
1
60
0
100
AcDbLine
10
26.132138
20
7.06567
30
0
11
26.213537
21
6.984581
31
0
39
0
210
0
220
0
230
1
0
LINE
5
C1
100
AcDbEntity
8
1
62
256
6
ByLayer
370
18
48
1
60
0
100
AcDbLine
10
25.5643
20
5.8971
30
0
11
25.61029
21
5.851285
31
0
39
0
210
0
220
0
230
1
0
LINE
5
C2
100
AcDbEntity
8
1
62
256
6
ByLayer
370
18
48
1
60
0
100
AcDbLine
10
20.492234
20
8.80432
30
0
11
20.109135
21
8.720928
31
0
39
0
210
0
220
0
230
1
0
LINE
5
C3
100
AcDbEntity
8
1
62
256
6
ByLayer
370
18
48
1
60
0
100
AcDbLine
10
19.749379
20
8.676243
30
0
11
18.494387
21
8.635037
31
0
39
0
210
0
220
0
230
1
0
LINE
5
C4
100
AcDbEntity
8
1
62
256
6
ByLayer
370
18
48
1
60
0
100
AcDbLine
10
18.494387
20
-8.635037
30
0
11
19.749379
21
-8.676243
31
0
39
0
210
0
220
0
230
1
0
LINE
5
C5
100
AcDbEntity
8
1
62
256
6
ByLayer
370
18
48
1
60
0
100
AcDbLine
10
20.109135
20
-8.720928
30
0
11
20.492234
21
-8.80432
31
0
39
0
210
0
220
0
230
1
0
LINE
5
C6
100
AcDbEntity
8
1
62
256
6
ByLayer
370
18
48
1
60
0
100
AcDbLine
10
17.395164
20
8.688126
30
0
11
10.642203
21
9.56647
31
0
39
0
210
0
220
0
230
1
0
LINE
5
C7
100
AcDbEntity
8
1
62
256
6
ByLayer
370
18
48
1
60
0
100
AcDbLine
10
10.642203
20
-9.56647
30
0
11
17.395164
21
-8.688126
31
0
39
0
210
0
220
0
230
1
0
LINE
5
C8
100
AcDbEntity
8
1
62
256
6
ByLayer
370
18
48
1
60
0
100
AcDbLine
10
9.352388
20
9.65
30
0
11
0
21
9.65
31
0
39
0
210
0
220
0
230
1
0
LINE
5
C9
100
AcDbEntity
8
1
62
256
6
ByLayer
370
18
48
1
60
0
100
AcDbLine
10
0
20
-9.65
30
0
11
9.352388
21
-9.65
31
0
39
0
210
0
220
0
230
1
0
LINE
5
CA
100
AcDbEntity
8
SK1
62
256
6
ByLayer
370
18
48
1
60
0
100
AcDbLine
10
-16
20
4.6
30
0
11
-19.3
21
4.6
31
0
39
0
210
0
220
0
230
1
0
LINE
5
CB
100
AcDbEntity
8
SK1
62
256
6
ByLayer
370
18
48
1
60
0
100
AcDbLine
10
-19.3
20
-4.6
30
0
11
-16
21
-4.6
31
0
39
0
210
0
220
0
230
1
0
LINE
5
CC
100
AcDbEntity
8
SK1
62
256
6
ByLayer
370
18
48
1
60
0
100
AcDbLine
10
-19.5
20
-4.4
30
0
11
-19.3
21
-4.6
31
0
39
0
210
0
220
0
230
1
0
LINE
5
CD
100
AcDbEntity
8
SK1
62
256
6
ByLayer
370
18
48
1
60
0
100
AcDbLine
10
-19.3
20
4.6
30
0
11
-19.5
21
4.4
31
0
39
0
210
0
220
0
230
1
0
LINE
5
CE
100
AcDbEntity
8
SK1
62
256
6
ByLayer
370
18
48
1
60
0
100
AcDbLine
10
-15.5
20
-5.969417
30
0
11
-3.5
21
-7.230668
31
0
39
0
210
0
220
0
230
1
0
LINE
5
CF
100
AcDbEntity
8
SK1
62
256
6
ByLayer
370
18
48
1
60
0
100
AcDbLine
10
-3.5
20
7.230668
30
0
11
-15.5
21
5.969417
31
0
39
0
210
0
220
0
230
1
0
LINE
5
D0
100
AcDbEntity
8
SK1
62
256
6
ByLayer
370
18
48
1
60
0
100
AcDbLine
10
-3.5
20
-7.230668
30
0
11
-0.384645
21
-7.350348
31
0
39
0
210
0
220
0
230
1
0
LINE
5
D1
100
AcDbEntity
8
SK1
62
256
6
ByLayer
370
18
48
1
60
0
100
AcDbLine
10
-0.384645
20
7.350348
30
0
11
-3.5
21
7.230668
31
0
39
0
210
0
220
0
230
1
0
LINE
5
D2
100
AcDbEntity
8
1
62
256
6
ByLayer
370
18
48
1
60
0
100
AcDbLine
10
24.985808
20
7.601559
30
0
11
25.065781
21
7.521891
31
0
39
0
210
0
220
0
230
1
0
LINE
5
D3
100
AcDbEntity
8
1
62
256
6
ByLayer
370
18
48
1
60
0
100
AcDbLine
10
24.637912
20
6.301073
30
0
11
24.562333
21
6.376364
31
0
39
0
210
0
220
0
230
1
0
LINE
5
D4
100
AcDbEntity
8
1
62
256
6
ByLayer
370
18
48
1
60
0
100
AcDbLine
10
25.978513
20
7.135178
30
0
11
26.054035
21
7.059943
31
0
39
0
210
0
220
0
230
1
0
LINE
5
D5
100
AcDbEntity
8
1
62
256
6
ByLayer
370
18
48
1
60
0
100
AcDbLine
10
25.615625
20
5.849627
30
0
11
25.546193
21
5.918794
31
0
39
0
210
0
220
0
230
1
0
LINE
5
D6
100
AcDbEntity
8
1
62
256
6
ByLayer
370
18
48
1
60
0
100
AcDbLine
10
26.55469
20
7.911273
30
0
11
26.478223
21
7.987448
31
0
39
0
210
0
220
0
230
1
0
LINE
5
D7
100
AcDbEntity
8
1
62
256
6
ByLayer
370
18
48
1
60
0
100
AcDbLine
10
24.043359
20
5.543284
30
0
11
24.119826
21
5.467108
31
0
39
0
210
0
220
0
230
1
0
LINE
5
D8
100
AcDbEntity
8
2
62
256
6
ByLayer
370
13
48
1
60
0
100
AcDbLine
10
61.631238
20
10
30
0
11
61.631238
21
-10
31
0
39
0
210
0
220
0
230
1
0
LINE
5
DA
100
AcDbEntity
8
2
62
256
6
ByLayer
370
13
48
1
60
0
100
AcDbLine
10
31.5875
20
-10
30
0
11
63.631238
21
-10
31
0
39
0
210
0
220
0
230
1
0
LINE
5
DB
100
AcDbEntity
8
2
62
256
6
ByLayer
370
13
48
1
60
0
100
AcDbLine
10
31.5875
20
10
30
0
11
63.631238
21
10
31
0
39
0
210
0
220
0
230
1
0
LINE
5
DC
100
AcDbEntity
8
1
62
256
6
ByLayer
370
18
48
1
60
1
100
AcDbLine
10
61.631238
20
-10
30
0
11
61.170454
21
-6.500002
31
0
39
0
210
0
220
0
230
1
0
LINE
5
DD
100
AcDbEntity
8
1
62
256
6
ByLayer
370
18
48
1
60
1
100
AcDbLine
10
61.170454
20
-6.500002
30
0
11
62.092021
21
-6.499998
31
0
39
0
210
0
220
0
230
1
0
LINE
5
DE
100
AcDbEntity
8
1
62
256
6
ByLayer
370
18
48
1
60
1
100
AcDbLine
10
62.092021
20
-6.499998
30
0
11
61.631238
21
-10
31
0
39
0
210
0
220
0
230
1
0
LINE
5
DF
100
AcDbEntity
8
1
62
256
6
ByLayer
370
18
48
1
60
1
100
AcDbLine
10
61.631238
20
10
30
0
11
62.092021
21
6.500002
31
0
39
0
210
0
220
0
230
1
0
LINE
5
E0
100
AcDbEntity
8
1
62
256
6
ByLayer
370
18
48
1
60
1
100
AcDbLine
10
62.092021
20
6.500002
30
0
11
61.170454
21
6.499998
31
0
39
0
210
0
220
0
230
1
0
LINE
5
E1
100
AcDbEntity
8
1
62
256
6
ByLayer
370
18
48
1
60
1
100
AcDbLine
10
61.170454
20
6.499998
30
0
11
61.631238
21
10
31
0
39
0
210
0
220
0
230
1
0
LINE
5
E2
100
AcDbEntity
8
SK2
62
256
6
ByLayer
370
13
48
1
60
0
100
AcDbLine
10
-34.1
20
9.65
30
0
11
-34.1
21
-9.65
31
0
39
0
210
0
220
0
230
1
0
LINE
5
E4
100
AcDbEntity
8
SK2
62
256
6
ByLayer
370
13
48
1
60
0
100
AcDbLine
10
-1.5875
20
-9.65
30
0
11
-36.1
21
-9.65
31
0
39
0
210
0
220
0
230
1
0
LINE
5
E5
100
AcDbEntity
8
SK2
62
256
6
ByLayer
370
13
48
1
60
0
100
AcDbLine
10
-1.5875
20
9.65
30
0
11
-36.1
21
9.65
31
0
39
0
210
0
220
0
230
1
0
LINE
5
E6
100
AcDbEntity
8
1
62
256
6
ByLayer
370
18
48
1
60
1
100
AcDbLine
10
-34.1
20
-9.65
30
0
11
-34.560784
21
-6.150002
31
0
39
0
210
0
220
0
230
1
0
LINE
5
E7
100
AcDbEntity
8
1
62
256
6
ByLayer
370
18
48
1
60
1
100
AcDbLine
10
-34.560784
20
-6.150002
30
0
11
-33.639216
21
-6.149998
31
0
39
0
210
0
220
0
230
1
0
LINE
5
E8
100
AcDbEntity
8
1
62
256
6
ByLayer
370
18
48
1
60
1
100
AcDbLine
10
-33.639216
20
-6.149998
30
0
11
-34.1
21
-9.65
31
0
39
0
210
0
220
0
230
1
0
LINE
5
E9
100
AcDbEntity
8
1
62
256
6
ByLayer
370
18
48
1
60
1
100
AcDbLine
10
-34.1
20
9.65
30
0
11
-33.639216
21
6.150002
31
0
39
0
210
0
220
0
230
1
0
LINE
5
EA
100
AcDbEntity
8
1
62
256
6
ByLayer
370
18
48
1
60
1
100
AcDbLine
10
-33.639216
20
6.150002
30
0
11
-34.560784
21
6.149998
31
0
39
0
210
0
220
0
230
1
0
LINE
5
EB
100
AcDbEntity
8
1
62
256
6
ByLayer
370
18
48
1
60
1
100
AcDbLine
10
-34.560784
20
6.149998
30
0
11
-34.1
21
9.65
31
0
39
0
210
0
220
0
230
1
0
LINE
5
1B7
100
AcDbEntity
8
1
62
256
6
ByLayer
370
18
48
1
60
1
100
AcDbLine
10
61.631238
20
-10
30
0
11
61.170454
21
-6.500002
31
0
39
0
210
0
220
0
230
1
0
LINE
5
1B8
100
AcDbEntity
8
1
62
256
6
ByLayer
370
18
48
1
60
1
100
AcDbLine
10
61.170454
20
-6.500002
30
0
11
62.092021
21
-6.499998
31
0
39
0
210
0
220
0
230
1
0
LINE
5
1B9
100
AcDbEntity
8
1
62
256
6
ByLayer
370
18
48
1
60
1
100
AcDbLine
10
62.092021
20
-6.499998
30
0
11
61.631238
21
-10
31
0
39
0
210
0
220
0
230
1
0
LINE
5
1BB
100
AcDbEntity
8
1
62
256
6
ByLayer
370
18
48
1
60
1
100
AcDbLine
10
61.631238
20
10
30
0
11
62.092021
21
6.500002
31
0
39
0
210
0
220
0
230
1
0
LINE
5
1BC
100
AcDbEntity
8
1
62
256
6
ByLayer
370
18
48
1
60
1
100
AcDbLine
10
62.092021
20
6.500002
30
0
11
61.170454
21
6.499998
31
0
39
0
210
0
220
0
230
1
0
LINE
5
1BD
100
AcDbEntity
8
1
62
256
6
ByLayer
370
18
48
1
60
1
100
AcDbLine
10
61.170454
20
6.499998
30
0
11
61.631238
21
10
31
0
39
0
210
0
220
0
230
1
0
LINE
5
1C1
100
AcDbEntity
8
1
62
256
6
ByLayer
370
18
48
1
60
1
100
AcDbLine
10
-34.1
20
-9.65
30
0
11
-34.560784
21
-6.150002
31
0
39
0
210
0
220
0
230
1
0
LINE
5
1C2
100
AcDbEntity
8
1
62
256
6
ByLayer
370
18
48
1
60
1
100
AcDbLine
10
-34.560784
20
-6.150002
30
0
11
-33.639216
21
-6.149998
31
0
39
0
210
0
220
0
230
1
0
LINE
5
1C3
100
AcDbEntity
8
1
62
256
6
ByLayer
370
18
48
1
60
1
100
AcDbLine
10
-33.639216
20
-6.149998
30
0
11
-34.1
21
-9.65
31
0
39
0
210
0
220
0
230
1
0
LINE
5
1C5
100
AcDbEntity
8
1
62
256
6
ByLayer
370
18
48
1
60
1
100
AcDbLine
10
-34.1
20
9.65
30
0
11
-33.639216
21
6.150002
31
0
39
0
210
0
220
0
230
1
0
LINE
5
1C6
100
AcDbEntity
8
1
62
256
6
ByLayer
370
18
48
1
60
1
100
AcDbLine
10
-33.639216
20
6.150002
30
0
11
-34.560784
21
6.149998
31
0
39
0
210
0
220
0
230
1
0
LINE
5
1C7
100
AcDbEntity
8
1
62
256
6
ByLayer
370
18
48
1
60
1
100
AcDbLine
10
-34.560784
20
6.149998
30
0
11
-34.1
21
9.65
31
0
39
0
210
0
220
0
230
1
0
MTEXT
5
1B3
100
AcDbEntity
8
2
62
256
6
ByLayer
370
18
48
1
60
0
100
AcDbMText
10
60.066604
20
-4.530622
30
0
210
0
220
0
230
1
1
%%c
40
3.5
41
0
44
1.084337
50
90
71
7
72
5
7
iso_b_vert
0
MTEXT
5
1B6
100
AcDbEntity
8
2
62
256
6
ByLayer
370
18
48
1
60
0
100
AcDbMText
10
60.066604
20
2.442034
30
0
210
0
220
0
230
1
1
\W0.6740;20
40
3.5
41
0
44
1.084337
50
90
71
7
72
5
7
iso_b_vert
0
MTEXT
5
1BF
100
AcDbEntity
8
SK2
62
256
6
ByLayer
370
18
48
1
60
0
100
AcDbMText
10
-35.664634
20
-6.109922
30
0
210
0
220
0
230
1
1
%%c
40
3.5
41
0
44
1.084337
50
90
71
7
72
5
7
iso_b_vert
0
MTEXT
5
1C0
100
AcDbEntity
8
SK2
62
256
6
ByLayer
370
18
48
1
60
0
100
AcDbMText
10
-35.664634
20
0.862734
30
0
210
0
220
0
230
1
1
\W0.6563;19.3
40
3.5
41
0
44
1.084337
50
90
71
7
72
5
7
iso_b_vert
0
MTEXT
5
1C9
100
AcDbEntity
8
SK6
62
256
6
ByLayer
370
18
48
1
60
0
100
AcDbMText
10
-16.298881
20
-22.502042
30
0
210
0
220
0
230
1
1
\W0.7632;MH20-R020EH20-06L
40
3.5
41
0
44
1.084337
50
0
71
7
72
5
7
iso_b_vert
0
HATCH
5
1BA
100
AcDbEntity
8
2
62
256
6
ByLayer
370
13
48
1
60
0
100
AcDbHatch
10
0
20
0
30
0
210
0
220
0
230
1
2
ANSI31
70
0
71
0
91
1
92
5
93
3
72
1
10
61.6312376204194
20
-9.99999999999997
11
61.1704538788667
21
-6.50000169255317
72
1
10
61.1704538788667
20
-6.50000169255317
11
62.0920213619722
21
-6.49999830744677
72
1
10
62.0920213619722
20
-6.49999830744677
11
61.6312376204194
21
-9.99999999999997
97
0
75
0
76
1
52
0
41
0.0062
77
0
78
1
53
45
43
0
44
0
45
-0.0139193969876572
46
0.0139193969876572
79
0
47
0
98
1
10
0
20
0
0
HATCH
5
1BE
100
AcDbEntity
8
2
62
256
6
ByLayer
370
13
48
1
60
0
100
AcDbHatch
10
0
20
0
30
0
210
0
220
0
230
1
2
ANSI31
70
0
71
0
91
1
92
5
93
3
72
1
10
61.6312376204194
20
10
11
62.0920213619722
21
6.50000169255323
72
1
10
62.0920213619722
20
6.50000169255323
11
61.1704538788667
21
6.49999830744683
72
1
10
61.1704538788667
20
6.49999830744683
11
61.6312376204194
21
10
97
0
75
0
76
1
52
0
41
0.0062
77
0
78
1
53
45
43
0
44
0
45
-0.0139193969876572
46
0.0139193969876572
79
0
47
0
98
1
10
0
20
0
0
HATCH
5
1C4
100
AcDbEntity
8
SK2
62
256
6
ByLayer
370
13
48
1
60
0
100
AcDbHatch
10
0
20
0
30
0
210
0
220
0
230
1
2
ANSI31
70
0
71
0
91
1
92
5
93
3
72
1
10
-34.1
20
-9.65000000000001
11
-34.5607837415528
21
-6.1500016925532
72
1
10
-34.5607837415528
20
-6.1500016925532
11
-33.6392162584472
21
-6.14999830744681
72
1
10
-33.6392162584472
20
-6.14999830744681
11
-34.1
21
-9.65000000000001
97
0
75
0
76
1
52
0
41
0.0062
77
0
78
1
53
45
43
0
44
0
45
-0.0139193969876572
46
0.0139193969876572
79
0
47
0
98
1
10
0
20
0
0
HATCH
5
1C8
100
AcDbEntity
8
SK2
62
256
6
ByLayer
370
13
48
1
60
0
100
AcDbHatch
10
0
20
0
30
0
210
0
220
0
230
1
2
ANSI31
70
0
71
0
91
1
92
5
93
3
72
1
10
-34.1
20
9.64999999999999
11
-33.6392162584472
21
6.15000169255319
72
1
10
-33.6392162584472
20
6.15000169255319
11
-34.5607837415528
21
6.14999830744679
72
1
10
-34.5607837415528
20
6.14999830744679
11
-34.1
21
9.64999999999999
97
0
75
0
76
1
52
0
41
0.0062
77
0
78
1
53
45
43
0
44
0
45
-0.0139193969876572
46
0.0139193969876572
79
0
47
0
98
1
10
0
20
0
0
DIMENSION
5
1CC
100
AcDbEntity
8
SK2
62
256
6
ByLayer
370
18
48
1
60
0
100
AcDbDimension
2
_U0
10
0
20
30.25
30
0
11
15
21
30.25
31
0
70
32
71
1
72
1
41
1
210
0
220
0
230
1
3
Standard
100
AcDbAlignedDimension
13
30
23
10
33
0
14
0
24
9.65
34
0
50
0
100
AcDbRotatedDimension
1001
ACAD
1000
DSTYLE
1002
{
1070
   371
1070
    13
1070
   372
1070
    13
1070
   170
1070
     0
1070
   144
1040
1.0
1070
   277
1070
     2
1070
   284
1070
     8
1070
   278
1070
    46
1070
   146
1040
1.0
1070
   345
1005
16
1070
   347
1005
16
1070
   346
1005
16
1070
   344
1005
0
1070
   343
1005
0
1070
   172
1070
     1
1070
    76
1070
     0
1070
    75
1070
     0
1070
   282
1070
     0
1070
   281
1070
     0
1070
    71
1070
     0
1070
    74
1070
     0
1070
   279
1070
     0
1070
   173
1070
     1
1070
   340
1005
1B4
1070
   271
1070
     2
1070
   272
1070
     2
1070
    77
1070
     1
1070
    73
1070
     1
1070
   171
1070
     3
1070
   274
1070
     4
1070
   177
1070
     2
1070
   176
1070
     2
1070
   178
1070
     2
1070
    78
1070
     8
1070
    48
1040
-0.1
1070
    41
1040
3.5
1070
   147
1040
1.75
1070
    42
1040
1.5875
1070
    44
1040
2.0
1070
   140
1040
3.5
1002
}
1001
ACAD_DSTYLE_DIM_LINETYPE
1070
   380
1005
16
1001
ACAD_DSTYLE_DIM_EXT1_LINETYPE
1070
   381
1005
16
1001
ACAD_DSTYLE_DIM_EXT2_LINETYPE
1070
   382
1005
16
0
ENDSEC
0
SECTION
2
OBJECTS
0
DICTIONARY
5
255
330
0
100
AcDbDictionary
280
0
281
1
3
ACAD_GROUP
350
256
3
ACAD_MLINESTYLE
350
257
0
DICTIONARY
5
256
330
0
100
AcDbDictionary
280
0
281
1
0
DICTIONARY
5
257
330
0
100
AcDbDictionary
280
0
281
1
3
Standard
350
18
0
MLINESTYLE
5
18
330
257
100
AcDbMlineStyle
2
Standard
70
0
3

62
256
51
90
52
90
71
2
49
-0.5
62
256
6
ByLayer
49
0.5
62
256
6
ByLayer
0
RASTERVARIABLES
5
243
330

100
AcDbRasterVariables
90
0
70
1
71
1
72
1
0
ENDSEC
0
EOF
