0
SECTION
2
HEADER
9
$ACADVER
1
AC1015
9
$DWGCODEPAGE
3
ANSI_1252
9
$HANDSEED
5
323
9
$ANGBASE
50
0
9
$ANGDIR
70
0
9
$ATTMODE
70
1
9
$AUNITS
70
0
9
$AUPREC
70
0
9
$CECOLOR
62
256
9
$CELTSCALE
40
1
9
$CELTYPE
6
ByLayer
9
$CELWEIGHT
370
18
9
$CLAYER
8
0
9
$CMLJUST
70
0
9
$CMLSCALE
40
1
9
$CMLSTYLE
2
Standard
9
$DIMSTYLE
2
Standard
9
$TEXTSIZE
40
0.2
9
$TEXTSTYLE
7
Standard
9
$LUNITS
70
2
9
$LUPREC
70
4
9
$EXTNAMES
290
1
9
$INSUNITS
70
4
9
$LTSCALE
40
1
9
$LWDISPLAY
290
1
9
$PDMODE
70
0
9
$PDSIZE
40
0
9
$PLINEGEN
70
0
0
ENDSEC
0
SECTION
2
CLASSES
0
CLASS
1
RASTERVARIABLES
2
AcDbRasterVariables
3
ISM
90
0
280
0
281
0
0
ENDSEC
0
SECTION
2
TABLES
0
TABLE
2
VPORT
5
319
100
AcDbSymbolTable
0
VPORT
5
1
100
AcDbSymbolTableRecord
100
AcDbViewportTableRecord
2
*Active
70
0
10
0
20
0
11
1
21
1
12
-1
22
1
13
0
23
0
14
0.5
24
0.5
15
10
25
10
16
0
26
0
36
1
17
0
27
0
37
0
0
ENDTAB
0
TABLE
2
LTYPE
5
31a
100
AcDbSymbolTable
0
LTYPE
5
14
100
AcDbSymbolTableRecord
100
AcDbLinetypeTableRecord
70
0
2
ByBlock
3

72
65
73
0
40
0
0
LTYPE
5
15
100
AcDbSymbolTableRecord
100
AcDbLinetypeTableRecord
70
0
2
ByLayer
3

72
65
73
0
40
0
0
LTYPE
5
16
100
AcDbSymbolTableRecord
100
AcDbLinetypeTableRecord
70
0
2
Continuous
3
Solid line
72
65
73
0
40
0
0
LTYPE
5
6E
100
AcDbSymbolTableRecord
100
AcDbLinetypeTableRecord
70
0
2
CENTER
3
____ _ ____ _ ____ _ ____
72
65
73
4
40
47.5
49
22
74
0
49
-8.5
74
0
49
8.5
74
0
49
-8.5
74
0
0
LTYPE
5
6F
100
AcDbSymbolTableRecord
100
AcDbLinetypeTableRecord
70
0
2
DASHED
3
__ __ __ __ __ __ __ __ __
72
65
73
2
40
25.72
49
12.86
74
0
49
-12.86
74
0
0
ENDTAB
0
TABLE
2
LAYER
5
31b
100
AcDbSymbolTable
0
LAYER
5
10
100
AcDbSymbolTableRecord
100
AcDbLayerTableRecord
2
0
70
0
62
7
6
Continuous
290
1
370
-3
390
0
0
LAYER
5
71
100
AcDbSymbolTableRecord
100
AcDbLayerTableRecord
2
1
70
0
62
4
6
Continuous
290
1
370
-3
390
0
0
LAYER
5
73
100
AcDbSymbolTableRecord
100
AcDbLayerTableRecord
2
81
70
0
62
-3
6
Continuous
290
1
370
-3
390
0
0
LAYER
5
75
100
AcDbSymbolTableRecord
100
AcDbLayerTableRecord
2
80
70
0
62
-6
6
Continuous
290
1
370
-3
390
0
0
LAYER
5
FB
100
AcDbSymbolTableRecord
100
AcDbLayerTableRecord
2
2
70
0
62
7
6
Continuous
290
1
370
-3
390
0
0
LAYER
5
278
100
AcDbSymbolTableRecord
100
AcDbLayerTableRecord
2
Defpoints
70
0
62
7
6
Continuous
290
0
370
-3
390
0
0
LAYER
5
305
100
AcDbSymbolTableRecord
100
AcDbLayerTableRecord
2
SK4
70
0
62
2
6
CENTER
290
1
370
-3
390
0
0
LAYER
5
306
100
AcDbSymbolTableRecord
100
AcDbLayerTableRecord
2
SK1
70
0
62
4
6
Continuous
290
1
370
-3
390
0
0
LAYER
5
307
100
AcDbSymbolTableRecord
100
AcDbLayerTableRecord
2
SK2
70
0
62
7
6
Continuous
290
1
370
-3
390
0
0
LAYER
5
308
100
AcDbSymbolTableRecord
100
AcDbLayerTableRecord
2
SK6
70
0
62
5
6
Continuous
290
1
370
-3
390
0
0
ENDTAB
0
TABLE
2
STYLE
5
31c
100
AcDbSymbolTable
0
STYLE
5
11
100
AcDbSymbolTableRecord
100
AcDbTextStyleTableRecord
2
Standard
3
txt
70
0
71
0
40
0
41
1
42
0
50
0
0
STYLE
5
25D
100
AcDbSymbolTableRecord
100
AcDbTextStyleTableRecord
2
iso_b_vert
3
simplex.shx
70
0
71
0
40
0
41
1
42
0
50
0
0
STYLE
5
25E
100
AcDbSymbolTableRecord
100
AcDbTextStyleTableRecord
2
DWGDirectTextStyle
3
simplex
70
0
71
0
40
0
41
1
42
0
50
0
0
ENDTAB
0
TABLE
2
DIMSTYLE
5
31d
100
AcDbSymbolTable
100
AcDbDimStyleTable
0
DIMSTYLE
105
27
100
AcDbSymbolTableRecord
100
AcDbDimStyleTableRecord
2
Standard
70
0
3
<>
41
0.18
42
0.0625
44
0.18
140
0.18
147
0.09
73
0
74
0
77
1
271
2
275
0
278
52
280
0
340
11
0
ENDTAB
0
TABLE
2
VIEW
5
31e
100
AcDbSymbolTable
0
ENDTAB
0
TABLE
2
UCS
5
31f
100
AcDbSymbolTable
0
ENDTAB
0
TABLE
2
APPID
5
320
100
AcDbSymbolTable
0
APPID
5
12
100
AcDbSymbolTableRecord
100
AcDbRegAppTableRecord
2
ACAD
70
0
0
APPID
5
274
100
AcDbSymbolTableRecord
100
AcDbRegAppTableRecord
2
ACAD_DSTYLE_DIMBREAK
70
0
0
APPID
5
2C4
100
AcDbSymbolTableRecord
100
AcDbRegAppTableRecord
2
ACAD_DSTYLE_DIM_LINETYPE
70
0
0
APPID
5
2C5
100
AcDbSymbolTableRecord
100
AcDbRegAppTableRecord
2
ACAD_DSTYLE_DIM_EXT1_LINETYPE
70
0
0
APPID
5
2C6
100
AcDbSymbolTableRecord
100
AcDbRegAppTableRecord
2
ACAD_DSTYLE_DIM_EXT2_LINETYPE
70
0
0
APPID
5
301
100
AcDbSymbolTableRecord
100
AcDbRegAppTableRecord
2
ACAD_MLEADERVER
70
0
0
ENDTAB
0
TABLE
2
BLOCK_RECORD
5
321
100
AcDbSymbolTable
0
BLOCK_RECORD
5
1F
100
AcDbSymbolTableRecord
100
AcDbBlockTableRecord
2
*Model_Space
340
0
70
0
0
BLOCK_RECORD
5
1B
100
AcDbSymbolTableRecord
100
AcDbBlockTableRecord
2
*Paper_Space
340
0
70
0
0
BLOCK_RECORD
5
23
100
AcDbSymbolTableRecord
100
AcDbBlockTableRecord
2
*Paper_Space0
340
0
70
0
0
BLOCK_RECORD
5
279
100
AcDbSymbolTableRecord
100
AcDbBlockTableRecord
2
*D1
340
0
70
0
0
BLOCK_RECORD
5
285
100
AcDbSymbolTableRecord
100
AcDbBlockTableRecord
2
_U0
340
0
70
0
0
BLOCK_RECORD
5
291
100
AcDbSymbolTableRecord
100
AcDbBlockTableRecord
2
*D3
340
0
70
0
0
BLOCK_RECORD
5
29D
100
AcDbSymbolTableRecord
100
AcDbBlockTableRecord
2
_U1
340
0
70
0
0
ENDTAB
0
ENDSEC
0
SECTION
2
BLOCKS
0
BLOCK
5
20
100
AcDbEntity
8
0
100
AcDbBlockBegin
2
*Model_Space
70
0
10
0
20
0
30
0
3
*Model_Space
0
ENDBLK
5
21
100
AcDbEntity
8
0
100
AcDbBlockEnd
0
BLOCK
5
1C
100
AcDbEntity
8
0
100
AcDbBlockBegin
2
*Paper_Space
70
0
10
0
20
0
30
0
3
*Paper_Space
0
ENDBLK
5
1D
100
AcDbEntity
8
0
100
AcDbBlockEnd
0
BLOCK
5
24
100
AcDbEntity
8
0
100
AcDbBlockBegin
2
*Paper_Space0
70
0
10
0
20
0
30
0
3
*Paper_Space0
0
ENDBLK
5
25
100
AcDbEntity
8
0
100
AcDbBlockEnd
0
BLOCK
5
27A
100
AcDbEntity
8
0
100
AcDbBlockBegin
2
*D1
70
1
10
0
20
0
30
0
3
*D1
0
LINE
5
27C
100
AcDbEntity
8
0
62
256
6
ByLayer
370
-2
48
1
60
0
100
AcDbLine
10
51.5
20
14.0875
30
0
11
51.5
21
34.75
31
0
39
0
210
0
220
0
230
1
0
LINE
5
27D
100
AcDbEntity
8
0
62
256
6
ByLayer
370
-2
48
1
60
0
100
AcDbLine
10
-98.5
20
14.0875
30
0
11
-98.5
21
34.75
31
0
39
0
210
0
220
0
230
1
0
LINE
5
27E
100
AcDbEntity
8
0
62
256
6
ByLayer
370
-2
48
1
60
0
100
AcDbLine
10
48
20
32.75
30
0
11
-95
21
32.75
31
0
39
0
210
0
220
0
230
1
0
SOLID
5
27F
100
AcDbEntity
8
0
62
256
6
ByLayer
370
-1
48
1
60
0
100
AcDbTrace
10
48
20
32.166667
30
0
11
48
21
33.333333
31
0
12
51.5
22
32.75
32
0
13
51.5
23
32.75
33
0
39
0
210
0
220
0
230
1
0
SOLID
5
280
100
AcDbEntity
8
0
62
256
6
ByLayer
370
-1
48
1
60
0
100
AcDbTrace
10
-95
20
33.333333
30
0
11
-95
21
32.166667
31
0
12
-98.5
22
32.75
32
0
13
-98.5
23
32.75
33
0
39
0
210
0
220
0
230
1
0
MTEXT
5
281
100
AcDbEntity
8
0
62
256
6
ByLayer
370
18
48
1
60
0
100
AcDbMText
10
-23.5
20
39.75
30
0
210
0
220
0
230
1
1
\A1;150
40
3.5
41
0
44
1
50
0
71
5
72
5
7
iso_b_vert
0
POINT
5
282
100
AcDbEntity
8
Defpoints
62
0
6
ByLayer
370
-1
48
1
60
0
100
AcDbPoint
10
51.5
20
12.5
30
0
39
0
210
0
220
0
230
1
50
360
0
POINT
5
283
100
AcDbEntity
8
Defpoints
62
0
6
ByLayer
370
-1
48
1
60
0
100
AcDbPoint
10
-98.5
20
12.5
30
0
39
0
210
0
220
0
230
1
50
360
0
POINT
5
284
100
AcDbEntity
8
Defpoints
62
0
6
ByLayer
370
-1
48
1
60
0
100
AcDbPoint
10
-98.5
20
32.75
30
0
39
0
210
0
220
0
230
1
50
360
0
ENDBLK
5
27B
100
AcDbEntity
8
0
100
AcDbBlockEnd
0
BLOCK
5
28C
100
AcDbEntity
8
0
100
AcDbBlockBegin
2
_U0
70
0
10
0
20
0
30
0
3
_U0
0
MTEXT
5
286
100
AcDbEntity
8
SK2
62
256
6
ByLayer
370
18
48
1
60
0
100
AcDbMText
10
-26.275266
20
33.782634
30
0
210
0
220
0
230
1
1
\W0.6217;150
40
3.5
41
0
44
1.084337
50
0
71
7
72
5
7
iso_b_vert
0
LINE
5
287
100
AcDbEntity
8
SK2
62
256
6
ByLayer
370
13
48
1
60
0
100
AcDbLine
10
51.5
20
14.0875
30
0
11
51.5
21
34.75
31
0
39
0
210
0
220
0
230
1
0
LINE
5
288
100
AcDbEntity
8
SK2
62
256
6
ByLayer
370
13
48
1
60
0
100
AcDbLine
10
-98.5
20
14.0875
30
0
11
-98.5
21
34.75
31
0
39
0
210
0
220
0
230
1
0
LINE
5
289
100
AcDbEntity
8
SK2
62
256
6
ByLayer
370
13
48
1
60
0
100
AcDbLine
10
51.5
20
32.75
30
0
11
-98.5
21
32.75
31
0
39
0
210
0
220
0
230
1
0
SOLID
5
28A
100
AcDbEntity
8
SK2
62
256
6
ByLayer
370
18
48
1
60
0
100
AcDbTrace
10
51.5
20
32.75
30
0
11
48.000002
21
32.289216
31
0
12
47.999998
22
33.210784
32
0
13
47.999998
23
33.210784
33
0
39
0
210
0
220
0
230
1
0
SOLID
5
28B
100
AcDbEntity
8
SK2
62
256
6
ByLayer
370
18
48
1
60
0
100
AcDbTrace
10
-98.5
20
32.75
30
0
11
-95.000002
21
33.210784
31
0
12
-94.999998
22
32.289216
32
0
13
-94.999998
23
32.289216
33
0
39
0
210
0
220
0
230
1
0
ENDBLK
5
28D
100
AcDbEntity
8
0
100
AcDbBlockEnd
0
BLOCK
5
292
100
AcDbEntity
8
0
100
AcDbBlockBegin
2
*D3
70
1
10
0
20
0
30
0
3
*D3
0
LINE
5
294
100
AcDbEntity
8
0
62
256
6
ByLayer
370
-2
48
1
60
0
100
AcDbLine
10
51.5
20
14.0875
30
0
11
51.5
21
22.75
31
0
39
0
210
0
220
0
230
1
0
LINE
5
295
100
AcDbEntity
8
0
62
256
6
ByLayer
370
-2
48
1
60
0
100
AcDbLine
10
0
20
1.5875
30
0
11
0
21
22.75
31
0
39
0
210
0
220
0
230
1
0
LINE
5
296
100
AcDbEntity
8
0
62
256
6
ByLayer
370
-2
48
1
60
0
100
AcDbLine
10
48
20
20.75
30
0
11
3.5
21
20.75
31
0
39
0
210
0
220
0
230
1
0
SOLID
5
297
100
AcDbEntity
8
0
62
256
6
ByLayer
370
-1
48
1
60
0
100
AcDbTrace
10
48
20
20.166667
30
0
11
48
21
21.333333
31
0
12
51.5
22
20.75
32
0
13
51.5
23
20.75
33
0
39
0
210
0
220
0
230
1
0
SOLID
5
298
100
AcDbEntity
8
0
62
256
6
ByLayer
370
-1
48
1
60
0
100
AcDbTrace
10
3.5
20
21.333333
30
0
11
3.5
21
20.166667
31
0
12
0
22
20.75
32
0
13
0
23
20.75
33
0
39
0
210
0
220
0
230
1
0
MTEXT
5
299
100
AcDbEntity
8
0
62
256
6
ByLayer
370
18
48
1
60
0
100
AcDbMText
10
25.75
20
27.75
30
0
210
0
220
0
230
1
1
\A1;51.5
40
3.5
41
0
44
1
50
0
71
5
72
5
7
iso_b_vert
0
POINT
5
29A
100
AcDbEntity
8
Defpoints
62
0
6
ByLayer
370
-1
48
1
60
0
100
AcDbPoint
10
51.5
20
12.5
30
0
39
0
210
0
220
0
230
1
50
360
0
POINT
5
29B
100
AcDbEntity
8
Defpoints
62
0
6
ByLayer
370
-1
48
1
60
0
100
AcDbPoint
10
0
20
0
30
0
39
0
210
0
220
0
230
1
50
360
0
POINT
5
29C
100
AcDbEntity
8
Defpoints
62
0
6
ByLayer
370
-1
48
1
60
0
100
AcDbPoint
10
0
20
20.75
30
0
39
0
210
0
220
0
230
1
50
360
0
ENDBLK
5
293
100
AcDbEntity
8
0
100
AcDbBlockEnd
0
BLOCK
5
2A4
100
AcDbEntity
8
0
100
AcDbBlockBegin
2
_U1
70
0
10
0
20
0
30
0
3
_U1
0
MTEXT
5
29E
100
AcDbEntity
8
2
62
256
6
ByLayer
370
18
48
1
60
0
100
AcDbMText
10
22.265734
20
21.782634
30
0
210
0
220
0
230
1
1
\W0.6563;51.5
40
3.5
41
0
44
1.084337
50
0
71
7
72
5
7
iso_b_vert
0
LINE
5
29F
100
AcDbEntity
8
2
62
256
6
ByLayer
370
13
48
1
60
0
100
AcDbLine
10
51.5
20
14.0875
30
0
11
51.5
21
22.75
31
0
39
0
210
0
220
0
230
1
0
LINE
5
2A0
100
AcDbEntity
8
2
62
256
6
ByLayer
370
13
48
1
60
0
100
AcDbLine
10
0
20
1.5875
30
0
11
0
21
22.75
31
0
39
0
210
0
220
0
230
1
0
LINE
5
2A1
100
AcDbEntity
8
2
62
256
6
ByLayer
370
13
48
1
60
0
100
AcDbLine
10
51.5
20
20.75
30
0
11
0
21
20.75
31
0
39
0
210
0
220
0
230
1
0
SOLID
5
2A2
100
AcDbEntity
8
2
62
256
6
ByLayer
370
18
48
1
60
0
100
AcDbTrace
10
51.5
20
20.75
30
0
11
48.000002
21
20.289216
31
0
12
47.999998
22
21.210784
32
0
13
47.999998
23
21.210784
33
0
39
0
210
0
220
0
230
1
0
SOLID
5
2A3
100
AcDbEntity
8
2
62
256
6
ByLayer
370
18
48
1
60
0
100
AcDbTrace
10
0
20
20.75
30
0
11
3.499998
21
21.210784
31
0
12
3.500002
22
20.289216
32
0
13
3.500002
23
20.289216
33
0
39
0
210
0
220
0
230
1
0
ENDBLK
5
2A5
100
AcDbEntity
8
0
100
AcDbBlockEnd
0
ENDSEC
0
SECTION
2
ENTITIES
0
ARC
5
10E
100
AcDbEntity
8
1
62
256
6
ByLayer
370
18
48
1
60
0
100
AcDbCircle
39
0
10
41.164611
20
-13.036985
30
0
40
2
210
0
220
0
230
1
100
AcDbArc
50
77.112147
51
87.627451
0
ARC
5
10F
100
AcDbEntity
8
1
62
256
6
ByLayer
370
18
48
1
60
0
100
AcDbCircle
39
0
10
5.385472
20
-1.7415
30
0
40
10
210
0
220
0
230
1
100
AcDbArc
50
270
51
271.312335
0
ARC
5
110
100
AcDbEntity
8
1
62
256
6
ByLayer
370
18
48
1
60
0
100
AcDbCircle
39
0
10
5.385472
20
1.7415
30
0
40
10
210
0
220
0
230
1
100
AcDbArc
50
88.687665
51
90
0
ELLIPSE
5
111
100
AcDbEntity
8
1
62
256
6
ByLayer
370
18
48
1
60
0
100
AcDbEllipse
10
1.5
20
12.4915
30
0
11
1.5
21
0
31
0
210
0
220
0
230
1
40
0.5
41
-2.77489405133573
42
-1.5707963267949
0
ELLIPSE
5
112
100
AcDbEntity
8
1
62
256
6
ByLayer
370
18
48
1
60
0
100
AcDbEllipse
10
1.5
20
-12.4915
30
0
11
1.5
21
0
31
0
210
0
220
0
230
1
40
0.5
41
1.5707963267949
42
2.77489405133573
0
ELLIPSE
5
113
100
AcDbEntity
8
1
62
256
6
ByLayer
370
18
48
1
60
0
100
AcDbEllipse
10
47.216502
20
-8.779592
30
0
11
0.495863012829018
21
-0.914177155975823
31
0
210
0
220
0
230
1
40
0.995072
41
0
42
6.28318530717959
0
ELLIPSE
5
114
100
AcDbEntity
8
1
62
256
6
ByLayer
370
18
48
1
60
0
100
AcDbEllipse
10
47.216502
20
-8.779592
30
0
11
-0.619828766036244
21
1.14272144496973
31
0
210
0
220
0
230
1
40
0.995072
41
-2.13968341977086
42
1.00190923381887
0
ELLIPSE
5
115
100
AcDbEntity
8
1
62
256
6
ByLayer
370
18
48
1
60
0
100
AcDbEllipse
10
47.225217
20
-8.774865
30
0
11
0.667507901885245
21
-1.23062309458289
31
0
210
0
220
0
230
1
40
0.995072
41
1.0019092338186
42
3.14157907930563
0
ELLIPSE
5
116
100
AcDbEntity
8
1
62
256
6
ByLayer
370
18
48
1
60
0
100
AcDbEllipse
10
51.535285
20
0.016309
30
0
11
1.01368383556352
21
11.9013312627462
31
0
210
0
220
0
230
1
40
0.842468
41
2.63028537974959
42
2.64076368765478
0
ELLIPSE
5
117
100
AcDbEntity
8
1
62
256
6
ByLayer
370
18
48
1
60
0
100
AcDbEllipse
10
45.986394
20
0.048282
30
0
11
0.870212567756248
21
11.6348113813085
31
0
210
0
220
0
230
1
40
0.083595
41
-2.59765853526821
42
-2.5477039337555
0
ELLIPSE
5
118
100
AcDbEntity
8
1
62
256
6
ByLayer
370
18
48
1
60
0
100
AcDbEllipse
10
225.204065
20
-0.656304
30
0
11
247.47006482709
21
-1.03210939866739
31
0
210
0
220
0
230
1
40
0.067236
41
-2.38609277511977
42
-2.36256638590241
0
ELLIPSE
5
119
100
AcDbEntity
8
1
62
256
6
ByLayer
370
18
48
1
60
0
100
AcDbEllipse
10
48.804064
20
0.048945
30
0
11
0.881990024955557
21
11.7922827455343
31
0
210
0
220
0
230
1
40
0.083595
41
-2.6279547939055
42
-2.50701827569456
0
ELLIPSE
5
11A
100
AcDbEntity
8
1
62
256
6
ByLayer
370
18
48
1
60
0
100
AcDbEllipse
10
43.930159
20
0.086333
30
0
11
13.4504982837858
21
3.77997576930347
31
0
210
0
220
0
230
1
40
0.807098
41
-1.46310456525337
42
-1.45456448138183
0
ELLIPSE
5
11B
100
AcDbEntity
8
1
62
256
6
ByLayer
370
18
48
1
60
0
100
AcDbEllipse
10
294.011131
20
-0.772868
30
0
11
291.422142151442
21
-1.21541907048156
31
0
210
0
220
0
230
1
40
0.067236
41
-2.58957334534204
42
-2.57292643591793
0
ELLIPSE
5
11C
100
AcDbEntity
8
1
62
256
6
ByLayer
370
18
48
1
60
0
100
AcDbEllipse
10
42.820602
20
-0.000109
30
0
11
0.000558441259847023
21
-11.3217021432321
31
0
210
0
220
0
230
1
40
0.37905
41
-0.078010153777767
42
0.0498021585040919
0
ELLIPSE
5
11D
100
AcDbEntity
8
1
62
256
6
ByLayer
370
18
48
1
60
0
100
AcDbEllipse
10
47.225217
20
5.522999
30
0
11
1.39467166959001
21
-0.122028414900145
31
0
210
0
220
0
230
1
40
0.01304
41
-3.07063855283424
42
-0.433761988868157
0
ELLIPSE
5
11E
100
AcDbEntity
8
1
62
256
6
ByLayer
370
18
48
1
60
0
100
AcDbEllipse
10
42.820602
20
0.981342
30
0
11
4.28955498499302
21
11.3640477928523
31
0
210
0
220
0
230
1
40
0.011357
41
-1.67875459523546
42
-1.55094227478514
0
ELLIPSE
5
11F
100
AcDbEntity
8
1
62
256
6
ByLayer
370
18
48
1
60
0
100
AcDbEllipse
10
51.532893
20
-0.559443
30
0
11
10.0679124320589
21
-11.9378709738171
31
0
210
0
220
0
230
1
40
0.031258
41
-2.14571851319845
42
-2.13523802152751
0
ELLIPSE
5
120
100
AcDbEntity
8
1
62
256
6
ByLayer
370
18
48
1
60
0
100
AcDbEllipse
10
45.986395
20
0.056286
30
0
11
1.01226951943002
21
11.6348633188449
31
0
210
0
220
0
230
1
40
0.0708
41
0.913241857349951
42
1.07367680734649
0
ELLIPSE
5
121
100
AcDbEntity
8
1
62
256
6
ByLayer
370
18
48
1
60
0
100
AcDbEllipse
10
48.804064
20
0.057048
30
0
11
1.02596923869462
21
11.7923257378773
31
0
210
0
220
0
230
1
40
0.0708
41
0.886038254388318
42
1.10397285410125
0
ELLIPSE
5
122
100
AcDbEntity
8
1
62
256
6
ByLayer
370
18
48
1
60
0
100
AcDbEllipse
10
43.927245
20
0.765336
30
0
11
13.7901028578829
21
11.5126968163313
31
0
210
0
220
0
230
1
40
0.038025
41
1.19968760993225
42
1.20822495708751
0
ELLIPSE
5
123
100
AcDbEntity
8
1
62
256
6
ByLayer
370
18
48
1
60
0
100
AcDbEllipse
10
294.009683
20
-16.284717
30
0
11
291.420684537662
21
-25.493840849027
31
0
210
0
220
0
230
1
40
0.000874
41
2.5732820024283
42
2.58992896059586
0
ELLIPSE
5
124
100
AcDbEntity
8
1
62
256
6
ByLayer
370
18
48
1
60
0
100
AcDbEllipse
10
225.204788
20
-13.828841
30
0
11
247.470836902535
21
-21.6490550093925
31
0
210
0
220
0
230
1
40
0.000874
41
2.38611652981457
42
2.38645067815861
0
ELLIPSE
5
125
100
AcDbEntity
8
1
62
256
6
ByLayer
370
13
48
1
60
0
100
AcDbEllipse
10
46.858887
20
9.167644
30
0
11
-1.22879864020596
21
-1.2334924513839
31
0
210
0
220
0
230
1
40
0.992404
41
-0.155533598419316
42
0
0
ELLIPSE
5
126
100
AcDbEntity
8
1
62
256
6
ByLayer
370
13
48
1
60
0
100
AcDbEllipse
10
46.858887
20
9.167644
30
0
11
-1.22879864020596
21
-1.2334924513839
31
0
210
0
220
0
230
1
40
0.992404
41
0
42
-2.98601014213926
0
ELLIPSE
5
127
100
AcDbEntity
8
1
62
256
6
ByLayer
370
13
48
1
60
0
100
AcDbEllipse
10
46.858245
20
9.168283
30
0
11
-1.23386924600959
21
-1.23858242607794
31
0
210
0
220
0
230
1
40
0.992404
41
-0.207958642021477
42
0
0
ELLIPSE
5
128
100
AcDbEntity
8
1
62
256
6
ByLayer
370
13
48
1
60
0
100
AcDbEllipse
10
46.858245
20
9.168283
30
0
11
-1.23386924600959
21
-1.23858242607794
31
0
210
0
220
0
230
1
40
0.992404
41
0
42
-2.93358503621275
0
ELLIPSE
5
129
100
AcDbEntity
8
1
62
256
6
ByLayer
370
18
48
1
60
0
100
AcDbEllipse
10
44.40124
20
13.245717
30
0
11
2.99734989038703
21
0.141412794409019
31
0
210
0
220
0
230
1
40
0.340279
41
-1.6566298083691
42
-1.4820968831325
0
ELLIPSE
5
12A
100
AcDbEntity
8
1
62
256
6
ByLayer
370
18
48
1
60
0
100
AcDbEllipse
10
56.84534
20
12.857647
30
0
11
13.10109518404
21
-7.7379867859876
31
0
210
0
220
0
230
1
40
0.981525
41
-2.3924348618208
42
-2.26157204021491
0
ELLIPSE
5
12B
100
AcDbEntity
8
1
62
256
6
ByLayer
370
18
48
1
60
0
100
AcDbEllipse
10
44.072933
20
11.190356
30
0
11
1.09874559176178
21
-0.447428206927116
31
0
210
0
220
0
230
1
40
0.836412
41
2.0439661054545
42
2.70616263351454
0
ELLIPSE
5
12C
100
AcDbEntity
8
1
62
256
6
ByLayer
370
18
48
1
60
0
100
AcDbEllipse
10
46.758818
20
9.267332
30
0
11
1.44468184422728
21
1.45020029417396
31
0
210
0
220
0
230
1
40
0.992404
41
-0.257345036413164
42
1.97158025459069
0
ELLIPSE
5
12D
100
AcDbEntity
8
1
62
256
6
ByLayer
370
18
48
1
60
0
100
AcDbEllipse
10
46.767512
20
9.258671
30
0
11
-1.36918297269885
21
-1.37441302922041
31
0
210
0
220
0
230
1
40
0.992404
41
2.88424761717706
42
-1.17001239899868
0
ELLIPSE
5
12E
100
AcDbEntity
8
1
62
256
6
ByLayer
370
13
48
1
60
0
100
AcDbEllipse
10
46.830852
20
9.195572
30
0
11
-1.3333171763221
21
-1.33841023132817
31
0
210
0
220
0
230
1
40
0.992404
41
-0.791117117001686
42
-0.431503173939769
0
ELLIPSE
5
12F
100
AcDbEntity
8
1
62
256
6
ByLayer
370
18
48
1
60
0
100
AcDbEllipse
10
46.830852
20
9.195572
30
0
11
-1.3333171763221
21
-1.33841023132817
31
0
210
0
220
0
230
1
40
0.992404
41
-0.431502641279029
42
0
0
ELLIPSE
5
130
100
AcDbEntity
8
1
62
256
6
ByLayer
370
18
48
1
60
0
100
AcDbEllipse
10
46.830852
20
9.195572
30
0
11
-1.3333171763221
21
-1.33841023132817
31
0
210
0
220
0
230
1
40
0.992404
41
0
42
0.579795717973843
0
ELLIPSE
5
131
100
AcDbEntity
8
1
62
256
6
ByLayer
370
18
48
1
60
0
100
AcDbEllipse
10
46.830852
20
9.195572
30
0
11
-1.3333171763221
21
-1.33841023132817
31
0
210
0
220
0
230
1
40
0.992404
41
2.54221114338475
42
-2.72133087125335
0
ELLIPSE
5
132
100
AcDbEntity
8
1
62
256
6
ByLayer
370
13
48
1
60
0
100
AcDbEllipse
10
46.830852
20
9.195572
30
0
11
-1.3333171763221
21
-1.33841023132817
31
0
210
0
220
0
230
1
40
0.992404
41
-2.72133087125336
42
-0.791116585686076
0
ELLIPSE
5
133
100
AcDbEntity
8
1
62
256
6
ByLayer
370
18
48
1
60
0
100
AcDbEllipse
10
46.767512
20
9.258671
30
0
11
-1.36918297269885
21
-1.37441302922041
31
0
210
0
220
0
230
1
40
0.992404
41
-0.257345036382582
42
1.97158025462127
0
ELLIPSE
5
134
100
AcDbEntity
8
1
62
256
6
ByLayer
370
18
48
1
60
0
100
AcDbEllipse
10
46.758818
20
9.267332
30
0
11
1.44468184422706
21
1.45020029417373
31
0
210
0
220
0
230
1
40
0.992404
41
2.88424761720681
42
-1.17001239896892
0
ELLIPSE
5
135
100
AcDbEntity
8
1
62
256
6
ByLayer
370
18
48
1
60
0
100
AcDbEllipse
10
48.425972
20
13.073894
30
0
11
2.0719796888974
21
0.0868431221962946
31
0
210
0
220
0
230
1
40
0.319439
41
-1.82292427898115
42
-1.35859257322954
0
ELLIPSE
5
136
100
AcDbEntity
8
1
62
256
6
ByLayer
370
18
48
1
60
0
100
AcDbEllipse
10
37.015949
20
5.334671
30
0
11
9.09578585920315
21
11.8767090773039
31
0
210
0
220
0
230
1
40
0.968749
41
-0.693052821784333
42
-0.498736678018412
0
ELLIPSE
5
137
100
AcDbEntity
8
1
62
256
6
ByLayer
370
13
48
1
60
0
100
AcDbEllipse
10
40.250779
20
-5.102507
30
0
11
3.92070911539306
21
-11.555548265952
31
0
210
0
220
0
230
1
40
0.9146
41
0.966126052993696
42
0.982502293006892
0
ELLIPSE
5
138
100
AcDbEntity
8
1
62
256
6
ByLayer
370
13
48
1
60
0
100
AcDbEllipse
10
50.842187
20
-7.997303
30
0
11
0.342795542072926
21
0.206133976663065
31
0
210
0
220
0
230
1
40
0.4764
41
-0.81681393717774
42
-0.28489484718787
0
ELLIPSE
5
139
100
AcDbEntity
8
1
62
256
6
ByLayer
370
13
48
1
60
0
100
AcDbEllipse
10
50.868179
20
-8.743727
30
0
11
0.388864228123469
21
-0.0937262614529067
31
0
210
0
220
0
230
1
40
0.341678
41
0.141403304032509
42
0.750456965626221
0
ELLIPSE
5
13A
100
AcDbEntity
8
1
62
256
6
ByLayer
370
13
48
1
60
0
100
AcDbEllipse
10
50.536842
20
-7.872138
30
0
11
-0.330377330918312
21
0.225501262114633
31
0
210
0
220
0
230
1
40
0.952038
41
-2.47557642789813
42
-1.72806187380165
0
ELLIPSE
5
13B
100
AcDbEntity
8
1
62
256
6
ByLayer
370
13
48
1
60
0
100
AcDbEllipse
10
50.595504
20
-9.556765
30
0
11
0.271841114653095
21
-0.293432118869362
31
0
210
0
220
0
230
1
40
0.96956
41
0.590510315563367
42
0.882148447219783
0
ELLIPSE
5
13C
100
AcDbEntity
8
1
62
256
6
ByLayer
370
13
48
1
60
0
100
AcDbEllipse
10
45.922867
20
-4.333147
30
0
11
5.27705695331319
21
-4.99689548590719
31
0
210
0
220
0
230
1
40
0.791588
41
-0.138896878376602
42
-0.0518287330763673
0
ELLIPSE
5
13D
100
AcDbEntity
8
1
62
256
6
ByLayer
370
18
48
1
60
0
100
AcDbEllipse
10
37.015949
20
-5.414993
30
0
11
6.82138031617294
21
-13.3036193510074
31
0
210
0
220
0
230
1
40
0.975962
41
0.683951640442389
42
0.878267784181403
0
ELLIPSE
5
13E
100
AcDbEntity
8
1
62
256
6
ByLayer
370
18
48
1
60
0
100
AcDbEllipse
10
44.40124
20
-13.122212
30
0
11
2.99743832577284
21
-0.14020636101449
31
0
210
0
220
0
230
1
40
0.301368
41
1.48013982271418
42
1.65467274782464
0
ELLIPSE
5
13F
100
AcDbEntity
8
1
62
256
6
ByLayer
370
18
48
1
60
0
100
AcDbEllipse
10
48.425972
20
-12.992498
30
0
11
2.07201704300356
21
-0.0876450862317544
31
0
210
0
220
0
230
1
40
0.282897
41
1.3571705249967
42
1.82150223074463
0
ELLIPSE
5
140
100
AcDbEntity
8
1
62
256
6
ByLayer
370
18
48
1
60
0
100
AcDbEllipse
10
44.072933
20
-11.179575
30
0
11
1.09904385557057
21
0.44428830954286
31
0
210
0
220
0
230
1
40
0.84035
41
-2.70536470151582
42
-2.04316817345808
0
ELLIPSE
5
141
100
AcDbEntity
8
1
62
256
6
ByLayer
370
18
48
1
60
0
100
AcDbEllipse
10
36.522166
20
-5.638649
30
0
11
-7.03555809530584
21
12.9708131557842
31
0
210
0
220
0
230
1
40
0.995072
41
-2.42911446223308
42
-2.36559972206157
0
ELLIPSE
5
142
100
AcDbEntity
8
1
62
256
6
ByLayer
370
18
48
1
60
0
100
AcDbEllipse
10
45.49285
20
-10.366071
30
0
11
0.940793284236684
21
0.547463748136126
31
0
210
0
220
0
230
1
40
0.918701
41
-2.5868353366853
42
-2.21206266916826
0
ELLIPSE
5
143
100
AcDbEntity
8
1
62
256
6
ByLayer
370
18
48
1
60
0
100
AcDbEllipse
10
50.868179
20
1.217595
30
0
11
0.325720801395832
21
-0.232176569743928
31
0
210
0
220
0
230
1
40
0.925237
41
-0.085252902705388
42
-3.25937835046799E-05
0
ELLIPSE
5
144
100
AcDbEntity
8
1
62
256
6
ByLayer
370
13
48
1
60
0
100
AcDbEllipse
10
40.251223
20
-11.896905
30
0
11
11.2680699178673
21
13.4347091771937
31
0
210
0
220
0
230
1
40
0.022324
41
-0.276049502423974
42
-0.259672930651354
0
ELLIPSE
5
145
100
AcDbEntity
8
1
62
256
6
ByLayer
370
18
48
1
60
0
100
AcDbEllipse
10
45.922868
20
-24.779736
30
0
11
6.59110053882767
21
33.9395266195204
31
0
210
0
220
0
230
1
40
0.006625
41
-0.750767898225355
42
-0.729151884709003
0
ELLIPSE
5
146
100
AcDbEntity
8
1
62
256
6
ByLayer
370
13
48
1
60
0
100
AcDbEllipse
10
50.536842
20
0.592284
30
0
11
-0.393463526638949
21
0.0720170341297199
31
0
210
0
220
0
230
1
40
0.286453
41
2.38941955217191
42
3.10420735015116
0
ELLIPSE
5
147
100
AcDbEntity
8
1
62
256
6
ByLayer
370
13
48
1
60
0
100
AcDbEllipse
10
50.842187
20
1.224188
30
0
11
-0.297179938119858
21
0.267738836142756
31
0
210
0
220
0
230
1
40
0.736053
41
-3.09385135632122
42
-2.56193226633131
0
ELLIPSE
5
148
100
AcDbEntity
8
1
62
256
6
ByLayer
370
18
48
1
60
0
100
AcDbEllipse
10
46.845974
20
9.180508
30
0
11
0.55839537894647
21
0.560528358578964
31
0
210
0
220
0
230
1
40
0.992404
41
1.9043151603004
42
2.95151271149701
0
ELLIPSE
5
149
100
AcDbEntity
8
1
62
256
6
ByLayer
370
18
48
1
60
0
100
AcDbEllipse
10
46.845974
20
9.180508
30
0
11
0.55839537894647
21
0.560528358578964
31
0
210
0
220
0
230
1
40
0.992404
41
2.95151271149701
42
-2.59680190165314
0
ELLIPSE
5
14A
100
AcDbEntity
8
1
62
256
6
ByLayer
370
18
48
1
60
0
100
AcDbEllipse
10
46.845974
20
9.180508
30
0
11
0.55839537894647
21
0.560528358578964
31
0
210
0
220
0
230
1
40
0.992404
41
-0.00500468740407675
42
0.857117609103819
0
ELLIPSE
5
14B
100
AcDbEntity
8
1
62
256
6
ByLayer
370
18
48
1
60
0
100
AcDbEllipse
10
46.845974
20
9.180508
30
0
11
-0.55839537894671
21
-0.560528358578725
31
0
210
0
220
0
230
1
40
0.992404
41
-2.28447504448594
42
-1.23727749328939
0
ELLIPSE
5
14C
100
AcDbEntity
8
1
62
256
6
ByLayer
370
18
48
1
60
0
100
AcDbEllipse
10
46.845974
20
9.180508
30
0
11
0.55839537894647
21
0.560528358578964
31
0
210
0
220
0
230
1
40
0.992404
41
-0.895350834382521
42
-0.23995226737978
0
ELLIPSE
5
14D
100
AcDbEntity
8
1
62
256
6
ByLayer
370
18
48
1
60
0
100
AcDbEllipse
10
46.845974
20
9.180508
30
0
11
0.55839537894647
21
0.560528358578964
31
0
210
0
220
0
230
1
40
0.992404
41
-2.10429196144969
42
-1.48389291277143
0
ELLIPSE
5
14E
100
AcDbEntity
8
1
62
256
6
ByLayer
370
18
48
1
60
0
100
AcDbEllipse
10
46.028452
20
9.573006
30
0
11
0.105894991119641
21
0.217050274069344
31
0
210
0
220
0
230
1
40
0.501117
41
-2.79928989367788
42
-1.56763963193181
0
ELLIPSE
5
14F
100
AcDbEntity
8
1
62
256
6
ByLayer
370
18
48
1
60
0
100
AcDbEllipse
10
46.028452
20
9.573006
30
0
11
0.105894991123854
21
0.217050274073371
31
0
210
0
220
0
230
1
40
0.501117
41
-1.56763963191296
42
-0.335989370189085
0
ELLIPSE
5
150
100
AcDbEntity
8
1
62
256
6
ByLayer
370
18
48
1
60
0
100
AcDbEllipse
10
46.782525
20
10.087384
30
0
11
0.240147504710046
21
0.0192434513950379
31
0
210
0
220
0
230
1
40
0.503564
41
-2.80753807870003
42
-1.57588781696211
0
ELLIPSE
5
151
100
AcDbEntity
8
1
62
256
6
ByLayer
370
18
48
1
60
0
100
AcDbEllipse
10
46.782525
20
10.087384
30
0
11
0.240147504706336
21
0.0192434513955573
31
0
210
0
220
0
230
1
40
0.503564
41
-1.57588781696927
42
-0.344237555216752
0
ELLIPSE
5
152
100
AcDbEntity
8
1
62
256
6
ByLayer
370
18
48
1
60
0
100
AcDbEllipse
10
46.337262
20
9.930825
30
0
11
0.199487237803812
21
0.136353682320611
31
0
210
0
220
0
230
1
40
0.500577
41
0.422217531774884
42
-2.94843992161404
0
ELLIPSE
5
153
100
AcDbEntity
8
1
62
256
6
ByLayer
370
18
48
1
60
0
100
AcDbEllipse
10
45.938465
20
9.110129
30
0
11
0.0161769694424021
21
-0.240110512293336
31
0
210
0
220
0
230
1
40
0.504663
41
2.95166015687611
42
-0.796662203598921
0
ELLIPSE
5
154
100
AcDbEntity
8
1
62
256
6
ByLayer
370
18
48
1
60
0
100
AcDbEllipse
10
46.091901
20
8.66613
30
0
11
0.134447583300779
21
-0.198721703907442
31
0
210
0
220
0
230
1
40
0.507716
41
1.57273182408889
42
1.96507042315424
0
ELLIPSE
5
155
100
AcDbEntity
8
1
62
256
6
ByLayer
370
18
48
1
60
0
100
AcDbEllipse
10
46.091901
20
8.66613
30
0
11
0.134447583299989
21
-0.198721703902528
31
0
210
0
220
0
230
1
40
0.507716
41
0.341081562326263
42
1.57273182407051
0
ELLIPSE
5
156
100
AcDbEntity
8
1
62
256
6
ByLayer
370
18
48
1
60
0
100
AcDbEllipse
10
47.244771
20
10.001204
30
0
11
0.216582133317088
21
-0.103547693721293
31
0
210
0
220
0
230
1
40
0.507157
41
1.13798030819497
42
-2.94977090752294
0
ELLIPSE
5
157
100
AcDbEntity
8
1
62
256
6
ByLayer
370
18
48
1
60
0
100
AcDbEllipse
10
47.600046
20
9.694886
30
0
11
0.134447583300354
21
-0.198721703902213
31
0
210
0
220
0
230
1
40
0.507716
41
-1.17652249304921
42
-0.337210567779728
0
ELLIPSE
5
158
100
AcDbEntity
8
1
62
256
6
ByLayer
370
18
48
1
60
0
100
AcDbEllipse
10
46.447176
20
8.359812
30
0
11
0.216582133317076
21
-0.10354769372129
31
0
210
0
220
0
230
1
40
0.507157
41
2.94332903305883
42
-2.19592384043658
0
ELLIPSE
5
159
100
AcDbEntity
8
1
62
256
6
ByLayer
370
18
48
1
60
0
100
AcDbEllipse
10
46.758818
20
9.267332
30
0
11
0.730494359174095
21
0.733284728952422
31
0
210
0
220
0
230
1
40
0.992404
41
1.38071638470212
42
2.42791393589873
0
ELLIPSE
5
15A
100
AcDbEntity
8
1
62
256
6
ByLayer
370
18
48
1
60
0
100
AcDbEllipse
10
46.758818
20
9.267332
30
0
11
0.730494359174095
21
0.733284728952422
31
0
210
0
220
0
230
1
40
0.992404
41
0.333518833505534
42
1.38071638470212
0
ELLIPSE
5
15B
100
AcDbEntity
8
1
62
256
6
ByLayer
370
18
48
1
60
0
100
AcDbEllipse
10
46.758818
20
9.267332
30
0
11
0.730494359174095
21
0.733284728952422
31
0
210
0
220
0
230
1
40
0.992404
41
-0.713678717691085
42
0.333518833505534
0
ELLIPSE
5
15C
100
AcDbEntity
8
1
62
256
6
ByLayer
370
18
48
1
60
0
100
AcDbEllipse
10
46.758818
20
9.267332
30
0
11
0.730494359174095
21
0.733284728952422
31
0
210
0
220
0
230
1
40
0.992404
41
-1.76087626888766
42
-0.713678717691085
0
ELLIPSE
5
15D
100
AcDbEntity
8
1
62
256
6
ByLayer
370
18
48
1
60
0
100
AcDbEllipse
10
46.758818
20
9.267332
30
0
11
0.730494359174095
21
0.733284728952422
31
0
210
0
220
0
230
1
40
0.992404
41
-2.80807382008427
42
-1.76087626888766
0
ELLIPSE
5
15E
100
AcDbEntity
8
1
62
256
6
ByLayer
370
18
48
1
60
0
100
AcDbEllipse
10
46.758818
20
9.267332
30
0
11
0.730494359174095
21
0.733284728952422
31
0
210
0
220
0
230
1
40
0.992404
41
2.42791393589873
42
-2.80807382008427
0
ELLIPSE
5
15F
100
AcDbEntity
8
1
62
256
6
ByLayer
370
18
48
1
60
0
100
AcDbEllipse
10
46.837258
20
9.18919
30
0
11
-1.21743178549428
21
-1.22208217713385
31
0
210
0
220
0
230
1
40
0.992404
41
5.17665932265803E-05
42
3.14154610260871
0
ELLIPSE
5
160
100
AcDbEntity
8
1
62
256
6
ByLayer
370
13
48
1
60
0
100
AcDbEllipse
10
46.758818
20
9.267332
30
0
11
-0.917484823850762
21
-0.92098946682551
31
0
210
0
220
0
230
1
40
0.992404
41
0
42
6.28318530717959
0
ELLIPSE
5
161
100
AcDbEntity
8
1
62
256
6
ByLayer
370
18
48
1
60
0
100
AcDbEllipse
10
46.760791
20
9.265366
30
0
11
-1.21743178549428
21
-1.22208217713385
31
0
210
0
220
0
230
1
40
0.992404
41
0
42
6.28318530717959
0
ELLIPSE
5
162
100
AcDbEntity
8
1
62
256
6
ByLayer
370
18
48
1
60
0
100
AcDbEllipse
10
46.758818
20
-1.058775
30
0
11
-1.03111065114937
21
0.090218222030345
31
0
210
0
220
0
230
1
40
0.01304
41
-3.0706385528345
42
-2.02344100163786
0
ELLIPSE
5
163
100
AcDbEntity
8
1
62
256
6
ByLayer
370
18
48
1
60
0
100
AcDbEllipse
10
46.758818
20
-1.058775
30
0
11
-1.03111065114937
21
0.090218222030345
31
0
210
0
220
0
230
1
40
0.01304
41
-0.976243450441142
42
0.0709541007553397
0
ELLIPSE
5
164
100
AcDbEntity
8
1
62
256
6
ByLayer
370
18
48
1
60
0
100
AcDbEllipse
10
46.758818
20
-1.058775
30
0
11
-1.03111065114937
21
0.090218222030345
31
0
210
0
220
0
230
1
40
0.01304
41
-2.02344100163786
42
-0.976243450441142
0
ELLIPSE
5
165
100
AcDbEntity
8
1
62
256
6
ByLayer
370
18
48
1
60
0
100
AcDbEllipse
10
46.758818
20
-1.058775
30
0
11
-1.03111065114937
21
0.090218222030345
31
0
210
0
220
0
230
1
40
0.01304
41
2.16534920314859
42
-3.11900431413634
0
ELLIPSE
5
166
100
AcDbEntity
8
1
62
256
6
ByLayer
370
18
48
1
60
0
100
AcDbEllipse
10
46.758818
20
-1.058775
30
0
11
-1.03111065114937
21
0.090218222030345
31
0
210
0
220
0
230
1
40
0.01304
41
1.11815165195193
42
2.16534920314859
0
ELLIPSE
5
167
100
AcDbEntity
8
1
62
256
6
ByLayer
370
18
48
1
60
0
100
AcDbEllipse
10
46.758818
20
-1.058775
30
0
11
-1.03111065114937
21
0.090218222030345
31
0
210
0
220
0
230
1
40
0.01304
41
0.0709541007553397
42
1.11815165195193
0
ELLIPSE
5
168
100
AcDbEntity
8
1
62
256
6
ByLayer
370
13
48
1
60
0
100
AcDbEllipse
10
46.758818
20
-1.058775
30
0
11
1.29505226461929
21
-0.113312099550134
31
0
210
0
220
0
230
1
40
0.01304
41
1.6417503753913
42
-1.44241041735775
0
ELLIPSE
5
169
100
AcDbEntity
8
1
62
256
6
ByLayer
370
18
48
1
60
0
100
AcDbEllipse
10
46.758818
20
-1.058775
30
0
11
-2.03920375071593
21
0.178422496695314
31
0
210
0
220
0
230
1
40
0.01304
41
0.527287782063396
42
2.75621307306726
0
ELLIPSE
5
16A
100
AcDbEntity
8
1
62
256
6
ByLayer
370
18
48
1
60
0
100
AcDbEllipse
10
49.430961
20
-1.397112
30
0
11
1.12579938041595
21
-0.301195292880964
31
0
210
0
220
0
230
1
40
0.000465
41
-1.42386821330399
42
-0.761671679286633
0
ELLIPSE
5
16B
100
AcDbEntity
8
1
62
256
6
ByLayer
370
13
48
1
60
0
100
AcDbEllipse
10
50.868179
20
-1.206957
30
0
11
-0.326120793626492
21
-0.231614394985344
31
0
210
0
220
0
230
1
40
0.924859
41
2.61965653436832
42
-3.14157015098881
0
ELLIPSE
5
16C
100
AcDbEntity
8
1
62
256
6
ByLayer
370
18
48
1
60
0
100
AcDbEllipse
10
50.868179
20
-1.206957
30
0
11
-0.326120793626492
21
-0.231614394985344
31
0
210
0
220
0
230
1
40
0.924859
41
-3.14156982531677
42
-3.0544751112175
0
ELLIPSE
5
16D
100
AcDbEntity
8
1
62
256
6
ByLayer
370
13
48
1
60
0
100
AcDbEllipse
10
50.595504
20
-0.565745
30
0
11
-0.393222078355606
21
-0.0733239189739458
31
0
210
0
220
0
230
1
40
0.199635
41
2.88674621289353
42
-3.10480096262964
0
ELLIPSE
5
16E
100
AcDbEntity
8
1
62
256
6
ByLayer
370
18
48
1
60
0
100
AcDbEllipse
10
45.922868
20
24.786094
30
0
11
6.59105061127652
21
-33.9394295092986
31
0
210
0
220
0
230
1
40
0.006668
41
0.729373630021881
42
0.816441781588987
0
ELLIPSE
5
16F
100
AcDbEntity
8
1
62
256
6
ByLayer
370
18
48
1
60
0
100
AcDbEllipse
10
48.593462
20
-4.279535
30
0
11
1.55524648474642
21
-2.59763427049027
31
0
210
0
220
0
230
1
40
0.982475
41
2.34960759055219
42
2.52414051570512
0
ELLIPSE
5
170
100
AcDbEntity
8
1
62
256
6
ByLayer
370
18
48
1
60
0
100
AcDbEllipse
10
52.078748
20
24.344098
30
0
11
12.3851095465458
21
32.2706855139794
31
0
210
0
220
0
230
1
40
0.005341
41
2.32978790277607
42
2.37924125755208
0
ELLIPSE
5
171
100
AcDbEntity
8
1
62
256
6
ByLayer
370
13
48
1
60
0
100
AcDbEllipse
10
43.123941
20
0.101175
30
0
11
0.374685608999566
21
-0.140038189107917
31
0
210
0
220
0
230
1
40
0.309304
41
2.36373110093351
42
3.11124565502716
0
ELLIPSE
5
172
100
AcDbEntity
8
1
62
256
6
ByLayer
370
18
48
1
60
0
100
AcDbEllipse
10
36.522166
20
2.752892
30
0
11
-14.6998912335941
21
1.28618402850946
31
0
210
0
220
0
230
1
40
0.01304
41
-2.84472225054383
42
-2.78120751037229
0
ELLIPSE
5
173
100
AcDbEntity
8
1
62
256
6
ByLayer
370
18
48
1
60
0
100
AcDbEllipse
10
45.49285
20
2.029587
30
0
11
1.06679647986897
21
-0.094384263168485
31
0
210
0
220
0
230
1
40
0.012436
41
1.72221397241309
42
2.38441050055503
0
ELLIPSE
5
174
100
AcDbEntity
8
1
62
256
6
ByLayer
370
18
48
1
60
0
100
AcDbEllipse
10
44.072933
20
-0.877493
30
0
11
1.16072762262296
21
0.0980977498016982
31
0
210
0
220
0
230
1
40
0.022011
41
1.7138282364145
42
2.3760247644365
0
ELLIPSE
5
175
100
AcDbEntity
8
1
62
256
6
ByLayer
370
18
48
1
60
0
100
AcDbEllipse
10
44.40124
20
-3.814671
30
0
11
2.36259580661907
21
1.87992314473337
31
0
210
0
220
0
230
1
40
0.981501
41
0.803007346107268
42
0.977540271343287
0
ELLIPSE
5
176
100
AcDbEntity
8
1
62
256
6
ByLayer
370
18
48
1
60
0
100
AcDbEllipse
10
48.425972
20
-2.749819
30
0
11
2.02811384005638
21
0.457964314095383
31
0
210
0
220
0
230
1
40
0.928016
41
1.13864016530613
42
1.60297187105339
0
ELLIPSE
5
177
100
AcDbEntity
8
1
62
256
6
ByLayer
370
18
48
1
60
0
100
AcDbEllipse
10
37.015949
20
1.723965
30
0
11
14.6615759386017
21
-4.05538599499643
31
0
210
0
220
0
230
1
40
0.095261
41
0.23513071313629
42
0.429446856947619
0
POINT
5
70
100
AcDbEntity
8
1
62
256
6
ByLayer
370
18
48
1
60
0
100
AcDbPoint
10
0
20
0
30
0
39
0
210
0
220
0
230
1
50
360
0
POINT
5
72
100
AcDbEntity
8
81
62
256
6
ByLayer
370
18
48
1
60
0
100
AcDbPoint
10
51.5
20
12.5
30
0
39
0
210
0
220
0
230
1
50
360
0
POINT
5
74
100
AcDbEntity
8
80
62
256
6
ByLayer
370
18
48
1
60
0
100
AcDbPoint
10
0
20
0
30
0
39
0
210
0
220
0
230
1
50
360
0
POINT
5
76
100
AcDbEntity
8
1
62
256
6
ByLayer
370
18
48
1
60
1
100
AcDbPoint
10
-98.5
20
12.5
30
0
39
0
210
0
220
0
230
1
50
360
0
SPLINE
5
178
100
AcDbEntity
8
1
62
256
6
ByLayer
370
18
48
1
60
0
100
AcDbSpline
70
4
71
3
72
11
73
7
40
0
40
0
40
0
40
0
40
0.279720318792018
40
0.500000000000206
40
0.720279681208262
40
1
40
1
40
1
40
1
41
1
10
39.2239340820246
20
-10.9689328066824
30
0
41
1
10
39.2647034702464
20
-10.9678791559113
30
0
41
1
10
39.337582453846
20
-10.9667112219817
30
0
41
1
10
39.4425931082645
20
-10.9665606769876
30
0
41
1
10
39.5475829994871
20
-10.9686542257078
30
0
41
1
10
39.62042789586
20
-10.9711704515712
30
0
41
1
10
39.6611708085608
20
-10.9729782846894
30
0
0
SPLINE
5
179
100
AcDbEntity
8
1
62
256
6
ByLayer
370
18
48
1
60
0
100
AcDbSpline
70
4
71
3
72
11
73
7
40
0
40
0
40
0
40
0
40
0.279720318791738
40
0.499999999999795
40
0.720279681207982
40
1
40
1
40
1
40
1
41
1
10
39.6611708085608
20
10.9729782846895
30
0
41
1
10
39.62042789586
20
10.9711704515713
30
0
41
1
10
39.5475829994872
20
10.9686542257079
30
0
41
1
10
39.4425931082645
20
10.9665606769878
30
0
41
1
10
39.337582453846
20
10.9667112219818
30
0
41
1
10
39.2647034702463
20
10.9678791559114
30
0
41
1
10
39.2239340820245
20
10.9689328066825
30
0
0
SPLINE
5
17A
100
AcDbEntity
8
1
62
256
6
ByLayer
370
18
48
1
60
0
100
AcDbSpline
70
4
71
1
72
4
73
2
40
0
40
0
40
1
40
1
41
1
10
51.3267478392739
20
1.24367194191453
30
0
41
1
10
51.4467030417482
20
1.93955412412042
30
0
0
SPLINE
5
17B
100
AcDbEntity
8
1
62
256
6
ByLayer
370
18
48
1
60
0
100
AcDbSpline
70
4
71
2
72
6
73
3
40
0
40
0
40
0
40
1
40
1
40
1
41
1
10
51.19389983806
20
0.98541807165337
30
0
41
1
10
51.2172046439955
20
1.01811210558488
30
0
41
1
10
51.2392034092779
20
1.04931455091535
30
0
0
SPLINE
5
17C
100
AcDbEntity
8
1
62
256
6
ByLayer
370
18
48
1
60
0
100
AcDbSpline
70
4
71
3
72
12
73
8
40
0
40
0
40
0
40
0
40
0.222392610166836
40
0.459030047750914
40
0.641995946829397
40
0.886332288495283
40
1
40
1
40
1
40
1
41
1
10
51.2417929225783
20
1.0534952140184
30
0
41
1
10
51.2462502400445
20
1.0593299674993
30
0
41
1
10
51.2568568756792
20
1.07481955377712
30
0
41
1
10
51.2753180683814
20
1.10317340931446
30
0
41
1
10
51.2990433994815
20
1.14787711828497
30
0
41
1
10
51.3196471188443
20
1.19733934666279
30
0
41
1
10
51.3249642252253
20
1.23236142073651
30
0
41
1
10
51.3261828951614
20
1.24391382616737
30
0
0
SPLINE
5
17D
100
AcDbEntity
8
1
62
256
6
ByLayer
370
18
48
1
60
0
100
AcDbSpline
70
4
71
1
72
4
73
2
40
0
40
0
40
1
40
1
41
1
10
51.4467075558815
20
-1.92965673622746
30
0
41
1
10
51.3267516531009
20
-1.23354320722316
30
0
0
SPLINE
5
17E
100
AcDbEntity
8
1
62
256
6
ByLayer
370
18
48
1
60
0
100
AcDbSpline
70
4
71
1
72
4
73
2
40
0
40
0
40
1
40
1
41
1
10
42.23217736286
20
-0.413591337203101
30
0
41
1
10
41.9936277490992
20
-1.07315867259997
30
0
0
SPLINE
5
17F
100
AcDbEntity
8
1
62
256
6
ByLayer
370
18
48
1
60
0
100
AcDbSpline
70
4
71
1
72
4
73
2
40
0
40
0
40
1
40
1
41
1
10
46.1255544729851
20
-1.03251430668378
30
0
41
1
10
47.098671137703
20
-1.12884092831271
30
0
0
SPLINE
5
180
100
AcDbEntity
8
1
62
256
6
ByLayer
370
18
48
1
60
0
100
AcDbSpline
70
4
71
3
72
13
73
9
40
0
40
0
40
0
40
0
40
0.0374500595259406
40
0.270107337847969
40
0.445529277372931
40
0.594060523250278
40
0.806862947339793
40
1
40
1
40
1
40
1
41
1
10
51.327398365689
20
-1.23370476635174
30
0
41
1
10
51.3270883307721
20
-1.22993343086189
30
0
41
1
10
51.3243367144476
20
-1.20300778434604
30
0
41
1
10
51.3087439559878
20
-1.16118161637783
30
0
41
1
10
51.2884724436543
20
-1.11660303563802
30
0
41
1
10
51.2705476412526
20
-1.08569267817585
30
0
41
1
10
51.2551108669868
20
-1.06183435710213
30
0
41
1
10
51.2454178428678
20
-1.04777082193401
30
0
41
1
10
51.241242205745
20
-1.04210207739753
30
0
0
SPLINE
5
181
100
AcDbEntity
8
1
62
256
6
ByLayer
370
18
48
1
60
0
100
AcDbSpline
70
4
71
2
72
6
73
3
40
0
40
0
40
0
40
1
40
1
40
1
41
1
10
51.2396233513552
20
-1.03950856526369
30
0
41
1
10
51.2176159963809
20
-1.00817205432398
30
0
41
1
10
51.1942998302907
20
-0.975343074332713
30
0
0
SPLINE
5
182
100
AcDbEntity
8
1
62
256
6
ByLayer
370
18
48
1
60
0
100
AcDbSpline
70
4
71
3
72
10
73
6
40
0
40
0
40
0
40
0
40
0.330714791553483
40
0.661400828445552
40
1
40
1
40
1
40
1
41
1
10
42.0043600358896
20
-1.08573354460347
30
0
41
1
10
42.1289638640861
20
-1.07490575826301
30
0
41
1
10
42.3781529586443
20
-1.05323927396761
30
0
41
1
10
42.7549098045213
20
-1.02046985902852
30
0
41
1
10
43.0070238057184
20
-0.998479766774736
30
0
41
1
10
43.1345635546271
20
-0.987344159316478
30
0
0
SPLINE
5
183
100
AcDbEntity
8
1
62
256
6
ByLayer
370
18
48
1
60
0
100
AcDbSpline
70
4
71
3
72
31
73
27
40
0
40
0
40
0
40
0
40
0.0689322127406603
40
0.0689322127406603
40
0.137864425481321
40
0.206796638221981
40
0.206796638221981
40
0.275728850962641
40
0.275728850962641
40
0.413593276443963
40
0.413593276443963
40
0.482525489184625
40
0.482525489184625
40
0.551457701925286
40
0.551457701925286
40
0.689322127406604
40
0.689322127406604
40
0.758254340147261
40
0.758254340147261
40
0.827186552887918
40
0.827186552887918
40
0.965050978369236
40
0.965050978369236
40
0.999517084739565
40
0.999517084739565
40
1
40
1
40
1
40
1
41
1
10
50.4196688443404
20
-1.95858132168817
30
0
41
1
10
50.4214915671253
20
-1.975157370023
30
0
41
1
10
50.4233522180814
20
-1.99036740017279
30
0
41
1
10
50.4270574901974
20
-2.01733068484739
30
0
41
1
10
50.4307619197374
20
-2.04100199183091
30
0
41
1
10
50.4344637397807
20
-2.05825246015046
30
0
41
1
10
50.4381645147498
20
-2.07228399991298
30
0
41
1
10
50.4400174164199
20
-2.0776966239216
30
0
41
1
10
50.4455568865334
20
-2.08892116102753
30
0
41
1
10
50.4491316693045
20
-2.08960098807087
30
0
41
1
10
50.4543353509923
20
-2.08089191779426
30
0
41
1
10
50.4560433512299
20
-2.07635584814325
30
0
41
1
10
50.4594077744197
20
-2.06396155919747
30
0
41
1
10
50.4610686138733
20
-2.05605974466722
30
0
41
1
10
50.4658770956243
20
-2.02782472812147
30
0
41
1
10
50.4688847579037
20
-2.00292442658363
30
0
41
1
10
50.4731221623413
20
-1.95661751447321
30
0
41
1
10
50.4744886402622
20
-1.93967927536629
30
0
41
1
10
50.4771297842473
20
-1.90270071388478
30
0
41
1
10
50.4783844655514
20
-1.88293908481965
30
0
41
1
10
50.4819582918988
20
-1.82002173429414
30
0
41
1
10
50.4840906082248
20
-1.77324107108973
30
0
41
1
10
50.4864534264612
20
-1.70865358590349
30
0
41
1
10
50.4869107257455
20
-1.69542795547865
30
0
41
1
10
50.4873588028099
20
-1.68169833302187
30
0
41
1
10
50.4873649910669
20
-1.68150856219812
30
0
41
1
10
50.4873711761764
20
-1.68131873269125
30
0
0
SPLINE
5
184
100
AcDbEntity
8
1
62
256
6
ByLayer
370
18
48
1
60
0
100
AcDbSpline
70
4
71
3
72
30
73
26
40
0
40
0
40
0
40
0
40
0.0646299419614024
40
0.0646299419614024
40
0.136581484887446
40
0.136581484887446
40
0.20853302781349
40
0.20853302781349
40
0.280484570739533
40
0.280484570739533
40
0.424387656591619
40
0.424387656591619
40
0.568290742443706
40
0.568290742443706
40
0.712193828295792
40
0.712193828295792
40
0.784145371221835
40
0.784145371221835
40
0.820121142684867
40
0.820121142684867
40
0.856096914147898
40
0.856096914147898
40
0.928048457073949
40
0.928048457073949
40
1
40
1
40
1
40
1
41
1
10
42.3654183952471
20
11.2501946951308
30
0
41
1
10
42.3482246722319
20
11.2467064222296
30
0
41
1
10
42.3310570372683
20
11.2432107257425
30
0
41
1
10
42.2947987412485
20
11.235797334705
30
0
41
1
10
42.2756699584709
20
11.2318654404529
30
0
41
1
10
42.2379236336126
20
11.2241081375982
30
0
41
1
10
42.2193463198572
20
11.2202941592687
30
0
41
1
10
42.1832379367321
20
11.2129105318571
30
0
41
1
10
42.1656653953146
20
11.209328978212
30
0
41
1
10
42.1145185361053
20
11.1989226522133
30
0
41
1
10
42.0832467665218
20
11.1925828019354
30
0
41
1
10
42.0263952165762
20
11.1809692745334
30
0
41
1
10
42.0007637515176
20
11.1756858814309
30
0
41
1
10
41.9557754806237
20
11.1661790754949
30
0
41
1
10
41.937169090798
20
11.162114143908
30
0
41
1
10
41.9153268400058
20
11.1570320480907
30
0
41
1
10
41.9090498871652
20
11.1555054650659
30
0
41
1
10
41.9011864210482
20
11.1534676908055
30
0
41
1
10
41.8988243815257
20
11.1528305469561
30
0
41
1
10
41.8946324225809
20
11.1516419433187
30
0
41
1
10
41.8928124852765
20
11.1510926394989
30
0
41
1
10
41.8878259965086
20
11.149498348775
30
0
41
1
10
41.8850703064874
20
11.1484941186443
30
0
41
1
10
41.8789918710098
20
11.1462162811361
30
0
41
1
10
41.8758455061531
20
11.144982819628
30
0
41
1
10
41.8727114250981
20
11.1436818782674
30
0
0
SPLINE
5
185
100
AcDbEntity
8
1
62
256
6
ByLayer
370
18
48
1
60
0
100
AcDbSpline
70
4
71
3
72
23
73
19
40
0
40
0
40
0
40
0
40
0.292013576910995
40
0.292013576910995
40
0.365016971138741
40
0.365016971138741
40
0.438020365366487
40
0.438020365366487
40
0.584027153821918
40
0.657030548049655
40
0.657030548049655
40
0.730033942277392
40
0.730033942277392
40
0.876040730732852
40
0.876040730732852
40
0.949044124960582
40
0.949044124960582
40
1
40
1
40
1
40
1
41
1
10
42.550057201493
20
8.11976383832753
30
0
41
1
10
42.5234156447801
20
8.15861722523144
30
0
41
1
10
42.5003007275407
20
8.19952244708139
30
0
41
1
10
42.4765208322362
20
8.25361780530557
30
0
41
1
10
42.4720117101718
20
8.26461827566719
30
0
41
1
10
42.4636096459826
20
8.28674672155802
30
0
41
1
10
42.4597147365849
20
8.29787360035083
30
0
41
1
10
42.4489616321392
20
8.33144461329113
30
0
41
1
10
42.4400673025904
20
8.36539563123358
30
0
41
1
10
42.4341144227866
20
8.39994323546449
30
0
41
1
10
42.4308285987612
20
8.42311248389899
30
0
41
1
10
42.4295268493383
20
8.434788749281
30
0
41
1
10
42.4267212384246
20
8.46957894203463
30
0
41
1
10
42.4262882237239
20
8.49258898973463
30
0
41
1
10
42.4278319868724
20
8.52679411345387
30
0
41
1
10
42.4287130823171
20
8.53814387451841
30
0
41
1
10
42.4308491362134
20
8.5573180161139
30
0
41
1
10
42.4319151246627
20
8.56519228579262
30
0
41
1
10
42.433163102535
20
8.57299955729268
30
0
0
SPLINE
5
186
100
AcDbEntity
8
1
62
256
6
ByLayer
370
18
48
1
60
0
100
AcDbSpline
70
4
71
3
72
12
73
8
40
0
40
0
40
0
40
0
40
0.302162313459667
40
0.302162313459667
40
0.651081156729834
40
0.651081156729834
40
1
40
1
40
1
40
1
41
1
10
42.4742213972619
20
7.98614746847888
30
0
41
1
10
42.4821407793744
20
7.99915552661976
30
0
41
1
10
42.4899714787041
20
8.01229045838856
30
0
41
1
10
42.5066419713118
20
8.04099551140838
30
0
41
1
10
42.5154401026441
20
8.05669836122536
30
0
41
1
10
42.5328459489234
20
8.0883697006671
30
0
41
1
10
42.5414608461222
20
8.10426889268084
30
0
41
1
10
42.5500572014929
20
8.1197638383275
30
0
0
SPLINE
5
187
100
AcDbEntity
8
1
62
256
6
ByLayer
370
18
48
1
60
0
100
AcDbSpline
70
4
71
3
72
10
73
6
40
0
40
0
40
0
40
0
40
0.614959969798006
40
0.614959969798006
40
1
40
1
40
1
40
1
41
1
10
43.0347966964638
20
-11.3077631580913
30
0
41
1
10
43.0306399418538
20
-11.272844976013
30
0
41
1
10
43.0268601906627
20
-11.2373291519026
30
0
41
1
10
43.0213539958682
20
-11.1795399680005
30
0
41
1
10
43.0193819411485
20
-11.1572434984575
30
0
41
1
10
43.0175502556897
20
-11.1349040598815
30
0
0
SPLINE
5
188
100
AcDbEntity
8
1
62
256
6
ByLayer
370
18
48
1
60
0
100
AcDbSpline
70
4
71
3
72
12
73
8
40
0
40
0
40
0
40
0
40
0.604001458123763
40
0.604001458123763
40
0.906002187185645
40
0.906002187185645
40
1
40
1
40
1
40
1
41
1
10
50.4168427641707
20
-2.06625653381029
30
0
41
1
10
50.4168427641707
20
-1.98472776737138
30
0
41
1
10
50.4168427641707
20
-1.90320192555364
30
0
41
1
10
50.4168427641706
20
-1.78090906234755
30
0
41
1
10
50.4168427641706
20
-1.74014614036817
30
0
41
1
10
50.4168427641706
20
-1.68669274459664
30
0
41
1
10
50.4168427641706
20
-1.67400066268384
30
0
41
1
10
50.4168427641706
20
-1.66131753381009
30
0
0
SPLINE
5
189
100
AcDbEntity
8
1
62
256
6
ByLayer
370
18
48
1
60
0
100
AcDbSpline
70
4
71
3
72
12
73
8
40
0
40
0
40
0
40
0
40
0.33408527554063
40
0.33408527554063
40
0.668170551081259
40
0.668170551081259
40
1
40
1
40
1
40
1
41
1
10
46.2779083979204
20
-1.21285084220904
30
0
41
1
10
46.2375884230496
20
-1.18424171311605
30
0
41
1
10
46.1964374748213
20
-1.15722479239982
30
0
41
1
10
46.1124600153667
20
-1.10637712811723
30
0
41
1
10
46.0695925638797
20
-1.08262107132731
30
0
41
1
10
45.9823385498104
20
-1.03867062033133
30
0
41
1
10
45.9379680937951
20
-1.01844595893931
30
0
41
1
10
45.8927658824369
20
-0.999776447427308
30
0
0
SPLINE
5
18A
100
AcDbEntity
8
1
62
256
6
ByLayer
370
18
48
1
60
0
100
AcDbSpline
70
4
71
3
72
16
73
12
40
0
40
0
40
0
40
0
40
0.250000000000037
40
0.250000000000037
40
0.500000000000074
40
0.500000000000074
40
0.625000000000024
40
0.625000000000024
40
0.749999999999974
40
0.749999999999974
40
1
40
1
40
1
40
1
41
1
10
43.618369934622
20
-11.1494979590704
30
0
41
1
10
43.5719626393005
20
-11.1479753574495
30
0
41
1
10
43.5265056642176
20
-11.1462860437555
30
0
41
1
10
43.43730763774
20
-11.1425809466408
30
0
41
1
10
43.3935841801718
20
-11.1405819012246
30
0
41
1
10
43.3294677061191
20
-11.1376512422691
30
0
41
1
10
43.3083367935313
20
-11.1366898607476
30
0
41
1
10
43.2672858249413
20
-11.1348594571719
30
0
41
1
10
43.2472690028717
20
-11.1339846165474
30
0
41
1
10
43.1887041216324
20
-11.1315293298816
30
0
41
1
10
43.1516228297002
20
-11.1301080187359
30
0
41
1
10
43.1166345666945
20
-11.1291431053985
30
0
0
SPLINE
5
18B
100
AcDbEntity
8
1
62
256
6
ByLayer
370
18
48
1
60
0
100
AcDbSpline
70
4
71
3
72
10
73
6
40
0
40
0
40
0
40
0
40
0.5
40
0.5
40
1
40
1
40
1
40
1
41
1
10
43.618369934622
20
-11.1494979590704
30
0
41
1
10
43.6752637452921
20
-11.1513646183478
30
0
41
1
10
43.7314722608622
20
-11.1546176251471
30
0
41
1
10
43.8428275727706
20
-11.16326898915
30
0
41
1
10
43.8979826927106
20
-11.1686492860354
30
0
41
1
10
43.9527029710007
20
-11.1748820456208
30
0
0
SPLINE
5
18C
100
AcDbEntity
8
1
62
256
6
ByLayer
370
18
48
1
60
0
100
AcDbSpline
70
4
71
3
72
24
73
20
40
0
40
0
40
0
40
0
40
0.124999999999945
40
0.124999999999945
40
0.187499999999953
40
0.187499999999953
40
0.249999999999962
40
0.249999999999962
40
0.499999999999995
40
0.499999999999995
40
0.625000000000047
40
0.625000000000047
40
0.687500000000039
40
0.687500000000039
40
0.750000000000031
40
0.750000000000031
40
0.875000000000016
40
0.875000000000016
40
1
40
1
40
1
40
1
41
1
10
43.9527029710007
20
-11.1748820456204
30
0
41
1
10
43.9999381616785
20
-11.1776460091992
30
0
41
1
10
44.0472321134253
20
-11.1808796435818
30
0
41
1
10
44.1182572954567
20
-11.1863952289127
30
0
41
1
10
44.1419893487858
20
-11.1883487554411
30
0
41
1
10
44.1892093109238
20
-11.1924501672335
30
0
41
1
10
44.2127044374083
20
-11.1945981211714
30
0
41
1
10
44.3296227206288
20
-11.2058041293623
30
0
41
1
10
44.4213977169982
20
-11.216245344393
30
0
41
1
10
44.5564463549451
20
-11.2339385161199
30
0
41
1
10
44.6010224377859
20
-11.2401777522447
30
0
41
1
10
44.6671831031767
20
-11.2500543297838
30
0
41
1
10
44.6891108506287
20
-11.2534322884994
30
0
41
1
10
44.7324016833736
20
-11.2603122936562
30
0
41
1
10
44.7538045413855
20
-11.2638201675536
30
0
41
1
10
44.8172622968058
20
-11.2745455108489
30
0
41
1
10
44.8585709917895
20
-11.2819637953988
30
0
41
1
10
44.9389773011615
20
-11.2973457539506
30
0
41
1
10
44.9780782647891
20
-11.3053088625218
30
0
41
1
10
45.0158737315443
20
-11.3135666974722
30
0
0
SPLINE
5
18D
100
AcDbEntity
8
1
62
256
6
ByLayer
370
18
48
1
60
0
100
AcDbSpline
70
4
71
3
72
8
73
4
40
0
40
0
40
0
40
0
40
1
40
1
40
1
40
1
41
1
10
50.2406562861805
20
-10.8639286301265
30
0
41
1
10
50.3491094887075
20
-10.5861073583585
30
0
41
1
10
50.443550253704
20
-10.3043620076465
30
0
41
1
10
50.5242666633896
20
-10.0187732532741
30
0
0
SPLINE
5
18E
100
AcDbEntity
8
1
62
256
6
ByLayer
370
18
48
1
60
0
100
AcDbSpline
70
4
71
3
72
30
73
26
40
0
40
0
40
0
40
0
40
0.12500000000002
40
0.25000000000004
40
0.25000000000004
40
0.281250000000047
40
0.281250000000047
40
0.312500000000054
40
0.375000000000071
40
0.375000000000071
40
0.500000000000104
40
0.500000000000104
40
0.562500000000097
40
0.562500000000097
40
0.62500000000009
40
0.62500000000009
40
0.750000000000025
40
0.750000000000025
40
0.781250000000021
40
0.781250000000021
40
0.812500000000018
40
0.812500000000018
40
0.875000000000012
40
0.875000000000012
40
1
40
1
40
1
40
1
41
1
10
50.2406562861805
20
-10.8639286301265
30
0
41
1
10
50.2176925391763
20
-10.9227541626936
30
0
41
1
10
50.1631297204503
20
-11.035177500743
30
0
41
1
10
50.0919214738281
20
-11.1375238866108
30
0
41
1
10
50.0420208119601
20
-11.1982239989431
30
0
41
1
10
50.0317488796787
20
-11.210221226313
30
0
41
1
10
50.0108284617279
20
-11.2336866386888
30
0
41
1
10
49.9788400976899
20
-11.268147909722
30
0
41
1
10
49.9450589062292
20
-11.3004354769726
30
0
41
1
10
49.8751442492
20
-11.3621586096241
30
0
41
1
10
49.8254126365709
20
-11.3995223053799
30
0
41
1
10
49.7460219042045
20
-11.449756222425
30
0
41
1
10
49.7186445841168
20
-11.4655779533062
30
0
41
1
10
49.6631608168865
20
-11.4947351832252
30
0
41
1
10
49.6349818239369
20
-11.5081280798749
30
0
41
1
10
49.5491628571982
20
-11.5448292039292
30
0
41
1
10
49.4902486149379
20
-11.5646808054081
30
0
41
1
10
49.4144569669729
20
-11.5836662735892
30
0
41
1
10
49.3991905784262
20
-11.5871702426683
30
0
41
1
10
49.3684385956416
20
-11.5935835556815
30
0
41
1
10
49.3529244802767
20
-11.5964969797575
30
0
41
1
10
49.3063701030739
20
-11.6042783682901
30
0
41
1
10
49.2752597156677
20
-11.6082060812096
30
0
41
1
10
49.1817103112239
20
-11.6162803724037
30
0
41
1
10
49.1190543914302
20
-11.6167408662995
30
0
41
1
10
49.0561035941985
20
-11.6121901600665
30
0
0
SPLINE
5
18F
100
AcDbEntity
8
1
62
256
6
ByLayer
370
18
48
1
60
0
100
AcDbSpline
70
4
71
3
72
10
73
6
40
0
40
0
40
0
40
0
40
0.756574397561464
40
0.756574397561464
40
1
40
1
40
1
40
1
41
1
10
42.4867174111677
20
-11.2873955260789
30
0
41
1
10
42.448006927449
20
-11.2787336011546
30
0
41
1
10
42.4095589527803
20
-11.2700660996289
30
0
41
1
10
42.358939956148
20
-11.2585579900244
30
0
41
1
10
42.3466323057617
20
-11.2557523007476
30
0
41
1
10
42.3343331655351
20
-11.2529408615673
30
0
0
SPLINE
5
190
100
AcDbEntity
8
1
62
256
6
ByLayer
370
18
48
1
60
0
100
AcDbSpline
70
4
71
3
72
34
73
30
40
0
40
0
40
0
40
0
40
0.0625000000000065
40
0.0625000000000065
40
0.125000000000013
40
0.125000000000013
40
0.250000000000027
40
0.250000000000027
40
0.312500000000045
40
0.312500000000045
40
0.375000000000063
40
0.375000000000063
40
0.500000000000098
40
0.500000000000098
40
0.562500000000116
40
0.562500000000116
40
0.59375000000012
40
0.59375000000012
40
0.625000000000124
40
0.625000000000124
40
0.750000000000125
40
0.750000000000125
40
0.78125000000011
40
0.78125000000011
40
0.812500000000094
40
0.812500000000094
40
0.875000000000063
40
0.875000000000063
40
1
40
1
40
1
40
1
41
1
10
43.0347966964638
20
-11.3077631580915
30
0
41
1
10
43.0195330429019
20
-11.3016713933601
30
0
41
1
10
43.0050745168826
20
-11.2956257758276
30
0
41
1
10
42.9778076004554
20
-11.2836112138939
30
0
41
1
10
42.9649857548829
20
-11.2776354965495
30
0
41
1
10
42.9292316245058
20
-11.2598491324581
30
0
41
1
10
42.9095164421646
20
-11.2484521670796
30
0
41
1
10
42.8865742980748
20
-11.2320410247692
30
0
41
1
10
42.8800629509402
20
-11.2266897407864
30
0
41
1
10
42.8693204240312
20
-11.2162113549161
30
0
41
1
10
42.8650774834462
20
-11.2110612529501
30
0
41
1
10
42.8559702992983
20
-11.1962261033876
30
0
41
1
10
42.8545510701067
20
-11.1870629498944
30
0
41
1
10
42.8593200913937
20
-11.1743909252249
30
0
41
1
10
42.8620720937619
20
-11.170348575252
30
0
41
1
10
42.8680766606208
20
-11.1645877419015
30
0
41
1
10
42.8703911492787
20
-11.1627215419389
30
0
41
1
10
42.8756115037018
20
-11.1591408179946
30
0
41
1
10
42.8785234071951
20
-11.1574209791517
30
0
41
1
10
42.8945998076299
20
-11.1491824574938
30
0
41
1
10
42.912367295836
20
-11.1437625215452
30
0
41
1
10
42.940198457653
20
-11.1383797771058
30
0
41
1
10
42.9460472255837
20
-11.1373732152485
30
0
41
1
10
42.9583214642149
20
-11.1355055662419
30
0
41
1
10
42.9647552299205
20
-11.1346442045749
30
0
41
1
10
42.9847141620972
20
-11.1323151635568
30
0
41
1
10
42.9989593053375
20
-11.1310900944583
30
0
41
1
10
43.0445502747891
20
-11.1284541873507
30
0
41
1
10
43.078787342217
20
-11.1280993470479
30
0
41
1
10
43.1166345666945
20
-11.1291431053984
30
0
0
SPLINE
5
191
100
AcDbEntity
8
1
62
256
6
ByLayer
370
18
48
1
60
0
100
AcDbSpline
70
4
71
3
72
40
73
36
40
0
40
0
40
0
40
0
40
0.0161220072827776
40
0.0161220072827776
40
0.0608437342244708
40
0.0608437342244708
40
0.105565461166164
40
0.105565461166164
40
0.150287188107857
40
0.150287188107857
40
0.195008915049551
40
0.284452368932938
40
0.284452368932938
40
0.463339276699714
40
0.463339276699714
40
0.642226184466489
40
0.642226184466489
40
0.686947911408181
40
0.686947911408181
40
0.709308774879027
40
0.709308774879027
40
0.731669638349873
40
0.731669638349873
40
0.754030501820718
40
0.754030501820718
40
0.776391365291564
40
0.776391365291564
40
0.821113092233253
40
0.821113092233253
40
0.910556546116631
40
0.910556546116631
40
0.955278273058316
40
0.977639136529158
40
0.977639136529158
40
1
40
1
40
1
40
1
41
1
10
41.726550084541
20
8.66432983622465
30
0
41
1
10
41.7255056375496
20
8.67771717045258
30
0
41
1
10
41.7245855033983
20
8.69111286774996
30
0
41
1
10
41.72158621386
20
8.74163233045566
30
0
41
1
10
41.7203739637168
20
8.77876016625991
30
0
41
1
10
41.7198581398741
20
8.85300569470924
30
0
41
1
10
41.7205698435475
20
8.89012330639086
30
0
41
1
10
41.7222500676064
20
8.96435731314047
30
0
41
1
10
41.7229951705053
20
9.00147491290159
30
0
41
1
10
41.7245384608018
20
9.0757099691269
30
0
41
1
10
41.7269600840833
20
9.18706219500707
30
0
41
1
10
41.7296609135523
20
9.29841346624168
30
0
41
1
10
41.7352711805178
20
9.5211154383295
30
0
41
1
10
41.7392591619537
20
9.66957730590795
30
0
41
1
10
41.747315173982
20
9.96649903089572
30
0
41
1
10
41.7513554342539
20
10.1149624009692
30
0
41
1
10
41.7565169765464
20
10.3005295365325
30
0
41
1
10
41.7575738507661
20
10.3376402239871
30
0
41
1
10
41.7590879188772
20
10.3933143039525
30
0
41
1
10
41.7595753584228
20
10.4118742770747
30
0
41
1
10
41.7604938291333
20
10.449000580657
30
0
41
1
10
41.760903373279
20
10.467569329217
30
0
41
1
10
41.7618795862362
20
10.5046891517928
30
0
41
1
10
41.7624883004686
20
10.5232354940832
30
0
41
1
10
41.7641803924649
20
10.5602747685775
30
0
41
1
10
41.7652421049201
20
10.5787701389876
30
0
41
1
10
41.7690340671837
20
10.6341879703118
30
0
41
1
10
41.7723578019381
20
10.6710436526587
30
0
41
1
10
41.7851223673685
20
10.781296375737
30
0
41
1
10
41.7974477665261
20
10.8543688328847
30
0
41
1
10
41.8214159174015
20
10.9633607847973
30
0
41
1
10
41.8347968669344
20
11.0176995530566
30
0
41
1
10
41.8503253116772
20
11.0717966033184
30
0
41
1
10
41.8611619796753
20
11.1078067785878
30
0
41
1
10
41.8668312956756
20
11.1258100240114
30
0
41
1
10
41.8727114250981
20
11.1436818782674
30
0
0
SPLINE
5
192
100
AcDbEntity
8
1
62
256
6
ByLayer
370
18
48
1
60
0
100
AcDbSpline
70
4
71
3
72
8
73
4
40
0
40
0
40
0
40
0
40
1
40
1
40
1
40
1
41
1
10
41.8727114250982
20
11.1436818782674
30
0
41
1
10
41.7853749487526
20
11.1238638905376
30
0
41
1
10
41.6980348880774
20
11.1040382335866
30
0
41
1
10
41.6106979130683
20
11.0842087857256
30
0
0
SPLINE
5
193
100
AcDbEntity
8
1
62
256
6
ByLayer
370
18
48
1
60
0
100
AcDbSpline
70
4
71
3
72
8
73
4
40
0
40
0
40
0
40
0
40
1
40
1
40
1
40
1
41
1
10
41.6106979130683
20
11.0842087857256
30
0
41
1
10
41.4910548018054
20
11.0570443821442
30
0
41
1
10
41.369951070656
20
11.0410374073993
30
0
41
1
10
41.2474049219941
20
11.0361674542953
30
0
0
SPLINE
5
194
100
AcDbEntity
8
1
62
256
6
ByLayer
370
18
48
1
60
0
100
AcDbSpline
70
4
71
3
72
31
73
27
40
0
40
0
40
0
40
0
40
0.249999999999987
40
0.249999999999987
40
0.37499999999998
40
0.37499999999998
40
0.437499999999952
40
0.437499999999952
40
0.499999999999924
40
0.499999999999924
40
0.562499999999896
40
0.562499999999896
40
0.593749999999882
40
0.593749999999882
40
0.624999999999868
40
0.624999999999868
40
0.68749999999989
40
0.749999999999912
40
0.749999999999912
40
0.812499999999934
40
0.812499999999934
40
0.874999999999956
40
0.874999999999956
40
0.937499999999978
40
0.937499999999978
40
1
40
1
40
1
40
1
41
1
10
41.2474049219941
20
11.0361674542953
30
0
41
1
10
41.1098693278257
20
11.0307018243995
30
0
41
1
10
40.9723590099503
20
11.0252287175426
30
0
41
1
10
40.7661674975525
20
11.01701197074
30
0
41
1
10
40.6974493581935
20
11.0142718213491
30
0
41
1
10
40.5943956656461
20
11.0101597140561
30
0
41
1
10
40.5600517097088
20
11.0087895280129
30
0
41
1
10
40.4913559124524
20
11.0060443162328
30
0
41
1
10
40.4569971205972
20
11.0046674449369
30
0
41
1
10
40.3881627557208
20
11.0018839619987
30
0
41
1
10
40.3536871119345
20
11.0004775110119
30
0
41
1
10
40.3018144908183
20
10.9983304631808
30
0
41
1
10
40.2844626517935
20
10.9976070915009
30
0
41
1
10
40.2498685141503
20
10.9961522295729
30
0
41
1
10
40.2326550287055
20
10.995421945238
30
0
41
1
10
40.1812932342714
20
10.9932202880676
30
0
41
1
10
40.1135334473977
20
10.9902571963747
30
0
41
1
10
40.0471517975004
20
10.9872121728437
30
0
41
1
10
39.9814822299859
20
10.9841003979332
30
0
41
1
10
39.948838907688
20
10.9825022448745
30
0
41
1
10
39.8859164463634
20
10.9792795526234
30
0
41
1
10
39.8554952622983
20
10.9776479137166
30
0
41
1
10
39.7966260839013
20
10.9743021448143
30
0
41
1
10
39.7681728987662
20
10.9725880828781
30
0
41
1
10
39.7132000457597
20
10.9690294785855
30
0
41
1
10
39.6866796191765
20
10.9671851362858
30
0
41
1
10
39.6611708085608
20
10.9652464903339
30
0
0
SPLINE
5
195
100
AcDbEntity
8
1
62
256
6
ByLayer
370
18
48
1
60
0
100
AcDbSpline
70
4
71
3
72
70
73
66
40
0
40
0
40
0
40
0
40
0.0624999999999544
40
0.0624999999999544
40
0.078124999999942
40
0.078124999999942
40
0.0937499999999296
40
0.0937499999999296
40
0.124999999999905
40
0.124999999999905
40
0.187499999999848
40
0.187499999999848
40
0.203124999999838
40
0.203124999999838
40
0.218749999999829
40
0.249999999999823
40
0.281249999999816
40
0.281249999999816
40
0.296874999999813
40
0.296874999999813
40
0.31249999999981
40
0.31249999999981
40
0.374999999999781
40
0.374999999999781
40
0.406249999999766
40
0.406249999999766
40
0.421874999999758
40
0.421874999999758
40
0.437499999999751
40
0.437499999999751
40
0.49999999999972
40
0.49999999999972
40
0.531249999999715
40
0.531249999999715
40
0.546874999999712
40
0.546874999999712
40
0.562499999999709
40
0.562499999999709
40
0.624999999999716
40
0.624999999999716
40
0.640624999999722
40
0.640624999999722
40
0.656249999999728
40
0.656249999999728
40
0.687499999999741
40
0.687499999999741
40
0.749999999999748
40
0.749999999999748
40
0.765624999999761
40
0.765624999999761
40
0.781249999999774
40
0.812499999999813
40
0.843749999999852
40
0.843749999999852
40
0.859374999999871
40
0.859374999999871
40
0.874999999999891
40
0.874999999999891
40
0.937499999999948
40
0.937499999999948
40
0.968749999999974
40
0.968749999999974
40
0.984374999999987
40
0.984374999999987
40
1
40
1
40
1
40
1
41
1
10
48.8205324075614
20
7.69415612694097
30
0
41
1
10
48.819252410225
20
7.68100731059947
30
0
41
1
10
48.8091021427969
20
7.66659522217931
30
0
41
1
10
48.7855484035392
20
7.64694901642895
30
0
41
1
10
48.7802895562991
20
7.64293664503738
30
0
41
1
10
48.7686620405049
20
7.63474008815304
30
0
41
1
10
48.7622801525804
20
7.63054904912107
30
0
41
1
10
48.7416739356156
20
7.61784648937694
30
0
41
1
10
48.7259425704215
20
7.60916639017701
30
0
41
1
10
48.6729914915676
20
7.58248601953848
30
0
41
1
10
48.6300648800306
20
7.5638479863256
30
0
41
1
10
48.5668216794518
20
7.53943746583239
30
0
41
1
10
48.5536818712217
20
7.53449740844168
30
0
41
1
10
48.5267064340824
20
7.52460634474899
30
0
41
1
10
48.4851034674359
20
7.5097159811358
30
0
41
1
10
48.4101957994454
20
7.48463811550728
30
0
41
1
10
48.3444477353556
20
7.46431813922865
30
0
41
1
10
48.2929381541283
20
7.44898978096377
30
0
41
1
10
48.2754012626585
20
7.44386560388303
30
0
41
1
10
48.2395832950764
20
7.43358920627426
30
0
41
1
10
48.2212710847102
20
7.42842875396224
30
0
41
1
10
48.1287186811832
20
7.40280732393366
30
0
41
1
10
48.0509451392828
20
7.38271146235583
30
0
41
1
10
47.9288398742352
20
7.35324300221149
30
0
41
1
10
47.8872245190926
20
7.34353332030049
30
0
41
1
10
47.8233947173466
20
7.32915252260878
30
0
41
1
10
47.8018433777349
20
7.32438093134918
30
0
41
1
10
47.7584433270167
20
7.31494156093581
30
0
41
1
10
47.736671930044
20
7.31029026606367
30
0
41
1
10
47.6274635148033
20
7.28737265589155
30
0
41
1
10
47.5389809528696
20
7.270116781339
30
0
41
1
10
47.4045799111006
20
7.24586450317531
30
0
41
1
10
47.3594982130733
20
7.23805423462193
30
0
41
1
10
47.2914356824693
20
7.22676850016083
30
0
41
1
10
47.2686681273309
20
7.22307782851182
30
0
41
1
10
47.2234813023416
20
7.21592095119156
30
0
41
1
10
47.200999742234
20
7.2124442471893
30
0
41
1
10
47.0891451703635
20
7.19556213974157
30
0
41
1
10
47.0014164671856
20
7.18365038599022
30
0
41
1
10
46.8940076137758
20
7.17074237712239
30
0
41
1
10
46.8726394181235
20
7.16826053639328
30
0
41
1
10
46.8301357290662
20
7.16349900791282
30
0
41
1
10
46.8089422575666
20
7.16121341740597
30
0
41
1
10
46.7461830633917
20
7.15471302536697
30
0
41
1
10
46.7055462485934
20
7.15086265233305
30
0
41
1
10
46.5871666434864
20
7.14070337928116
30
0
41
1
10
46.5129211273822
20
7.13577180820609
30
0
41
1
10
46.4261998220833
20
7.13192753801218
30
0
41
1
10
46.4091265052046
20
7.13127476125121
30
0
41
1
10
46.3757783105351
20
7.1302141726117
30
0
41
1
10
46.3271469516767
20
7.12899580762559
30
0
41
1
10
46.2529078965454
20
7.12878249946307
30
0
41
1
10
46.2006832842089
20
7.13052215504449
30
0
41
1
10
46.164242690268
20
7.13255717259965
30
0
41
1
10
46.1525512747605
20
7.13335749061805
30
0
41
1
10
46.1300963055009
20
7.13520800639917
30
0
41
1
10
46.1193032326364
20
7.1362619393244
30
0
41
1
10
46.0681669333256
20
7.14212292875889
30
0
41
1
10
46.0361611639142
20
7.14866637312019
30
0
41
1
10
46.0010523100848
20
7.16133151154399
30
0
41
1
10
45.9915151171848
20
7.1660332128075
30
0
41
1
10
45.9805407435165
20
7.17382363114848
30
0
41
1
10
45.9774421483287
20
7.1765437931539
30
0
41
1
10
45.9724094112874
20
7.18219266839759
30
0
41
1
10
45.970468002381
20
7.18512597172717
30
0
41
1
10
45.9691005535383
20
7.18816795863569
30
0
0
SPLINE
5
196
100
AcDbEntity
8
1
62
256
6
ByLayer
370
18
48
1
60
0
100
AcDbSpline
70
4
71
3
72
8
73
4
40
0
40
0
40
0
40
0
40
1
40
1
40
1
40
1
41
1
10
45.9691005535382
20
7.18816795863567
30
0
41
1
10
45.9637575272458
20
7.20005389946668
30
0
41
1
10
45.958421766512
20
7.21201579359925
30
0
41
1
10
45.9530921838865
20
7.22404227295411
30
0
0
SPLINE
5
197
100
AcDbEntity
8
1
62
256
6
ByLayer
370
18
48
1
60
0
100
AcDbSpline
70
4
71
3
72
10
73
6
40
0
40
0
40
0
40
0
40
0.5
40
0.5
40
1
40
1
40
1
40
1
41
1
10
50.2406562861805
20
7.77978075687854
30
0
41
1
10
50.2947879677574
20
7.7612536862532
30
0
41
1
10
50.3452679027213
20
7.74031033981188
30
0
41
1
10
50.4396082612425
20
7.69077713957896
30
0
41
1
10
50.4834789730427
20
7.66215270522949
30
0
41
1
10
50.5242666633895
20
7.62805598046506
30
0
0
SPLINE
5
198
100
AcDbEntity
8
1
62
256
6
ByLayer
370
18
48
1
60
0
100
AcDbSpline
70
4
71
3
72
8
73
4
40
0
40
0
40
0
40
0
40
1
40
1
40
1
40
1
41
1
10
43.0318682294346
20
1.01285182228789
30
0
41
1
10
42.9652440967696
20
0.829265110058699
30
0
41
1
10
42.8986313086338
20
0.64570245702383
30
0
41
1
10
42.8320287620902
20
0.462161524101972
30
0
0
SPLINE
5
199
100
AcDbEntity
8
1
62
256
6
ByLayer
370
18
48
1
60
0
100
AcDbSpline
70
4
71
3
72
8
73
4
40
0
40
0
40
0
40
0
40
1
40
1
40
1
40
1
41
1
10
43.0091807057507
20
1.07403832508661
30
0
41
1
10
43.014185079815
20
1.05908334816716
30
0
41
1
10
43.021750823967
20
1.03868096450771
30
0
41
1
10
43.0318682294347
20
1.01285182228806
30
0
0
SPLINE
5
19A
100
AcDbEntity
8
1
62
256
6
ByLayer
370
18
48
1
60
0
100
AcDbSpline
70
4
71
3
72
42
73
38
40
0
40
0
40
0
40
0
40
0.0624999999999909
40
0.0624999999999909
40
0.0937499999999862
40
0.0937499999999862
40
0.109374999999984
40
0.109374999999984
40
0.124999999999982
40
0.124999999999982
40
0.140624999999979
40
0.140624999999979
40
0.156249999999977
40
0.187499999999983
40
0.249999999999986
40
0.249999999999986
40
0.312499999999988
40
0.312499999999988
40
0.37499999999999
40
0.37499999999999
40
0.499999999999991
40
0.499999999999991
40
0.562499999999992
40
0.562499999999992
40
0.624999999999993
40
0.624999999999993
40
0.687499999999995
40
0.687499999999995
40
0.749999999999996
40
0.749999999999996
40
0.812499999999997
40
0.812499999999997
40
0.874999999999998
40
0.874999999999998
40
0.937499999999999
40
0.937499999999999
40
1
40
1
40
1
40
1
41
1
10
39.6611708085586
20
10.9652440805151
30
0
41
1
10
39.6176739978906
20
10.9619381761984
30
0
41
1
10
39.5784468617366
20
10.9587041318754
30
0
41
1
10
39.5262943763081
20
10.9537805068438
30
0
41
1
10
39.5100380663197
20
10.9521247988154
30
0
41
1
10
39.4875182397947
20
10.9495627301589
30
0
41
1
10
39.4803234949829
20
10.9486953210498
30
0
41
1
10
39.4666025197861
20
10.9469206516333
30
0
41
1
10
39.4601220400289
20
10.9460189898808
30
0
41
1
10
39.4480094039006
20
10.9441841459115
30
0
41
1
10
39.4424172322585
20
10.9432484544992
30
0
41
1
10
39.4313234050674
20
10.9413427340382
30
0
41
1
10
39.4150755603245
20
10.9384311919143
30
0
41
1
10
39.3798853903272
20
10.9312293565239
30
0
41
1
10
39.3543136725189
20
10.9242239236181
30
0
41
1
10
39.3242661023928
20
10.913949509501
30
0
41
1
10
39.3112573136249
20
10.908340483554
30
0
41
1
10
39.2893881851943
20
10.8960664470792
30
0
41
1
10
39.2806243471908
20
10.8894583898578
30
0
41
1
10
39.2606593220329
20
10.8681546786734
30
0
41
1
10
39.2557476799712
20
10.8519741117714
30
0
41
1
10
39.2607794502838
20
10.8246545375368
30
0
41
1
10
39.2645314833339
20
10.8150415440163
30
0
41
1
10
39.2762480572682
20
10.794809498539
30
0
41
1
10
39.2842635919267
20
10.7841612827298
30
0
41
1
10
39.3042571837266
20
10.7621351063531
30
0
41
1
10
39.3162238100712
20
10.750738154008
30
0
41
1
10
39.3438319625618
20
10.7272716607283
30
0
41
1
10
39.3594970552102
20
10.7151859448812
30
0
41
1
10
39.3941935620617
20
10.6905543534178
30
0
41
1
10
39.4132034322704
20
10.678021572019
30
0
41
1
10
39.4543540811859
20
10.6526829487639
30
0
41
1
10
39.476491563933
20
10.6398664683875
30
0
41
1
10
39.5239154302365
20
10.6141661008839
30
0
41
1
10
39.5491630514664
20
10.6013081037208
30
0
41
1
10
39.6029214739205
20
10.5756892034607
30
0
41
1
10
39.6315877910234
20
10.5629569534923
30
0
41
1
10
39.6611708085586
20
10.5501530155725
30
0
0
SPLINE
5
19B
100
AcDbEntity
8
1
62
256
6
ByLayer
370
13
48
1
60
0
100
AcDbSpline
70
4
71
3
72
22
73
18
40
0
40
0
40
0
40
0
40
0.132951664399456
40
0.132951664399456
40
0.265903328798911
40
0.265903328798911
40
0.398854993198367
40
0.398854993198367
40
0.531806657597823
40
0.531806657597823
40
0.664758321997279
40
0.664758321997279
40
0.797709986396735
40
0.797709986396735
40
0.93066165079619
40
0.93066165079619
40
1
40
1
40
1
40
1
41
1
10
39.6611708085608
20
-3.79026460564531
30
0
41
1
10
39.6611708085608
20
-4.34609696313305
30
0
41
1
10
39.6611708085608
20
-4.88532236617928
30
0
41
1
10
39.6611708085607
20
-5.91647528392049
30
0
41
1
10
39.6611708085608
20
-6.40839099679016
30
0
41
1
10
39.6611708085608
20
-7.33205262857264
30
0
41
1
10
39.6611708085608
20
-7.7637879759271
30
0
41
1
10
39.6611708085608
20
-8.55579127712423
30
0
41
1
10
39.6611708085608
20
-8.91605016627393
30
0
41
1
10
39.6611708085608
20
-9.55567285237608
30
0
41
1
10
39.6611708085608
20
-9.83502932867312
30
0
41
1
10
39.6611708085608
20
-10.3055360612541
30
0
41
1
10
39.6611708085608
20
-10.4966809324606
30
0
41
1
10
39.6611708085608
20
-10.7857611891253
30
0
41
1
10
39.6611708085608
20
-10.8836932659815
30
0
41
1
10
39.6611708085608
20
-10.9598383909371
30
0
41
1
10
39.6611708085608
20
-10.9729131407826
30
0
41
1
10
39.6611708085608
20
-10.9729586055712
30
0
0
SPLINE
5
19C
100
AcDbEntity
8
1
62
256
6
ByLayer
370
18
48
1
60
0
100
AcDbSpline
70
4
71
3
72
10
73
6
40
0
40
0
40
0
40
0
40
0.5
40
0.5
40
1
40
1
40
1
40
1
41
1
10
41.2474049219941
20
9.23476156051082
30
0
41
1
10
41.3051429207476
20
9.15846642896283
30
0
41
1
10
41.3639123717218
20
9.08219618184501
30
0
41
1
10
41.4846984367171
20
8.93091528723733
30
0
41
1
10
41.5467247149919
20
8.85591067905155
30
0
41
1
10
41.6106979130683
20
8.78234815111118
30
0
0
SPLINE
5
19D
100
AcDbEntity
8
1
62
256
6
ByLayer
370
18
48
1
60
0
100
AcDbSpline
70
4
71
3
72
25
73
21
40
0
40
0
40
0
40
0
40
0.0625000000000038
40
0.0625000000000038
40
0.125000000000007
40
0.250000000000004
40
0.250000000000004
40
0.499999999999995
40
0.499999999999995
40
0.624999999999996
40
0.624999999999996
40
0.749999999999997
40
0.749999999999997
40
0.812499999999998
40
0.812499999999998
40
0.874999999999999
40
0.874999999999999
40
0.937499999999999
40
0.937499999999999
40
1
40
1
40
1
40
1
41
1
10
39.6611708085608
20
10.5501536714139
30
0
41
1
10
39.7000366600401
20
10.533331597024
30
0
41
1
10
39.7403984442221
20
10.5162073635767
30
0
41
1
10
39.8196377936887
20
10.4805961821028
30
0
41
1
10
39.936804827386
20
10.4252130795613
30
0
41
1
10
40.0491210203276
20
10.3638880383577
30
0
41
1
10
40.2677728083828
20
10.2331839692245
30
0
41
1
10
40.4055871035615
20
10.1353175385881
30
0
41
1
10
40.6018066262973
20
9.97176583916249
30
0
41
1
10
40.665455877944
20
9.91445448743849
30
0
41
1
10
40.7893948996799
20
9.79410012658158
30
0
41
1
10
40.8497117055097
20
9.73106493932441
30
0
41
1
10
40.9375893120442
20
9.63204046273172
30
0
41
1
10
40.9664450541569
20
9.59828571432097
30
0
41
1
10
41.0232405618802
20
9.52924178969957
30
0
41
1
10
41.0511463319976
20
9.49394222146843
30
0
41
1
10
41.1065557870742
20
9.42192638591648
30
0
41
1
10
41.1340300804392
20
9.38520047217766
30
0
41
1
10
41.1898903458436
20
9.31070989441248
30
0
41
1
10
41.2184642665923
20
9.27300381273024
30
0
41
1
10
41.2474049219942
20
9.23476156051078
30
0
0
SPLINE
5
19E
100
AcDbEntity
8
1
62
256
6
ByLayer
370
13
48
1
60
0
100
AcDbSpline
70
4
71
3
72
23
73
19
40
0
40
0
40
0
40
0
40
0.0625000000000001
40
0.125
40
0.1875
40
0.25
40
0.3125
40
0.375
40
0.4375
40
0.5
40
0.5625
40
0.625
40
0.6875
40
0.75
40
0.8125
40
0.875
40
0.9375
40
1
40
1
40
1
40
1
41
1
10
39.6611708085608
20
10.5501537763537
30
0
41
1
10
39.6611708085608
20
10.4619147122829
30
0
41
1
10
39.6611708085608
20
10.2583401721433
30
0
41
1
10
39.6611708085608
20
9.87403791830073
30
0
41
1
10
39.6611708085608
20
9.41375318350539
30
0
41
1
10
39.6611708085608
20
8.88102772428978
30
0
41
1
10
39.6611708085608
20
8.27996097022572
30
0
41
1
10
39.6611708085608
20
7.61517825089655
30
0
41
1
10
39.6611708085608
20
6.89179520305538
30
0
41
1
10
39.6611708085608
20
6.11537840477125
30
0
41
1
10
39.6611708085608
20
5.29190253949125
30
0
41
1
10
39.6611708085608
20
4.42770441964919
30
0
41
1
10
39.6611708085608
20
3.52943422361975
30
0
41
1
10
39.6611708085608
20
2.60400432125753
30
0
41
1
10
39.6611708085608
20
1.65853608182107
30
0
41
1
10
39.6611708085608
20
0.700305073603403
30
0
41
1
10
39.6611708085608
20
-0.263314923029242
30
0
41
1
10
39.6611708085608
20
-0.904376993140872
30
0
41
1
10
39.6611708085608
20
-1.22333735829386
30
0
0
SPLINE
5
19F
100
AcDbEntity
8
1
62
256
6
ByLayer
370
18
48
1
60
0
100
AcDbSpline
70
4
71
3
72
10
73
6
40
0
40
0
40
0
40
0
40
0.5
40
0.5
40
1
40
1
40
1
40
1
41
1
10
43.618369934622
20
7.40160616724511
30
0
41
1
10
43.5273046507926
20
7.43394344823908
30
0
41
1
10
43.4403827058059
20
7.46760453177505
30
0
41
1
10
43.2735129535606
20
7.53713924471779
30
0
41
1
10
43.1935682633166
20
7.5730089811582
30
0
41
1
10
43.1166345666945
20
7.60974971399314
30
0
0
SPLINE
5
1A0
100
AcDbEntity
8
1
62
256
6
ByLayer
370
18
48
1
60
0
100
AcDbSpline
70
4
71
3
72
20
73
16
40
0
40
0
40
0
40
0
40
0.250000000000003
40
0.250000000000003
40
0.500000000000006
40
0.500000000000006
40
0.624999999999999
40
0.624999999999999
40
0.749999999999992
40
0.749999999999992
40
0.874999999999985
40
0.874999999999985
40
0.937499999999993
40
0.937499999999993
40
1
40
1
40
1
40
1
41
1
10
41.6106979130683
20
8.78234815111118
30
0
41
1
10
41.7018593544503
20
8.67752196951662
30
0
41
1
10
41.7990468750884
20
8.57184594807789
30
0
41
1
10
42.0096336587226
20
8.36268496980388
30
0
41
1
10
42.1230495917657
20
8.25921337717499
30
0
41
1
10
42.3081961102905
20
8.10870374841862
30
0
41
1
10
42.3724102452655
20
8.05931638302864
30
0
41
1
10
42.5062370515725
20
7.96259371189164
30
0
41
1
10
42.5758601346964
20
7.9152658869412
30
0
41
1
10
42.7207616643535
20
7.82306347967513
30
0
41
1
10
42.7960298938988
20
7.77818172437155
30
0
41
1
10
42.9133952346409
20
7.71302318703066
30
0
41
1
10
42.953224764996
20
7.69168756567302
30
0
41
1
10
43.0340126497771
20
7.65000118400509
30
0
41
1
10
43.0750138433527
20
7.6296262563126
30
0
41
1
10
43.1166345666945
20
7.60974971399312
30
0
0
SPLINE
5
1A1
100
AcDbEntity
8
1
62
256
6
ByLayer
370
18
48
1
60
0
100
AcDbSpline
70
4
71
3
72
34
73
30
40
0
40
0
40
0
40
0
40
0.125
40
0.125
40
0.1875
40
0.1875
40
0.250000000000001
40
0.250000000000001
40
0.312500000000001
40
0.312500000000001
40
0.375000000000001
40
0.375000000000001
40
0.437500000000001
40
0.437500000000001
40
0.500000000000001
40
0.500000000000001
40
0.625
40
0.625
40
0.75
40
0.75
40
0.812499999999999
40
0.812499999999999
40
0.843749999999999
40
0.843749999999999
40
0.874999999999999
40
0.874999999999999
40
0.9375
40
0.9375
40
1
40
1
40
1
40
1
41
1
10
42.4867174111687
20
-0.29155171377019
30
0
41
1
10
42.4480069755115
20
-0.314119187619056
30
0
41
1
10
42.409558568414
20
-0.337155114639103
30
0
41
1
10
42.3521121019341
20
-0.371995725529217
30
0
41
1
10
42.3329978642074
20
-0.383656900925274
30
0
41
1
10
42.2947949898997
20
-0.407005478640443
30
0
41
1
10
42.2756657217108
20
-0.418628966856076
30
0
41
1
10
42.2379190740913
20
-0.442667968630559
30
0
41
1
10
42.2193419762578
20
-0.455146948639921
30
0
41
1
10
42.183235083052
20
-0.481735223638637
30
0
41
1
10
42.1656637698216
20
-0.495779059074039
30
0
41
1
10
42.1315691744066
20
-0.525491083696252
30
0
41
1
10
42.1152067991068
20
-0.54101361572566
30
0
41
1
10
42.0839463537275
20
-0.573220881690446
30
0
41
1
10
42.0690250640988
20
-0.589925720960736
30
0
41
1
10
42.0263862961936
20
-0.641836525182541
30
0
41
1
10
42.0007607647398
20
-0.67881065588044
30
0
41
1
10
41.9557735606248
20
-0.758025791046038
30
0
41
1
10
41.9371599879983
20
-0.7990761389119
30
0
41
1
10
41.9153195850878
20
-0.862840894290784
30
0
41
1
10
41.9090437611162
20
-0.884460691863865
30
0
41
1
10
41.9011821784756
20
-0.917453266802099
30
0
41
1
10
41.8988207981008
20
-0.928544773478578
30
0
41
1
10
41.8946301134035
20
-0.950920625632961
30
0
41
1
10
41.892810998715
20
-0.96221036786109
30
0
41
1
10
41.8878250753944
20
-0.996237075266919
30
0
41
1
10
41.8850695148194
20
-1.01900603834642
30
0
41
1
10
41.8789914447095
20
-1.06443244729644
30
0
41
1
10
41.8758452915756
20
-1.08711894553133
30
0
41
1
10
41.8727114250981
20
-1.10979839235168
30
0
0
SPLINE
5
1A2
100
AcDbEntity
8
1
62
256
6
ByLayer
370
18
48
1
60
0
100
AcDbSpline
70
4
71
3
72
25
73
21
40
0
40
0
40
0
40
0
40
0.249999999999949
40
0.249999999999949
40
0.499999999999898
40
0.499999999999898
40
0.531249999999891
40
0.531249999999891
40
0.562499999999885
40
0.624999999999906
40
0.624999999999906
40
0.749999999999949
40
0.749999999999949
40
0.874999999999991
40
0.874999999999991
40
0.937500000000013
40
0.937500000000013
40
0.968750000000006
40
0.968750000000006
40
1
40
1
40
1
40
1
41
1
10
43.618369934622
20
7.40160616724512
30
0
41
1
10
43.7983519024484
20
7.33769457302708
30
0
41
1
10
43.9831859443884
20
7.28500401709502
30
0
41
1
10
44.3627379413024
20
7.20395186481079
30
0
41
1
10
44.5575258033185
20
7.17577013640488
30
0
41
1
10
44.7823214232026
20
7.15849219559654
30
0
41
1
10
44.8073986906211
20
7.15677254088554
30
0
41
1
10
44.8574873807371
20
7.15375089057785
30
0
41
1
10
44.9325917248936
20
7.14983863897908
30
0
41
1
10
45.0076108261463
20
7.14776600126673
30
0
41
1
10
45.1575370209256
20
7.14603247013528
30
0
41
1
10
45.2573396589831
20
7.1480660315962
30
0
41
1
10
45.4566450985362
20
7.15858085107109
30
0
41
1
10
45.5561488139916
20
7.16704200335192
30
0
41
1
10
45.7051366230511
20
7.18551214577592
30
0
41
1
10
45.7547536846419
20
7.19265222371615
30
0
41
1
10
45.8291466629909
20
7.20407226986229
30
0
41
1
10
45.8539370781477
20
7.20803626308347
30
0
41
1
10
45.9035147560171
20
7.21603475567294
30
0
41
1
10
45.928303443498
20
7.22003847855058
30
0
41
1
10
45.9530921838858
20
7.22404227295353
30
0
0
SPLINE
5
1A3
100
AcDbEntity
8
1
62
256
6
ByLayer
370
18
48
1
60
0
100
AcDbSpline
70
4
71
3
72
24
73
20
40
0
40
0
40
0
40
0
40
0.124999999999929
40
0.124999999999929
40
0.187499999999929
40
0.187499999999929
40
0.24999999999993
40
0.24999999999993
40
0.499999999999933
40
0.499999999999933
40
0.624999999999899
40
0.624999999999899
40
0.687499999999916
40
0.687499999999916
40
0.749999999999933
40
0.749999999999933
40
0.874999999999967
40
0.874999999999967
40
1
40
1
40
1
40
1
41
1
10
43.9527029710007
20
2.41909897564896
30
0
41
1
10
43.9999381616786
20
2.41883544784784
30
0
41
1
10
44.0472321134253
20
2.41670060190432
30
0
41
1
10
44.1182572954568
20
2.41082435608973
30
0
41
1
10
44.1419893487859
20
2.40841278412897
30
0
41
1
10
44.1892093109237
20
2.40273734176948
30
0
41
1
10
44.2127044374083
20
2.39947486481653
30
0
41
1
10
44.3296227206288
20
2.38109877495087
30
0
41
1
10
44.4213977169983
20
2.35988445642637
30
0
41
1
10
44.5564463549451
20
2.31831583068399
30
0
41
1
10
44.601022437786
20
2.30281812891589
30
0
41
1
10
44.6671831031767
20
2.27693552099872
30
0
41
1
10
44.6891108506287
20
2.26786810195266
30
0
41
1
10
44.7324016833737
20
2.24895295718932
30
0
41
1
10
44.7538045413856
20
2.23909021019676
30
0
41
1
10
44.817262296806
20
2.2082453408528
30
0
41
1
10
44.8585709917896
20
2.18601441367491
30
0
41
1
10
44.9389773011616
20
2.13783770553367
30
0
41
1
10
44.9780782647891
20
2.11189762782597
30
0
41
1
10
45.0158737315443
20
2.08375620085351
30
0
0
SPLINE
5
1A4
100
AcDbEntity
8
1
62
256
6
ByLayer
370
18
48
1
60
0
100
AcDbSpline
70
4
71
3
72
8
73
4
40
0
40
0
40
0
40
0
40
1
40
1
40
1
40
1
41
1
10
48.8205324075615
20
7.69415612694098
30
0
41
1
10
48.8990575591442
20
7.70697967389243
30
0
41
1
10
48.9775812839345
20
7.71980130648393
30
0
41
1
10
49.0561035941979
20
7.73262093380042
30
0
0
SPLINE
5
1A5
100
AcDbEntity
8
1
62
256
6
ByLayer
370
18
48
1
60
0
100
AcDbSpline
70
4
71
3
72
8
73
4
40
0
40
0
40
0
40
0
40
1
40
1
40
1
40
1
41
1
10
48.8205324075614
20
7.69415612694091
30
0
41
1
10
48.8170303403869
20
7.65357334251935
30
0
41
1
10
48.8122577913418
20
7.6127837228977
30
0
41
1
10
48.8062909722409
20
7.5717880239207
30
0
0
SPLINE
5
1A6
100
AcDbEntity
8
1
62
256
6
ByLayer
370
18
48
1
60
0
100
AcDbSpline
70
4
71
3
72
72
73
68
40
0
40
0
40
0
40
0
40
0.0312499999999248
40
0.0312499999999248
40
0.0624999999998496
40
0.0624999999998496
40
0.0781249999998147
40
0.0781249999998147
40
0.0937499999997799
40
0.0937499999997799
40
0.109374999999745
40
0.109374999999745
40
0.12499999999971
40
0.12499999999971
40
0.156249999999653
40
0.156249999999653
40
0.171874999999625
40
0.171874999999625
40
0.187499999999596
40
0.187499999999596
40
0.218749999999556
40
0.218749999999556
40
0.234374999999545
40
0.234374999999545
40
0.249999999999534
40
0.249999999999534
40
0.281249999999529
40
0.281249999999529
40
0.312499999999525
40
0.312499999999525
40
0.374999999999497
40
0.374999999999497
40
0.406249999999473
40
0.406249999999473
40
0.43749999999945
40
0.43749999999945
40
0.499999999999403
40
0.499999999999403
40
0.531249999999389
40
0.531249999999389
40
0.546874999999391
40
0.546874999999391
40
0.562499999999394
40
0.562499999999394
40
0.624999999999421
40
0.624999999999421
40
0.687499999999448
40
0.687499999999448
40
0.718749999999462
40
0.718749999999462
40
0.749999999999476
40
0.749999999999476
40
0.757812499999483
40
0.757812499999483
40
0.76562499999949
40
0.78124999999952
40
0.812499999999595
40
0.812499999999595
40
0.87499999999973
40
0.87499999999973
40
0.890624999999764
40
0.890624999999764
40
0.906249999999798
40
0.906249999999798
40
0.937499999999865
40
0.937499999999865
40
1
40
1
40
1
40
1
41
1
10
42.9674022930457
20
-1.59779439336008
30
0
41
1
10
42.9564440550456
20
-1.63840323232067
30
0
41
1
10
42.9507724178396
20
-1.67943521834764
30
0
41
1
10
42.9515384550929
20
-1.76235919337184
30
0
41
1
10
42.9579785798323
20
-1.80212866395208
30
0
41
1
10
42.9760577041157
20
-1.85913626737302
30
0
41
1
10
42.9835651413913
20
-1.87781700182423
30
0
41
1
10
43.0009110514027
20
-1.91339365312415
30
0
41
1
10
43.0107591096479
20
-1.93038273824577
30
0
41
1
10
43.0325853701819
20
-1.96290535138726
30
0
41
1
10
43.0445908403234
20
-1.978468269395
30
0
41
1
10
43.0704789628699
20
-2.00810528712792
30
0
41
1
10
43.0841916200839
20
-2.0219956768122
30
0
41
1
10
43.1273323238034
20
-2.0612462020278
30
0
41
1
10
43.1587453887252
20
-2.08420631534754
30
0
41
1
10
43.2091404120685
20
-2.11469814508071
30
0
41
1
10
43.2265495218145
20
-2.12422263565824
30
0
41
1
10
43.2618814291795
20
-2.14178817167459
30
0
41
1
10
43.2798494584583
20
-2.14986255130455
30
0
41
1
10
43.3345667945978
20
-2.17219144503464
30
0
41
1
10
43.3721240204519
20
-2.18456390716749
30
0
41
1
10
43.4298464919595
20
-2.19995303623652
30
0
41
1
10
43.4493199828284
20
-2.20455089759852
30
0
41
1
10
43.4887084273511
20
-2.21274938052417
30
0
41
1
10
43.508654131624
20
-2.21635452358176
30
0
41
1
10
43.5689234734042
20
-2.22571928968901
30
0
41
1
10
43.6093333579288
20
-2.22999085220283
30
0
41
1
10
43.6905784820748
20
-2.23517544913031
30
0
41
1
10
43.7314140744843
20
-2.23608475948623
30
0
41
1
10
43.8545404605945
20
-2.23433178091064
30
0
41
1
10
43.9374458827176
20
-2.2272234496169
30
0
41
1
10
44.0630806373337
20
-2.20891694669541
30
0
41
1
10
44.1047880256901
20
-2.20158574270502
30
0
41
1
10
44.187740730106
20
-2.1847418713852
30
0
41
1
10
44.2290166805702
20
-2.17522411927037
30
0
41
1
10
44.3523219449456
20
-2.14365697999017
30
0
41
1
10
44.4338315559457
20
-2.1186123428627
30
0
41
1
10
44.5552526266942
20
-2.07566464659156
30
0
41
1
10
44.5955846380385
20
-2.0604465782484
30
0
41
1
10
44.6558859393051
20
-2.03629891159558
30
0
41
1
10
44.6759535313506
20
-2.02802930274198
30
0
41
1
10
44.7160250002486
20
-2.01105116768706
30
0
41
1
10
44.7360419281155
20
-2.00233610605172
30
0
41
1
10
44.8353861829061
20
-1.95793035539087
30
0
41
1
10
44.9129600542664
20
-1.91958686568222
30
0
41
1
10
45.0644290971162
20
-1.83751477056505
30
0
41
1
10
45.1383305588403
20
-1.79379557356108
30
0
41
1
10
45.2461721157686
20
-1.72383196289655
30
0
41
1
10
45.2816135937772
20
-1.69977387996316
30
0
41
1
10
45.3513683362623
20
-1.65001127134037
30
0
41
1
10
45.3857521598573
20
-1.62424772597271
30
0
41
1
10
45.4274361223809
20
-1.59120867175432
30
0
41
1
10
45.4357389244593
20
-1.58460810106466
30
0
41
1
10
45.4523732342363
20
-1.57160267096316
30
0
41
1
10
45.4773265856932
20
-1.55230669132659
30
0
41
1
10
45.535627717214
20
-1.50879153116308
30
0
41
1
10
45.5859425689305
20
-1.47416463247485
30
0
41
1
10
45.6875666484329
20
-1.40872093418894
30
0
41
1
10
45.7566509460497
20
-1.37018334458554
30
0
41
1
10
45.8463453935777
20
-1.32915036060098
30
0
41
1
10
45.8644782469579
20
-1.32129109177751
30
0
41
1
10
45.9008234166893
20
-1.30641700757143
30
0
41
1
10
45.9190657814145
20
-1.29938718590741
30
0
41
1
10
45.9740429731623
20
-1.27948976537758
30
0
41
1
10
46.0110309504505
20
-1.26781728985391
30
0
41
1
10
46.1232252345463
20
-1.23722800834052
30
0
41
1
10
46.1997004262743
20
-1.22275796418356
30
0
41
1
10
46.2779083979205
20
-1.21285084220835
30
0
0
SPLINE
5
1A7
100
AcDbEntity
8
1
62
256
6
ByLayer
370
18
48
1
60
0
100
AcDbSpline
70
4
71
3
72
12
73
8
40
0
40
0
40
0
40
0
40
0.766137033135781
40
0.766137033135781
40
0.957671291419666
40
0.957671291419666
40
1
40
1
40
1
40
1
41
1
10
42.0567198541579
20
-0.886601667661665
30
0
41
1
10
42.018116846387
20
-0.884600039321541
30
0
41
1
10
41.9825408138544
20
-0.883033720960384
30
0
41
1
10
41.9418631731971
20
-0.882096428876977
30
0
41
1
10
41.9339203187253
20
-0.881959032978543
30
0
41
1
10
41.924458360884
20
-0.881858268269255
30
0
41
1
10
41.9227547589007
20
-0.881842716983172
30
0
41
1
10
41.9210606452428
20
-0.881829895138068
30
0
0
SPLINE
5
1A8
100
AcDbEntity
8
1
62
256
6
ByLayer
370
18
48
1
60
0
100
AcDbSpline
70
4
71
3
72
8
73
4
40
0
40
0
40
0
40
0
40
1
40
1
40
1
40
1
41
1
10
41.8727114250981
20
-1.10979839235169
30
0
41
1
10
41.7853749487526
20
-1.10162569578608
30
0
41
1
10
41.6980348880773
20
-1.09351892887308
30
0
41
1
10
41.6106979130683
20
-1.08538406035264
30
0
0
SPLINE
5
1A9
100
AcDbEntity
8
1
62
256
6
ByLayer
370
18
48
1
60
0
100
AcDbSpline
70
4
71
3
72
8
73
4
40
0
40
0
40
0
40
0
40
1
40
1
40
1
40
1
41
1
10
41.6106979130683
20
-1.08538406035264
30
0
41
1
10
41.4910548018054
20
-1.07424008634392
30
0
41
1
10
41.369951070656
20
-1.06373281545039
30
0
41
1
10
41.2474049219941
20
-1.05366183321919
30
0
0
SPLINE
5
1AA
100
AcDbEntity
8
1
62
256
6
ByLayer
370
18
48
1
60
0
100
AcDbSpline
70
4
71
3
72
31
73
27
40
0
40
0
40
0
40
0
40
0.2500000000001
40
0.2500000000001
40
0.375000000000125
40
0.375000000000125
40
0.437500000000112
40
0.437500000000112
40
0.500000000000099
40
0.500000000000099
40
0.562500000000087
40
0.562500000000087
40
0.593750000000081
40
0.593750000000081
40
0.625000000000074
40
0.625000000000074
40
0.687500000000062
40
0.75000000000005
40
0.75000000000005
40
0.812500000000037
40
0.812500000000037
40
0.875000000000025
40
0.875000000000025
40
0.937500000000012
40
0.937500000000012
40
1
40
1
40
1
40
1
41
1
10
41.2474049219941
20
-1.05366183321921
30
0
41
1
10
41.1098693278257
20
-1.04235900126446
30
0
41
1
10
40.9723590099504
20
-1.03072962239604
30
0
41
1
10
40.7661674975526
20
-1.01232336303615
30
0
41
1
10
40.6974493581936
20
-1.00602711396051
30
0
41
1
10
40.5943956656463
20
-0.996276652159551
30
0
41
1
10
40.5600517097089
20
-0.992931315632205
30
0
41
1
10
40.4913559124525
20
-0.986345732779
30
0
41
1
10
40.4569971205974
20
-0.983197031747437
30
0
41
1
10
40.3881627557208
20
-0.978437181716942
30
0
41
1
10
40.3536871119347
20
-0.976826884243209
30
0
41
1
10
40.3018144908185
20
-0.976505475742201
30
0
41
1
10
40.2844626517936
20
-0.976748915712903
30
0
41
1
10
40.2498685141504
20
-0.978080694797853
30
0
41
1
10
40.2326550287054
20
-0.979168812359731
30
0
41
1
10
40.1812932342714
20
-0.983840458408935
30
0
41
1
10
40.1135333022713
20
-0.993717994913396
30
0
41
1
10
40.0471517975005
20
-1.01054829649961
30
0
41
1
10
39.981482229986
20
-1.03096218884234
30
0
41
1
10
39.948838907688
20
-1.04305031210633
30
0
41
1
10
39.8859164463635
20
-1.07045365608475
30
0
41
1
10
39.8554952622982
20
-1.0858295951663
30
0
41
1
10
39.7966260839013
20
-1.11975044064403
30
0
41
1
10
39.7681728987662
20
-1.13828698524068
30
0
41
1
10
39.7132000457596
20
-1.17845689261539
30
0
41
1
10
39.6866796191765
20
-1.20008906549191
30
0
41
1
10
39.6611708085608
20
-1.22333706992035
30
0
0
SPLINE
5
1AB
100
AcDbEntity
8
1
62
256
6
ByLayer
370
18
48
1
60
0
100
AcDbSpline
70
4
71
3
72
42
73
38
40
0
40
0
40
0
40
0
40
0.0625000000000009
40
0.0625000000000009
40
0.0937500000000014
40
0.0937500000000014
40
0.109375000000001
40
0.109375000000001
40
0.125000000000002
40
0.125000000000002
40
0.140625000000002
40
0.140625000000002
40
0.156250000000002
40
0.187500000000002
40
0.250000000000002
40
0.250000000000002
40
0.312500000000002
40
0.312500000000002
40
0.375000000000002
40
0.375000000000002
40
0.500000000000002
40
0.500000000000002
40
0.562500000000002
40
0.562500000000002
40
0.625000000000002
40
0.625000000000002
40
0.687500000000002
40
0.687500000000002
40
0.750000000000001
40
0.750000000000001
40
0.812500000000001
40
0.812500000000001
40
0.875000000000001
40
0.875000000000001
40
0.9375
40
0.9375
40
1
40
1
40
1
40
1
41
1
10
39.6611708085608
20
-1.22333729136324
30
0
41
1
10
39.6176739294995
20
-1.26297924053814
30
0
41
1
10
39.5784467762379
20
-1.30592584599415
30
0
41
1
10
39.5262943466942
20
-1.37549528815227
30
0
41
1
10
39.5100380688204
20
-1.39955315083583
30
0
41
1
10
39.4875183091075
20
-1.43706709329395
30
0
41
1
10
39.4803235896526
20
-1.44981039645712
30
0
41
1
10
39.4666026707615
20
-1.47580695728468
30
0
41
1
10
39.4601222383732
20
-1.48897701026311
30
0
41
1
10
39.4480096835116
20
-1.51553431913376
30
0
41
1
10
39.4424175562878
20
-1.52895831097348
30
0
41
1
10
39.4313238178844
20
-1.55582977806975
30
0
41
1
10
39.4150761031487
20
-1.59625408290228
30
0
41
1
10
39.379886191926
20
-1.69138206867244
30
0
41
1
10
39.3543145398945
20
-1.77425507130842
30
0
41
1
10
39.3242667566319
20
-1.8858976489462
30
0
41
1
10
39.311257657172
20
-1.94234053336264
30
0
41
1
10
39.2893878522892
20
-2.05616668331165
30
0
41
1
10
39.2806236662723
20
-2.11303249404689
30
0
41
1
10
39.2606582628176
20
-2.28346850170082
30
0
41
1
10
39.2557470770661
20
-2.39687521439424
30
0
41
1
10
39.2607795824435
20
-2.56663679415101
30
0
41
1
10
39.2645318704469
20
-2.62316648006927
30
0
41
1
10
39.2762488251851
20
-2.73611403931756
30
0
41
1
10
39.2842644691462
20
-2.79266625117072
30
0
41
1
10
39.3042579642094
20
-2.90445134754543
30
0
41
1
10
39.3162243792364
20
-2.9598034474204
30
0
41
1
10
39.343831997227
20
-3.069511337206
30
0
41
1
10
39.3594968231753
20
-3.12393604332269
30
0
41
1
10
39.3941929753376
20
-3.23151408006727
30
0
41
1
10
39.4132028126178
20
-3.28462157943135
30
0
41
1
10
39.4543535360947
20
-3.38959429345085
30
0
41
1
10
39.4764911471972
20
-3.44150798078085
30
0
41
1
10
39.52391519538
20
-3.54392199214287
30
0
41
1
10
39.5491629098682
20
-3.5943238367162
30
0
41
1
10
39.6029214523289
20
-3.69345379155108
30
0
41
1
10
39.6315877973711
20
-3.74210995599182
30
0
41
1
10
39.6611708085608
20
-3.79026375044485
30
0
0
SPLINE
5
1AC
100
AcDbEntity
8
1
62
256
6
ByLayer
370
18
48
1
60
0
100
AcDbSpline
70
4
71
3
72
25
73
21
40
0
40
0
40
0
40
0
40
0.0624999999999906
40
0.0624999999999906
40
0.124999999999981
40
0.249999999999974
40
0.249999999999974
40
0.49999999999997
40
0.49999999999997
40
0.624999999999973
40
0.624999999999973
40
0.749999999999977
40
0.749999999999977
40
0.812499999999982
40
0.812499999999982
40
0.874999999999988
40
0.874999999999988
40
0.937499999999994
40
0.937499999999994
40
1
40
1
40
1
40
1
41
1
10
39.6611708085608
20
-3.79026572646542
30
0
41
1
10
39.7000366600401
20
-3.85352942764119
30
0
41
1
10
39.7403984442221
20
-3.9158591757605
30
0
41
1
10
39.8196377936887
20
-4.04060254321364
30
0
41
1
10
39.936804827386
20
-4.22760392042156
30
0
41
1
10
40.0491210203276
20
-4.41412500063272
30
0
41
1
10
40.2677728083829
20
-4.78620587224103
30
0
41
1
10
40.4055871035615
20
-5.03297152307164
30
0
41
1
10
40.6018066262973
20
-5.40010927259361
30
0
41
1
10
40.6654558779441
20
-5.52198928530774
30
0
41
1
10
40.7893948996799
20
-5.76459721715406
30
0
41
1
10
40.8497117055098
20
-5.88531499048052
30
0
41
1
10
40.9375893120443
20
-6.06548061237352
30
0
41
1
10
40.9664450541569
20
-6.12538533198592
30
0
41
1
10
41.0232405618801
20
-6.24489501049312
30
0
41
1
10
41.0511463319978
20
-6.30451244486352
30
0
41
1
10
41.1065557870743
20
-6.42323901439521
30
0
41
1
10
41.1340300804393
20
-6.48235860005765
30
0
41
1
10
41.1898903458437
20
-6.59959536402098
30
0
41
1
10
41.2184642665922
20
-6.65764414209735
30
0
41
1
10
41.2474049219942
20
-6.71522970938622
30
0
0
SPLINE
5
1AD
100
AcDbEntity
8
1
62
256
6
ByLayer
370
18
48
1
60
0
100
AcDbSpline
70
4
71
3
72
10
73
6
40
0
40
0
40
0
40
0
40
0.5
40
0.5
40
1
40
1
40
1
40
1
41
1
10
41.2474049219941
20
-6.71522970938601
30
0
41
1
10
41.3051429207476
20
-6.83011568436356
30
0
41
1
10
41.3639123717218
20
-6.94450014866565
30
0
41
1
10
41.4846984367171
20
-7.17251790052735
30
0
41
1
10
41.5467247149919
20
-7.28615055724406
30
0
41
1
10
41.6106979130683
20
-7.39981407331348
30
0
0
SPLINE
5
1AE
100
AcDbEntity
8
1
62
256
6
ByLayer
370
18
48
1
60
0
100
AcDbSpline
70
4
71
3
72
20
73
16
40
0
40
0
40
0
40
0
40
0.249999999999991
40
0.249999999999991
40
0.499999999999981
40
0.499999999999981
40
0.624999999999986
40
0.624999999999986
40
0.74999999999999
40
0.74999999999999
40
0.874999999999994
40
0.874999999999994
40
0.937499999999997
40
0.937499999999997
40
1
40
1
40
1
40
1
41
1
10
41.6106979130683
20
-7.39981407331344
30
0
41
1
10
41.7018593544503
20
-7.56178393364546
30
0
41
1
10
41.7990468750883
20
-7.71827247546481
30
0
41
1
10
42.0096336587226
20
-8.01980546590316
30
0
41
1
10
42.1230495917658
20
-8.16484634153407
30
0
41
1
10
42.3081961102906
20
-8.37377022303691
30
0
41
1
10
42.3724102452656
20
-8.44197575517626
30
0
41
1
10
42.5062370515726
20
-8.57555122533292
30
0
41
1
10
42.5758601346964
20
-8.64091829287617
30
0
41
1
10
42.7207616643535
20
-8.76890581311666
30
0
41
1
10
42.7960298938987
20
-8.83152920636805
30
0
41
1
10
42.9133952346409
20
-8.92346499198617
30
0
41
1
10
42.953224764996
20
-8.95374556172716
30
0
41
1
10
43.0340126497771
20
-9.01335957987811
30
0
41
1
10
43.0750138433527
20
-9.04272697976408
30
0
41
1
10
43.1166345666945
20
-9.07166104015649
30
0
0
SPLINE
5
1AF
100
AcDbEntity
8
1
62
256
6
ByLayer
370
18
48
1
60
0
100
AcDbSpline
70
4
71
3
72
10
73
6
40
0
40
0
40
0
40
0
40
0.5
40
0.5
40
1
40
1
40
1
40
1
41
1
10
43.618369934622
20
-9.32950781039536
30
0
41
1
10
43.5273046507927
20
-9.29816635042167
30
0
41
1
10
43.4403827058059
20
-9.26036024880754
30
0
41
1
10
43.2735129535606
20
-9.17385359508849
30
0
41
1
10
43.1935682633165
20
-9.12514411410469
30
0
41
1
10
43.1166345666945
20
-9.07166104015649
30
0
0
SPLINE
5
1B0
100
AcDbEntity
8
1
62
256
6
ByLayer
370
18
48
1
60
0
100
AcDbSpline
70
4
71
3
72
24
73
20
40
0
40
0
40
0
40
0
40
0.249999999999865
40
0.249999999999865
40
0.49999999999973
40
0.49999999999973
40
0.531249999999726
40
0.531249999999726
40
0.562499999999723
40
0.562499999999723
40
0.624999999999752
40
0.624999999999752
40
0.749999999999847
40
0.749999999999847
40
0.874999999999942
40
0.874999999999942
40
0.937499999999971
40
0.937499999999971
40
1
40
1
40
1
40
1
41
1
10
43.618369934622
20
-9.32950781039537
30
0
41
1
10
43.7874886242223
20
-9.38771250067937
30
0
41
1
10
43.9608953191777
20
-9.43741424624859
30
0
41
1
10
44.3164107587681
20
-9.52070890935903
30
0
41
1
10
44.4985881219407
20
-9.55418157434281
30
0
41
1
10
44.7085281841452
20
-9.58300939795531
30
0
41
1
10
44.731924290087
20
-9.58608936782049
30
0
41
1
10
44.7788559896655
20
-9.59200286818601
30
0
41
1
10
44.8024142899321
20
-9.59483882531413
30
0
41
1
10
44.8730171380298
20
-9.60294465243818
30
0
41
1
10
44.9200519152555
20
-9.60782167449869
30
0
41
1
10
45.0610565338278
20
-9.62091508041651
30
0
41
1
10
45.1549268948266
20
-9.62759948102827
30
0
41
1
10
45.3424067504064
20
-9.63698876503447
30
0
41
1
10
45.4360173161325
20
-9.63971024289286
30
0
41
1
10
45.5762180481346
20
-9.64048815284077
30
0
41
1
10
45.6229152546474
20
-9.64018827760017
30
0
41
1
10
45.7162296397594
20
-9.63834621700836
30
0
41
1
10
45.7628487537754
20
-9.63683313555693
30
0
41
1
10
45.8094490822614
20
-9.63501861898077
30
0
0
SPLINE
5
1B1
100
AcDbEntity
8
1
62
256
6
ByLayer
370
18
48
1
60
0
100
AcDbSpline
70
4
71
3
72
10
73
6
40
0
40
0
40
0
40
0
40
0.5
40
0.5
40
1
40
1
40
1
40
1
41
1
10
45.8782243246468
20
-8.64752016134135
30
0
41
1
10
45.8667559701566
20
-8.8121067296815
30
0
41
1
10
45.855254679655
20
-8.9767130800863
30
0
41
1
10
45.8323171484384
20
-9.30588671061911
30
0
41
1
10
45.820873555615
20
-9.47045840657879
30
0
41
1
10
45.8094490822613
20
-9.63501861898077
30
0
0
SPLINE
5
1B2
100
AcDbEntity
8
1
62
256
6
ByLayer
370
18
48
1
60
0
100
AcDbSpline
70
4
71
3
72
70
73
66
40
0
40
0
40
0
40
0
40
0.062500000000004
40
0.062500000000004
40
0.0937500000000065
40
0.0937500000000065
40
0.109375000000006
40
0.109375000000006
40
0.125000000000006
40
0.125000000000006
40
0.187500000000017
40
0.187500000000017
40
0.203125000000021
40
0.203125000000021
40
0.218750000000026
40
0.218750000000026
40
0.250000000000047
40
0.281250000000068
40
0.281250000000068
40
0.296875000000079
40
0.296875000000079
40
0.312500000000089
40
0.312500000000089
40
0.375000000000116
40
0.375000000000116
40
0.406250000000121
40
0.406250000000121
40
0.421875000000115
40
0.421875000000115
40
0.437500000000109
40
0.437500000000109
40
0.500000000000085
40
0.500000000000085
40
0.51562500000007
40
0.51562500000007
40
0.531250000000054
40
0.531250000000054
40
0.562500000000024
40
0.562500000000024
40
0.624999999999963
40
0.624999999999963
40
0.640624999999952
40
0.640624999999952
40
0.656249999999942
40
0.656249999999942
40
0.687499999999937
40
0.687499999999937
40
0.749999999999945
40
0.749999999999945
40
0.765624999999947
40
0.765624999999947
40
0.781249999999949
40
0.812499999999953
40
0.812499999999953
40
0.843749999999957
40
0.843749999999957
40
0.859374999999959
40
0.859374999999959
40
0.874999999999961
40
0.874999999999961
40
0.937499999999978
40
0.937499999999978
40
0.968749999999989
40
0.968749999999989
40
1
40
1
40
1
40
1
41
1
10
48.7249773081662
20
-8.81934639967253
30
0
41
1
10
48.7314928172611
20
-8.72560121377781
30
0
41
1
10
48.7283238158503
20
-8.63296520479523
30
0
41
1
10
48.7096939968414
20
-8.49561564761682
30
0
41
1
10
48.7011535648426
20
-8.45010183435348
30
0
41
1
10
48.6847708399666
20
-8.38224514933276
30
0
41
1
10
48.6786941826393
20
-8.35963759029016
30
0
41
1
10
48.6654676549368
20
-8.31502841081354
30
0
41
1
10
48.6583119265895
20
-8.29298872573354
30
0
41
1
10
48.619881985459
20
-8.18408522502712
30
0
41
1
10
48.5807306491413
20
-8.10106967890815
30
0
41
1
10
48.521454942137
20
-8.00234257213677
30
0
41
1
10
48.5090782162706
20
-7.98285155897102
30
0
41
1
10
48.4832666036004
20
-7.9443853420789
30
0
41
1
10
48.469895898424
20
-7.92550894796422
30
0
41
1
10
48.4286028766348
20
-7.87018376171385
30
0
41
1
10
48.3702525245731
20
-7.79966314241115
30
0
41
1
10
48.305522580146
20
-7.73541663144631
30
0
41
1
10
48.2545879030463
20
-7.68957226890321
30
0
41
1
10
48.2372111193934
20
-7.67468156490158
30
0
41
1
10
48.2016525799033
20
-7.64568801230386
30
0
41
1
10
48.1834262144494
20
-7.63155286964196
30
0
41
1
10
48.0908143638717
20
-7.56328964605494
30
0
41
1
10
48.0125767202078
20
-7.51666568555315
30
0
41
1
10
47.8892497926724
20
-7.45812146793217
30
0
41
1
10
47.8471383227007
20
-7.44051980913997
30
0
41
1
10
47.7824335985754
20
-7.41704069869108
30
0
41
1
10
47.7605517802448
20
-7.40968559844453
30
0
41
1
10
47.7165802327757
20
-7.3960667515757
30
0
41
1
10
47.6945059011032
20
-7.38980404021969
30
0
41
1
10
47.5836985142752
20
-7.36117286932142
30
0
41
1
10
47.493669949436
20
-7.34677691153925
30
0
41
1
10
47.3794019196513
20
-7.33937599051454
30
0
41
1
10
47.3564609764298
20
-7.33843016320772
30
0
41
1
10
47.3104014608941
20
-7.33762524624625
30
0
41
1
10
47.2872491922797
20
-7.33776724560606
30
0
41
1
10
47.2177411079414
20
-7.3398557298792
30
0
41
1
10
47.1717906024222
20
-7.34344024391501
30
0
41
1
10
47.035075660133
20
-7.36059306461567
30
0
41
1
10
46.9454366965446
20
-7.38050230798534
30
0
41
1
10
46.8353460491069
20
-7.4162902626058
30
0
41
1
10
46.8134267173392
20
-7.4239976297513
30
0
41
1
10
46.7697913710118
20
-7.4405395531374
30
0
41
1
10
46.7481733757043
20
-7.44933930038411
30
0
41
1
10
46.6842834083932
20
-7.47715517657083
30
0
41
1
10
46.6428173917021
20
-7.49764307228932
30
0
41
1
10
46.5217555686409
20
-7.56484802475471
30
0
41
1
10
46.4454629798919
20
-7.61724934610953
30
0
41
1
10
46.3559405903329
20
-7.69276881658593
30
0
41
1
10
46.3383663815205
20
-7.70835315084896
30
0
41
1
10
46.3042050810932
20
-7.74018156063376
30
0
41
1
10
46.2543002198609
20
-7.78903532570082
30
0
41
1
10
46.2083459701939
20
-7.84117154957509
30
0
41
1
10
46.1505735590989
20
-7.91359350220701
30
0
41
1
10
46.1234370910814
20
-7.95125771578171
30
0
41
1
10
46.0854261977522
20
-8.00999099846881
30
0
41
1
10
46.0732056900322
20
-8.02994227402188
30
0
41
1
10
46.0496864843406
20
-8.07061027361438
30
0
41
1
10
46.0384331226653
20
-8.09125453153763
30
0
41
1
10
45.9850833861853
20
-8.19524551900358
30
0
41
1
10
45.9512310297002
20
-8.28160056160689
30
0
41
1
10
45.9135851433133
20
-8.41583688127447
30
0
41
1
10
45.9032341091768
20
-8.46140725088516
30
0
41
1
10
45.8871475607356
20
-8.5540469502055
30
0
41
1
10
45.8814905956696
20
-8.6006447059837
30
0
41
1
10
45.8782243246468
20
-8.64752016134135
30
0
0
SPLINE
5
1B3
100
AcDbEntity
8
1
62
256
6
ByLayer
370
18
48
1
60
0
100
AcDbSpline
70
4
71
3
72
10
73
6
40
0
40
0
40
0
40
0
40
0.5
40
0.5
40
1
40
1
40
1
40
1
41
1
10
48.6781779350365
20
-9.4913744607753
30
0
41
1
10
48.685968469522
20
-9.37937553316716
30
0
41
1
10
48.6937733354406
20
-9.26736780366141
30
0
41
1
10
48.709387070164
20
-9.04334988620796
30
0
41
1
10
48.7171934044855
20
-8.93134125485717
30
0
41
1
10
48.7249773081662
20
-8.81934639967253
30
0
0
SPLINE
5
1B4
100
AcDbEntity
8
1
62
256
6
ByLayer
370
18
48
1
60
0
100
AcDbSpline
70
4
71
3
72
8
73
4
40
0
40
0
40
0
40
0
40
1
40
1
40
1
40
1
41
1
10
48.6781779350364
20
-9.49137446077529
30
0
41
1
10
48.8041568293155
20
-9.48455543829864
30
0
41
1
10
48.9301320319696
20
-9.47766568143932
30
0
41
1
10
49.0561035941979
20
-9.47070499318698
30
0
0
SPLINE
5
1B5
100
AcDbEntity
8
1
62
256
6
ByLayer
370
18
48
1
60
0
100
AcDbSpline
70
4
71
3
72
32
73
28
40
0
40
0
40
0
40
0
40
0.125000000000031
40
0.125000000000031
40
0.250000000000061
40
0.250000000000061
40
0.312500000000078
40
0.312500000000078
40
0.343750000000074
40
0.343750000000074
40
0.37500000000007
40
0.37500000000007
40
0.500000000000051
40
0.500000000000051
40
0.625000000000032
40
0.625000000000032
40
0.656250000000037
40
0.656250000000037
40
0.687500000000042
40
0.750000000000053
40
0.812500000000063
40
0.812500000000063
40
0.843750000000068
40
0.843750000000068
40
0.875000000000073
40
0.875000000000073
40
1
40
1
40
1
40
1
41
1
10
50.2406562861805
20
-8.39594182892074
30
0
41
1
10
50.2197689726625
20
-8.4644384992062
30
0
41
1
10
50.1952074811156
20
-8.53108099911154
30
0
41
1
10
50.1387592414302
20
-8.66067126164637
30
0
41
1
10
50.1068738840393
20
-8.72361972200611
30
0
41
1
10
50.0532137602087
20
-8.81510220846972
30
0
41
1
10
50.0343512638184
20
-8.84510443289524
30
0
41
1
10
50.0045113296813
20
-8.88932842673194
30
0
41
1
10
49.9943066759949
20
-8.90393971087067
30
0
41
1
10
49.973363410625
20
-8.93289316688843
30
0
41
1
10
49.9626072532595
20
-8.94725658078933
30
0
41
1
10
49.9078483386889
20
-9.01785989294493
30
0
41
1
10
49.8607059316518
20
-9.07081203143748
30
0
41
1
10
49.7593603167235
20
-9.16925360893052
30
0
41
1
10
49.7051653983811
20
-9.2147517701263
30
0
41
1
10
49.6324097506107
20
-9.26633127638679
30
0
41
1
10
49.6176017943667
20
-9.27638073503796
30
0
41
1
10
49.5877426006236
20
-9.29574697985325
30
0
41
1
10
49.5424890283822
20
-9.32376913754462
30
0
41
1
10
49.4647267272342
20
-9.36530260734993
30
0
41
1
10
49.399939306493
20
-9.39283397469619
30
0
41
1
10
49.3503290997892
20
-9.41122924394827
30
0
41
1
10
49.3336221396032
20
-9.41698482832476
30
0
41
1
10
49.2998554083533
20
-9.42771622263919
30
0
41
1
10
49.2827599673959
20
-9.43270118954338
30
0
41
1
10
49.1968153436208
20
-9.45547571319969
30
0
41
1
10
49.1270167834667
20
-9.4667866119687
30
0
41
1
10
49.0561035941976
20
-9.470704993187
30
0
0
SPLINE
5
1B6
100
AcDbEntity
8
1
62
256
6
ByLayer
370
18
48
1
60
0
100
AcDbSpline
70
4
71
3
72
10
73
6
40
0
40
0
40
0
40
0
40
0.500000000000001
40
0.500000000000001
40
1
40
1
40
1
40
1
41
1
10
50.2406562861805
20
-8.39594182892077
30
0
41
1
10
50.2947879677574
20
-8.21842546513521
30
0
41
1
10
50.3452679027215
20
-8.04010351052139
30
0
41
1
10
50.4396082612426
20
-7.68222133309608
30
0
41
1
10
50.4834789730427
20
-7.50266619303608
30
0
41
1
10
50.5242666633895
20
-7.32266421856966
30
0
0
SPLINE
5
1B7
100
AcDbEntity
8
1
62
256
6
ByLayer
370
18
48
1
60
0
100
AcDbSpline
70
4
71
3
72
12
73
8
40
0
40
0
40
0
40
0
40
0.249999999999999
40
0.249999999999999
40
0.499999999999999
40
0.499999999999999
40
1
40
1
40
1
40
1
41
1
10
50.5242666633896
20
-7.32266421856966
30
0
41
1
10
50.5242666633896
20
-7.23317424373512
30
0
41
1
10
50.5242666633895
20
-7.14391835821098
30
0
41
1
10
50.5242666633895
20
-6.96594484088229
30
0
41
1
10
50.5242666633896
20
-6.877233462991
30
0
41
1
10
50.5242666633895
20
-6.61192631376332
30
0
41
1
10
50.5242666633895
20
-6.43614433404258
30
0
41
1
10
50.5242666633895
20
-6.26139912108179
30
0
0
SPLINE
5
1B8
100
AcDbEntity
8
1
62
256
6
ByLayer
370
18
48
1
60
0
100
AcDbSpline
70
4
71
3
72
8
73
4
40
0
40
0
40
0
40
0
40
1
40
1
40
1
40
1
41
1
10
50.5242666633896
20
-6.26139912108225
30
0
41
1
10
50.514692471364
20
-5.95202789333526
30
0
41
1
10
50.5050109464514
20
-5.64759625279804
30
0
41
1
10
50.495205931786
20
-5.34782839429671
30
0
0
SPLINE
5
1B9
100
AcDbEntity
8
1
62
256
6
ByLayer
370
18
48
1
60
0
100
AcDbSpline
70
4
71
3
72
8
73
4
40
0
40
0
40
0
40
0
40
1
40
1
40
1
40
1
41
1
10
50.4948096214298
20
-5.33818590420256
30
0
41
1
10
50.4949686418122
20
-5.34139709853859
30
0
41
1
10
50.4951007103099
20
-5.34461146728006
30
0
41
1
10
50.4952059317861
20
-5.34782839429673
30
0
0
SPLINE
5
1BA
100
AcDbEntity
8
1
62
256
6
ByLayer
370
18
48
1
60
0
100
AcDbSpline
70
4
71
3
72
19
73
15
40
0
40
0
40
0
40
0
40
0.5
40
0.5
40
0.5625
40
0.5625
40
0.625
40
0.6875
40
0.6875
40
0.75
40
0.75
40
0.875
40
0.875
40
1
40
1
40
1
40
1
41
1
10
50.4948096214298
20
-5.33818590420258
30
0
41
1
10
50.4820565514623
20
-5.08065548305514
30
0
41
1
10
50.4692027270378
20
-4.82732040579538
30
0
41
1
10
50.4545964931952
20
-4.54705229774945
30
0
41
1
10
50.4529705242077
20
-4.51599134696923
30
0
41
1
10
50.4497203676289
20
-4.45391965644558
30
0
41
1
10
50.4464739883054
20
-4.39187033161531
30
0
41
1
10
50.4432686781739
20
-4.32941791312751
30
0
41
1
10
50.4401012058227
20
-4.26654262824188
30
0
41
1
10
50.4385373285729
20
-4.23488102019836
30
0
41
1
10
50.4339212877395
20
-4.13904099941068
30
0
41
1
10
50.430939326816
20
-4.07408011524831
30
0
41
1
10
50.4251624088584
20
-3.9422580022124
30
0
41
1
10
50.4223659698074
20
-3.87541517576658
30
0
41
1
10
50.4196688443404
20
-3.80764467249544
30
0
0
SPLINE
5
1BB
100
AcDbEntity
8
1
62
256
6
ByLayer
370
18
48
1
60
0
100
AcDbSpline
70
4
71
3
72
8
73
4
40
0
40
0
40
0
40
0
40
1
40
1
40
1
40
1
41
1
10
50.4196688443402
20
-3.80764467249587
30
0
41
1
10
50.4177158259685
20
-3.75857130176762
30
0
41
1
10
50.4168427641707
20
-3.70917596719272
30
0
41
1
10
50.4168427641707
20
-3.65946074880336
30
0
0
SPLINE
5
1BC
100
AcDbEntity
8
1
62
256
6
ByLayer
370
18
48
1
60
0
100
AcDbSpline
70
4
71
3
72
26
73
22
40
0
40
0
40
0
40
0
40
0.0624999999999998
40
0.0624999999999998
40
0.125
40
0.125
40
0.249999999999999
40
0.249999999999999
40
0.499999999999999
40
0.499999999999999
40
0.624999999999998
40
0.624999999999998
40
0.687499999999998
40
0.687499999999998
40
0.749999999999998
40
0.749999999999998
40
0.874999999999999
40
0.874999999999999
40
0.9375
40
0.9375
40
1
40
1
40
1
40
1
41
1
10
50.4168427641707
20
-3.65946074880336
30
0
41
1
10
50.4168427641707
20
-3.62613307656677
30
0
41
1
10
50.4168427641707
20
-3.59255372393226
30
0
41
1
10
50.4168427641707
20
-3.52549871908244
30
0
41
1
10
50.4168427641706
20
-3.49197174624476
30
0
41
1
10
50.4168427641706
20
-3.39139242092877
30
0
41
1
10
50.4168427641707
20
-3.32434166501115
30
0
41
1
10
50.4168427641707
20
-3.12319587439015
30
0
41
1
10
50.4168427641707
20
-2.98910716912306
30
0
41
1
10
50.4168427641707
20
-2.78798640969049
30
0
41
1
10
50.4168427641708
20
-2.72094821940992
30
0
41
1
10
50.4168427641707
20
-2.62039409971874
30
0
41
1
10
50.4168427641706
20
-2.58693296792946
30
0
41
1
10
50.4168427641706
20
-2.52039040902533
30
0
41
1
10
50.4168427641707
20
-2.4872692472255
30
0
41
1
10
50.4168427641707
20
-2.38835734076325
30
0
41
1
10
50.4168427641707
20
-2.32301650642742
30
0
41
1
10
50.4168427641707
20
-2.22593897462345
30
0
41
1
10
50.4168427641707
20
-2.19373581624575
30
0
41
1
10
50.4168427641707
20
-2.12965246404691
30
0
41
1
10
50.4168427641707
20
-2.09777705191423
30
0
41
1
10
50.4168427641707
20
-2.06625653381029
30
0
0
SPLINE
5
1BD
100
AcDbEntity
8
1
62
256
6
ByLayer
370
18
48
1
60
0
100
AcDbSpline
70
4
71
3
72
32
73
28
40
0
40
0
40
0
40
0
40
0.0156249999999895
40
0.0156249999999895
40
0.031249999999979
40
0.0624999999999767
40
0.0624999999999767
40
0.124999999999991
40
0.124999999999991
40
0.250000000000001
40
0.250000000000001
40
0.37500000000001
40
0.37500000000001
40
0.50000000000002
40
0.50000000000002
40
0.625000000000029
40
0.625000000000029
40
0.750000000000039
40
0.750000000000039
40
0.812500000000044
40
0.843750000000036
40
0.843750000000036
40
0.875000000000029
40
0.875000000000029
40
0.937500000000014
40
0.937500000000014
40
1
40
1
40
1
40
1
41
1
10
50.4168427641707
20
-2.06625653381029
30
0
41
1
10
50.3960401017915
20
-2.05904210877195
30
0
41
1
10
50.3752327982416
20
-2.05184340320476
30
0
41
1
10
50.3335524106317
20
-2.03766661260271
30
0
41
1
10
50.2709155142422
20
-2.01679145547042
30
0
41
1
10
50.2079774546155
20
-1.99692595403103
30
0
41
1
10
50.0817863998387
20
-1.95825036588326
30
0
41
1
10
49.9972435106526
20
-1.93385910268849
30
0
41
1
10
49.7427640071709
20
-1.86353439567837
30
0
41
1
10
49.5719926539597
20
-1.82039551028001
30
0
41
1
10
49.229125346586
20
-1.7385497435083
30
0
41
1
10
49.0569786537124
20
-1.69990972341473
30
0
41
1
10
48.7118602043266
20
-1.62585249495248
30
0
41
1
10
48.5389729743417
20
-1.59046597841262
30
0
41
1
10
48.1926924503507
20
-1.52223390684523
30
0
41
1
10
48.019297462003
20
-1.48937032204658
30
0
41
1
10
47.6720760814478
20
-1.42592322666402
30
0
41
1
10
47.4983225926944
20
-1.39532493962538
30
0
41
1
10
47.2374752990661
20
-1.35096066587653
30
0
41
1
10
47.1069969276792
20
-1.32917313934111
30
0
41
1
10
46.976434593255
20
-1.30799196197628
30
0
41
1
10
46.8893741968519
20
-1.29400818043223
30
0
41
1
10
46.8458363486748
20
-1.28706970873718
30
0
41
1
10
46.71516046851
20
-1.26674878385398
30
0
41
1
10
46.627953354614
20
-1.25391633537006
30
0
41
1
10
46.4531894279177
20
-1.2311919689628
30
0
41
1
10
46.3656396889718
20
-1.22124351103938
30
0
41
1
10
46.2779083979212
20
-1.2128508422059
30
0
0
SPLINE
5
1BE
100
AcDbEntity
8
1
62
256
6
ByLayer
370
13
48
1
60
0
100
AcDbSpline
70
4
71
3
72
68
73
64
40
0
40
0
40
0
40
0
40
0.0312525634464571
40
0.0312525634464571
40
0.0625051268929142
40
0.0625051268929142
40
0.0937576903393713
40
0.0937576903393713
40
0.125010253785828
40
0.125010253785828
40
0.156262817232285
40
0.156262817232285
40
0.187515380678743
40
0.187515380678743
40
0.2187679441252
40
0.2187679441252
40
0.250020507571657
40
0.281273071018114
40
0.281273071018114
40
0.312525634464571
40
0.312525634464571
40
0.343778197911028
40
0.343778197911028
40
0.375030761357485
40
0.375030761357485
40
0.406283324803942
40
0.406283324803942
40
0.437535888250399
40
0.437535888250399
40
0.468788451696856
40
0.468788451696856
40
0.500041015143313
40
0.500041015143313
40
0.53129357858977
40
0.53129357858977
40
0.562546142036227
40
0.562546142036227
40
0.593798705482684
40
0.593798705482684
40
0.625051268929141
40
0.625051268929141
40
0.656303832375598
40
0.656303832375598
40
0.687556395822055
40
0.687556395822055
40
0.718808959268513
40
0.718808959268513
40
0.75006152271497
40
0.781314086161427
40
0.781314086161427
40
0.812566649607884
40
0.812566649607884
40
0.843819213054341
40
0.843819213054341
40
0.875071776500798
40
0.875071776500798
40
0.906324339947255
40
0.906324339947255
40
0.937576903393712
40
0.937576903393712
40
0.968829466840169
40
0.968829466840169
40
1
40
1
40
1
40
1
41
1
10
39.2239340820246
20
-10.9689343693387
30
0
41
1
10
39.2239340820244
20
-10.9689279311949
30
0
41
1
10
39.2239340820245
20
-10.9512983834501
30
0
41
1
10
39.2239340820245
20
-10.8809304107577
30
0
41
1
10
39.2239340820245
20
-10.8281969701966
30
0
41
1
10
39.2239340820245
20
-10.6881387068558
30
0
41
1
10
39.2239340820246
20
-10.6008141008255
30
0
41
1
10
39.2239340820245
20
-10.3924143844759
30
0
41
1
10
39.2239340820245
20
-10.2713395966689
30
0
41
1
10
39.2239340820245
20
-9.99660543050199
30
0
41
1
10
39.2239340820246
20
-9.84294647731112
30
0
41
1
10
39.2239340820245
20
-9.50452370153189
30
0
41
1
10
39.2239340820246
20
-9.3197604026749
30
0
41
1
10
39.2239340820245
20
-8.92090821361488
30
0
41
1
10
39.2239340820245
20
-8.70681994066166
30
0
41
1
10
39.2239340820245
20
-8.25137950293626
30
0
41
1
10
39.2239340820245
20
-7.76867579742955
30
0
41
1
10
39.2239340820246
20
-7.23609519653346
30
0
41
1
10
39.2239340820245
20
-6.68113941746974
30
0
41
1
10
39.2239340820246
20
-6.39247479768439
30
0
41
1
10
39.2239340820245
20
-5.7955503130854
30
0
41
1
10
39.2239340820246
20
-5.48729137205142
30
0
41
1
10
39.2239340820245
20
-4.85414689101599
30
0
41
1
10
39.2239340820246
20
-4.529262330847
30
0
41
1
10
39.2239340820246
20
-3.86599538083948
30
0
41
1
10
39.2239340820246
20
-3.52761401744988
30
0
41
1
10
39.2239340820245
20
-2.84061222177743
30
0
41
1
10
39.2239340820246
20
-2.49199285267474
30
0
41
1
10
39.2239340820246
20
-1.78787241418307
30
0
41
1
10
39.2239340820245
20
-1.43237243446649
30
0
41
1
10
39.2239340820245
20
-0.717914417889659
30
0
41
1
10
39.2239340820245
20
-0.358957486699893
30
0
41
1
10
39.2239340820245
20
0.358957486699978
30
0
41
1
10
39.2239340820245
20
0.717914417889745
30
0
41
1
10
39.2239340820245
20
1.43237243446657
30
0
41
1
10
39.2239340820246
20
1.78787241418317
30
0
41
1
10
39.2239340820245
20
2.49199285267484
30
0
41
1
10
39.2239340820246
20
2.84061222177752
30
0
41
1
10
39.2239340820245
20
3.52761401744998
30
0
41
1
10
39.2239340820246
20
3.86599538083958
30
0
41
1
10
39.2239340820246
20
4.52926233084709
30
0
41
1
10
39.2239340820245
20
4.85414689101609
30
0
41
1
10
39.2239340820245
20
5.4872913720515
30
0
41
1
10
39.2239340820245
20
5.79555031308549
30
0
41
1
10
39.2239340820245
20
6.39247479768447
30
0
41
1
10
39.2239340820246
20
6.68113941746982
30
0
41
1
10
39.2239340820245
20
7.23609519653355
30
0
41
1
10
39.2239340820245
20
7.76867658303966
30
0
41
1
10
39.2239340820246
20
8.25137950293636
30
0
41
1
10
39.2239340820246
20
8.70681994066176
30
0
41
1
10
39.2239340820245
20
8.92090821361496
30
0
41
1
10
39.2239340820245
20
9.319760402675
30
0
41
1
10
39.2239340820245
20
9.50452370153199
30
0
41
1
10
39.2239340820246
20
9.8429464773112
30
0
41
1
10
39.2239340820246
20
9.99660543050209
30
0
41
1
10
39.2239340820246
20
10.271339596669
30
0
41
1
10
39.2239340820245
20
10.392414384476
30
0
41
1
10
39.2239340820245
20
10.6008141008256
30
0
41
1
10
39.2239340820246
20
10.6881387068559
30
0
41
1
10
39.2239340820245
20
10.8281969701967
30
0
41
1
10
39.2239340820246
20
10.8809304107578
30
0
41
1
10
39.2239340820246
20
10.9512060341462
30
0
41
1
10
39.2239340820248
20
10.9688510571622
30
0
41
1
10
39.2239340820247
20
10.9689356291547
30
0
0
SPLINE
5
1BF
100
AcDbEntity
8
1
62
256
6
ByLayer
370
18
48
1
60
0
100
AcDbSpline
70
4
71
3
72
32
73
28
40
0
40
0
40
0
40
0
40
0.125000000000057
40
0.125000000000057
40
0.250000000000114
40
0.250000000000114
40
0.312500000000144
40
0.312500000000144
40
0.343750000000159
40
0.343750000000159
40
0.375000000000174
40
0.375000000000174
40
0.500000000000231
40
0.500000000000231
40
0.625000000000288
40
0.625000000000288
40
0.656250000000284
40
0.656250000000284
40
0.687500000000279
40
0.750000000000269
40
0.812500000000258
40
0.812500000000258
40
0.843750000000231
40
0.843750000000231
40
0.875000000000203
40
0.875000000000203
40
1
40
1
40
1
40
1
41
1
10
50.2406562861805
20
7.77978075687859
30
0
41
1
10
50.2197689726625
20
7.78692963386614
30
0
41
1
10
50.1952074811156
20
7.79290628971762
30
0
41
1
10
50.1387592414301
20
7.80269333880422
30
0
41
1
10
50.1068738840394
20
7.80650381511983
30
0
41
1
10
50.0532137602087
20
7.81061802409634
30
0
41
1
10
50.0343512638184
20
7.81172137039971
30
0
41
1
10
50.0045113296813
20
7.81296560435364
30
0
41
1
10
49.994306675995
20
7.81331179694084
30
0
41
1
10
49.973363410625
20
7.81386446530161
30
0
41
1
10
49.9626072532595
20
7.81407094790903
30
0
41
1
10
49.9078483386889
20
7.81474240863919
30
0
41
1
10
49.8607059316518
20
7.81414194821821
30
0
41
1
10
49.7593603167236
20
7.81063728262397
30
0
41
1
10
49.7051653983813
20
7.80773542295222
30
0
41
1
10
49.6324097506109
20
7.80251026547302
30
0
41
1
10
49.6176017943669
20
7.80138393719029
30
0
41
1
10
49.5877426006236
20
7.79898742932616
30
0
41
1
10
49.5424890283825
20
7.79516982807539
30
0
41
1
10
49.4647265029096
20
7.78768799079265
30
0
41
1
10
49.3999393064931
20
7.7804712483902
30
0
41
1
10
49.3503290997895
20
7.77457059286543
30
0
41
1
10
49.3336221396034
20
7.77252223026777
30
0
41
1
10
49.2998554083535
20
7.76825624548015
30
0
41
1
10
49.2827599673962
20
7.7660338090547
30
0
41
1
10
49.1968153436212
20
7.75454028905654
30
0
41
1
10
49.1270167834671
20
7.74419828876111
30
0
41
1
10
49.0561035941979
20
7.73262093380042
30
0
0
SPLINE
5
1C0
100
AcDbEntity
8
1
62
256
6
ByLayer
370
18
48
1
60
0
100
AcDbSpline
70
4
71
3
72
30
73
26
40
0
40
0
40
0
40
0
40
0.125000000000027
40
0.250000000000054
40
0.250000000000054
40
0.281250000000061
40
0.281250000000061
40
0.312500000000067
40
0.375000000000083
40
0.375000000000083
40
0.500000000000113
40
0.500000000000113
40
0.562500000000105
40
0.562500000000105
40
0.625000000000098
40
0.625000000000098
40
0.750000000000031
40
0.750000000000031
40
0.781250000000027
40
0.781250000000027
40
0.812500000000023
40
0.812500000000023
40
0.875000000000015
40
0.875000000000015
40
1
40
1
40
1
40
1
41
1
10
50.2406562861805
20
1.6205096387132
30
0
41
1
10
50.2176925391763
20
1.62329065441953
30
0
41
1
10
50.1631297204503
20
1.62954007792949
30
0
41
1
10
50.0919214738281
20
1.63711451653334
30
0
41
1
10
50.0420208119601
20
1.6422780357284
30
0
41
1
10
50.0317488796787
20
1.64333441120178
30
0
41
1
10
50.0108284617279
20
1.64547319120447
30
0
41
1
10
49.9788400976899
20
1.64872490391104
30
0
41
1
10
49.9450589062292
20
1.65210506780088
30
0
41
1
10
49.8751442492
20
1.65903392958927
30
0
41
1
10
49.8254126365709
20
1.66387684217389
30
0
41
1
10
49.7460219042045
20
1.67148463885269
30
0
41
1
10
49.7186445841168
20
1.67408846194554
30
0
41
1
10
49.6631608168865
20
1.67932735221154
30
0
41
1
10
49.6349818239368
20
1.68196952188254
30
0
41
1
10
49.5491628571982
20
1.68996267916908
30
0
41
1
10
49.4902486149378
20
1.69537991373933
30
0
41
1
10
49.4144569669729
20
1.7022631715946
30
0
41
1
10
49.3991905784262
20
1.70364544095874
30
0
41
1
10
49.3684385956416
20
1.70642137580158
30
0
41
1
10
49.3529244802767
20
1.70781759136119
30
0
41
1
10
49.306370103074
20
1.71199472563347
30
0
41
1
10
49.2752597156677
20
1.71476946143407
30
0
41
1
10
49.1817103112239
20
1.7230641707233
30
0
41
1
10
49.1190543914303
20
1.72855482714513
30
0
41
1
10
49.0561035941985
20
1.7340056272658
30
0
0
SPLINE
5
1C1
100
AcDbEntity
8
1
62
256
6
ByLayer
370
18
48
1
60
0
100
AcDbSpline
70
4
71
3
72
28
73
24
40
0
40
0
40
0
40
0
40
0.100557858994766
40
0.100557858994766
40
0.145529966045041
40
0.145529966045041
40
0.190502073095315
40
0.190502073095315
40
0.280446287195867
40
0.280446287195867
40
0.460334715396996
40
0.460334715396996
40
0.505306822447262
40
0.505306822447262
40
0.550278929497528
40
0.550278929497528
40
0.640223143598023
40
0.640223143598023
40
0.820111571799012
40
0.820111571799012
40
0.910055785899506
40
0.910055785899506
40
1
40
1
40
1
40
1
41
1
10
42.0716567112974
20
-1.07262103205478
30
0
41
1
10
42.0818955544951
20
-1.0940290001424
30
0
41
1
10
42.0944077932145
20
-1.11636121122028
30
0
41
1
10
42.1159082686776
20
-1.14949094021915
30
0
41
1
10
42.1230243425826
20
-1.15984408472441
30
0
41
1
10
42.1382259016243
20
-1.18072627678917
30
0
41
1
10
42.1463176965236
20
-1.19126044839365
30
0
41
1
10
42.171837800286
20
-1.22275066167948
30
0
41
1
10
42.1905765624932
20
-1.24369258436074
30
0
41
1
10
42.2519669620837
20
-1.30570213172842
30
0
41
1
10
42.2998605140435
20
-1.34588119619663
30
0
41
1
10
42.3683505249671
20
-1.39272587671729
30
0
41
1
10
42.3825008083626
20
-1.40194393265952
30
0
41
1
10
42.4114019556285
20
-1.41987783229935
30
0
41
1
10
42.4261786115517
20
-1.42864351597069
30
0
41
1
10
42.4713857524847
20
-1.45390298919993
30
0
41
1
10
42.5026889797133
20
-1.46939634840167
30
0
41
1
10
42.5998165183052
20
-1.51212057634439
30
0
41
1
10
42.6688270479895
20
-1.53563128754551
30
0
41
1
10
42.7781024486969
20
-1.56422104192315
30
0
41
1
10
42.8151979434501
20
-1.57253565133408
30
0
41
1
10
42.8904611442512
20
-1.58685433948683
30
0
41
1
10
42.9286573232461
20
-1.59287693179509
30
0
41
1
10
42.9674022930463
20
-1.5977943933602
30
0
0
SPLINE
5
1C2
100
AcDbEntity
8
1
62
256
6
ByLayer
370
18
48
1
60
0
100
AcDbSpline
70
4
71
3
72
33
73
29
40
0
40
0
40
0
40
0
40
0.161936734977576
40
0.161936734977576
40
0.202420918721953
40
0.202420918721953
40
0.24290510246633
40
0.24290510246633
40
0.323873469955137
40
0.323873469955137
40
0.404841837443945
40
0.404841837443945
40
0.445326021188359
40
0.445326021188359
40
0.485810204932774
40
0.566778572421603
40
0.566778572421603
40
0.647746939910431
40
0.647746939910431
40
0.72871530739926
40
0.72871530739926
40
0.769199491143674
40
0.769199491143674
40
0.809683674888088
40
0.809683674888088
40
0.971620409865619
40
0.971620409865619
40
1
40
1
40
1
40
1
41
1
10
42.9674022930463
20
-1.59779439336016
30
0
41
1
10
42.9410935189963
20
-1.57103136954004
30
0
41
1
10
42.9172291716771
20
-1.54243769446265
30
0
41
1
10
42.8914087692305
20
-1.50377069869152
30
0
41
1
10
42.8864480261327
20
-1.49588901827384
30
0
41
1
10
42.8769713864451
20
-1.4798029328016
30
0
41
1
10
42.8724432306671
20
-1.47157242035152
30
0
41
1
10
42.8597369757925
20
-1.44663604051127
30
0
41
1
10
42.8524051124456
20
-1.42964250044444
30
0
41
1
10
42.8402552282867
20
-1.39485610465172
30
0
41
1
10
42.8354270460711
20
-1.37706752600727
30
0
41
1
10
42.8302370036544
20
-1.34975210601397
30
0
41
1
10
42.8288552982643
20
-1.34054596398303
30
0
41
1
10
42.8268401361696
20
-1.32225658673201
30
0
41
1
10
42.8249148160088
20
-1.29488212691167
30
0
41
1
10
42.8262308518407
20
-1.26769559895266
30
0
41
1
10
42.8308760756482
20
-1.23162872632801
30
0
41
1
10
42.8346983917887
20
-1.21355781194256
30
0
41
1
10
42.8449586653485
20
-1.17872387601332
30
0
41
1
10
42.851389144853
20
-1.16185199953513
30
0
41
1
10
42.8628406412299
20
-1.13730033447413
30
0
41
1
10
42.8669596579152
20
-1.12924277987524
30
0
41
1
10
42.8757865025702
20
-1.11337327383927
30
0
41
1
10
42.8805037015704
20
-1.10555096641781
30
0
41
1
10
42.9051754760096
20
-1.06755662387219
30
0
41
1
10
42.9285763708817
20
-1.04025914525415
30
0
41
1
10
42.9594534393192
20
-1.01097386369966
30
0
41
1
10
42.9641553817068
20
-1.00667424786168
30
0
41
1
10
42.9689394657395
20
-1.00244888350233
30
0
0
SPLINE
5
1C3
100
AcDbEntity
8
1
62
256
6
ByLayer
370
18
48
1
60
0
100
AcDbSpline
70
4
71
3
72
30
73
26
40
0
40
0
40
0
40
0
40
0.202051185468478
40
0.202051185468478
40
0.404102370936957
40
0.404102370936957
40
0.505127963671195
40
0.505127963671195
40
0.606153556405434
40
0.606153556405434
40
0.707179149139673
40
0.707179149139673
40
0.808204741873911
40
0.808204741873911
40
0.858717538241031
40
0.858717538241031
40
0.90923033460815
40
0.90923033460815
40
0.934486732791663
40
0.934486732791663
40
0.959743130975176
40
0.959743130975176
40
0.984999529158689
40
0.984999529158689
40
1
40
1
40
1
40
1
41
1
10
44.2644998481491
20
2.13642805714432
30
0
41
1
10
44.2397729580777
20
2.16787845591955
30
0
41
1
10
44.2131595654657
20
2.19691083048386
30
0
41
1
10
44.1568605876253
20
2.25066566944324
30
0
41
1
10
44.1271669582638
20
2.27538203934422
30
0
41
1
10
44.0804750265397
20
2.30924034074509
30
0
41
1
10
44.0645007202291
20
2.32001644033879
30
0
41
1
10
44.0320957087411
20
2.34028987944993
30
0
41
1
10
44.0156776523627
20
2.34978429516933
30
0
41
1
10
43.9824467151668
20
2.36749188874182
30
0
41
1
10
43.9656227753006
20
2.37570613146751
30
0
41
1
10
43.9317639458689
20
2.39084116374714
30
0
41
1
10
43.9148494766756
20
2.3977022897422
30
0
41
1
10
43.8900064456907
20
2.40691971441716
30
0
41
1
10
43.8818165744666
20
2.40981264435435
30
0
41
1
10
43.865800424713
20
2.4152258051362
30
0
41
1
10
43.8579694361366
20
2.41774648023347
30
0
41
1
10
43.8467521446868
20
2.42122566557551
30
0
41
1
10
43.8431028623737
20
2.4223349311103
30
0
41
1
10
43.8360613754144
20
2.42444541173198
30
0
41
1
10
43.8326919573109
20
2.42543964845319
30
0
41
1
10
43.8265032245371
20
2.42725820298305
30
0
41
1
10
43.8236636091194
20
2.42808869744476
30
0
41
1
10
43.8196389660705
20
2.42928280852146
30
0
41
1
10
43.8182454612674
20
2.42970077286826
30
0
41
1
10
43.8169858518819
20
2.43008639963293
30
0
0
SPLINE
5
1C4
100
AcDbEntity
8
1
62
256
6
ByLayer
370
18
48
1
60
0
100
AcDbSpline
70
4
71
3
72
10
73
6
40
0
40
0
40
0
40
0
40
0.5
40
0.5
40
1
40
1
40
1
40
1
41
1
10
43.618369934622
20
2.44418307121735
30
0
41
1
10
43.6752637452921
20
2.44968669577022
30
0
41
1
10
43.7314722608621
20
2.4495287779158
30
0
41
1
10
43.8428275727706
20
2.44043962253039
30
0
41
1
10
43.8979826927107
20
2.43157619162025
30
0
41
1
10
43.9527029710009
20
2.41909897564739
30
0
0
SPLINE
5
1C5
100
AcDbEntity
8
1
62
256
6
ByLayer
370
18
48
1
60
0
100
AcDbSpline
70
4
71
3
72
16
73
12
40
0
40
0
40
0
40
0
40
0.249999999999968
40
0.249999999999968
40
0.499999999999936
40
0.499999999999936
40
0.62499999999992
40
0.62499999999992
40
0.749999999999904
40
0.749999999999904
40
1
40
1
40
1
40
1
41
1
10
43.618369934622
20
2.44418307121735
30
0
41
1
10
43.5719626393005
20
2.43969386005439
30
0
41
1
10
43.5265056642177
20
2.43169179356069
30
0
41
1
10
43.4373076377401
20
2.40934952325438
30
0
41
1
10
43.3935841801718
20
2.39494056954248
30
0
41
1
10
43.3294677061192
20
2.36783705084429
30
0
41
1
10
43.3083367935313
20
2.35785620651568
30
0
41
1
10
43.2672858249414
20
2.33638995129995
30
0
41
1
10
43.2472690028718
20
2.32487216965799
30
0
41
1
10
43.1887041216326
20
2.2880222710932
30
0
41
1
10
43.1516228297003
20
2.26042345210175
30
0
41
1
10
43.1166345666945
20
2.22956817924539
30
0
0
SPLINE
5
1C6
100
AcDbEntity
8
1
62
256
6
ByLayer
370
18
48
1
60
0
100
AcDbSpline
70
4
71
3
72
34
73
30
40
0
40
0
40
0
40
0
40
0.06250000000001
40
0.06250000000001
40
0.12500000000002
40
0.12500000000002
40
0.250000000000007
40
0.250000000000007
40
0.312500000000001
40
0.312500000000001
40
0.374999999999995
40
0.374999999999995
40
0.499999999999974
40
0.499999999999974
40
0.562499999999963
40
0.562499999999963
40
0.593749999999952
40
0.593749999999952
40
0.624999999999942
40
0.624999999999942
40
0.749999999999899
40
0.749999999999899
40
0.781249999999911
40
0.781249999999911
40
0.812499999999924
40
0.812499999999924
40
0.874999999999949
40
0.874999999999949
40
1
40
1
40
1
40
1
41
1
10
43.0347966964638
20
1.15824301302111
30
0
41
1
10
43.019533042902
20
1.17719239172644
30
0
41
1
10
43.0050745168826
20
1.19679674058011
30
0
41
1
10
42.9778076004555
20
1.23734266425819
30
0
41
1
10
42.9649857548831
20
1.2583095146563
30
0
41
1
10
42.9292316245057
20
1.32317601085572
30
0
41
1
10
42.9095164421647
20
1.36798462707475
30
0
41
1
10
42.8865742980748
20
1.4377027484103
30
0
41
1
10
42.8800629509402
20
1.4613717248846
30
0
41
1
10
42.8693204240312
20
1.50956886699291
30
0
41
1
10
42.8650774834462
20
1.53421109793395
30
0
41
1
10
42.8559702992983
20
1.60795887735958
30
0
41
1
10
42.8545510701067
20
1.65722025351575
30
0
41
1
10
42.8593200913937
20
1.73125418030554
30
0
41
1
10
42.8620720937619
20
1.75595619354999
30
0
41
1
10
42.8680766606208
20
1.7930494100315
30
0
41
1
10
42.8703911492787
20
1.80540120798614
30
0
41
1
10
42.8756115037019
20
1.82982344445655
30
0
41
1
10
42.878523407195
20
1.84192883552008
30
0
41
1
10
42.8945998076297
20
1.9019247856537
30
0
41
1
10
42.912367295836
20
1.94820437096379
30
0
41
1
10
42.9401984576528
20
2.00409059116298
30
0
41
1
10
42.9460472255836
20
2.01516916906205
30
0
41
1
10
42.9583214642147
20
2.03712515376914
30
0
41
1
10
42.9647552299203
20
2.04801222550802
30
0
41
1
10
42.9847141620971
20
2.07999763234555
30
0
41
1
10
42.9989593053375
20
2.10054630914667
30
0
41
1
10
43.0445502747892
20
2.15983615000468
30
0
41
1
10
43.0787873422169
20
2.19619165987018
30
0
41
1
10
43.1166345666945
20
2.22956817924538
30
0
0
SPLINE
5
1C7
100
AcDbEntity
8
1
62
256
6
ByLayer
370
13
48
1
60
0
100
AcDbSpline
70
4
71
2
72
6
73
3
40
0
40
0
40
0
40
1
40
1
40
1
41
1
10
44.2716802312167
20
8.65975274156399
30
0
41
0.98379914717161
10
44.3514281132589
20
8.71502546662547
30
0
41
1
10
44.4333938353673
20
8.77037788165023
30
0
0
SPLINE
5
1C8
100
AcDbEntity
8
1
62
256
6
ByLayer
370
18
48
1
60
0
100
AcDbSpline
70
4
71
3
72
67
73
63
40
0
40
0
40
0
40
0
40
0.0126948672386131
40
0.0253599885197688
40
0.0379968283987502
40
0.0506068612851935
40
0.0631915710111826
40
0.075752450383536
40
0.0882910007209853
40
0.100808731376748
40
0.113307159247155
40
0.125787808267054
40
0.138252208892729
40
0.150701897573064
40
0.163138416209956
40
0.175563311608715
40
0.187978134919481
40
0.200384441070585
40
0.212783788194868
40
0.225177737050067
40
0.23756785043416
40
0.249955692596982
40
0.26234282864902
40
0.274730823968591
40
0.287121243608558
40
0.299515651703608
40
0.311915610879286
40
0.324322681663907
40
0.33673842190437
40
0.349164386187053
40
0.361602125264772
40
0.374053185490908
40
0.386519108261625
40
0.39900142946723
40
0.411501678953572
40
0.424021379994332
40
0.436562048775121
40
0.449125193890127
40
0.461712315852085
40
0.474324906616229
40
0.486964449118928
40
0.499632416831497
40
0.525014032816556
40
0.550283958938218
40
0.575454064161105
40
0.600536359153561
40
0.625542981105818
40
0.650486177668901
40
0.675378290108677
40
0.7002317357822
40
0.725058990054635
40
0.749872567784521
40
0.774685004512599
40
0.799508837494534
40
0.824356586720629
40
0.849240736065895
40
0.874173714711425
40
0.899167878973492
40
0.924235494669541
40
0.949388720141288
40
0.974639590044177
40
1
40
1
40
1
40
1
41
1
10
44.9954181910661
20
8.22978686311687
30
0
41
1
10
44.9915874294505
20
8.23662156924291
30
0
41
1
10
44.9839348822624
20
8.25027496676451
30
0
41
1
10
44.9727455696073
20
8.27089180168146
30
0
41
1
10
44.9617865987618
20
8.2915769687496
30
0
41
1
10
44.9510778493735
20
8.31234185075181
30
0
41
1
10
44.940614355474
20
8.33318315353806
30
0
41
1
10
44.9303977626837
20
8.35410150851179
30
0
41
1
10
44.9204279276549
20
8.37509650427349
30
0
41
1
10
44.9107051633009
20
8.39616801392117
30
0
41
1
10
44.9012296400696
20
8.41731584052165
30
0
41
1
10
44.8920015470514
20
8.43853981194088
30
0
41
1
10
44.8830210499991
20
8.45983975558734
30
0
41
1
10
44.8742883035976
20
8.48121550524955
30
0
41
1
10
44.8658034491967
20
8.50266689935052
30
0
41
1
10
44.8575666163967
20
8.52419378149423
30
0
41
1
10
44.8495779235712
20
8.54579600039627
30
0
41
1
10
44.8418374786393
20
8.56747340997602
30
0
41
1
10
44.8343453797383
20
8.58922586940312
30
0
41
1
10
44.8271017158879
20
8.61105324315277
30
0
41
1
10
44.8201065676246
20
8.63295540105635
30
0
41
1
10
44.8133600076088
20
8.65493221835007
30
0
41
1
10
44.8068621012058
20
8.67698357572161
30
0
41
1
10
44.80061290704
20
8.69910935935442
30
0
41
1
10
44.794612477522
20
8.72130946096995
30
0
41
1
10
44.788860859349
20
8.74358377786756
30
0
41
1
10
44.7833580939793
20
8.76593221296265
30
0
41
1
10
44.7781042180776
20
8.78835467482213
30
0
41
1
10
44.7730992639364
20
8.8108510776983
30
0
41
1
10
44.7683432598684
20
8.83342134156027
30
0
41
1
10
44.7638362305725
20
8.8560653921234
30
0
41
1
10
44.7595781974743
20
8.87878316087638
30
0
41
1
10
44.7555691790351
20
8.90157458510768
30
0
41
1
10
44.7518091910505
20
8.92443960792396
30
0
41
1
10
44.7482982468563
20
8.94737817828867
30
0
41
1
10
44.7450363577626
20
8.97039025097513
30
0
41
1
10
44.7420235324953
20
8.99347578683022
30
0
41
1
10
44.7392597802335
20
9.01663475186518
30
0
41
1
10
44.7367451000565
20
9.03986712072624
30
0
41
1
10
44.7344795211292
20
9.0631728637626
30
0
41
1
10
44.7324629528289
20
9.08655199548599
30
0
41
1
10
44.7301059658761
20
9.1178313028207
30
0
41
1
10
44.7277905366939
20
9.15695035978032
30
0
41
1
10
44.7260332399139
20
9.20384349476377
30
0
41
1
10
44.7253041265158
20
9.25058059938196
30
0
41
1
10
44.7256029859086
20
9.29716173144874
30
0
41
1
10
44.726929794733
20
9.34358723002923
30
0
41
1
10
44.7292844346782
20
9.38985747587694
30
0
41
1
10
44.7326667579833
20
9.43597295495432
30
0
41
1
10
44.7370765581948
20
9.48193424101127
30
0
41
1
10
44.7425135637512
20
9.52774199972681
30
0
41
1
10
44.7489774244362
20
9.57339698653369
30
0
41
1
10
44.7564676934971
20
9.61890004750967
30
0
41
1
10
44.7649838241025
20
9.66425211352902
30
0
41
1
10
44.7745251026513
20
9.70945421749141
30
0
41
1
10
44.7850908105917
20
9.75450742495711
30
0
41
1
10
44.7966795234658
20
9.79941308779823
30
0
41
1
10
44.8092916315307
20
9.84417188795723
30
0
41
1
10
44.8229197847395
20
9.88878741245627
30
0
41
1
10
44.837584596659
20
9.93325274159248
30
0
41
1
10
44.8532005615346
20
9.97760075845932
30
0
41
1
10
44.8644270365035
20
10.0069423787653
30
0
41
1
10
44.8700524229463
20
10.0216449415498
30
0
0
SPLINE
5
1C9
100
AcDbEntity
8
1
62
256
6
ByLayer
370
13
48
1
60
0
100
AcDbSpline
70
4
71
3
72
33
73
29
40
0
40
0
40
0
40
0
40
0.0372606820780244
40
0.0746046883127888
40
0.112033678974391
40
0.149549303049026
40
0.18715319812496
40
0.224846990285013
40
0.262632294004991
40
0.30051071205841
40
0.338483835427357
40
0.376553243219393
40
0.414720502590297
40
0.45298716867285
40
0.491354784511283
40
0.529824881001517
40
0.568398976837104
40
0.607078578460433
40
0.645865180019669
40
0.684760263330887
40
0.723765297845345
40
0.762881740621974
40
0.802111036304929
40
0.841454617105933
40
0.88091390279141
40
0.920490300674318
40
0.960185205610626
40
1
40
1
40
1
40
1
41
1
10
44.433393834932
20
8.77037788162293
30
0
41
1
10
44.4397535099009
20
8.76043387571411
30
0
41
1
10
44.4524870816545
20
8.74052362662488
30
0
41
1
10
44.471871409083
20
8.71079750864898
30
0
41
1
10
44.4914896994157
20
8.68113205794228
30
0
41
1
10
44.5113607051392
20
8.65154004383506
30
0
41
1
10
44.531478974368
20
8.62201852456558
30
0
41
1
10
44.5518455016383
20
8.59256878546884
30
0
41
1
10
44.5724594843488
20
8.56319097786999
30
0
41
1
10
44.5933205370526
20
8.53388556042465
30
0
41
1
10
44.6144280936647
20
8.50465291131276
30
0
41
1
10
44.6357815658384
20
8.4754934323019
30
0
41
1
10
44.657380297964
20
8.44640752052847
30
0
41
1
10
44.6792235768389
20
8.41739557584989
30
0
41
1
10
44.7013106266066
20
8.38845799862011
30
0
41
1
10
44.7236406076453
20
8.35959519004825
30
0
41
1
10
44.7462126143257
20
8.33080755180538
30
0
41
1
10
44.7690256732231
20
8.30209548601877
30
0
41
1
10
44.7920787405372
20
8.2734593944361
30
0
41
1
10
44.815370702136
20
8.24489968050442
30
0
41
1
10
44.8389003637623
20
8.21641674054626
30
0
41
1
10
44.8626664780127
20
8.18801099576194
30
0
41
1
10
44.8866676334326
20
8.15968277119174
30
0
41
1
10
44.9109026603628
20
8.13143274828026
30
0
41
1
10
44.935369099742
20
8.10326026733681
30
0
41
1
10
44.9600689329296
20
8.07516968971093
30
0
41
1
10
44.9849870921837
20
8.04714654659122
30
0
41
1
10
45.001751567647
20
8.02857503392745
30
0
41
1
10
45.0101464446152
20
8.01927527597995
30
0
0
SPLINE
5
1CA
100
AcDbEntity
8
1
62
256
6
ByLayer
370
18
48
1
60
0
100
AcDbSpline
70
4
71
3
72
8
73
4
40
0
40
0
40
0
40
0
40
1
40
1
40
1
40
1
41
1
10
42.0120306856464
20
10.0968512864416
30
0
41
1
10
42.0091395233919
20
10.1134295617314
30
0
41
1
10
42.006497985511
20
10.1301328447034
30
0
41
1
10
42.0041131737003
20
10.1469507531936
30
0
0
SPLINE
5
1CB
100
AcDbEntity
8
1
62
256
6
ByLayer
370
18
48
1
60
0
100
AcDbSpline
70
4
71
3
72
18
73
14
40
0
40
0
40
0
40
0
40
0.0894181933476468
40
0.179214303614605
40
0.269362440600697
40
0.359836355299298
40
0.450609449585532
40
0.541654786431002
40
0.632945100682556
40
0.724452810443853
40
0.816150029099292
40
0.908008578020961
40
1
40
1
40
1
40
1
41
1
10
42.012151550238
20
10.0967252862631
30
0
41
1
10
42.0139359503339
20
10.0868578486459
30
0
41
1
10
42.0175122921118
20
10.0670812696878
30
0
41
1
10
42.0230514854603
20
10.037367306057
30
0
41
1
10
42.028732052936
20
10.0075475002957
30
0
41
1
10
42.0345648219899
20
9.97763353963548
30
0
41
1
10
42.0405455565792
20
9.94763653993272
30
0
41
1
10
42.0466740101113
20
9.91756799812627
30
0
41
1
10
42.0529491365203
20
9.88743962361326
30
0
41
1
10
42.0593690936902
20
9.85726303924854
30
0
41
1
10
42.0659360643754
20
9.82705113533473
30
0
41
1
10
42.0726369148396
20
9.79681292039081
30
0
41
1
10
42.0772200787193
20
9.77666529561424
30
0
41
1
10
42.0795133168439
20
9.76658420262513
30
0
0
SPLINE
5
1CC
100
AcDbEntity
8
1
62
256
6
ByLayer
370
13
48
1
60
0
100
AcDbSpline
70
4
71
2
72
6
73
3
40
0
40
0
40
0
40
1
40
1
40
1
41
1
10
43.1430736681611
20
9.93201481054713
30
0
41
0.998837184066022
10
43.137608596574
20
10.0217124788372
30
0
41
1
10
43.1313638282866
20
10.1109692087375
30
0
0
SPLINE
5
1CD
100
AcDbEntity
8
1
62
256
6
ByLayer
370
13
48
1
60
0
100
AcDbSpline
70
4
71
2
72
6
73
3
40
0
40
0
40
0
40
1
40
1
40
1
41
1
10
43.143073668161
20
9.93201481054712
30
0
41
1
10
42.9128875702806
20
9.90243081804623
30
0
41
1
10
42.0795133168439
20
9.76658420262513
30
0
0
SPLINE
5
1CE
100
AcDbEntity
8
1
62
256
6
ByLayer
370
13
48
1
60
0
100
AcDbSpline
70
4
71
3
72
21
73
17
40
0
40
0
40
0
40
0
40
0.0504169451246419
40
0.100892339106089
40
0.151427068076027
40
0.202022015048936
40
0.252678059890638
40
0.303396079287525
40
0.354176946716589
40
0.405021532416181
40
0.455930703357405
40
0.506905323216428
40
0.620985638240841
40
0.741190274421552
40
0.867526351338093
40
1
40
1
40
1
40
1
41
1
10
44.7908491137437
20
7.79364005339556
30
0
41
1
10
44.7816591532273
20
7.80789269753605
30
0
41
1
10
44.7632685781834
20
7.83641450904653
30
0
41
1
10
44.73585129228
20
7.87935187042486
30
0
41
1
10
44.708539168055
20
7.92243419732802
30
0
41
1
10
44.6813467667776
20
7.9656714259998
30
0
41
1
10
44.6542718988178
20
8.00906161747699
30
0
41
1
10
44.6273168060999
20
8.05260599576357
30
0
41
1
10
44.6004824772419
20
8.09630491264844
30
0
41
1
10
44.5737701776496
20
8.14015892811945
30
0
41
1
10
44.5471810315028
20
8.18416853335152
30
0
41
1
10
44.5098066923791
20
8.24654036041898
30
0
41
1
10
44.4609215132367
20
8.32922406620615
30
0
41
1
10
44.3998775491209
20
8.43420884196931
30
0
41
1
10
44.3363906169613
20
8.54494718904317
30
0
41
1
10
44.2935887033634
20
8.62088395379915
30
0
41
1
10
44.2716802312171
20
8.6597527415633
30
0
0
SPLINE
5
1CF
100
AcDbEntity
8
1
62
256
6
ByLayer
370
13
48
1
60
0
100
AcDbSpline
70
4
71
3
72
48
73
44
40
0
40
0
40
0
40
0
40
0.026057136466127
40
0.0516706510914032
40
0.0768415816912951
40
0.101571021802746
40
0.125860124592704
40
0.149710107100157
40
0.173122254844814
40
0.196097926838726
40
0.218638561041529
40
0.240745680304174
40
0.262420898850991
40
0.31143478786084
40
0.361798167655928
40
0.41353725902612
40
0.466676245595575
40
0.521237448788375
40
0.588576252950681
40
0.652696085452468
40
0.713634443382978
40
0.771435015935665
40
0.787714821539942
40
0.803423743220818
40
0.81856416753322
40
0.833138760305421
40
0.84715051032934
40
0.860602781555443
40
0.873499375745681
40
0.885844608041727
40
0.897643398545675
40
0.908901383820848
40
0.91962505323714
40
0.929821916345333
40
0.939500708984732
40
0.948671647589104
40
0.957346743037725
40
0.965540187089869
40
0.973268825266973
40
0.980552728682143
40
0.987415871410491
40
0.993886905757828
40
1
40
1
40
1
40
1
41
1
10
44.2716802312167
20
8.65975274156399
30
0
41
1
10
44.2643015727575
20
8.67283691538749
30
0
41
1
10
44.2496698772425
20
8.69878250543081
30
0
41
1
10
44.227607895591
20
8.737194810712
30
0
41
1
10
44.2056991682416
20
8.77481091213139
30
0
41
1
10
44.1839228124273
20
8.81161903955207
30
0
41
1
10
44.162284033986
20
8.84762212296302
30
0
41
1
10
44.1407812139463
20
8.8828192415635
30
0
41
1
10
44.1194146216499
20
8.91721054662125
30
0
41
1
10
44.0981836932678
20
8.950795680895
30
0
41
1
10
44.0770893725132
20
8.98357526780703
30
0
41
1
10
44.0561275886263
20
9.0155466189246
30
0
41
1
10
44.0264236015665
20
9.06003065655419
30
0
41
1
10
43.9866800987748
20
9.11738941549874
30
0
41
1
10
43.9353639878801
20
9.18777968091477
30
0
41
1
10
43.881035481219
20
9.25888838499409
30
0
41
1
10
43.8236836236006
20
9.33070910373502
30
0
41
1
10
43.7590917506847
20
9.40823255623373
30
0
41
1
10
43.688792606576
20
9.48922471779932
30
0
41
1
10
43.6141488460523
20
9.57128546220372
30
0
41
1
10
43.5411904333229
20
9.64740103932591
30
0
41
1
10
43.4857548612098
20
9.70206442529032
30
0
41
1
10
43.4481164694319
20
9.73759772656582
30
0
41
1
10
43.4281325377371
20
9.75600306407205
30
0
41
1
10
43.4086481718708
20
9.77349492603039
30
0
41
1
10
43.3896614628497
20
9.79007123522543
30
0
41
1
10
43.3711734213827
20
9.80573291902179
30
0
41
1
10
43.3531842633489
20
9.82048013932875
30
0
41
1
10
43.3356943480043
20
9.83431324914646
30
0
41
1
10
43.3187039376304
20
9.84723255311961
30
0
41
1
10
43.3022132532594
20
9.85923836974627
30
0
41
1
10
43.2862224537677
20
9.87033101787887
30
0
41
1
10
43.27073163141
20
9.88051081837376
30
0
41
1
10
43.2557408003625
20
9.88977809980349
30
0
41
1
10
43.2412498809313
20
9.89813316549531
30
0
41
1
10
43.2272586864185
20
9.90557638206376
30
0
41
1
10
43.2137668819379
20
9.91210782201661
30
0
41
1
10
43.2007740228898
20
9.91772839610906
30
0
41
1
10
43.1882793111329
20
9.92243581223048
30
0
41
1
10
43.1762823298961
20
9.92623814201355
30
0
41
1
10
43.1647804930969
20
9.92910706590375
30
0
41
1
10
43.1537778731596
20
9.93113712354041
30
0
41
1
10
43.1465734192328
20
9.93172784544173
30
0
41
1
10
43.1430736531979
20
9.93201480521236
30
0
0
SPLINE
5
1D0
100
AcDbEntity
8
1
62
256
6
ByLayer
370
18
48
1
60
0
100
AcDbSpline
70
4
71
2
72
8
73
5
40
0
40
0
40
0
40
0.5
40
0.5
40
1
40
1
40
1
41
1
10
46.3349248407895
20
12.3679707629712
30
0
41
1
10
46.7571693147631
20
12.4007166458936
30
0
41
1
10
47.1394627951972
20
12.4124654150841
30
0
41
1
10
47.5743840814357
20
12.4258315593412
30
0
41
1
10
47.9359481489679
20
12.4112840724766
30
0
0
SPLINE
5
1D1
100
AcDbEntity
8
1
62
256
6
ByLayer
370
18
48
1
60
0
100
AcDbSpline
70
4
71
3
72
25
73
21
40
0
40
0
40
0
40
0
40
0.124999999999998
40
0.124999999999998
40
0.249999999999996
40
0.249999999999996
40
0.31249999999999
40
0.31249999999999
40
0.374999999999985
40
0.374999999999985
40
0.499999999999987
40
0.499999999999987
40
0.624999999999988
40
0.624999999999988
40
0.687499999999989
40
0.687499999999989
40
0.74999999999999
40
0.74999999999999
40
0.874999999999995
40
1
40
1
40
1
40
1
41
1
10
42.0041131737003
20
10.1469507531936
30
0
41
1
10
41.9961149591336
20
10.2039349282808
30
0
41
1
10
41.9915350115419
20
10.2609123146481
30
0
41
1
10
41.9892165779473
20
10.3748535001564
30
0
41
1
10
41.9914769642426
20
10.431817301537
30
0
41
1
10
42.0002288173935
20
10.5172523560529
30
0
41
1
10
42.0040420947954
20
10.5457289281051
30
0
41
1
10
42.0135328436855
20
10.6026783698973
30
0
41
1
10
42.0191580714493
20
10.6308357994609
30
0
41
1
10
42.0386272849935
20
10.7143489264657
30
0
41
1
10
42.055056955704
20
10.7687590593477
30
0
41
1
10
42.0948271973375
20
10.8750449004833
30
0
41
1
10
42.1181664814073
20
10.9269210806626
30
0
41
1
10
42.1586068509077
20
11.0027434854034
30
0
41
1
10
42.1730576346379
20
11.0277776759693
30
0
41
1
10
42.2034089696942
20
11.0764711783499
30
0
41
1
10
42.2193258190504
20
11.1001784070977
30
0
41
1
10
42.26925600106
20
11.1694194147154
30
0
41
1
10
42.3416264687949
20
11.2567389594391
30
0
41
1
10
42.4255276396981
20
11.3341093349095
30
0
41
1
10
42.4704822310338
20
11.3702025416924
30
0
0
SPLINE
5
1D2
100
AcDbEntity
8
1
62
256
6
ByLayer
370
13
48
1
60
0
100
AcDbSpline
70
4
71
2
72
6
73
3
40
0
40
0
40
0
40
1
40
1
40
1
41
1
10
42.0041131737009
20
10.1469507531936
30
0
41
1
10
42.8983653367485
20
10.112191524287
30
0
41
1
10
43.1313638282866
20
10.1109692087375
30
0
0
SPLINE
5
1D3
100
AcDbEntity
8
1
62
256
6
ByLayer
370
13
48
1
60
0
100
AcDbSpline
70
4
71
2
72
16
73
13
40
0
40
0
40
0
40
0.25
40
0.25
40
0.375
40
0.375
40
0.5
40
0.5
40
0.625
40
0.625
40
0.75
40
0.75
40
1
40
1
40
1
41
1
10
43.1313638282862
20
10.1109692087375
30
0
41
1
10
43.3486268210996
20
10.1098307060465
30
0
41
1
10
43.591553688188
20
9.87797640551948
30
0
41
1
10
43.6710072764065
20
9.80214429875593
30
0
41
1
10
43.7525777594365
20
9.70322174050217
30
0
41
1
10
43.8138721518796
20
9.6288885027691
30
0
41
1
10
43.8947046047089
20
9.51793269446708
30
0
41
1
10
43.9437185510497
20
9.45065300859882
30
0
41
1
10
44.0287167674559
20
9.32906150328388
30
0
41
1
10
44.1217159178544
20
9.19602451535552
30
0
41
1
10
44.161420962155
20
9.14081350670861
30
0
41
1
10
44.2685759785479
20
8.99181136753855
30
0
41
1
10
44.4333938353673
20
8.77037788165023
30
0
0
SPLINE
5
1D4
100
AcDbEntity
8
1
62
256
6
ByLayer
370
13
48
1
60
0
100
AcDbSpline
70
4
71
2
72
12
73
9
40
0
40
0
40
0
40
0.25
40
0.25
40
0.5
40
0.5
40
0.75
40
0.75
40
1
40
1
40
1
41
1
10
48.5074888466152
20
10.5153945537366
30
0
41
1
10
48.372347767942
20
10.6268162958315
30
0
41
1
10
47.9680356398451
20
10.9730486393623
30
0
41
1
10
47.6554467789864
20
11.2407338417979
30
0
41
1
10
47.4306060221288
20
11.4321620828193
30
0
41
1
10
47.1577466208785
20
11.6644731458022
30
0
41
1
10
46.8845922434298
20
11.8964381348421
30
0
41
1
10
46.6801329293326
20
12.070066699746
30
0
41
1
10
46.3349248407896
20
12.3679707629711
30
0
0
SPLINE
5
1D5
100
AcDbEntity
8
1
62
256
6
ByLayer
370
18
48
1
60
0
100
AcDbSpline
70
4
71
3
72
8
73
4
40
0
40
0
40
0
40
0
40
1
40
1
40
1
40
1
41
1
10
44.8700524229461
20
10.0216449415499
30
0
41
1
10
44.9058527431104
20
10.0056177617713
30
0
41
1
10
44.9416530632747
20
9.98959058199272
30
0
41
1
10
44.977453383439
20
9.97356340221411
30
0
0
SPLINE
5
1D6
100
AcDbEntity
8
1
62
256
6
ByLayer
370
18
48
1
60
0
100
AcDbSpline
70
4
71
3
72
35
73
31
40
0
40
0
40
0
40
0
40
0.0118847306658788
40
0.0254093521661737
40
0.0405739407493473
40
0.0573785676276636
40
0.0758233038840987
40
0.0959082233760314
40
0.117633404542944
40
0.14099893157962
40
0.166004895224545
40
0.192651393305642
40
0.220938531127664
40
0.250866421753415
40
0.321074468498454
40
0.386063440743006
40
0.445832169334538
40
0.50037987101165
40
0.554650045106994
40
0.614437664148768
40
0.679741893773536
40
0.750561478682547
40
0.794232003087699
40
0.834333229975662
40
0.87086545470509
40
0.903828941906403
40
0.933223928760498
40
0.959050630544846
40
0.981309250627203
40
1
40
1
40
1
40
1
41
1
10
44.977453383439
20
9.97356340221408
30
0
41
1
10
44.9748384098291
20
9.96706319112522
30
0
41
1
10
44.9692476406964
20
9.95316585029734
30
0
41
1
10
44.9606315919402
20
9.93085684762221
30
0
41
1
10
44.9512719158081
20
9.90573313844743
30
0
41
1
10
44.9413065878889
20
9.87774924328063
30
0
41
1
10
44.9308557997108
20
9.84687077176285
30
0
41
1
10
44.9200631648533
20
9.81305967704915
30
0
41
1
10
44.9090831103595
20
9.7762802526086
30
0
41
1
10
44.8980850162445
20
9.73649882209193
30
0
41
1
10
44.8872522070375
20
9.69368540156017
30
0
41
1
10
44.8767822192309
20
9.6478153538563
30
0
41
1
10
44.8668875176094
20
9.59886933353189
30
0
41
1
10
44.8538779769537
20
9.52445076213522
30
0
41
1
10
44.8415420887584
20
9.42806404769146
30
0
41
1
10
44.8340722137216
20
9.31362918122881
30
0
41
1
10
44.8332500072754
20
9.20819441568095
30
0
41
1
10
44.8377023646254
20
9.10917837547635
30
0
41
1
10
44.8471366230617
20
9.01049790557238
30
0
41
1
10
44.8626834527363
20
8.90618956901335
30
0
41
1
10
44.8861934686034
20
8.79342733723333
30
0
41
1
10
44.914207721893
20
8.69148985952457
30
0
41
1
10
44.942839668078
20
8.60529051810796
30
0
41
1
10
44.9676620642897
20
8.53913057593148
30
0
41
1
10
44.9923643849936
20
8.47970498635245
30
0
41
1
10
45.0163388231279
20
8.42683488743494
30
0
41
1
10
45.0390399436322
20
8.38032607649548
30
0
41
1
10
45.060015713551
20
8.33999911431165
30
0
41
1
10
45.0787996325757
20
8.30563081252393
30
0
41
1
10
45.090793243298
20
8.28483810737403
30
0
41
1
10
45.0962675540155
20
8.27534757685035
30
0
0
SPLINE
5
1D7
100
AcDbEntity
8
1
62
256
6
ByLayer
370
13
48
1
60
0
100
AcDbSpline
70
4
71
2
72
6
73
3
40
0
40
0
40
0
40
1
40
1
40
1
41
1
10
48.735516553477
20
10.732324777478
30
0
41
0.987555901011556
10
48.6221553524436
20
10.6288406920444
30
0
41
1
10
48.507488845368
20
10.5153945536399
30
0
0
SPLINE
5
1D8
100
AcDbEntity
8
1
62
256
6
ByLayer
370
18
48
1
60
0
100
AcDbSpline
70
4
71
3
72
8
73
4
40
0
40
0
40
0
40
0
40
1
40
1
40
1
40
1
41
1
10
45.0962675540155
20
8.27534757685035
30
0
41
1
10
45.0626510996991
20
8.26016067227255
30
0
41
1
10
45.0290346453826
20
8.24497376769475
30
0
41
1
10
44.9954181910662
20
8.22978686311694
30
0
0
SPLINE
5
1D9
100
AcDbEntity
8
1
62
256
6
ByLayer
370
18
48
1
60
0
100
AcDbSpline
70
4
71
1
72
4
73
2
40
0
40
0
40
1
40
1
41
1
10
48.5575709783617
20
8.54377841183144
30
0
41
1
10
48.6475832517079
20
8.51301939044204
30
0
0
SPLINE
5
1DA
100
AcDbEntity
8
1
62
256
6
ByLayer
370
18
48
1
60
0
100
AcDbSpline
70
4
71
1
72
4
73
2
40
0
40
0
40
1
40
1
41
1
10
48.5222174835958
20
10.3048774687649
30
0
41
1
10
48.4387568077925
20
10.2419942370909
30
0
0
SPLINE
5
1DB
100
AcDbEntity
8
1
62
256
6
ByLayer
370
18
48
1
60
0
100
AcDbSpline
70
4
71
3
72
34
73
30
40
0
40
0
40
0
40
0
40
0.0123166076744012
40
0.0255410556562345
40
0.0396733989890498
40
0.0547136906097706
40
0.0706619827192415
40
0.0875183277837586
40
0.105282779280659
40
0.123955392262702
40
0.143536223791573
40
0.164025333275354
40
0.185422782734351
40
0.207728637012834
40
0.269945241555238
40
0.32525778754011
40
0.373664783636435
40
0.415165063691277
40
0.482555820849859
40
0.55379145018399
40
0.628871586339669
40
0.707795430362064
40
0.774572506729147
40
0.833004762105472
40
0.883092419133977
40
0.924835650977475
40
0.958234587017497
40
0.98328932810906
40
1
40
1
40
1
40
1
41
1
10
48.5575709783618
20
8.54377841183144
30
0
41
1
10
48.5602790080603
20
8.5505161367516
30
0
41
1
10
48.5658946726232
20
8.56448821508123
30
0
41
1
10
48.5742983334622
20
8.58631822353065
30
0
41
1
10
48.5830065627455
20
8.60974960224551
30
0
41
1
10
48.5919360318757
20
8.63480953903739
30
0
41
1
10
48.6010300427896
20
8.66151229551912
30
0
41
1
10
48.6102184709988
20
8.68987531779767
30
0
41
1
10
48.6194294957251
20
8.71991412629937
30
0
41
1
10
48.6285861098397
20
8.7516434141926
30
0
41
1
10
48.6376071031684
20
8.78507633331827
30
0
41
1
10
48.6464067163739
20
8.82022417339128
30
0
41
1
10
48.6548948637769
20
8.85709634291966
30
0
41
1
10
48.6676868758869
20
8.91819736508309
30
0
41
1
10
48.6814683843168
20
8.99947880331007
30
0
41
1
10
48.6926403200957
20
9.0966068389782
30
0
41
1
10
48.6983945342359
20
9.18193447264576
30
0
41
1
10
48.7008399343994
20
9.27448408831562
30
0
41
1
10
48.6983840740828
20
9.38044977403966
30
0
41
1
10
48.6875383681481
20
9.50562521540179
30
0
41
1
10
48.6673320280952
20
9.63638883824412
30
0
41
1
10
48.638566455044
20
9.76273858431743
30
0
41
1
10
48.6042606790292
20
9.87741464887496
30
0
41
1
10
48.56921065903
20
9.97399697637042
30
0
41
1
10
48.5350902150429
20
10.0551541834318
30
0
41
1
10
48.5038434519772
20
10.1215187457826
30
0
41
1
10
48.4770087972398
20
10.1737047919011
30
0
41
1
10
48.4558869165709
20
10.2123251631464
30
0
41
1
10
48.4436520675876
20
10.233515725558
30
0
41
1
10
48.4387568077925
20
10.2419942370909
30
0
0
SPLINE
5
1DC
100
AcDbEntity
8
1
62
256
6
ByLayer
370
13
48
1
60
0
100
AcDbSpline
70
4
71
2
72
6
73
3
40
0
40
0
40
0
40
1
40
1
40
1
41
1
10
44.7908491137437
20
7.79364005339556
30
0
41
0.987556019973462
10
44.8954782167992
20
7.90582688555197
30
0
41
1
10
45.0101464446152
20
8.01927527597995
30
0
0
SPLINE
5
1DD
100
AcDbEntity
8
1
62
256
6
ByLayer
370
13
48
1
60
0
100
AcDbSpline
70
4
71
3
72
18
73
14
40
0
40
0
40
0
40
0
40
0.0458257364702468
40
0.15303440203443
40
0.25759444301787
40
0.359515030651214
40
0.458806067560114
40
0.555478264444027
40
0.649543226584055
40
0.741013551639017
40
0.82990294042748
40
0.916226322671364
40
1
40
1
40
1
40
1
41
1
10
45.1452944602412
20
7.15688288466173
30
0
41
1
10
45.1403568766295
20
7.1668723344808
30
0
41
1
10
45.1238116564024
20
7.20020363568779
30
0
41
1
10
45.095636590281
20
7.25614304191176
30
0
41
1
10
45.0607359113767
20
7.32395740236937
30
0
41
1
10
45.026112034983
20
7.38973882631187
30
0
41
1
10
44.9917626074801
20
7.45348627788847
30
0
41
1
10
44.9576858443954
20
7.51519909877689
30
0
41
1
10
44.9238778810485
20
7.57487525449831
30
0
41
1
10
44.8903422551775
20
7.63251761324869
30
0
41
1
10
44.8570560168354
20
7.68811149781615
30
0
41
1
10
44.8240909101151
20
7.74170494877126
30
0
41
1
10
44.8018184265406
20
7.7765022188033
30
0
41
1
10
44.7908491137437
20
7.79364005339556
30
0
0
SPLINE
5
1DE
100
AcDbEntity
8
1
62
256
6
ByLayer
370
13
48
1
60
0
100
AcDbSpline
70
4
71
2
72
8
73
5
40
0
40
0
40
0
40
0.582156916831811
40
0.582156916831811
40
1
40
1
40
1
41
1
10
45.0101464433565
20
8.01927527588234
30
0
41
1
10
45.1447454979068
20
7.90829717326261
30
0
41
1
10
45.5495713506908
20
7.56166234125737
30
0
41
1
10
45.7833694750967
20
7.36147114047498
30
0
41
1
10
45.9584091547315
20
7.21214895586198
30
0
0
SPLINE
5
1DF
100
AcDbEntity
8
1
62
256
6
ByLayer
370
18
48
1
60
0
100
AcDbSpline
70
4
71
3
72
67
73
63
40
0
40
0
40
0
40
0
40
0.0126948672389219
40
0.0253599885203818
40
0.0379968283996442
40
0.0506068612863598
40
0.063191571012599
40
0.0757524503851946
40
0.0882910007228719
40
0.100808731378833
40
0.113307159249441
40
0.125787808269525
40
0.138252208895366
40
0.150701897575853
40
0.16313841621288
40
0.175563311611763
40
0.187978134922633
40
0.200384441073817
40
0.212783788198174
40
0.225177737053429
40
0.237567850437566
40
0.249955692600404
40
0.262342828652446
40
0.274730823972005
40
0.287121243611941
40
0.299515651706944
40
0.311915610882559
40
0.324322681667098
40
0.336738421907463
40
0.349164386190022
40
0.361602125267609
40
0.374053185493591
40
0.386519108264136
40
0.399001429469557
40
0.41150167895569
40
0.424021379996223
40
0.436562048776767
40
0.449125193891513
40
0.461712315853189
40
0.474324906617038
40
0.48696444911942
40
0.499632416831654
40
0.525014032817221
40
0.550283958939353
40
0.575454064162669
40
0.600536359155509
40
0.625542981108105
40
0.650486177671476
40
0.675378290111486
40
0.700231735785192
40
0.725058990057749
40
0.749872567787696
40
0.774685004515777
40
0.799508837497644
40
0.82435658672361
40
0.849240736068673
40
0.87417371471393
40
0.899167878975649
40
0.924235494671277
40
0.94938872014252
40
0.974639590044837
40
1
40
1
40
1
40
1
41
1
10
48.5222174835958
20
10.3048774687649
30
0
41
1
10
48.5260476714591
20
10.2980433342076
30
0
41
1
10
48.5336990724874
20
10.284391078484
30
0
41
1
10
48.5448795308793
20
10.2637830641367
30
0
41
1
10
48.5558249699579
20
10.2431113773424
30
0
41
1
10
48.5665153902545
20
10.2223647546839
30
0
41
1
10
48.5769563114233
20
10.2015459387318
30
0
41
1
10
48.5871464474695
20
10.180653939826
30
0
41
1
10
48.5970863390077
20
10.1596887736107
30
0
41
1
10
48.606776046127
20
10.1386501954048
30
0
41
1
10
48.6162157636484
20
10.1175380382626
30
0
41
1
10
48.6254056555917
20
10.0963521225515
30
0
41
1
10
48.6343458983322
20
10.0750922800373
30
0
41
1
10
48.6430366680104
20
10.0537583473642
30
0
41
1
10
48.651478142883
20
10.0323501677196
30
0
41
1
10
48.659670501711
20
10.0108675903112
30
0
41
1
10
48.6676139232427
20
9.98931047043222
30
0
41
1
10
48.6753085854394
20
9.96767866937073
30
0
41
1
10
48.6827546648035
20
9.94597205436271
30
0
41
1
10
48.6899523357147
20
9.92419049853585
30
0
41
1
10
48.6969017697966
20
9.90233388085777
30
0
41
1
10
48.7036031353128
20
9.88040208608551
30
0
41
1
10
48.7100565965863
20
9.85839500471693
30
0
41
1
10
48.7162623134488
20
9.83631253294384
30
0
41
1
10
48.7222204407158
20
9.81415457260724
30
0
41
1
10
48.7279311276891
20
9.79192103115443
30
0
41
1
10
48.7333945176858
20
9.76961182159799
30
0
41
1
10
48.7386107475954
20
9.74722686247715
30
0
41
1
10
48.7435799474621
20
9.72476607782075
30
0
41
1
10
48.748302240095
20
9.70222939711267
30
0
41
1
10
48.7527777407061
20
9.67961675525933
30
0
41
1
10
48.7570065565718
20
9.65692809255938
30
0
41
1
10
48.7609887867284
20
9.63416335467451
30
0
41
1
10
48.7647245216743
20
9.61132249260805
30
0
41
1
10
48.7682138431682
20
9.58840546266408
30
0
41
1
10
48.7714568237983
20
9.56541222649018
30
0
41
1
10
48.774453527536
20
9.54234275081868
30
0
41
1
10
48.7772040067288
20
9.51919700834635
30
0
41
1
10
48.7797083125498
20
9.49597497436521
30
0
41
1
10
48.7819664552033
20
9.47267663930701
30
0
41
1
10
48.783978552347
20
9.44930196172768
30
0
41
1
10
48.7863335574952
20
9.41802462865788
30
0
41
1
10
48.7886539451324
20
9.37890063211324
30
0
41
1
10
48.7904290778924
20
9.33198972902284
30
0
41
1
10
48.7911876383019
20
9.28522328945013
30
0
41
1
10
48.7909293879007
20
9.23860170292363
30
0
41
1
10
48.7896537240813
20
9.19212525396279
30
0
41
1
10
48.787359959283
20
9.14579436461936
30
0
41
1
10
48.7840472561822
20
9.0996095302667
30
0
41
1
10
48.7797146566331
20
9.05357133732241
30
0
41
1
10
48.774361088048
20
9.00768045914208
30
0
41
1
10
48.7679853768074
20
8.96193765832984
30
0
41
1
10
48.760586266145
20
8.91634378584473
30
0
41
1
10
48.7521624192747
20
8.87089978726205
30
0
41
1
10
48.7427124872705
20
8.82560668436099
30
0
41
1
10
48.7322349425423
20
8.78046564917548
30
0
41
1
10
48.7207287972562
20
8.73547773294604
30
0
41
1
10
48.7081910173667
20
8.69064488745833
30
0
41
1
10
48.6946263226929
20
8.64596614590866
30
0
41
1
10
48.6800105647301
20
8.60145194948674
30
0
41
1
10
48.6644282555898
20
8.55707040496119
30
0
41
1
10
48.6532063490115
20
8.52772423365273
30
0
41
1
10
48.6475832517079
20
8.51301939044204
30
0
0
SPLINE
5
1E0
100
AcDbEntity
8
1
62
256
6
ByLayer
370
13
48
1
60
0
100
AcDbSpline
70
4
71
3
72
33
73
29
40
0
40
0
40
0
40
0
40
0.0372685593868609
40
0.0746198156135136
40
0.112055428106067
40
0.149577045097543
40
0.187186303512682
40
0.224884828858776
40
0.262674235122843
40
0.300556124674812
40
0.338532088176978
40
0.376603704499237
40
0.41477254064047
40
0.453040151655571
40
0.491408080588481
40
0.529877858410802
40
0.568451003966009
40
0.607129023919171
40
0.645913412712195
40
0.684805652524263
40
0.723807213237612
40
0.762919552408232
40
0.802144115241858
40
0.841482334574552
40
0.880935630858293
40
0.920505412151177
40
0.960193074112094
40
1
40
1
40
1
40
1
41
1
10
49.0762972186282
20
9.77220182695824
30
0
41
1
10
49.0701062573989
20
9.78197834226147
30
0
41
1
10
49.0577105975453
20
9.80155306640621
30
0
41
1
10
49.0388203212801
20
9.83078863609019
30
0
41
1
10
49.0196866747777
20
9.85997277127964
30
0
41
1
10
49.0002892241491
20
9.88909438491926
30
0
41
1
10
48.9806329004426
20
9.91815693695537
30
0
41
1
10
48.9607158622638
20
9.94715998739363
30
0
41
1
10
48.9405381388716
20
9.97610415626009
30
0
41
1
10
48.9200993085702
20
10.0049897900958
30
0
41
1
10
48.8993991254107
20
10.0338173206852
30
0
41
1
10
48.878437353114
20
10.0625871687377
30
0
41
1
10
48.8572138122218
20
10.0912997699375
30
0
41
1
10
48.835728369934
20
10.1199555680826
30
0
41
1
10
48.8139809453969
20
10.1485550170765
30
0
41
1
10
48.7919715108524
20
10.1770985805258
30
0
41
1
10
48.7697000939874
20
10.2055867320213
30
0
41
1
10
48.7471667797821
20
10.2340199550776
30
0
41
1
10
48.7243717133101
20
10.2623987437448
30
0
41
1
10
48.7013150993609
20
10.2907236008535
30
0
41
1
10
48.6779972140034
20
10.3189950450761
30
0
41
1
10
48.6544183715297
20
10.3472135849474
30
0
41
1
10
48.6305790587285
20
10.3753798167071
30
0
41
1
10
48.6064794420875
20
10.4034940580296
30
0
41
1
10
48.5821212255424
20
10.4315577213717
30
0
41
1
10
48.5575006974194
20
10.4595681664368
30
0
41
1
10
48.5326348056619
20
10.4875379968173
30
0
41
1
10
48.5158792114786
20
10.5060997521056
30
0
41
1
10
48.507488845368
20
10.5153945536399
30
0
0
SPLINE
5
1E1
100
AcDbEntity
8
1
62
256
6
ByLayer
370
13
48
1
60
0
100
AcDbSpline
70
4
71
3
72
21
73
17
40
0
40
0
40
0
40
0
40
0.0504498513184757
40
0.100951487234102
40
0.151505792458397
40
0.202113648941097
40
0.252775935835573
40
0.303493529465122
40
0.354267303289749
40
0.405098127873752
40
0.45598687085384
40
0.506934396908108
40
0.621048092298471
40
0.741259008467219
40
0.867574265796308
40
1
40
1
40
1
40
1
41
1
10
48.735516553477
20
10.732324777478
30
0
41
1
10
48.7445120610425
20
10.7182622865671
30
0
41
1
10
48.7625123096745
20
10.6901228702045
30
0
41
1
10
48.7893120127279
20
10.6477923917384
30
0
41
1
10
48.8159810810395
20
10.6053445364591
30
0
41
1
10
48.842503314486
20
10.5627710203986
30
0
41
1
10
48.8688820396312
20
10.5200726286092
30
0
41
1
10
48.8951153979935
20
10.4772477461357
30
0
41
1
10
48.9212029808827
20
10.434295435927
30
0
41
1
10
48.9471440289834
20
10.3912146111056
30
0
41
1
10
48.9729379805025
20
10.3480042614509
30
0
41
1
10
49.0091729190358
20
10.286768640129
30
0
41
1
10
49.0565029939763
20
10.2056321049877
30
0
41
1
10
49.1154938679355
20
10.1026901804516
30
0
41
1
10
49.1767304722047
20
9.99420092013435
30
0
41
1
10
49.2179251677184
20
9.91987299935911
30
0
41
1
10
49.2390089463897
20
9.88183136775608
30
0
0
SPLINE
5
1E2
100
AcDbEntity
8
1
62
256
6
ByLayer
370
18
48
1
60
0
100
AcDbSpline
70
4
71
3
72
8
73
4
40
0
40
0
40
0
40
0
40
1
40
1
40
1
40
1
41
1
10
49.0486532197137
20
12.4570310292978
30
0
41
1
10
48.9959849196663
20
12.4550329666478
30
0
41
1
10
48.9429386509795
20
12.4510976749934
30
0
41
1
10
48.8894804197985
20
12.4451608343868
30
0
0
SPLINE
5
1E3
100
AcDbEntity
8
1
62
256
6
ByLayer
370
13
48
1
60
0
100
AcDbSpline
70
4
71
3
72
32
73
28
40
0
40
0
40
0
40
0
40
0.0486157691735061
40
0.0960473848986407
40
0.142295358940446
40
0.187360243388969
40
0.231242634987988
40
0.273943180057642
40
0.315462580110395
40
0.355801598280553
40
0.394961066711801
40
0.432941895078127
40
0.469745080451864
40
0.505371718780481
40
0.549475019660184
40
0.592556493655205
40
0.634618959625511
40
0.675665446370871
40
0.715699213285537
40
0.754723773515032
40
0.792742919970496
40
0.829760754611932
40
0.865781721478393
40
0.900810644020043
40
0.934852767377805
40
0.967913806361492
40
1
40
1
40
1
40
1
41
1
10
47.9359492675038
20
12.4112855679387
30
0
41
1
10
47.9471303478142
20
12.3833736892999
30
0
41
1
10
47.9692201664556
20
12.3282297926499
30
0
41
1
10
48.0022768294353
20
12.2466396538842
30
0
41
1
10
48.0347617147028
20
12.1671685736332
30
0
41
1
10
48.0666971231959
20
12.0898239740359
30
0
41
1
10
48.0980776414452
20
12.0146044793724
30
0
41
1
10
48.1289050018247
20
11.9415109932225
30
0
41
1
10
48.1591790928634
20
11.8705438414659
30
0
41
1
10
48.1889002832743
20
11.8017035114501
30
0
41
1
10
48.2180687878832
20
11.7349904470205
30
0
41
1
10
48.2466849557418
20
11.6704051512131
30
0
41
1
10
48.2747487457077
20
11.60794797829
30
0
41
1
10
48.3047460214167
20
11.5421718387722
30
0
41
1
10
48.3368367110321
20
11.4730383304916
30
0
41
1
10
48.3711918925052
20
11.4005164665393
30
0
41
1
10
48.4053312839561
20
11.3299570097558
30
0
41
1
10
48.4392555972098
20
11.2613618302616
30
0
41
1
10
48.4729659708095
20
11.1947330130475
30
0
41
1
10
48.5064633688115
20
11.1300726411067
30
0
41
1
10
48.5397489259652
20
11.0673829669952
30
0
41
1
10
48.5728231381037
20
11.0066659393641
30
0
41
1
10
48.6056886138771
20
10.947924848268
30
0
41
1
10
48.6383402158986
20
10.8911584287493
30
0
41
1
10
48.670800299977
20
10.8363819449194
30
0
41
1
10
48.7029926997849
20
10.7835517983416
30
0
41
1
10
48.7247839617381
20
10.7492292533786
30
0
41
1
10
48.735516553477
20
10.732324777478
30
0
0
SPLINE
5
1E4
100
AcDbEntity
8
1
62
256
6
ByLayer
370
13
48
1
60
0
100
AcDbSpline
70
4
71
2
72
6
73
3
40
0
40
0
40
0
40
1
40
1
40
1
41
1
10
49.2390089463969
20
9.88183136774315
30
0
41
0.983799121243375
10
49.1556593052212
20
9.83014733197395
30
0
41
1
10
49.0762972186353
20
9.77220182694606
30
0
0
SPLINE
5
1E5
100
AcDbEntity
8
1
62
256
6
ByLayer
370
13
48
1
60
0
100
AcDbSpline
70
4
71
3
72
48
73
44
40
0
40
0
40
0
40
0
40
0.0260635153643821
40
0.0516836499005483
40
0.0768614432150183
40
0.101597990685316
40
0.125894447368183
40
0.149752032240858
40
0.173172032808547
40
0.196155810114296
40
0.218704804191666
40
0.240820540005151
40
0.262504633927769
40
0.311524981961351
40
0.361897692562661
40
0.413648998192907
40
0.466803089549291
40
0.521382291353349
40
0.588747222738284
40
0.652897144986489
40
0.713869602335579
40
0.771708327014456
40
0.787967473696666
40
0.803656463810088
40
0.818777687086527
40
0.833333812897861
40
0.847327833998534
40
0.860763118780704
40
0.873643473996241
40
0.885973220403923
40
0.897757284439071
40
0.909001309812889
40
0.919711793964137
40
0.929896255542148
40
0.939563440616132
40
0.948723577057551
40
0.957388688410156
40
0.965572980233287
40
0.973293312694538
40
0.98056977177566
40
0.987426345482293
40
0.993891697137516
40
1
40
1
40
1
40
1
41
1
10
49.2390089463969
20
9.88183136774315
30
0
41
1
10
49.2461121637576
20
9.86902004988468
30
0
41
1
10
49.2601977617328
20
9.84361535455848
30
0
41
1
10
49.2814530167407
20
9.80600240924552
30
0
41
1
10
49.3025728978275
20
9.7691680475692
30
0
41
1
10
49.3235783722671
20
9.73312398979193
30
0
41
1
10
49.3444638388285
20
9.69786769231582
30
0
41
1
10
49.3652306410867
20
9.66340035398984
30
0
41
1
10
49.3858781931761
20
9.629722139283
30
0
41
1
10
49.406406759292
20
9.59683370619764
30
0
41
1
10
49.4268150399713
20
9.56473478374652
30
0
41
1
10
49.4471069231426
20
9.53342825524945
30
0
41
1
10
49.4758724307449
20
9.48987804913385
30
0
41
1
10
49.5143998784963
20
9.43373127170391
30
0
41
1
10
49.5642031062339
20
9.36485036000529
30
0
41
1
10
49.6169686043879
20
9.29530085763231
30
0
41
1
10
49.6726888972294
20
9.22510767925873
30
0
41
1
10
49.7354420462057
20
9.14941786130288
30
0
41
1
10
49.8037061907212
20
9.07045611093848
30
0
41
1
10
49.8761355167844
20
8.99060756726909
30
0
41
1
10
49.9468734542479
20
8.91671281865095
30
0
41
1
10
50.0005572084152
20
8.86380234043168
30
0
41
1
10
50.0369657465577
20
8.82949947778722
30
0
41
1
10
50.0562688345614
20
8.81177411697205
30
0
41
1
10
50.0750854001755
20
8.79494910637064
30
0
41
1
10
50.0934179506195
20
8.77902601217038
30
0
41
1
10
50.1112659903394
20
8.76400337566815
30
0
41
1
10
50.1286298304327
20
8.74988051766907
30
0
41
1
10
50.1455096262313
20
8.73665657345025
30
0
41
1
10
50.1619056235544
20
8.72433073460149
30
0
41
1
10
50.1778181012306
20
8.71290218651083
30
0
41
1
10
50.1932473921208
20
8.70237012231016
30
0
41
1
10
50.2081938871577
20
8.69273374155492
30
0
41
1
10
50.2226580463802
20
8.68399224503121
30
0
41
1
10
50.2366404142909
20
8.6761448681377
30
0
41
1
10
50.250141632033
20
8.66919079355445
30
0
41
1
10
50.2631624789454
20
8.66312950765105
30
0
41
1
10
50.2757038294576
20
8.65795967492694
30
0
41
1
10
50.2877669093354
20
8.65368315937143
30
0
41
1
10
50.2993525154485
20
8.65029152662898
30
0
41
1
10
50.3104637211044
20
8.6478125664752
30
0
41
1
10
50.3210965236809
20
8.64615181258641
30
0
41
1
10
50.3280626807881
20
8.64579850421066
30
0
41
1
10
50.3314468518211
20
8.64562686639765
30
0
0
SPLINE
5
1E6
100
AcDbEntity
8
1
62
256
6
ByLayer
370
18
48
1
60
0
100
AcDbSpline
70
4
71
3
72
31
73
27
40
0
40
0
40
0
40
0
40
0.125000000000015
40
0.125000000000015
40
0.25000000000003
40
0.25000000000003
40
0.281250000000027
40
0.281250000000027
40
0.312500000000023
40
0.312500000000023
40
0.374999999999989
40
0.374999999999989
40
0.49999999999992
40
0.49999999999992
40
0.562499999999886
40
0.562499999999886
40
0.59374999999987
40
0.59374999999987
40
0.624999999999853
40
0.624999999999853
40
0.749999999999902
40
0.874999999999951
40
0.874999999999951
40
0.937499999999976
40
0.937499999999976
40
1
40
1
40
1
40
1
41
1
10
50.5070503785008
20
11.5499460965383
30
0
41
1
10
50.476457962593
20
11.6212991224844
30
0
41
1
10
50.4408850394748
20
11.6890369453972
30
0
41
1
10
50.3603687202537
20
11.8177108417369
30
0
41
1
10
50.3154223980559
20
11.8786447911981
30
0
41
1
10
50.2533481453067
20
11.9505358711199
30
0
41
1
10
50.2406372305046
20
11.9646991828107
30
0
41
1
10
50.2146163697842
20
11.9925909872039
30
0
41
1
10
50.2012776706822
20
12.006347459674
30
0
41
1
10
50.1605868459722
20
12.0467213183257
30
0
41
1
10
50.1325987221757
20
12.0724180161663
30
0
41
1
10
50.04613334154
20
12.1459662066087
30
0
41
1
10
49.985167975343
20
12.1902940648181
30
0
41
1
10
49.8888114582343
20
12.2498345314644
30
0
41
1
10
49.8558712601929
20
12.2685181536658
30
0
41
1
10
49.8052082352443
20
12.2947694868663
30
0
41
1
10
49.7880807129167
20
12.3032382400219
30
0
41
1
10
49.7535563154028
20
12.3195031836144
30
0
41
1
10
49.7361859851601
20
12.3272885332862
30
0
41
1
10
49.648802802877
20
12.3645089683311
30
0
41
1
10
49.505604793185
20
12.4131954497049
30
0
41
1
10
49.3558197757271
20
12.4407364144711
30
0
41
1
10
49.2409188048593
20
12.4531669758834
30
0
41
1
10
49.2024877182618
20
12.4558984562578
30
0
41
1
10
49.12563072653
20
12.4585586019207
30
0
41
1
10
49.0871620347623
20
12.4584919275036
30
0
41
1
10
49.0486532197137
20
12.4570310292978
30
0
0
SPLINE
5
1E7
100
AcDbEntity
8
1
62
256
6
ByLayer
370
18
48
1
60
0
100
AcDbSpline
70
4
71
3
72
8
73
4
40
0
40
0
40
0
40
0
40
1
40
1
40
1
40
1
41
1
10
51.4270406374218
20
8.516078435979
30
0
41
1
10
51.4298923224733
20
8.49953948722182
30
0
41
1
10
51.4324895762001
20
8.48288031941701
30
0
41
1
10
51.4348243332486
20
8.46611227471927
30
0
0
SPLINE
5
1E8
100
AcDbEntity
8
1
62
256
6
ByLayer
370
13
48
1
60
0
100
AcDbSpline
70
4
71
2
72
6
73
3
40
0
40
0
40
0
40
1
40
1
40
1
41
1
10
50.3314468363998
20
8.64562686034
30
0
41
0.998837184066022
10
50.3354280276317
20
8.55736869509535
30
0
41
1
10
50.3416756665955
20
8.46807093449891
30
0
0
SPLINE
5
1E9
100
AcDbEntity
8
1
62
256
6
ByLayer
370
18
48
1
60
0
100
AcDbSpline
70
4
71
3
72
18
73
14
40
0
40
0
40
0
40
0
40
0.0894181927877225
40
0.179214302549338
40
0.269362439104044
40
0.359836353464436
40
0.450609447524953
40
0.541654784276275
40
0.632945098584168
40
0.724452808570895
40
0.816150027639302
40
0.908008577179362
40
1
40
1
40
1
40
1
41
1
10
51.4269780411387
20
8.51614638957832
30
0
41
1
10
51.4252520577823
20
8.52595563282726
30
0
41
1
10
51.421792796375
20
8.54561557710245
30
0
41
1
10
51.4164833435259
20
8.57510067471421
30
0
41
1
10
51.4110732161797
20
8.60465106971955
30
0
41
1
10
51.4055559550879
20
8.63425072331141
30
0
41
1
10
51.3999352358243
20
8.66388907797413
30
0
41
1
10
51.3942120104848
20
8.69355393395463
30
0
41
1
10
51.3883877456216
20
8.72323316297421
30
0
41
1
10
51.3824643877139
20
8.7529150382165
30
0
41
1
10
51.3764412248654
20
8.78258520412173
30
0
41
1
10
51.370327501927
20
8.81223852626252
30
0
41
1
10
51.3661750537273
20
8.83195707472719
30
0
41
1
10
51.3640973290849
20
8.84182347452007
30
0
0
SPLINE
5
1EA
100
AcDbEntity
8
1
62
256
6
ByLayer
370
13
48
1
60
0
100
AcDbSpline
70
4
71
2
72
6
73
3
40
0
40
0
40
0
40
1
40
1
40
1
41
1
10
50.3314468363998
20
8.64562686034
30
0
41
1
10
50.5591784102234
20
8.682782251937
30
0
41
1
10
51.3640973290848
20
8.84182347452004
30
0
0
SPLINE
5
1EB
100
AcDbEntity
8
1
62
256
6
ByLayer
370
18
48
1
60
0
100
AcDbSpline
70
4
71
3
72
25
73
21
40
0
40
0
40
0
40
0
40
0.124999999999995
40
0.124999999999995
40
0.24999999999999
40
0.24999999999999
40
0.312499999999984
40
0.312499999999984
40
0.374999999999979
40
0.374999999999979
40
0.499999999999968
40
0.499999999999968
40
0.624999999999957
40
0.624999999999957
40
0.687499999999964
40
0.687499999999964
40
0.749999999999971
40
0.749999999999971
40
0.874999999999986
40
1
40
1
40
1
40
1
41
1
10
51.4348243332486
20
8.46611227471927
30
0
41
1
10
51.4427008921945
20
8.4092492923092
30
0
41
1
10
51.447262837953
20
8.35228983927435
30
0
41
1
10
51.4497527248764
20
8.23817785288675
30
0
41
1
10
51.4476817595476
20
8.18102535136009
30
0
41
1
10
51.4393766103774
20
8.09514529274198
30
0
41
1
10
51.4357394039378
20
8.06649331974384
30
0
41
1
10
51.4266573258436
20
8.00913676230158
30
0
41
1
10
51.4212624441673
20
7.98074986322307
30
0
41
1
10
51.402560889504
20
7.89647199859462
30
0
41
1
10
51.3867449431302
20
7.84145047684331
30
0
41
1
10
51.3484063642398
20
7.73373842100585
30
0
41
1
10
51.3258849805504
20
7.68104745287512
30
0
41
1
10
51.286831958389
20
7.60384298018498
30
0
41
1
10
51.2728725525529
20
7.57831928160735
30
0
41
1
10
51.2435450241243
20
7.52860586858441
30
0
41
1
10
51.2281611994545
20
7.50436764351647
30
0
41
1
10
51.1798922042792
20
7.43347177052172
30
0
41
1
10
51.1099018456732
20
7.3437811738912
30
0
41
1
10
51.0287093730063
20
7.26371240779112
30
0
41
1
10
50.9851947355951
20
7.22618472663997
30
0
0
SPLINE
5
1EC
100
AcDbEntity
8
1
62
256
6
ByLayer
370
13
48
1
60
0
100
AcDbSpline
70
4
71
2
72
6
73
3
40
0
40
0
40
0
40
1
40
1
40
1
41
1
10
51.4348243332482
20
8.46611227471925
30
0
41
1
10
50.5719929774903
20
8.47388808014479
30
0
41
1
10
50.3416756665955
20
8.46807093449891
30
0
0
SPLINE
5
1ED
100
AcDbEntity
8
1
62
256
6
ByLayer
370
13
48
1
60
0
100
AcDbSpline
70
4
71
2
72
16
73
13
40
0
40
0
40
0
40
0.25
40
0.25
40
0.375
40
0.375
40
0.5
40
0.5
40
0.625
40
0.625
40
0.75
40
0.75
40
1
40
1
40
1
41
1
10
50.3416756665964
20
8.46807093449895
30
0
41
1
10
50.1311807547399
20
8.4627532046983
30
0
41
1
10
49.8953297985193
20
8.68735583488997
30
0
41
1
10
49.8179781526131
20
8.76101838601369
30
0
41
1
10
49.7386353471185
20
8.85770941421336
30
0
41
1
10
49.6790859450974
20
8.9302792316555
30
0
41
1
10
49.6003797613452
20
9.0391402301339
30
0
41
1
10
49.5526627018602
20
9.10513919606449
30
0
41
1
10
49.4699957282567
20
9.22440445788207
30
0
41
1
10
49.3794657515092
20
9.35501382832909
30
0
41
1
10
49.3408884599828
20
9.40908642046119
30
0
41
1
10
49.2365317754346
20
9.55535994606525
30
0
41
1
10
49.0762972186353
20
9.77220182694606
30
0
0
SPLINE
5
1EE
100
AcDbEntity
8
1
62
256
6
ByLayer
370
13
48
1
60
0
100
AcDbSpline
70
4
71
3
72
22
73
18
40
0
40
0
40
0
40
0
40
0.124999999999997
40
0.124999999999997
40
0.249999999999994
40
0.249999999999994
40
0.37499999999999
40
0.37499999999999
40
0.499999999999987
40
0.499999999999987
40
0.624999999999984
40
0.624999999999984
40
0.687499999999986
40
0.687499999999986
40
0.749999999999989
40
0.749999999999989
40
1
40
1
40
1
40
1
41
1
10
51.2185394569413
20
-8.53212915364786
30
0
41
1
10
51.2236988108739
20
-8.50913391781016
30
0
41
1
10
51.2281007451812
20
-8.48575191721172
30
0
41
1
10
51.2351728156029
20
-8.43810363345241
30
0
41
1
10
51.2378351893866
20
-8.41382731793684
30
0
41
1
10
51.2411194422397
20
-8.36511728985508
30
0
41
1
10
51.2417591409617
20
-8.34058777023455
30
0
41
1
10
51.2407953587207
20
-8.29113823163961
30
0
41
1
10
51.2391606573632
20
-8.26606436267272
30
0
41
1
10
51.2335345524164
20
-8.21699420941427
30
0
41
1
10
51.2295540719362
20
-8.19285058070015
30
0
41
1
10
51.2217865213506
20
-8.15723762900392
30
0
41
1
10
51.218897408305
20
-8.14546721386282
30
0
41
1
10
51.2125057881536
20
-8.12213205949767
30
0
41
1
10
51.2089879329517
20
-8.11052813531752
30
0
41
1
10
51.1901638729439
20
-8.05399990807337
30
0
41
1
10
51.171051976896
20
-8.01285592419663
30
0
41
1
10
51.148433125406
20
-7.97524135146543
30
0
0
SPLINE
5
1EF
100
AcDbEntity
8
1
62
256
6
ByLayer
370
13
48
1
60
0
100
AcDbSpline
70
4
71
3
72
10
73
6
40
0
40
0
40
0
40
0
40
0.5
40
0.5
40
1
40
1
40
1
40
1
41
1
10
51.302757206557
20
-8.62315474908259
30
0
41
1
10
51.3001298901255
20
-8.60918819845951
30
0
41
1
10
51.2914935996715
20
-8.59416215042242
30
0
41
1
10
51.2629838150366
20
-8.56334945543053
30
0
41
1
10
51.24311429431
20
-8.54756710289017
30
0
41
1
10
51.2185282747299
20
-8.53212212926013
30
0
0
SPLINE
5
1F0
100
AcDbEntity
8
1
62
256
6
ByLayer
370
13
48
1
60
0
100
AcDbSpline
70
4
71
3
72
32
73
28
40
0
40
0
40
0
40
0
40
0.0156250000000003
40
0.0156250000000003
40
0.0312500000000007
40
0.0624999999999804
40
0.124999999999964
40
0.124999999999964
40
0.249999999999959
40
0.249999999999959
40
0.312499999999956
40
0.312499999999956
40
0.374999999999954
40
0.374999999999954
40
0.499999999999996
40
0.499999999999996
40
0.562499999999991
40
0.562499999999991
40
0.624999999999987
40
0.624999999999987
40
0.749999999999976
40
0.749999999999976
40
0.81249999999997
40
0.81249999999997
40
0.874999999999963
40
0.874999999999963
40
1
40
1
40
1
40
1
41
1
10
50.8006765046969
20
-7.59672524861806
30
0
41
1
10
50.8015330111866
20
-7.5956706067745
30
0
41
1
10
50.8024403442793
20
-7.59462036610293
30
0
41
1
10
50.8042931545488
20
-7.59260854997446
30
0
41
1
10
50.8071610927357
20
-7.58968414396043
30
0
41
1
10
50.8144719623327
20
-7.58351580007135
30
0
41
1
10
50.8217933248234
20
-7.5793616734117
30
0
41
1
10
50.8378347409162
20
-7.57262288754239
30
0
41
1
10
50.8503900638256
20
-7.57020731297429
30
0
41
1
10
50.8720478038116
20
-7.57018491879151
30
0
41
1
10
50.8796903051945
20
-7.57078318162242
30
0
41
1
10
50.895739954177
20
-7.57325395720653
30
0
41
1
10
50.9041419776677
20
-7.57512887917282
30
0
41
1
10
50.9301144360064
20
-7.58266092739065
30
0
41
1
10
50.9485453522611
20
-7.59022675437305
30
0
41
1
10
50.9774765796746
20
-7.60567517522705
30
0
41
1
10
50.9873348867108
20
-7.61151052456853
30
0
41
1
10
51.0074178897945
20
-7.62463360833303
30
0
41
1
10
51.0176056595252
20
-7.63190403612171
30
0
41
1
10
51.0480185018939
20
-7.65551491709859
30
0
41
1
10
51.0682708500354
20
-7.67376090642104
30
0
41
1
10
51.0981780805878
20
-7.70491720278001
30
0
41
1
10
51.108097407454
20
-7.71597009154014
30
0
41
1
10
51.1275757815792
20
-7.73920909948617
30
0
41
1
10
51.1370864278796
20
-7.7513325878222
30
0
41
1
10
51.1648710254849
20
-7.78916453218994
30
0
41
1
10
51.18239839812
20
-7.81632872767099
30
0
41
1
10
51.1987652652764
20
-7.84537723884657
30
0
0
SPLINE
5
1F1
100
AcDbEntity
8
1
62
256
6
ByLayer
370
13
48
1
60
0
100
AcDbSpline
70
4
71
3
72
27
73
23
40
0
40
0
40
0
40
0
40
0.250000000000034
40
0.250000000000034
40
0.312500000000043
40
0.312500000000043
40
0.375000000000052
40
0.500000000000041
40
0.500000000000041
40
0.62500000000003
40
0.62500000000003
40
0.750000000000019
40
0.750000000000019
40
0.812500000000011
40
0.812500000000011
40
0.875000000000003
40
0.875000000000003
40
0.937499999999996
40
0.968749999999995
40
0.984374999999997
40
0.984374999999997
40
1
40
1
40
1
40
1
41
1
10
51.1987652652763
20
-7.84537723884658
30
0
41
1
10
51.2296702291376
20
-7.90022849287888
30
0
41
1
10
51.2555739960705
20
-7.95888112078036
30
0
41
1
10
51.2812331445062
20
-8.03732365321314
30
0
41
1
10
51.286035939122
20
-8.0533102305571
30
0
41
1
10
51.2948546072857
20
-8.08547247466247
30
0
41
1
10
51.3069352959716
20
-8.13408473683343
30
0
41
1
10
51.3156298843568
20
-8.183785865419
30
0
41
1
10
51.3242510554622
20
-8.25100909924082
30
0
41
1
10
51.3270729206863
20
-8.28526056005688
30
0
41
1
10
51.3297071488072
20
-8.35344731820365
30
0
41
1
10
51.3295469792361
20
-8.38748013110759
30
0
41
1
10
51.3272253015586
20
-8.43844428874728
30
0
41
1
10
51.3261038885805
20
-8.45541813976108
30
0
41
1
10
51.3231817607968
20
-8.48933813777484
30
0
41
1
10
51.321378454654
20
-8.5062962367852
30
0
41
1
10
51.317135232924
20
-8.53997456336106
30
0
41
1
10
51.3134728601045
20
-8.56509369810851
30
0
41
1
10
51.3083932703415
20
-8.59416511195587
30
0
41
1
10
51.3060463802761
20
-8.6065750059259
30
0
41
1
10
51.3044443442409
20
-8.61483741462827
30
0
41
1
10
51.3036177073628
20
-8.61899703546804
30
0
41
1
10
51.3027863979361
20
-8.62308310523456
30
0
0
SPLINE
5
1F2
100
AcDbEntity
8
1
62
256
6
ByLayer
370
18
48
1
60
0
100
AcDbSpline
70
4
71
3
72
8
73
4
40
0
40
0
40
0
40
0
40
1
40
1
40
1
40
1
41
1
10
51.4270406374218
20
-8.45750422680932
30
0
41
1
10
51.4298923224733
20
-8.44090176416861
30
0
41
1
10
51.4324895762001
20
-8.42417854268824
30
0
41
1
10
51.4348243332486
20
-8.40734574158185
30
0
0
SPLINE
5
1F3
100
AcDbEntity
8
1
62
256
6
ByLayer
370
18
48
1
60
0
100
AcDbSpline
70
4
71
3
72
25
73
21
40
0
40
0
40
0
40
0
40
0.125000000000006
40
0.125000000000006
40
0.250000000000011
40
0.250000000000011
40
0.31250000000001
40
0.31250000000001
40
0.375000000000008
40
0.375000000000008
40
0.499999999999991
40
0.499999999999991
40
0.624999999999974
40
0.624999999999974
40
0.687499999999978
40
0.687499999999978
40
0.749999999999983
40
0.749999999999983
40
0.874999999999991
40
1
40
1
40
1
40
1
41
1
10
51.4348243332486
20
-8.40734574158185
30
0
41
1
10
51.4427008921945
20
-8.35027436255503
30
0
41
1
10
51.447262837953
20
-8.29314167220339
30
0
41
1
10
51.4497527248764
20
-8.17875358046645
30
0
41
1
10
51.4476817595476
20
-8.12149819930804
30
0
41
1
10
51.4393766103773
20
-8.03551896574443
30
0
41
1
10
51.4357394039379
20
-8.00684315035475
30
0
41
1
10
51.4266573258436
20
-7.9494580826876
30
0
41
1
10
51.4212624441673
20
-7.92106667703466
30
0
41
1
10
51.402560889504
20
-7.83680408118629
30
0
41
1
10
51.3867449431304
20
-7.78183101252822
30
0
41
1
10
51.3484063642399
20
-7.67429252728267
30
0
41
1
10
51.3258849805503
20
-7.62172666237522
30
0
41
1
10
51.286831958389
20
-7.54477009692776
30
0
41
1
10
51.2728725525529
20
-7.51933954500504
30
0
41
1
10
51.2435450241243
20
-7.46983037482305
30
0
41
1
10
51.2281611994545
20
-7.44570330741695
30
0
41
1
10
51.1798922042792
20
-7.37516748077691
30
0
41
1
10
51.1099018456732
20
-7.28602761972094
30
0
41
1
10
51.0287093730063
20
-7.20665016767821
30
0
41
1
10
50.9851947355951
20
-7.16950476739243
30
0
0
SPLINE
5
1F4
100
AcDbEntity
8
1
62
256
6
ByLayer
370
13
48
1
60
0
100
AcDbSpline
70
4
71
3
72
28
73
24
40
0
40
0
40
0
40
0
40
0.0312499999999942
40
0.0312499999999942
40
0.0624999999999884
40
0.0624999999999884
40
0.124999999999991
40
0.124999999999991
40
0.187499999999993
40
0.187499999999993
40
0.249999999999995
40
0.249999999999995
40
0.312499999999997
40
0.312499999999997
40
0.375
40
0.375
40
0.5
40
0.5
40
0.625
40
0.625
40
0.75
40
0.75
40
1
40
1
40
1
40
1
41
1
10
50.9879220050062
20
-9.53973796789435
30
0
41
1
10
50.9897749201518
20
-9.53714462572493
30
0
41
1
10
50.9917218327902
20
-9.53383211547612
30
0
41
1
10
50.9957180010514
20
-9.52605886700783
30
0
41
1
10
50.9977560909274
20
-9.52162600047957
30
0
41
1
10
51.0039644753826
20
-9.50698224922326
30
0
41
1
10
51.0082276579291
20
-9.49544102142706
30
0
41
1
10
51.0169120548493
20
-9.46977735391555
30
0
41
1
10
51.0213526673012
20
-9.45557391277619
30
0
41
1
10
51.0301307576805
20
-9.42587190991226
30
0
41
1
10
51.0344944845413
20
-9.41029937060409
30
0
41
1
10
51.0431660613098
20
-9.37807407971582
30
0
41
1
10
51.0474739246183
20
-9.36141833857882
30
0
41
1
10
51.0560295971354
20
-9.32724782102342
30
0
41
1
10
51.0602798487058
20
-9.30971836222513
30
0
41
1
10
51.0728038847537
20
-9.25664294933094
30
0
41
1
10
51.0809045842767
20
-9.22041620379545
30
0
41
1
10
51.096686859823
20
-9.14681527785135
30
0
41
1
10
51.1043673530825
20
-9.10943405182613
30
0
41
1
10
51.1193482850884
20
-9.03380329760094
30
0
41
1
10
51.126648335473
20
-8.99555120732668
30
0
41
1
10
51.1480142977896
20
-8.87975663857146
30
0
41
1
10
51.1615479078934
20
-8.80118934810032
30
0
41
1
10
51.1744251694275
20
-8.72166541236263
30
0
0
SPLINE
5
1F5
100
AcDbEntity
8
1
62
256
6
ByLayer
370
13
48
1
60
0
100
AcDbSpline
70
4
71
3
72
29
73
25
40
0
40
0
40
0
40
0
40
0.124999999999998
40
0.124999999999998
40
0.187499999999996
40
0.187499999999996
40
0.249999999999995
40
0.249999999999995
40
0.374999999999993
40
0.374999999999993
40
0.437499999999993
40
0.437499999999993
40
0.499999999999994
40
0.562499999999994
40
0.562499999999994
40
0.624999999999994
40
0.624999999999994
40
0.687499999999995
40
0.687499999999995
40
0.749999999999995
40
0.749999999999995
40
0.874999999999998
40
0.874999999999998
40
1
40
1
40
1
40
1
41
1
10
51.148433125406
20
-7.97524135146537
30
0
41
1
10
51.1394639191214
20
-7.95488776108753
30
0
41
1
10
51.1297168465133
20
-7.93585422860004
30
0
41
1
10
51.1139687955335
20
-7.90958170943838
30
0
41
1
10
51.1085313803859
20
-7.90120548829132
30
0
41
1
10
51.0972857961108
20
-7.88529127752665
30
0
41
1
10
51.091576171571
20
-7.87789494693097
30
0
41
1
10
51.0743261926316
20
-7.85746641948991
30
0
41
1
10
51.0626350268164
20
-7.8461482829683
30
0
41
1
10
51.0451129083445
20
-7.8326636242427
30
0
41
1
10
51.0392553958939
20
-7.82874954196517
30
0
41
1
10
51.027934592042
20
-7.82227112455206
30
0
41
1
10
51.0169226927628
20
-7.817067242474
30
0
41
1
10
51.0065690453516
20
-7.81417554595527
30
0
41
1
10
50.9965636151179
20
-7.81234793396179
30
0
41
1
10
50.991721372199
20
-7.81196748959582
30
0
41
1
10
50.9824819688363
20
-7.81219528124944
30
0
41
1
10
50.9780906631057
20
-7.81280278411289
30
0
41
1
10
50.9698480216531
20
-7.81485549802727
30
0
41
1
10
50.9659796501768
20
-7.81630068116547
30
0
41
1
10
50.9550795436513
20
-7.82172819582556
30
0
41
1
10
50.9487500433335
20
-7.82679289048917
30
0
41
1
10
50.937771785414
20
-7.83926199898904
30
0
41
1
10
50.9331244167677
20
-7.84667091249075
30
0
41
1
10
50.929259788079
20
-7.85511131276657
30
0
0
SPLINE
5
1F6
100
AcDbEntity
8
1
62
256
6
ByLayer
370
18
48
1
60
0
100
AcDbSpline
70
4
71
3
72
8
73
4
40
0
40
0
40
0
40
0
40
1
40
1
40
1
40
1
41
1
10
42.3842244394093
20
-11.2779553740649
30
0
41
1
10
42.4116557927929
20
-11.3045808432288
30
0
41
1
10
42.440396266811
20
-11.3300777170706
30
0
41
1
10
42.4704822310338
20
-11.3544146413167
30
0
0
SPLINE
5
1F7
100
AcDbEntity
8
1
62
256
6
ByLayer
370
13
48
1
60
0
100
AcDbSpline
70
4
71
1
72
4
73
2
40
0
40
0
40
1
40
1
41
1
10
50.5242684447994
20
-8.00168501230657
30
0
41
1
10
50.8006766168392
20
-7.59672499893536
30
0
0
SPLINE
5
1F8
100
AcDbEntity
8
1
62
256
6
ByLayer
370
13
48
1
60
0
100
AcDbSpline
70
4
71
2
72
6
73
3
40
0
40
0
40
0
40
1
40
1
40
1
41
1
10
50.8006548104741
20
-7.59677042282635
30
0
41
1
10
50.8959165342153
20
-7.38467369697764
30
0
41
1
10
50.9851946965398
20
-7.16950473254703
30
0
0
SPLINE
5
1F9
100
AcDbEntity
8
1
62
256
6
ByLayer
370
13
48
1
60
0
100
AcDbSpline
70
4
71
3
72
10
73
6
40
0
40
0
40
0
40
0
40
0.364766239158241
40
0.364766239158241
40
1
40
1
40
1
40
1
41
1
10
50.9292597880791
20
-7.85511131276662
30
0
41
1
10
50.8832603775852
20
-7.92250411722502
30
0
41
1
10
50.8372609670912
20
-7.98989692168355
30
0
41
1
10
50.7111544211562
20
-8.17465306746685
30
0
41
1
10
50.6310472857152
20
-8.29201640879222
30
0
41
1
10
50.5509401502742
20
-8.40937975011725
30
0
0
SPLINE
5
1FA
100
AcDbEntity
8
1
62
256
6
ByLayer
370
13
48
1
60
0
100
AcDbSpline
70
4
71
3
72
28
73
24
40
0
40
0
40
0
40
0
40
0.24999999999999
40
0.24999999999999
40
0.374999999999983
40
0.374999999999983
40
0.499999999999976
40
0.499999999999976
40
0.624999999999969
40
0.624999999999969
40
0.687499999999964
40
0.687499999999964
40
0.749999999999959
40
0.749999999999959
40
0.812499999999954
40
0.812499999999954
40
0.843749999999961
40
0.843749999999961
40
0.874999999999969
40
0.874999999999969
40
0.937499999999984
40
0.937499999999984
40
1
40
1
40
1
40
1
41
1
10
51.2576753448941
20
-8.81779308771775
30
0
41
1
10
51.2366113800397
20
-8.90558755669903
30
0
41
1
10
51.2146555861348
20
-8.99147167885151
30
0
41
1
10
51.1804591276502
20
-9.11634136349373
30
0
41
1
10
51.1688500296447
20
-9.15729939413848
30
0
41
1
10
51.1452267030274
20
-9.23757447582604
30
0
41
1
10
51.1332124451474
20
-9.27689544468342
30
0
41
1
10
51.1087970171512
20
-9.35341393123147
30
0
41
1
10
51.096395809983
20
-9.39062164604256
30
0
41
1
10
51.077520362493
20
-9.44420505803382
30
0
41
1
10
51.0712110912714
20
-9.46160714759034
30
0
41
1
10
51.0586951381553
20
-9.49500638850866
30
0
41
1
10
51.0524722692048
20
-9.51105043062779
30
0
41
1
10
51.0401370994304
20
-9.54157538706211
30
0
41
1
10
51.0340245548093
20
-9.55605826378708
30
0
41
1
10
51.0249796181972
20
-9.57633978733277
30
0
41
1
10
51.0219857430543
20
-9.58285643391183
30
0
41
1
10
51.0161160125912
20
-9.59520921045632
30
0
41
1
10
51.0132318610982
20
-9.60106432241376
30
0
41
1
10
51.0047490208404
20
-9.61758860526881
30
0
41
1
10
50.9993187960123
20
-9.62722324690201
30
0
41
1
10
50.9890242110898
20
-9.64318989927961
30
0
41
1
10
50.98413853461
20
-9.64953166676878
30
0
41
1
10
50.9797164620798
20
-9.65375637512049
30
0
0
SPLINE
5
1FB
100
AcDbEntity
8
1
62
256
6
ByLayer
370
13
48
1
60
0
100
AcDbSpline
70
4
71
3
72
10
73
6
40
0
40
0
40
0
40
0
40
0.5
40
0.5
40
1
40
1
40
1
40
1
41
1
10
50.9797164620798
20
-9.65375637512012
30
0
41
1
10
50.9142201087112
20
-9.71632952135172
30
0
41
1
10
50.8484646320069
20
-9.7755923229726
30
0
41
1
10
50.7165173667872
20
-9.88831643007028
30
0
41
1
10
50.6503266921258
20
-9.94177481435622
30
0
41
1
10
50.5839415744601
20
-9.9926562592497
30
0
0
SPLINE
5
1FC
100
AcDbEntity
8
1
62
256
6
ByLayer
370
18
48
1
60
0
100
AcDbSpline
70
4
71
3
72
18
73
14
40
0
40
0
40
0
40
0
40
0.0894181927877275
40
0.179214302549338
40
0.269362439104041
40
0.359836353464431
40
0.450609447524957
40
0.541654784276271
40
0.632945098584162
40
0.724452808570889
40
0.816150027639294
40
0.908008577179369
40
1
40
1
40
1
40
1
41
1
10
51.4269780411387
20
-8.45758598216516
30
0
41
1
10
51.4252520577823
20
-8.46744106634678
30
0
41
1
10
51.421792796375
20
-8.48719288622941
30
0
41
1
10
51.416483343526
20
-8.51682865182418
30
0
41
1
10
51.4110732161797
20
-8.54653960208638
30
0
41
1
10
51.4055559550879
20
-8.57631068223336
30
0
41
1
10
51.3999352358243
20
-8.60613116462511
30
0
41
1
10
51.3942120104849
20
-8.63598897562756
30
0
41
1
10
51.3883877456216
20
-8.66587204592847
30
0
41
1
10
51.3824643877139
20
-8.69576863437987
30
0
41
1
10
51.3764412248654
20
-8.72566468757151
30
0
41
1
10
51.3703275019269
20
-8.75555413061849
30
0
41
1
10
51.3661750537273
20
-8.77543926288185
30
0
41
1
10
51.3640973290849
20
-8.78538901477135
30
0
0
SPLINE
5
1FD
100
AcDbEntity
8
1
62
256
6
ByLayer
370
13
48
1
60
0
100
AcDbSpline
70
4
71
3
72
12
73
8
40
0
40
0
40
0
40
0
40
0.207626281701327
40
0.411437295981528
40
0.611435192252509
40
0.807622074177588
40
1
40
1
40
1
40
1
41
1
10
51.4270373611278
20
-8.45750490128573
30
0
41
1
10
51.4185185384798
20
-8.46911370340241
30
0
41
1
10
51.4016374320681
20
-8.49211798837702
30
0
41
1
10
51.3764062887336
20
-8.52605259778839
30
0
41
1
10
51.351544557798
20
-8.55917058023132
30
0
41
1
10
51.3270578054016
20
-8.59148168679559
30
0
41
1
10
51.3108077945747
20
-8.61266173748083
30
0
41
1
10
51.3027624355634
20
-8.62314795274891
30
0
0
SPLINE
5
1FE
100
AcDbEntity
8
1
62
256
6
ByLayer
370
13
48
1
60
0
100
AcDbSpline
70
4
71
3
72
8
73
4
40
0
40
0
40
0
40
0
40
1
40
1
40
1
40
1
41
1
10
51.302757206557
20
-8.62315474908257
30
0
41
1
10
51.2882000551726
20
-8.68832988428893
30
0
41
1
10
51.2731708094103
20
-8.75320809205198
30
0
41
1
10
51.2576753448941
20
-8.81779308771773
30
0
0
SPLINE
5
1FF
100
AcDbEntity
8
1
62
256
6
ByLayer
370
18
48
1
60
0
100
AcDbSpline
70
4
71
3
72
8
73
4
40
0
40
0
40
0
40
0
40
1
40
1
40
1
40
1
41
1
10
49.0486532197138
20
-12.4486772349686
30
0
41
1
10
48.9959849196664
20
-12.4472488279228
30
0
41
1
10
48.9429386509796
20
-12.4437919821999
30
0
41
1
10
48.8894804197986
20
-12.438235542655
30
0
0
SPLINE
5
200
100
AcDbEntity
8
1
62
256
6
ByLayer
370
18
48
1
60
0
100
AcDbSpline
70
4
71
3
72
31
73
27
40
0
40
0
40
0
40
0
40
0.124999999999939
40
0.124999999999939
40
0.249999999999879
40
0.249999999999879
40
0.281249999999856
40
0.281249999999856
40
0.312499999999834
40
0.312499999999834
40
0.374999999999818
40
0.374999999999818
40
0.499999999999787
40
0.499999999999787
40
0.562499999999771
40
0.562499999999771
40
0.593749999999763
40
0.593749999999763
40
0.624999999999755
40
0.624999999999755
40
0.749999999999837
40
0.874999999999918
40
0.874999999999918
40
0.937499999999959
40
0.937499999999959
40
1
40
1
40
1
40
1
41
1
10
50.5070503785008
20
-11.5198311502142
30
0
41
1
10
50.4764579625929
20
-11.5919661753225
30
0
41
1
10
50.4408850394748
20
-11.6605185510185
30
0
41
1
10
50.3603687202537
20
-11.7908828002658
30
0
41
1
10
50.3154223980559
20
-11.852692568977
30
0
41
1
10
50.2533481453068
20
-11.9257169300383
30
0
41
1
10
50.2406372305046
20
-11.9401088330939
30
0
41
1
10
50.2146163697841
20
-11.9684617356075
30
0
41
1
10
50.2012776706822
20
-11.9824512066759
30
0
41
1
10
50.1605868459722
20
-12.0235259467945
30
0
41
1
10
50.1325987221757
20
-12.0496918288098
30
0
41
1
10
50.04613334154
20
-12.1246531781947
30
0
41
1
10
49.9851679753431
20
-12.1699305886728
30
0
41
1
10
49.8888114582345
20
-12.2309063868494
30
0
41
1
10
49.8558712601929
20
-12.2500702941038
30
0
41
1
10
49.8052082352443
20
-12.2770448630765
30
0
41
1
10
49.7880807129167
20
-12.2857555931669
30
0
41
1
10
49.7535563154029
20
-12.3025032834151
30
0
41
1
10
49.73618598516
20
-12.3105290419937
30
0
41
1
10
49.648802802877
20
-12.348946780866
30
0
41
1
10
49.5056047931852
20
-12.3995187583974
30
0
41
1
10
49.3558197757271
20
-12.4288864700286
30
0
41
1
10
49.2409188048593
20
-12.4426642393477
30
0
41
1
10
49.2024877182618
20
-12.4458374497641
30
0
41
1
10
49.1256307265301
20
-12.449363561654
30
0
41
1
10
49.0871620347623
20
-12.4497216252886
30
0
41
1
10
49.0486532197137
20
-12.4486772349686
30
0
0
SPLINE
5
201
100
AcDbEntity
8
1
62
256
6
ByLayer
370
13
48
1
60
0
100
AcDbSpline
70
4
71
3
72
16
73
12
40
0
40
0
40
0
40
0
40
0.110049289743521
40
0.220364008506015
40
0.330944167562092
40
0.441789778190882
40
0.552900851675943
40
0.664277399305173
40
0.775919432370714
40
0.887826962168867
40
1
40
1
40
1
40
1
41
1
10
50.2836666946741
20
-10.8776774966212
30
0
41
1
10
50.2920581224673
20
-10.9009935089894
30
0
41
1
10
50.3088612174251
20
-10.947681769857
30
0
41
1
10
50.3339197705602
20
-11.0180165948686
30
0
41
1
10
50.3589086329164
20
-11.0886800696429
30
0
41
1
10
50.3838140901093
20
-11.1596882418295
30
0
41
1
10
50.4086382012213
20
-11.231037551223
30
0
41
1
10
50.4333798818422
20
-11.3027284073118
30
0
41
1
10
50.4580347705822
20
-11.3747650084087
30
0
41
1
10
50.4826148180669
20
-11.4471323205466
30
0
41
1
10
50.4988988347933
20
-11.4955791501438
30
0
41
1
10
50.5070504904395
20
-11.5198312667227
30
0
0
SPLINE
5
202
100
AcDbEntity
8
1
62
256
6
ByLayer
370
18
48
1
60
0
100
AcDbSpline
70
4
71
2
72
8
73
5
40
0
40
0
40
0
40
0.5
40
0.5
40
1
40
1
40
1
41
1
10
46.3349248407896
20
-12.3556129920147
30
0
41
1
10
46.7571693147631
20
-12.3869716636224
30
0
41
1
10
47.1394627951972
20
-12.3995108722589
30
0
41
1
10
47.5743840814357
20
-12.4137762705138
30
0
41
1
10
47.935948148968
20
-12.4029100134179
30
0
0
SPLINE
5
203
100
AcDbEntity
8
1
62
256
6
ByLayer
370
13
48
1
60
0
100
AcDbSpline
70
4
71
2
72
6
73
3
40
0
40
0
40
0
40
1
40
1
40
1
41
1
10
48.8894803441949
20
-12.4382355378426
30
0
41
1
10
48.9759640599369
20
-12.0485159304358
30
0
41
1
10
49.0593641876395
20
-11.6629103585028
30
0
0
SPLINE
5
204
100
AcDbEntity
8
1
62
256
6
ByLayer
370
13
48
1
60
0
100
AcDbSpline
70
4
71
2
72
6
73
3
40
0
40
0
40
0
40
1
40
1
40
1
41
1
10
42.5194805700613
20
-11.2881433397554
30
0
41
1
10
42.4949318302319
20
-11.3212609495432
30
0
41
1
10
42.4704822707987
20
-11.3544146757772
30
0
0
SPLINE
5
205
100
AcDbEntity
8
1
62
256
6
ByLayer
370
18
48
1
60
0
100
AcDbSpline
70
4
71
3
72
12
73
8
40
0
40
0
40
0
40
0
40
0.25000000000001
40
0.25000000000001
40
0.500000000000019
40
0.500000000000019
40
1
40
1
40
1
40
1
41
1
10
50.5839415744601
20
-9.99265625924967
30
0
41
1
10
50.5872008877872
20
-9.98194293925187
30
0
41
1
10
50.5900203272845
20
-9.97112539766648
30
0
41
1
10
50.5947737278259
20
-9.9492805134939
30
0
41
1
10
50.5967104076923
20
-9.93822772879095
30
0
41
1
10
50.6011301650427
20
-9.9049751715723
30
0
41
1
10
50.6022436509501
20
-9.88268316865395
30
0
41
1
10
50.6014629481014
20
-9.86026340858551
30
0
0
SPLINE
5
206
100
AcDbEntity
8
1
62
256
6
ByLayer
370
18
48
1
60
0
100
AcDbSpline
70
4
71
3
72
12
73
8
40
0
40
0
40
0
40
0
40
0.501410395101899
40
0.501410395101899
40
0.752115592652849
40
0.752115592652849
40
1
40
1
40
1
40
1
41
1
10
50.5509401502742
20
-8.40937975011725
30
0
41
1
10
50.5500518875593
20
-8.38387114978296
30
0
41
1
10
50.5468721795176
20
-8.35881420671549
30
0
41
1
10
50.5386455042845
20
-8.32191020932623
30
0
41
1
10
50.5353236145821
20
-8.30972313214866
30
0
41
1
10
50.5275155725395
20
-8.28572294974893
30
0
41
1
10
50.5230159858071
20
-8.27385764074717
30
0
41
1
10
50.5179990424361
20
-8.26235494830817
30
0
0
SPLINE
5
207
100
AcDbEntity
8
1
62
256
6
ByLayer
370
18
48
1
60
0
100
AcDbSpline
70
4
71
3
72
32
73
28
40
0
40
0
40
0
40
0
40
0.124999999999853
40
0.124999999999853
40
0.249999999999706
40
0.249999999999706
40
0.281249999999682
40
0.281249999999682
40
0.312499999999659
40
0.374999999999661
40
0.374999999999661
40
0.499999999999717
40
0.499999999999717
40
0.531249999999731
40
0.531249999999731
40
0.562499999999744
40
0.624999999999811
40
0.624999999999811
40
0.749999999999945
40
0.749999999999945
40
0.781249999999953
40
0.781249999999953
40
0.812499999999961
40
0.812499999999961
40
0.874999999999974
40
0.874999999999974
40
1
40
1
40
1
40
1
41
1
10
49.0593642176805
20
-11.6629103603905
30
0
41
1
10
49.1248012127651
20
-11.6677701451039
30
0
41
1
10
49.1897018043696
20
-11.6672385024877
30
0
41
1
10
49.3184804888724
20
-11.6558980142326
30
0
41
1
10
49.3823584638101
20
-11.6450879829631
30
0
41
1
10
49.4615468339798
20
-11.6249508006551
30
0
41
1
10
49.4773628857788
20
-11.6205848930826
30
0
41
1
10
49.5086436256854
20
-11.6112644322448
30
0
41
1
10
49.5551434466141
20
-11.5963752475218
30
0
41
1
10
49.600401589308
20
-11.5788084311788
30
0
41
1
10
49.6892900646195
20
-11.5401644883254
30
0
41
1
10
49.7463892391642
20
-11.5097443142668
30
0
41
1
10
49.8149957528324
20
-11.4657511868898
30
0
41
1
10
49.8286043604559
20
-11.4566335288523
30
0
41
1
10
49.8554064815441
20
-11.4378794638214
30
0
41
1
10
49.8949125258112
20
-11.409026968234
30
0
41
1
10
49.932366507735
20
-11.3780509976662
30
0
41
1
10
50.0045909506131
20
-11.3133221478942
30
0
41
1
10
50.0491798110801
20
-11.2664848970231
30
0
41
1
10
50.1003763674167
20
-11.2032408369962
30
0
41
1
10
50.1103873249468
20
-11.1903557244469
30
0
41
1
10
50.1299445775436
20
-11.1641046664346
30
0
41
1
10
50.1394752644864
20
-11.150757250105
30
0
41
1
10
50.1671424983903
20
-11.1103132189428
30
0
41
1
10
50.1844290375801
20
-11.0827185004363
30
0
41
1
10
50.2328629420224
20
-10.9980650639656
30
0
41
1
10
50.260607441006
20
-10.9391495317105
30
0
41
1
10
50.2836666288607
20
-10.8776774039348
30
0
0
SPLINE
5
208
100
AcDbEntity
8
1
62
256
6
ByLayer
370
13
48
1
60
0
100
AcDbSpline
70
4
71
3
72
22
73
18
40
0
40
0
40
0
40
0
40
0.125000000000001
40
0.125000000000001
40
0.250000000000003
40
0.250000000000003
40
0.375000000000004
40
0.375000000000004
40
0.500000000000005
40
0.500000000000005
40
0.625000000000006
40
0.625000000000006
40
0.687500000000003
40
0.687500000000003
40
0.749999999999999
40
0.749999999999999
40
1
40
1
40
1
40
1
41
1
10
51.2185394569413
20
1.02281589895379
30
0
41
1
10
51.2236988108741
20
1.0301340744364
30
0
41
1
10
51.2281007451812
20
1.03656755069701
30
0
41
1
10
51.2351728156029
20
1.04741168554945
30
0
41
1
10
51.2378351893866
20
1.05181358327884
30
0
41
1
10
51.2411194422397
20
1.05818940751385
30
0
41
1
10
51.2417591409616
20
1.06018943577662
30
0
41
1
10
51.2407953587207
20
1.06153130865647
30
0
41
1
10
51.2391606573632
20
1.06084363749005
30
0
41
1
10
51.2335345524164
20
1.05660059418436
30
0
41
1
10
51.2295540719362
20
1.05306568848907
30
0
41
1
10
51.2217865213506
20
1.04558794041924
30
0
41
1
10
51.218897408305
20
1.04273223846968
30
0
41
1
10
51.2125057881536
20
1.03627820943954
30
0
41
1
10
51.2089879329517
20
1.03266353513771
30
0
41
1
10
51.1901638729439
20
1.01304093040319
30
0
41
1
10
51.1710519768959
20
0.992299296289517
30
0
41
1
10
51.148433125406
20
0.967193230307572
30
0
0
SPLINE
5
209
100
AcDbEntity
8
1
62
256
6
ByLayer
370
18
48
1
60
0
100
AcDbSpline
70
4
71
3
72
28
73
24
40
0
40
0
40
0
40
0
40
0.0312499999999903
40
0.0312499999999903
40
0.0624999999999806
40
0.0624999999999806
40
0.12499999999998
40
0.12499999999998
40
0.18749999999998
40
0.18749999999998
40
0.24999999999998
40
0.24999999999998
40
0.31249999999998
40
0.31249999999998
40
0.37499999999998
40
0.37499999999998
40
0.499999999999984
40
0.499999999999984
40
0.624999999999988
40
0.624999999999988
40
0.749999999999992
40
0.749999999999992
40
1
40
1
40
1
40
1
41
1
10
50.9879220050062
20
0.501223801750015
30
0
41
1
10
50.9897749201518
20
0.511324182492771
30
0
41
1
10
50.9917218327902
20
0.521207256836291
30
0
41
1
10
50.9957180010514
20
0.54030373226864
30
0
41
1
10
50.9977560909274
20
0.549471463574307
30
0
41
1
10
51.0039644753826
20
0.576038719338783
30
0
41
1
10
51.0082276579291
20
0.592512656067342
30
0
41
1
10
51.0169120548493
20
0.623670093302636
30
0
41
1
10
51.0213526673012
20
0.638396552049045
30
0
41
1
10
51.0301307576805
20
0.665843309453649
30
0
41
1
10
51.0344944845413
20
0.67866045722694
30
0
41
1
10
51.0431660613098
20
0.702944061583594
30
0
41
1
10
51.0474739246183
20
0.714406723714163
30
0
41
1
10
51.0560295971354
20
0.736263150402365
30
0
41
1
10
51.0602798487058
20
0.746658695180415
30
0
41
1
10
51.0728038847537
20
0.776233866336739
30
0
41
1
10
51.0809045842766
20
0.793962462710439
30
0
41
1
10
51.0966868598229
20
0.826752769534963
30
0
41
1
10
51.1043673530825
20
0.841797386831061
30
0
41
1
10
51.1193482850885
20
0.869898773421369
30
0
41
1
10
51.126648335473
20
0.882949324358108
30
0
41
1
10
51.1480142977896
20
0.919762327836168
30
0
41
1
10
51.1615479078934
20
0.941218938170707
30
0
41
1
10
51.1744251694275
20
0.960599838850044
30
0
0
SPLINE
5
20A
100
AcDbEntity
8
1
62
256
6
ByLayer
370
13
48
1
60
0
100
AcDbSpline
70
4
71
3
72
8
73
4
40
0
40
0
40
0
40
0
40
1
40
1
40
1
40
1
41
1
10
50.9292597880791
20
0.516104622960128
30
0
41
1
10
50.9079162797167
20
0.399494821228956
30
0
41
1
10
50.8865727713542
20
0.282885019497783
30
0
41
1
10
50.8652292629918
20
0.166275217766625
30
0
0
SPLINE
5
20B
100
AcDbEntity
8
1
62
256
6
ByLayer
370
13
48
1
60
0
100
AcDbSpline
70
4
71
3
72
29
73
25
40
0
40
0
40
0
40
0
40
0.124999999999995
40
0.124999999999995
40
0.187499999999995
40
0.187499999999995
40
0.249999999999996
40
0.249999999999996
40
0.374999999999996
40
0.374999999999996
40
0.437499999999997
40
0.437499999999997
40
0.499999999999998
40
0.562499999999998
40
0.562499999999998
40
0.624999999999999
40
0.624999999999999
40
0.687499999999999
40
0.687499999999999
40
0.75
40
0.75
40
0.875
40
0.875
40
1
40
1
40
1
40
1
41
1
10
51.148433125406
20
0.9671932303077
30
0
41
1
10
51.1394639191214
20
0.957511846448995
30
0
41
1
10
51.1297168465134
20
0.946460260397046
30
0
41
1
10
51.1139687955335
20
0.927327547951222
30
0
41
1
10
51.1085313803858
20
0.920521642845571
30
0
41
1
10
51.0972857961108
20
0.905930192994234
30
0
41
1
10
51.091576171571
20
0.898270741726336
30
0
41
1
10
51.0743261926316
20
0.87424586332763
30
0
41
1
10
51.0626350268163
20
0.856801156282259
30
0
41
1
10
51.0451129083446
20
0.828255408897689
30
0
41
1
10
51.0392553958939
20
0.818301154399506
30
0
41
1
10
51.027934592042
20
0.798166515155486
30
0
41
1
10
51.0169226927628
20
0.777673751767495
30
0
41
1
10
51.0065690453516
20
0.75648122882842
30
0
41
1
10
50.9965636151179
20
0.734943499455184
30
0
41
1
10
50.9917213721989
20
0.723968427183905
30
0
41
1
10
50.9824819688363
20
0.70186559290444
30
0
41
1
10
50.9780906631058
20
0.690751867460875
30
0
41
1
10
50.9698480216532
20
0.668679975069736
30
0
41
1
10
50.9659796501768
20
0.657682021776239
30
0
41
1
10
50.9550795436513
20
0.624774253193735
30
0
41
1
10
50.9487500433335
20
0.602948796329613
30
0
41
1
10
50.937771785414
20
0.559433888521482
30
0
41
1
10
50.9331244167677
20
0.537745224157803
30
0
41
1
10
50.929259788079
20
0.516104622960128
30
0
0
SPLINE
5
20C
100
AcDbEntity
8
1
62
256
6
ByLayer
370
13
48
1
60
0
100
AcDbSpline
70
4
71
3
72
32
73
28
40
0
40
0
40
0
40
0
40
0.0156249999999955
40
0.0156249999999955
40
0.031249999999991
40
0.062499999999961
40
0.124999999999924
40
0.124999999999924
40
0.24999999999988
40
0.24999999999988
40
0.312499999999858
40
0.312499999999858
40
0.374999999999835
40
0.374999999999835
40
0.499999999999837
40
0.499999999999837
40
0.562499999999864
40
0.562499999999864
40
0.62499999999989
40
0.62499999999989
40
0.749999999999944
40
0.749999999999944
40
0.812499999999971
40
0.812499999999971
40
0.874999999999998
40
0.874999999999998
40
1
40
1
40
1
40
1
41
1
10
50.8006765046969
20
0.461977335619807
30
0
41
1
10
50.8015330111866
20
0.466208242293078
30
0
41
1
10
50.8024403442793
20
0.470540649130228
30
0
41
1
10
50.8042931545488
20
0.479091815520604
30
0
41
1
10
50.8071610927357
20
0.49190575016695
30
0
41
1
10
50.8144719623328
20
0.521716208872235
30
0
41
1
10
50.8217933248232
20
0.547119508715241
30
0
41
1
10
50.837834740916
20
0.597740188803996
30
0
41
1
10
50.8503900638257
20
0.631238076533222
30
0
41
1
10
50.8720478038117
20
0.681180070782375
30
0
41
1
10
50.8796903051945
20
0.697662596362747
30
0
41
1
10
50.895739954177
20
0.730207877979609
30
0
41
1
10
50.9041419776676
20
0.74625569452634
30
0
41
1
10
50.9301144360063
20
0.79325413516149
30
0
41
1
10
50.9485453522611
20
0.823261019796789
30
0
41
1
10
50.9774765796745
20
0.866457653307563
30
0
41
1
10
50.9873348867109
20
0.88055334585556
30
0
41
1
10
51.0074178897946
20
0.908157882646606
30
0
41
1
10
51.0176056595252
20
0.921611160808041
30
0
41
1
10
51.0480185018939
20
0.960392152426991
30
0
41
1
10
51.0682708500355
20
0.984395992862005
30
0
41
1
10
51.0981780805878
20
1.01797918363088
30
0
41
1
10
51.108097407454
20
1.02879826342428
30
0
41
1
10
51.1275757815792
20
1.04952679776257
30
0
41
1
10
51.1370864278796
20
1.05938705771193
30
0
41
1
10
51.1648710254849
20
1.08759510212109
30
0
41
1
10
51.18239839812
20
1.10457782296717
30
0
41
1
10
51.1987652652764
20
1.11999737370583
30
0
0
SPLINE
5
20D
100
AcDbEntity
8
1
62
256
6
ByLayer
370
13
48
1
60
0
100
AcDbSpline
70
4
71
3
72
21
73
17
40
0
40
0
40
0
40
0
40
0.298029824642645
40
0.298029824642645
40
0.372537280803305
40
0.372537280803305
40
0.447044736963964
40
0.59605964928525
40
0.59605964928525
40
0.745074561606536
40
0.745074561606536
40
0.894089473927822
40
0.894089473927822
40
0.968596930088462
40
0.968596930088462
40
1
40
1
40
1
40
1
41
1
10
51.1987652652763
20
1.11999737370577
30
0
41
1
10
51.2296702291377
20
1.1491135542053
30
0
41
1
10
51.2555739960705
20
1.17378828483625
30
0
41
1
10
51.2812331445062
20
1.19861376542818
30
0
41
1
10
51.286035939122
20
1.20328529399525
30
0
41
1
10
51.2948546072856
20
1.21191588483211
30
0
41
1
10
51.3069352959716
20
1.22382484778802
30
0
41
1
10
51.3156298843569
20
1.23267263179379
30
0
41
1
10
51.3242510554623
20
1.24178663108376
30
0
41
1
10
51.3270729206864
20
1.24500258480389
30
0
41
1
10
51.3297071488074
20
1.24870134549786
30
0
41
1
10
51.3295469792361
20
1.24921098983069
30
0
41
1
10
51.3272253015587
20
1.24809715385545
30
0
41
1
10
51.3261038885806
20
1.24741228943432
30
0
41
1
10
51.324027022004
20
1.24600446612017
30
0
41
1
10
51.3233504228491
20
1.24553239083387
30
0
41
1
10
51.3226148194653
20
1.2450071895643
30
0
0
SPLINE
5
20E
100
AcDbEntity
8
1
62
256
6
ByLayer
370
18
48
1
60
0
100
AcDbSpline
70
4
71
3
72
8
73
4
40
0
40
0
40
0
40
0
40
1
40
1
40
1
40
1
41
1
10
51.4270406374218
20
1.94066518850697
30
0
41
1
10
51.4298923224733
20
1.94133951418752
30
0
41
1
10
51.4324895762001
20
1.94202069949698
30
0
41
1
10
51.4348243332486
20
1.94271345785262
30
0
0
SPLINE
5
20F
100
AcDbEntity
8
1
62
256
6
ByLayer
370
13
48
1
60
0
100
AcDbSpline
70
4
71
2
72
6
73
3
40
0
40
0
40
0
40
1
40
1
40
1
41
1
10
50.8006548104741
20
0.461828806325968
30
0
41
1
10
50.8959165342153
20
1.1448055303153
30
0
41
1
10
50.9851946965398
20
1.82161749481718
30
0
0
SPLINE
5
210
100
AcDbEntity
8
1
62
256
6
ByLayer
370
18
48
1
60
0
100
AcDbSpline
70
4
71
3
72
25
73
21
40
0
40
0
40
0
40
0
40
0.0072860427435786
40
0.0072860427435786
40
0.149102322351639
40
0.149102322351639
40
0.22001046215567
40
0.22001046215567
40
0.290918601959701
40
0.290918601959701
40
0.432734881567779
40
0.432734881567779
40
0.574551161175856
40
0.574551161175856
40
0.64545930097988
40
0.64545930097988
40
0.716367440783903
40
0.716367440783903
40
0.858183720391951
40
1
40
1
40
1
40
1
41
1
10
51.4482896324716
20
1.94620593157895
30
0
41
1
10
51.4483711039908
20
1.94622575048717
30
0
41
1
10
51.4484438204131
20
1.94624322751392
30
0
41
1
10
51.4497527248764
20
1.94655295289826
30
0
41
1
10
51.4476817595476
20
1.94596057812341
30
0
41
1
10
51.4393766103772
20
1.9436814268939
30
0
41
1
10
51.4357394039378
20
1.94268931017446
30
0
41
1
10
51.4266573258436
20
1.94022154836951
30
0
41
1
10
51.4212624441673
20
1.93875948778127
30
0
41
1
10
51.402560889504
20
1.93370070677309
30
0
41
1
10
51.3867449431304
20
1.92943342055473
30
0
41
1
10
51.3484063642399
20
1.91910659133544
30
0
41
1
10
51.3258849805504
20
1.91304738206401
30
0
41
1
10
51.286831958389
20
1.90254999026534
30
0
41
1
10
51.272872552553
20
1.89879911842412
30
0
41
1
10
51.2435450241243
20
1.89092148543011
30
0
41
1
10
51.2281611994546
20
1.88679049182878
30
0
41
1
10
51.1798922042793
20
1.87383236530171
30
0
41
1
10
51.1099018456732
20
1.85505181796094
30
0
41
1
10
51.0287093730063
20
1.83328153576086
30
0
41
1
10
50.9851947355951
20
1.82161750191011
30
0
0
SPLINE
5
211
100
AcDbEntity
8
1
62
256
6
ByLayer
370
18
48
1
60
0
100
AcDbSpline
70
4
71
2
72
6
73
3
40
0
40
0
40
0
40
1
40
1
40
1
41
1
10
51.4348243332482
20
1.94271345785249
30
0
41
1
10
50.8178324531845
20
1.77769149075732
30
0
41
1
10
50.5242682877588
20
1.69917147587144
30
0
0
SPLINE
5
212
100
AcDbEntity
8
1
62
256
6
ByLayer
370
18
48
1
60
0
100
AcDbSpline
70
4
71
3
72
8
73
4
40
0
40
0
40
0
40
0
40
1
40
1
40
1
40
1
41
1
10
46.0838369756156
20
9.84056812343974
30
0
41
1
10
46.0802863891458
20
9.84668962846771
30
0
41
1
10
46.0767365033475
20
9.85280959571303
30
0
41
1
10
46.0731872782933
20
9.85892811445025
30
0
0
SPLINE
5
213
100
AcDbEntity
8
1
62
256
6
ByLayer
370
18
48
1
60
0
100
AcDbSpline
70
4
71
3
72
26
73
22
40
0
40
0
40
0
40
0
40
0.250000000000082
40
0.250000000000082
40
0.375000000000034
40
0.375000000000034
40
0.499999999999986
40
0.499999999999986
40
0.624999999999937
40
0.624999999999937
40
0.687499999999948
40
0.687499999999948
40
0.749999999999958
40
0.749999999999958
40
0.812499999999969
40
0.812499999999969
40
0.874999999999979
40
0.874999999999979
40
0.93749999999999
40
0.93749999999999
40
1
40
1
40
1
40
1
41
1
10
46.1822277032188
20
10.1177656134279
30
0
41
1
10
46.1595403526156
20
10.1022898080093
30
0
41
1
10
46.1382016174617
20
10.0848521854217
30
0
41
1
10
46.109089191096
20
10.0558184441716
30
0
41
1
10
46.0998719110997
20
10.0456513641665
30
0
41
1
10
46.082753294022
20
10.0243212397512
30
0
41
1
10
46.0748310100259
20
10.0131368083359
30
0
41
1
10
46.0608804432308
20
9.98973464496633
30
0
41
1
10
46.0548259703887
20
9.97748930802601
30
0
41
1
10
46.0479825697716
20
9.9583792709753
30
0
41
1
10
46.0460862355437
20
9.9519051155916
30
0
41
1
10
46.0432773233654
20
9.93879250846108
30
0
41
1
10
46.0423720817011
20
9.93215415026074
30
0
41
1
10
46.0418210929934
20
9.91905495913157
30
0
41
1
10
46.042161346866
20
9.91255065905946
30
0
41
1
10
46.0443937661149
20
9.89966494918612
30
0
41
1
10
46.0462728255908
20
9.89345818991332
30
0
41
1
10
46.0515847183697
20
9.88186349410439
30
0
41
1
10
46.05507599479
20
9.87640551206768
30
0
41
1
10
46.063239985312
20
9.86681876773936
30
0
41
1
10
46.0679740118921
20
9.86257900958722
30
0
41
1
10
46.0731872782933
20
9.85892811445024
30
0
0
SPLINE
5
214
100
AcDbEntity
8
1
62
256
6
ByLayer
370
18
48
1
60
0
100
AcDbSpline
70
4
71
3
72
8
73
4
40
0
40
0
40
0
40
0
40
1
40
1
40
1
40
1
41
1
10
45.8847593132782
20
9.43088043263973
30
0
41
1
10
45.8778566521133
20
9.43010360600611
30
0
41
1
10
45.8709557808339
20
9.42932748311469
30
0
41
1
10
45.8640565953107
20
9.42855202111751
30
0
0
SPLINE
5
215
100
AcDbEntity
8
1
62
256
6
ByLayer
370
18
48
1
60
0
100
AcDbSpline
70
4
71
3
72
30
73
26
40
0
40
0
40
0
40
0
40
0.0624999999999999
40
0.0624999999999999
40
0.125
40
0.125
40
0.1875
40
0.1875
40
0.25
40
0.25
40
0.3125
40
0.3125
40
0.375
40
0.375
40
0.5
40
0.5
40
0.625
40
0.625
40
0.75
40
0.75
40
0.875
40
0.875
40
0.9375
40
0.9375
40
1
40
1
40
1
40
1
41
1
10
46.0838369756157
20
9.84056812343957
30
0
41
1
10
46.0889602562467
20
9.83173516347144
30
0
41
1
10
46.0928060549754
20
9.82212285641658
30
0
41
1
10
46.0984999422706
20
9.80243074083603
30
0
41
1
10
46.1003871251512
20
9.79226543224118
30
0
41
1
10
46.1026827872192
20
9.77141964219953
30
0
41
1
10
46.1030672260304
20
9.76086429551762
30
0
41
1
10
46.1026253767731
20
9.73980991425712
30
0
41
1
10
46.1018004194656
20
9.72926045745689
30
0
41
1
10
46.0991093873714
20
9.70811002957551
30
0
41
1
10
46.0972277216512
20
9.69745403148728
30
0
41
1
10
46.092569783198
20
9.67641802630168
30
0
41
1
10
46.0897988162692
20
9.66603279024834
30
0
41
1
10
46.0802789339907
20
9.63523641328585
30
0
41
1
10
46.0723416399439
20
9.61517868078529
30
0
41
1
10
46.0533408840898
20
9.57598573353827
30
0
41
1
10
46.0424919866074
20
9.55729350871927
30
0
41
1
10
46.0179634856959
20
9.52183629956131
30
0
41
1
10
46.0043914896851
20
9.50524191322941
30
0
41
1
10
45.9746274267226
20
9.47536236168719
30
0
41
1
10
45.9584039980401
20
9.4620225286216
30
0
41
1
10
45.9321360031654
20
9.44622657412947
30
0
41
1
10
45.9229889049774
20
9.44164407477248
30
0
41
1
10
45.9042774134911
20
9.43455179446353
30
0
41
1
10
45.894692491589
20
9.43199831417613
30
0
41
1
10
45.8847593132782
20
9.43088043263973
30
0
0
SPLINE
5
216
100
AcDbEntity
8
1
62
256
6
ByLayer
370
18
48
1
60
0
100
AcDbSpline
70
4
71
3
72
26
73
22
40
0
40
0
40
0
40
0
40
0.250000000000119
40
0.250000000000119
40
0.375000000000165
40
0.375000000000165
40
0.50000000000021
40
0.50000000000021
40
0.625000000000255
40
0.625000000000255
40
0.687500000000213
40
0.687500000000213
40
0.75000000000017
40
0.75000000000017
40
0.812500000000128
40
0.812500000000128
40
0.875000000000085
40
0.875000000000085
40
0.937500000000043
40
0.937500000000043
40
1
40
1
40
1
40
1
41
1
10
45.7302182504138
20
9.18756226080068
30
0
41
1
10
45.7283093024613
20
9.2148469323765
30
0
41
1
10
45.7287598732657
20
9.24225015399699
30
0
41
1
10
45.7334563464139
20
9.28279272687351
30
0
41
1
10
45.7357019537992
20
9.29621545501678
30
0
41
1
10
45.7417751711564
20
9.32261247880881
30
0
41
1
10
45.7456065912319
20
9.33561633563681
30
0
41
1
10
45.7552314281948
20
9.36073067890014
30
0
41
1
10
45.7610303212226
20
9.37287872710631
30
0
41
1
10
45.7716707497528
20
9.38974916875696
30
0
41
1
10
45.7755332441889
20
9.39512627377778
30
0
41
1
10
45.783985268226
20
9.40518787363848
30
0
41
1
10
45.7885791944549
20
9.40986641241709
30
0
41
1
10
45.7983961086896
20
9.41810362922543
30
0
41
1
10
45.803644265393
20
9.42169944462502
30
0
41
1
10
45.8149888068884
20
9.42756583520155
30
0
41
1
10
45.8209418385106
20
9.42974302127615
30
0
41
1
10
45.8331568795722
20
9.4323545143786
30
0
41
1
10
45.8395086739128
20
9.43278327507099
30
0
41
1
10
45.8518988716392
20
9.43189376502878
30
0
41
1
10
45.8580605639941
20
9.43059204164959
30
0
41
1
10
45.8640565953107
20
9.42855202111751
30
0
0
SPLINE
5
217
100
AcDbEntity
8
1
62
256
6
ByLayer
370
18
48
1
60
0
100
AcDbSpline
70
4
71
3
72
34
73
30
40
0
40
0
40
0
40
0
40
0.0312500000000742
40
0.0312500000000742
40
0.0625000000001482
40
0.0625000000001482
40
0.125000000000296
40
0.125000000000296
40
0.250000000000451
40
0.250000000000451
40
0.312500000000453
40
0.312500000000453
40
0.375000000000454
40
0.375000000000454
40
0.437500000000456
40
0.437500000000456
40
0.500000000000458
40
0.500000000000458
40
0.625000000000303
40
0.625000000000303
40
0.687500000000224
40
0.687500000000224
40
0.750000000000146
40
0.750000000000146
40
0.875000000000128
40
0.875000000000128
40
0.937500000000064
40
0.937500000000064
40
1
40
1
40
1
40
1
41
1
10
46.4783793343614
20
10.1096987451738
30
0
41
1
10
46.4816206266965
20
10.1057709633484
30
0
41
1
10
46.4851685120552
20
10.1020543121664
30
0
41
1
10
46.4926604532599
20
10.0950861297033
30
0
41
1
10
46.4966023781701
20
10.0918319082979
30
0
41
1
10
46.5089180313779
20
10.082637937703
30
0
41
1
10
46.5177757678459
20
10.0772599867761
30
0
41
1
10
46.5458897704984
20
10.062865178743
30
0
41
1
10
46.566161180149
20
10.0558242831261
30
0
41
1
10
46.5974324639751
20
10.0481148784126
30
0
41
1
10
46.6080521220307
20
10.0460220109421
30
0
41
1
10
46.629439815166
20
10.0427329179878
30
0
41
1
10
46.6402010856329
20
10.0415351393103
30
0
41
1
10
46.6618513087594
20
10.0399689441571
30
0
41
1
10
46.6727434981962
20
10.0396034948957
30
0
41
1
10
46.6944396620212
20
10.0396796038573
30
0
41
1
10
46.7052707123332
20
10.040118673904
30
0
41
1
10
46.7377125563569
20
10.0426329468933
30
0
41
1
10
46.7590798636662
20
10.0458850883488
30
0
41
1
10
46.7902227235356
20
10.0531677591315
30
0
41
1
10
46.8004760384861
20
10.0560054555185
30
0
41
1
10
46.8205123482197
20
10.0625073430169
30
0
41
1
10
46.8302968359365
20
10.0661681333929
30
0
41
1
10
46.8588908415342
20
10.0785309767088
30
0
41
1
10
46.87693976685
20
10.0885838907329
30
0
41
1
10
46.9007317012769
20
10.1069493365461
30
0
41
1
10
46.9081603895576
20
10.1136762382889
30
0
41
1
10
46.9212328421105
20
10.1282634491012
30
0
41
1
10
46.9269247070244
20
10.1361271790606
30
0
41
1
10
46.9314034912023
20
10.144831652566
30
0
0
SPLINE
5
218
100
AcDbEntity
8
1
62
256
6
ByLayer
370
18
48
1
60
0
100
AcDbSpline
70
4
71
3
72
8
73
4
40
0
40
0
40
0
40
0
40
1
40
1
40
1
40
1
41
1
10
46.9314034912023
20
10.144831652566
30
0
41
1
10
46.9345205405748
20
10.1508896077162
30
0
41
1
10
46.9376361240555
20
10.1569460457335
30
0
41
1
10
46.9407503294212
20
10.1630010546752
30
0
0
SPLINE
5
219
100
AcDbEntity
8
1
62
256
6
ByLayer
370
18
48
1
60
0
100
AcDbSpline
70
4
71
3
72
28
73
24
40
0
40
0
40
0
40
0
40
0.249999999999831
40
0.249999999999831
40
0.374999999999859
40
0.374999999999859
40
0.499999999999887
40
0.499999999999887
40
0.562499999999902
40
0.562499999999902
40
0.624999999999916
40
0.624999999999916
40
0.68749999999993
40
0.68749999999993
40
0.749999999999944
40
0.749999999999944
40
0.812499999999958
40
0.812499999999958
40
0.874999999999972
40
0.874999999999972
40
0.937499999999986
40
0.937499999999986
40
1
40
1
40
1
40
1
41
1
10
46.1822277032188
20
10.1177656134279
30
0
41
1
10
46.20491812948
20
10.1332435168564
30
0
41
1
10
46.2289477040619
20
10.146755319394
30
0
41
1
10
46.2666841204338
20
10.1633139027531
30
0
41
1
10
46.2795270351558
20
10.1681976260298
30
0
41
1
10
46.3057167410411
20
10.1764006931127
30
0
41
1
10
46.3190533876427
20
10.1797193551655
30
0
41
1
10
46.3392924522196
20
10.1831075047762
30
0
41
1
10
46.3460628933036
20
10.183968015315
30
0
41
1
10
46.3596592203796
20
10.1850512481268
30
0
41
1
10
46.366510149553
20
10.1852721245291
30
0
41
1
10
46.3800462807155
20
10.1849302920699
30
0
41
1
10
46.3867512105632
20
10.1843727111413
30
0
41
1
10
46.4000008016698
20
10.1823034404559
30
0
41
1
10
46.4066036606382
20
10.1807738100793
30
0
41
1
10
46.4192895045411
20
10.1765534792604
30
0
41
1
10
46.4253403582593
20
10.173885273904
30
0
41
1
10
46.436716920791
20
10.1671815240433
30
0
41
1
10
46.4418777015121
20
10.1632300118958
30
0
41
1
10
46.4509092905241
20
10.1541733124272
30
0
41
1
10
46.4548214970708
20
10.1489805679515
30
0
41
1
10
46.4609507888542
20
10.1380273999642
30
0
41
1
10
46.463246221579
20
10.1322127479768
30
0
41
1
10
46.4648493658705
20
10.126094006281
30
0
0
SPLINE
5
21A
100
AcDbEntity
8
1
62
256
6
ByLayer
370
18
48
1
60
0
100
AcDbSpline
70
4
71
3
72
8
73
4
40
0
40
0
40
0
40
0
40
1
40
1
40
1
40
1
41
1
10
46.4648493658705
20
10.126094006281
30
0
41
1
10
46.4693583815085
20
10.120630193004
30
0
41
1
10
46.4738683515649
20
10.115165131544
30
0
41
1
10
46.4783793343613
20
10.1096987451738
30
0
0
SPLINE
5
21B
100
AcDbEntity
8
1
62
256
6
ByLayer
370
18
48
1
60
0
100
AcDbSpline
70
4
71
3
72
26
73
22
40
0
40
0
40
0
40
0
40
0.249999999999817
40
0.249999999999817
40
0.374999999999727
40
0.374999999999727
40
0.499999999999638
40
0.499999999999638
40
0.624999999999548
40
0.624999999999548
40
0.687499999999624
40
0.687499999999624
40
0.749999999999699
40
0.749999999999699
40
0.812499999999774
40
0.812499999999774
40
0.874999999999849
40
0.874999999999849
40
0.937499999999925
40
0.937499999999925
40
1
40
1
40
1
40
1
41
1
10
47.2108272901195
20
10.1975355185971
30
0
41
1
10
47.1862309915638
20
10.2093443847543
30
0
41
1
10
47.1606846430564
20
10.2190142327521
30
0
41
1
10
47.1214598906333
20
10.2295966594408
30
0
41
1
10
47.1082285614353
20
10.2324620482443
30
0
41
1
10
47.0816230616047
20
10.236567819198
30
0
41
1
10
47.0682201049086
20
10.2378155275848
30
0
41
1
10
47.0415538200247
20
10.2381744752117
30
0
41
1
10
47.0282536473753
20
10.2372944079158
30
0
41
1
10
47.0088800610032
20
10.2336912798411
30
0
41
1
10
47.0025407198048
20
10.2321093694196
30
0
41
1
10
46.9902522872897
20
10.2280232058192
30
0
41
1
10
46.9843072010909
20
10.2255127295168
30
0
41
1
10
46.9732394627635
20
10.2195038219126
30
0
41
1
10
46.9680735429666
20
10.2159958452321
30
0
41
1
10
46.9586802027724
20
10.207716228748
30
0
41
1
10
46.9545894164862
20
10.2030421885896
30
0
41
1
10
46.9479230400773
20
10.192774031357
30
0
41
1
10
46.9453214967575
20
10.187095419095
30
0
41
1
10
46.9418538662433
20
10.1753887506941
30
0
41
1
10
46.9409296262375
20
10.1692534743654
30
0
41
1
10
46.9407503294212
20
10.1630010546752
30
0
0
SPLINE
5
21C
100
AcDbEntity
8
1
62
256
6
ByLayer
370
18
48
1
60
0
100
AcDbSpline
70
4
71
3
72
32
73
28
40
0
40
0
40
0
40
0
40
0.0625000000000171
40
0.0625000000000171
40
0.125000000000034
40
0.125000000000034
40
0.250000000000073
40
0.250000000000073
40
0.312500000000092
40
0.312500000000092
40
0.375000000000111
40
0.375000000000111
40
0.43750000000013
40
0.43750000000013
40
0.50000000000015
40
0.50000000000015
40
0.625000000000108
40
0.625000000000108
40
0.750000000000066
40
0.750000000000066
40
0.812500000000049
40
0.812500000000049
40
0.875000000000033
40
0.875000000000033
40
0.937500000000016
40
0.937500000000016
40
1
40
1
40
1
40
1
41
1
10
45.9179567033602
20
8.95638877121117
30
0
41
1
10
45.9279903281882
20
8.9558454107255
30
0
41
1
10
45.9379107400118
20
8.95389400972859
30
0
41
1
10
45.9576148161111
20
8.94802107721165
30
0
41
1
10
45.9673276883531
20
8.94409845878464
30
0
41
1
10
45.9957605726243
20
8.93023846273182
30
0
41
1
10
46.0136847383981
20
8.91831857308436
30
0
41
1
10
46.0389343474916
20
8.89812958290943
30
0
41
1
10
46.047107899986
20
8.89097330709809
30
0
41
1
10
46.0628608624177
20
8.87603842094123
30
0
41
1
10
46.0704386505898
20
8.86826475906652
30
0
41
1
10
46.0850424818121
20
8.85214975299594
30
0
41
1
10
46.092067106775
20
8.84380553761689
30
0
41
1
10
46.1054484700054
20
8.82673362776657
30
0
41
1
10
46.1118247714379
20
8.81798469149146
30
0
41
1
10
46.1300069650646
20
8.79111456149629
30
0
41
1
10
46.1407787907892
20
8.77248607256534
30
0
41
1
10
46.1589545058169
20
8.73480364037245
30
0
41
1
10
46.1664517082298
20
8.71565832297489
30
0
41
1
10
46.1747827634872
20
8.68628773253334
30
0
41
1
10
46.1770506889522
20
8.67641262574055
30
0
41
1
10
46.1803180876113
20
8.65687460980035
30
0
41
1
10
46.1813380295576
20
8.64715668315247
30
0
41
1
10
46.1818579806702
20
8.62781111496641
30
0
41
1
10
46.1813441282374
20
8.61809695774359
30
0
41
1
10
46.1783064324313
20
8.59941399016007
30
0
41
1
10
46.1758142656778
20
8.59039796539437
30
0
41
1
10
46.1719031978639
20
8.58183398780331
30
0
0
SPLINE
5
21D
100
AcDbEntity
8
1
62
256
6
ByLayer
370
18
48
1
60
0
100
AcDbSpline
70
4
71
3
72
8
73
4
40
0
40
0
40
0
40
0
40
1
40
1
40
1
40
1
41
1
10
45.8970116350256
20
8.95752428345237
30
0
41
1
10
45.9039915787784
20
8.95714546475278
30
0
41
1
10
45.9109732329976
20
8.95676695376362
30
0
41
1
10
45.9179567033602
20
8.95638877121117
30
0
0
SPLINE
5
21E
100
AcDbEntity
8
1
62
256
6
ByLayer
370
18
48
1
60
0
100
AcDbSpline
70
4
71
3
72
28
73
24
40
0
40
0
40
0
40
0
40
0.249999999999986
40
0.249999999999986
40
0.374999999999979
40
0.374999999999979
40
0.499999999999972
40
0.499999999999972
40
0.562499999999976
40
0.562499999999976
40
0.624999999999979
40
0.624999999999979
40
0.687499999999983
40
0.687499999999983
40
0.749999999999986
40
0.749999999999986
40
0.81249999999999
40
0.81249999999999
40
0.874999999999993
40
0.874999999999993
40
0.937499999999997
40
0.937499999999997
40
1
40
1
40
1
40
1
41
1
10
45.7302182504138
20
9.18756226080068
30
0
41
1
10
45.7321274571568
20
9.16027389032139
30
0
41
1
10
45.7363936934634
20
9.1331141462602
30
0
41
1
10
45.7467207858062
20
9.09326628734958
30
0
41
1
10
45.7508203894801
20
9.08015689743024
30
0
41
1
10
45.7605445385157
20
9.05447501788312
30
0
41
1
10
45.7661634216977
20
9.04191107092619
30
0
41
1
10
45.7759677578767
20
9.02382529055743
30
0
41
1
10
45.7794590428874
20
9.01793753077959
30
0
41
1
10
45.7869693155192
20
9.0064960957705
30
0
41
1
10
45.7910051113577
20
9.00092362769755
30
0
41
1
10
45.7995806595816
20
8.99037326784625
30
0
41
1
10
45.8041285638964
20
8.98537668156064
30
0
41
1
10
45.8138625492273
20
8.97607254386351
30
0
41
1
10
45.8190982226393
20
8.97172934270803
30
0
41
1
10
45.8301455683899
20
8.96413709905606
30
0
41
1
10
45.8359201500053
20
8.96090034533285
30
0
41
1
10
45.8480770734155
20
8.9558025227397
30
0
41
1
10
45.8542932904673
20
8.95402302360465
30
0
41
1
10
45.866820738237
20
8.95216055318697
30
0
41
1
10
45.8732248294842
20
8.95209593045411
30
0
41
1
10
45.8854271434584
20
8.95364061083579
30
0
41
1
10
45.8913153082388
20
8.95521954626641
30
0
41
1
10
45.8970116350256
20
8.95752428345237
30
0
0
SPLINE
5
21F
100
AcDbEntity
8
1
62
256
6
ByLayer
370
18
48
1
60
0
100
AcDbSpline
70
4
71
3
72
8
73
4
40
0
40
0
40
0
40
0
40
1
40
1
40
1
40
1
41
1
10
46.1637819155937
20
8.56405523851382
30
0
41
1
10
46.1664885988117
20
8.56997920488386
30
0
41
1
10
46.169195684975
20
8.57590540747417
30
0
41
1
10
46.1719031978639
20
8.58183398780331
30
0
0
SPLINE
5
220
100
AcDbEntity
8
1
62
256
6
ByLayer
370
18
48
1
60
0
100
AcDbSpline
70
4
71
3
72
28
73
24
40
0
40
0
40
0
40
0
40
0.249999999999831
40
0.249999999999831
40
0.374999999999851
40
0.374999999999851
40
0.499999999999872
40
0.499999999999872
40
0.562499999999888
40
0.562499999999888
40
0.624999999999904
40
0.624999999999904
40
0.68749999999992
40
0.68749999999992
40
0.749999999999936
40
0.749999999999936
40
0.812499999999952
40
0.812499999999952
40
0.874999999999968
40
0.874999999999968
40
0.937499999999984
40
0.937499999999984
40
1
40
1
40
1
40
1
41
1
10
46.3068083845098
20
8.33712881333928
30
0
41
1
10
46.2822087515056
20
8.34893928039004
30
0
41
1
10
46.2586895204864
20
8.36276131761477
30
0
41
1
10
46.2258608810438
20
8.38656539374391
30
0
41
1
10
46.2153506731987
20
8.39500453828965
30
0
41
1
10
46.1954690842429
20
8.41298922245197
30
0
41
1
10
46.1861031326547
20
8.42252694519019
30
0
41
1
10
46.1733501802214
20
8.43771171800201
30
0
41
1
10
46.1693258620656
20
8.44290899061144
30
0
41
1
10
46.1618167096397
20
8.4536202437521
30
0
41
1
10
46.1583214510557
20
8.45915559767725
30
0
41
1
10
46.1521075744057
20
8.47041869046379
30
0
41
1
10
46.149374892528
20
8.47616050160987
30
0
41
1
10
46.1448366553985
20
8.48790697618011
30
0
41
1
10
46.1430190466043
20
8.4939669136631
30
0
41
1
10
46.1406702683659
20
8.50613309325297
30
0
41
1
10
46.1401345240384
20
8.51220366535587
30
0
41
1
10
46.1406343051729
20
8.52429937956968
30
0
41
1
10
46.1416743613926
20
8.53015438550301
30
0
41
1
10
46.1454089068453
20
8.54126088175403
30
0
41
1
10
46.14816169931
20
8.54658169041817
30
0
41
1
10
46.1549943440647
20
8.55604628832177
30
0
41
1
10
46.1590848244987
20
8.56027669280415
30
0
41
1
10
46.1637819155937
20
8.56405523851382
30
0
0
SPLINE
5
221
100
AcDbEntity
8
1
62
256
6
ByLayer
370
18
48
1
60
0
100
AcDbSpline
70
4
71
3
72
34
73
30
40
0
40
0
40
0
40
0
40
0.0312500000000233
40
0.0312500000000233
40
0.0625000000000465
40
0.0625000000000465
40
0.125000000000073
40
0.125000000000073
40
0.250000000000113
40
0.250000000000113
40
0.312500000000133
40
0.312500000000133
40
0.375000000000153
40
0.375000000000153
40
0.437500000000173
40
0.437500000000173
40
0.500000000000193
40
0.500000000000193
40
0.625000000000313
40
0.625000000000313
40
0.687500000000322
40
0.687500000000322
40
0.75000000000033
40
0.75000000000033
40
0.875000000000229
40
0.875000000000229
40
0.937500000000115
40
0.937500000000115
40
1
40
1
40
1
40
1
41
1
10
47.3591432400301
20
9.93947061287147
30
0
41
1
10
47.3576516766487
20
9.93475858095022
30
0
41
1
10
47.3564874392347
20
9.92988611837691
30
0
41
1
10
47.35473558564
20
9.92002778803881
30
0
41
1
10
47.3541447123536
20
9.91504243691908
30
0
41
1
10
47.3530783208334
20
9.89994256072278
30
0
41
1
10
47.3533004817746
20
9.88968589092279
30
0
41
1
10
47.3561350799359
20
9.85843559323402
30
0
41
1
10
47.3608358461761
20
9.83752994770317
30
0
41
1
10
47.3705498790048
20
9.80680401795226
30
0
41
1
10
47.3742595608786
20
9.79662359649302
30
0
41
1
10
47.3824483073309
20
9.77656651407884
30
0
41
1
10
47.3869227821299
20
9.76669495036553
30
0
41
1
10
47.3965735856397
20
9.74723968185525
30
0
41
1
10
47.4017538264885
20
9.7376546073351
30
0
41
1
10
47.4126876055361
20
9.7189472442064
30
0
41
1
10
47.4184528150935
20
9.70980037302201
30
0
41
1
10
47.4366370983384
20
9.68297706422449
30
0
41
1
10
47.4498320056071
20
9.66607402180765
30
0
41
1
10
47.4710172521493
20
9.64265802386063
30
0
41
1
10
47.4783305001986
20
9.63515987674214
30
0
41
1
10
47.4933625581382
20
9.62096824422329
30
0
41
1
10
47.5010794633471
20
9.61427182611257
30
0
41
1
10
47.524931717575
20
9.5955070470233
30
0
41
1
10
47.5417431035975
20
9.58474933532688
30
0
41
1
10
47.5679621507194
20
9.5730580026612
30
0
41
1
10
47.5769366861388
20
9.56989081053048
30
0
41
1
10
47.5949241021046
20
9.56565938736701
30
0
41
1
10
47.6039630432747
20
9.56455505697535
30
0
41
1
10
47.6130897345337
20
9.56491582946363
30
0
0
SPLINE
5
222
100
AcDbEntity
8
1
62
256
6
ByLayer
370
18
48
1
60
0
100
AcDbSpline
70
4
71
3
72
8
73
4
40
0
40
0
40
0
40
0
40
1
40
1
40
1
40
1
41
1
10
47.6130897345337
20
9.56491582946363
30
0
41
1
10
47.6194415358556
20
9.56516691226055
30
0
41
1
10
47.6257908201943
20
9.56541836479362
30
0
41
1
10
47.6321377372813
20
9.56567016390223
30
0
0
SPLINE
5
223
100
AcDbEntity
8
1
62
256
6
ByLayer
370
18
48
1
60
0
100
AcDbSpline
70
4
71
3
72
28
73
24
40
0
40
0
40
0
40
0
40
0.25000000000016
40
0.25000000000016
40
0.375000000000133
40
0.375000000000133
40
0.500000000000106
40
0.500000000000106
40
0.562500000000093
40
0.562500000000093
40
0.62500000000008
40
0.62500000000008
40
0.687500000000067
40
0.687500000000067
40
0.750000000000053
40
0.750000000000053
40
0.81250000000004
40
0.81250000000004
40
0.875000000000027
40
0.875000000000027
40
0.937500000000013
40
0.937500000000013
40
1
40
1
40
1
40
1
41
1
10
47.2108272901195
20
10.1975355185971
30
0
41
1
10
47.2354269231239
20
10.1857250515464
30
0
41
1
10
47.25906805589
20
10.1717815764475
30
0
41
1
10
47.2923106311302
20
10.1475651396714
30
0
41
1
10
47.3029980131918
20
10.1389494951106
30
0
41
1
10
47.3233374766462
20
10.1205086788005
30
0
41
1
10
47.3329836015063
20
10.1106918489342
30
0
41
1
10
47.3462666392282
20
10.0949790079682
30
0
41
1
10
47.3504857269709
20
10.089587706929
30
0
41
1
10
47.3584303996553
20
10.078442590816
30
0
41
1
10
47.3621674659883
20
10.0726663492933
30
0
41
1
10
47.3689165434696
20
10.0608700922762
30
0
41
1
10
47.3719429696889
20
10.0548356545744
30
0
41
1
10
47.3771377278394
20
10.0424351572439
30
0
41
1
10
47.3793216776933
20
10.0360102727397
30
0
41
1
10
47.3824805773362
20
10.0230370545018
30
0
41
1
10
47.3834570988526
20
10.0165273825001
30
0
41
1
10
47.3839319020555
20
10.0034607925367
30
0
41
1
10
47.3834127459428
20
9.99708686867845
30
0
41
1
10
47.3807797888993
20
9.98488297589469
30
0
41
1
10
47.3786168885334
20
9.97897451984933
30
0
41
1
10
47.3729610741079
20
9.96833756981115
30
0
41
1
10
47.3694648932514
20
9.96351512724061
30
0
41
1
10
47.3653674567132
20
9.95913920884078
30
0
0
SPLINE
5
224
100
AcDbEntity
8
1
62
256
6
ByLayer
370
18
48
1
60
0
100
AcDbSpline
70
4
71
3
72
8
73
4
40
0
40
0
40
0
40
0
40
1
40
1
40
1
40
1
41
1
10
47.3653674567132
20
9.9591392088408
30
0
41
1
10
47.363293800161
20
9.95258462466253
30
0
41
1
10
47.3612190838781
20
9.94602845855
30
0
41
1
10
47.3591432400301
20
9.93947061287149
30
0
0
SPLINE
5
225
100
AcDbEntity
8
1
62
256
6
ByLayer
370
18
48
1
60
0
100
AcDbSpline
70
4
71
3
72
26
73
22
40
0
40
0
40
0
40
0
40
0.250000000000114
40
0.250000000000114
40
0.375000000000164
40
0.375000000000164
40
0.500000000000213
40
0.500000000000213
40
0.625000000000263
40
0.625000000000263
40
0.687500000000219
40
0.687500000000219
40
0.750000000000175
40
0.750000000000175
40
0.812500000000131
40
0.812500000000131
40
0.875000000000088
40
0.875000000000088
40
0.937500000000044
40
0.937500000000044
40
1
40
1
40
1
40
1
41
1
10
47.7874174242154
20
9.3471020711374
30
0
41
1
10
47.7855084762629
20
9.37438674271317
30
0
41
1
10
47.7813618644839
20
9.40143344385335
30
0
41
1
10
47.771456334265
20
9.44084360287441
30
0
41
1
10
47.7675309365611
20
9.45378775753093
30
0
41
1
10
47.7582727741534
20
9.47899580290458
30
0
41
1
10
47.7529322219749
20
9.49128835538615
30
0
41
1
10
47.7405697728558
20
9.51469754170788
30
0
41
1
10
47.7335372099818
20
9.52585048546963
30
0
41
1
10
47.721410651729
20
9.54095530286786
30
0
41
1
10
47.717115955147
20
9.54569980180732
30
0
41
1
10
47.7079674904903
20
9.55439644942432
30
0
41
1
10
47.70311061355
20
9.55834205997495
30
0
41
1
10
47.6929943140995
20
9.56503341716446
30
0
41
1
10
47.6877065600157
20
9.56781215212281
30
0
41
1
10
47.6765661054393
20
9.5719347873769
30
0
41
1
10
47.6708571922233
20
9.57320756687228
30
0
41
1
10
47.6594295965995
20
9.57398552736372
30
0
41
1
10
47.6536308063577
20
9.57347198651117
30
0
41
1
10
47.642588267384
20
9.57076522201133
30
0
41
1
10
47.6372306919191
20
9.56857015693409
30
0
41
1
10
47.6321377372813
20
9.56567016390223
30
0
0
SPLINE
5
226
100
AcDbEntity
8
1
62
256
6
ByLayer
370
18
48
1
60
0
100
AcDbSpline
70
4
71
3
72
34
73
30
40
0
40
0
40
0
40
0
40
0.031250000000016
40
0.031250000000016
40
0.0625000000000321
40
0.0625000000000321
40
0.125000000000064
40
0.125000000000064
40
0.25000000000001
40
0.25000000000001
40
0.312499999999983
40
0.312499999999983
40
0.374999999999956
40
0.374999999999956
40
0.437499999999929
40
0.437499999999929
40
0.499999999999902
40
0.499999999999902
40
0.624999999999926
40
0.624999999999926
40
0.687499999999939
40
0.687499999999939
40
0.749999999999951
40
0.749999999999951
40
0.874999999999975
40
0.874999999999975
40
0.937499999999988
40
0.937499999999988
40
1
40
1
40
1
40
1
41
1
10
47.6462871246158
20
9.09042416803506
30
0
41
1
10
47.641781206588
20
9.08941384381681
30
0
41
1
10
47.6372910625675
20
9.08803689836964
30
0
41
1
10
47.6284754120874
20
9.08472023539359
30
0
41
1
10
47.624148870018
20
9.08278363441893
30
0
41
1
10
47.6113651610459
20
9.0762816699099
30
0
41
1
10
47.6031014653213
20
9.07103248634938
30
0
41
1
10
47.5788660131793
20
9.05313701689838
30
0
41
1
10
47.5638770538196
20
9.03869279641735
30
0
41
1
10
47.543021920457
20
9.01497682551464
30
0
41
1
10
47.5363182175046
20
9.00668378322855
30
0
41
1
10
47.5234731458679
20
8.98956326532355
30
0
41
1
10
47.5173340199055
20
8.98074237251008
30
0
41
1
10
47.5055719605706
20
8.96261684209868
30
0
41
1
10
47.4999495166588
20
8.9533080527561
30
0
41
1
10
47.4893062094179
20
8.9344059562552
30
0
41
1
10
47.4842702825786
20
8.9247902149402
30
0
41
1
10
47.4700128450431
20
8.89545251037917
30
0
41
1
10
47.4617206180107
20
8.87541669752083
30
0
41
1
10
47.4514069866485
20
8.84507269206986
30
0
41
1
10
47.4483185131234
20
8.83488469045641
30
0
41
1
10
47.4429603770366
20
8.8145437080954
30
0
41
1
10
47.4406875387441
20
8.80439097433295
30
0
41
1
10
47.4352429179858
20
8.77396354668613
30
0
41
1
10
47.4334211759895
20
8.75373490060092
30
0
41
1
10
47.4348078181451
20
8.72471463335692
30
0
41
1
10
47.4359765323907
20
8.71519623727195
30
0
41
1
10
47.4400915586977
20
8.69717449639995
30
0
41
1
10
47.4430153672752
20
8.68862809306613
30
0
41
1
10
47.4472094622784
20
8.68073647723504
30
0
0
SPLINE
5
227
100
AcDbEntity
8
1
62
256
6
ByLayer
370
18
48
1
60
0
100
AcDbSpline
70
4
71
3
72
8
73
4
40
0
40
0
40
0
40
0
40
1
40
1
40
1
40
1
41
1
10
47.4472094622784
20
8.68073647723504
30
0
41
1
10
47.4501283797075
20
8.67524423755646
30
0
41
1
10
47.4530458956252
20
8.66975423383336
30
0
41
1
10
47.4559620940135
20
8.66426633290436
30
0
0
SPLINE
5
228
100
AcDbEntity
8
1
62
256
6
ByLayer
370
18
48
1
60
0
100
AcDbSpline
70
4
71
3
72
28
73
24
40
0
40
0
40
0
40
0
40
0.249999999999898
40
0.249999999999898
40
0.37499999999986
40
0.37499999999986
40
0.499999999999823
40
0.499999999999823
40
0.562499999999845
40
0.562499999999845
40
0.624999999999867
40
0.624999999999867
40
0.687499999999889
40
0.687499999999889
40
0.749999999999911
40
0.749999999999911
40
0.812499999999934
40
0.812499999999934
40
0.874999999999956
40
0.874999999999956
40
0.937499999999978
40
0.937499999999978
40
1
40
1
40
1
40
1
41
1
10
47.7874174242154
20
9.3471020711374
30
0
41
1
10
47.7893266309585
20
9.31981370065813
30
0
41
1
10
47.7889991400164
20
9.29229770408462
30
0
41
1
10
47.7847122667836
20
9.251316503626
30
0
41
1
10
47.7826453212315
20
9.23772888578081
30
0
41
1
10
47.7770240160494
20
9.21085693631409
30
0
41
1
10
47.773473580944
20
9.19758189083092
30
0
41
1
10
47.7667825967334
20
9.1782168661771
30
0
41
1
10
47.7643286281855
20
9.1718680403843
30
0
41
1
10
47.7588947339231
20
9.15942275997337
30
0
41
1
10
47.7559017749573
20
9.15330519824946
30
0
41
1
10
47.7493823216917
20
9.14158419157634
30
0
41
1
10
47.7458506902342
20
9.1359610215252
30
0
41
1
10
47.7381241177885
20
9.12530278350006
30
0
41
1
10
47.7338883792037
20
9.12022505586178
30
0
41
1
10
47.7247664956461
20
9.11106864911881
30
0
41
1
10
47.7199125520388
20
9.10700763252414
30
0
41
1
10
47.7094980848787
20
9.10015935454655
30
0
41
1
10
47.7040785980984
20
9.09747748387346
30
0
41
1
10
47.6929648462474
20
9.09378159229188
30
0
41
1
10
47.6871846853844
20
9.09277205703155
30
0
41
1
10
47.6759879943401
20
9.09250209891336
30
0
41
1
10
47.6704935305475
20
9.09319828928615
30
0
41
1
10
47.6650927769961
20
9.09464242623709
30
0
0
SPLINE
5
229
100
AcDbEntity
8
1
62
256
6
ByLayer
370
18
48
1
60
0
100
AcDbSpline
70
4
71
3
72
8
73
4
40
0
40
0
40
0
40
0
40
1
40
1
40
1
40
1
41
1
10
47.6650927769961
20
9.09464242623709
30
0
41
1
10
47.6588266181389
20
9.09323634643171
30
0
41
1
10
47.6525581167399
20
9.09183026001806
30
0
41
1
10
47.6462871246158
20
9.09042416803506
30
0
0
SPLINE
5
22A
100
AcDbEntity
8
1
62
256
6
ByLayer
370
18
48
1
60
0
100
AcDbSpline
70
4
71
3
72
34
73
30
40
0
40
0
40
0
40
0
40
0.031249999999891
40
0.031249999999891
40
0.0624999999997822
40
0.0624999999997822
40
0.124999999999675
40
0.124999999999675
40
0.249999999999458
40
0.249999999999458
40
0.312499999999423
40
0.312499999999423
40
0.374999999999387
40
0.374999999999387
40
0.437499999999352
40
0.437499999999352
40
0.499999999999316
40
0.499999999999316
40
0.624999999999405
40
0.624999999999405
40
0.687499999999527
40
0.687499999999527
40
0.749999999999649
40
0.749999999999649
40
0.874999999999891
40
0.874999999999891
40
0.937499999999945
40
0.937499999999945
40
1
40
1
40
1
40
1
41
1
10
47.0526671035327
20
8.41160585550098
30
0
41
1
10
47.0498796865751
20
8.41508148908159
30
0
41
1
10
47.0467757587206
20
8.41835587215181
30
0
41
1
10
47.0401401061547
20
8.42447102441288
30
0
41
1
10
47.0366106934989
20
8.42731430329762
30
0
41
1
10
47.0254917118027
20
8.43531615607731
30
0
41
1
10
47.0173777349394
20
8.43995317762926
30
0
41
1
10
46.9913516369853
20
8.45226802607178
30
0
41
1
10
46.9722435954357
20
8.4581499805545
30
0
41
1
10
46.9423765468795
20
8.46446049353737
30
0
41
1
10
46.9321694352823
20
8.4661423844132
30
0
41
1
10
46.9114894922399
20
8.46872642047728
30
0
41
1
10
46.901023561184
20
8.46962998359946
30
0
41
1
10
46.8798480586213
20
8.47072326464401
30
0
41
1
10
46.8691348785367
20
8.4709103857377
30
0
41
1
10
46.8476768697849
20
8.47059702795494
30
0
41
1
10
46.8369056473036
20
8.4700983577404
30
0
41
1
10
46.8044640497662
20
8.46758383920275
30
0
41
1
10
46.7828570884733
20
8.46457043977517
30
0
41
1
10
46.751002192534
20
8.45799709555003
30
0
41
1
10
46.7404520643356
20
8.45545508294704
30
0
41
1
10
46.7197079860165
20
8.44965827076111
30
0
41
1
10
46.7095129867305
20
8.44640642983363
30
0
41
1
10
46.6795132423557
20
8.43544397603443
30
0
41
1
10
46.6602959116339
20
8.42655502128099
30
0
41
1
10
46.6344230361283
20
8.41026259793755
30
0
41
1
10
46.6262400820613
20
8.40428709177188
30
0
41
1
10
46.6115677552966
20
8.39129366716709
30
0
41
1
10
46.6050293550255
20
8.38427325124219
30
0
41
1
10
46.5996429466916
20
8.37647294810883
30
0
0
SPLINE
5
22B
100
AcDbEntity
8
1
62
256
6
ByLayer
370
18
48
1
60
0
100
AcDbSpline
70
4
71
3
72
8
73
4
40
0
40
0
40
0
40
0
40
1
40
1
40
1
40
1
41
1
10
46.5996429466917
20
8.37647294810883
30
0
41
1
10
46.5958942282785
20
8.37104425830799
30
0
41
1
10
46.5921462749172
20
8.36561778381295
30
0
41
1
10
46.5883990428857
20
8.36019339267943
30
0
0
SPLINE
5
22C
100
AcDbEntity
8
1
62
256
6
ByLayer
370
18
48
1
60
0
100
AcDbSpline
70
4
71
3
72
26
73
22
40
0
40
0
40
0
40
0
40
0.249999999999816
40
0.249999999999816
40
0.374999999999724
40
0.374999999999724
40
0.499999999999632
40
0.499999999999632
40
0.62499999999954
40
0.62499999999954
40
0.687499999999617
40
0.687499999999617
40
0.749999999999694
40
0.749999999999694
40
0.81249999999977
40
0.81249999999977
40
0.874999999999847
40
0.874999999999847
40
0.937499999999923
40
0.937499999999923
40
1
40
1
40
1
40
1
41
1
10
46.3068083845098
20
8.33712881333928
30
0
41
1
10
46.3314046830655
20
8.32531994718211
30
0
41
1
10
46.3570730347224
20
8.3155285602938
30
0
41
1
10
46.396711378822
20
8.3045341157696
30
0
41
1
10
46.4101200110158
20
8.30149209866184
30
0
41
1
10
46.4371829515367
20
8.29693062771769
30
0
41
1
10
46.4508661492758
20
8.29540374468968
30
0
41
1
10
46.4782389720994
20
8.29434094771328
30
0
41
1
10
46.4919654186148
20
8.29479636324385
30
0
41
1
10
46.5121462599915
20
8.29759530816294
30
0
41
1
10
46.5187822219671
20
8.29888172653899
30
0
41
1
10
46.531732765842
20
8.30230829831311
30
0
41
1
10
46.5380437872293
20
8.30445423192094
30
0
41
1
10
46.5499124258951
20
8.3096652868543
30
0
41
1
10
46.5555151848635
20
8.31273808666819
30
0
41
1
10
46.565879134791
20
8.32005078688211
30
0
41
1
10
46.5704917861696
20
8.3242049478024
30
0
41
1
10
46.5782595097065
20
8.33337594886534
30
0
41
1
10
46.5814491120229
20
8.33846873987277
30
0
41
1
10
46.5860949066618
20
8.34900172741918
30
0
41
1
10
46.5876205289101
20
8.35453790994637
30
0
41
1
10
46.5883990428857
20
8.36019339267943
30
0
0
SPLINE
5
22D
100
AcDbEntity
8
1
62
256
6
ByLayer
370
18
48
1
60
0
100
AcDbSpline
70
4
71
3
72
8
73
4
40
0
40
0
40
0
40
0
40
1
40
1
40
1
40
1
41
1
10
47.0643000064364
20
8.3971004410736
30
0
41
1
10
47.0604240174641
20
8.40193363654237
30
0
41
1
10
47.0565464172883
20
8.40676873448014
30
0
41
1
10
47.0526671035327
20
8.41160585550097
30
0
0
SPLINE
5
22E
100
AcDbEntity
8
1
62
256
6
ByLayer
370
18
48
1
60
0
100
AcDbSpline
70
4
71
3
72
28
73
24
40
0
40
0
40
0
40
0
40
0.249999999999582
40
0.249999999999582
40
0.37499999999949
40
0.37499999999949
40
0.499999999999398
40
0.499999999999398
40
0.562499999999474
40
0.562499999999474
40
0.624999999999549
40
0.624999999999549
40
0.687499999999624
40
0.687499999999624
40
0.749999999999699
40
0.749999999999699
40
0.812499999999774
40
0.812499999999774
40
0.87499999999985
40
0.87499999999985
40
0.937499999999925
40
0.937499999999925
40
1
40
1
40
1
40
1
41
1
10
47.3354079714106
20
8.41689871850848
30
0
41
1
10
47.3127175451493
20
8.40142081507999
30
0
41
1
10
47.2888098723145
20
8.38778757466827
30
0
41
1
10
47.2514873917403
20
8.37081663066225
30
0
41
1
10
47.2388216512349
20
8.36575640737034
30
0
41
1
10
47.2130898198479
20
8.35709720813982
30
0
41
1
10
47.2000333465182
20
8.35349943895891
30
0
41
1
10
47.18032436723
20
8.349583221194
30
0
41
1
10
47.173748695733
20
8.34852868222551
30
0
41
1
10
47.1605878889153
20
8.34701158644138
30
0
41
1
10
47.153978767491
20
8.34654982244143
30
0
41
1
10
47.1409778371598
20
8.34635849067013
30
0
41
1
10
47.1345666516538
20
8.34662344504297
30
0
41
1
10
47.1219735815681
20
8.34803869296816
30
0
41
1
10
47.1157370636593
20
8.34920337632347
30
0
41
1
10
47.1038613411608
20
8.35261666849436
30
0
41
1
10
47.0982512646318
20
8.35484577395199
30
0
41
1
10
47.0878492864373
20
8.36057864806303
30
0
41
1
10
47.0832094058232
20
8.36401124228573
30
0
41
1
10
47.0752794052204
20
8.37197054522152
30
0
41
1
10
47.0719570907726
20
8.37657564231594
30
0
41
1
10
47.0670046293185
20
8.38635645816865
30
0
41
1
10
47.0653034961712
20
8.39157907206791
30
0
41
1
10
47.0643000064364
20
8.3971004410736
30
0
0
SPLINE
5
22F
100
AcDbEntity
8
1
62
256
6
ByLayer
370
18
48
1
60
0
100
AcDbSpline
70
4
71
3
72
26
73
22
40
0
40
0
40
0
40
0
40
0.250000000000136
40
0.250000000000136
40
0.375000000000114
40
0.375000000000114
40
0.500000000000091
40
0.500000000000091
40
0.625000000000068
40
0.625000000000068
40
0.687500000000057
40
0.687500000000057
40
0.750000000000046
40
0.750000000000046
40
0.812500000000034
40
0.812500000000034
40
0.875000000000023
40
0.875000000000023
40
0.937500000000011
40
0.937500000000011
40
1
40
1
40
1
40
1
41
1
10
47.3354079714106
20
8.41689871850848
30
0
41
1
10
47.3580953220137
20
8.43237452392707
30
0
41
1
10
47.3795560603169
20
8.44969060762419
30
0
41
1
10
47.4090820783593
20
8.47831233103882
30
0
41
1
10
47.4184766613513
20
8.48830278273969
30
0
41
1
10
47.4360527191195
20
8.50917720716444
30
0
41
1
10
47.4442552441585
20
8.52008246393858
30
0
41
1
10
47.4589123488933
20
8.54278077795865
30
0
41
1
10
47.4653930956014
20
8.55460146313365
30
0
41
1
10
47.4730437512232
20
8.57290731702876
30
0
41
1
10
47.4752367062282
20
8.57908598036701
30
0
41
1
10
47.4787077297664
20
8.59153899567126
30
0
41
1
10
47.4799789066191
20
8.59781281117702
30
0
41
1
10
47.4813307956653
20
8.61011414963532
30
0
41
1
10
47.4814273809642
20
8.61618327284086
30
0
41
1
10
47.4801655714486
20
8.62810206644399
30
0
41
1
10
47.478808377065
20
8.63378894647867
30
0
41
1
10
47.4745978314143
20
8.64428648611789
30
0
41
1
10
47.4716946139905
20
8.64915864690006
30
0
41
1
10
47.4647087875932
20
8.65757171037389
30
0
41
1
10
47.4605761432554
20
8.66121237472457
30
0
41
1
10
47.4559620940135
20
8.66426633290436
30
0
0
SPLINE
5
230
100
AcDbEntity
8
1
62
256
6
ByLayer
370
18
48
1
60
0
100
AcDbSpline
70
4
71
2
72
10
73
7
40
0
40
0
40
0
40
0.472771275544486
40
0.472771275544486
40
0.945542551088973
40
0.945542551088973
40
1
40
1
40
1
41
1
10
45.0101464433565
20
-0.922022897332113
30
0
41
1
10
45.1447454979068
20
-0.935269472904821
30
0
41
1
10
45.5495713506908
20
-0.975279312963778
30
0
41
1
10
45.8753089319694
20
-1.00747268312163
30
0
41
1
10
46.0869889783111
20
-1.02837929410141
30
0
41
1
10
46.1184331415468
20
-1.03148488151844
30
0
41
1
10
46.1498799554915
20
-1.03459066023078
30
0
0
SPLINE
5
231
100
AcDbEntity
8
1
62
256
6
ByLayer
370
13
48
1
60
0
100
AcDbSpline
70
4
71
2
72
8
73
5
40
0
40
0
40
0
40
0.469443230399358
40
0.469443230399358
40
1
40
1
40
1
41
1
10
46.1498798634268
20
-1.0345906511382
30
0
41
1
10
46.3914379944971
20
-1.05844763399865
30
0
41
1
10
46.6331525310836
20
-1.08231590427018
30
0
41
1
10
46.848675034063
20
-1.10359782394018
30
0
41
1
10
47.1827373727178
20
-1.13664351195298
30
0
0
SPLINE
5
232
100
AcDbEntity
8
1
62
256
6
ByLayer
370
13
48
1
60
0
100
AcDbSpline
70
4
71
3
72
18
73
14
40
0
40
0
40
0
40
0
40
0.312652313007027
40
0.312652313007027
40
0.484489234755266
40
0.484489234755266
40
0.656326156503505
40
0.656326156503505
40
0.828163078251744
40
0.914081539125864
40
0.957040769562932
40
0.957040769562932
40
1
40
1
40
1
40
1
41
1
10
51.328710657159
20
-1.23719169567312
30
0
41
1
10
51.3296669277359
20
-1.23861691947052
30
0
41
1
10
51.3294072692636
20
-1.23893990559193
30
0
41
1
10
51.3272253015586
20
-1.23783449665523
30
0
41
1
10
51.3261038885805
20
-1.23712885232425
30
0
41
1
10
51.3231817607969
20
-1.23510650875636
30
0
41
1
10
51.321378454654
20
-1.23378769715721
30
0
41
1
10
51.317135232924
20
-1.23057573125321
30
0
41
1
10
51.3134728601045
20
-1.22773444380442
30
0
41
1
10
51.3083932703415
20
-1.2236957788234
30
0
41
1
10
51.3060463802761
20
-1.22181280451477
30
0
41
1
10
51.304444344241
20
-1.22052400605251
30
0
41
1
10
51.3036177073628
20
-1.21985721076693
30
0
41
1
10
51.3027863979361
20
-1.21918522131119
30
0
0
SPLINE
5
233
100
AcDbEntity
8
1
62
256
6
ByLayer
370
18
48
1
60
0
100
AcDbSpline
70
4
71
3
72
8
73
4
40
0
40
0
40
0
40
0
40
1
40
1
40
1
40
1
41
1
10
51.4270406374218
20
-1.93040885256622
30
0
41
1
10
51.4298923224733
20
-1.9311035036818
30
0
41
1
10
51.4324895762001
20
-1.93180516234793
30
0
41
1
10
51.4348243332486
20
-1.93251852851691
30
0
0
SPLINE
5
234
100
AcDbEntity
8
1
62
256
6
ByLayer
370
13
48
1
60
0
100
AcDbSpline
70
4
71
3
72
10
73
6
40
0
40
0
40
0
40
0
40
0.588971072540643
40
0.588971072540643
40
1
40
1
40
1
40
1
41
1
10
51.302757206557
20
-1.21914444216294
30
0
41
1
10
51.3001298901255
20
-1.18090723902216
30
0
41
1
10
51.2914935996715
20
-1.1434487106563
30
0
41
1
10
51.2672905564627
20
-1.08404566282201
30
0
41
1
10
51.2546079059679
20
-1.0608379104661
30
0
41
1
10
51.2394960189323
20
-1.03933816468781
30
0
0
SPLINE
5
235
100
AcDbEntity
8
1
62
256
6
ByLayer
370
18
48
1
60
0
100
AcDbSpline
70
4
71
3
72
8
73
4
40
0
40
0
40
0
40
0
40
1
40
1
40
1
40
1
41
1
10
51.4348243332487
20
-1.93251852851691
30
0
41
1
10
51.4423443036828
20
-1.93456004699861
30
0
41
1
10
51.4468429865385
20
-1.93579344170995
30
0
41
1
10
51.4483183027188
20
-1.93621815654092
30
0
0
SPLINE
5
236
100
AcDbEntity
8
1
62
256
6
ByLayer
370
18
48
1
60
0
100
AcDbSpline
70
4
71
3
72
19
73
15
40
0
40
0
40
0
40
0
40
0.0905765135584522
40
0.0905765135584522
40
0.272461210846737
40
0.272461210846737
40
0.454345908135022
40
0.454345908135022
40
0.545288256779184
40
0.545288256779184
40
0.636230605423347
40
0.636230605423347
40
0.818115302711673
40
1
40
1
40
1
40
1
41
1
10
51.4311435215324
20
-1.93177066023132
30
0
41
1
10
51.4266139081319
20
-1.93057479459571
30
0
41
1
10
51.4212373671636
20
-1.92915222239805
30
0
41
1
10
51.402560889504
20
-1.92420288196614
30
0
41
1
10
51.3867449431303
20
-1.92000261807962
30
0
41
1
10
51.3484063642399
20
-1.9098068135
30
0
41
1
10
51.3258849805504
20
-1.90381160709876
30
0
41
1
10
51.286831958389
20
-1.89340784609553
30
0
41
1
10
51.2728725525529
20
-1.88968790280033
30
0
41
1
10
51.2435450241243
20
-1.88187045807541
30
0
41
1
10
51.2281611994546
20
-1.87776878324544
30
0
41
1
10
51.1798922042793
20
-1.86489633287954
30
0
41
1
10
51.1099018456732
20
-1.84622395619122
30
0
41
1
10
51.0287093730063
20
-1.82454978217481
30
0
41
1
10
50.9851947355951
20
-1.81293065987316
30
0
0
SPLINE
5
237
100
AcDbEntity
8
1
62
256
6
ByLayer
370
13
48
1
60
0
100
AcDbSpline
70
4
71
2
72
6
73
3
40
0
40
0
40
0
40
1
40
1
40
1
41
1
10
51.4348243332482
20
-1.93251852851678
30
0
41
1
10
50.5719929774903
20
-1.70171315649924
30
0
41
1
10
50.3416756665955
20
-1.64010817271826
30
0
0
SPLINE
5
238
100
AcDbEntity
8
1
62
256
6
ByLayer
370
18
48
1
60
0
100
AcDbSpline
70
4
71
3
72
28
73
24
40
0
40
0
40
0
40
0
40
0.031249999999993
40
0.031249999999993
40
0.062499999999986
40
0.062499999999986
40
0.124999999999985
40
0.124999999999985
40
0.187499999999985
40
0.187499999999985
40
0.249999999999984
40
0.249999999999984
40
0.312499999999984
40
0.312499999999984
40
0.374999999999983
40
0.374999999999983
40
0.499999999999987
40
0.499999999999987
40
0.62499999999999
40
0.62499999999999
40
0.749999999999993
40
0.749999999999993
40
1
40
1
40
1
40
1
41
1
10
50.9879220050062
20
-0.489582862705618
30
0
41
1
10
50.9897749201518
20
-0.499686845829842
30
0
41
1
10
50.9917218327902
20
-0.509574392446865
30
0
41
1
10
50.9957180010514
20
-0.528681187497796
30
0
41
1
10
50.9977560909275
20
-0.53785473012185
30
0
41
1
10
51.0039644753826
20
-0.56444102426471
30
0
41
1
10
51.0082276579291
20
-0.580929774815544
30
0
41
1
10
51.0169120548493
20
-0.612119918660298
30
0
41
1
10
51.0213526673012
20
-0.626864371055902
30
0
41
1
10
51.0301307576805
20
-0.654348613243911
30
0
41
1
10
51.0344944845413
20
-0.667185346731742
30
0
41
1
10
51.0431660613098
20
-0.691509385311349
30
0
41
1
10
51.0474739246183
20
-0.702992899442791
30
0
41
1
10
51.0560295971354
20
-0.724892034589359
30
0
41
1
10
51.0602798487058
20
-0.73530945385032
30
0
41
1
10
51.0728038847537
20
-0.764950774935343
30
0
41
1
10
51.0809045842767
20
-0.78272441696312
30
0
41
1
10
51.0966868598229
20
-0.815606103774101
30
0
41
1
10
51.1043673530825
20
-0.830697063284759
30
0
41
1
10
51.1193482850885
20
-0.858892110784851
30
0
41
1
10
51.126648335473
20
-0.871989983282958
30
0
41
1
10
51.1480142977896
20
-0.908946120742115
30
0
41
1
10
51.1615479078934
20
-0.930499697709976
30
0
41
1
10
51.1744251694275
20
-0.949978645745148
30
0
0
SPLINE
5
239
100
AcDbEntity
8
1
62
256
6
ByLayer
370
13
48
1
60
0
100
AcDbSpline
70
4
71
2
72
16
73
13
40
0
40
0
40
0
40
0.25
40
0.25
40
0.375
40
0.375
40
0.5
40
0.5
40
0.625
40
0.625
40
0.75
40
0.75
40
1
40
1
40
1
41
1
10
50.3416756665964
20
-1.6401081727185
30
0
41
1
10
50.1311807547399
20
-1.58380525991201
30
0
41
1
10
49.8953297985193
20
-1.52059281518484
30
0
41
1
10
49.8179781526131
20
-1.49986113480604
30
0
41
1
10
49.7386353471185
20
-1.47858411612556
30
0
41
1
10
49.6790859450974
20
-1.46261500926939
30
0
41
1
10
49.6003797613452
20
-1.44150156127935
30
0
41
1
10
49.5526627018602
20
-1.42870114833029
30
0
41
1
10
49.4699957282567
20
-1.40652247217706
30
0
41
1
10
49.3794657515092
20
-1.38223423530427
30
0
41
1
10
49.3408884599828
20
-1.3718852298866
30
0
41
1
10
49.2365317754346
20
-1.34388979912865
30
0
41
1
10
49.0762972186353
20
-1.30090847420254
30
0
0
SPLINE
5
23A
100
AcDbEntity
8
1
62
256
6
ByLayer
370
13
48
1
60
0
100
AcDbSpline
70
4
71
2
72
6
73
3
40
0
40
0
40
0
40
1
40
1
40
1
41
1
10
50.3314468363998
20
-1.62831044163043
30
0
41
0.998837184066022
10
50.3354280276317
20
-1.63838765953354
30
0
41
1
10
50.3416756665955
20
-1.64010817271826
30
0
0
SPLINE
5
23B
100
AcDbEntity
8
1
62
256
6
ByLayer
370
18
48
1
60
0
100
AcDbSpline
70
4
71
3
72
12
73
8
40
0
40
0
40
0
40
0
40
0.25
40
0.25
40
0.5
40
0.5
40
1
40
1
40
1
40
1
41
1
10
50.5839415744601
20
1.57904249751726
30
0
41
1
10
50.5872008877872
20
1.57861680045741
30
0
41
1
10
50.5900203272845
20
1.57822824224887
30
0
41
1
10
50.5947737278259
20
1.57752588738933
30
0
41
1
10
50.5967104076923
20
1.57721151934203
30
0
41
1
10
50.6011301650427
20
1.57638887988431
30
0
41
1
10
50.60224365095
20
1.57599928783924
30
0
41
1
10
50.6014629481014
20
1.57577383051982
30
0
0
SPLINE
5
23C
100
AcDbEntity
8
1
62
256
6
ByLayer
370
18
48
1
60
0
100
AcDbSpline
70
4
71
3
72
67
73
63
40
0
40
0
40
0
40
0
40
0.0126948672389223
40
0.0253599885203825
40
0.0379968283996435
40
0.0506068612863598
40
0.0631915710125987
40
0.0757524503851939
40
0.0882910007228711
40
0.100808731378833
40
0.113307159249441
40
0.125787808269523
40
0.138252208895366
40
0.150701897575852
40
0.163138416212879
40
0.175563311611762
40
0.187978134922633
40
0.200384441073817
40
0.212783788198174
40
0.225177737053429
40
0.237567850437565
40
0.249955692600404
40
0.262342828652445
40
0.274730823972006
40
0.287121243611941
40
0.299515651706943
40
0.311915610882558
40
0.324322681667097
40
0.336738421907463
40
0.349164386190022
40
0.361602125267609
40
0.37405318549359
40
0.386519108264135
40
0.399001429469555
40
0.41150167895569
40
0.424021379996221
40
0.436562048776766
40
0.449125193891512
40
0.461712315853189
40
0.474324906617036
40
0.486964449119419
40
0.499632416831652
40
0.525014032817219
40
0.550283958939352
40
0.575454064162668
40
0.600536359155507
40
0.625542981108105
40
0.650486177671476
40
0.675378290111485
40
0.700231735785191
40
0.725058990057749
40
0.749872567787695
40
0.774685004515776
40
0.799508837497643
40
0.82435658672361
40
0.849240736068673
40
0.874173714713929
40
0.899167878975647
40
0.924235494671275
40
0.949388720142519
40
0.974639590044837
40
1
40
1
40
1
40
1
41
1
10
48.5222174835958
20
-1.19958296463335
30
0
41
1
10
48.5260476714591
20
-1.20001152306398
30
0
41
1
10
48.5336990724874
20
-1.20086763574923
30
0
41
1
10
48.5448795308793
20
-1.20216866015896
30
0
41
1
10
48.5558249699579
20
-1.20347690309713
30
0
41
1
10
48.5665153902546
20
-1.20479145173538
30
0
41
1
10
48.5769563114234
20
-1.20610956152619
30
0
41
1
10
48.5871464474696
20
-1.20742905965025
30
0
41
1
10
48.5970863390077
20
-1.20874770305709
30
0
41
1
10
48.606776046127
20
-1.21006334991213
30
0
41
1
10
48.6162157636484
20
-1.21137391374325
30
0
41
1
10
48.6254056555918
20
-1.21267737564111
30
0
41
1
10
48.6343458983321
20
-1.21397178094041
30
0
41
1
10
48.6430366680104
20
-1.21525524004446
30
0
41
1
10
48.6514781428831
20
-1.21652592813801
30
0
41
1
10
48.659670501711
20
-1.21778208519405
30
0
41
1
10
48.6676139232427
20
-1.21902201589908
30
0
41
1
10
48.6753085854394
20
-1.22024408959798
30
0
41
1
10
48.6827546648037
20
-1.22144674023181
30
0
41
1
10
48.6899523357146
20
-1.22262846627628
30
0
41
1
10
48.6969017697967
20
-1.22378783067939
30
0
41
1
10
48.7036031353127
20
-1.22492346079899
30
0
41
1
10
48.7100565965863
20
-1.22603404834051
30
0
41
1
10
48.7162623134488
20
-1.22711834929532
30
0
41
1
10
48.7222204407158
20
-1.22817518388001
30
0
41
1
10
48.7279311276891
20
-1.22920343647675
30
0
41
1
10
48.7333945176859
20
-1.23020205557531
30
0
41
1
10
48.7386107475954
20
-1.23117005371665
30
0
41
1
10
48.7435799474621
20
-1.23210650743884
30
0
41
1
10
48.748302240095
20
-1.23301055722487
30
0
41
1
10
48.7527777407061
20
-1.23388140745335
30
0
41
1
10
48.7570065565718
20
-1.2347183263516
30
0
41
1
10
48.7609887867284
20
-1.23552064595232
30
0
41
1
10
48.7647245216742
20
-1.23628776205085
30
0
41
1
10
48.7682138431682
20
-1.23701913417565
30
0
41
1
10
48.7714568237983
20
-1.23771428552442
30
0
41
1
10
48.774453527536
20
-1.23837280304571
30
0
41
1
10
48.7772040067288
20
-1.23899433699283
30
0
41
1
10
48.7797083125498
20
-1.23957860247027
30
0
41
1
10
48.7819664552033
20
-1.24012537354086
30
0
41
1
10
48.783978552347
20
-1.24063450519937
30
0
41
1
10
48.7863335574952
20
-1.24126315611007
30
0
41
1
10
48.7886539451325
20
-1.24195186744861
30
0
41
1
10
48.7904290778925
20
-1.24262090414496
30
0
41
1
10
48.791187638302
20
-1.24313207375235
30
0
41
1
10
48.7909293879006
20
-1.2434879389903
30
0
41
1
10
48.7896537240814
20
-1.24369205196025
30
0
41
1
10
48.787359959283
20
-1.24374899264713
30
0
41
1
10
48.7840472561821
20
-1.24366436009326
30
0
41
1
10
48.7797146566331
20
-1.24344477644266
30
0
41
1
10
48.7743610880479
20
-1.24309788775881
30
0
41
1
10
48.7679853768074
20
-1.24263236595124
30
0
41
1
10
48.760586266145
20
-1.24205791033913
30
0
41
1
10
48.7521624192747
20
-1.24138525023362
30
0
41
1
10
48.7427124872704
20
-1.24062614427434
30
0
41
1
10
48.7322349425423
20
-1.23979339199099
30
0
41
1
10
48.7207287972562
20
-1.23890079960987
30
0
41
1
10
48.7081910173667
20
-1.23796331686246
30
0
41
1
10
48.6946263226928
20
-1.23699653274349
30
0
41
1
10
48.6800105647301
20
-1.23601857356867
30
0
41
1
10
48.6644282555897
20
-1.23504298831303
30
0
41
1
10
48.6532063490115
20
-1.23441941912896
30
0
41
1
10
48.6475832517079
20
-1.23410695972883
30
0
0
SPLINE
5
23D
100
AcDbEntity
8
1
62
256
6
ByLayer
370
13
48
1
60
0
100
AcDbSpline
70
4
71
3
72
33
73
29
40
0
40
0
40
0
40
0
40
0.0372685593868601
40
0.0746198156135117
40
0.112055428106064
40
0.149577045097542
40
0.187186303512681
40
0.224884828858774
40
0.262674235122842
40
0.300556124674809
40
0.338532088176975
40
0.376603704499236
40
0.414772540640469
40
0.453040151655571
40
0.491408080588479
40
0.529877858410801
40
0.568451003966008
40
0.607129023919169
40
0.645913412712193
40
0.684805652524262
40
0.723807213237609
40
0.76291955240823
40
0.802144115241856
40
0.841482334574552
40
0.880935630858292
40
0.920505412151174
40
0.960193074112094
40
1
40
1
40
1
40
1
41
1
10
49.0762972186282
20
-1.30090847420061
30
0
41
1
10
49.0701062573989
20
-1.29925659746388
30
0
41
1
10
49.0577105975453
20
-1.29594917856872
30
0
41
1
10
49.0388203212801
20
-1.29103877545076
30
0
41
1
10
49.0196866747777
20
-1.28616398519492
30
0
41
1
10
49.0002892241491
20
-1.28133288430327
30
0
41
1
10
48.9806329004426
20
-1.27654885859847
30
0
41
1
10
48.9607158622639
20
-1.271816640352
30
0
41
1
10
48.9405381388716
20
-1.26714068496204
30
0
41
1
10
48.9200993085703
20
-1.26252560727887
30
0
41
1
10
48.8993991254107
20
-1.25797606408031
30
0
41
1
10
48.878437353114
20
-1.2534967854415
30
0
41
1
10
48.8572138122218
20
-1.24909256602523
30
0
41
1
10
48.8357283699341
20
-1.24476826711141
30
0
41
1
10
48.813980945397
20
-1.24052881569284
30
0
41
1
10
48.7919715108523
20
-1.2363792043307
30
0
41
1
10
48.7697000939874
20
-1.23232449070858
30
0
41
1
10
48.7471667797822
20
-1.22836979741749
30
0
41
1
10
48.7243717133101
20
-1.22452031089557
30
0
41
1
10
48.7013150993609
20
-1.22078128330236
30
0
41
1
10
48.6779972140034
20
-1.21715802322244
30
0
41
1
10
48.6544183715297
20
-1.21365592803781
30
0
41
1
10
48.6305790587285
20
-1.21028035993015
30
0
41
1
10
48.6064794420876
20
-1.20703710777437
30
0
41
1
10
48.5821212255423
20
-1.20393065273012
30
0
41
1
10
48.5575006974195
20
-1.20097066634229
30
0
41
1
10
48.5326348056619
20
-1.19814764803034
30
0
41
1
10
48.5158792114786
20
-1.19640135671182
30
0
41
1
10
48.507488845368
20
-1.19552690109192
30
0
0
SPLINE
5
23E
100
AcDbEntity
8
1
62
256
6
ByLayer
370
13
48
1
60
0
100
AcDbSpline
70
4
71
2
72
6
73
3
40
0
40
0
40
0
40
1
40
1
40
1
41
1
10
49.2390089463969
20
-1.30796025026879
30
0
41
0.983799121243375
10
49.1556593052212
20
-1.32210525108772
30
0
41
1
10
49.0762972186353
20
-1.30090847420254
30
0
0
SPLINE
5
23F
100
AcDbEntity
8
1
62
256
6
ByLayer
370
18
48
1
60
0
100
AcDbSpline
70
4
71
3
72
16
73
12
40
0
40
0
40
0
40
0
40
0.250000000000067
40
0.250000000000067
40
0.375000000000093
40
0.375000000000093
40
0.500000000000118
40
0.500000000000118
40
0.750000000000059
40
0.750000000000059
40
1
40
1
40
1
40
1
41
1
10
43.480914406568
20
2.19831179856351
30
0
41
1
10
43.4818026692831
20
2.19856831784097
30
0
41
1
10
43.4849823773247
20
2.19861833545586
30
0
41
1
10
43.4932090525578
20
2.19838181195418
30
0
41
1
10
43.4965309422601
20
2.19825073226862
30
0
41
1
10
43.5043831586061
20
2.19787967034824
30
0
41
1
10
43.5089410567329
20
2.19763793866171
30
0
41
1
10
43.5241988431195
20
2.19675936201325
30
0
41
1
10
43.5365131179742
20
2.19596930678557
30
0
41
1
10
43.5654855178948
20
2.19397489266359
30
0
41
1
10
43.5822866313834
20
2.19275933493478
30
0
41
1
10
43.6009240964214
20
2.19135727018062
30
0
0
SPLINE
5
240
100
AcDbEntity
8
1
62
256
6
ByLayer
370
13
48
1
60
0
100
AcDbSpline
70
4
71
3
72
10
73
6
40
0
40
0
40
0
40
0
40
0.364766239158516
40
0.364766239158516
40
1
40
1
40
1
40
1
41
1
10
42.7507417057814
20
0.244664691215036
30
0
41
1
10
42.8395224891155
20
0.482206193878469
30
0
41
1
10
42.9283032724496
20
0.719747696541987
30
0
41
1
10
43.1716941727118
20
1.37096339899163
30
0
41
1
10
43.3263042896401
20
1.78463759877788
30
0
41
1
10
43.480914406568
20
2.19831179856351
30
0
0
SPLINE
5
241
100
AcDbEntity
8
1
62
256
6
ByLayer
370
13
48
1
60
0
100
AcDbSpline
70
4
71
3
72
23
73
19
40
0
40
0
40
0
40
0
40
0.0111496505958635
40
0.0111496505958635
40
0.110034685536255
40
0.110034685536255
40
0.208919720476647
40
0.307804755417039
40
0.307804755417039
40
0.406689790357431
40
0.406689790357431
40
0.505574825297823
40
0.505574825297823
40
0.604459860238215
40
0.604459860238215
40
0.802229930119107
40
0.802229930119107
40
1
40
1
40
1
40
1
41
1
10
42.5725996081717
20
-0.0530023086670468
30
0
41
1
10
42.5734337324238
20
-0.0520583160704291
30
0
41
1
10
42.5742687162392
20
-0.0511095778542625
30
0
41
1
10
42.5825172617392
20
-0.0416994151452741
30
0
41
1
10
42.5900215425712
20
-0.0328282742687094
30
0
41
1
10
42.6046783366398
20
-0.014828578880838
30
0
41
1
10
42.6190904814671
20
0.0035454182388577
30
0
41
1
10
42.6329709912444
20
0.0226646712040974
30
0
41
1
10
42.6465663283745
20
0.0421575631051496
30
0
41
1
10
42.6532406527122
20
0.0521214789008866
30
0
41
1
10
42.6661754431198
20
0.0722522693106242
30
0
41
1
10
42.6724277087133
20
0.0824063720811949
30
0
41
1
10
42.6843717466358
20
0.102634556881355
30
0
41
1
10
42.6900872013848
20
0.112744816122728
30
0
41
1
10
42.7065220743547
20
0.14308625494327
30
0
41
1
10
42.7165330529028
20
0.163329556631979
30
0
41
1
10
42.7348713711408
20
0.203916211209119
30
0
41
1
10
42.7431971971768
20
0.224258920021853
30
0
41
1
10
42.7507417057815
20
0.244664691215007
30
0
0
SPLINE
5
242
100
AcDbEntity
8
1
62
256
6
ByLayer
370
13
48
1
60
0
100
AcDbSpline
70
4
71
3
72
26
73
22
40
0
40
0
40
0
40
0
40
0.0215373550079018
40
0.0215373550079018
40
0.0430747100158036
40
0.0861494200316548
40
0.172298840063359
40
0.172298840063359
40
0.344597680126829
40
0.344597680126829
40
0.4307471001586
40
0.4307471001586
40
0.516896520190372
40
0.516896520190372
40
0.689195360253831
40
0.689195360253831
40
0.775344780285605
40
0.775344780285605
40
0.86149420031738
40
0.86149420031738
40
1
40
1
40
1
40
1
41
1
10
42.8872988220265
20
0.281984487266755
30
0
41
1
10
42.8857231757195
20
0.277997762676293
30
0
41
1
10
42.8840798492709
20
0.27391991696291
30
0
41
1
10
42.8807751738605
20
0.265880435824314
30
0
41
1
10
42.8757328176175
20
0.253846910872781
30
0
41
1
10
42.8633717576705
20
0.225947191099579
30
0
41
1
10
42.8517611283051
20
0.202334311513411
30
0
41
1
10
42.8271914599156
20
0.155495376486826
30
0
41
1
10
42.8090178833434
20
0.124786218492616
30
0
41
1
10
42.7790211598398
20
0.0794235243470354
30
0
41
1
10
42.7686327824897
20
0.0645232064821357
30
0
41
1
10
42.7471732268344
20
0.0352366409345422
30
0
41
1
10
42.7361096827613
20
0.0208641385352593
30
0
41
1
10
42.7023591033867
20
-0.0210413323332972
30
0
41
1
10
42.6789845211044
20
-0.0475439338524524
30
0
41
1
10
42.6429636495165
20
-0.0853923999789998
30
0
41
1
10
42.6307965946998
20
-0.0976900854169003
30
0
41
1
10
42.6062005221657
20
-0.121680611607047
30
0
41
1
10
42.5938175496528
20
-0.13332477924773
30
0
41
1
10
42.5618897645367
20
-0.162401303833718
30
0
41
1
10
42.5424241827762
20
-0.179194450296265
30
0
41
1
10
42.5233051418181
20
-0.195000963358581
30
0
0
SPLINE
5
243
100
AcDbEntity
8
1
62
256
6
ByLayer
370
18
48
1
60
0
100
AcDbSpline
70
4
71
3
72
8
73
4
40
0
40
0
40
0
40
0
40
1
40
1
40
1
40
1
41
1
10
42.0120306856464
20
-1.08505876599311
30
0
41
1
10
42.0091395233919
20
-1.08481530379531
30
0
41
1
10
42.006497985511
20
-1.08461977284944
30
0
41
1
10
42.0041131737003
20
-1.08447848690688
30
0
0
SPLINE
5
244
100
AcDbEntity
8
1
62
256
6
ByLayer
370
13
48
1
60
0
100
AcDbSpline
70
4
71
3
72
28
73
24
40
0
40
0
40
0
40
0
40
0.249999999999987
40
0.249999999999987
40
0.37499999999998
40
0.37499999999998
40
0.499999999999974
40
0.499999999999974
40
0.624999999999967
40
0.624999999999967
40
0.687499999999963
40
0.687499999999963
40
0.74999999999996
40
0.74999999999996
40
0.812499999999957
40
0.812499999999957
40
0.843749999999964
40
0.843749999999964
40
0.874999999999971
40
0.874999999999971
40
0.937499999999986
40
0.937499999999986
40
1
40
1
40
1
40
1
41
1
10
51.2576753448941
20
-1.15655455556325
30
0
41
1
10
51.2366113800397
20
-1.12747045663522
30
0
41
1
10
51.2146555861348
20
-1.09525033865927
30
0
41
1
10
51.1804591276502
20
-1.04011442865263
30
0
41
1
10
51.1688500296447
20
-1.02059048023088
30
0
41
1
10
51.1452267030274
20
-0.978656785062924
30
0
41
1
10
51.1332124451473
20
-0.956254458118309
30
0
41
1
10
51.1087970171512
20
-0.907642498610144
30
0
41
1
10
51.0963958099831
20
-0.881452157179609
30
0
41
1
10
51.0775203624931
20
-0.838101204660717
30
0
41
1
10
51.0712110912713
20
-0.823025340023094
30
0
41
1
10
51.0586951381553
20
-0.791680876375494
30
0
41
1
10
51.0524722692048
20
-0.775376749252544
30
0
41
1
10
51.0401370994303
20
-0.74125218746758
30
0
41
1
10
51.0340245548093
20
-0.723433694148213
30
0
41
1
10
51.0249796181971
20
-0.695298538801325
30
0
41
1
10
51.0219857430543
20
-0.685682940503824
30
0
41
1
10
51.0161160125912
20
-0.66615346283001
30
0
41
1
10
51.0132318610981
20
-0.656214370423754
30
0
41
1
10
51.0047490208404
20
-0.625830762031001
30
0
41
1
10
50.9993187960122
20
-0.604823486308305
30
0
41
1
10
50.9890242110898
20
-0.561005148375514
30
0
41
1
10
50.98413853461
20
-0.538061543711962
30
0
41
1
10
50.9797164620798
20
-0.514578775221509
30
0
0
SPLINE
5
245
100
AcDbEntity
8
1
62
256
6
ByLayer
370
13
48
1
60
0
100
AcDbSpline
70
4
71
3
72
10
73
6
40
0
40
0
40
0
40
0
40
0.5
40
0.5
40
1
40
1
40
1
40
1
41
1
10
50.9797164620798
20
-0.514578775221409
30
0
41
1
10
50.9142201087112
20
-0.166769983619801
30
0
41
1
10
50.8484646320069
20
0.181688506871154
30
0
41
1
10
50.7165173667872
20
0.8796329850137
30
0
41
1
10
50.6503266921258
20
1.22911271810108
30
0
41
1
10
50.5839415744601
20
1.57904249751726
30
0
0
SPLINE
5
246
100
AcDbEntity
8
1
62
256
6
ByLayer
370
18
48
1
60
0
100
AcDbSpline
70
4
71
3
72
18
73
14
40
0
40
0
40
0
40
0
40
0.0894181927877313
40
0.179214302549337
40
0.269362439104048
40
0.359836353464431
40
0.45060944752496
40
0.541654784276277
40
0.632945098584168
40
0.724452808570891
40
0.816150027639298
40
0.908008577179364
40
1
40
1
40
1
40
1
41
1
10
51.4269780411387
20
-1.93006656803206
30
0
41
1
10
51.4252520577823
20
-1.92944974943657
30
0
41
1
10
51.421792796375
20
-1.92821350532401
30
0
41
1
10
51.4164833435259
20
-1.92603664901853
30
0
41
1
10
51.4110732161797
20
-1.92361548932322
30
0
41
1
10
51.405555955088
20
-1.92092448913411
30
0
41
1
10
51.3999352358242
20
-1.91796734010784
30
0
41
1
10
51.3942120104849
20
-1.91474021878389
30
0
41
1
10
51.3883877456216
20
-1.91124098890833
30
0
41
1
10
51.3824643877139
20
-1.90746937339326
30
0
41
1
10
51.3764412248654
20
-1.90341701919697
30
0
41
1
10
51.370327501927
20
-1.89910722237947
30
0
41
1
10
51.3661750537274
20
-1.89600143012085
30
0
41
1
10
51.364097329085
20
-1.89444741167206
30
0
0
SPLINE
5
247
100
AcDbEntity
8
1
62
256
6
ByLayer
370
13
48
1
60
0
100
AcDbSpline
70
4
71
3
72
12
73
8
40
0
40
0
40
0
40
0
40
0.207626281701327
40
0.411437295981528
40
0.611435192252509
40
0.807622074177588
40
1
40
1
40
1
40
1
41
1
10
51.4270373611278
20
-1.93040959504462
30
0
41
1
10
51.4185185384797
20
-1.88121021569582
30
0
41
1
10
51.401637432068
20
-1.7837155274638
30
0
41
1
10
51.3764062887336
20
-1.63878649177495
30
0
41
1
10
51.351544557798
20
-1.49653845782657
30
0
41
1
10
51.3270578054017
20
-1.356971596408
30
0
41
1
10
51.3108077945747
20
-1.26480541986489
30
0
41
1
10
51.3027624355634
20
-1.21917406694558
30
0
0
SPLINE
5
248
100
AcDbEntity
8
1
62
256
6
ByLayer
370
13
48
1
60
0
100
AcDbSpline
70
4
71
3
72
8
73
4
40
0
40
0
40
0
40
0
40
1
40
1
40
1
40
1
41
1
10
51.302757206557
20
-1.21914444216294
30
0
41
1
10
51.2882000551726
20
-1.19881548022923
30
0
41
1
10
51.2731708094103
20
-1.17794993986252
30
0
41
1
10
51.2576753448941
20
-1.1565545555632
30
0
0
SPLINE
5
249
100
AcDbEntity
8
1
62
256
6
ByLayer
370
13
48
1
60
0
100
AcDbSpline
70
4
71
1
72
4
73
2
40
0
40
0
40
1
40
1
41
1
10
43.6009240964241
20
2.19135727018035
30
0
41
1
10
42.8872985725566
20
0.281983722093074
30
0
0
SPLINE
5
24A
100
AcDbEntity
8
1
62
256
6
ByLayer
370
13
48
1
60
0
100
AcDbSpline
70
4
71
2
72
6
73
3
40
0
40
0
40
0
40
1
40
1
40
1
41
1
10
42.8873458727224
20
0.282125696611814
30
0
41
1
10
42.6754295895673
20
-0.367862561496665
30
0
41
1
10
42.4704822707987
20
-1.01274984402753
30
0
0
SPLINE
5
24B
100
AcDbEntity
8
1
62
256
6
ByLayer
370
18
48
1
60
0
100
AcDbSpline
70
4
71
3
72
23
73
19
40
0
40
0
40
0
40
0
40
0.0833398573419848
40
0.0833398573419848
40
0.159728202563477
40
0.159728202563477
40
0.23611654778497
40
0.23611654778497
40
0.388893238227976
40
0.388893238227976
40
0.541669928670982
40
0.541669928670982
40
0.618058273892485
40
0.618058273892485
40
0.694446619113988
40
0.694446619113988
40
0.847223309556994
40
1
40
1
40
1
40
1
41
1
10
41.9909288735873
20
-1.07932126037419
30
0
41
1
10
41.9920095800733
20
-1.07843855824315
30
0
41
1
10
41.9941287691516
20
-1.07746529671789
30
0
41
1
10
42.0002288173934
20
-1.07542219615861
30
0
41
1
10
42.0040420947954
20
-1.07436697085326
30
0
41
1
10
42.0135328436855
20
-1.07209395585444
30
0
41
1
10
42.0191580714493
20
-1.07088872791634
30
0
41
1
10
42.0386272849935
20
-1.06707108396191
30
0
41
1
10
42.0550569557041
20
-1.06425704735814
30
0
41
1
10
42.0948271973375
20
-1.05809027361663
30
0
41
1
10
42.1181664814074
20
-1.05473763678835
30
0
41
1
10
42.1586068509077
20
-1.04928530378746
30
0
41
1
10
42.1730576346379
20
-1.04738925329136
30
0
41
1
10
42.2034089696942
20
-1.04350553747186
30
0
41
1
10
42.2193258190503
20
-1.04151523434234
30
0
41
1
10
42.2692560010599
20
-1.03540185944527
30
0
41
1
10
42.341626468795
20
-1.02687179574931
30
0
41
1
10
42.4255276396981
20
-1.01758806078145
30
0
41
1
10
42.4704822310338
20
-1.01274984508682
30
0
0
SPLINE
5
24C
100
AcDbEntity
8
1
62
256
6
ByLayer
370
13
48
1
60
0
100
AcDbSpline
70
4
71
2
72
6
73
3
40
0
40
0
40
0
40
1
40
1
40
1
41
1
10
42.0041131737009
20
-1.08447848690683
30
0
41
1
10
42.8983653367485
20
-1.00733334549298
30
0
41
1
10
43.1313638282866
20
-0.98703431599813
30
0
0
SPLINE
5
24D
100
AcDbEntity
8
1
62
256
6
ByLayer
370
18
48
1
60
0
100
AcDbSpline
70
4
71
2
72
16
73
13
40
0
40
0
40
0
40
0.25
40
0.25
40
0.375
40
0.375
40
0.5
40
0.5
40
0.625
40
0.625
40
0.75
40
0.75
40
1
40
1
40
1
41
1
10
43.1313638282862
20
-0.987034315998159
30
0
41
1
10
43.3486268210996
20
-0.968106144649198
30
0
41
1
10
43.591553688188
20
-0.952792372403735
30
0
41
1
10
43.6710072764065
20
-0.947783728573413
30
0
41
1
10
43.7525777594365
20
-0.943176223474723
30
0
41
1
10
43.8138721518796
20
-0.93971401244923
30
0
41
1
10
43.8947046047089
20
-0.935476208559962
30
0
41
1
10
43.9437185510497
20
-0.932906553858643
30
0
41
1
10
44.0287167674559
20
-0.928575117307744
30
0
41
1
10
44.1217159178544
20
-0.923835959990441
30
0
41
1
10
44.161420962155
20
-0.921772339885976
30
0
41
1
10
44.2685759785479
20
-0.916203091695522
30
0
41
1
10
44.4333938353673
20
-0.907440245397709
30
0
0
SPLINE
5
24E
100
AcDbEntity
8
1
62
256
6
ByLayer
370
18
48
1
60
0
100
AcDbSpline
70
4
71
3
72
67
73
63
40
0
40
0
40
0
40
0
40
0.0126948672386136
40
0.0253599885197695
40
0.0379968283987508
40
0.0506068612851928
40
0.0631915710111833
40
0.0757524503835372
40
0.0882910007209856
40
0.100808731376747
40
0.113307159247155
40
0.125787808267054
40
0.138252208892729
40
0.150701897573065
40
0.163138416209956
40
0.175563311608714
40
0.187978134919481
40
0.200384441070584
40
0.212783788194867
40
0.225177737050067
40
0.237567850434161
40
0.249955692596983
40
0.26234282864902
40
0.274730823968591
40
0.287121243608559
40
0.299515651703609
40
0.311915610879287
40
0.324322681663907
40
0.336738421904371
40
0.349164386187053
40
0.361602125264772
40
0.374053185490908
40
0.386519108261626
40
0.399001429467231
40
0.411501678953573
40
0.424021379994332
40
0.436562048775121
40
0.449125193890128
40
0.461712315852085
40
0.47432490661623
40
0.486964449118928
40
0.499632416831497
40
0.525014032816555
40
0.550283958938217
40
0.575454064161105
40
0.60053635915356
40
0.625542981105819
40
0.6504861776689
40
0.675378290108676
40
0.7002317357822
40
0.725058990054635
40
0.749872567784519
40
0.774685004512599
40
0.799508837494533
40
0.824356586720629
40
0.849240736065894
40
0.874173714711426
40
0.899167878973492
40
0.924235494669539
40
0.949388720141287
40
0.974639590044178
40
1
40
1
40
1
40
1
41
1
10
44.9954181910661
20
-0.917966939828375
30
0
41
1
10
44.9915874294506
20
-0.917544938849005
30
0
41
1
10
44.9839348822624
20
-0.91670192570119
30
0
41
1
10
44.9727455696073
20
-0.915502097300816
30
0
41
1
10
44.9617865987618
20
-0.914348509901629
30
0
41
1
10
44.9510778493735
20
-0.913243445780509
30
0
41
1
10
44.940614355474
20
-0.912183321364978
30
0
41
1
10
44.9303977626837
20
-0.911166199290435
30
0
41
1
10
44.9204279276549
20
-0.910189782215227
30
0
41
1
10
44.9107051633009
20
-0.909251948899893
30
0
41
1
10
44.9012296400696
20
-0.908350611131709
30
0
41
1
10
44.8920015470515
20
-0.907483752098514
30
0
41
1
10
44.8830210499991
20
-0.906649416261999
30
0
41
1
10
44.8742883035976
20
-0.905845712183776
30
0
41
1
10
44.8658034491966
20
-0.905070811878886
30
0
41
1
10
44.8575666163966
20
-0.904322951088432
30
0
41
1
10
44.8495779235712
20
-0.903600429297597
30
0
41
1
10
44.8418374786393
20
-0.902901609813711
30
0
41
1
10
44.8343453797382
20
-0.902224919820441
30
0
41
1
10
44.8271017158879
20
-0.901568850431346
30
0
41
1
10
44.8201065676246
20
-0.900931956736855
30
0
41
1
10
44.8133600076088
20
-0.900312857846899
30
0
41
1
10
44.8068621012058
20
-0.899710236928954
30
0
41
1
10
44.80061290704
20
-0.899122841242018
30
0
41
1
10
44.794612477522
20
-0.898549482166871
30
0
41
1
10
44.788860859349
20
-0.897989035232825
30
0
41
1
10
44.7833580939794
20
-0.897440440141295
30
0
41
1
10
44.7781042180776
20
-0.896902700786555
30
0
41
1
10
44.7730992639364
20
-0.896374885273843
30
0
41
1
10
44.7683432598683
20
-0.895856125935055
30
0
41
1
10
44.7638362305725
20
-0.895345619342351
30
0
41
1
10
44.7595781974743
20
-0.894842626319814
30
0
41
1
10
44.755569179035
20
-0.894346471953341
30
0
41
1
10
44.7518091910506
20
-0.893856545599448
30
0
41
1
10
44.7482982468563
20
-0.893372300890448
30
0
41
1
10
44.7450363577625
20
-0.892893255747595
30
0
41
1
10
44.7420235324954
20
-0.892418992358259
30
0
41
1
10
44.7392597802334
20
-0.89194915728288
30
0
41
1
10
44.7367451000565
20
-0.891483461071971
30
0
41
1
10
44.7344795211292
20
-0.891021679712807
30
0
41
1
10
44.7324629528289
20
-0.890563649223481
30
0
41
1
10
44.730105965876
20
-0.889957648497187
30
0
41
1
10
44.7277905366939
20
-0.889212266607373
30
0
41
1
10
44.7260332399139
20
-0.888339381187279
30
0
41
1
10
44.7253041265159
20
-0.887491659533069
30
0
41
1
10
44.7256029859086
20
-0.886671671163612
30
0
41
1
10
44.726929794733
20
-0.885883018195045
30
0
41
1
10
44.7292844346781
20
-0.885130331010586
30
0
41
1
10
44.7326667579833
20
-0.884419269169115
30
0
41
1
10
44.7370765581948
20
-0.883756520815226
30
0
41
1
10
44.7425135637512
20
-0.883149802268335
30
0
41
1
10
44.7489774244362
20
-0.882607857646917
30
0
41
1
10
44.7564676934971
20
-0.882140457276407
30
0
41
1
10
44.7649838241026
20
-0.881758399846404
30
0
41
1
10
44.7745251026513
20
-0.881473499493083
30
0
41
1
10
44.7850908105917
20
-0.881298628001773
30
0
41
1
10
44.7966795234658
20
-0.881247549408556
30
0
41
1
10
44.8092916315307
20
-0.881335530035173
30
0
41
1
10
44.8229197847395
20
-0.881577041945661
30
0
41
1
10
44.8375845966591
20
-0.881994359893923
30
0
41
1
10
44.8532005615346
20
-0.882585291324432
30
0
41
1
10
44.8644270365035
20
-0.883156648058446
30
0
41
1
10
44.8700524229463
20
-0.883442944730774
30
0
0
SPLINE
5
24F
100
AcDbEntity
8
1
62
256
6
ByLayer
370
18
48
1
60
0
100
AcDbSpline
70
4
71
3
72
33
73
29
40
0
40
0
40
0
40
0
40
0.0372606820780264
40
0.074604688312791
40
0.11203367897439
40
0.149549303049026
40
0.187153198124962
40
0.224846990285014
40
0.262632294004992
40
0.30051071205841
40
0.338483835427358
40
0.376553243219394
40
0.414720502590299
40
0.452987168672851
40
0.491354784511282
40
0.529824881001519
40
0.568398976837106
40
0.607078578460434
40
0.645865180019671
40
0.684760263330887
40
0.723765297845345
40
0.762881740621975
40
0.802111036304928
40
0.841454617105933
40
0.88091390279141
40
0.920490300674317
40
0.960185205610626
40
1
40
1
40
1
40
1
41
1
10
44.433393834932
20
-0.907440245436391
30
0
41
1
10
44.4397535099009
20
-0.907146921020072
30
0
41
1
10
44.4524870816545
20
-0.906559616241054
30
0
41
1
10
44.471871409083
20
-0.905776667306867
30
0
41
1
10
44.4914896994157
20
-0.905069573152133
30
0
41
1
10
44.5113607051392
20
-0.904449528914242
30
0
41
1
10
44.531478974368
20
-0.903919101302009
30
0
41
1
10
44.5518455016383
20
-0.903483253055043
30
0
41
1
10
44.5724594843487
20
-0.903146378204383
30
0
41
1
10
44.5933205370526
20
-0.902913098696573
30
0
41
1
10
44.6144280936647
20
-0.902788049566041
30
0
41
1
10
44.6357815658384
20
-0.902775936054084
30
0
41
1
10
44.6573802979639
20
-0.902881517550199
30
0
41
1
10
44.6792235768389
20
-0.903109611169398
30
0
41
1
10
44.7013106266066
20
-0.903465089997326
30
0
41
1
10
44.7236406076453
20
-0.903952882737258
30
0
41
1
10
44.7462126143258
20
-0.904577972870456
30
0
41
1
10
44.7690256732231
20
-0.905345398121653
30
0
41
1
10
44.7920787405372
20
-0.906260248945827
30
0
41
1
10
44.815370702136
20
-0.90732767038844
30
0
41
1
10
44.8389003637623
20
-0.908552851125236
30
0
41
1
10
44.8626664780127
20
-0.909941060336294
30
0
41
1
10
44.8866676334327
20
-0.911497505081996
30
0
41
1
10
44.9109026603628
20
-0.913227860258218
30
0
41
1
10
44.935369099742
20
-0.915136277243548
30
0
41
1
10
44.9600689329296
20
-0.917232843530044
30
0
41
1
10
44.9849870921837
20
-0.919505613336113
30
0
41
1
10
45.0017515676471
20
-0.921182959671896
30
0
41
1
10
45.0101464446152
20
-0.922022897441067
30
0
0
SPLINE
5
250
100
AcDbEntity
8
1
62
256
6
ByLayer
370
13
48
1
60
0
100
AcDbSpline
70
4
71
3
72
21
73
17
40
0
40
0
40
0
40
0
40
0.050449851318477
40
0.1009514872341
40
0.151505792458399
40
0.202113648941099
40
0.252775935835575
40
0.303493529465124
40
0.354267303289753
40
0.405098127873754
40
0.455986870853846
40
0.506934396908108
40
0.621048092298474
40
0.741259008467223
40
0.867574265796311
40
1
40
1
40
1
40
1
41
1
10
48.735516553477
20
-1.16229865716208
30
0
41
1
10
48.7445120610426
20
-1.16442618235686
30
0
41
1
10
48.7625123096745
20
-1.16868341655929
30
0
41
1
10
48.7893120127278
20
-1.17522887817476
30
0
41
1
10
48.8159810810395
20
-1.18189094945244
30
0
41
1
10
48.8425033144861
20
-1.18867783001785
30
0
41
1
10
48.8688820396312
20
-1.19558316676795
30
0
41
1
10
48.8951153979934
20
-1.20260457084993
30
0
41
1
10
48.9212029808826
20
-1.20973864482536
30
0
41
1
10
48.9471440289834
20
-1.21698233382044
30
0
41
1
10
48.9729379805025
20
-1.22433250480451
30
0
41
1
10
49.0091729190359
20
-1.23486382065269
30
0
41
1
10
49.0565029939762
20
-1.24905149172474
30
0
41
1
10
49.1154938679355
20
-1.26742540245236
30
0
41
1
10
49.1767304722046
20
-1.28712589334739
30
0
41
1
10
49.2179251677183
20
-1.30090697903923
30
0
41
1
10
49.2390089463897
20
-1.30796025026639
30
0
0
SPLINE
5
251
100
AcDbEntity
8
1
62
256
6
ByLayer
370
13
48
1
60
0
100
AcDbSpline
70
4
71
3
72
48
73
44
40
0
40
0
40
0
40
0
40
0.0260635153643807
40
0.0516836499005479
40
0.0768614432150177
40
0.101597990685318
40
0.125894447368185
40
0.149752032240856
40
0.173172032808548
40
0.196155810114294
40
0.218704804191667
40
0.240820540005151
40
0.262504633927767
40
0.311524981961351
40
0.361897692562659
40
0.413648998192905
40
0.466803089549292
40
0.52138229135335
40
0.588747222738284
40
0.652897144986489
40
0.713869602335577
40
0.771708327014456
40
0.787967473696666
40
0.803656463810088
40
0.818777687086526
40
0.83333381289786
40
0.847327833998536
40
0.860763118780703
40
0.873643473996242
40
0.885973220403925
40
0.897757284439071
40
0.909001309812889
40
0.919711793964137
40
0.929896255542148
40
0.939563440616134
40
0.948723577057551
40
0.957388688410156
40
0.965572980233288
40
0.973293312694539
40
0.98056977177566
40
0.987426345482293
40
0.993891697137516
40
1
40
1
40
1
40
1
41
1
10
49.2390089463969
20
-1.30796025026879
30
0
41
1
10
49.2461121637577
20
-1.31034783763428
30
0
41
1
10
49.2601977617328
20
-1.31508239580033
30
0
41
1
10
49.2814530167406
20
-1.32211960378247
30
0
41
1
10
49.3025728978274
20
-1.32903415807529
30
0
41
1
10
49.3235783722671
20
-1.33582738181455
30
0
41
1
10
49.3444638388286
20
-1.34250106937886
30
0
41
1
10
49.3652306410866
20
-1.3490569241071
30
0
41
1
10
49.3858781931761
20
-1.35549671887445
30
0
41
1
10
49.4064067592919
20
-1.36182220364138
30
0
41
1
10
49.4268150399712
20
-1.36803531267398
30
0
41
1
10
49.4471069231425
20
-1.37413744610474
30
0
41
1
10
49.475872430745
20
-1.38269067314845
30
0
41
1
10
49.5143998784963
20
-1.39387102310869
30
0
41
1
10
49.5642031062338
20
-1.40792995262444
30
0
41
1
10
49.616968604388
20
-1.42256588523713
30
0
41
1
10
49.6726888972294
20
-1.43788450949475
30
0
41
1
10
49.7354420462057
20
-1.4551168723364
30
0
41
1
10
49.8037061907213
20
-1.47404508225438
30
0
41
1
10
49.8761355167844
20
-1.4944307120183
30
0
41
1
10
49.946873454248
20
-1.51466028614196
30
0
41
1
10
50.0005572084151
20
-1.53029659295302
30
0
41
1
10
50.0369657465577
20
-1.54103268800422
30
0
41
1
10
50.0562688345613
20
-1.54674384101779
30
0
41
1
10
50.0750854001755
20
-1.55233006215055
30
0
41
1
10
50.0934179506194
20
-1.55778834258476
30
0
41
1
10
50.1112659903393
20
-1.56311563977927
30
0
41
1
10
50.1286298304327
20
-1.5683089755924
30
0
41
1
10
50.1455096262313
20
-1.57336541279164
30
0
41
1
10
50.1619056235544
20
-1.57828206263974
30
0
41
1
10
50.1778181012306
20
-1.58305608502178
30
0
41
1
10
50.1932473921208
20
-1.58768469099439
30
0
41
1
10
50.2081938871577
20
-1.59216514529481
30
0
41
1
10
50.2226580463802
20
-1.59649476998212
30
0
41
1
10
50.2366404142909
20
-1.60067094767236
30
0
41
1
10
50.250141632033
20
-1.6046911295889
30
0
41
1
10
50.2631624789453
20
-1.60855283050087
30
0
41
1
10
50.2757038294576
20
-1.61225367099323
30
0
41
1
10
50.2877669093352
20
-1.61579125629488
30
0
41
1
10
50.2993525154486
20
-1.61916360555767
30
0
41
1
10
50.3104637211044
20
-1.62236767532609
30
0
41
1
10
50.321096523681
20
-1.62540434702474
30
0
41
1
10
50.3280626807881
20
-1.62736025960918
30
0
41
1
10
50.3314468518211
20
-1.62831044528681
30
0
0
SPLINE
5
252
100
AcDbEntity
8
1
62
256
6
ByLayer
370
13
48
1
60
0
100
AcDbSpline
70
4
71
2
72
6
73
3
40
0
40
0
40
0
40
1
40
1
40
1
41
1
10
50.3314468363998
20
-1.62831044163045
30
0
41
1
10
50.5591784102234
20
-1.6876234139182
30
0
41
1
10
51.3640973290848
20
-1.89444741167203
30
0
0
SPLINE
5
253
100
AcDbEntity
8
1
62
256
6
ByLayer
370
18
48
1
60
0
100
AcDbSpline
70
4
71
3
72
32
73
28
40
0
40
0
40
0
40
0
40
0.125000000000157
40
0.125000000000157
40
0.250000000000314
40
0.250000000000314
40
0.281250000000353
40
0.281250000000353
40
0.312500000000393
40
0.375000000000423
40
0.375000000000423
40
0.500000000000436
40
0.500000000000436
40
0.53125000000044
40
0.53125000000044
40
0.562500000000444
40
0.625000000000407
40
0.625000000000407
40
0.750000000000334
40
0.750000000000334
40
0.781250000000291
40
0.781250000000291
40
0.812500000000248
40
0.812500000000248
40
0.875000000000164
40
0.875000000000164
40
1
40
1
40
1
40
1
41
1
10
49.0593642176805
20
1.73438486244503
30
0
41
1
10
49.1248012127651
20
1.72872048184207
30
0
41
1
10
49.1897018043696
20
1.72303240442547
30
0
41
1
10
49.3184804888724
20
1.71161107844186
30
0
41
1
10
49.3823584638102
20
1.70587782466421
30
0
41
1
10
49.4615468339798
20
1.69868214030309
30
0
41
1
10
49.4773628857788
20
1.69724046069854
30
0
41
1
10
49.5086436256855
20
1.69438014448745
30
0
41
1
10
49.5551434466142
20
1.69011464271472
30
0
41
1
10
49.600401589308
20
1.68592274331282
30
0
41
1
10
49.6892900646195
20
1.67763543543381
30
0
41
1
10
49.7463892391643
20
1.6722385894865
30
0
41
1
10
49.8149957528324
20
1.66565657713888
30
0
41
1
10
49.828604360456
20
1.66434585878324
30
0
41
1
10
49.8554064815442
20
1.66175395970498
30
0
41
1
10
49.8949125258111
20
1.65791768194846
30
0
41
1
10
49.932366507735
20
1.65423320586876
30
0
41
1
10
50.0045909506131
20
1.6470627676516
30
0
41
1
10
50.0491798110801
20
1.64254588396267
30
0
41
1
10
50.1003763674166
20
1.63723559109593
30
0
41
1
10
50.1103873249467
20
1.63619042503096
30
0
41
1
10
50.1299445775435
20
1.63413446638947
30
0
41
1
10
50.1394752644864
20
1.6331252828915
30
0
41
1
10
50.1671424983904
20
1.63017342255587
30
0
41
1
10
50.1844290375801
20
1.62829862430716
30
0
41
1
10
50.2328629420225
20
1.6229496055997
30
0
41
1
10
50.2606074410061
20
1.61974892463358
30
0
41
1
10
50.2836666288607
20
1.61692487252296
30
0
0
SPLINE
5
254
100
AcDbEntity
8
1
62
256
6
ByLayer
370
13
48
1
60
0
100
AcDbSpline
70
4
71
2
72
6
73
3
40
0
40
0
40
0
40
1
40
1
40
1
41
1
10
48.8894803441949
20
-0.848920048904958
30
0
41
1
10
48.9759640599369
20
0.449758910524977
30
0
41
1
10
49.0593641876395
20
1.73438486391298
30
0
0
SPLINE
5
255
100
AcDbEntity
8
1
62
256
6
ByLayer
370
18
48
1
60
0
100
AcDbSpline
70
4
71
3
72
8
73
4
40
0
40
0
40
0
40
0
40
1
40
1
40
1
40
1
41
1
10
49.0486532197137
20
-0.885372793912921
30
0
41
1
10
48.9959849196664
20
-0.870984677068208
30
0
41
1
10
48.9429386509795
20
-0.858777813601563
30
0
41
1
10
48.8894804197985
20
-0.848920052803578
30
0
0
SPLINE
5
256
100
AcDbEntity
8
1
62
256
6
ByLayer
370
18
48
1
60
0
100
AcDbSpline
70
4
71
3
72
31
73
27
40
0
40
0
40
0
40
0
40
0.125000000000056
40
0.125000000000056
40
0.250000000000113
40
0.250000000000113
40
0.281250000000127
40
0.281250000000127
40
0.312500000000141
40
0.312500000000141
40
0.37500000000014
40
0.37500000000014
40
0.500000000000137
40
0.500000000000137
40
0.562500000000136
40
0.562500000000136
40
0.593750000000134
40
0.593750000000134
40
0.625000000000133
40
0.625000000000133
40
0.750000000000088
40
0.875000000000044
40
0.875000000000044
40
0.937500000000022
40
0.937500000000022
40
1
40
1
40
1
40
1
41
1
10
50.5070503785008
20
-1.38164293234777
30
0
41
1
10
50.4764579625929
20
-1.36591225938434
30
0
41
1
10
50.4408850394748
20
-1.3491693821977
30
0
41
1
10
50.3603687202537
20
-1.31377923698045
30
0
41
1
10
50.3154223980559
20
-1.29513137427043
30
0
41
1
10
50.2533481453068
20
-1.27062422819993
30
0
41
1
10
50.2406372305047
20
-1.26566262891197
30
0
41
1
10
50.2146163697842
20
-1.2556176873489
30
0
41
1
10
50.2012776706822
20
-1.25052353422215
30
0
41
1
10
50.1605868459722
20
-1.23514520980025
30
0
41
1
10
50.1325987221757
20
-1.22477845827345
30
0
41
1
10
50.0461333415401
20
-1.19334546903012
30
0
41
1
10
49.9851679753431
20
-1.17194821285382
30
0
41
1
10
49.8888114582344
20
-1.13919930526035
30
0
41
1
10
49.8558712601929
20
-1.12817372899806
30
0
41
1
10
49.8052082352443
20
-1.11146870148991
30
0
41
1
10
49.7880807129167
20
-1.1058625543362
30
0
41
1
10
49.7535563154028
20
-1.0946440257201
30
0
41
1
10
49.7361859851601
20
-1.08904010060843
30
0
41
1
10
49.648802802877
20
-1.06104672040082
30
0
41
1
10
49.5056047931851
20
-1.01642444879158
30
0
41
1
10
49.3558197757272
20
-0.972127423134651
30
0
41
1
10
49.2409188048593
20
-0.939031167741291
30
0
41
1
10
49.202487718262
20
-0.928106434913559
30
0
41
1
10
49.12563072653
20
-0.906543400501889
30
0
41
1
10
49.0871620347623
20
-0.895892771394116
30
0
41
1
10
49.0486532197137
20
-0.885372793912921
30
0
0
SPLINE
5
257
100
AcDbEntity
8
1
62
256
6
ByLayer
370
13
48
1
60
0
100
AcDbSpline
70
4
71
3
72
16
73
12
40
0
40
0
40
0
40
0
40
0.110049289743521
40
0.220364008506015
40
0.330944167562092
40
0.441789778190882
40
0.552900851675943
40
0.664277399305173
40
0.775919432370713
40
0.887826962168867
40
1
40
1
40
1
40
1
41
1
10
50.2836666946742
20
1.61692489415614
30
0
41
1
10
50.2920581224674
20
1.50689968873354
30
0
41
1
10
50.3088612174253
20
1.2865839069586
30
0
41
1
10
50.3339197705603
20
0.955737723363924
30
0
41
1
10
50.3589086329164
20
0.624114250849857
30
0
41
1
10
50.3838140901093
20
0.291715419636603
30
0
41
1
10
50.4086382012213
20
-0.0414591274782481
30
0
41
1
10
50.4333798818421
20
-0.375409290286043
30
0
41
1
10
50.4580347705822
20
-0.710134500421901
30
0
41
1
10
50.4826148180669
20
-1.04563652908661
30
0
41
1
10
50.4988988347934
20
-1.26955234061664
30
0
41
1
10
50.5070504904395
20
-1.38164290279026
30
0
0
SPLINE
5
258
100
AcDbEntity
8
1
62
256
6
ByLayer
370
18
48
1
60
0
100
AcDbSpline
70
4
71
2
72
8
73
5
40
0
40
0
40
0
40
0.5
40
0.5
40
1
40
1
40
1
41
1
10
46.3349248407895
20
-0.980908689773059
30
0
41
1
10
46.7571693147631
20
-1.01745916714431
30
0
41
1
10
47.1394627951972
20
-0.998282564277844
30
0
41
1
10
47.5743840814357
20
-0.976466045788172
30
0
41
1
10
47.935948148968
20
-0.88339836966739
30
0
0
SPLINE
5
259
100
AcDbEntity
8
1
62
256
6
ByLayer
370
13
48
1
60
0
100
AcDbSpline
70
4
71
2
72
12
73
9
40
0
40
0
40
0
40
0.25
40
0.25
40
0.5
40
0.5
40
0.75
40
0.75
40
1
40
1
40
1
41
1
10
48.5074888466152
20
-1.19552690119988
30
0
41
1
10
48.372347767942
20
-1.18222702517431
30
0
41
1
10
47.9680356398451
20
-1.14226746635765
30
0
41
1
10
47.6554467789864
20
-1.11137323365254
30
0
41
1
10
47.4306060221288
20
-1.08916608482375
30
0
41
1
10
47.1577466208785
20
-1.06221621409038
30
0
41
1
10
46.8845922434298
20
-1.03524505621228
30
0
41
1
10
46.6801329293326
20
-1.01505682239493
30
0
41
1
10
46.3349248407896
20
-0.980908689773059
30
0
0
SPLINE
5
25A
100
AcDbEntity
8
1
62
256
6
ByLayer
370
13
48
1
60
0
100
AcDbSpline
70
4
71
2
72
6
73
3
40
0
40
0
40
0
40
1
40
1
40
1
41
1
10
48.735516553477
20
-1.16229865716208
30
0
41
0.987555901011556
10
48.6221553524436
20
-1.20407891342077
30
0
41
1
10
48.507488845368
20
-1.19552690109192
30
0
0
SPLINE
5
25B
100
AcDbEntity
8
1
62
256
6
ByLayer
370
13
48
1
60
0
100
AcDbSpline
70
4
71
3
72
32
73
28
40
0
40
0
40
0
40
0
40
0.0486157691735072
40
0.0960473848986439
40
0.142295358940448
40
0.18736024338897
40
0.231242634987989
40
0.273943180057645
40
0.315462580110394
40
0.355801598280553
40
0.394961066711805
40
0.432941895078127
40
0.469745080451864
40
0.505371718780481
40
0.549475019660187
40
0.592556493655206
40
0.634618959625511
40
0.675665446370873
40
0.715699213285538
40
0.754723773515033
40
0.792742919970495
40
0.829760754611933
40
0.865781721478392
40
0.900810644020044
40
0.934852767377806
40
0.967913806361493
40
1
40
1
40
1
40
1
41
1
10
47.9359492675038
20
-0.883402617348636
30
0
41
1
10
47.9471303478142
20
-0.888364334963441
30
0
41
1
10
47.9692201664557
20
-0.898166915681799
30
0
41
1
10
48.0022768294354
20
-0.91259183725397
30
0
41
1
10
48.0347617147028
20
-0.926583245532768
30
0
41
1
10
48.0666971231959
20
-0.94013583532147
30
0
41
1
10
48.0980776414452
20
-0.953252624607899
30
0
41
1
10
48.1289050018248
20
-0.96593453176358
30
0
41
1
10
48.1591790928633
20
-0.978183063441776
30
0
41
1
10
48.1889002832744
20
-0.989999619317572
30
0
41
1
10
48.2180687878832
20
-1.0013856830703
30
0
41
1
10
48.2466849557419
20
-1.01234273119955
30
0
41
1
10
48.2747487457077
20
-1.02287240777635
30
0
41
1
10
48.3047460214167
20
-1.0338883516403
30
0
41
1
10
48.3368367110321
20
-1.04537616457154
30
0
41
1
10
48.3711918925052
20
-1.0573225564325
30
0
41
1
10
48.4053312839561
20
-1.06884440227097
30
0
41
1
10
48.4392555972098
20
-1.07994811006615
30
0
41
1
10
48.4729659708095
20
-1.09064022514335
30
0
41
1
10
48.5064633688115
20
-1.10092760991506
30
0
41
1
10
48.5397489259652
20
-1.11081737065622
30
0
41
1
10
48.5728231381038
20
-1.12031697959506
30
0
41
1
10
48.6056886138771
20
-1.12943388022249
30
0
41
1
10
48.6383402158987
20
-1.13817689636099
30
0
41
1
10
48.6708002999769
20
-1.14655119690377
30
0
41
1
10
48.7029926997849
20
-1.15457630098442
30
0
41
1
10
48.724783961738
20
-1.15975034610085
30
0
41
1
10
48.735516553477
20
-1.16229865716208
30
0
0
LINE
5
77
100
AcDbEntity
8
80
62
256
6
ByLayer
370
18
48
1
60
0
100
AcDbLine
10
0
20
0
30
0
11
-5
21
0
31
0
39
0
210
0
220
0
230
1
0
LINE
5
78
100
AcDbEntity
8
81
62
256
6
ByLayer
370
18
48
1
60
0
100
AcDbLine
10
51.5
20
12.5
30
0
11
56.5
21
12.5
31
0
39
0
210
0
220
0
230
1
0
LINE
5
79
100
AcDbEntity
8
SK4
62
256
6
ByLayer
370
18
48
0.05
60
0
100
AcDbLine
10
-103.5
20
0
30
0
11
56.5
21
0
31
0
39
0
210
0
220
0
230
1
0
LINE
5
7B
100
AcDbEntity
8
1
62
256
6
ByLayer
370
18
48
1
60
0
100
AcDbLine
10
0.099726
20
12.222598
30
0
11
0
21
12.280175
31
0
39
0
210
0
220
0
230
1
0
LINE
5
7C
100
AcDbEntity
8
1
62
256
6
ByLayer
370
18
48
1
60
0
100
AcDbLine
10
0
20
-12.280175
30
0
11
0.099726
21
-12.222598
31
0
39
0
210
0
220
0
230
1
0
LINE
5
7D
100
AcDbEntity
8
1
62
256
6
ByLayer
370
18
48
1
60
0
100
AcDbLine
10
41.940838
20
11.162907
30
0
11
41.610698
21
11.087368
31
0
39
0
210
0
220
0
230
1
0
LINE
5
7E
100
AcDbEntity
8
1
62
256
6
ByLayer
370
18
48
1
60
0
100
AcDbLine
10
41.247405
20
11.0387
30
0
11
39.660665
21
10.972957
31
0
39
0
210
0
220
0
230
1
0
LINE
5
7F
100
AcDbEntity
8
1
62
256
6
ByLayer
370
18
48
1
60
0
100
AcDbLine
10
41.610698
20
-11.087368
30
0
11
42.336692
21
-11.253481
31
0
39
0
210
0
220
0
230
1
0
LINE
5
80
100
AcDbEntity
8
1
62
256
6
ByLayer
370
18
48
1
60
0
100
AcDbLine
10
39.660665
20
-10.972957
30
0
11
41.247405
21
-11.0387
31
0
39
0
210
0
220
0
230
1
0
LINE
5
81
100
AcDbEntity
8
1
62
256
6
ByLayer
370
18
48
1
60
0
100
AcDbLine
10
39.224434
20
10.968921
30
0
11
5.614498
21
11.738877
31
0
39
0
210
0
220
0
230
1
0
LINE
5
82
100
AcDbEntity
8
1
62
256
6
ByLayer
370
18
48
1
60
0
100
AcDbLine
10
5.614498
20
-11.738877
30
0
11
39.224434
21
-10.968921
31
0
39
0
210
0
220
0
230
1
0
LINE
5
83
100
AcDbEntity
8
1
62
256
6
ByLayer
370
18
48
1
60
0
100
AcDbLine
10
5.385472
20
11.7415
30
0
11
1.5
21
11.7415
31
0
39
0
210
0
220
0
230
1
0
LINE
5
84
100
AcDbEntity
8
1
62
256
6
ByLayer
370
18
48
1
60
0
100
AcDbLine
10
1.5
20
-11.7415
30
0
11
5.385472
21
-11.7415
31
0
39
0
210
0
220
0
230
1
0
LINE
5
85
100
AcDbEntity
8
SK1
62
256
6
ByLayer
370
18
48
1
60
0
100
AcDbLine
10
0
20
12.280175
30
0
11
-0.366025
21
12.4915
31
0
39
0
210
0
220
0
230
1
0
LINE
5
87
100
AcDbEntity
8
SK1
62
256
6
ByLayer
370
18
48
1
60
0
100
AcDbLine
10
-0.366025
20
-12.4915
30
0
11
0
21
-12.280175
31
0
39
0
210
0
220
0
230
1
0
LINE
5
88
100
AcDbEntity
8
SK1
62
256
6
ByLayer
370
18
48
1
60
0
100
AcDbLine
10
-97.5
20
-12.4915
30
0
11
-0.366025
21
-12.4915
31
0
39
0
210
0
220
0
230
1
0
LINE
5
89
100
AcDbEntity
8
SK1
62
256
6
ByLayer
370
18
48
1
60
0
100
AcDbLine
10
-0.366025
20
12.4915
30
0
11
-97.5
21
12.4915
31
0
39
0
210
0
220
0
230
1
0
LINE
5
8A
100
AcDbEntity
8
SK1
62
256
6
ByLayer
370
18
48
1
60
0
100
AcDbLine
10
-98.5
20
-11.4915
30
0
11
-97.5
21
-12.4915
31
0
39
0
210
0
220
0
230
1
0
LINE
5
8B
100
AcDbEntity
8
SK1
62
256
6
ByLayer
370
18
48
1
60
0
100
AcDbLine
10
-97.5
20
12.4915
30
0
11
-98.5
21
11.4915
31
0
39
0
210
0
220
0
230
1
0
LINE
5
8C
100
AcDbEntity
8
1
62
256
6
ByLayer
370
18
48
1
60
0
100
AcDbLine
10
46.485808
20
10.101559
30
0
11
46.565781
21
10.021891
31
0
39
0
210
0
220
0
230
1
0
LINE
5
8D
100
AcDbEntity
8
1
62
256
6
ByLayer
370
18
48
1
60
0
100
AcDbLine
10
46.137912
20
8.801073
30
0
11
46.062333
21
8.876364
31
0
39
0
210
0
220
0
230
1
0
LINE
5
8E
100
AcDbEntity
8
1
62
256
6
ByLayer
370
18
48
1
60
0
100
AcDbLine
10
47.478513
20
9.635178
30
0
11
47.554035
21
9.559943
31
0
39
0
210
0
220
0
230
1
0
LINE
5
8F
100
AcDbEntity
8
1
62
256
6
ByLayer
370
18
48
1
60
0
100
AcDbLine
10
47.115625
20
8.349627
30
0
11
47.046193
21
8.418794
31
0
39
0
210
0
220
0
230
1
0
LINE
5
90
100
AcDbEntity
8
1
62
256
6
ByLayer
370
18
48
1
60
0
100
AcDbLine
10
48.05469
20
10.411273
30
0
11
47.978223
21
10.487448
31
0
39
0
210
0
220
0
230
1
0
LINE
5
91
100
AcDbEntity
8
1
62
256
6
ByLayer
370
18
48
1
60
0
100
AcDbLine
10
45.543359
20
8.043284
30
0
11
45.619826
21
7.967108
31
0
39
0
210
0
220
0
230
1
0
LINE
5
92
100
AcDbEntity
8
1
62
256
6
ByLayer
370
18
48
1
60
0
100
AcDbLine
10
0
20
-12.280175
30
0
11
0
21
12.280175
31
0
39
0
210
0
220
0
230
1
0
LINE
5
93
100
AcDbEntity
8
1
62
256
6
ByLayer
370
18
48
1
60
0
100
AcDbLine
10
50.524267
20
-1.689899
30
0
11
50.524267
21
-6.220844
31
0
39
0
210
0
220
0
230
1
0
LINE
5
94
100
AcDbEntity
8
1
62
256
6
ByLayer
370
13
48
1
60
0
100
AcDbLine
10
50.495206
20
-1.682183
30
0
11
50.495206
21
-5.351742
31
0
39
0
210
0
220
0
230
1
0
LINE
5
95
100
AcDbEntity
8
1
62
256
6
ByLayer
370
13
48
1
60
0
100
AcDbLine
10
50.49481
20
-5.356453
30
0
11
50.49481
21
-1.682042
31
0
39
0
210
0
220
0
230
1
0
LINE
5
96
100
AcDbEntity
8
1
62
256
6
ByLayer
370
13
48
1
60
0
100
AcDbLine
10
50.419669
20
-1.958581
30
0
11
50.419669
21
-3.823669
31
0
39
0
210
0
220
0
230
1
0
LINE
5
97
100
AcDbEntity
8
1
62
256
6
ByLayer
370
13
48
1
60
0
100
AcDbLine
10
41.610698
20
11.087368
30
0
11
41.610698
21
11.084209
31
0
39
0
210
0
220
0
230
1
0
LINE
5
98
100
AcDbEntity
8
1
62
256
6
ByLayer
370
13
48
1
60
0
100
AcDbLine
10
41.247405
20
11.0387
30
0
11
41.247405
21
11.036167
31
0
39
0
210
0
220
0
230
1
0
LINE
5
99
100
AcDbEntity
8
1
62
256
6
ByLayer
370
18
48
1
60
0
100
AcDbLine
10
48.409005
20
-10.30036
30
0
11
48.5084
21
-8.875537
31
0
39
0
210
0
220
0
230
1
0
LINE
5
9A
100
AcDbEntity
8
1
62
256
6
ByLayer
370
13
48
1
60
0
100
AcDbLine
10
48.616492
20
-8.87819
30
0
11
48.5084
21
-8.875537
31
0
39
0
210
0
220
0
230
1
0
LINE
5
9B
100
AcDbEntity
8
1
62
256
6
ByLayer
370
18
48
1
60
0
100
AcDbLine
10
45.924603
20
-8.683647
30
0
11
45.831847
21
-10.013309
31
0
39
0
210
0
220
0
230
1
0
LINE
5
9C
100
AcDbEntity
8
1
62
256
6
ByLayer
370
13
48
1
60
0
100
AcDbLine
10
45.876159
20
-8.677178
30
0
11
45.924603
21
-8.683647
31
0
39
0
210
0
220
0
230
1
0
LINE
5
9D
100
AcDbEntity
8
1
62
256
6
ByLayer
370
18
48
1
60
0
100
AcDbLine
10
48.616492
20
-8.87819
30
0
11
48.520243
21
-10.257922
31
0
39
0
210
0
220
0
230
1
0
LINE
5
9E
100
AcDbEntity
8
1
62
256
6
ByLayer
370
13
48
1
60
0
100
AcDbLine
10
48.616492
20
-8.87819
30
0
11
48.724977
21
-8.819346
31
0
39
0
210
0
220
0
230
1
0
LINE
5
9F
100
AcDbEntity
8
1
62
256
6
ByLayer
370
13
48
1
60
0
100
AcDbLine
10
43.61837
20
-9.329508
30
0
11
43.61837
21
-11.149498
31
0
39
0
210
0
220
0
230
1
0
LINE
5
A0
100
AcDbEntity
8
1
62
256
6
ByLayer
370
18
48
1
60
0
100
AcDbLine
10
50.524267
20
-10.018773
30
0
11
50.524267
21
-7.322664
31
0
39
0
210
0
220
0
230
1
0
LINE
5
A1
100
AcDbEntity
8
1
62
256
6
ByLayer
370
13
48
1
60
0
100
AcDbLine
10
50.240656
20
-8.395942
30
0
11
50.240656
21
-10.863929
31
0
39
0
210
0
220
0
230
1
0
LINE
5
A2
100
AcDbEntity
8
1
62
256
6
ByLayer
370
13
48
1
60
0
100
AcDbLine
10
49.056104
20
-11.61219
30
0
11
49.056104
21
-9.470705
31
0
39
0
210
0
220
0
230
1
0
LINE
5
A3
100
AcDbEntity
8
1
62
256
6
ByLayer
370
13
48
1
60
0
100
AcDbLine
10
43.116635
20
-11.129143
30
0
11
43.116635
21
-9.071661
31
0
39
0
210
0
220
0
230
1
0
LINE
5
A4
100
AcDbEntity
8
1
62
256
6
ByLayer
370
13
48
1
60
0
100
AcDbLine
10
41.610698
20
-7.399814
30
0
11
41.610698
21
-11.087368
31
0
39
0
210
0
220
0
230
1
0
LINE
5
A5
100
AcDbEntity
8
1
62
256
6
ByLayer
370
13
48
1
60
0
100
AcDbLine
10
45.833942
20
5.643431
30
0
11
45.969101
21
7.188168
31
0
39
0
210
0
220
0
230
1
0
LINE
5
A6
100
AcDbEntity
8
1
62
256
6
ByLayer
370
13
48
1
60
0
100
AcDbLine
10
45.833942
20
5.643431
30
0
11
45.908746
21
5.554145
31
0
39
0
210
0
220
0
230
1
0
LINE
5
A7
100
AcDbEntity
8
1
62
256
6
ByLayer
370
18
48
1
60
0
100
AcDbLine
10
45.745104
20
5.667896
30
0
11
45.833942
21
5.643431
31
0
39
0
210
0
220
0
230
1
0
LINE
5
A8
100
AcDbEntity
8
1
62
256
6
ByLayer
370
13
48
1
60
0
100
AcDbLine
10
41.247405
20
-11.0387
30
0
11
41.247405
21
-6.71523
31
0
39
0
210
0
220
0
230
1
0
LINE
5
A9
100
AcDbEntity
8
1
62
256
6
ByLayer
370
18
48
1
60
0
100
AcDbLine
10
50.524267
20
1.584608
30
0
11
50.524267
21
7.628056
31
0
39
0
210
0
220
0
230
1
0
LINE
5
AA
100
AcDbEntity
8
1
62
256
6
ByLayer
370
13
48
1
60
0
100
AcDbLine
10
39.661171
20
10.972969
30
0
11
39.661171
21
10.965246
31
0
39
0
210
0
220
0
230
1
0
LINE
5
AB
100
AcDbEntity
8
1
62
256
6
ByLayer
370
13
48
1
60
0
100
AcDbLine
10
41.247405
20
-1.053662
30
0
11
41.247405
21
9.234762
31
0
39
0
210
0
220
0
230
1
0
LINE
5
AC
100
AcDbEntity
8
1
62
256
6
ByLayer
370
13
48
1
60
0
100
AcDbLine
10
43.116635
20
2.229568
30
0
11
43.116635
21
7.60975
31
0
39
0
210
0
220
0
230
1
0
LINE
5
AD
100
AcDbEntity
8
1
62
256
6
ByLayer
370
13
48
1
60
0
100
AcDbLine
10
41.610698
20
8.782348
30
0
11
41.610698
21
-1.085384
31
0
39
0
210
0
220
0
230
1
0
LINE
5
AE
100
AcDbEntity
8
1
62
256
6
ByLayer
370
13
48
1
60
0
100
AcDbLine
10
43.61837
20
7.401606
30
0
11
43.61837
21
2.444183
31
0
39
0
210
0
220
0
230
1
0
LINE
5
AF
100
AcDbEntity
8
1
62
256
6
ByLayer
370
13
48
1
60
0
100
AcDbLine
10
5.614498
20
-11.738877
30
0
11
5.614498
21
11.738877
31
0
39
0
210
0
220
0
230
1
0
LINE
5
B0
100
AcDbEntity
8
1
62
256
6
ByLayer
370
13
48
1
60
0
100
AcDbLine
10
5.385472
20
11.7415
30
0
11
5.385472
21
-11.7415
31
0
39
0
210
0
220
0
230
1
0
LINE
5
B1
100
AcDbEntity
8
1
62
256
6
ByLayer
370
13
48
1
60
0
100
AcDbLine
10
50.240656
20
7.779781
30
0
11
50.240656
21
1.62051
31
0
39
0
210
0
220
0
230
1
0
LINE
5
B2
100
AcDbEntity
8
1
62
256
6
ByLayer
370
13
48
1
60
0
100
AcDbLine
10
49.056104
20
1.734006
30
0
11
49.056104
21
7.732621
31
0
39
0
210
0
220
0
230
1
0
LINE
5
B3
100
AcDbEntity
8
1
62
256
6
ByLayer
370
18
48
1
60
0
100
AcDbLine
10
45.015874
20
2.083756
30
0
11
45.013681
21
2.083921
31
0
39
0
210
0
220
0
230
1
0
LINE
5
B4
100
AcDbEntity
8
1
62
256
6
ByLayer
370
13
48
1
60
0
100
AcDbLine
10
1.5
20
-11.7415
30
0
11
1.5
21
11.7415
31
0
39
0
210
0
220
0
230
1
0
LINE
5
B5
100
AcDbEntity
8
1
62
256
6
ByLayer
370
18
48
1
60
0
100
AcDbLine
10
0.099726
20
-12.222598
30
0
11
0.099726
21
12.222598
31
0
39
0
210
0
220
0
230
1
0
LINE
5
B6
100
AcDbEntity
8
1
62
256
6
ByLayer
370
13
48
1
60
0
100
AcDbLine
10
44.084549
20
7.270063
30
0
11
43.143074
21
9.932015
31
0
39
0
210
0
220
0
230
1
0
LINE
5
B7
100
AcDbEntity
8
1
62
256
6
ByLayer
370
13
48
1
60
0
100
AcDbLine
10
44.433394
20
8.770378
30
0
11
44.192225
21
12.217413
31
0
39
0
210
0
220
0
230
1
0
LINE
5
B8
100
AcDbEntity
8
1
62
256
6
ByLayer
370
18
48
1
60
0
100
AcDbLine
10
43.90534
20
12.212285
30
0
11
44.192225
21
12.217413
31
0
39
0
210
0
220
0
230
1
0
LINE
5
B9
100
AcDbEntity
8
1
62
256
6
ByLayer
370
18
48
1
60
0
100
AcDbLine
10
42.470482
20
11.370203
30
0
11
43.234565
21
11.98367
31
0
39
0
210
0
220
0
230
1
0
LINE
5
BA
100
AcDbEntity
8
1
62
256
6
ByLayer
370
13
48
1
60
0
100
AcDbLine
10
44.714685
20
12.242318
30
0
11
44.870052
21
10.021645
31
0
39
0
210
0
220
0
230
1
0
LINE
5
BB
100
AcDbEntity
8
1
62
256
6
ByLayer
370
18
48
1
60
0
100
AcDbLine
10
44.714685
20
12.242318
30
0
11
46.334925
21
12.367971
31
0
39
0
210
0
220
0
230
1
0
LINE
5
BC
100
AcDbEntity
8
1
62
256
6
ByLayer
370
13
48
1
60
0
100
AcDbLine
10
44.995418
20
8.229787
30
0
11
45.010146
21
8.019275
31
0
39
0
210
0
220
0
230
1
0
LINE
5
BD
100
AcDbEntity
8
1
62
256
6
ByLayer
370
13
48
1
60
0
100
AcDbLine
10
48.522217
20
10.304877
30
0
11
48.507489
21
10.515395
31
0
39
0
210
0
220
0
230
1
0
LINE
5
BE
100
AcDbEntity
8
1
62
256
6
ByLayer
370
13
48
1
60
0
100
AcDbLine
10
48.710954
20
7.607262
30
0
11
48.647583
21
8.513019
31
0
39
0
210
0
220
0
230
1
0
LINE
5
BF
100
AcDbEntity
8
1
62
256
6
ByLayer
370
13
48
1
60
0
100
AcDbLine
10
49.048653
20
12.457031
30
0
11
50.331447
21
8.645627
31
0
39
0
210
0
220
0
230
1
0
LINE
5
C0
100
AcDbEntity
8
1
62
256
6
ByLayer
370
13
48
1
60
0
100
AcDbLine
10
49.076297
20
9.772202
30
0
11
49.217328
21
7.756439
31
0
39
0
210
0
220
0
230
1
0
LINE
5
C1
100
AcDbEntity
8
1
62
256
6
ByLayer
370
18
48
1
60
0
100
AcDbLine
10
50.985195
20
7.226185
30
0
11
50.524269
21
6.828675
31
0
39
0
210
0
220
0
230
1
0
LINE
5
C2
100
AcDbEntity
8
SK1
62
256
6
ByLayer
370
18
48
1
60
0
100
AcDbLine
10
0
20
-12.280175
30
0
11
0
21
12.280175
31
0
39
0
210
0
220
0
230
1
0
LINE
5
C3
100
AcDbEntity
8
SK1
62
256
6
ByLayer
370
18
48
1
60
0
100
AcDbLine
10
-0.366025
20
-12.4915
30
0
11
-0.366025
21
12.4915
31
0
39
0
210
0
220
0
230
1
0
LINE
5
C4
100
AcDbEntity
8
SK1
62
256
6
ByLayer
370
18
48
1
60
0
100
AcDbLine
10
-97.5
20
12.4915
30
0
11
-97.5
21
-12.4915
31
0
39
0
210
0
220
0
230
1
0
LINE
5
C5
100
AcDbEntity
8
SK1
62
256
6
ByLayer
370
18
48
1
60
0
100
AcDbLine
10
-98.5
20
11.4915
30
0
11
-98.5
21
-11.4915
31
0
39
0
210
0
220
0
230
1
0
LINE
5
C6
100
AcDbEntity
8
1
62
256
6
ByLayer
370
13
48
1
60
0
100
AcDbLine
10
51.174425
20
-8.721665
30
0
11
51.148433
21
-7.975241
31
0
39
0
210
0
220
0
230
1
0
LINE
5
C7
100
AcDbEntity
8
1
62
256
6
ByLayer
370
18
48
1
60
0
100
AcDbLine
10
50.985195
20
-7.169505
30
0
11
50.524269
21
-6.776044
31
0
39
0
210
0
220
0
230
1
0
LINE
5
C8
100
AcDbEntity
8
1
62
256
6
ByLayer
370
13
48
1
60
0
100
AcDbLine
10
50.987922
20
-9.539738
30
0
11
50.92926
21
-7.855111
31
0
39
0
210
0
220
0
230
1
0
LINE
5
C9
100
AcDbEntity
8
1
62
256
6
ByLayer
370
18
48
1
60
0
100
AcDbLine
10
43.90534
20
-12.204167
30
0
11
44.192225
21
-12.21031
31
0
39
0
210
0
220
0
230
1
0
LINE
5
CA
100
AcDbEntity
8
1
62
256
6
ByLayer
370
18
48
1
60
0
100
AcDbLine
10
44.714685
20
-12.235283
30
0
11
46.334925
21
-12.355613
31
0
39
0
210
0
220
0
230
1
0
LINE
5
CB
100
AcDbEntity
8
1
62
256
6
ByLayer
370
13
48
1
60
0
100
AcDbLine
10
45.333095
20
-11.386173
30
0
11
43.90534
21
-12.204167
31
0
39
0
210
0
220
0
230
1
0
LINE
5
CC
100
AcDbEntity
8
1
62
256
6
ByLayer
370
18
48
1
60
0
100
AcDbLine
10
42.470482
20
-11.354415
30
0
11
43.234565
21
-11.972491
31
0
39
0
210
0
220
0
230
1
0
LINE
5
CD
100
AcDbEntity
8
1
62
256
6
ByLayer
370
13
48
1
60
0
100
AcDbLine
10
43.234565
20
-11.972491
30
0
11
44.524727
21
-11.233327
31
0
39
0
210
0
220
0
230
1
0
LINE
5
CE
100
AcDbEntity
8
1
62
256
6
ByLayer
370
18
48
1
60
0
100
AcDbLine
10
50.55094
20
-8.40938
30
0
11
50.601463
21
-9.860263
31
0
39
0
210
0
220
0
230
1
0
LINE
5
CF
100
AcDbEntity
8
1
62
256
6
ByLayer
370
18
48
1
60
0
100
AcDbLine
10
45.333095
20
-11.386173
30
0
11
49.059364
21
-11.66291
31
0
39
0
210
0
220
0
230
1
0
LINE
5
D0
100
AcDbEntity
8
1
62
256
6
ByLayer
370
13
48
1
60
0
100
AcDbLine
10
50.987922
20
0.501224
30
0
11
50.92926
21
0.516105
31
0
39
0
210
0
220
0
230
1
0
LINE
5
D1
100
AcDbEntity
8
1
62
256
6
ByLayer
370
13
48
1
60
0
100
AcDbLine
10
51.174425
20
0.9606
30
0
11
51.148433
21
0.967193
31
0
39
0
210
0
220
0
230
1
0
LINE
5
D2
100
AcDbEntity
8
1
62
256
6
ByLayer
370
18
48
1
60
0
100
AcDbLine
10
50.985195
20
1.821617
30
0
11
50.524269
21
1.698067
31
0
39
0
210
0
220
0
230
1
0
LINE
5
D3
100
AcDbEntity
8
1
62
256
6
ByLayer
370
18
48
1
60
0
100
AcDbLine
10
47.455962
20
8.664266
30
0
11
47.465635
21
8.654631
31
0
39
0
210
0
220
0
230
1
0
LINE
5
D4
100
AcDbEntity
8
1
62
256
6
ByLayer
370
18
48
1
60
0
100
AcDbLine
10
46.154586
20
9.777839
30
0
11
46.164287
21
9.760424
31
0
39
0
210
0
220
0
230
1
0
LINE
5
D5
100
AcDbEntity
8
1
62
256
6
ByLayer
370
18
48
1
60
0
100
AcDbLine
10
45.96521
20
9.350736
30
0
11
45.945455
21
9.347463
31
0
39
0
210
0
220
0
230
1
0
LINE
5
D6
100
AcDbEntity
8
1
62
256
6
ByLayer
370
13
48
1
60
0
100
AcDbLine
10
45.884759
20
9.43088
30
0
11
45.96521
21
9.350736
31
0
39
0
210
0
220
0
230
1
0
LINE
5
D7
100
AcDbEntity
8
1
62
256
6
ByLayer
370
13
48
1
60
0
100
AcDbLine
10
46.083837
20
9.840568
30
0
11
46.164287
21
9.760424
31
0
39
0
210
0
220
0
230
1
0
LINE
5
D8
100
AcDbEntity
8
1
62
256
6
ByLayer
370
13
48
1
60
0
100
AcDbLine
10
46.931403
20
10.144832
30
0
11
47.011854
21
10.064687
31
0
39
0
210
0
220
0
230
1
0
LINE
5
D9
100
AcDbEntity
8
1
62
256
6
ByLayer
370
18
48
1
60
0
100
AcDbLine
10
47.022149
20
10.081912
30
0
11
47.011854
21
10.064687
31
0
39
0
210
0
220
0
230
1
0
LINE
5
DA
100
AcDbEntity
8
1
62
256
6
ByLayer
370
18
48
1
60
0
100
AcDbLine
10
46.073187
20
9.858928
30
0
11
46.154586
21
9.777839
31
0
39
0
210
0
220
0
230
1
0
LINE
5
DB
100
AcDbEntity
8
1
62
256
6
ByLayer
370
18
48
1
60
0
100
AcDbLine
10
45.864057
20
9.428552
30
0
11
45.945455
21
9.347463
31
0
39
0
210
0
220
0
230
1
0
LINE
5
DC
100
AcDbEntity
8
1
62
256
6
ByLayer
370
18
48
1
60
0
100
AcDbLine
10
46.252354
20
8.50169
30
0
11
46.245181
21
8.482966
31
0
39
0
210
0
220
0
230
1
0
LINE
5
DD
100
AcDbEntity
8
1
62
256
6
ByLayer
370
13
48
1
60
0
100
AcDbLine
10
46.171903
20
8.581834
30
0
11
46.252354
21
8.50169
31
0
39
0
210
0
220
0
230
1
0
LINE
5
DE
100
AcDbEntity
8
1
62
256
6
ByLayer
370
18
48
1
60
0
100
AcDbLine
10
46.94075
20
10.163001
30
0
11
47.022149
21
10.081912
31
0
39
0
210
0
220
0
230
1
0
LINE
5
DF
100
AcDbEntity
8
1
62
256
6
ByLayer
370
13
48
1
60
0
100
AcDbLine
10
47.61309
20
9.564916
30
0
11
47.69354
21
9.484772
31
0
39
0
210
0
220
0
230
1
0
LINE
5
E0
100
AcDbEntity
8
1
62
256
6
ByLayer
370
18
48
1
60
0
100
AcDbLine
10
47.713537
20
9.484581
30
0
11
47.69354
21
9.484772
31
0
39
0
210
0
220
0
230
1
0
LINE
5
E1
100
AcDbEntity
8
1
62
256
6
ByLayer
370
13
48
1
60
0
100
AcDbLine
10
47.052667
20
8.411606
30
0
11
47.11483
21
8.349679
31
0
39
0
210
0
220
0
230
1
0
LINE
5
E2
100
AcDbEntity
8
1
62
256
6
ByLayer
370
18
48
1
60
0
100
AcDbLine
10
46.163782
20
8.564055
30
0
11
46.245181
21
8.482966
31
0
39
0
210
0
220
0
230
1
0
LINE
5
E3
100
AcDbEntity
8
1
62
256
6
ByLayer
370
18
48
1
60
0
100
AcDbLine
10
47.632138
20
9.56567
30
0
11
47.713537
21
9.484581
31
0
39
0
210
0
220
0
230
1
0
LINE
5
E4
100
AcDbEntity
8
1
62
256
6
ByLayer
370
18
48
1
60
0
100
AcDbLine
10
47.0643
20
8.3971
30
0
11
47.11029
21
8.351285
31
0
39
0
210
0
220
0
230
1
0
LINE
5
E5
100
AcDbEntity
8
1
62
256
6
ByLayer
370
18
48
1
60
0
100
AcDbLine
10
45.730218
20
-0.969737
30
0
11
45.729082
21
-0.968829
31
0
39
0
210
0
220
0
230
1
0
LINE
5
E6
100
AcDbEntity
8
1
62
256
6
ByLayer
370
18
48
1
60
0
100
AcDbLine
10
48.802951
20
-1.276893
30
0
11
47.182737
21
-1.136644
31
0
39
0
210
0
220
0
230
1
0
LINE
5
E7
100
AcDbEntity
8
1
62
256
6
ByLayer
370
18
48
1
60
0
100
AcDbLine
10
49.595639
20
-1.441725
30
0
11
49.317466
21
-1.367323
31
0
39
0
210
0
220
0
230
1
0
LINE
5
E8
100
AcDbEntity
8
1
62
256
6
ByLayer
370
18
48
1
60
0
100
AcDbLine
10
50.985195
20
-1.812931
30
0
11
50.245586
21
-1.615443
31
0
39
0
210
0
220
0
230
1
0
LINE
5
E9
100
AcDbEntity
8
1
62
256
6
ByLayer
370
18
48
1
60
0
100
AcDbLine
10
43.134561
20
-0.987344
30
0
11
43.131364
21
-0.987034
31
0
39
0
210
0
220
0
230
1
0
LINE
5
EA
100
AcDbEntity
8
1
62
256
6
ByLayer
370
18
48
1
60
0
100
AcDbLine
10
42.012152
20
-1.084735
30
0
11
42.021428
21
-1.084252
31
0
39
0
210
0
220
0
230
1
0
LINE
5
EB
100
AcDbEntity
8
1
62
256
6
ByLayer
370
13
48
1
60
0
100
AcDbLine
10
48.802951
20
-1.276893
30
0
11
48.647583
21
-1.234107
31
0
39
0
210
0
220
0
230
1
0
LINE
5
EC
100
AcDbEntity
8
1
62
256
6
ByLayer
370
13
48
1
60
0
100
AcDbLine
10
49.076297
20
-1.300908
30
0
11
49.317466
21
-1.367323
31
0
39
0
210
0
220
0
230
1
0
LINE
5
ED
100
AcDbEntity
8
1
62
256
6
ByLayer
370
18
48
1
60
0
100
AcDbLine
10
43.480914
20
2.198312
30
0
11
43.430392
21
2.183721
31
0
39
0
210
0
220
0
230
1
0
LINE
5
EE
100
AcDbEntity
8
1
62
256
6
ByLayer
370
18
48
1
60
0
100
AcDbLine
10
43.600924
20
2.191357
30
0
11
44.718336
21
2.107296
31
0
39
0
210
0
220
0
230
1
0
LINE
5
EF
100
AcDbEntity
8
1
62
256
6
ByLayer
370
13
48
1
60
0
100
AcDbLine
10
43.234565
20
-0.930516
30
0
11
44.718336
21
2.107296
31
0
39
0
210
0
220
0
230
1
0
LINE
5
F0
100
AcDbEntity
8
1
62
256
6
ByLayer
370
18
48
1
60
0
100
AcDbLine
10
42.470482
20
-1.01275
30
0
11
43.234565
21
-0.930516
31
0
39
0
210
0
220
0
230
1
0
LINE
5
F1
100
AcDbEntity
8
1
62
256
6
ByLayer
370
13
48
1
60
0
100
AcDbLine
10
44.995418
20
-0.917967
30
0
11
45.010146
21
-0.922023
31
0
39
0
210
0
220
0
230
1
0
LINE
5
F2
100
AcDbEntity
8
1
62
256
6
ByLayer
370
13
48
1
60
0
100
AcDbLine
10
44.433394
20
-0.90744
30
0
11
44.192225
21
-0.841026
31
0
39
0
210
0
220
0
230
1
0
LINE
5
F3
100
AcDbEntity
8
1
62
256
6
ByLayer
370
13
48
1
60
0
100
AcDbLine
10
44.714685
20
-0.840657
30
0
11
44.870052
21
-0.883443
31
0
39
0
210
0
220
0
230
1
0
LINE
5
F4
100
AcDbEntity
8
1
62
256
6
ByLayer
370
13
48
1
60
0
100
AcDbLine
10
48.522217
20
-1.199583
30
0
11
48.507489
21
-1.195527
31
0
39
0
210
0
220
0
230
1
0
LINE
5
F5
100
AcDbEntity
8
1
62
256
6
ByLayer
370
18
48
1
60
0
100
AcDbLine
10
45.333095
20
2.05694
30
0
11
49.059364
21
1.734385
31
0
39
0
210
0
220
0
230
1
0
LINE
5
F6
100
AcDbEntity
8
1
62
256
6
ByLayer
370
13
48
1
60
0
100
AcDbLine
10
45.333095
20
2.05694
30
0
11
43.90534
21
-0.866188
31
0
39
0
210
0
220
0
230
1
0
LINE
5
F7
100
AcDbEntity
8
1
62
256
6
ByLayer
370
18
48
1
60
0
100
AcDbLine
10
43.90534
20
-0.866188
30
0
11
44.192225
21
-0.841026
31
0
39
0
210
0
220
0
230
1
0
LINE
5
F8
100
AcDbEntity
8
1
62
256
6
ByLayer
370
18
48
1
60
0
100
AcDbLine
10
44.714685
20
-0.840657
30
0
11
46.334925
21
-0.980909
31
0
39
0
210
0
220
0
230
1
0
LINE
5
F9
100
AcDbEntity
8
1
62
256
6
ByLayer
370
13
48
1
60
0
100
AcDbLine
10
49.048653
20
-0.885373
30
0
11
50.331447
21
-1.62831
31
0
39
0
210
0
220
0
230
1
0
LINE
5
FA
100
AcDbEntity
8
2
62
256
6
ByLayer
370
13
48
1
60
0
100
AcDbLine
10
83.131238
20
12.5
30
0
11
83.131238
21
-12.5
31
0
39
0
210
0
220
0
230
1
0
LINE
5
FC
100
AcDbEntity
8
2
62
256
6
ByLayer
370
13
48
1
60
0
100
AcDbLine
10
53.0875
20
-12.5
30
0
11
85.131238
21
-12.5
31
0
39
0
210
0
220
0
230
1
0
LINE
5
FD
100
AcDbEntity
8
2
62
256
6
ByLayer
370
13
48
1
60
0
100
AcDbLine
10
53.0875
20
12.5
30
0
11
85.131238
21
12.5
31
0
39
0
210
0
220
0
230
1
0
LINE
5
FE
100
AcDbEntity
8
1
62
256
6
ByLayer
370
18
48
1
60
1
100
AcDbLine
10
83.131238
20
-12.5
30
0
11
82.670454
21
-9.000002
31
0
39
0
210
0
220
0
230
1
0
LINE
5
FF
100
AcDbEntity
8
1
62
256
6
ByLayer
370
18
48
1
60
1
100
AcDbLine
10
82.670454
20
-9.000002
30
0
11
83.592021
21
-8.999998
31
0
39
0
210
0
220
0
230
1
0
LINE
5
100
100
AcDbEntity
8
1
62
256
6
ByLayer
370
18
48
1
60
1
100
AcDbLine
10
83.592021
20
-8.999998
30
0
11
83.131238
21
-12.5
31
0
39
0
210
0
220
0
230
1
0
LINE
5
101
100
AcDbEntity
8
1
62
256
6
ByLayer
370
18
48
1
60
1
100
AcDbLine
10
83.131238
20
12.5
30
0
11
83.592021
21
9.000002
31
0
39
0
210
0
220
0
230
1
0
LINE
5
102
100
AcDbEntity
8
1
62
256
6
ByLayer
370
18
48
1
60
1
100
AcDbLine
10
83.592021
20
9.000002
30
0
11
82.670454
21
8.999998
31
0
39
0
210
0
220
0
230
1
0
LINE
5
103
100
AcDbEntity
8
1
62
256
6
ByLayer
370
18
48
1
60
1
100
AcDbLine
10
82.670454
20
8.999998
30
0
11
83.131238
21
12.5
31
0
39
0
210
0
220
0
230
1
0
LINE
5
104
100
AcDbEntity
8
SK2
62
256
6
ByLayer
370
13
48
1
60
0
100
AcDbLine
10
-113.1
20
12.5
30
0
11
-113.1
21
-12.5
31
0
39
0
210
0
220
0
230
1
0
LINE
5
106
100
AcDbEntity
8
SK2
62
256
6
ByLayer
370
13
48
1
60
0
100
AcDbLine
10
-100.0875
20
-12.5
30
0
11
-115.1
21
-12.5
31
0
39
0
210
0
220
0
230
1
0
LINE
5
107
100
AcDbEntity
8
SK2
62
256
6
ByLayer
370
13
48
1
60
0
100
AcDbLine
10
-100.0875
20
12.5
30
0
11
-115.1
21
12.5
31
0
39
0
210
0
220
0
230
1
0
LINE
5
108
100
AcDbEntity
8
1
62
256
6
ByLayer
370
18
48
1
60
1
100
AcDbLine
10
-113.1
20
-12.5
30
0
11
-113.560784
21
-9.000002
31
0
39
0
210
0
220
0
230
1
0
LINE
5
109
100
AcDbEntity
8
1
62
256
6
ByLayer
370
18
48
1
60
1
100
AcDbLine
10
-113.560784
20
-9.000002
30
0
11
-112.639216
21
-8.999998
31
0
39
0
210
0
220
0
230
1
0
LINE
5
10A
100
AcDbEntity
8
1
62
256
6
ByLayer
370
18
48
1
60
1
100
AcDbLine
10
-112.639216
20
-8.999998
30
0
11
-113.1
21
-12.5
31
0
39
0
210
0
220
0
230
1
0
LINE
5
10B
100
AcDbEntity
8
1
62
256
6
ByLayer
370
18
48
1
60
1
100
AcDbLine
10
-113.1
20
12.5
30
0
11
-112.639216
21
9.000002
31
0
39
0
210
0
220
0
230
1
0
LINE
5
10C
100
AcDbEntity
8
1
62
256
6
ByLayer
370
18
48
1
60
1
100
AcDbLine
10
-112.639216
20
9.000002
30
0
11
-113.560784
21
8.999998
31
0
39
0
210
0
220
0
230
1
0
LINE
5
10D
100
AcDbEntity
8
1
62
256
6
ByLayer
370
18
48
1
60
1
100
AcDbLine
10
-113.560784
20
8.999998
30
0
11
-113.1
21
12.5
31
0
39
0
210
0
220
0
230
1
0
LINE
5
260
100
AcDbEntity
8
1
62
256
6
ByLayer
370
18
48
1
60
1
100
AcDbLine
10
83.131238
20
-12.5
30
0
11
82.670454
21
-9.000002
31
0
39
0
210
0
220
0
230
1
0
LINE
5
261
100
AcDbEntity
8
1
62
256
6
ByLayer
370
18
48
1
60
1
100
AcDbLine
10
82.670454
20
-9.000002
30
0
11
83.592021
21
-8.999998
31
0
39
0
210
0
220
0
230
1
0
LINE
5
262
100
AcDbEntity
8
1
62
256
6
ByLayer
370
18
48
1
60
1
100
AcDbLine
10
83.592021
20
-8.999998
30
0
11
83.131238
21
-12.5
31
0
39
0
210
0
220
0
230
1
0
LINE
5
264
100
AcDbEntity
8
1
62
256
6
ByLayer
370
18
48
1
60
1
100
AcDbLine
10
83.131238
20
12.5
30
0
11
83.592021
21
9.000002
31
0
39
0
210
0
220
0
230
1
0
LINE
5
265
100
AcDbEntity
8
1
62
256
6
ByLayer
370
18
48
1
60
1
100
AcDbLine
10
83.592021
20
9.000002
30
0
11
82.670454
21
8.999998
31
0
39
0
210
0
220
0
230
1
0
LINE
5
266
100
AcDbEntity
8
1
62
256
6
ByLayer
370
18
48
1
60
1
100
AcDbLine
10
82.670454
20
8.999998
30
0
11
83.131238
21
12.5
31
0
39
0
210
0
220
0
230
1
0
LINE
5
26A
100
AcDbEntity
8
1
62
256
6
ByLayer
370
18
48
1
60
1
100
AcDbLine
10
-113.1
20
-12.5
30
0
11
-113.560784
21
-9.000002
31
0
39
0
210
0
220
0
230
1
0
LINE
5
26B
100
AcDbEntity
8
1
62
256
6
ByLayer
370
18
48
1
60
1
100
AcDbLine
10
-113.560784
20
-9.000002
30
0
11
-112.639216
21
-8.999998
31
0
39
0
210
0
220
0
230
1
0
LINE
5
26C
100
AcDbEntity
8
1
62
256
6
ByLayer
370
18
48
1
60
1
100
AcDbLine
10
-112.639216
20
-8.999998
30
0
11
-113.1
21
-12.5
31
0
39
0
210
0
220
0
230
1
0
LINE
5
26E
100
AcDbEntity
8
1
62
256
6
ByLayer
370
18
48
1
60
1
100
AcDbLine
10
-113.1
20
12.5
30
0
11
-112.639216
21
9.000002
31
0
39
0
210
0
220
0
230
1
0
LINE
5
26F
100
AcDbEntity
8
1
62
256
6
ByLayer
370
18
48
1
60
1
100
AcDbLine
10
-112.639216
20
9.000002
30
0
11
-113.560784
21
8.999998
31
0
39
0
210
0
220
0
230
1
0
LINE
5
270
100
AcDbEntity
8
1
62
256
6
ByLayer
370
18
48
1
60
1
100
AcDbLine
10
-113.560784
20
8.999998
30
0
11
-113.1
21
12.5
31
0
39
0
210
0
220
0
230
1
0
MTEXT
5
25C
100
AcDbEntity
8
2
62
256
6
ByLayer
370
18
48
1
60
0
100
AcDbMText
10
81.566604
20
-4.530622
30
0
210
0
220
0
230
1
1
%%c
40
3.5
41
0
44
1.084337
50
90
71
7
72
5
7
iso_b_vert
0
MTEXT
5
25F
100
AcDbEntity
8
2
62
256
6
ByLayer
370
18
48
1
60
0
100
AcDbMText
10
81.566604
20
2.442034
30
0
210
0
220
0
230
1
1
\W0.6740;25
40
3.5
41
0
44
1.084337
50
90
71
7
72
5
7
iso_b_vert
0
MTEXT
5
268
100
AcDbEntity
8
SK2
62
256
6
ByLayer
370
18
48
1
60
0
100
AcDbMText
10
-114.664634
20
-4.530622
30
0
210
0
220
0
230
1
1
%%c
40
3.5
41
0
44
1.084337
50
90
71
7
72
5
7
iso_b_vert
0
MTEXT
5
269
100
AcDbEntity
8
SK2
62
256
6
ByLayer
370
18
48
1
60
0
100
AcDbMText
10
-114.664634
20
2.442034
30
0
210
0
220
0
230
1
1
\W0.6740;25
40
3.5
41
0
44
1.084337
50
90
71
7
72
5
7
iso_b_vert
0
MTEXT
5
272
100
AcDbEntity
8
SK6
62
256
6
ByLayer
370
18
48
1
60
0
100
AcDbMText
10
-45.048881
20
-20.566245
30
0
210
0
220
0
230
1
1
\W0.7777;MH20-R025A25-06H
40
3.5
41
0
44
1.084337
50
0
71
7
72
5
7
iso_b_vert
0
HATCH
5
263
100
AcDbEntity
8
2
62
256
6
ByLayer
370
13
48
1
60
0
100
AcDbHatch
10
0
20
0
30
0
210
0
220
0
230
1
2
ANSI31
70
0
71
0
91
1
92
5
93
3
72
1
10
83.1312376204193
20
-12.4999999999999
11
82.6704538788665
21
-9.00000169255313
72
1
10
82.6704538788665
20
-9.00000169255313
11
83.592021361972
21
-8.99999830744673
72
1
10
83.592021361972
20
-8.99999830744673
11
83.1312376204193
21
-12.4999999999999
97
0
75
0
76
1
52
0
41
0.0062
77
0
78
1
53
45
43
0
44
0
45
-0.0139193969876572
46
0.0139193969876572
79
0
47
0
98
1
10
0
20
0
0
HATCH
5
267
100
AcDbEntity
8
2
62
256
6
ByLayer
370
13
48
1
60
0
100
AcDbHatch
10
0
20
0
30
0
210
0
220
0
230
1
2
ANSI31
70
0
71
0
91
1
92
5
93
3
72
1
10
83.1312376204193
20
12.5000000000001
11
83.592021361972
21
9.00000169255327
72
1
10
83.592021361972
20
9.00000169255327
11
82.6704538788665
21
8.99999830744687
72
1
10
82.6704538788665
20
8.99999830744687
11
83.1312376204193
21
12.5000000000001
97
0
75
0
76
1
52
0
41
0.0062
77
0
78
1
53
45
43
0
44
0
45
-0.0139193969876572
46
0.0139193969876572
79
0
47
0
98
1
10
0
20
0
0
HATCH
5
26D
100
AcDbEntity
8
SK2
62
256
6
ByLayer
370
13
48
1
60
0
100
AcDbHatch
10
0
20
0
30
0
210
0
220
0
230
1
2
ANSI31
70
0
71
0
91
1
92
5
93
3
72
1
10
-113.1
20
-12.5000000000001
11
-113.560783741553
21
-9.00000169255331
72
1
10
-113.560783741553
20
-9.00000169255331
11
-112.639216258447
21
-8.99999830744692
72
1
10
-112.639216258447
20
-8.99999830744692
11
-113.1
21
-12.5000000000001
97
0
75
0
76
1
52
0
41
0.0062
77
0
78
1
53
45
43
0
44
0
45
-0.0139193969876572
46
0.0139193969876572
79
0
47
0
98
1
10
0
20
0
0
HATCH
5
271
100
AcDbEntity
8
SK2
62
256
6
ByLayer
370
13
48
1
60
0
100
AcDbHatch
10
0
20
0
30
0
210
0
220
0
230
1
2
ANSI31
70
0
71
0
91
1
92
5
93
3
72
1
10
-113.1
20
12.4999999999999
11
-112.639216258447
21
9.00000169255308
72
1
10
-112.639216258447
20
9.00000169255308
11
-113.560783741553
21
8.99999830744669
72
1
10
-113.560783741553
20
8.99999830744669
11
-113.1
21
12.4999999999999
97
0
75
0
76
1
52
0
41
0.0062
77
0
78
1
53
45
43
0
44
0
45
-0.0139193969876572
46
0.0139193969876572
79
0
47
0
98
1
10
0
20
0
0
DIMENSION
5
275
100
AcDbEntity
8
SK2
62
256
6
ByLayer
370
18
48
1
60
0
100
AcDbDimension
2
_U0
10
-98.5
20
32.75
30
0
11
-23.5
21
32.75
31
0
70
32
71
1
72
1
41
1
210
0
220
0
230
1
3
Standard
100
AcDbAlignedDimension
13
51.5
23
12.5
33
0
14
-98.5
24
12.5
34
0
50
0
100
AcDbRotatedDimension
1001
ACAD
1000
DSTYLE
1002
{
1070
   371
1070
    13
1070
   372
1070
    13
1070
   170
1070
     0
1070
   144
1040
1.0
1070
   277
1070
     2
1070
   284
1070
     8
1070
   278
1070
    46
1070
   146
1040
1.0
1070
   345
1005
16
1070
   347
1005
16
1070
   346
1005
16
1070
   344
1005
0
1070
   343
1005
0
1070
   172
1070
     1
1070
    76
1070
     0
1070
    75
1070
     0
1070
   282
1070
     0
1070
   281
1070
     0
1070
    71
1070
     0
1070
    74
1070
     0
1070
   279
1070
     0
1070
   173
1070
     1
1070
   340
1005
25D
1070
   271
1070
     2
1070
   272
1070
     2
1070
    77
1070
     1
1070
    73
1070
     1
1070
   171
1070
     3
1070
   274
1070
     4
1070
   177
1070
     2
1070
   176
1070
     2
1070
   178
1070
     2
1070
    78
1070
     8
1070
    48
1040
-0.1
1070
    41
1040
3.5
1070
   147
1040
1.75
1070
    42
1040
1.5875
1070
    44
1040
2.0
1070
   140
1040
3.5
1002
}
1001
ACAD_DSTYLE_DIM_LINETYPE
1070
   380
1005
16
1001
ACAD_DSTYLE_DIM_EXT1_LINETYPE
1070
   381
1005
16
1001
ACAD_DSTYLE_DIM_EXT2_LINETYPE
1070
   382
1005
16
0
DIMENSION
5
28E
100
AcDbEntity
8
2
62
256
6
ByLayer
370
18
48
1
60
0
100
AcDbDimension
2
_U1
10
0
20
20.75
30
0
11
25.75
21
20.75
31
0
70
32
71
1
72
1
41
1
210
0
220
0
230
1
3
Standard
100
AcDbAlignedDimension
13
51.5
23
12.5
33
0
14
0
24
0
34
0
50
0
100
AcDbRotatedDimension
1001
ACAD
1000
DSTYLE
1002
{
1070
   371
1070
    13
1070
   372
1070
    13
1070
   170
1070
     0
1070
   144
1040
1.0
1070
   277
1070
     2
1070
   284
1070
     8
1070
   278
1070
    46
1070
   146
1040
1.0
1070
   345
1005
16
1070
   347
1005
16
1070
   346
1005
16
1070
   344
1005
0
1070
   343
1005
0
1070
   172
1070
     1
1070
    76
1070
     0
1070
    75
1070
     0
1070
   282
1070
     0
1070
   281
1070
     0
1070
    71
1070
     0
1070
    74
1070
     0
1070
   279
1070
     0
1070
   173
1070
     1
1070
   340
1005
25D
1070
   271
1070
     2
1070
   272
1070
     2
1070
    77
1070
     1
1070
    73
1070
     1
1070
   171
1070
     3
1070
   274
1070
     4
1070
   177
1070
     2
1070
   176
1070
     2
1070
   178
1070
     2
1070
    78
1070
     8
1070
    48
1040
-0.1
1070
    41
1040
3.5
1070
   147
1040
1.75
1070
    42
1040
1.5875
1070
    44
1040
2.0
1070
   140
1040
3.5
1002
}
1001
ACAD_DSTYLE_DIM_LINETYPE
1070
   380
1005
16
1001
ACAD_DSTYLE_DIM_EXT1_LINETYPE
1070
   381
1005
16
1001
ACAD_DSTYLE_DIM_EXT2_LINETYPE
1070
   382
1005
16
0
ENDSEC
0
SECTION
2
OBJECTS
0
DICTIONARY
5
316
330
0
100
AcDbDictionary
280
0
281
1
3
ACAD_GROUP
350
317
3
ACAD_MLINESTYLE
350
318
0
DICTIONARY
5
317
330
0
100
AcDbDictionary
280
0
281
1
0
DICTIONARY
5
318
330
0
100
AcDbDictionary
280
0
281
1
3
Standard
350
18
0
MLINESTYLE
5
18
330
318
100
AcDbMlineStyle
2
Standard
70
0
3

62
256
51
90
52
90
71
2
49
-0.5
62
256
6
ByLayer
49
0.5
62
256
6
ByLayer
0
RASTERVARIABLES
5
304
330

100
AcDbRasterVariables
90
0
70
1
71
1
72
1
0
ENDSEC
0
EOF
