0
SECTION
2
HEADER
9
$ACADVER
1
AC1015
9
$DWGCODEPAGE
3
ANSI_1252
9
$HANDSEED
5
2bd
9
$ANGBASE
50
0
9
$ANGDIR
70
0
9
$ATTMODE
70
1
9
$AUNITS
70
0
9
$AUPREC
70
0
9
$CECOLOR
62
256
9
$CELTSCALE
40
1
9
$CELTYPE
6
ByLayer
9
$CELWEIGHT
370
18
9
$CLAYER
8
0
9
$CMLJUST
70
0
9
$CMLSCALE
40
1
9
$CMLSTYLE
2
Standard
9
$DIMSTYLE
2
Standard
9
$TEXTSIZE
40
0.2
9
$TEXTSTYLE
7
Standard
9
$LUNITS
70
2
9
$LUPREC
70
4
9
$EXTNAMES
290
1
9
$INSUNITS
70
4
9
$LTSCALE
40
1
9
$LWDISPLAY
290
1
9
$PDMODE
70
0
9
$PDSIZE
40
0
9
$PLINEGEN
70
0
0
ENDSEC
0
SECTION
2
CLASSES
0
CLASS
1
RASTERVARIABLES
2
AcDbRasterVariables
3
ISM
90
0
280
0
281
0
0
ENDSEC
0
SECTION
2
TABLES
0
TABLE
2
VPORT
5
2b3
100
AcDbSymbolTable
0
VPORT
5
1
100
AcDbSymbolTableRecord
100
AcDbViewportTableRecord
2
*Active
70
0
10
0
20
0
11
1
21
1
12
-1
22
1
13
0
23
0
14
0.5
24
0.5
15
10
25
10
16
0
26
0
36
1
17
0
27
0
37
0
0
ENDTAB
0
TABLE
2
LTYPE
5
2b4
100
AcDbSymbolTable
0
LTYPE
5
14
100
AcDbSymbolTableRecord
100
AcDbLinetypeTableRecord
70
0
2
ByBlock
3

72
65
73
0
40
0
0
LTYPE
5
15
100
AcDbSymbolTableRecord
100
AcDbLinetypeTableRecord
70
0
2
ByLayer
3

72
65
73
0
40
0
0
LTYPE
5
16
100
AcDbSymbolTableRecord
100
AcDbLinetypeTableRecord
70
0
2
Continuous
3
Solid line
72
65
73
0
40
0
0
LTYPE
5
6E
100
AcDbSymbolTableRecord
100
AcDbLinetypeTableRecord
70
0
2
CENTER
3
____ _ ____ _ ____ _ ____
72
65
73
4
40
47.5
49
22
74
0
49
-8.5
74
0
49
8.5
74
0
49
-8.5
74
0
0
LTYPE
5
6F
100
AcDbSymbolTableRecord
100
AcDbLinetypeTableRecord
70
0
2
DASHED
3
__ __ __ __ __ __ __ __ __
72
65
73
2
40
25.72
49
12.86
74
0
49
-12.86
74
0
0
ENDTAB
0
TABLE
2
LAYER
5
2b5
100
AcDbSymbolTable
0
LAYER
5
10
100
AcDbSymbolTableRecord
100
AcDbLayerTableRecord
2
0
70
0
62
7
6
Continuous
290
1
370
-3
390
0
0
LAYER
5
71
100
AcDbSymbolTableRecord
100
AcDbLayerTableRecord
2
1
70
0
62
4
6
Continuous
290
1
370
-3
390
0
0
LAYER
5
73
100
AcDbSymbolTableRecord
100
AcDbLayerTableRecord
2
81
70
0
62
-3
6
Continuous
290
1
370
-3
390
0
0
LAYER
5
75
100
AcDbSymbolTableRecord
100
AcDbLayerTableRecord
2
80
70
0
62
-6
6
Continuous
290
1
370
-3
390
0
0
LAYER
5
E5
100
AcDbSymbolTableRecord
100
AcDbLayerTableRecord
2
2
70
0
62
7
6
Continuous
290
1
370
-3
390
0
0
LAYER
5
212
100
AcDbSymbolTableRecord
100
AcDbLayerTableRecord
2
Defpoints
70
0
62
7
6
Continuous
290
0
370
-3
390
0
0
LAYER
5
29f
100
AcDbSymbolTableRecord
100
AcDbLayerTableRecord
2
SK4
70
0
62
2
6
CENTER
290
1
370
-3
390
0
0
LAYER
5
2a0
100
AcDbSymbolTableRecord
100
AcDbLayerTableRecord
2
SK1
70
0
62
4
6
Continuous
290
1
370
-3
390
0
0
LAYER
5
2a1
100
AcDbSymbolTableRecord
100
AcDbLayerTableRecord
2
SK2
70
0
62
7
6
Continuous
290
1
370
-3
390
0
0
LAYER
5
2a2
100
AcDbSymbolTableRecord
100
AcDbLayerTableRecord
2
SK6
70
0
62
5
6
Continuous
290
1
370
-3
390
0
0
ENDTAB
0
TABLE
2
STYLE
5
2b6
100
AcDbSymbolTable
0
STYLE
5
11
100
AcDbSymbolTableRecord
100
AcDbTextStyleTableRecord
2
Standard
3
txt
70
0
71
0
40
0
41
1
42
0
50
0
0
STYLE
5
1F7
100
AcDbSymbolTableRecord
100
AcDbTextStyleTableRecord
2
iso_b_vert
3
simplex.shx
70
0
71
0
40
0
41
1
42
0
50
0
0
STYLE
5
1F8
100
AcDbSymbolTableRecord
100
AcDbTextStyleTableRecord
2
DWGDirectTextStyle
3
simplex
70
0
71
0
40
0
41
1
42
0
50
0
0
ENDTAB
0
TABLE
2
DIMSTYLE
5
2b7
100
AcDbSymbolTable
100
AcDbDimStyleTable
0
DIMSTYLE
105
27
100
AcDbSymbolTableRecord
100
AcDbDimStyleTableRecord
2
Standard
70
0
3
<>
41
0.18
42
0.0625
44
0.18
140
0.18
147
0.09
73
0
74
0
77
1
271
2
275
0
278
52
280
0
340
11
0
ENDTAB
0
TABLE
2
VIEW
5
2b8
100
AcDbSymbolTable
0
ENDTAB
0
TABLE
2
UCS
5
2b9
100
AcDbSymbolTable
0
ENDTAB
0
TABLE
2
APPID
5
2ba
100
AcDbSymbolTable
0
APPID
5
12
100
AcDbSymbolTableRecord
100
AcDbRegAppTableRecord
2
ACAD
70
0
0
APPID
5
20E
100
AcDbSymbolTableRecord
100
AcDbRegAppTableRecord
2
ACAD_DSTYLE_DIMBREAK
70
0
0
APPID
5
25E
100
AcDbSymbolTableRecord
100
AcDbRegAppTableRecord
2
ACAD_DSTYLE_DIM_LINETYPE
70
0
0
APPID
5
25F
100
AcDbSymbolTableRecord
100
AcDbRegAppTableRecord
2
ACAD_DSTYLE_DIM_EXT1_LINETYPE
70
0
0
APPID
5
260
100
AcDbSymbolTableRecord
100
AcDbRegAppTableRecord
2
ACAD_DSTYLE_DIM_EXT2_LINETYPE
70
0
0
APPID
5
29B
100
AcDbSymbolTableRecord
100
AcDbRegAppTableRecord
2
ACAD_MLEADERVER
70
0
0
ENDTAB
0
TABLE
2
BLOCK_RECORD
5
2bb
100
AcDbSymbolTable
0
BLOCK_RECORD
5
1F
100
AcDbSymbolTableRecord
100
AcDbBlockTableRecord
2
*Model_Space
340
0
70
0
0
BLOCK_RECORD
5
1B
100
AcDbSymbolTableRecord
100
AcDbBlockTableRecord
2
*Paper_Space
340
0
70
0
0
BLOCK_RECORD
5
23
100
AcDbSymbolTableRecord
100
AcDbBlockTableRecord
2
*Paper_Space0
340
0
70
0
0
BLOCK_RECORD
5
213
100
AcDbSymbolTableRecord
100
AcDbBlockTableRecord
2
*D1
340
0
70
0
0
BLOCK_RECORD
5
21F
100
AcDbSymbolTableRecord
100
AcDbBlockTableRecord
2
_U0
340
0
70
0
0
BLOCK_RECORD
5
22B
100
AcDbSymbolTableRecord
100
AcDbBlockTableRecord
2
*D3
340
0
70
0
0
BLOCK_RECORD
5
237
100
AcDbSymbolTableRecord
100
AcDbBlockTableRecord
2
_U1
340
0
70
0
0
ENDTAB
0
ENDSEC
0
SECTION
2
BLOCKS
0
BLOCK
5
20
100
AcDbEntity
8
0
100
AcDbBlockBegin
2
*Model_Space
70
0
10
0
20
0
30
0
3
*Model_Space
0
ENDBLK
5
21
100
AcDbEntity
8
0
100
AcDbBlockEnd
0
BLOCK
5
1C
100
AcDbEntity
8
0
100
AcDbBlockBegin
2
*Paper_Space
70
0
10
0
20
0
30
0
3
*Paper_Space
0
ENDBLK
5
1D
100
AcDbEntity
8
0
100
AcDbBlockEnd
0
BLOCK
5
24
100
AcDbEntity
8
0
100
AcDbBlockBegin
2
*Paper_Space0
70
0
10
0
20
0
30
0
3
*Paper_Space0
0
ENDBLK
5
25
100
AcDbEntity
8
0
100
AcDbBlockEnd
0
BLOCK
5
214
100
AcDbEntity
8
0
100
AcDbBlockBegin
2
*D1
70
1
10
0
20
0
30
0
3
*D1
0
LINE
5
216
100
AcDbEntity
8
0
62
256
6
ByLayer
370
-2
48
1
60
0
100
AcDbLine
10
81.5
20
14.0875
30
0
11
81.5
21
34.75
31
0
39
0
210
0
220
0
230
1
0
LINE
5
217
100
AcDbEntity
8
0
62
256
6
ByLayer
370
-2
48
1
60
0
100
AcDbLine
10
-118.5
20
14.0875
30
0
11
-118.5
21
34.75
31
0
39
0
210
0
220
0
230
1
0
LINE
5
218
100
AcDbEntity
8
0
62
256
6
ByLayer
370
-2
48
1
60
0
100
AcDbLine
10
78
20
32.75
30
0
11
-115
21
32.75
31
0
39
0
210
0
220
0
230
1
0
SOLID
5
219
100
AcDbEntity
8
0
62
256
6
ByLayer
370
-1
48
1
60
0
100
AcDbTrace
10
78
20
32.166667
30
0
11
78
21
33.333333
31
0
12
81.5
22
32.75
32
0
13
81.5
23
32.75
33
0
39
0
210
0
220
0
230
1
0
SOLID
5
21A
100
AcDbEntity
8
0
62
256
6
ByLayer
370
-1
48
1
60
0
100
AcDbTrace
10
-115
20
33.333333
30
0
11
-115
21
32.166667
31
0
12
-118.5
22
32.75
32
0
13
-118.5
23
32.75
33
0
39
0
210
0
220
0
230
1
0
MTEXT
5
21B
100
AcDbEntity
8
0
62
256
6
ByLayer
370
18
48
1
60
0
100
AcDbMText
10
-18.5
20
39.75
30
0
210
0
220
0
230
1
1
\A1;200
40
3.5
41
0
44
1
50
0
71
5
72
5
7
iso_b_vert
0
POINT
5
21C
100
AcDbEntity
8
Defpoints
62
0
6
ByLayer
370
-1
48
1
60
0
100
AcDbPoint
10
81.5
20
12.5
30
0
39
0
210
0
220
0
230
1
50
360
0
POINT
5
21D
100
AcDbEntity
8
Defpoints
62
0
6
ByLayer
370
-1
48
1
60
0
100
AcDbPoint
10
-118.5
20
12.5
30
0
39
0
210
0
220
0
230
1
50
360
0
POINT
5
21E
100
AcDbEntity
8
Defpoints
62
0
6
ByLayer
370
-1
48
1
60
0
100
AcDbPoint
10
-118.5
20
32.75
30
0
39
0
210
0
220
0
230
1
50
360
0
ENDBLK
5
215
100
AcDbEntity
8
0
100
AcDbBlockEnd
0
BLOCK
5
226
100
AcDbEntity
8
0
100
AcDbBlockBegin
2
_U0
70
0
10
0
20
0
30
0
3
_U0
0
MTEXT
5
220
100
AcDbEntity
8
SK2
62
256
6
ByLayer
370
18
48
1
60
0
100
AcDbMText
10
-21.712699
20
33.782634
30
0
210
0
220
0
230
1
1
\W0.7138;200
40
3.5
41
0
44
1.084337
50
0
71
7
72
5
7
iso_b_vert
0
LINE
5
221
100
AcDbEntity
8
SK2
62
256
6
ByLayer
370
13
48
1
60
0
100
AcDbLine
10
81.5
20
14.0875
30
0
11
81.5
21
34.75
31
0
39
0
210
0
220
0
230
1
0
LINE
5
222
100
AcDbEntity
8
SK2
62
256
6
ByLayer
370
13
48
1
60
0
100
AcDbLine
10
-118.5
20
14.0875
30
0
11
-118.5
21
34.75
31
0
39
0
210
0
220
0
230
1
0
LINE
5
223
100
AcDbEntity
8
SK2
62
256
6
ByLayer
370
13
48
1
60
0
100
AcDbLine
10
81.5
20
32.75
30
0
11
-118.5
21
32.75
31
0
39
0
210
0
220
0
230
1
0
SOLID
5
224
100
AcDbEntity
8
SK2
62
256
6
ByLayer
370
18
48
1
60
0
100
AcDbTrace
10
81.5
20
32.75
30
0
11
78.000002
21
32.289216
31
0
12
77.999998
22
33.210784
32
0
13
77.999998
23
33.210784
33
0
39
0
210
0
220
0
230
1
0
SOLID
5
225
100
AcDbEntity
8
SK2
62
256
6
ByLayer
370
18
48
1
60
0
100
AcDbTrace
10
-118.5
20
32.75
30
0
11
-115.000002
21
33.210784
31
0
12
-114.999998
22
32.289216
32
0
13
-114.999998
23
32.289216
33
0
39
0
210
0
220
0
230
1
0
ENDBLK
5
227
100
AcDbEntity
8
0
100
AcDbBlockEnd
0
BLOCK
5
22C
100
AcDbEntity
8
0
100
AcDbBlockBegin
2
*D3
70
1
10
0
20
0
30
0
3
*D3
0
LINE
5
22E
100
AcDbEntity
8
0
62
256
6
ByLayer
370
-2
48
1
60
0
100
AcDbLine
10
81.5
20
14.0875
30
0
11
81.5
21
22.75
31
0
39
0
210
0
220
0
230
1
0
LINE
5
22F
100
AcDbEntity
8
0
62
256
6
ByLayer
370
-2
48
1
60
0
100
AcDbLine
10
0
20
1.5875
30
0
11
0
21
22.75
31
0
39
0
210
0
220
0
230
1
0
LINE
5
230
100
AcDbEntity
8
0
62
256
6
ByLayer
370
-2
48
1
60
0
100
AcDbLine
10
78
20
20.75
30
0
11
3.5
21
20.75
31
0
39
0
210
0
220
0
230
1
0
SOLID
5
231
100
AcDbEntity
8
0
62
256
6
ByLayer
370
-1
48
1
60
0
100
AcDbTrace
10
78
20
20.166667
30
0
11
78
21
21.333333
31
0
12
81.5
22
20.75
32
0
13
81.5
23
20.75
33
0
39
0
210
0
220
0
230
1
0
SOLID
5
232
100
AcDbEntity
8
0
62
256
6
ByLayer
370
-1
48
1
60
0
100
AcDbTrace
10
3.5
20
21.333333
30
0
11
3.5
21
20.166667
31
0
12
0
22
20.75
32
0
13
0
23
20.75
33
0
39
0
210
0
220
0
230
1
0
MTEXT
5
233
100
AcDbEntity
8
0
62
256
6
ByLayer
370
18
48
1
60
0
100
AcDbMText
10
40.75
20
27.75
30
0
210
0
220
0
230
1
1
\A1;81.5
40
3.5
41
0
44
1
50
0
71
5
72
5
7
iso_b_vert
0
POINT
5
234
100
AcDbEntity
8
Defpoints
62
0
6
ByLayer
370
-1
48
1
60
0
100
AcDbPoint
10
81.5
20
12.5
30
0
39
0
210
0
220
0
230
1
50
360
0
POINT
5
235
100
AcDbEntity
8
Defpoints
62
0
6
ByLayer
370
-1
48
1
60
0
100
AcDbPoint
10
0
20
0
30
0
39
0
210
0
220
0
230
1
50
360
0
POINT
5
236
100
AcDbEntity
8
Defpoints
62
0
6
ByLayer
370
-1
48
1
60
0
100
AcDbPoint
10
0
20
20.75
30
0
39
0
210
0
220
0
230
1
50
360
0
ENDBLK
5
22D
100
AcDbEntity
8
0
100
AcDbBlockEnd
0
BLOCK
5
23E
100
AcDbEntity
8
0
100
AcDbBlockBegin
2
_U1
70
0
10
0
20
0
30
0
3
_U1
0
MTEXT
5
238
100
AcDbEntity
8
2
62
256
6
ByLayer
370
18
48
1
60
0
100
AcDbMText
10
37.265734
20
21.782634
30
0
210
0
220
0
230
1
1
\W0.6563;81.5
40
3.5
41
0
44
1.084337
50
0
71
7
72
5
7
iso_b_vert
0
LINE
5
239
100
AcDbEntity
8
2
62
256
6
ByLayer
370
13
48
1
60
0
100
AcDbLine
10
81.5
20
14.0875
30
0
11
81.5
21
22.75
31
0
39
0
210
0
220
0
230
1
0
LINE
5
23A
100
AcDbEntity
8
2
62
256
6
ByLayer
370
13
48
1
60
0
100
AcDbLine
10
0
20
1.5875
30
0
11
0
21
22.75
31
0
39
0
210
0
220
0
230
1
0
LINE
5
23B
100
AcDbEntity
8
2
62
256
6
ByLayer
370
13
48
1
60
0
100
AcDbLine
10
81.5
20
20.75
30
0
11
0
21
20.75
31
0
39
0
210
0
220
0
230
1
0
SOLID
5
23C
100
AcDbEntity
8
2
62
256
6
ByLayer
370
18
48
1
60
0
100
AcDbTrace
10
81.5
20
20.75
30
0
11
78.000002
21
20.289216
31
0
12
77.999998
22
21.210784
32
0
13
77.999998
23
21.210784
33
0
39
0
210
0
220
0
230
1
0
SOLID
5
23D
100
AcDbEntity
8
2
62
256
6
ByLayer
370
18
48
1
60
0
100
AcDbTrace
10
0
20
20.75
30
0
11
3.499998
21
21.210784
31
0
12
3.500002
22
20.289216
32
0
13
3.500002
23
20.289216
33
0
39
0
210
0
220
0
230
1
0
ENDBLK
5
23F
100
AcDbEntity
8
0
100
AcDbBlockEnd
0
ENDSEC
0
SECTION
2
ENTITIES
0
ARC
5
F8
100
AcDbEntity
8
1
62
256
6
ByLayer
370
18
48
1
60
0
100
AcDbCircle
39
0
10
73.785765
20
-8.507512
30
0
40
3
210
0
220
0
230
1
100
AcDbArc
50
257.112147
51
266.80133
0
ARC
5
F9
100
AcDbEntity
8
1
62
256
6
ByLayer
370
18
48
1
60
0
100
AcDbCircle
39
0
10
79.123062
20
-10.608598
30
0
40
1.2
210
0
220
0
230
1
100
AcDbArc
50
266.80133
51
338.642925
0
ARC
5
FA
100
AcDbEntity
8
1
62
256
6
ByLayer
370
18
48
1
60
0
100
AcDbCircle
39
0
10
71.625864
20
-7.676956
30
0
40
9.25
210
0
220
0
230
1
100
AcDbArc
50
338.642925
51
344.151989
0
ARC
5
FB
100
AcDbEntity
8
1
62
256
6
ByLayer
370
18
48
1
60
0
100
AcDbCircle
39
0
10
71.164611
20
-13.036985
30
0
40
2
210
0
220
0
230
1
100
AcDbArc
50
77.112147
51
87.627451
0
ARC
5
FC
100
AcDbEntity
8
1
62
256
6
ByLayer
370
18
48
1
60
0
100
AcDbCircle
39
0
10
5.4392
20
-1.7415
30
0
40
10
210
0
220
0
230
1
100
AcDbArc
50
270
51
270.696713
0
ARC
5
FD
100
AcDbEntity
8
1
62
256
6
ByLayer
370
18
48
1
60
0
100
AcDbCircle
39
0
10
5.4392
20
1.7415
30
0
40
10
210
0
220
0
230
1
100
AcDbArc
50
89.303287
51
90
0
ELLIPSE
5
FE
100
AcDbEntity
8
1
62
256
6
ByLayer
370
18
48
1
60
0
100
AcDbEllipse
10
1.5
20
12.4915
30
0
11
1.5
21
0
31
0
210
0
220
0
230
1
40
0.5
41
-2.77489405133571
42
-1.5707963267949
0
ELLIPSE
5
FF
100
AcDbEntity
8
1
62
256
6
ByLayer
370
18
48
1
60
0
100
AcDbEllipse
10
1.5
20
-12.4915
30
0
11
1.5
21
0
31
0
210
0
220
0
230
1
40
0.5
41
1.5707963267949
42
2.77489405133571
0
ELLIPSE
5
100
100
AcDbEntity
8
1
62
256
6
ByLayer
370
18
48
1
60
0
100
AcDbEllipse
10
72.820602
20
0.869101
30
0
11
3.90356848288079
21
11.3384066248199
31
0
210
0
220
0
230
1
40
0.157253
41
-2.07713923976033
42
-1.94932692683106
0
ELLIPSE
5
101
100
AcDbEntity
8
1
62
256
6
ByLayer
370
18
48
1
60
0
100
AcDbEllipse
10
77.225217
20
1.075741
30
0
11
1.39352114868265
21
-0.134531811012169
31
0
210
0
220
0
230
1
40
0.421168
41
0.211106683723967
42
3.11241700999522
0
ELLIPSE
5
102
100
AcDbEntity
8
1
62
256
6
ByLayer
370
18
48
1
60
0
100
AcDbEllipse
10
77.216502
20
0.985463
30
0
11
1.03518713902125
21
-0.0999379167518827
31
0
210
0
220
0
230
1
40
0.421168
41
0
42
6.28318530717959
0
ELLIPSE
5
103
100
AcDbEntity
8
1
62
256
6
ByLayer
370
18
48
1
60
0
100
AcDbEllipse
10
77.216502
20
0.985463
30
0
11
-1.29398392377663
21
0.124922395939945
31
0
210
0
220
0
230
1
40
0.421168
41
3.11241700999533
42
-0.0291756435945255
0
ELLIPSE
5
104
100
AcDbEntity
8
1
62
256
6
ByLayer
370
18
48
1
60
0
100
AcDbEllipse
10
324.010886
20
-14.759131
30
0
11
291.421171099221
21
-23.1240019566015
31
0
210
0
220
0
230
1
40
0.028281
41
-2.58760950988891
42
-2.57096259218897
0
ELLIPSE
5
105
100
AcDbEntity
8
1
62
256
6
ByLayer
370
18
48
1
60
0
100
AcDbEllipse
10
81.535458
20
-0.490701
30
0
11
9.61729818448395
21
-11.6820173625298
31
0
210
0
220
0
230
1
40
0.257799
41
-1.87939613618364
42
-1.86891798743757
0
ELLIPSE
5
106
100
AcDbEntity
8
1
62
256
6
ByLayer
370
18
48
1
60
0
100
AcDbEllipse
10
75.986395
20
0.070851
30
0
11
1.26867163056373
21
11.6351159685079
31
0
210
0
220
0
230
1
40
0.026311
41
1.32235734955127
42
1.51997767856562
0
ELLIPSE
5
107
100
AcDbEntity
8
1
62
256
6
ByLayer
370
18
48
1
60
0
100
AcDbEllipse
10
78.804064
20
0.07181
30
0
11
1.2858414014761
21
11.7925816709698
31
0
210
0
220
0
230
1
40
0.026311
41
1.33233913123195
42
1.55027372938477
0
ELLIPSE
5
108
100
AcDbEntity
8
1
62
256
6
ByLayer
370
18
48
1
60
0
100
AcDbEllipse
10
73.930044
20
0.718017
30
0
11
13.6353101381525
21
11.2385986260985
31
0
210
0
220
0
230
1
40
0.184661
41
-1.39109991243158
42
-1.38255993618625
0
ELLIPSE
5
109
100
AcDbEntity
8
1
62
256
6
ByLayer
370
18
48
1
60
0
100
AcDbEllipse
10
255.204108
20
-12.533185
30
0
11
247.469496877247
21
-19.636472564309
31
0
210
0
220
0
230
1
40
0.028281
41
-2.38412921869582
42
-2.36060283232481
0
ELLIPSE
5
10A
100
AcDbEntity
8
1
62
256
6
ByLayer
370
13
48
1
60
0
100
AcDbEllipse
10
80.842187
20
-4.553322
30
0
11
0.345005829140057
21
0.202412889558403
31
0
210
0
220
0
230
1
40
0.445279
41
0.00930312446900173
42
0.282279585755111
0
ELLIPSE
5
10B
100
AcDbEntity
8
1
62
256
6
ByLayer
370
13
48
1
60
0
100
AcDbEllipse
10
70.250827
20
8.324283
30
0
11
11.0193596999512
21
-12.891875873322
31
0
210
0
220
0
230
1
40
0.184247
41
-0.0371271188218419
42
-0.0207508434864271
0
ELLIPSE
5
10C
100
AcDbEntity
8
1
62
256
6
ByLayer
370
18
48
1
60
0
100
AcDbEllipse
10
80.536842
20
-3.939343
30
0
11
0.38914010038767
21
0.0925741987287735
31
0
210
0
220
0
230
1
40
0.666686
41
-0.0675229137713485
42
-0.000328902899736555
0
ELLIPSE
5
10D
100
AcDbEntity
8
1
62
256
6
ByLayer
370
13
48
1
60
0
100
AcDbEllipse
10
80.868179
20
-4.871263
30
0
11
0.194681706771894
21
-0.349426720570111
31
0
210
0
220
0
230
1
40
0.967705
41
1.1076418792027
42
1.71669554079643
0
ELLIPSE
5
10E
100
AcDbEntity
8
1
62
256
6
ByLayer
370
13
48
1
60
0
100
AcDbEllipse
10
80.595504
20
-4.656915
30
0
11
-0.389817608639834
21
-0.0896784923731489
31
0
210
0
220
0
230
1
40
0.598434
41
2.78714373038933
42
3.07878186204595
0
ELLIPSE
5
10F
100
AcDbEntity
8
1
62
256
6
ByLayer
370
13
48
1
60
0
100
AcDbEllipse
10
75.922867
20
20.068081
30
0
11
6.5858553850105
21
-30.7356434316891
31
0
210
0
220
0
230
1
40
0.011256
41
-0.729636011262748
42
-0.64256786462697
0
ELLIPSE
5
110
100
AcDbEntity
8
1
62
256
6
ByLayer
370
13
48
1
60
0
100
AcDbEllipse
10
73.123941
20
-4.494041
30
0
11
0.376900386609766
21
-0.133963049283781
31
0
210
0
220
0
230
1
40
0.10857
41
-2.49030744543928
42
-2.21007002097332
0
ELLIPSE
5
111
100
AcDbEntity
8
1
62
256
6
ByLayer
370
18
48
1
60
0
100
AcDbEllipse
10
67.015949
20
-0.827891
30
0
11
14.6039486087999
21
-4.14448360626927
31
0
210
0
220
0
230
1
40
0.326915
41
-0.31059262227172
42
-0.116276478554448
0
ELLIPSE
5
112
100
AcDbEntity
8
1
62
256
6
ByLayer
370
18
48
1
60
0
100
AcDbEllipse
10
74.072933
20
-5.638716
30
0
11
1.15931500204256
21
0.161129306244529
31
0
210
0
220
0
230
1
40
0.355545
41
-2.42726091463306
42
-1.76506438656936
0
ELLIPSE
5
113
100
AcDbEntity
8
1
62
256
6
ByLayer
370
18
48
1
60
0
100
AcDbEllipse
10
74.40124
20
-9.084872
30
0
11
0.277136885825318
21
-3.02477962614204
31
0
210
0
220
0
230
1
40
0.986815
41
2.94425955296745
42
3.11879247819556
0
ELLIPSE
5
114
100
AcDbEntity
8
1
62
256
6
ByLayer
370
18
48
1
60
0
100
AcDbEllipse
10
78.425972
20
-8.085353
30
0
11
2.06294323446663
21
0.205602252895246
31
0
210
0
220
0
230
1
40
0.949799
41
1.25082466298838
42
1.71515636870524
0
ELLIPSE
5
115
100
AcDbEntity
8
1
62
256
6
ByLayer
370
18
48
1
60
0
100
AcDbEllipse
10
66.522166
20
-0.013857
30
0
11
-14.6877647004688
21
1.41797028824714
31
0
210
0
220
0
230
1
40
0.421168
41
2.82298596753316
42
2.88650070770471
0
ELLIPSE
5
116
100
AcDbEntity
8
1
62
256
6
ByLayer
370
18
48
1
60
0
100
AcDbEllipse
10
75.49285
20
-2.710232
30
0
11
1.06651520201987
21
-0.0607450861042295
31
0
210
0
220
0
230
1
40
0.403722
41
-2.36031965594746
42
-1.69812312788724
0
ELLIPSE
5
117
100
AcDbEntity
8
1
62
256
6
ByLayer
370
13
48
1
60
0
100
AcDbEllipse
10
80.868179
20
-3.533143
30
0
11
0.383740908407008
21
-0.112884521591599
31
0
210
0
220
0
230
1
40
0.625386
41
-0.486354477469664
42
0.000440104615819835
0
ELLIPSE
5
118
100
AcDbEntity
8
1
62
256
6
ByLayer
370
13
48
1
60
0
100
AcDbEllipse
10
70.250835
20
-13.029102
30
0
11
10.6959035388101
21
12.9227358132353
31
0
210
0
220
0
230
1
40
0.275398
41
-0.570646428094722
42
-0.554270146591147
0
ELLIPSE
5
119
100
AcDbEntity
8
1
62
256
6
ByLayer
370
13
48
1
60
0
100
AcDbEllipse
10
80.842187
20
-3.135378
30
0
11
-0.0366907951050433
21
0.398313677338049
31
0
210
0
220
0
230
1
40
0.890484
41
-2.21168507902572
42
-1.67976598900015
0
ELLIPSE
5
11A
100
AcDbEntity
8
1
62
256
6
ByLayer
370
18
48
1
60
0
100
AcDbEllipse
10
75.922867
20
-23.83106
30
0
11
6.52683956961658
21
29.0509475263895
31
0
210
0
220
0
230
1
40
0.032539
41
-0.925946675861839
42
-0.908141246346548
0
ELLIPSE
5
11B
100
AcDbEntity
8
1
62
256
6
ByLayer
370
13
48
1
60
0
100
AcDbEllipse
10
80.536842
20
-3.619317
30
0
11
-0.393598073971216
21
0.0712780202176593
31
0
210
0
220
0
230
1
40
0.250842
41
-3.00643015806543
42
-2.57198561092913
0
ELLIPSE
5
11C
100
AcDbEntity
8
1
62
256
6
ByLayer
370
18
48
1
60
0
100
AcDbEllipse
10
66.522166
20
-5.350047
30
0
11
14.6775701708891
21
1.51987022910295
31
0
210
0
220
0
230
1
40
0.532907
41
-0.364482220116437
42
-0.350856335423029
0
ELLIPSE
5
11D
100
AcDbEntity
8
1
62
256
6
ByLayer
370
13
48
1
60
0
100
AcDbEllipse
10
76.858887
20
9.167644
30
0
11
-1.22879864020639
21
-1.23349245138433
31
0
210
0
220
0
230
1
40
0.992404
41
-0.155533598419264
42
0
0
ELLIPSE
5
11E
100
AcDbEntity
8
1
62
256
6
ByLayer
370
13
48
1
60
0
100
AcDbEllipse
10
76.858887
20
9.167644
30
0
11
-1.22879864020639
21
-1.23349245138433
31
0
210
0
220
0
230
1
40
0.992404
41
0
42
-2.98601014214043
0
ELLIPSE
5
11F
100
AcDbEntity
8
1
62
256
6
ByLayer
370
13
48
1
60
0
100
AcDbEllipse
10
76.858245
20
9.168283
30
0
11
-1.23386924600979
21
-1.23858242607814
31
0
210
0
220
0
230
1
40
0.992404
41
-0.207958642021438
42
0
0
ELLIPSE
5
120
100
AcDbEntity
8
1
62
256
6
ByLayer
370
13
48
1
60
0
100
AcDbEllipse
10
76.858245
20
9.168283
30
0
11
-1.23386924600979
21
-1.23858242607814
31
0
210
0
220
0
230
1
40
0.992404
41
0
42
-2.9335850362133
0
ELLIPSE
5
121
100
AcDbEntity
8
1
62
256
6
ByLayer
370
18
48
1
60
0
100
AcDbEllipse
10
74.40124
20
13.245717
30
0
11
2.99734989156925
21
0.141412794469643
31
0
210
0
220
0
230
1
40
0.340279
41
-1.6566298083399
42
-1.48209688317231
0
ELLIPSE
5
122
100
AcDbEntity
8
1
62
256
6
ByLayer
370
18
48
1
60
0
100
AcDbEllipse
10
86.84534
20
12.857647
30
0
11
13.1010951805727
21
-7.73798679123814
31
0
210
0
220
0
230
1
40
0.981525
41
-2.39243486140798
42
-2.23409147310208
0
ELLIPSE
5
123
100
AcDbEntity
8
1
62
256
6
ByLayer
370
18
48
1
60
0
100
AcDbEllipse
10
74.072933
20
11.190356
30
0
11
1.09874559176334
21
-0.447428206937237
31
0
210
0
220
0
230
1
40
0.836412
41
2.04396610546357
42
2.70616263352205
0
ELLIPSE
5
124
100
AcDbEntity
8
1
62
256
6
ByLayer
370
18
48
1
60
0
100
AcDbEllipse
10
76.758818
20
9.267332
30
0
11
1.44468184422728
21
1.45020029417395
31
0
210
0
220
0
230
1
40
0.992404
41
-0.257345036393747
42
1.97158025461011
0
ELLIPSE
5
125
100
AcDbEntity
8
1
62
256
6
ByLayer
370
18
48
1
60
0
100
AcDbEllipse
10
76.767512
20
9.258671
30
0
11
-1.36918297269885
21
-1.37441302922041
31
0
210
0
220
0
230
1
40
0.992404
41
2.88424761719645
42
-1.17001239897925
0
ELLIPSE
5
126
100
AcDbEntity
8
1
62
256
6
ByLayer
370
13
48
1
60
0
100
AcDbEllipse
10
76.830852
20
9.195572
30
0
11
-1.3333171763221
21
-1.33841023132818
31
0
210
0
220
0
230
1
40
0.992404
41
-0.791117117001688
42
-0.431503173939768
0
ELLIPSE
5
127
100
AcDbEntity
8
1
62
256
6
ByLayer
370
18
48
1
60
0
100
AcDbEllipse
10
76.830852
20
9.195572
30
0
11
-1.3333171763221
21
-1.33841023132818
31
0
210
0
220
0
230
1
40
0.992404
41
-0.431502641279019
42
0
0
ELLIPSE
5
128
100
AcDbEntity
8
1
62
256
6
ByLayer
370
18
48
1
60
0
100
AcDbEllipse
10
76.830852
20
9.195572
30
0
11
-1.3333171763221
21
-1.33841023132818
31
0
210
0
220
0
230
1
40
0.992404
41
0
42
0.579795717973846
0
ELLIPSE
5
129
100
AcDbEntity
8
1
62
256
6
ByLayer
370
18
48
1
60
0
100
AcDbEllipse
10
76.830852
20
9.195572
30
0
11
-1.3333171763221
21
-1.33841023132818
31
0
210
0
220
0
230
1
40
0.992404
41
2.54221114338476
42
-2.72133087125335
0
ELLIPSE
5
12A
100
AcDbEntity
8
1
62
256
6
ByLayer
370
13
48
1
60
0
100
AcDbEllipse
10
76.830852
20
9.195572
30
0
11
-1.3333171763221
21
-1.33841023132818
31
0
210
0
220
0
230
1
40
0.992404
41
-2.72133087125336
42
-0.791116585686069
0
ELLIPSE
5
12B
100
AcDbEntity
8
1
62
256
6
ByLayer
370
18
48
1
60
0
100
AcDbEllipse
10
76.767512
20
9.258671
30
0
11
-1.36918297269885
21
-1.37441302922041
31
0
210
0
220
0
230
1
40
0.992404
41
-0.257345036402008
42
1.97158025460184
0
ELLIPSE
5
12C
100
AcDbEntity
8
1
62
256
6
ByLayer
370
18
48
1
60
0
100
AcDbEllipse
10
76.758818
20
9.267332
30
0
11
1.44468184422707
21
1.45020029417374
31
0
210
0
220
0
230
1
40
0.992404
41
2.88424761718738
42
-1.17001239898835
0
ELLIPSE
5
12D
100
AcDbEntity
8
1
62
256
6
ByLayer
370
18
48
1
60
0
100
AcDbEllipse
10
78.425972
20
13.073894
30
0
11
2.07197968897595
21
0.0868431222011424
31
0
210
0
220
0
230
1
40
0.319439
41
-1.82292427897394
42
-1.35859257325938
0
ELLIPSE
5
12E
100
AcDbEntity
8
1
62
256
6
ByLayer
370
18
48
1
60
0
100
AcDbEllipse
10
67.015949
20
5.334671
30
0
11
9.09578587661198
21
11.8767090668934
31
0
210
0
220
0
230
1
40
0.968749
41
-0.693052820428972
42
-0.498736676679221
0
ELLIPSE
5
12F
100
AcDbEntity
8
1
62
256
6
ByLayer
370
18
48
1
60
0
100
AcDbEllipse
10
76.845974
20
9.180508
30
0
11
0.55839537894647
21
0.560528358578964
31
0
210
0
220
0
230
1
40
0.992404
41
1.90431516030044
42
2.95151271149699
0
ELLIPSE
5
130
100
AcDbEntity
8
1
62
256
6
ByLayer
370
18
48
1
60
0
100
AcDbEllipse
10
76.845974
20
9.180508
30
0
11
0.55839537894647
21
0.560528358578964
31
0
210
0
220
0
230
1
40
0.992404
41
2.95151271149706
42
-2.59680190165309
0
ELLIPSE
5
131
100
AcDbEntity
8
1
62
256
6
ByLayer
370
18
48
1
60
0
100
AcDbEllipse
10
76.845974
20
9.180508
30
0
11
0.55839537894647
21
0.560528358578964
31
0
210
0
220
0
230
1
40
0.992404
41
-0.00500468740412652
42
0.857117609103772
0
ELLIPSE
5
132
100
AcDbEntity
8
1
62
256
6
ByLayer
370
18
48
1
60
0
100
AcDbEllipse
10
76.845974
20
9.180508
30
0
11
-0.558395378946709
21
-0.560528358578726
31
0
210
0
220
0
230
1
40
0.992404
41
-2.28447504448597
42
-1.23727749328935
0
ELLIPSE
5
133
100
AcDbEntity
8
1
62
256
6
ByLayer
370
18
48
1
60
0
100
AcDbEllipse
10
76.845974
20
9.180508
30
0
11
0.55839537894647
21
0.560528358578964
31
0
210
0
220
0
230
1
40
0.992404
41
-0.922986770294921
42
-0.239952267379811
0
ELLIPSE
5
134
100
AcDbEntity
8
1
62
256
6
ByLayer
370
18
48
1
60
0
100
AcDbEllipse
10
76.845974
20
9.180508
30
0
11
0.55839537894647
21
0.560528358578964
31
0
210
0
220
0
230
1
40
0.992404
41
-2.10429196144968
42
-1.48389291277141
0
ELLIPSE
5
135
100
AcDbEntity
8
1
62
256
6
ByLayer
370
18
48
1
60
0
100
AcDbEllipse
10
76.028452
20
9.573006
30
0
11
0.105894991119468
21
0.217050274071992
31
0
210
0
220
0
230
1
40
0.501117
41
-2.79928989367853
42
-1.5676396319427
0
ELLIPSE
5
136
100
AcDbEntity
8
1
62
256
6
ByLayer
370
18
48
1
60
0
100
AcDbEllipse
10
76.028452
20
9.573006
30
0
11
0.105894991120431
21
0.217050274070804
31
0
210
0
220
0
230
1
40
0.501117
41
-1.56763963193274
42
-0.335989370195815
0
ELLIPSE
5
137
100
AcDbEntity
8
1
62
256
6
ByLayer
370
18
48
1
60
0
100
AcDbEllipse
10
76.782525
20
10.087384
30
0
11
0.240147504708196
21
0.0192434513937847
31
0
210
0
220
0
230
1
40
0.503564
41
-2.80753807869833
42
-1.57588781695245
0
ELLIPSE
5
138
100
AcDbEntity
8
1
62
256
6
ByLayer
370
18
48
1
60
0
100
AcDbEllipse
10
76.782525
20
10.087384
30
0
11
0.240147504706558
21
0.0192434513954482
31
0
210
0
220
0
230
1
40
0.503564
41
-1.57588781696841
42
-0.34423755521679
0
ELLIPSE
5
139
100
AcDbEntity
8
1
62
256
6
ByLayer
370
18
48
1
60
0
100
AcDbEllipse
10
76.337262
20
9.930825
30
0
11
0.199487237803808
21
0.136353682320597
31
0
210
0
220
0
230
1
40
0.500577
41
0.422217531774818
42
-2.94843992161387
0
ELLIPSE
5
13A
100
AcDbEntity
8
1
62
256
6
ByLayer
370
18
48
1
60
0
100
AcDbEllipse
10
75.938465
20
9.110129
30
0
11
0.016176969442386
21
-0.240110512293329
31
0
210
0
220
0
230
1
40
0.504663
41
2.95166015687655
42
-0.796662203598725
0
ELLIPSE
5
13B
100
AcDbEntity
8
1
62
256
6
ByLayer
370
18
48
1
60
0
100
AcDbEllipse
10
76.091901
20
8.66613
30
0
11
0.134447583300702
21
-0.198721703906639
31
0
210
0
220
0
230
1
40
0.507716
41
1.57273182408538
42
1.96507042315175
0
ELLIPSE
5
13C
100
AcDbEntity
8
1
62
256
6
ByLayer
370
18
48
1
60
0
100
AcDbEllipse
10
76.091901
20
8.66613
30
0
11
0.134447583292405
21
-0.198721703898762
31
0
210
0
220
0
230
1
40
0.507716
41
0.341081562333524
42
1.57273182410785
0
ELLIPSE
5
13D
100
AcDbEntity
8
1
62
256
6
ByLayer
370
18
48
1
60
0
100
AcDbEllipse
10
77.244771
20
10.001204
30
0
11
0.216582133317098
21
-0.103547693721282
31
0
210
0
220
0
230
1
40
0.507157
41
1.13798030819501
42
-2.94977090752301
0
ELLIPSE
5
13E
100
AcDbEntity
8
1
62
256
6
ByLayer
370
18
48
1
60
0
100
AcDbEllipse
10
77.600046
20
9.694886
30
0
11
0.134447583300817
21
-0.198721703908097
31
0
210
0
220
0
230
1
40
0.507716
41
-1.17652249303078
42
-0.337210567775393
0
ELLIPSE
5
13F
100
AcDbEntity
8
1
62
256
6
ByLayer
370
18
48
1
60
0
100
AcDbEllipse
10
76.447176
20
8.359812
30
0
11
0.216582133317098
21
-0.103547693721282
31
0
210
0
220
0
230
1
40
0.507157
41
2.94332903305836
42
-2.19592384043675
0
ELLIPSE
5
140
100
AcDbEntity
8
1
62
256
6
ByLayer
370
18
48
1
60
0
100
AcDbEllipse
10
76.758818
20
9.267332
30
0
11
0.730494359174095
21
0.733284728952422
31
0
210
0
220
0
230
1
40
0.992404
41
1.38071638470212
42
2.42791393589869
0
ELLIPSE
5
141
100
AcDbEntity
8
1
62
256
6
ByLayer
370
18
48
1
60
0
100
AcDbEllipse
10
76.758818
20
9.267332
30
0
11
0.730494359174095
21
0.733284728952422
31
0
210
0
220
0
230
1
40
0.992404
41
0.333518833505556
42
1.38071638470212
0
ELLIPSE
5
142
100
AcDbEntity
8
1
62
256
6
ByLayer
370
18
48
1
60
0
100
AcDbEllipse
10
76.758818
20
9.267332
30
0
11
0.730494359174095
21
0.733284728952422
31
0
210
0
220
0
230
1
40
0.992404
41
-0.713678717691052
42
0.333518833505556
0
ELLIPSE
5
143
100
AcDbEntity
8
1
62
256
6
ByLayer
370
18
48
1
60
0
100
AcDbEllipse
10
76.758818
20
9.267332
30
0
11
0.730494359174095
21
0.733284728952422
31
0
210
0
220
0
230
1
40
0.992404
41
-1.76087626888766
42
-0.713678717691052
0
ELLIPSE
5
144
100
AcDbEntity
8
1
62
256
6
ByLayer
370
18
48
1
60
0
100
AcDbEllipse
10
76.758818
20
9.267332
30
0
11
0.730494359174095
21
0.733284728952422
31
0
210
0
220
0
230
1
40
0.992404
41
-2.80807382008428
42
-1.76087626888766
0
ELLIPSE
5
145
100
AcDbEntity
8
1
62
256
6
ByLayer
370
18
48
1
60
0
100
AcDbEllipse
10
76.758818
20
9.267332
30
0
11
0.730494359174095
21
0.733284728952422
31
0
210
0
220
0
230
1
40
0.992404
41
2.42791393589869
42
-2.80807382008428
0
ELLIPSE
5
146
100
AcDbEntity
8
1
62
256
6
ByLayer
370
13
48
1
60
0
100
AcDbEllipse
10
76.758818
20
9.267332
30
0
11
-0.917484823850761
21
-0.920989466825511
31
0
210
0
220
0
230
1
40
0.992404
41
0
42
6.28318530717959
0
ELLIPSE
5
147
100
AcDbEntity
8
1
62
256
6
ByLayer
370
18
48
1
60
0
100
AcDbEllipse
10
76.760791
20
9.265366
30
0
11
-1.21743178549428
21
-1.22208217713385
31
0
210
0
220
0
230
1
40
0.992404
41
0
42
6.28318530717959
0
ELLIPSE
5
148
100
AcDbEntity
8
1
62
256
6
ByLayer
370
18
48
1
60
0
100
AcDbEllipse
10
76.837258
20
9.18919
30
0
11
-1.21743178549428
21
-1.22208217713385
31
0
210
0
220
0
230
1
40
0.992404
41
5.17665932213922E-05
42
3.14154610260871
0
ELLIPSE
5
149
100
AcDbEntity
8
1
62
256
6
ByLayer
370
18
48
1
60
0
100
AcDbEllipse
10
77.255606
20
0.187805
30
0
11
-0.945603636606072
21
0.0912894431868904
31
0
210
0
220
0
230
1
40
0.421168
41
-1.85964415731632
42
-1.1588723156231
0
POINT
5
70
100
AcDbEntity
8
1
62
256
6
ByLayer
370
18
48
1
60
0
100
AcDbPoint
10
0
20
0
30
0
39
0
210
0
220
0
230
1
50
360
0
POINT
5
72
100
AcDbEntity
8
81
62
256
6
ByLayer
370
18
48
1
60
0
100
AcDbPoint
10
81.5
20
12.5
30
0
39
0
210
0
220
0
230
1
50
360
0
POINT
5
74
100
AcDbEntity
8
80
62
256
6
ByLayer
370
18
48
1
60
0
100
AcDbPoint
10
0
20
0
30
0
39
0
210
0
220
0
230
1
50
360
0
POINT
5
76
100
AcDbEntity
8
1
62
256
6
ByLayer
370
18
48
1
60
1
100
AcDbPoint
10
-118.5
20
12.5
30
0
39
0
210
0
220
0
230
1
50
360
0
SPLINE
5
14A
100
AcDbEntity
8
1
62
256
6
ByLayer
370
18
48
1
60
0
100
AcDbSpline
70
4
71
2
72
6
73
3
40
0
40
0
40
0
40
1
40
1
40
1
41
1
10
69.5270177677683
20
10.9514802744135
30
0
41
1
10
69.393779786883
20
10.9476290442869
30
0
41
1
10
69.2604537291722
20
10.9497909953654
30
0
0
SPLINE
5
14B
100
AcDbEntity
8
1
62
256
6
ByLayer
370
18
48
1
60
0
100
AcDbSpline
70
4
71
3
72
8
73
4
40
0
40
0
40
0
40
0
40
1
40
1
40
1
40
1
41
1
10
72.7673829820634
20
7.50875519706408
30
0
41
1
10
72.7699911557918
20
7.52382051333456
30
0
41
1
10
72.7729254806924
20
7.53883395094408
30
0
41
1
10
72.7761132016374
20
7.55380220291093
30
0
0
SPLINE
5
14C
100
AcDbEntity
8
1
62
256
6
ByLayer
370
18
48
1
60
0
100
AcDbSpline
70
4
71
2
72
6
73
3
40
0
40
0
40
0
40
1
40
1
40
1
41
1
10
69.2604537291722
20
-10.9661382006694
30
0
41
1
10
69.4426283835053
20
-10.9631796822793
30
0
41
1
10
69.6246385977545
20
-10.9714645727583
30
0
0
SPLINE
5
14D
100
AcDbEntity
8
1
62
256
6
ByLayer
370
18
48
1
60
0
100
AcDbSpline
70
4
71
1
72
4
73
2
40
0
40
0
40
1
40
1
41
1
10
81.4417169910486
20
-5.2200087826091
30
0
41
1
10
81.3206609021876
20
-4.66933230691657
30
0
0
SPLINE
5
14E
100
AcDbEntity
8
1
62
256
6
ByLayer
370
18
48
1
60
0
100
AcDbSpline
70
4
71
3
72
13
73
9
40
0
40
0
40
0
40
0
40
0.12640587320306
40
0.35800742393704
40
0.550858603724654
40
0.743479103088387
40
0.95548003541579
40
1
40
1
40
1
40
1
41
1
10
81.1849801703069
20
-4.34947280360674
30
0
41
1
10
81.1719949636767
20
-4.32677899548344
30
0
41
1
10
81.1342133459458
20
-4.26131722740355
30
0
41
1
10
81.0638877133523
20
-4.15127652082867
30
0
41
1
10
80.9953326988396
20
-4.02962643104875
30
0
41
1
10
80.9487937295077
20
-3.92666176868977
30
0
41
1
10
80.9290187442802
20
-3.86313442195689
30
0
41
1
10
80.9235153451638
20
-3.83520249762432
30
0
41
1
10
80.9227307734794
20
-3.8305610181267
30
0
0
SPLINE
5
14F
100
AcDbEntity
8
1
62
256
6
ByLayer
370
18
48
1
60
0
100
AcDbSpline
70
4
71
3
72
10
73
6
40
0
40
0
40
0
40
0
40
0.306172819929772
40
0.841988738801167
40
1
40
1
40
1
40
1
41
1
10
81.3160040445808
20
-4.65431873046246
30
0
41
1
10
81.3092865724466
20
-4.62292185833924
30
0
41
1
10
81.2852011887352
20
-4.53665004735461
30
0
41
1
10
81.238448328322
20
-4.43808326214103
30
0
41
1
10
81.1953665465267
20
-4.36653617157569
30
0
41
1
10
81.1850091941029
20
-4.35020002386175
30
0
0
SPLINE
5
150
100
AcDbEntity
8
1
62
256
6
ByLayer
370
18
48
1
60
0
100
AcDbSpline
70
4
71
1
72
4
73
2
40
0
40
0
40
1
40
1
41
1
10
80.9259823537826
20
-3.84676886518376
30
0
41
1
10
80.5488144006704
20
-2.26132521940748
30
0
0
SPLINE
5
151
100
AcDbEntity
8
1
62
256
6
ByLayer
370
18
48
1
60
0
100
AcDbSpline
70
4
71
1
72
4
73
2
40
0
40
0
40
1
40
1
41
1
10
81.326692182459
20
-3.32788041533738
30
0
41
1
10
81.4469838436821
20
-2.63638410221064
30
0
0
SPLINE
5
152
100
AcDbEntity
8
1
62
256
6
ByLayer
370
18
48
1
60
0
100
AcDbSpline
70
4
71
3
72
11
73
7
40
0
40
0
40
0
40
0
40
0.0439572375048481
40
0.386422061075329
40
0.812126031220782
40
1
40
1
40
1
40
1
41
1
10
81.0901325301093
20
-4.19050618833731
30
0
41
1
10
81.0926681158388
20
-4.18170397027106
30
0
41
1
10
81.1149414073275
20
-4.10471683402916
30
0
41
1
10
81.1609688994006
20
-3.95048302842926
30
0
41
1
10
81.2122325798567
20
-3.77997790028149
30
0
41
1
10
81.2423195973429
20
-3.6775699582592
30
0
41
1
10
81.2513188443942
20
-3.64681958118175
30
0
0
SPLINE
5
153
100
AcDbEntity
8
1
62
256
6
ByLayer
370
18
48
1
60
0
100
AcDbSpline
70
4
71
2
72
6
73
3
40
0
40
0
40
0
40
1
40
1
40
1
41
1
10
81.2519199450714
20
-3.64602761623367
30
0
41
1
10
81.2753976750778
20
-3.56621961726734
30
0
41
1
10
81.2974924811972
20
-3.48724777898943
30
0
0
SPLINE
5
154
100
AcDbEntity
8
1
62
256
6
ByLayer
370
18
48
1
60
0
100
AcDbSpline
70
4
71
2
72
6
73
3
40
0
40
0
40
0
40
1
40
1
40
1
41
1
10
81.297538767912
20
-3.48209856551236
30
0
41
1
10
81.3147841965942
20
-3.43507390162111
30
0
41
1
10
81.3199084265449
20
-3.37963855810094
30
0
0
SPLINE
5
155
100
AcDbEntity
8
1
62
256
6
ByLayer
370
18
48
1
60
0
100
AcDbSpline
70
4
71
3
72
30
73
26
40
0
40
0
40
0
40
0
40
0.12499999999989
40
0.249999999999781
40
0.249999999999781
40
0.281249999999779
40
0.281249999999779
40
0.312499999999778
40
0.374999999999777
40
0.374999999999777
40
0.499999999999774
40
0.499999999999774
40
0.56249999999975
40
0.56249999999975
40
0.624999999999727
40
0.624999999999727
40
0.749999999999728
40
0.749999999999728
40
0.781249999999742
40
0.781249999999742
40
0.812499999999756
40
0.812499999999756
40
0.874999999999837
40
0.874999999999837
40
1
40
1
40
1
40
1
41
1
10
80.2406562861805
20
-3.28903967615646
30
0
41
1
10
80.2176925391762
20
-3.31215744394638
30
0
41
1
10
80.1631297204504
20
-3.35551084787682
30
0
41
1
10
80.0919214738281
20
-3.39330866285992
30
0
41
1
10
80.0420208119602
20
-3.41513148902101
30
0
41
1
10
80.0317488796787
20
-3.41941299311205
30
0
41
1
10
80.0108284617279
20
-3.42772288896485
30
0
41
1
10
79.97884009769
20
-3.43982874299621
30
0
41
1
10
79.9450589062292
20
-3.45087557553315
30
0
41
1
10
79.8751442492
20
-3.47157975447503
30
0
41
1
10
79.8254126365709
20
-3.4835384716922
30
0
41
1
10
79.7460219042046
20
-3.49864514172842
30
0
41
1
10
79.7186445841168
20
-3.50321923391827
30
0
41
1
10
79.6631608168864
20
-3.51125858477935
30
0
41
1
10
79.6349818239368
20
-3.51474251285104
30
0
41
1
10
79.5491628571982
20
-3.52362301598863
30
0
41
1
10
79.4902486149379
20
-3.52745777135847
30
0
41
1
10
79.4144569669729
20
-3.52961746237122
30
0
41
1
10
79.399190578426
20
-3.5299169570533
30
0
41
1
10
79.3684385956415
20
-3.53024727480431
30
0
41
1
10
79.3529244802766
20
-3.53027761362236
30
0
41
1
10
79.3063701030738
20
-3.529961846655
30
0
41
1
10
79.2752597156677
20
-3.52921233962628
30
0
41
1
10
79.1817103112238
20
-3.52537711675221
30
0
41
1
10
79.1190543914302
20
-3.52071443755841
30
0
41
1
10
79.0561035941984
20
-3.51390789020461
30
0
0
SPLINE
5
156
100
AcDbEntity
8
1
62
256
6
ByLayer
370
18
48
1
60
0
100
AcDbSpline
70
4
71
3
72
34
73
30
40
0
40
0
40
0
40
0
40
0.0647483306891056
40
0.0647483306891056
40
0.136690766789939
40
0.136690766789939
40
0.208633202890773
40
0.208633202890773
40
0.280575638991606
40
0.280575638991606
40
0.35251807509244
40
0.35251807509244
40
0.424460511193273
40
0.424460511193273
40
0.56834538339494
40
0.56834538339494
40
0.640287819495773
40
0.640287819495773
40
0.712230255596606
40
0.712230255596606
40
0.78417269169744
40
0.78417269169744
40
0.820143909747866
40
0.820143909747866
40
0.856115127798293
40
0.856115127798293
40
0.928057563899147
40
0.928057563899147
40
1
40
1
40
1
40
1
41
1
10
72.3655586862968
20
11.2502231571746
30
0
41
1
10
72.3483362616043
20
11.2467291305274
30
0
41
1
10
72.3311401768297
20
11.2432276937905
30
0
41
1
10
72.2948593493857
20
11.2358097607018
30
0
41
1
10
72.2757361720727
20
11.2318790508574
30
0
41
1
10
72.2380023111174
20
11.2241243039888
30
0
41
1
10
72.2194319624385
20
11.2203117124017
30
0
41
1
10
72.1833413987639
20
11.2129316480163
30
0
41
1
10
72.1657794635277
20
11.2093522158644
30
0
41
1
10
72.1317056222513
20
11.2024195029151
30
0
41
1
10
72.1153115959691
20
11.1990898400695
30
0
41
1
10
72.0840346652994
20
11.1927317888769
30
0
41
1
10
72.0691088074643
20
11.189694685605
30
0
41
1
10
72.0264645937104
20
11.180983527874
30
0
41
1
10
72.0008466072829
20
11.175703015595
30
0
41
1
10
71.967123079724
20
11.168577207182
30
0
41
1
10
71.9568088956902
20
11.1663643524398
30
0
41
1
10
71.938220149213
20
11.1622921221695
30
0
41
1
10
71.9299295098073
20
11.1604294597807
30
0
41
1
10
71.9153618225894
20
11.1570404175328
30
0
41
1
10
71.9090839392797
20
11.1555138644213
30
0
41
1
10
71.9012193458371
20
11.1534764335977
30
0
41
1
10
71.8988569729768
20
11.1528394539265
30
0
41
1
10
71.8946638793295
20
11.1516511917459
30
0
41
1
10
71.8928439901712
20
11.1511023044556
30
0
41
1
10
71.8878565555713
20
11.149508923523
30
0
41
1
10
71.8851013935096
20
11.1485053673754
30
0
41
1
10
71.879027906882
20
11.1462301816865
30
0
41
1
10
71.8758836193343
20
11.1449980360852
30
0
41
1
10
71.8727512760325
20
11.1436984163741
30
0
0
SPLINE
5
157
100
AcDbEntity
8
1
62
256
6
ByLayer
370
18
48
1
60
0
100
AcDbSpline
70
4
71
3
72
23
73
19
40
0
40
0
40
0
40
0
40
0.292013576910398
40
0.292013576910398
40
0.365016971137941
40
0.365016971137941
40
0.438020365365484
40
0.438020365365484
40
0.58402715382058
40
0.657030548048139
40
0.657030548048139
40
0.730033942275699
40
0.730033942275699
40
0.876040730730808
40
0.876040730730808
40
0.949044124958363
40
0.949044124958363
40
1
40
1
40
1
40
1
41
1
10
72.5500572014913
20
8.11976383832955
30
0
41
1
10
72.5234156447787
20
8.15861722523334
30
0
41
1
10
72.5003007275395
20
8.19952244708323
30
0
41
1
10
72.4765208322353
20
8.25361780530739
30
0
41
1
10
72.472011710171
20
8.26461827566898
30
0
41
1
10
72.4636096459819
20
8.28674672155969
30
0
41
1
10
72.4597147365841
20
8.29787360035247
30
0
41
1
10
72.4489616321387
20
8.33144461329263
30
0
41
1
10
72.44006730259
20
8.36539563123493
30
0
41
1
10
72.4341144227863
20
8.39994323546574
30
0
41
1
10
72.4308285987609
20
8.42311248390017
30
0
41
1
10
72.4295268493382
20
8.43478874928212
30
0
41
1
10
72.4267212384246
20
8.46957894203562
30
0
41
1
10
72.4262882237241
20
8.49258898973557
30
0
41
1
10
72.4278319868724
20
8.52679411345484
30
0
41
1
10
72.428713082317
20
8.53814387451939
30
0
41
1
10
72.4308491362134
20
8.55731801611529
30
0
41
1
10
72.4319151246627
20
8.56519228579441
30
0
41
1
10
72.433163102535
20
8.57299955729482
30
0
0
SPLINE
5
158
100
AcDbEntity
8
1
62
256
6
ByLayer
370
18
48
1
60
0
100
AcDbSpline
70
4
71
3
72
22
73
18
40
0
40
0
40
0
40
0
40
0.0278885755741393
40
0.0278885755741393
40
0.149402503627385
40
0.149402503627385
40
0.270916431680631
40
0.270916431680631
40
0.513944287787128
40
0.513944287787128
40
0.635458215840346
40
0.635458215840346
40
0.756972143893564
40
0.756972143893564
40
0.878486071946782
40
0.878486071946782
40
1
40
1
40
1
40
1
41
1
10
72.313217728225
20
7.76199224499786
30
0
41
1
10
72.3158120316076
20
7.76490502229268
30
0
41
1
10
72.3183919076086
20
7.76783317777297
30
0
41
1
10
72.3321477879444
20
7.78355054504785
30
0
41
1
10
72.3430814077263
20
7.79651112344159
30
0
41
1
10
72.3643197604565
20
7.82299763418125
30
0
41
1
10
72.3746043691446
20
7.8365422965846
30
0
41
1
10
72.404738363651
20
7.87797012588345
30
0
41
1
10
72.4239560272748
20
7.90662053335427
30
0
41
1
10
72.4521833699338
20
7.95051300729659
30
0
41
1
10
72.4614699140818
20
7.96531353217266
30
0
41
1
10
72.4798044895178
20
7.99524351740718
30
0
41
1
10
72.4888537565188
20
8.01036347274537
30
0
41
1
10
72.506698913233
20
8.04109594932625
30
0
41
1
10
72.5154837502465
20
8.05677724884194
30
0
41
1
10
72.532864404382
20
8.08840381649124
30
0
41
1
10
72.5414685914864
20
8.10428285371846
30
0
41
1
10
72.5500572014913
20
8.11976383832956
30
0
0
SPLINE
5
159
100
AcDbEntity
8
1
62
256
6
ByLayer
370
13
48
1
60
0
100
AcDbSpline
70
4
71
3
72
20
73
16
40
0
40
0
40
0
40
0
40
0.157602865896139
40
0.157602865896139
40
0.315205731792278
40
0.315205731792278
40
0.472808597688417
40
0.472808597688417
40
0.630411463584557
40
0.630411463584557
40
0.788014329480696
40
0.788014329480696
40
0.945617195376835
40
0.945617195376835
40
1
40
1
40
1
40
1
41
1
10
69.6246385977545
20
-8.05931005545706
30
0
41
1
10
69.6246385977545
20
-8.35090507493634
30
0
41
1
10
69.6246385977545
20
-8.62393065297452
30
0
41
1
10
69.6246385977545
20
-9.1290807720829
30
0
41
1
10
69.6246385977545
20
-9.36120370899458
30
0
41
1
10
69.6246385977545
20
-9.78134680111079
30
0
41
1
10
69.6246385977545
20
-9.96936562210577
30
0
41
1
10
69.6246385977545
20
-10.2987070099111
30
0
41
1
10
69.6246385977545
20
-10.4400285308625
30
0
41
1
10
69.6246385977545
20
-10.6740258879308
30
0
41
1
10
69.6246385977545
20
-10.7667009809641
30
0
41
1
10
69.6246385977545
20
-10.9021269802181
30
0
41
1
10
69.6246385977545
20
-10.9448774563789
30
0
41
1
10
69.6246385977545
20
-10.9684071860567
30
0
41
1
10
69.6246385977545
20
-10.971436182268
30
0
41
1
10
69.6246385977545
20
-10.971460055458
30
0
0
SPLINE
5
15A
100
AcDbEntity
8
1
62
256
6
ByLayer
370
18
48
1
60
0
100
AcDbSpline
70
4
71
3
72
46
73
42
40
0
40
0
40
0
40
0
40
0.0527369043881194
40
0.0527369043881194
40
0.125603296358266
40
0.125603296358266
40
0.162036492343338
40
0.162036492343338
40
0.19846968832841
40
0.19846968832841
40
0.234902884313482
40
0.234902884313482
40
0.271336080298554
40
0.271336080298554
40
0.307769276283626
40
0.307769276283626
40
0.344202472268698
40
0.417068864238845
40
0.417068864238845
40
0.562801648179138
40
0.562801648179138
40
0.708534432119432
40
0.708534432119432
40
0.744967628104505
40
0.744967628104505
40
0.763184226097041
40
0.763184226097041
40
0.781400824089576
40
0.781400824089576
40
0.799617422082112
40
0.799617422082112
40
0.817834020074648
40
0.817834020074648
40
0.854267216059719
40
0.854267216059719
40
0.927133608029863
40
0.927133608029863
40
0.963566804014935
40
0.981783402007468
40
0.981783402007468
40
1
40
1
40
1
40
1
41
1
10
71.841591615984
20
8.11508637153118
30
0
41
1
10
71.8242867170626
20
8.16547834376161
30
0
41
1
10
71.8087675024865
20
8.21634933105793
30
0
41
1
10
71.7760611153017
20
8.33864791301755
30
0
41
1
10
71.7605057632716
20
8.41051182205264
30
0
41
1
10
71.7426242438619
20
8.51974689851886
30
0
41
1
10
71.7375718400135
20
8.55639860394022
30
0
41
1
10
71.7293424247013
20
8.63019543537023
30
0
41
1
10
71.7261582715481
20
8.66739913779521
30
0
41
1
10
71.7217175356844
20
8.74166390244616
30
0
41
1
10
71.7204901847879
20
8.77879104910532
30
0
41
1
10
71.7199531624985
20
8.85303547707943
30
0
41
1
10
71.7206577562015
20
8.89015265591381
30
0
41
1
10
71.7223277490502
20
8.96438594320828
30
0
41
1
10
71.7230705169148
20
9.001503237758
30
0
41
1
10
71.7246129162896
20
9.07573777568439
30
0
41
1
10
71.7270381632792
20
9.18708936774919
30
0
41
1
10
71.7297495968543
20
9.29844033194063
30
0
41
1
10
71.7353799361548
20
9.52114181523906
30
0
41
1
10
71.73937964867
20
9.66960328652965
30
0
41
1
10
71.7474565385726
20
9.96652393310733
30
0
41
1
10
71.7515081206677
20
10.1149864762501
30
0
41
1
10
71.7566682367381
20
10.300553016473
30
0
41
1
10
71.757724152725
20
10.3376636027582
30
0
41
1
10
71.7592354972573
20
10.3933376095311
30
0
41
1
10
71.7597217848757
20
10.4118975751736
30
0
41
1
10
71.7606377748583
20
10.4490238666761
30
0
41
1
10
71.7610458374969
20
10.467592629811
30
0
41
1
10
71.7620205141004
20
10.5047122867931
30
0
41
1
10
71.7626288667483
20
10.5232584796779
30
0
41
1
10
71.7643198662226
20
10.5602974339639
30
0
41
1
10
71.7653807324868
20
10.578792648442
30
0
41
1
10
71.769169489369
20
10.6342100016701
30
0
41
1
10
71.7724901987485
20
10.6710653526375
30
0
41
1
10
71.7852436184942
20
10.7813169438735
30
0
41
1
10
71.797557140897
20
10.8543886359503
30
0
41
1
10
71.8215021793186
20
10.9633794149859
30
0
41
1
10
71.8348702789665
20
11.0177175868261
30
0
41
1
10
71.8503845613123
20
11.0718139991691
30
0
41
1
10
71.8612116140045
20
11.107823733722
30
0
41
1
10
71.8668760296483
20
11.1258267589833
30
0
41
1
10
71.8727512760324
20
11.1436984163741
30
0
0
SPLINE
5
15B
100
AcDbEntity
8
1
62
256
6
ByLayer
370
18
48
1
60
0
100
AcDbSpline
70
4
71
3
72
8
73
4
40
0
40
0
40
0
40
0
40
1
40
1
40
1
40
1
41
1
10
71.8727512760324
20
11.1436984163741
30
0
41
1
10
71.7854000919229
20
11.1238847487802
30
0
41
1
10
71.6980504462831
20
11.1040657783999
30
0
41
1
10
71.6106979130684
20
11.0842390040231
30
0
0
SPLINE
5
15C
100
AcDbEntity
8
1
62
256
6
ByLayer
370
18
48
1
60
0
100
AcDbSpline
70
4
71
3
72
8
73
4
40
0
40
0
40
0
40
0
40
1
40
1
40
1
40
1
41
1
10
71.6106979130683
20
11.0842390040231
30
0
41
1
10
71.4910752875836
20
11.0570877501491
30
0
41
1
10
71.3699773797004
20
11.0410793336876
30
0
41
1
10
71.2474049219942
20
11.0362017215285
30
0
0
SPLINE
5
15D
100
AcDbEntity
8
1
62
256
6
ByLayer
370
18
48
1
60
0
100
AcDbSpline
70
4
71
3
72
34
73
30
40
0
40
0
40
0
40
0
40
0.249999999999981
40
0.249999999999981
40
0.374999999999972
40
0.374999999999972
40
0.437499999999943
40
0.437499999999943
40
0.499999999999914
40
0.499999999999914
40
0.562499999999885
40
0.562499999999885
40
0.624999999999856
40
0.624999999999856
40
0.656249999999841
40
0.656249999999841
40
0.687499999999827
40
0.687499999999827
40
0.749999999999845
40
0.749999999999845
40
0.812499999999863
40
0.812499999999863
40
0.843749999999872
40
0.843749999999872
40
0.874999999999881
40
0.874999999999881
40
0.937499999999941
40
0.937499999999941
40
1
40
1
40
1
40
1
41
1
10
71.2474049219942
20
11.0362017215285
30
0
41
1
10
71.1059873717125
20
11.0305741933247
30
0
41
1
10
70.9645661688501
20
11.0249308284346
30
0
41
1
10
70.7525916270855
20
11.0164787403966
30
0
41
1
10
70.681964744531
20
11.0136645025969
30
0
41
1
10
70.5760683240471
20
11.0094442317894
30
0
41
1
10
70.5407628155081
20
11.0080357048089
30
0
41
1
10
70.4701522105583
20
11.0052057988228
30
0
41
1
10
70.4348476991132
20
11.003785440769
30
0
41
1
10
70.3642442572792
20
11.000914485228
30
0
41
1
10
70.3289454327231
20
10.9994635475565
30
0
41
1
10
70.258357626016
20
10.9965104692809
30
0
41
1
10
70.223068393707
20
10.9950097593889
30
0
41
1
10
70.1701423525683
20
10.9927136990925
30
0
41
1
10
70.1524672323436
20
10.9919392150365
30
0
41
1
10
70.1172755228093
20
10.9903790343991
30
0
41
1
10
70.0998380613699
20
10.9895968748951
30
0
41
1
10
70.0480097883912
20
10.9872401120559
30
0
41
1
10
70.0141010928481
20
10.9856557137577
30
0
41
1
10
69.947664325923
20
10.9824284028559
30
0
41
1
10
69.915138389274
20
10.9807852562001
30
0
41
1
10
69.8673493497
20
10.9782442866845
30
0
41
1
10
69.8515651703215
20
10.9773832747771
30
0
41
1
10
69.8204274282403
20
10.9756344123056
30
0
41
1
10
69.8051613131336
20
10.9747515302524
30
0
41
1
10
69.7602448892443
20
10.9720684857584
30
0
41
1
10
69.7314710606584
20
10.9702341728311
30
0
41
1
10
69.6762573262562
20
10.9664220020056
30
0
41
1
10
69.6498153062638
20
10.9644444637195
30
0
41
1
10
69.6246385977545
20
10.9623634311621
30
0
0
SPLINE
5
15E
100
AcDbEntity
8
1
62
256
6
ByLayer
370
18
48
1
60
0
100
AcDbSpline
70
4
71
3
72
21
73
17
40
0
40
0
40
0
40
0
40
0.125000000000004
40
0.125000000000004
40
0.250000000000008
40
0.250000000000008
40
0.31250000000001
40
0.31250000000001
40
0.375000000000012
40
0.375000000000012
40
0.500000000000017
40
0.625000000000021
40
0.625000000000021
40
0.750000000000025
40
0.750000000000025
40
1
40
1
40
1
40
1
41
1
10
69.6246385977541
20
10.9623608772365
30
0
41
1
10
69.5999478051035
20
10.9603199195976
30
0
41
1
10
69.5768813857867
20
10.9582884775669
30
0
41
1
10
69.5341523476604
20
10.9542055765182
30
0
41
1
10
69.5144857932368
20
10.9521557446366
30
0
41
1
10
69.4878805614649
20
10.9489885181555
30
0
41
1
10
69.4795770173584
20
10.9479140915113
30
0
41
1
10
69.4630840213687
20
10.9457350222813
30
0
41
1
10
69.454985344663
20
10.9446288173162
30
0
41
1
10
69.4312021059925
20
10.9412611100007
30
0
41
1
10
69.4008400042957
20
10.9366394208484
30
0
41
1
10
69.3731607098656
20
10.9316317579543
30
0
41
1
10
69.3468307772992
20
10.9263678600497
30
0
41
1
10
69.3343391198747
20
10.923606660909
30
0
41
1
10
69.2990201982747
20
10.9148868854179
30
0
41
1
10
69.2783017238641
20
10.9084802800636
30
0
41
1
10
69.2604537291722
20
10.9013456039549
30
0
0
SPLINE
5
15F
100
AcDbEntity
8
1
62
256
6
ByLayer
370
18
48
1
60
0
100
AcDbSpline
70
4
71
3
72
8
73
4
40
0
40
0
40
0
40
0
40
1
40
1
40
1
40
1
41
1
10
73.0318682294414
20
-3.52243286833877
30
0
41
1
10
73.0202694512753
20
-3.55641049476149
30
0
41
1
10
73.0086710169424
20
-3.59038845545847
30
0
41
1
10
72.9970729206231
20
-3.6243667447719
30
0
0
SPLINE
5
160
100
AcDbEntity
8
1
62
256
6
ByLayer
370
18
48
1
60
0
100
AcDbSpline
70
4
71
3
72
8
73
4
40
0
40
0
40
0
40
0
40
1
40
1
40
1
40
1
41
1
10
73.0091807057496
20
-3.51779755723496
30
0
41
1
10
73.0141850798138
20
-3.51294416498473
30
0
41
1
10
73.021750823966
20
-3.51449736333527
30
0
41
1
10
73.0318682294343
20
-3.52243286835829
30
0
0
SPLINE
5
161
100
AcDbEntity
8
1
62
256
6
ByLayer
370
18
48
1
60
0
100
AcDbSpline
70
4
71
3
72
18
73
14
40
0
40
0
40
0
40
0
40
0.250000000000017
40
0.250000000000017
40
0.500000000000035
40
0.500000000000035
40
0.625000000000026
40
0.625000000000026
40
0.750000000000017
40
0.750000000000017
40
0.875000000000009
40
0.875000000000009
40
1
40
1
40
1
40
1
41
1
10
69.2604537291724
20
-7.43756078568305
30
0
41
1
10
69.2798113074339
20
-7.49382946767841
30
0
41
1
10
69.3023884226418
20
-7.54878050884621
30
0
41
1
10
69.3535667652145
20
-7.65637517149678
30
0
41
1
10
69.3822000870839
20
-7.70908648568647
30
0
41
1
10
69.4294272477625
20
-7.78627267896323
30
0
41
1
10
69.4459002779296
20
-7.81169881633954
30
0
41
1
10
69.4803008628513
20
-7.86199381766012
30
0
41
1
10
69.4982261772584
20
-7.88686808982585
30
0
41
1
10
69.5344002075878
20
-7.93637259878092
30
0
41
1
10
69.5525917752178
20
-7.96102730411772
30
0
41
1
10
69.5887255140011
20
-8.01025955824029
30
0
41
1
10
69.6067236382461
20
-8.03481797759565
30
0
41
1
10
69.6246385977545
20
-8.0593082480205
30
0
0
SPLINE
5
162
100
AcDbEntity
8
1
62
256
6
ByLayer
370
18
48
1
60
0
100
AcDbSpline
70
4
71
3
72
30
73
26
40
0
40
0
40
0
40
0
40
0.124999999999997
40
0.124999999999997
40
0.249999999999995
40
0.249999999999995
40
0.312499999999994
40
0.312499999999994
40
0.374999999999993
40
0.374999999999993
40
0.437499999999992
40
0.437499999999992
40
0.499999999999991
40
0.499999999999991
40
0.624999999999989
40
0.624999999999989
40
0.687499999999991
40
0.687499999999991
40
0.749999999999993
40
0.749999999999993
40
0.812499999999995
40
0.812499999999995
40
0.874999999999996
40
0.874999999999996
40
1
40
1
40
1
40
1
41
1
10
69.6246385977545
20
-8.05931102608685
30
0
41
1
10
69.7065258214781
20
-8.17125392248472
30
0
41
1
10
69.7867147565889
20
-8.28095769922324
30
0
41
1
10
69.9402029076143
20
-8.49661732212556
30
0
41
1
10
70.013575584478
20
-8.60254246942182
30
0
41
1
10
70.1194178459412
20
-8.75814139101406
30
0
41
1
10
70.1540048299479
20
-8.80945766638511
30
0
41
1
10
70.2218598156402
20
-8.91093745702796
30
0
41
1
10
70.2551322437578
20
-8.961135795679
30
0
41
1
10
70.3200579940203
20
-9.060069989609
30
0
41
1
10
70.3517314300846
20
-9.10883537030752
30
0
41
1
10
70.4134399044972
20
-9.2049480631042
30
0
41
1
10
70.4434090673396
20
-9.25230616637393
30
0
41
1
10
70.5315078218801
20
-9.39210200536061
30
0
41
1
10
70.5880780965891
20
-9.48220991112495
30
0
41
1
10
70.6737020650509
20
-9.61206412366784
30
0
41
1
10
70.7023300252365
20
-9.65447298432952
30
0
41
1
10
70.7602862912126
20
-9.73747089940034
30
0
41
1
10
70.789626000709
20
-9.77805714415604
30
0
41
1
10
70.8504535429047
20
-9.85723377550129
30
0
41
1
10
70.8821593412419
20
-9.89579636393628
30
0
41
1
10
70.9479057474985
20
-9.97095513522177
30
0
41
1
10
70.981993514181
20
-10.0075445363463
30
0
41
1
10
71.0883004630014
20
-10.1143697795038
30
0
41
1
10
71.1645497335865
20
-10.18166055839
30
0
41
1
10
71.2474049219942
20
-10.24511650232
30
0
0
SPLINE
5
163
100
AcDbEntity
8
1
62
256
6
ByLayer
370
18
48
1
60
0
100
AcDbSpline
70
4
71
3
72
10
73
6
40
0
40
0
40
0
40
0
40
0.5
40
0.5
40
1
40
1
40
1
40
1
41
1
10
71.2474049219942
20
-10.24511650232
30
0
41
1
10
71.3041658332671
20
-10.2885877353517
30
0
41
1
10
71.3629496292686
20
-10.3323963441118
30
0
41
1
10
71.4842051306485
20
-10.4219831295789
30
0
41
1
10
71.5466705652748
20
-10.4677619358525
30
0
41
1
10
71.6106979130684
20
-10.5152345605952
30
0
0
SPLINE
5
164
100
AcDbEntity
8
1
62
256
6
ByLayer
370
18
48
1
60
0
100
AcDbSpline
70
4
71
3
72
14
73
10
40
0
40
0
40
0
40
0
40
0.25
40
0.25
40
0.5
40
0.5
40
0.75
40
0.75
40
1
40
1
40
1
40
1
41
1
10
71.6106979130683
20
-10.5152345605953
30
0
41
1
10
71.709788572778
20
-10.5887046302766
30
0
41
1
10
71.8148127214458
20
-10.658430933951
30
0
41
1
10
72.0378635842938
20
-10.7916765782839
30
0
41
1
10
72.1558948522864
20
-10.8551972888645
30
0
41
1
10
72.4059440175615
20
-10.9773790510387
30
0
41
1
10
72.537937563324
20
-11.0360442170978
30
0
41
1
10
72.8162107812631
20
-11.1498511981239
30
0
41
1
10
72.9624643250418
20
-11.2049872352384
30
0
41
1
10
73.1166345666946
20
-11.2590331476735
30
0
0
SPLINE
5
165
100
AcDbEntity
8
1
62
256
6
ByLayer
370
18
48
1
60
0
100
AcDbSpline
70
4
71
3
72
10
73
6
40
0
40
0
40
0
40
0
40
0.5
40
0.5
40
1
40
1
40
1
40
1
41
1
10
73.618369934622
20
-11.375977858098
30
0
41
1
10
73.5288761956442
20
-11.3650548328899
30
0
41
1
10
73.4425915959255
20
-11.3494765793101
30
0
41
1
10
73.2755858903955
20
-11.310182779944
30
0
41
1
10
73.1948727422541
20
-11.2864603187024
30
0
41
1
10
73.1166345666946
20
-11.2590331476735
30
0
0
SPLINE
5
166
100
AcDbEntity
8
1
62
256
6
ByLayer
370
18
48
1
60
0
100
AcDbSpline
70
4
71
3
72
34
73
30
40
0
40
0
40
0
40
0
40
0.124999999999901
40
0.124999999999901
40
0.187499999999852
40
0.187499999999852
40
0.249999999999803
40
0.249999999999803
40
0.265624999999794
40
0.265624999999794
40
0.281249999999786
40
0.281249999999786
40
0.312499999999769
40
0.312499999999769
40
0.374999999999734
40
0.374999999999734
40
0.406249999999724
40
0.406249999999724
40
0.421874999999719
40
0.421874999999719
40
0.437499999999714
40
0.437499999999714
40
0.499999999999739
40
0.499999999999739
40
0.624999999999804
40
0.624999999999804
40
0.74999999999987
40
0.74999999999987
40
1
40
1
40
1
40
1
41
1
10
73.6183699346221
20
-11.375977858098
30
0
41
1
10
73.8318323205972
20
-11.4020316921385
30
0
41
1
10
74.0501534540478
20
-11.4243759335829
30
0
41
1
10
74.385061842329
20
-11.4539471745559
30
0
41
1
10
74.4979282214186
20
-11.4631421109733
30
0
41
1
10
74.7260847713014
20
-11.4803980480746
30
0
41
1
10
74.8413744937485
20
-11.4884590349163
30
0
41
1
10
74.9870226348432
20
-11.4978813007021
30
0
41
1
10
75.0162543623983
20
-11.4997342734823
30
0
41
1
10
75.074567846381
20
-11.5033560361638
30
0
41
1
10
75.1036831474043
20
-11.5051270624063
30
0
41
1
10
75.1909062815248
20
-11.5103230576267
30
0
41
1
10
75.2488921098207
20
-11.5136318219073
30
0
41
1
10
75.4223587642898
20
-11.5230927930536
30
0
41
1
10
75.537357702627
20
-11.5287913659018
30
0
41
1
10
75.70873068829
20
-11.5362367305051
30
0
41
1
10
75.7656712485217
20
-11.5385371066857
30
0
41
1
10
75.8509344647821
20
-11.5418305476441
30
0
41
1
10
75.8793264931518
20
-11.542897836805
30
0
41
1
10
75.93610785135
20
-11.545024882338
30
0
41
1
10
75.9644928448111
20
-11.5460804385937
30
0
41
1
10
76.1064049707653
20
-11.5513332591513
30
0
41
1
10
76.2198983912978
20
-11.5554603562233
30
0
41
1
10
76.5603241959043
20
-11.5676623998901
30
0
41
1
10
76.7871953946087
20
-11.5755503181488
30
0
41
1
10
77.2409222216783
20
-11.5909654385645
30
0
41
1
10
77.4677868194809
20
-11.5985036294054
30
0
41
1
10
78.1484581625419
20
-11.6207022104531
30
0
41
1
10
78.6022934243902
20
-11.6348953721305
30
0
41
1
10
79.0561035941982
20
-11.6483868883155
30
0
0
SPLINE
5
167
100
AcDbEntity
8
1
62
256
6
ByLayer
370
18
48
1
60
0
100
AcDbSpline
70
4
71
3
72
29
73
25
40
0
40
0
40
0
40
0
40
0.124999999999994
40
0.249999999999988
40
0.249999999999988
40
0.374999999999982
40
0.374999999999982
40
0.499999999999975
40
0.499999999999975
40
0.624999999999969
40
0.624999999999969
40
0.687499999999966
40
0.687499999999966
40
0.718749999999965
40
0.718749999999965
40
0.749999999999963
40
0.749999999999963
40
0.874999999999957
40
0.874999999999957
40
0.906249999999968
40
0.906249999999968
40
0.937499999999979
40
0.937499999999979
40
1
40
1
40
1
40
1
41
1
10
80.2406562861805
20
-10.7780932185325
30
0
41
1
10
80.2192139376427
20
-10.8396268572487
30
0
41
1
10
80.1686535652377
20
-10.9581384572929
30
0
41
1
10
80.1030504383403
20
-11.0677240232952
30
0
41
1
10
80.0296085756117
20
-11.1726594895746
30
0
41
1
10
79.9889598335857
20
-11.22282213003
30
0
41
1
10
79.8990038579187
20
-11.317912031286
30
0
41
1
10
79.850946967586
20
-11.3615131093561
30
0
41
1
10
79.7486294188158
20
-11.4407702479151
30
0
41
1
10
79.6943722579
20
-11.4764307799365
30
0
41
1
10
79.6079590418232
20
-11.523484110696
30
0
41
1
10
79.5783129247235
20
-11.5380907772039
30
0
41
1
10
79.53248997371
20
-11.558267449839
30
0
41
1
10
79.5170190009588
20
-11.5646885411791
30
0
41
1
10
79.4859314746503
20
-11.5768136135052
30
0
41
1
10
79.4702796949571
20
-11.5825334087986
30
0
41
1
10
79.391479875665
20
-11.6094160918994
30
0
41
1
10
79.3267210204544
20
-11.6254680219301
30
0
41
1
10
79.2434957415684
20
-11.6383100970069
30
0
41
1
10
79.2267360737925
20
-11.6405149054574
30
0
41
1
10
79.192980935125
20
-11.6441764545999
30
0
41
1
10
79.1759563121714
20
-11.6456347386223
30
0
41
1
10
79.1247507351347
20
-11.648835462716
30
0
41
1
10
79.0904902883029
20
-11.6494091850179
30
0
41
1
10
79.0561035941979
20
-11.6483868883156
30
0
0
SPLINE
5
168
100
AcDbEntity
8
1
62
256
6
ByLayer
370
18
48
1
60
0
100
AcDbSpline
70
4
71
3
72
8
73
4
40
0
40
0
40
0
40
0
40
1
40
1
40
1
40
1
41
1
10
80.2406562861804
20
-10.7780932185326
30
0
41
1
10
80.3505091661639
20
-10.4628456878386
30
0
41
1
10
80.4447010513797
20
-10.142514663489
30
0
41
1
10
80.5242666633892
20
-9.81739918230896
30
0
0
SPLINE
5
169
100
AcDbEntity
8
1
62
256
6
ByLayer
370
18
48
1
60
0
100
AcDbSpline
70
4
71
3
72
12
73
8
40
0
40
0
40
0
40
0
40
0.500000000000002
40
0.500000000000002
40
0.750000000000001
40
0.750000000000001
40
1
40
1
40
1
40
1
41
1
10
80.5242666633895
20
-9.81739918230899
30
0
41
1
10
80.5242666633895
20
-9.64211167519423
30
0
41
1
10
80.5242666633893
20
-9.46680464081817
30
0
41
1
10
80.5242666633893
20
-9.2038098843509
30
0
41
1
10
80.5242666633894
20
-9.1161568586683
30
0
41
1
10
80.5242666633894
20
-8.94074659828404
30
0
41
1
10
80.5242666633893
20
-8.85296061805923
30
0
41
1
10
80.5242666633894
20
-8.76489775109633
30
0
0
SPLINE
5
16A
100
AcDbEntity
8
1
62
256
6
ByLayer
370
18
48
1
60
0
100
AcDbSpline
70
4
71
3
72
12
73
8
40
0
40
0
40
0
40
0
40
0.25
40
0.25
40
0.5
40
0.5
40
1
40
1
40
1
40
1
41
1
10
80.5242666633895
20
-8.76489775109256
30
0
41
1
10
80.521884222363
20
-8.68449980656943
30
0
41
1
10
80.519499901478
20
-8.60390619149327
30
0
41
1
10
80.514705685795
20
-8.44208079661604
30
0
41
1
10
80.5122954785417
20
-8.36084649635818
30
0
41
1
10
80.5050289377673
20
-8.11625066459794
30
0
41
1
10
80.5001374792132
20
-7.95200717221815
30
0
41
1
10
80.4952059317861
20
-7.78672491399581
30
0
0
SPLINE
5
16B
100
AcDbEntity
8
1
62
256
6
ByLayer
370
18
48
1
60
0
100
AcDbSpline
70
4
71
3
72
8
73
4
40
0
40
0
40
0
40
0
40
1
40
1
40
1
40
1
41
1
10
80.4948096214297
20
-7.77614680812049
30
0
41
1
10
80.494968673609
20
-7.7796728284774
30
0
41
1
10
80.4951007308648
20
-7.78319907427151
30
0
41
1
10
80.495205931786
20
-7.78672491399583
30
0
0
SPLINE
5
16C
100
AcDbEntity
8
1
62
256
6
ByLayer
370
18
48
1
60
0
100
AcDbSpline
70
4
71
3
72
21
73
17
40
0
40
0
40
0
40
0
40
0.276290801841762
40
0.276290801841762
40
0.552581603683525
40
0.552581603683525
40
0.690727004604406
40
0.759799705064844
40
0.759799705064844
40
0.828872405525283
40
0.828872405525283
40
0.897945105985721
40
0.897945105985721
40
0.96701780644616
40
0.96701780644616
40
1
40
1
40
1
40
1
41
1
10
80.4948096214297
20
-7.7761468081205
30
0
41
1
10
80.4885316700741
20
-7.63697119676456
30
0
41
1
10
80.4822250468135
20
-7.49742720483322
30
0
41
1
10
80.4695329563433
20
-7.21755863127333
30
0
41
1
10
80.463140759649
20
-7.07720903919702
30
0
41
1
10
80.4535263613621
20
-6.8662579628563
30
0
41
1
10
80.4487134674904
20
-6.76067844398978
30
0
41
1
10
80.4439030127456
20
-6.65498531287632
30
0
41
1
10
80.440697904409
20
-6.58450244991057
30
0
41
1
10
80.4390953439251
20
-6.54924595460383
30
0
41
1
10
80.4359224544591
20
-6.47883437823273
30
0
41
1
10
80.43435405829
20
-6.44368720677291
30
0
41
1
10
80.4312745992327
20
-6.37359077741503
30
0
41
1
10
80.429761306072
20
-6.33863224909088
30
0
41
1
10
80.4275642356011
20
-6.28710695888739
30
0
41
1
10
80.4268601061128
20
-6.27047413723976
30
0
41
1
10
80.4261619665552
20
-6.25386032281679
30
0
0
SPLINE
5
16D
100
AcDbEntity
8
1
62
256
6
ByLayer
370
18
48
1
60
0
100
AcDbSpline
70
4
71
3
72
21
73
17
40
0
40
0
40
0
40
0
40
0.124999999999961
40
0.124999999999961
40
0.249999999999921
40
0.249999999999921
40
0.312499999999927
40
0.312499999999927
40
0.374999999999933
40
0.374999999999933
40
0.49999999999994
40
0.624999999999946
40
0.624999999999946
40
0.749999999999953
40
0.749999999999953
40
1
40
1
40
1
40
1
41
1
10
69.6246385977545
20
-5.86973443474879
30
0
41
1
10
69.5999475825275
20
-5.89032183221006
30
0
41
1
10
69.5768809499092
20
-5.9119094330041
30
0
41
1
10
69.5341515304357
20
-5.95715796012762
30
0
41
1
10
69.5144848074837
20
-5.98081739389366
30
0
41
1
10
69.487879393375
20
-6.01802712992497
30
0
41
1
10
69.4795757987308
20
-6.03076577867263
30
0
41
1
10
69.4630827212609
20
-6.05629588715587
30
0
41
1
10
69.4549840156111
20
-6.06915406783592
30
0
41
1
10
69.4312007455197
20
-6.10789046341687
30
0
41
1
10
69.4008387479748
20
-6.15999322851437
30
0
41
1
10
69.3731597458765
20
-6.21292891455484
30
0
41
1
10
69.3468301338932
20
-6.26624839901575
30
0
41
1
10
69.3343386518543
20
-6.29310652750958
30
0
41
1
10
69.2990201770265
20
-6.37396123132403
30
0
41
1
10
69.2783018259957
20
-6.42831716115707
30
0
41
1
10
69.2604537291723
20
-6.48305969850405
30
0
0
SPLINE
5
16E
100
AcDbEntity
8
1
62
256
6
ByLayer
370
18
48
1
60
0
100
AcDbSpline
70
4
71
3
72
18
73
14
40
0
40
0
40
0
40
0
40
0.25
40
0.25
40
0.5
40
0.5
40
0.625
40
0.625
40
0.75
40
0.75
40
0.875
40
0.875
40
1
40
1
40
1
40
1
41
1
10
69.2604537291723
20
10.6980353487049
30
0
41
1
10
69.2798116650935
20
10.6809293863331
30
0
41
1
10
69.3023891654879
20
10.6632665100571
30
0
41
1
10
69.3535679729508
20
10.6271217954126
30
0
41
1
10
69.3822013654126
20
10.6086132601008
30
0
41
1
10
69.4294283195034
20
10.5807806744668
30
0
41
1
10
69.4459012352624
20
10.5714910496735
30
0
41
1
10
69.4803015790714
20
10.5529492701778
30
0
41
1
10
69.4982267621755
20
10.5436985739478
30
0
41
1
10
69.5344005436365
20
10.5250944452129
30
0
41
1
10
69.5525919901116
20
10.5157256952965
30
0
41
1
10
69.5887255606515
20
10.4967291232539
30
0
41
1
10
69.6067236424321
20
10.4871102097974
30
0
41
1
10
69.6246385977545
20
10.4773476604472
30
0
0
SPLINE
5
16F
100
AcDbEntity
8
1
62
256
6
ByLayer
370
18
48
1
60
0
100
AcDbSpline
70
4
71
3
72
34
73
30
40
0
40
0
40
0
40
0
40
0.250000000000068
40
0.250000000000068
40
0.375000000000101
40
0.375000000000101
40
0.437500000000094
40
0.437500000000094
40
0.500000000000087
40
0.500000000000087
40
0.562500000000079
40
0.562500000000079
40
0.625000000000072
40
0.625000000000072
40
0.656250000000092
40
0.656250000000092
40
0.687500000000113
40
0.687500000000113
40
0.750000000000106
40
0.750000000000106
40
0.8125000000001
40
0.8125000000001
40
0.843750000000097
40
0.843750000000097
40
0.875000000000094
40
0.875000000000094
40
0.937500000000047
40
0.937500000000047
40
1
40
1
40
1
40
1
41
1
10
71.2474049219942
20
-5.72312005291606
30
0
41
1
10
71.1059873717125
20
-5.71082025640587
30
0
41
1
10
70.9645661688501
20
-5.69855630550204
30
0
41
1
10
70.7525916270856
20
-5.67855488851259
30
0
41
1
10
70.681964744531
20
-5.6715682791028
30
0
41
1
10
70.5760683240471
20
-5.66063992114934
30
0
41
1
10
70.5407628155081
20
-5.65698820146406
30
0
41
1
10
70.4701522105584
20
-5.65024120316683
30
0
41
1
10
70.4348476991132
20
-5.64708877060595
30
0
41
1
10
70.3642442572792
20
-5.64247683696972
30
0
41
1
10
70.3289454327231
20
-5.6410533738707
30
0
41
1
10
70.2583576260159
20
-5.64122785685855
30
0
41
1
10
70.223068393707
20
-5.64275119160536
30
0
41
1
10
70.1701423525685
20
-5.64735898588472
30
0
41
1
10
70.1524672323437
20
-5.64928807576712
30
0
41
1
10
70.1172755228093
20
-5.6539483572554
30
0
41
1
10
70.09983806137
20
-5.65666751639733
30
0
41
1
10
70.0480097883911
20
-5.66601152781418
30
0
41
1
10
70.0141010928483
20
-5.67381830089442
30
0
41
1
10
69.9476643259231
20
-5.69279758523957
30
0
41
1
10
69.915138389274
20
-5.70397521156245
30
0
41
1
10
69.8673493496999
20
-5.72315814622289
30
0
41
1
10
69.8515651703216
20
-5.7299668898852
30
0
41
1
10
69.8204274282404
20
-5.74434931872383
30
0
41
1
10
69.8051613131337
20
-5.7518810954525
30
0
41
1
10
69.7602448892444
20
-5.77546283966399
30
0
41
1
10
69.7314710606584
20
-5.7924931557708
30
0
41
1
10
69.6762573262561
20
-5.82913397958537
30
0
41
1
10
69.6498153062637
20
-5.84874225928371
30
0
41
1
10
69.6246385977545
20
-5.86973456827518
30
0
0
SPLINE
5
170
100
AcDbEntity
8
1
62
256
6
ByLayer
370
18
48
1
60
0
100
AcDbSpline
70
4
71
3
72
30
73
26
40
0
40
0
40
0
40
0
40
0.125000000000008
40
0.125000000000008
40
0.250000000000016
40
0.250000000000016
40
0.312500000000017
40
0.312500000000017
40
0.375000000000018
40
0.375000000000018
40
0.437500000000018
40
0.437500000000018
40
0.500000000000019
40
0.500000000000019
40
0.625000000000014
40
0.625000000000014
40
0.687500000000012
40
0.687500000000012
40
0.750000000000009
40
0.750000000000009
40
0.812500000000007
40
0.812500000000007
40
0.875000000000005
40
0.875000000000005
40
1
40
1
40
1
40
1
41
1
10
69.6246385977545
20
10.4773477960225
30
0
41
1
10
69.7065258214782
20
10.4327248390528
30
0
41
1
10
69.786714756589
20
10.3844687176477
30
0
41
1
10
69.9402029076143
20
10.2797980746052
30
0
41
1
10
70.013575584478
20
10.223383393572
30
0
41
1
10
70.1194178459413
20
10.1325410683385
30
0
41
1
10
70.1540048299478
20
10.1012258649859
30
0
41
1
10
70.2218598156402
20
10.0364967955515
30
0
41
1
10
70.2551322437579
20
10.0030564934544
30
0
41
1
10
70.3200579940201
20
9.93421653528104
30
0
41
1
10
70.3517314300846
20
9.8987998450901
30
0
41
1
10
70.4134399044973
20
9.82593589661039
30
0
41
1
10
70.4434090673397
20
9.78847432637194
30
0
41
1
10
70.5315078218801
20
9.67313997364028
30
0
41
1
10
70.5880780965892
20
9.59236130886684
30
0
41
1
10
70.673702065051
20
9.46621492796693
30
0
41
1
10
70.7023300252364
20
9.42332932355735
30
0
41
1
10
70.7602862912126
20
9.33601716264738
30
0
41
1
10
70.789626000709
20
9.29159214870619
30
0
41
1
10
70.8504535429048
20
9.20157639100411
30
0
41
1
10
70.8821593412419
20
9.15604085353462
30
0
41
1
10
70.9479057474984
20
9.06390422017901
30
0
41
1
10
70.981993514181
20
9.01731430669022
30
0
41
1
10
71.0883004630014
20
8.87615853114872
30
0
41
1
10
71.1645497335865
20
8.78019939403657
30
0
41
1
10
71.2474049219942
20
8.68294206441065
30
0
0
SPLINE
5
171
100
AcDbEntity
8
1
62
256
6
ByLayer
370
13
48
1
60
0
100
AcDbSpline
70
4
71
3
72
38
73
34
40
0
40
0
40
0
40
0
40
0.0625
40
0.0625
40
0.125
40
0.125
40
0.1875
40
0.1875
40
0.25
40
0.25
40
0.3125
40
0.3125
40
0.375
40
0.375
40
0.4375
40
0.4375
40
0.5
40
0.5
40
0.5625
40
0.5625
40
0.625
40
0.625
40
0.6875
40
0.6875
40
0.75
40
0.75
40
0.8125
40
0.8125
40
0.875
40
0.875
40
0.9375
40
0.9375
40
1
40
1
40
1
40
1
41
1
10
69.6246385977545
20
10.4773478259127
30
0
41
1
10
69.6246385977545
20
10.3529579338006
30
0
41
1
10
69.6246385977545
20
10.2055987404103
30
0
41
1
10
69.6246385977545
20
9.86687417278318
30
0
41
1
10
69.6246385977545
20
9.67550977260092
30
0
41
1
10
69.6246385977545
20
9.25128623152938
30
0
41
1
10
69.6246385977545
20
9.01842831056007
30
0
41
1
10
69.6246385977545
20
8.51427379265185
30
0
41
1
10
69.6246385977545
20
8.24297864548672
30
0
41
1
10
69.6246385977545
20
7.66551025322138
30
0
41
1
10
69.6246385977545
20
7.35933866872026
30
0
41
1
10
69.6246385977545
20
6.71613576000216
30
0
41
1
10
69.6246385977545
20
6.37910628541397
30
0
41
1
10
69.6246385977545
20
5.67861099338077
30
0
41
1
10
69.6246385977545
20
5.31514719031763
30
0
41
1
10
69.6246385977545
20
4.56655361909651
30
0
41
1
10
69.6246385977545
20
4.18142600363437
30
0
41
1
10
69.6246385977545
20
3.39455955436795
30
0
41
1
10
69.6246385977545
20
2.992822983319
30
0
41
1
10
69.6246385977545
20
2.17801139432471
30
0
41
1
10
69.6246385977545
20
1.76493871949526
30
0
41
1
10
69.6246385977545
20
0.932876513175245
30
0
41
1
10
69.6246385977545
20
0.51388937440737
30
0
41
1
10
69.6246385977545
20
-0.324502509937005
30
0
41
1
10
69.6246385977545
20
-0.743904844588869
30
0
41
1
10
69.6246385977545
20
-1.57762238969768
30
0
41
1
10
69.6246385977545
20
-1.99193520267177
30
0
41
1
10
69.6246385977545
20
-2.81003574267766
30
0
41
1
10
69.6246385977545
20
-3.21382111713567
30
0
41
1
10
69.6246385977545
20
-4.00556696166889
30
0
41
1
10
69.6246385977545
20
-4.39352515495729
30
0
41
1
10
69.6246385977545
20
-5.14852452291713
30
0
41
1
10
69.6246385977545
20
-5.51556352647192
30
0
41
1
10
69.6246385977545
20
-5.86973523307989
30
0
0
SPLINE
5
172
100
AcDbEntity
8
1
62
256
6
ByLayer
370
18
48
1
60
0
100
AcDbSpline
70
4
71
3
72
8
73
4
40
0
40
0
40
0
40
0
40
1
40
1
40
1
40
1
41
1
10
80.2406562861805
20
-3.28903967615646
30
0
41
1
10
80.3489742872409
20
-3.17999517242089
30
0
41
1
10
80.4434500752953
20
-3.06807347227669
30
0
41
1
10
80.5242666633895
20
-2.95331261620751
30
0
0
SPLINE
5
173
100
AcDbEntity
8
1
62
256
6
ByLayer
370
18
48
1
60
0
100
AcDbSpline
70
4
71
3
72
8
73
4
40
0
40
0
40
0
40
0
40
1
40
1
40
1
40
1
41
1
10
80.2406562861805
20
7.48300034067471
30
0
41
1
10
80.350509166164
20
7.43094860974129
30
0
41
1
10
80.4447010513798
20
7.37529760014277
30
0
41
1
10
80.5242666633894
20
7.31618211422212
30
0
0
SPLINE
5
174
100
AcDbEntity
8
1
62
256
6
ByLayer
370
18
48
1
60
0
100
AcDbSpline
70
4
71
3
72
8
73
4
40
0
40
0
40
0
40
0
40
1
40
1
40
1
40
1
41
1
10
71.6106979130684
20
-5.77189101620658
30
0
41
1
10
71.4910752875837
20
-5.75003892894372
30
0
41
1
10
71.3699773797004
20
-5.73378079682328
30
0
41
1
10
71.2474049219942
20
-5.72312005291606
30
0
0
SPLINE
5
175
100
AcDbEntity
8
1
62
256
6
ByLayer
370
18
48
1
60
0
100
AcDbSpline
70
4
71
3
72
10
73
6
40
0
40
0
40
0
40
0
40
0.5
40
0.5
40
1
40
1
40
1
40
1
41
1
10
71.2474049219942
20
8.68294206441067
30
0
41
1
10
71.3041658332671
20
8.61631479865167
30
0
41
1
10
71.3629496292685
20
8.55106009444181
30
0
41
1
10
71.4842051306485
20
8.42426366047826
30
0
41
1
10
71.5466705652748
20
8.362719173401
30
0
41
1
10
71.6106979130684
20
8.30351558922814
30
0
0
SPLINE
5
176
100
AcDbEntity
8
1
62
256
6
ByLayer
370
18
48
1
60
0
100
AcDbSpline
70
4
71
3
72
35
73
31
40
0
40
0
40
0
40
0
40
0.125000000000058
40
0.125000000000058
40
0.187500000000054
40
0.187500000000054
40
0.25000000000005
40
0.25000000000005
40
0.312500000000046
40
0.312500000000046
40
0.375000000000042
40
0.375000000000042
40
0.437500000000038
40
0.437500000000038
40
0.500000000000034
40
0.500000000000034
40
0.625000000000025
40
0.625000000000025
40
0.68750000000002
40
0.68750000000002
40
0.750000000000014
40
0.812500000000008
40
0.812500000000008
40
0.843750000000007
40
0.843750000000007
40
0.875000000000005
40
0.875000000000005
40
0.937500000000003
40
0.937500000000003
40
1
40
1
40
1
40
1
41
1
10
72.486717411169
20
-5.16665048788458
30
0
41
1
10
72.4480223285013
20
-5.18286475450475
30
0
41
1
10
72.409587622454
20
-5.199491732849
30
0
41
1
10
72.3521606170747
20
-5.22466097634808
30
0
41
1
10
72.3330530070649
20
-5.23308831365844
30
0
41
1
10
72.2948635065246
20
-5.24995250368166
30
0
41
1
10
72.2757407063473
20
-5.25832890693542
30
0
41
1
10
72.2380078587885
20
-5.2758126038247
30
0
41
1
10
72.2194381678116
20
-5.2849797362977
30
0
41
1
10
72.1833494974046
20
-5.30483185194906
30
0
41
1
10
72.1657887659544
20
-5.3154548352115
30
0
41
1
10
72.1317177733928
20
-5.33820393624167
30
0
41
1
10
72.1153177139134
20
-5.35025500230343
30
0
41
1
10
72.0840367324421
20
-5.37545861430027
30
0
41
1
10
72.0691096226711
20
-5.38864151686658
30
0
41
1
10
72.0264634711892
20
-5.42991361570603
30
0
41
1
10
72.0008466358395
20
-5.45969931778852
30
0
41
1
10
71.9671266240543
20
-5.50811973962929
30
0
41
1
10
71.956807671356
20
-5.52471486293743
30
0
41
1
10
71.9382167578521
20
-5.55860246991764
30
0
41
1
10
71.9216346774953
20
-5.59326450832745
30
0
41
1
10
71.9090806151077
20
-5.62946611923655
30
0
41
1
10
71.9012169109684
20
-5.65720658078627
30
0
41
1
10
71.8988548736474
20
-5.66655183786042
30
0
41
1
10
71.8946624578613
20
-5.68544380829053
30
0
41
1
10
71.8928428838224
20
-5.69499498327222
30
0
41
1
10
71.8878562484183
20
-5.7238144262997
30
0
41
1
10
71.885100913454
20
-5.7431478346992
30
0
41
1
10
71.8790276507331
20
-5.78158088439993
30
0
41
1
10
71.8758834910011
20
-5.80073285102512
30
0
41
1
10
71.8727512760324
20
-5.81984917204242
30
0
0
SPLINE
5
177
100
AcDbEntity
8
1
62
256
6
ByLayer
370
18
48
1
60
0
100
AcDbSpline
70
4
71
3
72
14
73
10
40
0
40
0
40
0
40
0
40
0.249999999999999
40
0.249999999999999
40
0.499999999999999
40
0.499999999999999
40
0.749999999999999
40
0.749999999999999
40
1
40
1
40
1
40
1
41
1
10
71.6106979130684
20
8.30351558922823
30
0
41
1
10
71.7097885727781
20
8.21189033197453
30
0
41
1
10
71.8148127214457
20
8.12186279875282
30
0
41
1
10
72.0378635842938
20
7.94714584274905
30
0
41
1
10
72.1558948522864
20
7.86246154899314
30
0
41
1
10
72.4059440175616
20
7.70050637917969
30
0
41
1
10
72.537937563324
20
7.62321859811
30
0
41
1
10
72.816210781263
20
7.47754002812378
30
0
41
1
10
72.9624643250418
20
7.40912172571871
30
0
41
1
10
73.1166345666946
20
7.34642689461299
30
0
0
SPLINE
5
178
100
AcDbEntity
8
1
62
256
6
ByLayer
370
18
48
1
60
0
100
AcDbSpline
70
4
71
3
72
8
73
4
40
0
40
0
40
0
40
0
40
1
40
1
40
1
40
1
41
1
10
71.8727512760324
20
-5.81984917204241
30
0
41
1
10
71.7854000919229
20
-5.80385181475499
30
0
41
1
10
71.6980504462831
20
-5.7878481578485
30
0
41
1
10
71.6106979130684
20
-5.77189101620655
30
0
0
SPLINE
5
179
100
AcDbEntity
8
1
62
256
6
ByLayer
370
18
48
1
60
0
100
AcDbSpline
70
4
71
3
72
34
73
30
40
0
40
0
40
0
40
0
40
0.0624999999999847
40
0.0624999999999847
40
0.124999999999969
40
0.124999999999969
40
0.249999999999939
40
0.249999999999939
40
0.312499999999934
40
0.312499999999934
40
0.37499999999993
40
0.37499999999993
40
0.499999999999919
40
0.499999999999919
40
0.562499999999912
40
0.562499999999912
40
0.593749999999909
40
0.593749999999909
40
0.624999999999907
40
0.624999999999907
40
0.74999999999992
40
0.74999999999992
40
0.78124999999993
40
0.78124999999993
40
0.81249999999994
40
0.81249999999994
40
0.87499999999996
40
0.87499999999996
40
1
40
1
40
1
40
1
41
1
10
73.0347966964658
20
-3.89146266075034
30
0
41
1
10
73.0195330429042
20
-3.87203063510528
30
0
41
1
10
73.0050745168853
20
-3.85203858725107
30
0
41
1
10
72.9778076004588
20
-3.81090348786842
30
0
41
1
10
72.9649857548866
20
-3.78973510515374
30
0
41
1
10
72.9292316245099
20
-3.72454999442934
30
0
41
1
10
72.9095164421691
20
-3.67990810859766
30
0
41
1
10
72.8865742980797
20
-3.61102406988964
30
0
41
1
10
72.8800629509453
20
-3.58773402626231
30
0
41
1
10
72.8693204240365
20
-3.54049046557667
30
0
41
1
10
72.8650774834515
20
-3.51642592208749
30
0
41
1
10
72.8559702993035
20
-3.4446582570465
30
0
41
1
10
72.8545510701118
20
-3.39704407363682
30
0
41
1
10
72.8593200913985
20
-3.32596363078122
30
0
41
1
10
72.8620720937666
20
-3.3023278561303
30
0
41
1
10
72.8680766606253
20
-3.26697022138689
30
0
41
1
10
72.8703911492831
20
-3.25521902555568
30
0
41
1
10
72.8756115037061
20
-3.23203178425139
30
0
41
1
10
72.8785234071993
20
-3.22056247101246
30
0
41
1
10
72.8945998076338
20
-3.16384304395662
30
0
41
1
10
72.9123672958397
20
-3.12049752751618
30
0
41
1
10
72.9401984576557
20
-3.06865984144964
30
0
41
1
10
72.9460472255864
20
-3.05841012475339
30
0
41
1
10
72.9583214642171
20
-3.0381521243357
30
0
41
1
10
72.9647552299225
20
-3.02813516126345
30
0
41
1
10
72.9847141620992
20
-2.99879372596399
30
0
41
1
10
72.9989593053392
20
-2.98006157293445
30
0
41
1
10
73.0445502747904
20
-2.92640387820271
30
0
41
1
10
73.0787873422176
20
-2.89405045799013
30
0
41
1
10
73.1166345666946
20
-2.86494364481688
30
0
0
SPLINE
5
17A
100
AcDbEntity
8
1
62
256
6
ByLayer
370
18
48
1
60
0
100
AcDbSpline
70
4
71
3
72
14
73
10
40
0
40
0
40
0
40
0
40
0.0356019421047521
40
0.0356019421047521
40
0.357067961403168
40
0.357067961403168
40
0.678533980701584
40
0.678533980701584
40
1
40
1
40
1
40
1
41
1
10
72.9996034611995
20
-3.72942676071635
30
0
41
1
10
72.9995077632481
20
-3.72777954714245
30
0
41
1
10
72.9994146879471
20
-3.72612581258295
30
0
41
1
10
72.9985056288861
20
-3.70947900568109
30
0
41
1
10
72.9978697161331
20
-3.69403820290114
30
0
41
1
10
72.9968272783082
20
-3.66258624540562
30
0
41
1
10
72.9964282827369
20
-3.64655636926082
30
0
41
1
10
72.995855162576
20
-3.61393749540849
30
0
41
1
10
72.99568398637
20
-3.59734116680784
30
0
41
1
10
72.9955706896965
20
-3.58060092593142
30
0
0
SPLINE
5
17B
100
AcDbEntity
8
1
62
256
6
ByLayer
370
18
48
1
60
0
100
AcDbSpline
70
4
71
3
72
8
73
4
40
0
40
0
40
0
40
0
40
1
40
1
40
1
40
1
41
1
10
72.9955706896964
20
-3.58060092593142
30
0
41
1
10
72.9953957616991
20
-3.55475429940168
30
0
41
1
10
72.9997414267332
20
-3.53356767858546
30
0
41
1
10
73.0091807057496
20
-3.51779755723497
30
0
0
SPLINE
5
17C
100
AcDbEntity
8
1
62
256
6
ByLayer
370
18
48
1
60
0
100
AcDbSpline
70
4
71
3
72
24
73
20
40
0
40
0
40
0
40
0
40
0.0090773693401972
40
0.0090773693401972
40
0.0991612448547258
40
0.0991612448547258
40
0.279328995883783
40
0.279328995883783
40
0.369412871398312
40
0.369412871398312
40
0.459496746912841
40
0.459496746912841
40
0.639664497941895
40
0.639664497941895
40
0.819832248970949
40
0.819832248970949
40
0.909916124485475
40
0.909916124485475
40
1
40
1
40
1
40
1
41
1
10
72.9592942375593
20
-3.02685502154219
30
0
41
1
10
72.9591918958052
20
-3.02782283754924
30
0
41
1
10
72.9590899226855
20
-3.02879144311345
30
0
41
1
10
72.9579813887999
20
-3.03938410823716
30
0
41
1
10
72.9570510717975
20
-3.04917147002573
30
0
41
1
10
72.9547567460911
20
-3.07959724919519
30
0
41
1
10
72.9538373532428
20
-3.10118796427352
30
0
41
1
10
72.9541785142402
20
-3.1372585442014
30
0
41
1
10
72.954585203181
20
-3.14991229269751
30
0
41
1
10
72.9560820610519
20
-3.1765334670592
30
0
41
1
10
72.9571730146372
20
-3.1905192743957
30
0
41
1
10
72.9614960771067
20
-3.23454696293254
30
0
41
1
10
72.9658044210452
20
-3.26671043037362
30
0
41
1
10
72.9764613679987
20
-3.33505933566117
30
0
41
1
10
72.9827659756374
20
-3.37116909027674
30
0
41
1
10
72.9927570327191
20
-3.42631592367913
30
0
41
1
10
72.9961639734459
20
-3.44484250614076
30
0
41
1
10
73.0027783432984
20
-3.481519759492
30
0
41
1
10
73.0060059566934
20
-3.49970846076776
30
0
41
1
10
73.0091807057497
20
-3.51779755723503
30
0
0
SPLINE
5
17D
100
AcDbEntity
8
1
62
256
6
ByLayer
370
18
48
1
60
0
100
AcDbSpline
70
4
71
3
72
16
73
12
40
0
40
0
40
0
40
0
40
0.249999999999963
40
0.249999999999963
40
0.499999999999927
40
0.499999999999927
40
0.624999999999977
40
0.624999999999977
40
0.750000000000027
40
0.750000000000027
40
1
40
1
40
1
40
1
41
1
10
73.6183699346221
20
-2.68371640617117
30
0
41
1
10
73.5719626393004
20
-2.68703026415585
30
0
41
1
10
73.5265056642175
20
-2.69338286897083
30
0
41
1
10
73.4373076377398
20
-2.71155963091324
30
0
41
1
10
73.3935841801716
20
-2.72345195668976
30
0
41
1
10
73.3294677061189
20
-2.74618240230433
30
0
41
1
10
73.3083367935311
20
-2.75460410656554
30
0
41
1
10
73.2672858249411
20
-2.77282023332589
30
0
41
1
10
73.2472690028715
20
-2.78264079548704
30
0
41
1
10
73.1887041216324
20
-2.81421007238433
30
0
41
1
10
73.1516228297002
20
-2.83803554657096
30
0
41
1
10
73.1166345666946
20
-2.86494364481686
30
0
0
SPLINE
5
17E
100
AcDbEntity
8
1
62
256
6
ByLayer
370
18
48
1
60
0
100
AcDbSpline
70
4
71
3
72
10
73
6
40
0
40
0
40
0
40
0
40
0.5
40
0.5
40
1
40
1
40
1
40
1
41
1
10
73.6183699346221
20
7.16496406501335
30
0
41
1
10
73.5288761956442
20
7.19341862827433
30
0
41
1
10
73.4425915959255
20
7.22287527642526
30
0
41
1
10
73.2755858903955
20
7.28346800588596
30
0
41
1
10
73.1948727422541
20
7.31461057811677
30
0
41
1
10
73.1166345666946
20
7.34642689461299
30
0
0
SPLINE
5
17F
100
AcDbEntity
8
1
62
256
6
ByLayer
370
18
48
1
60
0
100
AcDbSpline
70
4
71
3
72
18
73
14
40
0
40
0
40
0
40
0
40
0.250000000000003
40
0.250000000000003
40
0.500000000000007
40
0.500000000000007
40
0.625000000000007
40
0.625000000000007
40
0.687500000000008
40
0.687500000000008
40
0.750000000000009
40
0.750000000000009
40
1
40
1
40
1
40
1
41
1
10
69.2604537291723
20
-6.48305728330377
30
0
41
1
10
69.233689270444
20
-6.56514668393271
30
0
41
1
10
69.213812521096
20
-6.6468043410961
30
0
41
1
10
69.1873218630973
20
-6.80916490614655
30
0
41
1
10
69.1807116691876
20
-6.88986825793441
30
0
41
1
10
69.1809325744797
20
-7.01017164783615
30
0
41
1
10
69.1827124990783
20
-7.05014847715731
30
0
41
1
10
69.1879208944715
20
-7.10991955000959
30
0
41
1
10
69.1900823839563
20
-7.12982534245771
30
0
41
1
10
69.1952139226205
20
-7.16935182930685
30
0
41
1
10
69.1981855508407
20
-7.1889985561421
30
0
41
1
10
69.215021685181
20
-7.28666131901299
30
0
41
1
10
69.2347907437455
20
-7.362969338939
30
0
41
1
10
69.2604537291723
20
-7.43756537784851
30
0
0
SPLINE
5
180
100
AcDbEntity
8
1
62
256
6
ByLayer
370
13
48
1
60
0
100
AcDbSpline
70
4
71
3
72
38
73
34
40
0
40
0
40
0
40
0
40
0.0625
40
0.0625
40
0.125
40
0.125
40
0.1875
40
0.1875
40
0.25
40
0.25
40
0.3125
40
0.3125
40
0.375
40
0.375
40
0.4375
40
0.4375
40
0.5
40
0.5
40
0.5625
40
0.5625
40
0.625
40
0.625
40
0.6875
40
0.6875
40
0.75
40
0.75
40
0.8125
40
0.8125
40
0.875
40
0.875
40
0.9375
40
0.9375
40
1
40
1
40
1
40
1
41
1
10
69.2604537291722
20
-6.48306122601807
30
0
41
1
10
69.2604537291723
20
-6.11790084564039
30
0
41
1
10
69.2604537291723
20
-5.73614446140408
30
0
41
1
10
69.2604537291723
20
-4.94528282370561
30
0
41
1
10
69.2604537291723
20
-4.53618067014699
30
0
41
1
10
69.2604537291723
20
-3.6968953846765
30
0
41
1
10
69.2604537291722
20
-3.26671554247207
30
0
41
1
10
69.2604537291723
20
-2.39186576392767
30
0
41
1
10
69.2604537291723
20
-1.94719925669561
30
0
41
1
10
69.2604537291723
20
-1.05018904307124
30
0
41
1
10
69.2604537291723
20
-0.59784885264807
30
0
41
1
10
69.2604537291723
20
0.307578205762866
30
0
41
1
10
69.2604537291722
20
0.760661524790379
30
0
41
1
10
69.2604537291722
20
1.66063287855383
30
0
41
1
10
69.2604537291723
20
2.10751738571399
30
0
41
1
10
69.2604537291723
20
2.98824407526845
30
0
41
1
10
69.2604537291723
20
3.42208280551939
30
0
41
1
10
69.2604537291722
20
4.27007072946239
30
0
41
1
10
69.2604537291722
20
4.68421659933571
30
0
41
1
10
69.2604537291722
20
5.48647326502514
30
0
41
1
10
69.2604537291722
20
5.87458091627319
30
0
41
1
10
69.2604537291722
20
6.61881450500294
30
0
41
1
10
69.2604537291723
20
6.97493752534695
30
0
41
1
10
69.2604537291722
20
7.6497452221092
30
0
41
1
10
69.2604537291723
20
7.96842725351519
30
0
41
1
10
69.2604537291722
20
8.56346995584461
30
0
41
1
10
69.2604537291723
20
8.8398282944069
30
0
41
1
10
69.2604537291722
20
9.34598902349578
30
0
41
1
10
69.2604537291723
20
9.57578943004776
30
0
41
1
10
69.2604537291723
20
9.98531301702786
30
0
41
1
10
69.2604537291723
20
10.1650345922655
30
0
41
1
10
69.2604537291722
20
10.4716464994454
30
0
41
1
10
69.2604537291723
20
10.5985356295753
30
0
41
1
10
69.2604537291722
20
10.6980368578415
30
0
0
SPLINE
5
181
100
AcDbEntity
8
1
62
256
6
ByLayer
370
18
48
1
60
0
100
AcDbSpline
70
4
71
3
72
18
73
14
40
0
40
0
40
0
40
0
40
0.25
40
0.25
40
0.5
40
0.5
40
0.625000000000001
40
0.625000000000001
40
0.687500000000004
40
0.687500000000004
40
0.750000000000006
40
0.750000000000006
40
1
40
1
40
1
40
1
41
1
10
69.2604537291722
20
10.9013460746636
30
0
41
1
10
69.233689270444
20
10.8906478161858
30
0
41
1
10
69.213812521096
20
10.8784036386549
30
0
41
1
10
69.1873218630972
20
10.8507414169026
30
0
41
1
10
69.1807116691876
20
10.8353236197898
30
0
41
1
10
69.1809325744797
20
10.8097361976154
30
0
41
1
10
69.1827124990782
20
10.8007963845967
30
0
41
1
10
69.1879208944714
20
10.7867609282103
30
0
41
1
10
69.1900823839563
20
10.7819742939574
30
0
41
1
10
69.1952139226205
20
10.77224592763
30
0
41
1
10
69.1981855508408
20
10.7672982661243
30
0
41
1
10
69.215021685181
20
10.7421486782768
30
0
41
1
10
69.2347907437456
20
10.7207132952995
30
0
41
1
10
69.2604537291723
20
10.6980363134092
30
0
0
SPLINE
5
182
100
AcDbEntity
8
1
62
256
6
ByLayer
370
13
48
1
60
0
100
AcDbSpline
70
4
71
3
72
8
73
4
40
0
40
0
40
0
40
0
40
1
40
1
40
1
40
1
41
1
10
69.2604537291722
20
10.9013459940718
30
0
41
1
10
69.2604537291723
20
10.9443831540794
30
0
41
1
10
69.2604537291723
20
10.9660176668519
30
0
41
1
10
69.2604537291723
20
10.9661369940718
30
0
0
SPLINE
5
183
100
AcDbEntity
8
1
62
256
6
ByLayer
370
13
48
1
60
0
100
AcDbSpline
70
4
71
3
72
20
73
16
40
0
40
0
40
0
40
0
40
0.0784313660418847
40
0.0784313660418847
40
0.232026138368237
40
0.232026138368237
40
0.38562091069459
40
0.38562091069459
40
0.539215683020942
40
0.539215683020942
40
0.692810455347295
40
0.692810455347295
40
0.846405227673647
40
0.846405227673647
40
1
40
1
40
1
40
1
41
1
10
69.2604537291722
20
-10.9661304645229
30
0
41
1
10
69.2604537291722
20
-10.9660611588298
30
0
41
1
10
69.2604537291722
20
-10.9583418637677
30
0
41
1
10
69.2604537291722
20
-10.9128767977782
30
0
41
1
10
69.2604537291722
20
-10.8534453321363
30
0
41
1
10
69.2604537291722
20
-10.6768650001874
30
0
41
1
10
69.2604537291722
20
-10.5597168926378
30
0
41
1
10
69.2604537291722
20
-10.2695820013355
30
0
41
1
10
69.2604537291722
20
-10.0965964642787
30
0
41
1
10
69.2604537291722
20
-9.69756116550737
30
0
41
1
10
69.2604537291722
20
-9.47151311842865
30
0
41
1
10
69.2604537291722
20
-8.96997847232772
30
0
41
1
10
69.2604537291722
20
-8.69449402837606
30
0
41
1
10
69.2604537291722
20
-8.09850532176991
30
0
41
1
10
69.2604537291723
20
-7.77800362005057
30
0
41
1
10
69.2604537291722
20
-7.43756246466657
30
0
0
SPLINE
5
184
100
AcDbEntity
8
1
62
256
6
ByLayer
370
18
48
1
60
0
100
AcDbSpline
70
4
71
3
72
85
73
81
40
0
40
0
40
0
40
0
40
0.0312500000000152
40
0.0312500000000152
40
0.0625000000000304
40
0.0625000000000304
40
0.125000000000061
40
0.125000000000061
40
0.156250000000078
40
0.156250000000078
40
0.171875000000087
40
0.171875000000087
40
0.187500000000096
40
0.187500000000096
40
0.250000000000117
40
0.250000000000117
40
0.281250000000132
40
0.281250000000132
40
0.29687500000014
40
0.29687500000014
40
0.312500000000147
40
0.312500000000147
40
0.343750000000162
40
0.343750000000162
40
0.375000000000177
40
0.375000000000177
40
0.390625000000178
40
0.390625000000178
40
0.406250000000179
40
0.406250000000179
40
0.437500000000167
40
0.437500000000167
40
0.453125000000161
40
0.453125000000161
40
0.460937500000165
40
0.460937500000165
40
0.468750000000169
40
0.468750000000169
40
0.500000000000172
40
0.500000000000172
40
0.531250000000175
40
0.531250000000175
40
0.539062500000179
40
0.539062500000179
40
0.546875000000184
40
0.546875000000184
40
0.562500000000177
40
0.562500000000177
40
0.593750000000151
40
0.593750000000151
40
0.601562500000148
40
0.601562500000148
40
0.609375000000144
40
0.609375000000144
40
0.625000000000125
40
0.625000000000125
40
0.6562500000001
40
0.6562500000001
40
0.671875000000093
40
0.671875000000093
40
0.687500000000085
40
0.687500000000085
40
0.71875000000008
40
0.71875000000008
40
0.750000000000075
40
0.750000000000075
40
0.765625000000072
40
0.765625000000072
40
0.781250000000069
40
0.781250000000069
40
0.812500000000058
40
0.812500000000058
40
0.87500000000004
40
0.87500000000004
40
0.890625000000035
40
0.890625000000035
40
0.90625000000003
40
0.93750000000002
40
0.93750000000002
40
1
40
1
40
1
40
1
41
1
10
76.0016182607091
20
2.96417799472726
30
0
41
1
10
76.0079819140536
20
3.0191332564366
30
0
41
1
10
76.0157226739499
20
3.07375225396825
30
0
41
1
10
76.0339947418755
20
3.18197660271615
30
0
41
1
10
76.0445319914988
20
3.23563541512364
30
0
41
1
10
76.080522467147
20
3.39522328557182
30
0
41
1
10
76.1103236545203
20
3.49977086332572
30
0
41
1
10
76.1649067198846
20
3.65360235667606
30
0
41
1
10
76.184754815721
20
3.70437962067298
30
0
41
1
10
76.2172361364013
20
3.77974887066394
30
0
41
1
10
76.2285154560621
20
3.80473902373869
30
0
41
1
10
76.2520263253051
20
3.85444345869649
30
0
41
1
10
76.2642203294487
20
3.87907568218404
30
0
41
1
10
76.3272503732238
20
4.00072653200128
30
0
41
1
10
76.3843950787644
20
4.09363612385785
30
0
41
1
10
76.4817431413661
20
4.22563881419588
30
0
41
1
10
76.5161409736396
20
4.26840700492743
30
0
41
1
10
76.5709889978847
20
4.33053990910744
30
0
41
1
10
76.5898286511601
20
4.35092796590996
30
0
41
1
10
76.6286086066332
20
4.39093141431366
30
0
41
1
10
76.6484298521449
20
4.41042499892362
30
0
41
1
10
76.7092222201698
20
4.4673502007238
30
0
41
1
10
76.7515177062743
20
4.50323111696352
30
0
41
1
10
76.8399171023289
20
4.57058772005377
30
0
41
1
10
76.8860185845752
20
4.60206610561063
30
0
41
1
10
76.9583536284477
20
4.64564253822263
30
0
41
1
10
76.9830350922184
20
4.65957924275943
30
0
41
1
10
77.0333782412017
20
4.68606773255907
30
0
41
1
10
77.0588596646486
20
4.69852712303027
30
0
41
1
10
77.1362517539834
20
4.73351167867284
30
0
41
1
10
77.189106082663
20
4.7536538879264
30
0
41
1
10
77.27041515634
20
4.77877214243303
30
0
41
1
10
77.2978570655687
20
4.78629326459485
30
0
41
1
10
77.339556153246
20
4.79622983021876
30
0
41
1
10
77.3535453046674
20
4.79931761564947
30
0
41
1
10
77.3817083186998
20
4.8050301655398
30
0
41
1
10
77.395904123195
20
4.80765763560404
30
0
41
1
10
77.4667333505053
20
4.8195008438767
30
0
41
1
10
77.5233401566705
20
4.82494856537927
30
0
41
1
10
77.6364378512729
20
4.82772941693781
30
0
41
1
10
77.6929287627684
20
4.82506514857066
30
0
41
1
10
77.7634666444696
20
4.81634700575303
30
0
41
1
10
77.7775704255333
20
4.8143327504513
30
0
41
1
10
77.8057702816219
20
4.80974969762836
30
0
41
1
10
77.8198302346486
20
4.80718539875937
30
0
41
1
10
77.8615855794056
20
4.79873748936029
30
0
41
1
10
77.8889782115301
20
4.79208070718973
30
0
41
1
10
77.9698622261399
20
4.76911473446513
30
0
41
1
10
78.0220646211433
20
4.74982205540006
30
0
41
1
10
78.0852152395689
20
4.7207908974339
30
0
41
1
10
78.0977398532861
20
4.71473793112483
30
0
41
1
10
78.1225777290036
20
4.7021362735242
30
0
41
1
10
78.1349164609204
20
4.69557305290793
30
0
41
1
10
78.1713999187509
20
4.67525560280464
30
0
41
1
10
78.1949918665824
20
4.66089262125925
30
0
41
1
10
78.2636993174135
20
4.61547089528329
30
0
41
1
10
78.3067539531991
20
4.58208785823632
30
0
41
1
10
78.3675304556469
20
4.52765453933448
30
0
41
1
10
78.3871529824381
20
4.50878131824342
30
0
41
1
10
78.4251575404797
20
4.46960227842528
30
0
41
1
10
78.4433455706956
20
4.4494967519155
30
0
41
1
10
78.4956156688249
20
4.38777048789508
30
0
41
1
10
78.5274290942247
20
4.34472814467516
30
0
41
1
10
78.5857028623458
20
4.25523225233859
30
0
41
1
10
78.612159466654
20
4.20877657519739
30
0
41
1
10
78.64817517739
20
4.13670393916367
30
0
41
1
10
78.6595928942703
20
4.11222039372541
30
0
41
1
10
78.6811147063638
20
4.06277923830649
30
0
41
1
10
78.6912028123905
20
4.03786919496713
30
0
41
1
10
78.7195947989176
20
3.96260229876422
30
0
41
1
10
78.7360324505503
20
3.91171007374906
30
0
41
1
10
78.7787644738114
20
3.75708000612111
30
0
41
1
10
78.7985284046732
20
3.65140041637014
30
0
41
1
10
78.8141377188335
20
3.51642633241774
30
0
41
1
10
78.816803396965
20
3.48924846756343
30
0
41
1
10
78.8212321326171
20
3.43479107228816
30
0
41
1
10
78.8265116105648
20
3.35311148504171
30
0
41
1
10
78.8279463927699
20
3.27143829008602
30
0
41
1
10
78.8261905965292
20
3.10807414099565
30
0
41
1
10
78.8188824264716
20
2.9991393890985
30
0
41
1
10
78.806290972241
20
2.8901360860917
30
0
0
SPLINE
5
185
100
AcDbEntity
8
1
62
256
6
ByLayer
370
18
48
1
60
0
100
AcDbSpline
70
4
71
3
72
10
73
6
40
0
40
0
40
0
40
0
40
0.5
40
0.5
40
1
40
1
40
1
40
1
41
1
10
73.6183699346223
20
-2.6837164061706
30
0
41
1
10
73.6752637452898
20
-2.67965372577841
30
0
41
1
10
73.7314722608573
20
-2.68120819026289
30
0
41
1
10
73.8428275727607
20
-2.69302034261017
30
0
41
1
10
73.8979826926981
20
-2.70321012224048
30
0
41
1
10
73.9527029709857
20
-2.71697123729953
30
0
0
SPLINE
5
186
100
AcDbEntity
8
1
62
256
6
ByLayer
370
18
48
1
60
0
100
AcDbSpline
70
4
71
3
72
24
73
20
40
0
40
0
40
0
40
0
40
0.125000000000117
40
0.125000000000117
40
0.18750000000014
40
0.18750000000014
40
0.250000000000162
40
0.250000000000162
40
0.500000000000108
40
0.500000000000108
40
0.625000000000081
40
0.625000000000081
40
0.687500000000068
40
0.687500000000068
40
0.750000000000054
40
0.750000000000054
40
0.875000000000027
40
0.875000000000027
40
1
40
1
40
1
40
1
41
1
10
73.9527029709859
20
-2.71697123730111
30
0
41
1
10
73.9999381616643
20
-2.71840657264902
30
0
41
1
10
74.0472321134116
20
-2.72170352583086
30
0
41
1
10
74.118257295444
20
-2.72930646600804
30
0
41
1
10
74.1419893487735
20
-2.73229184108907
30
0
41
1
10
74.1892093109121
20
-2.73910196819595
30
0
41
1
10
74.2127044373969
20
-2.74292551594726
30
0
41
1
10
74.3296227206191
20
-2.76407377201466
30
0
41
1
10
74.4213977169899
20
-2.78740319466877
30
0
41
1
10
74.5564463549387
20
-2.8319134714957
30
0
41
1
10
74.6010224377802
20
-2.84835256740573
30
0
41
1
10
74.667183103172
20
-2.87557103267488
30
0
41
1
10
74.6891108506242
20
-2.88507074349295
30
0
41
1
10
74.7324016833698
20
-2.90481522285418
30
0
41
1
10
74.753804541382
20
-2.91507582946841
30
0
41
1
10
74.8172622968033
20
-2.94705833240361
30
0
41
1
10
74.8585709917875
20
-2.96997358853557
30
0
41
1
10
74.9389773011607
20
-3.01933141641608
30
0
41
1
10
74.9780782647888
20
-3.04576869105891
30
0
41
1
10
75.0158737315445
20
-3.07428380714131
30
0
0
SPLINE
5
187
100
AcDbEntity
8
1
62
256
6
ByLayer
370
18
48
1
60
0
100
AcDbSpline
70
4
71
3
72
34
73
30
40
0
40
0
40
0
40
0
40
0.125000000000107
40
0.125000000000107
40
0.187500000000153
40
0.187500000000153
40
0.2500000000002
40
0.2500000000002
40
0.2656250000002
40
0.2656250000002
40
0.281250000000201
40
0.281250000000201
40
0.312500000000202
40
0.312500000000202
40
0.375000000000204
40
0.375000000000204
40
0.406250000000197
40
0.406250000000197
40
0.421875000000194
40
0.421875000000194
40
0.437500000000191
40
0.437500000000191
40
0.500000000000163
40
0.500000000000163
40
0.625000000000122
40
0.625000000000122
40
0.750000000000081
40
0.750000000000081
40
1
40
1
40
1
40
1
41
1
10
73.6183699346221
20
7.16496406501335
30
0
41
1
10
73.8318323205972
20
7.09709363033332
30
0
41
1
10
74.0501534540478
20
7.04360838561674
30
0
41
1
10
74.3850618423291
20
6.98678092717212
30
0
41
1
10
74.4979282214188
20
6.97170771659705
30
0
41
1
10
74.7260847713014
20
6.94932406962175
30
0
41
1
10
74.8413744937487
20
6.9420120142214
30
0
41
1
10
74.9870226348433
20
6.93784422334454
30
0
41
1
10
75.0162543623985
20
6.93726007498833
30
0
41
1
10
75.0745678463811
20
6.93659629752096
30
0
41
1
10
75.1036831474044
20
6.93651526518495
30
0
41
1
10
75.1909062815249
20
6.93701559456028
30
0
41
1
10
75.2488921098208
20
6.93833579545561
30
0
41
1
10
75.4223587642898
20
6.94526936016499
30
0
41
1
10
75.5373577026271
20
6.95380237842535
30
0
41
1
10
75.7087306882902
20
6.97340908866549
30
0
41
1
10
75.7656712485217
20
6.98105582195387
30
0
41
1
10
75.8509344647822
20
6.99341549336879
30
0
41
1
10
75.8793264931519
20
6.99771050276875
30
0
41
1
10
75.9361078513501
20
7.00631553743516
30
0
41
1
10
75.9644928448111
20
7.01065180428817
30
0
41
1
10
76.1064049707655
20
7.03240750198351
30
0
41
1
10
76.219898391298
20
7.05002091713536
30
0
41
1
10
76.5603241959044
20
7.10315690791703
30
0
41
1
10
76.7871953946089
20
7.13901560804244
30
0
41
1
10
77.2409222216785
20
7.21073487695985
30
0
41
1
10
77.4677868194809
20
7.24654178193992
30
0
41
1
10
78.148458162542
20
7.35336197846959
30
0
41
1
10
78.6022934243901
20
7.42407047526518
30
0
41
1
10
79.0561035941982
20
7.49474982764227
30
0
0
SPLINE
5
188
100
AcDbEntity
8
1
62
256
6
ByLayer
370
18
48
1
60
0
100
AcDbSpline
70
4
71
3
72
29
73
25
40
0
40
0
40
0
40
0
40
0.124999999999997
40
0.249999999999993
40
0.249999999999993
40
0.37499999999999
40
0.37499999999999
40
0.499999999999987
40
0.499999999999987
40
0.624999999999983
40
0.624999999999983
40
0.687500000000003
40
0.687500000000003
40
0.718750000000012
40
0.718750000000012
40
0.750000000000021
40
0.750000000000021
40
0.87500000000006
40
0.87500000000006
40
0.906250000000045
40
0.906250000000045
40
0.93750000000003
40
0.93750000000003
40
1
40
1
40
1
40
1
41
1
10
80.2406562861805
20
7.48300034067476
30
0
41
1
10
80.2192139376427
20
7.49316039616753
30
0
41
1
10
80.1686535652376
20
7.51133388977766
30
0
41
1
10
80.1030504383403
20
7.52530587894275
30
0
41
1
10
80.0296085756117
20
7.53709156520671
30
0
41
1
10
79.9889598335857
20
7.54189431466772
30
0
41
1
10
79.8990038579187
20
7.54906645160219
30
0
41
1
10
79.850946967586
20
7.55133520493409
30
0
41
1
10
79.7486294188157
20
7.55322164219048
30
0
41
1
10
79.6943722579
20
7.55284080530362
30
0
41
1
10
79.6079590418231
20
7.55012336097678
30
0
41
1
10
79.5783129247234
20
7.54885822406128
30
0
41
1
10
79.5324899737099
20
7.54638285343628
30
0
41
1
10
79.5170190009589
20
7.54546240665502
30
0
41
1
10
79.4859314746502
20
7.54344447880695
30
0
41
1
10
79.4702796949571
20
7.54234516055553
30
0
41
1
10
79.3914798756651
20
7.53639619106734
30
0
41
1
10
79.3267210204545
20
7.53019941788598
30
0
41
1
10
79.2434957415685
20
7.52055070034976
30
0
41
1
10
79.2267360737926
20
7.51852516866754
30
0
41
1
10
79.1929809351251
20
7.51427705403682
30
0
41
1
10
79.1759563121716
20
7.5120504520506
30
0
41
1
10
79.1247507351349
20
7.50509698766609
30
0
41
1
10
79.090490288303
20
7.5001054354083
30
0
41
1
10
79.056103594198
20
7.49474982764227
30
0
0
SPLINE
5
189
100
AcDbEntity
8
1
62
256
6
ByLayer
370
13
48
1
60
0
100
AcDbSpline
70
4
71
3
72
22
73
18
40
0
40
0
40
0
40
0
40
0.125000000000018
40
0.125000000000018
40
0.250000000000036
40
0.250000000000036
40
0.375000000000054
40
0.375000000000054
40
0.500000000000072
40
0.500000000000072
40
0.62500000000009
40
0.62500000000009
40
0.687500000000083
40
0.687500000000083
40
0.750000000000076
40
0.750000000000076
40
1
40
1
40
1
40
1
41
1
10
81.2185394569457
20
-4.60695884652105
30
0
41
1
10
81.2236988108804
20
-4.60346584021616
30
0
41
1
10
81.2281007451902
20
-4.59902147611891
30
0
41
1
10
81.235172815616
20
-4.58795753393233
30
0
41
1
10
81.2378351894017
20
-4.58132584444496
30
0
41
1
10
81.2411194422579
20
-4.56584370835242
30
0
41
1
10
81.241759140981
20
-4.55697482150211
30
0
41
1
10
81.2407953587417
20
-4.53671327454806
30
0
41
1
10
81.2391606573844
20
-4.52522773542977
30
0
41
1
10
81.2335345524371
20
-4.50018413273077
30
0
41
1
10
81.2295540719562
20
-4.48658028193252
30
0
41
1
10
81.221786521369
20
-4.4645090850377
30
0
41
1
10
81.2188974083227
20
-4.456874024903
30
0
41
1
10
81.2125057881697
20
-4.44103537047057
30
0
41
1
10
81.2089879329669
20
-4.43280029972941
30
0
41
1
10
81.1901638729535
20
-4.39089970426279
30
0
41
1
10
81.1710519768999
20
-4.35468129842999
30
0
41
1
10
81.1484331254037
20
-4.31612824169692
30
0
0
SPLINE
5
18A
100
AcDbEntity
8
1
62
256
6
ByLayer
370
13
48
1
60
0
100
AcDbSpline
70
4
71
3
72
10
73
6
40
0
40
0
40
0
40
0
40
0.5
40
0.5
40
1
40
1
40
1
40
1
41
1
10
81.3027572065628
20
-4.82962452700708
30
0
41
1
10
81.3001298901312
20
-4.78968535963844
30
0
41
1
10
81.2914935996772
20
-4.74997511146066
30
0
41
1
10
81.2629838150423
20
-4.67460236871854
30
0
41
1
10
81.2431142943157
20
-4.63895037897359
30
0
41
1
10
81.2185282747355
20
-4.60694428963014
30
0
0
SPLINE
5
18B
100
AcDbEntity
8
1
62
256
6
ByLayer
370
18
48
1
60
0
100
AcDbSpline
70
4
71
3
72
10
73
6
40
0
40
0
40
0
40
0
40
0.51128114993911
40
0.51128114993911
40
1
40
1
40
1
40
1
41
1
10
81.4348243332527
20
-5.36759451672748
30
0
41
1
10
81.4427008922005
20
-5.34467034502535
30
0
41
1
10
81.4472628379605
20
-5.32093428969273
30
0
41
1
10
81.4496977868397
20
-5.27292054196091
30
0
41
1
10
81.4478580813242
20
-5.24871321890602
30
0
41
1
10
81.4428577538094
20
-5.22373173092809
30
0
0
SPLINE
5
18C
100
AcDbEntity
8
1
62
256
6
ByLayer
370
13
48
1
60
0
100
AcDbSpline
70
4
71
3
72
20
73
16
40
0
40
0
40
0
40
0
40
0.208521869835921
40
0.208521869835921
40
0.472347913223946
40
0.472347913223946
40
0.604260934917959
40
0.604260934917959
40
0.736173956611971
40
0.736173956611971
40
0.868086978305984
40
0.934043489152974
40
0.967021744576487
40
0.967021744576487
40
1
40
1
40
1
40
1
41
1
10
81.3224548717234
20
-4.67192802152459
30
0
41
1
10
81.3253679928834
20
-4.6863273429463
30
0
41
1
10
81.3273490189411
20
-4.70010976251351
30
0
41
1
10
81.3297071488278
20
-4.72952015309446
30
0
41
1
10
81.3295469792555
20
-4.74473419321018
30
0
41
1
10
81.3272253015759
20
-4.76585472156187
30
0
41
1
10
81.3261038885972
20
-4.77261099088058
30
0
41
1
10
81.3231817608115
20
-4.78557028697961
30
0
41
1
10
81.3213784546674
20
-4.7917766403412
30
0
41
1
10
81.3171352329352
20
-4.80357722625369
30
0
41
1
10
81.3134728601137
20
-4.81198406665665
30
0
41
1
10
81.3083932703482
20
-4.8210491074102
30
0
41
1
10
81.3060463802818
20
-4.82477796673103
30
0
41
1
10
81.3044443442458
20
-4.82722949865459
30
0
41
1
10
81.3036177073468
20
-4.82844778598387
30
0
41
1
10
81.3027863979413
20
-4.82962948903212
30
0
0
SPLINE
5
18D
100
AcDbEntity
8
1
62
256
6
ByLayer
370
18
48
1
60
0
100
AcDbSpline
70
4
71
3
72
8
73
4
40
0
40
0
40
0
40
0
40
1
40
1
40
1
40
1
41
1
10
81.4270406374238
20
-5.38753792478788
30
0
41
1
10
81.429892322476
20
-5.38093342082023
30
0
41
1
10
81.4324895762036
20
-5.37428261012995
30
0
41
1
10
81.4348243332528
20
-5.36759451672749
30
0
0
SPLINE
5
18E
100
AcDbEntity
8
1
62
256
6
ByLayer
370
13
48
1
60
0
100
AcDbSpline
70
4
71
3
72
29
73
25
40
0
40
0
40
0
40
0
40
0.125000000000042
40
0.125000000000042
40
0.187500000000063
40
0.187500000000063
40
0.250000000000084
40
0.250000000000084
40
0.375000000000054
40
0.375000000000054
40
0.437500000000039
40
0.437500000000039
40
0.500000000000023
40
0.562500000000008
40
0.562500000000008
40
0.624999999999993
40
0.624999999999993
40
0.687499999999978
40
0.687499999999978
40
0.749999999999963
40
0.749999999999963
40
0.874999999999981
40
0.874999999999981
40
1
40
1
40
1
40
1
41
1
10
81.1484331254037
20
-4.31612824169694
30
0
41
1
10
81.1394639191177
20
-4.29872441518312
30
0
41
1
10
81.1297168465082
20
-4.28067959527809
30
0
41
1
10
81.1139687955265
20
-4.25233712514367
30
0
41
1
10
81.1085313803783
20
-4.24267564717354
30
0
41
1
10
81.097285796102
20
-4.22284861850829
30
0
41
1
10
81.0915761715621
20
-4.21285619863959
30
0
41
1
10
81.0743261926221
20
-4.182715668672
30
0
41
1
10
81.0626350268065
20
-4.16235514746585
30
0
41
1
10
81.0451129083348
20
-4.13122252068925
30
0
41
1
10
81.0392553958844
20
-4.12070808558751
30
0
41
1
10
81.0279345920331
20
-4.10006441813357
30
0
41
1
10
81.0169226927548
20
-4.07965641979061
30
0
41
1
10
81.0065690453444
20
-4.05963160868424
30
0
41
1
10
80.9965636151117
20
-4.03976261938844
30
0
41
1
10
80.9917213721932
20
-4.02987684418349
30
0
41
1
10
80.9824819688316
20
-4.01039892126825
30
0
41
1
10
80.9780906631015
20
-4.00081888787801
30
0
41
1
10
80.9698480216498
20
-3.98215997935814
30
0
41
1
10
80.9659796501738
20
-3.97304585289813
30
0
41
1
10
80.9550795436495
20
-3.94625339468027
30
0
41
1
10
80.9487500433322
20
-3.92911928409012
30
0
41
1
10
80.9377717854136
20
-3.89598644064299
30
0
41
1
10
80.9331244167676
20
-3.87999035631938
30
0
41
1
10
80.9292597880792
20
-3.86448427705226
30
0
0
SPLINE
5
18F
100
AcDbEntity
8
1
62
256
6
ByLayer
370
13
48
1
60
0
100
AcDbSpline
70
4
71
3
72
28
73
24
40
0
40
0
40
0
40
0
40
0.0312500000000104
40
0.0312500000000104
40
0.0625000000000208
40
0.0625000000000208
40
0.12500000000002
40
0.12500000000002
40
0.187500000000018
40
0.187500000000018
40
0.250000000000017
40
0.250000000000017
40
0.312500000000016
40
0.312500000000016
40
0.375000000000015
40
0.375000000000015
40
0.500000000000012
40
0.500000000000012
40
0.62500000000001
40
0.62500000000001
40
0.750000000000007
40
0.750000000000007
40
1
40
1
40
1
40
1
41
1
10
80.9879220050063
20
-4.58205600457475
30
0
41
1
10
80.989774920152
20
-4.58987709607091
30
0
41
1
10
80.9917218327903
20
-4.59719375842116
30
0
41
1
10
80.9957180010515
20
-4.61073587127076
30
0
41
1
10
80.9977560909275
20
-4.61693296161086
30
0
41
1
10
81.0039644753827
20
-4.63411176598973
30
0
41
1
10
81.0082276579293
20
-4.64369660450227
30
0
41
1
10
81.0169120548495
20
-4.66016080198074
30
0
41
1
10
81.0213526673013
20
-4.66704307301906
30
0
41
1
10
81.0301307576807
20
-4.67846894294129
30
0
41
1
10
81.0344944845414
20
-4.68306623244209
30
0
41
1
10
81.0431660613101
20
-4.69059591783009
30
0
41
1
10
81.0474739246184
20
-4.69352365612677
30
0
41
1
10
81.0560295971355
20
-4.69805976837419
30
0
41
1
10
81.060279848706
20
-4.69966335021186
30
0
41
1
10
81.0728038847539
20
-4.70283553921972
30
0
41
1
10
81.0809045842768
20
-4.70282364100065
30
0
41
1
10
81.0966868598231
20
-4.69994002258917
30
0
41
1
10
81.1043673530827
20
-4.69705010656919
30
0
41
1
10
81.1193482850886
20
-4.68913296549394
30
0
41
1
10
81.1266483354731
20
-4.68409912139992
30
0
41
1
10
81.1480142977898
20
-4.66647583112012
30
0
41
1
10
81.1615479078935
20
-4.65139953447135
30
0
41
1
10
81.1744251694277
20
-4.63406978753648
30
0
0
SPLINE
5
190
100
AcDbEntity
8
1
62
256
6
ByLayer
370
13
48
1
60
0
100
AcDbSpline
70
4
71
3
72
10
73
6
40
0
40
0
40
0
40
0
40
0.364766239158008
40
0.364766239158008
40
1
40
1
40
1
40
1
41
1
10
80.9292597880792
20
-3.86448427705224
30
0
41
1
10
80.8832603775854
20
-3.67112354087358
30
0
41
1
10
80.8372609670916
20
-3.477762804695
30
0
41
1
10
80.7111544211567
20
-2.94766786875732
30
0
41
1
10
80.6310472857157
20
-2.61093366899792
30
0
41
1
10
80.5509401502745
20
-2.27419946923698
30
0
0
SPLINE
5
191
100
AcDbEntity
8
1
62
256
6
ByLayer
370
18
48
1
60
0
100
AcDbSpline
70
4
71
3
72
23
73
19
40
0
40
0
40
0
40
0
40
0.0854185587048769
40
0.0854185587048769
40
0.161633678812796
40
0.161633678812796
40
0.237848798920716
40
0.237848798920716
40
0.390279039136558
40
0.390279039136558
40
0.542709279352401
40
0.542709279352401
40
0.61892439946032
40
0.61892439946032
40
0.695139519568239
40
0.695139519568239
40
0.84756975978412
40
1
40
1
40
1
40
1
41
1
10
71.9908427711449
20
-5.46654981960803
30
0
41
1
10
71.991894782068
20
-5.47967834643593
30
0
41
1
10
71.9940419688104
20
-5.49272299744446
30
0
41
1
10
72.0002288173815
20
-5.5172441445758
30
0
41
1
10
72.0040420947827
20
-5.52873797871778
30
0
41
1
10
72.0135328436714
20
-5.55158287466904
30
0
41
1
10
72.019158071435
20
-5.56280737508675
30
0
41
1
10
72.0386272849783
20
-5.59588750567423
30
0
41
1
10
72.0550569556886
20
-5.6171559856602
30
0
41
1
10
72.0948271973228
20
-5.65812067368667
30
0
41
1
10
72.1181664813932
20
-5.67781717449414
30
0
41
1
10
72.1586068508953
20
-5.70612623921086
30
0
41
1
10
72.1730576346258
20
-5.71538977040841
30
0
41
1
10
72.2034089696834
20
-5.73323810798719
30
0
41
1
10
72.2193258190402
20
-5.74184150613212
30
0
41
1
10
72.2692560010518
20
-5.76670839278712
30
0
41
1
10
72.3416264687898
20
-5.79735544742913
30
0
41
1
10
72.425527639697
20
-5.82301221365836
30
0
41
1
10
72.4704822310348
20
-5.83454051510957
30
0
0
SPLINE
5
192
100
AcDbEntity
8
1
62
256
6
ByLayer
370
13
48
1
60
0
100
AcDbSpline
70
4
71
3
72
20
73
16
40
0
40
0
40
0
40
0
40
0.0320245536232254
40
0.0320245536232254
40
0.0640491072464509
40
0.1280982144929
40
0.256196428985718
40
0.256196428985718
40
0.51239285797136
40
0.51239285797136
40
0.640491072464182
40
0.640491072464182
40
0.768589286957005
40
0.768589286957005
40
1
40
1
40
1
40
1
41
1
10
72.8872988220187
20
-4.44725448288531
30
0
41
1
10
72.8857231757226
20
-4.45141366698849
30
0
41
1
10
72.8840798492628
20
-4.4556556160699
30
0
41
1
10
72.8807751738523
20
-4.46399328679991
30
0
41
1
10
72.8757328176091
20
-4.4764356564899
30
0
41
1
10
72.8633717576622
20
-4.50501927307498
30
0
41
1
10
72.8517611282968
20
-4.52875076498361
30
0
41
1
10
72.8271914599079
20
-4.57517679099948
30
0
41
1
10
72.8090178833366
20
-4.60475071694297
30
0
41
1
10
72.7790211598351
20
-4.64690394528384
30
0
41
1
10
72.7686327824856
20
-4.66048828393699
30
0
41
1
10
72.7471732268318
20
-4.68662823804118
30
0
41
1
10
72.7361096827596
20
-4.69917003991637
30
0
41
1
10
72.7045359025896
20
-4.73254303991631
30
0
41
1
10
72.683499085534
20
-4.75203901620898
30
0
41
1
10
72.6619221187034
20
-4.76960015038783
30
0
0
SPLINE
5
193
100
AcDbEntity
8
1
62
256
6
ByLayer
370
13
48
1
60
0
100
AcDbSpline
70
4
71
3
72
10
73
6
40
0
40
0
40
0
40
0
40
0.154204219955996
40
0.154204219955996
40
1
40
1
40
1
40
1
41
1
10
72.9605064744765
20
-3.77966094237412
30
0
41
1
10
72.9793656682454
20
-3.72660125568697
30
0
41
1
10
72.9982248620144
20
-3.67354156899982
30
0
41
1
10
73.1205249765917
20
-3.32945444413195
30
0
41
1
10
73.2239658974002
20
-3.03842700595133
30
0
41
1
10
73.3274068182087
20
-2.74739956777067
30
0
0
SPLINE
5
194
100
AcDbEntity
8
1
62
256
6
ByLayer
370
13
48
1
60
0
100
AcDbSpline
70
4
71
1
72
4
73
2
40
0
40
0
40
1
40
1
41
1
10
73.5053541806473
20
-2.70837731329034
30
0
41
1
10
72.8872985724866
20
-4.44725530171338
30
0
0
SPLINE
5
195
100
AcDbEntity
8
1
62
256
6
ByLayer
370
13
48
1
60
0
100
AcDbSpline
70
4
71
2
72
6
73
3
40
0
40
0
40
0
40
1
40
1
40
1
41
1
10
72.8873458726964
20
-4.44710379216124
30
0
41
1
10
72.6754295895034
20
-5.14252927996914
30
0
41
1
10
72.4704822707998
20
-5.83454052915687
30
0
0
SPLINE
5
196
100
AcDbEntity
8
1
62
256
6
ByLayer
370
13
48
1
60
0
100
AcDbSpline
70
4
71
3
72
28
73
24
40
0
40
0
40
0
40
0
40
0.249999999999982
40
0.249999999999982
40
0.374999999999972
40
0.374999999999972
40
0.499999999999962
40
0.499999999999962
40
0.624999999999952
40
0.624999999999952
40
0.687499999999945
40
0.687499999999945
40
0.749999999999938
40
0.749999999999938
40
0.812499999999931
40
0.812499999999931
40
0.843749999999937
40
0.843749999999937
40
0.874999999999943
40
0.874999999999943
40
0.937499999999971
40
0.937499999999971
40
1
40
1
40
1
40
1
41
1
10
81.2576753448942
20
-4.85883064293691
30
0
41
1
10
81.2366113800399
20
-4.87124988120596
30
0
41
1
10
81.2146555861349
20
-4.88006089785053
30
0
41
1
10
81.1804591276503
20
-4.88552924399531
30
0
41
1
10
81.1688500296449
20
-4.88604838622153
30
0
41
1
10
81.1452267030276
20
-4.88381719982283
30
0
41
1
10
81.1332124451475
20
-4.88107514641897
30
0
41
1
10
81.1087970171513
20
-4.87129560676719
30
0
41
1
10
81.0963958099832
20
-4.86427964048046
30
0
41
1
10
81.0775203624932
20
-4.8491861013491
30
0
41
1
10
81.0712110912715
20
-4.84340126980022
30
0
41
1
10
81.0586951381553
20
-4.83016428270273
30
0
41
1
10
81.052472269205
20
-4.82270105173303
30
0
41
1
10
81.0401370994305
20
-4.80575189533984
30
0
41
1
10
81.0340245548095
20
-4.79626854268466
30
0
41
1
10
81.0249796181973
20
-4.78016959153018
30
0
41
1
10
81.0219857430544
20
-4.7744871356485
30
0
41
1
10
81.0161160125915
20
-4.76256211512025
30
0
41
1
10
81.0132318610983
20
-4.75630547445827
30
0
41
1
10
81.0047490208406
20
-4.73658125615098
30
0
41
1
10
80.9993187960123
20
-4.72216538222806
30
0
41
1
10
80.9890242110899
20
-4.69029988802933
30
0
41
1
10
80.9841385346102
20
-4.67273712121717
30
0
41
1
10
80.9797164620799
20
-4.65377620803389
30
0
0
SPLINE
5
197
100
AcDbEntity
8
1
62
256
6
ByLayer
370
13
48
1
60
0
100
AcDbSpline
70
4
71
3
72
10
73
6
40
0
40
0
40
0
40
0
40
0.5
40
0.5
40
1
40
1
40
1
40
1
41
1
10
80.9797164620799
20
-4.65377620803386
30
0
41
1
10
80.9142201087112
20
-4.37294167591222
30
0
41
1
10
80.848464632007
20
-4.09009218794628
30
0
41
1
10
80.7165173667874
20
-3.52096034938725
30
0
41
1
10
80.6503266921258
20
-3.23468226798886
30
0
41
1
10
80.5839415744602
20
-2.94688498594877
30
0
0
SPLINE
5
198
100
AcDbEntity
8
1
62
256
6
ByLayer
370
18
48
1
60
0
100
AcDbSpline
70
4
71
3
72
18
73
14
40
0
40
0
40
0
40
0
40
0.089418192785531
40
0.179214302545414
40
0.26936243909886
40
0.359836353458477
40
0.450609447518661
40
0.541654784269997
40
0.632945098578366
40
0.724452808566003
40
0.816150027635664
40
0.90800857717736
40
1
40
1
40
1
40
1
41
1
10
81.426978041141
20
-5.3872703245098
30
0
41
1
10
81.4252520577847
20
-5.39100960126203
30
0
41
1
10
81.4217927963774
20
-5.39850395844256
30
0
41
1
10
81.4164833435287
20
-5.40946336765094
30
0
41
1
10
81.4110732161826
20
-5.42023909856641
30
0
41
1
10
81.4055559550911
20
-5.43080198693583
30
0
41
1
10
81.3999352358274
20
-5.44115063734615
30
0
41
1
10
81.3942120104884
20
-5.4512764131253
30
0
41
1
10
81.3883877456253
20
-5.46117217379485
30
0
41
1
10
81.3824643877175
20
-5.47083256819599
30
0
41
1
10
81.3764412248692
20
-5.48024408700186
30
0
41
1
10
81.370327501931
20
-5.48942472119609
30
0
41
1
10
81.3661750537313
20
-5.49532124113057
30
0
41
1
10
81.3640973290889
20
-5.49827163188397
30
0
0
SPLINE
5
199
100
AcDbEntity
8
1
62
256
6
ByLayer
370
13
48
1
60
0
100
AcDbSpline
70
4
71
3
72
12
73
8
40
0
40
0
40
0
40
0
40
0.207626281603701
40
0.411437295835132
40
0.611435192106133
40
0.807622074080024
40
1
40
1
40
1
40
1
41
1
10
81.4270373611301
20
-5.38753887568372
30
0
41
1
10
81.4185185384863
20
-5.34901248283703
30
0
41
1
10
81.401637432081
20
-5.27266764455986
30
0
41
1
10
81.3764062887532
20
-5.15906461308688
30
0
41
1
10
81.3515445578185
20
-5.04748095602325
30
0
41
1
10
81.3270578054167
20
-4.93792106498628
30
0
41
1
10
81.310807794584
20
-4.86550226311769
30
0
41
1
10
81.3027624355688
20
-4.82964780945113
30
0
0
SPLINE
5
19A
100
AcDbEntity
8
1
62
256
6
ByLayer
370
13
48
1
60
0
100
AcDbSpline
70
4
71
3
72
8
73
4
40
0
40
0
40
0
40
0
40
1
40
1
40
1
40
1
41
1
10
81.3027572065628
20
-4.82962452700704
30
0
41
1
10
81.2882000551766
20
-4.83996172729495
30
0
41
1
10
81.2731708094124
20
-4.84969457253071
30
0
41
1
10
81.2576753448942
20
-4.85883064293685
30
0
0
SPLINE
5
19B
100
AcDbEntity
8
1
62
256
6
ByLayer
370
18
48
1
60
0
100
AcDbSpline
70
4
71
2
72
8
73
5
40
0
40
0
40
0
40
0.5
40
0.5
40
1
40
1
40
1
41
1
10
76.3349248407636
20
-6.24172022943297
30
0
41
1
10
76.7571693147354
20
-6.28772863686827
30
0
41
1
10
77.1394627951838
20
-6.27619721999801
30
0
41
1
10
77.5743840814157
20
-6.26307834951294
30
0
41
1
10
77.9359481489673
20
-6.1759254728871
30
0
0
SPLINE
5
19C
100
AcDbEntity
8
1
62
256
6
ByLayer
370
13
48
1
60
0
100
AcDbSpline
70
4
71
2
72
6
73
3
40
0
40
0
40
0
40
1
40
1
40
1
41
1
10
78.8894803441557
20
-6.16075057395879
30
0
41
1
10
78.9759640607918
20
-4.84107165589856
30
0
41
1
10
79.0593641876315
20
-3.5356281689438
30
0
0
SPLINE
5
19D
100
AcDbEntity
8
1
62
256
6
ByLayer
370
18
48
1
60
0
100
AcDbSpline
70
4
71
3
72
8
73
4
40
0
40
0
40
0
40
0
40
1
40
1
40
1
40
1
41
1
10
79.0486532197137
20
-6.19757647798983
30
0
41
1
10
78.9959849196537
20
-6.18421214671164
30
0
41
1
10
78.942938650954
20
-6.17189760815211
30
0
41
1
10
78.88948041976
20
-6.16075057950452
30
0
0
SPLINE
5
19E
100
AcDbEntity
8
1
62
256
6
ByLayer
370
18
48
1
60
0
100
AcDbSpline
70
4
71
3
72
31
73
27
40
0
40
0
40
0
40
0
40
0.125000000000008
40
0.125000000000008
40
0.250000000000016
40
0.250000000000016
40
0.281250000000018
40
0.281250000000018
40
0.31250000000002
40
0.31250000000002
40
0.375000000000023
40
0.375000000000023
40
0.500000000000029
40
0.500000000000029
40
0.562500000000014
40
0.562500000000014
40
0.593750000000025
40
0.593750000000025
40
0.625000000000035
40
0.625000000000035
40
0.750000000000037
40
0.875000000000039
40
0.875000000000039
40
0.93750000000002
40
0.93750000000002
40
1
40
1
40
1
40
1
41
1
10
80.5070503784986
20
-6.23319231147171
30
0
41
1
10
80.4764579625889
20
-6.25062866884286
30
0
41
1
10
80.4408850394691
20
-6.26561059465165
30
0
41
1
10
80.3603687202459
20
-6.29095660642329
30
0
41
1
10
80.3154223980476
20
-6.30131925038462
30
0
41
1
10
80.2533481452979
20
-6.31136925356796
30
0
41
1
10
80.2406372304957
20
-6.31323335150535
30
0
41
1
10
80.2146163697751
20
-6.3166663403228
30
0
41
1
10
80.2012776706731
20
-6.31823803746663
30
0
41
1
10
80.1605868459631
20
-6.32247960155861
30
0
41
1
10
80.1325987221666
20
-6.32467652521865
30
0
41
1
10
80.0461333415314
20
-6.32943480980651
30
0
41
1
10
79.9851679753349
20
-6.33017313607451
30
0
41
1
10
79.8888114582272
20
-6.32768419715917
30
0
41
1
10
79.8558712601861
20
-6.32625274212313
30
0
41
1
10
79.8052082352381
20
-6.3231876873908
30
0
41
1
10
79.7880807129107
20
-6.32201041444753
30
0
41
1
10
79.753556315397
20
-6.31935735176258
30
0
41
1
10
79.7361859851544
20
-6.31788418047455
30
0
41
1
10
79.6488028028719
20
-6.30979750080317
30
0
41
1
10
79.5056047931812
20
-6.29226843714966
30
0
41
1
10
79.3558197757249
20
-6.26580655940846
30
0
41
1
10
79.2409188048588
20
-6.24248547390262
30
0
41
1
10
79.2024877182612
20
-6.23418962727762
30
0
41
1
10
79.1256307265295
20
-6.21662518056007
30
0
41
1
10
79.087162034762
20
-6.20734790711987
30
0
41
1
10
79.0486532197137
20
-6.19757647798983
30
0
0
SPLINE
5
19F
100
AcDbEntity
8
1
62
256
6
ByLayer
370
13
48
1
60
0
100
AcDbSpline
70
4
71
3
72
16
73
12
40
0
40
0
40
0
40
0
40
0.110049289966877
40
0.220364008896904
40
0.330944168064686
40
0.441789778749343
40
0.552900852234429
40
0.664277399807832
40
0.775919432761688
40
0.88782696239229
40
1
40
1
40
1
40
1
41
1
10
80.2836666946742
20
-3.29819341449799
30
0
41
1
10
80.2920581224843
20
-3.40577902099125
30
0
41
1
10
80.3088612174717
20
-3.62120972075856
30
0
41
1
10
80.3339197706443
20
-3.94481720958163
30
0
41
1
10
80.3589086330246
20
-4.26925603896213
30
0
41
1
10
80.383814090229
20
-4.59453147782723
30
0
41
1
10
80.4086382013398
20
-4.92064229435256
30
0
41
1
10
80.4333798819472
20
-5.24758857785565
30
0
41
1
10
80.4580347706618
20
-5.57537165062674
30
0
41
1
10
80.4826148181091
20
-5.90398654370841
30
0
41
1
10
80.4988988348073
20
-6.12337042421507
30
0
41
1
10
80.5070504904373
20
-6.23319233595821
30
0
0
SPLINE
5
1A0
100
AcDbEntity
8
1
62
256
6
ByLayer
370
18
48
1
60
0
100
AcDbSpline
70
4
71
3
72
12
73
8
40
0
40
0
40
0
40
0
40
0.250000000000001
40
0.250000000000001
40
0.500000000000002
40
0.500000000000002
40
1
40
1
40
1
40
1
41
1
10
80.5839415744602
20
-2.9468849859488
30
0
41
1
10
80.5872008877873
20
-2.94260322592949
30
0
41
1
10
80.5900203272847
20
-2.93824325126647
30
0
41
1
10
80.594773727826
20
-2.92936585365166
30
0
41
1
10
80.5967104076924
20
-2.92483787302551
30
0
41
1
10
80.6011301650428
20
-2.91110627364468
30
0
41
1
10
80.6022436509501
20
-2.90175743644765
30
0
41
1
10
80.6014629481014
20
-2.89220767305409
30
0
0
SPLINE
5
1A1
100
AcDbEntity
8
1
62
256
6
ByLayer
370
18
48
1
60
0
100
AcDbSpline
70
4
71
3
72
14
73
10
40
0
40
0
40
0
40
0
40
0.394495271078142
40
0.394495271078142
40
0.591742906617199
40
0.591742906617199
40
0.788990542156257
40
0.788990542156257
40
1
40
1
40
1
40
1
41
1
10
80.5509401502745
20
-2.27419946923695
30
0
41
1
10
80.5500518875595
20
-2.2633340051575
30
0
41
1
10
80.5468721795179
20
-2.25248205545121
30
0
41
1
10
80.5386455042848
20
-2.2362245200832
30
0
41
1
10
80.5353236145825
20
-2.2308087603446
30
0
41
1
10
80.5274713982363
20
-2.21998436792717
30
0
41
1
10
80.5229135001096
20
-2.21455215028156
30
0
41
1
10
80.5123868010111
20
-2.20355193450507
30
0
41
1
10
80.5063330817667
20
-2.19797414565856
30
0
41
1
10
80.4996618979564
20
-2.19250487101004
30
0
0
SPLINE
5
1A2
100
AcDbEntity
8
1
62
256
6
ByLayer
370
18
48
1
60
0
100
AcDbSpline
70
4
71
3
72
32
73
28
40
0
40
0
40
0
40
0
40
0.12500000000006
40
0.12500000000006
40
0.250000000000119
40
0.250000000000119
40
0.281250000000133
40
0.281250000000133
40
0.312500000000148
40
0.375000000000127
40
0.375000000000127
40
0.500000000000035
40
0.500000000000035
40
0.531250000000036
40
0.531250000000036
40
0.562500000000036
40
0.625000000000037
40
0.625000000000037
40
0.75
40
0.75
40
0.78125
40
0.78125
40
0.8125
40
0.8125
40
0.875
40
0.875
40
1
40
1
40
1
40
1
41
1
10
79.0593642176725
20
-3.5356281710648
30
0
41
1
10
79.1248012127575
20
-3.54275828671312
30
0
41
1
10
79.1897018043623
20
-3.54756487677116
30
0
41
1
10
79.3184804888658
20
-3.55274892472056
30
0
41
1
10
79.3823584638037
20
-3.55312587164413
30
0
41
1
10
79.4615468339737
20
-3.55074205473811
30
0
41
1
10
79.4773628857731
20
-3.55012035601978
30
0
41
1
10
79.5086436256799
20
-3.54860057185452
30
0
41
1
10
79.5551434466089
20
-3.54590371109696
30
0
41
1
10
79.6004015893029
20
-3.54197726919657
30
0
41
1
10
79.689290064615
20
-3.53251243431356
30
0
41
1
10
79.7463892391602
20
-3.52406377740677
30
0
41
1
10
79.814995752829
20
-3.51076246377902
30
0
41
1
10
79.8286043604525
20
-3.50795843245311
30
0
41
1
10
79.855406481541
20
-3.50209862620389
30
0
41
1
10
79.8949125258082
20
-3.49294953511132
30
0
41
1
10
79.9323665077324
20
-3.48274258407932
30
0
41
1
10
80.0045909506112
20
-3.46094529844336
30
0
41
1
10
80.0491798110786
20
-3.44457816088915
30
0
41
1
10
80.1003763674154
20
-3.42177906854461
30
0
41
1
10
80.1103873249455
20
-3.41710153129802
30
0
41
1
10
80.1299445775426
20
-3.40750691836819
30
0
41
1
10
80.1394752644854
20
-3.40259647513568
30
0
41
1
10
80.1671424983896
20
-3.38762338988188
30
0
41
1
10
80.1844290375795
20
-3.37728402448794
30
0
41
1
10
80.2328629420223
20
-3.3452091605003
30
0
41
1
10
80.2606074410062
20
-3.32242394192636
30
0
41
1
10
80.2836666288607
20
-3.29819339335238
30
0
0
SPLINE
5
1A3
100
AcDbEntity
8
1
62
256
6
ByLayer
370
13
48
1
60
0
100
AcDbSpline
70
4
71
3
72
22
73
18
40
0
40
0
40
0
40
0
40
0.125000000000014
40
0.125000000000014
40
0.250000000000029
40
0.250000000000029
40
0.375000000000043
40
0.375000000000043
40
0.500000000000058
40
0.500000000000058
40
0.625000000000072
40
0.625000000000072
40
0.687500000000067
40
0.687500000000067
40
0.750000000000061
40
0.750000000000061
40
1
40
1
40
1
40
1
41
1
10
81.2185394569457
20
-3.59144235872444
30
0
41
1
10
81.2236988108805
20
-3.57299913252467
30
0
41
1
10
81.2281007451902
20
-3.55512235009053
30
0
41
1
10
81.235172815616
20
-3.52066394683982
30
0
41
1
10
81.2378351894017
20
-3.50408467776964
30
0
41
1
10
81.2411194422579
20
-3.47295550153662
30
0
41
1
10
81.2417591409811
20
-3.45833257027731
30
0
41
1
10
81.2407953587417
20
-3.43119389765595
30
0
41
1
10
81.2391606573844
20
-3.41862302768095
30
0
41
1
10
81.2335345524371
20
-3.39654178427497
30
0
41
1
10
81.2295540719562
20
-3.3869362207964
30
0
41
1
10
81.2217865213691
20
-3.37473662460749
30
0
41
1
10
81.2188974083227
20
-3.37103878022192
30
0
41
1
10
81.2125057881696
20
-3.36439710470536
30
0
41
1
10
81.2089879329668
20
-3.36144691324618
30
0
41
1
10
81.1901638729535
20
-3.34882688877275
30
0
41
1
10
81.1710519769
20
-3.34526024342009
30
0
41
1
10
81.1484331254037
20
-3.34734378634863
30
0
0
SPLINE
5
1A4
100
AcDbEntity
8
1
62
256
6
ByLayer
370
13
48
1
60
0
100
AcDbSpline
70
4
71
3
72
10
73
6
40
0
40
0
40
0
40
0
40
0.388680719459372
40
0.388680719459372
40
1
40
1
40
1
40
1
41
1
10
81.2975144720291
20
-3.48714123633026
30
0
41
1
10
81.293094092631
20
-3.50296875700224
30
0
41
1
10
81.2863020593235
20
-3.51813355902435
30
0
41
1
10
81.2629838150423
20
-3.55470609989813
30
0
41
1
10
81.2431142943157
20
-3.5747079275627
30
0
41
1
10
81.2185282747355
20
-3.59144997350683
30
0
0
SPLINE
5
1A5
100
AcDbEntity
8
1
62
256
6
ByLayer
370
13
48
1
60
0
100
AcDbSpline
70
4
71
3
72
14
73
10
40
0
40
0
40
0
40
0
40
0.104117344559883
40
0.104117344559883
40
0.328088008419911
40
0.328088008419911
40
0.55205867227994
40
0.55205867227994
40
1
40
1
40
1
40
1
41
1
10
81.0776508622589
20
-4.16586600945806
30
0
41
1
10
81.0814137211799
20
-4.14983705225477
30
0
41
1
10
81.0851273652378
20
-4.13403664463108
30
0
41
1
10
81.0966868598231
20
-4.0848320851417
30
0
41
1
10
81.1043673530827
20
-4.05211215804263
30
0
41
1
10
81.1193482850886
20
-3.98794543933157
30
0
41
1
10
81.1266483354731
20
-3.95650271127729
30
0
41
1
10
81.1480142977898
20
-3.86366353193503
30
0
41
1
10
81.1615479078935
20
-3.80373463036635
30
0
41
1
10
81.1744251694277
20
-3.74510889412024
30
0
0
SPLINE
5
1A6
100
AcDbEntity
8
1
62
256
6
ByLayer
370
18
48
1
60
0
100
AcDbSpline
70
4
71
3
72
25
73
21
40
0
40
0
40
0
40
0
40
0.125
40
0.125
40
0.25
40
0.25
40
0.312499999999999
40
0.312499999999999
40
0.374999999999999
40
0.374999999999999
40
0.5
40
0.5
40
0.625000000000001
40
0.625000000000001
40
0.687500000000001
40
0.687500000000001
40
0.75
40
0.75
40
0.875
40
1
40
1
40
1
40
1
41
1
10
81.4348243332527
20
-2.72571005582613
30
0
41
1
10
81.4427008922005
20
-2.69393626854389
30
0
41
1
10
81.4472628379606
20
-2.66290152612758
30
0
41
1
10
81.4497527248865
20
-2.60231119640539
30
0
41
1
10
81.4476817595587
20
-2.57275536528522
30
0
41
1
10
81.4393766103895
20
-2.52958075036392
30
0
41
1
10
81.4357394039504
20
-2.51538292982239
30
0
41
1
10
81.4266573258567
20
-2.48739033597926
30
0
41
1
10
81.4212624441805
20
-2.47375068223684
30
0
41
1
10
81.4025608895175
20
-2.43389559034794
30
0
41
1
10
81.3867449431439
20
-2.40873516258286
30
0
41
1
10
81.3484063642531
20
-2.36123786815187
30
0
41
1
10
81.3258849805632
20
-2.33890047572109
30
0
41
1
10
81.2868319584009
20
-2.30761349193804
30
0
41
1
10
81.2728725525645
20
-2.29751988627524
30
0
41
1
10
81.2435450241356
20
-2.27836970083962
30
0
41
1
10
81.2281611994655
20
-2.26929135676629
30
0
41
1
10
81.1798922042896
20
-2.24351714045562
30
0
41
1
10
81.1099018456827
20
-2.21303666267285
30
0
41
1
10
81.0287093730142
20
-2.19028419568868
30
0
41
1
10
80.9851947356024
20
-2.18092128172903
30
0
0
SPLINE
5
1A7
100
AcDbEntity
8
1
62
256
6
ByLayer
370
13
48
1
60
0
100
AcDbSpline
70
4
71
3
72
17
73
13
40
0
40
0
40
0
40
0
40
0.347320052141206
40
0.347320052141206
40
0.434150065176496
40
0.434150065176496
40
0.520980078211785
40
0.694640104282334
40
0.694640104282334
40
0.868300130352884
40
0.868300130352884
40
1
40
1
40
1
40
1
41
1
10
81.198765265259
20
-3.14621748614049
30
0
41
1
10
81.22967022913
20
-3.14969853429734
30
0
41
1
10
81.2555739960713
20
-3.15903960432813
30
0
41
1
10
81.2812331445152
20
-3.17864340486118
30
0
41
1
10
81.2860359391325
20
-3.182976081598
30
0
41
1
10
81.2948546072988
20
-3.19236050254543
30
0
41
1
10
81.3069352959882
20
-3.20753287437166
30
0
41
1
10
81.3156298843758
20
-3.22593996944615
30
0
41
1
10
81.3242510554831
20
-3.25331828296164
30
0
41
1
10
81.3270729207073
20
-3.26851003307306
30
0
41
1
10
81.329388904536
20
-3.29716713933202
30
0
41
1
10
81.3295381344957
20
-3.31017874507583
30
0
41
1
10
81.3288768352345
20
-3.32380999273352
30
0
0
SPLINE
5
1A8
100
AcDbEntity
8
1
62
256
6
ByLayer
370
18
48
1
60
0
100
AcDbSpline
70
4
71
3
72
12
73
8
40
0
40
0
40
0
40
0
40
0.246896912607594
40
0.246896912607594
40
0.757821781423406
40
0.757821781423406
40
1
40
1
40
1
40
1
41
1
10
81.3288768226959
20
-3.32381025118889
30
0
41
1
10
81.3286661307646
20
-3.32815314285587
30
0
41
1
10
81.3283731663093
20
-3.3325589310867
30
0
41
1
10
81.3272253015759
20
-3.34627183808973
30
0
41
1
10
81.3261038885971
20
-3.3557824269908
30
0
41
1
10
81.3239502809029
20
-3.37018205852736
30
0
41
1
10
81.3231808435892
20
-3.37487250134748
30
0
41
1
10
81.3223370620188
20
-3.37961441383699
30
0
0
SPLINE
5
1A9
100
AcDbEntity
8
1
62
256
6
ByLayer
370
13
48
1
60
0
100
AcDbSpline
70
4
71
3
72
10
73
6
40
0
40
0
40
0
40
0
40
0.776656775024511
40
0.776656775024511
40
1
40
1
40
1
40
1
41
1
10
81.3223370620189
20
-3.37961441383646
30
0
41
1
10
81.3214007124498
20
-3.38487654312627
30
0
41
1
10
81.3203728118197
20
-3.3902020546202
30
0
41
1
10
81.3189359248263
20
-3.39712580175642
30
0
41
1
10
81.3186076848586
20
-3.39867679351299
30
0
41
1
10
81.3182721675418
20
-3.40023237445179
30
0
0
SPLINE
5
1AA
100
AcDbEntity
8
1
62
256
6
ByLayer
370
18
48
1
60
0
100
AcDbSpline
70
4
71
3
72
9
73
5
40
0
40
0
40
0
40
0
40
0.663640007753501
40
1
40
1
40
1
40
1
41
1
10
81.4270373611301
20
-2.75383525804357
30
0
41
1
10
81.4185185384863
20
-2.80271539627701
30
0
41
1
10
81.4056820269074
20
-2.87636999464715
30
0
41
1
10
81.3927894076482
20
-2.94998762637714
30
0
41
1
10
81.3884473537483
20
-2.97474600732616
30
0
0
SPLINE
5
1AB
100
AcDbEntity
8
1
62
256
6
ByLayer
370
18
48
1
60
0
100
AcDbSpline
70
4
71
3
72
8
73
4
40
0
40
0
40
0
40
0
40
1
40
1
40
1
40
1
41
1
10
81.4270406374238
20
-2.75383555035357
30
0
41
1
10
81.429892322476
20
-2.74452918586863
30
0
41
1
10
81.4324895762036
20
-2.73515343057235
30
0
41
1
10
81.4348243332528
20
-2.72571005582611
30
0
0
SPLINE
5
1AC
100
AcDbEntity
8
1
62
256
6
ByLayer
370
13
48
1
60
0
100
AcDbSpline
70
4
71
3
72
29
73
25
40
0
40
0
40
0
40
0
40
0.124999999999936
40
0.124999999999936
40
0.187499999999904
40
0.187499999999904
40
0.249999999999872
40
0.249999999999872
40
0.374999999999877
40
0.374999999999877
40
0.43749999999988
40
0.43749999999988
40
0.499999999999882
40
0.562499999999885
40
0.562499999999885
40
0.624999999999888
40
0.624999999999888
40
0.687499999999891
40
0.687499999999891
40
0.749999999999894
40
0.749999999999894
40
0.874999999999947
40
0.874999999999947
40
1
40
1
40
1
40
1
41
1
10
81.1484331254037
20
-3.34734378634859
30
0
41
1
10
81.1394639191177
20
-3.34507545059289
30
0
41
1
10
81.1297168465082
20
-3.344692325932
30
0
41
1
10
81.1139687955265
20
-3.34753676995469
30
0
41
1
10
81.1085313803783
20
-3.34905776970386
30
0
41
1
10
81.097285796102
20
-3.35339217995511
30
0
41
1
10
81.0915761715621
20
-3.35617030584177
30
0
41
1
10
81.074326192622
20
-3.36633964200087
30
0
41
1
10
81.0626350268065
20
-3.37556993188976
30
0
41
1
10
81.0451129083348
20
-3.39331884554376
30
0
41
1
10
81.0392553958844
20
-3.39992207364024
30
0
41
1
10
81.0279345920332
20
-3.41403413585732
30
0
41
1
10
81.0169226927548
20
-3.42912712010252
30
0
41
1
10
81.0065690453445
20
-3.44604319075734
30
0
41
1
10
80.9965636151117
20
-3.46381841570654
30
0
41
1
10
80.9917213721932
20
-3.47316552983207
30
0
41
1
10
80.9824819688317
20
-3.4925118441134
30
0
41
1
10
80.9780906631015
20
-3.50249844916856
30
0
41
1
10
80.9698480216497
20
-3.52277631608705
30
0
41
1
10
80.9659796501738
20
-3.53310217238894
30
0
41
1
10
80.9550795436494
20
-3.56457836425046
30
0
41
1
10
80.9487500433322
20
-3.58622378702194
30
0
41
1
10
80.9377717854137
20
-3.6306251694558
30
0
41
1
10
80.9331244167677
20
-3.6533828081638
30
0
41
1
10
80.9292597880792
20
-3.67664038557909
30
0
0
SPLINE
5
1AD
100
AcDbEntity
8
1
62
256
6
ByLayer
370
13
48
1
60
0
100
AcDbSpline
70
4
71
3
72
26
73
22
40
0
40
0
40
0
40
0
40
0.122245593612062
40
0.122245593612062
40
0.195391794144412
40
0.195391794144412
40
0.268537994676762
40
0.268537994676762
40
0.414830395741408
40
0.414830395741408
40
0.487976596273732
40
0.487976596273732
40
0.561122796806056
40
0.561122796806056
40
0.707415197870704
40
0.707415197870704
40
0.780561398403028
40
0.780561398403028
40
0.853707598935352
40
0.853707598935352
40
1
40
1
40
1
40
1
41
1
10
80.8325650276036
20
-3.47344412992543
30
0
41
1
10
80.8420131840383
20
-3.44730422658125
30
0
41
1
10
80.852763390701
20
-3.422092324983
30
0
41
1
10
80.87204780394
20
-3.38339927439232
30
0
41
1
10
80.8796903053238
20
-3.36937577164714
30
0
41
1
10
80.8957399543069
20
-3.34236316199983
30
0
41
1
10
80.9041419777957
20
-3.32938831591325
30
0
41
1
10
80.9301144361283
20
-3.29246151548106
30
0
41
1
10
80.9485453523769
20
-3.27033296482665
30
0
41
1
10
80.977476579779
20
-3.24087101801497
30
0
41
1
10
80.9873348868111
20
-3.23167433107876
30
0
41
1
10
81.0074178898859
20
-3.21455424891948
30
0
41
1
10
81.0176056596103
20
-3.2066700995498
30
0
41
1
10
81.0480185019615
20
-3.18533621283297
30
0
41
1
10
81.0682708500911
20
-3.17403888531761
30
0
41
1
10
81.0981780806258
20
-3.16118935992898
30
0
41
1
10
81.1080974074864
20
-3.1575832185019
30
0
41
1
10
81.1275757815998
20
-3.15175737920872
30
0
41
1
10
81.1370864278947
20
-3.14954758005609
30
0
41
1
10
81.1648710254843
20
-3.14487987332208
30
0
41
1
10
81.1823983981103
20
-3.14437396828481
30
0
41
1
10
81.1987652652591
20
-3.14621748614037
30
0
0
SPLINE
5
1AE
100
AcDbEntity
8
1
62
256
6
ByLayer
370
13
48
1
60
0
100
AcDbSpline
70
4
71
3
72
8
73
4
40
0
40
0
40
0
40
0
40
1
40
1
40
1
40
1
41
1
10
80.9292597880792
20
-3.67664038557908
30
0
41
1
10
80.922956435158
20
-3.71144757525393
30
0
41
1
10
80.9166530822367
20
-3.74625476492879
30
0
41
1
10
80.9103497293155
20
-3.78106195460364
30
0
0
SPLINE
5
1AF
100
AcDbEntity
8
1
62
256
6
ByLayer
370
13
48
1
60
0
100
AcDbSpline
70
4
71
2
72
6
73
3
40
0
40
0
40
0
40
1
40
1
40
1
41
1
10
80.8238982353202
20
-3.41542324042875
30
0
41
1
10
80.9068503198739
20
-2.79672877869017
30
0
41
1
10
80.985194696547
20
-2.18092126959783
30
0
0
SPLINE
5
1B0
100
AcDbEntity
8
1
62
256
6
ByLayer
370
18
48
1
60
0
100
AcDbSpline
70
4
71
3
72
12
73
8
40
0
40
0
40
0
40
0
40
0.249999999999996
40
0.249999999999996
40
0.499999999999992
40
0.499999999999992
40
1
40
1
40
1
40
1
41
1
10
80.5839415744602
20
-6.61113003685311
30
0
41
1
10
80.5872008877872
20
-6.60514439508751
30
0
41
1
10
80.5900203272847
20
-6.59913643061677
30
0
41
1
10
80.594773727826
20
-6.58707556543877
30
0
41
1
10
80.5967104076924
20
-6.58100883230062
30
0
41
1
10
80.6011301650427
20
-6.56286404119258
30
0
41
1
10
80.6022436509501
20
-6.55084087258203
30
0
41
1
10
80.6014629481014
20
-6.53889351082594
30
0
0
SPLINE
5
1B1
100
AcDbEntity
8
1
62
256
6
ByLayer
370
13
48
1
60
0
100
AcDbSpline
70
4
71
2
72
6
73
3
40
0
40
0
40
0
40
1
40
1
40
1
41
1
10
74.2716802312049
20
8.65975274156774
30
0
41
0.983799147172048
10
74.3514281132443
20
8.71502546662769
30
0
41
1
10
74.4333938353497
20
8.77037788165087
30
0
0
SPLINE
5
1B2
100
AcDbEntity
8
1
62
256
6
ByLayer
370
18
48
1
60
0
100
AcDbSpline
70
4
71
3
72
67
73
63
40
0
40
0
40
0
40
0
40
0.0126948672393397
40
0.0253599885211904
40
0.0379968284008202
40
0.0506068612878856
40
0.0631915710144528
40
0.0757524503873498
40
0.0882910007253039
40
0.100808731381536
40
0.113307159252375
40
0.125787808272678
40
0.138252208898712
40
0.150701897579371
40
0.163138416216553
40
0.175563311615556
40
0.187978134926537
40
0.200384441077811
40
0.212783788202236
40
0.225177737057533
40
0.237567850441693
40
0.249955692604543
40
0.262342828656564
40
0.274730823976089
40
0.287121243615974
40
0.299515651710902
40
0.311915610886424
40
0.324322681670847
40
0.336738421911077
40
0.349164386193493
40
0.361602125270912
40
0.374053185496706
40
0.386519108267047
40
0.399001429472242
40
0.411501678958135
40
0.424021379998412
40
0.436562048778684
40
0.449125193893141
40
0.461712315854512
40
0.474324906618037
40
0.48696444912008
40
0.499632416831961
40
0.525014032818356
40
0.55028395894123
40
0.575454064165203
40
0.600536359158615
40
0.625542981111694
40
0.65048617767546
40
0.675378290115778
40
0.700231735789697
40
0.725058990062379
40
0.74987256779236
40
0.774685004520383
40
0.799508837502102
40
0.824356586727826
40
0.849240736072556
40
0.874173714717391
40
0.899167878978594
40
0.924235494673617
40
0.949388720144173
40
0.974639590045702
40
1
40
1
40
1
40
1
41
1
10
74.9954181910462
20
8.22978686315096
30
0
41
1
10
74.9915874294307
20
8.23662156927719
30
0
41
1
10
74.9839348822426
20
8.2502749667991
30
0
41
1
10
74.9727455695878
20
8.27089180171649
30
0
41
1
10
74.9617865987424
20
8.29157696878501
30
0
41
1
10
74.9510778493545
20
8.31234185078749
30
0
41
1
10
74.9406143554552
20
8.33318315357398
30
0
41
1
10
74.9303977626653
20
8.35410150854787
30
0
41
1
10
74.9204279276367
20
8.37509650430965
30
0
41
1
10
74.9107051632831
20
8.39616801395736
30
0
41
1
10
74.9012296400521
20
8.41731584055781
30
0
41
1
10
74.8920015470341
20
8.4385398119769
30
0
41
1
10
74.8830210499822
20
8.45983975562318
30
0
41
1
10
74.8742883035811
20
8.48121550528514
30
0
41
1
10
74.8658034491804
20
8.50266689938574
30
0
41
1
10
74.8575666163809
20
8.52419378152908
30
0
41
1
10
74.8495779235558
20
8.54579600043061
30
0
41
1
10
74.8418374786244
20
8.56747341000985
30
0
41
1
10
74.8343453797237
20
8.58922586943632
30
0
41
1
10
74.8271017158738
20
8.61105324318531
30
0
41
1
10
74.820106567611
20
8.63295540108813
30
0
41
1
10
74.8133600075956
20
8.65493221838102
30
0
41
1
10
74.8068621011932
20
8.67698357575168
30
0
41
1
10
74.8006129070278
20
8.69910935938353
30
0
41
1
10
74.7946124775103
20
8.721309460998
30
0
41
1
10
74.788860859338
20
8.74358377789454
30
0
41
1
10
74.7833580939688
20
8.76593221298845
30
0
41
1
10
74.7781042180677
20
8.78835467484669
30
0
41
1
10
74.773099263927
20
8.81085107772155
30
0
41
1
10
74.7683432598596
20
8.83342134158212
30
0
41
1
10
74.7638362305643
20
8.85606539214379
30
0
41
1
10
74.7595781974668
20
8.87878316089527
30
0
41
1
10
74.7555691790282
20
8.90157458512498
30
0
41
1
10
74.7518091910443
20
8.92443960793959
30
0
41
1
10
74.7482982468507
20
8.94737817830257
30
0
41
1
10
74.7450363577577
20
8.97039025098724
30
0
41
1
10
74.7420235324912
20
8.99347578684045
30
0
41
1
10
74.7392597802299
20
9.01663475187347
30
0
41
1
10
74.7367451000538
20
9.03986712073252
30
0
41
1
10
74.7344795211272
20
9.06317286376679
30
0
41
1
10
74.7324629528277
20
9.08655199548804
30
0
41
1
10
74.7301059658758
20
9.11783130282147
30
0
41
1
10
74.7277905366945
20
9.15695035978064
30
0
41
1
10
74.7260332399156
20
9.2038434947644
30
0
41
1
10
74.7253041265181
20
9.25058059938263
30
0
41
1
10
74.7256029859114
20
9.29716173144921
30
0
41
1
10
74.7269297947362
20
9.34358723002924
30
0
41
1
10
74.7292844346815
20
9.38985747587626
30
0
41
1
10
74.7326667579866
20
9.43597295495266
30
0
41
1
10
74.7370765581978
20
9.48193424100843
30
0
41
1
10
74.7425135637537
20
9.52774199972252
30
0
41
1
10
74.7489774244382
20
9.5733969865277
30
0
41
1
10
74.7564676934982
20
9.61890004750171
30
0
41
1
10
74.7649838241025
20
9.66425211351887
30
0
41
1
10
74.7745251026501
20
9.70945421747879
30
0
41
1
10
74.7850908105891
20
9.75450742494181
30
0
41
1
10
74.7966795234617
20
9.79941308777995
30
0
41
1
10
74.8092916315246
20
9.84417188793574
30
0
41
1
10
74.8229197847317
20
9.88878741243133
30
0
41
1
10
74.8375845966489
20
9.93325274156382
30
0
41
1
10
74.8532005615221
20
9.97760075842669
30
0
41
1
10
74.8644270364893
20
10.00694237873
30
0
41
1
10
74.8700524229313
20
10.0216449415131
30
0
0
SPLINE
5
1B3
100
AcDbEntity
8
1
62
256
6
ByLayer
370
13
48
1
60
0
100
AcDbSpline
70
4
71
3
72
33
73
29
40
0
40
0
40
0
40
0
40
0.0372606820825818
40
0.0746046883215703
40
0.112033678987012
40
0.149549303065092
40
0.187153198144174
40
0.224846990306971
40
0.262632294029328
40
0.300510712084759
40
0.338483835455384
40
0.376553243248699
40
0.414720502620532
40
0.452987168703644
40
0.491354784542252
40
0.52982488103233
40
0.56839897686734
40
0.607078578489757
40
0.645865180047735
40
0.684760263357307
40
0.723765297869732
40
0.762881740643961
40
0.802111036324204
40
0.841454617122072
40
0.880913902804061
40
0.920490300683113
40
0.960185205615218
40
1
40
1
40
1
40
1
41
1
10
74.4333938349144
20
8.77037788162353
30
0
41
1
10
74.4397535098842
20
8.76043387571363
30
0
41
1
10
74.4524870816396
20
8.74052362662235
30
0
41
1
10
74.4718714090707
20
8.71079750864354
30
0
41
1
10
74.4914896994057
20
8.68113205793418
30
0
41
1
10
74.5113607051312
20
8.65154004382451
30
0
41
1
10
74.5314789743618
20
8.62201852455297
30
0
41
1
10
74.5518455016339
20
8.59256878545439
30
0
41
1
10
74.5724594843456
20
8.56319097785396
30
0
41
1
10
74.5933205370507
20
8.53388556040731
30
0
41
1
10
74.6144280936639
20
8.50465291129443
30
0
41
1
10
74.6357815658383
20
8.4754934322828
30
0
41
1
10
74.6573802979644
20
8.4464075205089
30
0
41
1
10
74.6792235768397
20
8.41739557583014
30
0
41
1
10
74.7013106266074
20
8.38845799860039
30
0
41
1
10
74.7236406076462
20
8.35959519002893
30
0
41
1
10
74.7462126143261
20
8.33080755178662
30
0
41
1
10
74.7690256732229
20
8.30209548600091
30
0
41
1
10
74.7920787405365
20
8.2734593944194
30
0
41
1
10
74.8153707021341
20
8.24489968048913
30
0
41
1
10
74.8389003637591
20
8.21641674053268
30
0
41
1
10
74.8626664780081
20
8.18801099575026
30
0
41
1
10
74.8866676334264
20
8.15968277118236
30
0
41
1
10
74.9109026603547
20
8.13143274827334
30
0
41
1
10
74.9353690997317
20
8.10326026733266
30
0
41
1
10
74.960068932917
20
8.07516968970981
30
0
41
1
10
74.9849870921686
20
8.04714654659341
30
0
41
1
10
75.0017515676302
20
8.02857503393193
30
0
41
1
10
75.0101464445974
20
8.01927527598561
30
0
0
SPLINE
5
1B4
100
AcDbEntity
8
1
62
256
6
ByLayer
370
18
48
1
60
0
100
AcDbSpline
70
4
71
3
72
8
73
4
40
0
40
0
40
0
40
0
40
1
40
1
40
1
40
1
41
1
10
72.0120306856463
20
10.0968512864476
30
0
41
1
10
72.0091395233942
20
10.11342956172
30
0
41
1
10
72.0064979855154
20
10.1301328446743
30
0
41
1
10
72.004113173706
20
10.1469507531466
30
0
0
SPLINE
5
1B5
100
AcDbEntity
8
1
62
256
6
ByLayer
370
18
48
1
60
0
100
AcDbSpline
70
4
71
3
72
18
73
14
40
0
40
0
40
0
40
0
40
0.0894181933285168
40
0.179214303580334
40
0.269362440555249
40
0.359836355246503
40
0.450609449529225
40
0.541654786375001
40
0.632945100630594
40
0.724452810399576
40
0.816150029066313
40
0.908008578002747
40
1
40
1
40
1
40
1
41
1
10
72.0121515502385
20
10.0967252862685
30
0
41
1
10
72.0139359503344
20
10.0868578486518
30
0
41
1
10
72.0175122921122
20
10.0670812696944
30
0
41
1
10
72.0230514854609
20
10.0373673060639
30
0
41
1
10
72.0287320529371
20
10.0075475003017
30
0
41
1
10
72.0345648219914
20
9.97763353963916
30
0
41
1
10
72.0405455565813
20
9.94763653993282
30
0
41
1
10
72.0466740101143
20
9.91756799812154
30
0
41
1
10
72.0529491365245
20
9.88743962360246
30
0
41
1
10
72.0593690936956
20
9.8572630392304
30
0
41
1
10
72.0659360643824
20
9.82705113530807
30
0
41
1
10
72.0726369148482
20
9.79681292035443
30
0
41
1
10
72.0772200787291
20
9.77666529557096
30
0
41
1
10
72.0795133168543
20
9.7665842025782
30
0
0
SPLINE
5
1B6
100
AcDbEntity
8
1
62
256
6
ByLayer
370
13
48
1
60
0
100
AcDbSpline
70
4
71
2
72
6
73
3
40
0
40
0
40
0
40
1
40
1
40
1
41
1
10
73.1430736681758
20
9.93201481050249
30
0
41
0.998837184066022
10
73.1376085965889
20
10.0217124787921
30
0
41
1
10
73.1313638283015
20
10.1109692086919
30
0
0
SPLINE
5
1B7
100
AcDbEntity
8
1
62
256
6
ByLayer
370
13
48
1
60
0
100
AcDbSpline
70
4
71
2
72
6
73
3
40
0
40
0
40
0
40
1
40
1
40
1
41
1
10
73.1430736681758
20
9.93201481050248
30
0
41
1
10
72.9128875699242
20
9.90243081792731
30
0
41
1
10
72.0795133168545
20
9.76658420257823
30
0
0
SPLINE
5
1B8
100
AcDbEntity
8
1
62
256
6
ByLayer
370
13
48
1
60
0
100
AcDbSpline
70
4
71
3
72
21
73
17
40
0
40
0
40
0
40
0
40
0.0504169455486577
40
0.100892339859872
40
0.151427069065367
40
0.202022016179598
40
0.25267806106838
40
0.303396080418133
40
0.35417694770591
40
0.40502153316999
40
0.455930703781578
40
0.506905323216827
40
0.620985639248138
40
0.741190275764535
40
0.867526352345352
40
1
40
1
40
1
40
1
41
1
10
74.7908491137341
20
7.79364005340823
30
0
41
1
10
74.7816591531404
20
7.80789269766839
30
0
41
1
10
74.7632685779591
20
7.8364145093916
30
0
41
1
10
74.7358512918743
20
7.8793518710488
30
0
41
1
10
74.7085391675197
20
7.9224341981509
30
0
41
1
10
74.681346766164
20
7.9656714269417
30
0
41
1
10
74.6542718981778
20
8.00906161845805
30
0
41
1
10
74.6273168054851
20
8.05260599670399
30
0
41
1
10
74.600482476704
20
8.09630491346837
30
0
41
1
10
74.5737701772407
20
8.14015892873937
30
0
41
1
10
74.5471810312745
20
8.18416853369128
30
0
41
1
10
74.5098066921286
20
8.24654036084468
30
0
41
1
10
74.460921512848
20
8.32922406690908
30
0
41
1
10
74.3998775485625
20
8.43420884296486
30
0
41
1
10
74.3363906165653
20
8.54494718973994
30
0
41
1
10
74.2935887031866
20
8.6208839540996
30
0
41
1
10
74.2716802312053
20
8.65975274156703
30
0
0
SPLINE
5
1B9
100
AcDbEntity
8
1
62
256
6
ByLayer
370
13
48
1
60
0
100
AcDbSpline
70
4
71
3
72
48
73
44
40
0
40
0
40
0
40
0
40
0.0260571364494117
40
0.0516706510613184
40
0.0768415816511769
40
0.101571021755969
40
0.125860124542607
40
0.149710107050113
40
0.173122254798178
40
0.196097926798864
40
0.218638561011812
40
0.24074568028796
40
0.262420898851644
40
0.311434787858279
40
0.361798167651802
40
0.413537259022104
40
0.466676245593316
40
0.521237448789487
40
0.588576252985966
40
0.652696085499196
40
0.713634443418466
40
0.771435015937355
40
0.78771482154337
40
0.803423743225815
40
0.818564167539635
40
0.833138760313098
40
0.847150510338117
40
0.860602781565156
40
0.873499375756159
40
0.885844608052797
40
0.897643398557159
40
0.908901383832543
40
0.919625053248871
40
0.929821916356894
40
0.939500708995917
40
0.948671647599727
40
0.957346743047529
40
0.965540187098644
40
0.973268825274475
40
0.980552728688144
40
0.987415871414723
40
0.993886905760085
40
1
40
1
40
1
40
1
41
1
10
74.2716802312049
20
8.65975274156776
30
0
41
1
10
74.2643015727514
20
8.6728369153828
30
0
41
1
10
74.2496698772466
20
8.69878250541089
30
0
41
1
10
74.2276078956087
20
8.73719481067147
30
0
41
1
10
74.2056991682697
20
8.77481091207513
30
0
41
1
10
74.1839228124623
20
8.81161903948482
30
0
41
1
10
74.1622840340248
20
8.84762212288969
30
0
41
1
10
74.1407812139854
20
8.88281924148886
30
0
41
1
10
74.1194146216863
20
8.91721054655017
30
0
41
1
10
74.0981836932979
20
8.95079568083223
30
0
41
1
10
74.0770893725338
20
8.98357526775743
30
0
41
1
10
74.0561275886341
20
9.01554661889296
30
0
41
1
10
74.0264236015658
20
9.06003065653351
30
0
41
1
10
73.9866800987707
20
9.11738941548124
30
0
41
1
10
73.9353639878782
20
9.18777968089202
30
0
41
1
10
73.8810354812184
20
9.25888838496863
30
0
41
1
10
73.8236836235999
20
9.33070910370932
30
0
41
1
10
73.7590917506719
20
9.40823255622304
30
0
41
1
10
73.6887926065482
20
9.48922471780813
30
0
41
1
10
73.6141488460143
20
9.57128546222506
30
0
41
1
10
73.5411904332999
20
9.64740103932984
30
0
41
1
10
73.4857548612027
20
9.70206442527126
30
0
41
1
10
73.4481164694352
20
9.7375977265295
30
0
41
1
10
73.4281325377375
20
9.75600306403516
30
0
41
1
10
73.4086481718684
20
9.77349492599288
30
0
41
1
10
73.3896614628452
20
9.79007123518737
30
0
41
1
10
73.3711734213763
20
9.80573291898314
30
0
41
1
10
73.353184263341
20
9.82048013928957
30
0
41
1
10
73.3356943479953
20
9.8343132491068
30
0
41
1
10
73.3187039376204
20
9.84723255307942
30
0
41
1
10
73.3022132532493
20
9.85923836970561
30
0
41
1
10
73.2862224537576
20
9.87033101783777
30
0
41
1
10
73.2707316314003
20
9.88051081833224
30
0
41
1
10
73.2557408003537
20
9.88977809976156
30
0
41
1
10
73.2412498809237
20
9.898133165453
30
0
41
1
10
73.2272586864124
20
9.90557638202108
30
0
41
1
10
73.2137668819337
20
9.91210782197358
30
0
41
1
10
73.2007740228881
20
9.91772839606574
30
0
41
1
10
73.1882793111338
20
9.92243581218685
30
0
41
1
10
73.1762823299001
20
9.92623814196966
30
0
41
1
10
73.1647804931044
20
9.92910706585963
30
0
41
1
10
73.153777873171
20
9.9311371234961
30
0
41
1
10
73.1465734192469
20
9.9317278453973
30
0
41
1
10
73.1430736532133
20
9.93201480516788
30
0
0
SPLINE
5
1BA
100
AcDbEntity
8
1
62
256
6
ByLayer
370
18
48
1
60
0
100
AcDbSpline
70
4
71
2
72
8
73
5
40
0
40
0
40
0
40
0.5
40
0.5
40
1
40
1
40
1
41
1
10
76.3349248407636
20
12.3679707629692
30
0
41
1
10
76.7571693147354
20
12.4007166458914
30
0
41
1
10
77.1394627951838
20
12.4124654150837
30
0
41
1
10
77.5743840814157
20
12.4258315593422
30
0
41
1
10
77.9359481489673
20
12.4112840724771
30
0
0
SPLINE
5
1BB
100
AcDbEntity
8
1
62
256
6
ByLayer
370
18
48
1
60
0
100
AcDbSpline
70
4
71
3
72
25
73
21
40
0
40
0
40
0
40
0
40
0.124999999999996
40
0.124999999999996
40
0.249999999999992
40
0.249999999999992
40
0.312499999999988
40
0.312499999999988
40
0.374999999999984
40
0.374999999999984
40
0.499999999999977
40
0.499999999999977
40
0.624999999999969
40
0.624999999999969
40
0.687499999999963
40
0.687499999999963
40
0.749999999999958
40
0.749999999999958
40
0.874999999999979
40
1
40
1
40
1
40
1
41
1
10
72.0041131737061
20
10.1469507531466
30
0
41
1
10
71.9961149591352
20
10.2039349282358
30
0
41
1
10
71.9915350115401
20
10.260912314605
30
0
41
1
10
71.98921657794
20
10.3748535001174
30
0
41
1
10
71.9914769642332
20
10.4318173015001
30
0
41
1
10
72.0002288173815
20
10.5172523560192
30
0
41
1
10
72.0040420947826
20
10.5457289280726
30
0
41
1
10
72.0135328436715
20
10.602678369867
30
0
41
1
10
72.0191580714351
20
10.6308357994321
30
0
41
1
10
72.0386272849783
20
10.7143489264409
30
0
41
1
10
72.0550569556887
20
10.7687590593254
30
0
41
1
10
72.0948271973228
20
10.8750449004657
30
0
41
1
10
72.1181664813932
20
10.9269210806473
30
0
41
1
10
72.1586068508952
20
11.0027434853913
30
0
41
1
10
72.1730576346258
20
11.0277776759582
30
0
41
1
10
72.2034089696834
20
11.0764711783405
30
0
41
1
10
72.2193258190402
20
11.100178407089
30
0
41
1
10
72.2692560010518
20
11.1694194147088
30
0
41
1
10
72.3416264687899
20
11.2567389594349
30
0
41
1
10
72.4255276396969
20
11.3341093349073
30
0
41
1
10
72.4704822310348
20
11.370202541691
30
0
0
SPLINE
5
1BC
100
AcDbEntity
8
1
62
256
6
ByLayer
370
13
48
1
60
0
100
AcDbSpline
70
4
71
2
72
6
73
3
40
0
40
0
40
0
40
1
40
1
40
1
41
1
10
72.0041131737066
20
10.1469507531466
30
0
41
1
10
72.8983653354622
20
10.1121915242666
30
0
41
1
10
73.1313638283015
20
10.1109692086919
30
0
0
SPLINE
5
1BD
100
AcDbEntity
8
1
62
256
6
ByLayer
370
13
48
1
60
0
100
AcDbSpline
70
4
71
2
72
16
73
13
40
0
40
0
40
0
40
0.25
40
0.25
40
0.375
40
0.375
40
0.5
40
0.5
40
0.625
40
0.625
40
0.75
40
0.75
40
1
40
1
40
1
41
1
10
73.1313638283015
20
10.1109692086919
30
0
41
1
10
73.3486268211151
20
10.1098307059996
30
0
41
1
10
73.5915536881928
20
9.87797640548423
30
0
41
1
10
73.6710072763632
20
9.80214429876713
30
0
41
1
10
73.7525777594373
20
9.70322174047288
30
0
41
1
10
73.8138721517834
20
9.628888502867
30
0
41
1
10
73.8947046047076
20
9.51793269444484
30
0
41
1
10
73.9437185509427
20
9.45065300872783
30
0
41
1
10
74.0287167674516
20
9.32906150326716
30
0
41
1
10
74.1217159180267
20
9.19602451508752
30
0
41
1
10
74.1614209621462
20
9.14081350669791
30
0
41
1
10
74.2685759787371
20
8.99181136726745
30
0
41
1
10
74.4333938353497
20
8.77037788165087
30
0
0
SPLINE
5
1BE
100
AcDbEntity
8
1
62
256
6
ByLayer
370
13
48
1
60
0
100
AcDbSpline
70
4
71
2
72
12
73
9
40
0
40
0
40
0
40
0.25
40
0.25
40
0.5
40
0.5
40
0.75
40
0.75
40
1
40
1
40
1
41
1
10
78.5074888465964
20
10.5153945537548
30
0
41
1
10
78.3723477677594
20
10.6268162959936
30
0
41
1
10
77.9680356398265
20
10.9730486393803
30
0
41
1
10
77.6554467767689
20
11.2407338436961
30
0
41
1
10
77.4306060221137
20
11.4321620828339
30
0
41
1
10
77.1577466208593
20
11.6644731458102
30
0
41
1
10
76.8845922434168
20
11.8964381348555
30
0
41
1
10
76.680132923279
20
12.0700667048972
30
0
41
1
10
76.3349248407636
20
12.3679707629691
30
0
0
SPLINE
5
1BF
100
AcDbEntity
8
1
62
256
6
ByLayer
370
18
48
1
60
0
100
AcDbSpline
70
4
71
3
72
8
73
4
40
0
40
0
40
0
40
0
40
1
40
1
40
1
40
1
41
1
10
74.8700524229312
20
10.0216449415132
30
0
41
1
10
74.9058527430957
20
10.0056177617352
30
0
41
1
10
74.9416530632602
20
9.98959058195723
30
0
41
1
10
74.9774533834248
20
9.97356340217928
30
0
0
SPLINE
5
1C0
100
AcDbEntity
8
1
62
256
6
ByLayer
370
18
48
1
60
0
100
AcDbSpline
70
4
71
3
72
35
73
31
40
0
40
0
40
0
40
0
40
0.0118847307698288
40
0.025409352355183
40
0.0405739410045255
40
0.0573785679301128
40
0.0758233042149282
40
0.0959082237163469
40
0.11763340487385
40
0.14099893188222
40
0.166004895479953
40
0.192651393494959
40
0.220938531232003
40
0.250866421753874
40
0.321074468298944
40
0.386063440476764
40
0.445832169134834
40
0.500379871011781
40
0.554650044938179
40
0.61443766392364
40
0.679741893604709
40
0.75056147868261
40
0.794232003212211
40
0.834333230189077
40
0.870865454971838
40
0.903828942190923
40
0.933223929027226
40
0.959050630758241
40
0.98130925075168
40
1
40
1
40
1
40
1
41
1
10
74.9774533834248
20
9.97356340217925
30
0
41
1
10
74.9748384097925
20
9.96706319103369
30
0
41
1
10
74.9692476406192
20
9.95316585010275
30
0
41
1
10
74.9606315918127
20
9.93085684728685
30
0
41
1
10
74.9512719156457
20
9.90573313800144
30
0
41
1
10
74.9413065877065
20
9.87774924275438
30
0
41
1
10
74.9308557995223
20
9.84687077118724
30
0
41
1
10
74.9200631646711
20
9.81305967645559
30
0
41
1
10
74.9090831101943
20
9.77628025202914
30
0
41
1
10
74.8980850161051
20
9.73649882155915
30
0
41
1
10
74.8872522069302
20
9.69368540110733
30
0
41
1
10
74.8767822191599
20
9.64781535351716
30
0
41
1
10
74.8668875175752
20
9.59886933334073
30
0
41
1
10
74.8538779769635
20
9.52445076217222
30
0
41
1
10
74.8415420887879
20
9.42806404795058
30
0
41
1
10
74.8340722137354
20
9.31362918161182
30
0
41
1
10
74.8332500072664
20
9.20819441595084
30
0
41
1
10
74.8377023646101
20
9.10917837569237
30
0
41
1
10
74.8471366230367
20
9.01049790580697
30
0
41
1
10
74.8626834526772
20
8.90618956934767
30
0
41
1
10
74.8861934685423
20
8.79342733747069
30
0
41
1
10
74.9142077218762
20
8.69148985956542
30
0
41
1
10
74.9428396681342
20
8.60529051794074
30
0
41
1
10
74.9676620644092
20
8.53913057562406
30
0
41
1
10
74.9923643851601
20
8.47970498596597
30
0
41
1
10
75.0163388233187
20
8.42683488702797
30
0
41
1
10
75.0390399438193
20
8.38032607612402
30
0
41
1
10
75.0600157137022
20
8.3399991140295
30
0
41
1
10
75.078799632656
20
8.30563081238319
30
0
41
1
10
75.0907932433157
20
8.28483810734268
30
0
41
1
10
75.0962675539967
20
8.27534757688268
30
0
0
SPLINE
5
1C1
100
AcDbEntity
8
1
62
256
6
ByLayer
370
13
48
1
60
0
100
AcDbSpline
70
4
71
2
72
6
73
3
40
0
40
0
40
0
40
1
40
1
40
1
41
1
10
78.7355165534661
20
10.732324777503
30
0
41
0.987555901011477
10
78.6221553524287
20
10.6288406920662
30
0
41
1
10
78.5074888453492
20
10.5153945536581
30
0
0
SPLINE
5
1C2
100
AcDbEntity
8
1
62
256
6
ByLayer
370
18
48
1
60
0
100
AcDbSpline
70
4
71
3
72
8
73
4
40
0
40
0
40
0
40
0
40
1
40
1
40
1
40
1
41
1
10
75.0962675539967
20
8.27534757688268
30
0
41
1
10
75.0626510996798
20
8.26016067230546
30
0
41
1
10
75.0290346453631
20
8.24497376772824
30
0
41
1
10
74.9954181910463
20
8.22978686315102
30
0
0
SPLINE
5
1C3
100
AcDbEntity
8
1
62
256
6
ByLayer
370
18
48
1
60
0
100
AcDbSpline
70
4
71
1
72
4
73
2
40
0
40
0
40
1
40
1
41
1
10
78.5575709783475
20
8.54377841179658
30
0
41
1
10
78.6475832516929
20
8.51301939040526
30
0
0
SPLINE
5
1C4
100
AcDbEntity
8
1
62
256
6
ByLayer
370
18
48
1
60
0
100
AcDbSpline
70
4
71
1
72
4
73
2
40
0
40
0
40
1
40
1
41
1
10
78.5222174835759
20
10.304877468799
30
0
41
1
10
78.4387568077736
20
10.2419942371232
30
0
0
SPLINE
5
1C5
100
AcDbEntity
8
1
62
256
6
ByLayer
370
18
48
1
60
0
100
AcDbSpline
70
4
71
3
72
34
73
30
40
0
40
0
40
0
40
0
40
0.0123166076706654
40
0.0255410556494393
40
0.0396733989798621
40
0.054713690598874
40
0.070661982707305
40
0.0875183277714498
40
0.105282779268648
40
0.123955392251671
40
0.143536223782194
40
0.164025333268301
40
0.185422782730295
40
0.207728637012454
40
0.269945241605319
40
0.325257787607693
40
0.373664783688548
40
0.415165063694943
40
0.482555820772785
40
0.553791450079386
40
0.628871586260737
40
0.707795430361992
40
0.774572506888789
40
0.833004762371595
40
0.883092419453359
40
0.924835651296879
40
0.958234587283676
40
0.983289328268781
40
1
40
1
40
1
40
1
41
1
10
78.5575709783475
20
8.54377841179658
30
0
41
1
10
78.5602790080455
20
8.55051613671493
30
0
41
1
10
78.5658946726074
20
8.56448821504134
30
0
41
1
10
78.5742983334454
20
8.58631822348642
30
0
41
1
10
78.5830065627282
20
8.60974960219812
30
0
41
1
10
78.5919360318584
20
8.63480953898795
30
0
41
1
10
78.6010300427728
20
8.66151229546884
30
0
41
1
10
78.6102184709829
20
8.68987531774772
30
0
41
1
10
78.6194294957106
20
8.71991412625098
30
0
41
1
10
78.6285861098269
20
8.75164341414698
30
0
41
1
10
78.6376071031576
20
8.78507633327669
30
0
41
1
10
78.6464067163651
20
8.820224173355
30
0
41
1
10
78.6548948637704
20
8.85709634288997
30
0
41
1
10
78.6676868758887
20
8.91819736508876
30
0
41
1
10
78.6814683843252
20
8.9994788033611
30
0
41
1
10
78.6926403201037
20
9.09660683906461
30
0
41
1
10
78.6983945342382
20
9.18193447270875
30
0
41
1
10
78.7008399343976
20
9.27448408829741
30
0
41
1
10
78.6983840740867
20
9.38044977393358
30
0
41
1
10
78.6875383681661
20
9.50562521525349
30
0
41
1
10
78.667332028116
20
9.63638883814789
30
0
41
1
10
78.6385664550326
20
9.76273858437919
30
0
41
1
10
78.6042606789489
20
9.87741464913326
30
0
41
1
10
78.5692106588642
20
9.97399697680181
30
0
41
1
10
78.5350902148164
20
10.0551541839434
30
0
41
1
10
78.5038434517288
20
10.1215187462871
30
0
41
1
10
78.4770087970183
20
10.1737047923169
30
0
41
1
10
78.4558869164298
20
10.2123251633947
30
0
41
1
10
78.4436520675225
20
10.2335157256714
30
0
41
1
10
78.4387568077736
20
10.2419942371232
30
0
0
SPLINE
5
1C6
100
AcDbEntity
8
1
62
256
6
ByLayer
370
13
48
1
60
0
100
AcDbSpline
70
4
71
2
72
6
73
3
40
0
40
0
40
0
40
1
40
1
40
1
41
1
10
74.7908491137341
20
7.79364005340821
30
0
41
0.987556019973643
10
74.8954782167858
20
7.90582688556117
30
0
41
1
10
75.0101464445974
20
8.01927527598561
30
0
0
SPLINE
5
1C7
100
AcDbEntity
8
1
62
256
6
ByLayer
370
13
48
1
60
0
100
AcDbSpline
70
4
71
3
72
21
73
17
40
0
40
0
40
0
40
0
40
0.0180052983038355
40
0.105581724679226
40
0.19112662161088
40
0.274645581551078
40
0.356144614009079
40
0.435630186642887
40
0.51310927133688
40
0.588589395975158
40
0.662078702732089
40
0.733586013834612
40
0.803120905906039
40
0.87069379418153
40
0.936316028097066
40
1
40
1
40
1
40
1
41
1
10
75.2450235870673
20
6.94947739200555
30
0
41
1
10
75.2425802782152
20
6.95469367555704
30
0
41
1
10
75.2282311906728
20
6.98527126361401
30
0
41
1
10
75.2020208101466
20
7.04051140475379
30
0
41
1
10
75.1662770431016
20
7.11441919554498
30
0
41
1
10
75.1308162056701
20
7.18629664697197
30
0
41
1
10
75.0956365902648
20
7.25614304195476
30
0
41
1
10
75.0607359113577
20
7.32395740241795
30
0
41
1
10
75.0261120349623
20
7.38973882636384
30
0
41
1
10
74.9917626074584
20
7.45348627794154
30
0
41
1
10
74.9576858443736
20
7.51519909882876
30
0
41
1
10
74.9238778810274
20
7.57487525454675
30
0
41
1
10
74.8903422551581
20
7.63251761329146
30
0
41
1
10
74.8570560168186
20
7.68811149785093
30
0
41
1
10
74.8240909101017
20
7.74170494879584
30
0
41
1
10
74.8018184265296
20
7.77650221882016
30
0
41
1
10
74.7908491137341
20
7.79364005340821
30
0
0
SPLINE
5
1C8
100
AcDbEntity
8
1
62
256
6
ByLayer
370
13
48
1
60
0
100
AcDbSpline
70
4
71
2
72
10
73
7
40
0
40
0
40
0
40
0.467494640983335
40
0.467494640983335
40
0.93498928196667
40
0.93498928196667
40
1
40
1
40
1
41
1
10
75.0101464433388
20
8.01927527588798
30
0
41
1
10
75.1447454969694
20
7.90829717403248
30
0
41
1
10
75.5495713506749
20
7.56166234126346
30
0
41
1
10
75.875308931403
20
7.2827473688408
30
0
41
1
10
76.0869889783009
20
7.10257555671893
30
0
41
1
10
76.1249503727709
20
7.07026465480565
30
0
41
1
10
76.1629156306111
20
7.03795828492312
30
0
0
SPLINE
5
1C9
100
AcDbEntity
8
1
62
256
6
ByLayer
370
18
48
1
60
0
100
AcDbSpline
70
4
71
3
72
67
73
63
40
0
40
0
40
0
40
0
40
0.0126948672397435
40
0.0253599885219826
40
0.0379968284019743
40
0.0506068612893828
40
0.0631915710162783
40
0.0757524503894667
40
0.0882910007277035
40
0.100808731384187
40
0.113307159255267
40
0.125787808275787
40
0.138252208902011
40
0.150701897582844
40
0.163138416220174
40
0.175563311619318
40
0.187978134930399
40
0.200384441081767
40
0.212783788206261
40
0.225177737061608
40
0.237567850445792
40
0.249955692608646
40
0.262342828660658
40
0.274730823980149
40
0.28712124361998
40
0.299515651714833
40
0.311915610890265
40
0.324322681674577
40
0.336738421914677
40
0.349164386196942
40
0.361602125274187
40
0.374053185499798
40
0.38651910826993
40
0.399001429474905
40
0.411501678960556
40
0.424021380000576
40
0.43656204878057
40
0.449125193894729
40
0.461712315855788
40
0.474324906618988
40
0.486964449120686
40
0.499632416832206
40
0.525014032819218
40
0.550283958942647
40
0.575454064167113
40
0.60053635916095
40
0.625542981114392
40
0.650486177678454
40
0.675378290119
40
0.700231735793081
40
0.72505899006586
40
0.749872567795866
40
0.774685004523847
40
0.799508837505452
40
0.824356586730999
40
0.849240736075482
40
0.87417371472
40
0.899167878980817
40
0.924235494675389
40
0.949388720145418
40
0.974639590046363
40
1
40
1
40
1
40
1
41
1
10
78.5222174835759
20
10.304877468799
30
0
41
1
10
78.5260476714398
20
10.298043334241
30
0
41
1
10
78.5336990724691
20
10.2843910785162
30
0
41
1
10
78.5448795308623
20
10.2637830641669
30
0
41
1
10
78.5558249699427
20
10.2431113773708
30
0
41
1
10
78.5665153902407
20
10.2223647547104
30
0
41
1
10
78.5769563114109
20
10.2015459387566
30
0
41
1
10
78.5871464474584
20
10.1806539398491
30
0
41
1
10
78.5970863389978
20
10.1596887736322
30
0
41
1
10
78.6067760461184
20
10.1386501954247
30
0
41
1
10
78.6162157636408
20
10.1175380382809
30
0
41
1
10
78.6254056555854
20
10.0963521225685
30
0
41
1
10
78.6343458983266
20
10.0750922800528
30
0
41
1
10
78.6430366680059
20
10.0537583473784
30
0
41
1
10
78.6514781428795
20
10.0323501677324
30
0
41
1
10
78.6596705017084
20
10.0108675903228
30
0
41
1
10
78.6676139232408
20
9.98931047044269
30
0
41
1
10
78.6753085854382
20
9.96767866938012
30
0
41
1
10
78.6827546648031
20
9.94597205437105
30
0
41
1
10
78.6899523357148
20
9.9241904985432
30
0
41
1
10
78.6969017697973
20
9.90233388086418
30
0
41
1
10
78.7036031353139
20
9.88040208609104
30
0
41
1
10
78.710056596588
20
9.85839500472164
30
0
41
1
10
78.7162623134508
20
9.83631253294779
30
0
41
1
10
78.7222204407182
20
9.81415457261049
30
0
41
1
10
78.7279311276917
20
9.79192103115702
30
0
41
1
10
78.7333945176888
20
9.76961182160001
30
0
41
1
10
78.7386107475985
20
9.74722686247863
30
0
41
1
10
78.7435799474652
20
9.72476607782173
30
0
41
1
10
78.7483022400982
20
9.70222939711327
30
0
41
1
10
78.7527777407092
20
9.67961675525954
30
0
41
1
10
78.757006556575
20
9.6569280925593
30
0
41
1
10
78.7609887867313
20
9.63416335467417
30
0
41
1
10
78.764724521677
20
9.61132249260754
30
0
41
1
10
78.7682138431707
20
9.58840546266343
30
0
41
1
10
78.7714568238006
20
9.56541222648947
30
0
41
1
10
78.7744535275381
20
9.54234275081795
30
0
41
1
10
78.7772040067302
20
9.51919700834564
30
0
41
1
10
78.7797083125508
20
9.49597497436461
30
0
41
1
10
78.7819664552039
20
9.47267663930657
30
0
41
1
10
78.7839785523469
20
9.44930196172746
30
0
41
1
10
78.7863335574946
20
9.41802462865624
30
0
41
1
10
78.7886539451308
20
9.37890063210861
30
0
41
1
10
78.79042907789
20
9.33198972901376
30
0
41
1
10
78.7911876382985
20
9.2852232894369
30
0
41
1
10
78.7909293878965
20
9.23860170290656
30
0
41
1
10
78.7896537240762
20
9.19212525394219
30
0
41
1
10
78.7873599592772
20
9.14579436459553
30
0
41
1
10
78.7840472561754
20
9.09960953023996
30
0
41
1
10
78.7797146566257
20
9.05357133729306
30
0
41
1
10
78.7743610880397
20
9.00768045911042
30
0
41
1
10
78.7679853767985
20
8.96193765829621
30
0
41
1
10
78.7605862661353
20
8.91634378580939
30
0
41
1
10
78.7521624192644
20
8.87089978722533
30
0
41
1
10
78.7427124872594
20
8.8256066843232
30
0
41
1
10
78.7322349425308
20
8.78046564913693
30
0
41
1
10
78.7207287972439
20
8.73547773290701
30
0
41
1
10
78.7081910173539
20
8.69064488741917
30
0
41
1
10
78.6946263226794
20
8.64596614586965
30
0
41
1
10
78.6800105647163
20
8.6014519494482
30
0
41
1
10
78.6644282555752
20
8.55707040492342
30
0
41
1
10
78.6532063489967
20
8.5277242336156
30
0
41
1
10
78.6475832516929
20
8.51301939040526
30
0
0
SPLINE
5
1CA
100
AcDbEntity
8
1
62
256
6
ByLayer
370
13
48
1
60
0
100
AcDbSpline
70
4
71
3
72
33
73
29
40
0
40
0
40
0
40
0
40
0.0372685593944097
40
0.0746198156280104
40
0.112055428126919
40
0.149577045124151
40
0.187186303544439
40
0.224884828895077
40
0.262674235163067
40
0.300556124718388
40
0.338532088223273
40
0.376603704547664
40
0.41477254069039
40
0.453040151706403
40
0.491408080639624
40
0.529877858461657
40
0.568451004015941
40
0.60712902396758
40
0.645913412758488
40
0.684805652567844
40
0.723807213277826
40
0.762919552444529
40
0.802144115273602
40
0.841482334601154
40
0.880935630879141
40
0.920505412165664
40
0.960193074119651
40
1
40
1
40
1
40
1
41
1
10
79.0762972186095
20
9.77220182697387
30
0
41
1
10
79.0701062573788
20
9.781978342279
30
0
41
1
10
79.0577105975225
20
9.8015530664274
30
0
41
1
10
79.0388203212534
20
9.83078863611667
30
0
41
1
10
79.0196866747474
20
9.85997277131095
30
0
41
1
10
79.0002892241156
20
9.88909438495497
30
0
41
1
10
78.9806329004061
20
9.918156936995
30
0
41
1
10
78.9607158622248
20
9.94715998743675
30
0
41
1
10
78.9405381388303
20
9.97610415630628
30
0
41
1
10
78.9200993085271
20
10.0049897901445
30
0
41
1
10
78.899399125366
20
10.0338173207361
30
0
41
1
10
78.8784373530679
20
10.0625871687903
30
0
41
1
10
78.8572138121749
20
10.0912997699913
30
0
41
1
10
78.8357283698867
20
10.1199555681372
30
0
41
1
10
78.8139809453494
20
10.1485550171314
30
0
41
1
10
78.7919715108048
20
10.1770985805806
30
0
41
1
10
78.7697000939403
20
10.2055867320756
30
0
41
1
10
78.747166779736
20
10.2340199551309
30
0
41
1
10
78.7243717132652
20
10.2623987437966
30
0
41
1
10
78.7013150993174
20
10.2907236009034
30
0
41
1
10
78.6779972139619
20
10.3189950451236
30
0
41
1
10
78.6544183714904
20
10.347213584992
30
0
41
1
10
78.6305790586917
20
10.3753798167485
30
0
41
1
10
78.6064794420537
20
10.4034940580672
30
0
41
1
10
78.5821212255118
20
10.4315577214051
30
0
41
1
10
78.5575006973924
20
10.4595681664656
30
0
41
1
10
78.5326348056389
20
10.4875379968409
30
0
41
1
10
78.5158792114584
20
10.5060997521256
30
0
41
1
10
78.5074888453492
20
10.5153945536581
30
0
0
SPLINE
5
1CB
100
AcDbEntity
8
1
62
256
6
ByLayer
370
13
48
1
60
0
100
AcDbSpline
70
4
71
3
72
21
73
17
40
0
40
0
40
0
40
0
40
0.0504498507121772
40
0.100951486156237
40
0.151505791043744
40
0.202113647324352
40
0.252775934151498
40
0.303493527848443
40
0.354267301875169
40
0.405098126795951
40
0.45598687024743
40
0.506934396907679
40
0.621048090856431
40
0.741259006544529
40
0.867574264354275
40
1
40
1
40
1
40
1
41
1
10
78.7355165534661
20
10.732324777503
30
0
41
1
10
78.7445120609241
20
10.7182622867612
30
0
41
1
10
78.7625123093647
20
10.6901228706994
30
0
41
1
10
78.7893120121662
20
10.6477923926271
30
0
41
1
10
78.815981080298
20
10.6053445376287
30
0
41
1
10
78.8425033136361
20
10.562771021736
30
0
41
1
10
78.8688820387447
20
10.5200726300018
30
0
41
1
10
78.8951153971424
20
10.4772477474709
30
0
41
1
10
78.9212029801388
20
10.4342954370924
30
0
41
1
10
78.9471440284191
20
10.391214611989
30
0
41
1
10
78.9729379801885
20
10.3480042619397
30
0
41
1
10
79.0091729186909
20
10.2867686407366
30
0
41
1
10
79.0565029934396
20
10.2056321059828
30
0
41
1
10
79.1154938671637
20
10.1026901818571
30
0
41
1
10
79.1767304716583
20
9.99420092112162
30
0
41
1
10
79.2179251674762
20
9.91987299979255
30
0
41
1
10
79.2390089463762
20
9.8818313677745
30
0
0
SPLINE
5
1CC
100
AcDbEntity
8
1
62
256
6
ByLayer
370
18
48
1
60
0
100
AcDbSpline
70
4
71
3
72
8
73
4
40
0
40
0
40
0
40
0
40
1
40
1
40
1
40
1
41
1
10
79.0486532197137
20
12.4570310292977
30
0
41
1
10
78.9959849196536
20
12.4550329666476
30
0
41
1
10
78.9429386509539
20
12.4510976749919
30
0
41
1
10
78.88948041976
20
12.445160834383
30
0
0
SPLINE
5
1CD
100
AcDbEntity
8
1
62
256
6
ByLayer
370
13
48
1
60
0
100
AcDbSpline
70
4
71
3
72
32
73
28
40
0
40
0
40
0
40
0
40
0.0486157692082914
40
0.0960473849618954
40
0.142295359025868
40
0.187360243490211
40
0.231242635098746
40
0.273943180171598
40
0.315462580221229
40
0.35580159838195
40
0.394961066797453
40
0.432941895141727
40
0.469745080487111
40
0.505371718781066
40
0.549475019669694
40
0.592556493672179
40
0.634618959648473
40
0.675665446398353
40
0.715699213316035
40
0.754723773547047
40
0.792742920002527
40
0.829760754642474
40
0.86578172150591
40
0.900810644043011
40
0.934852767394674
40
0.96791380637071
40
1
40
1
40
1
40
1
41
1
10
77.9359492675031
20
12.4112855679392
30
0
41
1
10
77.9471303478211
20
12.3833736892808
30
0
41
1
10
77.9692201664764
20
12.3282297925951
30
0
41
1
10
78.0022768294747
20
12.2466396537815
30
0
41
1
10
78.0347617147568
20
12.1671685734934
30
0
41
1
10
78.06669712326
20
12.0898239738699
30
0
41
1
10
78.0980776415155
20
12.0146044791912
30
0
41
1
10
78.1289050018968
20
11.941510993037
30
0
41
1
10
78.1591790929331
20
11.8705438412869
30
0
41
1
10
78.1889002833376
20
11.8017035112886
30
0
41
1
10
78.2180687879357
20
11.7349904468872
30
0
41
1
10
78.2466849557794
20
11.6704051511191
30
0
41
1
10
78.274748745726
20
11.607947978246
30
0
41
1
10
78.304746021425
20
11.5421718387615
30
0
41
1
10
78.3368367110401
20
11.4730383304941
30
0
41
1
10
78.3711918925227
20
11.4005164665319
30
0
41
1
10
78.4053312839812
20
11.3299570097407
30
0
41
1
10
78.4392555972404
20
11.261361830241
30
0
41
1
10
78.4729659708435
20
11.1947330130235
30
0
41
1
10
78.506463368847
20
11.1300726410815
30
0
41
1
10
78.5397489260002
20
11.0673829669709
30
0
41
1
10
78.5728231381361
20
11.0066659393429
30
0
41
1
10
78.6056886139049
20
10.947924848252
30
0
41
1
10
78.6383402159198
20
10.8911584287406
30
0
41
1
10
78.6708002999894
20
10.8363819449202
30
0
41
1
10
78.7029926997866
20
10.7835517983538
30
0
41
1
10
78.7247839617315
20
10.749229253399
30
0
41
1
10
78.7355165534661
20
10.732324777503
30
0
0
SPLINE
5
1CE
100
AcDbEntity
8
1
62
256
6
ByLayer
370
13
48
1
60
0
100
AcDbSpline
70
4
71
2
72
6
73
3
40
0
40
0
40
0
40
1
40
1
40
1
41
1
10
79.2390089463833
20
9.88183136776162
30
0
41
0.983799121243078
10
79.1556593052051
20
9.83014733199116
30
0
41
1
10
79.0762972186166
20
9.77220182696173
30
0
0
SPLINE
5
1CF
100
AcDbEntity
8
1
62
256
6
ByLayer
370
13
48
1
60
0
100
AcDbSpline
70
4
71
3
72
48
73
44
40
0
40
0
40
0
40
0
40
0.0260635153897253
40
0.0516836499461879
40
0.0768614432759519
40
0.101597990756516
40
0.125894447444595
40
0.149752032317454
40
0.173172032880277
40
0.196155810176122
40
0.218704804238556
40
0.240820540032033
40
0.262504633929618
40
0.311524981899297
40
0.361897692468881
40
0.413648998099515
40
0.466803089488362
40
0.521382291356799
40
0.588747222822622
40
0.652897145098083
40
0.713869602421177
40
0.771708327021306
40
0.787967473712316
40
0.803656463833703
40
0.818777687117316
40
0.833333812934993
40
0.847327834041166
40
0.860763118827973
40
0.873643474047281
40
0.885973220457846
40
0.89775728449497
40
0.909001309869826
40
0.919711794021161
40
0.929896255598266
40
0.939563440670371
40
0.948723577108849
40
0.957388688457455
40
0.965572980275495
40
0.973293312730551
40
0.980569771804349
40
0.987426345502528
40
0.99389169714817
40
1
40
1
40
1
40
1
41
1
10
79.2390089463833
20
9.88183136776161
30
0
41
1
10
79.246112163752
20
9.86902004989095
30
0
41
1
10
79.2601977617417
20
9.84361535454285
30
0
41
1
10
79.2814530167681
20
9.80600240920039
30
0
41
1
10
79.3025728978692
20
9.76916804750178
30
0
41
1
10
79.3235783723183
20
9.73312398970936
30
0
41
1
10
79.3444638388848
20
9.69786769222522
30
0
41
1
10
79.3652306411429
20
9.6634003538984
30
0
41
1
10
79.385878193228
20
9.62972213919778
30
0
41
1
10
79.4064067593346
20
9.59683370612576
30
0
41
1
10
79.4268150400001
20
9.56473478369516
30
0
41
1
10
79.4471069231528
20
9.53342825522563
30
0
41
1
10
79.4758724307215
20
9.48987804916031
30
0
41
1
10
79.5143998784363
20
9.43373127178629
30
0
41
1
10
79.5642031061452
20
9.36485036013127
30
0
41
1
10
79.6169686043001
20
9.29530085775647
30
0
41
1
10
79.6726888971728
20
9.22510767933632
30
0
41
1
10
79.7354420462027
20
9.14941786129383
30
0
41
1
10
79.8037061907686
20
9.07045611084355
30
0
41
1
10
79.8761355168579
20
8.99060756713391
30
0
41
1
10
79.9468734542962
20
8.91671281854946
30
0
41
1
10
80.0005572084408
20
8.86380234038151
30
0
41
1
10
80.0369657465734
20
8.82949947777533
30
0
41
1
10
80.0562688345933
20
8.81177411695768
30
0
41
1
10
80.0750854002223
20
8.79494910635425
30
0
41
1
10
80.0934179506791
20
8.77902601215216
30
0
41
1
10
80.1112659904101
20
8.76400337564839
30
0
41
1
10
80.1286298305125
20
8.74988051764795
30
0
41
1
10
80.1455096263186
20
8.73665657342804
30
0
41
1
10
80.1619056236474
20
8.72433073457842
30
0
41
1
10
80.1778181013271
20
8.71290218648714
30
0
41
1
10
80.1932473922195
20
8.70237012228598
30
0
41
1
10
80.2081938872563
20
8.69273374153056
30
0
41
1
10
80.2226580464771
20
8.68399224500679
30
0
41
1
10
80.2366404143845
20
8.67614486811348
30
0
41
1
10
80.2501416321213
20
8.66919079353059
30
0
41
1
10
80.2631624790267
20
8.66312950762774
30
0
41
1
10
80.27570382953
20
8.65795967490433
30
0
41
1
10
80.2877669093973
20
8.6536831593497
30
0
41
1
10
80.2993525154982
20
8.6502915266083
30
0
41
1
10
80.31046372114
20
8.64781256645571
30
0
41
1
10
80.3210965237009
20
8.64615181256825
30
0
41
1
10
80.328062680797
20
8.64579850419354
30
0
41
1
10
80.3314468518241
20
8.64562686638105
30
0
0
SPLINE
5
1D0
100
AcDbEntity
8
1
62
256
6
ByLayer
370
18
48
1
60
0
100
AcDbSpline
70
4
71
3
72
31
73
27
40
0
40
0
40
0
40
0
40
0.124999999999851
40
0.124999999999851
40
0.249999999999702
40
0.249999999999702
40
0.281249999999686
40
0.281249999999686
40
0.312499999999669
40
0.312499999999669
40
0.374999999999637
40
0.374999999999637
40
0.499999999999571
40
0.499999999999571
40
0.562499999999556
40
0.562499999999556
40
0.593749999999566
40
0.593749999999566
40
0.624999999999577
40
0.624999999999577
40
0.749999999999732
40
0.874999999999887
40
0.874999999999887
40
0.937499999999943
40
0.937499999999943
40
1
40
1
40
1
40
1
41
1
10
80.5070503784986
20
11.5499460965437
30
0
41
1
10
80.4764579625889
20
11.6212991224883
30
0
41
1
10
80.4408850394691
20
11.6890369453997
30
0
41
1
10
80.3603687202459
20
11.8177108417371
30
0
41
1
10
80.3154223980476
20
11.8786447911973
30
0
41
1
10
80.2533481452978
20
11.9505358711179
30
0
41
1
10
80.2406372304956
20
11.9646991828086
30
0
41
1
10
80.2146163697751
20
11.9925909872014
30
0
41
1
10
80.2012776706731
20
12.0063474596713
30
0
41
1
10
80.1605868459631
20
12.0467213183224
30
0
41
1
10
80.1325987221666
20
12.0724180161627
30
0
41
1
10
80.0461333415313
20
12.1459662066044
30
0
41
1
10
79.9851679753348
20
12.1902940648135
30
0
41
1
10
79.8888114582271
20
12.2498345314596
30
0
41
1
10
79.8558712601861
20
12.268518153661
30
0
41
1
10
79.8052082352381
20
12.2947694868615
30
0
41
1
10
79.7880807129107
20
12.3032382400171
30
0
41
1
10
79.753556315397
20
12.3195031836098
30
0
41
1
10
79.7361859851543
20
12.3272885332816
30
0
41
1
10
79.6488028028718
20
12.364508968327
30
0
41
1
10
79.5056047931812
20
12.4131954497016
30
0
41
1
10
79.3558197757249
20
12.4407364144689
30
0
41
1
10
79.2409188048587
20
12.453166975882
30
0
41
1
10
79.2024877182611
20
12.4558984562567
30
0
41
1
10
79.1256307265295
20
12.4585586019201
30
0
41
1
10
79.0871620347621
20
12.4584919275033
30
0
41
1
10
79.0486532197137
20
12.4570310292977
30
0
0
SPLINE
5
1D1
100
AcDbEntity
8
1
62
256
6
ByLayer
370
18
48
1
60
0
100
AcDbSpline
70
4
71
3
72
8
73
4
40
0
40
0
40
0
40
0
40
1
40
1
40
1
40
1
41
1
10
81.4270406374238
20
8.51607843596679
30
0
41
1
10
81.429892322476
20
8.49953948720905
30
0
41
1
10
81.4324895762036
20
8.48288031940366
30
0
41
1
10
81.4348243332528
20
8.46611227470537
30
0
0
SPLINE
5
1D2
100
AcDbEntity
8
1
62
256
6
ByLayer
370
13
48
1
60
0
100
AcDbSpline
70
4
71
2
72
6
73
3
40
0
40
0
40
0
40
1
40
1
40
1
41
1
10
80.3314468364037
20
8.64562686032296
30
0
41
0.998837184066022
10
80.3354280276355
20
8.55736869507884
30
0
41
1
10
80.3416756665994
20
8.46807093448294
30
0
0
SPLINE
5
1D3
100
AcDbEntity
8
1
62
256
6
ByLayer
370
18
48
1
60
0
100
AcDbSpline
70
4
71
3
72
18
73
14
40
0
40
0
40
0
40
0
40
0.0894181927855394
40
0.179214302545415
40
0.269362439098869
40
0.359836353458471
40
0.450609447518668
40
0.541654784270005
40
0.632945098578372
40
0.724452808566003
40
0.816150027635671
40
0.908008577177369
40
1
40
1
40
1
40
1
41
1
10
81.426978041141
20
8.51614638956609
30
0
41
1
10
81.4252520577847
20
8.52595563281456
30
0
41
1
10
81.4217927963775
20
8.54561557708885
30
0
41
1
10
81.4164833435286
20
8.57510067469937
30
0
41
1
10
81.4110732161826
20
8.60465106970364
30
0
41
1
10
81.405555955091
20
8.63425072329456
30
0
41
1
10
81.3999352358274
20
8.66388907795648
30
0
41
1
10
81.3942120104884
20
8.6935539339364
30
0
41
1
10
81.3883877456253
20
8.72323316295549
30
0
41
1
10
81.3824643877176
20
8.75291503819743
30
0
41
1
10
81.3764412248692
20
8.78258520410249
30
0
41
1
10
81.3703275019309
20
8.81223852624323
30
0
41
1
10
81.3661750537313
20
8.83195707470792
30
0
41
1
10
81.3640973290889
20
8.84182347450083
30
0
0
SPLINE
5
1D4
100
AcDbEntity
8
1
62
256
6
ByLayer
370
13
48
1
60
0
100
AcDbSpline
70
4
71
2
72
6
73
3
40
0
40
0
40
0
40
1
40
1
40
1
41
1
10
80.3314468364037
20
8.64562686032296
30
0
41
1
10
80.5591784122146
20
8.68278225230264
30
0
41
1
10
81.3640973290889
20
8.84182347450083
30
0
0
SPLINE
5
1D5
100
AcDbEntity
8
1
62
256
6
ByLayer
370
18
48
1
60
0
100
AcDbSpline
70
4
71
3
72
25
73
21
40
0
40
0
40
0
40
0
40
0.125
40
0.125
40
0.250000000000001
40
0.250000000000001
40
0.312500000000001
40
0.312500000000001
40
0.375000000000001
40
0.375000000000001
40
0.500000000000002
40
0.500000000000002
40
0.625000000000002
40
0.625000000000002
40
0.687500000000002
40
0.687500000000002
40
0.750000000000002
40
0.750000000000002
40
0.875000000000001
40
1
40
1
40
1
40
1
41
1
10
81.4348243332527
20
8.46611227470535
30
0
41
1
10
81.4427008922005
20
8.4092492922961
30
0
41
1
10
81.4472628379606
20
8.35228983926197
30
0
41
1
10
81.4497527248865
20
8.23817785287565
30
0
41
1
10
81.4476817595587
20
8.18102535134955
30
0
41
1
10
81.4393766103895
20
8.09514529273213
30
0
41
1
10
81.4357394039504
20
8.06649331973421
30
0
41
1
10
81.4266573258566
20
8.00913676229231
30
0
41
1
10
81.4212624441805
20
7.98074986321396
30
0
41
1
10
81.4025608895176
20
7.89647199858608
30
0
41
1
10
81.386744943144
20
7.84145047683516
30
0
41
1
10
81.348406364253
20
7.73373842099859
30
0
41
1
10
81.3258849805632
20
7.68104745286831
30
0
41
1
10
81.2868319584009
20
7.60384298017892
30
0
41
1
10
81.2728725525645
20
7.57831928160164
30
0
41
1
10
81.2435450241355
20
7.52860586857985
30
0
41
1
10
81.2281611994656
20
7.50436764351255
30
0
41
1
10
81.1798922042897
20
7.43347177051966
30
0
41
1
10
81.1099018456826
20
7.34378117389173
30
0
41
1
10
81.0287093730144
20
7.26371240779464
30
0
41
1
10
80.9851947356024
20
7.22618472664513
30
0
0
SPLINE
5
1D6
100
AcDbEntity
8
1
62
256
6
ByLayer
370
13
48
1
60
0
100
AcDbSpline
70
4
71
2
72
6
73
3
40
0
40
0
40
0
40
1
40
1
40
1
41
1
10
81.4348243332522
20
8.46611227470535
30
0
41
1
10
80.5719929790342
20
8.47388808015408
30
0
41
1
10
80.3416756665994
20
8.46807093448294
30
0
0
SPLINE
5
1D7
100
AcDbEntity
8
1
62
256
6
ByLayer
370
13
48
1
60
0
100
AcDbSpline
70
4
71
2
72
16
73
13
40
0
40
0
40
0
40
0.25
40
0.25
40
0.375
40
0.375
40
0.5
40
0.5
40
0.625
40
0.625
40
0.75
40
0.75
40
1
40
1
40
1
41
1
10
80.3416756665973
20
8.46807093448265
30
0
41
1
10
80.1311807547241
20
8.46275320470058
30
0
41
1
10
79.8953297985163
20
8.68735583488252
30
0
41
1
10
79.817978152634
20
8.76101838598434
30
0
41
1
10
79.7386353471088
20
8.85770941421448
30
0
41
1
10
79.6790859451494
20
8.93027923157639
30
0
41
1
10
79.6003797613386
20
9.03914023013553
30
0
41
1
10
79.5526627017795
20
9.10513919616839
30
0
41
1
10
79.4699957282471
20
9.22440445788773
30
0
41
1
10
79.3794657516384
20
9.35501382813953
30
0
41
1
10
79.3408884599705
20
9.40908642046985
30
0
41
1
10
79.2365317748401
20
9.55535994689004
30
0
41
1
10
79.0762972186166
20
9.77220182696173
30
0
0
SPLINE
5
1D8
100
AcDbEntity
8
1
62
256
6
ByLayer
370
18
48
1
60
0
100
AcDbSpline
70
4
71
3
72
8
73
4
40
0
40
0
40
0
40
0
40
1
40
1
40
1
40
1
41
1
10
76.0838369756156
20
9.84056812343977
30
0
41
1
10
76.0802863891458
20
9.84668962846774
30
0
41
1
10
76.0767365033475
20
9.85280959571307
30
0
41
1
10
76.0731872782933
20
9.85892811445028
30
0
0
SPLINE
5
1D9
100
AcDbEntity
8
1
62
256
6
ByLayer
370
18
48
1
60
0
100
AcDbSpline
70
4
71
3
72
26
73
22
40
0
40
0
40
0
40
0
40
0.24999999999994
40
0.24999999999994
40
0.374999999999999
40
0.374999999999999
40
0.500000000000058
40
0.500000000000058
40
0.625000000000118
40
0.625000000000118
40
0.687500000000098
40
0.687500000000098
40
0.750000000000078
40
0.750000000000078
40
0.812500000000059
40
0.812500000000059
40
0.875000000000039
40
0.875000000000039
40
0.93750000000002
40
0.93750000000002
40
1
40
1
40
1
40
1
41
1
10
76.1822277032188
20
10.117765613428
30
0
41
1
10
76.1595403526156
20
10.1022898080094
30
0
41
1
10
76.1382016174616
20
10.0848521854217
30
0
41
1
10
76.109089191096
20
10.0558184441716
30
0
41
1
10
76.0998719110997
20
10.0456513641665
30
0
41
1
10
76.0827532940219
20
10.0243212397512
30
0
41
1
10
76.0748310100258
20
10.0131368083359
30
0
41
1
10
76.0608804432309
20
9.98973464496638
30
0
41
1
10
76.0548259703886
20
9.97748930802604
30
0
41
1
10
76.0479825697716
20
9.95837927097533
30
0
41
1
10
76.0460862355436
20
9.95190511559164
30
0
41
1
10
76.0432773233653
20
9.93879250846112
30
0
41
1
10
76.0423720817011
20
9.93215415026077
30
0
41
1
10
76.0418210929933
20
9.9190549591316
30
0
41
1
10
76.0421613468659
20
9.91255065905949
30
0
41
1
10
76.0443937661148
20
9.89966494918615
30
0
41
1
10
76.0462728255907
20
9.89345818991335
30
0
41
1
10
76.0515847183696
20
9.88186349410442
30
0
41
1
10
76.05507599479
20
9.87640551206771
30
0
41
1
10
76.063239985312
20
9.8668187677394
30
0
41
1
10
76.0679740118921
20
9.86257900958725
30
0
41
1
10
76.0731872782933
20
9.85892811445027
30
0
0
SPLINE
5
1DA
100
AcDbEntity
8
1
62
256
6
ByLayer
370
18
48
1
60
0
100
AcDbSpline
70
4
71
3
72
8
73
4
40
0
40
0
40
0
40
0
40
1
40
1
40
1
40
1
41
1
10
75.8847593132782
20
9.43088043263975
30
0
41
1
10
75.8778566521133
20
9.43010360600614
30
0
41
1
10
75.8709557808339
20
9.42932748311472
30
0
41
1
10
75.8640565953107
20
9.42855202111755
30
0
0
SPLINE
5
1DB
100
AcDbEntity
8
1
62
256
6
ByLayer
370
18
48
1
60
0
100
AcDbSpline
70
4
71
3
72
30
73
26
40
0
40
0
40
0
40
0
40
0.0624999999999999
40
0.0624999999999999
40
0.125
40
0.125
40
0.1875
40
0.1875
40
0.25
40
0.25
40
0.3125
40
0.3125
40
0.375
40
0.375
40
0.5
40
0.5
40
0.625
40
0.625
40
0.75
40
0.75
40
0.875
40
0.875
40
0.9375
40
0.9375
40
1
40
1
40
1
40
1
41
1
10
76.0838369756157
20
9.8405681234396
30
0
41
1
10
76.0889602562466
20
9.83173516347146
30
0
41
1
10
76.0928060549753
20
9.82212285641661
30
0
41
1
10
76.0984999422706
20
9.80243074083606
30
0
41
1
10
76.1003871251512
20
9.79226543224121
30
0
41
1
10
76.1026827872191
20
9.77141964219956
30
0
41
1
10
76.1030672260304
20
9.76086429551765
30
0
41
1
10
76.1026253767731
20
9.73980991425715
30
0
41
1
10
76.1018004194657
20
9.72926045745692
30
0
41
1
10
76.0991093873713
20
9.70811002957554
30
0
41
1
10
76.0972277216512
20
9.69745403148731
30
0
41
1
10
76.092569783198
20
9.67641802630172
30
0
41
1
10
76.0897988162692
20
9.66603279024837
30
0
41
1
10
76.0802789339907
20
9.63523641328588
30
0
41
1
10
76.0723416399438
20
9.61517868078532
30
0
41
1
10
76.0533408840898
20
9.57598573353832
30
0
41
1
10
76.0424919866073
20
9.5572935087193
30
0
41
1
10
76.0179634856959
20
9.52183629956134
30
0
41
1
10
76.0043914896851
20
9.50524191322944
30
0
41
1
10
75.9746274267225
20
9.47536236168722
30
0
41
1
10
75.9584039980401
20
9.46202252862163
30
0
41
1
10
75.9321360031654
20
9.4462265741295
30
0
41
1
10
75.9229889049774
20
9.44164407477251
30
0
41
1
10
75.904277413491
20
9.43455179446356
30
0
41
1
10
75.894692491589
20
9.43199831417616
30
0
41
1
10
75.8847593132782
20
9.43088043263975
30
0
0
SPLINE
5
1DC
100
AcDbEntity
8
1
62
256
6
ByLayer
370
18
48
1
60
0
100
AcDbSpline
70
4
71
3
72
26
73
22
40
0
40
0
40
0
40
0
40
0.249999999999881
40
0.249999999999881
40
0.374999999999835
40
0.374999999999835
40
0.49999999999979
40
0.49999999999979
40
0.624999999999745
40
0.624999999999745
40
0.687499999999787
40
0.687499999999787
40
0.74999999999983
40
0.74999999999983
40
0.812499999999872
40
0.812499999999872
40
0.874999999999915
40
0.874999999999915
40
0.937499999999957
40
0.937499999999957
40
1
40
1
40
1
40
1
41
1
10
75.7302182504138
20
9.1875622608007
30
0
41
1
10
75.7283093024614
20
9.21484693237653
30
0
41
1
10
75.7287598732657
20
9.24225015399702
30
0
41
1
10
75.733456346414
20
9.28279272687354
30
0
41
1
10
75.7357019537991
20
9.29621545501681
30
0
41
1
10
75.7417751711565
20
9.32261247880884
30
0
41
1
10
75.7456065912319
20
9.33561633563684
30
0
41
1
10
75.7552314281948
20
9.36073067890017
30
0
41
1
10
75.7610303212226
20
9.37287872710634
30
0
41
1
10
75.7716707497527
20
9.38974916875699
30
0
41
1
10
75.7755332441888
20
9.39512627377781
30
0
41
1
10
75.783985268226
20
9.40518787363851
30
0
41
1
10
75.7885791944549
20
9.40986641241713
30
0
41
1
10
75.7983961086894
20
9.41810362922546
30
0
41
1
10
75.803644265393
20
9.42169944462505
30
0
41
1
10
75.8149888068885
20
9.42756583520158
30
0
41
1
10
75.8209418385105
20
9.42974302127618
30
0
41
1
10
75.8331568795721
20
9.43235451437863
30
0
41
1
10
75.8395086739128
20
9.43278327507102
30
0
41
1
10
75.8518988716392
20
9.4318937650288
30
0
41
1
10
75.8580605639941
20
9.43059204164962
30
0
41
1
10
75.8640565953107
20
9.42855202111755
30
0
0
SPLINE
5
1DD
100
AcDbEntity
8
1
62
256
6
ByLayer
370
18
48
1
60
0
100
AcDbSpline
70
4
71
3
72
34
73
30
40
0
40
0
40
0
40
0
40
0.0312499999999757
40
0.0312499999999757
40
0.0624999999999514
40
0.0624999999999514
40
0.124999999999903
40
0.124999999999903
40
0.249999999999938
40
0.249999999999938
40
0.312499999999957
40
0.312499999999957
40
0.374999999999976
40
0.374999999999976
40
0.437499999999995
40
0.437499999999995
40
0.500000000000014
40
0.500000000000014
40
0.625000000000051
40
0.625000000000051
40
0.687500000000069
40
0.687500000000069
40
0.750000000000087
40
0.750000000000087
40
0.874999999999982
40
0.874999999999982
40
0.937499999999991
40
0.937499999999991
40
1
40
1
40
1
40
1
41
1
10
76.4783793343613
20
10.1096987451738
30
0
41
1
10
76.4816206266965
20
10.1057709633484
30
0
41
1
10
76.4851685120551
20
10.1020543121664
30
0
41
1
10
76.4926604532599
20
10.0950861297034
30
0
41
1
10
76.4966023781701
20
10.0918319082979
30
0
41
1
10
76.5089180313778
20
10.082637937703
30
0
41
1
10
76.5177757678459
20
10.0772599867761
30
0
41
1
10
76.5458897704983
20
10.0628651787431
30
0
41
1
10
76.566161180149
20
10.0558242831261
30
0
41
1
10
76.597432463975
20
10.0481148784126
30
0
41
1
10
76.6080521220307
20
10.0460220109421
30
0
41
1
10
76.629439815166
20
10.0427329179879
30
0
41
1
10
76.6402010856328
20
10.0415351393104
30
0
41
1
10
76.6618513087594
20
10.0399689441572
30
0
41
1
10
76.6727434981962
20
10.0396034948957
30
0
41
1
10
76.6944396620212
20
10.0396796038573
30
0
41
1
10
76.7052707123332
20
10.040118673904
30
0
41
1
10
76.7377125563568
20
10.0426329468934
30
0
41
1
10
76.7590798636662
20
10.0458850883488
30
0
41
1
10
76.7902227235356
20
10.0531677591316
30
0
41
1
10
76.8004760384861
20
10.0560054555185
30
0
41
1
10
76.8205123482196
20
10.0625073430169
30
0
41
1
10
76.8302968359365
20
10.0661681333929
30
0
41
1
10
76.8588908415342
20
10.0785309767088
30
0
41
1
10
76.8769397668501
20
10.0885838907329
30
0
41
1
10
76.900731701277
20
10.1069493365461
30
0
41
1
10
76.9081603895576
20
10.113676238289
30
0
41
1
10
76.9212328421105
20
10.1282634491012
30
0
41
1
10
76.9269247070245
20
10.1361271790607
30
0
41
1
10
76.9314034912023
20
10.144831652566
30
0
0
SPLINE
5
1DE
100
AcDbEntity
8
1
62
256
6
ByLayer
370
18
48
1
60
0
100
AcDbSpline
70
4
71
3
72
8
73
4
40
0
40
0
40
0
40
0
40
1
40
1
40
1
40
1
41
1
10
76.9314034912023
20
10.144831652566
30
0
41
1
10
76.9345205405748
20
10.1508896077162
30
0
41
1
10
76.9376361240555
20
10.1569460457335
30
0
41
1
10
76.9407503294212
20
10.1630010546752
30
0
0
SPLINE
5
1DF
100
AcDbEntity
8
1
62
256
6
ByLayer
370
18
48
1
60
0
100
AcDbSpline
70
4
71
3
72
28
73
24
40
0
40
0
40
0
40
0
40
0.250000000000427
40
0.250000000000427
40
0.375000000000522
40
0.375000000000522
40
0.500000000000616
40
0.500000000000616
40
0.562500000000539
40
0.562500000000539
40
0.625000000000462
40
0.625000000000462
40
0.687500000000385
40
0.687500000000385
40
0.750000000000308
40
0.750000000000308
40
0.812500000000231
40
0.812500000000231
40
0.875000000000154
40
0.875000000000154
40
0.937500000000077
40
0.937500000000077
40
1
40
1
40
1
40
1
41
1
10
76.1822277032188
20
10.117765613428
30
0
41
1
10
76.2049181294799
20
10.1332435168564
30
0
41
1
10
76.2289477040618
20
10.146755319394
30
0
41
1
10
76.2666841204337
20
10.1633139027531
30
0
41
1
10
76.2795270351557
20
10.1681976260299
30
0
41
1
10
76.3057167410412
20
10.1764006931127
30
0
41
1
10
76.3190533876427
20
10.1797193551655
30
0
41
1
10
76.3392924522196
20
10.1831075047763
30
0
41
1
10
76.3460628933036
20
10.183968015315
30
0
41
1
10
76.3596592203797
20
10.1850512481268
30
0
41
1
10
76.366510149553
20
10.1852721245292
30
0
41
1
10
76.3800462807155
20
10.1849302920699
30
0
41
1
10
76.3867512105631
20
10.1843727111413
30
0
41
1
10
76.4000008016698
20
10.1823034404559
30
0
41
1
10
76.4066036606382
20
10.1807738100793
30
0
41
1
10
76.4192895045411
20
10.1765534792605
30
0
41
1
10
76.4253403582593
20
10.1738852739041
30
0
41
1
10
76.436716920791
20
10.1671815240433
30
0
41
1
10
76.4418777015121
20
10.1632300118958
30
0
41
1
10
76.4509092905241
20
10.1541733124273
30
0
41
1
10
76.4548214970708
20
10.1489805679515
30
0
41
1
10
76.4609507888541
20
10.1380273999643
30
0
41
1
10
76.463246221579
20
10.1322127479769
30
0
41
1
10
76.4648493658705
20
10.126094006281
30
0
0
SPLINE
5
1E0
100
AcDbEntity
8
1
62
256
6
ByLayer
370
18
48
1
60
0
100
AcDbSpline
70
4
71
3
72
8
73
4
40
0
40
0
40
0
40
0
40
1
40
1
40
1
40
1
41
1
10
76.4648493658705
20
10.126094006281
30
0
41
1
10
76.4693583815085
20
10.1206301930041
30
0
41
1
10
76.4738683515649
20
10.1151651315441
30
0
41
1
10
76.4783793343613
20
10.1096987451739
30
0
0
SPLINE
5
1E1
100
AcDbEntity
8
1
62
256
6
ByLayer
370
18
48
1
60
0
100
AcDbSpline
70
4
71
3
72
26
73
22
40
0
40
0
40
0
40
0
40
0.249999999999817
40
0.249999999999817
40
0.374999999999727
40
0.374999999999727
40
0.499999999999638
40
0.499999999999638
40
0.624999999999548
40
0.624999999999548
40
0.687499999999624
40
0.687499999999624
40
0.749999999999699
40
0.749999999999699
40
0.812499999999774
40
0.812499999999774
40
0.874999999999849
40
0.874999999999849
40
0.937499999999925
40
0.937499999999925
40
1
40
1
40
1
40
1
41
1
10
77.2108272901195
20
10.1975355185972
30
0
41
1
10
77.1862309915637
20
10.2093443847543
30
0
41
1
10
77.1606846430563
20
10.2190142327522
30
0
41
1
10
77.1214598906333
20
10.2295966594408
30
0
41
1
10
77.1082285614353
20
10.2324620482444
30
0
41
1
10
77.0816230616047
20
10.236567819198
30
0
41
1
10
77.0682201049086
20
10.2378155275848
30
0
41
1
10
77.0415538200246
20
10.2381744752117
30
0
41
1
10
77.0282536473754
20
10.2372944079158
30
0
41
1
10
77.0088800610033
20
10.2336912798411
30
0
41
1
10
77.0025407198048
20
10.2321093694197
30
0
41
1
10
76.9902522872897
20
10.2280232058193
30
0
41
1
10
76.9843072010909
20
10.2255127295169
30
0
41
1
10
76.9732394627635
20
10.2195038219126
30
0
41
1
10
76.9680735429665
20
10.2159958452321
30
0
41
1
10
76.9586802027725
20
10.207716228748
30
0
41
1
10
76.9545894164861
20
10.2030421885896
30
0
41
1
10
76.9479230400773
20
10.192774031357
30
0
41
1
10
76.9453214967575
20
10.187095419095
30
0
41
1
10
76.9418538662433
20
10.1753887506941
30
0
41
1
10
76.9409296262374
20
10.1692534743654
30
0
41
1
10
76.9407503294212
20
10.1630010546752
30
0
0
SPLINE
5
1E2
100
AcDbEntity
8
1
62
256
6
ByLayer
370
18
48
1
60
0
100
AcDbSpline
70
4
71
3
72
32
73
28
40
0
40
0
40
0
40
0
40
0.0625000000000634
40
0.0625000000000634
40
0.125000000000127
40
0.125000000000127
40
0.250000000000258
40
0.250000000000258
40
0.312500000000262
40
0.312500000000262
40
0.375000000000266
40
0.375000000000266
40
0.43750000000027
40
0.43750000000027
40
0.500000000000273
40
0.500000000000273
40
0.625000000000201
40
0.625000000000201
40
0.750000000000128
40
0.750000000000128
40
0.812500000000096
40
0.812500000000096
40
0.875000000000064
40
0.875000000000064
40
0.937500000000032
40
0.937500000000032
40
1
40
1
40
1
40
1
41
1
10
75.9179567033602
20
8.95638877121119
30
0
41
1
10
75.9279903281881
20
8.95584541072553
30
0
41
1
10
75.9379107400119
20
8.95389400972861
30
0
41
1
10
75.9576148161111
20
8.94802107721169
30
0
41
1
10
75.9673276883531
20
8.94409845878468
30
0
41
1
10
75.9957605726243
20
8.93023846273185
30
0
41
1
10
76.0136847383981
20
8.91831857308439
30
0
41
1
10
76.0389343474916
20
8.89812958290946
30
0
41
1
10
76.0471078999861
20
8.89097330709814
30
0
41
1
10
76.0628608624178
20
8.87603842094126
30
0
41
1
10
76.0704386505898
20
8.86826475906655
30
0
41
1
10
76.0850424818121
20
8.85214975299597
30
0
41
1
10
76.092067106775
20
8.84380553761692
30
0
41
1
10
76.1054484700054
20
8.82673362776661
30
0
41
1
10
76.111824771438
20
8.81798469149149
30
0
41
1
10
76.1300069650647
20
8.79111456149631
30
0
41
1
10
76.1407787907892
20
8.77248607256537
30
0
41
1
10
76.1589545058168
20
8.73480364037246
30
0
41
1
10
76.1664517082299
20
8.71565832297492
30
0
41
1
10
76.1747827634871
20
8.68628773253337
30
0
41
1
10
76.1770506889522
20
8.67641262574058
30
0
41
1
10
76.1803180876112
20
8.65687460980038
30
0
41
1
10
76.1813380295576
20
8.6471566831525
30
0
41
1
10
76.1818579806702
20
8.62781111496645
30
0
41
1
10
76.1813441282374
20
8.61809695774362
30
0
41
1
10
76.1783064324313
20
8.59941399016012
30
0
41
1
10
76.1758142656778
20
8.5903979653944
30
0
41
1
10
76.1719031978639
20
8.58183398780335
30
0
0
SPLINE
5
1E3
100
AcDbEntity
8
1
62
256
6
ByLayer
370
18
48
1
60
0
100
AcDbSpline
70
4
71
3
72
8
73
4
40
0
40
0
40
0
40
0
40
1
40
1
40
1
40
1
41
1
10
75.8970116350256
20
8.9575242834524
30
0
41
1
10
75.9039915787783
20
8.95714546475281
30
0
41
1
10
75.9109732329976
20
8.95676695376365
30
0
41
1
10
75.9179567033602
20
8.95638877121119
30
0
0
SPLINE
5
1E4
100
AcDbEntity
8
1
62
256
6
ByLayer
370
18
48
1
60
0
100
AcDbSpline
70
4
71
3
72
28
73
24
40
0
40
0
40
0
40
0
40
0.249999999999866
40
0.249999999999866
40
0.374999999999798
40
0.374999999999798
40
0.499999999999731
40
0.499999999999731
40
0.562499999999765
40
0.562499999999765
40
0.624999999999798
40
0.624999999999798
40
0.687499999999832
40
0.687499999999832
40
0.749999999999866
40
0.749999999999866
40
0.812499999999899
40
0.812499999999899
40
0.874999999999933
40
0.874999999999933
40
0.937499999999966
40
0.937499999999966
40
1
40
1
40
1
40
1
41
1
10
75.7302182504138
20
9.1875622608007
30
0
41
1
10
75.7321274571568
20
9.16027389032142
30
0
41
1
10
75.7363936934633
20
9.13311414626023
30
0
41
1
10
75.7467207858062
20
9.09326628734961
30
0
41
1
10
75.75082038948
20
9.08015689743027
30
0
41
1
10
75.7605445385157
20
9.05447501788315
30
0
41
1
10
75.7661634216977
20
9.04191107092622
30
0
41
1
10
75.7759677578767
20
9.02382529055745
30
0
41
1
10
75.7794590428874
20
9.01793753077962
30
0
41
1
10
75.7869693155192
20
9.00649609577053
30
0
41
1
10
75.7910051113577
20
9.00092362769757
30
0
41
1
10
75.7995806595816
20
8.99037326784628
30
0
41
1
10
75.8041285638963
20
8.98537668156067
30
0
41
1
10
75.8138625492273
20
8.97607254386354
30
0
41
1
10
75.8190982226393
20
8.97172934270807
30
0
41
1
10
75.8301455683899
20
8.96413709905609
30
0
41
1
10
75.8359201500053
20
8.96090034533289
30
0
41
1
10
75.8480770734155
20
8.95580252273973
30
0
41
1
10
75.8542932904674
20
8.95402302360469
30
0
41
1
10
75.866820738237
20
8.952160553187
30
0
41
1
10
75.8732248294842
20
8.95209593045414
30
0
41
1
10
75.8854271434584
20
8.95364061083582
30
0
41
1
10
75.8913153082387
20
8.95521954626645
30
0
41
1
10
75.8970116350256
20
8.9575242834524
30
0
0
SPLINE
5
1E5
100
AcDbEntity
8
1
62
256
6
ByLayer
370
18
48
1
60
0
100
AcDbSpline
70
4
71
3
72
8
73
4
40
0
40
0
40
0
40
0
40
1
40
1
40
1
40
1
41
1
10
76.1637819155937
20
8.56405523851384
30
0
41
1
10
76.1664885988117
20
8.56997920488389
30
0
41
1
10
76.169195684975
20
8.5759054074742
30
0
41
1
10
76.1719031978639
20
8.58183398780334
30
0
0
SPLINE
5
1E6
100
AcDbEntity
8
1
62
256
6
ByLayer
370
18
48
1
60
0
100
AcDbSpline
70
4
71
3
72
28
73
24
40
0
40
0
40
0
40
0
40
0.250000000000289
40
0.250000000000289
40
0.375000000000338
40
0.375000000000338
40
0.500000000000386
40
0.500000000000386
40
0.562500000000338
40
0.562500000000338
40
0.62500000000029
40
0.62500000000029
40
0.687500000000241
40
0.687500000000241
40
0.750000000000193
40
0.750000000000193
40
0.812500000000145
40
0.812500000000145
40
0.875000000000097
40
0.875000000000097
40
0.937500000000048
40
0.937500000000048
40
1
40
1
40
1
40
1
41
1
10
76.3068083845098
20
8.33712881333931
30
0
41
1
10
76.2822087515056
20
8.34893928039007
30
0
41
1
10
76.2586895204863
20
8.3627613176148
30
0
41
1
10
76.2258608810438
20
8.38656539374394
30
0
41
1
10
76.2153506731987
20
8.39500453828968
30
0
41
1
10
76.1954690842429
20
8.41298922245201
30
0
41
1
10
76.1861031326546
20
8.42252694519021
30
0
41
1
10
76.1733501802214
20
8.43771171800203
30
0
41
1
10
76.1693258620656
20
8.44290899061147
30
0
41
1
10
76.1618167096397
20
8.45362024375213
30
0
41
1
10
76.1583214510557
20
8.4591555976773
30
0
41
1
10
76.1521075744056
20
8.47041869046382
30
0
41
1
10
76.1493748925281
20
8.4761605016099
30
0
41
1
10
76.1448366553985
20
8.48790697618014
30
0
41
1
10
76.1430190466042
20
8.49396691366314
30
0
41
1
10
76.1406702683659
20
8.506133093253
30
0
41
1
10
76.1401345240384
20
8.5122036653559
30
0
41
1
10
76.1406343051729
20
8.52429937956973
30
0
41
1
10
76.1416743613926
20
8.53015438550304
30
0
41
1
10
76.1454089068453
20
8.54126088175406
30
0
41
1
10
76.14816169931
20
8.54658169041819
30
0
41
1
10
76.1549943440647
20
8.5560462883218
30
0
41
1
10
76.1590848244987
20
8.56027669280418
30
0
41
1
10
76.1637819155936
20
8.56405523851384
30
0
0
SPLINE
5
1E7
100
AcDbEntity
8
1
62
256
6
ByLayer
370
18
48
1
60
0
100
AcDbSpline
70
4
71
3
72
34
73
30
40
0
40
0
40
0
40
0
40
0.0312499999999835
40
0.0312499999999835
40
0.0624999999999671
40
0.0624999999999671
40
0.124999999999936
40
0.124999999999936
40
0.249999999999887
40
0.249999999999887
40
0.312499999999862
40
0.312499999999862
40
0.374999999999838
40
0.374999999999838
40
0.437499999999813
40
0.437499999999813
40
0.499999999999789
40
0.499999999999789
40
0.624999999999732
40
0.624999999999732
40
0.687499999999755
40
0.687499999999755
40
0.749999999999778
40
0.749999999999778
40
0.874999999999825
40
0.874999999999825
40
0.937499999999912
40
0.937499999999912
40
1
40
1
40
1
40
1
41
1
10
77.3591432400301
20
9.9394706128715
30
0
41
1
10
77.3576516766485
20
9.93475858095024
30
0
41
1
10
77.3564874392347
20
9.92988611837694
30
0
41
1
10
77.35473558564
20
9.92002778803884
30
0
41
1
10
77.3541447123536
20
9.91504243691911
30
0
41
1
10
77.3530783208334
20
9.89994256072281
30
0
41
1
10
77.3533004817745
20
9.88968589092283
30
0
41
1
10
77.3561350799359
20
9.85843559323405
30
0
41
1
10
77.3608358461762
20
9.8375299477032
30
0
41
1
10
77.3705498790048
20
9.80680401795229
30
0
41
1
10
77.3742595608786
20
9.79662359649305
30
0
41
1
10
77.3824483073309
20
9.77656651407887
30
0
41
1
10
77.3869227821298
20
9.76669495036556
30
0
41
1
10
77.3965735856397
20
9.74723968185528
30
0
41
1
10
77.4017538264886
20
9.73765460733513
30
0
41
1
10
77.4126876055361
20
9.71894724420643
30
0
41
1
10
77.4184528150934
20
9.70980037302203
30
0
41
1
10
77.4366370983384
20
9.68297706422452
30
0
41
1
10
77.4498320056071
20
9.66607402180767
30
0
41
1
10
77.4710172521493
20
9.64265802386066
30
0
41
1
10
77.4783305001986
20
9.63515987674216
30
0
41
1
10
77.4933625581382
20
9.62096824422332
30
0
41
1
10
77.5010794633471
20
9.6142718261126
30
0
41
1
10
77.524931717575
20
9.59550704702335
30
0
41
1
10
77.5417431035975
20
9.5847493353269
30
0
41
1
10
77.5679621507194
20
9.57305800266123
30
0
41
1
10
77.5769366861388
20
9.56989081053052
30
0
41
1
10
77.5949241021046
20
9.56565938736703
30
0
41
1
10
77.6039630432747
20
9.56455505697538
30
0
41
1
10
77.6130897345337
20
9.56491582946366
30
0
0
SPLINE
5
1E8
100
AcDbEntity
8
1
62
256
6
ByLayer
370
18
48
1
60
0
100
AcDbSpline
70
4
71
3
72
8
73
4
40
0
40
0
40
0
40
0
40
1
40
1
40
1
40
1
41
1
10
77.6130897345337
20
9.56491582946366
30
0
41
1
10
77.6194415358556
20
9.56516691226058
30
0
41
1
10
77.6257908201943
20
9.56541836479364
30
0
41
1
10
77.6321377372813
20
9.56567016390227
30
0
0
SPLINE
5
1E9
100
AcDbEntity
8
1
62
256
6
ByLayer
370
18
48
1
60
0
100
AcDbSpline
70
4
71
3
72
28
73
24
40
0
40
0
40
0
40
0
40
0.249999999999691
40
0.249999999999691
40
0.374999999999634
40
0.374999999999634
40
0.499999999999576
40
0.499999999999576
40
0.562499999999629
40
0.562499999999629
40
0.624999999999682
40
0.624999999999682
40
0.687499999999735
40
0.687499999999735
40
0.749999999999788
40
0.749999999999788
40
0.812499999999841
40
0.812499999999841
40
0.874999999999894
40
0.874999999999894
40
0.937499999999947
40
0.937499999999947
40
1
40
1
40
1
40
1
41
1
10
77.2108272901195
20
10.1975355185972
30
0
41
1
10
77.2354269231238
20
10.1857250515464
30
0
41
1
10
77.25906805589
20
10.1717815764476
30
0
41
1
10
77.2923106311302
20
10.1475651396715
30
0
41
1
10
77.3029980131919
20
10.1389494951106
30
0
41
1
10
77.3233374766461
20
10.1205086788005
30
0
41
1
10
77.3329836015063
20
10.1106918489343
30
0
41
1
10
77.3462666392283
20
10.0949790079683
30
0
41
1
10
77.3504857269709
20
10.0895877069291
30
0
41
1
10
77.3584303996553
20
10.0784425908161
30
0
41
1
10
77.3621674659883
20
10.0726663492933
30
0
41
1
10
77.3689165434696
20
10.0608700922763
30
0
41
1
10
77.3719429696889
20
10.0548356545744
30
0
41
1
10
77.3771377278394
20
10.0424351572439
30
0
41
1
10
77.3793216776932
20
10.0360102727397
30
0
41
1
10
77.3824805773361
20
10.0230370545019
30
0
41
1
10
77.3834570988525
20
10.0165273825002
30
0
41
1
10
77.3839319020554
20
10.0034607925367
30
0
41
1
10
77.3834127459427
20
9.99708686867848
30
0
41
1
10
77.3807797888993
20
9.98488297589472
30
0
41
1
10
77.3786168885335
20
9.97897451984937
30
0
41
1
10
77.3729610741079
20
9.9683375698112
30
0
41
1
10
77.3694648932513
20
9.96351512724064
30
0
41
1
10
77.3653674567132
20
9.95913920884081
30
0
0
SPLINE
5
1EA
100
AcDbEntity
8
1
62
256
6
ByLayer
370
18
48
1
60
0
100
AcDbSpline
70
4
71
3
72
8
73
4
40
0
40
0
40
0
40
0
40
1
40
1
40
1
40
1
41
1
10
77.3653674567132
20
9.95913920884082
30
0
41
1
10
77.363293800161
20
9.95258462466256
30
0
41
1
10
77.3612190838782
20
9.94602845855005
30
0
41
1
10
77.3591432400301
20
9.93947061287153
30
0
0
SPLINE
5
1EB
100
AcDbEntity
8
1
62
256
6
ByLayer
370
18
48
1
60
0
100
AcDbSpline
70
4
71
3
72
26
73
22
40
0
40
0
40
0
40
0
40
0.250000000000114
40
0.250000000000114
40
0.375000000000163
40
0.375000000000163
40
0.500000000000213
40
0.500000000000213
40
0.625000000000263
40
0.625000000000263
40
0.687500000000219
40
0.687500000000219
40
0.750000000000175
40
0.750000000000175
40
0.812500000000131
40
0.812500000000131
40
0.875000000000087
40
0.875000000000087
40
0.937500000000044
40
0.937500000000044
40
1
40
1
40
1
40
1
41
1
10
77.7874174242154
20
9.34710207113743
30
0
41
1
10
77.7855084762628
20
9.3743867427132
30
0
41
1
10
77.7813618644839
20
9.40143344385338
30
0
41
1
10
77.7714563342651
20
9.44084360287445
30
0
41
1
10
77.767530936561
20
9.45378775753096
30
0
41
1
10
77.7582727741535
20
9.47899580290461
30
0
41
1
10
77.7529322219749
20
9.49128835538619
30
0
41
1
10
77.7405697728558
20
9.5146975417079
30
0
41
1
10
77.7335372099818
20
9.52585048546966
30
0
41
1
10
77.721410651729
20
9.54095530286789
30
0
41
1
10
77.717115955147
20
9.54569980180736
30
0
41
1
10
77.7079674904902
20
9.55439644942435
30
0
41
1
10
77.70311061355
20
9.55834205997499
30
0
41
1
10
77.6929943140994
20
9.56503341716449
30
0
41
1
10
77.6877065600157
20
9.56781215212284
30
0
41
1
10
77.6765661054393
20
9.57193478737693
30
0
41
1
10
77.6708571922232
20
9.57320756687231
30
0
41
1
10
77.6594295965995
20
9.57398552736375
30
0
41
1
10
77.6536308063577
20
9.57347198651119
30
0
41
1
10
77.6425882673839
20
9.57076522201136
30
0
41
1
10
77.6372306919191
20
9.56857015693411
30
0
41
1
10
77.6321377372813
20
9.56567016390227
30
0
0
SPLINE
5
1EC
100
AcDbEntity
8
1
62
256
6
ByLayer
370
18
48
1
60
0
100
AcDbSpline
70
4
71
3
72
34
73
30
40
0
40
0
40
0
40
0
40
0.0312499999999747
40
0.0312499999999747
40
0.0624999999999495
40
0.0624999999999495
40
0.124999999999899
40
0.124999999999899
40
0.249999999999916
40
0.249999999999916
40
0.312499999999924
40
0.312499999999924
40
0.374999999999933
40
0.374999999999933
40
0.437499999999941
40
0.437499999999941
40
0.49999999999995
40
0.49999999999995
40
0.624999999999976
40
0.624999999999976
40
0.687499999999989
40
0.687499999999989
40
0.750000000000002
40
0.750000000000002
40
0.875000000000001
40
0.875000000000001
40
0.9375
40
0.9375
40
1
40
1
40
1
40
1
41
1
10
77.6462871246158
20
9.0904241680351
30
0
41
1
10
77.6417812065879
20
9.08941384381684
30
0
41
1
10
77.6372910625674
20
9.08803689836967
30
0
41
1
10
77.6284754120873
20
9.08472023539362
30
0
41
1
10
77.6241488700179
20
9.08278363441897
30
0
41
1
10
77.6113651610458
20
9.07628166990993
30
0
41
1
10
77.6031014653214
20
9.07103248634942
30
0
41
1
10
77.5788660131793
20
9.0531370168984
30
0
41
1
10
77.5638770538195
20
9.03869279641738
30
0
41
1
10
77.543021920457
20
9.01497682551467
30
0
41
1
10
77.5363182175045
20
9.00668378322858
30
0
41
1
10
77.523473145868
20
8.98956326532358
30
0
41
1
10
77.5173340199055
20
8.98074237251012
30
0
41
1
10
77.5055719605707
20
8.96261684209871
30
0
41
1
10
77.4999495166587
20
8.95330805275613
30
0
41
1
10
77.4893062094179
20
8.93440595625523
30
0
41
1
10
77.4842702825786
20
8.92479021494023
30
0
41
1
10
77.4700128450431
20
8.8954525103792
30
0
41
1
10
77.4617206180107
20
8.87541669752086
30
0
41
1
10
77.4514069866485
20
8.84507269206989
30
0
41
1
10
77.4483185131234
20
8.83488469045645
30
0
41
1
10
77.4429603770367
20
8.81454370809543
30
0
41
1
10
77.4406875387442
20
8.80439097433297
30
0
41
1
10
77.4352429179858
20
8.77396354668616
30
0
41
1
10
77.4334211759895
20
8.75373490060095
30
0
41
1
10
77.434807818145
20
8.72471463335697
30
0
41
1
10
77.4359765323905
20
8.71519623727198
30
0
41
1
10
77.4400915586976
20
8.6971744964
30
0
41
1
10
77.4430153672752
20
8.68862809306616
30
0
41
1
10
77.4472094622784
20
8.68073647723509
30
0
0
SPLINE
5
1ED
100
AcDbEntity
8
1
62
256
6
ByLayer
370
18
48
1
60
0
100
AcDbSpline
70
4
71
3
72
8
73
4
40
0
40
0
40
0
40
0
40
1
40
1
40
1
40
1
41
1
10
77.4472094622784
20
8.68073647723509
30
0
41
1
10
77.4501283797074
20
8.67524423755648
30
0
41
1
10
77.4530458956251
20
8.66975423383339
30
0
41
1
10
77.4559620940135
20
8.66426633290439
30
0
0
SPLINE
5
1EE
100
AcDbEntity
8
1
62
256
6
ByLayer
370
18
48
1
60
0
100
AcDbSpline
70
4
71
3
72
28
73
24
40
0
40
0
40
0
40
0
40
0.250000000000102
40
0.250000000000102
40
0.37500000000014
40
0.37500000000014
40
0.500000000000178
40
0.500000000000178
40
0.562500000000155
40
0.562500000000155
40
0.625000000000133
40
0.625000000000133
40
0.687500000000111
40
0.687500000000111
40
0.750000000000089
40
0.750000000000089
40
0.812500000000067
40
0.812500000000067
40
0.875000000000044
40
0.875000000000044
40
0.937500000000022
40
0.937500000000022
40
1
40
1
40
1
40
1
41
1
10
77.7874174242154
20
9.34710207113743
30
0
41
1
10
77.7893266309585
20
9.31981370065816
30
0
41
1
10
77.7889991400164
20
9.29229770408466
30
0
41
1
10
77.7847122667836
20
9.25131650362603
30
0
41
1
10
77.7826453212314
20
9.23772888578084
30
0
41
1
10
77.7770240160494
20
9.21085693631412
30
0
41
1
10
77.7734735809441
20
9.19758189083095
30
0
41
1
10
77.7667825967335
20
9.17821686617714
30
0
41
1
10
77.7643286281855
20
9.17186804038433
30
0
41
1
10
77.758894733923
20
9.1594227599734
30
0
41
1
10
77.7559017749572
20
9.15330519824948
30
0
41
1
10
77.7493823216917
20
9.14158419157638
30
0
41
1
10
77.7458506902342
20
9.13596102152525
30
0
41
1
10
77.7381241177885
20
9.12530278350009
30
0
41
1
10
77.7338883792037
20
9.12022505586181
30
0
41
1
10
77.724766495646
20
9.11106864911883
30
0
41
1
10
77.7199125520388
20
9.10700763252417
30
0
41
1
10
77.7094980848786
20
9.10015935454658
30
0
41
1
10
77.7040785980983
20
9.09747748387349
30
0
41
1
10
77.6929648462474
20
9.0937815922919
30
0
41
1
10
77.6871846853843
20
9.09277205703158
30
0
41
1
10
77.67598799434
20
9.09250209891339
30
0
41
1
10
77.6704935305475
20
9.09319828928616
30
0
41
1
10
77.6650927769961
20
9.09464242623712
30
0
0
SPLINE
5
1EF
100
AcDbEntity
8
1
62
256
6
ByLayer
370
18
48
1
60
0
100
AcDbSpline
70
4
71
3
72
8
73
4
40
0
40
0
40
0
40
0
40
1
40
1
40
1
40
1
41
1
10
77.6650927769961
20
9.09464242623712
30
0
41
1
10
77.6588266181388
20
9.09323634643174
30
0
41
1
10
77.6525581167399
20
9.09183026001809
30
0
41
1
10
77.6462871246158
20
9.0904241680351
30
0
0
SPLINE
5
1F0
100
AcDbEntity
8
1
62
256
6
ByLayer
370
18
48
1
60
0
100
AcDbSpline
70
4
71
3
72
34
73
30
40
0
40
0
40
0
40
0
40
0.0312500000000543
40
0.0312500000000543
40
0.0625000000001087
40
0.0625000000001087
40
0.125000000000107
40
0.125000000000107
40
0.2500000000001
40
0.2500000000001
40
0.312500000000096
40
0.312500000000096
40
0.375000000000092
40
0.375000000000092
40
0.437500000000089
40
0.437500000000089
40
0.500000000000085
40
0.500000000000085
40
0.625000000000079
40
0.625000000000079
40
0.687499999999997
40
0.687499999999997
40
0.749999999999916
40
0.749999999999916
40
0.874999999999897
40
0.874999999999897
40
0.937499999999948
40
0.937499999999948
40
1
40
1
40
1
40
1
41
1
10
77.0526671035326
20
8.41160585550102
30
0
41
1
10
77.0498796865751
20
8.41508148908162
30
0
41
1
10
77.0467757587206
20
8.41835587215184
30
0
41
1
10
77.0401401061547
20
8.42447102441292
30
0
41
1
10
77.0366106934989
20
8.42731430329765
30
0
41
1
10
77.0254917118026
20
8.43531615607733
30
0
41
1
10
77.0173777349394
20
8.43995317762929
30
0
41
1
10
76.9913516369853
20
8.45226802607181
30
0
41
1
10
76.9722435954357
20
8.45814998055452
30
0
41
1
10
76.9423765468795
20
8.4644604935374
30
0
41
1
10
76.9321694352823
20
8.46614238441323
30
0
41
1
10
76.9114894922399
20
8.46872642047731
30
0
41
1
10
76.901023561184
20
8.46962998359949
30
0
41
1
10
76.8798480586213
20
8.47072326464405
30
0
41
1
10
76.8691348785368
20
8.47091038573772
30
0
41
1
10
76.8476768697849
20
8.47059702795497
30
0
41
1
10
76.8369056473037
20
8.47009835774044
30
0
41
1
10
76.8044640497662
20
8.46758383920277
30
0
41
1
10
76.7828570884733
20
8.4645704397752
30
0
41
1
10
76.7510021925341
20
8.45799709555006
30
0
41
1
10
76.7404520643356
20
8.45545508294708
30
0
41
1
10
76.7197079860165
20
8.44965827076113
30
0
41
1
10
76.7095129867306
20
8.44640642983366
30
0
41
1
10
76.6795132423557
20
8.43544397603446
30
0
41
1
10
76.6602959116339
20
8.42655502128102
30
0
41
1
10
76.6344230361283
20
8.41026259793759
30
0
41
1
10
76.6262400820613
20
8.40428709177192
30
0
41
1
10
76.6115677552966
20
8.39129366716712
30
0
41
1
10
76.6050293550255
20
8.38427325124223
30
0
41
1
10
76.5996429466916
20
8.37647294810886
30
0
0
SPLINE
5
1F1
100
AcDbEntity
8
1
62
256
6
ByLayer
370
18
48
1
60
0
100
AcDbSpline
70
4
71
3
72
8
73
4
40
0
40
0
40
0
40
0
40
1
40
1
40
1
40
1
41
1
10
76.5996429466917
20
8.37647294810886
30
0
41
1
10
76.5958942282784
20
8.37104425830802
30
0
41
1
10
76.5921462749171
20
8.36561778381298
30
0
41
1
10
76.5883990428856
20
8.36019339267946
30
0
0
SPLINE
5
1F2
100
AcDbEntity
8
1
62
256
6
ByLayer
370
18
48
1
60
0
100
AcDbSpline
70
4
71
3
72
26
73
22
40
0
40
0
40
0
40
0
40
0.250000000000187
40
0.250000000000187
40
0.37500000000028
40
0.37500000000028
40
0.500000000000374
40
0.500000000000374
40
0.625000000000467
40
0.625000000000467
40
0.687500000000389
40
0.687500000000389
40
0.750000000000311
40
0.750000000000311
40
0.812500000000234
40
0.812500000000234
40
0.875000000000156
40
0.875000000000156
40
0.937500000000078
40
0.937500000000078
40
1
40
1
40
1
40
1
41
1
10
76.3068083845098
20
8.33712881333931
30
0
41
1
10
76.3314046830655
20
8.32531994718212
30
0
41
1
10
76.3570730347224
20
8.31552856029381
30
0
41
1
10
76.396711378822
20
8.30453411576963
30
0
41
1
10
76.4101200110158
20
8.30149209866187
30
0
41
1
10
76.4371829515368
20
8.29693062771771
30
0
41
1
10
76.4508661492759
20
8.29540374468971
30
0
41
1
10
76.4782389720993
20
8.29434094771332
30
0
41
1
10
76.4919654186148
20
8.29479636324388
30
0
41
1
10
76.5121462599915
20
8.29759530816297
30
0
41
1
10
76.5187822219671
20
8.29888172653902
30
0
41
1
10
76.531732765842
20
8.30230829831314
30
0
41
1
10
76.5380437872293
20
8.30445423192099
30
0
41
1
10
76.5499124258952
20
8.30966528685433
30
0
41
1
10
76.5555151848635
20
8.31273808666822
30
0
41
1
10
76.5658791347909
20
8.32005078688213
30
0
41
1
10
76.5704917861696
20
8.32420494780244
30
0
41
1
10
76.5782595097065
20
8.33337594886538
30
0
41
1
10
76.5814491120229
20
8.33846873987281
30
0
41
1
10
76.5860949066618
20
8.34900172741922
30
0
41
1
10
76.5876205289101
20
8.3545379099464
30
0
41
1
10
76.5883990428856
20
8.36019339267946
30
0
0
SPLINE
5
1F3
100
AcDbEntity
8
1
62
256
6
ByLayer
370
18
48
1
60
0
100
AcDbSpline
70
4
71
3
72
8
73
4
40
0
40
0
40
0
40
0
40
1
40
1
40
1
40
1
41
1
10
77.0643000064364
20
8.39710044107363
30
0
41
1
10
77.0604240174641
20
8.4019336365424
30
0
41
1
10
77.0565464172882
20
8.40676873448017
30
0
41
1
10
77.0526671035326
20
8.41160585550099
30
0
0
SPLINE
5
1F4
100
AcDbEntity
8
1
62
256
6
ByLayer
370
18
48
1
60
0
100
AcDbSpline
70
4
71
3
72
28
73
24
40
0
40
0
40
0
40
0
40
0.250000000000167
40
0.250000000000167
40
0.375000000000139
40
0.375000000000139
40
0.500000000000111
40
0.500000000000111
40
0.562500000000097
40
0.562500000000097
40
0.625000000000083
40
0.625000000000083
40
0.68750000000007
40
0.68750000000007
40
0.750000000000056
40
0.750000000000056
40
0.812500000000042
40
0.812500000000042
40
0.875000000000028
40
0.875000000000028
40
0.937500000000014
40
0.937500000000014
40
1
40
1
40
1
40
1
41
1
10
77.3354079714106
20
8.41689871850851
30
0
41
1
10
77.3127175451493
20
8.40142081508002
30
0
41
1
10
77.2888098723145
20
8.38778757466829
30
0
41
1
10
77.2514873917403
20
8.37081663066228
30
0
41
1
10
77.2388216512348
20
8.36575640737037
30
0
41
1
10
77.2130898198479
20
8.35709720813985
30
0
41
1
10
77.2000333465183
20
8.35349943895893
30
0
41
1
10
77.18032436723
20
8.34958322119402
30
0
41
1
10
77.1737486957329
20
8.34852868222553
30
0
41
1
10
77.1605878889152
20
8.34701158644141
30
0
41
1
10
77.153978767491
20
8.34654982244146
30
0
41
1
10
77.1409778371598
20
8.34635849067016
30
0
41
1
10
77.1345666516537
20
8.34662344504299
30
0
41
1
10
77.1219735815681
20
8.34803869296819
30
0
41
1
10
77.1157370636592
20
8.3492033763235
30
0
41
1
10
77.1038613411609
20
8.35261666849439
30
0
41
1
10
77.0982512646317
20
8.35484577395202
30
0
41
1
10
77.0878492864374
20
8.36057864806307
30
0
41
1
10
77.0832094058233
20
8.36401124228576
30
0
41
1
10
77.0752794052204
20
8.37197054522156
30
0
41
1
10
77.0719570907726
20
8.37657564231597
30
0
41
1
10
77.0670046293185
20
8.38635645816868
30
0
41
1
10
77.0653034961711
20
8.39157907206794
30
0
41
1
10
77.0643000064364
20
8.39710044107363
30
0
0
SPLINE
5
1F5
100
AcDbEntity
8
1
62
256
6
ByLayer
370
18
48
1
60
0
100
AcDbSpline
70
4
71
3
72
26
73
22
40
0
40
0
40
0
40
0
40
0.249999999999864
40
0.249999999999864
40
0.374999999999887
40
0.374999999999887
40
0.49999999999991
40
0.49999999999991
40
0.624999999999933
40
0.624999999999933
40
0.687499999999944
40
0.687499999999944
40
0.749999999999955
40
0.749999999999955
40
0.812499999999966
40
0.812499999999966
40
0.874999999999977
40
0.874999999999977
40
0.937499999999989
40
0.937499999999989
40
1
40
1
40
1
40
1
41
1
10
77.3354079714106
20
8.41689871850851
30
0
41
1
10
77.3580953220136
20
8.43237452392711
30
0
41
1
10
77.3795560603169
20
8.44969060762422
30
0
41
1
10
77.4090820783594
20
8.47831233103886
30
0
41
1
10
77.4184766613513
20
8.48830278273974
30
0
41
1
10
77.4360527191195
20
8.50917720716447
30
0
41
1
10
77.4442552441585
20
8.52008246393861
30
0
41
1
10
77.4589123488931
20
8.54278077795868
30
0
41
1
10
77.4653930956015
20
8.55460146313368
30
0
41
1
10
77.4730437512231
20
8.57290731702879
30
0
41
1
10
77.4752367062281
20
8.57908598036704
30
0
41
1
10
77.4787077297663
20
8.59153899567127
30
0
41
1
10
77.4799789066191
20
8.59781281117705
30
0
41
1
10
77.4813307956653
20
8.61011414963535
30
0
41
1
10
77.4814273809642
20
8.61618327284089
30
0
41
1
10
77.4801655714486
20
8.62810206644401
30
0
41
1
10
77.478808377065
20
8.63378894647872
30
0
41
1
10
77.4745978314142
20
8.64428648611792
30
0
41
1
10
77.4716946139905
20
8.6491586469001
30
0
41
1
10
77.4647087875932
20
8.65757171037392
30
0
41
1
10
77.4605761432554
20
8.6612123747246
30
0
41
1
10
77.4559620940135
20
8.66426633290439
30
0
0
LINE
5
77
100
AcDbEntity
8
81
62
256
6
ByLayer
370
18
48
1
60
0
100
AcDbLine
10
81.5
20
12.5
30
0
11
86.5
21
12.5
31
0
39
0
210
0
220
0
230
1
0
LINE
5
78
100
AcDbEntity
8
SK4
62
256
6
ByLayer
370
18
48
0.05
60
0
100
AcDbLine
10
-123.5
20
0
30
0
11
86.5
21
0
31
0
39
0
210
0
220
0
230
1
0
LINE
5
7A
100
AcDbEntity
8
80
62
256
6
ByLayer
370
18
48
1
60
0
100
AcDbLine
10
0
20
0
30
0
11
-5
21
0
31
0
39
0
210
0
220
0
230
1
0
LINE
5
7B
100
AcDbEntity
8
1
62
256
6
ByLayer
370
18
48
1
60
0
100
AcDbLine
10
0.099726
20
12.222598
30
0
11
0
21
12.280175
31
0
39
0
210
0
220
0
230
1
0
LINE
5
7C
100
AcDbEntity
8
1
62
256
6
ByLayer
370
18
48
1
60
0
100
AcDbLine
10
0
20
-12.280175
30
0
11
0.099726
21
-12.222598
31
0
39
0
210
0
220
0
230
1
0
LINE
5
7D
100
AcDbEntity
8
1
62
256
6
ByLayer
370
18
48
1
60
0
100
AcDbLine
10
71.94068
20
11.162871
30
0
11
71.610698
21
11.087368
31
0
39
0
210
0
220
0
230
1
0
LINE
5
7E
100
AcDbEntity
8
1
62
256
6
ByLayer
370
18
48
1
60
0
100
AcDbLine
10
71.247405
20
11.0387
30
0
11
69.624132
21
10.971444
31
0
39
0
210
0
220
0
230
1
0
LINE
5
7F
100
AcDbEntity
8
1
62
256
6
ByLayer
370
18
48
1
60
0
100
AcDbLine
10
73.61837
20
-11.502839
30
0
11
79.056104
21
-11.806729
31
0
39
0
210
0
220
0
230
1
0
LINE
5
80
100
AcDbEntity
8
1
62
256
6
ByLayer
370
18
48
1
60
0
100
AcDbLine
10
71.610698
20
-11.087368
30
0
11
73.116635
21
-11.431938
31
0
39
0
210
0
220
0
230
1
0
LINE
5
81
100
AcDbEntity
8
1
62
256
6
ByLayer
370
18
48
1
60
0
100
AcDbLine
10
69.624132
20
-10.971444
30
0
11
71.247405
21
-11.0387
31
0
39
0
210
0
220
0
230
1
0
LINE
5
82
100
AcDbEntity
8
1
62
256
6
ByLayer
370
18
48
1
60
0
100
AcDbLine
10
69.260454
20
10.966138
30
0
11
5.560796
21
11.740761
31
0
39
0
210
0
220
0
230
1
0
LINE
5
83
100
AcDbEntity
8
1
62
256
6
ByLayer
370
18
48
1
60
0
100
AcDbLine
10
5.560796
20
-11.740761
30
0
11
69.260454
21
-10.966138
31
0
39
0
210
0
220
0
230
1
0
LINE
5
84
100
AcDbEntity
8
1
62
256
6
ByLayer
370
18
48
1
60
0
100
AcDbLine
10
5.4392
20
11.7415
30
0
11
1.5
21
11.7415
31
0
39
0
210
0
220
0
230
1
0
LINE
5
85
100
AcDbEntity
8
1
62
256
6
ByLayer
370
18
48
1
60
0
100
AcDbLine
10
1.5
20
-11.7415
30
0
11
5.4392
21
-11.7415
31
0
39
0
210
0
220
0
230
1
0
LINE
5
86
100
AcDbEntity
8
SK1
62
256
6
ByLayer
370
18
48
1
60
0
100
AcDbLine
10
0
20
12.280175
30
0
11
-0.366025
21
12.4915
31
0
39
0
210
0
220
0
230
1
0
LINE
5
88
100
AcDbEntity
8
SK1
62
256
6
ByLayer
370
18
48
1
60
0
100
AcDbLine
10
-0.366025
20
-12.4915
30
0
11
0
21
-12.280175
31
0
39
0
210
0
220
0
230
1
0
LINE
5
89
100
AcDbEntity
8
SK1
62
256
6
ByLayer
370
18
48
1
60
0
100
AcDbLine
10
-117.5
20
-12.4915
30
0
11
-0.366025
21
-12.4915
31
0
39
0
210
0
220
0
230
1
0
LINE
5
8A
100
AcDbEntity
8
SK1
62
256
6
ByLayer
370
18
48
1
60
0
100
AcDbLine
10
-0.366025
20
12.4915
30
0
11
-117.5
21
12.4915
31
0
39
0
210
0
220
0
230
1
0
LINE
5
8B
100
AcDbEntity
8
SK1
62
256
6
ByLayer
370
18
48
1
60
0
100
AcDbLine
10
-118.5
20
-11.4915
30
0
11
-117.5
21
-12.4915
31
0
39
0
210
0
220
0
230
1
0
LINE
5
8C
100
AcDbEntity
8
SK1
62
256
6
ByLayer
370
18
48
1
60
0
100
AcDbLine
10
-117.5
20
12.4915
30
0
11
-118.5
21
11.4915
31
0
39
0
210
0
220
0
230
1
0
LINE
5
8D
100
AcDbEntity
8
1
62
256
6
ByLayer
370
18
48
1
60
0
100
AcDbLine
10
76.485808
20
10.101559
30
0
11
76.565781
21
10.021891
31
0
39
0
210
0
220
0
230
1
0
LINE
5
8E
100
AcDbEntity
8
1
62
256
6
ByLayer
370
18
48
1
60
0
100
AcDbLine
10
76.137912
20
8.801073
30
0
11
76.062333
21
8.876364
31
0
39
0
210
0
220
0
230
1
0
LINE
5
8F
100
AcDbEntity
8
1
62
256
6
ByLayer
370
18
48
1
60
0
100
AcDbLine
10
77.478513
20
9.635178
30
0
11
77.554035
21
9.559943
31
0
39
0
210
0
220
0
230
1
0
LINE
5
90
100
AcDbEntity
8
1
62
256
6
ByLayer
370
18
48
1
60
0
100
AcDbLine
10
77.115625
20
8.349627
30
0
11
77.046193
21
8.418794
31
0
39
0
210
0
220
0
230
1
0
LINE
5
91
100
AcDbEntity
8
1
62
256
6
ByLayer
370
18
48
1
60
0
100
AcDbLine
10
78.05469
20
10.411273
30
0
11
77.978223
21
10.487448
31
0
39
0
210
0
220
0
230
1
0
LINE
5
92
100
AcDbEntity
8
1
62
256
6
ByLayer
370
18
48
1
60
0
100
AcDbLine
10
75.543359
20
8.043284
30
0
11
75.619826
21
7.967108
31
0
39
0
210
0
220
0
230
1
0
LINE
5
93
100
AcDbEntity
8
1
62
256
6
ByLayer
370
18
48
1
60
0
100
AcDbLine
10
0
20
-12.280175
30
0
11
0
21
12.280175
31
0
39
0
210
0
220
0
230
1
0
LINE
5
94
100
AcDbEntity
8
1
62
256
6
ByLayer
370
13
48
1
60
0
100
AcDbLine
10
71.610698
20
11.087368
30
0
11
71.610698
21
11.084239
31
0
39
0
210
0
220
0
230
1
0
LINE
5
95
100
AcDbEntity
8
1
62
256
6
ByLayer
370
13
48
1
60
0
100
AcDbLine
10
71.247405
20
11.0387
30
0
11
71.247405
21
11.036202
31
0
39
0
210
0
220
0
230
1
0
LINE
5
96
100
AcDbEntity
8
1
62
256
6
ByLayer
370
13
48
1
60
0
100
AcDbLine
10
69.624639
20
10.971461
30
0
11
69.624639
21
10.962363
31
0
39
0
210
0
220
0
230
1
0
LINE
5
97
100
AcDbEntity
8
1
62
256
6
ByLayer
370
13
48
1
60
0
100
AcDbLine
10
79.056104
20
-11.806729
30
0
11
79.056104
21
-11.648387
31
0
39
0
210
0
220
0
230
1
0
LINE
5
98
100
AcDbEntity
8
1
62
256
6
ByLayer
370
13
48
1
60
0
100
AcDbLine
10
73.61837
20
-11.502839
30
0
11
73.61837
21
-11.375978
31
0
39
0
210
0
220
0
230
1
0
LINE
5
99
100
AcDbEntity
8
1
62
256
6
ByLayer
370
18
48
1
60
0
100
AcDbLine
10
80.524267
20
-10.203006
30
0
11
80.524267
21
-9.817399
31
0
39
0
210
0
220
0
230
1
0
LINE
5
9A
100
AcDbEntity
8
1
62
256
6
ByLayer
370
13
48
1
60
0
100
AcDbLine
10
80.240656
20
-11.045613
30
0
11
80.240656
21
-10.778093
31
0
39
0
210
0
220
0
230
1
0
LINE
5
9B
100
AcDbEntity
8
1
62
256
6
ByLayer
370
18
48
1
60
0
100
AcDbLine
10
80.524267
20
-8.706889
30
0
11
80.524267
21
-6.22338
31
0
39
0
210
0
220
0
230
1
0
LINE
5
9C
100
AcDbEntity
8
1
62
256
6
ByLayer
370
13
48
1
60
0
100
AcDbLine
10
80.495206
20
-7.814182
30
0
11
80.495206
21
-6.258696
31
0
39
0
210
0
220
0
230
1
0
LINE
5
9D
100
AcDbEntity
8
1
62
256
6
ByLayer
370
13
48
1
60
0
100
AcDbLine
10
73.116635
20
-11.431938
30
0
11
73.116635
21
-11.259033
31
0
39
0
210
0
220
0
230
1
0
LINE
5
9E
100
AcDbEntity
8
1
62
256
6
ByLayer
370
13
48
1
60
0
100
AcDbLine
10
80.49481
20
-7.796393
30
0
11
80.49481
21
-6.253156
31
0
39
0
210
0
220
0
230
1
0
LINE
5
9F
100
AcDbEntity
8
1
62
256
6
ByLayer
370
13
48
1
60
0
100
AcDbLine
10
71.610698
20
-11.087368
30
0
11
71.610698
21
-10.515235
31
0
39
0
210
0
220
0
230
1
0
LINE
5
A0
100
AcDbEntity
8
1
62
256
6
ByLayer
370
13
48
1
60
0
100
AcDbLine
10
71.247405
20
-10.245117
30
0
11
71.247405
21
-11.0387
31
0
39
0
210
0
220
0
230
1
0
LINE
5
A1
100
AcDbEntity
8
1
62
256
6
ByLayer
370
18
48
1
60
0
100
AcDbLine
10
72.989464
20
-3.003734
30
0
11
73.031868
21
-3.522433
31
0
39
0
210
0
220
0
230
1
0
LINE
5
A2
100
AcDbEntity
8
1
62
256
6
ByLayer
370
18
48
1
60
0
100
AcDbLine
10
80.524267
20
-2.953313
30
0
11
80.524267
21
7.316182
31
0
39
0
210
0
220
0
230
1
0
LINE
5
A3
100
AcDbEntity
8
1
62
256
6
ByLayer
370
13
48
1
60
0
100
AcDbLine
10
71.247405
20
-5.72312
30
0
11
71.247405
21
8.682942
31
0
39
0
210
0
220
0
230
1
0
LINE
5
A4
100
AcDbEntity
8
1
62
256
6
ByLayer
370
18
48
1
60
0
100
AcDbLine
10
75.015874
20
-3.074284
30
0
11
74.503709
21
-2.830987
31
0
39
0
210
0
220
0
230
1
0
LINE
5
A5
100
AcDbEntity
8
1
62
256
6
ByLayer
370
13
48
1
60
0
100
AcDbLine
10
71.610698
20
8.303516
30
0
11
71.610698
21
-5.771891
31
0
39
0
210
0
220
0
230
1
0
LINE
5
A6
100
AcDbEntity
8
1
62
256
6
ByLayer
370
13
48
1
60
0
100
AcDbLine
10
73.116635
20
-2.864944
30
0
11
73.116635
21
7.346427
31
0
39
0
210
0
220
0
230
1
0
LINE
5
A7
100
AcDbEntity
8
1
62
256
6
ByLayer
370
13
48
1
60
0
100
AcDbLine
10
75.833942
20
1.227337
30
0
11
76.001618
21
2.964178
31
0
39
0
210
0
220
0
230
1
0
LINE
5
A8
100
AcDbEntity
8
1
62
256
6
ByLayer
370
13
48
1
60
0
100
AcDbLine
10
75.833942
20
1.227337
30
0
11
75.924603
21
1.12623
31
0
39
0
210
0
220
0
230
1
0
LINE
5
A9
100
AcDbEntity
8
1
62
256
6
ByLayer
370
18
48
1
60
0
100
AcDbLine
10
75.745104
20
0.695214
30
0
11
75.833942
21
1.227337
31
0
39
0
210
0
220
0
230
1
0
LINE
5
AA
100
AcDbEntity
8
1
62
256
6
ByLayer
370
13
48
1
60
0
100
AcDbLine
10
5.560796
20
-11.740761
30
0
11
5.560796
21
11.740761
31
0
39
0
210
0
220
0
230
1
0
LINE
5
AB
100
AcDbEntity
8
1
62
256
6
ByLayer
370
13
48
1
60
0
100
AcDbLine
10
5.4392
20
11.7415
30
0
11
5.4392
21
-11.7415
31
0
39
0
210
0
220
0
230
1
0
LINE
5
AC
100
AcDbEntity
8
1
62
256
6
ByLayer
370
18
48
1
60
0
100
AcDbLine
10
75.924603
20
1.12623
30
0
11
75.831847
21
0.570637
31
0
39
0
210
0
220
0
230
1
0
LINE
5
AD
100
AcDbEntity
8
1
62
256
6
ByLayer
370
13
48
1
60
0
100
AcDbLine
10
78.580895
20
0.89798
30
0
11
78.5084
21
0.844695
31
0
39
0
210
0
220
0
230
1
0
LINE
5
AE
100
AcDbEntity
8
1
62
256
6
ByLayer
370
18
48
1
60
0
100
AcDbLine
10
78.409005
20
0.249341
30
0
11
78.5084
21
0.844695
31
0
39
0
210
0
220
0
230
1
0
LINE
5
AF
100
AcDbEntity
8
1
62
256
6
ByLayer
370
13
48
1
60
0
100
AcDbLine
10
73.61837
20
7.164964
30
0
11
73.61837
21
-2.683716
31
0
39
0
210
0
220
0
230
1
0
LINE
5
B0
100
AcDbEntity
8
1
62
256
6
ByLayer
370
13
48
1
60
0
100
AcDbLine
10
80.240656
20
7.483
30
0
11
80.240656
21
-3.28904
31
0
39
0
210
0
220
0
230
1
0
LINE
5
B1
100
AcDbEntity
8
1
62
256
6
ByLayer
370
13
48
1
60
0
100
AcDbLine
10
79.056104
20
-3.513908
30
0
11
79.056104
21
7.49475
31
0
39
0
210
0
220
0
230
1
0
LINE
5
B2
100
AcDbEntity
8
1
62
256
6
ByLayer
370
13
48
1
60
0
100
AcDbLine
10
1.5
20
-11.7415
30
0
11
1.5
21
11.7415
31
0
39
0
210
0
220
0
230
1
0
LINE
5
B3
100
AcDbEntity
8
1
62
256
6
ByLayer
370
18
48
1
60
0
100
AcDbLine
10
0.099726
20
-12.222598
30
0
11
0.099726
21
12.222598
31
0
39
0
210
0
220
0
230
1
0
LINE
5
B4
100
AcDbEntity
8
1
62
256
6
ByLayer
370
13
48
1
60
0
100
AcDbLine
10
81.174425
20
-4.63407
30
0
11
81.148433
21
-4.316128
31
0
39
0
210
0
220
0
230
1
0
LINE
5
B5
100
AcDbEntity
8
1
62
256
6
ByLayer
370
13
48
1
60
0
100
AcDbLine
10
80.987922
20
-4.582056
30
0
11
80.92926
21
-3.864484
31
0
39
0
210
0
220
0
230
1
0
LINE
5
B6
100
AcDbEntity
8
1
62
256
6
ByLayer
370
18
48
1
60
0
100
AcDbLine
10
72.470482
20
-5.834541
30
0
11
73.234565
21
-6.030484
31
0
39
0
210
0
220
0
230
1
0
LINE
5
B7
100
AcDbEntity
8
1
62
256
6
ByLayer
370
13
48
1
60
0
100
AcDbLine
10
73.234565
20
-6.030484
30
0
11
74.718336
21
-2.970306
31
0
39
0
210
0
220
0
230
1
0
LINE
5
B8
100
AcDbEntity
8
1
62
256
6
ByLayer
370
13
48
1
60
0
100
AcDbLine
10
75.333095
20
-3.129608
30
0
11
73.90534
21
-6.074257
31
0
39
0
210
0
220
0
230
1
0
LINE
5
B9
100
AcDbEntity
8
1
62
256
6
ByLayer
370
18
48
1
60
0
100
AcDbLine
10
73.90534
20
-6.074257
30
0
11
74.192225
21
-6.054643
31
0
39
0
210
0
220
0
230
1
0
LINE
5
BA
100
AcDbEntity
8
1
62
256
6
ByLayer
370
18
48
1
60
0
100
AcDbLine
10
74.714685
20
-6.065176
30
0
11
76.334925
21
-6.24172
31
0
39
0
210
0
220
0
230
1
0
LINE
5
BB
100
AcDbEntity
8
1
62
256
6
ByLayer
370
18
48
1
60
0
100
AcDbLine
10
80.55094
20
-2.274199
30
0
11
80.601463
21
-2.892208
31
0
39
0
210
0
220
0
230
1
0
LINE
5
BC
100
AcDbEntity
8
1
62
256
6
ByLayer
370
18
48
1
60
0
100
AcDbLine
10
74.319926
20
-2.781047
30
0
11
74.718336
21
-2.970306
31
0
39
0
210
0
220
0
230
1
0
LINE
5
BD
100
AcDbEntity
8
1
62
256
6
ByLayer
370
18
48
1
60
0
100
AcDbLine
10
75.333095
20
-3.129608
30
0
11
79.059364
21
-3.535628
31
0
39
0
210
0
220
0
230
1
0
LINE
5
BE
100
AcDbEntity
8
SK1
62
256
6
ByLayer
370
18
48
1
60
0
100
AcDbLine
10
0
20
-12.280175
30
0
11
0
21
12.280175
31
0
39
0
210
0
220
0
230
1
0
LINE
5
BF
100
AcDbEntity
8
SK1
62
256
6
ByLayer
370
18
48
1
60
0
100
AcDbLine
10
-0.366025
20
-12.4915
30
0
11
-0.366025
21
12.4915
31
0
39
0
210
0
220
0
230
1
0
LINE
5
C0
100
AcDbEntity
8
SK1
62
256
6
ByLayer
370
18
48
1
60
0
100
AcDbLine
10
-117.5
20
12.4915
30
0
11
-117.5
21
-12.4915
31
0
39
0
210
0
220
0
230
1
0
LINE
5
C1
100
AcDbEntity
8
SK1
62
256
6
ByLayer
370
18
48
1
60
0
100
AcDbLine
10
-118.5
20
11.4915
30
0
11
-118.5
21
-11.4915
31
0
39
0
210
0
220
0
230
1
0
LINE
5
C2
100
AcDbEntity
8
1
62
256
6
ByLayer
370
13
48
1
60
0
100
AcDbLine
10
81.174425
20
-3.745109
30
0
11
81.148433
21
-3.347344
31
0
39
0
210
0
220
0
230
1
0
LINE
5
C3
100
AcDbEntity
8
1
62
256
6
ByLayer
370
13
48
1
60
0
100
AcDbLine
10
80.944078
20
-3.903415
30
0
11
80.92926
21
-3.67664
31
0
39
0
210
0
220
0
230
1
0
LINE
5
C4
100
AcDbEntity
8
1
62
256
6
ByLayer
370
18
48
1
60
0
100
AcDbLine
10
80.985195
20
-2.180921
30
0
11
80.524269
21
-2.081745
31
0
39
0
210
0
220
0
230
1
0
LINE
5
C5
100
AcDbEntity
8
1
62
256
6
ByLayer
370
18
48
1
60
0
100
AcDbLine
10
80.578747
20
-6.19127
30
0
11
80.601463
21
-6.538894
31
0
39
0
210
0
220
0
230
1
0
LINE
5
C6
100
AcDbEntity
8
1
62
256
6
ByLayer
370
13
48
1
60
0
100
AcDbLine
10
74.168857
20
7.03169
30
0
11
73.143074
21
9.932015
31
0
39
0
210
0
220
0
230
1
0
LINE
5
C7
100
AcDbEntity
8
1
62
256
6
ByLayer
370
13
48
1
60
0
100
AcDbLine
10
74.433394
20
8.770378
30
0
11
74.192225
21
12.217413
31
0
39
0
210
0
220
0
230
1
0
LINE
5
C8
100
AcDbEntity
8
1
62
256
6
ByLayer
370
18
48
1
60
0
100
AcDbLine
10
73.90534
20
12.212285
30
0
11
74.192225
21
12.217413
31
0
39
0
210
0
220
0
230
1
0
LINE
5
C9
100
AcDbEntity
8
1
62
256
6
ByLayer
370
18
48
1
60
0
100
AcDbLine
10
72.470482
20
11.370203
30
0
11
73.234565
21
11.98367
31
0
39
0
210
0
220
0
230
1
0
LINE
5
CA
100
AcDbEntity
8
1
62
256
6
ByLayer
370
13
48
1
60
0
100
AcDbLine
10
74.714685
20
12.242318
30
0
11
74.870052
21
10.021645
31
0
39
0
210
0
220
0
230
1
0
LINE
5
CB
100
AcDbEntity
8
1
62
256
6
ByLayer
370
18
48
1
60
0
100
AcDbLine
10
74.714685
20
12.242318
30
0
11
76.334925
21
12.367971
31
0
39
0
210
0
220
0
230
1
0
LINE
5
CC
100
AcDbEntity
8
1
62
256
6
ByLayer
370
13
48
1
60
0
100
AcDbLine
10
74.995418
20
8.229787
30
0
11
75.010146
21
8.019275
31
0
39
0
210
0
220
0
230
1
0
LINE
5
CD
100
AcDbEntity
8
1
62
256
6
ByLayer
370
13
48
1
60
0
100
AcDbLine
10
78.522217
20
10.304877
30
0
11
78.507489
21
10.515395
31
0
39
0
210
0
220
0
230
1
0
LINE
5
CE
100
AcDbEntity
8
1
62
256
6
ByLayer
370
13
48
1
60
0
100
AcDbLine
10
78.722482
20
7.442481
30
0
11
78.647583
21
8.513019
31
0
39
0
210
0
220
0
230
1
0
LINE
5
CF
100
AcDbEntity
8
1
62
256
6
ByLayer
370
13
48
1
60
0
100
AcDbLine
10
79.048653
20
12.457031
30
0
11
80.331447
21
8.645627
31
0
39
0
210
0
220
0
230
1
0
LINE
5
D0
100
AcDbEntity
8
1
62
256
6
ByLayer
370
13
48
1
60
0
100
AcDbLine
10
79.076297
20
9.772202
30
0
11
79.234044
21
7.517517
31
0
39
0
210
0
220
0
230
1
0
LINE
5
D1
100
AcDbEntity
8
1
62
256
6
ByLayer
370
18
48
1
60
0
100
AcDbLine
10
80.985195
20
7.226185
30
0
11
80.524269
21
6.828675
31
0
39
0
210
0
220
0
230
1
0
LINE
5
D2
100
AcDbEntity
8
1
62
256
6
ByLayer
370
18
48
1
60
0
100
AcDbLine
10
77.455962
20
8.664266
30
0
11
77.465635
21
8.654631
31
0
39
0
210
0
220
0
230
1
0
LINE
5
D3
100
AcDbEntity
8
1
62
256
6
ByLayer
370
18
48
1
60
0
100
AcDbLine
10
76.154586
20
9.777839
30
0
11
76.164287
21
9.760424
31
0
39
0
210
0
220
0
230
1
0
LINE
5
D4
100
AcDbEntity
8
1
62
256
6
ByLayer
370
18
48
1
60
0
100
AcDbLine
10
75.96521
20
9.350736
30
0
11
75.945455
21
9.347463
31
0
39
0
210
0
220
0
230
1
0
LINE
5
D5
100
AcDbEntity
8
1
62
256
6
ByLayer
370
13
48
1
60
0
100
AcDbLine
10
75.884759
20
9.43088
30
0
11
75.96521
21
9.350736
31
0
39
0
210
0
220
0
230
1
0
LINE
5
D6
100
AcDbEntity
8
1
62
256
6
ByLayer
370
13
48
1
60
0
100
AcDbLine
10
76.083837
20
9.840568
30
0
11
76.164287
21
9.760424
31
0
39
0
210
0
220
0
230
1
0
LINE
5
D7
100
AcDbEntity
8
1
62
256
6
ByLayer
370
13
48
1
60
0
100
AcDbLine
10
76.931403
20
10.144832
30
0
11
77.011854
21
10.064687
31
0
39
0
210
0
220
0
230
1
0
LINE
5
D8
100
AcDbEntity
8
1
62
256
6
ByLayer
370
18
48
1
60
0
100
AcDbLine
10
77.022149
20
10.081912
30
0
11
77.011854
21
10.064687
31
0
39
0
210
0
220
0
230
1
0
LINE
5
D9
100
AcDbEntity
8
1
62
256
6
ByLayer
370
18
48
1
60
0
100
AcDbLine
10
76.073187
20
9.858928
30
0
11
76.154586
21
9.777839
31
0
39
0
210
0
220
0
230
1
0
LINE
5
DA
100
AcDbEntity
8
1
62
256
6
ByLayer
370
18
48
1
60
0
100
AcDbLine
10
75.864057
20
9.428552
30
0
11
75.945455
21
9.347463
31
0
39
0
210
0
220
0
230
1
0
LINE
5
DB
100
AcDbEntity
8
1
62
256
6
ByLayer
370
18
48
1
60
0
100
AcDbLine
10
76.252354
20
8.50169
30
0
11
76.245181
21
8.482966
31
0
39
0
210
0
220
0
230
1
0
LINE
5
DC
100
AcDbEntity
8
1
62
256
6
ByLayer
370
13
48
1
60
0
100
AcDbLine
10
76.171903
20
8.581834
30
0
11
76.252354
21
8.50169
31
0
39
0
210
0
220
0
230
1
0
LINE
5
DD
100
AcDbEntity
8
1
62
256
6
ByLayer
370
18
48
1
60
0
100
AcDbLine
10
76.94075
20
10.163001
30
0
11
77.022149
21
10.081912
31
0
39
0
210
0
220
0
230
1
0
LINE
5
DE
100
AcDbEntity
8
1
62
256
6
ByLayer
370
13
48
1
60
0
100
AcDbLine
10
77.61309
20
9.564916
30
0
11
77.69354
21
9.484772
31
0
39
0
210
0
220
0
230
1
0
LINE
5
DF
100
AcDbEntity
8
1
62
256
6
ByLayer
370
18
48
1
60
0
100
AcDbLine
10
77.713537
20
9.484581
30
0
11
77.69354
21
9.484772
31
0
39
0
210
0
220
0
230
1
0
LINE
5
E0
100
AcDbEntity
8
1
62
256
6
ByLayer
370
13
48
1
60
0
100
AcDbLine
10
77.052667
20
8.411606
30
0
11
77.11483
21
8.349679
31
0
39
0
210
0
220
0
230
1
0
LINE
5
E1
100
AcDbEntity
8
1
62
256
6
ByLayer
370
18
48
1
60
0
100
AcDbLine
10
76.163782
20
8.564055
30
0
11
76.245181
21
8.482966
31
0
39
0
210
0
220
0
230
1
0
LINE
5
E2
100
AcDbEntity
8
1
62
256
6
ByLayer
370
18
48
1
60
0
100
AcDbLine
10
77.632138
20
9.56567
30
0
11
77.713537
21
9.484581
31
0
39
0
210
0
220
0
230
1
0
LINE
5
E3
100
AcDbEntity
8
1
62
256
6
ByLayer
370
18
48
1
60
0
100
AcDbLine
10
77.0643
20
8.3971
30
0
11
77.11029
21
8.351285
31
0
39
0
210
0
220
0
230
1
0
LINE
5
E4
100
AcDbEntity
8
2
62
256
6
ByLayer
370
13
48
1
60
0
100
AcDbLine
10
113.131238
20
12.5
30
0
11
113.131238
21
-12.5
31
0
39
0
210
0
220
0
230
1
0
LINE
5
E6
100
AcDbEntity
8
2
62
256
6
ByLayer
370
13
48
1
60
0
100
AcDbLine
10
83.0875
20
-12.5
30
0
11
115.131238
21
-12.5
31
0
39
0
210
0
220
0
230
1
0
LINE
5
E7
100
AcDbEntity
8
2
62
256
6
ByLayer
370
13
48
1
60
0
100
AcDbLine
10
83.0875
20
12.5
30
0
11
115.131238
21
12.5
31
0
39
0
210
0
220
0
230
1
0
LINE
5
E8
100
AcDbEntity
8
1
62
256
6
ByLayer
370
18
48
1
60
1
100
AcDbLine
10
113.131238
20
-12.5
30
0
11
112.670454
21
-9.000002
31
0
39
0
210
0
220
0
230
1
0
LINE
5
E9
100
AcDbEntity
8
1
62
256
6
ByLayer
370
18
48
1
60
1
100
AcDbLine
10
112.670454
20
-9.000002
30
0
11
113.592021
21
-8.999998
31
0
39
0
210
0
220
0
230
1
0
LINE
5
EA
100
AcDbEntity
8
1
62
256
6
ByLayer
370
18
48
1
60
1
100
AcDbLine
10
113.592021
20
-8.999998
30
0
11
113.131238
21
-12.5
31
0
39
0
210
0
220
0
230
1
0
LINE
5
EB
100
AcDbEntity
8
1
62
256
6
ByLayer
370
18
48
1
60
1
100
AcDbLine
10
113.131238
20
12.5
30
0
11
113.592021
21
9.000002
31
0
39
0
210
0
220
0
230
1
0
LINE
5
EC
100
AcDbEntity
8
1
62
256
6
ByLayer
370
18
48
1
60
1
100
AcDbLine
10
113.592021
20
9.000002
30
0
11
112.670454
21
8.999998
31
0
39
0
210
0
220
0
230
1
0
LINE
5
ED
100
AcDbEntity
8
1
62
256
6
ByLayer
370
18
48
1
60
1
100
AcDbLine
10
112.670454
20
8.999998
30
0
11
113.131238
21
12.5
31
0
39
0
210
0
220
0
230
1
0
LINE
5
EE
100
AcDbEntity
8
SK2
62
256
6
ByLayer
370
13
48
1
60
0
100
AcDbLine
10
-133.1
20
12.5
30
0
11
-133.1
21
-12.5
31
0
39
0
210
0
220
0
230
1
0
LINE
5
F0
100
AcDbEntity
8
SK2
62
256
6
ByLayer
370
13
48
1
60
0
100
AcDbLine
10
-120.0875
20
-12.5
30
0
11
-135.1
21
-12.5
31
0
39
0
210
0
220
0
230
1
0
LINE
5
F1
100
AcDbEntity
8
SK2
62
256
6
ByLayer
370
13
48
1
60
0
100
AcDbLine
10
-120.0875
20
12.5
30
0
11
-135.1
21
12.5
31
0
39
0
210
0
220
0
230
1
0
LINE
5
F2
100
AcDbEntity
8
1
62
256
6
ByLayer
370
18
48
1
60
1
100
AcDbLine
10
-133.1
20
-12.5
30
0
11
-133.560784
21
-9.000002
31
0
39
0
210
0
220
0
230
1
0
LINE
5
F3
100
AcDbEntity
8
1
62
256
6
ByLayer
370
18
48
1
60
1
100
AcDbLine
10
-133.560784
20
-9.000002
30
0
11
-132.639216
21
-8.999998
31
0
39
0
210
0
220
0
230
1
0
LINE
5
F4
100
AcDbEntity
8
1
62
256
6
ByLayer
370
18
48
1
60
1
100
AcDbLine
10
-132.639216
20
-8.999998
30
0
11
-133.1
21
-12.5
31
0
39
0
210
0
220
0
230
1
0
LINE
5
F5
100
AcDbEntity
8
1
62
256
6
ByLayer
370
18
48
1
60
1
100
AcDbLine
10
-133.1
20
12.5
30
0
11
-132.639216
21
9.000002
31
0
39
0
210
0
220
0
230
1
0
LINE
5
F6
100
AcDbEntity
8
1
62
256
6
ByLayer
370
18
48
1
60
1
100
AcDbLine
10
-132.639216
20
9.000002
30
0
11
-133.560784
21
8.999998
31
0
39
0
210
0
220
0
230
1
0
LINE
5
F7
100
AcDbEntity
8
1
62
256
6
ByLayer
370
18
48
1
60
1
100
AcDbLine
10
-133.560784
20
8.999998
30
0
11
-133.1
21
12.5
31
0
39
0
210
0
220
0
230
1
0
LINE
5
1FA
100
AcDbEntity
8
1
62
256
6
ByLayer
370
18
48
1
60
1
100
AcDbLine
10
113.131238
20
-12.5
30
0
11
112.670454
21
-9.000002
31
0
39
0
210
0
220
0
230
1
0
LINE
5
1FB
100
AcDbEntity
8
1
62
256
6
ByLayer
370
18
48
1
60
1
100
AcDbLine
10
112.670454
20
-9.000002
30
0
11
113.592021
21
-8.999998
31
0
39
0
210
0
220
0
230
1
0
LINE
5
1FC
100
AcDbEntity
8
1
62
256
6
ByLayer
370
18
48
1
60
1
100
AcDbLine
10
113.592021
20
-8.999998
30
0
11
113.131238
21
-12.5
31
0
39
0
210
0
220
0
230
1
0
LINE
5
1FE
100
AcDbEntity
8
1
62
256
6
ByLayer
370
18
48
1
60
1
100
AcDbLine
10
113.131238
20
12.5
30
0
11
113.592021
21
9.000002
31
0
39
0
210
0
220
0
230
1
0
LINE
5
1FF
100
AcDbEntity
8
1
62
256
6
ByLayer
370
18
48
1
60
1
100
AcDbLine
10
113.592021
20
9.000002
30
0
11
112.670454
21
8.999998
31
0
39
0
210
0
220
0
230
1
0
LINE
5
200
100
AcDbEntity
8
1
62
256
6
ByLayer
370
18
48
1
60
1
100
AcDbLine
10
112.670454
20
8.999998
30
0
11
113.131238
21
12.5
31
0
39
0
210
0
220
0
230
1
0
LINE
5
204
100
AcDbEntity
8
1
62
256
6
ByLayer
370
18
48
1
60
1
100
AcDbLine
10
-133.1
20
-12.5
30
0
11
-133.560784
21
-9.000002
31
0
39
0
210
0
220
0
230
1
0
LINE
5
205
100
AcDbEntity
8
1
62
256
6
ByLayer
370
18
48
1
60
1
100
AcDbLine
10
-133.560784
20
-9.000002
30
0
11
-132.639216
21
-8.999998
31
0
39
0
210
0
220
0
230
1
0
LINE
5
206
100
AcDbEntity
8
1
62
256
6
ByLayer
370
18
48
1
60
1
100
AcDbLine
10
-132.639216
20
-8.999998
30
0
11
-133.1
21
-12.5
31
0
39
0
210
0
220
0
230
1
0
LINE
5
208
100
AcDbEntity
8
1
62
256
6
ByLayer
370
18
48
1
60
1
100
AcDbLine
10
-133.1
20
12.5
30
0
11
-132.639216
21
9.000002
31
0
39
0
210
0
220
0
230
1
0
LINE
5
209
100
AcDbEntity
8
1
62
256
6
ByLayer
370
18
48
1
60
1
100
AcDbLine
10
-132.639216
20
9.000002
30
0
11
-133.560784
21
8.999998
31
0
39
0
210
0
220
0
230
1
0
LINE
5
20A
100
AcDbEntity
8
1
62
256
6
ByLayer
370
18
48
1
60
1
100
AcDbLine
10
-133.560784
20
8.999998
30
0
11
-133.1
21
12.5
31
0
39
0
210
0
220
0
230
1
0
MTEXT
5
1F6
100
AcDbEntity
8
2
62
256
6
ByLayer
370
18
48
1
60
0
100
AcDbMText
10
111.566604
20
-4.530622
30
0
210
0
220
0
230
1
1
%%c
40
3.5
41
0
44
1.084337
50
90
71
7
72
5
7
iso_b_vert
0
MTEXT
5
1F9
100
AcDbEntity
8
2
62
256
6
ByLayer
370
18
48
1
60
0
100
AcDbMText
10
111.566604
20
2.442034
30
0
210
0
220
0
230
1
1
\W0.6740;25
40
3.5
41
0
44
1.084337
50
90
71
7
72
5
7
iso_b_vert
0
MTEXT
5
202
100
AcDbEntity
8
SK2
62
256
6
ByLayer
370
18
48
1
60
0
100
AcDbMText
10
-134.664634
20
-4.530622
30
0
210
0
220
0
230
1
1
%%c
40
3.5
41
0
44
1.084337
50
90
71
7
72
5
7
iso_b_vert
0
MTEXT
5
203
100
AcDbEntity
8
SK2
62
256
6
ByLayer
370
18
48
1
60
0
100
AcDbMText
10
-134.664634
20
2.442034
30
0
210
0
220
0
230
1
1
\W0.6740;25
40
3.5
41
0
44
1.084337
50
90
71
7
72
5
7
iso_b_vert
0
MTEXT
5
20C
100
AcDbEntity
8
SK6
62
256
6
ByLayer
370
18
48
1
60
0
100
AcDbMText
10
-40.048881
20
-20.68366
30
0
210
0
220
0
230
1
1
\W0.7809;MH20-R025A25-06M
40
3.5
41
0
44
1.084337
50
0
71
7
72
5
7
iso_b_vert
0
HATCH
5
1FD
100
AcDbEntity
8
2
62
256
6
ByLayer
370
13
48
1
60
0
100
AcDbHatch
10
0
20
0
30
0
210
0
220
0
230
1
2
ANSI31
70
0
71
0
91
1
92
5
93
3
72
1
10
113.131237620419
20
-12.4999999999999
11
112.670453878866
21
-9.0000016925531
72
1
10
112.670453878866
20
-9.0000016925531
11
113.592021361972
21
-8.9999983074467
72
1
10
113.592021361972
20
-8.9999983074467
11
113.131237620419
21
-12.4999999999999
97
0
75
0
76
1
52
0
41
0.0062
77
0
78
1
53
45
43
0
44
0
45
-0.0139193969876572
46
0.0139193969876572
79
0
47
0
98
1
10
0
20
0
0
HATCH
5
201
100
AcDbEntity
8
2
62
256
6
ByLayer
370
13
48
1
60
0
100
AcDbHatch
10
0
20
0
30
0
210
0
220
0
230
1
2
ANSI31
70
0
71
0
91
1
92
5
93
3
72
1
10
113.131237620419
20
12.5000000000001
11
113.592021361972
21
9.0000016925533
72
1
10
113.592021361972
20
9.0000016925533
11
112.670453878866
21
8.9999983074469
72
1
10
112.670453878866
20
8.9999983074469
11
113.131237620419
21
12.5000000000001
97
0
75
0
76
1
52
0
41
0.0062
77
0
78
1
53
45
43
0
44
0
45
-0.0139193969876572
46
0.0139193969876572
79
0
47
0
98
1
10
0
20
0
0
HATCH
5
207
100
AcDbEntity
8
SK2
62
256
6
ByLayer
370
13
48
1
60
0
100
AcDbHatch
10
0
20
0
30
0
210
0
220
0
230
1
2
ANSI31
70
0
71
0
91
1
92
5
93
3
72
1
10
-133.1
20
-12.5000000000001
11
-133.560783741553
21
-9.00000169255334
72
1
10
-133.560783741553
20
-9.00000169255334
11
-132.639216258447
21
-8.99999830744694
72
1
10
-132.639216258447
20
-8.99999830744694
11
-133.1
21
-12.5000000000001
97
0
75
0
76
1
52
0
41
0.0062
77
0
78
1
53
45
43
0
44
0
45
-0.0139193969876572
46
0.0139193969876572
79
0
47
0
98
1
10
0
20
0
0
HATCH
5
20B
100
AcDbEntity
8
SK2
62
256
6
ByLayer
370
13
48
1
60
0
100
AcDbHatch
10
0
20
0
30
0
210
0
220
0
230
1
2
ANSI31
70
0
71
0
91
1
92
5
93
3
72
1
10
-133.1
20
12.4999999999999
11
-132.639216258447
21
9.00000169255306
72
1
10
-132.639216258447
20
9.00000169255306
11
-133.560783741553
21
8.99999830744666
72
1
10
-133.560783741553
20
8.99999830744666
11
-133.1
21
12.4999999999999
97
0
75
0
76
1
52
0
41
0.0062
77
0
78
1
53
45
43
0
44
0
45
-0.0139193969876572
46
0.0139193969876572
79
0
47
0
98
1
10
0
20
0
0
DIMENSION
5
20F
100
AcDbEntity
8
SK2
62
256
6
ByLayer
370
18
48
1
60
0
100
AcDbDimension
2
_U0
10
-118.5
20
32.75
30
0
11
-18.5
21
32.75
31
0
70
32
71
1
72
1
41
1
210
0
220
0
230
1
3
Standard
100
AcDbAlignedDimension
13
81.5
23
12.5
33
0
14
-118.5
24
12.5
34
0
50
0
100
AcDbRotatedDimension
1001
ACAD
1000
DSTYLE
1002
{
1070
   371
1070
    13
1070
   372
1070
    13
1070
   170
1070
     0
1070
   144
1040
1.0
1070
   277
1070
     2
1070
   284
1070
     8
1070
   278
1070
    46
1070
   146
1040
1.0
1070
   345
1005
16
1070
   347
1005
16
1070
   346
1005
16
1070
   344
1005
0
1070
   343
1005
0
1070
   172
1070
     1
1070
    76
1070
     0
1070
    75
1070
     0
1070
   282
1070
     0
1070
   281
1070
     0
1070
    71
1070
     0
1070
    74
1070
     0
1070
   279
1070
     0
1070
   173
1070
     1
1070
   340
1005
1F7
1070
   271
1070
     2
1070
   272
1070
     2
1070
    77
1070
     1
1070
    73
1070
     1
1070
   171
1070
     3
1070
   274
1070
     4
1070
   177
1070
     2
1070
   176
1070
     2
1070
   178
1070
     2
1070
    78
1070
     8
1070
    48
1040
-0.1
1070
    41
1040
3.5
1070
   147
1040
1.75
1070
    42
1040
1.5875
1070
    44
1040
2.0
1070
   140
1040
3.5
1002
}
1001
ACAD_DSTYLE_DIM_LINETYPE
1070
   380
1005
16
1001
ACAD_DSTYLE_DIM_EXT1_LINETYPE
1070
   381
1005
16
1001
ACAD_DSTYLE_DIM_EXT2_LINETYPE
1070
   382
1005
16
0
DIMENSION
5
228
100
AcDbEntity
8
2
62
256
6
ByLayer
370
18
48
1
60
0
100
AcDbDimension
2
_U1
10
0
20
20.75
30
0
11
40.75
21
20.75
31
0
70
32
71
1
72
1
41
1
210
0
220
0
230
1
3
Standard
100
AcDbAlignedDimension
13
81.5
23
12.5
33
0
14
0
24
0
34
0
50
0
100
AcDbRotatedDimension
1001
ACAD
1000
DSTYLE
1002
{
1070
   371
1070
    13
1070
   372
1070
    13
1070
   170
1070
     0
1070
   144
1040
1.0
1070
   277
1070
     2
1070
   284
1070
     8
1070
   278
1070
    46
1070
   146
1040
1.0
1070
   345
1005
16
1070
   347
1005
16
1070
   346
1005
16
1070
   344
1005
0
1070
   343
1005
0
1070
   172
1070
     1
1070
    76
1070
     0
1070
    75
1070
     0
1070
   282
1070
     0
1070
   281
1070
     0
1070
    71
1070
     0
1070
    74
1070
     0
1070
   279
1070
     0
1070
   173
1070
     1
1070
   340
1005
1F7
1070
   271
1070
     2
1070
   272
1070
     2
1070
    77
1070
     1
1070
    73
1070
     1
1070
   171
1070
     3
1070
   274
1070
     4
1070
   177
1070
     2
1070
   176
1070
     2
1070
   178
1070
     2
1070
    78
1070
     8
1070
    48
1040
-0.1
1070
    41
1040
3.5
1070
   147
1040
1.75
1070
    42
1040
1.5875
1070
    44
1040
2.0
1070
   140
1040
3.5
1002
}
1001
ACAD_DSTYLE_DIM_LINETYPE
1070
   380
1005
16
1001
ACAD_DSTYLE_DIM_EXT1_LINETYPE
1070
   381
1005
16
1001
ACAD_DSTYLE_DIM_EXT2_LINETYPE
1070
   382
1005
16
0
ENDSEC
0
SECTION
2
OBJECTS
0
DICTIONARY
5
2b0
330
0
100
AcDbDictionary
280
0
281
1
3
ACAD_GROUP
350
2b1
3
ACAD_MLINESTYLE
350
2b2
0
DICTIONARY
5
2b1
330
0
100
AcDbDictionary
280
0
281
1
0
DICTIONARY
5
2b2
330
0
100
AcDbDictionary
280
0
281
1
3
Standard
350
18
0
MLINESTYLE
5
18
330
2b2
100
AcDbMlineStyle
2
Standard
70
0
3

62
256
51
90
52
90
71
2
49
-0.5
62
256
6
ByLayer
49
0.5
62
256
6
ByLayer
0
RASTERVARIABLES
5
29e
330

100
AcDbRasterVariables
90
0
70
1
71
1
72
1
0
ENDSEC
0
EOF
