  0
SECTION
  2
HEADER
  9
$ACADVER
  1
AC1015
  9
$ACADMAINTVER
 70
     6
  9
$DWGCODEPAGE
  3
ANSI_1250
  9
$INSBASE
 10
0.0
 20
0.0
 30
0.0
  9
$EXTMIN
 10
0.0
 20
0.0
 30
0.0
  9
$EXTMAX
 10
297.0
 20
210.0
 30
0.0
  9
$LIMMIN
 10
0.0
 20
0.0
  9
$LIMMAX
 10
297.0
 20
210.0
  9
$ORTHOMODE
 70
     0
  9
$REGENMODE
 70
     1
  9
$FILLMODE
 70
     1
  9
$QTEXTMODE
 70
     0
  9
$MIRRTEXT
 70
     1
  9
$LTSCALE
 40
1.0
  9
$ATTMODE
 70
     1
  9
$TEXTSIZE
 40
3.5
  9
$TRACEWID
 40
1.0
  9
$TEXTSTYLE
  7
Standard
  9
$CLAYER
  8
0
  9
$CELTYPE
  6
ByLayer
  9
$CECOLOR
 62
   256
  9
$CELTSCALE
 40
1.0
  9
$DISPSILH
 70
     0
  9
$DIMSCALE
 40
1.0
  9
$DIMASZ
 40
3.302
  9
$DIMEXO
 40
1.0
  9
$DIMDLI
 40
3.75
  9
$DIMRND
 40
0.0
  9
$DIMDLE
 40
0.0
  9
$DIMEXE
 40
1.0
  9
$DIMTP
 40
0.0
  9
$DIMTM
 40
0.0
  9
$DIMTXT
 40
3.5
  9
$DIMCEN
 40
2.5
  9
$DIMTSZ
 40
0.0
  9
$DIMTOL
 70
     0
  9
$DIMLIM
 70
     0
  9
$DIMTIH
 70
     1
  9
$DIMTOH
 70
     1
  9
$DIMSE1
 70
     0
  9
$DIMSE2
 70
     0
  9
$DIMTAD
 70
     1
  9
$DIMZIN
 70
     0
  9
$DIMBLK
  1

  9
$DIMASO
 70
     1
  9
$DIMSHO
 70
     1
  9
$DIMPOST
  1

  9
$DIMAPOST
  1

  9
$DIMALT
 70
     0
  9
$DIMALTD
 70
     3
  9
$DIMALTF
 40
0.0393700787
  9
$DIMLFAC
 40
1.0
  9
$DIMTOFL
 70
     1
  9
$DIMTVP
 40
0.0
  9
$DIMTIX
 70
     0
  9
$DIMSOXD
 70
     0
  9
$DIMSAH
 70
     0
  9
$DIMBLK1
  1

  9
$DIMBLK2
  1

  9
$DIMSTYLE
  2
ISO-25
  9
$DIMCLRD
 70
     0
  9
$DIMCLRE
 70
     0
  9
$DIMCLRT
 70
     0
  9
$DIMTFAC
 40
1.0
  9
$DIMGAP
 40
1.524
  9
$DIMJUST
 70
     0
  9
$DIMSD1
 70
     0
  9
$DIMSD2
 70
     0
  9
$DIMTOLJ
 70
     0
  9
$DIMTZIN
 70
     0
  9
$DIMALTZ
 70
     0
  9
$DIMALTTZ
 70
     0
  9
$DIMUPT
 70
     0
  9
$DIMDEC
 70
     2
  9
$DIMTDEC
 70
     2
  9
$DIMALTU
 70
     2
  9
$DIMALTTD
 70
     3
  9
$DIMTXSTY
  7
Standard
  9
$DIMAUNIT
 70
     0
  9
$DIMADEC
 70
     2
  9
$DIMALTRND
 40
0.0
  9
$DIMAZIN
 70
     0
  9
$DIMDSEP
 70
    44
  9
$DIMATFIT
 70
     3
  9
$DIMFRAC
 70
     0
  9
$DIMLDRBLK
  1

  9
$DIMLUNIT
 70
     2
  9
$DIMLWD
 70
    -2
  9
$DIMLWE
 70
    -2
  9
$DIMTMOVE
 70
     0
  9
$LUNITS
 70
     2
  9
$LUPREC
 70
     2
  9
$SKETCHINC
 40
1.0
  9
$FILLETRAD
 40
10.0
  9
$AUNITS
 70
     0
  9
$AUPREC
 70
     2
  9
$MENU
  1
.
  9
$ELEVATION
 40
0.0
  9
$PELEVATION
 40
0.0
  9
$THICKNESS
 40
0.0
  9
$LIMCHECK
 70
     0
  9
$CHAMFERA
 40
0.0
  9
$CHAMFERB
 40
0.0
  9
$CHAMFERC
 40
0.0
  9
$CHAMFERD
 40
0.0
  9
$SKPOLY
 70
     0
  9
$TDCREATE
 40
2459290.480098067
  9
$TDUCREATE
 40
2459290.4384314
  9
$TDUPDATE
 40
2459290.480099352
  9
$TDUUPDATE
 40
2459290.438432685
  9
$TDINDWG
 40
0.0000000116
  9
$TDUSRTIMER
 40
0.0000000116
  9
$USRTIMER
 70
     1
  9
$ANGBASE
 50
0.0
  9
$ANGDIR
 70
     0
  9
$PDMODE
 70
     0
  9
$PDSIZE
 40
-1.0
  9
$PLINEWID
 40
0.0
  9
$SPLFRAME
 70
     0
  9
$SPLINETYPE
 70
     6
  9
$SPLINESEGS
 70
     8
  9
$HANDSEED
  5
261
  9
$SURFTAB1
 70
     6
  9
$SURFTAB2
 70
     6
  9
$SURFTYPE
 70
     6
  9
$SURFU
 70
     6
  9
$SURFV
 70
     6
  9
$UCSBASE
  2

  9
$UCSNAME
  2

  9
$UCSORG
 10
0.0
 20
0.0
 30
0.0
  9
$UCSXDIR
 10
1.0
 20
0.0
 30
0.0
  9
$UCSYDIR
 10
0.0
 20
1.0
 30
0.0
  9
$UCSORTHOREF
  2

  9
$UCSORTHOVIEW
 70
     0
  9
$UCSORGTOP
 10
0.0
 20
0.0
 30
0.0
  9
$UCSORGBOTTOM
 10
0.0
 20
0.0
 30
0.0
  9
$UCSORGLEFT
 10
0.0
 20
0.0
 30
0.0
  9
$UCSORGRIGHT
 10
0.0
 20
0.0
 30
0.0
  9
$UCSORGFRONT
 10
0.0
 20
0.0
 30
0.0
  9
$UCSORGBACK
 10
0.0
 20
0.0
 30
0.0
  9
$PUCSBASE
  2

  9
$PUCSNAME
  2

  9
$PUCSORG
 10
0.0
 20
0.0
 30
0.0
  9
$PUCSXDIR
 10
1.0
 20
0.0
 30
0.0
  9
$PUCSYDIR
 10
0.0
 20
1.0
 30
0.0
  9
$PUCSORTHOREF
  2

  9
$PUCSORTHOVIEW
 70
     0
  9
$PUCSORGTOP
 10
0.0
 20
0.0
 30
0.0
  9
$PUCSORGBOTTOM
 10
0.0
 20
0.0
 30
0.0
  9
$PUCSORGLEFT
 10
0.0
 20
0.0
 30
0.0
  9
$PUCSORGRIGHT
 10
0.0
 20
0.0
 30
0.0
  9
$PUCSORGFRONT
 10
0.0
 20
0.0
 30
0.0
  9
$PUCSORGBACK
 10
0.0
 20
0.0
 30
0.0
  9
$USERI1
 70
     0
  9
$USERI2
 70
     0
  9
$USERI3
 70
     0
  9
$USERI4
 70
     0
  9
$USERI5
 70
     0
  9
$USERR1
 40
0.0
  9
$USERR2
 40
0.0
  9
$USERR3
 40
0.0
  9
$USERR4
 40
0.0
  9
$USERR5
 40
0.0
  9
$WORLDVIEW
 70
     1
  9
$SHADEDGE
 70
     3
  9
$SHADEDIF
 70
    70
  9
$TILEMODE
 70
     1
  9
$MAXACTVP
 70
    64
  9
$PINSBASE
 10
0.0
 20
0.0
 30
0.0
  9
$PLIMCHECK
 70
     0
  9
$PEXTMIN
 10
1.0000000000E+20
 20
1.0000000000E+20
 30
1.0000000000E+20
  9
$PEXTMAX
 10
-1.0000000000E+20
 20
-1.0000000000E+20
 30
-1.0000000000E+20
  9
$PLIMMIN
 10
0.0
 20
0.0
  9
$PLIMMAX
 10
420.0
 20
297.0
  9
$UNITMODE
 70
     0
  9
$VISRETAIN
 70
     1
  9
$PLINEGEN
 70
     0
  9
$PSLTSCALE
 70
     1
  9
$TREEDEPTH
 70
  3020
  9
$CMLSTYLE
  2
Standard
  9
$CMLJUST
 70
     0
  9
$CMLSCALE
 40
20.0
  9
$PROXYGRAPHICS
 70
     1
  9
$MEASUREMENT
 70
     1
  9
$CELWEIGHT
370
    -1
  9
$ENDCAPS
280
     0
  9
$JOINSTYLE
280
     0
  9
$LWDISPLAY
290
     1
  9
$INSUNITS
 70
     4
  9
$HYPERLINKBASE
  1

  9
$STYLESHEET
  1

  9
$XEDIT
290
     1
  9
$CEPSNTYPE
380
     0
  9
$PSTYLEMODE
290
     1
  9
$FINGERPRINTGUID
  2
{38DA9724-88A5-40D0-B7B7-2137B3B5BD7A}
  9
$VERSIONGUID
  2
{FAEB1C32-E019-11D5-929B-00C0DF256EC4}
  9
$EXTNAMES
290
     1
  9
$PSVPSCALE
 40
0.0
  9
$OLESTARTUP
290
     0
  0
ENDSEC
  0
SECTION
  2
CLASSES
  0
CLASS
  1
ACDBDICTIONARYWDFLT
  2
AcDbDictionaryWithDefault
  3
ObjectDBX Classes
 90
        0
280
     0
281
     0
  0
CLASS
  1
VISUALSTYLE
  2
AcDbVisualStyle
  3
ObjectDBX Classes
 90
     4095
280
     0
281
     0
  0
CLASS
  1
MATERIAL
  2
AcDbMaterial
  3
ObjectDBX Classes
 90
     1153
280
     0
281
     0
  0
CLASS
  1
SCALE
  2
AcDbScale
  3
ObjectDBX Classes
 90
     1153
280
     0
281
     0
  0
CLASS
  1
TABLESTYLE
  2
AcDbTableStyle
  3
ObjectDBX Classes
 90
     4095
280
     0
281
     0
  0
CLASS
  1
MLEADERSTYLE
  2
AcDbMLeaderStyle
  3
ACDB_MLEADERSTYLE_CLASS
 90
     4095
280
     0
281
     0
  0
CLASS
  1
SUN
  2
AcDbSun
  3
SCENEOE
 90
     1153
280
     0
281
     0
  0
CLASS
  1
ACDBPLACEHOLDER
  2
AcDbPlaceHolder
  3
ObjectDBX Classes
 90
        0
280
     0
281
     0
  0
CLASS
  1
LAYOUT
  2
AcDbLayout
  3
ObjectDBX Classes
 90
        0
280
     0
281
     0
  0
ENDSEC
  0
SECTION
  2
TABLES
  0
TABLE
  2
VPORT
  5
8
330
0
100
AcDbSymbolTable
 70
     1
  0
VPORT
  5
29
330
8
100
AcDbSymbolTableRecord
100
AcDbViewportTableRecord
  2
*Active
 70
     0
 10
0.0
 20
0.0
 11
1.0
 21
1.0
 12
148.5
 22
105.0
 13
0.0
 23
0.0
 14
10.0
 24
10.0
 15
10.0
 25
10.0
 16
0.0
 26
0.0
 36
1.0
 17
0.0
 27
0.0
 37
0.0
 40
210.0
 41
1.4142857143
 42
50.0
 43
0.0
 44
0.0
 50
0.0
 51
0.0
 71
     0
 72
  2000
 73
     1
 74
     3
 75
     0
 76
     0
 77
     0
 78
     0
281
     0
 65
     1
110
0.0
120
0.0
130
0.0
111
1.0
121
0.0
131
0.0
112
0.0
122
1.0
132
0.0
 79
     0
146
0.0
  0
ENDTAB
  0
TABLE
  2
LTYPE
  5
5
330
0
100
AcDbSymbolTable
 70
     8
  0
LTYPE
  5
14
330
5
100
AcDbSymbolTableRecord
100
AcDbLinetypeTableRecord
  2
ByBlock
 70
     0
  3

 72
    65
 73
     0
 40
0.0
  0
LTYPE
  5
15
330
5
100
AcDbSymbolTableRecord
100
AcDbLinetypeTableRecord
  2
ByLayer
 70
     0
  3

 72
    65
 73
     0
 40
0.0
  0
LTYPE
  5
16
330
5
100
AcDbSymbolTableRecord
100
AcDbLinetypeTableRecord
  2
Continuous
 70
     0
  3
Solid line
 72
    65
 73
     0
 40
0.0
  0
LTYPE
  5
6E
330
5
100
AcDbSymbolTableRecord
100
AcDbLinetypeTableRecord
  2
SLD-Solid
 70
     0
  3
SolidWorks Line Style
 72
    65
 73
     0
 40
0.0
  0
LTYPE
  5
6F
330
5
100
AcDbSymbolTableRecord
100
AcDbLinetypeTableRecord
  2
SLD-Dashed
 70
     0
  3
SolidWorks Line Style
 72
    65
 73
     2
 40
1.905
 49
1.27
 74
     0
 49
-0.635
 74
     0
  0
LTYPE
  5
70
330
5
100
AcDbSymbolTableRecord
100
AcDbLinetypeTableRecord
  2
SLD-Phantom
 70
     0
  3
SolidWorks Line Style
 72
    65
 73
     6
 40
12.7
 49
6.35
 74
     0
 49
-1.27
 74
     0
 49
1.27
 74
     0
 49
-1.27
 74
     0
 49
1.27
 74
     0
 49
-1.27
 74
     0
  0
LTYPE
  5
71
330
5
100
AcDbSymbolTableRecord
100
AcDbLinetypeTableRecord
  2
SLD-Chain
 70
     0
  3
SolidWorks Line Style
 72
    65
 73
     4
 40
10.16
 49
6.35
 74
     0
 49
-1.27
 74
     0
 49
1.27
 74
     0
 49
-1.27
 74
     0
  0
LTYPE
  5
72
330
5
100
AcDbSymbolTableRecord
100
AcDbLinetypeTableRecord
  2
SLD-Center
 70
     0
  3
SolidWorks Line Style
 72
    65
 73
     4
 40
19.05
 49
15.24
 74
     0
 49
-1.27
 74
     0
 49
1.27
 74
     0
 49
-1.27
 74
     0
  0
LTYPE
  5
73
330
5
100
AcDbSymbolTableRecord
100
AcDbLinetypeTableRecord
  2
SLD-Stitch
 70
     0
  3
SolidWorks Line Style
 72
    65
 73
     2
 40
0.635
 49
0.0
 74
     0
 49
-0.635
 74
     0
  0
LTYPE
  5
74
330
5
100
AcDbSymbolTableRecord
100
AcDbLinetypeTableRecord
  2
SLD-Thin-Thick-Chain
 70
     0
  3
SolidWorks Line Style
 72
    65
 73
     4
 40
10.16
 49
6.35
 74
     0
 49
-1.27
 74
     0
 49
1.27
 74
     0
 49
-1.27
 74
     0
  0
ENDTAB
  0
TABLE
  2
LAYER
  5
2
330
0
100
AcDbSymbolTable
 70
    12
  0
LAYER
  5
10
330
2
100
AcDbSymbolTableRecord
100
AcDbLayerTableRecord
  2
0
 70
     0
 62
     7
  6
Continuous
370
    -3
390
F
  0
LAYER
  5
75
330
2
100
AcDbSymbolTableRecord
100
AcDbLayerTableRecord
  2
SLD-0
 70
     0
 62
   179
  6
SLD-Solid
370
    -3
390
F
  0
LAYER
  5
76
330
2
100
AcDbSymbolTableRecord
100
AcDbLayerTableRecord
  2
80
 70
     0
 62
    -6
  6
SLD-Solid
290
     0
370
    -3
390
F
  0
LAYER
  5
77
330
2
100
AcDbSymbolTableRecord
100
AcDbLayerTableRecord
  2
81
 70
     0
 62
    -3
  6
SLD-Solid
290
     0
370
    -3
390
F
  0
LAYER
  5
78
330
2
100
AcDbSymbolTableRecord
100
AcDbLayerTableRecord
  2
1
 70
     0
 62
     4
  6
SLD-Solid
290
     0
370
    -3
390
F
  0
LAYER
  5
79
330
2
100
AcDbSymbolTableRecord
100
AcDbLayerTableRecord
  2
4
 70
     0
 62
    -2
  6
SLD-Chain
290
     0
370
    -3
390
F
  0
LAYER
  5
7A
330
2
100
AcDbSymbolTableRecord
100
AcDbLayerTableRecord
  2
2
 70
     0
 62
     7
  6
SLD-Solid
290
     0
370
    -3
390
F
  0
LAYER
  5
7B
330
2
100
AcDbSymbolTableRecord
100
AcDbLayerTableRecord
  2
SK3
 70
     0
 62
     1
  6
SLD-Dashed
290
     0
370
    -3
390
F
  0
LAYER
  5
7C
330
2
100
AcDbSymbolTableRecord
100
AcDbLayerTableRecord
  2
SK4
 70
     0
 62
     2
  6
SLD-Chain
290
     0
370
    -3
390
F
  0
LAYER
  5
7D
330
2
100
AcDbSymbolTableRecord
100
AcDbLayerTableRecord
  2
SK2
 70
     0
 62
     7
  6
SLD-Solid
290
     0
370
    -3
390
F
  0
LAYER
  5
7E
330
2
100
AcDbSymbolTableRecord
100
AcDbLayerTableRecord
  2
SK6
 70
     0
 62
     5
  6
SLD-Solid
290
     0
370
    -3
390
F
  0
LAYER
  5
7F
330
2
100
AcDbSymbolTableRecord
100
AcDbLayerTableRecord
  2
SK1
 70
     0
 62
     4
  6
SLD-Solid
370
    -3
390
F
  0
ENDTAB
  0
TABLE
  2
STYLE
  5
3
330
0
100
AcDbSymbolTable
 70
     2
  0
STYLE
  5
11
330
3
100
AcDbSymbolTableRecord
100
AcDbTextStyleTableRecord
  2
Standard
 70
     0
 40
0.0
 41
1.0
 50
0.0
 71
     0
 42
3.5
  3
txt
  4

  0
STYLE
  5
1E0
330
3
100
AcDbSymbolTableRecord
100
AcDbTextStyleTableRecord
  2
SLDTEXTSTYLE0
 70
     0
 40
0.0
 41
0.75
 50
0.0
 71
     0
 42
3.5
  3
TXT
  4

  0
ENDTAB
  0
TABLE
  2
VIEW
  5
6
330
0
100
AcDbSymbolTable
 70
     0
  0
ENDTAB
  0
TABLE
  2
UCS
  5
7
330
0
100
AcDbSymbolTable
 70
     0
  0
ENDTAB
  0
TABLE
  2
APPID
  5
9
330
0
100
AcDbSymbolTable
 70
     1
  0
APPID
  5
12
330
9
100
AcDbSymbolTableRecord
100
AcDbRegAppTableRecord
  2
ACAD
 70
     0
  0
ENDTAB
  0
TABLE
  2
DIMSTYLE
  5
A
330
0
100
AcDbSymbolTable
 70
     2
100
AcDbDimStyleTable
  0
DIMSTYLE
105
27
330
A
100
AcDbSymbolTableRecord
100
AcDbDimStyleTableRecord
  2
ISO-25
 70
     0
 41
2.5
 42
0.625
 43
3.75
 44
1.25
 73
     0
 74
     0
 77
     1
 78
     8
140
2.5
141
2.5
143
0.0393700787
147
0.625
171
     3
172
     1
178
     0
271
     2
272
     2
274
     3
278
    44
283
     0
284
     8
340
11
  0
DIMSTYLE
105
1E1
102
{ACAD_REACTORS
330
1DF
330
1EB
330
1F5
330
1FF
330
209
330
213
330
21E
330
229
330
234
330
23E
330
249
330
254
102
}
330
A
100
AcDbSymbolTableRecord
100
AcDbDimStyleTableRecord
  2
SLDDIMSTYLE0
 70
     0
 41
3.302
 44
0.0
 45
0.000000001
 73
     0
 74
     0
 77
     1
 78
    12
 79
     3
140
3.5
147
0.875
173
     1
178
     0
271
     2
272
     2
276
     2
284
    12
340
1E0
  0
ENDTAB
  0
TABLE
  2
BLOCK_RECORD
  5
1
330
0
100
AcDbSymbolTable
 70
    15
  0
BLOCK_RECORD
  5
1F
330
1
100
AcDbSymbolTableRecord
100
AcDbBlockTableRecord
  2
*Model_Space
340
22
  0
BLOCK_RECORD
  5
1B
330
1
100
AcDbSymbolTableRecord
100
AcDbBlockTableRecord
  2
*Paper_Space
340
1E
  0
BLOCK_RECORD
  5
23
330
1
100
AcDbSymbolTableRecord
100
AcDbBlockTableRecord
  2
*Paper_Space0
340
26
  0
BLOCK_RECORD
  5
80
330
1
100
AcDbSymbolTableRecord
100
AcDbBlockTableRecord
  2
Block11
340
0
102
{BLKREFS
331
1DE
102
}
  0
BLOCK_RECORD
  5
89
330
1
100
AcDbSymbolTableRecord
100
AcDbBlockTableRecord
  2
Block12
340
0
102
{BLKREFS
331
1DD
102
}
  0
BLOCK_RECORD
  5
1E2
330
1
100
AcDbSymbolTableRecord
100
AcDbBlockTableRecord
  2
_D
340
0
  0
BLOCK_RECORD
  5
1EC
330
1
100
AcDbSymbolTableRecord
100
AcDbBlockTableRecord
  2
_D_1
340
0
  0
BLOCK_RECORD
  5
1F6
330
1
100
AcDbSymbolTableRecord
100
AcDbBlockTableRecord
  2
_D_2
340
0
  0
BLOCK_RECORD
  5
200
330
1
100
AcDbSymbolTableRecord
100
AcDbBlockTableRecord
  2
_D_3
340
0
  0
BLOCK_RECORD
  5
20A
330
1
100
AcDbSymbolTableRecord
100
AcDbBlockTableRecord
  2
_D_4
340
0
  0
BLOCK_RECORD
  5
214
330
1
100
AcDbSymbolTableRecord
100
AcDbBlockTableRecord
  2
_D_5
340
0
  0
BLOCK_RECORD
  5
21F
330
1
100
AcDbSymbolTableRecord
100
AcDbBlockTableRecord
  2
_D_6
340
0
  0
BLOCK_RECORD
  5
22A
330
1
100
AcDbSymbolTableRecord
100
AcDbBlockTableRecord
  2
_D_7
340
0
  0
BLOCK_RECORD
  5
235
330
1
100
AcDbSymbolTableRecord
100
AcDbBlockTableRecord
  2
_D_8
340
0
  0
BLOCK_RECORD
  5
23F
330
1
100
AcDbSymbolTableRecord
100
AcDbBlockTableRecord
  2
_D_9
340
0
  0
BLOCK_RECORD
  5
24A
330
1
100
AcDbSymbolTableRecord
100
AcDbBlockTableRecord
  2
_D_10
340
0
  0
BLOCK_RECORD
  5
255
330
1
100
AcDbSymbolTableRecord
100
AcDbBlockTableRecord
  2
_D_11
340
0
  0
ENDTAB
  0
ENDSEC
  0
SECTION
  2
BLOCKS
  0
BLOCK
  5
20
330
1F
100
AcDbEntity
  8
0
100
AcDbBlockBegin
  2
*Model_Space
 70
     0
 10
0.0
 20
0.0
 30
0.0
  3
*Model_Space
  1

  0
ENDBLK
  5
21
330
1F
100
AcDbEntity
  8
0
100
AcDbBlockEnd
  0
BLOCK
  5
1C
330
1B
100
AcDbEntity
 67
     1
  8
0
100
AcDbBlockBegin
  2
*Paper_Space
 70
     0
 10
0.0
 20
0.0
 30
0.0
  3
*Paper_Space
  1

  0
ENDBLK
  5
1D
330
1B
100
AcDbEntity
 67
     1
  8
0
100
AcDbBlockEnd
  0
BLOCK
  5
24
330
23
100
AcDbEntity
  8
0
100
AcDbBlockBegin
  2
*Paper_Space0
 70
     0
 10
0.0
 20
0.0
 30
0.0
  3
*Paper_Space0
  1

  0
ENDBLK
  5
25
330
23
100
AcDbEntity
  8
0
100
AcDbBlockEnd
  0
BLOCK
  5
81
330
80
100
AcDbEntity
  8
0
100
AcDbBlockBegin
  2
Block11
 70
     0
 10
0.0
 20
0.0
 30
0.0
  3
Block11
  1

  0
CIRCLE
  5
83
330
80
100
AcDbEntity
  8
81
370
    18
100
AcDbCircle
 10
91.6264826505
 20
130.2676275275
 30
0.0
 40
2.499999999999981
  0
LINE
  5
84
330
80
100
AcDbEntity
  8
81
370
    18
100
AcDbLine
 10
91.6264826505
 20
130.2676275275
 30
0.0
 11
95.1620165565
 21
133.8031614334
 31
0.0
  0
LINE
  5
85
330
80
100
AcDbEntity
  8
81
370
    18
100
AcDbLine
 10
91.6264826505
 20
130.2676275275
 30
0.0
 11
88.0909487446
 21
126.7320936216
 31
0.0
  0
LINE
  5
86
330
80
100
AcDbEntity
  8
81
370
    18
100
AcDbLine
 10
91.6264826505
 20
130.2676275275
 30
0.0
 11
88.0909487446
 21
133.8031614334
 31
0.0
  0
LINE
  5
87
330
80
100
AcDbEntity
  8
81
100
AcDbLine
 10
91.6264826505
 20
130.2676275275
 30
0.0
 11
101.6264826505
 21
130.2676275275
 31
0.0
  0
LINE
  5
88
330
80
100
AcDbEntity
  8
81
370
    18
100
AcDbLine
 10
91.6264826505
 20
130.2676275275
 30
0.0
 11
95.1620165565
 21
126.7320936216
 31
0.0
  0
ENDBLK
  5
82
330
80
100
AcDbEntity
  8
0
100
AcDbBlockEnd
  0
BLOCK
  5
8A
330
89
100
AcDbEntity
  8
0
100
AcDbBlockBegin
  2
Block12
 70
     0
 10
0.0
 20
0.0
 30
0.0
  3
Block12
  1

  0
CIRCLE
  5
8C
330
89
100
AcDbEntity
  8
80
370
    18
100
AcDbCircle
 10
61.7273641656
 20
130.3356800267
 30
0.0
 40
2.500000000000004
  0
LINE
  5
8D
330
89
100
AcDbEntity
  8
80
370
    18
100
AcDbLine
 10
61.7273641656
 20
130.3356800267
 30
0.0
 11
65.2628980715
 21
133.8712139326
 31
0.0
  0
LINE
  5
8E
330
89
100
AcDbEntity
  8
80
370
    18
100
AcDbLine
 10
61.7273641656
 20
130.3356800267
 30
0.0
 11
58.1918302597
 21
126.8001461208
 31
0.0
  0
LINE
  5
8F
330
89
100
AcDbEntity
  8
80
370
    18
100
AcDbLine
 10
61.7273641656
 20
130.3356800267
 30
0.0
 11
58.1918302597
 21
133.8712139326
 31
0.0
  0
LINE
  5
90
330
89
100
AcDbEntity
  8
80
370
    18
100
AcDbLine
 10
61.7273641656
 20
130.3356800267
 30
0.0
 11
51.7273641656
 21
130.3356800267
 31
0.0
  0
LINE
  5
91
330
89
100
AcDbEntity
  8
80
370
    18
100
AcDbLine
 10
61.7273641656
 20
130.3356800267
 30
0.0
 11
65.2628980715
 21
126.8001461208
 31
0.0
  0
ENDBLK
  5
8B
330
89
100
AcDbEntity
  8
0
100
AcDbBlockEnd
  0
BLOCK
  5
1E3
330
1E2
100
AcDbEntity
  8
0
100
AcDbBlockBegin
  2
_D
 70
     0
 10
0.0
 20
0.0
 30
0.0
  3
_D
  1

  0
SOLID
  5
1E5
330
1E2
100
AcDbEntity
  8
SK2
100
AcDbTrace
 10
0.0
 20
37.8203711442
 30
0.0
 11
3.302
 21
37.3123711442
 31
0.0
 12
3.302
 22
38.3283711442
 32
0.0
 13
3.302
 23
38.3283711442
 33
0.0
  0
SOLID
  5
1E6
330
1E2
100
AcDbEntity
  8
SK2
100
AcDbTrace
 10
27.0
 20
37.8203711442
 30
0.0
 11
23.698
 21
38.3283711442
 31
0.0
 12
23.698
 22
37.3123711442
 32
0.0
 13
23.698
 23
37.3123711442
 33
0.0
  0
LINE
  5
1E7
330
1E2
100
AcDbEntity
  8
SK2
100
AcDbLine
 10
0.0
 20
23.225
 30
0.0
 11
0.0
 21
38.8203711442
 31
0.0
  0
LINE
  5
1E8
330
1E2
100
AcDbEntity
  8
SK2
100
AcDbLine
 10
27.0
 20
31.724895054
 30
0.0
 11
27.0
 21
38.8203711442
 31
0.0
  0
LINE
  5
1E9
330
1E2
100
AcDbEntity
  8
SK2
100
AcDbLine
 10
0.0
 20
37.8203711442
 30
0.0
 11
27.0
 21
37.8203711442
 31
0.0
  0
MTEXT
  5
1EA
330
1E2
100
AcDbEntity
  8
SK2
100
AcDbMText
 10
11.6902537883
 20
42.3321080588
 30
0.0
 40
3.5
 41
0.0
 71
     1
 72
     1
  1
27
  7
SLDTEXTSTYLE0
 73
     1
 44
1.0
  0
ENDBLK
  5
1E4
330
1E2
100
AcDbEntity
  8
0
100
AcDbBlockEnd
  0
BLOCK
  5
1ED
330
1EC
100
AcDbEntity
  8
0
100
AcDbBlockBegin
  2
_D_1
 70
     0
 10
0.0
 20
0.0
 30
0.0
  3
_D_1
  1

  0
SOLID
  5
1EF
330
1EC
100
AcDbEntity
  8
SK2
100
AcDbTrace
 10
70.0
 20
28.0575810772
 30
0.0
 11
66.698
 21
28.5655810772
 31
0.0
 12
66.698
 22
27.5495810772
 32
0.0
 13
66.698
 23
27.5495810772
 33
0.0
  0
SOLID
  5
1F0
330
1EC
100
AcDbEntity
  8
SK2
100
AcDbTrace
 10
55.5
 20
28.0575810772
 30
0.0
 11
58.802
 21
27.5495810772
 31
0.0
 12
58.802
 22
28.5655810772
 32
0.0
 13
58.802
 23
28.5655810772
 33
0.0
  0
LINE
  5
1F1
330
1EC
100
AcDbEntity
  8
SK2
100
AcDbLine
 10
70.0
 20
17.0
 30
0.0
 11
70.0
 21
29.0575810772
 31
0.0
  0
LINE
  5
1F2
330
1EC
100
AcDbEntity
  8
SK2
100
AcDbLine
 10
55.5
 20
19.45
 30
0.0
 11
55.5
 21
29.0575810772
 31
0.0
  0
LINE
  5
1F3
330
1EC
100
AcDbEntity
  8
SK2
100
AcDbLine
 10
70.0
 20
28.0575810772
 30
0.0
 11
55.5
 21
28.0575810772
 31
0.0
  0
MTEXT
  5
1F4
330
1EC
100
AcDbEntity
  8
SK2
100
AcDbMText
 10
57.8052926701
 20
32.5693179918
 30
0.0
 40
3.5
 41
0.0
 71
     1
 72
     1
  1
14,5
  7
SLDTEXTSTYLE0
 73
     1
 44
1.0
  0
ENDBLK
  5
1EE
330
1EC
100
AcDbEntity
  8
0
100
AcDbBlockEnd
  0
BLOCK
  5
1F7
330
1F6
100
AcDbEntity
  8
0
100
AcDbBlockBegin
  2
_D_2
 70
     0
 10
0.0
 20
0.0
 30
0.0
  3
_D_2
  1

  0
SOLID
  5
1F9
330
1F6
100
AcDbEntity
  8
SK2
100
AcDbTrace
 10
55.5
 20
28.0575810772
 30
0.0
 11
52.198
 21
28.5655810772
 31
0.0
 12
52.198
 22
27.5495810772
 32
0.0
 13
52.198
 23
27.5495810772
 33
0.0
  0
SOLID
  5
1FA
330
1F6
100
AcDbEntity
  8
SK2
100
AcDbTrace
 10
34.5
 20
28.0575810772
 30
0.0
 11
37.802
 21
27.5495810772
 31
0.0
 12
37.802
 22
28.5655810772
 32
0.0
 13
37.802
 23
28.5655810772
 33
0.0
  0
LINE
  5
1FB
330
1F6
100
AcDbEntity
  8
SK2
100
AcDbLine
 10
55.5
 20
19.45
 30
0.0
 11
55.5
 21
29.0575810772
 31
0.0
  0
LINE
  5
1FC
330
1F6
100
AcDbEntity
  8
SK2
100
AcDbLine
 10
34.5
 20
19.45
 30
0.0
 11
34.5
 21
29.0575810772
 31
0.0
  0
LINE
  5
1FD
330
1F6
100
AcDbEntity
  8
SK2
100
AcDbLine
 10
55.5
 20
28.0575810772
 30
0.0
 11
34.5
 21
28.0575810772
 31
0.0
  0
MTEXT
  5
1FE
330
1F6
100
AcDbEntity
  8
SK2
100
AcDbMText
 10
42.7142311124
 20
32.5693179918
 30
0.0
 40
3.5
 41
0.0
 71
     1
 72
     1
  1
21
  7
SLDTEXTSTYLE0
 73
     1
 44
1.0
  0
ENDBLK
  5
1F8
330
1F6
100
AcDbEntity
  8
0
100
AcDbBlockEnd
  0
BLOCK
  5
201
330
200
100
AcDbEntity
  8
0
100
AcDbBlockBegin
  2
_D_3
 70
     0
 10
0.0
 20
0.0
 30
0.0
  3
_D_3
  1

  0
SOLID
  5
203
330
200
100
AcDbEntity
  8
SK2
100
AcDbTrace
 10
70.0
 20
37.8203711442
 30
0.0
 11
66.698
 21
38.3283711442
 31
0.0
 12
66.698
 22
37.3123711442
 32
0.0
 13
66.698
 23
37.3123711442
 33
0.0
  0
SOLID
  5
204
330
200
100
AcDbEntity
  8
SK2
100
AcDbTrace
 10
27.0
 20
37.8203711442
 30
0.0
 11
30.302
 21
37.3123711442
 31
0.0
 12
30.302
 22
38.3283711442
 32
0.0
 13
30.302
 23
38.3283711442
 33
0.0
  0
LINE
  5
205
330
200
100
AcDbEntity
  8
SK2
100
AcDbLine
 10
70.0
 20
17.0
 30
0.0
 11
70.0
 21
38.8203711442
 31
0.0
  0
LINE
  5
206
330
200
100
AcDbEntity
  8
SK2
100
AcDbLine
 10
27.0
 20
31.724895054
 30
0.0
 11
27.0
 21
38.8203711442
 31
0.0
  0
LINE
  5
207
330
200
100
AcDbEntity
  8
SK2
100
AcDbLine
 10
70.0
 20
37.8203711442
 30
0.0
 11
27.0
 21
37.8203711442
 31
0.0
  0
MTEXT
  5
208
330
200
100
AcDbEntity
  8
SK2
100
AcDbMText
 10
46.1854453584
 20
42.3321080588
 30
0.0
 40
3.5
 41
0.0
 71
     1
 72
     1
  1
43
  7
SLDTEXTSTYLE0
 73
     1
 44
1.0
  0
ENDBLK
  5
202
330
200
100
AcDbEntity
  8
0
100
AcDbBlockEnd
  0
BLOCK
  5
20B
330
20A
100
AcDbEntity
  8
0
100
AcDbBlockBegin
  2
_D_4
 70
     0
 10
0.0
 20
0.0
 30
0.0
  3
_D_4
  1

  0
SOLID
  5
20D
330
20A
100
AcDbEntity
  8
2
100
AcDbTrace
 10
70.0
 20
46.281455869
 30
0.0
 11
66.698
 21
46.789455869
 31
0.0
 12
66.698
 22
45.773455869
 32
0.0
 13
66.698
 23
45.773455869
 33
0.0
  0
SOLID
  5
20E
330
20A
100
AcDbEntity
  8
2
100
AcDbTrace
 10
0.0
 20
46.281455869
 30
0.0
 11
3.302
 21
45.773455869
 31
0.0
 12
3.302
 22
46.789455869
 32
0.0
 13
3.302
 23
46.789455869
 33
0.0
  0
LINE
  5
20F
330
20A
100
AcDbEntity
  8
2
100
AcDbLine
 10
70.0
 20
17.0
 30
0.0
 11
70.0
 21
47.281455869
 31
0.0
  0
LINE
  5
210
330
20A
100
AcDbEntity
  8
2
100
AcDbLine
 10
0.0
 20
23.225
 30
0.0
 11
0.0
 21
47.281455869
 31
0.0
  0
LINE
  5
211
330
20A
100
AcDbEntity
  8
2
100
AcDbLine
 10
70.0
 20
46.281455869
 30
0.0
 11
0.0
 21
46.281455869
 31
0.0
  0
MTEXT
  5
212
330
20A
100
AcDbEntity
  8
2
100
AcDbMText
 10
32.6260147098
 20
50.7931927835
 30
0.0
 40
3.5
 41
0.0
 71
     1
 72
     1
  1
70
  7
SLDTEXTSTYLE0
 73
     1
 44
1.0
  0
ENDBLK
  5
20C
330
20A
100
AcDbEntity
  8
0
100
AcDbBlockEnd
  0
BLOCK
  5
215
330
214
100
AcDbEntity
  8
0
100
AcDbBlockBegin
  2
_D_5
 70
     0
 10
0.0
 20
0.0
 30
0.0
  3
_D_5
  1

  0
SOLID
  5
217
330
214
100
AcDbEntity
  8
SK2
100
AcDbTrace
 10
106.3093365468
 20
18.0
 30
0.0
 11
105.8013365468
 21
14.698
 31
0.0
 12
106.8173365468
 22
14.698
 32
0.0
 13
106.8173365468
 23
14.698
 33
0.0
  0
SOLID
  5
218
330
214
100
AcDbEntity
  8
SK2
100
AcDbTrace
 10
106.3093365468
 20
-18.0
 30
0.0
 11
106.8173365468
 21
-14.698
 31
0.0
 12
105.8013365468
 22
-14.698
 32
0.0
 13
105.8013365468
 23
-14.698
 33
0.0
  0
LINE
  5
219
330
214
100
AcDbEntity
  8
SK2
100
AcDbLine
 10
69.0
 20
18.0
 30
0.0
 11
107.3093365468
 21
18.0
 31
0.0
  0
LINE
  5
21A
330
214
100
AcDbEntity
  8
SK2
100
AcDbLine
 10
69.0
 20
-18.0
 30
0.0
 11
107.3093365468
 21
-18.0
 31
0.0
  0
LINE
  5
21B
330
214
100
AcDbEntity
  8
SK2
100
AcDbLine
 10
106.3093365468
 20
18.0
 30
0.0
 11
106.3093365468
 21
-18.0
 31
0.0
  0
MTEXT
  5
21C
330
214
100
AcDbEntity
  8
SK2
100
AcDbMText
 10
101.7975994576
 20
-5.7755698162
 30
0.0
 40
3.5
 41
0.0
 71
     1
 72
     1
  1
%%c
  7
SLDTEXTSTYLE0
 11
-7.044195017643634E-15
 21
1.0
 31
0.0
 73
     1
 44
1.0
  0
MTEXT
  5
21D
330
214
100
AcDbEntity
  8
SK2
100
AcDbMText
 10
101.7441272809
 20
-0.4971324179
 30
0.0
 40
3.5
 41
0.0
 71
     1
 72
     1
  1
36
  7
SLDTEXTSTYLE0
 11
-7.044195017643634E-15
 21
1.0
 31
0.0
 73
     1
 44
1.0
  0
ENDBLK
  5
216
330
214
100
AcDbEntity
  8
0
100
AcDbBlockEnd
  0
BLOCK
  5
220
330
21F
100
AcDbEntity
  8
0
100
AcDbBlockBegin
  2
_D_6
 70
     0
 10
0.0
 20
0.0
 30
0.0
  3
_D_6
  1

  0
SOLID
  5
222
330
21F
100
AcDbEntity
  8
SK2
100
AcDbTrace
 10
96.3674033081
 20
16.0
 30
0.0
 11
95.8594033081
 21
12.698
 31
0.0
 12
96.8754033081
 22
12.698
 32
0.0
 13
96.8754033081
 23
12.698
 33
0.0
  0
SOLID
  5
223
330
21F
100
AcDbEntity
  8
SK2
100
AcDbTrace
 10
96.3674033081
 20
-16.0
 30
0.0
 11
96.8754033081
 21
-12.698
 31
0.0
 12
95.8594033081
 22
-12.698
 32
0.0
 13
95.8594033081
 23
-12.698
 33
0.0
  0
LINE
  5
224
330
21F
100
AcDbEntity
  8
SK2
100
AcDbLine
 10
71.0
 20
16.0
 30
0.0
 11
97.3674033081
 21
16.0
 31
0.0
  0
LINE
  5
225
330
21F
100
AcDbEntity
  8
SK2
100
AcDbLine
 10
71.0
 20
-16.0
 30
0.0
 11
97.3674033081
 21
-16.0
 31
0.0
  0
LINE
  5
226
330
21F
100
AcDbEntity
  8
SK2
100
AcDbLine
 10
96.3674033081
 20
16.0
 30
0.0
 11
96.3674033081
 21
-16.0
 31
0.0
  0
MTEXT
  5
227
330
21F
100
AcDbEntity
  8
SK2
100
AcDbMText
 10
91.8556662189
 20
-5.7755698162
 30
0.0
 40
3.5
 41
0.0
 71
     1
 72
     1
  1
%%c
  7
SLDTEXTSTYLE0
 11
-7.044195017643634E-15
 21
1.0
 31
0.0
 73
     1
 44
1.0
  0
MTEXT
  5
228
330
21F
100
AcDbEntity
  8
SK2
100
AcDbMText
 10
91.8021940422
 20
-0.4971324179
 30
0.0
 40
3.5
 41
0.0
 71
     1
 72
     1
  1
32
  7
SLDTEXTSTYLE0
 11
-7.044195017643634E-15
 21
1.0
 31
0.0
 73
     1
 44
1.0
  0
ENDBLK
  5
221
330
21F
100
AcDbEntity
  8
0
100
AcDbBlockEnd
  0
BLOCK
  5
22B
330
22A
100
AcDbEntity
  8
0
100
AcDbBlockBegin
  2
_D_7
 70
     0
 10
0.0
 20
0.0
 30
0.0
  3
_D_7
  1

  0
SOLID
  5
22D
330
22A
100
AcDbEntity
  8
SK2
100
AcDbTrace
 10
87.3038593859
 20
-8.0
 30
0.0
 11
87.8118593859
 21
-4.698
 31
0.0
 12
86.7958593859
 22
-4.698
 32
0.0
 13
86.7958593859
 23
-4.698
 33
0.0
  0
SOLID
  5
22E
330
22A
100
AcDbEntity
  8
SK2
100
AcDbTrace
 10
87.3038593859
 20
8.0
 30
0.0
 11
86.7958593859
 21
4.698
 31
0.0
 12
87.8118593859
 22
4.698
 32
0.0
 13
87.8118593859
 23
4.698
 33
0.0
  0
LINE
  5
22F
330
22A
100
AcDbEntity
  8
SK2
100
AcDbLine
 10
69.2679491924
 20
-8.0
 30
0.0
 11
88.3038593859
 21
-8.0
 31
0.0
  0
LINE
  5
230
330
22A
100
AcDbEntity
  8
SK2
100
AcDbLine
 10
69.2679491924
 20
8.0
 30
0.0
 11
88.3038593859
 21
8.0
 31
0.0
  0
LINE
  5
231
330
22A
100
AcDbEntity
  8
SK2
100
AcDbLine
 10
87.3038593859
 20
-8.0
 30
0.0
 11
87.3038593859
 21
8.0
 31
0.0
  0
MTEXT
  5
232
330
22A
100
AcDbEntity
  8
SK2
100
AcDbMText
 10
82.7921222967
 20
-5.7755698162
 30
0.0
 40
3.5
 41
0.0
 71
     1
 72
     1
  1
%%c
  7
SLDTEXTSTYLE0
 11
6.123233995736766E-17
 21
1.0
 31
0.0
 73
     1
 44
1.0
  0
MTEXT
  5
233
330
22A
100
AcDbEntity
  8
SK2
100
AcDbMText
 10
82.7386501201
 20
-0.4971324179
 30
0.0
 40
3.5
 41
0.0
 71
     1
 72
     1
  1
16
  7
SLDTEXTSTYLE0
 11
6.123233995736766E-17
 21
1.0
 31
0.0
 73
     1
 44
1.0
  0
ENDBLK
  5
22C
330
22A
100
AcDbEntity
  8
0
100
AcDbBlockEnd
  0
BLOCK
  5
236
330
235
100
AcDbEntity
  8
0
100
AcDbBlockBegin
  2
_D_8
 70
     0
 10
0.0
 20
0.0
 30
0.0
  3
_D_8
  1

  0
SOLID
  5
238
330
235
100
AcDbEntity
  8
SK2
100
AcDbTrace
 10
70.0
 20
-38.562732244
 30
0.0
 11
66.698
 21
-38.054732244
 31
0.0
 12
66.698
 22
-39.070732244
 32
0.0
 13
66.698
 23
-39.070732244
 33
0.0
  0
SOLID
  5
239
330
235
100
AcDbEntity
  8
SK2
100
AcDbTrace
 10
23.5
 20
-38.562732244
 30
0.0
 11
26.802
 21
-39.070732244
 31
0.0
 12
26.802
 22
-38.054732244
 32
0.0
 13
26.802
 23
-38.054732244
 33
0.0
  0
LINE
  5
23A
330
235
100
AcDbEntity
  8
SK2
100
AcDbLine
 10
70.0
 20
-17.0
 30
0.0
 11
70.0
 21
-39.562732244
 31
0.0
  0
LINE
  5
23B
330
235
100
AcDbEntity
  8
SK2
100
AcDbLine
 10
23.5
 20
-9.25
 30
0.0
 11
23.5
 21
-39.562732244
 31
0.0
  0
LINE
  5
23C
330
235
100
AcDbEntity
  8
SK2
100
AcDbLine
 10
70.0
 20
-38.562732244
 30
0.0
 11
23.5
 21
-38.562732244
 31
0.0
  0
MTEXT
  5
23D
330
235
100
AcDbEntity
  8
SK2
100
AcDbMText
 10
42.9952524471
 20
-34.0509953294
 30
0.0
 40
3.5
 41
0.0
 71
     1
 72
     1
  1
46,5
  7
SLDTEXTSTYLE0
 73
     1
 44
1.0
  0
ENDBLK
  5
237
330
235
100
AcDbEntity
  8
0
100
AcDbBlockEnd
  0
BLOCK
  5
240
330
23F
100
AcDbEntity
  8
0
100
AcDbBlockBegin
  2
_D_9
 70
     0
 10
0.0
 20
0.0
 30
0.0
  3
_D_9
  1

  0
SOLID
  5
242
330
23F
100
AcDbEntity
  8
SK2
100
AcDbTrace
 10
-71.8029158171
 20
-8.00000038
 30
0.0
 11
-71.2949158171
 21
-4.69800038
 31
0.0
 12
-72.3109158171
 22
-4.69800038
 32
0.0
 13
-72.3109158171
 23
-4.69800038
 33
0.0
  0
SOLID
  5
243
330
23F
100
AcDbEntity
  8
SK2
100
AcDbTrace
 10
-71.8029158171
 20
8.00000038
 30
0.0
 11
-72.3109158171
 21
4.69800038
 31
0.0
 12
-71.2949158171
 22
4.69800038
 32
0.0
 13
-71.2949158171
 23
4.69800038
 33
0.0
  0
LINE
  5
244
330
23F
100
AcDbEntity
  8
SK2
100
AcDbLine
 10
-56.6881204247
 20
-8.00000038
 30
0.0
 11
-72.8029158171
 21
-8.00000038
 31
0.0
  0
LINE
  5
245
330
23F
100
AcDbEntity
  8
SK2
100
AcDbLine
 10
-56.6881204247
 20
8.00000038
 30
0.0
 11
-72.8029158171
 21
8.00000038
 31
0.0
  0
LINE
  5
246
330
23F
100
AcDbEntity
  8
SK2
100
AcDbLine
 10
-71.8029158171
 20
-8.00000038
 30
0.0
 11
-71.8029158171
 21
8.00000038
 31
0.0
  0
MTEXT
  5
247
330
23F
100
AcDbEntity
  8
SK2
100
AcDbMText
 10
-76.3146527317
 20
-3.9783228822
 30
0.0
 40
3.5
 41
0.0
 71
     1
 72
     1
  1
M
  7
SLDTEXTSTYLE0
 11
6.123233995736766E-17
 21
1.0
 31
0.0
 73
     1
 44
1.0
  0
MTEXT
  5
248
330
23F
100
AcDbEntity
  8
SK2
100
AcDbMText
 10
-76.3146527317
 20
0.3091770522
 30
0.0
 40
3.5
 41
0.0
 71
     1
 72
     1
  1
16
  7
SLDTEXTSTYLE0
 11
6.123233995736766E-17
 21
1.0
 31
0.0
 73
     1
 44
1.0
  0
ENDBLK
  5
241
330
23F
100
AcDbEntity
  8
0
100
AcDbBlockEnd
  0
BLOCK
  5
24B
330
24A
100
AcDbEntity
  8
0
100
AcDbBlockBegin
  2
_D_10
 70
     0
 10
0.0
 20
0.0
 30
0.0
  3
_D_10
  1

  0
SOLID
  5
24D
330
24A
100
AcDbEntity
  8
SK2
100
AcDbTrace
 10
-80.9731487915
 20
22.225
 30
0.0
 11
-81.4811487915
 21
18.923
 31
0.0
 12
-80.4651487915
 22
18.923
 32
0.0
 13
-80.4651487915
 23
18.923
 33
0.0
  0
SOLID
  5
24E
330
24A
100
AcDbEntity
  8
SK2
100
AcDbTrace
 10
-80.9731487915
 20
-22.225
 30
0.0
 11
-80.4651487915
 21
-18.923
 31
0.0
 12
-81.4811487915
 22
-18.923
 32
0.0
 13
-81.4811487915
 23
-18.923
 33
0.0
  0
LINE
  5
24F
330
24A
100
AcDbEntity
  8
SK2
100
AcDbLine
 10
-1.0
 20
22.225
 30
0.0
 11
-81.9731487915
 21
22.225
 31
0.0
  0
LINE
  5
250
330
24A
100
AcDbEntity
  8
SK2
100
AcDbLine
 10
-1.0
 20
-22.225
 30
0.0
 11
-81.9731487915
 21
-22.225
 31
0.0
  0
LINE
  5
251
330
24A
100
AcDbEntity
  8
SK2
100
AcDbLine
 10
-80.9731487915
 20
22.225
 30
0.0
 11
-80.9731487915
 21
-22.225
 31
0.0
  0
MTEXT
  5
252
330
24A
100
AcDbEntity
  8
SK2
100
AcDbMText
 10
-85.4848858807
 20
-9.1245076955
 30
0.0
 40
3.5
 41
0.0
 71
     1
 72
     1
  1
%%c
  7
SLDTEXTSTYLE0
 11
-7.044195017643634E-15
 21
1.0
 31
0.0
 73
     1
 44
1.0
  0
MTEXT
  5
253
330
24A
100
AcDbEntity
  8
SK2
100
AcDbMText
 10
-85.5383580574
 20
-3.8460702972
 30
0.0
 40
3.5
 41
0.0
 71
     1
 72
     1
  1
44,45
  7
SLDTEXTSTYLE0
 11
-7.044195017643634E-15
 21
1.0
 31
0.0
 73
     1
 44
1.0
  0
ENDBLK
  5
24C
330
24A
100
AcDbEntity
  8
0
100
AcDbBlockEnd
  0
BLOCK
  5
256
330
255
100
AcDbEntity
  8
0
100
AcDbBlockBegin
  2
_D_11
 70
     0
 10
0.0
 20
0.0
 30
0.0
  3
_D_11
  1

  0
SOLID
  5
258
330
255
100
AcDbEntity
  8
SK2
100
AcDbTrace
 10
-91.2778435772
 20
31.474895054
 30
0.0
 11
-91.7858435772
 21
28.172895054
 31
0.0
 12
-90.7698435772
 22
28.172895054
 32
0.0
 13
-90.7698435772
 23
28.172895054
 33
0.0
  0
SOLID
  5
259
330
255
100
AcDbEntity
  8
SK2
100
AcDbTrace
 10
-91.2778435772
 20
-31.474895054
 30
0.0
 11
-90.7698435772
 21
-28.172895054
 31
0.0
 12
-91.7858435772
 22
-28.172895054
 32
0.0
 13
-91.7858435772
 23
-28.172895054
 33
0.0
  0
LINE
  5
25A
330
255
100
AcDbEntity
  8
SK2
100
AcDbLine
 10
22.8749115524
 20
31.474895054
 30
0.0
 11
-92.2778435772
 21
31.474895054
 31
0.0
  0
LINE
  5
25B
330
255
100
AcDbEntity
  8
SK2
100
AcDbLine
 10
22.8749115475
 20
-31.474895054
 30
0.0
 11
-92.2778435772
 21
-31.474895054
 31
0.0
  0
LINE
  5
25C
330
255
100
AcDbEntity
  8
SK2
100
AcDbLine
 10
-91.2778435772
 20
31.474895054
 30
0.0
 11
-91.2778435772
 21
-31.474895054
 31
0.0
  0
MTEXT
  5
25D
330
255
100
AcDbEntity
  8
SK2
100
AcDbMText
 10
-95.7895806664
 20
-5.8918688783
 30
0.0
 40
3.5
 41
0.0
 71
     1
 72
     1
  1
%%c
  7
SLDTEXTSTYLE0
 11
-9.708730276744010E-15
 21
1.0
 31
0.0
 73
     1
 44
1.0
  0
MTEXT
  5
25E
330
255
100
AcDbEntity
  8
SK2
100
AcDbMText
 10
-95.843052843
 20
-0.6134314799
 30
0.0
 40
3.5
 41
0.0
 71
     1
 72
     1
  1
63
  7
SLDTEXTSTYLE0
 11
-9.708730276744010E-15
 21
1.0
 31
0.0
 73
     1
 44
1.0
  0
ENDBLK
  5
257
330
255
100
AcDbEntity
  8
0
100
AcDbBlockEnd
  0
ENDSEC
  0
SECTION
  2
ENTITIES
  0
LINE
  5
92
330
1F
100
AcDbEntity
  8
1
  6
SLD-Solid
370
    25
100
AcDbLine
 10
26.25
 20
31.474895054
 30
0.0
 11
23.8749115524
 21
31.474895054
 31
0.0
  0
LINE
  5
93
330
1F
100
AcDbEntity
  8
1
  6
SLD-Solid
370
    25
100
AcDbLine
 10
23.8749115475
 20
-31.474895054
 30
0.0
 11
26.25
 21
-31.474895054
 31
0.0
  0
LINE
  5
94
330
1F
100
AcDbEntity
  8
SK1
  6
SLD-Solid
370
    25
100
AcDbLine
 10
0.0
 20
22.225
 30
0.0
 11
-64.544317822
 21
12.8115589574
 31
0.0
  0
LINE
  5
95
330
1F
100
AcDbEntity
  8
SK1
  6
SLD-Solid
370
    25
100
AcDbLine
 10
-64.544317822
 20
-12.8115589574
 30
0.0
 11
0.0
 21
-22.225
 31
0.0
  0
LINE
  5
96
330
1F
100
AcDbEntity
  8
1
  6
SLD-Solid
370
    25
100
AcDbLine
 10
0.2
 20
22.225
 30
0.0
 11
0.0
 21
22.225
 31
0.0
  0
LINE
  5
97
330
1F
100
AcDbEntity
  8
1
  6
SLD-Solid
370
    25
100
AcDbLine
 10
0.0
 20
-22.225
 30
0.0
 11
0.2
 21
-22.225
 31
0.0
  0
LINE
  5
98
330
1F
100
AcDbEntity
  8
1
  6
SLD-Solid
370
    25
100
AcDbLine
 10
0.2
 20
-22.225
 30
0.0
 11
0.9330363037
 21
-21.8831795579
 31
0.0
  0
LINE
  5
99
330
1F
100
AcDbEntity
  8
1
  6
SLD-Solid
370
    25
100
AcDbLine
 10
0.9330363037
 20
21.8831795579
 30
0.0
 11
0.2
 21
22.225
 31
0.0
  0
LINE
  5
9A
330
1F
100
AcDbEntity
  8
1
  6
SLD-Solid
370
    25
100
AcDbLine
 10
28.4528843226
 20
18.0
 30
0.0
 11
28.0
 21
18.0
 31
0.0
  0
LINE
  5
9B
330
1F
100
AcDbEntity
  8
1
  6
SLD-Solid
370
    25
100
AcDbLine
 10
49.4528843226
 20
18.0
 30
0.0
 11
40.5359700198
 21
18.0
 31
0.0
  0
LINE
  5
9C
330
1F
100
AcDbEntity
  8
1
  6
SLD-Solid
370
    25
100
AcDbLine
 10
68.0
 20
18.0
 30
0.0
 11
61.5359700198
 21
18.0
 31
0.0
  0
LINE
  5
9D
330
1F
100
AcDbEntity
  8
1
  6
SLD-Solid
370
    25
100
AcDbLine
 10
62.3930455154
 20
-18.0
 30
0.0
 11
68.0
 21
-18.0
 31
0.0
  0
LINE
  5
9E
330
1F
100
AcDbEntity
  8
1
  6
SLD-Solid
370
    25
100
AcDbLine
 10
43.8930455154
 20
-18.0
 30
0.0
 11
48.6145913728
 21
-18.0
 31
0.0
  0
LINE
  5
9F
330
1F
100
AcDbEntity
  8
1
  6
SLD-Solid
370
    25
100
AcDbLine
 10
28.0
 20
-18.0
 30
0.0
 11
30.1145913728
 21
-18.0
 31
0.0
  0
LINE
  5
A0
330
1F
100
AcDbEntity
  8
1
  6
SLD-Solid
370
    25
100
AcDbLine
 10
68.0
 20
-18.0
 30
0.0
 11
70.0
 21
-16.0
 31
0.0
  0
LINE
  5
A1
330
1F
100
AcDbEntity
  8
1
  6
SLD-Solid
370
    25
100
AcDbLine
 10
70.0
 20
16.0
 30
0.0
 11
68.0
 21
18.0
 31
0.0
  0
LINE
  5
A2
330
1F
100
AcDbEntity
  8
1
  6
SLD-Solid
370
    25
100
AcDbLine
 10
11.58
 20
30.2851051865
 30
0.0
 11
2.75
 21
30.2851051865
 31
0.0
  0
LINE
  5
A3
330
1F
100
AcDbEntity
  8
1
  6
SLD-Solid
370
    25
100
AcDbLine
 10
11.58
 20
30.2851051865
 30
0.0
 11
11.58
 21
-30.2851051865
 31
0.0
  0
LINE
  5
A4
330
1F
100
AcDbEntity
  8
1
  6
SLD-Solid
370
    25
100
AcDbLine
 10
2.75
 20
-30.2851051865
 30
0.0
 11
11.58
 21
-30.2851051865
 31
0.0
  0
LINE
  5
A5
330
1F
100
AcDbEntity
  8
1
  6
SLD-Solid
370
    25
100
AcDbLine
 10
2.0
 20
-29.5343575532
 30
0.0
 11
2.0
 21
29.5343575532
 31
0.0
  0
LINE
  5
A6
330
1F
100
AcDbEntity
  8
1
  6
SLD-Solid
370
    25
100
AcDbLine
 10
21.6200000025
 20
30.9313908674
 30
0.0
 11
21.6200000025
 21
-30.9313908686
 31
0.0
  0
LINE
  5
A7
330
1F
100
AcDbEntity
  8
1
  6
SLD-Solid
370
    25
100
AcDbLine
 10
19.1
 20
26.1358563468
 30
0.0
 11
19.1
 21
-26.1358563468
 31
0.0
  0
LINE
  5
A8
330
1F
100
AcDbEntity
  8
1
  6
SLD-Solid
370
    25
100
AcDbLine
 10
21.6200000025
 20
30.9313908674
 30
0.0
 11
21.3771985668
 21
30.5697697753
 31
0.0
  0
LINE
  5
A9
330
1F
100
AcDbEntity
  8
1
  6
SLD-Solid
370
    25
100
AcDbLine
 10
21.3771985697
 20
-30.569769776
 30
0.0
 11
21.6200000025
 21
-30.9313908686
 31
0.0
  0
LINE
  5
AA
330
1F
100
AcDbEntity
  8
1
  6
SLD-Solid
370
    25
100
AcDbLine
 10
14.1
 20
25.873344623
 30
0.0
 11
14.1
 21
-25.873344623
 31
0.0
  0
LINE
  5
AB
330
1F
100
AcDbEntity
  8
1
  6
SLD-Solid
370
    25
100
AcDbLine
 10
27.0
 20
0.0
 30
0.0
 11
27.0
 21
-30.724895054
 31
0.0
  0
LINE
  5
AC
330
1F
100
AcDbEntity
  8
1
  6
SLD-Solid
370
    25
100
AcDbLine
 10
27.0
 20
30.724895054
 30
0.0
 11
27.0
 21
0.0
 31
0.0
  0
LINE
  5
AD
330
1F
100
AcDbEntity
  8
1
  6
SLD-Solid
370
    25
100
AcDbLine
 10
14.475
 20
25.2333306363
 30
0.0
 11
15.405
 21
25.2333306363
 31
0.0
  0
LINE
  5
AE
330
1F
100
AcDbEntity
  8
1
  6
SLD-Solid
370
    25
100
AcDbLine
 10
0.0
 20
22.225
 30
0.0
 11
0.0
 21
-22.225
 31
0.0
  0
LINE
  5
AF
330
1F
100
AcDbEntity
  8
1
  6
SLD-Solid
370
    25
100
AcDbLine
 10
68.0
 20
18.0
 30
0.0
 11
68.0
 21
-18.0
 31
0.0
  0
LINE
  5
B0
330
1F
100
AcDbEntity
  8
1
  6
SLD-Solid
370
    25
100
AcDbLine
 10
70.0
 20
16.0
 30
0.0
 11
70.0
 21
-16.0
 31
0.0
  0
LINE
  5
B1
330
1F
100
AcDbEntity
  8
1
  6
SLD-Solid
370
    25
100
AcDbLine
 10
14.475
 20
-25.2333306363
 30
0.0
 11
15.405
 21
-25.2333306363
 31
0.0
  0
LINE
  5
B2
330
1F
100
AcDbEntity
  8
SK1
  6
SLD-Solid
370
    25
100
AcDbLine
 10
-65.4
 20
-11.8220275702
 30
0.0
 11
-65.4
 21
11.8220275702
 31
0.0
  0
LINE
  5
B3
330
1F
100
AcDbEntity
  8
1
  6
SLD-Solid
370
    25
100
AcDbLine
 10
21.3771985668
 20
30.5697697753
 30
0.0
 11
21.6200000025
 21
30.9313908674
 31
0.0
  0
LINE
  5
B4
330
1F
100
AcDbEntity
  8
1
  6
SLD-Solid
370
    25
100
AcDbLine
 10
21.6200000025
 20
-30.9313908686
 30
0.0
 11
21.3771985697
 21
-30.569769776
 31
0.0
  0
LINE
  5
B5
330
1F
100
AcDbEntity
  8
SK3
  6
SLD-Dashed
370
    18
100
AcDbLine
 10
-63.65
 20
-8.505
 30
0.0
 11
-63.65
 21
8.505
 31
0.0
  0
LINE
  5
B6
330
1F
100
AcDbEntity
  8
SK3
  6
SLD-Dashed
370
    18
100
AcDbLine
 10
-65.4
 20
-9.5014078715
 30
0.0
 11
-65.4
 21
9.5014078715
 31
0.0
  0
LINE
  5
B7
330
1F
100
AcDbEntity
  8
SK3
  6
SLD-Dashed
370
    18
100
AcDbLine
 10
68.2679491924
 20
-8.0
 30
0.0
 11
68.2679491924
 21
8.0
 31
0.0
  0
LINE
  5
B8
330
1F
100
AcDbEntity
  8
SK3
  6
SLD-Dashed
370
    18
100
AcDbLine
 10
70.0
 20
-9.0
 30
0.0
 11
70.0
 21
9.0
 31
0.0
  0
LINE
  5
B9
330
1F
100
AcDbEntity
  8
SK3
  6
SLD-Dashed
370
    18
100
AcDbLine
 10
-59.15
 20
-8.8
 30
0.0
 11
-59.15
 21
8.8
 31
0.0
  0
LINE
  5
BA
330
1F
100
AcDbEntity
  8
SK3
  6
SLD-Dashed
370
    18
100
AcDbLine
 10
-59.6609549882
 20
-8.505
 30
0.0
 11
-59.6609549882
 21
8.505
 31
0.0
  0
LINE
  5
BB
330
1F
100
AcDbEntity
  8
SK3
  6
SLD-Dashed
370
    18
100
AcDbLine
 10
-56.15
 20
-8.8
 30
0.0
 11
-56.15
 21
8.8
 31
0.0
  0
LINE
  5
BC
330
1F
100
AcDbEntity
  8
SK3
  6
SLD-Dashed
370
    18
100
AcDbLine
 10
-55.1107695155
 20
-7.0
 30
0.0
 11
-55.1107695155
 21
7.0
 31
0.0
  0
LINE
  5
BD
330
1F
100
AcDbEntity
  8
1
  6
SLD-Dashed
370
    18
100
AcDbLine
 10
2.75
 20
-29.9242806492
 30
0.0
 11
2.75
 21
-30.2851051865
 31
0.0
  0
LINE
  5
BE
330
1F
100
AcDbEntity
  8
SK3
  6
SLD-Dashed
370
    18
100
AcDbLine
 10
2.375
 20
-29.5343575532
 30
0.0
 11
2.0
 21
-29.5343575532
 31
0.0
  0
LINE
  5
BF
330
1F
100
AcDbEntity
  8
SK3
  6
SLD-Dashed
370
    18
100
AcDbLine
 10
2.0
 20
-22.875
 30
0.0
 11
2.0
 21
-29.5343575532
 31
0.0
  0
LINE
  5
C0
330
1F
100
AcDbEntity
  8
SK3
  6
SLD-Dashed
370
    18
100
AcDbLine
 10
2.375
 20
-22.875
 30
0.0
 11
2.375
 21
-22.5
 31
0.0
  0
LINE
  5
C1
330
1F
100
AcDbEntity
  8
SK3
  6
SLD-Dashed
370
    18
100
AcDbLine
 10
2.375
 20
-22.875
 30
0.0
 11
2.0
 21
-22.875
 31
0.0
  0
LINE
  5
C2
330
1F
100
AcDbEntity
  8
SK3
  6
SLD-Dashed
370
    18
100
AcDbLine
 10
2.0
 20
-22.875
 30
0.0
 11
2.0
 21
-22.1266058076
 31
0.0
  0
LINE
  5
C3
330
1F
100
AcDbEntity
  8
SK3
  6
SLD-Dashed
370
    18
100
AcDbLine
 10
23.5
 20
-8.25
 30
0.0
 11
23.5
 21
8.25
 31
0.0
  0
LINE
  5
C4
330
1F
100
AcDbEntity
  8
SK3
  6
SLD-Dashed
370
    18
100
AcDbLine
 10
20.5
 20
-8.25
 30
0.0
 11
20.5
 21
8.25
 31
0.0
  0
LINE
  5
C5
330
1F
100
AcDbEntity
  8
SK3
  6
SLD-Dashed
370
    18
100
AcDbLine
 10
2.375
 20
-29.5343575532
 30
0.0
 11
2.375
 21
-22.875
 31
0.0
  0
LINE
  5
C6
330
1F
100
AcDbEntity
  8
SK3
  6
SLD-Dashed
370
    18
100
AcDbLine
 10
11.8542590336
 20
-29.9242806492
 30
0.0
 11
2.75
 21
-29.9242806492
 31
0.0
  0
LINE
  5
C7
330
1F
100
AcDbEntity
  8
1
  6
SLD-Dashed
370
    18
100
AcDbLine
 10
14.1
 20
-25.873344623
 30
0.0
 11
14.1
 21
-25.6268726145
 31
0.0
  0
LINE
  5
C8
330
1F
100
AcDbEntity
  8
SK3
  6
SLD-Dashed
370
    18
100
AcDbLine
 10
2.375
 20
22.875
 30
0.0
 11
2.375
 21
29.5343575532
 31
0.0
  0
LINE
  5
C9
330
1F
100
AcDbEntity
  8
SK3
  6
SLD-Dashed
370
    18
100
AcDbLine
 10
2.75
 20
29.9242806492
 30
0.0
 11
11.8542590336
 21
29.9242806492
 31
0.0
  0
LINE
  5
CA
330
1F
100
AcDbEntity
  8
1
  6
SLD-Dashed
370
    18
100
AcDbLine
 10
14.1
 20
25.873344623
 30
0.0
 11
14.1
 21
25.6268726145
 31
0.0
  0
LINE
  5
CB
330
1F
100
AcDbEntity
  8
SK3
  6
SLD-Dashed
370
    18
100
AcDbLine
 10
15.405
 20
-22.875
 30
0.0
 11
23.5
 21
-22.875
 31
0.0
  0
LINE
  5
CC
330
1F
100
AcDbEntity
  8
SK3
  6
SLD-Dashed
370
    18
100
AcDbLine
 10
15.405
 20
-22.875
 30
0.0
 11
15.405
 21
-22.5
 31
0.0
  0
LINE
  5
CD
330
1F
100
AcDbEntity
  8
SK3
  6
SLD-Dashed
370
    18
100
AcDbLine
 10
15.405
 20
-22.5
 30
0.0
 11
23.125
 21
-22.5
 31
0.0
  0
LINE
  5
CE
330
1F
100
AcDbEntity
  8
SK3
  6
SLD-Dashed
370
    18
100
AcDbLine
 10
15.405
 20
-22.875
 30
0.0
 11
15.405
 21
-22.5
 31
0.0
  0
LINE
  5
CF
330
1F
100
AcDbEntity
  8
SK3
  6
SLD-Dashed
370
    18
100
AcDbLine
 10
2.375
 20
22.5000000002
 30
0.0
 11
15.405
 21
22.5000000002
 31
0.0
  0
LINE
  5
D0
330
1F
100
AcDbEntity
  8
SK3
  6
SLD-Dashed
370
    18
100
AcDbLine
 10
15.405
 20
22.875
 30
0.0
 11
2.375
 21
22.875
 31
0.0
  0
LINE
  5
D1
330
1F
100
AcDbEntity
  8
1
  6
SLD-Dashed
370
    18
100
AcDbLine
 10
19.1
 20
-26.1358563468
 30
0.0
 11
19.1
 21
-25.8918833807
 31
0.0
  0
LINE
  5
D2
330
1F
100
AcDbEntity
  8
SK3
  6
SLD-Dashed
370
    18
100
AcDbLine
 10
15.405
 20
-25.2333306363
 30
0.0
 11
15.405
 21
-22.875
 31
0.0
  0
LINE
  5
D3
330
1F
100
AcDbEntity
  8
SK3
  6
SLD-Dashed
370
    18
100
AcDbLine
 10
15.405
 20
22.5000000002
 30
0.0
 11
23.125
 21
22.5000000002
 31
0.0
  0
LINE
  5
D4
330
1F
100
AcDbEntity
  8
SK3
  6
SLD-Dashed
370
    18
100
AcDbLine
 10
15.405
 20
22.875
 30
0.0
 11
23.5
 21
22.875
 31
0.0
  0
LINE
  5
D5
330
1F
100
AcDbEntity
  8
SK3
  6
SLD-Dashed
370
    18
100
AcDbLine
 10
15.405
 20
-22.5
 30
0.0
 11
2.375
 21
-22.5
 31
0.0
  0
LINE
  5
D6
330
1F
100
AcDbEntity
  8
SK3
  6
SLD-Dashed
370
    18
100
AcDbLine
 10
2.375
 20
-22.875
 30
0.0
 11
15.405
 21
-22.875
 31
0.0
  0
LINE
  5
D7
330
1F
100
AcDbEntity
  8
SK3
  6
SLD-Dashed
370
    18
100
AcDbLine
 10
15.405
 20
25.2333306363
 30
0.0
 11
15.405
 21
22.875
 31
0.0
  0
LINE
  5
D8
330
1F
100
AcDbEntity
  8
1
  6
SLD-Dashed
370
    18
100
AcDbLine
 10
19.1
 20
26.1358563468
 30
0.0
 11
19.1
 21
25.8918833807
 31
0.0
  0
LINE
  5
D9
330
1F
100
AcDbEntity
  8
SK3
  6
SLD-Dashed
370
    18
100
AcDbLine
 10
23.5
 20
-7.9964866921
 30
0.0
 11
23.5
 21
7.9964866921
 31
0.0
  0
LINE
  5
DA
330
1F
100
AcDbEntity
  8
SK3
  6
SLD-Dashed
370
    18
100
AcDbLine
 10
4.6
 20
-7.0
 30
0.0
 11
4.6
 21
7.0
 31
0.0
  0
LINE
  5
DB
330
1F
100
AcDbEntity
  8
SK3
  6
SLD-Dashed
370
    18
100
AcDbLine
 10
5.8017212381
 20
5.0
 30
0.0
 11
5.8017212381
 21
-5.0
 31
0.0
  0
LINE
  5
DC
330
1F
100
AcDbEntity
  8
SK3
  6
SLD-Dashed
370
    18
100
AcDbLine
 10
18.5
 20
-5.65
 30
0.0
 11
18.5
 21
5.65
 31
0.0
  0
LINE
  5
DD
330
1F
100
AcDbEntity
  8
SK3
  6
SLD-Dashed
370
    18
100
AcDbLine
 10
20.5
 20
-5.65
 30
0.0
 11
20.5
 21
5.65
 31
0.0
  0
LINE
  5
DE
330
1F
100
AcDbEntity
  8
SK3
  6
SLD-Dashed
370
    18
100
AcDbLine
 10
18.1094405976
 20
-5.0
 30
0.0
 11
18.1094405976
 21
5.0
 31
0.0
  0
LINE
  5
DF
330
1F
100
AcDbEntity
  8
SK3
  6
SLD-Dashed
370
    18
100
AcDbLine
 10
39.0
 20
16.45
 30
0.0
 11
30.0
 21
16.45
 31
0.0
  0
LINE
  5
E0
330
1F
100
AcDbEntity
  8
SK3
  6
SLD-Dashed
370
    18
100
AcDbLine
 10
60.0
 20
16.45
 30
0.0
 11
51.0
 21
16.45
 31
0.0
  0
LINE
  5
E1
330
1F
100
AcDbEntity
  8
SK3
  6
SLD-Dashed
370
    18
100
AcDbLine
 10
9.8
 20
17.8
 30
0.0
 11
19.2
 21
17.8
 31
0.0
  0
LINE
  5
E2
330
1F
100
AcDbEntity
  8
SK3
  6
SLD-Dashed
370
    18
100
AcDbLine
 10
19.5
 20
18.1
 30
0.0
 11
9.5
 21
18.1
 31
0.0
  0
LINE
  5
E3
330
1F
100
AcDbEntity
  8
SK3
  6
SLD-Dashed
370
    18
100
AcDbLine
 10
9.5
 20
22.5
 30
0.0
 11
19.5
 21
22.5
 31
0.0
  0
LINE
  5
E4
330
1F
100
AcDbEntity
  8
SK3
  6
SLD-Dashed
370
    18
100
AcDbLine
 10
2.375
 20
-22.5
 30
0.0
 11
2.375
 21
-22.875
 31
0.0
  0
LINE
  5
E5
330
1F
100
AcDbEntity
  8
SK3
  6
SLD-Dashed
370
    18
100
AcDbLine
 10
2.0
 20
-22.875
 30
0.0
 11
2.0
 21
-22.1266058076
 31
0.0
  0
LINE
  5
E6
330
1F
100
AcDbEntity
  8
SK3
  6
SLD-Dashed
370
    18
100
AcDbLine
 10
2.0
 20
-29.5343575532
 30
0.0
 11
2.375
 21
-29.5343575532
 31
0.0
  0
LINE
  5
E7
330
1F
100
AcDbEntity
  8
1
  6
SLD-Dashed
370
    18
100
AcDbLine
 10
2.75
 20
-30.2851051865
 30
0.0
 11
2.75
 21
-29.9242806492
 31
0.0
  0
LINE
  5
E8
330
1F
100
AcDbEntity
  8
1
  6
SLD-Dashed
370
    18
100
AcDbLine
 10
11.58
 20
-30.2851051865
 30
0.0
 11
2.75
 21
-30.2851051865
 31
0.0
  0
LINE
  5
E9
330
1F
100
AcDbEntity
  8
1
  6
SLD-Dashed
370
    18
100
AcDbLine
 10
15.405
 20
-25.2333306363
 30
0.0
 11
14.475
 21
-25.2333306363
 31
0.0
  0
LINE
  5
EA
330
1F
100
AcDbEntity
  8
1
  6
SLD-Dashed
370
    18
100
AcDbLine
 10
15.405
 20
25.2333306363
 30
0.0
 11
14.475
 21
25.2333306363
 31
0.0
  0
LINE
  5
EB
330
1F
100
AcDbEntity
  8
SK3
  6
SLD-Dashed
370
    18
100
AcDbLine
 10
-65.4
 20
-9.5153629711
 30
0.0
 11
-63.65
 21
-8.505
 31
0.0
  0
LINE
  5
EC
330
1F
100
AcDbEntity
  8
SK3
  6
SLD-Dashed
370
    18
100
AcDbLine
 10
-63.65
 20
8.505
 30
0.0
 11
-65.4
 21
9.5153629711
 31
0.0
  0
LINE
  5
ED
330
1F
100
AcDbEntity
  8
SK3
  6
SLD-Dashed
370
    18
100
AcDbLine
 10
70.0
 20
9.0
 30
0.0
 11
68.2679491924
 21
8.0
 31
0.0
  0
LINE
  5
EE
330
1F
100
AcDbEntity
  8
SK3
  6
SLD-Dashed
370
    18
100
AcDbLine
 10
68.2679491924
 20
-8.0
 30
0.0
 11
70.0
 21
-9.0
 31
0.0
  0
LINE
  5
EF
330
1F
100
AcDbEntity
  8
SK3
  6
SLD-Dashed
370
    18
100
AcDbLine
 10
-59.15
 20
8.8
 30
0.0
 11
-59.6609549882
 21
8.505
 31
0.0
  0
LINE
  5
F0
330
1F
100
AcDbEntity
  8
SK3
  6
SLD-Dashed
370
    18
100
AcDbLine
 10
-59.6609549882
 20
-8.505
 30
0.0
 11
-59.15
 21
-8.8
 31
0.0
  0
LINE
  5
F1
330
1F
100
AcDbEntity
  8
SK3
  6
SLD-Dashed
370
    18
100
AcDbLine
 10
-56.15
 20
-8.8
 30
0.0
 11
-55.1107695155
 21
-7.0
 31
0.0
  0
LINE
  5
F2
330
1F
100
AcDbEntity
  8
SK3
  6
SLD-Dashed
370
    18
100
AcDbLine
 10
-55.1107695155
 20
7.0
 30
0.0
 11
-56.15
 21
8.8
 31
0.0
  0
LINE
  5
F3
330
1F
100
AcDbEntity
  8
SK3
  6
SLD-Dashed
370
    18
100
AcDbLine
 10
-59.15
 20
-8.8
 30
0.0
 11
-56.15
 21
-8.8
 31
0.0
  0
LINE
  5
F4
330
1F
100
AcDbEntity
  8
SK3
  6
SLD-Dashed
370
    18
100
AcDbLine
 10
-56.15
 20
8.8
 30
0.0
 11
-59.15
 21
8.8
 31
0.0
  0
LINE
  5
F5
330
1F
100
AcDbEntity
  8
SK3
  6
SLD-Dashed
370
    18
100
AcDbLine
 10
-63.65
 20
-8.505
 30
0.0
 11
-59.6609549882
 21
-8.505
 31
0.0
  0
LINE
  5
F6
330
1F
100
AcDbEntity
  8
SK3
  6
SLD-Dashed
370
    18
100
AcDbLine
 10
-59.6609549882
 20
8.505
 30
0.0
 11
-63.65
 21
8.505
 31
0.0
  0
LINE
  5
F7
330
1F
100
AcDbEntity
  8
SK3
  6
SLD-Dashed
370
    18
100
AcDbLine
 10
2.375
 20
-22.5
 30
0.0
 11
2.0
 21
-22.125
 31
0.0
  0
LINE
  5
F8
330
1F
100
AcDbEntity
  8
SK3
  6
SLD-Dashed
370
    18
100
AcDbLine
 10
23.5
 20
8.25
 30
0.0
 11
20.5
 21
8.25
 31
0.0
  0
LINE
  5
F9
330
1F
100
AcDbEntity
  8
SK3
  6
SLD-Dashed
370
    18
100
AcDbLine
 10
20.5
 20
-8.25
 30
0.0
 11
23.5
 21
-8.25
 31
0.0
  0
LINE
  5
FA
330
1F
100
AcDbEntity
  8
SK3
  6
SLD-Dashed
370
    18
100
AcDbLine
 10
23.5
 20
-31.100089382
 30
0.0
 11
23.5
 21
-22.875
 31
0.0
  0
LINE
  5
FB
330
1F
100
AcDbEntity
  8
SK3
  6
SLD-Dashed
370
    18
100
AcDbLine
 10
23.5
 20
22.875
 30
0.0
 11
23.5
 21
31.1000827301
 31
0.0
  0
LINE
  5
FC
330
1F
100
AcDbEntity
  8
SK3
  6
SLD-Dashed
370
    18
100
AcDbLine
 10
30.0
 20
8.0
 30
0.0
 11
23.5
 21
8.0
 31
0.0
  0
LINE
  5
FD
330
1F
100
AcDbEntity
  8
SK3
  6
SLD-Dashed
370
    18
100
AcDbLine
 10
51.0
 20
8.0
 30
0.0
 11
38.9971836437
 21
8.0
 31
0.0
  0
LINE
  5
FE
330
1F
100
AcDbEntity
  8
SK3
  6
SLD-Dashed
370
    18
100
AcDbLine
 10
68.2679491924
 20
8.0
 30
0.0
 11
59.9971836437
 21
8.0
 31
0.0
  0
LINE
  5
FF
330
1F
100
AcDbEntity
  8
SK3
  6
SLD-Dashed
370
    18
100
AcDbLine
 10
23.5
 20
-8.0
 30
0.0
 11
68.2679491924
 21
-8.0
 31
0.0
  0
LINE
  5
100
330
1F
100
AcDbEntity
  8
SK3
  6
SLD-Dashed
370
    18
100
AcDbLine
 10
-55.1107695155
 20
-7.0
 30
0.0
 11
4.6
 21
-7.0
 31
0.0
  0
LINE
  5
101
330
1F
100
AcDbEntity
  8
SK3
  6
SLD-Dashed
370
    18
100
AcDbLine
 10
4.6
 20
7.0
 30
0.0
 11
-55.1107695155
 21
7.0
 31
0.0
  0
LINE
  5
102
330
1F
100
AcDbEntity
  8
SK3
  6
SLD-Dashed
370
    18
100
AcDbLine
 10
4.6
 20
-7.0
 30
0.0
 11
5.8017212381
 21
-5.0
 31
0.0
  0
LINE
  5
103
330
1F
100
AcDbEntity
  8
SK3
  6
SLD-Dashed
370
    18
100
AcDbLine
 10
5.8017212381
 20
5.0
 30
0.0
 11
4.6
 21
7.0
 31
0.0
  0
LINE
  5
104
330
1F
100
AcDbEntity
  8
SK3
  6
SLD-Dashed
370
    18
100
AcDbLine
 10
23.8749999895
 20
-31.474895054
 30
0.0
 11
23.4999999272
 21
-31.0998950385
 31
0.0
  0
LINE
  5
105
330
1F
100
AcDbEntity
  8
SK3
  6
SLD-Dashed
370
    18
100
AcDbLine
 10
20.5
 20
5.65
 30
0.0
 11
18.5
 21
5.65
 31
0.0
  0
LINE
  5
106
330
1F
100
AcDbEntity
  8
SK3
  6
SLD-Dashed
370
    18
100
AcDbLine
 10
18.5
 20
-5.65
 30
0.0
 11
20.5
 21
-5.65
 31
0.0
  0
LINE
  5
107
330
1F
100
AcDbEntity
  8
SK3
  6
SLD-Dashed
370
    18
100
AcDbLine
 10
18.5
 20
5.65
 30
0.0
 11
18.1094405976
 21
5.0
 31
0.0
  0
LINE
  5
108
330
1F
100
AcDbEntity
  8
SK3
  6
SLD-Dashed
370
    18
100
AcDbLine
 10
18.1094405976
 20
-5.0
 30
0.0
 11
18.5
 21
-5.65
 31
0.0
  0
LINE
  5
109
330
1F
100
AcDbEntity
  8
SK3
  6
SLD-Dashed
370
    18
100
AcDbLine
 10
28.45
 20
18.0
 30
0.0
 11
30.0
 21
16.45
 31
0.0
  0
LINE
  5
10A
330
1F
100
AcDbEntity
  8
SK3
  6
SLD-Dashed
370
    18
100
AcDbLine
 10
39.0
 20
16.45
 30
0.0
 11
40.55
 21
18.0
 31
0.0
  0
LINE
  5
10B
330
1F
100
AcDbEntity
  8
SK3
  6
SLD-Dashed
370
    18
100
AcDbLine
 10
49.45
 20
18.0
 30
0.0
 11
51.0
 21
16.45
 31
0.0
  0
LINE
  5
10C
330
1F
100
AcDbEntity
  8
SK3
  6
SLD-Dashed
370
    18
100
AcDbLine
 10
60.0
 20
16.45
 30
0.0
 11
61.55
 21
18.0
 31
0.0
  0
LINE
  5
10D
330
1F
100
AcDbEntity
  8
SK3
  6
SLD-Dashed
370
    18
100
AcDbLine
 10
9.5
 20
22.5
 30
0.0
 11
9.5
 21
18.1
 31
0.0
  0
LINE
  5
10E
330
1F
100
AcDbEntity
  8
SK3
  6
SLD-Dashed
370
    18
100
AcDbLine
 10
19.5
 20
18.1
 30
0.0
 11
19.5
 21
22.5
 31
0.0
  0
LINE
  5
10F
330
1F
100
AcDbEntity
  8
SK3
  6
SLD-Dashed
370
    18
100
AcDbLine
 10
5.8017212381
 20
-5.0
 30
0.0
 11
18.1094405976
 21
-5.0
 31
0.0
  0
LINE
  5
110
330
1F
100
AcDbEntity
  8
SK3
  6
SLD-Dashed
370
    18
100
AcDbLine
 10
18.1094405976
 20
5.0
 30
0.0
 11
5.8017212381
 21
5.0
 31
0.0
  0
LINE
  5
111
330
1F
100
AcDbEntity
  8
SK3
  6
SLD-Dashed
370
    18
100
AcDbLine
 10
30.0
 20
16.45
 30
0.0
 11
30.0
 21
8.0
 31
0.0
  0
LINE
  5
112
330
1F
100
AcDbEntity
  8
SK3
  6
SLD-Dashed
370
    18
100
AcDbLine
 10
39.0
 20
7.9984297698
 30
0.0
 11
39.0
 21
16.45
 31
0.0
  0
LINE
  5
113
330
1F
100
AcDbEntity
  8
SK3
  6
SLD-Dashed
370
    18
100
AcDbLine
 10
51.0
 20
16.45
 30
0.0
 11
51.0
 21
8.0
 31
0.0
  0
LINE
  5
114
330
1F
100
AcDbEntity
  8
SK3
  6
SLD-Dashed
370
    18
100
AcDbLine
 10
60.0
 20
7.9984297698
 30
0.0
 11
60.0
 21
16.45
 31
0.0
  0
LINE
  5
115
330
1F
100
AcDbEntity
  8
SK3
  6
SLD-Dashed
370
    18
100
AcDbLine
 10
2.375
 20
-22.5
 30
0.0
 11
2.0
 21
-22.125
 31
0.0
  0
LINE
  5
116
330
1F
100
AcDbEntity
  8
SK3
  6
SLD-Solid
370
    18
100
AcDbLine
 10
39.5000018179
 20
7.9772314057
 30
0.0
 11
39.5000018179
 21
16.9500000775
 31
0.0
  0
LINE
  5
117
330
1F
100
AcDbEntity
  8
SK3
  6
SLD-Solid
370
    18
100
AcDbLine
 10
29.5000001788
 20
16.9500000775
 30
0.0
 11
29.5000001788
 21
7.9772314057
 31
0.0
  0
LINE
  5
118
330
1F
100
AcDbEntity
  8
SK3
  6
SLD-Solid
370
    18
100
AcDbLine
 10
39.4633114338
 20
7.9772314057
 30
0.0
 11
39.3575951457
 21
7.9117771238
 31
0.0
  0
LINE
  5
119
330
1F
100
AcDbEntity
  8
SK3
  6
SLD-Solid
370
    18
100
AcDbLine
 10
32.3205515742
 20
6.6143781878
 30
0.0
 11
31.5643176436
 21
6.9005037658
 31
0.0
  0
LINE
  5
11A
330
1F
100
AcDbEntity
  8
SK3
  6
SLD-Solid
370
    18
100
AcDbLine
 10
36.6794265931
 20
6.6143781878
 30
0.0
 11
32.3205515742
 21
6.6143781878
 31
0.0
  0
LINE
  5
11B
330
1F
100
AcDbEntity
  8
SK3
  6
SLD-Solid
370
    18
100
AcDbLine
 10
60.4999996722
 20
7.9772314057
 30
0.0
 11
60.4999996722
 21
16.9500000775
 31
0.0
  0
LINE
  5
11C
330
1F
100
AcDbEntity
  8
SK3
  6
SLD-Solid
370
    18
100
AcDbLine
 10
50.5000017583
 20
16.9500000775
 30
0.0
 11
50.5000017583
 21
7.9772314057
 31
0.0
  0
LINE
  5
11D
330
1F
100
AcDbEntity
  8
SK3
  6
SLD-Solid
370
    18
100
AcDbLine
 10
60.463309288
 20
7.9772314057
 30
0.0
 11
60.3575929999
 21
7.9117771238
 31
0.0
  0
LINE
  5
11E
330
1F
100
AcDbEntity
  8
SK3
  6
SLD-Solid
370
    18
100
AcDbLine
 10
53.3205494285
 20
6.6143781878
 30
0.0
 11
52.5643192232
 21
6.9005037658
 31
0.0
  0
LINE
  5
11F
330
1F
100
AcDbEntity
  8
SK3
  6
SLD-Solid
370
    18
100
AcDbLine
 10
57.6793350404
 20
6.6143781878
 30
0.0
 11
53.3205494285
 21
6.6143781878
 31
0.0
  0
LINE
  5
120
330
1F
100
AcDbEntity
  8
SK3
  6
SLD-Solid
370
    18
100
AcDbLine
 10
-34.4000011683
 20
8.00000038
 30
0.0
 11
-55.6881204247
 21
8.00000038
 31
0.0
  0
LINE
  5
121
330
1F
100
AcDbEntity
  8
SK3
  6
SLD-Solid
370
    18
100
AcDbLine
 10
-55.6881204247
 20
-8.00000038
 30
0.0
 11
-34.4000011683
 21
-8.00000038
 31
0.0
  0
LINE
  5
122
330
1F
100
AcDbEntity
  8
SK3
  6
SLD-Solid
370
    18
100
AcDbLine
 10
-34.4000011683
 20
0.0
 30
0.0
 11
-34.4000011683
 21
-1.1385186808
 31
0.0
  0
LINE
  5
123
330
1F
100
AcDbEntity
  8
SK3
  6
SLD-Solid
370
    18
100
AcDbLine
 10
-34.4000011683
 20
-1.1385186808
 30
0.0
 11
-34.4000011683
 21
-2.253860468
 31
0.0
  0
LINE
  5
124
330
1F
100
AcDbEntity
  8
SK3
  6
SLD-Solid
370
    18
100
AcDbLine
 10
-34.4000011683
 20
-2.253860468
 30
0.0
 11
-34.4000011683
 21
-3.3233200666
 31
0.0
  0
LINE
  5
125
330
1F
100
AcDbEntity
  8
SK3
  6
SLD-Solid
370
    18
100
AcDbLine
 10
-34.4000011683
 20
-3.3233200666
 30
0.0
 11
-34.4000011683
 21
-4.3251267634
 31
0.0
  0
LINE
  5
126
330
1F
100
AcDbEntity
  8
SK3
  6
SLD-Solid
370
    18
100
AcDbLine
 10
-34.4000011683
 20
-4.3251267634
 30
0.0
 11
-34.4000011683
 21
-5.2388859913
 31
0.0
  0
LINE
  5
127
330
1F
100
AcDbEntity
  8
SK3
  6
SLD-Solid
370
    18
100
AcDbLine
 10
-34.4000011683
 20
-5.2388859913
 30
0.0
 11
-34.4000011683
 21
-6.0459966771
 31
0.0
  0
LINE
  5
128
330
1F
100
AcDbEntity
  8
SK3
  6
SLD-Solid
370
    18
100
AcDbLine
 10
-34.4000011683
 20
-6.0459966771
 30
0.0
 11
-34.4000011683
 21
-6.7300284281
 31
0.0
  0
LINE
  5
129
330
1F
100
AcDbEntity
  8
SK3
  6
SLD-Solid
370
    18
100
AcDbLine
 10
-34.4000011683
 20
-6.7300284281
 30
0.0
 11
-34.4000011683
 21
-7.2770561092
 31
0.0
  0
LINE
  5
12A
330
1F
100
AcDbEntity
  8
SK3
  6
SLD-Solid
370
    18
100
AcDbLine
 10
-34.4000011683
 20
-7.2770561092
 30
0.0
 11
-34.4000011683
 21
-7.6759438962
 31
0.0
  0
LINE
  5
12B
330
1F
100
AcDbEntity
  8
SK3
  6
SLD-Solid
370
    18
100
AcDbLine
 10
-34.4000011683
 20
-7.6759438962
 30
0.0
 11
-34.4000011683
 21
-7.918571122
 31
0.0
  0
LINE
  5
12C
330
1F
100
AcDbEntity
  8
SK3
  6
SLD-Solid
370
    18
100
AcDbLine
 10
-34.4000011683
 20
-7.918571122
 30
0.0
 11
-34.4000011683
 21
-8.00000038
 31
0.0
  0
LINE
  5
12D
330
1F
100
AcDbEntity
  8
SK3
  6
SLD-Solid
370
    18
100
AcDbLine
 10
-34.4000011683
 20
8.00000038
 30
0.0
 11
-34.4000011683
 21
7.918571122
 31
0.0
  0
LINE
  5
12E
330
1F
100
AcDbEntity
  8
SK3
  6
SLD-Solid
370
    18
100
AcDbLine
 10
-34.4000011683
 20
7.918571122
 30
0.0
 11
-34.4000011683
 21
7.6759438962
 31
0.0
  0
LINE
  5
12F
330
1F
100
AcDbEntity
  8
SK3
  6
SLD-Solid
370
    18
100
AcDbLine
 10
-34.4000011683
 20
7.6759438962
 30
0.0
 11
-34.4000011683
 21
7.2770561092
 31
0.0
  0
LINE
  5
130
330
1F
100
AcDbEntity
  8
SK3
  6
SLD-Solid
370
    18
100
AcDbLine
 10
-34.4000011683
 20
7.2770561092
 30
0.0
 11
-34.4000011683
 21
6.7300284281
 31
0.0
  0
LINE
  5
131
330
1F
100
AcDbEntity
  8
SK3
  6
SLD-Solid
370
    18
100
AcDbLine
 10
-34.4000011683
 20
6.7300284281
 30
0.0
 11
-34.4000011683
 21
6.0459966771
 31
0.0
  0
LINE
  5
132
330
1F
100
AcDbEntity
  8
SK3
  6
SLD-Solid
370
    18
100
AcDbLine
 10
-34.4000011683
 20
6.0459966771
 30
0.0
 11
-34.4000011683
 21
5.2388859913
 31
0.0
  0
LINE
  5
133
330
1F
100
AcDbEntity
  8
SK3
  6
SLD-Solid
370
    18
100
AcDbLine
 10
-34.4000011683
 20
5.2388859913
 30
0.0
 11
-34.4000011683
 21
4.3251267634
 31
0.0
  0
LINE
  5
134
330
1F
100
AcDbEntity
  8
SK3
  6
SLD-Solid
370
    18
100
AcDbLine
 10
-34.4000011683
 20
4.3251267634
 30
0.0
 11
-34.4000011683
 21
3.3233200666
 31
0.0
  0
LINE
  5
135
330
1F
100
AcDbEntity
  8
SK3
  6
SLD-Solid
370
    18
100
AcDbLine
 10
-34.4000011683
 20
3.3233200666
 30
0.0
 11
-34.4000011683
 21
2.253860468
 31
0.0
  0
LINE
  5
136
330
1F
100
AcDbEntity
  8
SK3
  6
SLD-Solid
370
    18
100
AcDbLine
 10
-34.4000011683
 20
2.253860468
 30
0.0
 11
-34.4000011683
 21
1.1385186808
 31
0.0
  0
LINE
  5
137
330
1F
100
AcDbEntity
  8
SK3
  6
SLD-Solid
370
    18
100
AcDbLine
 10
-34.4000011683
 20
1.1385186808
 30
0.0
 11
-34.4000011683
 21
0.0
 31
0.0
  0
LINE
  5
138
330
1F
100
AcDbEntity
  8
4
  6
SLD-Center
370
    18
100
AcDbLine
 10
72.0
 20
0.0
 30
0.0
 11
0.4328850887
 21
0.0
 31
0.0
  0
LINE
  5
139
330
1F
100
AcDbEntity
  8
4
  6
SLD-Center
370
    18
100
AcDbLine
 10
55.5
 20
18.45
 30
0.0
 11
55.5
 21
6.0
 31
0.0
  0
LINE
  5
13A
330
1F
100
AcDbEntity
  8
4
  6
SLD-Center
370
    18
100
AcDbLine
 10
34.5
 20
18.45
 30
0.0
 11
34.5
 21
6.0
 31
0.0
  0
LINE
  5
13B
330
1F
100
AcDbEntity
  8
SK4
  6
SLD-Center
370
    18
100
AcDbLine
 10
72.0408101567
 20
0.0
 30
0.0
 11
-67.9950827806
 21
0.0
 31
0.0
  0
ARC
  5
13C
330
1F
100
AcDbEntity
  8
1
  6
SLD-Solid
370
    25
100
AcDbCircle
 10
26.25
 20
-30.724895054
 30
0.0
 40
0.7500000000001172
100
AcDbArc
 50
270.0
 51
360.0
  0
ARC
  5
13D
330
1F
100
AcDbEntity
  8
1
  6
SLD-Solid
370
    25
100
AcDbCircle
 10
26.25
 20
30.724895054
 30
0.0
 40
0.7499999999999858
100
AcDbArc
 50
360.0
 51
90.0
  0
ARC
  5
13E
330
1F
100
AcDbEntity
  8
1
  6
SLD-Solid
370
    25
100
AcDbCircle
 10
1.25
 20
22.5629103982
 30
0.0
 40
0.7500000000001737
100
AcDbArc
 50
245.0
 51
360.0
  0
ARC
  5
13F
330
1F
100
AcDbEntity
  8
1
  6
SLD-Solid
370
    25
100
AcDbCircle
 10
1.25
 20
-22.5629103982
 30
0.0
 40
0.7500000000000944
100
AcDbArc
 50
360.0
 51
115.0
  0
ARC
  5
140
330
1F
100
AcDbEntity
  8
1
  6
SLD-Solid
370
    25
100
AcDbCircle
 10
28.0
 20
-19.0
 30
0.0
 40
1.0
100
AcDbArc
 50
90.0
 51
180.0
  0
ARC
  5
141
330
1F
100
AcDbEntity
  8
1
  6
SLD-Solid
370
    25
100
AcDbCircle
 10
28.0
 20
19.0
 30
0.0
 40
1.0
100
AcDbArc
 50
180.0
 51
270.0
  0
ARC
  5
142
330
1F
100
AcDbEntity
  8
SK1
  6
SLD-Solid
370
    25
100
AcDbCircle
 10
-64.4
 20
11.8220275702
 30
0.0
 40
1.000000000000028
100
AcDbArc
 50
98.2977777777
 51
180.0
  0
ARC
  5
143
330
1F
100
AcDbEntity
  8
SK1
  6
SLD-Solid
370
    25
100
AcDbCircle
 10
-64.4
 20
-11.8220275702
 30
0.0
 40
1.000000000000358
100
AcDbArc
 50
180.0
 51
261.7022222223
  0
ARC
  5
144
330
1F
100
AcDbEntity
  8
SK3
  6
SLD-Dashed
370
    18
100
AcDbCircle
 10
23.125
 20
-22.875
 30
0.0
 40
0.375
100
AcDbArc
 50
0.0
 51
90.0
  0
ARC
  5
145
330
1F
100
AcDbEntity
  8
1
370
    25
100
AcDbCircle
 10
37.000174536
 20
-39.0746392503
 30
0.0
 40
22.17502014392393
100
AcDbArc
 50
71.8901733143
 51
108.090016136
  0
ARC
  5
146
330
1F
100
AcDbEntity
  8
1
370
    25
100
AcDbCircle
 10
55.5001685971
 20
-39.1089916473
 30
0.0
 40
22.20767521729852
100
AcDbArc
 50
71.917708188
 51
108.0624812624
  0
SPLINE
  5
147
330
1F
100
AcDbEntity
  8
1
  6
SLD-Solid
370
    25
100
AcDbSpline
210
0.0
220
0.0
230
1.0
 70
     8
 71
     3
 72
    18
 73
    14
 74
     0
 42
0.000000001
 43
0.00000001
 40
0.0
 40
0.0
 40
0.0
 40
0.0
 40
0.0627579384114365
 40
0.1259236187828647
 40
0.1895094567248486
 40
0.2535275525789076
 40
0.3762719950292417
 40
0.5044894117533985
 40
0.6290085240522076
 40
0.7526965353922495
 40
0.8763987421632786
 40
0.9301250819942906
 40
1.0
 40
1.0
 40
1.0
 40
1.0
 10
2.750000000000003
 20
30.28510518647365
 30
0.0
 10
2.72524700458461
 20
30.28439543393904
 30
0.0
 10
2.675580192109297
 20
30.28297131756649
 30
0.0
 10
2.601584343698879
 20
30.27144101345495
 30
0.0
 10
2.528604493656758
 20
30.25299009491492
 30
0.0
 10
2.435839309527579
 20
30.21912784397157
 30
0.0
 10
2.326166244045969
 20
30.1596508087713
 30
0.0
 10
2.212102312971837
 20
30.06458077935475
 30
0.0
 10
2.119026744014804
 20
29.94884899387608
 30
0.0
 10
2.050928106131694
 20
29.81915082193436
 30
0.0
 10
2.017348575343219
 20
29.70556869534392
 30
0.0
 10
2.002350099426342
 20
29.60996855014633
 30
0.0
 10
2.000848750519313
 20
29.56166485440348
 30
0.0
 10
2.000000000000002
 20
29.53435755317955
 30
0.0
  0
SPLINE
  5
148
330
1F
100
AcDbEntity
  8
1
  6
SLD-Solid
370
    25
100
AcDbSpline
210
0.0
220
0.0
230
1.0
 70
     8
 71
     3
 72
    16
 73
    12
 74
     0
 42
0.000000001
 43
0.00000001
 40
0.0
 40
0.0
 40
0.0
 40
0.0
 40
0.069654759842765
 40
0.1232208983194373
 40
0.2468399562958367
 40
0.3703627862934663
 40
0.4952161517876317
 40
0.623438487169581
 40
0.7461820926635302
 40
0.8739229023806453
 40
1.0
 40
1.0
 40
1.0
 40
1.0
 10
2.00000000000004
 20
-29.53435755317959
 30
0.0
 10
2.00084286643688
 20
-29.56156987711447
 30
0.0
 10
2.002333916865423
 20
-29.60970911423453
 30
0.0
 10
2.017248272124556
 20
-29.70510606613461
 30
0.0
 10
2.050685869312866
 20
-29.81851901498469
 30
0.0
 10
2.118645701708928
 20
-29.94827808213156
 30
0.0
 10
2.211620958703016
 20
-30.06408481151534
 30
0.0
 10
2.325702075018115
 20
-30.15941548360138
 30
0.0
 10
2.457375913633847
 20
-30.23056092789916
 30
0.0
 10
2.600025422602889
 20
-30.27643603810543
 30
0.0
 10
2.700227407077621
 20
-30.28222812557303
 30
0.0
 10
2.750000000000003
 20
-30.28510518647363
 30
0.0
  0
SPLINE
  5
149
330
1F
100
AcDbEntity
  8
1
  6
SLD-Solid
370
    25
100
AcDbSpline
210
0.0
220
0.0
230
1.0
 70
     8
 71
     3
 72
    10
 73
     6
 74
     0
 42
0.000000001
 43
0.00000001
 40
0.0
 40
0.0
 40
0.0
 40
0.0
 40
0.5
 40
0.5
 40
1.0
 40
1.0
 40
1.0
 40
1.0
 10
19.09999999999999
 20
26.13585634682924
 30
0.0
 10
19.49568963348792
 20
26.90270024941194
 30
0.0
 10
19.88420462171461
 20
27.65781410725753
 30
0.0
 10
20.64456767747194
 20
29.13870291691159
 30
0.0
 10
21.01652879891046
 20
29.86470743343799
 30
0.0
 10
21.37719856678902
 20
30.56976977530607
 30
0.0
  0
SPLINE
  5
14A
330
1F
100
AcDbEntity
  8
1
  6
SLD-Solid
370
    25
100
AcDbSpline
210
0.0
220
0.0
230
1.0
 70
     8
 71
     3
 72
    10
 73
     6
 74
     0
 42
0.000000001
 43
0.00000001
 40
0.0
 40
0.0
 40
0.0
 40
0.0
 40
0.5
 40
0.5
 40
1.0
 40
1.0
 40
1.0
 40
1.0
 10
19.09999999999999
 20
-26.13585634682924
 30
0.0
 10
19.49569013803615
 20
-26.90270122638436
 30
0.0
 10
19.88420539644101
 20
-27.65781561226856
 30
0.0
 10
20.64456847787065
 20
-29.13870447464331
 30
0.0
 10
21.01652935547277
 20
-29.86470851731923
 30
0.0
 10
21.37719856967624
 20
-30.56976977604394
 30
0.0
  0
SPLINE
  5
14B
330
1F
100
AcDbEntity
  8
1
  6
SLD-Solid
370
    25
100
AcDbSpline
210
0.0
220
0.0
230
1.0
 70
     8
 71
     3
 72
     8
 73
     4
 74
     0
 42
0.000000001
 43
0.00000001
 40
0.0
 40
0.0
 40
0.0
 40
0.0
 40
0.0006580774610835
 40
0.0006580774610835
 40
0.0006580774610835
 40
0.0006580774610835
 10
11.85425903357669
 20
29.92428064915766
 30
0.0
 10
11.76317881805253
 20
30.04464915920003
 30
0.0
 10
11.67175324177072
 20
30.16492278839551
 30
0.0
 10
11.57999999999998
 20
30.28510518647365
 30
0.0
  0
SPLINE
  5
14C
330
1F
100
AcDbEntity
  8
1
  6
SLD-Solid
370
    25
100
AcDbSpline
210
0.0
220
0.0
230
1.0
 70
     8
 71
     3
 72
     8
 73
     4
 74
     0
 42
0.000000001
 43
0.00000001
 40
0.0
 40
0.0
 40
0.0
 40
0.0
 40
1.0
 40
1.0
 40
1.0
 40
1.0
 10
11.85425903357669
 20
29.92428064915766
 30
0.0
 10
12.60586728865155
 20
28.57566484509086
 30
0.0
 10
13.35490602558602
 20
27.22557490650154
 30
0.0
 10
14.1
 20
25.87334462303038
 30
0.0
  0
SPLINE
  5
14D
330
1F
100
AcDbEntity
  8
1
  6
SLD-Solid
370
    25
100
AcDbSpline
210
0.0
220
0.0
230
1.0
 70
     8
 71
     3
 72
     8
 73
     4
 74
     0
 42
0.000000001
 43
0.00000001
 40
0.0
 40
0.0
 40
0.0
 40
0.0
 40
1.0
 40
1.0
 40
1.0
 40
1.0
 10
11.85425903357669
 20
-29.92428064915762
 30
0.0
 10
12.60589504630892
 20
-28.57561503933748
 30
0.0
 10
13.35492445838159
 20
-27.22554145382943
 30
0.0
 10
14.1
 20
-25.87334462303036
 30
0.0
  0
SPLINE
  5
14E
330
1F
100
AcDbEntity
  8
1
  6
SLD-Solid
370
    25
100
AcDbSpline
210
0.0
220
0.0
230
1.0
 70
     8
 71
     3
 72
     8
 73
     4
 74
     0
 42
0.000000001
 43
0.00000001
 40
0.0
 40
0.0
 40
0.0
 40
0.0
 40
0.0006580774610835
 40
0.0006580774610835
 40
0.0006580774610835
 40
0.0006580774610835
 10
11.57999999999998
 20
-30.28510518647363
 30
0.0
 10
11.67175324177072
 20
-30.16492278839549
 30
0.0
 10
11.76317881805253
 20
-30.04464915920001
 30
0.0
 10
11.85425903357669
 20
-29.92428064915762
 30
0.0
  0
SPLINE
  5
14F
330
1F
100
AcDbEntity
  8
1
  6
SLD-Solid
370
    25
100
AcDbSpline
210
0.0
220
0.0
230
1.0
 70
     8
 71
     3
 72
    12
 73
     8
 74
     0
 42
0.000000001
 43
0.00000001
 40
0.0
 40
0.0
 40
0.0
 40
0.0
 40
0.4999999999999993
 40
0.4999999999999993
 40
0.7499999999999997
 40
0.7499999999999997
 40
1.0
 40
1.0
 40
1.0
 40
1.0
 10
18.72499999999996
 20
25.45080303251747
 30
0.0
 10
18.82551825775715
 20
25.46391541311022
 30
0.0
 10
18.91735913082587
 20
25.51717207066938
 30
0.0
 10
19.02076349175201
 20
25.63605233185315
 30
0.0
 10
19.04869102209869
 20
25.68119742214313
 30
0.0
 10
19.08877066590449
 20
25.78234844571521
 30
0.0
 10
19.09999999999939
 20
25.8370982383804
 30
0.0
 10
19.09999999999999
 20
25.89188338070006
 30
0.0
  0
SPLINE
  5
150
330
1F
100
AcDbEntity
  8
1
  6
SLD-Solid
370
    25
100
AcDbSpline
210
0.0
220
0.0
230
1.0
 70
     8
 71
     3
 72
    14
 73
    10
 74
     0
 42
0.000000001
 43
0.00000001
 40
0.0
 40
0.0
 40
0.0
 40
0.0
 40
0.25
 40
0.25
 40
0.5
 40
0.5
 40
0.75
 40
0.75
 40
1.0
 40
1.0
 40
1.0
 40
1.0
 10
18.725
 20
-19.11109010278433
 30
0.0
 10
18.78913410191538
 20
-19.18286836630554
 30
0.0
 10
18.84413252549887
 20
-19.26728231143424
 30
0.0
 10
18.93848187992473
 20
-19.45052821639274
 30
0.0
 10
18.97747348753065
 20
-19.54941445107774
 30
0.0
 10
19.03886935785167
 20
-19.75147897328954
 30
0.0
 10
19.06167311461867
 20
-19.85552182444329
 30
0.0
 10
19.09228066642025
 20
-20.06744889830235
 30
0.0
 10
19.10000000000948
 20
-20.17616183904754
 30
0.0
 10
19.10000000001043
 20
-20.28281996849741
 30
0.0
  0
SPLINE
  5
151
330
1F
100
AcDbEntity
  8
1
  6
SLD-Solid
370
    25
100
AcDbSpline
210
0.0
220
0.0
230
1.0
 70
     8
 71
     3
 72
    10
 73
     6
 74
     0
 42
0.000000001
 43
0.00000001
 40
0.0
 40
0.0
 40
0.0
 40
0.0
 40
0.5
 40
0.5
 40
1.0
 40
1.0
 40
1.0
 40
1.0
 10
14.1
 20
25.62687261450371
 30
0.0
 10
14.1
 20
25.52615414234215
 30
0.0
 10
14.13833775894856
 20
25.42560543058239
 30
0.0
 10
14.27459772642586
 20
25.27886420189905
 30
0.0
 10
14.37375021474617
 20
25.23333063628344
 30
0.0
 10
14.475
 20
25.23333063628344
 30
0.0
  0
SPLINE
  5
152
330
1F
100
AcDbEntity
  8
1
  6
SLD-Solid
370
    25
100
AcDbSpline
210
0.0
220
0.0
230
1.0
 70
     8
 71
     3
 72
    12
 73
     8
 74
     0
 42
0.000000001
 43
0.00000001
 40
0.0
 40
0.0
 40
0.0
 40
0.0
 40
0.4999999999999982
 40
0.4999999999999982
 40
0.7499999999999991
 40
0.7499999999999991
 40
1.0
 40
1.0
 40
1.0
 40
1.0
 10
14.1
 20
-20.28281996848702
 30
0.0
 10
14.1
 20
-20.06968462960823
 30
0.0
 10
14.1298307559949
 20
-19.85476891465507
 30
0.0
 10
14.22250450681634
 20
-19.54934931950394
 30
0.0
 10
14.2613069078494
 20
-19.45110214871113
 30
0.0
 10
14.35507688503276
 20
-19.26865582352473
 30
0.0
 10
14.4107107336534
 20
-19.18304202481642
 30
0.0
 10
14.475
 20
-19.11109010277064
 30
0.0
  0
SPLINE
  5
153
330
1F
100
AcDbEntity
  8
1
  6
SLD-Solid
370
    25
100
AcDbSpline
210
0.0
220
0.0
230
1.0
 70
     8
 71
     3
 72
    10
 73
     6
 74
     0
 42
0.000000001
 43
0.00000001
 40
0.0
 40
0.0
 40
0.0
 40
0.0
 40
0.5000000000000001
 40
0.5000000000000001
 40
1.0
 40
1.0
 40
1.0
 40
1.0
 10
15.405
 20
25.23333063628343
 30
0.0
 10
15.98112657985153
 20
25.23333063628343
 30
0.0
 10
16.54624836374907
 20
25.25306180193078
 30
0.0
 10
17.65561942498761
 20
25.32745487293397
 30
0.0
 10
18.20339005803118
 20
25.38276018903139
 30
0.0
 10
18.72499999999996
 20
25.45080303251747
 30
0.0
  0
SPLINE
  5
154
330
1F
100
AcDbEntity
  8
1
  6
SLD-Solid
370
    25
100
AcDbSpline
210
0.0
220
0.0
230
1.0
 70
     8
 71
     3
 72
    22
 73
    18
 74
     0
 42
0.000000001
 43
0.00000001
 40
0.0
 40
0.0
 40
0.0
 40
0.0
 40
0.125
 40
0.125
 40
0.25
 40
0.25
 40
0.375
 40
0.375
 40
0.5
 40
0.5
 40
0.625
 40
0.625
 40
0.75
 40
0.75
 40
0.875
 40
0.875
 40
1.0
 40
1.0
 40
1.0
 40
1.0
 10
14.47500000000002
 20
-19.11109010277064
 30
0.0
 10
14.58755452000714
 20
-18.98512017793525
 30
0.0
 10
14.72057017762431
 20
-18.87033159566813
 30
0.0
 10
15.02625830847537
 20
-18.66374742988476
 30
0.0
 10
15.19958533737798
 20
-18.57247925345186
 30
0.0
 10
15.56764035837793
 20
-18.42520786830749
 30
0.0
 10
15.76762481138216
 20
-18.36713740846267
 30
0.0
 10
16.17700135147124
 20
-18.29012462897987
 30
0.0
 10
16.38648940172947
 20
-18.27044384126226
 30
0.0
 10
16.81398615444074
 20
-18.27047342435822
 30
0.0
 10
17.02320646851266
 20
-18.29014097660989
 30
0.0
 10
17.4328665562434
 20
-18.36725263234635
 30
0.0
 10
17.63262849602645
 20
-18.42529301011385
 30
0.0
 10
18.00072386469437
 20
-18.5726254470583
 30
0.0
 10
18.17423071680414
 20
-18.66404715163156
 30
0.0
 10
18.47949931288748
 20
-18.87040937547312
 30
0.0
 10
18.612445340549
 20
-18.98512002188302
 30
0.0
 10
18.72500000000002
 20
-19.11109010278433
 30
0.0
  0
SPLINE
  5
155
330
1F
100
AcDbEntity
  8
1
  6
SLD-Solid
370
    25
100
AcDbSpline
210
0.0
220
0.0
230
1.0
 70
     8
 71
     3
 72
    12
 73
     8
 74
     0
 42
0.000000001
 43
0.00000001
 40
0.0
 40
0.0
 40
0.0
 40
0.0
 40
0.5000000000000009
 40
0.5000000000000009
 40
0.7500000000000004
 40
0.7500000000000004
 40
1.0
 40
1.0
 40
1.0
 40
1.0
 10
19.10000000001043
 20
-20.28281996849741
 30
0.0
 10
19.10000000001043
 20
-20.36453248622648
 30
0.0
 10
19.07016924401553
 20
-20.44349537408152
 30
0.0
 10
18.97749549319407
 20
-20.57480005488206
 30
0.0
 10
18.93869309216104
 20
-20.6204976716749
 30
0.0
 10
18.84492311497766
 20
-20.72036595667851
 30
0.0
 10
18.78928926635701
 20
-20.77493196575374
 30
0.0
 10
18.7250000000104
 20
-20.83909279550019
 30
0.0
  0
SPLINE
  5
156
330
1F
100
AcDbEntity
  8
1
  6
SLD-Solid
370
    25
100
AcDbSpline
210
0.0
220
0.0
230
1.0
 70
     8
 71
     3
 72
    22
 73
    18
 74
     0
 42
0.000000001
 43
0.00000001
 40
0.0
 40
0.0
 40
0.0
 40
0.0
 40
0.1250000000000002
 40
0.1250000000000002
 40
0.2500000000000004
 40
0.2500000000000004
 40
0.3750000000000003
 40
0.3750000000000003
 40
0.5000000000000001
 40
0.5000000000000001
 40
0.6249999999999999
 40
0.6249999999999999
 40
0.7499999999999997
 40
0.7499999999999997
 40
0.8749999999999999
 40
0.8749999999999999
 40
1.0
 40
1.0
 40
1.0
 40
1.0
 10
18.7250000000104
 20
-20.83909279550019
 30
0.0
 10
18.61244548000413
 20
-20.9514224549551
 30
0.0
 10
18.47942982238798
 20
-21.05113708314771
 30
0.0
 10
18.17374169153906
 20
-21.2275881447528
 30
0.0
 10
18.00041466263759
 20
-21.30383158011352
 30
0.0
 10
17.63235964163991
 20
-21.425515416958
 30
0.0
 10
17.43237518863691
 20
-21.4726931968648
 30
0.0
 10
17.02299864854985
 20
-21.53500831014357
 30
0.0
 10
16.81351059829295
 20
-21.5507656465733
 30
0.0
 10
16.386013845583
 20
-21.55074187928529
 30
0.0
 10
16.17679353151166
 20
-21.53499533379076
 30
0.0
 10
15.76713344378192
 20
-21.47259971132974
 30
0.0
 10
15.56737150399887
 20
-21.42544593473218
 30
0.0
 10
15.19927613533075
 20
-21.30370991877402
 30
0.0
 10
15.02576928322061
 20
-21.22733420760396
 30
0.0
 10
14.72050068713564
 20
-21.05106857872164
 30
0.0
 10
14.58755465946141
 20
-20.95142259412122
 30
0.0
 10
14.4750000000104
 20
-20.83909279550015
 30
0.0
  0
SPLINE
  5
157
330
1F
100
AcDbEntity
  8
1
  6
SLD-Solid
370
    25
100
AcDbSpline
210
0.0
220
0.0
230
1.0
 70
     8
 71
     3
 72
    14
 73
    10
 74
     0
 42
0.000000001
 43
0.00000001
 40
0.0
 40
0.0
 40
0.0
 40
0.0
 40
0.25
 40
0.25
 40
0.5
 40
0.5
 40
0.75
 40
0.75
 40
1.0
 40
1.0
 40
1.0
 40
1.0
 10
14.4750000000104
 20
-20.83909279550015
 30
0.0
 10
14.41077522372121
 20
-20.77499632697318
 30
0.0
 10
14.35571159543772
 20
-20.72102365379314
 30
0.0
 10
14.26127391427409
 20
-20.62048070763048
 30
0.0
 10
14.22228084311758
 20
-20.57448000865945
 30
0.0
 10
14.16097772087273
 20
-20.48762905680369
 30
0.0
 10
14.1382470352356
 20
-20.4464286696015
 30
0.0
 10
14.10773847870409
 20
-20.36469593660778
 30
0.0
 10
14.1
 20
-20.32376872066668
 30
0.0
 10
14.1
 20
-20.28281996848702
 30
0.0
  0
SPLINE
  5
158
330
1F
100
AcDbEntity
  8
1
  6
SLD-Solid
370
    25
100
AcDbSpline
210
0.0
220
0.0
230
1.0
 70
     8
 71
     3
 72
    26
 73
    22
 74
     0
 42
0.000000001
 43
0.00000001
 40
0.0
 40
0.0
 40
0.0
 40
0.0
 40
0.0354993573293575
 40
0.0766643513696515
 40
0.1189340092381858
 40
0.1619980168736019
 40
0.2060433989997753
 40
0.2548732312771616
 40
0.3047950555467052
 40
0.3605074996771992
 40
0.4176040817462884
 40
0.4777191723284767
 40
0.539517017775929
 40
0.6006545766275018
 40
0.6635819782609692
 40
0.7243131992284024
 40
0.7870221652246921
 40
0.8439086116790973
 40
0.9030502719445739
 40
0.9514328505827813
 40
1.0
 40
1.0
 40
1.0
 40
1.0
 10
40.53597001977846
 20
17.99647949364126
 30
0.0
 10
40.5331157295555
 20
17.99575133332432
 30
0.0
 10
40.5269516092721
 20
17.99417879954933
 30
0.0
 10
40.36001946069871
 20
17.95256598849788
 30
0.0
 10
40.08504076099888
 20
17.88632372933995
 30
0.0
 10
39.69414743279777
 20
17.79699905308844
 30
0.0
 10
39.18794526551294
 20
17.68993174437335
 30
0.0
 10
38.56505136212422
 20
17.57188637382516
 30
0.0
 10
37.80760324115914
 20
17.44949749075619
 30
0.0
 10
36.93565156663917
 20
17.33819088495392
 30
0.0
 10
35.94980801222712
 20
17.25227035068497
 30
0.0
 10
34.89121860181356
 20
17.20786027777968
 30
0.0
 10
33.79765365324516
 20
17.215365260296
 30
0.0
 10
32.70721026758165
 20
17.27620126011167
 30
0.0
 10
31.67322804037827
 20
17.38258911379431
 30
0.0
 10
30.71281219127184
 20
17.52239205343711
 30
0.0
 10
29.89416844797017
 20
17.6720751133996
 30
0.0
 10
29.22356031211368
 20
17.81439754496759
 30
0.0
 10
28.77032759660758
 20
17.92053814821804
 30
0.0
 10
28.49763035192607
 20
17.98794330825491
 30
0.0
 10
28.46781858407076
 20
17.99549538769644
 30
0.0
 10
28.45288432264621
 20
17.99927861615932
 30
0.0
  0
SPLINE
  5
159
330
1F
100
AcDbEntity
  8
1
  6
SLD-Solid
370
    25
100
AcDbSpline
210
0.0
220
0.0
230
1.0
 70
     8
 71
     3
 72
    26
 73
    22
 74
     0
 42
0.000000001
 43
0.00000001
 40
0.0
 40
0.0
 40
0.0
 40
0.0
 40
0.0354993573293571
 40
0.0766643513696511
 40
0.1189340092381855
 40
0.1619980168736015
 40
0.2060433989997748
 40
0.2548732312771612
 40
0.3047950555467048
 40
0.3605074996771988
 40
0.4176040817462885
 40
0.4777191723284764
 40
0.5395170177759283
 40
0.6006545766275011
 40
0.663581978260969
 40
0.7243131992284019
 40
0.7870221652246916
 40
0.8439086116790968
 40
0.9030502719445734
 40
0.9514328505827808
 40
1.0
 40
1.0
 40
1.0
 40
1.0
 10
61.5359700197785
 20
17.99647949364126
 30
0.0
 10
61.53311572955554
 20
17.99575133332432
 30
0.0
 10
61.52695160927206
 20
17.99417879954933
 30
0.0
 10
61.3600194606987
 20
17.95256598849788
 30
0.0
 10
61.08504076099887
 20
17.88632372933995
 30
0.0
 10
60.69414743279778
 20
17.79699905308846
 30
0.0
 10
60.18794526551298
 20
17.68993174437335
 30
0.0
 10
59.56505136212422
 20
17.57188637382515
 30
0.0
 10
58.80760324115918
 20
17.44949749075621
 30
0.0
 10
57.93565156663917
 20
17.33819088495392
 30
0.0
 10
56.94980801222712
 20
17.25227035068497
 30
0.0
 10
55.89121860181356
 20
17.20786027777967
 30
0.0
 10
54.79765365324517
 20
17.215365260296
 30
0.0
 10
53.70721026758167
 20
17.27620126011167
 30
0.0
 10
52.67322804037826
 20
17.38258911379431
 30
0.0
 10
51.71281219127187
 20
17.52239205343711
 30
0.0
 10
50.89416844797018
 20
17.6720751133996
 30
0.0
 10
50.22356031211371
 20
17.81439754496759
 30
0.0
 10
49.77032759660759
 20
17.92053814821804
 30
0.0
 10
49.49763035192606
 20
17.98794330825491
 30
0.0
 10
49.46781858407076
 20
17.99549538769644
 30
0.0
 10
49.45288432264622
 20
17.99927861615932
 30
0.0
  0
SPLINE
  5
15A
330
1F
100
AcDbEntity
  8
1
  6
SLD-Solid
370
    25
100
AcDbSpline
210
0.0
220
0.0
230
1.0
 70
     8
 71
     3
 72
    12
 73
     8
 74
     0
 42
0.000000001
 43
0.00000001
 40
0.0
 40
0.0
 40
0.0
 40
0.0
 40
0.4999999999999993
 40
0.4999999999999993
 40
0.7499999999999997
 40
0.7499999999999997
 40
1.0
 40
1.0
 40
1.0
 40
1.0
 10
18.72499999999996
 20
-25.45080303251746
 30
0.0
 10
18.82551825775715
 20
-25.46391541311021
 30
0.0
 10
18.91735913082587
 20
-25.51717207066936
 30
0.0
 10
19.02076349175201
 20
-25.63605233185314
 30
0.0
 10
19.04869102209869
 20
-25.68119742214311
 30
0.0
 10
19.08877066590449
 20
-25.7823484457152
 30
0.0
 10
19.09999999999939
 20
-25.8370982383804
 30
0.0
 10
19.09999999999999
 20
-25.89188338070005
 30
0.0
  0
SPLINE
  5
15B
330
1F
100
AcDbEntity
  8
1
  6
SLD-Solid
370
    25
100
AcDbSpline
210
0.0
220
0.0
230
1.0
 70
     8
 71
     3
 72
    10
 73
     6
 74
     0
 42
0.000000001
 43
0.00000001
 40
0.0
 40
0.0
 40
0.0
 40
0.0
 40
0.5
 40
0.5
 40
1.0
 40
1.0
 40
1.0
 40
1.0
 10
14.1
 20
-25.6268726145037
 30
0.0
 10
14.1
 20
-25.52639292124675
 30
0.0
 10
14.13771329602108
 20
-25.42620816819715
 30
0.0
 10
14.27546880503476
 20
-25.27799600369186
 30
0.0
 10
14.37447515822648
 20
-25.23333063628343
 30
0.0
 10
14.47499999999991
 20
-25.23333063628341
 30
0.0
  0
SPLINE
  5
15C
330
1F
100
AcDbEntity
  8
1
  6
SLD-Solid
370
    25
100
AcDbSpline
210
0.0
220
0.0
230
1.0
 70
     8
 71
     3
 72
    10
 73
     6
 74
     0
 42
0.000000001
 43
0.00000001
 40
0.0
 40
0.0
 40
0.0
 40
0.0
 40
0.5000000000000001
 40
0.5000000000000001
 40
1.0
 40
1.0
 40
1.0
 40
1.0
 10
15.40499999999997
 20
-25.23333063628341
 30
0.0
 10
15.98112657985153
 20
-25.23333063628341
 30
0.0
 10
16.54624836374907
 20
-25.25306180193077
 30
0.0
 10
17.65561942498764
 20
-25.32745487293396
 30
0.0
 10
18.20339005803118
 20
-25.38276018903137
 30
0.0
 10
18.72499999999996
 20
-25.45080303251746
 30
0.0
  0
SPLINE
  5
15D
330
1F
100
AcDbEntity
  8
1
  6
SLD-Dashed
370
    18
100
AcDbSpline
210
0.0
220
0.0
230
1.0
 70
     8
 71
     3
 72
    11
 73
     7
 74
     0
 42
0.000000001
 43
0.00000001
 40
0.0
 40
0.0
 40
0.0
 40
0.0
 40
0.2497454879400683
 40
0.500680197705312
 40
0.7498761412045214
 40
1.0
 40
1.0
 40
1.0
 40
1.0
 10
23.87491154751709
 20
-31.47487087289946
 30
0.0
 10
23.84654724789858
 20
-31.46693726037063
 30
0.0
 10
23.789683585384
 20
-31.4510322575527
 30
0.0
 10
23.32869019218629
 20
-31.32767963845232
 30
0.0
 10
22.63003038330721
 20
-31.14982812447774
 30
0.0
 10
21.95709364868084
 20
-31.00429343911923
 30
0.0
 10
21.62000000245158
 20
-30.931390868616
 30
0.0
  0
SPLINE
  5
15E
330
1F
100
AcDbEntity
  8
1
  6
SLD-Dashed
370
    18
100
AcDbSpline
210
0.0
220
0.0
230
1.0
 70
    24
 71
     2
 72
     6
 73
     3
 74
     0
 42
0.000000001
 43
0.00000001
 40
0.0
 40
0.0
 40
0.0
 40
0.4999999999999999
 40
0.4999999999999999
 40
0.4999999999999999
 10
2.000000000000002
 20
22.5
 30
0.0
 10
1.997382192824512
 20
22.50000000000001
 30
0.0
 10
1.997357134050304
 20
22.50000000000001
 30
0.0
  0
SPLINE
  5
15F
330
1F
100
AcDbEntity
  8
1
  6
SLD-Dashed
370
    18
100
AcDbSpline
210
0.0
220
0.0
230
1.0
 70
    24
 71
     3
 72
     8
 73
     4
 74
     0
 42
0.000000001
 43
0.00000001
 40
0.4999999999999999
 40
0.4999999999999999
 40
0.4999999999999999
 40
0.4999999999999999
 40
0.6249999999999999
 40
0.6249999999999999
 40
0.6249999999999999
 40
0.6249999999999999
 10
1.997357134050304
 20
22.50000000000001
 30
0.0
 10
1.997350869356748
 20
22.50000000000001
 30
0.0
 10
1.997459903751261
 20
22.50000000000001
 30
0.0
 10
1.997664470276814
 20
22.50000000000001
 30
0.0
  0
SPLINE
  5
160
330
1F
100
AcDbEntity
  8
1
  6
SLD-Dashed
370
    18
100
AcDbSpline
210
0.0
220
0.0
230
1.0
 70
    24
 71
     3
 72
     8
 73
     4
 74
     0
 42
0.000000001
 43
0.00000001
 40
0.6249999999999999
 40
0.6249999999999999
 40
0.6249999999999999
 40
0.6249999999999999
 40
0.7499999999999998
 40
0.7499999999999998
 40
0.7499999999999998
 40
0.7499999999999998
 10
1.997664470276814
 20
22.50000000000001
 30
0.0
 10
1.997869036802366
 20
22.50000000000002
 30
0.0
 10
1.998168915110829
 20
22.50000000000001
 30
0.0
 10
1.998501079157083
 20
22.50000000000001
 30
0.0
  0
SPLINE
  5
161
330
1F
100
AcDbEntity
  8
1
  6
SLD-Dashed
370
    18
100
AcDbSpline
210
0.0
220
0.0
230
1.0
 70
    24
 71
     2
 72
     6
 73
     3
 74
     0
 42
0.000000001
 43
0.00000001
 40
0.7499999999999998
 40
0.7499999999999998
 40
0.7499999999999998
 40
1.0
 40
1.0
 40
1.0
 10
1.998501079157083
 20
22.50000000000001
 30
0.0
 10
1.999165407249537
 20
22.50000000000001
 30
0.0
 10
2.000000000000002
 20
22.5
 30
0.0
  0
SPLINE
  5
162
330
1F
100
AcDbEntity
  8
SK3
  6
SLD-Dashed
370
    18
100
AcDbSpline
210
0.0
220
0.0
230
1.0
 70
    24
 71
     2
 72
     6
 73
     3
 74
     0
 42
0.000000001
 43
0.00000001
 40
0.0
 40
0.0
 40
0.0
 40
0.4999999999999999
 40
0.4999999999999999
 40
0.4999999999999999
 10
2.000000000000002
 20
-22.49999999999998
 30
0.0
 10
1.997382192824512
 20
-22.49999999999999
 30
0.0
 10
1.997357134050304
 20
-22.49999999999999
 30
0.0
  0
SPLINE
  5
163
330
1F
100
AcDbEntity
  8
SK3
  6
SLD-Dashed
370
    18
100
AcDbSpline
210
0.0
220
0.0
230
1.0
 70
    24
 71
     3
 72
     8
 73
     4
 74
     0
 42
0.000000001
 43
0.00000001
 40
0.4999999999999999
 40
0.4999999999999999
 40
0.4999999999999999
 40
0.4999999999999999
 40
0.6249999999999999
 40
0.6249999999999999
 40
0.6249999999999999
 40
0.6249999999999999
 10
1.997357134050304
 20
-22.49999999999999
 30
0.0
 10
1.997350869356748
 20
-22.49999999999999
 30
0.0
 10
1.997459903751261
 20
-22.49999999999999
 30
0.0
 10
1.997664470276814
 20
-22.49999999999999
 30
0.0
  0
SPLINE
  5
164
330
1F
100
AcDbEntity
  8
SK3
  6
SLD-Dashed
370
    18
100
AcDbSpline
210
0.0
220
0.0
230
1.0
 70
    24
 71
     3
 72
     8
 73
     4
 74
     0
 42
0.000000001
 43
0.00000001
 40
0.6249999999999999
 40
0.6249999999999999
 40
0.6249999999999999
 40
0.6249999999999999
 40
0.7499999999999998
 40
0.7499999999999998
 40
0.7499999999999998
 40
0.7499999999999998
 10
1.997664470276814
 20
-22.49999999999999
 30
0.0
 10
1.997869036802366
 20
-22.49999999999999
 30
0.0
 10
1.998168915110829
 20
-22.49999999999998
 30
0.0
 10
1.998501079157083
 20
-22.49999999999999
 30
0.0
  0
SPLINE
  5
165
330
1F
100
AcDbEntity
  8
SK3
  6
SLD-Dashed
370
    18
100
AcDbSpline
210
0.0
220
0.0
230
1.0
 70
    24
 71
     2
 72
     6
 73
     3
 74
     0
 42
0.000000001
 43
0.00000001
 40
0.7499999999999998
 40
0.7499999999999998
 40
0.7499999999999998
 40
1.0
 40
1.0
 40
1.0
 10
1.998501079157083
 20
-22.49999999999999
 30
0.0
 10
1.999165407249537
 20
-22.49999999999998
 30
0.0
 10
2.000000000000002
 20
-22.49999999999998
 30
0.0
  0
SPLINE
  5
166
330
1F
100
AcDbEntity
  8
SK3
  6
SLD-Dashed
370
    18
100
AcDbSpline
210
0.0
220
0.0
230
1.0
 70
     8
 71
     3
 72
    32
 73
    28
 74
     0
 42
0.000000001
 43
0.00000001
 40
0.4999999999999987
 40
0.4999999999999987
 40
0.4999999999999987
 40
0.4999999999999987
 40
0.5624999999999991
 40
0.5624999999999991
 40
0.593749999999999
 40
0.593749999999999
 40
0.624999999999999
 40
0.624999999999999
 40
0.687499999999999
 40
0.687499999999999
 40
0.718749999999999
 40
0.718749999999999
 40
0.7499999999999991
 40
0.7499999999999991
 40
0.7812499999999991
 40
0.7812499999999991
 40
0.8124999999999992
 40
0.8124999999999992
 40
0.8749999999999992
 40
0.8749999999999992
 40
0.9062499999999993
 40
0.9062499999999993
 40
0.9374999999999996
 40
0.9374999999999996
 40
0.9687499999999997
 40
0.9687499999999997
 40
1.0
 40
1.0
 40
1.0
 40
1.0
 10
8.99931461685409
 20
-0.063809794802111
 30
0.0
 10
9.215692748950149
 20
-0.0637145888094034
 30
0.0
 10
9.434142880157829
 20
-0.1102005975929937
 30
0.0
 10
9.732721398365216
 20
-0.2403769293620739
 30
0.0
 10
9.829205596617498
 20
-0.2944938494407572
 30
0.0
 10
10.00738437602439
 20
-0.418290977091531
 30
0.0
 10
10.09002546681367
 20
-0.4882181728011574
 30
0.0
 10
10.3187033925006
 20
-0.7216917961019933
 30
0.0
 10
10.43969010118176
 20
-0.9029705474205945
 30
0.0
 10
10.56501780712341
 20
-1.198989528052381
 30
0.0
 10
10.59644007044162
 20
-1.299353408348355
 30
0.0
 10
10.63897504205767
 20
-1.503119164360259
 30
0.0
 10
10.64999086428844
 20
-1.607791869896249
 30
0.0
 10
10.65000912407896
 20
-1.812149189288535
 30
0.0
 10
10.63937402207825
 20
-1.912119289449052
 30
0.0
 10
10.59682237019836
 20
-2.107778512687037
 30
0.0
 10
10.5647054248682
 20
-2.202992431261607
 30
0.0
 10
10.44062231522759
 20
-2.470130071118421
 30
0.0
 10
10.31800633514496
 20
-2.629504822633254
 30
0.0
 10
10.09115142711203
 20
-2.824074953769639
 30
0.0
 10
10.00691723344729
 20
-2.8827991871638
 30
0.0
 10
9.828574572517706
 20
-2.983321714878501
 30
0.0
 10
9.734262327991447
 20
-3.025580251938054
 30
0.0
 10
9.534929700394823
 20
-3.09453931328723
 30
0.0
 10
9.429696696609174
 20
-3.121008652787523
 30
0.0
 10
9.217752230621393
 20
-3.155898014973759
 30
0.0
 10
9.109842844019903
 20
-3.164795292611902
 30
0.0
 10
8.999999999999995
 20
-3.164795292611902
 30
0.0
  0
SPLINE
  5
167
330
1F
100
AcDbEntity
  8
SK3
  6
SLD-Dashed
370
    18
100
AcDbSpline
210
0.0
220
0.0
230
1.0
 70
     8
 71
     3
 72
    34
 73
    30
 74
     0
 42
0.000000001
 43
0.00000001
 40
0.0
 40
0.0
 40
0.0
 40
0.0
 40
0.0312499999999998
 40
0.0312499999999998
 40
0.0624999999999997
 40
0.0624999999999997
 40
0.0937499999999995
 40
0.0937499999999995
 40
0.1249999999999993
 40
0.1249999999999993
 40
0.187499999999999
 40
0.187499999999999
 40
0.2187499999999989
 40
0.2187499999999989
 40
0.2499999999999989
 40
0.2499999999999989
 40
0.2812499999999988
 40
0.2812499999999988
 40
0.3124999999999988
 40
0.3124999999999988
 40
0.3749999999999987
 40
0.3749999999999987
 40
0.4062499999999987
 40
0.4062499999999987
 40
0.4374999999999987
 40
0.4374999999999987
 40
0.4687499999999987
 40
0.4687499999999987
 40
0.4999999999999987
 40
0.4999999999999987
 40
0.4999999999999987
 40
0.4999999999999987
 10
8.999999999999995
 20
-3.164795292611902
 30
0.0
 10
8.890157155980086
 20
-3.164795292611902
 30
0.0
 10
8.782316381021158
 20
-3.155904092189334
 30
0.0
 10
8.570419709579932
 20
-3.12103302783696
 30
0.0
 10
8.465239577596776
 20
-3.094588705749971
 30
0.0
 10
8.265849678228646
 20
-3.025628156735651
 30
0.0
 10
8.171404967557583
 20
-2.983328453868027
 30
0.0
 10
7.992660120720224
 20
-2.882542647044659
 30
0.0
 10
7.908694156622404
 20
-2.823948271080002
 30
0.0
 10
7.682154372458464
 20
-2.629631137783181
 30
0.0
 10
7.55947698965033
 20
-2.470160421179757
 30
0.0
 10
7.435578774888346
 20
-2.203695633854367
 30
0.0
 10
7.403452756869141
 20
-2.108727247931569
 30
0.0
 10
7.360740989390338
 20
-1.912961592150143
 30
0.0
 10
7.350072364745983
 20
-1.813073215143405
 30
0.0
 10
7.349928361942718
 20
-1.609186072572145
 30
0.0
 10
7.360831361723178
 20
-1.504401102705572
 30
0.0
 10
7.403311200365915
 20
-1.300194116426796
 30
0.0
 10
7.434734146631775
 20
-1.199687678545672
 30
0.0
 10
7.560010383075133
 20
-0.903454506598067
 30
0.0
 10
7.681680508132393
 20
-0.7213228258413986
 30
0.0
 10
7.909647234315226
 20
-0.4885408551656666
 30
0.0
 10
7.992132891689888
 20
-0.4186734887185115
 30
0.0
 10
8.17028380534654
 20
-0.2948017573576045
 30
0.0
 10
8.266771311100054
 20
-0.240657105339652
 30
0.0
 10
8.46534694865994
 20
-0.1539631561283464
 30
0.0
 10
8.568253224266243
 20
-0.1206690588499287
 30
0.0
 10
8.781705655074495
 20
-0.0753534708469103
 30
0.0
 10
8.891125550806066
 20
-0.0638573977984613
 30
0.0
 10
8.99931461685409
 20
-0.063809794802111
 30
0.0
  0
SPLINE
  5
168
330
1F
100
AcDbEntity
  8
SK3
  6
SLD-Dashed
370
    18
100
AcDbSpline
210
0.0
220
0.0
230
1.0
 70
    24
 71
     3
 72
     8
 73
     4
 74
     0
 42
0.000000001
 43
0.00000001
 40
0.0
 40
0.0
 40
0.0
 40
0.0
 40
0.5
 40
0.5
 40
0.5
 40
0.5
 10
2.000000000000002
 20
22.5
 30
0.0
 10
2.083477230592448
 20
22.50000000004504
 30
0.0
 10
2.165250237669225
 20
22.50000000008916
 30
0.0
 10
2.237167806898754
 20
22.50000000012798
 30
0.0
  0
SPLINE
  5
169
330
1F
100
AcDbEntity
  8
SK3
  6
SLD-Dashed
370
    18
100
AcDbSpline
210
0.0
220
0.0
230
1.0
 70
    24
 71
     3
 72
     8
 73
     4
 74
     0
 42
0.000000001
 43
0.00000001
 40
0.5
 40
0.5
 40
0.5
 40
0.5
 40
0.75
 40
0.75
 40
0.75
 40
0.75
 10
2.237167806898754
 20
22.50000000012798
 30
0.0
 10
2.273126591513519
 20
22.50000000014775
 30
0.0
 10
2.306332390229787
 20
22.50000000016601
 30
0.0
 10
2.33212347818193
 20
22.50000000018021
 30
0.0
  0
SPLINE
  5
16A
330
1F
100
AcDbEntity
  8
SK3
  6
SLD-Dashed
370
    18
100
AcDbSpline
210
0.0
220
0.0
230
1.0
 70
    24
 71
     2
 72
     6
 73
     3
 74
     0
 42
0.000000001
 43
0.00000001
 40
0.75
 40
0.75
 40
0.75
 40
1.0
 40
1.0
 40
1.0
 10
2.332123478181916
 20
22.50000000018021
 30
0.0
 10
2.357914566134059
 20
22.50000000019547
 30
0.0
 10
2.374999999999988
 20
22.50000000020558
 30
0.0
  0
SPLINE
  5
16B
330
1F
100
AcDbEntity
  8
SK3
  6
SLD-Dashed
370
    18
100
AcDbSpline
210
0.0
220
0.0
230
1.0
 70
    24
 71
     2
 72
     6
 73
     3
 74
     0
 42
0.000000001
 43
0.00000001
 40
0.0
 40
0.0
 40
0.0
 40
0.2500000000000007
 40
0.2500000000000007
 40
0.2500000000000007
 10
2.375000000000002
 20
-22.49999999999996
 30
0.0
 10
2.357424479332904
 20
-22.49999999999998
 30
0.0
 10
2.331652105107218
 20
-22.49999999999999
 30
0.0
  0
SPLINE
  5
16C
330
1F
100
AcDbEntity
  8
SK3
  6
SLD-Dashed
370
    18
100
AcDbSpline
210
0.0
220
0.0
230
1.0
 70
    24
 71
     3
 72
     8
 73
     4
 74
     0
 42
0.000000001
 43
0.00000001
 40
0.2500000000000007
 40
0.2500000000000007
 40
0.2500000000000007
 40
0.2500000000000007
 40
0.5000000000000014
 40
0.5000000000000014
 40
0.5000000000000014
 40
0.5000000000000014
 10
2.331652105107218
 20
-22.49999999999999
 30
0.0
 10
2.305879730881546
 20
-22.49999999999999
 30
0.0
 10
2.272790772310282
 20
-22.49999999999999
 30
0.0
 10
2.236965951746439
 20
-22.49999999999999
 30
0.0
  0
SPLINE
  5
16D
330
1F
100
AcDbEntity
  8
SK3
  6
SLD-Dashed
370
    18
100
AcDbSpline
210
0.0
220
0.0
230
1.0
 70
    24
 71
     3
 72
     8
 73
     4
 74
     0
 42
0.000000001
 43
0.00000001
 40
0.5000000000000014
 40
0.5000000000000014
 40
0.5000000000000014
 40
0.5000000000000014
 40
1.0
 40
1.0
 40
1.0
 40
1.0
 10
2.236965951746439
 20
-22.49999999999999
 30
0.0
 10
2.165316310618726
 20
-22.49999999999999
 30
0.0
 10
2.083397657057298
 20
-22.49999999999999
 30
0.0
 10
2.000000000000002
 20
-22.49999999999998
 30
0.0
  0
SPLINE
  5
16E
330
1F
100
AcDbEntity
  8
SK3
  6
SLD-Dashed
370
    18
100
AcDbSpline
210
0.0
220
0.0
230
1.0
 70
     8
 71
     3
 72
    33
 73
    29
 74
     0
 42
0.000000001
 43
0.00000001
 40
0.0
 40
0.0
 40
0.0
 40
0.0
 40
0.0252074824815531
 40
0.0503579512879945
 40
0.1006534270886812
 40
0.1499358844483599
 40
0.1865967979878405
 40
0.2121849653061234
 40
0.2505508094801757
 40
0.2790356761955189
 40
0.3220357786263523
 40
0.3758118528652061
 40
0.4042895816645225
 40
0.446901808487966
 40
0.5002394139146317
 40
0.5288518672268696
 40
0.5719843088306618
 40
0.6254852111034892
 40
0.6539060878876413
 40
0.6965245109396081
 40
0.7500237094317349
 40
0.7787622199762757
 40
0.8217598195003191
 40
0.8751426117198162
 40
0.9000107283364286
 40
0.9373541614063076
 40
0.9685886636354853
 40
1.0
 40
1.0
 40
1.0
 40
1.0
 10
2.750000000000016
 20
-29.92428064915777
 30
0.0
 10
2.744951890107511
 20
-29.92421926073921
 30
0.0
 10
2.734867088015569
 20
-29.92409662274893
 30
0.0
 10
2.714746689273726
 20
-29.92278570930058
 30
0.0
 10
2.689935974604207
 20
-29.91967259406383
 30
0.0
 10
2.663214788992438
 20
-29.91401719689727
 30
0.0
 10
2.641734385248951
 20
-29.90785358760457
 30
0.0
 10
2.622673664278555
 20
-29.90130971621333
 30
0.0
 10
2.60549384725943
 20
-29.89438141143329
 30
0.0
 10
2.585566331205089
 20
-29.88505035427634
 30
0.0
 10
2.5634907171804
 20
-29.87309890632958
 30
0.0
 10
2.542405605456419
 20
-29.85945099869897
 30
0.0
 10
2.522353516277942
 20
-29.84450295728992
 30
0.0
 10
2.503235577485483
 20
-29.8284946301473
 30
0.0
 10
2.485360680176046
 20
-29.81105096924298
 30
0.0
 10
2.468590756819586
 20
-29.79243754200217
 30
0.0
 10
2.452859611815891
 20
-29.77288037262743
 30
0.0
 10
2.438649216257999
 20
-29.75222303359589
 30
0.0
 10
2.425829245839742
 20
-29.73082465184539
 30
0.0
 10
2.414183803254935
 20
-29.70875259066342
 30
0.0
 10
2.404145436199046
 20
-29.68582123764257
 30
0.0
 10
2.395530154489525
 20
-29.66226321181001
 30
0.0
 10
2.388194882538317
 20
-29.63828839333731
 30
0.0
 10
2.382776911486001
 20
-29.6145917671077
 30
0.0
 10
2.378932614864687
 20
-29.59176172577705
 30
0.0
 10
2.376698235289812
 20
-29.57317439262062
 30
0.0
 10
2.375252733072847
 20
-29.55319389468335
 30
0.0
 10
2.375084402742977
 20
-29.54064813823183
 30
0.0
 10
2.375000000000002
 20
-29.53435755317955
 30
0.0
  0
SPLINE
  5
16F
330
1F
100
AcDbEntity
  8
SK3
  6
SLD-Dashed
370
    18
100
AcDbSpline
210
0.0
220
0.0
230
1.0
 70
     8
 71
     3
 72
    33
 73
    29
 74
     0
 42
0.000000001
 43
0.00000001
 40
0.0
 40
0.0
 40
0.0
 40
0.0
 40
0.031423701176723
 40
0.0627338405838564
 40
0.0877464954133589
 40
0.1252832386178632
 40
0.1539645866459624
 40
0.1970563067230867
 40
0.2505255177847363
 40
0.2789594549292392
 40
0.3216329583856273
 40
0.375268220463779
 40
0.4040082420405315
 40
0.4468773540298246
 40
0.5002148082814576
 40
0.5286826550732862
 40
0.5715495672142573
 40
0.625390502701707
 40
0.6539239774352771
 40
0.696599781891023
 40
0.7499747437940915
 40
0.7785995635307195
 40
0.8217149157189406
 40
0.8751793187678331
 40
0.9000505647746765
 40
0.9373747247573492
 40
0.9685907020195176
 40
1.0
 40
1.0
 40
1.0
 40
1.0
 10
2.375000000000002
 20
29.53435755317955
 30
0.0
 10
2.375084653143233
 20
29.54065054665652
 30
0.0
 10
2.375253653502676
 20
29.55321379143025
 30
0.0
 10
2.37652328849873
 20
29.57074878351027
 30
0.0
 10
2.378604433210113
 20
29.58943061230196
 30
0.0
 10
2.381481695767809
 20
29.6074825344375
 30
0.0
 10
2.385982972786791
 20
29.62890925450899
 30
0.0
 10
2.392449659118459
 20
29.65315822272135
 30
0.0
 10
2.400638163765678
 20
29.67684232694533
 30
0.0
 10
2.410229138284967
 20
29.69987740641964
 30
0.0
 10
2.42106347973027
 20
29.72240392143899
 30
0.0
 10
2.43355497492323
 20
29.7441423245807
 30
0.0
 10
2.447402504695564
 20
29.76506024365921
 30
0.0
 10
2.462353574794574
 20
29.78514459677452
 30
0.0
 10
2.478736246500288
 20
29.80402570440031
 30
0.0
 10
2.496277991374973
 20
29.82179847992358
 30
0.0
 10
2.514873650347971
 20
29.83863468290668
 30
0.0
 10
2.534730261353507
 20
29.85401037825963
 30
0.0
 10
2.555504834926725
 20
29.86800335428552
 30
0.0
 10
2.576977045940593
 20
29.88074321862897
 30
0.0
 10
2.599407555219049
 20
29.89178500632618
 30
0.0
 10
2.622583009878041
 20
29.90132189816608
 30
0.0
 10
2.646309265266184
 20
29.90948954562273
 30
0.0
 10
2.669897011154582
 20
29.91555645697579
 30
0.0
 10
2.692658387484018
 20
29.91986541147199
 30
0.0
 10
2.711206195171914
 20
29.92237236762039
 30
0.0
 10
2.731167694149231
 20
29.92399644689241
 30
0.0
 10
2.743709659268345
 20
29.92418572031042
 30
0.0
 10
2.750000000000003
 20
29.92428064915766
 30
0.0
  0
SPLINE
  5
170
330
1F
100
AcDbEntity
  8
1
  6
SLD-Dashed
370
    18
100
AcDbSpline
210
0.0
220
0.0
230
1.0
 70
     8
 71
     3
 72
    10
 73
     6
 74
     0
 42
0.000000001
 43
0.00000001
 40
0.0
 40
0.0
 40
0.0
 40
0.0
 40
0.5
 40
0.5
 40
1.0
 40
1.0
 40
1.0
 40
1.0
 10
19.10000000000299
 20
-25.89188338070358
 30
0.0
 10
19.10000000000213
 20
-25.78181125020742
 30
0.0
 10
19.05448203142776
 20
-25.67472639940333
 30
0.0
 10
18.91775493242107
 20
-25.51771826549044
 30
0.0
 10
18.82528755215366
 20
-25.46388531808257
 30
0.0
 10
18.72499999999996
 20
-25.45080303251746
 30
0.0
  0
SPLINE
  5
171
330
1F
100
AcDbEntity
  8
1
  6
SLD-Dashed
370
    18
100
AcDbSpline
210
0.0
220
0.0
230
1.0
 70
     8
 71
     3
 72
    10
 73
     6
 74
     0
 42
0.000000001
 43
0.00000001
 40
0.0
 40
0.0
 40
0.0
 40
0.0
 40
0.4999999999999999
 40
0.4999999999999999
 40
1.0
 40
1.0
 40
1.0
 40
1.0
 10
18.72499999999996
 20
-25.45080303251746
 30
0.0
 10
18.20352426803766
 20
-25.38277769642479
 30
0.0
 10
17.66546726494324
 20
-25.3283355643006
 30
0.0
 10
16.55640659544727
 20
-25.25352663193744
 30
0.0
 10
15.98103477800683
 20
-25.23333063628343
 30
0.0
 10
15.405
 20
-25.23333063628341
 30
0.0
  0
SPLINE
  5
172
330
1F
100
AcDbEntity
  8
SK3
  6
SLD-Dashed
370
    18
100
AcDbSpline
210
0.0
220
0.0
230
1.0
 70
     8
 71
     3
 72
    18
 73
    14
 74
     0
 42
0.000000001
 43
0.00000001
 40
0.0
 40
0.0
 40
0.0
 40
0.0
 40
0.0229754046530533
 40
0.0438482002299312
 40
0.0626183981417266
 40
0.0952267560205566
 40
0.1254479029945816
 40
0.1877704366527346
 40
0.2501074993620827
 40
0.3129352297812344
 40
0.3754195309367401
 40
0.4376131166540289
 40
0.5000916007165581
 40
0.5000916007165581
 40
0.5000916007165581
 40
0.5000916007165581
 10
21.37719856967625
 20
-30.56976977604395
 30
0.0
 10
21.43821931865429
 20
-30.58292858492185
 30
0.0
 10
21.55467646314303
 20
-30.60804196573835
 30
0.0
 10
21.71324531579718
 20
-30.64344921000553
 30
0.0
 10
21.89017705211809
 20
-30.68378816693388
 30
0.0
 10
22.08017320081294
 20
-30.72829411919536
 30
0.0
 10
22.35273297336713
 20
-30.79413401371379
 30
0.0
 10
22.65470782407488
 20
-30.87012859759201
 30
0.0
 10
22.95903919695317
 20
-30.95012582982779
 30
0.0
 10
23.19924690429862
 20
-31.01543784114536
 30
0.0
 10
23.3723350353156
 20
-31.06368049053173
 30
0.0
 10
23.47676543950466
 20
-31.09326063920994
 30
0.0
 10
23.50003366098451
 20
-31.09990467713559
 30
0.0
 10
23.4999999272322
 20
-31.09989503847461
 30
0.0
  0
SPLINE
  5
173
330
1F
100
AcDbEntity
  8
1
  6
SLD-Dashed
370
    18
100
AcDbSpline
210
0.0
220
0.0
230
1.0
 70
     8
 71
     3
 72
    10
 73
     6
 74
     0
 42
0.000000001
 43
0.00000001
 40
0.0
 40
0.0
 40
0.0
 40
0.0
 40
0.5
 40
0.5
 40
1.0
 40
1.0
 40
1.0
 40
1.0
 10
21.37719856967624
 20
-30.56976977604394
 30
0.0
 10
21.01735383515148
 20
-29.86632026751737
 30
0.0
 10
20.64574708341323
 20
-29.14100309744624
 30
0.0
 10
19.8853072211421
 20
-27.65995838201913
 30
0.0
 10
19.49582589886604
 20
-26.90296432996667
 30
0.0
 10
19.09999999999999
 20
-26.13585634682924
 30
0.0
  0
SPLINE
  5
174
330
1F
100
AcDbEntity
  8
1
  6
SLD-Dashed
370
    18
100
AcDbSpline
210
0.0
220
0.0
230
1.0
 70
     8
 71
     3
 72
    10
 73
     6
 74
     0
 42
0.000000001
 43
0.00000001
 40
0.0
 40
0.0
 40
0.0
 40
0.0
 40
0.4999999999999999
 40
0.4999999999999999
 40
1.0
 40
1.0
 40
1.0
 40
1.0
 10
18.72499999999996
 20
25.45080303251747
 30
0.0
 10
18.20352426803766
 20
25.3827776964248
 30
0.0
 10
17.66546726494324
 20
25.32833556430061
 30
0.0
 10
16.55640659544727
 20
25.25352663193744
 30
0.0
 10
15.98103477800683
 20
25.23333063628344
 30
0.0
 10
15.40499999999997
 20
25.23333063628343
 30
0.0
  0
SPLINE
  5
175
330
1F
100
AcDbEntity
  8
1
  6
SLD-Dashed
370
    18
100
AcDbSpline
210
0.0
220
0.0
230
1.0
 70
     8
 71
     3
 72
    10
 73
     6
 74
     0
 42
0.000000001
 43
0.00000001
 40
0.0
 40
0.0
 40
0.0
 40
0.0
 40
0.5
 40
0.5
 40
1.0
 40
1.0
 40
1.0
 40
1.0
 10
19.10000000000299
 20
25.89188338070359
 30
0.0
 10
19.10000000000213
 20
25.78181125020743
 30
0.0
 10
19.05448203142776
 20
25.67472639940334
 30
0.0
 10
18.91775493242107
 20
25.51771826549045
 30
0.0
 10
18.82528755215366
 20
25.46388531808259
 30
0.0
 10
18.72499999999996
 20
25.45080303251747
 30
0.0
  0
SPLINE
  5
176
330
1F
100
AcDbEntity
  8
1
  6
SLD-Dashed
370
    18
100
AcDbSpline
210
0.0
220
0.0
230
1.0
 70
     8
 71
     3
 72
    10
 73
     6
 74
     0
 42
0.000000001
 43
0.00000001
 40
0.0
 40
0.0
 40
0.0
 40
0.0
 40
0.5
 40
0.5
 40
1.0
 40
1.0
 40
1.0
 40
1.0
 10
21.37719856678902
 20
30.56976977530607
 30
0.0
 10
21.01735230238043
 20
29.86631727537962
 30
0.0
 10
20.64574494115347
 20
29.14099892315884
 30
0.0
 10
19.88530540526504
 20
27.65995485274544
 30
0.0
 10
19.49582638782489
 20
26.90296527856379
 30
0.0
 10
19.09999999999999
 20
26.13585634682926
 30
0.0
  0
SPLINE
  5
177
330
1F
100
AcDbEntity
  8
SK3
  6
SLD-Dashed
370
    18
100
AcDbSpline
210
0.0
220
0.0
230
1.0
 70
     8
 71
     3
 72
     8
 73
     4
 74
     0
 42
0.000000001
 43
0.00000001
 40
0.0
 40
0.0
 40
0.0
 40
0.0
 40
0.0230715777650551
 40
0.0230715777650551
 40
0.0230715777650551
 40
0.0230715777650551
 10
21.37719856678902
 20
30.56976977530607
 30
0.0
 10
21.43847205439664
 20
30.58298351564875
 30
0.0
 10
21.49974554200429
 20
30.59619725599141
 30
0.0
 10
21.55951825754931
 20
30.60932238460623
 30
0.0
  0
SPLINE
  5
178
330
1F
100
AcDbEntity
  8
SK3
  6
SLD-Dashed
370
    18
100
AcDbSpline
210
0.0
220
0.0
230
1.0
 70
     8
 71
     3
 72
     8
 73
     4
 74
     0
 42
0.000000001
 43
0.00000001
 40
0.0230715777650551
 40
0.0230715777650551
 40
0.0230715777650551
 40
0.0230715777650551
 40
0.0440279223878143
 40
0.0440279223878143
 40
0.0440279223878143
 40
0.0440279223878143
 10
21.55951825754931
 20
30.60932238460623
 30
0.0
 10
21.61381093049766
 20
30.62124418385511
 30
0.0
 10
21.66686540227644
 20
30.63309287463683
 30
0.0
 10
21.71899505260544
 20
30.64486241598923
 30
0.0
  0
SPLINE
  5
179
330
1F
100
AcDbEntity
  8
SK3
  6
SLD-Dashed
370
    18
100
AcDbSpline
210
0.0
220
0.0
230
1.0
 70
     8
 71
     3
 72
     8
 73
     4
 74
     0
 42
0.000000001
 43
0.00000001
 40
0.0440279223878143
 40
0.0440279223878143
 40
0.0440279223878143
 40
0.0440279223878143
 40
0.0628690454311673
 40
0.0628690454311673
 40
0.0628690454311673
 40
0.0628690454311673
 10
21.71899505260544
 20
30.64486241598923
 30
0.0
 10
21.76586301425318
 20
30.65544400265313
 30
0.0
 10
21.81198342563195
 20
30.66596161137061
 30
0.0
 10
21.85727129832142
 20
30.67638986945507
 30
0.0
  0
SPLINE
  5
17A
330
1F
100
AcDbEntity
  8
SK3
  6
SLD-Dashed
370
    18
100
AcDbSpline
210
0.0
220
0.0
230
1.0
 70
     8
 71
     3
 72
     8
 73
     4
 74
     0
 42
0.000000001
 43
0.00000001
 40
0.0628690454311673
 40
0.0628690454311673
 40
0.0628690454311673
 40
0.0628690454311673
 40
0.0952120620392994
 40
0.0952120620392994
 40
0.0952120620392994
 40
0.0952120620392994
 10
21.85727129832142
 20
30.67638986945507
 30
0.0
 10
21.9350132893467
 20
30.69429120811961
 30
0.0
 10
22.01030197335535
 20
30.71192925026984
 30
0.0
 10
22.08308404438737
 20
30.7292453456519
 30
0.0
  0
SPLINE
  5
17B
330
1F
100
AcDbEntity
  8
SK3
  6
SLD-Dashed
370
    18
100
AcDbSpline
210
0.0
220
0.0
230
1.0
 70
     8
 71
     3
 72
     8
 73
     4
 74
     0
 42
0.000000001
 43
0.00000001
 40
0.0952120620392994
 40
0.0952120620392994
 40
0.0952120620392994
 40
0.0952120620392994
 40
0.1252082824845185
 40
0.1252082824845185
 40
0.1252082824845185
 40
0.1252082824845185
 10
22.08308404438737
 20
30.7292453456519
 30
0.0
 10
22.15058507787436
 20
30.7453049921785
 30
0.0
 10
22.21593005897253
 20
30.76108771757484
 30
0.0
 10
22.27905775482787
 20
30.77652662386567
 30
0.0
  0
SPLINE
  5
17C
330
1F
100
AcDbEntity
  8
SK3
  6
SLD-Dashed
370
    18
100
AcDbSpline
210
0.0
220
0.0
230
1.0
 70
     8
 71
     3
 72
     8
 73
     4
 74
     0
 42
0.000000001
 43
0.00000001
 40
0.1252082824845185
 40
0.1252082824845185
 40
0.1252082824845185
 40
0.1252082824845185
 40
0.1874443143945993
 40
0.1874443143945993
 40
0.1874443143945993
 40
0.1874443143945993
 10
22.27905775482787
 20
30.77652662386567
 30
0.0
 10
22.41003483245141
 20
30.8085592016475
 30
0.0
 10
22.53146699029068
 20
30.83911171465493
 30
0.0
 10
22.64275720187067
 20
30.86767874348247
 30
0.0
  0
SPLINE
  5
17D
330
1F
100
AcDbEntity
  8
SK3
  6
SLD-Dashed
370
    18
100
AcDbSpline
210
0.0
220
0.0
230
1.0
 70
     8
 71
     3
 72
     8
 73
     4
 74
     0
 42
0.000000001
 43
0.00000001
 40
0.1874443143945993
 40
0.1874443143945993
 40
0.1874443143945993
 40
0.1874443143945993
 40
0.2501296237171826
 40
0.2501296237171826
 40
0.2501296237171826
 40
0.2501296237171826
 10
22.64275720187067
 20
30.86767874348247
 30
0.0
 10
22.75485080943782
 20
30.89645199562473
 30
0.0
 10
22.85665551426641
 20
30.92321099398437
 30
0.0
 10
22.94768740588885
 20
30.9475012588635
 30
0.0
  0
SPLINE
  5
17E
330
1F
100
AcDbEntity
  8
SK3
  6
SLD-Dashed
370
    18
100
AcDbSpline
210
0.0
220
0.0
230
1.0
 70
     8
 71
     3
 72
     8
 73
     4
 74
     0
 42
0.000000001
 43
0.00000001
 40
0.2501296237171826
 40
0.2501296237171826
 40
0.2501296237171826
 40
0.2501296237171826
 40
0.3127676613642589
 40
0.3127676613642589
 40
0.3127676613642589
 40
0.3127676613642589
 10
22.94768740588885
 20
30.9475012588635
 30
0.0
 10
23.03865064936886
 20
30.97177320618893
 30
0.0
 10
23.11885732130833
 20
30.99358014202758
 30
0.0
 10
23.18788810994509
 20
31.01254612663392
 30
0.0
  0
SPLINE
  5
17F
330
1F
100
AcDbEntity
  8
SK3
  6
SLD-Dashed
370
    18
100
AcDbSpline
210
0.0
220
0.0
230
1.0
 70
     8
 71
     3
 72
     8
 73
     4
 74
     0
 42
0.000000001
 43
0.00000001
 40
0.3127676613642589
 40
0.3127676613642589
 40
0.3127676613642589
 40
0.3127676613642589
 40
0.3749096799645154
 40
0.3749096799645154
 40
0.3749096799645154
 40
0.3749096799645154
 10
23.18788810994509
 20
31.01254612663392
 30
0.0
 10
23.25637225652109
 20
31.0313619231124
 30
0.0
 10
23.31385681849111
 20
31.04738158414502
 30
0.0
 10
23.36003478116545
 20
31.06032956784422
 30
0.0
  0
SPLINE
  5
180
330
1F
100
AcDbEntity
  8
SK3
  6
SLD-Dashed
370
    18
100
AcDbSpline
210
0.0
220
0.0
230
1.0
 70
     8
 71
     3
 72
     8
 73
     4
 74
     0
 42
0.000000001
 43
0.00000001
 40
0.3749096799645154
 40
0.3749096799645154
 40
0.3749096799645154
 40
0.3749096799645154
 40
0.4371223082215381
 40
0.4371223082215381
 40
0.4371223082215381
 40
0.4371223082215381
 10
23.36003478116547
 20
31.06032956784423
 30
0.0
 10
23.40626521413558
 20
31.07329226385414
 30
0.0
 10
23.44116333867842
 20
31.08317629810015
 30
0.0
 10
23.46453392598051
 20
31.08980898206582
 30
0.0
  0
SPLINE
  5
181
330
1F
100
AcDbEntity
  8
SK3
  6
SLD-Dashed
370
    18
100
AcDbSpline
210
0.0
220
0.0
230
1.0
 70
     8
 71
     3
 72
     8
 73
     4
 74
     0
 42
0.000000001
 43
0.00000001
 40
0.4371223082215381
 40
0.4371223082215381
 40
0.4371223082215381
 40
0.4371223082215381
 40
0.499911456350333
 40
0.499911456350333
 40
0.499911456350333
 40
0.499911456350333
 10
23.46453392598051
 20
31.08980898206582
 30
0.0
 10
23.48812108680429
 20
31.09650313062826
 30
0.0
 10
23.49996607076178
 20
31.09988538964753
 30
0.0
 10
23.49999992266036
 20
31.09989503384854
 30
0.0
  0
SPLINE
  5
182
330
1F
100
AcDbEntity
  8
SK3
  6
SLD-Dashed
370
    18
100
AcDbSpline
210
0.0
220
0.0
230
1.0
 70
     8
 71
     3
 72
     8
 73
     4
 74
     0
 42
0.000000001
 43
0.00000001
 40
0.562469749405269
 40
0.562469749405269
 40
0.562469749405269
 40
0.562469749405269
 40
0.6246519449431492
 40
0.6246519449431492
 40
0.6246519449431492
 40
0.6246519449431492
 10
23.46498710103845
 20
31.08993810402566
 30
0.0
 10
23.44178013544047
 20
31.08335149591542
 30
0.0
 10
23.4070560815821
 20
31.07351598961652
 30
0.0
 10
23.36100893202789
 20
31.0606031552068
 30
0.0
  0
SPLINE
  5
183
330
1F
100
AcDbEntity
  8
SK3
  6
SLD-Dashed
370
    18
100
AcDbSpline
210
0.0
220
0.0
230
1.0
 70
     8
 71
     3
 72
     8
 73
     4
 74
     0
 42
0.000000001
 43
0.00000001
 40
0.6246519449431492
 40
0.6246519449431492
 40
0.6246519449431492
 40
0.6246519449431492
 40
0.6871253789786931
 40
0.6871253789786931
 40
0.6871253789786931
 40
0.6871253789786931
 10
23.36100893202789
 20
31.0606031552068
 30
0.0
 10
23.31474611458768
 20
31.04762984183741
 30
0.0
 10
23.25705388664539
 20
31.03155030670914
 30
0.0
 10
23.18824290429416
 20
31.01264402365493
 30
0.0
  0
SPLINE
  5
184
330
1F
100
AcDbEntity
  8
SK3
  6
SLD-Dashed
370
    18
100
AcDbSpline
210
0.0
220
0.0
230
1.0
 70
     8
 71
     3
 72
     8
 73
     4
 74
     0
 42
0.000000001
 43
0.00000001
 40
0.6871253789786931
 40
0.6871253789786931
 40
0.6871253789786931
 40
0.6871253789786931
 40
0.7499413914605296
 40
0.7499413914605296
 40
0.7499413914605296
 40
0.7499413914605296
 10
23.18824290429416
 20
31.01264402365493
 30
0.0
 10
23.11905459100559
 20
30.99363406637222
 30
0.0
 10
23.03862524767891
 20
30.97176627473351
 30
0.0
 10
22.94738183102352
 20
30.94742018856336
 30
0.0
  0
SPLINE
  5
185
330
1F
100
AcDbEntity
  8
SK3
  6
SLD-Dashed
370
    18
100
AcDbSpline
210
0.0
220
0.0
230
1.0
 70
     8
 71
     3
 72
     8
 73
     4
 74
     0
 42
0.000000001
 43
0.00000001
 40
0.7499413914605296
 40
0.7499413914605296
 40
0.7499413914605296
 40
0.7499413914605296
 40
0.8122668496053986
 40
0.8122668496053986
 40
0.8122668496053986
 40
0.8122668496053986
 10
22.94738183102352
 20
30.94742018856336
 30
0.0
 10
22.85685096920875
 20
30.92326423031898
 30
0.0
 10
22.75567427704661
 20
30.89666853430599
 30
0.0
 10
22.64431411361593
 20
30.86807885541035
 30
0.0
  0
SPLINE
  5
186
330
1F
100
AcDbEntity
  8
SK3
  6
SLD-Dashed
370
    18
100
AcDbSpline
210
0.0
220
0.0
230
1.0
 70
     8
 71
     3
 72
     8
 73
     4
 74
     0
 42
0.000000001
 43
0.00000001
 40
0.8122668496053986
 40
0.8122668496053986
 40
0.8122668496053986
 40
0.8122668496053986
 40
0.8745780800877602
 40
0.8745780800877602
 40
0.8745780800877602
 40
0.8745780800877602
 10
22.64431411361593
 20
30.86807885541035
 30
0.0
 10
22.53297937149577
 20
30.8394957029698
 30
0.0
 10
22.41146580694431
 20
30.80891947791596
 30
0.0
 10
22.28041729925375
 20
30.77685934970205
 30
0.0
  0
SPLINE
  5
187
330
1F
100
AcDbEntity
  8
SK3
  6
SLD-Dashed
370
    18
100
AcDbSpline
210
0.0
220
0.0
230
1.0
 70
     8
 71
     3
 72
     8
 73
     4
 74
     0
 42
0.000000001
 43
0.00000001
 40
0.8745780800877602
 40
0.8745780800877602
 40
0.8745780800877602
 40
0.8745780800877602
 40
0.9047897691752734
 40
0.9047897691752734
 40
0.9047897691752734
 40
0.9047897691752734
 10
22.28041729925375
 20
30.77685934970205
 30
0.0
 10
22.21687824314651
 20
30.76131495075171
 30
0.0
 10
22.15109770395458
 20
30.74542171450008
 30
0.0
 10
22.08308404438737
 20
30.7292453456519
 30
0.0
  0
SPLINE
  5
188
330
1F
100
AcDbEntity
  8
SK3
  6
SLD-Dashed
370
    18
100
AcDbSpline
210
0.0
220
0.0
230
1.0
 70
     8
 71
     3
 72
     8
 73
     4
 74
     0
 42
0.000000001
 43
0.00000001
 40
0.9047897691752734
 40
0.9047897691752734
 40
0.9047897691752734
 40
0.9047897691752734
 40
0.9373962146516766
 40
0.9373962146516766
 40
0.9373962146516766
 40
0.9373962146516766
 10
22.08308404438737
 20
30.7292453456519
 30
0.0
 10
22.00967922164132
 20
30.71178674254876
 30
0.0
 10
21.93367322710066
 20
30.69399834239015
 30
0.0
 10
21.85537186996229
 20
30.67595259469396
 30
0.0
  0
SPLINE
  5
189
330
1F
100
AcDbEntity
  8
SK3
  6
SLD-Dashed
370
    18
100
AcDbSpline
210
0.0
220
0.0
230
1.0
 70
     8
 71
     3
 72
     8
 73
     4
 74
     0
 42
0.000000001
 43
0.00000001
 40
0.9373962146516766
 40
0.9373962146516766
 40
0.9373962146516766
 40
0.9373962146516766
 40
0.9663311413078027
 40
0.9663311413078027
 40
0.9663311413078027
 40
0.9663311413078027
 10
21.85537186996229
 20
30.67595259469396
 30
0.0
 10
21.78594594613181
 20
30.65968655099496
 30
0.0
 10
21.71471322511528
 20
30.64321128828745
 30
0.0
 10
21.64108546700335
 20
30.62657042379467
 30
0.0
  0
SPLINE
  5
18A
330
1F
100
AcDbEntity
  8
SK3
  6
SLD-Dashed
370
    18
100
AcDbSpline
210
0.0
220
0.0
230
1.0
 70
     8
 71
     3
 72
     8
 73
     4
 74
     0
 42
0.000000001
 43
0.00000001
 40
0.9663311413078027
 40
0.9663311413078027
 40
0.9663311413078027
 40
0.9663311413078027
 40
1.0
 40
1.0
 40
1.0
 40
1.0
 10
21.64108546700335
 20
30.62657042379467
 30
0.0
 10
21.55528599226233
 20
30.60777210308926
 30
0.0
 10
21.46624227952567
 20
30.58877093919767
 30
0.0
 10
21.37719856678902
 20
30.56976977530607
 30
0.0
  0
SPLINE
  5
18B
330
1F
100
AcDbEntity
  8
SK3
  6
SLD-Dashed
370
    18
100
AcDbSpline
210
0.0
220
0.0
230
1.0
 70
     8
 71
     2
 72
     6
 73
     3
 74
     0
 42
0.000000001
 43
0.00000001
 40
0.0
 40
0.0
 40
0.0
 40
0.03125
 40
0.03125
 40
0.03125
 10
30.0
 20
8.000000000000007
 30
0.0
 10
30.03051695315705
 20
7.982721965835111
 30
0.0
 10
30.08974937607252
 20
7.949862298546606
 30
0.0
  0
SPLINE
  5
18C
330
1F
100
AcDbEntity
  8
SK3
  6
SLD-Dashed
370
    18
100
AcDbSpline
210
0.0
220
0.0
230
1.0
 70
     8
 71
     3
 72
     8
 73
     4
 74
     0
 42
0.000000001
 43
0.00000001
 40
0.03125
 40
0.03125
 40
0.03125
 40
0.03125
 40
0.0625
 40
0.0625
 40
0.0625
 40
0.0625
 10
30.08974937607252
 20
7.949862298546606
 30
0.0
 10
30.14898179898796
 20
7.917002631258101
 30
0.0
 10
30.23855466659171
 20
7.867689224083388
 30
0.0
 10
30.35288314620095
 20
7.806957038376992
 30
0.0
  0
SPLINE
  5
18D
330
1F
100
AcDbEntity
  8
SK3
  6
SLD-Dashed
370
    18
100
AcDbSpline
210
0.0
220
0.0
230
1.0
 70
     8
 71
     3
 72
     8
 73
     4
 74
     0
 42
0.000000001
 43
0.00000001
 40
0.0625
 40
0.0625
 40
0.0625
 40
0.0625
 40
0.09375
 40
0.09375
 40
0.09375
 40
0.09375
 10
30.35288314620095
 20
7.806957038376992
 30
0.0
 10
30.46721162581016
 20
7.74622485267059
 30
0.0
 10
30.60618923804859
 20
7.674080947736889
 30
0.0
 10
30.76953910877421
 20
7.593835556618606
 30
0.0
  0
SPLINE
  5
18E
330
1F
100
AcDbEntity
  8
SK3
  6
SLD-Dashed
370
    18
100
AcDbSpline
210
0.0
220
0.0
230
1.0
 70
     8
 71
     3
 72
     8
 73
     4
 74
     0
 42
0.000000001
 43
0.00000001
 40
0.09375
 40
0.09375
 40
0.09375
 40
0.09375
 40
0.1249999999999999
 40
0.1249999999999999
 40
0.1249999999999999
 40
0.1249999999999999
 10
30.76953910877421
 20
7.593835556618606
 30
0.0
 10
30.93288897949983
 20
7.513590165500323
 30
0.0
 10
31.11758605573553
 20
7.426791183647634
 30
0.0
 10
31.32065278629444
 20
7.338817936513857
 30
0.0
  0
SPLINE
  5
18F
330
1F
100
AcDbEntity
  8
SK3
  6
SLD-Dashed
370
    18
100
AcDbSpline
210
0.0
220
0.0
230
1.0
 70
     8
 71
     3
 72
     8
 73
     4
 74
     0
 42
0.000000001
 43
0.00000001
 40
0.1249999999999999
 40
0.1249999999999999
 40
0.1249999999999999
 40
0.1249999999999999
 40
0.1562499999999999
 40
0.1562499999999999
 40
0.1562499999999999
 40
0.1562499999999999
 10
31.32065278629444
 20
7.338817936513857
 30
0.0
 10
31.52371951685333
 20
7.250844689380073
 30
0.0
 10
31.74832622677053
 20
7.160407064960516
 30
0.0
 10
31.98818043645645
 20
7.075255297146525
 30
0.0
  0
SPLINE
  5
190
330
1F
100
AcDbEntity
  8
SK3
  6
SLD-Dashed
370
    18
100
AcDbSpline
210
0.0
220
0.0
230
1.0
 70
     8
 71
     3
 72
     8
 73
     4
 74
     0
 42
0.000000001
 43
0.00000001
 40
0.1562499999999999
 40
0.1562499999999999
 40
0.1562499999999999
 40
0.1562499999999999
 40
0.1874999999999999
 40
0.1874999999999999
 40
0.1874999999999999
 40
0.1874999999999999
 10
31.98818043645645
 20
7.075255297146525
 30
0.0
 10
32.22803464614236
 20
6.990103529332541
 30
0.0
 10
32.48153064188793
 20
6.910628704281482
 30
0.0
 10
32.75013591056401
 20
6.841931330516089
 30
0.0
  0
SPLINE
  5
191
330
1F
100
AcDbEntity
  8
SK3
  6
SLD-Dashed
370
    18
100
AcDbSpline
210
0.0
220
0.0
230
1.0
 70
     8
 71
     3
 72
     8
 73
     4
 74
     0
 42
0.000000001
 43
0.00000001
 40
0.1874999999999999
 40
0.1874999999999999
 40
0.1874999999999999
 40
0.1874999999999999
 40
0.2187499999999999
 40
0.2187499999999999
 40
0.2187499999999999
 40
0.2187499999999999
 10
32.75013591056401
 20
6.841931330516089
 30
0.0
 10
33.0187411792401
 20
6.773233956750696
 30
0.0
 10
33.30633267888911
 20
6.714987733068792
 30
0.0
 10
33.59845917055748
 20
6.675535623989433
 30
0.0
  0
SPLINE
  5
192
330
1F
100
AcDbEntity
  8
SK3
  6
SLD-Dashed
370
    18
100
AcDbSpline
210
0.0
220
0.0
230
1.0
 70
     8
 71
     3
 72
     8
 73
     4
 74
     0
 42
0.000000001
 43
0.00000001
 40
0.2187499999999999
 40
0.2187499999999999
 40
0.2187499999999999
 40
0.2187499999999999
 40
0.2499999999999999
 40
0.2499999999999999
 40
0.2499999999999999
 40
0.2499999999999999
 10
33.59845917055748
 20
6.675535623989433
 30
0.0
 10
33.89058566222585
 20
6.63608351491006
 30
0.0
 10
34.18861503393416
 20
6.614699367385929
 30
0.0
 10
34.49310309116866
 20
6.614381873414288
 30
0.0
  0
SPLINE
  5
193
330
1F
100
AcDbEntity
  8
SK3
  6
SLD-Dashed
370
    18
100
AcDbSpline
210
0.0
220
0.0
230
1.0
 70
     8
 71
     3
 72
     8
 73
     4
 74
     0
 42
0.000000001
 43
0.00000001
 40
0.2499999999999999
 40
0.2499999999999999
 40
0.2499999999999999
 40
0.2499999999999999
 40
0.2812499999999999
 40
0.2812499999999999
 40
0.2812499999999999
 40
0.2812499999999999
 10
34.49310309116866
 20
6.614381873414288
 30
0.0
 10
34.79759114840316
 20
6.61406437944264
 30
0.0
 10
35.09576354736762
 20
6.634830538552496
 30
0.0
 10
35.38811877667905
 20
6.673736207064976
 30
0.0
  0
SPLINE
  5
194
330
1F
100
AcDbEntity
  8
SK3
  6
SLD-Dashed
370
    18
100
AcDbSpline
210
0.0
220
0.0
230
1.0
 70
     8
 71
     3
 72
     8
 73
     4
 74
     0
 42
0.000000001
 43
0.00000001
 40
0.2812499999999999
 40
0.2812499999999999
 40
0.2812499999999999
 40
0.2812499999999999
 40
0.3124999999999999
 40
0.3124999999999999
 40
0.3124999999999999
 40
0.3124999999999999
 10
35.38811877667905
 20
6.673736207064976
 30
0.0
 10
35.6804740059905
 20
6.712641875577442
 30
0.0
 10
35.96831599389276
 20
6.770349807727824
 30
0.0
 10
36.23856611509117
 20
6.839050528877768
 30
0.0
  0
SPLINE
  5
195
330
1F
100
AcDbEntity
  8
SK3
  6
SLD-Dashed
370
    18
100
AcDbSpline
210
0.0
220
0.0
230
1.0
 70
     8
 71
     3
 72
     8
 73
     4
 74
     0
 42
0.000000001
 43
0.00000001
 40
0.3124999999999999
 40
0.3124999999999999
 40
0.3124999999999999
 40
0.3124999999999999
 40
0.3437499999999998
 40
0.3437499999999998
 40
0.3437499999999998
 40
0.3437499999999998
 10
36.23856611509117
 20
6.839050528877768
 30
0.0
 10
36.50881623628955
 20
6.907751250027711
 30
0.0
 10
36.76640895002988
 20
6.988259243251929
 30
0.0
 10
37.00755081921503
 20
7.07374095588368
 30
0.0
  0
SPLINE
  5
196
330
1F
100
AcDbEntity
  8
SK3
  6
SLD-Dashed
370
    18
100
AcDbSpline
210
0.0
220
0.0
230
1.0
 70
     8
 71
     3
 72
     8
 73
     4
 74
     0
 42
0.000000001
 43
0.00000001
 40
0.3437499999999998
 40
0.3437499999999998
 40
0.3437499999999998
 40
0.3437499999999998
 40
0.3749999999999998
 40
0.3749999999999998
 40
0.3749999999999998
 40
0.3749999999999998
 10
37.00755081921503
 20
7.07374095588368
 30
0.0
 10
37.24869268840015
 20
7.159222668515416
 30
0.0
 10
37.47037646376499
 20
7.248403769343708
 30
0.0
 10
37.67423568239973
 20
7.336604948299991
 30
0.0
  0
SPLINE
  5
197
330
1F
100
AcDbEntity
  8
SK3
  6
SLD-Dashed
370
    18
100
AcDbSpline
210
0.0
220
0.0
230
1.0
 70
     8
 71
     3
 72
     8
 73
     4
 74
     0
 42
0.000000001
 43
0.00000001
 40
0.3749999999999998
 40
0.3749999999999998
 40
0.3749999999999998
 40
0.3749999999999998
 40
0.4062499999999998
 40
0.4062499999999998
 40
0.4062499999999998
 40
0.4062499999999998
 10
37.67423568239973
 20
7.336604948299991
 30
0.0
 10
37.8780949010345
 20
7.424806127256281
 30
0.0
 10
38.06520380026186
 20
7.512704344542959
 30
0.0
 10
38.22733737206976
 20
7.592301619748006
 30
0.0
  0
SPLINE
  5
198
330
1F
100
AcDbEntity
  8
SK3
  6
SLD-Dashed
370
    18
100
AcDbSpline
210
0.0
220
0.0
230
1.0
 70
     8
 71
     3
 72
     8
 73
     4
 74
     0
 42
0.000000001
 43
0.00000001
 40
0.4062499999999998
 40
0.4062499999999998
 40
0.4062499999999998
 40
0.4062499999999998
 40
0.4374999999999998
 40
0.4374999999999998
 40
0.4374999999999998
 40
0.4374999999999998
 10
38.22733737206976
 20
7.592301619748006
 30
0.0
 10
38.38947094387768
 20
7.671898894953053
 30
0.0
 10
38.52849194178555
 20
7.743981812986897
 30
0.0
 10
38.64346250305778
 20
7.805016432669815
 30
0.0
  0
SPLINE
  5
199
330
1F
100
AcDbEntity
  8
SK3
  6
SLD-Dashed
370
    18
100
AcDbSpline
210
0.0
220
0.0
230
1.0
 70
     8
 71
     3
 72
     8
 73
     4
 74
     0
 42
0.000000001
 43
0.00000001
 40
0.4374999999999998
 40
0.4374999999999998
 40
0.4374999999999998
 40
0.4374999999999998
 40
0.4687499999999998
 40
0.4687499999999998
 40
0.4687499999999998
 40
0.4687499999999998
 10
38.64346250305778
 20
7.805016432669815
 30
0.0
 10
38.75843306432998
 20
7.866051052352739
 30
0.0
 10
38.84853636389303
 20
7.91563626953768
 30
0.0
 10
38.90827333620973
 20
7.948765552382199
 30
0.0
  0
SPLINE
  5
19A
330
1F
100
AcDbEntity
  8
SK3
  6
SLD-Dashed
370
    18
100
AcDbSpline
210
0.0
220
0.0
230
1.0
 70
     8
 71
     3
 72
     8
 73
     4
 74
     0
 42
0.000000001
 43
0.00000001
 40
0.4687499999999998
 40
0.4687499999999998
 40
0.4687499999999998
 40
0.4687499999999998
 40
0.4999999999999998
 40
0.4999999999999998
 40
0.4999999999999998
 40
0.4999999999999998
 10
38.90827333620973
 20
7.948765552382199
 30
0.0
 10
38.96801030852644
 20
7.981894835226711
 30
0.0
 10
38.9992222701938
 20
7.999562527919029
 30
0.0
 10
38.9999858008078
 20
7.99999201296301
 30
0.0
  0
SPLINE
  5
19B
330
1F
100
AcDbEntity
  8
SK3
  6
SLD-Dashed
370
    18
100
AcDbSpline
210
0.0
220
0.0
230
1.0
 70
     8
 71
     3
 72
     8
 73
     4
 74
     0
 42
0.000000001
 43
0.00000001
 40
0.4999999999999998
 40
0.4999999999999998
 40
0.4999999999999998
 40
0.4999999999999998
 40
0.5312499999999998
 40
0.5312499999999998
 40
0.5312499999999998
 40
0.5312499999999998
 10
38.9999858008078
 20
7.99999201296301
 30
0.0
 10
39.00074933142179
 20
8.00042149800699
 30
0.0
 10
38.97079286700592
 20
7.983457755170509
 30
0.0
 10
38.91201339289697
 20
7.950840344209051
 30
0.0
  0
SPLINE
  5
19C
330
1F
100
AcDbEntity
  8
SK3
  6
SLD-Dashed
370
    18
100
AcDbSpline
210
0.0
220
0.0
230
1.0
 70
     8
 71
     3
 72
     8
 73
     4
 74
     0
 42
0.000000001
 43
0.00000001
 40
0.5312499999999998
 40
0.5312499999999998
 40
0.5312499999999998
 40
0.5312499999999998
 40
0.5624999999999998
 40
0.5624999999999998
 40
0.5624999999999998
 40
0.5624999999999998
 10
38.91201339289697
 20
7.950840344209051
 30
0.0
 10
38.85323391878805
 20
7.918222933247593
 30
0.0
 10
38.76405994728066
 20
7.869108127840245
 30
0.0
 10
38.64994187250442
 20
7.808458077313715
 30
0.0
  0
SPLINE
  5
19D
330
1F
100
AcDbEntity
  8
SK3
  6
SLD-Dashed
370
    18
100
AcDbSpline
210
0.0
220
0.0
230
1.0
 70
     8
 71
     3
 72
     8
 73
     4
 74
     0
 42
0.000000001
 43
0.00000001
 40
0.5624999999999998
 40
0.5624999999999998
 40
0.5624999999999998
 40
0.5624999999999998
 40
0.5937499999999998
 40
0.5937499999999998
 40
0.5937499999999998
 40
0.5937499999999998
 10
38.64994187250442
 20
7.808458077313715
 30
0.0
 10
38.5358237977282
 20
7.747808026787172
 30
0.0
 10
38.39687318482661
 20
7.675632103598534
 30
0.0
 10
38.23329744874744
 20
7.595229413310984
 30
0.0
  0
SPLINE
  5
19E
330
1F
100
AcDbEntity
  8
SK3
  6
SLD-Dashed
370
    18
100
AcDbSpline
210
0.0
220
0.0
230
1.0
 70
     8
 71
     3
 72
     8
 73
     4
 74
     0
 42
0.000000001
 43
0.00000001
 40
0.5937499999999998
 40
0.5937499999999998
 40
0.5937499999999998
 40
0.5937499999999998
 40
0.6249999999999998
 40
0.6249999999999998
 40
0.6249999999999998
 40
0.6249999999999998
 10
38.23329744874744
 20
7.595229413310984
 30
0.0
 10
38.06972171266828
 20
7.514826723023428
 30
0.0
 10
37.88554599491505
 20
7.428215304121348
 30
0.0
 10
37.68231554664746
 20
7.340104375173024
 30
0.0
  0
SPLINE
  5
19F
330
1F
100
AcDbEntity
  8
SK3
  6
SLD-Dashed
370
    18
100
AcDbSpline
210
0.0
220
0.0
230
1.0
 70
     8
 71
     3
 72
     8
 73
     4
 74
     0
 42
0.000000001
 43
0.00000001
 40
0.6249999999999998
 40
0.6249999999999998
 40
0.6249999999999998
 40
0.6249999999999998
 40
0.6562499999999997
 40
0.6562499999999997
 40
0.6562499999999997
 40
0.6562499999999997
 10
37.68231554664746
 20
7.340104375173024
 30
0.0
 10
37.47908509837987
 20
7.251993446224708
 30
0.0
 10
37.25389209220923
 20
7.161262629541143
 30
0.0
 10
37.01410582372315
 20
7.076067275886999
 30
0.0
  0
SPLINE
  5
1A0
330
1F
100
AcDbEntity
  8
SK3
  6
SLD-Dashed
370
    18
100
AcDbSpline
210
0.0
220
0.0
230
1.0
 70
     8
 71
     3
 72
     8
 73
     4
 74
     0
 42
0.000000001
 43
0.00000001
 40
0.6562499999999997
 40
0.6562499999999997
 40
0.6562499999999997
 40
0.6562499999999997
 40
0.6874999999999997
 40
0.6874999999999997
 40
0.6874999999999997
 40
0.6874999999999997
 10
37.01410582372315
 20
7.076067275886999
 30
0.0
 10
36.77431955523711
 20
6.990871922232862
 30
0.0
 10
36.52060540971772
 20
6.911230157653339
 30
0.0
 10
36.25135947132598
 20
6.842313935928643
 30
0.0
  0
SPLINE
  5
1A1
330
1F
100
AcDbEntity
  8
SK3
  6
SLD-Dashed
370
    18
100
AcDbSpline
210
0.0
220
0.0
230
1.0
 70
     8
 71
     3
 72
     8
 73
     4
 74
     0
 42
0.000000001
 43
0.00000001
 40
0.6874999999999997
 40
0.6874999999999997
 40
0.6874999999999997
 40
0.6874999999999997
 40
0.7187499999999997
 40
0.7187499999999997
 40
0.7187499999999997
 40
0.7187499999999997
 10
36.25135947132598
 20
6.842313935928643
 30
0.0
 10
35.98211353293422
 20
6.773397714203947
 30
0.0
 10
35.69397952181509
 20
6.715036994504022
 30
0.0
 10
35.40170592030188
 20
6.67555792175513
 30
0.0
  0
SPLINE
  5
1A2
330
1F
100
AcDbEntity
  8
SK3
  6
SLD-Dashed
370
    18
100
AcDbSpline
210
0.0
220
0.0
230
1.0
 70
     8
 71
     3
 72
     8
 73
     4
 74
     0
 42
0.000000001
 43
0.00000001
 40
0.7187499999999997
 40
0.7187499999999997
 40
0.7187499999999997
 40
0.7187499999999997
 40
0.7499999999999997
 40
0.7499999999999997
 40
0.7499999999999997
 40
0.7499999999999997
 10
35.40170592030189
 20
6.67555792175513
 30
0.0
 10
35.10943231878867
 20
6.63607884900623
 30
0.0
 10
34.8092945093489
 20
6.614616325728149
 30
0.0
 10
34.50513334705711
 20
6.6143802696286
 30
0.0
  0
SPLINE
  5
1A3
330
1F
100
AcDbEntity
  8
SK3
  6
SLD-Dashed
370
    18
100
AcDbSpline
210
0.0
220
0.0
230
1.0
 70
     8
 71
     3
 72
     8
 73
     4
 74
     0
 42
0.000000001
 43
0.00000001
 40
0.7499999999999997
 40
0.7499999999999997
 40
0.7499999999999997
 40
0.7499999999999997
 40
0.7812499999999997
 40
0.7812499999999997
 40
0.7812499999999997
 40
0.7812499999999997
 10
34.5051333470571
 20
6.6143802696286
 30
0.0
 10
34.20097218476534
 20
6.614144213529065
 30
0.0
 10
33.90261811042285
 20
6.634949233349278
 30
0.0
 10
33.60963078485465
 20
6.674036060681614
 30
0.0
  0
SPLINE
  5
1A4
330
1F
100
AcDbEntity
  8
SK3
  6
SLD-Dashed
370
    18
100
AcDbSpline
210
0.0
220
0.0
230
1.0
 70
     8
 71
     3
 72
     8
 73
     4
 74
     0
 42
0.000000001
 43
0.00000001
 40
0.7812499999999997
 40
0.7812499999999997
 40
0.7812499999999997
 40
0.7812499999999997
 40
0.8124999999999997
 40
0.8124999999999997
 40
0.8124999999999997
 40
0.8124999999999997
 10
33.60963078485465
 20
6.674036060681614
 30
0.0
 10
33.31664345928646
 20
6.713122888013956
 30
0.0
 10
33.02866393705327
 20
6.770999145119603
 30
0.0
 10
32.75821324592668
 20
6.839869961970418
 30
0.0
  0
SPLINE
  5
1A5
330
1F
100
AcDbEntity
  8
SK3
  6
SLD-Dashed
370
    18
100
AcDbSpline
210
0.0
220
0.0
230
1.0
 70
     8
 71
     3
 72
     8
 73
     4
 74
     0
 42
0.000000001
 43
0.00000001
 40
0.8124999999999997
 40
0.8124999999999997
 40
0.8124999999999997
 40
0.8124999999999997
 40
0.8437499999999997
 40
0.8437499999999997
 40
0.8437499999999997
 40
0.8437499999999997
 10
32.75821324592668
 20
6.839869961970418
 30
0.0
 10
32.48776255480007
 20
6.908740778821247
 30
0.0
 10
32.22925838469197
 20
6.98967312655329
 30
0.0
 10
31.98831621966058
 20
7.075207093253183
 30
0.0
  0
SPLINE
  5
1A6
330
1F
100
AcDbEntity
  8
SK3
  6
SLD-Dashed
370
    18
100
AcDbSpline
210
0.0
220
0.0
230
1.0
 70
     8
 71
     3
 72
     8
 73
     4
 74
     0
 42
0.000000001
 43
0.00000001
 40
0.8437499999999997
 40
0.8437499999999997
 40
0.8437499999999997
 40
0.8437499999999997
 40
0.8749999999999996
 40
0.8749999999999996
 40
0.8749999999999996
 40
0.8749999999999996
 10
31.98831621966058
 20
7.075207093253183
 30
0.0
 10
31.74737405462921
 20
7.160741059953075
 30
0.0
 10
31.52560274428714
 20
7.250048342873565
 30
0.0
 10
31.32151462434781
 20
7.338444609263937
 30
0.0
  0
SPLINE
  5
1A7
330
1F
100
AcDbEntity
  8
SK3
  6
SLD-Dashed
370
    18
100
AcDbSpline
210
0.0
220
0.0
230
1.0
 70
     8
 71
     3
 72
     8
 73
     4
 74
     0
 42
0.000000001
 43
0.00000001
 40
0.8749999999999996
 40
0.8749999999999996
 40
0.8749999999999996
 40
0.8749999999999996
 40
0.9062499999999996
 40
0.9062499999999996
 40
0.9062499999999996
 40
0.9062499999999996
 10
31.32151462434781
 20
7.338444609263937
 30
0.0
 10
31.11742650440849
 20
7.426840875654303
 30
0.0
 10
30.93052373767949
 20
7.514738465825975
 30
0.0
 10
30.76869433819175
 20
7.594250584609545
 30
0.0
  0
SPLINE
  5
1A8
330
1F
100
AcDbEntity
  8
SK3
  6
SLD-Dashed
370
    18
100
AcDbSpline
210
0.0
220
0.0
230
1.0
 70
     8
 71
     3
 72
     8
 73
     4
 74
     0
 42
0.000000001
 43
0.00000001
 40
0.9062499999999996
 40
0.9062499999999996
 40
0.9062499999999996
 40
0.9062499999999996
 40
0.9374999999999996
 40
0.9374999999999996
 40
0.9374999999999996
 40
0.9374999999999996
 10
30.76869433819175
 20
7.594250584609545
 30
0.0
 10
30.60686493870401
 20
7.673762703393115
 30
0.0
 10
30.46793836844629
 20
7.745840814320462
 30
0.0
 10
30.35307358919107
 20
7.806855875233311
 30
0.0
  0
SPLINE
  5
1A9
330
1F
100
AcDbEntity
  8
SK3
  6
SLD-Dashed
370
    18
100
AcDbSpline
210
0.0
220
0.0
230
1.0
 70
     8
 71
     3
 72
     8
 73
     4
 74
     0
 42
0.000000001
 43
0.00000001
 40
0.9374999999999996
 40
0.9374999999999996
 40
0.9374999999999996
 40
0.9374999999999996
 40
0.9531249999999997
 40
0.9531249999999997
 40
0.9531249999999997
 40
0.9531249999999997
 10
30.35307358919107
 20
7.806855875233311
 30
0.0
 10
30.29564119956345
 20
7.837363405689731
 30
0.0
 10
30.24408471813572
 20
7.86520535279929
 30
0.0
 10
30.2001047065644
 20
7.889176099854144
 30
0.0
  0
SPLINE
  5
1AA
330
1F
100
AcDbEntity
  8
SK3
  6
SLD-Dashed
370
    18
100
AcDbSpline
210
0.0
220
0.0
230
1.0
 70
     8
 71
     3
 72
     8
 73
     4
 74
     0
 42
0.000000001
 43
0.00000001
 40
0.9531249999999997
 40
0.9531249999999997
 40
0.9531249999999997
 40
0.9531249999999997
 40
0.9687499999999998
 40
0.9687499999999998
 40
0.9687499999999998
 40
0.9687499999999998
 10
30.2001047065644
 20
7.889176099854144
 30
0.0
 10
30.15612469499306
 20
7.913146846908997
 30
0.0
 10
30.11938312485282
 20
7.933422906770043
 30
0.0
 10
30.08981565659383
 20
7.949825529080807
 30
0.0
  0
SPLINE
  5
1AB
330
1F
100
AcDbEntity
  8
SK3
  6
SLD-Dashed
370
    18
100
AcDbSpline
210
0.0
220
0.0
230
1.0
 70
     8
 71
     2
 72
     6
 73
     3
 74
     0
 42
0.000000001
 43
0.00000001
 40
0.9687499999999998
 40
0.9687499999999998
 40
0.9687499999999998
 40
1.0
 40
1.0
 40
1.0
 10
30.08981565659383
 20
7.949825529080807
 30
0.0
 10
30.03068072007577
 20
7.982630773702357
 30
0.0
 10
30.0
 20
8.000000000000007
 30
0.0
  0
SPLINE
  5
1AC
330
1F
100
AcDbEntity
  8
SK3
  6
SLD-Dashed
370
    18
100
AcDbSpline
210
0.0
220
0.0
230
1.0
 70
     8
 71
     2
 72
     6
 73
     3
 74
     0
 42
0.000000001
 43
0.00000001
 40
0.0
 40
0.0
 40
0.0
 40
0.03125
 40
0.03125
 40
0.03125
 10
51.00000000000001
 20
8.000000000000007
 30
0.0
 10
51.03051695315705
 20
7.982721965835104
 30
0.0
 10
51.0897493760725
 20
7.949862298546599
 30
0.0
  0
SPLINE
  5
1AD
330
1F
100
AcDbEntity
  8
SK3
  6
SLD-Dashed
370
    18
100
AcDbSpline
210
0.0
220
0.0
230
1.0
 70
     8
 71
     3
 72
     8
 73
     4
 74
     0
 42
0.000000001
 43
0.00000001
 40
0.03125
 40
0.03125
 40
0.03125
 40
0.03125
 40
0.0625
 40
0.0625
 40
0.0625
 40
0.0625
 10
51.0897493760725
 20
7.949862298546599
 30
0.0
 10
51.14898179898797
 20
7.917002631258094
 30
0.0
 10
51.23855466659172
 20
7.867689224083388
 30
0.0
 10
51.35288314620093
 20
7.806957038376992
 30
0.0
  0
SPLINE
  5
1AE
330
1F
100
AcDbEntity
  8
SK3
  6
SLD-Dashed
370
    18
100
AcDbSpline
210
0.0
220
0.0
230
1.0
 70
     8
 71
     3
 72
     8
 73
     4
 74
     0
 42
0.000000001
 43
0.00000001
 40
0.0625
 40
0.0625
 40
0.0625
 40
0.0625
 40
0.09375
 40
0.09375
 40
0.09375
 40
0.09375
 10
51.35288314620093
 20
7.806957038376992
 30
0.0
 10
51.46721162581017
 20
7.74622485267059
 30
0.0
 10
51.60618923804859
 20
7.674080947736889
 30
0.0
 10
51.76953910877422
 20
7.593835556618606
 30
0.0
  0
SPLINE
  5
1AF
330
1F
100
AcDbEntity
  8
SK3
  6
SLD-Dashed
370
    18
100
AcDbSpline
210
0.0
220
0.0
230
1.0
 70
     8
 71
     3
 72
     8
 73
     4
 74
     0
 42
0.000000001
 43
0.00000001
 40
0.09375
 40
0.09375
 40
0.09375
 40
0.09375
 40
0.1249999999999999
 40
0.1249999999999999
 40
0.1249999999999999
 40
0.1249999999999999
 10
51.76953910877422
 20
7.593835556618606
 30
0.0
 10
51.93288897949984
 20
7.513590165500323
 30
0.0
 10
52.11758605573556
 20
7.426791183647634
 30
0.0
 10
52.32065278629445
 20
7.338817936513857
 30
0.0
  0
SPLINE
  5
1B0
330
1F
100
AcDbEntity
  8
SK3
  6
SLD-Dashed
370
    18
100
AcDbSpline
210
0.0
220
0.0
230
1.0
 70
     8
 71
     3
 72
     8
 73
     4
 74
     0
 42
0.000000001
 43
0.00000001
 40
0.1249999999999999
 40
0.1249999999999999
 40
0.1249999999999999
 40
0.1249999999999999
 40
0.1562499999999999
 40
0.1562499999999999
 40
0.1562499999999999
 40
0.1562499999999999
 10
52.32065278629445
 20
7.338817936513857
 30
0.0
 10
52.52371951685333
 20
7.250844689380073
 30
0.0
 10
52.74832622677053
 20
7.160407064960516
 30
0.0
 10
52.98818043645645
 20
7.075255297146525
 30
0.0
  0
SPLINE
  5
1B1
330
1F
100
AcDbEntity
  8
SK3
  6
SLD-Dashed
370
    18
100
AcDbSpline
210
0.0
220
0.0
230
1.0
 70
     8
 71
     3
 72
     8
 73
     4
 74
     0
 42
0.000000001
 43
0.00000001
 40
0.1562499999999999
 40
0.1562499999999999
 40
0.1562499999999999
 40
0.1562499999999999
 40
0.1874999999999999
 40
0.1874999999999999
 40
0.1874999999999999
 40
0.1874999999999999
 10
52.98818043645645
 20
7.075255297146525
 30
0.0
 10
53.22803464614237
 20
6.990103529332541
 30
0.0
 10
53.48153064188793
 20
6.910628704281482
 30
0.0
 10
53.75013591056402
 20
6.841931330516089
 30
0.0
  0
SPLINE
  5
1B2
330
1F
100
AcDbEntity
  8
SK3
  6
SLD-Dashed
370
    18
100
AcDbSpline
210
0.0
220
0.0
230
1.0
 70
     8
 71
     3
 72
     8
 73
     4
 74
     0
 42
0.000000001
 43
0.00000001
 40
0.1874999999999999
 40
0.1874999999999999
 40
0.1874999999999999
 40
0.1874999999999999
 40
0.2187499999999999
 40
0.2187499999999999
 40
0.2187499999999999
 40
0.2187499999999999
 10
53.75013591056402
 20
6.841931330516089
 30
0.0
 10
54.01874117924006
 20
6.773233956750703
 30
0.0
 10
54.30633267888911
 20
6.714987733068792
 30
0.0
 10
54.59845917055748
 20
6.675535623989433
 30
0.0
  0
SPLINE
  5
1B3
330
1F
100
AcDbEntity
  8
SK3
  6
SLD-Dashed
370
    18
100
AcDbSpline
210
0.0
220
0.0
230
1.0
 70
     8
 71
     3
 72
     8
 73
     4
 74
     0
 42
0.000000001
 43
0.00000001
 40
0.2187499999999999
 40
0.2187499999999999
 40
0.2187499999999999
 40
0.2187499999999999
 40
0.2499999999999999
 40
0.2499999999999999
 40
0.2499999999999999
 40
0.2499999999999999
 10
54.59845917055748
 20
6.675535623989433
 30
0.0
 10
54.89058566222585
 20
6.63608351491006
 30
0.0
 10
55.18861503393418
 20
6.614699367385936
 30
0.0
 10
55.49310309116864
 20
6.614381873414288
 30
0.0
  0
SPLINE
  5
1B4
330
1F
100
AcDbEntity
  8
SK3
  6
SLD-Dashed
370
    18
100
AcDbSpline
210
0.0
220
0.0
230
1.0
 70
     8
 71
     3
 72
     8
 73
     4
 74
     0
 42
0.000000001
 43
0.00000001
 40
0.2499999999999999
 40
0.2499999999999999
 40
0.2499999999999999
 40
0.2499999999999999
 40
0.2812499999999999
 40
0.2812499999999999
 40
0.2812499999999999
 40
0.2812499999999999
 10
55.49310309116864
 20
6.614381873414288
 30
0.0
 10
55.79759114840314
 20
6.61406437944264
 30
0.0
 10
56.09576354736766
 20
6.634830538552496
 30
0.0
 10
56.38811877667909
 20
6.673736207064976
 30
0.0
  0
SPLINE
  5
1B5
330
1F
100
AcDbEntity
  8
SK3
  6
SLD-Dashed
370
    18
100
AcDbSpline
210
0.0
220
0.0
230
1.0
 70
     8
 71
     3
 72
     8
 73
     4
 74
     0
 42
0.000000001
 43
0.00000001
 40
0.2812499999999999
 40
0.2812499999999999
 40
0.2812499999999999
 40
0.2812499999999999
 40
0.3124999999999999
 40
0.3124999999999999
 40
0.3124999999999999
 40
0.3124999999999999
 10
56.38811877667909
 20
6.673736207064976
 30
0.0
 10
56.68047400599048
 20
6.712641875577449
 30
0.0
 10
56.96831599389277
 20
6.770349807727817
 30
0.0
 10
57.23856611509116
 20
6.839050528877761
 30
0.0
  0
SPLINE
  5
1B6
330
1F
100
AcDbEntity
  8
SK3
  6
SLD-Dashed
370
    18
100
AcDbSpline
210
0.0
220
0.0
230
1.0
 70
     8
 71
     3
 72
     8
 73
     4
 74
     0
 42
0.000000001
 43
0.00000001
 40
0.3124999999999999
 40
0.3124999999999999
 40
0.3124999999999999
 40
0.3124999999999999
 40
0.3437499999999998
 40
0.3437499999999998
 40
0.3437499999999998
 40
0.3437499999999998
 10
57.23856611509116
 20
6.839050528877761
 30
0.0
 10
57.5088162362896
 20
6.907751250027711
 30
0.0
 10
57.76640895002989
 20
6.988259243251936
 30
0.0
 10
58.00755081921503
 20
7.07374095588368
 30
0.0
  0
SPLINE
  5
1B7
330
1F
100
AcDbEntity
  8
SK3
  6
SLD-Dashed
370
    18
100
AcDbSpline
210
0.0
220
0.0
230
1.0
 70
     8
 71
     3
 72
     8
 73
     4
 74
     0
 42
0.000000001
 43
0.00000001
 40
0.3437499999999998
 40
0.3437499999999998
 40
0.3437499999999998
 40
0.3437499999999998
 40
0.3749999999999998
 40
0.3749999999999998
 40
0.3749999999999998
 40
0.3749999999999998
 10
58.00755081921503
 20
7.07374095588368
 30
0.0
 10
58.24869268840018
 20
7.159222668515423
 30
0.0
 10
58.47037646376498
 20
7.248403769343708
 30
0.0
 10
58.67423568239973
 20
7.336604948299991
 30
0.0
  0
SPLINE
  5
1B8
330
1F
100
AcDbEntity
  8
SK3
  6
SLD-Dashed
370
    18
100
AcDbSpline
210
0.0
220
0.0
230
1.0
 70
     8
 71
     3
 72
     8
 73
     4
 74
     0
 42
0.000000001
 43
0.00000001
 40
0.3749999999999998
 40
0.3749999999999998
 40
0.3749999999999998
 40
0.3749999999999998
 40
0.4062499999999998
 40
0.4062499999999998
 40
0.4062499999999998
 40
0.4062499999999998
 10
58.67423568239973
 20
7.336604948299991
 30
0.0
 10
58.87809490103447
 20
7.424806127256281
 30
0.0
 10
59.06520380026186
 20
7.512704344542959
 30
0.0
 10
59.2273373720698
 20
7.592301619748006
 30
0.0
  0
SPLINE
  5
1B9
330
1F
100
AcDbEntity
  8
SK3
  6
SLD-Dashed
370
    18
100
AcDbSpline
210
0.0
220
0.0
230
1.0
 70
     8
 71
     3
 72
     8
 73
     4
 74
     0
 42
0.000000001
 43
0.00000001
 40
0.4062499999999998
 40
0.4062499999999998
 40
0.4062499999999998
 40
0.4062499999999998
 40
0.4374999999999998
 40
0.4374999999999998
 40
0.4374999999999998
 40
0.4374999999999998
 10
59.2273373720698
 20
7.592301619748006
 30
0.0
 10
59.38947094387771
 20
7.671898894953053
 30
0.0
 10
59.52849194178557
 20
7.743981812986897
 30
0.0
 10
59.64346250305775
 20
7.805016432669815
 30
0.0
  0
SPLINE
  5
1BA
330
1F
100
AcDbEntity
  8
SK3
  6
SLD-Dashed
370
    18
100
AcDbSpline
210
0.0
220
0.0
230
1.0
 70
     8
 71
     3
 72
     8
 73
     4
 74
     0
 42
0.000000001
 43
0.00000001
 40
0.4374999999999998
 40
0.4374999999999998
 40
0.4374999999999998
 40
0.4374999999999998
 40
0.4687499999999998
 40
0.4687499999999998
 40
0.4687499999999998
 40
0.4687499999999998
 10
59.64346250305775
 20
7.805016432669815
 30
0.0
 10
59.75843306432994
 20
7.866051052352739
 30
0.0
 10
59.84853636389307
 20
7.915636269537687
 30
0.0
 10
59.90827333620975
 20
7.948765552382199
 30
0.0
  0
SPLINE
  5
1BB
330
1F
100
AcDbEntity
  8
SK3
  6
SLD-Dashed
370
    18
100
AcDbSpline
210
0.0
220
0.0
230
1.0
 70
     8
 71
     3
 72
     8
 73
     4
 74
     0
 42
0.000000001
 43
0.00000001
 40
0.4687499999999998
 40
0.4687499999999998
 40
0.4687499999999998
 40
0.4687499999999998
 40
0.4999999999999999
 40
0.4999999999999999
 40
0.4999999999999999
 40
0.4999999999999999
 10
59.90827333620975
 20
7.948765552382199
 30
0.0
 10
59.96801030852643
 20
7.981894835226711
 30
0.0
 10
59.99922227019379
 20
7.999562527919037
 30
0.0
 10
59.9999858008078
 20
7.999992012963017
 30
0.0
  0
SPLINE
  5
1BC
330
1F
100
AcDbEntity
  8
SK3
  6
SLD-Dashed
370
    18
100
AcDbSpline
210
0.0
220
0.0
230
1.0
 70
     8
 71
     3
 72
     8
 73
     4
 74
     0
 42
0.000000001
 43
0.00000001
 40
0.4999999999999999
 40
0.4999999999999999
 40
0.4999999999999999
 40
0.4999999999999999
 40
0.5312499999999999
 40
0.5312499999999999
 40
0.5312499999999999
 40
0.5312499999999999
 10
59.9999858008078
 20
7.999992012963017
 30
0.0
 10
60.00074933142179
 20
8.00042149800699
 30
0.0
 10
59.97079286700595
 20
7.983457755170516
 30
0.0
 10
59.91201339289697
 20
7.950840344209051
 30
0.0
  0
SPLINE
  5
1BD
330
1F
100
AcDbEntity
  8
SK3
  6
SLD-Dashed
370
    18
100
AcDbSpline
210
0.0
220
0.0
230
1.0
 70
     8
 71
     3
 72
     8
 73
     4
 74
     0
 42
0.000000001
 43
0.00000001
 40
0.5312499999999999
 40
0.5312499999999999
 40
0.5312499999999999
 40
0.5312499999999999
 40
0.5624999999999999
 40
0.5624999999999999
 40
0.5624999999999999
 40
0.5624999999999999
 10
59.91201339289697
 20
7.950840344209051
 30
0.0
 10
59.85323391878801
 20
7.918222933247586
 30
0.0
 10
59.76405994728069
 20
7.869108127840245
 30
0.0
 10
59.64994187250446
 20
7.808458077313715
 30
0.0
  0
SPLINE
  5
1BE
330
1F
100
AcDbEntity
  8
SK3
  6
SLD-Dashed
370
    18
100
AcDbSpline
210
0.0
220
0.0
230
1.0
 70
     8
 71
     3
 72
     8
 73
     4
 74
     0
 42
0.000000001
 43
0.00000001
 40
0.5624999999999999
 40
0.5624999999999999
 40
0.5624999999999999
 40
0.5624999999999999
 40
0.5937499999999999
 40
0.5937499999999999
 40
0.5937499999999999
 40
0.5937499999999999
 10
59.64994187250446
 20
7.808458077313715
 30
0.0
 10
59.53582379772822
 20
7.747808026787172
 30
0.0
 10
59.3968731848266
 20
7.675632103598534
 30
0.0
 10
59.23329744874743
 20
7.595229413310984
 30
0.0
  0
SPLINE
  5
1BF
330
1F
100
AcDbEntity
  8
SK3
  6
SLD-Dashed
370
    18
100
AcDbSpline
210
0.0
220
0.0
230
1.0
 70
     8
 71
     3
 72
     8
 73
     4
 74
     0
 42
0.000000001
 43
0.00000001
 40
0.5937499999999999
 40
0.5937499999999999
 40
0.5937499999999999
 40
0.5937499999999999
 40
0.6249999999999998
 40
0.6249999999999998
 40
0.6249999999999998
 40
0.6249999999999998
 10
59.23329744874743
 20
7.595229413310984
 30
0.0
 10
59.06972171266826
 20
7.514826723023428
 30
0.0
 10
58.88554599491503
 20
7.428215304121341
 30
0.0
 10
58.68231554664745
 20
7.340104375173024
 30
0.0
  0
SPLINE
  5
1C0
330
1F
100
AcDbEntity
  8
SK3
  6
SLD-Dashed
370
    18
100
AcDbSpline
210
0.0
220
0.0
230
1.0
 70
     8
 71
     3
 72
     8
 73
     4
 74
     0
 42
0.000000001
 43
0.00000001
 40
0.6249999999999998
 40
0.6249999999999998
 40
0.6249999999999998
 40
0.6249999999999998
 40
0.6562499999999998
 40
0.6562499999999998
 40
0.6562499999999998
 40
0.6562499999999998
 10
58.68231554664745
 20
7.340104375173024
 30
0.0
 10
58.47908509837986
 20
7.251993446224708
 30
0.0
 10
58.25389209220926
 20
7.161262629541136
 30
0.0
 10
58.01410582372317
 20
7.076067275886999
 30
0.0
  0
SPLINE
  5
1C1
330
1F
100
AcDbEntity
  8
SK3
  6
SLD-Dashed
370
    18
100
AcDbSpline
210
0.0
220
0.0
230
1.0
 70
     8
 71
     3
 72
     8
 73
     4
 74
     0
 42
0.000000001
 43
0.00000001
 40
0.6562499999999998
 40
0.6562499999999998
 40
0.6562499999999998
 40
0.6562499999999998
 40
0.6874999999999998
 40
0.6874999999999998
 40
0.6874999999999998
 40
0.6874999999999998
 10
58.01410582372317
 20
7.076067275886999
 30
0.0
 10
57.77431955523708
 20
6.990871922232862
 30
0.0
 10
57.5206054097177
 20
6.911230157653332
 30
0.0
 10
57.25135947132594
 20
6.842313935928643
 30
0.0
  0
SPLINE
  5
1C2
330
1F
100
AcDbEntity
  8
SK3
  6
SLD-Dashed
370
    18
100
AcDbSpline
210
0.0
220
0.0
230
1.0
 70
     8
 71
     3
 72
     8
 73
     4
 74
     0
 42
0.000000001
 43
0.00000001
 40
0.6874999999999998
 40
0.6874999999999998
 40
0.6874999999999998
 40
0.6874999999999998
 40
0.7187499999999998
 40
0.7187499999999998
 40
0.7187499999999998
 40
0.7187499999999998
 10
57.25135947132594
 20
6.842313935928643
 30
0.0
 10
56.9821135329342
 20
6.773397714203947
 30
0.0
 10
56.69397952181509
 20
6.715036994504015
 30
0.0
 10
56.40170592030186
 20
6.675557921755122
 30
0.0
  0
SPLINE
  5
1C3
330
1F
100
AcDbEntity
  8
SK3
  6
SLD-Dashed
370
    18
100
AcDbSpline
210
0.0
220
0.0
230
1.0
 70
     8
 71
     3
 72
     8
 73
     4
 74
     0
 42
0.000000001
 43
0.00000001
 40
0.7187499999999998
 40
0.7187499999999998
 40
0.7187499999999998
 40
0.7187499999999998
 40
0.7499999999999998
 40
0.7499999999999998
 40
0.7499999999999998
 40
0.7499999999999998
 10
56.40170592030185
 20
6.675557921755122
 30
0.0
 10
56.10943231878863
 20
6.636078849006221
 30
0.0
 10
55.80929450934886
 20
6.614616325728133
 30
0.0
 10
55.5051333470571
 20
6.614380269628583
 30
0.0
  0
SPLINE
  5
1C4
330
1F
100
AcDbEntity
  8
SK3
  6
SLD-Dashed
370
    18
100
AcDbSpline
210
0.0
220
0.0
230
1.0
 70
     8
 71
     3
 72
     8
 73
     4
 74
     0
 42
0.000000001
 43
0.00000001
 40
0.7499999999999998
 40
0.7499999999999998
 40
0.7499999999999998
 40
0.7499999999999998
 40
0.7812499999999998
 40
0.7812499999999998
 40
0.7812499999999998
 40
0.7812499999999998
 10
55.5051333470571
 20
6.614380269628582
 30
0.0
 10
55.20097218476533
 20
6.614144213529048
 30
0.0
 10
54.90261811042285
 20
6.634949233349277
 30
0.0
 10
54.60963078485466
 20
6.674036060681614
 30
0.0
  0
SPLINE
  5
1C5
330
1F
100
AcDbEntity
  8
SK3
  6
SLD-Dashed
370
    18
100
AcDbSpline
210
0.0
220
0.0
230
1.0
 70
     8
 71
     3
 72
     8
 73
     4
 74
     0
 42
0.000000001
 43
0.00000001
 40
0.7812499999999998
 40
0.7812499999999998
 40
0.7812499999999998
 40
0.7812499999999998
 40
0.8124999999999998
 40
0.8124999999999998
 40
0.8124999999999998
 40
0.8124999999999998
 10
54.60963078485466
 20
6.674036060681614
 30
0.0
 10
54.3166434592865
 20
6.713122888013956
 30
0.0
 10
54.02866393705327
 20
6.770999145119603
 30
0.0
 10
53.75821324592667
 20
6.839869961970425
 30
0.0
  0
SPLINE
  5
1C6
330
1F
100
AcDbEntity
  8
SK3
  6
SLD-Dashed
370
    18
100
AcDbSpline
210
0.0
220
0.0
230
1.0
 70
     8
 71
     3
 72
     8
 73
     4
 74
     0
 42
0.000000001
 43
0.00000001
 40
0.8124999999999998
 40
0.8124999999999998
 40
0.8124999999999998
 40
0.8124999999999998
 40
0.8437499999999998
 40
0.8437499999999998
 40
0.8437499999999998
 40
0.8437499999999998
 10
53.75821324592667
 20
6.839869961970425
 30
0.0
 10
53.48776255480008
 20
6.908740778821254
 30
0.0
 10
53.22925838469197
 20
6.98967312655329
 30
0.0
 10
52.98831621966056
 20
7.075207093253183
 30
0.0
  0
SPLINE
  5
1C7
330
1F
100
AcDbEntity
  8
SK3
  6
SLD-Dashed
370
    18
100
AcDbSpline
210
0.0
220
0.0
230
1.0
 70
     8
 71
     3
 72
     8
 73
     4
 74
     0
 42
0.000000001
 43
0.00000001
 40
0.8437499999999998
 40
0.8437499999999998
 40
0.8437499999999998
 40
0.8437499999999998
 40
0.8749999999999997
 40
0.8749999999999997
 40
0.8749999999999997
 40
0.8749999999999997
 10
52.98831621966056
 20
7.075207093253183
 30
0.0
 10
52.74737405462918
 20
7.160741059953082
 30
0.0
 10
52.52560274428713
 20
7.250048342873565
 30
0.0
 10
52.32151462434782
 20
7.338444609263937
 30
0.0
  0
SPLINE
  5
1C8
330
1F
100
AcDbEntity
  8
SK3
  6
SLD-Dashed
370
    18
100
AcDbSpline
210
0.0
220
0.0
230
1.0
 70
     8
 71
     3
 72
     8
 73
     4
 74
     0
 42
0.000000001
 43
0.00000001
 40
0.8749999999999997
 40
0.8749999999999997
 40
0.8749999999999997
 40
0.8749999999999997
 40
0.9062499999999997
 40
0.9062499999999997
 40
0.9062499999999997
 40
0.9062499999999997
 10
52.32151462434782
 20
7.338444609263937
 30
0.0
 10
52.11742650440848
 20
7.426840875654303
 30
0.0
 10
51.93052373767947
 20
7.514738465825975
 30
0.0
 10
51.76869433819176
 20
7.594250584609545
 30
0.0
  0
SPLINE
  5
1C9
330
1F
100
AcDbEntity
  8
SK3
  6
SLD-Dashed
370
    18
100
AcDbSpline
210
0.0
220
0.0
230
1.0
 70
     8
 71
     3
 72
     8
 73
     4
 74
     0
 42
0.000000001
 43
0.00000001
 40
0.9062499999999997
 40
0.9062499999999997
 40
0.9062499999999997
 40
0.9062499999999997
 40
0.9374999999999997
 40
0.9374999999999997
 40
0.9374999999999997
 40
0.9374999999999997
 10
51.76869433819176
 20
7.594250584609545
 30
0.0
 10
51.60686493870401
 20
7.673762703393115
 30
0.0
 10
51.46793836844628
 20
7.745840814320462
 30
0.0
 10
51.35307358919107
 20
7.806855875233311
 30
0.0
  0
SPLINE
  5
1CA
330
1F
100
AcDbEntity
  8
SK3
  6
SLD-Dashed
370
    18
100
AcDbSpline
210
0.0
220
0.0
230
1.0
 70
     8
 71
     3
 72
     8
 73
     4
 74
     0
 42
0.000000001
 43
0.00000001
 40
0.9374999999999997
 40
0.9374999999999997
 40
0.9374999999999997
 40
0.9374999999999997
 40
0.9531249999999998
 40
0.9531249999999998
 40
0.9531249999999998
 40
0.9531249999999998
 10
51.35307358919107
 20
7.806855875233311
 30
0.0
 10
51.29564119956346
 20
7.837363405689731
 30
0.0
 10
51.2440847181357
 20
7.86520535279929
 30
0.0
 10
51.20010470656436
 20
7.889176099854136
 30
0.0
  0
SPLINE
  5
1CB
330
1F
100
AcDbEntity
  8
SK3
  6
SLD-Dashed
370
    18
100
AcDbSpline
210
0.0
220
0.0
230
1.0
 70
     8
 71
     3
 72
     8
 73
     4
 74
     0
 42
0.000000001
 43
0.00000001
 40
0.9531249999999998
 40
0.9531249999999998
 40
0.9531249999999998
 40
0.9531249999999998
 40
0.9687499999999999
 40
0.9687499999999999
 40
0.9687499999999999
 40
0.9687499999999999
 10
51.20010470656436
 20
7.889176099854136
 30
0.0
 10
51.15612469499306
 20
7.91314684690899
 30
0.0
 10
51.11938312485284
 20
7.933422906770043
 30
0.0
 10
51.08981565659384
 20
7.949825529080822
 30
0.0
  0
SPLINE
  5
1CC
330
1F
100
AcDbEntity
  8
SK3
  6
SLD-Dashed
370
    18
100
AcDbSpline
210
0.0
220
0.0
230
1.0
 70
     8
 71
     2
 72
     6
 73
     3
 74
     0
 42
0.000000001
 43
0.00000001
 40
0.9687499999999999
 40
0.9687499999999999
 40
0.9687499999999999
 40
1.0
 40
1.0
 40
1.0
 10
51.08981565659384
 20
7.949825529080822
 30
0.0
 10
51.0306807200758
 20
7.982630773702357
 30
0.0
 10
51.00000000000001
 20
8.000000000000007
 30
0.0
  0
SPLINE
  5
1CD
330
1F
100
AcDbEntity
  8
SK3
  6
SLD-Dashed
370
    18
100
AcDbSpline
210
0.0
220
0.0
230
1.0
 70
     8
 71
     3
 72
    32
 73
    28
 74
     0
 42
0.000000001
 43
0.00000001
 40
0.4999999999999988
 40
0.4999999999999988
 40
0.4999999999999988
 40
0.4999999999999988
 40
0.5624999999999994
 40
0.5624999999999994
 40
0.5937499999999996
 40
0.5937499999999996
 40
0.6249999999999997
 40
0.6249999999999997
 40
0.6874999999999999
 40
0.6874999999999999
 40
0.71875
 40
0.71875
 40
0.75
 40
0.75
 40
0.7812500000000001
 40
0.7812500000000001
 40
0.8125000000000002
 40
0.8125000000000002
 40
0.8750000000000004
 40
0.8750000000000004
 40
0.9062500000000003
 40
0.9062500000000003
 40
0.9375000000000002
 40
0.9375000000000002
 40
0.9687500000000001
 40
0.9687500000000001
 40
1.0
 40
1.0
 40
1.0
 40
1.0
 10
9.000685383145912
 20
3.164795175867916
 30
0.0
 10
8.784307251049853
 20
3.164868888949735
 30
0.0
 10
8.565857119842146
 20
3.129223735228684
 30
0.0
 10
8.267278601634786
 20
3.026203748506692
 30
0.0
 10
8.170794403382503
 20
2.983011106508754
 30
0.0
 10
7.992615623975588
 20
2.882490537233731
 30
0.0
 10
7.909974533186329
 20
2.824979481875017
 30
0.0
 10
7.681296607499374
 20
2.629028727721375
 30
0.0
 10
7.560309898818216
 20
2.472051589998539
 30
0.0
 10
7.434982192876554
 20
2.202362546210423
 30
0.0
 10
7.403559929558351
 20
2.108905456397477
 30
0.0
 10
7.361024957942303
 20
1.914573275935596
 30
0.0
 10
7.350009135711558
 20
1.81240750112617
 30
0.0
 10
7.349990875921003
 20
1.60805430357655
 30
0.0
 10
7.360625977921726
 20
1.505662667210826
 30
0.0
 10
7.40317762980161
 20
1.300564129759291
 30
0.0
 10
7.435294575131771
 20
1.198294545144037
 30
0.0
 10
7.559377684772384
 20
0.9050868556611108
 30
0.0
 10
7.681993664855044
 20
0.721111734867018
 30
0.0
 10
7.908848572887928
 20
0.4893022765050103
 30
0.0
 10
7.993082766552681
 20
0.4179146106539355
 30
0.0
 10
8.171425427482296
 20
0.2941075388319045
 30
0.0
 10
8.265737672008527
 20
0.2411604132373513
 30
0.0
 10
8.465070299605152
 20
0.1540322334411953
 30
0.0
 10
8.5703033033908
 20
0.1201415292548524
 30
0.0
 10
8.782247769378582
 20
0.0753318181066914
 30
0.0
 10
8.890157155980086
 20
0.0638096440184477
 30
0.0
 10
8.999999999999995
 20
0.0638096440184477
 30
0.0
  0
SPLINE
  5
1CE
330
1F
100
AcDbEntity
  8
SK3
  6
SLD-Dashed
370
    18
100
AcDbSpline
210
0.0
220
0.0
230
1.0
 70
     8
 71
     3
 72
    34
 73
    30
 74
     0
 42
0.000000001
 43
0.00000001
 40
0.0
 40
0.0
 40
0.0
 40
0.0
 40
0.0312499999999998
 40
0.0312499999999998
 40
0.0624999999999995
 40
0.0624999999999995
 40
0.0937499999999993
 40
0.0937499999999993
 40
0.1249999999999991
 40
0.1249999999999991
 40
0.1874999999999989
 40
0.1874999999999989
 40
0.2187499999999988
 40
0.2187499999999988
 40
0.2499999999999988
 40
0.2499999999999988
 40
0.2812499999999987
 40
0.2812499999999987
 40
0.3124999999999987
 40
0.3124999999999987
 40
0.3749999999999983
 40
0.3749999999999983
 40
0.4062499999999984
 40
0.4062499999999984
 40
0.4374999999999986
 40
0.4374999999999986
 40
0.4687499999999987
 40
0.4687499999999987
 40
0.4999999999999988
 40
0.4999999999999988
 40
0.4999999999999988
 40
0.4999999999999988
 10
8.999999999999995
 20
0.0638096440184477
 30
0.0
 10
9.109842844019875
 20
0.0638096440184477
 30
0.0
 10
9.217683618978818
 20
0.0753239405347841
 30
0.0
 10
9.429580290420041
 20
0.1201102957821137
 30
0.0
 10
9.534760422403227
 20
0.1539693909202652
 30
0.0
 10
9.73415032177133
 20
0.2411003223040456
 30
0.0
 10
9.828595032442418
 20
0.2941007602278445
 30
0.0
 10
10.00733987927978
 20
0.4182290493176602
 30
0.0
 10
10.0913058433776
 20
0.4894538131780604
 30
0.0
 10
10.31784562754151
 20
0.7209600276564045
 30
0.0
 10
10.44052301034963
 20
0.9050379409593703
 30
0.0
 10
10.56442122511163
 20
1.197530486659347
 30
0.0
 10
10.59654724313086
 20
1.299554875949793
 30
0.0
 10
10.63925901060966
 20
1.504794342566153
 30
0.0
 10
10.64992763525402
 20
1.607111882983944
 30
0.0
 10
10.65007163805726
 20
1.811031531776051
 30
0.0
 10
10.6391686382768
 20
1.913334853432362
 30
0.0
 10
10.59668879963405
 20
2.108119339170697
 30
0.0
 10
10.5652658533682
 20
2.201717895136464
 30
0.0
 10
10.43998961692484
 20
2.471627793472396
 30
0.0
 10
10.31831949186758
 20
2.629336524130957
 30
0.0
 10
10.09035276568475
 20
2.824709596062319
 30
0.0
 10
10.00786710831009
 20
2.88217716863827
 30
0.0
 10
9.829716194653434
 20
2.982763854045778
 30
0.0
 10
9.73322868889992
 20
3.025980196719444
 30
0.0
 10
9.534653051340033
 20
3.094592381840455
 30
0.0
 10
9.43174677573376
 20
3.120597106963524
 30
0.0
 10
9.218294344925479
 20
3.155881951346307
 30
0.0
 10
9.108874449193936
 20
3.164758319326999
 30
0.0
 10
9.000685383145912
 20
3.164795175867916
 30
0.0
  0
SPLINE
  5
1CF
330
1F
100
AcDbEntity
  8
SK3
  6
SLD-Dashed
370
    18
100
AcDbSpline
210
0.0
220
0.0
230
1.0
 70
    24
 71
     3
 72
     8
 73
     4
 74
     0
 42
0.000000001
 43
0.00000001
 40
0.0
 40
0.0
 40
0.0
 40
0.0
 40
0.4999999999999986
 40
0.4999999999999986
 40
0.4999999999999986
 40
0.4999999999999986
 10
2.000000000000002
 20
-22.49999999999998
 30
0.0
 10
2.083477230592448
 20
-22.49999999999999
 30
0.0
 10
2.165250237669225
 20
-22.49999999999999
 30
0.0
 10
2.237167806898782
 20
-22.5
 30
0.0
  0
SPLINE
  5
1D0
330
1F
100
AcDbEntity
  8
SK3
  6
SLD-Dashed
370
    18
100
AcDbSpline
210
0.0
220
0.0
230
1.0
 70
    24
 71
     3
 72
     8
 73
     4
 74
     0
 42
0.000000001
 43
0.00000001
 40
0.4999999999999986
 40
0.4999999999999986
 40
0.4999999999999986
 40
0.4999999999999986
 40
0.7499999999999992
 40
0.7499999999999992
 40
0.7499999999999992
 40
0.7499999999999992
 10
2.237167806898782
 20
-22.5
 30
0.0
 10
2.273126591513547
 20
-22.49999999999999
 30
0.0
 10
2.306332390229787
 20
-22.49999999999999
 30
0.0
 10
2.332123478181958
 20
-22.49999999999999
 30
0.0
  0
SPLINE
  5
1D1
330
1F
100
AcDbEntity
  8
SK3
  6
SLD-Dashed
370
    18
100
AcDbSpline
210
0.0
220
0.0
230
1.0
 70
    24
 71
     2
 72
     6
 73
     3
 74
     0
 42
0.000000001
 43
0.00000001
 40
0.7499999999999992
 40
0.7499999999999992
 40
0.7499999999999992
 40
1.0
 40
1.0
 40
1.0
 10
2.332123478181972
 20
-22.49999999999999
 30
0.0
 10
2.357914566134114
 20
-22.49999999999997
 30
0.0
 10
2.375000000000016
 20
-22.49999999999996
 30
0.0
  0
SPLINE
  5
1D2
330
1F
100
AcDbEntity
  8
SK3
  6
SLD-Dashed
370
    18
100
AcDbSpline
210
0.0
220
0.0
230
1.0
 70
    24
 71
     2
 72
     6
 73
     3
 74
     0
 42
0.000000001
 43
0.00000001
 40
0.0
 40
0.0
 40
0.0
 40
0.2500000000000007
 40
0.2500000000000007
 40
0.2500000000000007
 10
2.375000000000002
 20
22.50000000020558
 30
0.0
 10
2.357424479332904
 20
22.50000000019519
 30
0.0
 10
2.331652105107218
 20
22.50000000017993
 30
0.0
  0
SPLINE
  5
1D3
330
1F
100
AcDbEntity
  8
SK3
  6
SLD-Dashed
370
    18
100
AcDbSpline
210
0.0
220
0.0
230
1.0
 70
    24
 71
     3
 72
     8
 73
     4
 74
     0
 42
0.000000001
 43
0.00000001
 40
0.2500000000000007
 40
0.2500000000000007
 40
0.2500000000000007
 40
0.2500000000000007
 40
0.5000000000000014
 40
0.5000000000000014
 40
0.5000000000000014
 40
0.5000000000000014
 10
2.331652105107218
 20
22.50000000017993
 30
0.0
 10
2.305879730881546
 20
22.50000000016573
 30
0.0
 10
2.272790772310282
 20
22.50000000014752
 30
0.0
 10
2.236965951746439
 20
22.5000000001278
 30
0.0
  0
SPLINE
  5
1D4
330
1F
100
AcDbEntity
  8
SK3
  6
SLD-Dashed
370
    18
100
AcDbSpline
210
0.0
220
0.0
230
1.0
 70
    24
 71
     3
 72
     8
 73
     4
 74
     0
 42
0.000000001
 43
0.00000001
 40
0.5000000000000014
 40
0.5000000000000014
 40
0.5000000000000014
 40
0.5000000000000014
 40
1.0
 40
1.0
 40
1.0
 40
1.0
 10
2.236965951746439
 20
22.5000000001278
 30
0.0
 10
2.165316310618726
 20
22.50000000008916
 30
0.0
 10
2.083397657057298
 20
22.50000000004497
 30
0.0
 10
2.000000000000002
 20
22.5
 30
0.0
  0
SPLINE
  5
1D5
330
1F
100
AcDbEntity
  8
1
  6
SLD-Dashed
370
    18
100
AcDbSpline
210
0.0
220
0.0
230
1.0
 70
     8
 71
     3
 72
    18
 73
    14
 74
     0
 42
0.000000001
 43
0.00000001
 40
0.0
 40
0.0
 40
0.0
 40
0.0
 40
0.0627579385947615
 40
0.1259236190272596
 40
0.1895094569081281
 40
0.2535275525790195
 40
0.3762719952893132
 40
0.5044894117533241
 40
0.6290085240520769
 40
0.7526965353920501
 40
0.8763987421630108
 40
0.9301250825510503
 40
1.0
 40
1.0
 40
1.0
 40
1.0
 10
2.750000000000003
 20
-30.28510518647363
 30
0.0
 10
2.725247004512224
 20
-30.28439543393522
 30
0.0
 10
2.675580191940321
 20
-30.2829713175564
 30
0.0
 10
2.601584343461777
 20
-30.27144101340946
 30
0.0
 10
2.52860449349615
 20
-30.25299009486341
 30
0.0
 10
2.435839309367971
 20
-30.21912784390065
 30
0.0
 10
2.326166243958969
 20
-30.15965080870898
 30
0.0
 10
2.212102312907749
 20
-30.06458077927565
 30
0.0
 10
2.119026744014749
 20
-29.9488489938759
 30
0.0
 10
2.050928106131694
 20
-29.81915082193418
 30
0.0
 10
2.017348575281117
 20
-29.70556869513439
 30
0.0
 10
2.00235009940368
 20
-29.60996854992777
 30
0.0
 10
2.000848750506809
 20
-29.56166485418548
 30
0.0
 10
2.000000000000002
 20
-29.53435755317955
 30
0.0
  0
SPLINE
  5
1D6
330
1F
100
AcDbEntity
  8
SK3
  6
SLD-Dashed
370
    18
100
AcDbSpline
210
0.0
220
0.0
230
1.0
 70
     8
 71
     3
 72
    33
 73
    29
 74
     0
 42
0.000000001
 43
0.00000001
 40
0.0
 40
0.0
 40
0.0
 40
0.0
 40
0.0314237011767357
 40
0.0627338405838472
 40
0.0877464954133563
 40
0.1252832386178619
 40
0.1539645866459629
 40
0.1970563067230816
 40
0.2505255177847396
 40
0.2789594549292348
 40
0.3216329583856334
 40
0.3752682204637742
 40
0.4040082420405245
 40
0.4468773540298331
 40
0.5002148082814616
 40
0.5286826550733015
 40
0.571549567214257
 40
0.625390502701704
 40
0.6539239774352623
 40
0.6965997818910195
 40
0.7499747437940925
 40
0.7785995635307215
 40
0.8217149157189413
 40
0.8751793187678302
 40
0.9000505647746745
 40
0.9373747247573468
 40
0.9685907020195164
 40
1.0
 40
1.0
 40
1.0
 40
1.0
 10
2.375000000000013
 20
-29.53435755317956
 30
0.0
 10
2.375084653143272
 20
-29.54065054665653
 30
0.0
 10
2.375253653502687
 20
-29.55321379143026
 30
0.0
 10
2.376523288498769
 20
-29.57074878351028
 30
0.0
 10
2.378604433210111
 20
-29.58943061230194
 30
0.0
 10
2.381481695767834
 20
-29.60748253443749
 30
0.0
 10
2.385982972786815
 20
-29.62890925450898
 30
0.0
 10
2.392449659118457
 20
-29.65315822272134
 30
0.0
 10
2.400638163765663
 20
-29.67684232694532
 30
0.0
 10
2.410229138284979
 20
-29.69987740641963
 30
0.0
 10
2.421063479730255
 20
-29.72240392143897
 30
0.0
 10
2.433554974923215
 20
-29.7441423245807
 30
0.0
 10
2.447402504695563
 20
-29.7650602436592
 30
0.0
 10
2.462353574794545
 20
-29.78514459677454
 30
0.0
 10
2.478736246500258
 20
-29.80402570440032
 30
0.0
 10
2.496277991374945
 20
-29.82179847992362
 30
0.0
 10
2.51487365034797
 20
-29.83863468290668
 30
0.0
 10
2.534730261353465
 20
-29.85401037825964
 30
0.0
 10
2.555504834926683
 20
-29.86800335428552
 30
0.0
 10
2.576977045940551
 20
-29.88074321862899
 30
0.0
 10
2.599407555219007
 20
-29.8917850063262
 30
0.0
 10
2.622583009877999
 20
-29.9013218981661
 30
0.0
 10
2.646309265266142
 20
-29.90948954562274
 30
0.0
 10
2.66989701115454
 20
-29.91555645697582
 30
0.0
 10
2.692658387483976
 20
-29.91986541147202
 30
0.0
 10
2.711206195171872
 20
-29.92237236762042
 30
0.0
 10
2.731167694149175
 20
-29.92399644689246
 30
0.0
 10
2.743709659268317
 20
-29.92418572031048
 30
0.0
 10
2.749999999999947
 20
-29.9242806491577
 30
0.0
  0
SPLINE
  5
1D7
330
1F
100
AcDbEntity
  8
1
  6
SLD-Dashed
370
    18
100
AcDbSpline
210
0.0
220
0.0
230
1.0
 70
     8
 71
     3
 72
     8
 73
     4
 74
     0
 42
0.000000001
 43
0.00000001
 40
0.0
 40
0.0
 40
0.0
 40
0.0
 40
0.0006580774610835
 40
0.0006580774610835
 40
0.0006580774610835
 40
0.0006580774610835
 10
11.85425903357669
 20
-29.92428064915764
 30
0.0
 10
11.76317881805253
 20
-30.04464915920002
 30
0.0
 10
11.67175324177072
 20
-30.1649227883955
 30
0.0
 10
11.57999999999998
 20
-30.28510518647365
 30
0.0
  0
SPLINE
  5
1D8
330
1F
100
AcDbEntity
  8
1
  6
SLD-Dashed
370
    18
100
AcDbSpline
210
0.0
220
0.0
230
1.0
 70
     8
 71
     3
 72
    10
 73
     6
 74
     0
 42
0.000000001
 43
0.00000001
 40
0.0
 40
0.0
 40
0.0
 40
0.0
 40
0.5
 40
0.5
 40
1.0
 40
1.0
 40
1.0
 40
1.0
 10
14.47500000000006
 20
-25.23333063628325
 30
0.0
 10
14.37465202603046
 20
-25.23333063628323
 30
0.0
 10
14.27532760647718
 20
-25.27825156892351
 30
0.0
 10
14.13822249352416
 20
-25.42555694812187
 30
0.0
 10
14.09999999999996
 20
-25.52587758576917
 30
0.0
 10
14.1
 20
-25.6268726145037
 30
0.0
  0
SPLINE
  5
1D9
330
1F
100
AcDbEntity
  8
1
  6
SLD-Dashed
370
    18
100
AcDbSpline
210
0.0
220
0.0
230
1.0
 70
     8
 71
     3
 72
     8
 73
     4
 74
     0
 42
0.000000001
 43
0.00000001
 40
0.0
 40
0.0
 40
0.0
 40
0.0
 40
1.0
 40
1.0
 40
1.0
 40
1.0
 10
14.1
 20
-25.87334462303036
 30
0.0
 10
13.35492445838159
 20
-27.22554145382944
 30
0.0
 10
12.60589504630892
 20
-28.57561503933748
 30
0.0
 10
11.85425903357669
 20
-29.92428064915764
 30
0.0
  0
SPLINE
  5
1DA
330
1F
100
AcDbEntity
  8
SK3
  6
SLD-Dashed
370
    18
100
AcDbSpline
210
0.0
220
0.0
230
1.0
 70
     8
 71
     3
 72
    33
 73
    29
 74
     0
 42
0.000000001
 43
0.00000001
 40
0.0
 40
0.0
 40
0.0
 40
0.0
 40
0.0252074824815547
 40
0.050357951287995
 40
0.1006534270886795
 40
0.1499358844483641
 40
0.1865967979878419
 40
0.2121849653061227
 40
0.2505508094801733
 40
0.2790356761955174
 40
0.3220357786263539
 40
0.3758118528652136
 40
0.4042895816645288
 40
0.4469018084879794
 40
0.5002394139146363
 40
0.5288518672268645
 40
0.5719843088306654
 40
0.6254852111034874
 40
0.6539060878876448
 40
0.6965245109396061
 40
0.7500237094317346
 40
0.7787622199762732
 40
0.8217598195003275
 40
0.8751426117198216
 40
0.9000107283364276
 40
0.9373541614063103
 40
0.9685886636354868
 40
1.0
 40
1.0
 40
1.0
 40
1.0
 10
2.750000000000084
 20
29.92428064915774
 30
0.0
 10
2.744951890107579
 20
29.92421926073918
 30
0.0
 10
2.734867088015636
 20
29.92409662274892
 30
0.0
 10
2.714746689273793
 20
29.92278570930054
 30
0.0
 10
2.689935974604247
 20
29.9196725940638
 30
0.0
 10
2.663214788992519
 20
29.91401719689725
 30
0.0
 10
2.641734385249032
 20
29.90785358760453
 30
0.0
 10
2.622673664278636
 20
29.90130971621332
 30
0.0
 10
2.605493847259497
 20
29.89438141143329
 30
0.0
 10
2.585566331205156
 20
29.88505035427631
 30
0.0
 10
2.563490717180468
 20
29.8730989063296
 30
0.0
 10
2.542405605456445
 20
29.85945099869896
 30
0.0
 10
2.522353516277969
 20
29.84450295728995
 30
0.0
 10
2.503235577485551
 20
29.8284946301473
 30
0.0
 10
2.485360680176073
 20
29.81105096924297
 30
0.0
 10
2.46859075681964
 20
29.79243754200221
 30
0.0
 10
2.452859611815904
 20
29.77288037262743
 30
0.0
 10
2.438649216258054
 20
29.7522230335959
 30
0.0
 10
2.425829245839783
 20
29.73082465184541
 30
0.0
 10
2.414183803254976
 20
29.70875259066343
 30
0.0
 10
2.404145436199058
 20
29.68582123764257
 30
0.0
 10
2.395530154489566
 20
29.66226321181004
 30
0.0
 10
2.388194882538316
 20
29.63828839333731
 30
0.0
 10
2.382776911485986
 20
29.61459176710769
 30
0.0
 10
2.378932614864687
 20
29.59176172577707
 30
0.0
 10
2.376698235289798
 20
29.57317439262063
 30
0.0
 10
2.375252733072833
 20
29.55319389468336
 30
0.0
 10
2.375084402742949
 20
29.54064813823184
 30
0.0
 10
2.375000000000002
 20
29.53435755317955
 30
0.0
  0
SPLINE
  5
1DB
330
1F
100
AcDbEntity
  8
1
  6
SLD-Dashed
370
    18
100
AcDbSpline
210
0.0
220
0.0
230
1.0
 70
     8
 71
     3
 72
    10
 73
     6
 74
     0
 42
0.000000001
 43
0.00000001
 40
0.0
 40
0.0
 40
0.0
 40
0.0
 40
0.5
 40
0.5
 40
1.0
 40
1.0
 40
1.0
 40
1.0
 10
14.475
 20
25.23333063628344
 30
0.0
 10
14.37490757871314
 20
25.23333063628345
 30
0.0
 10
14.27461163852707
 20
25.27882845511642
 30
0.0
 10
14.13824980540786
 20
25.42572092542743
 30
0.0
 10
14.10000000000003
 20
25.5266752656974
 30
0.0
 10
14.1
 20
25.62687261450371
 30
0.0
  0
SPLINE
  5
1DC
330
1F
100
AcDbEntity
  8
1
  6
SLD-Dashed
370
    18
100
AcDbSpline
210
0.0
220
0.0
230
1.0
 70
     8
 71
     3
 72
     8
 73
     4
 74
     0
 42
0.000000001
 43
0.00000001
 40
0.0
 40
0.0
 40
0.0
 40
0.0
 40
1.0
 40
1.0
 40
1.0
 40
1.0
 10
14.1
 20
25.87334462303038
 30
0.0
 10
13.35489499866904
 20
27.22559491864979
 30
0.0
 10
12.60586652431962
 20
28.57566621653686
 30
0.0
 10
11.85425903357669
 20
29.92428064915766
 30
0.0
  0
INSERT
  5
1DD
330
1F
100
AcDbEntity
  8
80
100
AcDbBlockReference
  2
Block12
 10
-61.7273641656
 20
-130.3356800267
 30
0.0
  0
INSERT
  5
1DE
330
1F
100
AcDbEntity
  8
81
100
AcDbBlockReference
  2
Block11
 10
-21.6264826505
 20
-130.2676275275
 30
0.0
  0
DIMENSION
  5
1DF
330
1F
100
AcDbEntity
  8
SK2
100
AcDbDimension
  2
_D
 10
27.0
 20
37.8203711442
 30
0.0
 11
14.2763649819
 21
37.8203711442
 31
0.0
 70
   160
  1
<>
 71
     2
 42
-1.0
  3
SLDDIMSTYLE0
100
AcDbAlignedDimension
 13
0.0
 23
22.225
 33
0.0
 14
27.0
 24
30.724895054
 34
0.0
 50
0.0
100
AcDbRotatedDimension
  0
DIMENSION
  5
1EB
330
1F
100
AcDbEntity
  8
SK2
100
AcDbDimension
  2
_D_1
 10
55.5
 20
28.0575810772
 30
0.0
 11
62.3309872006
 21
28.0575810772
 31
0.0
 70
   160
  1
<>
 71
     2
 42
-1.0
  3
SLDDIMSTYLE0
100
AcDbAlignedDimension
 13
70.0
 23
16.0
 33
0.0
 14
55.5
 24
18.45
 34
0.0
100
AcDbRotatedDimension
  0
DIMENSION
  5
1F5
330
1F
100
AcDbEntity
  8
SK2
100
AcDbDimension
  2
_D_2
 10
34.5
 20
28.0575810772
 30
0.0
 11
45.3003423059
 21
28.0575810772
 31
0.0
 70
   160
  1
<>
 71
     2
 42
-1.0
  3
SLDDIMSTYLE0
100
AcDbAlignedDimension
 13
55.5
 23
18.45
 33
0.0
 14
34.5
 24
18.45
 34
0.0
 50
0.0
100
AcDbRotatedDimension
  0
DIMENSION
  5
1FF
330
1F
100
AcDbEntity
  8
SK2
100
AcDbDimension
  2
_D_3
 10
27.0
 20
37.8203711442
 30
0.0
 11
48.771556552
 21
37.8203711442
 31
0.0
 70
   160
  1
<>
 71
     2
 42
-1.0
  3
SLDDIMSTYLE0
100
AcDbAlignedDimension
 13
70.0
 23
16.0
 33
0.0
 14
27.0
 24
30.724895054
 34
0.0
100
AcDbRotatedDimension
  0
DIMENSION
  5
209
330
1F
100
AcDbEntity
  8
2
100
AcDbDimension
  2
_D_4
 10
0.0
 20
46.281455869
 30
0.0
 11
35.2121259033
 21
46.281455869
 31
0.0
 70
   160
  1
<>
 71
     2
 42
-1.0
  3
SLDDIMSTYLE0
100
AcDbAlignedDimension
 13
70.0
 23
16.0
 33
0.0
 14
0.0
 24
22.225
 34
0.0
100
AcDbRotatedDimension
  0
DIMENSION
  5
213
330
1F
100
AcDbEntity
  8
SK2
100
AcDbDimension
  2
_D_5
 10
106.3093365468
 20
-18.0
 30
0.0
 11
106.3093365468
 21
-0.5502396907
 31
0.0
 70
   160
  1
%%c<>
 71
     2
 42
-1.0
  3
SLDDIMSTYLE0
100
AcDbAlignedDimension
 13
68.0
 23
18.0
 33
0.0
 14
68.0
 24
-18.0
 34
0.0
 50
90.0
100
AcDbRotatedDimension
  0
DIMENSION
  5
21E
330
1F
100
AcDbEntity
  8
SK2
100
AcDbDimension
  2
_D_6
 10
96.3674033081
 20
-16.0
 30
0.0
 11
96.3674033081
 21
-0.5502396907
 31
0.0
 70
   160
  1
%%c<>
 71
     2
 42
-1.0
  3
SLDDIMSTYLE0
100
AcDbAlignedDimension
 13
70.0
 23
16.0
 33
0.0
 14
70.0
 24
-16.0
 34
0.0
 50
90.0
100
AcDbRotatedDimension
  0
DIMENSION
  5
229
330
1F
100
AcDbEntity
  8
SK2
100
AcDbDimension
  2
_D_7
 10
87.3038593859
 20
8.0
 30
0.0
 11
87.3038593859
 21
-0.5502396907
 31
0.0
 70
   160
  1
%%c<>
 71
     2
 42
-1.0
  3
SLDDIMSTYLE0
100
AcDbAlignedDimension
 13
68.2679491924
 23
-8.0
 33
0.0
 14
68.2679491924
 24
8.0
 34
0.0
 50
90.0
100
AcDbRotatedDimension
  0
DIMENSION
  5
234
330
1F
100
AcDbEntity
  8
SK2
100
AcDbDimension
  2
_D_8
 10
23.5
 20
-38.562732244
 30
0.0
 11
47.5209469776
 21
-38.562732244
 31
0.0
 70
   160
  1
<>
 71
     2
 42
-1.0
  3
SLDDIMSTYLE0
100
AcDbAlignedDimension
 13
70.0
 23
-16.0
 33
0.0
 14
23.5
 24
-8.25
 34
0.0
100
AcDbRotatedDimension
  0
DIMENSION
  5
23E
330
1F
100
AcDbEntity
  8
SK2
100
AcDbDimension
  2
_D_9
 10
-71.8029158171
 20
8.00000038
 30
0.0
 11
-71.8029158171
 21
0.7515385114
 31
0.0
 70
   160
  1
M<>
 71
     2
 42
-1.0
  3
SLDDIMSTYLE0
100
AcDbAlignedDimension
 13
-55.6881204247
 23
-8.00000038
 33
0.0
 14
-55.6881204247
 24
8.00000038
 34
0.0
 50
90.0
100
AcDbRotatedDimension
  0
DIMENSION
  5
249
330
1F
100
AcDbEntity
  8
SK2
100
AcDbDimension
  2
_D_10
 10
-80.9731487915
 20
-22.225
 30
0.0
 11
-80.9731487915
 21
-0.6665387527
 31
0.0
 70
   160
  1
%%c<>
 71
     2
 42
-1.0
  3
SLDDIMSTYLE0
100
AcDbAlignedDimension
 13
0.0
 23
22.225
 33
0.0
 14
0.0
 24
-22.225
 34
0.0
 50
90.0
100
AcDbRotatedDimension
  0
DIMENSION
  5
254
330
1F
100
AcDbEntity
  8
SK2
100
AcDbDimension
  2
_D_11
 10
-91.2778435772
 20
-31.474895054
 30
0.0
 11
-91.2778435772
 21
-0.6665387527
 31
0.0
 70
   160
  1
%%c<>
 71
     2
 42
-1.0
  3
SLDDIMSTYLE0
100
AcDbAlignedDimension
 13
23.8749115524
 23
31.474895054
 33
0.0
 14
23.8749115475
 24
-31.474895054
 34
0.0
 50
90.0
100
AcDbRotatedDimension
  0
MTEXT
  5
25F
330
1F
100
AcDbEntity
  8
SK6
 62
     5
100
AcDbMText
 10
-65.3923209666
 20
-35.0766895772
 30
0.0
 40
3.5
 41
0.0
 71
     1
 72
     1
  1
A2B27-40 16 070
  7
SLDTEXTSTYLE0
 73
     1
 44
1.0
  0
MTEXT
  5
260
330
1F
100
AcDbEntity
  8
SK6
 62
     5
100
AcDbMText
 10
-33.1895038949
 20
28.4170764065
 30
0.0
 40
3.5
 41
0.0
 71
     1
 72
     1
  1
MAS-403 BT40
  7
SLDTEXTSTYLE0
 73
     1
 44
1.0
  0
ENDSEC
  0
SECTION
  2
OBJECTS
  0
DICTIONARY
  5
C
330
0
100
AcDbDictionary
281
     1
  3
ACAD_GROUP
350
D
  3
ACAD_LAYOUT
350
1A
  3
ACAD_MLINESTYLE
350
17
  3
ACAD_PLOTSETTINGS
350
19
  3
ACAD_PLOTSTYLENAME
350
E
  3
ACAD_SCALELIST
350
47
  0
DICTIONARY
  5
D
102
{ACAD_REACTORS
330
C
102
}
330
C
100
AcDbDictionary
281
     1
  0
DICTIONARY
  5
1A
102
{ACAD_REACTORS
330
C
102
}
330
C
100
AcDbDictionary
281
     1
  3
Layout1
350
1E
  3
Layout2
350
26
  3
Model
350
22
  0
DICTIONARY
  5
17
102
{ACAD_REACTORS
330
C
102
}
330
C
100
AcDbDictionary
281
     1
  3
Standard
350
18
  0
DICTIONARY
  5
19
102
{ACAD_REACTORS
330
C
102
}
330
C
100
AcDbDictionary
281
     1
  0
ACDBDICTIONARYWDFLT
  5
E
102
{ACAD_REACTORS
330
C
102
}
330
C
100
AcDbDictionary
281
     1
  3
Normal
350
F
100
AcDbDictionaryWithDefault
340
F
  0
DICTIONARY
  5
47
102
{ACAD_REACTORS
330
C
102
}
330
C
100
AcDbDictionary
281
     1
  3
A0
350
48
  3
A1
350
49
  3
A2
350
4A
  3
A3
350
4B
  3
A4
350
4C
  3
A5
350
4D
  3
A6
350
4E
  3
A7
350
4F
  3
A8
350
50
  3
A9
350
51
  3
B0
350
52
  3
B1
350
53
  3
B2
350
54
  3
B3
350
55
  3
B4
350
56
  3
B5
350
57
  3
B6
350
58
  3
B7
350
59
  3
B8
350
5A
  3
B9
350
5B
  3
C0
350
5C
  3
C1
350
5D
  3
C2
350
5E
  3
C3
350
5F
  3
C4
350
60
  3
C5
350
61
  3
C6
350
62
  3
C7
350
63
  3
C8
350
64
  3
C9
350
65
  3
D0
350
66
  3
D1
350
67
  3
D2
350
68
  0
LAYOUT
  5
1E
102
{ACAD_REACTORS
330
1A
102
}
330
1A
100
AcDbPlotSettings
  1

  2
none_device
  4

  6

 40
0.0
 41
0.0
 42
0.0
 43
0.0
 44
0.0
 45
0.0
 46
0.0
 47
0.0
 48
0.0
 49
0.0
140
0.0
141
0.0
142
1.0
143
1.0
 70
   688
 72
     1
 73
     0
 74
     5
  7

 75
    16
147
1.0
148
0.0
149
0.0
100
AcDbLayout
  1
Layout1
 70
     1
 71
     1
 10
0.0
 20
0.0
 11
420.0
 21
297.0
 12
0.0
 22
0.0
 32
0.0
 14
1.0000000000E+20
 24
1.0000000000E+20
 34
1.0000000000E+20
 15
-1.0000000000E+20
 25
-1.0000000000E+20
 35
-1.0000000000E+20
146
0.0
 13
0.0
 23
0.0
 33
0.0
 16
1.0
 26
0.0
 36
0.0
 17
0.0
 27
1.0
 37
0.0
 76
     0
330
1B
  0
LAYOUT
  5
26
102
{ACAD_REACTORS
330
1A
102
}
330
1A
100
AcDbPlotSettings
  1

  2
none_device
  4

  6

 40
0.0
 41
0.0
 42
0.0
 43
0.0
 44
0.0
 45
0.0
 46
0.0
 47
0.0
 48
0.0
 49
0.0
140
0.0
141
0.0
142
1.0
143
1.0
 70
   688
 72
     1
 73
     0
 74
     5
  7

 75
    16
147
1.0
148
0.0
149
0.0
100
AcDbLayout
  1
Layout2
 70
     1
 71
     2
 10
0.0
 20
0.0
 11
0.0
 21
0.0
 12
0.0
 22
0.0
 32
0.0
 14
0.0
 24
0.0
 34
0.0
 15
0.0
 25
0.0
 35
0.0
146
0.0
 13
0.0
 23
0.0
 33
0.0
 16
1.0
 26
0.0
 36
0.0
 17
0.0
 27
1.0
 37
0.0
 76
     0
330
23
  0
LAYOUT
  5
22
102
{ACAD_REACTORS
330
1A
102
}
330
1A
100
AcDbPlotSettings
  1

  2
none_device
  4
Letter_(8.50_x_11.00_Inches)
  6

 40
6.35
 41
6.35
 42
6.35000508
 43
6.35000508
 44
215.9
 45
279.4
 46
0.0
 47
0.0
 48
0.0
 49
0.0
140
0.0
141
0.0
142
1.0
143
1.0
 70
  1712
 72
     1
 73
     0
 74
     0
  7

 75
     0
147
1.0
148
0.0
149
0.0
100
AcDbLayout
  1
Model
 70
     1
 71
     0
 10
0.0
 20
0.0
 11
297.0
 21
210.0
 12
0.0
 22
0.0
 32
0.0
 14
0.0
 24
0.0
 34
0.0
 15
297.0
 25
210.0
 35
0.0
146
0.0
 13
0.0
 23
0.0
 33
0.0
 16
1.0
 26
0.0
 36
0.0
 17
0.0
 27
1.0
 37
0.0
 76
     0
330
1F
331
29
  0
MLINESTYLE
  5
18
102
{ACAD_REACTORS
330
17
102
}
330
17
100
AcDbMlineStyle
  2
Standard
 70
     0
  3

 62
   256
 51
90.0
 52
90.0
 71
     2
 49
0.5
 62
   256
  6
BYLAYER
 49
-0.5
 62
   256
  6
BYLAYER
  0
ACDBPLACEHOLDER
  5
F
102
{ACAD_REACTORS
330
E
102
}
330
E
  0
SCALE
  5
48
102
{ACAD_REACTORS
330
47
102
}
330
47
100
AcDbScale
 70
     0
300
1:1
140
1.0
141
1.0
290
     1
  0
SCALE
  5
49
102
{ACAD_REACTORS
330
47
102
}
330
47
100
AcDbScale
 70
     0
300
1:2
140
1.0
141
2.0
290
     0
  0
SCALE
  5
4A
102
{ACAD_REACTORS
330
47
102
}
330
47
100
AcDbScale
 70
     0
300
1:4
140
1.0
141
4.0
290
     0
  0
SCALE
  5
4B
102
{ACAD_REACTORS
330
47
102
}
330
47
100
AcDbScale
 70
     0
300
1:5
140
1.0
141
5.0
290
     0
  0
SCALE
  5
4C
102
{ACAD_REACTORS
330
47
102
}
330
47
100
AcDbScale
 70
     0
300
1:8
140
1.0
141
8.0
290
     0
  0
SCALE
  5
4D
102
{ACAD_REACTORS
330
47
102
}
330
47
100
AcDbScale
 70
     0
300
1:10
140
1.0
141
10.0
290
     0
  0
SCALE
  5
4E
102
{ACAD_REACTORS
330
47
102
}
330
47
100
AcDbScale
 70
     0
300
1:16
140
1.0
141
16.0
290
     0
  0
SCALE
  5
4F
102
{ACAD_REACTORS
330
47
102
}
330
47
100
AcDbScale
 70
     0
300
1:20
140
1.0
141
20.0
290
     0
  0
SCALE
  5
50
102
{ACAD_REACTORS
330
47
102
}
330
47
100
AcDbScale
 70
     0
300
1:30
140
1.0
141
30.0
290
     0
  0
SCALE
  5
51
102
{ACAD_REACTORS
330
47
102
}
330
47
100
AcDbScale
 70
     0
300
1:40
140
1.0
141
40.0
290
     0
  0
SCALE
  5
52
102
{ACAD_REACTORS
330
47
102
}
330
47
100
AcDbScale
 70
     0
300
1:50
140
1.0
141
50.0
290
     0
  0
SCALE
  5
53
102
{ACAD_REACTORS
330
47
102
}
330
47
100
AcDbScale
 70
     0
300
1:100
140
1.0
141
100.0
290
     0
  0
SCALE
  5
54
102
{ACAD_REACTORS
330
47
102
}
330
47
100
AcDbScale
 70
     0
300
2:1
140
2.0
141
1.0
290
     0
  0
SCALE
  5
55
102
{ACAD_REACTORS
330
47
102
}
330
47
100
AcDbScale
 70
     0
300
4:1
140
4.0
141
1.0
290
     0
  0
SCALE
  5
56
102
{ACAD_REACTORS
330
47
102
}
330
47
100
AcDbScale
 70
     0
300
8:1
140
8.0
141
1.0
290
     0
  0
SCALE
  5
57
102
{ACAD_REACTORS
330
47
102
}
330
47
100
AcDbScale
 70
     0
300
10:1
140
10.0
141
1.0
290
     0
  0
SCALE
  5
58
102
{ACAD_REACTORS
330
47
102
}
330
47
100
AcDbScale
 70
     0
300
100:1
140
100.0
141
1.0
290
     0
  0
SCALE
  5
59
102
{ACAD_REACTORS
330
47
102
}
330
47
100
AcDbScale
 70
     0
300
1/128" = 1'-0"
140
0.0078125
141
12.0
290
     0
  0
SCALE
  5
5A
102
{ACAD_REACTORS
330
47
102
}
330
47
100
AcDbScale
 70
     0
300
1/64" = 1'-0"
140
0.015625
141
12.0
290
     0
  0
SCALE
  5
5B
102
{ACAD_REACTORS
330
47
102
}
330
47
100
AcDbScale
 70
     0
300
1/32" = 1'-0"
140
0.03125
141
12.0
290
     0
  0
SCALE
  5
5C
102
{ACAD_REACTORS
330
47
102
}
330
47
100
AcDbScale
 70
     0
300
1/16" = 1'-0"
140
0.0625
141
12.0
290
     0
  0
SCALE
  5
5D
102
{ACAD_REACTORS
330
47
102
}
330
47
100
AcDbScale
 70
     0
300
3/32" = 1'-0"
140
0.09375
141
12.0
290
     0
  0
SCALE
  5
5E
102
{ACAD_REACTORS
330
47
102
}
330
47
100
AcDbScale
 70
     0
300
1/8" = 1'-0"
140
0.125
141
12.0
290
     0
  0
SCALE
  5
5F
102
{ACAD_REACTORS
330
47
102
}
330
47
100
AcDbScale
 70
     0
300
3/16" = 1'-0"
140
0.1875
141
12.0
290
     0
  0
SCALE
  5
60
102
{ACAD_REACTORS
330
47
102
}
330
47
100
AcDbScale
 70
     0
300
1/4" = 1'-0"
140
0.25
141
12.0
290
     0
  0
SCALE
  5
61
102
{ACAD_REACTORS
330
47
102
}
330
47
100
AcDbScale
 70
     0
300
3/8" = 1'-0"
140
0.375
141
12.0
290
     0
  0
SCALE
  5
62
102
{ACAD_REACTORS
330
47
102
}
330
47
100
AcDbScale
 70
     0
300
1/2" = 1'-0"
140
0.5
141
12.0
290
     0
  0
SCALE
  5
63
102
{ACAD_REACTORS
330
47
102
}
330
47
100
AcDbScale
 70
     0
300
3/4" = 1'-0"
140
0.75
141
12.0
290
     0
  0
SCALE
  5
64
102
{ACAD_REACTORS
330
47
102
}
330
47
100
AcDbScale
 70
     0
300
1" = 1'-0"
140
1.0
141
12.0
290
     0
  0
SCALE
  5
65
102
{ACAD_REACTORS
330
47
102
}
330
47
100
AcDbScale
 70
     0
300
1-1/2" = 1'-0"
140
1.5
141
12.0
290
     0
  0
SCALE
  5
66
102
{ACAD_REACTORS
330
47
102
}
330
47
100
AcDbScale
 70
     0
300
3" = 1'-0"
140
3.0
141
12.0
290
     0
  0
SCALE
  5
67
102
{ACAD_REACTORS
330
47
102
}
330
47
100
AcDbScale
 70
     0
300
6" = 1'-0"
140
6.0
141
12.0
290
     0
  0
SCALE
  5
68
102
{ACAD_REACTORS
330
47
102
}
330
47
100
AcDbScale
 70
     0
300
1'-0" = 1'-0"
140
12.0
141
12.0
290
     0
  0
ENDSEC
  0
EOF
