  0
SECTION
  2
HEADER
  9
$ACADVER
  1
AC1015
  9
$ACADMAINTVER
 70
     6
  9
$DWGCODEPAGE
  3
ANSI_1250
  9
$INSBASE
 10
0.0
 20
0.0
 30
0.0
  9
$EXTMIN
 10
0.0
 20
0.0
 30
0.0
  9
$EXTMAX
 10
297.0
 20
210.0
 30
0.0
  9
$LIMMIN
 10
0.0
 20
0.0
  9
$LIMMAX
 10
297.0
 20
210.0
  9
$ORTHOMODE
 70
     0
  9
$REGENMODE
 70
     1
  9
$FILLMODE
 70
     1
  9
$QTEXTMODE
 70
     0
  9
$MIRRTEXT
 70
     1
  9
$LTSCALE
 40
1.0
  9
$ATTMODE
 70
     1
  9
$TEXTSIZE
 40
3.5
  9
$TRACEWID
 40
1.0
  9
$TEXTSTYLE
  7
Standard
  9
$CLAYER
  8
0
  9
$CELTYPE
  6
ByLayer
  9
$CECOLOR
 62
   256
  9
$CELTSCALE
 40
1.0
  9
$DISPSILH
 70
     0
  9
$DIMSCALE
 40
1.0
  9
$DIMASZ
 40
3.302
  9
$DIMEXO
 40
1.0
  9
$DIMDLI
 40
3.75
  9
$DIMRND
 40
0.0
  9
$DIMDLE
 40
0.0
  9
$DIMEXE
 40
1.0
  9
$DIMTP
 40
0.0
  9
$DIMTM
 40
0.0
  9
$DIMTXT
 40
3.5
  9
$DIMCEN
 40
2.5
  9
$DIMTSZ
 40
0.0
  9
$DIMTOL
 70
     0
  9
$DIMLIM
 70
     0
  9
$DIMTIH
 70
     1
  9
$DIMTOH
 70
     1
  9
$DIMSE1
 70
     0
  9
$DIMSE2
 70
     0
  9
$DIMTAD
 70
     1
  9
$DIMZIN
 70
     0
  9
$DIMBLK
  1

  9
$DIMASO
 70
     1
  9
$DIMSHO
 70
     1
  9
$DIMPOST
  1

  9
$DIMAPOST
  1

  9
$DIMALT
 70
     0
  9
$DIMALTD
 70
     3
  9
$DIMALTF
 40
0.0393700787
  9
$DIMLFAC
 40
1.0
  9
$DIMTOFL
 70
     1
  9
$DIMTVP
 40
0.0
  9
$DIMTIX
 70
     0
  9
$DIMSOXD
 70
     0
  9
$DIMSAH
 70
     0
  9
$DIMBLK1
  1

  9
$DIMBLK2
  1

  9
$DIMSTYLE
  2
ISO-25
  9
$DIMCLRD
 70
     0
  9
$DIMCLRE
 70
     0
  9
$DIMCLRT
 70
     0
  9
$DIMTFAC
 40
1.0
  9
$DIMGAP
 40
1.524
  9
$DIMJUST
 70
     0
  9
$DIMSD1
 70
     0
  9
$DIMSD2
 70
     0
  9
$DIMTOLJ
 70
     0
  9
$DIMTZIN
 70
     0
  9
$DIMALTZ
 70
     0
  9
$DIMALTTZ
 70
     0
  9
$DIMUPT
 70
     0
  9
$DIMDEC
 70
     2
  9
$DIMTDEC
 70
     2
  9
$DIMALTU
 70
     2
  9
$DIMALTTD
 70
     3
  9
$DIMTXSTY
  7
Standard
  9
$DIMAUNIT
 70
     0
  9
$DIMADEC
 70
     2
  9
$DIMALTRND
 40
0.0
  9
$DIMAZIN
 70
     0
  9
$DIMDSEP
 70
    44
  9
$DIMATFIT
 70
     3
  9
$DIMFRAC
 70
     0
  9
$DIMLDRBLK
  1

  9
$DIMLUNIT
 70
     2
  9
$DIMLWD
 70
    -2
  9
$DIMLWE
 70
    -2
  9
$DIMTMOVE
 70
     0
  9
$LUNITS
 70
     2
  9
$LUPREC
 70
     2
  9
$SKETCHINC
 40
1.0
  9
$FILLETRAD
 40
10.0
  9
$AUNITS
 70
     0
  9
$AUPREC
 70
     2
  9
$MENU
  1
.
  9
$ELEVATION
 40
0.0
  9
$PELEVATION
 40
0.0
  9
$THICKNESS
 40
0.0
  9
$LIMCHECK
 70
     0
  9
$CHAMFERA
 40
0.0
  9
$CHAMFERB
 40
0.0
  9
$CHAMFERC
 40
0.0
  9
$CHAMFERD
 40
0.0
  9
$SKPOLY
 70
     0
  9
$TDCREATE
 40
2459290.487300151
  9
$TDUCREATE
 40
2459290.445633484
  9
$TDUPDATE
 40
2459290.487301343
  9
$TDUUPDATE
 40
2459290.445634676
  9
$TDINDWG
 40
0.0000000116
  9
$TDUSRTIMER
 40
0.0000000116
  9
$USRTIMER
 70
     1
  9
$ANGBASE
 50
0.0
  9
$ANGDIR
 70
     0
  9
$PDMODE
 70
     0
  9
$PDSIZE
 40
-1.0
  9
$PLINEWID
 40
0.0
  9
$SPLFRAME
 70
     0
  9
$SPLINETYPE
 70
     6
  9
$SPLINESEGS
 70
     8
  9
$HANDSEED
  5
2D6
  9
$SURFTAB1
 70
     6
  9
$SURFTAB2
 70
     6
  9
$SURFTYPE
 70
     6
  9
$SURFU
 70
     6
  9
$SURFV
 70
     6
  9
$UCSBASE
  2

  9
$UCSNAME
  2

  9
$UCSORG
 10
0.0
 20
0.0
 30
0.0
  9
$UCSXDIR
 10
1.0
 20
0.0
 30
0.0
  9
$UCSYDIR
 10
0.0
 20
1.0
 30
0.0
  9
$UCSORTHOREF
  2

  9
$UCSORTHOVIEW
 70
     0
  9
$UCSORGTOP
 10
0.0
 20
0.0
 30
0.0
  9
$UCSORGBOTTOM
 10
0.0
 20
0.0
 30
0.0
  9
$UCSORGLEFT
 10
0.0
 20
0.0
 30
0.0
  9
$UCSORGRIGHT
 10
0.0
 20
0.0
 30
0.0
  9
$UCSORGFRONT
 10
0.0
 20
0.0
 30
0.0
  9
$UCSORGBACK
 10
0.0
 20
0.0
 30
0.0
  9
$PUCSBASE
  2

  9
$PUCSNAME
  2

  9
$PUCSORG
 10
0.0
 20
0.0
 30
0.0
  9
$PUCSXDIR
 10
1.0
 20
0.0
 30
0.0
  9
$PUCSYDIR
 10
0.0
 20
1.0
 30
0.0
  9
$PUCSORTHOREF
  2

  9
$PUCSORTHOVIEW
 70
     0
  9
$PUCSORGTOP
 10
0.0
 20
0.0
 30
0.0
  9
$PUCSORGBOTTOM
 10
0.0
 20
0.0
 30
0.0
  9
$PUCSORGLEFT
 10
0.0
 20
0.0
 30
0.0
  9
$PUCSORGRIGHT
 10
0.0
 20
0.0
 30
0.0
  9
$PUCSORGFRONT
 10
0.0
 20
0.0
 30
0.0
  9
$PUCSORGBACK
 10
0.0
 20
0.0
 30
0.0
  9
$USERI1
 70
     0
  9
$USERI2
 70
     0
  9
$USERI3
 70
     0
  9
$USERI4
 70
     0
  9
$USERI5
 70
     0
  9
$USERR1
 40
0.0
  9
$USERR2
 40
0.0
  9
$USERR3
 40
0.0
  9
$USERR4
 40
0.0
  9
$USERR5
 40
0.0
  9
$WORLDVIEW
 70
     1
  9
$SHADEDGE
 70
     3
  9
$SHADEDIF
 70
    70
  9
$TILEMODE
 70
     1
  9
$MAXACTVP
 70
    64
  9
$PINSBASE
 10
0.0
 20
0.0
 30
0.0
  9
$PLIMCHECK
 70
     0
  9
$PEXTMIN
 10
1.0000000000E+20
 20
1.0000000000E+20
 30
1.0000000000E+20
  9
$PEXTMAX
 10
-1.0000000000E+20
 20
-1.0000000000E+20
 30
-1.0000000000E+20
  9
$PLIMMIN
 10
0.0
 20
0.0
  9
$PLIMMAX
 10
420.0
 20
297.0
  9
$UNITMODE
 70
     0
  9
$VISRETAIN
 70
     1
  9
$PLINEGEN
 70
     0
  9
$PSLTSCALE
 70
     1
  9
$TREEDEPTH
 70
  3020
  9
$CMLSTYLE
  2
Standard
  9
$CMLJUST
 70
     0
  9
$CMLSCALE
 40
20.0
  9
$PROXYGRAPHICS
 70
     1
  9
$MEASUREMENT
 70
     1
  9
$CELWEIGHT
370
    -1
  9
$ENDCAPS
280
     0
  9
$JOINSTYLE
280
     0
  9
$LWDISPLAY
290
     1
  9
$INSUNITS
 70
     4
  9
$HYPERLINKBASE
  1

  9
$STYLESHEET
  1

  9
$XEDIT
290
     1
  9
$CEPSNTYPE
380
     0
  9
$PSTYLEMODE
290
     1
  9
$FINGERPRINTGUID
  2
{CCC6FA72-BA18-4A67-85AC-4FE541798757}
  9
$VERSIONGUID
  2
{FAEB1C32-E019-11D5-929B-00C0DF256EC4}
  9
$EXTNAMES
290
     1
  9
$PSVPSCALE
 40
0.0
  9
$OLESTARTUP
290
     0
  0
ENDSEC
  0
SECTION
  2
CLASSES
  0
CLASS
  1
ACDBDICTIONARYWDFLT
  2
AcDbDictionaryWithDefault
  3
ObjectDBX Classes
 90
        0
280
     0
281
     0
  0
CLASS
  1
VISUALSTYLE
  2
AcDbVisualStyle
  3
ObjectDBX Classes
 90
     4095
280
     0
281
     0
  0
CLASS
  1
MATERIAL
  2
AcDbMaterial
  3
ObjectDBX Classes
 90
     1153
280
     0
281
     0
  0
CLASS
  1
SCALE
  2
AcDbScale
  3
ObjectDBX Classes
 90
     1153
280
     0
281
     0
  0
CLASS
  1
TABLESTYLE
  2
AcDbTableStyle
  3
ObjectDBX Classes
 90
     4095
280
     0
281
     0
  0
CLASS
  1
MLEADERSTYLE
  2
AcDbMLeaderStyle
  3
ACDB_MLEADERSTYLE_CLASS
 90
     4095
280
     0
281
     0
  0
CLASS
  1
SUN
  2
AcDbSun
  3
SCENEOE
 90
     1153
280
     0
281
     0
  0
CLASS
  1
ACDBPLACEHOLDER
  2
AcDbPlaceHolder
  3
ObjectDBX Classes
 90
        0
280
     0
281
     0
  0
CLASS
  1
LAYOUT
  2
AcDbLayout
  3
ObjectDBX Classes
 90
        0
280
     0
281
     0
  0
ENDSEC
  0
SECTION
  2
TABLES
  0
TABLE
  2
VPORT
  5
8
330
0
100
AcDbSymbolTable
 70
     1
  0
VPORT
  5
29
330
8
100
AcDbSymbolTableRecord
100
AcDbViewportTableRecord
  2
*Active
 70
     0
 10
0.0
 20
0.0
 11
1.0
 21
1.0
 12
148.5
 22
105.0
 13
0.0
 23
0.0
 14
10.0
 24
10.0
 15
10.0
 25
10.0
 16
0.0
 26
0.0
 36
1.0
 17
0.0
 27
0.0
 37
0.0
 40
210.0
 41
1.4142857143
 42
50.0
 43
0.0
 44
0.0
 50
0.0
 51
0.0
 71
     0
 72
  2000
 73
     1
 74
     3
 75
     0
 76
     0
 77
     0
 78
     0
281
     0
 65
     1
110
0.0
120
0.0
130
0.0
111
1.0
121
0.0
131
0.0
112
0.0
122
1.0
132
0.0
 79
     0
146
0.0
  0
ENDTAB
  0
TABLE
  2
LTYPE
  5
5
330
0
100
AcDbSymbolTable
 70
     8
  0
LTYPE
  5
14
330
5
100
AcDbSymbolTableRecord
100
AcDbLinetypeTableRecord
  2
ByBlock
 70
     0
  3

 72
    65
 73
     0
 40
0.0
  0
LTYPE
  5
15
330
5
100
AcDbSymbolTableRecord
100
AcDbLinetypeTableRecord
  2
ByLayer
 70
     0
  3

 72
    65
 73
     0
 40
0.0
  0
LTYPE
  5
16
330
5
100
AcDbSymbolTableRecord
100
AcDbLinetypeTableRecord
  2
Continuous
 70
     0
  3
Solid line
 72
    65
 73
     0
 40
0.0
  0
LTYPE
  5
6E
330
5
100
AcDbSymbolTableRecord
100
AcDbLinetypeTableRecord
  2
SLD-Solid
 70
     0
  3
SolidWorks Line Style
 72
    65
 73
     0
 40
0.0
  0
LTYPE
  5
6F
330
5
100
AcDbSymbolTableRecord
100
AcDbLinetypeTableRecord
  2
SLD-Dashed
 70
     0
  3
SolidWorks Line Style
 72
    65
 73
     2
 40
1.905
 49
1.27
 74
     0
 49
-0.635
 74
     0
  0
LTYPE
  5
70
330
5
100
AcDbSymbolTableRecord
100
AcDbLinetypeTableRecord
  2
SLD-Phantom
 70
     0
  3
SolidWorks Line Style
 72
    65
 73
     6
 40
12.7
 49
6.35
 74
     0
 49
-1.27
 74
     0
 49
1.27
 74
     0
 49
-1.27
 74
     0
 49
1.27
 74
     0
 49
-1.27
 74
     0
  0
LTYPE
  5
71
330
5
100
AcDbSymbolTableRecord
100
AcDbLinetypeTableRecord
  2
SLD-Chain
 70
     0
  3
SolidWorks Line Style
 72
    65
 73
     4
 40
10.16
 49
6.35
 74
     0
 49
-1.27
 74
     0
 49
1.27
 74
     0
 49
-1.27
 74
     0
  0
LTYPE
  5
72
330
5
100
AcDbSymbolTableRecord
100
AcDbLinetypeTableRecord
  2
SLD-Center
 70
     0
  3
SolidWorks Line Style
 72
    65
 73
     4
 40
19.05
 49
15.24
 74
     0
 49
-1.27
 74
     0
 49
1.27
 74
     0
 49
-1.27
 74
     0
  0
LTYPE
  5
73
330
5
100
AcDbSymbolTableRecord
100
AcDbLinetypeTableRecord
  2
SLD-Stitch
 70
     0
  3
SolidWorks Line Style
 72
    65
 73
     2
 40
0.635
 49
0.0
 74
     0
 49
-0.635
 74
     0
  0
LTYPE
  5
74
330
5
100
AcDbSymbolTableRecord
100
AcDbLinetypeTableRecord
  2
SLD-Thin-Thick-Chain
 70
     0
  3
SolidWorks Line Style
 72
    65
 73
     4
 40
10.16
 49
6.35
 74
     0
 49
-1.27
 74
     0
 49
1.27
 74
     0
 49
-1.27
 74
     0
  0
ENDTAB
  0
TABLE
  2
LAYER
  5
2
330
0
100
AcDbSymbolTable
 70
    12
  0
LAYER
  5
10
330
2
100
AcDbSymbolTableRecord
100
AcDbLayerTableRecord
  2
0
 70
     0
 62
     7
  6
Continuous
370
    -3
390
F
  0
LAYER
  5
75
330
2
100
AcDbSymbolTableRecord
100
AcDbLayerTableRecord
  2
SLD-0
 70
     0
 62
   179
  6
SLD-Solid
370
    -3
390
F
  0
LAYER
  5
76
330
2
100
AcDbSymbolTableRecord
100
AcDbLayerTableRecord
  2
80
 70
     0
 62
    -6
  6
SLD-Solid
290
     0
370
    -3
390
F
  0
LAYER
  5
77
330
2
100
AcDbSymbolTableRecord
100
AcDbLayerTableRecord
  2
81
 70
     0
 62
    -3
  6
SLD-Solid
290
     0
370
    -3
390
F
  0
LAYER
  5
78
330
2
100
AcDbSymbolTableRecord
100
AcDbLayerTableRecord
  2
1
 70
     0
 62
     4
  6
SLD-Solid
290
     0
370
    -3
390
F
  0
LAYER
  5
79
330
2
100
AcDbSymbolTableRecord
100
AcDbLayerTableRecord
  2
4
 70
     0
 62
    -2
  6
SLD-Chain
290
     0
370
    -3
390
F
  0
LAYER
  5
7A
330
2
100
AcDbSymbolTableRecord
100
AcDbLayerTableRecord
  2
2
 70
     0
 62
     7
  6
SLD-Solid
290
     0
370
    -3
390
F
  0
LAYER
  5
7B
330
2
100
AcDbSymbolTableRecord
100
AcDbLayerTableRecord
  2
SK3
 70
     0
 62
     1
  6
SLD-Dashed
290
     0
370
    -3
390
F
  0
LAYER
  5
7C
330
2
100
AcDbSymbolTableRecord
100
AcDbLayerTableRecord
  2
SK4
 70
     0
 62
     2
  6
SLD-Chain
290
     0
370
    -3
390
F
  0
LAYER
  5
7D
330
2
100
AcDbSymbolTableRecord
100
AcDbLayerTableRecord
  2
SK2
 70
     0
 62
     7
  6
SLD-Solid
290
     0
370
    -3
390
F
  0
LAYER
  5
7E
330
2
100
AcDbSymbolTableRecord
100
AcDbLayerTableRecord
  2
SK6
 70
     0
 62
     5
  6
SLD-Solid
290
     0
370
    -3
390
F
  0
LAYER
  5
7F
330
2
100
AcDbSymbolTableRecord
100
AcDbLayerTableRecord
  2
SK1
 70
     0
 62
     4
  6
SLD-Solid
370
    -3
390
F
  0
ENDTAB
  0
TABLE
  2
STYLE
  5
3
330
0
100
AcDbSymbolTable
 70
     2
  0
STYLE
  5
11
330
3
100
AcDbSymbolTableRecord
100
AcDbTextStyleTableRecord
  2
Standard
 70
     0
 40
0.0
 41
1.0
 50
0.0
 71
     0
 42
3.5
  3
txt
  4

  0
STYLE
  5
24B
330
3
100
AcDbSymbolTableRecord
100
AcDbTextStyleTableRecord
  2
SLDTEXTSTYLE0
 70
     0
 40
0.0
 41
0.75
 50
0.0
 71
     0
 42
3.5
  3
TXT
  4

  0
ENDTAB
  0
TABLE
  2
VIEW
  5
6
330
0
100
AcDbSymbolTable
 70
     0
  0
ENDTAB
  0
TABLE
  2
UCS
  5
7
330
0
100
AcDbSymbolTable
 70
     0
  0
ENDTAB
  0
TABLE
  2
APPID
  5
9
330
0
100
AcDbSymbolTable
 70
     1
  0
APPID
  5
12
330
9
100
AcDbSymbolTableRecord
100
AcDbRegAppTableRecord
  2
ACAD
 70
     0
  0
ENDTAB
  0
TABLE
  2
DIMSTYLE
  5
A
330
0
100
AcDbSymbolTable
 70
     2
100
AcDbDimStyleTable
  0
DIMSTYLE
105
27
330
A
100
AcDbSymbolTableRecord
100
AcDbDimStyleTableRecord
  2
ISO-25
 70
     0
 41
2.5
 42
0.625
 43
3.75
 44
1.25
 73
     0
 74
     0
 77
     1
 78
     8
140
2.5
141
2.5
143
0.0393700787
147
0.625
171
     3
172
     1
178
     0
271
     2
272
     2
274
     3
278
    44
283
     0
284
     8
340
11
  0
DIMSTYLE
105
24C
102
{ACAD_REACTORS
330
24A
330
256
330
260
330
26A
330
274
330
27F
330
28A
330
295
330
29F
330
2A9
330
2B3
330
2BE
330
2C9
102
}
330
A
100
AcDbSymbolTableRecord
100
AcDbDimStyleTableRecord
  2
SLDDIMSTYLE0
 70
     0
 41
3.302
 44
0.0
 45
0.000000001
 73
     0
 74
     0
 77
     1
 78
    12
 79
     3
140
3.5
147
0.875
173
     1
178
     0
271
     2
272
     2
276
     2
284
    12
340
24B
  0
ENDTAB
  0
TABLE
  2
BLOCK_RECORD
  5
1
330
0
100
AcDbSymbolTable
 70
    16
  0
BLOCK_RECORD
  5
1F
330
1
100
AcDbSymbolTableRecord
100
AcDbBlockTableRecord
  2
*Model_Space
340
22
  0
BLOCK_RECORD
  5
1B
330
1
100
AcDbSymbolTableRecord
100
AcDbBlockTableRecord
  2
*Paper_Space
340
1E
  0
BLOCK_RECORD
  5
23
330
1
100
AcDbSymbolTableRecord
100
AcDbBlockTableRecord
  2
*Paper_Space0
340
26
  0
BLOCK_RECORD
  5
80
330
1
100
AcDbSymbolTableRecord
100
AcDbBlockTableRecord
  2
Block11
340
0
102
{BLKREFS
331
249
102
}
  0
BLOCK_RECORD
  5
89
330
1
100
AcDbSymbolTableRecord
100
AcDbBlockTableRecord
  2
Block12
340
0
102
{BLKREFS
331
248
102
}
  0
BLOCK_RECORD
  5
24D
330
1
100
AcDbSymbolTableRecord
100
AcDbBlockTableRecord
  2
_D
340
0
  0
BLOCK_RECORD
  5
257
330
1
100
AcDbSymbolTableRecord
100
AcDbBlockTableRecord
  2
_D_1
340
0
  0
BLOCK_RECORD
  5
261
330
1
100
AcDbSymbolTableRecord
100
AcDbBlockTableRecord
  2
_D_2
340
0
  0
BLOCK_RECORD
  5
26B
330
1
100
AcDbSymbolTableRecord
100
AcDbBlockTableRecord
  2
_D_3
340
0
  0
BLOCK_RECORD
  5
275
330
1
100
AcDbSymbolTableRecord
100
AcDbBlockTableRecord
  2
_D_4
340
0
  0
BLOCK_RECORD
  5
280
330
1
100
AcDbSymbolTableRecord
100
AcDbBlockTableRecord
  2
_D_5
340
0
  0
BLOCK_RECORD
  5
28B
330
1
100
AcDbSymbolTableRecord
100
AcDbBlockTableRecord
  2
_D_6
340
0
  0
BLOCK_RECORD
  5
296
330
1
100
AcDbSymbolTableRecord
100
AcDbBlockTableRecord
  2
_D_7
340
0
  0
BLOCK_RECORD
  5
2A0
330
1
100
AcDbSymbolTableRecord
100
AcDbBlockTableRecord
  2
_D_8
340
0
  0
BLOCK_RECORD
  5
2AA
330
1
100
AcDbSymbolTableRecord
100
AcDbBlockTableRecord
  2
_D_9
340
0
  0
BLOCK_RECORD
  5
2B4
330
1
100
AcDbSymbolTableRecord
100
AcDbBlockTableRecord
  2
_D_10
340
0
  0
BLOCK_RECORD
  5
2BF
330
1
100
AcDbSymbolTableRecord
100
AcDbBlockTableRecord
  2
_D_11
340
0
  0
BLOCK_RECORD
  5
2CA
330
1
100
AcDbSymbolTableRecord
100
AcDbBlockTableRecord
  2
_D_12
340
0
  0
ENDTAB
  0
ENDSEC
  0
SECTION
  2
BLOCKS
  0
BLOCK
  5
20
330
1F
100
AcDbEntity
  8
0
100
AcDbBlockBegin
  2
*Model_Space
 70
     0
 10
0.0
 20
0.0
 30
0.0
  3
*Model_Space
  1

  0
ENDBLK
  5
21
330
1F
100
AcDbEntity
  8
0
100
AcDbBlockEnd
  0
BLOCK
  5
1C
330
1B
100
AcDbEntity
 67
     1
  8
0
100
AcDbBlockBegin
  2
*Paper_Space
 70
     0
 10
0.0
 20
0.0
 30
0.0
  3
*Paper_Space
  1

  0
ENDBLK
  5
1D
330
1B
100
AcDbEntity
 67
     1
  8
0
100
AcDbBlockEnd
  0
BLOCK
  5
24
330
23
100
AcDbEntity
  8
0
100
AcDbBlockBegin
  2
*Paper_Space0
 70
     0
 10
0.0
 20
0.0
 30
0.0
  3
*Paper_Space0
  1

  0
ENDBLK
  5
25
330
23
100
AcDbEntity
  8
0
100
AcDbBlockEnd
  0
BLOCK
  5
81
330
80
100
AcDbEntity
  8
0
100
AcDbBlockBegin
  2
Block11
 70
     0
 10
0.0
 20
0.0
 30
0.0
  3
Block11
  1

  0
CIRCLE
  5
83
330
80
100
AcDbEntity
  8
81
370
    18
100
AcDbCircle
 10
91.6264826505
 20
130.2676275275
 30
0.0
 40
2.499999999999981
  0
LINE
  5
84
330
80
100
AcDbEntity
  8
81
370
    18
100
AcDbLine
 10
91.6264826505
 20
130.2676275275
 30
0.0
 11
95.1620165565
 21
133.8031614334
 31
0.0
  0
LINE
  5
85
330
80
100
AcDbEntity
  8
81
370
    18
100
AcDbLine
 10
91.6264826505
 20
130.2676275275
 30
0.0
 11
88.0909487446
 21
126.7320936216
 31
0.0
  0
LINE
  5
86
330
80
100
AcDbEntity
  8
81
370
    18
100
AcDbLine
 10
91.6264826505
 20
130.2676275275
 30
0.0
 11
88.0909487446
 21
133.8031614334
 31
0.0
  0
LINE
  5
87
330
80
100
AcDbEntity
  8
81
100
AcDbLine
 10
91.6264826505
 20
130.2676275275
 30
0.0
 11
101.6264826505
 21
130.2676275275
 31
0.0
  0
LINE
  5
88
330
80
100
AcDbEntity
  8
81
370
    18
100
AcDbLine
 10
91.6264826505
 20
130.2676275275
 30
0.0
 11
95.1620165565
 21
126.7320936216
 31
0.0
  0
ENDBLK
  5
82
330
80
100
AcDbEntity
  8
0
100
AcDbBlockEnd
  0
BLOCK
  5
8A
330
89
100
AcDbEntity
  8
0
100
AcDbBlockBegin
  2
Block12
 70
     0
 10
0.0
 20
0.0
 30
0.0
  3
Block12
  1

  0
CIRCLE
  5
8C
330
89
100
AcDbEntity
  8
80
370
    18
100
AcDbCircle
 10
61.7273641656
 20
130.3356800267
 30
0.0
 40
2.500000000000004
  0
LINE
  5
8D
330
89
100
AcDbEntity
  8
80
370
    18
100
AcDbLine
 10
61.7273641656
 20
130.3356800267
 30
0.0
 11
65.2628980715
 21
133.8712139326
 31
0.0
  0
LINE
  5
8E
330
89
100
AcDbEntity
  8
80
370
    18
100
AcDbLine
 10
61.7273641656
 20
130.3356800267
 30
0.0
 11
58.1918302597
 21
126.8001461208
 31
0.0
  0
LINE
  5
8F
330
89
100
AcDbEntity
  8
80
370
    18
100
AcDbLine
 10
61.7273641656
 20
130.3356800267
 30
0.0
 11
58.1918302597
 21
133.8712139326
 31
0.0
  0
LINE
  5
90
330
89
100
AcDbEntity
  8
80
370
    18
100
AcDbLine
 10
61.7273641656
 20
130.3356800267
 30
0.0
 11
51.7273641656
 21
130.3356800267
 31
0.0
  0
LINE
  5
91
330
89
100
AcDbEntity
  8
80
370
    18
100
AcDbLine
 10
61.7273641656
 20
130.3356800267
 30
0.0
 11
65.2628980715
 21
126.8001461208
 31
0.0
  0
ENDBLK
  5
8B
330
89
100
AcDbEntity
  8
0
100
AcDbBlockEnd
  0
BLOCK
  5
24E
330
24D
100
AcDbEntity
  8
0
100
AcDbBlockBegin
  2
_D
 70
     0
 10
0.0
 20
0.0
 30
0.0
  3
_D
  1

  0
SOLID
  5
250
330
24D
100
AcDbEntity
  8
SK2
100
AcDbTrace
 10
0.0
 20
59.9694562574
 30
0.0
 11
3.302
 21
59.4614562574
 31
0.0
 12
3.302
 22
60.4774562574
 32
0.0
 13
3.302
 23
60.4774562574
 33
0.0
  0
SOLID
  5
251
330
24D
100
AcDbEntity
  8
SK2
100
AcDbTrace
 10
37.9999999933
 20
59.9694562574
 30
0.0
 11
34.6979999933
 21
60.4774562574
 31
0.0
 12
34.6979999933
 22
59.4614562574
 32
0.0
 13
34.6979999933
 23
59.4614562574
 33
0.0
  0
LINE
  5
252
330
24D
100
AcDbEntity
  8
SK2
100
AcDbLine
 10
0.0
 20
35.925
 30
0.0
 11
0.0
 21
60.9694562574
 31
0.0
  0
LINE
  5
253
330
24D
100
AcDbEntity
  8
SK2
100
AcDbLine
 10
37.9999999933
 20
50.2286823296
 30
0.0
 11
37.9999999933
 21
60.9694562574
 31
0.0
  0
LINE
  5
254
330
24D
100
AcDbEntity
  8
SK2
100
AcDbLine
 10
0.0
 20
59.9694562574
 30
0.0
 11
37.9999999933
 21
59.9694562574
 31
0.0
  0
MTEXT
  5
255
330
24D
100
AcDbEntity
  8
SK2
100
AcDbMText
 10
15.7288565614
 20
64.481193172
 30
0.0
 40
3.5
 41
0.0
 71
     1
 72
     1
  1
38
  7
SLDTEXTSTYLE0
 73
     1
 44
1.0
  0
ENDBLK
  5
24F
330
24D
100
AcDbEntity
  8
0
100
AcDbBlockEnd
  0
BLOCK
  5
258
330
257
100
AcDbEntity
  8
0
100
AcDbBlockBegin
  2
_D_1
 70
     0
 10
0.0
 20
0.0
 30
0.0
  3
_D_1
  1

  0
SOLID
  5
25A
330
257
100
AcDbEntity
  8
SK2
100
AcDbTrace
 10
105.0
 20
59.9694562574
 30
0.0
 11
101.698
 21
60.4774562574
 31
0.0
 12
101.698
 22
59.4614562574
 32
0.0
 13
101.698
 23
59.4614562574
 33
0.0
  0
SOLID
  5
25B
330
257
100
AcDbEntity
  8
SK2
100
AcDbTrace
 10
37.9999999933
 20
59.9694562574
 30
0.0
 11
41.3019999933
 21
59.4614562574
 31
0.0
 12
41.3019999933
 22
60.4774562574
 32
0.0
 13
41.3019999933
 23
60.4774562574
 33
0.0
  0
LINE
  5
25C
330
257
100
AcDbEntity
  8
SK2
100
AcDbLine
 10
105.0
 20
30.0717967697
 30
0.0
 11
105.0
 21
60.9694562574
 31
0.0
  0
LINE
  5
25D
330
257
100
AcDbEntity
  8
SK2
100
AcDbLine
 10
37.9999999933
 20
50.2286823296
 30
0.0
 11
37.9999999933
 21
60.9694562574
 31
0.0
  0
LINE
  5
25E
330
257
100
AcDbEntity
  8
SK2
100
AcDbLine
 10
105.0
 20
59.9694562574
 30
0.0
 11
37.9999999933
 21
59.9694562574
 31
0.0
  0
MTEXT
  5
25F
330
257
100
AcDbEntity
  8
SK2
100
AcDbMText
 10
68.2431167803
 20
64.481193172
 30
0.0
 40
3.5
 41
0.0
 71
     1
 72
     1
  1
67
  7
SLDTEXTSTYLE0
 73
     1
 44
1.0
  0
ENDBLK
  5
259
330
257
100
AcDbEntity
  8
0
100
AcDbBlockEnd
  0
BLOCK
  5
262
330
261
100
AcDbEntity
  8
0
100
AcDbBlockBegin
  2
_D_2
 70
     0
 10
0.0
 20
0.0
 30
0.0
  3
_D_2
  1

  0
SOLID
  5
264
330
261
100
AcDbEntity
  8
2
100
AcDbTrace
 10
0.0
 20
68.822754421
 30
0.0
 11
3.302
 21
68.314754421
 31
0.0
 12
3.302
 22
69.330754421
 32
0.0
 13
3.302
 23
69.330754421
 33
0.0
  0
SOLID
  5
265
330
261
100
AcDbEntity
  8
2
100
AcDbTrace
 10
105.0
 20
68.822754421
 30
0.0
 11
101.698
 21
69.330754421
 31
0.0
 12
101.698
 22
68.314754421
 32
0.0
 13
101.698
 23
68.314754421
 33
0.0
  0
LINE
  5
266
330
261
100
AcDbEntity
  8
2
100
AcDbLine
 10
0.0
 20
35.925
 30
0.0
 11
0.0
 21
69.822754421
 31
0.0
  0
LINE
  5
267
330
261
100
AcDbEntity
  8
2
100
AcDbLine
 10
105.0
 20
30.0717967697
 30
0.0
 11
105.0
 21
69.822754421
 31
0.0
  0
LINE
  5
268
330
261
100
AcDbEntity
  8
2
100
AcDbLine
 10
0.0
 20
68.822754421
 30
0.0
 11
105.0
 21
68.822754421
 31
0.0
  0
MTEXT
  5
269
330
261
100
AcDbEntity
  8
2
100
AcDbMText
 10
48.335434392
 20
73.3344913355
 30
0.0
 40
3.5
 41
0.0
 71
     1
 72
     1
  1
105
  7
SLDTEXTSTYLE0
 73
     1
 44
1.0
  0
ENDBLK
  5
263
330
261
100
AcDbEntity
  8
0
100
AcDbBlockEnd
  0
BLOCK
  5
26C
330
26B
100
AcDbEntity
  8
0
100
AcDbBlockBegin
  2
_D_3
 70
     0
 10
0.0
 20
0.0
 30
0.0
  3
_D_3
  1

  0
SOLID
  5
26E
330
26B
100
AcDbEntity
  8
SK2
100
AcDbTrace
 10
105.0
 20
49.1865931095
 30
0.0
 11
101.698
 21
49.6945931095
 31
0.0
 12
101.698
 22
48.6785931095
 32
0.0
 13
101.698
 23
48.6785931095
 33
0.0
  0
SOLID
  5
26F
330
26B
100
AcDbEntity
  8
SK2
100
AcDbTrace
 10
93.0
 20
49.1865931095
 30
0.0
 11
96.302
 21
48.6785931095
 31
0.0
 12
96.302
 22
49.6945931095
 32
0.0
 13
96.302
 23
49.6945931095
 33
0.0
  0
LINE
  5
270
330
26B
100
AcDbEntity
  8
SK2
100
AcDbLine
 10
105.0
 20
30.0717967697
 30
0.0
 11
105.0
 21
50.1865931095
 31
0.0
  0
LINE
  5
271
330
26B
100
AcDbEntity
  8
SK2
100
AcDbLine
 10
93.0
 20
37.0
 30
0.0
 11
93.0
 21
50.1865931095
 31
0.0
  0
LINE
  5
272
330
26B
100
AcDbEntity
  8
SK2
100
AcDbLine
 10
105.0
 20
49.1865931095
 30
0.0
 11
93.0
 21
49.1865931095
 31
0.0
  0
MTEXT
  5
273
330
26B
100
AcDbEntity
  8
SK2
100
AcDbMText
 10
95.938049497
 20
53.6983300241
 30
0.0
 40
3.5
 41
0.0
 71
     1
 72
     1
  1
12
  7
SLDTEXTSTYLE0
 73
     1
 44
1.0
  0
ENDBLK
  5
26D
330
26B
100
AcDbEntity
  8
0
100
AcDbBlockEnd
  0
BLOCK
  5
276
330
275
100
AcDbEntity
  8
0
100
AcDbBlockBegin
  2
_D_4
 70
     0
 10
0.0
 20
0.0
 30
0.0
  3
_D_4
  1

  0
SOLID
  5
278
330
275
100
AcDbEntity
  8
SK2
100
AcDbTrace
 10
149.1012261148
 20
36.0
 30
0.0
 11
148.5932261148
 21
32.698
 31
0.0
 12
149.6092261148
 22
32.698
 32
0.0
 13
149.6092261148
 23
32.698
 33
0.0
  0
SOLID
  5
279
330
275
100
AcDbEntity
  8
SK2
100
AcDbTrace
 10
149.1012261148
 20
-36.0
 30
0.0
 11
149.6092261148
 21
-32.698
 31
0.0
 12
148.5932261148
 22
-32.698
 32
0.0
 13
148.5932261148
 23
-32.698
 33
0.0
  0
LINE
  5
27A
330
275
100
AcDbEntity
  8
SK2
100
AcDbLine
 10
94.0
 20
36.0
 30
0.0
 11
150.1012261148
 21
36.0
 31
0.0
  0
LINE
  5
27B
330
275
100
AcDbEntity
  8
SK2
100
AcDbLine
 10
94.0
 20
-36.0
 30
0.0
 11
150.1012261148
 21
-36.0
 31
0.0
  0
LINE
  5
27C
330
275
100
AcDbEntity
  8
SK2
100
AcDbLine
 10
149.1012261148
 20
36.0
 30
0.0
 11
149.1012261148
 21
-36.0
 31
0.0
  0
MTEXT
  5
27D
330
275
100
AcDbEntity
  8
SK2
100
AcDbMText
 10
144.5894890256
 20
-5.825250648
 30
0.0
 40
3.5
 41
0.0
 71
     1
 72
     1
  1
%%c
  7
SLDTEXTSTYLE0
 11
-7.044195017643634E-15
 21
1.0
 31
0.0
 73
     1
 44
1.0
  0
MTEXT
  5
27E
330
275
100
AcDbEntity
  8
SK2
100
AcDbMText
 10
144.5360168489
 20
-0.5468132496
 30
0.0
 40
3.5
 41
0.0
 71
     1
 72
     1
  1
72
  7
SLDTEXTSTYLE0
 11
-7.044195017643634E-15
 21
1.0
 31
0.0
 73
     1
 44
1.0
  0
ENDBLK
  5
277
330
275
100
AcDbEntity
  8
0
100
AcDbBlockEnd
  0
BLOCK
  5
281
330
280
100
AcDbEntity
  8
0
100
AcDbBlockBegin
  2
_D_5
 70
     0
 10
0.0
 20
0.0
 30
0.0
  3
_D_5
  1

  0
SOLID
  5
283
330
280
100
AcDbEntity
  8
SK2
100
AcDbTrace
 10
135.8318067008
 20
29.0717967697
 30
0.0
 11
135.3238067008
 21
25.7697967697
 31
0.0
 12
136.3398067008
 22
25.7697967697
 32
0.0
 13
136.3398067008
 23
25.7697967697
 33
0.0
  0
SOLID
  5
284
330
280
100
AcDbEntity
  8
SK2
100
AcDbTrace
 10
135.8318067008
 20
-29.0717967697
 30
0.0
 11
136.3398067008
 21
-25.7697967697
 31
0.0
 12
135.3238067008
 22
-25.7697967697
 32
0.0
 13
135.3238067008
 23
-25.7697967697
 33
0.0
  0
LINE
  5
285
330
280
100
AcDbEntity
  8
SK2
100
AcDbLine
 10
106.0
 20
29.0717967697
 30
0.0
 11
136.8318067008
 21
29.0717967697
 31
0.0
  0
LINE
  5
286
330
280
100
AcDbEntity
  8
SK2
100
AcDbLine
 10
106.0
 20
-29.0717967697
 30
0.0
 11
136.8318067008
 21
-29.0717967697
 31
0.0
  0
LINE
  5
287
330
280
100
AcDbEntity
  8
SK2
100
AcDbLine
 10
135.8318067008
 20
29.0717967697
 30
0.0
 11
135.8318067008
 21
-29.0717967697
 31
0.0
  0
MTEXT
  5
288
330
280
100
AcDbEntity
  8
SK2
100
AcDbMText
 10
131.3200696116
 20
-9.0578894653
 30
0.0
 40
3.5
 41
0.0
 71
     1
 72
     1
  1
%%c
  7
SLDTEXTSTYLE0
 11
-7.044195017643634E-15
 21
1.0
 31
0.0
 73
     1
 44
1.0
  0
MTEXT
  5
289
330
280
100
AcDbEntity
  8
SK2
100
AcDbMText
 10
131.2665974349
 20
-3.7794520669
 30
0.0
 40
3.5
 41
0.0
 71
     1
 72
     1
  1
58,14
  7
SLDTEXTSTYLE0
 11
-7.044195017643634E-15
 21
1.0
 31
0.0
 73
     1
 44
1.0
  0
ENDBLK
  5
282
330
280
100
AcDbEntity
  8
0
100
AcDbBlockEnd
  0
BLOCK
  5
28C
330
28B
100
AcDbEntity
  8
0
100
AcDbBlockBegin
  2
_D_6
 70
     0
 10
0.0
 20
0.0
 30
0.0
  3
_D_6
  1

  0
SOLID
  5
28E
330
28B
100
AcDbEntity
  8
SK2
100
AcDbTrace
 10
123.9312278643
 20
-16.0
 30
0.0
 11
124.4392278643
 21
-12.698
 31
0.0
 12
123.4232278643
 22
-12.698
 32
0.0
 13
123.4232278643
 23
-12.698
 33
0.0
  0
SOLID
  5
28F
330
28B
100
AcDbEntity
  8
SK2
100
AcDbTrace
 10
123.9312278643
 20
16.0
 30
0.0
 11
123.4232278643
 21
12.698
 31
0.0
 12
124.4392278643
 22
12.698
 32
0.0
 13
124.4392278643
 23
12.698
 33
0.0
  0
LINE
  5
290
330
28B
100
AcDbEntity
  8
SK2
100
AcDbLine
 10
105.0
 20
-16.0
 30
0.0
 11
124.9312278643
 21
-16.0
 31
0.0
  0
LINE
  5
291
330
28B
100
AcDbEntity
  8
SK2
100
AcDbLine
 10
105.0
 20
16.0
 30
0.0
 11
124.9312278643
 21
16.0
 31
0.0
  0
LINE
  5
292
330
28B
100
AcDbEntity
  8
SK2
100
AcDbLine
 10
123.9312278643
 20
-16.0
 30
0.0
 11
123.9312278643
 21
16.0
 31
0.0
  0
MTEXT
  5
293
330
28B
100
AcDbEntity
  8
SK2
100
AcDbMText
 10
119.4194907751
 20
-5.825250648
 30
0.0
 40
3.5
 41
0.0
 71
     1
 72
     1
  1
%%c
  7
SLDTEXTSTYLE0
 11
6.123233995736766E-17
 21
1.0
 31
0.0
 73
     1
 44
1.0
  0
MTEXT
  5
294
330
28B
100
AcDbEntity
  8
SK2
100
AcDbMText
 10
119.3660185984
 20
-0.5468132496
 30
0.0
 40
3.5
 41
0.0
 71
     1
 72
     1
  1
32
  7
SLDTEXTSTYLE0
 11
6.123233995736766E-17
 21
1.0
 31
0.0
 73
     1
 44
1.0
  0
ENDBLK
  5
28D
330
28B
100
AcDbEntity
  8
0
100
AcDbBlockEnd
  0
BLOCK
  5
297
330
296
100
AcDbEntity
  8
0
100
AcDbBlockBegin
  2
_D_7
 70
     0
 10
0.0
 20
0.0
 30
0.0
  3
_D_7
  1

  0
SOLID
  5
299
330
296
100
AcDbEntity
  8
SK2
100
AcDbTrace
 10
105.0
 20
-48.8096098249
 30
0.0
 11
101.698
 21
-48.3016098249
 31
0.0
 12
101.698
 22
-49.3176098249
 32
0.0
 13
101.698
 23
-49.3176098249
 33
0.0
  0
SOLID
  5
29A
330
296
100
AcDbEntity
  8
SK2
100
AcDbTrace
 10
81.0
 20
-48.8096098249
 30
0.0
 11
84.302
 21
-49.3176098249
 31
0.0
 12
84.302
 22
-48.3016098249
 32
0.0
 13
84.302
 23
-48.3016098249
 33
0.0
  0
LINE
  5
29B
330
296
100
AcDbEntity
  8
SK2
100
AcDbLine
 10
105.0
 20
-30.0717967697
 30
0.0
 11
105.0
 21
-49.8096098249
 31
0.0
  0
LINE
  5
29C
330
296
100
AcDbEntity
  8
SK2
100
AcDbLine
 10
81.0
 20
-36.8
 30
0.0
 11
81.0
 21
-49.8096098249
 31
0.0
  0
LINE
  5
29D
330
296
100
AcDbEntity
  8
SK2
100
AcDbLine
 10
105.0
 20
-48.8096098249
 30
0.0
 11
81.0
 21
-48.8096098249
 31
0.0
  0
MTEXT
  5
29E
330
296
100
AcDbEntity
  8
SK2
100
AcDbMText
 10
90.473935278
 20
-44.2978729103
 30
0.0
 40
3.5
 41
0.0
 71
     1
 72
     1
  1
24
  7
SLDTEXTSTYLE0
 73
     1
 44
1.0
  0
ENDBLK
  5
298
330
296
100
AcDbEntity
  8
0
100
AcDbBlockEnd
  0
BLOCK
  5
2A1
330
2A0
100
AcDbEntity
  8
0
100
AcDbBlockBegin
  2
_D_8
 70
     0
 10
0.0
 20
0.0
 30
0.0
  3
_D_8
  1

  0
SOLID
  5
2A3
330
2A0
100
AcDbEntity
  8
SK2
100
AcDbTrace
 10
81.0
 20
-48.8096098249
 30
0.0
 11
77.698
 21
-48.3016098249
 31
0.0
 12
77.698
 22
-49.3176098249
 32
0.0
 13
77.698
 23
-49.3176098249
 33
0.0
  0
SOLID
  5
2A4
330
2A0
100
AcDbEntity
  8
SK2
100
AcDbTrace
 10
53.0
 20
-48.8096098249
 30
0.0
 11
56.302
 21
-49.3176098249
 31
0.0
 12
56.302
 22
-48.3016098249
 32
0.0
 13
56.302
 23
-48.3016098249
 33
0.0
  0
LINE
  5
2A5
330
2A0
100
AcDbEntity
  8
SK2
100
AcDbLine
 10
81.0
 20
-36.8
 30
0.0
 11
81.0
 21
-49.8096098249
 31
0.0
  0
LINE
  5
2A6
330
2A0
100
AcDbEntity
  8
SK2
100
AcDbLine
 10
53.0
 20
-36.8
 30
0.0
 11
53.0
 21
-49.8096098249
 31
0.0
  0
LINE
  5
2A7
330
2A0
100
AcDbEntity
  8
SK2
100
AcDbLine
 10
81.0
 20
-48.8096098249
 30
0.0
 11
53.0
 21
-48.8096098249
 31
0.0
  0
MTEXT
  5
2A8
330
2A0
100
AcDbEntity
  8
SK2
100
AcDbMText
 10
64.3967878197
 20
-44.2978729103
 30
0.0
 40
3.5
 41
0.0
 71
     1
 72
     1
  1
28
  7
SLDTEXTSTYLE0
 73
     1
 44
1.0
  0
ENDBLK
  5
2A2
330
2A0
100
AcDbEntity
  8
0
100
AcDbBlockEnd
  0
BLOCK
  5
2AB
330
2AA
100
AcDbEntity
  8
0
100
AcDbBlockBegin
  2
_D_9
 70
     0
 10
0.0
 20
0.0
 30
0.0
  3
_D_9
  1

  0
SOLID
  5
2AD
330
2AA
100
AcDbEntity
  8
SK2
100
AcDbTrace
 10
105.0
 20
-59.0234077633
 30
0.0
 11
101.698
 21
-58.5154077633
 31
0.0
 12
101.698
 22
-59.5314077633
 32
0.0
 13
101.698
 23
-59.5314077633
 33
0.0
  0
SOLID
  5
2AE
330
2AA
100
AcDbEntity
  8
SK2
100
AcDbTrace
 10
47.0
 20
-59.0234077633
 30
0.0
 11
50.302
 21
-59.5314077633
 31
0.0
 12
50.302
 22
-58.5154077633
 32
0.0
 13
50.302
 23
-58.5154077633
 33
0.0
  0
LINE
  5
2AF
330
2AA
100
AcDbEntity
  8
SK2
100
AcDbLine
 10
105.0
 20
-30.0717967697
 30
0.0
 11
105.0
 21
-60.0234077633
 31
0.0
  0
LINE
  5
2B0
330
2AA
100
AcDbEntity
  8
SK2
100
AcDbLine
 10
47.0
 20
-15.5258390463
 30
0.0
 11
47.0
 21
-60.0234077633
 31
0.0
  0
LINE
  5
2B1
330
2AA
100
AcDbEntity
  8
SK2
100
AcDbLine
 10
105.0
 20
-59.0234077633
 30
0.0
 11
47.0
 21
-59.0234077633
 31
0.0
  0
MTEXT
  5
2B2
330
2AA
100
AcDbEntity
  8
SK2
100
AcDbMText
 10
72.1270294472
 20
-54.5116708487
 30
0.0
 40
3.5
 41
0.0
 71
     1
 72
     1
  1
58
  7
SLDTEXTSTYLE0
 73
     1
 44
1.0
  0
ENDBLK
  5
2AC
330
2AA
100
AcDbEntity
  8
0
100
AcDbBlockEnd
  0
BLOCK
  5
2B5
330
2B4
100
AcDbEntity
  8
0
100
AcDbBlockBegin
  2
_D_10
 70
     0
 10
0.0
 20
0.0
 30
0.0
  3
_D_10
  1

  0
SOLID
  5
2B7
330
2B4
100
AcDbEntity
  8
SK2
100
AcDbTrace
 10
-135.3771884687
 20
49.978682327
 30
0.0
 11
-135.8851884687
 21
46.676682327
 31
0.0
 12
-134.8691884687
 22
46.676682327
 32
0.0
 13
-134.8691884687
 23
46.676682327
 33
0.0
  0
SOLID
  5
2B8
330
2B4
100
AcDbEntity
  8
SK2
100
AcDbTrace
 10
-135.3771884687
 20
-49.978682327
 30
0.0
 11
-134.8691884687
 21
-46.676682327
 31
0.0
 12
-135.8851884687
 22
-46.676682327
 32
0.0
 13
-135.8851884687
 23
-46.676682327
 33
0.0
  0
LINE
  5
2B9
330
2B4
100
AcDbEntity
  8
SK2
100
AcDbLine
 10
2.75
 20
49.978682327
 30
0.0
 11
-136.3771884687
 21
49.978682327
 31
0.0
  0
LINE
  5
2BA
330
2B4
100
AcDbEntity
  8
SK2
100
AcDbLine
 10
2.75
 20
-49.978682327
 30
0.0
 11
-136.3771884687
 21
-49.978682327
 31
0.0
  0
LINE
  5
2BB
330
2B4
100
AcDbEntity
  8
SK2
100
AcDbLine
 10
-135.3771884687
 20
49.978682327
 30
0.0
 11
-135.3771884687
 21
-49.978682327
 31
0.0
  0
MTEXT
  5
2BC
330
2B4
100
AcDbEntity
  8
SK2
100
AcDbMText
 10
-139.8889255579
 20
-7.8107704065
 30
0.0
 40
3.5
 41
0.0
 71
     1
 72
     1
  1
%%c
  7
SLDTEXTSTYLE0
 11
-4.379659758543259E-15
 21
1.0
 31
0.0
 73
     1
 44
1.0
  0
MTEXT
  5
2BD
330
2B4
100
AcDbEntity
  8
SK2
100
AcDbMText
 10
-139.9423977345
 20
-2.5323330081
 30
0.0
 40
3.5
 41
0.0
 71
     1
 72
     1
  1
100
  7
SLDTEXTSTYLE0
 11
-4.379659758543259E-15
 21
1.0
 31
0.0
 73
     1
 44
1.0
  0
ENDBLK
  5
2B6
330
2B4
100
AcDbEntity
  8
0
100
AcDbBlockEnd
  0
BLOCK
  5
2C0
330
2BF
100
AcDbEntity
  8
0
100
AcDbBlockBegin
  2
_D_11
 70
     0
 10
0.0
 20
0.0
 30
0.0
  3
_D_11
  1

  0
SOLID
  5
2C2
330
2BF
100
AcDbEntity
  8
SK2
100
AcDbTrace
 10
-121.6834239619
 20
34.925
 30
0.0
 11
-122.1914239619
 21
31.623
 31
0.0
 12
-121.1754239619
 22
31.623
 32
0.0
 13
-121.1754239619
 23
31.623
 33
0.0
  0
SOLID
  5
2C3
330
2BF
100
AcDbEntity
  8
SK2
100
AcDbTrace
 10
-121.6834239619
 20
-34.925
 30
0.0
 11
-121.1754239619
 21
-31.623
 31
0.0
 12
-122.1914239619
 22
-31.623
 32
0.0
 13
-122.1914239619
 23
-31.623
 33
0.0
  0
LINE
  5
2C4
330
2BF
100
AcDbEntity
  8
SK2
100
AcDbLine
 10
-1.0
 20
34.925
 30
0.0
 11
-122.6834239619
 21
34.925
 31
0.0
  0
LINE
  5
2C5
330
2BF
100
AcDbEntity
  8
SK2
100
AcDbLine
 10
-1.0
 20
-34.925
 30
0.0
 11
-122.6834239619
 21
-34.925
 31
0.0
  0
LINE
  5
2C6
330
2BF
100
AcDbEntity
  8
SK2
100
AcDbLine
 10
-121.6834239619
 20
34.925
 30
0.0
 11
-121.6834239619
 21
-34.925
 31
0.0
  0
MTEXT
  5
2C7
330
2BF
100
AcDbEntity
  8
SK2
100
AcDbMText
 10
-126.1951610511
 20
-9.7503535106
 30
0.0
 40
3.5
 41
0.0
 71
     1
 72
     1
  1
%%c
  7
SLDTEXTSTYLE0
 11
-7.044195017643634E-15
 21
1.0
 31
0.0
 73
     1
 44
1.0
  0
MTEXT
  5
2C8
330
2BF
100
AcDbEntity
  8
SK2
100
AcDbMText
 10
-126.2486332277
 20
-4.4719161122
 30
0.0
 40
3.5
 41
0.0
 71
     1
 72
     1
  1
69,85
  7
SLDTEXTSTYLE0
 11
-7.044195017643634E-15
 21
1.0
 31
0.0
 73
     1
 44
1.0
  0
ENDBLK
  5
2C1
330
2BF
100
AcDbEntity
  8
0
100
AcDbBlockEnd
  0
BLOCK
  5
2CB
330
2CA
100
AcDbEntity
  8
0
100
AcDbBlockBegin
  2
_D_12
 70
     0
 10
0.0
 20
0.0
 30
0.0
  3
_D_12
  1

  0
SOLID
  5
2CD
330
2CA
100
AcDbEntity
  8
SK2
100
AcDbTrace
 10
-110.6060136937
 20
-12.0
 30
0.0
 11
-110.0980136937
 21
-8.698
 31
0.0
 12
-111.1140136937
 22
-8.698
 32
0.0
 13
-111.1140136937
 23
-8.698
 33
0.0
  0
SOLID
  5
2CE
330
2CA
100
AcDbEntity
  8
SK2
100
AcDbTrace
 10
-110.6060136937
 20
12.0
 30
0.0
 11
-111.1140136937
 21
8.698
 31
0.0
 12
-110.0980136937
 22
8.698
 32
0.0
 13
-110.0980136937
 23
8.698
 33
0.0
  0
LINE
  5
2CF
330
2CA
100
AcDbEntity
  8
SK2
100
AcDbLine
 10
-89.1169872981
 20
-12.0
 30
0.0
 11
-111.6060136937
 21
-12.0
 31
0.0
  0
LINE
  5
2D0
330
2CA
100
AcDbEntity
  8
SK2
100
AcDbLine
 10
-89.1169872981
 20
12.0
 30
0.0
 11
-111.6060136937
 21
12.0
 31
0.0
  0
LINE
  5
2D1
330
2CA
100
AcDbEntity
  8
SK2
100
AcDbLine
 10
-110.6060136937
 20
-12.0
 30
0.0
 11
-110.6060136937
 21
12.0
 31
0.0
  0
MTEXT
  5
2D2
330
2CA
100
AcDbEntity
  8
SK2
100
AcDbMText
 10
-115.1177506082
 20
-4.1669288604
 30
0.0
 40
3.5
 41
0.0
 71
     1
 72
     1
  1
M
  7
SLDTEXTSTYLE0
 11
3.391901413832837E-15
 21
1.0
 31
0.0
 73
     1
 44
1.0
  0
MTEXT
  5
2D3
330
2CA
100
AcDbEntity
  8
SK2
100
AcDbMText
 10
-115.1177506082
 20
0.120571074
 30
0.0
 40
3.5
 41
0.0
 71
     1
 72
     1
  1
24
  7
SLDTEXTSTYLE0
 11
3.391901413832837E-15
 21
1.0
 31
0.0
 73
     1
 44
1.0
  0
ENDBLK
  5
2CC
330
2CA
100
AcDbEntity
  8
0
100
AcDbBlockEnd
  0
ENDSEC
  0
SECTION
  2
ENTITIES
  0
LINE
  5
92
330
1F
100
AcDbEntity
  8
1
  6
SLD-Solid
370
    25
100
AcDbLine
 10
37.2500000057
 20
49.978682327
 30
0.0
 11
30.7300000057
 21
49.978682327
 31
0.0
  0
LINE
  5
93
330
1F
100
AcDbEntity
  8
1
  6
SLD-Solid
370
    25
100
AcDbLine
 10
30.7299999867
 20
-49.9786823242
 30
0.0
 11
37.2499999867
 21
-49.9786823242
 31
0.0
  0
LINE
  5
94
330
1F
100
AcDbEntity
  8
1
  6
SLD-Solid
370
    25
100
AcDbLine
 10
30.7300000057
 20
49.978682327
 30
0.0
 11
26.7050000067
 21
43.0071778294
 31
0.0
  0
LINE
  5
95
330
1F
100
AcDbEntity
  8
1
  6
SLD-Solid
370
    25
100
AcDbLine
 10
26.7049999934
 20
-42.8749999999
 30
0.0
 11
30.7299999867
 21
-49.9786823242
 31
0.0
  0
LINE
  5
96
330
1F
100
AcDbEntity
  8
1
  6
SLD-Solid
370
    25
100
AcDbLine
 10
3.75
 20
-49.978682327
 30
0.0
 11
15.68
 21
-49.978682327
 31
0.0
  0
LINE
  5
97
330
1F
100
AcDbEntity
  8
1
  6
SLD-Solid
370
    25
100
AcDbLine
 10
15.68
 20
49.978682327
 30
0.0
 11
3.75
 21
49.978682327
 31
0.0
  0
LINE
  5
98
330
1F
100
AcDbEntity
  8
1
  6
SLD-Solid
370
    25
100
AcDbLine
 10
15.68
 20
-49.978682327
 30
0.0
 11
19.705
 21
-43.0071778265
 31
0.0
  0
LINE
  5
99
330
1F
100
AcDbEntity
  8
1
  6
SLD-Solid
370
    25
100
AcDbLine
 10
19.705
 20
43.0071778265
 30
0.0
 11
15.68
 21
49.978682327
 31
0.0
  0
LINE
  5
9A
330
1F
100
AcDbEntity
  8
1
  6
SLD-Solid
370
    25
100
AcDbLine
 10
20.0799999934
 20
-42.4999999999
 30
0.0
 11
26.3299999934
 21
-42.4999999999
 31
0.0
  0
LINE
  5
9B
330
1F
100
AcDbEntity
  8
1
  6
SLD-Solid
370
    25
100
AcDbLine
 10
26.33
 20
42.5
 30
0.0
 11
20.08
 21
42.5
 31
0.0
  0
LINE
  5
9C
330
1F
100
AcDbEntity
  8
1
  6
SLD-Solid
370
    25
100
AcDbLine
 10
93.0
 20
-36.0
 30
0.0
 11
105.0
 21
-29.0717967697
 31
0.0
  0
LINE
  5
9D
330
1F
100
AcDbEntity
  8
1
  6
SLD-Solid
370
    25
100
AcDbLine
 10
105.0
 20
29.0717967697
 30
0.0
 11
93.0
 21
36.0
 31
0.0
  0
LINE
  5
9E
330
1F
100
AcDbEntity
  8
1
  6
SLD-Solid
370
    25
100
AcDbLine
 10
41.4086052917
 20
36.0
 30
0.0
 11
41.0
 21
36.0
 31
0.0
  0
LINE
  5
9F
330
1F
100
AcDbEntity
  8
1
  6
SLD-Solid
370
    25
100
AcDbLine
 10
69.3890956434
 20
36.0
 30
0.0
 11
64.6109043566
 21
36.0
 31
0.0
  0
LINE
  5
A0
330
1F
100
AcDbEntity
  8
1
  6
SLD-Solid
370
    25
100
AcDbLine
 10
93.0
 20
36.0
 30
0.0
 11
92.5913947083
 21
36.0
 31
0.0
  0
LINE
  5
A1
330
1F
100
AcDbEntity
  8
1
  6
SLD-Solid
370
    25
100
AcDbLine
 10
92.1
 20
-36.0
 30
0.0
 11
93.0
 21
-36.0
 31
0.0
  0
LINE
  5
A2
330
1F
100
AcDbEntity
  8
1
  6
SLD-Solid
370
    25
100
AcDbLine
 10
64.1
 20
-36.0
 30
0.0
 11
69.9095937492
 21
-36.0
 31
0.0
  0
LINE
  5
A3
330
1F
100
AcDbEntity
  8
1
  6
SLD-Solid
370
    25
100
AcDbLine
 10
41.0
 20
-36.0
 30
0.0
 11
41.9095937492
 21
-36.0
 31
0.0
  0
LINE
  5
A4
330
1F
100
AcDbEntity
  8
SK1
  6
SLD-Solid
370
    25
100
AcDbLine
 10
0.0
 20
34.925
 30
0.0
 11
-100.944317822
 21
20.2028150506
 31
0.0
  0
LINE
  5
A5
330
1F
100
AcDbEntity
  8
SK1
  6
SLD-Solid
370
    25
100
AcDbLine
 10
-100.944317822
 20
-20.2028150506
 30
0.0
 11
0.0
 21
-34.925
 31
0.0
  0
LINE
  5
A6
330
1F
100
AcDbEntity
  8
1
  6
SLD-Solid
370
    25
100
AcDbLine
 10
0.2
 20
34.925
 30
0.0
 11
0.0
 21
34.925
 31
0.0
  0
LINE
  5
A7
330
1F
100
AcDbEntity
  8
1
  6
SLD-Solid
370
    25
100
AcDbLine
 10
0.0
 20
-34.925
 30
0.0
 11
0.2
 21
-34.925
 31
0.0
  0
LINE
  5
A8
330
1F
100
AcDbEntity
  8
1
  6
SLD-Solid
370
    25
100
AcDbLine
 10
0.2
 20
-34.925
 30
0.0
 11
0.3290707856
 21
-34.8504809472
 31
0.0
  0
LINE
  5
A9
330
1F
100
AcDbEntity
  8
1
  6
SLD-Solid
370
    25
100
AcDbLine
 10
0.3290707856
 20
34.8504809472
 30
0.0
 11
0.2
 21
34.925
 31
0.0
  0
LINE
  5
AA
330
1F
100
AcDbEntity
  8
1
  6
SLD-Solid
370
    25
100
AcDbLine
 10
2.25
 20
34.75
 30
0.0
 11
0.7040707856
 21
34.75
 31
0.0
  0
LINE
  5
AB
330
1F
100
AcDbEntity
  8
1
  6
SLD-Solid
370
    25
100
AcDbLine
 10
0.7040707856
 20
-34.75
 30
0.0
 11
2.25
 21
-34.75
 31
0.0
  0
LINE
  5
AC
330
1F
100
AcDbEntity
  8
1
  6
SLD-Solid
370
    25
100
AcDbLine
 10
30.7300000057
 20
49.978682327
 30
0.0
 11
30.7300000057
 21
10.3017892946
 31
0.0
  0
LINE
  5
AD
330
1F
100
AcDbEntity
  8
1
  6
SLD-Solid
370
    25
100
AcDbLine
 10
30.7299999932
 20
-10.3017892815
 30
0.0
 11
30.7299999867
 21
-49.9786823242
 31
0.0
  0
LINE
  5
AE
330
1F
100
AcDbEntity
  8
1
  6
SLD-Solid
370
    25
100
AcDbLine
 10
37.9999999933
 20
49.2286823296
 30
0.0
 11
37.9999999933
 21
-49.2286823243
 31
0.0
  0
LINE
  5
AF
330
1F
100
AcDbEntity
  8
1
  6
SLD-Solid
370
    25
100
AcDbLine
 10
26.7050000067
 20
43.0071778294
 30
0.0
 11
26.7050000067
 21
11.846897276
 31
0.0
  0
LINE
  5
B0
330
1F
100
AcDbEntity
  8
1
  6
SLD-Solid
370
    25
100
AcDbLine
 10
26.7049999934
 20
-11.8468972704
 30
0.0
 11
26.7049999934
 21
-42.8749999999
 31
0.0
  0
LINE
  5
B1
330
1F
100
AcDbEntity
  8
1
  6
SLD-Solid
370
    25
100
AcDbLine
 10
3.75
 20
-12.9
 30
0.0
 11
16.2300196942
 21
-12.9
 31
0.0
  0
LINE
  5
B2
330
1F
100
AcDbEntity
  8
1
  6
SLD-Solid
370
    25
100
AcDbLine
 10
15.68
 20
-13.8579580341
 30
0.0
 11
3.75
 21
-13.8579580341
 31
0.0
  0
LINE
  5
B3
330
1F
100
AcDbEntity
  8
1
  6
SLD-Solid
370
    25
100
AcDbLine
 10
3.0
 20
-13.65
 30
0.0
 11
3.75
 21
-12.9
 31
0.0
  0
LINE
  5
B4
330
1F
100
AcDbEntity
  8
1
  6
SLD-Solid
370
    25
100
AcDbLine
 10
3.0
 20
13.65
 30
0.0
 11
3.0
 21
49.228682327
 31
0.0
  0
LINE
  5
B5
330
1F
100
AcDbEntity
  8
1
  6
SLD-Solid
370
    25
100
AcDbLine
 10
3.75
 20
12.9
 30
0.0
 11
3.0
 21
13.65
 31
0.0
  0
LINE
  5
B6
330
1F
100
AcDbEntity
  8
1
  6
SLD-Solid
370
    25
100
AcDbLine
 10
15.68
 20
-13.8579580341
 30
0.0
 11
15.68
 21
-49.978682327
 31
0.0
  0
LINE
  5
B7
330
1F
100
AcDbEntity
  8
1
  6
SLD-Solid
370
    25
100
AcDbLine
 10
3.0
 20
-49.228682327
 30
0.0
 11
3.0
 21
-13.65
 31
0.0
  0
LINE
  5
B8
330
1F
100
AcDbEntity
  8
1
  6
SLD-Solid
370
    25
100
AcDbLine
 10
16.2300196942
 20
12.9
 30
0.0
 11
3.75
 21
12.9
 31
0.0
  0
LINE
  5
B9
330
1F
100
AcDbEntity
  8
1
  6
SLD-Solid
370
    25
100
AcDbLine
 10
3.75
 20
13.8579580341
 30
0.0
 11
15.68
 21
13.8579580341
 31
0.0
  0
LINE
  5
BA
330
1F
100
AcDbEntity
  8
1
  6
SLD-Solid
370
    25
100
AcDbLine
 10
15.68
 20
49.978682327
 30
0.0
 11
15.68
 21
13.8579580341
 31
0.0
  0
LINE
  5
BB
330
1F
100
AcDbEntity
  8
1
  6
SLD-Solid
370
    25
100
AcDbLine
 10
19.705
 20
-12.9
 30
0.0
 11
19.705
 21
-43.0071778265
 31
0.0
  0
LINE
  5
BC
330
1F
100
AcDbEntity
  8
1
  6
SLD-Solid
370
    25
100
AcDbLine
 10
19.705
 20
43.0071778265
 30
0.0
 11
19.705
 21
12.9
 31
0.0
  0
LINE
  5
BD
330
1F
100
AcDbEntity
  8
1
  6
SLD-Solid
370
    25
100
AcDbLine
 10
21.5999999935
 20
-12.8999999973
 30
0.0
 11
20.08
 21
-12.8999999973
 31
0.0
  0
LINE
  5
BE
330
1F
100
AcDbEntity
  8
1
  6
SLD-Solid
370
    25
100
AcDbLine
 10
20.08
 20
12.9000000019
 30
0.0
 11
21.6000000062
 21
12.9000000019
 31
0.0
  0
LINE
  5
BF
330
1F
100
AcDbEntity
  8
1
  6
SLD-Solid
370
    25
100
AcDbLine
 10
93.0
 20
36.0
 30
0.0
 11
93.0
 21
-36.0
 31
0.0
  0
LINE
  5
C0
330
1F
100
AcDbEntity
  8
1
  6
SLD-Solid
370
    25
100
AcDbLine
 10
105.0
 20
29.0717967697
 30
0.0
 11
105.0
 21
-29.0717967697
 31
0.0
  0
LINE
  5
C1
330
1F
100
AcDbEntity
  8
1
  6
SLD-Solid
370
    25
100
AcDbLine
 10
3.0
 20
11.4643398282
 30
0.0
 11
3.0
 21
13.65
 31
0.0
  0
LINE
  5
C2
330
1F
100
AcDbEntity
  8
1
  6
SLD-Solid
370
    25
100
AcDbLine
 10
3.0
 20
-13.65
 30
0.0
 11
3.0
 21
-11.4643398282
 31
0.0
  0
LINE
  5
C3
330
1F
100
AcDbEntity
  8
1
  6
SLD-Solid
370
    25
100
AcDbLine
 10
3.0
 20
3.7629775444
 30
0.0
 11
3.0
 21
11.4643398282
 31
0.0
  0
LINE
  5
C4
330
1F
100
AcDbEntity
  8
1
  6
SLD-Solid
370
    25
100
AcDbLine
 10
3.0
 20
-11.4643398282
 30
0.0
 11
3.0
 21
-3.7629775444
 31
0.0
  0
LINE
  5
C5
330
1F
100
AcDbEntity
  8
1
  6
SLD-Solid
370
    25
100
AcDbLine
 10
0.0
 20
34.925
 30
0.0
 11
0.0
 21
-34.925
 31
0.0
  0
LINE
  5
C6
330
1F
100
AcDbEntity
  8
SK1
  6
SLD-Solid
370
    25
100
AcDbLine
 10
-101.8
 20
-19.2132836634
 30
0.0
 11
-101.8
 21
19.2132836634
 31
0.0
  0
LINE
  5
C7
330
1F
100
AcDbEntity
  8
SK3
  6
SLD-Dashed
370
    18
100
AcDbLine
 10
11.1
 20
43.7958995207
 30
0.0
 11
10.5104896512
 21
43.76550953
 31
0.0
  0
LINE
  5
C8
330
1F
100
AcDbEntity
  8
SK3
  6
SLD-Dashed
370
    18
100
AcDbLine
 10
10.5104896512
 20
43.76550953
 30
0.0
 11
9.9733598839
 21
43.677039842
 31
0.0
  0
LINE
  5
C9
330
1F
100
AcDbEntity
  8
SK3
  6
SLD-Dashed
370
    18
100
AcDbLine
 10
9.9733598839
 20
43.677039842
 30
0.0
 11
9.5363370351
 21
43.5383513768
 31
0.0
  0
LINE
  5
CA
330
1F
100
AcDbEntity
  8
SK3
  6
SLD-Dashed
370
    18
100
AcDbLine
 10
9.5363370351
 20
43.5383513768
 30
0.0
 11
9.2382525027
 21
43.3617672131
 31
0.0
  0
LINE
  5
CB
330
1F
100
AcDbEntity
  8
SK3
  6
SLD-Dashed
370
    18
100
AcDbLine
 10
9.2382525027
 20
43.3617672131
 30
0.0
 11
9.1055924056
 21
43.1629776287
 31
0.0
  0
LINE
  5
CC
330
1F
100
AcDbEntity
  8
SK3
  6
SLD-Dashed
370
    18
100
AcDbLine
 10
9.1055924056
 20
43.1629776287
 30
0.0
 11
9.1501441756
 21
42.9596459506
 31
0.0
  0
LINE
  5
CD
330
1F
100
AcDbEntity
  8
SK3
  6
SLD-Dashed
370
    18
100
AcDbLine
 10
9.1501441756
 20
42.9596459506
 30
0.0
 11
9.3679491924
 21
42.7698390907
 31
0.0
  0
LINE
  5
CE
330
1F
100
AcDbEntity
  8
SK3
  6
SLD-Dashed
370
    18
100
AcDbLine
 10
9.3679491924
 20
42.7698390907
 30
0.0
 11
9.7396545245
 21
42.6104222215
 31
0.0
  0
LINE
  5
CF
330
1F
100
AcDbEntity
  8
SK3
  6
SLD-Dashed
370
    18
100
AcDbLine
 10
9.7396545245
 20
42.6104222215
 30
0.0
 11
10.2322325218
 21
42.4955602314
 31
0.0
  0
LINE
  5
D0
330
1F
100
AcDbEntity
  8
SK3
  6
SLD-Dashed
370
    18
100
AcDbLine
 10
10.2322325218
 20
42.4955602314
 30
0.0
 11
10.8019154676
 21
42.4354591122
 31
0.0
  0
LINE
  5
D1
330
1F
100
AcDbEntity
  8
SK3
  6
SLD-Dashed
370
    18
100
AcDbLine
 10
10.8019154676
 20
42.4354591122
 30
0.0
 11
11.3980845324
 21
42.4354591122
 31
0.0
  0
LINE
  5
D2
330
1F
100
AcDbEntity
  8
SK3
  6
SLD-Dashed
370
    18
100
AcDbLine
 10
11.3980845324
 20
42.4354591122
 30
0.0
 11
11.9677674782
 21
42.4955602314
 31
0.0
  0
LINE
  5
D3
330
1F
100
AcDbEntity
  8
SK3
  6
SLD-Dashed
370
    18
100
AcDbLine
 10
11.9677674782
 20
42.4955602314
 30
0.0
 11
12.4603454755
 21
42.6104222215
 31
0.0
  0
LINE
  5
D4
330
1F
100
AcDbEntity
  8
SK3
  6
SLD-Dashed
370
    18
100
AcDbLine
 10
12.4603454755
 20
42.6104222215
 30
0.0
 11
12.8320508076
 21
42.7698390907
 31
0.0
  0
LINE
  5
D5
330
1F
100
AcDbEntity
  8
SK3
  6
SLD-Dashed
370
    18
100
AcDbLine
 10
12.8320508076
 20
42.7698390907
 30
0.0
 11
13.0498558244
 21
42.9596459506
 31
0.0
  0
LINE
  5
D6
330
1F
100
AcDbEntity
  8
SK3
  6
SLD-Dashed
370
    18
100
AcDbLine
 10
13.0498558244
 20
42.9596459506
 30
0.0
 11
13.0944075944
 21
43.1629776287
 31
0.0
  0
LINE
  5
D7
330
1F
100
AcDbEntity
  8
SK3
  6
SLD-Dashed
370
    18
100
AcDbLine
 10
13.0944075944
 20
43.1629776287
 30
0.0
 11
12.9617474973
 21
43.3617672131
 31
0.0
  0
LINE
  5
D8
330
1F
100
AcDbEntity
  8
SK3
  6
SLD-Dashed
370
    18
100
AcDbLine
 10
12.9617474973
 20
43.3617672131
 30
0.0
 11
12.6636629649
 21
43.5383513768
 31
0.0
  0
LINE
  5
D9
330
1F
100
AcDbEntity
  8
SK3
  6
SLD-Dashed
370
    18
100
AcDbLine
 10
12.6636629649
 20
43.5383513768
 30
0.0
 11
12.2266401161
 21
43.677039842
 31
0.0
  0
LINE
  5
DA
330
1F
100
AcDbEntity
  8
SK3
  6
SLD-Dashed
370
    18
100
AcDbLine
 10
12.2266401161
 20
43.677039842
 30
0.0
 11
11.6895103488
 21
43.76550953
 31
0.0
  0
LINE
  5
DB
330
1F
100
AcDbEntity
  8
SK3
  6
SLD-Dashed
370
    18
100
AcDbLine
 10
11.6895103488
 20
43.76550953
 30
0.0
 11
11.1
 21
43.7958995207
 31
0.0
  0
LINE
  5
DC
330
1F
100
AcDbEntity
  8
SK3
  6
SLD-Dashed
370
    18
100
AcDbLine
 10
11.1
 20
43.4863063449
 30
0.0
 11
10.5642458758
 21
43.4557292135
 31
0.0
  0
LINE
  5
DD
330
1F
100
AcDbEntity
  8
SK3
  6
SLD-Dashed
370
    18
100
AcDbLine
 10
10.5642458758
 20
43.4557292135
 30
0.0
 11
10.0865490241
 21
43.3673113261
 31
0.0
  0
LINE
  5
DE
330
1F
100
AcDbEntity
  8
SK3
  6
SLD-Dashed
370
    18
100
AcDbLine
 10
10.0865490241
 20
43.3673113261
 30
0.0
 11
9.7186753109
 21
43.2306341326
 31
0.0
  0
LINE
  5
DF
330
1F
100
AcDbEntity
  8
SK3
  6
SLD-Dashed
370
    18
100
AcDbLine
 10
9.7186753109
 20
43.2306341326
 30
0.0
 11
9.5004895612
 21
43.0605087278
 31
0.0
  0
LINE
  5
E0
330
1F
100
AcDbEntity
  8
SK3
  6
SLD-Dashed
370
    18
100
AcDbLine
 10
9.5004895612
 20
43.0605087278
 30
0.0
 11
9.4556355865
 21
42.8753708391
 31
0.0
  0
LINE
  5
E1
330
1F
100
AcDbEntity
  8
SK3
  6
SLD-Dashed
370
    18
100
AcDbLine
 10
9.4556355865
 20
42.8753708391
 30
0.0
 11
9.588974011
 21
42.6952830293
 31
0.0
  0
LINE
  5
E2
330
1F
100
AcDbEntity
  8
SK3
  6
SLD-Dashed
370
    18
100
AcDbLine
 10
9.588974011
 20
42.6952830293
 30
0.0
 11
9.8860555474
 21
42.539760607
 31
0.0
  0
LINE
  5
E3
330
1F
100
AcDbEntity
  8
SK3
  6
SLD-Dashed
370
    18
100
AcDbLine
 10
9.8860555474
 20
42.539760607
 30
0.0
 11
10.3146868015
 21
42.4256568399
 31
0.0
  0
LINE
  5
E4
330
1F
100
AcDbEntity
  8
SK3
  6
SLD-Dashed
370
    18
100
AcDbLine
 10
10.3146868015
 20
42.4256568399
 30
0.0
 11
10.828418926
 21
42.3653366417
 31
0.0
  0
LINE
  5
E5
330
1F
100
AcDbEntity
  8
SK3
  6
SLD-Dashed
370
    18
100
AcDbLine
 10
10.828418926
 20
42.3653366417
 30
0.0
 11
11.371581074
 21
42.3653366417
 31
0.0
  0
LINE
  5
E6
330
1F
100
AcDbEntity
  8
SK3
  6
SLD-Dashed
370
    18
100
AcDbLine
 10
11.371581074
 20
42.3653366417
 30
0.0
 11
11.8853131985
 21
42.4256568399
 31
0.0
  0
LINE
  5
E7
330
1F
100
AcDbEntity
  8
SK3
  6
SLD-Dashed
370
    18
100
AcDbLine
 10
11.8853131985
 20
42.4256568399
 30
0.0
 11
12.3139444526
 21
42.539760607
 31
0.0
  0
LINE
  5
E8
330
1F
100
AcDbEntity
  8
SK3
  6
SLD-Dashed
370
    18
100
AcDbLine
 10
12.3139444526
 20
42.539760607
 30
0.0
 11
12.611025989
 21
42.6952830293
 31
0.0
  0
LINE
  5
E9
330
1F
100
AcDbEntity
  8
SK3
  6
SLD-Dashed
370
    18
100
AcDbLine
 10
12.611025989
 20
42.6952830293
 30
0.0
 11
12.7443644135
 21
42.8753708391
 31
0.0
  0
LINE
  5
EA
330
1F
100
AcDbEntity
  8
SK3
  6
SLD-Dashed
370
    18
100
AcDbLine
 10
12.7443644135
 20
42.8753708391
 30
0.0
 11
12.6995104388
 21
43.0605087278
 31
0.0
  0
LINE
  5
EB
330
1F
100
AcDbEntity
  8
SK3
  6
SLD-Dashed
370
    18
100
AcDbLine
 10
12.6995104388
 20
43.0605087278
 30
0.0
 11
12.4813246891
 21
43.2306341326
 31
0.0
  0
LINE
  5
EC
330
1F
100
AcDbEntity
  8
SK3
  6
SLD-Dashed
370
    18
100
AcDbLine
 10
12.4813246891
 20
43.2306341326
 30
0.0
 11
12.1134509759
 21
43.3673113261
 31
0.0
  0
LINE
  5
ED
330
1F
100
AcDbEntity
  8
SK3
  6
SLD-Dashed
370
    18
100
AcDbLine
 10
12.1134509759
 20
43.3673113261
 30
0.0
 11
11.6357541242
 21
43.4557292135
 31
0.0
  0
LINE
  5
EE
330
1F
100
AcDbEntity
  8
SK3
  6
SLD-Dashed
370
    18
100
AcDbLine
 10
11.6357541242
 20
43.4557292135
 30
0.0
 11
11.1
 21
43.4863063449
 31
0.0
  0
LINE
  5
EF
330
1F
100
AcDbEntity
  8
SK3
  6
SLD-Dashed
370
    18
100
AcDbLine
 10
9.6039384425
 20
37.6510244886
 30
0.0
 11
9.4883859037
 21
37.7155051163
 31
0.0
  0
LINE
  5
F0
330
1F
100
AcDbEntity
  8
SK3
  6
SLD-Dashed
370
    18
100
AcDbLine
 10
9.4883859037
 20
37.7155051163
 30
0.0
 11
9.4510251871
 21
37.6716120846
 31
0.0
  0
LINE
  5
F1
330
1F
100
AcDbEntity
  8
SK3
  6
SLD-Dashed
370
    18
100
AcDbLine
 10
9.4510251871
 20
37.6716120846
 30
0.0
 11
9.4683049732
 21
37.5413753617
 31
0.0
  0
LINE
  5
F2
330
1F
100
AcDbEntity
  8
SK3
  6
SLD-Dashed
370
    18
100
AcDbLine
 10
9.4683049732
 20
37.5413753617
 30
0.0
 11
9.5321185428
 21
37.3521608151
 31
0.0
  0
LINE
  5
F3
330
1F
100
AcDbEntity
  8
SK3
  6
SLD-Dashed
370
    18
100
AcDbLine
 10
9.5321185428
 20
37.3521608151
 30
0.0
 11
9.7109914129
 21
36.9572232263
 31
0.0
  0
LINE
  5
F4
330
1F
100
AcDbEntity
  8
SK3
  6
SLD-Dashed
370
    18
100
AcDbLine
 10
9.7109914129
 20
36.9572232263
 30
0.0
 11
10.1362287949
 21
36.2162854985
 31
0.0
  0
LINE
  5
F5
330
1F
100
AcDbEntity
  8
SK3
  6
SLD-Dashed
370
    18
100
AcDbLine
 10
10.1362287949
 20
36.2162854985
 30
0.0
 11
10.882255187
 21
35.2960293739
 31
0.0
  0
LINE
  5
F6
330
1F
100
AcDbEntity
  8
SK3
  6
SLD-Dashed
370
    18
100
AcDbLine
 10
10.882255187
 20
35.2960293739
 30
0.0
 11
11.3166645362
 21
34.9768973214
 31
0.0
  0
LINE
  5
F7
330
1F
100
AcDbEntity
  8
SK3
  6
SLD-Dashed
370
    18
100
AcDbLine
 10
11.3166645362
 20
34.9768973214
 30
0.0
 11
11.8034084809
 21
34.810282363
 31
0.0
  0
LINE
  5
F8
330
1F
100
AcDbEntity
  8
SK3
  6
SLD-Dashed
370
    18
100
AcDbLine
 10
11.8034084809
 20
34.810282363
 30
0.0
 11
12.1971344444
 21
34.8184039859
 31
0.0
  0
LINE
  5
F9
330
1F
100
AcDbEntity
  8
SK3
  6
SLD-Dashed
370
    18
100
AcDbLine
 10
12.1971344444
 20
34.8184039859
 30
0.0
 11
12.5018110505
 21
34.9245493855
 31
0.0
  0
LINE
  5
FA
330
1F
100
AcDbEntity
  8
SK3
  6
SLD-Dashed
370
    18
100
AcDbLine
 10
12.5018110505
 20
34.9245493855
 30
0.0
 11
12.7051006403
 21
35.0969646428
 31
0.0
  0
LINE
  5
FB
330
1F
100
AcDbEntity
  8
SK3
  6
SLD-Dashed
370
    18
100
AcDbLine
 10
12.7051006403
 20
35.0969646428
 30
0.0
 11
12.7412641999
 21
35.2879442037
 31
0.0
  0
LINE
  5
FC
330
1F
100
AcDbEntity
  8
SK3
  6
SLD-Dashed
370
    18
100
AcDbLine
 10
12.7412641999
 20
35.2879442037
 30
0.0
 11
12.5931133743
 21
35.4633189362
 31
0.0
  0
LINE
  5
FD
330
1F
100
AcDbEntity
  8
SK3
  6
SLD-Dashed
370
    18
100
AcDbLine
 10
12.5931133743
 20
35.4633189362
 30
0.0
 11
12.2764819223
 21
35.6276304465
 31
0.0
  0
LINE
  5
FE
330
1F
100
AcDbEntity
  8
SK3
  6
SLD-Dashed
370
    18
100
AcDbLine
 10
12.2764819223
 20
35.6276304465
 30
0.0
 11
11.8432412473
 21
35.8129767597
 31
0.0
  0
LINE
  5
FF
330
1F
100
AcDbEntity
  8
SK3
  6
SLD-Dashed
370
    18
100
AcDbLine
 10
11.8432412473
 20
35.8129767597
 30
0.0
 11
11.4174985696
 21
36.0336380552
 31
0.0
  0
LINE
  5
100
330
1F
100
AcDbEntity
  8
SK3
  6
SLD-Dashed
370
    18
100
AcDbLine
 10
11.4174985696
 20
36.0336380552
 30
0.0
 11
11.1
 21
36.2443456783
 31
0.0
  0
LINE
  5
101
330
1F
100
AcDbEntity
  8
SK3
  6
SLD-Dashed
370
    18
100
AcDbLine
 10
3.1949403416
 20
36.0985003391
 30
0.0
 11
3.3615900545
 21
36.0860566456
 31
0.0
  0
LINE
  5
102
330
1F
100
AcDbEntity
  8
SK3
  6
SLD-Dashed
370
    18
100
AcDbLine
 10
3.3615900545
 20
36.0860566456
 30
0.0
 11
3.6217415901
 21
36.2172875115
 31
0.0
  0
LINE
  5
103
330
1F
100
AcDbEntity
  8
SK3
  6
SLD-Dashed
370
    18
100
AcDbLine
 10
3.6217415901
 20
36.2172875115
 30
0.0
 11
3.9576660511
 21
36.4832497703
 31
0.0
  0
LINE
  5
104
330
1F
100
AcDbEntity
  8
SK3
  6
SLD-Dashed
370
    18
100
AcDbLine
 10
3.9576660511
 20
36.4832497703
 30
0.0
 11
4.3464707407
 21
36.8658185335
 31
0.0
  0
LINE
  5
105
330
1F
100
AcDbEntity
  8
SK3
  6
SLD-Dashed
370
    18
100
AcDbLine
 10
4.3464707407
 20
36.8658185335
 30
0.0
 11
4.7616592619
 21
37.3389223722
 31
0.0
  0
LINE
  5
106
330
1F
100
AcDbEntity
  8
SK3
  6
SLD-Dashed
370
    18
100
AcDbLine
 10
4.7616592619
 20
37.3389223722
 30
0.0
 11
5.1749372029
 21
37.8703200416
 31
0.0
  0
LINE
  5
107
330
1F
100
AcDbEntity
  8
SK3
  6
SLD-Dashed
370
    18
100
AcDbLine
 10
5.1749372029
 20
37.8703200416
 30
0.0
 11
5.5581403551
 21
38.4237976687
 31
0.0
  0
LINE
  5
108
330
1F
100
AcDbEntity
  8
SK3
  6
SLD-Dashed
370
    18
100
AcDbLine
 10
5.5581403551
 20
38.4237976687
 30
0.0
 11
5.8851540571
 21
38.9616366678
 31
0.0
  0
LINE
  5
109
330
1F
100
AcDbEntity
  8
SK3
  6
SLD-Dashed
370
    18
100
AcDbLine
 10
5.8851540571
 20
38.9616366678
 30
0.0
 11
6.1336928653
 21
39.4471842001
 31
0.0
  0
LINE
  5
10A
330
1F
100
AcDbEntity
  8
SK3
  6
SLD-Dashed
370
    18
100
AcDbLine
 10
6.1336928653
 20
39.4471842001
 30
0.0
 11
6.2868192707
 21
39.8473510035
 31
0.0
  0
LINE
  5
10B
330
1F
100
AcDbEntity
  8
SK3
  6
SLD-Dashed
370
    18
100
AcDbLine
 10
6.2868192707
 20
39.8473510035
 30
0.0
 11
6.3340979619
 21
40.1348663718
 31
0.0
  0
LINE
  5
10C
330
1F
100
AcDbEntity
  8
SK3
  6
SLD-Dashed
370
    18
100
AcDbLine
 10
6.3340979619
 20
40.1348663718
 30
0.0
 11
6.2723069743
 21
40.2901366077
 31
0.0
  0
LINE
  5
10D
330
1F
100
AcDbEntity
  8
SK3
  6
SLD-Dashed
370
    18
100
AcDbLine
 10
6.2723069743
 20
40.2901366077
 30
0.0
 11
6.1056572614
 21
40.3025803013
 31
0.0
  0
LINE
  5
10E
330
1F
100
AcDbEntity
  8
SK3
  6
SLD-Dashed
370
    18
100
AcDbLine
 10
6.1056572614
 20
40.3025803013
 30
0.0
 11
5.8455057258
 21
40.1713494354
 31
0.0
  0
LINE
  5
10F
330
1F
100
AcDbEntity
  8
SK3
  6
SLD-Dashed
370
    18
100
AcDbLine
 10
5.8455057258
 20
40.1713494354
 30
0.0
 11
5.5095812647
 21
39.9053871766
 31
0.0
  0
LINE
  5
110
330
1F
100
AcDbEntity
  8
SK3
  6
SLD-Dashed
370
    18
100
AcDbLine
 10
5.5095812647
 20
39.9053871766
 30
0.0
 11
5.1207765751
 21
39.5228184133
 31
0.0
  0
LINE
  5
111
330
1F
100
AcDbEntity
  8
SK3
  6
SLD-Dashed
370
    18
100
AcDbLine
 10
5.1207765751
 20
39.5228184133
 30
0.0
 11
4.705588054
 21
39.0497145746
 31
0.0
  0
LINE
  5
112
330
1F
100
AcDbEntity
  8
SK3
  6
SLD-Dashed
370
    18
100
AcDbLine
 10
4.705588054
 20
39.0497145746
 30
0.0
 11
4.292310113
 21
38.5183169052
 31
0.0
  0
LINE
  5
113
330
1F
100
AcDbEntity
  8
SK3
  6
SLD-Dashed
370
    18
100
AcDbLine
 10
4.292310113
 20
38.5183169052
 30
0.0
 11
3.9091069607
 21
37.9648392782
 31
0.0
  0
LINE
  5
114
330
1F
100
AcDbEntity
  8
SK3
  6
SLD-Dashed
370
    18
100
AcDbLine
 10
3.9091069607
 20
37.9648392782
 30
0.0
 11
3.5820932588
 21
37.427000279
 31
0.0
  0
LINE
  5
115
330
1F
100
AcDbEntity
  8
SK3
  6
SLD-Dashed
370
    18
100
AcDbLine
 10
3.5820932588
 20
37.427000279
 30
0.0
 11
3.3335544506
 21
36.9414527468
 31
0.0
  0
LINE
  5
116
330
1F
100
AcDbEntity
  8
SK3
  6
SLD-Dashed
370
    18
100
AcDbLine
 10
3.3335544506
 20
36.9414527468
 30
0.0
 11
3.1804280451
 21
36.5412859433
 31
0.0
  0
LINE
  5
117
330
1F
100
AcDbEntity
  8
SK3
  6
SLD-Dashed
370
    18
100
AcDbLine
 10
3.1804280451
 20
36.5412859433
 30
0.0
 11
3.1331493539
 21
36.253770575
 31
0.0
  0
LINE
  5
118
330
1F
100
AcDbEntity
  8
SK3
  6
SLD-Dashed
370
    18
100
AcDbLine
 10
3.1331493539
 20
36.253770575
 30
0.0
 11
3.1949403416
 21
36.0985003391
 31
0.0
  0
LINE
  5
119
330
1F
100
AcDbEntity
  8
SK3
  6
SLD-Dashed
370
    18
100
AcDbLine
 10
104.0
 20
-16.0
 30
0.0
 11
104.0
 21
16.0
 31
0.0
  0
LINE
  5
11A
330
1F
100
AcDbEntity
  8
SK3
  6
SLD-Dashed
370
    18
100
AcDbLine
 10
3.2837105329
 20
36.2194129238
 30
0.0
 11
3.4496730814
 21
36.2102771479
 31
0.0
  0
LINE
  5
11B
330
1F
100
AcDbEntity
  8
SK3
  6
SLD-Dashed
370
    18
100
AcDbLine
 10
3.4496730814
 20
36.2102771479
 30
0.0
 11
3.7108603704
 21
36.3482886407
 31
0.0
  0
LINE
  5
11C
330
1F
100
AcDbEntity
  8
SK3
  6
SLD-Dashed
370
    18
100
AcDbLine
 10
3.7108603704
 20
36.3482886407
 30
0.0
 11
4.0479013336
 21
36.6232117212
 31
0.0
  0
LINE
  5
11D
330
1F
100
AcDbEntity
  8
SK3
  6
SLD-Dashed
370
    18
100
AcDbLine
 10
4.0479013336
 20
36.6232117212
 30
0.0
 11
4.4357991846
 21
37.0146566022
 31
0.0
  0
LINE
  5
11E
330
1F
100
AcDbEntity
  8
SK3
  6
SLD-Dashed
370
    18
100
AcDbLine
 10
4.4357991846
 20
37.0146566022
 30
0.0
 11
4.8457853144
 21
37.4935916076
 31
0.0
  0
LINE
  5
11F
330
1F
100
AcDbEntity
  8
SK3
  6
SLD-Dashed
370
    18
100
AcDbLine
 10
4.8457853144
 20
37.4935916076
 30
0.0
 11
5.2474529272
 21
38.024496319
 31
0.0
  0
LINE
  5
120
330
1F
100
AcDbEntity
  8
SK3
  6
SLD-Dashed
370
    18
100
AcDbLine
 10
5.2474529272
 20
38.024496319
 30
0.0
 11
5.6110121737
 21
38.5679959627
 31
0.0
  0
LINE
  5
121
330
1F
100
AcDbEntity
  8
SK3
  6
SLD-Dashed
370
    18
100
AcDbLine
 10
5.6110121737
 20
38.5679959627
 30
0.0
 11
5.9094995278
 21
39.0837816565
 31
0.0
  0
LINE
  5
122
330
1F
100
AcDbEntity
  8
SK3
  6
SLD-Dashed
370
    18
100
AcDbLine
 10
5.9094995278
 20
39.0837816565
 30
0.0
 11
6.1207775479
 21
39.533599935
 31
0.0
  0
LINE
  5
123
330
1F
100
AcDbEntity
  8
SK3
  6
SLD-Dashed
370
    18
100
AcDbLine
 10
6.1207775479
 20
39.533599935
 30
0.0
 11
6.2291767098
 21
39.8840898343
 31
0.0
  0
LINE
  5
124
330
1F
100
AcDbEntity
  8
SK3
  6
SLD-Dashed
370
    18
100
AcDbLine
 10
6.2291767098
 20
39.8840898343
 30
0.0
 11
6.2266575435
 21
40.109257122
 31
0.0
  0
LINE
  5
125
330
1F
100
AcDbEntity
  8
SK3
  6
SLD-Dashed
370
    18
100
AcDbLine
 10
6.2266575435
 20
40.109257122
 30
0.0
 11
6.1134068841
 21
40.1924021704
 31
0.0
  0
LINE
  5
126
330
1F
100
AcDbEntity
  8
SK3
  6
SLD-Dashed
370
    18
100
AcDbLine
 10
6.1134068841
 20
40.1924021704
 30
0.0
 11
5.8978240149
 21
40.1273584916
 31
0.0
  0
LINE
  5
127
330
1F
100
AcDbEntity
  8
SK3
  6
SLD-Dashed
370
    18
100
AcDbLine
 10
5.8978240149
 20
40.1273584916
 30
0.0
 11
5.5958977311
 21
39.9189500777
 31
0.0
  0
LINE
  5
128
330
1F
100
AcDbEntity
  8
SK3
  6
SLD-Dashed
370
    18
100
AcDbLine
 10
5.5958977311
 20
39.9189500777
 30
0.0
 11
5.230020524
 21
39.5826336274
 31
0.0
  0
LINE
  5
129
330
1F
100
AcDbEntity
  8
SK3
  6
SLD-Dashed
370
    18
100
AcDbLine
 10
5.230020524
 20
39.5826336274
 30
0.0
 11
4.8273278321
 21
39.1433521933
 31
0.0
  0
LINE
  5
12A
330
1F
100
AcDbEntity
  8
SK3
  6
SLD-Dashed
370
    18
100
AcDbLine
 10
4.8273278321
 20
39.1433521933
 30
0.0
 11
4.4176855303
 21
38.6336852696
 31
0.0
  0
LINE
  5
12B
330
1F
100
AcDbEntity
  8
SK3
  6
SLD-Dashed
370
    18
100
AcDbLine
 10
4.4176855303
 20
38.6336852696
 30
0.0
 11
4.0314749141
 21
38.0914325207
 31
0.0
  0
LINE
  5
12C
330
1F
100
AcDbEntity
  8
SK3
  6
SLD-Dashed
370
    18
100
AcDbLine
 10
4.0314749141
 20
38.0914325207
 30
0.0
 11
3.6973394581
 21
37.5568103522
 31
0.0
  0
LINE
  5
12D
330
1F
100
AcDbEntity
  8
SK3
  6
SLD-Dashed
370
    18
100
AcDbLine
 10
3.6973394581
 20
37.5568103522
 30
0.0
 11
3.4400604606
 21
37.0694692447
 31
0.0
  0
LINE
  5
12E
330
1F
100
AcDbEntity
  8
SK3
  6
SLD-Dashed
370
    18
100
AcDbLine
 10
3.4400604606
 20
37.0694692447
 30
0.0
 11
3.2787191277
 21
36.6655530586
 31
0.0
  0
LINE
  5
12F
330
1F
100
AcDbEntity
  8
SK3
  6
SLD-Dashed
370
    18
100
AcDbLine
 10
3.2787191277
 20
36.6655530586
 30
0.0
 11
3.2252814081
 21
36.3750184097
 31
0.0
  0
LINE
  5
130
330
1F
100
AcDbEntity
  8
SK3
  6
SLD-Dashed
370
    18
100
AcDbLine
 10
3.2252814081
 20
36.3750184097
 30
0.0
 11
3.2837105329
 21
36.2194129238
 31
0.0
  0
LINE
  5
131
330
1F
100
AcDbEntity
  8
SK3
  6
SLD-Dashed
370
    18
100
AcDbLine
 10
14.0794578574
 20
28.2935170536
 30
0.0
 11
14.2454204058
 21
28.2843812778
 31
0.0
  0
LINE
  5
132
330
1F
100
AcDbEntity
  8
SK3
  6
SLD-Dashed
370
    18
100
AcDbLine
 10
14.2454204058
 20
28.2843812778
 30
0.0
 11
14.5066076948
 21
28.4223927706
 31
0.0
  0
LINE
  5
133
330
1F
100
AcDbEntity
  8
SK3
  6
SLD-Dashed
370
    18
100
AcDbLine
 10
14.5066076948
 20
28.4223927706
 30
0.0
 11
14.843648658
 21
28.6973158511
 31
0.0
  0
LINE
  5
134
330
1F
100
AcDbEntity
  8
SK3
  6
SLD-Dashed
370
    18
100
AcDbLine
 10
14.843648658
 20
28.6973158511
 30
0.0
 11
15.231546509
 21
29.0887607321
 31
0.0
  0
LINE
  5
135
330
1F
100
AcDbEntity
  8
SK3
  6
SLD-Dashed
370
    18
100
AcDbLine
 10
15.231546509
 20
29.0887607321
 30
0.0
 11
15.6415326388
 21
29.5676957374
 31
0.0
  0
LINE
  5
136
330
1F
100
AcDbEntity
  8
SK3
  6
SLD-Dashed
370
    18
100
AcDbLine
 10
15.6415326388
 20
29.5676957374
 30
0.0
 11
16.0432002516
 21
30.0986004488
 31
0.0
  0
LINE
  5
137
330
1F
100
AcDbEntity
  8
SK3
  6
SLD-Dashed
370
    18
100
AcDbLine
 10
16.0432002516
 20
30.0986004488
 30
0.0
 11
16.4067594981
 21
30.6421000925
 31
0.0
  0
LINE
  5
138
330
1F
100
AcDbEntity
  8
SK3
  6
SLD-Dashed
370
    18
100
AcDbLine
 10
16.4067594981
 20
30.6421000925
 30
0.0
 11
16.7052468522
 21
31.1578857863
 31
0.0
  0
LINE
  5
139
330
1F
100
AcDbEntity
  8
SK3
  6
SLD-Dashed
370
    18
100
AcDbLine
 10
16.7052468522
 20
31.1578857863
 30
0.0
 11
16.9165248723
 21
31.6077040649
 31
0.0
  0
LINE
  5
13A
330
1F
100
AcDbEntity
  8
SK3
  6
SLD-Dashed
370
    18
100
AcDbLine
 10
16.9165248723
 20
31.6077040649
 30
0.0
 11
17.0249240342
 21
31.9581939642
 31
0.0
  0
LINE
  5
13B
330
1F
100
AcDbEntity
  8
SK3
  6
SLD-Dashed
370
    18
100
AcDbLine
 10
17.0249240342
 20
31.9581939642
 30
0.0
 11
17.0224048679
 21
32.1833612519
 31
0.0
  0
LINE
  5
13C
330
1F
100
AcDbEntity
  8
SK3
  6
SLD-Dashed
370
    18
100
AcDbLine
 10
17.0224048679
 20
32.1833612519
 30
0.0
 11
16.9091542086
 21
32.2665063002
 31
0.0
  0
LINE
  5
13D
330
1F
100
AcDbEntity
  8
SK3
  6
SLD-Dashed
370
    18
100
AcDbLine
 10
16.9091542086
 20
32.2665063002
 30
0.0
 11
16.6935713394
 21
32.2014626214
 31
0.0
  0
LINE
  5
13E
330
1F
100
AcDbEntity
  8
SK3
  6
SLD-Dashed
370
    18
100
AcDbLine
 10
16.6935713394
 20
32.2014626214
 30
0.0
 11
16.3916450556
 21
31.9930542076
 31
0.0
  0
LINE
  5
13F
330
1F
100
AcDbEntity
  8
SK3
  6
SLD-Dashed
370
    18
100
AcDbLine
 10
16.3916450556
 20
31.9930542076
 30
0.0
 11
16.0257678484
 21
31.6567377573
 31
0.0
  0
LINE
  5
140
330
1F
100
AcDbEntity
  8
SK3
  6
SLD-Dashed
370
    18
100
AcDbLine
 10
16.0257678484
 20
31.6567377573
 30
0.0
 11
15.6230751565
 21
31.2174563231
 31
0.0
  0
LINE
  5
141
330
1F
100
AcDbEntity
  8
SK3
  6
SLD-Dashed
370
    18
100
AcDbLine
 10
15.6230751565
 20
31.2174563231
 30
0.0
 11
15.2134328547
 21
30.7077893995
 31
0.0
  0
LINE
  5
142
330
1F
100
AcDbEntity
  8
SK3
  6
SLD-Dashed
370
    18
100
AcDbLine
 10
15.2134328547
 20
30.7077893995
 30
0.0
 11
14.8272222385
 21
30.1655366506
 31
0.0
  0
LINE
  5
143
330
1F
100
AcDbEntity
  8
SK3
  6
SLD-Dashed
370
    18
100
AcDbLine
 10
14.8272222385
 20
30.1655366506
 30
0.0
 11
14.4930867825
 21
29.6309144821
 31
0.0
  0
LINE
  5
144
330
1F
100
AcDbEntity
  8
SK3
  6
SLD-Dashed
370
    18
100
AcDbLine
 10
14.4930867825
 20
29.6309144821
 30
0.0
 11
14.235807785
 21
29.1435733746
 31
0.0
  0
LINE
  5
145
330
1F
100
AcDbEntity
  8
SK3
  6
SLD-Dashed
370
    18
100
AcDbLine
 10
14.235807785
 20
29.1435733746
 30
0.0
 11
14.0744664521
 21
28.7396571885
 31
0.0
  0
LINE
  5
146
330
1F
100
AcDbEntity
  8
SK3
  6
SLD-Dashed
370
    18
100
AcDbLine
 10
14.0744664521
 20
28.7396571885
 30
0.0
 11
14.0210287325
 21
28.4491225396
 31
0.0
  0
LINE
  5
147
330
1F
100
AcDbEntity
  8
SK3
  6
SLD-Dashed
370
    18
100
AcDbLine
 10
14.0210287325
 20
28.4491225396
 30
0.0
 11
14.0794578574
 21
28.2935170536
 31
0.0
  0
LINE
  5
148
330
1F
100
AcDbEntity
  8
SK3
  6
SLD-Dashed
370
    18
100
AcDbLine
 10
46.75
 20
-14.9038585608
 30
0.0
 11
46.75
 21
16.2284206165
 31
0.0
  0
LINE
  5
149
330
1F
100
AcDbEntity
  8
SK3
  6
SLD-Dashed
370
    18
100
AcDbLine
 10
42.25
 20
16.25
 30
0.0
 11
42.25
 21
-16.2284539606
 31
0.0
  0
LINE
  5
14A
330
1F
100
AcDbEntity
  8
SK3
  6
SLD-Dashed
370
    18
100
AcDbLine
 10
42.0
 20
16.0
 30
0.0
 11
42.0
 21
-15.9999999604
 31
0.0
  0
LINE
  5
14B
330
1F
100
AcDbEntity
  8
SK3
  6
SLD-Dashed
370
    18
100
AcDbLine
 10
47.0
 20
16.0
 30
0.0
 11
47.0
 21
-14.5258390463
 31
0.0
  0
LINE
  5
14C
330
1F
100
AcDbEntity
  8
SK3
  6
SLD-Dashed
370
    18
100
AcDbLine
 10
-100.05
 20
12.5075
 30
0.0
 11
-100.05
 21
-12.5075
 31
0.0
  0
LINE
  5
14D
330
1F
100
AcDbEntity
  8
SK3
  6
SLD-Dashed
370
    18
100
AcDbLine
 10
-88.55
 20
12.75
 30
0.0
 11
-88.55
 21
-12.75
 31
0.0
  0
LINE
  5
14E
330
1F
100
AcDbEntity
  8
SK3
  6
SLD-Dashed
370
    18
100
AcDbLine
 10
-91.55
 20
12.75
 30
0.0
 11
-91.55
 21
-12.75
 31
0.0
  0
LINE
  5
14F
330
1F
100
AcDbEntity
  8
SK3
  6
SLD-Dashed
370
    18
100
AcDbLine
 10
-91.9700223208
 20
12.5075
 30
0.0
 11
-91.9700223208
 21
-12.5075
 31
0.0
  0
LINE
  5
150
330
1F
100
AcDbEntity
  8
SK3
  6
SLD-Dashed
370
    18
100
AcDbLine
 10
-87.2509618943
 20
10.5
 30
0.0
 11
-87.2509618943
 21
-10.5
 31
0.0
  0
LINE
  5
151
330
1F
100
AcDbEntity
  8
SK3
  6
SLD-Dashed
370
    18
100
AcDbLine
 10
92.1
 20
-33.8
 30
0.0
 11
69.9
 21
-33.8
 31
0.0
  0
LINE
  5
152
330
1F
100
AcDbEntity
  8
SK3
  6
SLD-Dashed
370
    18
100
AcDbLine
 10
64.1
 20
-33.8
 30
0.0
 11
41.9
 21
-33.8
 31
0.0
  0
LINE
  5
153
330
1F
100
AcDbEntity
  8
SK3
  6
SLD-Dashed
370
    18
100
AcDbLine
 10
16.9792841073
 20
-32.2433281529
 30
0.0
 11
16.8133215589
 21
-32.2524639288
 31
0.0
  0
LINE
  5
154
330
1F
100
AcDbEntity
  8
SK3
  6
SLD-Dashed
370
    18
100
AcDbLine
 10
16.8133215589
 20
-32.2524639288
 30
0.0
 11
16.5521342699
 21
-32.114452436
 31
0.0
  0
LINE
  5
155
330
1F
100
AcDbEntity
  8
SK3
  6
SLD-Dashed
370
    18
100
AcDbLine
 10
16.5521342699
 20
-32.114452436
 30
0.0
 11
16.2150933067
 21
-31.8395293555
 31
0.0
  0
LINE
  5
156
330
1F
100
AcDbEntity
  8
SK3
  6
SLD-Dashed
370
    18
100
AcDbLine
 10
16.2150933067
 20
-31.8395293555
 30
0.0
 11
15.8271954557
 21
-31.4480844745
 31
0.0
  0
LINE
  5
157
330
1F
100
AcDbEntity
  8
SK3
  6
SLD-Dashed
370
    18
100
AcDbLine
 10
15.8271954557
 20
-31.4480844745
 30
0.0
 11
15.4172093259
 21
-30.9691494691
 31
0.0
  0
LINE
  5
158
330
1F
100
AcDbEntity
  8
SK3
  6
SLD-Dashed
370
    18
100
AcDbLine
 10
15.4172093259
 20
-30.9691494691
 30
0.0
 11
15.0155417131
 21
-30.4382447577
 31
0.0
  0
LINE
  5
159
330
1F
100
AcDbEntity
  8
SK3
  6
SLD-Dashed
370
    18
100
AcDbLine
 10
15.0155417131
 20
-30.4382447577
 30
0.0
 11
14.6519824665
 21
-29.894745114
 31
0.0
  0
LINE
  5
15A
330
1F
100
AcDbEntity
  8
SK3
  6
SLD-Dashed
370
    18
100
AcDbLine
 10
14.6519824665
 20
-29.894745114
 30
0.0
 11
14.3534951125
 21
-29.3789594202
 31
0.0
  0
LINE
  5
15B
330
1F
100
AcDbEntity
  8
SK3
  6
SLD-Dashed
370
    18
100
AcDbLine
 10
14.3534951125
 20
-29.3789594202
 30
0.0
 11
14.1422170924
 21
-28.9291411417
 31
0.0
  0
LINE
  5
15C
330
1F
100
AcDbEntity
  8
SK3
  6
SLD-Dashed
370
    18
100
AcDbLine
 10
14.1422170924
 20
-28.9291411417
 30
0.0
 11
14.0338179305
 21
-28.5786512424
 31
0.0
  0
LINE
  5
15D
330
1F
100
AcDbEntity
  8
SK3
  6
SLD-Dashed
370
    18
100
AcDbLine
 10
14.0338179305
 20
-28.5786512424
 30
0.0
 11
14.0363370967
 21
-28.3534839547
 31
0.0
  0
LINE
  5
15E
330
1F
100
AcDbEntity
  8
SK3
  6
SLD-Dashed
370
    18
100
AcDbLine
 10
14.0363370967
 20
-28.3534839547
 30
0.0
 11
14.1495877561
 21
-28.2703389063
 31
0.0
  0
LINE
  5
15F
330
1F
100
AcDbEntity
  8
SK3
  6
SLD-Dashed
370
    18
100
AcDbLine
 10
14.1495877561
 20
-28.2703389063
 30
0.0
 11
14.3651706253
 21
-28.3353825851
 31
0.0
  0
LINE
  5
160
330
1F
100
AcDbEntity
  8
SK3
  6
SLD-Dashed
370
    18
100
AcDbLine
 10
14.3651706253
 20
-28.3353825851
 30
0.0
 11
14.6670969091
 21
-28.543790999
 31
0.0
  0
LINE
  5
161
330
1F
100
AcDbEntity
  8
SK3
  6
SLD-Dashed
370
    18
100
AcDbLine
 10
14.6670969091
 20
-28.543790999
 30
0.0
 11
15.0329741163
 21
-28.8801074493
 31
0.0
  0
LINE
  5
162
330
1F
100
AcDbEntity
  8
SK3
  6
SLD-Dashed
370
    18
100
AcDbLine
 10
15.0329741163
 20
-28.8801074493
 30
0.0
 11
15.4356668082
 21
-29.3193888835
 31
0.0
  0
LINE
  5
163
330
1F
100
AcDbEntity
  8
SK3
  6
SLD-Dashed
370
    18
100
AcDbLine
 10
15.4356668082
 20
-29.3193888835
 30
0.0
 11
15.84530911
 21
-29.8290558071
 31
0.0
  0
LINE
  5
164
330
1F
100
AcDbEntity
  8
SK3
  6
SLD-Dashed
370
    18
100
AcDbLine
 10
15.84530911
 20
-29.8290558071
 30
0.0
 11
16.2315197262
 21
-30.371308556
 31
0.0
  0
LINE
  5
165
330
1F
100
AcDbEntity
  8
SK3
  6
SLD-Dashed
370
    18
100
AcDbLine
 10
16.2315197262
 20
-30.371308556
 30
0.0
 11
16.5656551822
 21
-30.9059307245
 31
0.0
  0
LINE
  5
166
330
1F
100
AcDbEntity
  8
SK3
  6
SLD-Dashed
370
    18
100
AcDbLine
 10
16.5656551822
 20
-30.9059307245
 30
0.0
 11
16.8229341797
 21
-31.393271832
 31
0.0
  0
LINE
  5
167
330
1F
100
AcDbEntity
  8
SK3
  6
SLD-Dashed
370
    18
100
AcDbLine
 10
16.8229341797
 20
-31.393271832
 30
0.0
 11
16.9842755126
 21
-31.7971880181
 31
0.0
  0
LINE
  5
168
330
1F
100
AcDbEntity
  8
SK3
  6
SLD-Dashed
370
    18
100
AcDbLine
 10
16.9842755126
 20
-31.7971880181
 30
0.0
 11
17.0377132322
 21
-32.087722667
 31
0.0
  0
LINE
  5
169
330
1F
100
AcDbEntity
  8
SK3
  6
SLD-Dashed
370
    18
100
AcDbLine
 10
17.0377132322
 20
-32.087722667
 30
0.0
 11
16.9792841073
 21
-32.2433281529
 31
0.0
  0
LINE
  5
16A
330
1F
100
AcDbEntity
  8
SK3
  6
SLD-Dashed
370
    18
100
AcDbLine
 10
6.1835367829
 20
-40.1692240231
 30
0.0
 11
6.0175742345
 21
-40.178359799
 31
0.0
  0
LINE
  5
16B
330
1F
100
AcDbEntity
  8
SK3
  6
SLD-Dashed
370
    18
100
AcDbLine
 10
6.0175742345
 20
-40.178359799
 30
0.0
 11
5.7563869455
 21
-40.0403483061
 31
0.0
  0
LINE
  5
16C
330
1F
100
AcDbEntity
  8
SK3
  6
SLD-Dashed
370
    18
100
AcDbLine
 10
5.7563869455
 20
-40.0403483061
 30
0.0
 11
5.4193459823
 21
-39.7654252256
 31
0.0
  0
LINE
  5
16D
330
1F
100
AcDbEntity
  8
SK3
  6
SLD-Dashed
370
    18
100
AcDbLine
 10
5.4193459823
 20
-39.7654252256
 30
0.0
 11
5.0314481312
 21
-39.3739803447
 31
0.0
  0
LINE
  5
16E
330
1F
100
AcDbEntity
  8
SK3
  6
SLD-Dashed
370
    18
100
AcDbLine
 10
5.0314481312
 20
-39.3739803447
 30
0.0
 11
4.6214620015
 21
-38.8950453393
 31
0.0
  0
LINE
  5
16F
330
1F
100
AcDbEntity
  8
SK3
  6
SLD-Dashed
370
    18
100
AcDbLine
 10
4.6214620015
 20
-38.8950453393
 30
0.0
 11
4.2197943887
 21
-38.3641406279
 31
0.0
  0
LINE
  5
170
330
1F
100
AcDbEntity
  8
SK3
  6
SLD-Dashed
370
    18
100
AcDbLine
 10
4.2197943887
 20
-38.3641406279
 30
0.0
 11
3.8562351421
 21
-37.8206409842
 31
0.0
  0
LINE
  5
171
330
1F
100
AcDbEntity
  8
SK3
  6
SLD-Dashed
370
    18
100
AcDbLine
 10
3.8562351421
 20
-37.8206409842
 30
0.0
 11
3.557747788
 21
-37.3048552904
 31
0.0
  0
LINE
  5
172
330
1F
100
AcDbEntity
  8
SK3
  6
SLD-Dashed
370
    18
100
AcDbLine
 10
3.557747788
 20
-37.3048552904
 30
0.0
 11
3.3464697679
 21
-36.8550370119
 31
0.0
  0
LINE
  5
173
330
1F
100
AcDbEntity
  8
SK3
  6
SLD-Dashed
370
    18
100
AcDbLine
 10
3.3464697679
 20
-36.8550370119
 30
0.0
 11
3.2380706061
 21
-36.5045471125
 31
0.0
  0
LINE
  5
174
330
1F
100
AcDbEntity
  8
SK3
  6
SLD-Dashed
370
    18
100
AcDbLine
 10
3.2380706061
 20
-36.5045471125
 30
0.0
 11
3.2405897723
 21
-36.2793798248
 31
0.0
  0
LINE
  5
175
330
1F
100
AcDbEntity
  8
SK3
  6
SLD-Dashed
370
    18
100
AcDbLine
 10
3.2405897723
 20
-36.2793798248
 30
0.0
 11
3.3538404317
 21
-36.1962347765
 31
0.0
  0
LINE
  5
176
330
1F
100
AcDbEntity
  8
SK3
  6
SLD-Dashed
370
    18
100
AcDbLine
 10
3.3538404317
 20
-36.1962347765
 30
0.0
 11
3.5694233009
 21
-36.2612784553
 31
0.0
  0
LINE
  5
177
330
1F
100
AcDbEntity
  8
SK3
  6
SLD-Dashed
370
    18
100
AcDbLine
 10
3.5694233009
 20
-36.2612784553
 30
0.0
 11
3.8713495847
 21
-36.4696868691
 31
0.0
  0
LINE
  5
178
330
1F
100
AcDbEntity
  8
SK3
  6
SLD-Dashed
370
    18
100
AcDbLine
 10
3.8713495847
 20
-36.4696868691
 30
0.0
 11
4.2372267919
 21
-36.8060033194
 31
0.0
  0
LINE
  5
179
330
1F
100
AcDbEntity
  8
SK3
  6
SLD-Dashed
370
    18
100
AcDbLine
 10
4.2372267919
 20
-36.8060033194
 30
0.0
 11
4.6399194838
 21
-37.2452847536
 31
0.0
  0
LINE
  5
17A
330
1F
100
AcDbEntity
  8
SK3
  6
SLD-Dashed
370
    18
100
AcDbLine
 10
4.6399194838
 20
-37.2452847536
 30
0.0
 11
5.0495617856
 21
-37.7549516772
 31
0.0
  0
LINE
  5
17B
330
1F
100
AcDbEntity
  8
SK3
  6
SLD-Dashed
370
    18
100
AcDbLine
 10
5.0495617856
 20
-37.7549516772
 30
0.0
 11
5.4357724018
 21
-38.2972044261
 31
0.0
  0
LINE
  5
17C
330
1F
100
AcDbEntity
  8
SK3
  6
SLD-Dashed
370
    18
100
AcDbLine
 10
5.4357724018
 20
-38.2972044261
 30
0.0
 11
5.7699078577
 21
-38.8318265946
 31
0.0
  0
LINE
  5
17D
330
1F
100
AcDbEntity
  8
SK3
  6
SLD-Dashed
370
    18
100
AcDbLine
 10
5.7699078577
 20
-38.8318265946
 30
0.0
 11
6.0271868553
 21
-39.3191677021
 31
0.0
  0
LINE
  5
17E
330
1F
100
AcDbEntity
  8
SK3
  6
SLD-Dashed
370
    18
100
AcDbLine
 10
6.0271868553
 20
-39.3191677021
 30
0.0
 11
6.1885281882
 21
-39.7230838882
 31
0.0
  0
LINE
  5
17F
330
1F
100
AcDbEntity
  8
SK3
  6
SLD-Dashed
370
    18
100
AcDbLine
 10
6.1885281882
 20
-39.7230838882
 30
0.0
 11
6.2419659078
 21
-40.0136185371
 31
0.0
  0
LINE
  5
180
330
1F
100
AcDbEntity
  8
SK3
  6
SLD-Dashed
370
    18
100
AcDbLine
 10
6.2419659078
 20
-40.0136185371
 30
0.0
 11
6.1835367829
 21
-40.1692240231
 31
0.0
  0
LINE
  5
181
330
1F
100
AcDbEntity
  8
SK3
  6
SLD-Dashed
370
    18
100
AcDbLine
 10
9.4892049402
 20
-37.7155235373
 30
0.0
 11
9.451163823
 21
-37.6727008139
 31
0.0
  0
LINE
  5
182
330
1F
100
AcDbEntity
  8
SK3
  6
SLD-Dashed
370
    18
100
AcDbLine
 10
9.451163823
 20
-37.6727008139
 30
0.0
 11
9.4677936757
 21
-37.5433314837
 31
0.0
  0
LINE
  5
183
330
1F
100
AcDbEntity
  8
SK3
  6
SLD-Dashed
370
    18
100
AcDbLine
 10
9.4677936757
 20
-37.5433314837
 30
0.0
 11
9.5310538088
 21
-37.3548883227
 31
0.0
  0
LINE
  5
184
330
1F
100
AcDbEntity
  8
SK3
  6
SLD-Dashed
370
    18
100
AcDbLine
 10
9.5310538088
 20
-37.3548883227
 30
0.0
 11
9.7084210519
 21
-36.9623522257
 31
0.0
  0
LINE
  5
185
330
1F
100
AcDbEntity
  8
SK3
  6
SLD-Dashed
370
    18
100
AcDbLine
 10
9.7084210519
 20
-36.9623522257
 30
0.0
 11
10.1301466607
 21
-36.2256705713
 31
0.0
  0
LINE
  5
186
330
1F
100
AcDbEntity
  8
SK3
  6
SLD-Dashed
370
    18
100
AcDbLine
 10
10.1301466607
 20
-36.2256705713
 30
0.0
 11
10.8773966474
 21
-35.3005193005
 31
0.0
  0
LINE
  5
187
330
1F
100
AcDbEntity
  8
SK3
  6
SLD-Dashed
370
    18
100
AcDbLine
 10
10.8773966474
 20
-35.3005193005
 30
0.0
 11
11.312227106
 21
-34.9793339872
 31
0.0
  0
LINE
  5
188
330
1F
100
AcDbEntity
  8
SK3
  6
SLD-Dashed
370
    18
100
AcDbLine
 10
11.312227106
 20
-34.9793339872
 30
0.0
 11
11.8000958315
 21
-34.810754733
 31
0.0
  0
LINE
  5
189
330
1F
100
AcDbEntity
  8
SK3
  6
SLD-Dashed
370
    18
100
AcDbLine
 10
11.8000958315
 20
-34.810754733
 30
0.0
 11
12.1948617266
 21
-34.8179786511
 31
0.0
  0
LINE
  5
18A
330
1F
100
AcDbEntity
  8
SK3
  6
SLD-Dashed
370
    18
100
AcDbLine
 10
12.1948617266
 20
-34.8179786511
 30
0.0
 11
12.5000186462
 21
-34.9235723772
 31
0.0
  0
LINE
  5
18B
330
1F
100
AcDbEntity
  8
SK3
  6
SLD-Dashed
370
    18
100
AcDbLine
 10
12.5000186462
 20
-34.9235723772
 30
0.0
 11
12.7042394553
 21
-35.0956853241
 31
0.0
  0
LINE
  5
18C
330
1F
100
AcDbEntity
  8
SK3
  6
SLD-Dashed
370
    18
100
AcDbLine
 10
12.7042394553
 20
-35.0956853241
 30
0.0
 11
12.7416446651
 21
-35.2866958897
 31
0.0
  0
LINE
  5
18D
330
1F
100
AcDbEntity
  8
SK3
  6
SLD-Dashed
370
    18
100
AcDbLine
 10
12.7416446651
 20
-35.2866958897
 30
0.0
 11
12.6054093111
 21
-35.4544885425
 31
0.0
  0
LINE
  5
18E
330
1F
100
AcDbEntity
  8
SK3
  6
SLD-Dashed
370
    18
100
AcDbLine
 10
11.1
 20
-39.8624815174
 30
0.0
 11
10.5642458758
 21
-39.8930586487
 31
0.0
  0
LINE
  5
18F
330
1F
100
AcDbEntity
  8
SK3
  6
SLD-Dashed
370
    18
100
AcDbLine
 10
10.5642458758
 20
-39.8930586487
 30
0.0
 11
10.0865490241
 21
-39.9814765361
 31
0.0
  0
LINE
  5
190
330
1F
100
AcDbEntity
  8
SK3
  6
SLD-Dashed
370
    18
100
AcDbLine
 10
10.0865490241
 20
-39.9814765361
 30
0.0
 11
9.7186753109
 21
-40.1181537296
 31
0.0
  0
LINE
  5
191
330
1F
100
AcDbEntity
  8
SK3
  6
SLD-Dashed
370
    18
100
AcDbLine
 10
9.7186753109
 20
-40.1181537296
 30
0.0
 11
9.5004895612
 21
-40.2882791344
 31
0.0
  0
LINE
  5
192
330
1F
100
AcDbEntity
  8
SK3
  6
SLD-Dashed
370
    18
100
AcDbLine
 10
9.5004895612
 20
-40.2882791344
 30
0.0
 11
9.4556355865
 21
-40.4734170231
 31
0.0
  0
LINE
  5
193
330
1F
100
AcDbEntity
  8
SK3
  6
SLD-Dashed
370
    18
100
AcDbLine
 10
9.4556355865
 20
-40.4734170231
 30
0.0
 11
9.588974011
 21
-40.6535048329
 31
0.0
  0
LINE
  5
194
330
1F
100
AcDbEntity
  8
SK3
  6
SLD-Dashed
370
    18
100
AcDbLine
 10
9.588974011
 20
-40.6535048329
 30
0.0
 11
9.8860555474
 21
-40.8090272552
 31
0.0
  0
LINE
  5
195
330
1F
100
AcDbEntity
  8
SK3
  6
SLD-Dashed
370
    18
100
AcDbLine
 10
9.8860555474
 20
-40.8090272552
 30
0.0
 11
10.3146868015
 21
-40.9231310223
 31
0.0
  0
LINE
  5
196
330
1F
100
AcDbEntity
  8
SK3
  6
SLD-Dashed
370
    18
100
AcDbLine
 10
10.3146868015
 20
-40.9231310223
 30
0.0
 11
10.828418926
 21
-40.9834512205
 31
0.0
  0
LINE
  5
197
330
1F
100
AcDbEntity
  8
SK3
  6
SLD-Dashed
370
    18
100
AcDbLine
 10
10.828418926
 20
-40.9834512205
 30
0.0
 11
11.371581074
 21
-40.9834512205
 31
0.0
  0
LINE
  5
198
330
1F
100
AcDbEntity
  8
SK3
  6
SLD-Dashed
370
    18
100
AcDbLine
 10
11.371581074
 20
-40.9834512205
 30
0.0
 11
11.8853131985
 21
-40.9231310223
 31
0.0
  0
LINE
  5
199
330
1F
100
AcDbEntity
  8
SK3
  6
SLD-Dashed
370
    18
100
AcDbLine
 10
11.8853131985
 20
-40.9231310223
 30
0.0
 11
12.3139444526
 21
-40.8090272552
 31
0.0
  0
LINE
  5
19A
330
1F
100
AcDbEntity
  8
SK3
  6
SLD-Dashed
370
    18
100
AcDbLine
 10
12.3139444526
 20
-40.8090272552
 30
0.0
 11
12.611025989
 21
-40.6535048329
 31
0.0
  0
LINE
  5
19B
330
1F
100
AcDbEntity
  8
SK3
  6
SLD-Dashed
370
    18
100
AcDbLine
 10
12.611025989
 20
-40.6535048329
 30
0.0
 11
12.7443644135
 21
-40.4734170231
 31
0.0
  0
LINE
  5
19C
330
1F
100
AcDbEntity
  8
SK3
  6
SLD-Dashed
370
    18
100
AcDbLine
 10
12.7443644135
 20
-40.4734170231
 30
0.0
 11
12.6995104388
 21
-40.2882791344
 31
0.0
  0
LINE
  5
19D
330
1F
100
AcDbEntity
  8
SK3
  6
SLD-Dashed
370
    18
100
AcDbLine
 10
12.6995104388
 20
-40.2882791344
 30
0.0
 11
12.4813246891
 21
-40.1181537296
 31
0.0
  0
LINE
  5
19E
330
1F
100
AcDbEntity
  8
SK3
  6
SLD-Dashed
370
    18
100
AcDbLine
 10
12.4813246891
 20
-40.1181537296
 30
0.0
 11
12.1134509759
 21
-39.9814765361
 31
0.0
  0
LINE
  5
19F
330
1F
100
AcDbEntity
  8
SK3
  6
SLD-Dashed
370
    18
100
AcDbLine
 10
12.1134509759
 20
-39.9814765361
 30
0.0
 11
11.6357541242
 21
-39.8930586487
 31
0.0
  0
LINE
  5
1A0
330
1F
100
AcDbEntity
  8
SK3
  6
SLD-Dashed
370
    18
100
AcDbLine
 10
11.6357541242
 20
-39.8930586487
 30
0.0
 11
11.1
 21
-39.8624815174
 31
0.0
  0
LINE
  5
1A1
330
1F
100
AcDbEntity
  8
SK3
  6
SLD-Dashed
370
    18
100
AcDbLine
 10
6.2723069743
 20
-40.2901366077
 30
0.0
 11
6.1056572614
 21
-40.3025803013
 31
0.0
  0
LINE
  5
1A2
330
1F
100
AcDbEntity
  8
SK3
  6
SLD-Dashed
370
    18
100
AcDbLine
 10
6.1056572614
 20
-40.3025803013
 30
0.0
 11
5.8455057258
 21
-40.1713494354
 31
0.0
  0
LINE
  5
1A3
330
1F
100
AcDbEntity
  8
SK3
  6
SLD-Dashed
370
    18
100
AcDbLine
 10
5.8455057258
 20
-40.1713494354
 30
0.0
 11
5.5095812647
 21
-39.9053871766
 31
0.0
  0
LINE
  5
1A4
330
1F
100
AcDbEntity
  8
SK3
  6
SLD-Dashed
370
    18
100
AcDbLine
 10
5.5095812647
 20
-39.9053871766
 30
0.0
 11
5.1207765751
 21
-39.5228184133
 31
0.0
  0
LINE
  5
1A5
330
1F
100
AcDbEntity
  8
SK3
  6
SLD-Dashed
370
    18
100
AcDbLine
 10
5.1207765751
 20
-39.5228184133
 30
0.0
 11
4.705588054
 21
-39.0497145746
 31
0.0
  0
LINE
  5
1A6
330
1F
100
AcDbEntity
  8
SK3
  6
SLD-Dashed
370
    18
100
AcDbLine
 10
4.705588054
 20
-39.0497145746
 30
0.0
 11
4.292310113
 21
-38.5183169052
 31
0.0
  0
LINE
  5
1A7
330
1F
100
AcDbEntity
  8
SK3
  6
SLD-Dashed
370
    18
100
AcDbLine
 10
4.292310113
 20
-38.5183169052
 30
0.0
 11
3.9091069607
 21
-37.9648392782
 31
0.0
  0
LINE
  5
1A8
330
1F
100
AcDbEntity
  8
SK3
  6
SLD-Dashed
370
    18
100
AcDbLine
 10
3.9091069607
 20
-37.9648392782
 30
0.0
 11
3.5820932588
 21
-37.427000279
 31
0.0
  0
LINE
  5
1A9
330
1F
100
AcDbEntity
  8
SK3
  6
SLD-Dashed
370
    18
100
AcDbLine
 10
3.5820932588
 20
-37.427000279
 30
0.0
 11
3.3335544506
 21
-36.9414527468
 31
0.0
  0
LINE
  5
1AA
330
1F
100
AcDbEntity
  8
SK3
  6
SLD-Dashed
370
    18
100
AcDbLine
 10
3.3335544506
 20
-36.9414527468
 30
0.0
 11
3.1804280451
 21
-36.5412859433
 31
0.0
  0
LINE
  5
1AB
330
1F
100
AcDbEntity
  8
SK3
  6
SLD-Dashed
370
    18
100
AcDbLine
 10
3.1804280451
 20
-36.5412859433
 30
0.0
 11
3.1331493539
 21
-36.253770575
 31
0.0
  0
LINE
  5
1AC
330
1F
100
AcDbEntity
  8
SK3
  6
SLD-Dashed
370
    18
100
AcDbLine
 10
3.1331493539
 20
-36.253770575
 30
0.0
 11
3.1949403416
 21
-36.0985003391
 31
0.0
  0
LINE
  5
1AD
330
1F
100
AcDbEntity
  8
SK3
  6
SLD-Dashed
370
    18
100
AcDbLine
 10
3.1949403416
 20
-36.0985003391
 30
0.0
 11
3.3615900545
 21
-36.0860566456
 31
0.0
  0
LINE
  5
1AE
330
1F
100
AcDbEntity
  8
SK3
  6
SLD-Dashed
370
    18
100
AcDbLine
 10
3.3615900545
 20
-36.0860566456
 30
0.0
 11
3.6217415901
 21
-36.2172875115
 31
0.0
  0
LINE
  5
1AF
330
1F
100
AcDbEntity
  8
SK3
  6
SLD-Dashed
370
    18
100
AcDbLine
 10
3.6217415901
 20
-36.2172875115
 30
0.0
 11
3.9576660511
 21
-36.4832497703
 31
0.0
  0
LINE
  5
1B0
330
1F
100
AcDbEntity
  8
SK3
  6
SLD-Dashed
370
    18
100
AcDbLine
 10
3.9576660511
 20
-36.4832497703
 30
0.0
 11
4.3464707407
 21
-36.8658185335
 31
0.0
  0
LINE
  5
1B1
330
1F
100
AcDbEntity
  8
SK3
  6
SLD-Dashed
370
    18
100
AcDbLine
 10
4.3464707407
 20
-36.8658185335
 30
0.0
 11
4.7616592619
 21
-37.3389223722
 31
0.0
  0
LINE
  5
1B2
330
1F
100
AcDbEntity
  8
SK3
  6
SLD-Dashed
370
    18
100
AcDbLine
 10
4.7616592619
 20
-37.3389223722
 30
0.0
 11
5.1749372029
 21
-37.8703200416
 31
0.0
  0
LINE
  5
1B3
330
1F
100
AcDbEntity
  8
SK3
  6
SLD-Dashed
370
    18
100
AcDbLine
 10
5.1749372029
 20
-37.8703200416
 30
0.0
 11
5.5581403551
 21
-38.4237976687
 31
0.0
  0
LINE
  5
1B4
330
1F
100
AcDbEntity
  8
SK3
  6
SLD-Dashed
370
    18
100
AcDbLine
 10
5.5581403551
 20
-38.4237976687
 30
0.0
 11
5.8851540571
 21
-38.9616366678
 31
0.0
  0
LINE
  5
1B5
330
1F
100
AcDbEntity
  8
SK3
  6
SLD-Dashed
370
    18
100
AcDbLine
 10
5.8851540571
 20
-38.9616366678
 30
0.0
 11
6.1336928653
 21
-39.4471842001
 31
0.0
  0
LINE
  5
1B6
330
1F
100
AcDbEntity
  8
SK3
  6
SLD-Dashed
370
    18
100
AcDbLine
 10
6.1336928653
 20
-39.4471842001
 30
0.0
 11
6.2868192707
 21
-39.8473510035
 31
0.0
  0
LINE
  5
1B7
330
1F
100
AcDbEntity
  8
SK3
  6
SLD-Dashed
370
    18
100
AcDbLine
 10
6.2868192707
 20
-39.8473510035
 30
0.0
 11
6.3340979619
 21
-40.1348663718
 31
0.0
  0
LINE
  5
1B8
330
1F
100
AcDbEntity
  8
SK3
  6
SLD-Dashed
370
    18
100
AcDbLine
 10
6.3340979619
 20
-40.1348663718
 30
0.0
 11
6.2723069743
 21
-40.2901366077
 31
0.0
  0
LINE
  5
1B9
330
1F
100
AcDbEntity
  8
1
  6
SLD-Dashed
370
    18
100
AcDbLine
 10
25.112772388
 20
-12.4125110332
 30
0.0
 11
26.0120598489
 21
-12.1220348081
 31
0.0
  0
LINE
  5
1BA
330
1F
100
AcDbEntity
  8
1
  6
SLD-Dashed
370
    18
100
AcDbLine
 10
26.0120598489
 20
-12.1220348081
 30
0.0
 11
27.1021661237
 21
-11.6677404817
 31
0.0
  0
LINE
  5
1BB
330
1F
100
AcDbEntity
  8
1
  6
SLD-Dashed
370
    18
100
AcDbLine
 10
29.9895974722
 20
-9.7992170226
 30
0.0
 11
30.9831199763
 21
-8.8525171285
 31
0.0
  0
LINE
  5
1BC
330
1F
100
AcDbEntity
  8
1
  6
SLD-Dashed
370
    18
100
AcDbLine
 10
30.9831199763
 20
-8.8525171285
 30
0.0
 11
31.3863770491
 21
-8.4045716282
 31
0.0
  0
LINE
  5
1BD
330
1F
100
AcDbEntity
  8
1
  6
SLD-Dashed
370
    18
100
AcDbLine
 10
30.7660195811
 20
9.077118763
 30
0.0
 11
29.891960165
 21
9.8819733162
 31
0.0
  0
LINE
  5
1BE
330
1F
100
AcDbEntity
  8
1
  6
SLD-Dashed
370
    18
100
AcDbLine
 10
29.891960165
 20
9.8819733162
 30
0.0
 11
29.3533612874
 21
10.3099655066
 31
0.0
  0
LINE
  5
1BF
330
1F
100
AcDbEntity
  8
SK3
  6
SLD-Dashed
370
    18
100
AcDbLine
 10
9.1
 20
46.9644866781
 30
0.0
 11
9.1
 21
43.111859234
 31
0.0
  0
LINE
  5
1C0
330
1F
100
AcDbEntity
  8
SK3
  6
SLD-Dashed
370
    18
100
AcDbLine
 10
13.1
 20
43.111859234
 30
0.0
 11
13.1
 21
46.9636476284
 31
0.0
  0
LINE
  5
1C1
330
1F
100
AcDbEntity
  8
SK3
  6
SLD-Dashed
370
    18
100
AcDbLine
 10
9.5474833261
 20
42.680630019
 30
0.0
 11
9.819173744
 21
42.566209006
 31
0.0
  0
LINE
  5
1C2
330
1F
100
AcDbEntity
  8
SK3
  6
SLD-Dashed
370
    18
100
AcDbLine
 10
12.380826256
 20
42.566209006
 30
0.0
 11
12.6525166739
 21
42.680630019
 31
0.0
  0
LINE
  5
1C3
330
1F
100
AcDbEntity
  8
SK3
  6
SLD-Dashed
370
    18
100
AcDbLine
 10
9.45
 20
42.9219731084
 30
0.0
 11
9.45
 21
37.6466575959
 31
0.0
  0
LINE
  5
1C4
330
1F
100
AcDbEntity
  8
SK3
  6
SLD-Dashed
370
    18
100
AcDbLine
 10
12.75
 20
35.2292695596
 30
0.0
 11
12.75
 21
42.9219731084
 31
0.0
  0
LINE
  5
1C5
330
1F
100
AcDbEntity
  8
SK3
  6
SLD-Dashed
370
    18
100
AcDbLine
 10
3.0
 20
36.2416193657
 30
0.0
 11
3.1949403416
 21
36.0985003391
 31
0.0
  0
LINE
  5
1C6
330
1F
100
AcDbEntity
  8
SK3
  6
SLD-Dashed
370
    18
100
AcDbLine
 10
6.2723069743
 20
40.2901366077
 30
0.0
 11
3.0
 21
42.6925607803
 31
0.0
  0
LINE
  5
1C7
330
1F
100
AcDbEntity
  8
SK3
  6
SLD-Dashed
370
    18
100
AcDbLine
 10
105.0
 20
16.5773502692
 30
0.0
 11
104.0
 21
16.0
 31
0.0
  0
LINE
  5
1C8
330
1F
100
AcDbEntity
  8
1
  6
SLD-Dashed
370
    18
100
AcDbLine
 10
104.0
 20
-16.0
 30
0.0
 11
105.0
 21
-16.5773502692
 31
0.0
  0
LINE
  5
1C9
330
1F
100
AcDbEntity
  8
SK3
  6
SLD-Dashed
370
    18
100
AcDbLine
 10
12.6054093111
 20
29.3757168249
 30
0.0
 11
14.0794578574
 21
28.2935170536
 31
0.0
  0
LINE
  5
1CA
330
1F
100
AcDbEntity
  8
SK3
  6
SLD-Dashed
370
    18
100
AcDbLine
 10
3.2837105329
 20
36.2194129238
 30
0.0
 11
9.5991218742
 21
31.5828378759
 31
0.0
  0
LINE
  5
1CB
330
1F
100
AcDbEntity
  8
SK3
  6
SLD-Dashed
370
    18
100
AcDbLine
 10
9.6073492409
 20
37.6555693213
 30
0.0
 11
6.1835367829
 21
40.1692240231
 31
0.0
  0
LINE
  5
1CC
330
1F
100
AcDbEntity
  8
SK3
  6
SLD-Dashed
370
    18
100
AcDbLine
 10
16.9792841073
 20
32.2433281529
 30
0.0
 11
12.6024732478
 21
35.4566441072
 31
0.0
  0
LINE
  5
1CD
330
1F
100
AcDbEntity
  8
SK3
  6
SLD-Dashed
370
    18
100
AcDbLine
 10
46.75
 20
16.25
 30
0.0
 11
42.25
 21
16.25
 31
0.0
  0
LINE
  5
1CE
330
1F
100
AcDbEntity
  8
SK3
  6
SLD-Dashed
370
    18
100
AcDbLine
 10
42.25
 20
-16.25
 30
0.0
 11
44.0143591851
 21
-16.25
 31
0.0
  0
LINE
  5
1CF
330
1F
100
AcDbEntity
  8
SK3
  6
SLD-Dashed
370
    18
100
AcDbLine
 10
104.0
 20
16.0
 30
0.0
 11
47.0
 21
16.0
 31
0.0
  0
LINE
  5
1D0
330
1F
100
AcDbEntity
  8
SK3
  6
SLD-Dashed
370
    18
100
AcDbLine
 10
90.0
 20
-16.0
 30
0.0
 11
104.0
 21
-16.0
 31
0.0
  0
LINE
  5
1D1
330
1F
100
AcDbEntity
  8
SK3
  6
SLD-Dashed
370
    18
100
AcDbLine
 10
61.9779621042
 20
-16.0
 30
0.0
 11
72.0056327125
 21
-16.0
 31
0.0
  0
LINE
  5
1D2
330
1F
100
AcDbEntity
  8
SK3
  6
SLD-Dashed
370
    18
100
AcDbLine
 10
-101.8
 20
-13.5178629711
 30
0.0
 11
-100.05
 21
-12.5075
 31
0.0
  0
LINE
  5
1D3
330
1F
100
AcDbEntity
  8
SK3
  6
SLD-Dashed
370
    18
100
AcDbLine
 10
-100.05
 20
12.5075
 30
0.0
 11
-101.8
 21
13.5178629711
 31
0.0
  0
LINE
  5
1D4
330
1F
100
AcDbEntity
  8
SK3
  6
SLD-Dashed
370
    18
100
AcDbLine
 10
14.3249003637
 20
28.3153293831
 30
0.0
 11
16.6894083239
 21
29.4167599163
 31
0.0
  0
LINE
  5
1D5
330
1F
100
AcDbEntity
  8
SK3
  6
SLD-Dashed
370
    18
100
AcDbLine
 10
16.6894083239
 20
29.4167599163
 30
0.0
 11
17.0319937976
 21
32.0026219208
 31
0.0
  0
LINE
  5
1D6
330
1F
100
AcDbEntity
  8
SK3
  6
SLD-Dashed
370
    18
100
AcDbLine
 10
9.45
 20
31.8109690343
 30
0.0
 11
9.45
 21
9.8663980169
 31
0.0
  0
LINE
  5
1D7
330
1F
100
AcDbEntity
  8
SK3
  6
SLD-Dashed
370
    18
100
AcDbLine
 10
12.75
 20
9.8637305233
 30
0.0
 11
12.75
 21
29.3998867967
 31
0.0
  0
LINE
  5
1D8
330
1F
100
AcDbEntity
  8
SK3
  6
SLD-Dashed
370
    18
100
AcDbLine
 10
-88.55
 20
12.75
 30
0.0
 11
-91.55
 21
12.75
 31
0.0
  0
LINE
  5
1D9
330
1F
100
AcDbEntity
  8
SK3
  6
SLD-Dashed
370
    18
100
AcDbLine
 10
-91.55
 20
-12.75
 30
0.0
 11
-88.55
 21
-12.75
 31
0.0
  0
LINE
  5
1DA
330
1F
100
AcDbEntity
  8
SK3
  6
SLD-Dashed
370
    18
100
AcDbLine
 10
-91.55
 20
12.75
 30
0.0
 11
-91.9700223208
 21
12.5075
 31
0.0
  0
LINE
  5
1DB
330
1F
100
AcDbEntity
  8
SK3
  6
SLD-Dashed
370
    18
100
AcDbLine
 10
-91.9700223208
 20
-12.5075
 30
0.0
 11
-91.55
 21
-12.75
 31
0.0
  0
LINE
  5
1DC
330
1F
100
AcDbEntity
  8
SK3
  6
SLD-Dashed
370
    18
100
AcDbLine
 10
-88.55
 20
-12.75
 30
0.0
 11
-87.2509618943
 21
-10.5
 31
0.0
  0
LINE
  5
1DD
330
1F
100
AcDbEntity
  8
SK3
  6
SLD-Dashed
370
    18
100
AcDbLine
 10
-87.2509618943
 20
10.5
 30
0.0
 11
-88.55
 21
12.75
 31
0.0
  0
LINE
  5
1DE
330
1F
100
AcDbEntity
  8
SK3
  6
SLD-Dashed
370
    18
100
AcDbLine
 10
-91.9700223208
 20
12.5075
 30
0.0
 11
-100.05
 21
12.5075
 31
0.0
  0
LINE
  5
1DF
330
1F
100
AcDbEntity
  8
SK3
  6
SLD-Dashed
370
    18
100
AcDbLine
 10
-100.05
 20
-12.5075
 30
0.0
 11
-91.9700223208
 21
-12.5075
 31
0.0
  0
LINE
  5
1E0
330
1F
100
AcDbEntity
  8
SK3
  6
SLD-Dashed
370
    18
100
AcDbLine
 10
92.1
 20
-36.0
 30
0.0
 11
92.1
 21
-33.8
 31
0.0
  0
LINE
  5
1E1
330
1F
100
AcDbEntity
  8
SK3
  6
SLD-Dashed
370
    18
100
AcDbLine
 10
69.9
 20
-33.8
 30
0.0
 11
69.9
 21
-36.0
 31
0.0
  0
LINE
  5
1E2
330
1F
100
AcDbEntity
  8
SK3
  6
SLD-Dashed
370
    18
100
AcDbLine
 10
64.1
 20
-36.0
 30
0.0
 11
64.1
 21
-33.8
 31
0.0
  0
LINE
  5
1E3
330
1F
100
AcDbEntity
  8
SK3
  6
SLD-Dashed
370
    18
100
AcDbLine
 10
41.9
 20
-33.8
 30
0.0
 11
41.9
 21
-36.0
 31
0.0
  0
LINE
  5
1E4
330
1F
100
AcDbEntity
  8
SK3
  6
SLD-Dashed
370
    18
100
AcDbLine
 10
-87.2509618943
 20
-10.5
 30
0.0
 11
-38.8
 21
-10.5
 31
0.0
  0
LINE
  5
1E5
330
1F
100
AcDbEntity
  8
SK3
  6
SLD-Dashed
370
    18
100
AcDbLine
 10
-38.8
 20
10.5
 30
0.0
 11
-87.2509618943
 21
10.5
 31
0.0
  0
LINE
  5
1E6
330
1F
100
AcDbEntity
  8
SK3
  6
SLD-Dashed
370
    18
100
AcDbLine
 10
-38.799969957
 20
-10.49995
 30
0.0
 11
42.0
 21
-10.49995
 31
0.0
  0
LINE
  5
1E7
330
1F
100
AcDbEntity
  8
SK3
  6
SLD-Dashed
370
    18
100
AcDbLine
 10
42.0
 20
10.49995
 30
0.0
 11
-38.799969957
 21
10.49995
 31
0.0
  0
LINE
  5
1E8
330
1F
100
AcDbEntity
  8
SK3
  6
SLD-Dashed
370
    18
100
AcDbLine
 10
90.0
 20
-33.8
 30
0.0
 11
90.0
 21
-16.0
 31
0.0
  0
LINE
  5
1E9
330
1F
100
AcDbEntity
  8
SK3
  6
SLD-Dashed
370
    18
100
AcDbLine
 10
72.0
 20
-15.9968595397
 30
0.0
 11
72.0
 21
-33.8
 31
0.0
  0
LINE
  5
1EA
330
1F
100
AcDbEntity
  8
SK3
  6
SLD-Dashed
370
    18
100
AcDbLine
 10
62.0
 20
-33.8
 30
0.0
 11
62.0
 21
-15.9876272824
 31
0.0
  0
LINE
  5
1EB
330
1F
100
AcDbEntity
  8
SK3
  6
SLD-Dashed
370
    18
100
AcDbLine
 10
44.0
 20
-16.2420825063
 30
0.0
 11
44.0
 21
-33.8
 31
0.0
  0
LINE
  5
1EC
330
1F
100
AcDbEntity
  8
SK3
  6
SLD-Dashed
370
    18
100
AcDbLine
 10
9.45
 20
-9.8637305233
 30
0.0
 11
9.45
 21
-31.8113816397
 31
0.0
  0
LINE
  5
1ED
330
1F
100
AcDbEntity
  8
SK3
  6
SLD-Dashed
370
    18
100
AcDbLine
 10
12.75
 20
-29.3998151041
 30
0.0
 11
12.75
 21
-9.8663980169
 31
0.0
  0
LINE
  5
1EE
330
1F
100
AcDbEntity
  8
SK3
  6
SLD-Dashed
370
    18
100
AcDbLine
 10
17.0319937976
 20
-32.0026219208
 30
0.0
 11
16.6894083239
 21
-29.4167599163
 31
0.0
  0
LINE
  5
1EF
330
1F
100
AcDbEntity
  8
SK3
  6
SLD-Dashed
370
    18
100
AcDbLine
 10
16.6894083239
 20
-29.4167599163
 30
0.0
 11
14.3249003637
 21
-28.3153293831
 31
0.0
  0
LINE
  5
1F0
330
1F
100
AcDbEntity
  8
SK3
  6
SLD-Dashed
370
    18
100
AcDbLine
 10
12.6054093111
 20
-35.4544885425
 30
0.0
 11
16.9792841073
 21
-32.2433281529
 31
0.0
  0
LINE
  5
1F1
330
1F
100
AcDbEntity
  8
SK3
  6
SLD-Dashed
370
    18
100
AcDbLine
 10
6.1835367829
 20
-40.1692240231
 30
0.0
 11
9.6109272698
 21
-37.6529424458
 31
0.0
  0
LINE
  5
1F2
330
1F
100
AcDbEntity
  8
SK3
  6
SLD-Dashed
370
    18
100
AcDbLine
 10
9.5964423095
 20
-31.5848051275
 30
0.0
 11
3.2837105329
 21
-36.2194129238
 31
0.0
  0
LINE
  5
1F3
330
1F
100
AcDbEntity
  8
SK3
  6
SLD-Dashed
370
    18
100
AcDbLine
 10
14.0794578574
 20
-28.2935170536
 30
0.0
 11
12.5954378483
 21
-29.3830375572
 31
0.0
  0
LINE
  5
1F4
330
1F
100
AcDbEntity
  8
SK3
  6
SLD-Dashed
370
    18
100
AcDbLine
 10
9.45
 20
-37.6463211517
 30
0.0
 11
9.45
 21
-40.4268147538
 31
0.0
  0
LINE
  5
1F5
330
1F
100
AcDbEntity
  8
SK3
  6
SLD-Dashed
370
    18
100
AcDbLine
 10
12.75
 20
-40.4268147538
 30
0.0
 11
12.75
 21
-35.229287829
 31
0.0
  0
LINE
  5
1F6
330
1F
100
AcDbEntity
  8
SK3
  6
SLD-Dashed
370
    18
100
AcDbLine
 10
3.0
 20
-42.6925607803
 30
0.0
 11
6.2723069743
 21
-40.2901366077
 31
0.0
  0
LINE
  5
1F7
330
1F
100
AcDbEntity
  8
SK3
  6
SLD-Dashed
370
    18
100
AcDbLine
 10
3.1949403416
 20
-36.0985003391
 30
0.0
 11
3.0
 21
-36.2416193657
 31
0.0
  0
LINE
  5
1F8
330
1F
100
AcDbEntity
  8
SK3
  6
SLD-Dashed
370
    18
100
AcDbLine
 10
9.7871669195
 20
-40.7686585921
 30
0.0
 11
11.1
 21
-41.3584448321
 31
0.0
  0
LINE
  5
1F9
330
1F
100
AcDbEntity
  8
SK3
  6
SLD-Dashed
370
    18
100
AcDbLine
 10
11.1
 20
-41.3584448321
 30
0.0
 11
12.4128330805
 21
-40.7686585921
 31
0.0
  0
LINE
  5
1FA
330
1F
100
AcDbEntity
  8
SK3
  6
SLD-Solid
370
    18
100
AcDbLine
 10
-88.1169872981
 20
12.0
 30
0.0
 11
-55.8
 21
12.0
 31
0.0
  0
LINE
  5
1FB
330
1F
100
AcDbEntity
  8
SK3
  6
SLD-Solid
370
    18
100
AcDbLine
 10
-88.1169872981
 20
-12.0
 30
0.0
 11
-55.8
 21
-12.0
 31
0.0
  0
LINE
  5
1FC
330
1F
100
AcDbEntity
  8
SK3
  6
SLD-Dashed
370
    18
100
AcDbLine
 10
-55.8
 20
-12.0
 30
0.0
 11
-55.8
 21
12.0
 31
0.0
  0
LINE
  5
1FD
330
1F
100
AcDbEntity
  8
SK3
  6
SLD-Solid
370
    18
100
AcDbLine
 10
43.0
 20
-33.8
 30
0.0
 11
43.0
 21
-16.25
 31
0.0
  0
LINE
  5
1FE
330
1F
100
AcDbEntity
  8
SK3
  6
SLD-Solid
370
    18
100
AcDbLine
 10
63.0
 20
-33.8
 30
0.0
 11
63.0
 21
-16.0
 31
0.0
  0
LINE
  5
1FF
330
1F
100
AcDbEntity
  8
SK3
  6
SLD-Solid
370
    18
100
AcDbLine
 10
71.0
 20
-33.8
 30
0.0
 11
71.0
 21
-16.0
 31
0.0
  0
LINE
  5
200
330
1F
100
AcDbEntity
  8
SK3
  6
SLD-Solid
370
    18
100
AcDbLine
 10
91.0
 20
-33.8
 30
0.0
 11
91.0
 21
-16.0
 31
0.0
  0
LINE
  5
201
330
1F
100
AcDbEntity
  8
4
  6
SLD-Center
370
    18
100
AcDbLine
 10
107.0
 20
0.0
 30
0.0
 11
0.6555322379
 21
0.0
 31
0.0
  0
LINE
  5
202
330
1F
100
AcDbEntity
  8
4
  6
SLD-Center
370
    18
100
AcDbLine
 10
81.0
 20
-35.8
 30
0.0
 11
81.0
 21
-14.0
 31
0.0
  0
LINE
  5
203
330
1F
100
AcDbEntity
  8
4
  6
SLD-Center
370
    18
100
AcDbLine
 10
53.0
 20
-14.125
 30
0.0
 11
53.0
 21
-35.8
 31
0.0
  0
LINE
  5
204
330
1F
100
AcDbEntity
  8
SK4
  6
SLD-Center
370
    18
100
AcDbLine
 10
106.9844532741
 20
0.0
 30
0.0
 11
-104.7722962473
 21
0.0
 31
0.0
  0
ARC
  5
205
330
1F
100
AcDbEntity
  8
1
  6
SLD-Solid
370
    25
100
AcDbCircle
 10
37.2499999933
 20
-49.2286823242
 30
0.0
 40
0.75
100
AcDbArc
 50
269.9999994988
 51
359.9999999924
  0
ARC
  5
206
330
1F
100
AcDbEntity
  8
1
  6
SLD-Solid
370
    25
100
AcDbCircle
 10
37.2499999933
 20
49.228682327
 30
0.0
 40
0.7500000000000001
100
AcDbArc
 50
0.0000002033
 51
89.9999990502
  0
ARC
  5
207
330
1F
100
AcDbEntity
  8
1
  6
SLD-Solid
370
    25
100
AcDbCircle
 10
3.75
 20
49.228682327
 30
0.0
 40
0.7500000000000284
100
AcDbArc
 50
90.0
 51
180.0
  0
ARC
  5
208
330
1F
100
AcDbEntity
  8
1
  6
SLD-Solid
370
    25
100
AcDbCircle
 10
3.75
 20
-49.228682327
 30
0.0
 40
0.7500000000000284
100
AcDbArc
 50
180.0
 51
270.0
  0
ARC
  5
209
330
1F
100
AcDbEntity
  8
1
  6
SLD-Solid
370
    25
100
AcDbCircle
 10
26.33
 20
42.875
 30
0.0
 40
0.3750000000000142
100
AcDbArc
 50
270.0
 51
0.0
  0
ARC
  5
20A
330
1F
100
AcDbEntity
  8
1
  6
SLD-Solid
370
    25
100
AcDbCircle
 10
26.3299999934
 20
-42.8749999999
 30
0.0
 40
0.3750000000000284
100
AcDbArc
 50
0.0
 51
90.0
  0
ARC
  5
20B
330
1F
100
AcDbEntity
  8
1
  6
SLD-Solid
370
    25
100
AcDbCircle
 10
20.08
 20
42.875
 30
0.0
 40
0.3750000000000249
100
AcDbArc
 50
180.0
 51
270.0
  0
ARC
  5
20C
330
1F
100
AcDbEntity
  8
1
  6
SLD-Solid
370
    25
100
AcDbCircle
 10
20.0799999934
 20
-42.8749999999
 30
0.0
 40
0.3750000000000213
100
AcDbArc
 50
90.0
 51
180.0
  0
ARC
  5
20D
330
1F
100
AcDbEntity
  8
1
  6
SLD-Solid
370
    25
100
AcDbCircle
 10
41.0
 20
-39.0
 30
0.0
 40
3.0
100
AcDbArc
 50
90.0
 51
180.0
  0
ARC
  5
20E
330
1F
100
AcDbEntity
  8
1
  6
SLD-Solid
370
    25
100
AcDbCircle
 10
41.0
 20
39.0
 30
0.0
 40
3.000000000000007
100
AcDbArc
 50
180.0
 51
270.0
  0
ARC
  5
20F
330
1F
100
AcDbEntity
  8
1
  6
SLD-Solid
370
    25
100
AcDbCircle
 10
2.25
 20
35.5
 30
0.0
 40
0.7500000000000284
100
AcDbArc
 50
270.0
 51
0.0
  0
ARC
  5
210
330
1F
100
AcDbEntity
  8
1
  6
SLD-Solid
370
    25
100
AcDbCircle
 10
2.25
 20
-35.5
 30
0.0
 40
0.7500000000000284
100
AcDbArc
 50
0.0
 51
90.0
  0
ARC
  5
211
330
1F
100
AcDbEntity
  8
1
  6
SLD-Solid
370
    25
100
AcDbCircle
 10
0.7040707856
 20
35.5
 30
0.0
 40
0.7500000000000142
100
AcDbArc
 50
240.0
 51
270.0
  0
ARC
  5
212
330
1F
100
AcDbEntity
  8
1
  6
SLD-Solid
370
    25
100
AcDbCircle
 10
0.7040707856
 20
-35.5
 30
0.0
 40
0.7500000000000079
100
AcDbArc
 50
90.0
 51
120.0
  0
ARC
  5
213
330
1F
100
AcDbEntity
  8
SK1
  6
SLD-Solid
370
    25
100
AcDbCircle
 10
-100.8
 20
19.2132836634
 30
0.0
 40
1.0
100
AcDbArc
 50
98.2977777778
 51
180.0
  0
ARC
  5
214
330
1F
100
AcDbEntity
  8
SK1
  6
SLD-Solid
370
    25
100
AcDbCircle
 10
-100.8
 20
-19.2132836634
 30
0.0
 40
1.0
100
AcDbArc
 50
180.0
 51
261.7022222222
  0
CIRCLE
  5
215
330
1F
100
AcDbEntity
  8
1
  6
SLD-Solid
370
    25
100
AcDbCircle
 10
20.5
 20
0.0
 30
0.0
 40
4.999999999999979
  0
ARC
  5
216
330
1F
100
AcDbEntity
  8
SK3
  6
SLD-Dashed
370
    18
100
AcDbCircle
 10
-20.1675716226
 20
3.6714369187
 30
0.0
 40
46.53693622382973
100
AcDbArc
 50
312.2128871681
 51
314.7071534441
  0
ARC
  5
217
330
1F
100
AcDbEntity
  8
1
  6
SLD-Dashed
370
    18
100
AcDbCircle
 10
21.6
 20
0.0
 30
0.0
 40
12.90000000000002
100
AcDbArc
 50
56.2155286622
 51
80.6538978274
  0
ARC
  5
218
330
1F
100
AcDbEntity
  8
SK3
  6
SLD-Dashed
370
    18
100
AcDbCircle
 10
42.25
 20
16.0
 30
0.0
 40
0.25
100
AcDbArc
 50
90.0
 51
180.0
  0
ARC
  5
219
330
1F
100
AcDbEntity
  8
SK3
  6
SLD-Dashed
370
    18
100
AcDbCircle
 10
42.25
 20
-16.0
 30
0.0
 40
0.25
100
AcDbArc
 50
179.9999909186
 51
270.0
  0
ARC
  5
21A
330
1F
100
AcDbEntity
  8
SK3
  6
SLD-Dashed
370
    18
100
AcDbCircle
 10
46.75
 20
16.0
 30
0.0
 40
0.25
100
AcDbArc
 50
0.0
 51
90.0
  0
ARC
  5
21B
330
1F
100
AcDbEntity
  8
SK3
  6
SLD-Dashed
370
    18
100
AcDbCircle
 10
53.0
 20
40.63
 30
0.0
 40
12.50000000000002
100
AcDbArc
 50
201.7990394367
 51
338.2648531781
  0
ARC
  5
21C
330
1F
100
AcDbEntity
  8
SK3
  6
SLD-Dashed
370
    18
100
AcDbCircle
 10
81.0
 20
40.63
 30
0.0
 40
12.50000000000004
100
AcDbArc
 50
201.7450791301
 51
338.2033030133
  0
ARC
  5
21D
330
1F
100
AcDbEntity
  8
1
370
    25
100
AcDbCircle
 10
80.9887491296
 20
76.380832056
 30
0.0
 40
42.0146757926347
100
AcDbArc
 50
253.9738208217
 51
286.0309739076
  0
ARC
  5
21E
330
1F
100
AcDbEntity
  8
1
370
    25
100
AcDbCircle
 10
53.0047968746
 20
-70.1589907626
 30
0.0
 40
35.91573725142608
100
AcDbArc
 50
72.005652766
 51
107.994347234
  0
ARC
  5
21F
330
1F
100
AcDbEntity
  8
1
370
    25
100
AcDbCircle
 10
81.0
 20
-70.0984645045
 30
0.0
 40
35.85966092375938
100
AcDbArc
 50
71.9684881132
 51
108.0315118868
  0
SPLINE
  5
220
330
1F
100
AcDbEntity
  8
1
  6
SLD-Solid
370
    25
100
AcDbSpline
210
0.0
220
0.0
230
1.0
 70
     8
 71
     3
 72
    31
 73
    27
 74
     0
 42
0.000000001
 43
0.00000001
 40
0.0
 40
0.0
 40
0.0
 40
0.0
 40
0.0156299919262212
 40
0.0312611152786784
 40
0.0469036958200521
 40
0.0625680366519816
 40
0.0936299719460831
 40
0.1247049179462762
 40
0.1558339922871995
 40
0.1869705556223734
 40
0.2497987770515782
 40
0.3121643376928026
 40
0.3743966664431062
 40
0.4372018282094792
 40
0.500017868253719
 40
0.5624441380575584
 40
0.6252062096388308
 40
0.6880556331759422
 40
0.7504022788912676
 40
0.8129367420855224
 40
0.8442931371543535
 40
0.8756529736402804
 40
0.9067355150494739
 40
0.9377975042399364
 40
0.9689206191698749
 40
1.0
 40
1.0
 40
1.0
 40
1.0
 10
30.73000000571628
 20
10.30178929462006
 30
0.0
 10
30.81802134537114
 20
10.22015632908053
 30
0.0
 10
30.99407039638292
 20
10.05688448874193
 30
0.0
 10
31.24994221856704
 20
9.80325460860599
 30
0.0
 10
31.49973199209406
 20
9.543289241803851
 30
0.0
 10
31.82233278119213
 20
9.189095771907068
 30
0.0
 10
32.20754148001888
 20
8.731716259600542
 30
0.0
 10
32.64038082634184
 20
8.159929071533172
 30
0.0
 10
33.0436827866158
 20
7.565647907623791
 30
0.0
 10
33.54253700955877
 20
6.74170223141133
 30
0.0
 10
34.08553770401328
 20
5.663359812712986
 30
0.0
 10
34.60000747093438
 20
4.307495301451185
 30
0.0
 10
34.97274499240431
 20
2.903179756705954
 30
0.0
 10
35.19930273774042
 20
1.462162433435145
 30
0.0
 10
35.27521152406339
 20
0.0026667713362363
 30
0.0
 10
35.19971876803042
 20
-1.456473360367964
 30
0.0
 10
34.97385380792757
 20
-2.899053879082757
 30
0.0
 10
34.60019116325262
 20
-4.307643948850366
 30
0.0
 10
34.08445148242138
 20
-5.665530632649393
 30
0.0
 10
33.54169256890786
 20
-6.743160098505792
 30
0.0
 10
33.0421951516439
 20
-7.568140719567837
 30
0.0
 10
32.63663444559549
 20
-8.165137557325169
 30
0.0
 10
32.20245486998522
 20
-8.7382445795244
 30
0.0
 10
31.74000865793237
 20
-9.28586044059264
 30
0.0
 10
31.251740389434
 20
-9.810606415277547
 30
0.0
 10
30.90383192133341
 20
-10.13813842116168
 30
0.0
 10
30.72999999317681
 20
-10.30178928147755
 30
0.0
  0
SPLINE
  5
221
330
1F
100
AcDbEntity
  8
1
  6
SLD-Solid
370
    25
100
AcDbSpline
210
0.0
220
0.0
230
1.0
 70
     8
 71
     3
 72
     9
 73
     5
 74
     0
 42
0.000000001
 43
0.00000001
 40
0.0
 40
0.0
 40
0.0
 40
0.0
 40
0.5024637826895187
 40
1.0
 40
1.0
 40
1.0
 40
1.0
 10
30.72999999317681
 20
-10.30178928147755
 30
0.0
 10
30.64643751666037
 20
-10.18210438560198
 30
0.0
 10
30.48013204471335
 20
-9.94390832053454
 30
0.0
 10
30.31472976609876
 20
-9.704898026376043
 30
0.0
 10
30.23243614206232
 20
-9.585981748722158
 30
0.0
  0
SPLINE
  5
222
330
1F
100
AcDbEntity
  8
1
  6
SLD-Solid
370
    25
100
AcDbSpline
210
0.0
220
0.0
230
1.0
 70
     8
 71
     3
 72
    30
 73
    26
 74
     0
 42
0.000000001
 43
0.00000001
 40
0.0
 40
0.0
 40
0.0
 40
0.0
 40
0.0114576282244755
 40
0.0313181038201724
 40
0.0625127256572066
 40
0.0936688899332087
 40
0.124868672037793
 40
0.1876770117083417
 40
0.2502254852176963
 40
0.312501658314254
 40
0.3752092577080515
 40
0.4377772188895454
 40
0.4999846765356163
 40
0.4999998180744022
 40
0.5625938520324522
 40
0.625204160364435
 40
0.6872935440917721
 40
0.7495853764249589
 40
0.8124273759707599
 40
0.8747822710141956
 40
0.9059170529111122
 40
0.937126478821433
 40
0.9684944127008414
 40
0.9885412915575778
 40
1.0
 40
1.0
 40
1.0
 40
1.0
 10
30.23243614206232
 20
-9.585981748722158
 30
0.0
 10
30.29311656482725
 20
-9.53070341505637
 30
0.0
 10
30.45897949411517
 20
-9.37960647257988
 30
0.0
 10
30.78052844537729
 20
-9.067780681364221
 30
0.0
 10
31.18643382047892
 20
-8.640701991272802
 30
0.0
 10
31.62231483241416
 20
-8.130967435528657
 30
0.0
 10
32.16960418367648
 20
-7.419422369733145
 30
0.0
 10
32.78399172231426
 20
-6.47598234588963
 30
0.0
 10
33.399178665435
 20
-5.272261863572342
 30
0.0
 10
33.88628644095425
 20
-4.00862757079568
 30
0.0
 10
34.23918025736829
 20
-2.697813378356167
 30
0.0
 10
34.45250638079664
 20
-1.355488058364898
 30
0.0
 10
34.49999425121317
 20
-0.4508112827081717
 30
0.0
 10
34.50000578179485
 20
0.4532823725366261
 30
0.0
 10
34.4520804578703
 20
1.361080916250618
 30
0.0
 10
34.23808113501996
 20
2.701902899201388
 30
0.0
 10
33.88602974625778
 20
4.00867823196161
 30
0.0
 10
33.40013787214778
 20
5.270404056300809
 30
0.0
 10
32.78549210760919
 20
6.473269308036004
 30
0.0
 10
32.17219804160473
 20
7.415451392373917
 30
0.0
 10
31.62739023321053
 20
8.12470426614741
 30
0.0
 10
31.19108359420395
 20
8.635604119382242
 30
0.0
 10
30.78333228206118
 20
9.065016586003672
 30
0.0
 10
30.45997722908161
 20
9.378695940247745
 30
0.0
 10
30.29312205115487
 20
9.53069799678759
 30
0.0
 10
30.23243615383081
 20
9.58598175430018
 30
0.0
  0
SPLINE
  5
223
330
1F
100
AcDbEntity
  8
1
  6
SLD-Solid
370
    25
100
AcDbSpline
210
0.0
220
0.0
230
1.0
 70
     8
 71
     3
 72
     9
 73
     5
 74
     0
 42
0.000000001
 43
0.00000001
 40
0.0
 40
0.0
 40
0.0
 40
0.0
 40
0.4975362207131967
 40
1.0
 40
1.0
 40
1.0
 40
1.0
 10
30.23243615383081
 20
9.58598175430018
 30
0.0
 10
30.3147297784984
 20
9.704898034196317
 30
0.0
 10
30.48013205725033
 20
9.943908331226876
 30
0.0
 10
30.64643752957564
 20
10.18210439846456
 30
0.0
 10
30.73000000571628
 20
10.30178929462006
 30
0.0
  0
SPLINE
  5
224
330
1F
100
AcDbEntity
  8
1
  6
SLD-Solid
370
    25
100
AcDbSpline
210
0.0
220
0.0
230
1.0
 70
     8
 71
     3
 72
    10
 73
     6
 74
     0
 42
0.000000001
 43
0.00000001
 40
0.0
 40
0.0
 40
0.0
 40
0.0
 40
0.5
 40
0.5
 40
1.0
 40
1.0
 40
1.0
 40
1.0
 10
26.7050000066736
 20
11.84689727604721
 30
0.0
 10
27.3122356193304
 20
11.58523063596898
 30
0.0
 10
27.91047593358606
 20
11.27265781701144
 30
0.0
 10
29.08730088927279
 20
10.52783197830897
 30
0.0
 10
29.66595732302039
 20
10.09611128144893
 30
0.0
 10
30.23243615383081
 20
9.58598175430018
 30
0.0
  0
SPLINE
  5
225
330
1F
100
AcDbEntity
  8
1
  6
SLD-Solid
370
    25
100
AcDbSpline
210
0.0
220
0.0
230
1.0
 70
     8
 71
     3
 72
    10
 73
     6
 74
     0
 42
0.000000001
 43
0.00000001
 40
0.0
 40
0.0
 40
0.0
 40
0.0
 40
0.5
 40
0.5
 40
1.0
 40
1.0
 40
1.0
 40
1.0
 10
30.23243614206232
 20
-9.585981748722158
 30
0.0
 10
29.66595731098631
 20
-10.09611127594241
 30
0.0
 10
29.08730087698509
 20
-10.52783197281641
 30
0.0
 10
27.91047592081076
 20
-11.27265781147519
 30
0.0
 10
27.31223560632121
 20
-11.58523063037417
 30
0.0
 10
26.70499999343885
 20
-11.84689727036525
 30
0.0
  0
SPLINE
  5
226
330
1F
100
AcDbEntity
  8
1
  6
SLD-Solid
370
    25
100
AcDbSpline
210
0.0
220
0.0
230
1.0
 70
     8
 71
     3
 72
     8
 73
     4
 74
     0
 42
0.000000001
 43
0.00000001
 40
0.0
 40
0.0
 40
0.0
 40
0.0
 40
0.0013188854064183
 40
0.0013188854064183
 40
0.0013188854064183
 40
0.0013188854064183
 10
16.23001969424184
 20
-12.9
 30
0.0
 10
16.04753937863331
 20
-13.21963364267904
 30
0.0
 10
15.86418062995506
 20
-13.53894782528737
 30
0.0
 10
15.68000000000002
 20
-13.85795803413958
 30
0.0
  0
SPLINE
  5
227
330
1F
100
AcDbEntity
  8
1
  6
SLD-Solid
370
    25
100
AcDbSpline
210
0.0
220
0.0
230
1.0
 70
     8
 71
     3
 72
    10
 73
     6
 74
     0
 42
0.000000001
 43
0.00000001
 40
0.0
 40
0.0
 40
0.0
 40
0.0
 40
0.5
 40
0.5
 40
1.0
 40
1.0
 40
1.0
 40
1.0
 10
3.750000000000072
 20
-13.85795803413965
 30
0.0
 10
3.55365045915068
 20
-13.85795803413965
 30
0.0
 10
3.358510005927586
 20
-13.8355457528812
 30
0.0
 10
3.080829822292671
 20
-13.75855131940353
 30
0.0
 10
3.000000000000044
 20
-13.70444328602565
 30
0.0
 10
3.000000000000044
 20
-13.64999999999998
 30
0.0
  0
SPLINE
  5
228
330
1F
100
AcDbEntity
  8
1
  6
SLD-Solid
370
    25
100
AcDbSpline
210
0.0
220
0.0
230
1.0
 70
     8
 71
     3
 72
    10
 73
     6
 74
     0
 42
0.000000001
 43
0.00000001
 40
0.0
 40
0.0
 40
0.0
 40
0.0
 40
0.5
 40
0.5
 40
1.0
 40
1.0
 40
1.0
 40
1.0
 10
3.000000000000024
 20
13.65
 30
0.0
 10
3.000000000000024
 20
13.70444328602569
 30
0.0
 10
3.080829822292679
 20
13.75855131940356
 30
0.0
 10
3.358510005927567
 20
13.83554575288123
 30
0.0
 10
3.553650459150635
 20
13.85795803413967
 30
0.0
 10
3.749999999999998
 20
13.85795803413965
 30
0.0
  0
SPLINE
  5
229
330
1F
100
AcDbEntity
  8
1
  6
SLD-Solid
370
    25
100
AcDbSpline
210
0.0
220
0.0
230
1.0
 70
     8
 71
     3
 72
     8
 73
     4
 74
     0
 42
0.000000001
 43
0.00000001
 40
0.0
 40
0.0
 40
0.0
 40
0.0
 40
0.0013188854064184
 40
0.0013188854064184
 40
0.0013188854064184
 40
0.0013188854064184
 10
15.67999999999999
 20
13.85795803413965
 30
0.0
 10
15.86418062995507
 20
13.53894782528744
 30
0.0
 10
16.04753937863336
 20
13.21963364267906
 30
0.0
 10
16.23001969424191
 20
12.89999999999999
 30
0.0
  0
SPLINE
  5
22A
330
1F
100
AcDbEntity
  8
1
  6
SLD-Solid
370
    25
100
AcDbSpline
210
0.0
220
0.0
230
1.0
 70
     8
 71
     3
 72
    32
 73
    28
 74
     0
 42
0.000000001
 43
0.00000001
 40
0.5000000000000063
 40
0.5000000000000063
 40
0.5000000000000063
 40
0.5000000000000063
 40
0.5625000000000063
 40
0.5625000000000063
 40
0.6250000000000062
 40
0.6250000000000062
 40
0.6562500000000057
 40
0.6562500000000057
 40
0.6875000000000051
 40
0.6875000000000051
 40
0.7187500000000046
 40
0.7187500000000046
 40
0.750000000000004
 40
0.750000000000004
 40
0.7812500000000036
 40
0.7812500000000036
 40
0.812500000000003
 40
0.812500000000003
 40
0.8437500000000024
 40
0.8437500000000024
 40
0.8750000000000019
 40
0.8750000000000019
 40
0.9062500000000013
 40
0.9062500000000013
 40
0.9375000000000008
 40
0.9375000000000008
 40
1.0
 40
1.0
 40
1.0
 40
1.0
 10
11.1007114624939
 20
46.24293993692542
 30
0.0
 10
10.83966036263011
 20
46.24290468071936
 30
0.0
 10
10.57654432887646
 20
46.2628313006455
 30
0.0
 10
10.09503969318679
 20
46.3378480575818
 30
0.0
 10
9.871736797758949
 20
46.3936862129957
 30
0.0
 10
9.59486911967225
 20
46.49555476197276
 30
0.0
 10
9.510355808027906
 20
46.53319066240618
 30
0.0
 10
9.364898225395866
 20
46.61211139901829
 30
0.0
 10
9.303391160574353
 20
46.65344765224853
 30
0.0
 10
9.202887905830876
 20
46.73965007660369
 30
0.0
 10
9.164237099226009
 20
46.78455822929223
 30
0.0
 10
9.113189380564462
 20
46.87388294420761
 30
0.0
 10
9.100134371086948
 20
46.91878509458411
 30
0.0
 10
9.099867672658386
 20
47.00902982582042
 30
0.0
 10
9.11274552905142
 20
47.05316763831315
 30
0.0
 10
9.163318778191169
 20
47.1387265703648
 30
0.0
 10
9.201564549821613
 20
47.1806977132402
 30
0.0
 10
9.301851471514272
 20
47.26018357839141
 30
0.0
 10
9.3632130607801
 20
47.29742937389354
 30
0.0
 10
9.508037288393709
 20
47.36723524195037
 30
0.0
 10
9.592426282888006
 20
47.39998657776515
 30
0.0
 10
9.776893191111705
 20
47.45826780616676
 30
0.0
 10
9.877477150479347
 20
47.48415678629295
 30
0.0
 10
10.09565052704876
 20
47.52959536402751
 30
0.0
 10
10.21229123388064
 20
47.54884237695549
 30
0.0
 10
10.57316681370778
 20
47.59491735537487
 30
0.0
 10
10.83571231733926
 20
47.61102046218486
 30
0.0
 10
11.10000000000001
 20
47.61102046218489
 30
0.0
  0
SPLINE
  5
22B
330
1F
100
AcDbEntity
  8
1
  6
SLD-Solid
370
    25
100
AcDbSpline
210
0.0
220
0.0
230
1.0
 70
     8
 71
     3
 72
    34
 73
    30
 74
     0
 42
0.000000001
 43
0.00000001
 40
0.0
 40
0.0
 40
0.0
 40
0.0
 40
0.0312500000000007
 40
0.0312500000000007
 40
0.0625000000000013
 40
0.0625000000000013
 40
0.093750000000002
 40
0.093750000000002
 40
0.1250000000000027
 40
0.1250000000000027
 40
0.1875000000000038
 40
0.1875000000000038
 40
0.250000000000005
 40
0.250000000000005
 40
0.2812500000000052
 40
0.2812500000000052
 40
0.3125000000000053
 40
0.3125000000000053
 40
0.3437500000000055
 40
0.3437500000000055
 40
0.3750000000000057
 40
0.3750000000000057
 40
0.4062500000000059
 40
0.4062500000000059
 40
0.4375000000000061
 40
0.4375000000000061
 40
0.4687500000000062
 40
0.4687500000000062
 40
0.5000000000000063
 40
0.5000000000000063
 40
0.5000000000000063
 40
0.5000000000000063
 10
11.10000000000001
 20
47.61102046218489
 30
0.0
 10
11.23214384133039
 20
47.61102046218489
 30
0.0
 10
11.36207683011831
 20
47.60707775994189
 30
0.0
 10
11.61770274340582
 20
47.59157583547412
 30
0.0
 10
11.74472034796749
 20
47.57982745159403
 30
0.0
 10
11.98691872226759
 20
47.5489813390642
 30
0.0
 10
12.10178825693585
 20
47.53003810633189
 30
0.0
 10
12.3191838976514
 20
47.48494043179044
 30
0.0
 10
12.42210399098251
 20
47.45854159182393
 30
0.0
 10
12.69882146131233
 20
47.37124279569227
 30
0.0
 10
12.84782549231941
 20
47.29985068225716
 30
0.0
 10
13.04732370421208
 20
47.14216623040049
 30
0.0
 10
13.09986054057429
 20
47.05418872376661
 30
0.0
 10
13.10006930284503
 20
46.92035145215261
 30
0.0
 10
13.08708888085486
 20
46.87454231371451
 30
0.0
 10
13.0360710029948
 20
46.78492686228006
 30
0.0
 10
12.99832227536037
 20
46.74090637299761
 30
0.0
 10
12.89820560779056
 20
46.65460492149248
 30
0.0
 10
12.83559212600237
 20
46.61244003049264
 30
0.0
 10
12.69084705245929
 20
46.53378144217986
 30
0.0
 10
12.60821628179987
 20
46.49678850176285
 30
0.0
 10
12.42162673177079
 20
46.42794131645881
 30
0.0
 10
12.32044387441546
 20
46.39713531384614
 30
0.0
 10
12.10388934784858
 20
46.3430490010774
 30
0.0
 10
11.98703949363669
 20
46.31952416888133
 30
0.0
 10
11.74469982813359
 20
46.28167360529466
 30
0.0
 10
11.62003428466961
 20
46.26734814958861
 30
0.0
 10
11.36379198463244
 20
46.24794534725476
 30
0.0
 10
11.2312370124258
 20
46.24295756502844
 30
0.0
 10
11.1007114624939
 20
46.24293993692542
 30
0.0
  0
SPLINE
  5
22C
330
1F
100
AcDbEntity
  8
1
  6
SLD-Solid
370
    25
100
AcDbSpline
210
0.0
220
0.0
230
1.0
 70
    24
 71
     3
 72
     8
 73
     4
 74
     0
 42
0.000000001
 43
0.00000001
 40
0.0
 40
0.0
 40
0.0
 40
0.0
 40
1.0
 40
1.0
 40
1.0
 40
1.0
 10
19.705
 20
-12.9
 30
0.0
 10
18.55198828581107
 20
-12.9
 30
0.0
 10
17.39299087975338
 20
-12.9
 30
0.0
 10
16.23001969424168
 20
-12.9
 30
0.0
  0
SPLINE
  5
22D
330
1F
100
AcDbEntity
  8
1
  6
SLD-Solid
370
    25
100
AcDbSpline
210
0.0
220
0.0
230
1.0
 70
    24
 71
     3
 72
     8
 73
     4
 74
     0
 42
0.000000001
 43
0.00000001
 40
0.0
 40
0.0
 40
0.0
 40
0.0
 40
1.0
 40
1.0
 40
1.0
 40
1.0
 10
16.23001969424191
 20
12.89999999999999
 30
0.0
 10
17.39299174097689
 20
12.89999999999998
 30
0.0
 10
18.55200333802345
 20
12.89999999999998
 30
0.0
 10
19.705
 20
12.89999999999999
 30
0.0
  0
SPLINE
  5
22E
330
1F
100
AcDbEntity
  8
1
  6
SLD-Solid
370
    25
100
AcDbSpline
210
0.0
220
0.0
230
1.0
 70
     8
 71
     3
 72
    10
 73
     6
 74
     0
 42
0.000000001
 43
0.00000001
 40
0.0
 40
0.0
 40
0.0
 40
0.0
 40
0.5
 40
0.5
 40
1.0
 40
1.0
 40
1.0
 40
1.0
 10
26.3299999934524
 20
-12.00154573104957
 30
0.0
 10
25.57238485273903
 20
-12.30013390420796
 30
0.0
 10
24.79922683066333
 20
-12.52272939611592
 30
0.0
 10
23.22275584584911
 20
-12.82265445712155
 30
0.0
 10
22.41944728699097
 20
-12.89999999732666
 30
0.0
 10
21.5999999934654
 20
-12.89999999733851
 30
0.0
  0
SPLINE
  5
22F
330
1F
100
AcDbEntity
  8
1
  6
SLD-Solid
370
    25
100
AcDbSpline
210
0.0
220
0.0
230
1.0
 70
     8
 71
     3
 72
    10
 73
     6
 74
     0
 42
0.000000001
 43
0.00000001
 40
0.0
 40
0.0
 40
0.0
 40
0.0
 40
0.5
 40
0.5
 40
1.0
 40
1.0
 40
1.0
 40
1.0
 10
21.60000000624236
 20
12.90000000190705
 30
0.0
 10
22.41944729976793
 20
12.90000000190705
 30
0.0
 10
23.2227558586272
 20
12.82265446171359
 30
0.0
 10
24.79922684344575
 20
12.52272940073075
 30
0.0
 10
25.5723848655247
 20
12.30013390883396
 30
0.0
 10
26.33000000624235
 20
12.00154573568653
 30
0.0
  0
SPLINE
  5
230
330
1F
100
AcDbEntity
  8
1
  6
SLD-Solid
370
    25
100
AcDbSpline
210
0.0
220
0.0
230
1.0
 70
     8
 71
     3
 72
     8
 73
     4
 74
     0
 42
0.000000001
 43
0.00000001
 40
0.0
 40
0.0
 40
0.0
 40
0.0
 40
0.5
 40
0.5
 40
0.5
 40
0.5
 10
26.33000000624235
 20
12.00154573568653
 30
0.0
 10
26.43105475233061
 20
11.96171845346804
 30
0.0
 10
26.52423862347165
 20
11.92339812800365
 30
0.0
 10
26.59292328081213
 20
11.89456671004147
 30
0.0
  0
SPLINE
  5
231
330
1F
100
AcDbEntity
  8
1
  6
SLD-Solid
370
    25
100
AcDbSpline
210
0.0
220
0.0
230
1.0
 70
     8
 71
     2
 72
     6
 73
     3
 74
     0
 42
0.000000001
 43
0.00000001
 40
0.5
 40
0.5
 40
0.5
 40
1.0
 40
1.0
 40
1.0
 10
26.59292328081213
 20
11.89456671004147
 30
0.0
 10
26.66160793841344
 20
11.86573529270073
 30
0.0
 10
26.7050000066736
 20
11.84689727604721
 30
0.0
  0
SPLINE
  5
232
330
1F
100
AcDbEntity
  8
1
  6
SLD-Solid
370
    25
100
AcDbSpline
210
0.0
220
0.0
230
1.0
 70
     8
 71
     2
 72
     6
 73
     3
 74
     0
 42
0.000000001
 43
0.00000001
 40
0.0
 40
0.0
 40
0.0
 40
0.5
 40
0.5
 40
0.5
 10
26.70499999343885
 20
-11.84689727036525
 30
0.0
 10
26.66092466365944
 20
-11.86602408943853
 30
0.0
 10
26.59262757453635
 20
-11.8946908228664
 30
0.0
  0
SPLINE
  5
233
330
1F
100
AcDbEntity
  8
1
  6
SLD-Solid
370
    25
100
AcDbSpline
210
0.0
220
0.0
230
1.0
 70
     8
 71
     3
 72
     8
 73
     4
 74
     0
 42
0.000000001
 43
0.00000001
 40
0.5
 40
0.5
 40
0.5
 40
0.5
 40
1.0
 40
1.0
 40
1.0
 40
1.0
 10
26.59262757453635
 20
-11.8946908228664
 30
0.0
 10
26.52433048540635
 20
-11.92335755627777
 30
0.0
 10
26.43081087060318
 20
-11.96181456145572
 30
0.0
 10
26.32999999345239
 20
-12.00154573104957
 30
0.0
  0
SPLINE
  5
234
330
1F
100
AcDbEntity
  8
1
  6
SLD-Solid
370
    25
100
AcDbSpline
210
0.0
220
0.0
230
1.0
 70
    24
 71
     2
 72
     6
 73
     3
 74
     0
 42
0.000000001
 43
0.00000001
 40
0.0
 40
0.0
 40
0.0
 40
0.5
 40
0.5
 40
0.5
 10
19.705
 20
12.89999999999999
 30
0.0
 10
19.74338373915062
 20
12.89999999999999
 30
0.0
 10
19.8114393716697
 20
12.9
 30
0.0
  0
SPLINE
  5
235
330
1F
100
AcDbEntity
  8
1
  6
SLD-Solid
370
    25
100
AcDbSpline
210
0.0
220
0.0
230
1.0
 70
    24
 71
     3
 72
     8
 73
     4
 74
     0
 42
0.000000001
 43
0.00000001
 40
0.5
 40
0.5
 40
0.5
 40
0.5
 40
1.0
 40
1.0
 40
1.0
 40
1.0
 10
19.8114393716697
 20
12.9
 30
0.0
 10
19.87949500418877
 20
12.90000000048326
 30
0.0
 10
19.97908463495331
 20
12.90000000119047
 30
0.0
 10
20.08000000000003
 20
12.90000000190705
 30
0.0
  0
SPLINE
  5
236
330
1F
100
AcDbEntity
  8
1
  6
SLD-Solid
370
    25
100
AcDbSpline
210
0.0
220
0.0
230
1.0
 70
    24
 71
     3
 72
     8
 73
     4
 74
     0
 42
0.000000001
 43
0.00000001
 40
0.0
 40
0.0
 40
0.0
 40
0.0
 40
0.5
 40
0.5
 40
0.5
 40
0.5
 10
20.08000000000003
 20
-12.89999999733851
 30
0.0
 10
19.97988956666459
 20
-12.89999999833065
 30
0.0
 10
19.87972107531742
 20
-12.8999999993234
 30
0.0
 10
19.81145023067704
 20
-12.9
 30
0.0
  0
SPLINE
  5
237
330
1F
100
AcDbEntity
  8
1
  6
SLD-Solid
370
    25
100
AcDbSpline
210
0.0
220
0.0
230
1.0
 70
    24
 71
     2
 72
     6
 73
     3
 74
     0
 42
0.000000001
 43
0.00000001
 40
0.5
 40
0.5
 40
0.5
 40
1.0
 40
1.0
 40
1.0
 10
19.81145023067704
 20
-12.9
 30
0.0
 10
19.74317938603663
 20
-12.90000000000002
 30
0.0
 10
19.705
 20
-12.9
 30
0.0
  0
SPLINE
  5
238
330
1F
100
AcDbEntity
  8
1
  6
SLD-Solid
370
    25
100
AcDbSpline
210
0.0
220
0.0
230
1.0
 70
     8
 71
     3
 72
    26
 73
    22
 74
     0
 42
0.000000001
 43
0.00000001
 40
0.0
 40
0.0
 40
0.0
 40
0.0
 40
0.0478880793756439
 40
0.0972407269675165
 40
0.1451161771690311
 40
0.1943158608080757
 40
0.2435339655324046
 40
0.2939999114487242
 40
0.3467230505519719
 40
0.4008194250543034
 40
0.4564569516801175
 40
0.5136295745764368
 40
0.5706292581432935
 40
0.6292873997382107
 40
0.6861072844517586
 40
0.7446829357014808
 40
0.7995637382519991
 40
0.8562631775038636
 40
0.9074612804165647
 40
0.9603700197827152
 40
1.0
 40
1.0
 40
1.0
 40
1.0
 10
64.61090435664912
 20
36.00000000000003
 30
0.0
 10
64.5837922566541
 20
35.99220592398272
 30
0.0
 10
64.52873888329884
 20
35.97637940456821
 30
0.0
 10
64.08734785172764
 20
35.85243344746107
 30
0.0
 10
63.39419274461954
 20
35.66784754087539
 30
0.0
 10
62.45214988725255
 20
35.43581241617873
 30
0.0
 10
61.27439519885157
 20
35.17680410056351
 30
0.0
 10
59.87488607703233
 20
34.91330397797325
 30
0.0
 10
58.26402505709648
 20
34.66994902847791
 30
0.0
 10
56.46742327351055
 20
34.47454944992948
 30
0.0
 10
54.530792942222
 20
34.3535112544347
 30
0.0
 10
52.51854923482184
 20
34.32688296404898
 30
0.0
 10
50.48405913593966
 20
34.4021670135687
 30
0.0
 10
48.52368190728272
 20
34.57256639390538
 30
0.0
 10
46.67548777201939
 20
34.82055552182732
 30
0.0
 10
45.04897080674465
 20
35.10963360140963
 30
0.0
 10
43.65969361861526
 20
35.40828814890051
 30
0.0
 10
42.59613082317483
 20
35.66978676001767
 30
0.0
 10
41.85433203871765
 20
35.86833528383236
 30
0.0
 10
41.44494824906368
 20
35.98397271017456
 30
0.0
 10
41.41950250564945
 20
35.99130424062344
 30
0.0
 10
41.40860529081157
 20
35.99444399021107
 30
0.0
  0
SPLINE
  5
239
330
1F
100
AcDbEntity
  8
1
  6
SLD-Solid
370
    25
100
AcDbSpline
210
0.0
220
0.0
230
1.0
 70
     8
 71
     3
 72
    14
 73
    10
 74
     0
 42
0.000000001
 43
0.00000001
 40
0.0
 40
0.0
 40
0.0
 40
0.0
 40
0.2500000000000001
 40
0.2500000000000001
 40
0.5
 40
0.5
 40
0.75
 40
0.75
 40
1.0
 40
1.0
 40
1.0
 40
1.0
 10
3.000000000000044
 20
-3.762977544445732
 30
0.0
 10
3.000000000000044
 20
-3.135929825443071
 30
0.0
 10
2.991678313258098
 20
-2.508737538536393
 30
0.0
 10
2.978060621190673
 20
-1.254405528155686
 30
0.0
 10
2.972842150110358
 20
-0.627275587815064
 30
0.0
 10
2.972841079462676
 20
0.6270577910340649
 30
0.0
 10
2.978059537047995
 20
1.25430140957606
 30
0.0
 10
2.991678476802817
 20
2.508756860119407
 30
0.0
 10
3.000000000000016
 20
3.136051595231441
 30
0.0
 10
3.000000000000016
 20
3.762977544445746
 30
0.0
  0
SPLINE
  5
23A
330
1F
100
AcDbEntity
  8
1
  6
SLD-Dashed
370
    18
100
AcDbSpline
210
0.0
220
0.0
230
1.0
 70
     8
 71
     3
 72
    31
 73
    27
 74
     0
 42
0.000000001
 43
0.00000001
 40
0.0
 40
0.0
 40
0.0
 40
0.0
 40
0.0155398018584672
 40
0.0310809192630539
 40
0.0466335010157048
 40
0.0622076735028182
 40
0.0932675543975117
 40
0.1243522097123284
 40
0.1557099214756085
 40
0.1870684468948949
 40
0.2496029157489784
 40
0.3119495670929556
 40
0.3747989962964342
 40
0.4375610735446001
 40
0.4999873489798085
 40
0.5628033946911836
 40
0.6256085621204988
 40
0.6878408964856552
 40
0.7502064627628069
 40
0.8130346898669383
 40
0.8441691395483855
 40
0.8753003331850167
 40
0.906373169520281
 40
0.9374372200973836
 40
0.9687404587451595
 40
1.0
 40
1.0
 40
1.0
 40
1.0
 10
30.72999999317681
 20
-10.30178928147755
 30
0.0
 10
30.81751693180958
 20
-10.22063125536982
 30
0.0
 10
30.99255821795773
 20
-10.05830833259534
 30
0.0
 10
31.24701472777967
 20
-9.806199724256983
 30
0.0
 10
31.49546285806489
 20
-9.547824047555942
 30
0.0
 10
31.81730805249984
 20
-9.194838018442931
 30
0.0
 10
32.20237188965745
 20
-8.738168862532266
 30
0.0
 10
32.63663513888783
 20
-8.16518792671464
 30
0.0
 10
33.04218110090827
 20
-7.568148239305357
 30
0.0
 10
33.54168818864827
 20
-6.743178388088272
 30
0.0
 10
34.08445048211149
 20
-5.665529414234642
 30
0.0
 10
34.60019145356556
 20
-4.307644281853484
 30
0.0
 10
34.97385375297358
 20
-2.899053792237018
 30
0.0
 10
35.1997188054839
 20
-1.456473386798281
 30
0.0
 10
35.2752115436576
 20
0.0026667840337877
 30
0.0
 10
35.19930273880344
 20
1.462162409227322
 30
0.0
 10
34.97274508318109
 20
2.903179847410633
 30
0.0
 10
34.60000721780342
 20
4.307494978717359
 30
0.0
 10
34.08553873055263
 20
5.663361038385509
 30
0.0
 10
33.54254137594771
 20
6.741684018159416
 30
0.0
 10
33.04369673573075
 20
7.565640392198363
 30
0.0
 10
32.64038026589198
 20
8.1598789369784
 30
0.0
 10
32.20762441072557
 20
8.731792010966688
 30
0.0
 10
31.74464026637024
 20
9.280690992081363
 30
0.0
 10
31.25472218574761
 20
9.80771471936124
 30
0.0
 10
30.90482593659995
 20
10.1371744739917
 30
0.0
 10
30.73000000571628
 20
10.30178929462006
 30
0.0
  0
SPLINE
  5
23B
330
1F
100
AcDbEntity
  8
SK3
  6
SLD-Dashed
370
    18
100
AcDbSpline
210
0.0
220
0.0
230
1.0
 70
     8
 71
     3
 72
    14
 73
    10
 74
     0
 42
0.000000001
 43
0.00000001
 40
0.0
 40
0.0
 40
0.0
 40
0.0
 40
0.25
 40
0.25
 40
0.5
 40
0.5
 40
0.75
 40
0.75
 40
1.0
 40
1.0
 40
1.0
 40
1.0
 10
11.10000000000004
 20
36.24434567831253
 30
0.0
 10
10.93010255201388
 20
36.3690790053232
 30
0.0
 10
10.77913223948143
 20
36.49899170200795
 30
0.0
 10
10.49714438169094
 20
36.76099286749931
 30
0.0
 10
10.36679773006399
 20
36.89280358391543
 30
0.0
 10
10.12677721550009
 20
37.14140646422413
 30
0.0
 10
10.01579455691605
 20
37.25974951232748
 30
0.0
 10
9.80904830779726
 20
37.4734189335295
 30
0.0
 10
9.713680237640506
 20
37.56868891722047
 30
0.0
 10
9.633636251301786
 20
37.63445251731464
 30
0.0
  0
SPLINE
  5
23C
330
1F
100
AcDbEntity
  8
SK3
  6
SLD-Dashed
370
    18
100
AcDbSpline
210
0.0
220
0.0
230
1.0
 70
     8
 71
     3
 72
    34
 73
    30
 74
     0
 42
0.000000001
 43
0.00000001
 40
0.5000000000000002
 40
0.5000000000000002
 40
0.5000000000000002
 40
0.5000000000000002
 40
0.5312500000000003
 40
0.5312500000000003
 40
0.5625000000000004
 40
0.5625000000000004
 40
0.5937500000000006
 40
0.5937500000000006
 40
0.6250000000000007
 40
0.6250000000000007
 40
0.6562500000000008
 40
0.6562500000000008
 40
0.6875000000000009
 40
0.6875000000000009
 40
0.7500000000000007
 40
0.7500000000000007
 40
0.8125000000000013
 40
0.8125000000000013
 40
0.8437500000000011
 40
0.8437500000000011
 40
0.8750000000000009
 40
0.8750000000000009
 40
0.9062500000000007
 40
0.9062500000000007
 40
0.9375000000000004
 40
0.9375000000000004
 40
0.9687500000000002
 40
0.9687500000000002
 40
1.0
 40
1.0
 40
1.0
 40
1.0
 10
9.613805742161711
 20
32.06281097659473
 30
0.0
 10
9.668881160736289
 20
32.10309805177793
 30
0.0
 10
9.738179283156637
 20
32.14073483518616
 30
0.0
 10
9.898515798149973
 20
32.20110344536894
 30
0.0
 10
9.988902763524528
 20
32.22393554112017
 30
0.0
 10
10.18945694949211
 20
32.24641795601578
 30
0.0
 10
10.29767837600208
 20
32.24530201799809
 30
0.0
 10
10.51807526498122
 20
32.21214772693891
 30
0.0
 10
10.63291658596824
 20
32.17923875118971
 30
0.0
 10
10.85319871140988
 20
32.08500305479481
 30
0.0
 10
10.96108094611141
 20
32.02309673503586
 30
0.0
 10
11.16468749579594
 20
31.88015690790777
 30
0.0
 10
11.26027842069086
 20
31.79975923962913
 30
0.0
 10
11.53398297450223
 20
31.53947932429292
 30
0.0
 10
11.69837034356697
 20
31.34149906618455
 30
0.0
 10
11.99694861504766
 20
30.93451949723769
 30
0.0
 10
12.13420875119768
 20
30.72108106609184
 30
0.0
 10
12.32260730605758
 20
30.39792759977522
 30
0.0
 10
12.38188352391459
 20
30.29060318554876
 30
0.0
 10
12.49280294837554
 20
30.07810222598031
 30
0.0
 10
12.54469006353047
 20
29.972328755619
 30
0.0
 10
12.63491931900843
 20
29.77290420087407
 30
0.0
 10
12.6742907211965
 20
29.67687735577869
 30
0.0
 10
12.73086568636479
 20
29.51167662882576
 30
0.0
 10
12.74803399215493
 20
29.44172730744222
 30
0.0
 10
12.75163319740259
 20
29.34952447988207
 30
0.0
 10
12.73806993948381
 20
29.32639093213395
 30
0.0
 10
12.68670841969952
 20
29.32396546256977
 30
0.0
 10
12.6496999389252
 20
29.34320004830024
 30
0.0
 10
12.60540931107558
 20
29.37571682493556
 30
0.0
  0
SPLINE
  5
23D
330
1F
100
AcDbEntity
  8
SK3
  6
SLD-Dashed
370
    18
100
AcDbSpline
210
0.0
220
0.0
230
1.0
 70
     8
 71
     3
 72
    26
 73
    22
 74
     0
 42
0.000000001
 43
0.00000001
 40
0.0
 40
0.0
 40
0.0
 40
0.0
 40
0.0625
 40
0.0625
 40
0.125
 40
0.125
 40
0.1874999999999999
 40
0.1874999999999999
 40
0.2499999999999999
 40
0.2499999999999999
 40
0.2812500000000003
 40
0.2812500000000003
 40
0.3125000000000007
 40
0.3125000000000007
 40
0.3750000000000003
 40
0.3750000000000003
 40
0.4375
 40
0.4375
 40
0.4687500000000001
 40
0.4687500000000001
 40
0.5000000000000002
 40
0.5000000000000002
 40
0.5000000000000002
 40
0.5000000000000002
 10
12.60540931107557
 20
29.37571682493557
 30
0.0
 10
12.51682805537632
 20
29.44075037820623
 30
0.0
 10
12.40700682775381
 20
29.5505161196287
 30
0.0
 10
12.1591993275916
 20
29.80687692944001
 30
0.0
 10
12.02334522926921
 20
29.95248630818575
 30
0.0
 10
11.72814013646128
 20
30.25403810358311
 30
0.0
 10
11.56591385222427
 20
30.41343063102242
 30
0.0
 10
11.20504729019513
 20
30.72369135776144
 30
0.0
 10
11.00228334192556
 20
30.87603903040812
 30
0.0
 10
10.67487000905189
 20
31.07115716362115
 30
0.0
 10
10.56031472788944
 20
31.13155590588757
 30
0.0
 10
10.33896153134628
 20
31.23732451856057
 30
0.0
 10
10.22949961952685
 20
31.28426500057828
 30
0.0
 10
9.922578697971348
 20
31.4130302798277
 30
0.0
 10
9.751646578307223
 20
31.48319067939764
 30
0.0
 10
9.517451961566225
 20
31.63426232662332
 30
0.0
 10
9.453612055377953
 20
31.71535651469055
 30
0.0
 10
9.448421112414312
 20
31.84603582485068
 30
0.0
 10
9.461345898652649
 20
31.89014951197766
 30
0.0
 10
9.51639061562104
 20
31.97856128695242
 30
0.0
 10
9.558730323587117
 20
32.02252390141155
 30
0.0
 10
9.613805742161711
 20
32.06281097659473
 30
0.0
  0
SPLINE
  5
23E
330
1F
100
AcDbEntity
  8
SK3
  6
SLD-Dashed
370
    18
100
AcDbSpline
210
0.0
220
0.0
230
1.0
 70
     8
 71
     3
 72
    12
 73
     8
 74
     0
 42
0.000000001
 43
0.00000001
 40
0.0
 40
0.0
 40
0.0
 40
0.0
 40
0.2069995423152731
 40
0.4195202923579253
 40
0.626679087057303
 40
0.8410099389317156
 40
1.0
 40
1.0
 40
1.0
 40
1.0
 10
46.75000000000521
 20
-14.90385856080749
 30
0.0
 10
46.41505810508469
 20
-15.05016851451267
 30
0.0
 10
45.73624055743063
 20
-15.34669088295239
 30
0.0
 10
44.9529829642699
 20
-15.73954444320265
 30
0.0
 10
44.37295040020319
 20
-16.04459265838234
 30
0.0
 10
44.04525519224227
 20
-16.22491398993184
 30
0.0
 10
44.02358717083703
 20
-16.23694381843595
 30
0.0
 10
44.01435918513623
 20
-16.24206708665428
 30
0.0
  0
SPLINE
  5
23F
330
1F
100
AcDbEntity
  8
SK3
  6
SLD-Dashed
370
    18
100
AcDbSpline
210
0.0
220
0.0
230
1.0
 70
     8
 71
     3
 72
    12
 73
     8
 74
     0
 42
0.000000001
 43
0.00000001
 40
0.0
 40
0.0
 40
0.0
 40
0.0
 40
0.2499999999999983
 40
0.2499999999999983
 40
0.4999999999999966
 40
0.4999999999999966
 40
1.0
 40
1.0
 40
1.0
 40
1.0
 10
47.00000000000001
 20
-14.52583904633396
 30
0.0
 10
47.00000000000001
 20
-14.57128449308119
 30
0.0
 10
46.98998709966869
 20
-14.61590222361239
 30
0.0
 10
46.95993338294586
 20
-14.69639839189851
 30
0.0
 10
46.93963572243798
 20
-14.73303392762238
 30
0.0
 10
46.87019589196692
 20
-14.82960122922389
 30
0.0
 10
46.81251789039394
 20
-14.87764140279058
 30
0.0
 10
46.7500000000052
 20
-14.90385856080749
 30
0.0
  0
SPLINE
  5
240
330
1F
100
AcDbEntity
  8
SK3
  6
SLD-Dashed
370
    18
100
AcDbSpline
210
0.0
220
0.0
230
1.0
 70
     8
 71
     3
 72
    22
 73
    18
 74
     0
 42
0.000000001
 43
0.00000001
 40
0.0
 40
0.0
 40
0.0
 40
0.0
 40
0.0438760079868091
 40
0.1099045384441262
 40
0.1722371206903447
 40
0.2361021940302738
 40
0.3041571600673907
 40
0.3738030397772236
 40
0.4495327799747567
 40
0.5275246058553275
 40
0.5892221911804499
 40
0.6526305074646424
 40
0.714376682904093
 40
0.7780952322881245
 40
0.8374535905943948
 40
0.8981685512407698
 40
1.0
 40
1.0
 40
1.0
 40
1.0
 10
61.97796210416716
 20
-15.98762068160194
 30
0.0
 10
61.97737352694175
 20
-15.98727671255379
 30
0.0
 10
61.97589920620776
 20
-15.98641510820079
 30
0.0
 10
61.73609062249445
 20
-15.8521693050649
 30
0.0
 10
61.30627594643099
 20
-15.61837045570884
 30
0.0
 10
60.6910386765102
 20
-15.29800938560792
 30
0.0
 10
59.8866681209335
 20
-14.90682772307839
 30
0.0
 10
58.86962967371871
 20
-14.46061486697928
 30
0.0
 10
57.64278808808827
 20
-14.00071158247249
 30
0.0
 10
56.31261893432453
 20
-13.61575489489691
 30
0.0
 10
54.95825618303545
 20
-13.35274222795533
 30
0.0
 10
53.65357752557405
 20
-13.22269482216806
 30
0.0
 10
52.31449618261096
 20
-13.22422733862022
 30
0.0
 10
51.02442496173514
 20
-13.35594230209227
 30
0.0
 10
49.80163992246427
 20
-13.59459405480373
 30
0.0
 10
48.40827605194213
 20
-13.97640135393424
 30
0.0
 10
47.54243116884919
 20
-14.31420999158495
 30
0.0
 10
47.00000000000003
 20
-14.52583904633396
 30
0.0
  0
SPLINE
  5
241
330
1F
100
AcDbEntity
  8
SK3
  6
SLD-Dashed
370
    18
100
AcDbSpline
210
0.0
220
0.0
230
1.0
 70
     8
 71
     3
 72
    27
 73
    23
 74
     0
 42
0.000000001
 43
0.00000001
 40
0.0
 40
0.0
 40
0.0
 40
0.0
 40
0.0475901636274015
 40
0.0966789903363067
 40
0.1442419349855039
 40
0.1930197876299943
 40
0.2440181677413633
 40
0.29623152512822
 40
0.3523068657577814
 40
0.4102079809612504
 40
0.4542660887545738
 40
0.4995691294739661
 40
0.5436480304740955
 40
0.5890225057861834
 40
0.6332213921175244
 40
0.678389911949764
 40
0.7294544285335962
 40
0.7817249793190176
 40
0.8379774557082317
 40
0.8960967019534671
 40
0.9482554049907188
 40
1.0
 40
1.0
 40
1.0
 40
1.0
 10
90.00000000000004
 20
-15.99999999999999
 30
0.0
 10
89.97959657737263
 20
-15.98847794951808
 30
0.0
 10
89.93814720740477
 20
-15.96507100736266
 30
0.0
 10
89.60738445854321
 20
-15.78116608451574
 30
0.0
 10
89.09234969797426
 20
-15.50484415477768
 30
0.0
 10
88.38701137030363
 20
-15.14619835424259
 30
0.0
 10
87.49041295444641
 20
-14.72624961791949
 30
0.0
 10
86.38672483258962
 20
-14.26911460335544
 30
0.0
 10
85.07525021790283
 20
-13.81989858335778
 30
0.0
 10
83.68829524636072
 20
-13.47559415340005
 30
0.0
 10
82.31156786691422
 20
-13.27330445982432
 30
0.0
 10
81.02465763070897
 20
-13.20743994726091
 30
0.0
 10
79.72492793417301
 20
-13.26960975863315
 30
0.0
 10
78.47304707409101
 20
-13.44994476920207
 30
0.0
 10
77.27949470640434
 20
-13.72721315773394
 30
0.0
 10
76.1268800672167
 20
-14.08435263024232
 30
0.0
 10
75.02722741107192
 20
-14.50363872215014
 30
0.0
 10
74.00094301837916
 20
-14.95815997101652
 30
0.0
 10
73.11829340470193
 20
-15.39383418738913
 30
0.0
 10
72.47286795064252
 20
-15.73691119105912
 30
0.0
 10
72.07116762315067
 20
-15.9597697961722
 30
0.0
 10
72.02741956323263
 20
-15.98452010672707
 30
0.0
 10
72.00563271252179
 20
-15.99684594065241
 30
0.0
  0
SPLINE
  5
242
330
1F
100
AcDbEntity
  8
SK3
  6
SLD-Dashed
370
    18
100
AcDbSpline
210
0.0
220
0.0
230
1.0
 70
     8
 71
     3
 72
    28
 73
    24
 74
     0
 42
0.000000001
 43
0.00000001
 40
0.5000000000000019
 40
0.5000000000000019
 40
0.5000000000000019
 40
0.5000000000000019
 40
0.5625000000000014
 40
0.5625000000000014
 40
0.6250000000000011
 40
0.6250000000000011
 40
0.656250000000001
 40
0.656250000000001
 40
0.6875000000000008
 40
0.6875000000000008
 40
0.7500000000000004
 40
0.7500000000000004
 40
0.7812500000000003
 40
0.7812500000000003
 40
0.8125000000000001
 40
0.8125000000000001
 40
0.84375
 40
0.84375
 40
0.8749999999999999
 40
0.8749999999999999
 40
0.9374999999999999
 40
0.9374999999999999
 40
1.0
 40
1.0
 40
1.0
 40
1.0
 10
11.10063994677772
 20
9.17980581970515
 30
0.0
 10
10.88511437826825
 20
9.179764731078532
 30
0.0
 10
10.66767832081877
 20
9.201265122924482
 30
0.0
 10
10.27039433374755
 20
9.28017380806425
 30
0.0
 10
10.08661083741966
 20
9.338138102846456
 30
0.0
 10
9.858251824686068
 20
9.440065379806336
 30
0.0
 10
9.788576404990284
 20
9.477149305158465
 30
0.0
 10
9.668865269254937
 20
9.553080163044118
 30
0.0
 10
9.618080695444482
 20
9.592168311290687
 30
0.0
 10
9.493376272655507
 20
9.711752477283813
 30
0.0
 10
9.45018111145804
 20
9.791639621509397
 30
0.0
 10
9.449910292357297
 20
9.90356759643505
 30
0.0
 10
9.460525364944724
 20
9.938682643755136
 30
0.0
 10
9.502361606435292
 20
10.00486157884362
 30
0.0
 10
9.534127008594073
 20
10.0362308651093
 30
0.0
 10
9.616761891656541
 20
10.09321537097387
 30
0.0
 10
9.667357839890728
 20
10.11892320032906
 30
0.0
 10
9.787049538608969
 20
10.16555473396259
 30
0.0
 10
9.856502934081801
 20
10.18644292145535
 30
0.0
 10
10.08415986245244
 20
10.24048736872273
 30
0.0
 10
10.26789811615395
 20
10.26651718042253
 30
0.0
 10
10.66470419067461
 20
10.30022487924512
 30
0.0
 10
10.88162329216498
 20
10.3084722316789
 30
0.0
 10
11.10000000000004
 20
10.3084722316789
 30
0.0
  0
SPLINE
  5
243
330
1F
100
AcDbEntity
  8
SK3
  6
SLD-Dashed
370
    18
100
AcDbSpline
210
0.0
220
0.0
230
1.0
 70
     8
 71
     3
 72
    32
 73
    28
 74
     0
 42
0.000000001
 43
0.00000001
 40
0.0
 40
0.0
 40
0.0
 40
0.0
 40
0.0312500000000002
 40
0.0312500000000002
 40
0.0625000000000004
 40
0.0625000000000004
 40
0.0937500000000006
 40
0.0937500000000006
 40
0.1250000000000008
 40
0.1250000000000008
 40
0.1875000000000015
 40
0.1875000000000015
 40
0.2500000000000023
 40
0.2500000000000023
 40
0.2812500000000025
 40
0.2812500000000025
 40
0.3125000000000025
 40
0.3125000000000025
 40
0.3750000000000027
 40
0.3750000000000027
 40
0.4062500000000024
 40
0.4062500000000024
 40
0.4375000000000023
 40
0.4375000000000023
 40
0.4687500000000021
 40
0.4687500000000021
 40
0.5000000000000019
 40
0.5000000000000019
 40
0.5000000000000019
 40
0.5000000000000019
 10
11.10000000000004
 20
10.3084722316789
 30
0.0
 10
11.20918835391756
 20
10.3084722316789
 30
0.0
 10
11.31651771305066
 20
10.30642167162259
 30
0.0
 10
11.52762120394275
 20
10.29821030754582
 30
0.0
 10
11.63250189121383
 20
10.29194428668545
 30
0.0
 10
11.83223206661289
 20
10.27502374362117
 30
0.0
 10
11.92693470175495
 20
10.26444756624657
 30
0.0
 10
12.10616276605224
 20
10.23832625336569
 30
0.0
 10
12.19088967371719
 20
10.2226423287681
 30
0.0
 10
12.41879001739925
 20
10.16862580338101
 30
0.0
 10
12.54167185323994
 20
10.12171939803715
 30
0.0
 10
12.70636644254866
 20
10.00846559837554
 30
0.0
 10
12.74987701797391
 20
9.940762454420819
 30
0.0
 10
12.75006109004669
 20
9.830188859982679
 30
0.0
 10
12.73931049884443
 20
9.79113104931667
 30
0.0
 10
12.69714619983564
 20
9.712601504592854
 30
0.0
 10
12.66595101562508
 20
9.672920129814681
 30
0.0
 10
12.54179369836864
 20
9.553356030122181
 30
0.0
 10
12.42075253795669
 20
9.47548083456614
 30
0.0
 10
12.19025712142208
 20
9.372372874597808
 30
0.0
 10
12.10711918455321
 20
9.341110472901628
 30
0.0
 10
11.92862050550958
 20
9.285452754490102
 30
0.0
 10
11.83208682777022
 20
9.26085136728607
 30
0.0
 10
11.63247886509292
 20
9.221112207445612
 30
0.0
 10
11.52963804660005
 20
9.205875681199482
 30
0.0
 10
11.3178718776458
 20
9.185172446042563
 30
0.0
 10
11.20840273103245
 20
9.179826364018464
 30
0.0
 10
11.10063994677772
 20
9.17980581970515
 30
0.0
  0
SPLINE
  5
244
330
1F
100
AcDbEntity
  8
SK3
  6
SLD-Dashed
370
    18
100
AcDbSpline
210
0.0
220
0.0
230
1.0
 70
     8
 71
     3
 72
    28
 73
    24
 74
     0
 42
0.000000001
 43
0.00000001
 40
0.5000000000000004
 40
0.5000000000000004
 40
0.5000000000000004
 40
0.5000000000000004
 40
0.5625000000000003
 40
0.5625000000000003
 40
0.6250000000000003
 40
0.6250000000000003
 40
0.6562500000000004
 40
0.6562500000000004
 40
0.6875000000000004
 40
0.6875000000000004
 40
0.7500000000000006
 40
0.7500000000000006
 40
0.7812500000000006
 40
0.7812500000000006
 40
0.8125000000000003
 40
0.8125000000000003
 40
0.8437500000000002
 40
0.8437500000000002
 40
0.8750000000000001
 40
0.8750000000000001
 40
0.9375
 40
0.9375
 40
1.0
 40
1.0
 40
1.0
 40
1.0
 10
11.09936005322229
 20
-10.30847220779005
 30
0.0
 10
11.31488562173176
 20
-10.30848829867283
 30
0.0
 10
11.53232167918127
 20
-10.30038291810947
 30
0.0
 10
11.92960566625247
 20
-10.26682253963406
 30
0.0
 10
12.1133891625804
 20
-10.24091814244863
 30
0.0
 10
12.34174817531401
 20
-10.18693216715288
 30
0.0
 10
12.41142359500977
 20
-10.16604649126494
 30
0.0
 10
12.5311347307451
 20
-10.119611011627
 30
0.0
 10
12.58191930455557
 20
-10.09396314355891
 30
0.0
 10
12.70662372734453
 20
-10.00844657689386
 30
0.0
 10
12.74981888854201
 20
-9.941757957492609
 30
0.0
 10
12.75008970764272
 20
-9.829909964458706
 30
0.0
 10
12.73947463505529
 20
-9.791631368429519
 30
0.0
 10
12.69763839356476
 20
-9.713326598996645
 30
0.0
 10
12.66587299140595
 20
-9.672843473092142
 30
0.0
 10
12.58323810834351
 20
-9.593268717647874
 30
0.0
 10
12.53264216010933
 20
-9.554155622927093
 30
0.0
 10
12.41295046139107
 20
-9.478001434160644
 30
0.0
 10
12.34349706591821
 20
-9.440948896913381
 30
0.0
 10
12.1158401375476
 20
-9.339030254466106
 30
0.0
 10
11.93210188384607
 20
-9.280862582071107
 30
0.0
 10
11.53529580932543
 20
-9.201665512708297
 30
0.0
 10
11.3183767078351
 20
-9.179805758704175
 30
0.0
 10
11.10000000000001
 20
-9.179805758704175
 30
0.0
  0
SPLINE
  5
245
330
1F
100
AcDbEntity
  8
SK3
  6
SLD-Dashed
370
    18
100
AcDbSpline
210
0.0
220
0.0
230
1.0
 70
     8
 71
     3
 72
    32
 73
    28
 74
     0
 42
0.000000001
 43
0.00000001
 40
0.0
 40
0.0
 40
0.0
 40
0.0
 40
0.03125
 40
0.03125
 40
0.0624999999999999
 40
0.0624999999999999
 40
0.0937499999999999
 40
0.0937499999999999
 40
0.1249999999999999
 40
0.1249999999999999
 40
0.1874999999999999
 40
0.1874999999999999
 40
0.2499999999999998
 40
0.2499999999999998
 40
0.2812499999999999
 40
0.2812499999999999
 40
0.3125000000000001
 40
0.3125000000000001
 40
0.3750000000000005
 40
0.3750000000000005
 40
0.4062500000000004
 40
0.4062500000000004
 40
0.4375000000000004
 40
0.4375000000000004
 40
0.4687500000000004
 40
0.4687500000000004
 40
0.5000000000000004
 40
0.5000000000000004
 40
0.5000000000000004
 40
0.5000000000000004
 10
11.10000000000001
 20
-9.179805758704175
 30
0.0
 10
10.9908116460825
 20
-9.179805758704175
 30
0.0
 10
10.88348228694938
 20
-9.18509569861086
 30
0.0
 10
10.67237879605726
 20
-9.205623744994124
 30
0.0
 10
10.56749810878618
 20
-9.221113825588802
 30
0.0
 10
10.36776793338716
 20
-9.260883250848776
 30
0.0
 10
10.27306529824511
 20
-9.284980824838113
 30
0.0
 10
10.09383723394781
 20
-9.340759316938229
 30
0.0
 10
10.00911032628282
 20
-9.372667784685547
 30
0.0
 10
9.781209982600805
 20
-9.474579092729856
 30
0.0
 10
9.65832814676007
 20
-9.5534093248483
 30
0.0
 10
9.493633557451393
 20
-9.711670879081035
 30
0.0
 10
9.450122982026118
 20
-9.792652292130285
 30
0.0
 10
9.449938909953326
 20
-9.903280249185936
 30
0.0
 10
9.460689501155583
 20
-9.939134189522587
 30
0.0
 10
9.50285380016437
 20
-10.00544523446512
 30
0.0
 10
9.53404898437496
 20
-10.03617560862044
 30
0.0
 10
9.658206301631402
 20
-10.12179808298893
 30
0.0
 10
9.779247462043298
 20
-10.16814285650725
 30
0.0
 10
10.00974287857793
 20
-10.22280113190018
 30
0.0
 10
10.09288081544683
 20
-10.23815463549887
 30
0.0
 10
10.27137949449043
 20
-10.26423362425846
 30
0.0
 10
10.36791317222982
 20
-10.2750374992864
 30
0.0
 10
10.56752113490712
 20
-10.29194478470052
 30
0.0
 10
10.67036195339996
 20
-10.29810859820632
 30
0.0
 10
10.88212812235424
 20
-10.3063918904809
 30
0.0
 10
10.99159726896756
 20
-10.30846416234865
 30
0.0
 10
11.09936005322229
 20
-10.30847220779005
 30
0.0
  0
SPLINE
  5
246
330
1F
100
AcDbEntity
  8
SK3
  6
SLD-Dashed
370
    18
100
AcDbSpline
210
0.0
220
0.0
230
1.0
 70
     8
 71
     3
 72
    25
 73
    21
 74
     0
 42
0.000000001
 43
0.00000001
 40
0.0
 40
0.0
 40
0.0
 40
0.0
 40
0.0534656948835903
 40
0.1072898045822333
 40
0.1555773384347107
 40
0.2076370803767219
 40
0.264676305176007
 40
0.3228569477206971
 40
0.3809271492259169
 40
0.439063066525914
 40
0.4941909542045471
 40
0.5430155832629198
 40
0.614217392527508
 40
0.7341408223267976
 40
0.8122012170701728
 40
0.8609098856172143
 40
0.8970743237524264
 40
0.9335294324645148
 40
0.9644757637958707
 40
0.9999999999999999
 40
0.9999999999999999
 40
0.9999999999999999
 40
0.9999999999999999
 10
11.10000000000005
 20
-30.79630739284152
 30
0.0
 10
10.95991741038955
 20
-30.89174472940019
 30
0.0
 10
10.67881316780171
 20
-31.08325918014331
 30
0.0
 10
10.22953125752079
 20
-31.28738762349353
 30
0.0
 10
9.85037989830882
 20
-31.43960793113959
 30
0.0
 10
9.570492242089692
 20
-31.58275767353762
 30
0.0
 10
9.427469019628345
 20
-31.75083238932096
 30
0.0
 10
9.464622216602685
 20
-31.94538289208663
 30
0.0
 10
9.685760730959112
 20
-32.13409050907642
 30
0.0
 10
10.06017153030481
 20
-32.25823451266338
 30
0.0
 10
10.51311666589268
 20
-32.23595735540071
 30
0.0
 10
11.00385056061978
 20
-32.02580288572026
 30
0.0
 10
11.58250765460519
 20
-31.52802629125865
 30
0.0
 10
12.08673846534156
 20
-30.82100501820257
 30
0.0
 10
12.46353507239924
 20
-30.15050148223179
 30
0.0
 10
12.65552292640125
 20
-29.73327532660479
 30
0.0
 10
12.74537197458692
 20
-29.47518533519154
 30
0.0
 10
12.7569493757503
 20
-29.34214929331847
 30
0.0
 10
12.70768327050102
 20
-29.30860241383865
 30
0.0
 10
12.63626371276463
 20
-29.3594267999697
 30
0.0
 10
12.59809456012023
 20
-29.38658916016596
 30
0.0
  0
SPLINE
  5
247
330
1F
100
AcDbEntity
  8
SK3
  6
SLD-Dashed
370
    18
100
AcDbSpline
210
0.0
220
0.0
230
1.0
 70
     8
 71
     3
 72
    15
 73
    11
 74
     0
 42
0.000000001
 43
0.00000001
 40
0.0
 40
0.0
 40
0.0
 40
0.0
 40
0.1143598845380866
 40
0.2290293313738431
 40
0.3351313654166165
 40
0.4565391682432995
 40
0.6509025242617463
 40
0.8619846106762127
 40
0.9720441796422051
 40
1.0
 40
1.0
 40
1.0
 40
1.0
 10
12.60540931107561
 20
-35.45448854251143
 30
0.0
 10
12.51749734328079
 20
-35.50623438005751
 30
0.0
 10
12.34143543761242
 20
-35.60986612664786
 30
0.0
 10
11.916439278657
 20
-35.77259104704488
 30
0.0
 10
11.43996843667397
 20
-36.00548755169029
 30
0.0
 10
10.89798979803039
 20
-36.37633203128222
 30
0.0
 10
10.35391603454038
 20
-36.89708712637808
 30
0.0
 10
9.935926880311044
 20
-37.3418507799602
 30
0.0
 10
9.681512357214206
 20
-37.60750328999237
 30
0.0
 10
9.61919780588645
 20
-37.64045461628816
 30
0.0
 10
9.606575630844036
 20
-37.64712909920628
 30
0.0
  0
INSERT
  5
248
330
1F
100
AcDbEntity
  8
80
100
AcDbBlockReference
  2
Block12
 10
-61.7273641656
 20
-130.3356800267
 30
0.0
  0
INSERT
  5
249
330
1F
100
AcDbEntity
  8
81
100
AcDbBlockReference
  2
Block11
 10
13.3735173495
 20
-130.2676275275
 30
0.0
  0
DIMENSION
  5
24A
330
1F
100
AcDbEntity
  8
SK2
100
AcDbDimension
  2
_D
 10
37.9999999933
 20
59.9694562574
 30
0.0
 11
18.3149677549
 21
59.9694562574
 31
0.0
 70
   160
  1
<>
 71
     2
 42
-1.0
  3
SLDDIMSTYLE0
100
AcDbAlignedDimension
 13
0.0
 23
34.925
 33
0.0
 14
37.9999999933
 24
49.2286823296
 34
0.0
100
AcDbRotatedDimension
  0
DIMENSION
  5
256
330
1F
100
AcDbEntity
  8
SK2
100
AcDbDimension
  2
_D_1
 10
37.9999999933
 20
59.9694562574
 30
0.0
 11
70.8292279739
 21
59.9694562574
 31
0.0
 70
   160
  1
<>
 71
     2
 42
-1.0
  3
SLDDIMSTYLE0
100
AcDbAlignedDimension
 13
105.0
 23
29.0717967697
 33
0.0
 14
37.9999999933
 24
49.2286823296
 34
0.0
100
AcDbRotatedDimension
  0
DIMENSION
  5
260
330
1F
100
AcDbEntity
  8
2
100
AcDbDimension
  2
_D_2
 10
105.0
 20
68.822754421
 30
0.0
 11
52.2146010659
 21
68.822754421
 31
0.0
 70
   160
  1
<>
 71
     2
 42
-1.0
  3
SLDDIMSTYLE0
100
AcDbAlignedDimension
 13
0.0
 23
34.925
 33
0.0
 14
105.0
 24
29.0717967697
 34
0.0
100
AcDbRotatedDimension
  0
DIMENSION
  5
26A
330
1F
100
AcDbEntity
  8
SK2
100
AcDbDimension
  2
_D_3
 10
93.0
 20
49.1865931095
 30
0.0
 11
98.5241606906
 21
49.1865931095
 31
0.0
 70
   160
  1
<>
 71
     2
 42
-1.0
  3
SLDDIMSTYLE0
100
AcDbAlignedDimension
 13
105.0
 23
29.0717967697
 33
0.0
 14
93.0
 24
36.0
 34
0.0
100
AcDbRotatedDimension
  0
DIMENSION
  5
274
330
1F
100
AcDbEntity
  8
SK2
100
AcDbDimension
  2
_D_4
 10
149.1012261148
 20
-36.0
 30
0.0
 11
149.1012261148
 21
-0.5999205224
 31
0.0
 70
   160
  1
%%c<>
 71
     2
 42
-1.0
  3
SLDDIMSTYLE0
100
AcDbAlignedDimension
 13
93.0
 23
36.0
 33
0.0
 14
93.0
 24
-36.0
 34
0.0
 50
90.0
100
AcDbRotatedDimension
  0
DIMENSION
  5
27F
330
1F
100
AcDbEntity
  8
SK2
100
AcDbDimension
  2
_D_5
 10
135.8318067008
 20
-29.0717967697
 30
0.0
 11
135.8318067008
 21
-0.5999205224
 31
0.0
 70
   160
  1
%%c<>
 71
     2
 42
-1.0
  3
SLDDIMSTYLE0
100
AcDbAlignedDimension
 13
105.0
 23
29.0717967697
 33
0.0
 14
105.0
 24
-29.0717967697
 34
0.0
 50
90.0
100
AcDbRotatedDimension
  0
DIMENSION
  5
28A
330
1F
100
AcDbEntity
  8
SK2
100
AcDbDimension
  2
_D_6
 10
123.9312278643
 20
16.0
 30
0.0
 11
123.9312278643
 21
-0.5999205224
 31
0.0
 70
   160
  1
%%c<>
 71
     2
 42
-1.0
  3
SLDDIMSTYLE0
100
AcDbAlignedDimension
 13
104.0
 23
-16.0
 33
0.0
 14
104.0
 24
16.0
 34
0.0
 50
90.0
100
AcDbRotatedDimension
  0
DIMENSION
  5
295
330
1F
100
AcDbEntity
  8
SK2
100
AcDbDimension
  2
_D_7
 10
81.0
 20
-48.8096098249
 30
0.0
 11
93.0600464715
 21
-48.8096098249
 31
0.0
 70
   160
  1
<>
 71
     2
 42
-1.0
  3
SLDDIMSTYLE0
100
AcDbAlignedDimension
 13
105.0
 23
-29.0717967697
 33
0.0
 14
81.0
 24
-35.8
 34
0.0
100
AcDbRotatedDimension
  0
DIMENSION
  5
29F
330
1F
100
AcDbEntity
  8
SK2
100
AcDbDimension
  2
_D_8
 10
53.0
 20
-48.8096098249
 30
0.0
 11
66.9828990132
 21
-48.8096098249
 31
0.0
 70
   160
  1
<>
 71
     2
 42
-1.0
  3
SLDDIMSTYLE0
100
AcDbAlignedDimension
 13
81.0
 23
-35.8
 33
0.0
 14
53.0
 24
-35.8
 34
0.0
 50
0.0
100
AcDbRotatedDimension
  0
DIMENSION
  5
2A9
330
1F
100
AcDbEntity
  8
SK2
100
AcDbDimension
  2
_D_9
 10
47.0
 20
-59.0234077633
 30
0.0
 11
74.7131406407
 21
-59.0234077633
 31
0.0
 70
   160
  1
<>
 71
     2
 42
-1.0
  3
SLDDIMSTYLE0
100
AcDbAlignedDimension
 13
105.0
 23
-29.0717967697
 33
0.0
 14
47.0
 24
-14.5258390463
 34
0.0
100
AcDbRotatedDimension
  0
DIMENSION
  5
2B3
330
1F
100
AcDbEntity
  8
SK2
100
AcDbDimension
  2
_D_10
 10
-135.3771884687
 20
-49.978682327
 30
0.0
 11
-135.3771884687
 21
-1.2923845678
 31
0.0
 70
   160
  1
%%c<>
 71
     2
 42
-1.0
  3
SLDDIMSTYLE0
100
AcDbAlignedDimension
 13
3.75
 23
49.978682327
 33
0.0
 14
3.75
 24
-49.978682327
 34
0.0
 50
90.0
100
AcDbRotatedDimension
  0
DIMENSION
  5
2BE
330
1F
100
AcDbEntity
  8
SK2
100
AcDbDimension
  2
_D_11
 10
-121.6834239619
 20
-34.925
 30
0.0
 11
-121.6834239619
 21
-1.2923845678
 31
0.0
 70
   160
  1
%%c<>
 71
     2
 42
-1.0
  3
SLDDIMSTYLE0
100
AcDbAlignedDimension
 13
0.0
 23
34.925
 33
0.0
 14
0.0
 24
-34.925
 34
0.0
 50
90.0
100
AcDbRotatedDimension
  0
DIMENSION
  5
2C9
330
1F
100
AcDbEntity
  8
SK2
100
AcDbDimension
  2
_D_12
 10
-110.6060136937
 20
12.0
 30
0.0
 11
-110.6060136937
 21
0.5629325332
 31
0.0
 70
   160
  1
M<>
 71
     2
 42
-1.0
  3
SLDDIMSTYLE0
100
AcDbAlignedDimension
 13
-88.1169872981
 23
-12.0
 33
0.0
 14
-88.1169872981
 24
12.0
 34
0.0
 50
90.0
100
AcDbRotatedDimension
  0
MTEXT
  5
2D4
330
1F
100
AcDbEntity
  8
SK6
 62
     5
100
AcDbMText
 10
-35.8834216399
 20
44.4481155356
 30
0.0
 40
3.5
 41
0.0
 71
     1
 72
     1
  1
MAS-403 BT50
  7
SLDTEXTSTYLE0
 73
     1
 44
1.0
  0
MTEXT
  5
2D5
330
1F
100
AcDbEntity
  8
SK6
 62
     5
100
AcDbMText
 10
-99.7809336492
 20
-55.5373650965
 30
0.0
 40
3.5
 41
0.0
 71
     1
 72
     1
  1
A2B20-50 32 105
  7
SLDTEXTSTYLE0
 73
     1
 44
1.0
  0
ENDSEC
  0
SECTION
  2
OBJECTS
  0
DICTIONARY
  5
C
330
0
100
AcDbDictionary
281
     1
  3
ACAD_GROUP
350
D
  3
ACAD_LAYOUT
350
1A
  3
ACAD_MLINESTYLE
350
17
  3
ACAD_PLOTSETTINGS
350
19
  3
ACAD_PLOTSTYLENAME
350
E
  3
ACAD_SCALELIST
350
47
  0
DICTIONARY
  5
D
102
{ACAD_REACTORS
330
C
102
}
330
C
100
AcDbDictionary
281
     1
  0
DICTIONARY
  5
1A
102
{ACAD_REACTORS
330
C
102
}
330
C
100
AcDbDictionary
281
     1
  3
Layout1
350
1E
  3
Layout2
350
26
  3
Model
350
22
  0
DICTIONARY
  5
17
102
{ACAD_REACTORS
330
C
102
}
330
C
100
AcDbDictionary
281
     1
  3
Standard
350
18
  0
DICTIONARY
  5
19
102
{ACAD_REACTORS
330
C
102
}
330
C
100
AcDbDictionary
281
     1
  0
ACDBDICTIONARYWDFLT
  5
E
102
{ACAD_REACTORS
330
C
102
}
330
C
100
AcDbDictionary
281
     1
  3
Normal
350
F
100
AcDbDictionaryWithDefault
340
F
  0
DICTIONARY
  5
47
102
{ACAD_REACTORS
330
C
102
}
330
C
100
AcDbDictionary
281
     1
  3
A0
350
48
  3
A1
350
49
  3
A2
350
4A
  3
A3
350
4B
  3
A4
350
4C
  3
A5
350
4D
  3
A6
350
4E
  3
A7
350
4F
  3
A8
350
50
  3
A9
350
51
  3
B0
350
52
  3
B1
350
53
  3
B2
350
54
  3
B3
350
55
  3
B4
350
56
  3
B5
350
57
  3
B6
350
58
  3
B7
350
59
  3
B8
350
5A
  3
B9
350
5B
  3
C0
350
5C
  3
C1
350
5D
  3
C2
350
5E
  3
C3
350
5F
  3
C4
350
60
  3
C5
350
61
  3
C6
350
62
  3
C7
350
63
  3
C8
350
64
  3
C9
350
65
  3
D0
350
66
  3
D1
350
67
  3
D2
350
68
  0
LAYOUT
  5
1E
102
{ACAD_REACTORS
330
1A
102
}
330
1A
100
AcDbPlotSettings
  1

  2
none_device
  4

  6

 40
0.0
 41
0.0
 42
0.0
 43
0.0
 44
0.0
 45
0.0
 46
0.0
 47
0.0
 48
0.0
 49
0.0
140
0.0
141
0.0
142
1.0
143
1.0
 70
   688
 72
     1
 73
     0
 74
     5
  7

 75
    16
147
1.0
148
0.0
149
0.0
100
AcDbLayout
  1
Layout1
 70
     1
 71
     1
 10
0.0
 20
0.0
 11
420.0
 21
297.0
 12
0.0
 22
0.0
 32
0.0
 14
1.0000000000E+20
 24
1.0000000000E+20
 34
1.0000000000E+20
 15
-1.0000000000E+20
 25
-1.0000000000E+20
 35
-1.0000000000E+20
146
0.0
 13
0.0
 23
0.0
 33
0.0
 16
1.0
 26
0.0
 36
0.0
 17
0.0
 27
1.0
 37
0.0
 76
     0
330
1B
  0
LAYOUT
  5
26
102
{ACAD_REACTORS
330
1A
102
}
330
1A
100
AcDbPlotSettings
  1

  2
none_device
  4

  6

 40
0.0
 41
0.0
 42
0.0
 43
0.0
 44
0.0
 45
0.0
 46
0.0
 47
0.0
 48
0.0
 49
0.0
140
0.0
141
0.0
142
1.0
143
1.0
 70
   688
 72
     1
 73
     0
 74
     5
  7

 75
    16
147
1.0
148
0.0
149
0.0
100
AcDbLayout
  1
Layout2
 70
     1
 71
     2
 10
0.0
 20
0.0
 11
0.0
 21
0.0
 12
0.0
 22
0.0
 32
0.0
 14
0.0
 24
0.0
 34
0.0
 15
0.0
 25
0.0
 35
0.0
146
0.0
 13
0.0
 23
0.0
 33
0.0
 16
1.0
 26
0.0
 36
0.0
 17
0.0
 27
1.0
 37
0.0
 76
     0
330
23
  0
LAYOUT
  5
22
102
{ACAD_REACTORS
330
1A
102
}
330
1A
100
AcDbPlotSettings
  1

  2
none_device
  4
Letter_(8.50_x_11.00_Inches)
  6

 40
6.35
 41
6.35
 42
6.35000508
 43
6.35000508
 44
215.9
 45
279.4
 46
0.0
 47
0.0
 48
0.0
 49
0.0
140
0.0
141
0.0
142
1.0
143
1.0
 70
  1712
 72
     1
 73
     0
 74
     0
  7

 75
     0
147
1.0
148
0.0
149
0.0
100
AcDbLayout
  1
Model
 70
     1
 71
     0
 10
0.0
 20
0.0
 11
297.0
 21
210.0
 12
0.0
 22
0.0
 32
0.0
 14
0.0
 24
0.0
 34
0.0
 15
297.0
 25
210.0
 35
0.0
146
0.0
 13
0.0
 23
0.0
 33
0.0
 16
1.0
 26
0.0
 36
0.0
 17
0.0
 27
1.0
 37
0.0
 76
     0
330
1F
331
29
  0
MLINESTYLE
  5
18
102
{ACAD_REACTORS
330
17
102
}
330
17
100
AcDbMlineStyle
  2
Standard
 70
     0
  3

 62
   256
 51
90.0
 52
90.0
 71
     2
 49
0.5
 62
   256
  6
BYLAYER
 49
-0.5
 62
   256
  6
BYLAYER
  0
ACDBPLACEHOLDER
  5
F
102
{ACAD_REACTORS
330
E
102
}
330
E
  0
SCALE
  5
48
102
{ACAD_REACTORS
330
47
102
}
330
47
100
AcDbScale
 70
     0
300
1:1
140
1.0
141
1.0
290
     1
  0
SCALE
  5
49
102
{ACAD_REACTORS
330
47
102
}
330
47
100
AcDbScale
 70
     0
300
1:2
140
1.0
141
2.0
290
     0
  0
SCALE
  5
4A
102
{ACAD_REACTORS
330
47
102
}
330
47
100
AcDbScale
 70
     0
300
1:4
140
1.0
141
4.0
290
     0
  0
SCALE
  5
4B
102
{ACAD_REACTORS
330
47
102
}
330
47
100
AcDbScale
 70
     0
300
1:5
140
1.0
141
5.0
290
     0
  0
SCALE
  5
4C
102
{ACAD_REACTORS
330
47
102
}
330
47
100
AcDbScale
 70
     0
300
1:8
140
1.0
141
8.0
290
     0
  0
SCALE
  5
4D
102
{ACAD_REACTORS
330
47
102
}
330
47
100
AcDbScale
 70
     0
300
1:10
140
1.0
141
10.0
290
     0
  0
SCALE
  5
4E
102
{ACAD_REACTORS
330
47
102
}
330
47
100
AcDbScale
 70
     0
300
1:16
140
1.0
141
16.0
290
     0
  0
SCALE
  5
4F
102
{ACAD_REACTORS
330
47
102
}
330
47
100
AcDbScale
 70
     0
300
1:20
140
1.0
141
20.0
290
     0
  0
SCALE
  5
50
102
{ACAD_REACTORS
330
47
102
}
330
47
100
AcDbScale
 70
     0
300
1:30
140
1.0
141
30.0
290
     0
  0
SCALE
  5
51
102
{ACAD_REACTORS
330
47
102
}
330
47
100
AcDbScale
 70
     0
300
1:40
140
1.0
141
40.0
290
     0
  0
SCALE
  5
52
102
{ACAD_REACTORS
330
47
102
}
330
47
100
AcDbScale
 70
     0
300
1:50
140
1.0
141
50.0
290
     0
  0
SCALE
  5
53
102
{ACAD_REACTORS
330
47
102
}
330
47
100
AcDbScale
 70
     0
300
1:100
140
1.0
141
100.0
290
     0
  0
SCALE
  5
54
102
{ACAD_REACTORS
330
47
102
}
330
47
100
AcDbScale
 70
     0
300
2:1
140
2.0
141
1.0
290
     0
  0
SCALE
  5
55
102
{ACAD_REACTORS
330
47
102
}
330
47
100
AcDbScale
 70
     0
300
4:1
140
4.0
141
1.0
290
     0
  0
SCALE
  5
56
102
{ACAD_REACTORS
330
47
102
}
330
47
100
AcDbScale
 70
     0
300
8:1
140
8.0
141
1.0
290
     0
  0
SCALE
  5
57
102
{ACAD_REACTORS
330
47
102
}
330
47
100
AcDbScale
 70
     0
300
10:1
140
10.0
141
1.0
290
     0
  0
SCALE
  5
58
102
{ACAD_REACTORS
330
47
102
}
330
47
100
AcDbScale
 70
     0
300
100:1
140
100.0
141
1.0
290
     0
  0
SCALE
  5
59
102
{ACAD_REACTORS
330
47
102
}
330
47
100
AcDbScale
 70
     0
300
1/128" = 1'-0"
140
0.0078125
141
12.0
290
     0
  0
SCALE
  5
5A
102
{ACAD_REACTORS
330
47
102
}
330
47
100
AcDbScale
 70
     0
300
1/64" = 1'-0"
140
0.015625
141
12.0
290
     0
  0
SCALE
  5
5B
102
{ACAD_REACTORS
330
47
102
}
330
47
100
AcDbScale
 70
     0
300
1/32" = 1'-0"
140
0.03125
141
12.0
290
     0
  0
SCALE
  5
5C
102
{ACAD_REACTORS
330
47
102
}
330
47
100
AcDbScale
 70
     0
300
1/16" = 1'-0"
140
0.0625
141
12.0
290
     0
  0
SCALE
  5
5D
102
{ACAD_REACTORS
330
47
102
}
330
47
100
AcDbScale
 70
     0
300
3/32" = 1'-0"
140
0.09375
141
12.0
290
     0
  0
SCALE
  5
5E
102
{ACAD_REACTORS
330
47
102
}
330
47
100
AcDbScale
 70
     0
300
1/8" = 1'-0"
140
0.125
141
12.0
290
     0
  0
SCALE
  5
5F
102
{ACAD_REACTORS
330
47
102
}
330
47
100
AcDbScale
 70
     0
300
3/16" = 1'-0"
140
0.1875
141
12.0
290
     0
  0
SCALE
  5
60
102
{ACAD_REACTORS
330
47
102
}
330
47
100
AcDbScale
 70
     0
300
1/4" = 1'-0"
140
0.25
141
12.0
290
     0
  0
SCALE
  5
61
102
{ACAD_REACTORS
330
47
102
}
330
47
100
AcDbScale
 70
     0
300
3/8" = 1'-0"
140
0.375
141
12.0
290
     0
  0
SCALE
  5
62
102
{ACAD_REACTORS
330
47
102
}
330
47
100
AcDbScale
 70
     0
300
1/2" = 1'-0"
140
0.5
141
12.0
290
     0
  0
SCALE
  5
63
102
{ACAD_REACTORS
330
47
102
}
330
47
100
AcDbScale
 70
     0
300
3/4" = 1'-0"
140
0.75
141
12.0
290
     0
  0
SCALE
  5
64
102
{ACAD_REACTORS
330
47
102
}
330
47
100
AcDbScale
 70
     0
300
1" = 1'-0"
140
1.0
141
12.0
290
     0
  0
SCALE
  5
65
102
{ACAD_REACTORS
330
47
102
}
330
47
100
AcDbScale
 70
     0
300
1-1/2" = 1'-0"
140
1.5
141
12.0
290
     0
  0
SCALE
  5
66
102
{ACAD_REACTORS
330
47
102
}
330
47
100
AcDbScale
 70
     0
300
3" = 1'-0"
140
3.0
141
12.0
290
     0
  0
SCALE
  5
67
102
{ACAD_REACTORS
330
47
102
}
330
47
100
AcDbScale
 70
     0
300
6" = 1'-0"
140
6.0
141
12.0
290
     0
  0
SCALE
  5
68
102
{ACAD_REACTORS
330
47
102
}
330
47
100
AcDbScale
 70
     0
300
1'-0" = 1'-0"
140
12.0
141
12.0
290
     0
  0
ENDSEC
  0
EOF
