  0
SECTION
  2
HEADER
  9
$ACADVER
  1
AC1015
  9
$ACADMAINTVER
 70
     6
  9
$DWGCODEPAGE
  3
ANSI_1250
  9
$INSBASE
 10
0.0
 20
0.0
 30
0.0
  9
$EXTMIN
 10
0.0
 20
0.0
 30
0.0
  9
$EXTMAX
 10
297.0
 20
210.0
 30
0.0
  9
$LIMMIN
 10
0.0
 20
0.0
  9
$LIMMAX
 10
297.0
 20
210.0
  9
$ORTHOMODE
 70
     0
  9
$REGENMODE
 70
     1
  9
$FILLMODE
 70
     1
  9
$QTEXTMODE
 70
     0
  9
$MIRRTEXT
 70
     1
  9
$LTSCALE
 40
1.0
  9
$ATTMODE
 70
     1
  9
$TEXTSIZE
 40
3.5
  9
$TRACEWID
 40
1.0
  9
$TEXTSTYLE
  7
Standard
  9
$CLAYER
  8
0
  9
$CELTYPE
  6
ByLayer
  9
$CECOLOR
 62
   256
  9
$CELTSCALE
 40
1.0
  9
$DISPSILH
 70
     0
  9
$DIMSCALE
 40
1.0
  9
$DIMASZ
 40
3.302
  9
$DIMEXO
 40
1.0
  9
$DIMDLI
 40
3.75
  9
$DIMRND
 40
0.0
  9
$DIMDLE
 40
0.0
  9
$DIMEXE
 40
1.0
  9
$DIMTP
 40
0.0
  9
$DIMTM
 40
0.0
  9
$DIMTXT
 40
3.5
  9
$DIMCEN
 40
2.5
  9
$DIMTSZ
 40
0.0
  9
$DIMTOL
 70
     0
  9
$DIMLIM
 70
     0
  9
$DIMTIH
 70
     1
  9
$DIMTOH
 70
     1
  9
$DIMSE1
 70
     0
  9
$DIMSE2
 70
     0
  9
$DIMTAD
 70
     1
  9
$DIMZIN
 70
     0
  9
$DIMBLK
  1

  9
$DIMASO
 70
     1
  9
$DIMSHO
 70
     1
  9
$DIMPOST
  1

  9
$DIMAPOST
  1

  9
$DIMALT
 70
     0
  9
$DIMALTD
 70
     3
  9
$DIMALTF
 40
0.0393700787
  9
$DIMLFAC
 40
1.0
  9
$DIMTOFL
 70
     1
  9
$DIMTVP
 40
0.0
  9
$DIMTIX
 70
     0
  9
$DIMSOXD
 70
     0
  9
$DIMSAH
 70
     0
  9
$DIMBLK1
  1

  9
$DIMBLK2
  1

  9
$DIMSTYLE
  2
ISO-25
  9
$DIMCLRD
 70
     0
  9
$DIMCLRE
 70
     0
  9
$DIMCLRT
 70
     0
  9
$DIMTFAC
 40
1.0
  9
$DIMGAP
 40
1.524
  9
$DIMJUST
 70
     0
  9
$DIMSD1
 70
     0
  9
$DIMSD2
 70
     0
  9
$DIMTOLJ
 70
     0
  9
$DIMTZIN
 70
     0
  9
$DIMALTZ
 70
     0
  9
$DIMALTTZ
 70
     0
  9
$DIMUPT
 70
     0
  9
$DIMDEC
 70
     2
  9
$DIMTDEC
 70
     2
  9
$DIMALTU
 70
     2
  9
$DIMALTTD
 70
     3
  9
$DIMTXSTY
  7
Standard
  9
$DIMAUNIT
 70
     0
  9
$DIMADEC
 70
     2
  9
$DIMALTRND
 40
0.0
  9
$DIMAZIN
 70
     0
  9
$DIMDSEP
 70
    44
  9
$DIMATFIT
 70
     3
  9
$DIMFRAC
 70
     0
  9
$DIMLDRBLK
  1

  9
$DIMLUNIT
 70
     2
  9
$DIMLWD
 70
    -2
  9
$DIMLWE
 70
    -2
  9
$DIMTMOVE
 70
     0
  9
$LUNITS
 70
     2
  9
$LUPREC
 70
     2
  9
$SKETCHINC
 40
1.0
  9
$FILLETRAD
 40
10.0
  9
$AUNITS
 70
     0
  9
$AUPREC
 70
     2
  9
$MENU
  1
.
  9
$ELEVATION
 40
0.0
  9
$PELEVATION
 40
0.0
  9
$THICKNESS
 40
0.0
  9
$LIMCHECK
 70
     0
  9
$CHAMFERA
 40
0.0
  9
$CHAMFERB
 40
0.0
  9
$CHAMFERC
 40
0.0
  9
$CHAMFERD
 40
0.0
  9
$SKPOLY
 70
     0
  9
$TDCREATE
 40
2459290.486923183
  9
$TDUCREATE
 40
2459290.445256516
  9
$TDUPDATE
 40
2459290.48692441
  9
$TDUUPDATE
 40
2459290.445257743
  9
$TDINDWG
 40
0.0000000116
  9
$TDUSRTIMER
 40
0.0000000116
  9
$USRTIMER
 70
     1
  9
$ANGBASE
 50
0.0
  9
$ANGDIR
 70
     0
  9
$PDMODE
 70
     0
  9
$PDSIZE
 40
-1.0
  9
$PLINEWID
 40
0.0
  9
$SPLFRAME
 70
     0
  9
$SPLINETYPE
 70
     6
  9
$SPLINESEGS
 70
     8
  9
$HANDSEED
  5
2ED
  9
$SURFTAB1
 70
     6
  9
$SURFTAB2
 70
     6
  9
$SURFTYPE
 70
     6
  9
$SURFU
 70
     6
  9
$SURFV
 70
     6
  9
$UCSBASE
  2

  9
$UCSNAME
  2

  9
$UCSORG
 10
0.0
 20
0.0
 30
0.0
  9
$UCSXDIR
 10
1.0
 20
0.0
 30
0.0
  9
$UCSYDIR
 10
0.0
 20
1.0
 30
0.0
  9
$UCSORTHOREF
  2

  9
$UCSORTHOVIEW
 70
     0
  9
$UCSORGTOP
 10
0.0
 20
0.0
 30
0.0
  9
$UCSORGBOTTOM
 10
0.0
 20
0.0
 30
0.0
  9
$UCSORGLEFT
 10
0.0
 20
0.0
 30
0.0
  9
$UCSORGRIGHT
 10
0.0
 20
0.0
 30
0.0
  9
$UCSORGFRONT
 10
0.0
 20
0.0
 30
0.0
  9
$UCSORGBACK
 10
0.0
 20
0.0
 30
0.0
  9
$PUCSBASE
  2

  9
$PUCSNAME
  2

  9
$PUCSORG
 10
0.0
 20
0.0
 30
0.0
  9
$PUCSXDIR
 10
1.0
 20
0.0
 30
0.0
  9
$PUCSYDIR
 10
0.0
 20
1.0
 30
0.0
  9
$PUCSORTHOREF
  2

  9
$PUCSORTHOVIEW
 70
     0
  9
$PUCSORGTOP
 10
0.0
 20
0.0
 30
0.0
  9
$PUCSORGBOTTOM
 10
0.0
 20
0.0
 30
0.0
  9
$PUCSORGLEFT
 10
0.0
 20
0.0
 30
0.0
  9
$PUCSORGRIGHT
 10
0.0
 20
0.0
 30
0.0
  9
$PUCSORGFRONT
 10
0.0
 20
0.0
 30
0.0
  9
$PUCSORGBACK
 10
0.0
 20
0.0
 30
0.0
  9
$USERI1
 70
     0
  9
$USERI2
 70
     0
  9
$USERI3
 70
     0
  9
$USERI4
 70
     0
  9
$USERI5
 70
     0
  9
$USERR1
 40
0.0
  9
$USERR2
 40
0.0
  9
$USERR3
 40
0.0
  9
$USERR4
 40
0.0
  9
$USERR5
 40
0.0
  9
$WORLDVIEW
 70
     1
  9
$SHADEDGE
 70
     3
  9
$SHADEDIF
 70
    70
  9
$TILEMODE
 70
     1
  9
$MAXACTVP
 70
    64
  9
$PINSBASE
 10
0.0
 20
0.0
 30
0.0
  9
$PLIMCHECK
 70
     0
  9
$PEXTMIN
 10
1.0000000000E+20
 20
1.0000000000E+20
 30
1.0000000000E+20
  9
$PEXTMAX
 10
-1.0000000000E+20
 20
-1.0000000000E+20
 30
-1.0000000000E+20
  9
$PLIMMIN
 10
0.0
 20
0.0
  9
$PLIMMAX
 10
420.0
 20
297.0
  9
$UNITMODE
 70
     0
  9
$VISRETAIN
 70
     1
  9
$PLINEGEN
 70
     0
  9
$PSLTSCALE
 70
     1
  9
$TREEDEPTH
 70
  3020
  9
$CMLSTYLE
  2
Standard
  9
$CMLJUST
 70
     0
  9
$CMLSCALE
 40
20.0
  9
$PROXYGRAPHICS
 70
     1
  9
$MEASUREMENT
 70
     1
  9
$CELWEIGHT
370
    -1
  9
$ENDCAPS
280
     0
  9
$JOINSTYLE
280
     0
  9
$LWDISPLAY
290
     1
  9
$INSUNITS
 70
     4
  9
$HYPERLINKBASE
  1

  9
$STYLESHEET
  1

  9
$XEDIT
290
     1
  9
$CEPSNTYPE
380
     0
  9
$PSTYLEMODE
290
     1
  9
$FINGERPRINTGUID
  2
{CDAF86E4-F661-4223-92C1-8E4B8293A055}
  9
$VERSIONGUID
  2
{FAEB1C32-E019-11D5-929B-00C0DF256EC4}
  9
$EXTNAMES
290
     1
  9
$PSVPSCALE
 40
0.0
  9
$OLESTARTUP
290
     0
  0
ENDSEC
  0
SECTION
  2
CLASSES
  0
CLASS
  1
ACDBDICTIONARYWDFLT
  2
AcDbDictionaryWithDefault
  3
ObjectDBX Classes
 90
        0
280
     0
281
     0
  0
CLASS
  1
VISUALSTYLE
  2
AcDbVisualStyle
  3
ObjectDBX Classes
 90
     4095
280
     0
281
     0
  0
CLASS
  1
MATERIAL
  2
AcDbMaterial
  3
ObjectDBX Classes
 90
     1153
280
     0
281
     0
  0
CLASS
  1
SCALE
  2
AcDbScale
  3
ObjectDBX Classes
 90
     1153
280
     0
281
     0
  0
CLASS
  1
TABLESTYLE
  2
AcDbTableStyle
  3
ObjectDBX Classes
 90
     4095
280
     0
281
     0
  0
CLASS
  1
MLEADERSTYLE
  2
AcDbMLeaderStyle
  3
ACDB_MLEADERSTYLE_CLASS
 90
     4095
280
     0
281
     0
  0
CLASS
  1
SUN
  2
AcDbSun
  3
SCENEOE
 90
     1153
280
     0
281
     0
  0
CLASS
  1
ACDBPLACEHOLDER
  2
AcDbPlaceHolder
  3
ObjectDBX Classes
 90
        0
280
     0
281
     0
  0
CLASS
  1
LAYOUT
  2
AcDbLayout
  3
ObjectDBX Classes
 90
        0
280
     0
281
     0
  0
ENDSEC
  0
SECTION
  2
TABLES
  0
TABLE
  2
VPORT
  5
8
330
0
100
AcDbSymbolTable
 70
     1
  0
VPORT
  5
29
330
8
100
AcDbSymbolTableRecord
100
AcDbViewportTableRecord
  2
*Active
 70
     0
 10
0.0
 20
0.0
 11
1.0
 21
1.0
 12
148.5
 22
105.0
 13
0.0
 23
0.0
 14
10.0
 24
10.0
 15
10.0
 25
10.0
 16
0.0
 26
0.0
 36
1.0
 17
0.0
 27
0.0
 37
0.0
 40
210.0
 41
1.4142857143
 42
50.0
 43
0.0
 44
0.0
 50
0.0
 51
0.0
 71
     0
 72
  2000
 73
     1
 74
     3
 75
     0
 76
     0
 77
     0
 78
     0
281
     0
 65
     1
110
0.0
120
0.0
130
0.0
111
1.0
121
0.0
131
0.0
112
0.0
122
1.0
132
0.0
 79
     0
146
0.0
  0
ENDTAB
  0
TABLE
  2
LTYPE
  5
5
330
0
100
AcDbSymbolTable
 70
     8
  0
LTYPE
  5
14
330
5
100
AcDbSymbolTableRecord
100
AcDbLinetypeTableRecord
  2
ByBlock
 70
     0
  3

 72
    65
 73
     0
 40
0.0
  0
LTYPE
  5
15
330
5
100
AcDbSymbolTableRecord
100
AcDbLinetypeTableRecord
  2
ByLayer
 70
     0
  3

 72
    65
 73
     0
 40
0.0
  0
LTYPE
  5
16
330
5
100
AcDbSymbolTableRecord
100
AcDbLinetypeTableRecord
  2
Continuous
 70
     0
  3
Solid line
 72
    65
 73
     0
 40
0.0
  0
LTYPE
  5
6E
330
5
100
AcDbSymbolTableRecord
100
AcDbLinetypeTableRecord
  2
SLD-Solid
 70
     0
  3
SolidWorks Line Style
 72
    65
 73
     0
 40
0.0
  0
LTYPE
  5
6F
330
5
100
AcDbSymbolTableRecord
100
AcDbLinetypeTableRecord
  2
SLD-Dashed
 70
     0
  3
SolidWorks Line Style
 72
    65
 73
     2
 40
1.905
 49
1.27
 74
     0
 49
-0.635
 74
     0
  0
LTYPE
  5
70
330
5
100
AcDbSymbolTableRecord
100
AcDbLinetypeTableRecord
  2
SLD-Phantom
 70
     0
  3
SolidWorks Line Style
 72
    65
 73
     6
 40
12.7
 49
6.35
 74
     0
 49
-1.27
 74
     0
 49
1.27
 74
     0
 49
-1.27
 74
     0
 49
1.27
 74
     0
 49
-1.27
 74
     0
  0
LTYPE
  5
71
330
5
100
AcDbSymbolTableRecord
100
AcDbLinetypeTableRecord
  2
SLD-Chain
 70
     0
  3
SolidWorks Line Style
 72
    65
 73
     4
 40
10.16
 49
6.35
 74
     0
 49
-1.27
 74
     0
 49
1.27
 74
     0
 49
-1.27
 74
     0
  0
LTYPE
  5
72
330
5
100
AcDbSymbolTableRecord
100
AcDbLinetypeTableRecord
  2
SLD-Center
 70
     0
  3
SolidWorks Line Style
 72
    65
 73
     4
 40
19.05
 49
15.24
 74
     0
 49
-1.27
 74
     0
 49
1.27
 74
     0
 49
-1.27
 74
     0
  0
LTYPE
  5
73
330
5
100
AcDbSymbolTableRecord
100
AcDbLinetypeTableRecord
  2
SLD-Stitch
 70
     0
  3
SolidWorks Line Style
 72
    65
 73
     2
 40
0.635
 49
0.0
 74
     0
 49
-0.635
 74
     0
  0
LTYPE
  5
74
330
5
100
AcDbSymbolTableRecord
100
AcDbLinetypeTableRecord
  2
SLD-Thin-Thick-Chain
 70
     0
  3
SolidWorks Line Style
 72
    65
 73
     4
 40
10.16
 49
6.35
 74
     0
 49
-1.27
 74
     0
 49
1.27
 74
     0
 49
-1.27
 74
     0
  0
ENDTAB
  0
TABLE
  2
LAYER
  5
2
330
0
100
AcDbSymbolTable
 70
    12
  0
LAYER
  5
10
330
2
100
AcDbSymbolTableRecord
100
AcDbLayerTableRecord
  2
0
 70
     0
 62
     7
  6
Continuous
370
    -3
390
F
  0
LAYER
  5
75
330
2
100
AcDbSymbolTableRecord
100
AcDbLayerTableRecord
  2
SLD-0
 70
     0
 62
   179
  6
SLD-Solid
370
    -3
390
F
  0
LAYER
  5
76
330
2
100
AcDbSymbolTableRecord
100
AcDbLayerTableRecord
  2
80
 70
     0
 62
    -6
  6
SLD-Solid
290
     0
370
    -3
390
F
  0
LAYER
  5
77
330
2
100
AcDbSymbolTableRecord
100
AcDbLayerTableRecord
  2
81
 70
     0
 62
    -3
  6
SLD-Solid
290
     0
370
    -3
390
F
  0
LAYER
  5
78
330
2
100
AcDbSymbolTableRecord
100
AcDbLayerTableRecord
  2
1
 70
     0
 62
     4
  6
SLD-Solid
290
     0
370
    -3
390
F
  0
LAYER
  5
79
330
2
100
AcDbSymbolTableRecord
100
AcDbLayerTableRecord
  2
4
 70
     0
 62
    -2
  6
SLD-Chain
290
     0
370
    -3
390
F
  0
LAYER
  5
7A
330
2
100
AcDbSymbolTableRecord
100
AcDbLayerTableRecord
  2
2
 70
     0
 62
     7
  6
SLD-Solid
290
     0
370
    -3
390
F
  0
LAYER
  5
7B
330
2
100
AcDbSymbolTableRecord
100
AcDbLayerTableRecord
  2
SK3
 70
     0
 62
     1
  6
SLD-Dashed
290
     0
370
    -3
390
F
  0
LAYER
  5
7C
330
2
100
AcDbSymbolTableRecord
100
AcDbLayerTableRecord
  2
SK4
 70
     0
 62
     2
  6
SLD-Chain
290
     0
370
    -3
390
F
  0
LAYER
  5
7D
330
2
100
AcDbSymbolTableRecord
100
AcDbLayerTableRecord
  2
SK2
 70
     0
 62
     7
  6
SLD-Solid
290
     0
370
    -3
390
F
  0
LAYER
  5
7E
330
2
100
AcDbSymbolTableRecord
100
AcDbLayerTableRecord
  2
SK6
 70
     0
 62
     5
  6
SLD-Solid
290
     0
370
    -3
390
F
  0
LAYER
  5
7F
330
2
100
AcDbSymbolTableRecord
100
AcDbLayerTableRecord
  2
SK1
 70
     0
 62
     4
  6
SLD-Solid
370
    -3
390
F
  0
ENDTAB
  0
TABLE
  2
STYLE
  5
3
330
0
100
AcDbSymbolTable
 70
     2
  0
STYLE
  5
11
330
3
100
AcDbSymbolTableRecord
100
AcDbTextStyleTableRecord
  2
Standard
 70
     0
 40
0.0
 41
1.0
 50
0.0
 71
     0
 42
3.5
  3
txt
  4

  0
STYLE
  5
262
330
3
100
AcDbSymbolTableRecord
100
AcDbTextStyleTableRecord
  2
SLDTEXTSTYLE0
 70
     0
 40
0.0
 41
0.75
 50
0.0
 71
     0
 42
3.5
  3
TXT
  4

  0
ENDTAB
  0
TABLE
  2
VIEW
  5
6
330
0
100
AcDbSymbolTable
 70
     0
  0
ENDTAB
  0
TABLE
  2
UCS
  5
7
330
0
100
AcDbSymbolTable
 70
     0
  0
ENDTAB
  0
TABLE
  2
APPID
  5
9
330
0
100
AcDbSymbolTable
 70
     1
  0
APPID
  5
12
330
9
100
AcDbSymbolTableRecord
100
AcDbRegAppTableRecord
  2
ACAD
 70
     0
  0
ENDTAB
  0
TABLE
  2
DIMSTYLE
  5
A
330
0
100
AcDbSymbolTable
 70
     2
100
AcDbDimStyleTable
  0
DIMSTYLE
105
27
330
A
100
AcDbSymbolTableRecord
100
AcDbDimStyleTableRecord
  2
ISO-25
 70
     0
 41
2.5
 42
0.625
 43
3.75
 44
1.25
 73
     0
 74
     0
 77
     1
 78
     8
140
2.5
141
2.5
143
0.0393700787
147
0.625
171
     3
172
     1
178
     0
271
     2
272
     2
274
     3
278
    44
283
     0
284
     8
340
11
  0
DIMSTYLE
105
263
102
{ACAD_REACTORS
330
261
330
26D
330
277
330
281
330
28B
330
296
330
2A1
330
2AC
330
2B6
330
2C0
330
2CA
330
2D5
330
2E0
102
}
330
A
100
AcDbSymbolTableRecord
100
AcDbDimStyleTableRecord
  2
SLDDIMSTYLE0
 70
     0
 41
3.302
 44
0.0
 45
0.000000001
 73
     0
 74
     0
 77
     1
 78
    12
 79
     3
140
3.5
147
0.875
173
     1
178
     0
271
     2
272
     2
276
     2
284
    12
340
262
  0
ENDTAB
  0
TABLE
  2
BLOCK_RECORD
  5
1
330
0
100
AcDbSymbolTable
 70
    16
  0
BLOCK_RECORD
  5
1F
330
1
100
AcDbSymbolTableRecord
100
AcDbBlockTableRecord
  2
*Model_Space
340
22
  0
BLOCK_RECORD
  5
1B
330
1
100
AcDbSymbolTableRecord
100
AcDbBlockTableRecord
  2
*Paper_Space
340
1E
  0
BLOCK_RECORD
  5
23
330
1
100
AcDbSymbolTableRecord
100
AcDbBlockTableRecord
  2
*Paper_Space0
340
26
  0
BLOCK_RECORD
  5
80
330
1
100
AcDbSymbolTableRecord
100
AcDbBlockTableRecord
  2
Block11
340
0
102
{BLKREFS
331
260
102
}
  0
BLOCK_RECORD
  5
89
330
1
100
AcDbSymbolTableRecord
100
AcDbBlockTableRecord
  2
Block12
340
0
102
{BLKREFS
331
25F
102
}
  0
BLOCK_RECORD
  5
264
330
1
100
AcDbSymbolTableRecord
100
AcDbBlockTableRecord
  2
_D
340
0
  0
BLOCK_RECORD
  5
26E
330
1
100
AcDbSymbolTableRecord
100
AcDbBlockTableRecord
  2
_D_1
340
0
  0
BLOCK_RECORD
  5
278
330
1
100
AcDbSymbolTableRecord
100
AcDbBlockTableRecord
  2
_D_2
340
0
  0
BLOCK_RECORD
  5
282
330
1
100
AcDbSymbolTableRecord
100
AcDbBlockTableRecord
  2
_D_3
340
0
  0
BLOCK_RECORD
  5
28C
330
1
100
AcDbSymbolTableRecord
100
AcDbBlockTableRecord
  2
_D_4
340
0
  0
BLOCK_RECORD
  5
297
330
1
100
AcDbSymbolTableRecord
100
AcDbBlockTableRecord
  2
_D_5
340
0
  0
BLOCK_RECORD
  5
2A2
330
1
100
AcDbSymbolTableRecord
100
AcDbBlockTableRecord
  2
_D_6
340
0
  0
BLOCK_RECORD
  5
2AD
330
1
100
AcDbSymbolTableRecord
100
AcDbBlockTableRecord
  2
_D_7
340
0
  0
BLOCK_RECORD
  5
2B7
330
1
100
AcDbSymbolTableRecord
100
AcDbBlockTableRecord
  2
_D_8
340
0
  0
BLOCK_RECORD
  5
2C1
330
1
100
AcDbSymbolTableRecord
100
AcDbBlockTableRecord
  2
_D_9
340
0
  0
BLOCK_RECORD
  5
2CB
330
1
100
AcDbSymbolTableRecord
100
AcDbBlockTableRecord
  2
_D_10
340
0
  0
BLOCK_RECORD
  5
2D6
330
1
100
AcDbSymbolTableRecord
100
AcDbBlockTableRecord
  2
_D_11
340
0
  0
BLOCK_RECORD
  5
2E1
330
1
100
AcDbSymbolTableRecord
100
AcDbBlockTableRecord
  2
_D_12
340
0
  0
ENDTAB
  0
ENDSEC
  0
SECTION
  2
BLOCKS
  0
BLOCK
  5
20
330
1F
100
AcDbEntity
  8
0
100
AcDbBlockBegin
  2
*Model_Space
 70
     0
 10
0.0
 20
0.0
 30
0.0
  3
*Model_Space
  1

  0
ENDBLK
  5
21
330
1F
100
AcDbEntity
  8
0
100
AcDbBlockEnd
  0
BLOCK
  5
1C
330
1B
100
AcDbEntity
 67
     1
  8
0
100
AcDbBlockBegin
  2
*Paper_Space
 70
     0
 10
0.0
 20
0.0
 30
0.0
  3
*Paper_Space
  1

  0
ENDBLK
  5
1D
330
1B
100
AcDbEntity
 67
     1
  8
0
100
AcDbBlockEnd
  0
BLOCK
  5
24
330
23
100
AcDbEntity
  8
0
100
AcDbBlockBegin
  2
*Paper_Space0
 70
     0
 10
0.0
 20
0.0
 30
0.0
  3
*Paper_Space0
  1

  0
ENDBLK
  5
25
330
23
100
AcDbEntity
  8
0
100
AcDbBlockEnd
  0
BLOCK
  5
81
330
80
100
AcDbEntity
  8
0
100
AcDbBlockBegin
  2
Block11
 70
     0
 10
0.0
 20
0.0
 30
0.0
  3
Block11
  1

  0
CIRCLE
  5
83
330
80
100
AcDbEntity
  8
81
370
    18
100
AcDbCircle
 10
91.6264826505
 20
130.2676275275
 30
0.0
 40
2.499999999999981
  0
LINE
  5
84
330
80
100
AcDbEntity
  8
81
370
    18
100
AcDbLine
 10
91.6264826505
 20
130.2676275275
 30
0.0
 11
95.1620165565
 21
133.8031614334
 31
0.0
  0
LINE
  5
85
330
80
100
AcDbEntity
  8
81
370
    18
100
AcDbLine
 10
91.6264826505
 20
130.2676275275
 30
0.0
 11
88.0909487446
 21
126.7320936216
 31
0.0
  0
LINE
  5
86
330
80
100
AcDbEntity
  8
81
370
    18
100
AcDbLine
 10
91.6264826505
 20
130.2676275275
 30
0.0
 11
88.0909487446
 21
133.8031614334
 31
0.0
  0
LINE
  5
87
330
80
100
AcDbEntity
  8
81
100
AcDbLine
 10
91.6264826505
 20
130.2676275275
 30
0.0
 11
101.6264826505
 21
130.2676275275
 31
0.0
  0
LINE
  5
88
330
80
100
AcDbEntity
  8
81
370
    18
100
AcDbLine
 10
91.6264826505
 20
130.2676275275
 30
0.0
 11
95.1620165565
 21
126.7320936216
 31
0.0
  0
ENDBLK
  5
82
330
80
100
AcDbEntity
  8
0
100
AcDbBlockEnd
  0
BLOCK
  5
8A
330
89
100
AcDbEntity
  8
0
100
AcDbBlockBegin
  2
Block12
 70
     0
 10
0.0
 20
0.0
 30
0.0
  3
Block12
  1

  0
CIRCLE
  5
8C
330
89
100
AcDbEntity
  8
80
370
    18
100
AcDbCircle
 10
61.7273641656
 20
130.3356800267
 30
0.0
 40
2.500000000000004
  0
LINE
  5
8D
330
89
100
AcDbEntity
  8
80
370
    18
100
AcDbLine
 10
61.7273641656
 20
130.3356800267
 30
0.0
 11
65.2628980715
 21
133.8712139326
 31
0.0
  0
LINE
  5
8E
330
89
100
AcDbEntity
  8
80
370
    18
100
AcDbLine
 10
61.7273641656
 20
130.3356800267
 30
0.0
 11
58.1918302597
 21
126.8001461208
 31
0.0
  0
LINE
  5
8F
330
89
100
AcDbEntity
  8
80
370
    18
100
AcDbLine
 10
61.7273641656
 20
130.3356800267
 30
0.0
 11
58.1918302597
 21
133.8712139326
 31
0.0
  0
LINE
  5
90
330
89
100
AcDbEntity
  8
80
370
    18
100
AcDbLine
 10
61.7273641656
 20
130.3356800267
 30
0.0
 11
51.7273641656
 21
130.3356800267
 31
0.0
  0
LINE
  5
91
330
89
100
AcDbEntity
  8
80
370
    18
100
AcDbLine
 10
61.7273641656
 20
130.3356800267
 30
0.0
 11
65.2628980715
 21
126.8001461208
 31
0.0
  0
ENDBLK
  5
8B
330
89
100
AcDbEntity
  8
0
100
AcDbBlockEnd
  0
BLOCK
  5
265
330
264
100
AcDbEntity
  8
0
100
AcDbBlockBegin
  2
_D
 70
     0
 10
0.0
 20
0.0
 30
0.0
  3
_D
  1

  0
SOLID
  5
267
330
264
100
AcDbEntity
  8
SK2
100
AcDbTrace
 10
0.0
 20
60.2665257838
 30
0.0
 11
3.302
 21
59.7585257838
 31
0.0
 12
3.302
 22
60.7745257838
 32
0.0
 13
3.302
 23
60.7745257838
 33
0.0
  0
SOLID
  5
268
330
264
100
AcDbEntity
  8
SK2
100
AcDbTrace
 10
37.9999999933
 20
60.2665257838
 30
0.0
 11
34.6979999933
 21
60.7745257838
 31
0.0
 12
34.6979999933
 22
59.7585257838
 32
0.0
 13
34.6979999933
 23
59.7585257838
 33
0.0
  0
LINE
  5
269
330
264
100
AcDbEntity
  8
SK2
100
AcDbLine
 10
0.0
 20
35.925
 30
0.0
 11
0.0
 21
61.2665257838
 31
0.0
  0
LINE
  5
26A
330
264
100
AcDbEntity
  8
SK2
100
AcDbLine
 10
37.9999999933
 20
50.2286823296
 30
0.0
 11
37.9999999933
 21
61.2665257838
 31
0.0
  0
LINE
  5
26B
330
264
100
AcDbEntity
  8
SK2
100
AcDbLine
 10
0.0
 20
60.2665257838
 30
0.0
 11
37.9999999933
 21
60.2665257838
 31
0.0
  0
MTEXT
  5
26C
330
264
100
AcDbEntity
  8
SK2
100
AcDbMText
 10
16.7272813384
 20
64.7782626984
 30
0.0
 40
3.5
 41
0.0
 71
     1
 72
     1
  1
38
  7
SLDTEXTSTYLE0
 73
     1
 44
1.0
  0
ENDBLK
  5
266
330
264
100
AcDbEntity
  8
0
100
AcDbBlockEnd
  0
BLOCK
  5
26F
330
26E
100
AcDbEntity
  8
0
100
AcDbBlockBegin
  2
_D_1
 70
     0
 10
0.0
 20
0.0
 30
0.0
  3
_D_1
  1

  0
SOLID
  5
271
330
26E
100
AcDbEntity
  8
SK2
100
AcDbTrace
 10
37.9999999933
 20
60.2665257838
 30
0.0
 11
41.3019999933
 21
59.7585257838
 31
0.0
 12
41.3019999933
 22
60.7745257838
 32
0.0
 13
41.3019999933
 23
60.7745257838
 33
0.0
  0
SOLID
  5
272
330
26E
100
AcDbEntity
  8
SK2
100
AcDbTrace
 10
100.0
 20
60.2665257838
 30
0.0
 11
96.698
 21
60.7745257838
 31
0.0
 12
96.698
 22
59.7585257838
 32
0.0
 13
96.698
 23
59.7585257838
 33
0.0
  0
LINE
  5
273
330
26E
100
AcDbEntity
  8
SK2
100
AcDbLine
 10
37.9999999933
 20
50.2286823296
 30
0.0
 11
37.9999999933
 21
61.2665257838
 31
0.0
  0
LINE
  5
274
330
26E
100
AcDbEntity
  8
SK2
100
AcDbLine
 10
100.0
 20
25.9944465005
 30
0.0
 11
100.0
 21
61.2665257838
 31
0.0
  0
LINE
  5
275
330
26E
100
AcDbEntity
  8
SK2
100
AcDbLine
 10
37.9999999933
 20
60.2665257838
 30
0.0
 11
100.0
 21
60.2665257838
 31
0.0
  0
MTEXT
  5
276
330
26E
100
AcDbEntity
  8
SK2
100
AcDbMText
 10
64.2617642785
 20
64.7782626984
 30
0.0
 40
3.5
 41
0.0
 71
     1
 72
     1
  1
62
  7
SLDTEXTSTYLE0
 73
     1
 44
1.0
  0
ENDBLK
  5
270
330
26E
100
AcDbEntity
  8
0
100
AcDbBlockEnd
  0
BLOCK
  5
279
330
278
100
AcDbEntity
  8
0
100
AcDbBlockBegin
  2
_D_2
 70
     0
 10
0.0
 20
0.0
 30
0.0
  3
_D_2
  1

  0
SOLID
  5
27B
330
278
100
AcDbEntity
  8
2
100
AcDbTrace
 10
0.0
 20
70.0961873795
 30
0.0
 11
3.302
 21
69.5881873795
 31
0.0
 12
3.302
 22
70.6041873795
 32
0.0
 13
3.302
 23
70.6041873795
 33
0.0
  0
SOLID
  5
27C
330
278
100
AcDbEntity
  8
2
100
AcDbTrace
 10
100.0
 20
70.0961873795
 30
0.0
 11
96.698
 21
70.6041873795
 31
0.0
 12
96.698
 22
69.5881873795
 32
0.0
 13
96.698
 23
69.5881873795
 33
0.0
  0
LINE
  5
27D
330
278
100
AcDbEntity
  8
2
100
AcDbLine
 10
0.0
 20
35.925
 30
0.0
 11
0.0
 21
71.0961873795
 31
0.0
  0
LINE
  5
27E
330
278
100
AcDbEntity
  8
2
100
AcDbLine
 10
100.0
 20
25.9944465005
 30
0.0
 11
100.0
 21
71.0961873795
 31
0.0
  0
LINE
  5
27F
330
278
100
AcDbEntity
  8
2
100
AcDbLine
 10
0.0
 20
70.0961873795
 30
0.0
 11
100.0
 21
70.0961873795
 31
0.0
  0
MTEXT
  5
280
330
278
100
AcDbEntity
  8
2
100
AcDbMText
 10
44.4830765437
 20
74.607924294
 30
0.0
 40
3.5
 41
0.0
 71
     1
 72
     1
  1
100
  7
SLDTEXTSTYLE0
 73
     1
 44
1.0
  0
ENDBLK
  5
27A
330
278
100
AcDbEntity
  8
0
100
AcDbBlockEnd
  0
BLOCK
  5
283
330
282
100
AcDbEntity
  8
0
100
AcDbBlockBegin
  2
_D_3
 70
     0
 10
0.0
 20
0.0
 30
0.0
  3
_D_3
  1

  0
SOLID
  5
285
330
282
100
AcDbEntity
  8
SK2
100
AcDbTrace
 10
100.0
 20
50.143441454
 30
0.0
 11
96.698
 21
50.651441454
 31
0.0
 12
96.698
 22
49.635441454
 32
0.0
 13
96.698
 23
49.635441454
 33
0.0
  0
SOLID
  5
286
330
282
100
AcDbEntity
  8
SK2
100
AcDbTrace
 10
87.0
 20
50.143441454
 30
0.0
 11
90.302
 21
49.635441454
 31
0.0
 12
90.302
 22
50.651441454
 32
0.0
 13
90.302
 23
50.651441454
 33
0.0
  0
LINE
  5
287
330
282
100
AcDbEntity
  8
SK2
100
AcDbLine
 10
100.0
 20
25.9944465005
 30
0.0
 11
100.0
 21
51.143441454
 31
0.0
  0
LINE
  5
288
330
282
100
AcDbEntity
  8
SK2
100
AcDbLine
 10
87.0
 20
33.5
 30
0.0
 11
87.0
 21
51.143441454
 31
0.0
  0
LINE
  5
289
330
282
100
AcDbEntity
  8
SK2
100
AcDbLine
 10
100.0
 20
50.143441454
 30
0.0
 11
87.0
 21
50.143441454
 31
0.0
  0
MTEXT
  5
28A
330
282
100
AcDbEntity
  8
SK2
100
AcDbMText
 10
90.3763876221
 20
54.6551783686
 30
0.0
 40
3.5
 41
0.0
 71
     1
 72
     1
  1
13
  7
SLDTEXTSTYLE0
 73
     1
 44
1.0
  0
ENDBLK
  5
284
330
282
100
AcDbEntity
  8
0
100
AcDbBlockEnd
  0
BLOCK
  5
28D
330
28C
100
AcDbEntity
  8
0
100
AcDbBlockBegin
  2
_D_4
 70
     0
 10
0.0
 20
0.0
 30
0.0
  3
_D_4
  1

  0
SOLID
  5
28F
330
28C
100
AcDbEntity
  8
SK2
100
AcDbTrace
 10
140.2584400033
 20
32.5
 30
0.0
 11
139.7504400033
 21
29.198
 31
0.0
 12
140.7664400033
 22
29.198
 32
0.0
 13
140.7664400033
 23
29.198
 33
0.0
  0
SOLID
  5
290
330
28C
100
AcDbEntity
  8
SK2
100
AcDbTrace
 10
140.2584400033
 20
-32.5
 30
0.0
 11
140.7664400033
 21
-29.198
 31
0.0
 12
139.7504400033
 22
-29.198
 32
0.0
 13
139.7504400033
 23
-29.198
 33
0.0
  0
LINE
  5
291
330
28C
100
AcDbEntity
  8
SK2
100
AcDbLine
 10
88.0
 20
32.5
 30
0.0
 11
141.2584400033
 21
32.5
 31
0.0
  0
LINE
  5
292
330
28C
100
AcDbEntity
  8
SK2
100
AcDbLine
 10
88.0
 20
-32.5
 30
0.0
 11
141.2584400033
 21
-32.5
 31
0.0
  0
LINE
  5
293
330
28C
100
AcDbEntity
  8
SK2
100
AcDbLine
 10
140.2584400033
 20
32.5
 30
0.0
 11
140.2584400033
 21
-32.5
 31
0.0
  0
MTEXT
  5
294
330
28C
100
AcDbEntity
  8
SK2
100
AcDbMText
 10
135.7467029141
 20
-5.7767689403
 30
0.0
 40
3.5
 41
0.0
 71
     1
 72
     1
  1
%%c
  7
SLDTEXTSTYLE0
 11
-7.044195017643634E-15
 21
1.0
 31
0.0
 73
     1
 44
1.0
  0
MTEXT
  5
295
330
28C
100
AcDbEntity
  8
SK2
100
AcDbMText
 10
135.6932307375
 20
-0.4983315419
 30
0.0
 40
3.5
 41
0.0
 71
     1
 72
     1
  1
65
  7
SLDTEXTSTYLE0
 11
-7.044195017643634E-15
 21
1.0
 31
0.0
 73
     1
 44
1.0
  0
ENDBLK
  5
28E
330
28C
100
AcDbEntity
  8
0
100
AcDbBlockEnd
  0
BLOCK
  5
298
330
297
100
AcDbEntity
  8
0
100
AcDbBlockBegin
  2
_D_5
 70
     0
 10
0.0
 20
0.0
 30
0.0
  3
_D_5
  1

  0
SOLID
  5
29A
330
297
100
AcDbEntity
  8
SK2
100
AcDbTrace
 10
128.8686273801
 20
24.9944465005
 30
0.0
 11
128.3606273801
 21
21.6924465005
 31
0.0
 12
129.3766273801
 22
21.6924465005
 32
0.0
 13
129.3766273801
 23
21.6924465005
 33
0.0
  0
SOLID
  5
29B
330
297
100
AcDbEntity
  8
SK2
100
AcDbTrace
 10
128.8686273801
 20
-24.9944465005
 30
0.0
 11
129.3766273801
 21
-21.6924465005
 31
0.0
 12
128.3606273801
 22
-21.6924465005
 32
0.0
 13
128.3606273801
 23
-21.6924465005
 33
0.0
  0
LINE
  5
29C
330
297
100
AcDbEntity
  8
SK2
100
AcDbLine
 10
101.0
 20
24.9944465005
 30
0.0
 11
129.8686273801
 21
24.9944465005
 31
0.0
  0
LINE
  5
29D
330
297
100
AcDbEntity
  8
SK2
100
AcDbLine
 10
101.0
 20
-24.9944465005
 30
0.0
 11
129.8686273801
 21
-24.9944465005
 31
0.0
  0
LINE
  5
29E
330
297
100
AcDbEntity
  8
SK2
100
AcDbLine
 10
128.8686273801
 20
24.9944465005
 30
0.0
 11
128.8686273801
 21
-24.9944465005
 31
0.0
  0
MTEXT
  5
29F
330
297
100
AcDbEntity
  8
SK2
100
AcDbMText
 10
124.3568902909
 20
-5.7767689403
 30
0.0
 40
3.5
 41
0.0
 71
     1
 72
     1
  1
%%c
  7
SLDTEXTSTYLE0
 11
-7.044195017643634E-15
 21
1.0
 31
0.0
 73
     1
 44
1.0
  0
MTEXT
  5
2A0
330
297
100
AcDbEntity
  8
SK2
100
AcDbMText
 10
124.3034181143
 20
-0.4983315419
 30
0.0
 40
3.5
 41
0.0
 71
     1
 72
     1
  1
50
  7
SLDTEXTSTYLE0
 11
-7.044195017643634E-15
 21
1.0
 31
0.0
 73
     1
 44
1.0
  0
ENDBLK
  5
299
330
297
100
AcDbEntity
  8
0
100
AcDbBlockEnd
  0
BLOCK
  5
2A3
330
2A2
100
AcDbEntity
  8
0
100
AcDbBlockBegin
  2
_D_6
 70
     0
 10
0.0
 20
0.0
 30
0.0
  3
_D_6
  1

  0
SOLID
  5
2A5
330
2A2
100
AcDbEntity
  8
SK2
100
AcDbTrace
 10
118.0854287201
 20
12.5
 30
0.0
 11
117.5774287201
 21
9.198
 31
0.0
 12
118.5934287201
 22
9.198
 32
0.0
 13
118.5934287201
 23
9.198
 33
0.0
  0
SOLID
  5
2A6
330
2A2
100
AcDbEntity
  8
SK2
100
AcDbTrace
 10
118.0854287201
 20
-12.5
 30
0.0
 11
118.5934287201
 21
-9.198
 31
0.0
 12
117.5774287201
 22
-9.198
 32
0.0
 13
117.5774287201
 23
-9.198
 33
0.0
  0
LINE
  5
2A7
330
2A2
100
AcDbEntity
  8
SK2
100
AcDbLine
 10
100.0
 20
12.5
 30
0.0
 11
119.0854287201
 21
12.5
 31
0.0
  0
LINE
  5
2A8
330
2A2
100
AcDbEntity
  8
SK2
100
AcDbLine
 10
100.0
 20
-12.5
 30
0.0
 11
119.0854287201
 21
-12.5
 31
0.0
  0
LINE
  5
2A9
330
2A2
100
AcDbEntity
  8
SK2
100
AcDbLine
 10
118.0854287201
 20
12.5
 30
0.0
 11
118.0854287201
 21
-12.5
 31
0.0
  0
MTEXT
  5
2AA
330
2A2
100
AcDbEntity
  8
SK2
100
AcDbMText
 10
113.5736916309
 20
-5.7767689403
 30
0.0
 40
3.5
 41
0.0
 71
     1
 72
     1
  1
%%c
  7
SLDTEXTSTYLE0
 11
-7.044195017643634E-15
 21
1.0
 31
0.0
 73
     1
 44
1.0
  0
MTEXT
  5
2AB
330
2A2
100
AcDbEntity
  8
SK2
100
AcDbMText
 10
113.5202194543
 20
-0.4983315419
 30
0.0
 40
3.5
 41
0.0
 71
     1
 72
     1
  1
25
  7
SLDTEXTSTYLE0
 11
-7.044195017643634E-15
 21
1.0
 31
0.0
 73
     1
 44
1.0
  0
ENDBLK
  5
2A4
330
2A2
100
AcDbEntity
  8
0
100
AcDbBlockEnd
  0
BLOCK
  5
2AE
330
2AD
100
AcDbEntity
  8
0
100
AcDbBlockBegin
  2
_D_7
 70
     0
 10
0.0
 20
0.0
 30
0.0
  3
_D_7
  1

  0
SOLID
  5
2B0
330
2AD
100
AcDbEntity
  8
SK2
100
AcDbTrace
 10
100.0
 20
-42.9532105232
 30
0.0
 11
96.698
 21
-42.4452105232
 31
0.0
 12
96.698
 22
-43.4612105232
 32
0.0
 13
96.698
 23
-43.4612105232
 33
0.0
  0
SOLID
  5
2B1
330
2AD
100
AcDbEntity
  8
SK2
100
AcDbTrace
 10
76.0
 20
-42.9532105232
 30
0.0
 11
79.302
 21
-43.4612105232
 31
0.0
 12
79.302
 22
-42.4452105232
 32
0.0
 13
79.302
 23
-42.4452105232
 33
0.0
  0
LINE
  5
2B2
330
2AD
100
AcDbEntity
  8
SK2
100
AcDbLine
 10
100.0
 20
-25.9944465005
 30
0.0
 11
100.0
 21
-43.9532105232
 31
0.0
  0
LINE
  5
2B3
330
2AD
100
AcDbEntity
  8
SK2
100
AcDbLine
 10
76.0
 20
-33.4
 30
0.0
 11
76.0
 21
-43.9532105232
 31
0.0
  0
LINE
  5
2B4
330
2AD
100
AcDbEntity
  8
SK2
100
AcDbLine
 10
100.0
 20
-42.9532105232
 30
0.0
 11
76.0
 21
-42.9532105232
 31
0.0
  0
MTEXT
  5
2B5
330
2AD
100
AcDbEntity
  8
SK2
100
AcDbMText
 10
85.2928413934
 20
-38.4414736086
 30
0.0
 40
3.5
 41
0.0
 71
     1
 72
     1
  1
24
  7
SLDTEXTSTYLE0
 73
     1
 44
1.0
  0
ENDBLK
  5
2AF
330
2AD
100
AcDbEntity
  8
0
100
AcDbBlockEnd
  0
BLOCK
  5
2B8
330
2B7
100
AcDbEntity
  8
0
100
AcDbBlockBegin
  2
_D_8
 70
     0
 10
0.0
 20
0.0
 30
0.0
  3
_D_8
  1

  0
SOLID
  5
2BA
330
2B7
100
AcDbEntity
  8
SK2
100
AcDbTrace
 10
76.0
 20
-42.9532105232
 30
0.0
 11
72.698
 21
-42.4452105232
 31
0.0
 12
72.698
 22
-43.4612105232
 32
0.0
 13
72.698
 23
-43.4612105232
 33
0.0
  0
SOLID
  5
2BB
330
2B7
100
AcDbEntity
  8
SK2
100
AcDbTrace
 10
51.0
 20
-42.9532105232
 30
0.0
 11
54.302
 21
-43.4612105232
 31
0.0
 12
54.302
 22
-42.4452105232
 32
0.0
 13
54.302
 23
-42.4452105232
 33
0.0
  0
LINE
  5
2BC
330
2B7
100
AcDbEntity
  8
SK2
100
AcDbLine
 10
76.0
 20
-33.4
 30
0.0
 11
76.0
 21
-43.9532105232
 31
0.0
  0
LINE
  5
2BD
330
2B7
100
AcDbEntity
  8
SK2
100
AcDbLine
 10
51.0
 20
-33.4
 30
0.0
 11
51.0
 21
-43.9532105232
 31
0.0
  0
LINE
  5
2BE
330
2B7
100
AcDbEntity
  8
SK2
100
AcDbLine
 10
76.0
 20
-42.9532105232
 30
0.0
 11
51.0
 21
-42.9532105232
 31
0.0
  0
MTEXT
  5
2BF
330
2B7
100
AcDbEntity
  8
SK2
100
AcDbMText
 10
61.4739338543
 20
-38.4414736086
 30
0.0
 40
3.5
 41
0.0
 71
     1
 72
     1
  1
25
  7
SLDTEXTSTYLE0
 73
     1
 44
1.0
  0
ENDBLK
  5
2B9
330
2B7
100
AcDbEntity
  8
0
100
AcDbBlockEnd
  0
BLOCK
  5
2C2
330
2C1
100
AcDbEntity
  8
0
100
AcDbBlockBegin
  2
_D_9
 70
     0
 10
0.0
 20
0.0
 30
0.0
  3
_D_9
  1

  0
SOLID
  5
2C4
330
2C1
100
AcDbEntity
  8
SK2
100
AcDbTrace
 10
46.0
 20
-52.4069935217
 30
0.0
 11
49.302
 21
-52.9149935217
 31
0.0
 12
49.302
 22
-51.8989935217
 32
0.0
 13
49.302
 23
-51.8989935217
 33
0.0
  0
SOLID
  5
2C5
330
2C1
100
AcDbEntity
  8
SK2
100
AcDbTrace
 10
100.0
 20
-52.4069935217
 30
0.0
 11
96.698
 21
-51.8989935217
 31
0.0
 12
96.698
 22
-52.9149935217
 32
0.0
 13
96.698
 23
-52.9149935217
 33
0.0
  0
LINE
  5
2C6
330
2C1
100
AcDbEntity
  8
SK2
100
AcDbLine
 10
46.0
 20
-11.8282039138
 30
0.0
 11
46.0
 21
-53.4069935217
 31
0.0
  0
LINE
  5
2C7
330
2C1
100
AcDbEntity
  8
SK2
100
AcDbLine
 10
100.0
 20
-25.9944465005
 30
0.0
 11
100.0
 21
-53.4069935217
 31
0.0
  0
LINE
  5
2C8
330
2C1
100
AcDbEntity
  8
SK2
100
AcDbLine
 10
46.0
 20
-52.4069935217
 30
0.0
 11
100.0
 21
-52.4069935217
 31
0.0
  0
MTEXT
  5
2C9
330
2C1
100
AcDbEntity
  8
SK2
100
AcDbMText
 10
70.9351978235
 20
-47.8952566071
 30
0.0
 40
3.5
 41
0.0
 71
     1
 72
     1
  1
54
  7
SLDTEXTSTYLE0
 73
     1
 44
1.0
  0
ENDBLK
  5
2C3
330
2C1
100
AcDbEntity
  8
0
100
AcDbBlockEnd
  0
BLOCK
  5
2CC
330
2CB
100
AcDbEntity
  8
0
100
AcDbBlockBegin
  2
_D_10
 70
     0
 10
0.0
 20
0.0
 30
0.0
  3
_D_10
  1

  0
SOLID
  5
2CE
330
2CB
100
AcDbEntity
  8
SK2
100
AcDbTrace
 10
-120.2303328174
 20
34.925
 30
0.0
 11
-120.7383328174
 21
31.623
 31
0.0
 12
-119.7223328174
 22
31.623
 32
0.0
 13
-119.7223328174
 23
31.623
 33
0.0
  0
SOLID
  5
2CF
330
2CB
100
AcDbEntity
  8
SK2
100
AcDbTrace
 10
-120.2303328174
 20
-34.925
 30
0.0
 11
-119.7223328174
 21
-31.623
 31
0.0
 12
-120.7383328174
 22
-31.623
 32
0.0
 13
-120.7383328174
 23
-31.623
 33
0.0
  0
LINE
  5
2D0
330
2CB
100
AcDbEntity
  8
SK2
100
AcDbLine
 10
-1.0
 20
34.925
 30
0.0
 11
-121.2303328174
 21
34.925
 31
0.0
  0
LINE
  5
2D1
330
2CB
100
AcDbEntity
  8
SK2
100
AcDbLine
 10
-0.8
 20
-34.925
 30
0.0
 11
-121.2303328174
 21
-34.925
 31
0.0
  0
LINE
  5
2D2
330
2CB
100
AcDbEntity
  8
SK2
100
AcDbLine
 10
-120.2303328174
 20
34.925
 30
0.0
 11
-120.2303328174
 21
-34.925
 31
0.0
  0
MTEXT
  5
2D3
330
2CB
100
AcDbEntity
  8
SK2
100
AcDbMText
 10
-124.7420699066
 20
-9.3025933452
 30
0.0
 40
3.5
 41
0.0
 71
     1
 72
     1
  1
%%c
  7
SLDTEXTSTYLE0
 11
-7.044195017643634E-15
 21
1.0
 31
0.0
 73
     1
 44
1.0
  0
MTEXT
  5
2D4
330
2CB
100
AcDbEntity
  8
SK2
100
AcDbMText
 10
-124.7955420832
 20
-4.0241559469
 30
0.0
 40
3.5
 41
0.0
 71
     1
 72
     1
  1
69,85
  7
SLDTEXTSTYLE0
 11
-7.044195017643634E-15
 21
1.0
 31
0.0
 73
     1
 44
1.0
  0
ENDBLK
  5
2CD
330
2CB
100
AcDbEntity
  8
0
100
AcDbBlockEnd
  0
BLOCK
  5
2D7
330
2D6
100
AcDbEntity
  8
0
100
AcDbBlockBegin
  2
_D_11
 70
     0
 10
0.0
 20
0.0
 30
0.0
  3
_D_11
  1

  0
SOLID
  5
2D9
330
2D6
100
AcDbEntity
  8
SK2
100
AcDbTrace
 10
-109.9567074057
 20
-12.0
 30
0.0
 11
-109.4487074057
 21
-8.698
 31
0.0
 12
-110.4647074057
 22
-8.698
 32
0.0
 13
-110.4647074057
 23
-8.698
 33
0.0
  0
SOLID
  5
2DA
330
2D6
100
AcDbEntity
  8
SK2
100
AcDbTrace
 10
-109.9567074057
 20
12.0
 30
0.0
 11
-110.4647074057
 21
8.698
 31
0.0
 12
-109.4487074057
 22
8.698
 32
0.0
 13
-109.4487074057
 23
8.698
 33
0.0
  0
LINE
  5
2DB
330
2D6
100
AcDbEntity
  8
SK2
100
AcDbLine
 10
-89.1169872981
 20
-12.0
 30
0.0
 11
-110.9567074057
 21
-12.0
 31
0.0
  0
LINE
  5
2DC
330
2D6
100
AcDbEntity
  8
SK2
100
AcDbLine
 10
-89.1169872981
 20
12.0
 30
0.0
 11
-110.9567074057
 21
12.0
 31
0.0
  0
LINE
  5
2DD
330
2D6
100
AcDbEntity
  8
SK2
100
AcDbLine
 10
-109.9567074057
 20
-12.0
 30
0.0
 11
-109.9567074057
 21
12.0
 31
0.0
  0
MTEXT
  5
2DE
330
2D6
100
AcDbEntity
  8
SK2
100
AcDbMText
 10
-114.4684443203
 20
-4.304014916
 30
0.0
 40
3.5
 41
0.0
 71
     1
 72
     1
  1
M
  7
SLDTEXTSTYLE0
 11
3.169856808907806E-15
 21
1.0
 31
0.0
 73
     1
 44
1.0
  0
MTEXT
  5
2DF
330
2D6
100
AcDbEntity
  8
SK2
100
AcDbMText
 10
-114.4684443203
 20
-0.0165149816
 30
0.0
 40
3.5
 41
0.0
 71
     1
 72
     1
  1
24
  7
SLDTEXTSTYLE0
 11
3.169856808907806E-15
 21
1.0
 31
0.0
 73
     1
 44
1.0
  0
ENDBLK
  5
2D8
330
2D6
100
AcDbEntity
  8
0
100
AcDbBlockEnd
  0
BLOCK
  5
2E2
330
2E1
100
AcDbEntity
  8
0
100
AcDbBlockBegin
  2
_D_12
 70
     0
 10
0.0
 20
0.0
 30
0.0
  3
_D_12
  1

  0
SOLID
  5
2E4
330
2E1
100
AcDbEntity
  8
SK2
100
AcDbTrace
 10
-131.9436719109
 20
49.978682327
 30
0.0
 11
-132.4516719109
 21
46.676682327
 31
0.0
 12
-131.4356719109
 22
46.676682327
 32
0.0
 13
-131.4356719109
 23
46.676682327
 33
0.0
  0
SOLID
  5
2E5
330
2E1
100
AcDbEntity
  8
SK2
100
AcDbTrace
 10
-131.9436719109
 20
-49.978682327
 30
0.0
 11
-131.4356719109
 21
-46.676682327
 31
0.0
 12
-132.4516719109
 22
-46.676682327
 32
0.0
 13
-132.4516719109
 23
-46.676682327
 33
0.0
  0
LINE
  5
2E6
330
2E1
100
AcDbEntity
  8
SK2
100
AcDbLine
 10
2.75
 20
49.978682327
 30
0.0
 11
-132.9436719109
 21
49.978682327
 31
0.0
  0
LINE
  5
2E7
330
2E1
100
AcDbEntity
  8
SK2
100
AcDbLine
 10
2.75
 20
-49.978682327
 30
0.0
 11
-132.9436719109
 21
-49.978682327
 31
0.0
  0
LINE
  5
2E8
330
2E1
100
AcDbEntity
  8
SK2
100
AcDbLine
 10
-131.9436719109
 20
49.978682327
 30
0.0
 11
-131.9436719109
 21
-49.978682327
 31
0.0
  0
MTEXT
  5
2E9
330
2E1
100
AcDbEntity
  8
SK2
100
AcDbMText
 10
-136.4554090001
 20
-7.3630102411
 30
0.0
 40
3.5
 41
0.0
 71
     1
 72
     1
  1
%%c
  7
SLDTEXTSTYLE0
 11
-7.044195017643634E-15
 21
1.0
 31
0.0
 73
     1
 44
1.0
  0
MTEXT
  5
2EA
330
2E1
100
AcDbEntity
  8
SK2
100
AcDbMText
 10
-136.5088811767
 20
-2.0845728428
 30
0.0
 40
3.5
 41
0.0
 71
     1
 72
     1
  1
100
  7
SLDTEXTSTYLE0
 11
-7.044195017643634E-15
 21
1.0
 31
0.0
 73
     1
 44
1.0
  0
ENDBLK
  5
2E3
330
2E1
100
AcDbEntity
  8
0
100
AcDbBlockEnd
  0
ENDSEC
  0
SECTION
  2
ENTITIES
  0
LINE
  5
92
330
1F
100
AcDbEntity
  8
1
  6
SLD-Solid
370
    25
100
AcDbLine
 10
37.2500000057
 20
49.978682327
 30
0.0
 11
30.7300000057
 21
49.978682327
 31
0.0
  0
LINE
  5
93
330
1F
100
AcDbEntity
  8
1
  6
SLD-Solid
370
    25
100
AcDbLine
 10
30.7299999933
 20
-49.9786823243
 30
0.0
 11
37.2499999933
 21
-49.9786823243
 31
0.0
  0
LINE
  5
94
330
1F
100
AcDbEntity
  8
1
  6
SLD-Solid
370
    25
100
AcDbLine
 10
30.7300000057
 20
49.978682327
 30
0.0
 11
26.7050000062
 21
43.0071778284
 31
0.0
  0
LINE
  5
95
330
1F
100
AcDbEntity
  8
1
  6
SLD-Solid
370
    25
100
AcDbLine
 10
26.7049999933
 20
-43.0071778238
 30
0.0
 11
30.7299999933
 21
-49.9786823243
 31
0.0
  0
LINE
  5
96
330
1F
100
AcDbEntity
  8
1
  6
SLD-Solid
370
    25
100
AcDbLine
 10
3.75
 20
-49.978682327
 30
0.0
 11
15.68
 21
-49.978682327
 31
0.0
  0
LINE
  5
97
330
1F
100
AcDbEntity
  8
1
  6
SLD-Solid
370
    25
100
AcDbLine
 10
15.68
 20
49.978682327
 30
0.0
 11
3.75
 21
49.978682327
 31
0.0
  0
LINE
  5
98
330
1F
100
AcDbEntity
  8
1
  6
SLD-Solid
370
    25
100
AcDbLine
 10
15.68
 20
-49.978682327
 30
0.0
 11
19.705
 21
-43.0071778265
 31
0.0
  0
LINE
  5
99
330
1F
100
AcDbEntity
  8
1
  6
SLD-Solid
370
    25
100
AcDbLine
 10
19.705
 20
43.0071778265
 30
0.0
 11
15.68
 21
49.978682327
 31
0.0
  0
LINE
  5
9A
330
1F
100
AcDbEntity
  8
1
  6
SLD-Solid
370
    25
100
AcDbLine
 10
26.33
 20
42.5
 30
0.0
 11
20.08
 21
42.5
 31
0.0
  0
LINE
  5
9B
330
1F
100
AcDbEntity
  8
1
  6
SLD-Solid
370
    25
100
AcDbLine
 10
20.08
 20
-42.5
 30
0.0
 11
26.33
 21
-42.5
 31
0.0
  0
LINE
  5
9C
330
1F
100
AcDbEntity
  8
1
  6
SLD-Solid
370
    25
100
AcDbLine
 10
0.2
 20
-34.925
 30
0.0
 11
0.3290707856
 21
-34.8504809472
 31
0.0
  0
LINE
  5
9D
330
1F
100
AcDbEntity
  8
1
  6
SLD-Solid
370
    25
100
AcDbLine
 10
0.3290707856
 20
34.8504809472
 30
0.0
 11
0.2
 21
34.925
 31
0.0
  0
LINE
  5
9E
330
1F
100
AcDbEntity
  8
1
  6
SLD-Solid
370
    25
100
AcDbLine
 10
0.2
 20
34.925
 30
0.0
 11
0.0
 21
34.925
 31
0.0
  0
LINE
  5
9F
330
1F
100
AcDbEntity
  8
1
  6
SLD-Solid
370
    25
100
AcDbLine
 10
0.0
 20
-34.925
 30
0.0
 11
0.2
 21
-34.925
 31
0.0
  0
LINE
  5
A0
330
1F
100
AcDbEntity
  8
SK1
  6
SLD-Solid
370
    25
100
AcDbLine
 10
0.0
 20
34.925
 30
0.0
 11
-100.944317822
 21
20.2028150506
 31
0.0
  0
LINE
  5
A1
330
1F
100
AcDbEntity
  8
SK1
  6
SLD-Solid
370
    25
100
AcDbLine
 10
-100.944317822
 20
-20.2028150506
 30
0.0
 11
0.0
 21
-34.925
 31
0.0
  0
LINE
  5
A2
330
1F
100
AcDbEntity
  8
1
  6
SLD-Solid
370
    25
100
AcDbLine
 10
2.25
 20
34.75
 30
0.0
 11
0.7040707856
 21
34.75
 31
0.0
  0
LINE
  5
A3
330
1F
100
AcDbEntity
  8
1
  6
SLD-Solid
370
    25
100
AcDbLine
 10
0.7040707856
 20
-34.75
 30
0.0
 11
2.25
 21
-34.75
 31
0.0
  0
LINE
  5
A4
330
1F
100
AcDbEntity
  8
1
  6
SLD-Solid
370
    25
100
AcDbLine
 10
87.0
 20
-32.5
 30
0.0
 11
100.0
 21
-24.9944465005
 31
0.0
  0
LINE
  5
A5
330
1F
100
AcDbEntity
  8
1
  6
SLD-Solid
370
    25
100
AcDbLine
 10
100.0
 20
24.9944465005
 30
0.0
 11
87.0
 21
32.5
 31
0.0
  0
LINE
  5
A6
330
1F
100
AcDbEntity
  8
1
  6
SLD-Solid
370
    25
100
AcDbLine
 10
63.6102019337
 20
32.5
 30
0.0
 11
63.3859742986
 21
32.5
 31
0.0
  0
LINE
  5
A7
330
1F
100
AcDbEntity
  8
1
  6
SLD-Solid
370
    25
100
AcDbLine
 10
87.0
 20
32.5
 30
0.0
 11
86.3715233854
 21
32.5
 31
0.0
  0
LINE
  5
A8
330
1F
100
AcDbEntity
  8
1
  6
SLD-Solid
370
    25
100
AcDbLine
 10
86.1
 20
-32.5
 30
0.0
 11
87.0
 21
-32.5
 31
0.0
  0
LINE
  5
A9
330
1F
100
AcDbEntity
  8
1
  6
SLD-Solid
370
    25
100
AcDbLine
 10
61.1
 20
-32.5
 30
0.0
 11
65.9081784145
 21
-32.5
 31
0.0
  0
LINE
  5
AA
330
1F
100
AcDbEntity
  8
1
  6
SLD-Solid
370
    25
100
AcDbLine
 10
30.7300000057
 20
49.978682327
 30
0.0
 11
30.7300000057
 21
10.3017892946
 31
0.0
  0
LINE
  5
AB
330
1F
100
AcDbEntity
  8
1
  6
SLD-Solid
370
    25
100
AcDbLine
 10
30.7299999932
 20
-10.3017892815
 30
0.0
 11
30.7299999933
 21
-49.9786823243
 31
0.0
  0
LINE
  5
AC
330
1F
100
AcDbEntity
  8
1
  6
SLD-Solid
370
    25
100
AcDbLine
 10
37.9999999933
 20
49.2286823296
 30
0.0
 11
37.9999999933
 21
-49.2286823243
 31
0.0
  0
LINE
  5
AD
330
1F
100
AcDbEntity
  8
1
  6
SLD-Solid
370
    25
100
AcDbLine
 10
26.7050000062
 20
43.0071778284
 30
0.0
 11
26.7050000062
 21
11.846897275
 31
0.0
  0
LINE
  5
AE
330
1F
100
AcDbEntity
  8
1
  6
SLD-Solid
370
    25
100
AcDbLine
 10
26.7049999933
 20
-11.8468972705
 30
0.0
 11
26.7049999933
 21
-43.0071778238
 31
0.0
  0
LINE
  5
AF
330
1F
100
AcDbEntity
  8
1
  6
SLD-Solid
370
    25
100
AcDbLine
 10
3.0
 20
-13.65
 30
0.0
 11
3.75
 21
-12.9
 31
0.0
  0
LINE
  5
B0
330
1F
100
AcDbEntity
  8
1
  6
SLD-Solid
370
    25
100
AcDbLine
 10
3.75
 20
-12.9
 30
0.0
 11
16.2300196942
 21
-12.9
 31
0.0
  0
LINE
  5
B1
330
1F
100
AcDbEntity
  8
1
  6
SLD-Solid
370
    25
100
AcDbLine
 10
15.68
 20
-13.8579580341
 30
0.0
 11
3.75
 21
-13.8579580341
 31
0.0
  0
LINE
  5
B2
330
1F
100
AcDbEntity
  8
1
  6
SLD-Solid
370
    25
100
AcDbLine
 10
3.0
 20
13.65
 30
0.0
 11
3.0
 21
49.228682327
 31
0.0
  0
LINE
  5
B3
330
1F
100
AcDbEntity
  8
1
  6
SLD-Solid
370
    25
100
AcDbLine
 10
3.75
 20
12.9
 30
0.0
 11
3.0
 21
13.65
 31
0.0
  0
LINE
  5
B4
330
1F
100
AcDbEntity
  8
1
  6
SLD-Solid
370
    25
100
AcDbLine
 10
3.0
 20
-49.228682327
 30
0.0
 11
3.0
 21
-13.65
 31
0.0
  0
LINE
  5
B5
330
1F
100
AcDbEntity
  8
1
  6
SLD-Solid
370
    25
100
AcDbLine
 10
15.68
 20
-13.8579580341
 30
0.0
 11
15.68
 21
-49.978682327
 31
0.0
  0
LINE
  5
B6
330
1F
100
AcDbEntity
  8
1
  6
SLD-Solid
370
    25
100
AcDbLine
 10
16.2300196942
 20
12.9
 30
0.0
 11
3.75
 21
12.9
 31
0.0
  0
LINE
  5
B7
330
1F
100
AcDbEntity
  8
1
  6
SLD-Solid
370
    25
100
AcDbLine
 10
3.75
 20
13.8579580341
 30
0.0
 11
15.68
 21
13.8579580341
 31
0.0
  0
LINE
  5
B8
330
1F
100
AcDbEntity
  8
1
  6
SLD-Solid
370
    25
100
AcDbLine
 10
15.68
 20
49.978682327
 30
0.0
 11
15.68
 21
13.8579580341
 31
0.0
  0
LINE
  5
B9
330
1F
100
AcDbEntity
  8
1
  6
SLD-Solid
370
    25
100
AcDbLine
 10
19.705
 20
-12.9
 30
0.0
 11
19.705
 21
-43.0071778265
 31
0.0
  0
LINE
  5
BA
330
1F
100
AcDbEntity
  8
1
  6
SLD-Solid
370
    25
100
AcDbLine
 10
19.705
 20
43.0071778265
 30
0.0
 11
19.705
 21
12.9
 31
0.0
  0
LINE
  5
BB
330
1F
100
AcDbEntity
  8
1
  6
SLD-Solid
370
    25
100
AcDbLine
 10
20.08
 20
12.9000000019
 30
0.0
 11
21.6000000062
 21
12.9000000019
 31
0.0
  0
LINE
  5
BC
330
1F
100
AcDbEntity
  8
1
  6
SLD-Solid
370
    25
100
AcDbLine
 10
21.5999999933
 20
-12.8999999973
 30
0.0
 11
20.08
 21
-12.8999999973
 31
0.0
  0
LINE
  5
BD
330
1F
100
AcDbEntity
  8
1
  6
SLD-Solid
370
    25
100
AcDbLine
 10
3.0
 20
11.4643398282
 30
0.0
 11
3.0
 21
13.65
 31
0.0
  0
LINE
  5
BE
330
1F
100
AcDbEntity
  8
1
  6
SLD-Solid
370
    25
100
AcDbLine
 10
3.0
 20
-13.65
 30
0.0
 11
3.0
 21
-11.4643398282
 31
0.0
  0
LINE
  5
BF
330
1F
100
AcDbEntity
  8
1
  6
SLD-Solid
370
    25
100
AcDbLine
 10
41.0
 20
-32.5
 30
0.0
 11
40.9048572038
 21
-32.5
 31
0.0
  0
LINE
  5
C0
330
1F
100
AcDbEntity
  8
1
  6
SLD-Solid
370
    25
100
AcDbLine
 10
3.0
 20
-11.4643398282
 30
0.0
 11
3.0
 21
-3.7629775444
 31
0.0
  0
LINE
  5
C1
330
1F
100
AcDbEntity
  8
1
  6
SLD-Solid
370
    25
100
AcDbLine
 10
3.0
 20
3.7629775444
 30
0.0
 11
3.0
 21
11.4643398282
 31
0.0
  0
LINE
  5
C2
330
1F
100
AcDbEntity
  8
1
  6
SLD-Solid
370
    25
100
AcDbLine
 10
0.0
 20
34.925
 30
0.0
 11
0.0
 21
-34.925
 31
0.0
  0
LINE
  5
C3
330
1F
100
AcDbEntity
  8
1
  6
SLD-Solid
370
    25
100
AcDbLine
 10
87.0
 20
32.5
 30
0.0
 11
87.0
 21
-32.5
 31
0.0
  0
LINE
  5
C4
330
1F
100
AcDbEntity
  8
1
  6
SLD-Solid
370
    25
100
AcDbLine
 10
100.0
 20
24.9944465005
 30
0.0
 11
100.0
 21
-24.9944465005
 31
0.0
  0
LINE
  5
C5
330
1F
100
AcDbEntity
  8
SK1
  6
SLD-Solid
370
    25
100
AcDbLine
 10
-101.8
 20
-19.2132836634
 30
0.0
 11
-101.8
 21
19.2132836634
 31
0.0
  0
LINE
  5
C6
330
1F
100
AcDbEntity
  8
SK3
  6
SLD-Dashed
370
    18
100
AcDbLine
 10
11.1
 20
43.7958995207
 30
0.0
 11
10.5104896512
 21
43.76550953
 31
0.0
  0
LINE
  5
C7
330
1F
100
AcDbEntity
  8
SK3
  6
SLD-Dashed
370
    18
100
AcDbLine
 10
10.5104896512
 20
43.76550953
 30
0.0
 11
9.9733598839
 21
43.677039842
 31
0.0
  0
LINE
  5
C8
330
1F
100
AcDbEntity
  8
SK3
  6
SLD-Dashed
370
    18
100
AcDbLine
 10
9.9733598839
 20
43.677039842
 30
0.0
 11
9.5363370351
 21
43.5383513768
 31
0.0
  0
LINE
  5
C9
330
1F
100
AcDbEntity
  8
SK3
  6
SLD-Dashed
370
    18
100
AcDbLine
 10
9.5363370351
 20
43.5383513768
 30
0.0
 11
9.2382525027
 21
43.3617672131
 31
0.0
  0
LINE
  5
CA
330
1F
100
AcDbEntity
  8
SK3
  6
SLD-Dashed
370
    18
100
AcDbLine
 10
9.2382525027
 20
43.3617672131
 30
0.0
 11
9.1055924056
 21
43.1629776287
 31
0.0
  0
LINE
  5
CB
330
1F
100
AcDbEntity
  8
SK3
  6
SLD-Dashed
370
    18
100
AcDbLine
 10
9.1055924056
 20
43.1629776287
 30
0.0
 11
9.1501441756
 21
42.9596459506
 31
0.0
  0
LINE
  5
CC
330
1F
100
AcDbEntity
  8
SK3
  6
SLD-Dashed
370
    18
100
AcDbLine
 10
9.1501441756
 20
42.9596459506
 30
0.0
 11
9.3679491924
 21
42.7698390907
 31
0.0
  0
LINE
  5
CD
330
1F
100
AcDbEntity
  8
SK3
  6
SLD-Dashed
370
    18
100
AcDbLine
 10
9.3679491924
 20
42.7698390907
 30
0.0
 11
9.7396545245
 21
42.6104222215
 31
0.0
  0
LINE
  5
CE
330
1F
100
AcDbEntity
  8
SK3
  6
SLD-Dashed
370
    18
100
AcDbLine
 10
9.7396545245
 20
42.6104222215
 30
0.0
 11
10.2322325218
 21
42.4955602314
 31
0.0
  0
LINE
  5
CF
330
1F
100
AcDbEntity
  8
SK3
  6
SLD-Dashed
370
    18
100
AcDbLine
 10
10.2322325218
 20
42.4955602314
 30
0.0
 11
10.8019154676
 21
42.4354591122
 31
0.0
  0
LINE
  5
D0
330
1F
100
AcDbEntity
  8
SK3
  6
SLD-Dashed
370
    18
100
AcDbLine
 10
10.8019154676
 20
42.4354591122
 30
0.0
 11
11.3980845324
 21
42.4354591122
 31
0.0
  0
LINE
  5
D1
330
1F
100
AcDbEntity
  8
SK3
  6
SLD-Dashed
370
    18
100
AcDbLine
 10
11.3980845324
 20
42.4354591122
 30
0.0
 11
11.9677674782
 21
42.4955602314
 31
0.0
  0
LINE
  5
D2
330
1F
100
AcDbEntity
  8
SK3
  6
SLD-Dashed
370
    18
100
AcDbLine
 10
11.9677674782
 20
42.4955602314
 30
0.0
 11
12.4603454755
 21
42.6104222215
 31
0.0
  0
LINE
  5
D3
330
1F
100
AcDbEntity
  8
SK3
  6
SLD-Dashed
370
    18
100
AcDbLine
 10
12.4603454755
 20
42.6104222215
 30
0.0
 11
12.8320508076
 21
42.7698390907
 31
0.0
  0
LINE
  5
D4
330
1F
100
AcDbEntity
  8
SK3
  6
SLD-Dashed
370
    18
100
AcDbLine
 10
12.8320508076
 20
42.7698390907
 30
0.0
 11
13.0498558244
 21
42.9596459506
 31
0.0
  0
LINE
  5
D5
330
1F
100
AcDbEntity
  8
SK3
  6
SLD-Dashed
370
    18
100
AcDbLine
 10
13.0498558244
 20
42.9596459506
 30
0.0
 11
13.0944075944
 21
43.1629776287
 31
0.0
  0
LINE
  5
D6
330
1F
100
AcDbEntity
  8
SK3
  6
SLD-Dashed
370
    18
100
AcDbLine
 10
13.0944075944
 20
43.1629776287
 30
0.0
 11
12.9617474973
 21
43.3617672131
 31
0.0
  0
LINE
  5
D7
330
1F
100
AcDbEntity
  8
SK3
  6
SLD-Dashed
370
    18
100
AcDbLine
 10
12.9617474973
 20
43.3617672131
 30
0.0
 11
12.6636629649
 21
43.5383513768
 31
0.0
  0
LINE
  5
D8
330
1F
100
AcDbEntity
  8
SK3
  6
SLD-Dashed
370
    18
100
AcDbLine
 10
12.6636629649
 20
43.5383513768
 30
0.0
 11
12.2266401161
 21
43.677039842
 31
0.0
  0
LINE
  5
D9
330
1F
100
AcDbEntity
  8
SK3
  6
SLD-Dashed
370
    18
100
AcDbLine
 10
12.2266401161
 20
43.677039842
 30
0.0
 11
11.6895103488
 21
43.76550953
 31
0.0
  0
LINE
  5
DA
330
1F
100
AcDbEntity
  8
SK3
  6
SLD-Dashed
370
    18
100
AcDbLine
 10
11.6895103488
 20
43.76550953
 30
0.0
 11
11.1
 21
43.7958995207
 31
0.0
  0
LINE
  5
DB
330
1F
100
AcDbEntity
  8
SK3
  6
SLD-Dashed
370
    18
100
AcDbLine
 10
11.1
 20
43.4863063449
 30
0.0
 11
10.5642458758
 21
43.4557292135
 31
0.0
  0
LINE
  5
DC
330
1F
100
AcDbEntity
  8
SK3
  6
SLD-Dashed
370
    18
100
AcDbLine
 10
10.5642458758
 20
43.4557292135
 30
0.0
 11
10.0865490241
 21
43.3673113261
 31
0.0
  0
LINE
  5
DD
330
1F
100
AcDbEntity
  8
SK3
  6
SLD-Dashed
370
    18
100
AcDbLine
 10
10.0865490241
 20
43.3673113261
 30
0.0
 11
9.7186753109
 21
43.2306341326
 31
0.0
  0
LINE
  5
DE
330
1F
100
AcDbEntity
  8
SK3
  6
SLD-Dashed
370
    18
100
AcDbLine
 10
9.7186753109
 20
43.2306341326
 30
0.0
 11
9.5004895612
 21
43.0605087278
 31
0.0
  0
LINE
  5
DF
330
1F
100
AcDbEntity
  8
SK3
  6
SLD-Dashed
370
    18
100
AcDbLine
 10
9.5004895612
 20
43.0605087278
 30
0.0
 11
9.4556355865
 21
42.8753708391
 31
0.0
  0
LINE
  5
E0
330
1F
100
AcDbEntity
  8
SK3
  6
SLD-Dashed
370
    18
100
AcDbLine
 10
9.4556355865
 20
42.8753708391
 30
0.0
 11
9.588974011
 21
42.6952830293
 31
0.0
  0
LINE
  5
E1
330
1F
100
AcDbEntity
  8
SK3
  6
SLD-Dashed
370
    18
100
AcDbLine
 10
9.588974011
 20
42.6952830293
 30
0.0
 11
9.8860555474
 21
42.539760607
 31
0.0
  0
LINE
  5
E2
330
1F
100
AcDbEntity
  8
SK3
  6
SLD-Dashed
370
    18
100
AcDbLine
 10
9.8860555474
 20
42.539760607
 30
0.0
 11
10.3146868015
 21
42.4256568399
 31
0.0
  0
LINE
  5
E3
330
1F
100
AcDbEntity
  8
SK3
  6
SLD-Dashed
370
    18
100
AcDbLine
 10
10.3146868015
 20
42.4256568399
 30
0.0
 11
10.828418926
 21
42.3653366417
 31
0.0
  0
LINE
  5
E4
330
1F
100
AcDbEntity
  8
SK3
  6
SLD-Dashed
370
    18
100
AcDbLine
 10
10.828418926
 20
42.3653366417
 30
0.0
 11
11.371581074
 21
42.3653366417
 31
0.0
  0
LINE
  5
E5
330
1F
100
AcDbEntity
  8
SK3
  6
SLD-Dashed
370
    18
100
AcDbLine
 10
11.371581074
 20
42.3653366417
 30
0.0
 11
11.8853131985
 21
42.4256568399
 31
0.0
  0
LINE
  5
E6
330
1F
100
AcDbEntity
  8
SK3
  6
SLD-Dashed
370
    18
100
AcDbLine
 10
11.8853131985
 20
42.4256568399
 30
0.0
 11
12.3139444526
 21
42.539760607
 31
0.0
  0
LINE
  5
E7
330
1F
100
AcDbEntity
  8
SK3
  6
SLD-Dashed
370
    18
100
AcDbLine
 10
12.3139444526
 20
42.539760607
 30
0.0
 11
12.611025989
 21
42.6952830293
 31
0.0
  0
LINE
  5
E8
330
1F
100
AcDbEntity
  8
SK3
  6
SLD-Dashed
370
    18
100
AcDbLine
 10
12.611025989
 20
42.6952830293
 30
0.0
 11
12.7443644135
 21
42.8753708391
 31
0.0
  0
LINE
  5
E9
330
1F
100
AcDbEntity
  8
SK3
  6
SLD-Dashed
370
    18
100
AcDbLine
 10
12.7443644135
 20
42.8753708391
 30
0.0
 11
12.6995104388
 21
43.0605087278
 31
0.0
  0
LINE
  5
EA
330
1F
100
AcDbEntity
  8
SK3
  6
SLD-Dashed
370
    18
100
AcDbLine
 10
12.6995104388
 20
43.0605087278
 30
0.0
 11
12.4813246891
 21
43.2306341326
 31
0.0
  0
LINE
  5
EB
330
1F
100
AcDbEntity
  8
SK3
  6
SLD-Dashed
370
    18
100
AcDbLine
 10
12.4813246891
 20
43.2306341326
 30
0.0
 11
12.1134509759
 21
43.3673113261
 31
0.0
  0
LINE
  5
EC
330
1F
100
AcDbEntity
  8
SK3
  6
SLD-Dashed
370
    18
100
AcDbLine
 10
12.1134509759
 20
43.3673113261
 30
0.0
 11
11.6357541242
 21
43.4557292135
 31
0.0
  0
LINE
  5
ED
330
1F
100
AcDbEntity
  8
SK3
  6
SLD-Dashed
370
    18
100
AcDbLine
 10
11.6357541242
 20
43.4557292135
 30
0.0
 11
11.1
 21
43.4863063449
 31
0.0
  0
LINE
  5
EE
330
1F
100
AcDbEntity
  8
SK3
  6
SLD-Dashed
370
    18
100
AcDbLine
 10
9.6039384425
 20
37.6510244886
 30
0.0
 11
9.4883859037
 21
37.7155051163
 31
0.0
  0
LINE
  5
EF
330
1F
100
AcDbEntity
  8
SK3
  6
SLD-Dashed
370
    18
100
AcDbLine
 10
9.4883859037
 20
37.7155051163
 30
0.0
 11
9.4510251871
 21
37.6716120846
 31
0.0
  0
LINE
  5
F0
330
1F
100
AcDbEntity
  8
SK3
  6
SLD-Dashed
370
    18
100
AcDbLine
 10
9.4510251871
 20
37.6716120846
 30
0.0
 11
9.4683049732
 21
37.5413753617
 31
0.0
  0
LINE
  5
F1
330
1F
100
AcDbEntity
  8
SK3
  6
SLD-Dashed
370
    18
100
AcDbLine
 10
9.4683049732
 20
37.5413753617
 30
0.0
 11
9.5321185428
 21
37.3521608151
 31
0.0
  0
LINE
  5
F2
330
1F
100
AcDbEntity
  8
SK3
  6
SLD-Dashed
370
    18
100
AcDbLine
 10
9.5321185428
 20
37.3521608151
 30
0.0
 11
9.7109914129
 21
36.9572232263
 31
0.0
  0
LINE
  5
F3
330
1F
100
AcDbEntity
  8
SK3
  6
SLD-Dashed
370
    18
100
AcDbLine
 10
9.7109914129
 20
36.9572232263
 30
0.0
 11
10.1362287949
 21
36.2162854985
 31
0.0
  0
LINE
  5
F4
330
1F
100
AcDbEntity
  8
SK3
  6
SLD-Dashed
370
    18
100
AcDbLine
 10
10.1362287949
 20
36.2162854985
 30
0.0
 11
10.882255187
 21
35.2960293739
 31
0.0
  0
LINE
  5
F5
330
1F
100
AcDbEntity
  8
SK3
  6
SLD-Dashed
370
    18
100
AcDbLine
 10
10.882255187
 20
35.2960293739
 30
0.0
 11
11.3166645362
 21
34.9768973214
 31
0.0
  0
LINE
  5
F6
330
1F
100
AcDbEntity
  8
SK3
  6
SLD-Dashed
370
    18
100
AcDbLine
 10
11.3166645362
 20
34.9768973214
 30
0.0
 11
11.8034084809
 21
34.810282363
 31
0.0
  0
LINE
  5
F7
330
1F
100
AcDbEntity
  8
SK3
  6
SLD-Dashed
370
    18
100
AcDbLine
 10
11.8034084809
 20
34.810282363
 30
0.0
 11
12.1971344444
 21
34.8184039859
 31
0.0
  0
LINE
  5
F8
330
1F
100
AcDbEntity
  8
SK3
  6
SLD-Dashed
370
    18
100
AcDbLine
 10
12.1971344444
 20
34.8184039859
 30
0.0
 11
12.5018110505
 21
34.9245493855
 31
0.0
  0
LINE
  5
F9
330
1F
100
AcDbEntity
  8
SK3
  6
SLD-Dashed
370
    18
100
AcDbLine
 10
12.5018110505
 20
34.9245493855
 30
0.0
 11
12.7051006403
 21
35.0969646428
 31
0.0
  0
LINE
  5
FA
330
1F
100
AcDbEntity
  8
SK3
  6
SLD-Dashed
370
    18
100
AcDbLine
 10
12.7051006403
 20
35.0969646428
 30
0.0
 11
12.7412641999
 21
35.2879442037
 31
0.0
  0
LINE
  5
FB
330
1F
100
AcDbEntity
  8
SK3
  6
SLD-Dashed
370
    18
100
AcDbLine
 10
12.7412641999
 20
35.2879442037
 30
0.0
 11
12.5931133743
 21
35.4633189362
 31
0.0
  0
LINE
  5
FC
330
1F
100
AcDbEntity
  8
SK3
  6
SLD-Dashed
370
    18
100
AcDbLine
 10
12.5931133743
 20
35.4633189362
 30
0.0
 11
12.2764819223
 21
35.6276304465
 31
0.0
  0
LINE
  5
FD
330
1F
100
AcDbEntity
  8
SK3
  6
SLD-Dashed
370
    18
100
AcDbLine
 10
12.2764819223
 20
35.6276304465
 30
0.0
 11
11.8432412473
 21
35.8129767597
 31
0.0
  0
LINE
  5
FE
330
1F
100
AcDbEntity
  8
SK3
  6
SLD-Dashed
370
    18
100
AcDbLine
 10
11.8432412473
 20
35.8129767597
 30
0.0
 11
11.4174985696
 21
36.0336380552
 31
0.0
  0
LINE
  5
FF
330
1F
100
AcDbEntity
  8
SK3
  6
SLD-Dashed
370
    18
100
AcDbLine
 10
11.4174985696
 20
36.0336380552
 30
0.0
 11
11.1
 21
36.2443456783
 31
0.0
  0
LINE
  5
100
330
1F
100
AcDbEntity
  8
SK3
  6
SLD-Dashed
370
    18
100
AcDbLine
 10
3.1949403416
 20
36.0985003391
 30
0.0
 11
3.3615900545
 21
36.0860566456
 31
0.0
  0
LINE
  5
101
330
1F
100
AcDbEntity
  8
SK3
  6
SLD-Dashed
370
    18
100
AcDbLine
 10
3.3615900545
 20
36.0860566456
 30
0.0
 11
3.6217415901
 21
36.2172875115
 31
0.0
  0
LINE
  5
102
330
1F
100
AcDbEntity
  8
SK3
  6
SLD-Dashed
370
    18
100
AcDbLine
 10
3.6217415901
 20
36.2172875115
 30
0.0
 11
3.9576660511
 21
36.4832497703
 31
0.0
  0
LINE
  5
103
330
1F
100
AcDbEntity
  8
SK3
  6
SLD-Dashed
370
    18
100
AcDbLine
 10
3.9576660511
 20
36.4832497703
 30
0.0
 11
4.3464707407
 21
36.8658185335
 31
0.0
  0
LINE
  5
104
330
1F
100
AcDbEntity
  8
SK3
  6
SLD-Dashed
370
    18
100
AcDbLine
 10
4.3464707407
 20
36.8658185335
 30
0.0
 11
4.7616592619
 21
37.3389223722
 31
0.0
  0
LINE
  5
105
330
1F
100
AcDbEntity
  8
SK3
  6
SLD-Dashed
370
    18
100
AcDbLine
 10
4.7616592619
 20
37.3389223722
 30
0.0
 11
5.1749372029
 21
37.8703200416
 31
0.0
  0
LINE
  5
106
330
1F
100
AcDbEntity
  8
SK3
  6
SLD-Dashed
370
    18
100
AcDbLine
 10
5.1749372029
 20
37.8703200416
 30
0.0
 11
5.5581403551
 21
38.4237976687
 31
0.0
  0
LINE
  5
107
330
1F
100
AcDbEntity
  8
SK3
  6
SLD-Dashed
370
    18
100
AcDbLine
 10
5.5581403551
 20
38.4237976687
 30
0.0
 11
5.8851540571
 21
38.9616366678
 31
0.0
  0
LINE
  5
108
330
1F
100
AcDbEntity
  8
SK3
  6
SLD-Dashed
370
    18
100
AcDbLine
 10
5.8851540571
 20
38.9616366678
 30
0.0
 11
6.1336928653
 21
39.4471842001
 31
0.0
  0
LINE
  5
109
330
1F
100
AcDbEntity
  8
SK3
  6
SLD-Dashed
370
    18
100
AcDbLine
 10
6.1336928653
 20
39.4471842001
 30
0.0
 11
6.2868192707
 21
39.8473510035
 31
0.0
  0
LINE
  5
10A
330
1F
100
AcDbEntity
  8
SK3
  6
SLD-Dashed
370
    18
100
AcDbLine
 10
6.2868192707
 20
39.8473510035
 30
0.0
 11
6.3340979619
 21
40.1348663718
 31
0.0
  0
LINE
  5
10B
330
1F
100
AcDbEntity
  8
SK3
  6
SLD-Dashed
370
    18
100
AcDbLine
 10
6.3340979619
 20
40.1348663718
 30
0.0
 11
6.2723069743
 21
40.2901366077
 31
0.0
  0
LINE
  5
10C
330
1F
100
AcDbEntity
  8
SK3
  6
SLD-Dashed
370
    18
100
AcDbLine
 10
6.2723069743
 20
40.2901366077
 30
0.0
 11
6.1056572614
 21
40.3025803013
 31
0.0
  0
LINE
  5
10D
330
1F
100
AcDbEntity
  8
SK3
  6
SLD-Dashed
370
    18
100
AcDbLine
 10
6.1056572614
 20
40.3025803013
 30
0.0
 11
5.8455057258
 21
40.1713494354
 31
0.0
  0
LINE
  5
10E
330
1F
100
AcDbEntity
  8
SK3
  6
SLD-Dashed
370
    18
100
AcDbLine
 10
5.8455057258
 20
40.1713494354
 30
0.0
 11
5.5095812647
 21
39.9053871766
 31
0.0
  0
LINE
  5
10F
330
1F
100
AcDbEntity
  8
SK3
  6
SLD-Dashed
370
    18
100
AcDbLine
 10
5.5095812647
 20
39.9053871766
 30
0.0
 11
5.1207765751
 21
39.5228184133
 31
0.0
  0
LINE
  5
110
330
1F
100
AcDbEntity
  8
SK3
  6
SLD-Dashed
370
    18
100
AcDbLine
 10
5.1207765751
 20
39.5228184133
 30
0.0
 11
4.705588054
 21
39.0497145746
 31
0.0
  0
LINE
  5
111
330
1F
100
AcDbEntity
  8
SK3
  6
SLD-Dashed
370
    18
100
AcDbLine
 10
4.705588054
 20
39.0497145746
 30
0.0
 11
4.292310113
 21
38.5183169052
 31
0.0
  0
LINE
  5
112
330
1F
100
AcDbEntity
  8
SK3
  6
SLD-Dashed
370
    18
100
AcDbLine
 10
4.292310113
 20
38.5183169052
 30
0.0
 11
3.9091069607
 21
37.9648392782
 31
0.0
  0
LINE
  5
113
330
1F
100
AcDbEntity
  8
SK3
  6
SLD-Dashed
370
    18
100
AcDbLine
 10
3.9091069607
 20
37.9648392782
 30
0.0
 11
3.5820932588
 21
37.427000279
 31
0.0
  0
LINE
  5
114
330
1F
100
AcDbEntity
  8
SK3
  6
SLD-Dashed
370
    18
100
AcDbLine
 10
3.5820932588
 20
37.427000279
 30
0.0
 11
3.3335544506
 21
36.9414527468
 31
0.0
  0
LINE
  5
115
330
1F
100
AcDbEntity
  8
SK3
  6
SLD-Dashed
370
    18
100
AcDbLine
 10
3.3335544506
 20
36.9414527468
 30
0.0
 11
3.1804280451
 21
36.5412859433
 31
0.0
  0
LINE
  5
116
330
1F
100
AcDbEntity
  8
SK3
  6
SLD-Dashed
370
    18
100
AcDbLine
 10
3.1804280451
 20
36.5412859433
 30
0.0
 11
3.1331493539
 21
36.253770575
 31
0.0
  0
LINE
  5
117
330
1F
100
AcDbEntity
  8
SK3
  6
SLD-Dashed
370
    18
100
AcDbLine
 10
3.1331493539
 20
36.253770575
 30
0.0
 11
3.1949403416
 21
36.0985003391
 31
0.0
  0
LINE
  5
118
330
1F
100
AcDbEntity
  8
SK3
  6
SLD-Dashed
370
    18
100
AcDbLine
 10
3.2837105329
 20
36.2194129238
 30
0.0
 11
3.4496730814
 21
36.2102771479
 31
0.0
  0
LINE
  5
119
330
1F
100
AcDbEntity
  8
SK3
  6
SLD-Dashed
370
    18
100
AcDbLine
 10
3.4496730814
 20
36.2102771479
 30
0.0
 11
3.7108603704
 21
36.3482886407
 31
0.0
  0
LINE
  5
11A
330
1F
100
AcDbEntity
  8
SK3
  6
SLD-Dashed
370
    18
100
AcDbLine
 10
3.7108603704
 20
36.3482886407
 30
0.0
 11
4.0479013336
 21
36.6232117212
 31
0.0
  0
LINE
  5
11B
330
1F
100
AcDbEntity
  8
SK3
  6
SLD-Dashed
370
    18
100
AcDbLine
 10
4.0479013336
 20
36.6232117212
 30
0.0
 11
4.4357991846
 21
37.0146566022
 31
0.0
  0
LINE
  5
11C
330
1F
100
AcDbEntity
  8
SK3
  6
SLD-Dashed
370
    18
100
AcDbLine
 10
4.4357991846
 20
37.0146566022
 30
0.0
 11
4.8457853144
 21
37.4935916076
 31
0.0
  0
LINE
  5
11D
330
1F
100
AcDbEntity
  8
SK3
  6
SLD-Dashed
370
    18
100
AcDbLine
 10
4.8457853144
 20
37.4935916076
 30
0.0
 11
5.2474529272
 21
38.024496319
 31
0.0
  0
LINE
  5
11E
330
1F
100
AcDbEntity
  8
SK3
  6
SLD-Dashed
370
    18
100
AcDbLine
 10
5.2474529272
 20
38.024496319
 30
0.0
 11
5.6110121737
 21
38.5679959627
 31
0.0
  0
LINE
  5
11F
330
1F
100
AcDbEntity
  8
SK3
  6
SLD-Dashed
370
    18
100
AcDbLine
 10
5.6110121737
 20
38.5679959627
 30
0.0
 11
5.9094995278
 21
39.0837816565
 31
0.0
  0
LINE
  5
120
330
1F
100
AcDbEntity
  8
SK3
  6
SLD-Dashed
370
    18
100
AcDbLine
 10
5.9094995278
 20
39.0837816565
 30
0.0
 11
6.1207775479
 21
39.533599935
 31
0.0
  0
LINE
  5
121
330
1F
100
AcDbEntity
  8
SK3
  6
SLD-Dashed
370
    18
100
AcDbLine
 10
6.1207775479
 20
39.533599935
 30
0.0
 11
6.2291767098
 21
39.8840898343
 31
0.0
  0
LINE
  5
122
330
1F
100
AcDbEntity
  8
SK3
  6
SLD-Dashed
370
    18
100
AcDbLine
 10
6.2291767098
 20
39.8840898343
 30
0.0
 11
6.2266575435
 21
40.109257122
 31
0.0
  0
LINE
  5
123
330
1F
100
AcDbEntity
  8
SK3
  6
SLD-Dashed
370
    18
100
AcDbLine
 10
6.2266575435
 20
40.109257122
 30
0.0
 11
6.1134068841
 21
40.1924021704
 31
0.0
  0
LINE
  5
124
330
1F
100
AcDbEntity
  8
SK3
  6
SLD-Dashed
370
    18
100
AcDbLine
 10
6.1134068841
 20
40.1924021704
 30
0.0
 11
5.8978240149
 21
40.1273584916
 31
0.0
  0
LINE
  5
125
330
1F
100
AcDbEntity
  8
SK3
  6
SLD-Dashed
370
    18
100
AcDbLine
 10
5.8978240149
 20
40.1273584916
 30
0.0
 11
5.5958977311
 21
39.9189500777
 31
0.0
  0
LINE
  5
126
330
1F
100
AcDbEntity
  8
SK3
  6
SLD-Dashed
370
    18
100
AcDbLine
 10
5.5958977311
 20
39.9189500777
 30
0.0
 11
5.230020524
 21
39.5826336274
 31
0.0
  0
LINE
  5
127
330
1F
100
AcDbEntity
  8
SK3
  6
SLD-Dashed
370
    18
100
AcDbLine
 10
5.230020524
 20
39.5826336274
 30
0.0
 11
4.8273278321
 21
39.1433521933
 31
0.0
  0
LINE
  5
128
330
1F
100
AcDbEntity
  8
SK3
  6
SLD-Dashed
370
    18
100
AcDbLine
 10
4.8273278321
 20
39.1433521933
 30
0.0
 11
4.4176855303
 21
38.6336852696
 31
0.0
  0
LINE
  5
129
330
1F
100
AcDbEntity
  8
SK3
  6
SLD-Dashed
370
    18
100
AcDbLine
 10
4.4176855303
 20
38.6336852696
 30
0.0
 11
4.0314749141
 21
38.0914325207
 31
0.0
  0
LINE
  5
12A
330
1F
100
AcDbEntity
  8
SK3
  6
SLD-Dashed
370
    18
100
AcDbLine
 10
4.0314749141
 20
38.0914325207
 30
0.0
 11
3.6973394581
 21
37.5568103522
 31
0.0
  0
LINE
  5
12B
330
1F
100
AcDbEntity
  8
SK3
  6
SLD-Dashed
370
    18
100
AcDbLine
 10
3.6973394581
 20
37.5568103522
 30
0.0
 11
3.4400604606
 21
37.0694692447
 31
0.0
  0
LINE
  5
12C
330
1F
100
AcDbEntity
  8
SK3
  6
SLD-Dashed
370
    18
100
AcDbLine
 10
3.4400604606
 20
37.0694692447
 30
0.0
 11
3.2787191277
 21
36.6655530586
 31
0.0
  0
LINE
  5
12D
330
1F
100
AcDbEntity
  8
SK3
  6
SLD-Dashed
370
    18
100
AcDbLine
 10
3.2787191277
 20
36.6655530586
 30
0.0
 11
3.2252814081
 21
36.3750184097
 31
0.0
  0
LINE
  5
12E
330
1F
100
AcDbEntity
  8
SK3
  6
SLD-Dashed
370
    18
100
AcDbLine
 10
3.2252814081
 20
36.3750184097
 30
0.0
 11
3.2837105329
 21
36.2194129238
 31
0.0
  0
LINE
  5
12F
330
1F
100
AcDbEntity
  8
SK3
  6
SLD-Dashed
370
    18
100
AcDbLine
 10
14.0794578574
 20
28.2935170536
 30
0.0
 11
14.2454204058
 21
28.2843812778
 31
0.0
  0
LINE
  5
130
330
1F
100
AcDbEntity
  8
SK3
  6
SLD-Dashed
370
    18
100
AcDbLine
 10
14.2454204058
 20
28.2843812778
 30
0.0
 11
14.5066076948
 21
28.4223927706
 31
0.0
  0
LINE
  5
131
330
1F
100
AcDbEntity
  8
SK3
  6
SLD-Dashed
370
    18
100
AcDbLine
 10
14.5066076948
 20
28.4223927706
 30
0.0
 11
14.843648658
 21
28.6973158511
 31
0.0
  0
LINE
  5
132
330
1F
100
AcDbEntity
  8
SK3
  6
SLD-Dashed
370
    18
100
AcDbLine
 10
14.843648658
 20
28.6973158511
 30
0.0
 11
15.231546509
 21
29.0887607321
 31
0.0
  0
LINE
  5
133
330
1F
100
AcDbEntity
  8
SK3
  6
SLD-Dashed
370
    18
100
AcDbLine
 10
15.231546509
 20
29.0887607321
 30
0.0
 11
15.6415326388
 21
29.5676957374
 31
0.0
  0
LINE
  5
134
330
1F
100
AcDbEntity
  8
SK3
  6
SLD-Dashed
370
    18
100
AcDbLine
 10
15.6415326388
 20
29.5676957374
 30
0.0
 11
16.0432002516
 21
30.0986004488
 31
0.0
  0
LINE
  5
135
330
1F
100
AcDbEntity
  8
SK3
  6
SLD-Dashed
370
    18
100
AcDbLine
 10
16.0432002516
 20
30.0986004488
 30
0.0
 11
16.4067594981
 21
30.6421000925
 31
0.0
  0
LINE
  5
136
330
1F
100
AcDbEntity
  8
SK3
  6
SLD-Dashed
370
    18
100
AcDbLine
 10
16.4067594981
 20
30.6421000925
 30
0.0
 11
16.7052468522
 21
31.1578857863
 31
0.0
  0
LINE
  5
137
330
1F
100
AcDbEntity
  8
SK3
  6
SLD-Dashed
370
    18
100
AcDbLine
 10
16.7052468522
 20
31.1578857863
 30
0.0
 11
16.9165248723
 21
31.6077040649
 31
0.0
  0
LINE
  5
138
330
1F
100
AcDbEntity
  8
SK3
  6
SLD-Dashed
370
    18
100
AcDbLine
 10
16.9165248723
 20
31.6077040649
 30
0.0
 11
17.0249240342
 21
31.9581939642
 31
0.0
  0
LINE
  5
139
330
1F
100
AcDbEntity
  8
SK3
  6
SLD-Dashed
370
    18
100
AcDbLine
 10
17.0249240342
 20
31.9581939642
 30
0.0
 11
17.0224048679
 21
32.1833612519
 31
0.0
  0
LINE
  5
13A
330
1F
100
AcDbEntity
  8
SK3
  6
SLD-Dashed
370
    18
100
AcDbLine
 10
17.0224048679
 20
32.1833612519
 30
0.0
 11
16.9091542086
 21
32.2665063002
 31
0.0
  0
LINE
  5
13B
330
1F
100
AcDbEntity
  8
SK3
  6
SLD-Dashed
370
    18
100
AcDbLine
 10
16.9091542086
 20
32.2665063002
 30
0.0
 11
16.6935713394
 21
32.2014626214
 31
0.0
  0
LINE
  5
13C
330
1F
100
AcDbEntity
  8
SK3
  6
SLD-Dashed
370
    18
100
AcDbLine
 10
16.6935713394
 20
32.2014626214
 30
0.0
 11
16.3916450556
 21
31.9930542076
 31
0.0
  0
LINE
  5
13D
330
1F
100
AcDbEntity
  8
SK3
  6
SLD-Dashed
370
    18
100
AcDbLine
 10
16.3916450556
 20
31.9930542076
 30
0.0
 11
16.0257678484
 21
31.6567377573
 31
0.0
  0
LINE
  5
13E
330
1F
100
AcDbEntity
  8
SK3
  6
SLD-Dashed
370
    18
100
AcDbLine
 10
16.0257678484
 20
31.6567377573
 30
0.0
 11
15.6230751565
 21
31.2174563231
 31
0.0
  0
LINE
  5
13F
330
1F
100
AcDbEntity
  8
SK3
  6
SLD-Dashed
370
    18
100
AcDbLine
 10
15.6230751565
 20
31.2174563231
 30
0.0
 11
15.2134328547
 21
30.7077893995
 31
0.0
  0
LINE
  5
140
330
1F
100
AcDbEntity
  8
SK3
  6
SLD-Dashed
370
    18
100
AcDbLine
 10
15.2134328547
 20
30.7077893995
 30
0.0
 11
14.8272222385
 21
30.1655366506
 31
0.0
  0
LINE
  5
141
330
1F
100
AcDbEntity
  8
SK3
  6
SLD-Dashed
370
    18
100
AcDbLine
 10
14.8272222385
 20
30.1655366506
 30
0.0
 11
14.4930867825
 21
29.6309144821
 31
0.0
  0
LINE
  5
142
330
1F
100
AcDbEntity
  8
SK3
  6
SLD-Dashed
370
    18
100
AcDbLine
 10
14.4930867825
 20
29.6309144821
 30
0.0
 11
14.235807785
 21
29.1435733746
 31
0.0
  0
LINE
  5
143
330
1F
100
AcDbEntity
  8
SK3
  6
SLD-Dashed
370
    18
100
AcDbLine
 10
14.235807785
 20
29.1435733746
 30
0.0
 11
14.0744664521
 21
28.7396571885
 31
0.0
  0
LINE
  5
144
330
1F
100
AcDbEntity
  8
SK3
  6
SLD-Dashed
370
    18
100
AcDbLine
 10
14.0744664521
 20
28.7396571885
 30
0.0
 11
14.0210287325
 21
28.4491225396
 31
0.0
  0
LINE
  5
145
330
1F
100
AcDbEntity
  8
SK3
  6
SLD-Dashed
370
    18
100
AcDbLine
 10
14.0210287325
 20
28.4491225396
 30
0.0
 11
14.0794578574
 21
28.2935170536
 31
0.0
  0
LINE
  5
146
330
1F
100
AcDbEntity
  8
SK3
  6
SLD-Dashed
370
    18
100
AcDbLine
 10
-100.05
 20
12.5075
 30
0.0
 11
-100.05
 21
-12.5075
 31
0.0
  0
LINE
  5
147
330
1F
100
AcDbEntity
  8
SK3
  6
SLD-Dashed
370
    18
100
AcDbLine
 10
99.0
 20
-12.5
 30
0.0
 11
99.0
 21
12.5
 31
0.0
  0
LINE
  5
148
330
1F
100
AcDbEntity
  8
SK3
  6
SLD-Dashed
370
    18
100
AcDbLine
 10
45.75
 20
-11.2305387226
 30
0.0
 11
45.75
 21
12.75
 31
0.0
  0
LINE
  5
149
330
1F
100
AcDbEntity
  8
SK3
  6
SLD-Dashed
370
    18
100
AcDbLine
 10
46.0
 20
12.5
 30
0.0
 11
46.0
 21
-10.8282039138
 31
0.0
  0
LINE
  5
14A
330
1F
100
AcDbEntity
  8
SK3
  6
SLD-Dashed
370
    18
100
AcDbLine
 10
41.25
 20
12.75
 30
0.0
 11
41.25
 21
-12.75
 31
0.0
  0
LINE
  5
14B
330
1F
100
AcDbEntity
  8
SK3
  6
SLD-Dashed
370
    18
100
AcDbLine
 10
41.0
 20
12.5
 30
0.0
 11
41.0
 21
-12.5
 31
0.0
  0
LINE
  5
14C
330
1F
100
AcDbEntity
  8
SK3
  6
SLD-Dashed
370
    18
100
AcDbLine
 10
-91.55
 20
12.75
 30
0.0
 11
-91.55
 21
-12.75
 31
0.0
  0
LINE
  5
14D
330
1F
100
AcDbEntity
  8
SK3
  6
SLD-Dashed
370
    18
100
AcDbLine
 10
-91.9700223208
 20
12.5075
 30
0.0
 11
-91.9700223208
 21
-12.5075
 31
0.0
  0
LINE
  5
14E
330
1F
100
AcDbEntity
  8
SK3
  6
SLD-Dashed
370
    18
100
AcDbLine
 10
-88.55
 20
12.75
 30
0.0
 11
-88.55
 21
-12.75
 31
0.0
  0
LINE
  5
14F
330
1F
100
AcDbEntity
  8
SK3
  6
SLD-Dashed
370
    18
100
AcDbLine
 10
-87.2509618943
 20
10.5
 30
0.0
 11
-87.2509618943
 21
-10.5
 31
0.0
  0
LINE
  5
150
330
1F
100
AcDbEntity
  8
1
  6
SLD-Dashed
370
    18
100
AcDbLine
 10
40.9048572038
 20
-32.5
 30
0.0
 11
40.9
 21
-32.5
 31
0.0
  0
LINE
  5
151
330
1F
100
AcDbEntity
  8
SK3
  6
SLD-Dashed
370
    18
100
AcDbLine
 10
61.1
 20
-30.4
 30
0.0
 11
40.9
 21
-30.4
 31
0.0
  0
LINE
  5
152
330
1F
100
AcDbEntity
  8
SK3
  6
SLD-Dashed
370
    18
100
AcDbLine
 10
86.1
 20
-30.4
 30
0.0
 11
65.9
 21
-30.4
 31
0.0
  0
LINE
  5
153
330
1F
100
AcDbEntity
  8
SK3
  6
SLD-Dashed
370
    18
100
AcDbLine
 10
6.1835367829
 20
-40.1692240231
 30
0.0
 11
6.0175742345
 21
-40.178359799
 31
0.0
  0
LINE
  5
154
330
1F
100
AcDbEntity
  8
SK3
  6
SLD-Dashed
370
    18
100
AcDbLine
 10
6.0175742345
 20
-40.178359799
 30
0.0
 11
5.7563869455
 21
-40.0403483061
 31
0.0
  0
LINE
  5
155
330
1F
100
AcDbEntity
  8
SK3
  6
SLD-Dashed
370
    18
100
AcDbLine
 10
5.7563869455
 20
-40.0403483061
 30
0.0
 11
5.4193459823
 21
-39.7654252256
 31
0.0
  0
LINE
  5
156
330
1F
100
AcDbEntity
  8
SK3
  6
SLD-Dashed
370
    18
100
AcDbLine
 10
5.4193459823
 20
-39.7654252256
 30
0.0
 11
5.0314481312
 21
-39.3739803447
 31
0.0
  0
LINE
  5
157
330
1F
100
AcDbEntity
  8
SK3
  6
SLD-Dashed
370
    18
100
AcDbLine
 10
5.0314481312
 20
-39.3739803447
 30
0.0
 11
4.6214620015
 21
-38.8950453393
 31
0.0
  0
LINE
  5
158
330
1F
100
AcDbEntity
  8
SK3
  6
SLD-Dashed
370
    18
100
AcDbLine
 10
4.6214620015
 20
-38.8950453393
 30
0.0
 11
4.2197943887
 21
-38.3641406279
 31
0.0
  0
LINE
  5
159
330
1F
100
AcDbEntity
  8
SK3
  6
SLD-Dashed
370
    18
100
AcDbLine
 10
4.2197943887
 20
-38.3641406279
 30
0.0
 11
3.8562351421
 21
-37.8206409842
 31
0.0
  0
LINE
  5
15A
330
1F
100
AcDbEntity
  8
SK3
  6
SLD-Dashed
370
    18
100
AcDbLine
 10
3.8562351421
 20
-37.8206409842
 30
0.0
 11
3.557747788
 21
-37.3048552904
 31
0.0
  0
LINE
  5
15B
330
1F
100
AcDbEntity
  8
SK3
  6
SLD-Dashed
370
    18
100
AcDbLine
 10
3.557747788
 20
-37.3048552904
 30
0.0
 11
3.3464697679
 21
-36.8550370119
 31
0.0
  0
LINE
  5
15C
330
1F
100
AcDbEntity
  8
SK3
  6
SLD-Dashed
370
    18
100
AcDbLine
 10
3.3464697679
 20
-36.8550370119
 30
0.0
 11
3.2380706061
 21
-36.5045471125
 31
0.0
  0
LINE
  5
15D
330
1F
100
AcDbEntity
  8
SK3
  6
SLD-Dashed
370
    18
100
AcDbLine
 10
3.2380706061
 20
-36.5045471125
 30
0.0
 11
3.2405897723
 21
-36.2793798248
 31
0.0
  0
LINE
  5
15E
330
1F
100
AcDbEntity
  8
SK3
  6
SLD-Dashed
370
    18
100
AcDbLine
 10
3.2405897723
 20
-36.2793798248
 30
0.0
 11
3.3538404317
 21
-36.1962347765
 31
0.0
  0
LINE
  5
15F
330
1F
100
AcDbEntity
  8
SK3
  6
SLD-Dashed
370
    18
100
AcDbLine
 10
3.3538404317
 20
-36.1962347765
 30
0.0
 11
3.5694233009
 21
-36.2612784553
 31
0.0
  0
LINE
  5
160
330
1F
100
AcDbEntity
  8
SK3
  6
SLD-Dashed
370
    18
100
AcDbLine
 10
3.5694233009
 20
-36.2612784553
 30
0.0
 11
3.8713495847
 21
-36.4696868691
 31
0.0
  0
LINE
  5
161
330
1F
100
AcDbEntity
  8
SK3
  6
SLD-Dashed
370
    18
100
AcDbLine
 10
3.8713495847
 20
-36.4696868691
 30
0.0
 11
4.2372267919
 21
-36.8060033194
 31
0.0
  0
LINE
  5
162
330
1F
100
AcDbEntity
  8
SK3
  6
SLD-Dashed
370
    18
100
AcDbLine
 10
4.2372267919
 20
-36.8060033194
 30
0.0
 11
4.6399194838
 21
-37.2452847536
 31
0.0
  0
LINE
  5
163
330
1F
100
AcDbEntity
  8
SK3
  6
SLD-Dashed
370
    18
100
AcDbLine
 10
4.6399194838
 20
-37.2452847536
 30
0.0
 11
5.0495617856
 21
-37.7549516772
 31
0.0
  0
LINE
  5
164
330
1F
100
AcDbEntity
  8
SK3
  6
SLD-Dashed
370
    18
100
AcDbLine
 10
5.0495617856
 20
-37.7549516772
 30
0.0
 11
5.4357724018
 21
-38.2972044261
 31
0.0
  0
LINE
  5
165
330
1F
100
AcDbEntity
  8
SK3
  6
SLD-Dashed
370
    18
100
AcDbLine
 10
5.4357724018
 20
-38.2972044261
 30
0.0
 11
5.7699078577
 21
-38.8318265946
 31
0.0
  0
LINE
  5
166
330
1F
100
AcDbEntity
  8
SK3
  6
SLD-Dashed
370
    18
100
AcDbLine
 10
5.7699078577
 20
-38.8318265946
 30
0.0
 11
6.0271868553
 21
-39.3191677021
 31
0.0
  0
LINE
  5
167
330
1F
100
AcDbEntity
  8
SK3
  6
SLD-Dashed
370
    18
100
AcDbLine
 10
6.0271868553
 20
-39.3191677021
 30
0.0
 11
6.1885281882
 21
-39.7230838882
 31
0.0
  0
LINE
  5
168
330
1F
100
AcDbEntity
  8
SK3
  6
SLD-Dashed
370
    18
100
AcDbLine
 10
6.1885281882
 20
-39.7230838882
 30
0.0
 11
6.2419659078
 21
-40.0136185371
 31
0.0
  0
LINE
  5
169
330
1F
100
AcDbEntity
  8
SK3
  6
SLD-Dashed
370
    18
100
AcDbLine
 10
6.2419659078
 20
-40.0136185371
 30
0.0
 11
6.1835367829
 21
-40.1692240231
 31
0.0
  0
LINE
  5
16A
330
1F
100
AcDbEntity
  8
SK3
  6
SLD-Dashed
370
    18
100
AcDbLine
 10
16.9792841073
 20
-32.2433281529
 30
0.0
 11
16.8133215589
 21
-32.2524639288
 31
0.0
  0
LINE
  5
16B
330
1F
100
AcDbEntity
  8
SK3
  6
SLD-Dashed
370
    18
100
AcDbLine
 10
16.8133215589
 20
-32.2524639288
 30
0.0
 11
16.5521342699
 21
-32.114452436
 31
0.0
  0
LINE
  5
16C
330
1F
100
AcDbEntity
  8
SK3
  6
SLD-Dashed
370
    18
100
AcDbLine
 10
16.5521342699
 20
-32.114452436
 30
0.0
 11
16.2150933067
 21
-31.8395293555
 31
0.0
  0
LINE
  5
16D
330
1F
100
AcDbEntity
  8
SK3
  6
SLD-Dashed
370
    18
100
AcDbLine
 10
16.2150933067
 20
-31.8395293555
 30
0.0
 11
15.8271954557
 21
-31.4480844745
 31
0.0
  0
LINE
  5
16E
330
1F
100
AcDbEntity
  8
SK3
  6
SLD-Dashed
370
    18
100
AcDbLine
 10
15.8271954557
 20
-31.4480844745
 30
0.0
 11
15.4172093259
 21
-30.9691494691
 31
0.0
  0
LINE
  5
16F
330
1F
100
AcDbEntity
  8
SK3
  6
SLD-Dashed
370
    18
100
AcDbLine
 10
15.4172093259
 20
-30.9691494691
 30
0.0
 11
15.0155417131
 21
-30.4382447577
 31
0.0
  0
LINE
  5
170
330
1F
100
AcDbEntity
  8
SK3
  6
SLD-Dashed
370
    18
100
AcDbLine
 10
15.0155417131
 20
-30.4382447577
 30
0.0
 11
14.6519824665
 21
-29.894745114
 31
0.0
  0
LINE
  5
171
330
1F
100
AcDbEntity
  8
SK3
  6
SLD-Dashed
370
    18
100
AcDbLine
 10
14.6519824665
 20
-29.894745114
 30
0.0
 11
14.3534951125
 21
-29.3789594202
 31
0.0
  0
LINE
  5
172
330
1F
100
AcDbEntity
  8
SK3
  6
SLD-Dashed
370
    18
100
AcDbLine
 10
14.3534951125
 20
-29.3789594202
 30
0.0
 11
14.1422170924
 21
-28.9291411417
 31
0.0
  0
LINE
  5
173
330
1F
100
AcDbEntity
  8
SK3
  6
SLD-Dashed
370
    18
100
AcDbLine
 10
14.1422170924
 20
-28.9291411417
 30
0.0
 11
14.0338179305
 21
-28.5786512424
 31
0.0
  0
LINE
  5
174
330
1F
100
AcDbEntity
  8
SK3
  6
SLD-Dashed
370
    18
100
AcDbLine
 10
14.0338179305
 20
-28.5786512424
 30
0.0
 11
14.0363370967
 21
-28.3534839547
 31
0.0
  0
LINE
  5
175
330
1F
100
AcDbEntity
  8
SK3
  6
SLD-Dashed
370
    18
100
AcDbLine
 10
14.0363370967
 20
-28.3534839547
 30
0.0
 11
14.1495877561
 21
-28.2703389063
 31
0.0
  0
LINE
  5
176
330
1F
100
AcDbEntity
  8
SK3
  6
SLD-Dashed
370
    18
100
AcDbLine
 10
14.1495877561
 20
-28.2703389063
 30
0.0
 11
14.3651706253
 21
-28.3353825851
 31
0.0
  0
LINE
  5
177
330
1F
100
AcDbEntity
  8
SK3
  6
SLD-Dashed
370
    18
100
AcDbLine
 10
14.3651706253
 20
-28.3353825851
 30
0.0
 11
14.6670969091
 21
-28.543790999
 31
0.0
  0
LINE
  5
178
330
1F
100
AcDbEntity
  8
SK3
  6
SLD-Dashed
370
    18
100
AcDbLine
 10
14.6670969091
 20
-28.543790999
 30
0.0
 11
15.0329741163
 21
-28.8801074493
 31
0.0
  0
LINE
  5
179
330
1F
100
AcDbEntity
  8
SK3
  6
SLD-Dashed
370
    18
100
AcDbLine
 10
15.0329741163
 20
-28.8801074493
 30
0.0
 11
15.4356668082
 21
-29.3193888835
 31
0.0
  0
LINE
  5
17A
330
1F
100
AcDbEntity
  8
SK3
  6
SLD-Dashed
370
    18
100
AcDbLine
 10
15.4356668082
 20
-29.3193888835
 30
0.0
 11
15.84530911
 21
-29.8290558071
 31
0.0
  0
LINE
  5
17B
330
1F
100
AcDbEntity
  8
SK3
  6
SLD-Dashed
370
    18
100
AcDbLine
 10
15.84530911
 20
-29.8290558071
 30
0.0
 11
16.2315197262
 21
-30.371308556
 31
0.0
  0
LINE
  5
17C
330
1F
100
AcDbEntity
  8
SK3
  6
SLD-Dashed
370
    18
100
AcDbLine
 10
16.2315197262
 20
-30.371308556
 30
0.0
 11
16.5656551822
 21
-30.9059307245
 31
0.0
  0
LINE
  5
17D
330
1F
100
AcDbEntity
  8
SK3
  6
SLD-Dashed
370
    18
100
AcDbLine
 10
16.5656551822
 20
-30.9059307245
 30
0.0
 11
16.8229341797
 21
-31.393271832
 31
0.0
  0
LINE
  5
17E
330
1F
100
AcDbEntity
  8
SK3
  6
SLD-Dashed
370
    18
100
AcDbLine
 10
16.8229341797
 20
-31.393271832
 30
0.0
 11
16.9842755126
 21
-31.7971880181
 31
0.0
  0
LINE
  5
17F
330
1F
100
AcDbEntity
  8
SK3
  6
SLD-Dashed
370
    18
100
AcDbLine
 10
16.9842755126
 20
-31.7971880181
 30
0.0
 11
17.0377132322
 21
-32.087722667
 31
0.0
  0
LINE
  5
180
330
1F
100
AcDbEntity
  8
SK3
  6
SLD-Dashed
370
    18
100
AcDbLine
 10
17.0377132322
 20
-32.087722667
 30
0.0
 11
16.9792841073
 21
-32.2433281529
 31
0.0
  0
LINE
  5
181
330
1F
100
AcDbEntity
  8
SK3
  6
SLD-Dashed
370
    18
100
AcDbLine
 10
9.4892049402
 20
-37.7155235373
 30
0.0
 11
9.451163823
 21
-37.6727008139
 31
0.0
  0
LINE
  5
182
330
1F
100
AcDbEntity
  8
SK3
  6
SLD-Dashed
370
    18
100
AcDbLine
 10
9.451163823
 20
-37.6727008139
 30
0.0
 11
9.4677936757
 21
-37.5433314837
 31
0.0
  0
LINE
  5
183
330
1F
100
AcDbEntity
  8
SK3
  6
SLD-Dashed
370
    18
100
AcDbLine
 10
9.4677936757
 20
-37.5433314837
 30
0.0
 11
9.5310538088
 21
-37.3548883227
 31
0.0
  0
LINE
  5
184
330
1F
100
AcDbEntity
  8
SK3
  6
SLD-Dashed
370
    18
100
AcDbLine
 10
9.5310538088
 20
-37.3548883227
 30
0.0
 11
9.7084210519
 21
-36.9623522257
 31
0.0
  0
LINE
  5
185
330
1F
100
AcDbEntity
  8
SK3
  6
SLD-Dashed
370
    18
100
AcDbLine
 10
9.7084210519
 20
-36.9623522257
 30
0.0
 11
10.1301466607
 21
-36.2256705713
 31
0.0
  0
LINE
  5
186
330
1F
100
AcDbEntity
  8
SK3
  6
SLD-Dashed
370
    18
100
AcDbLine
 10
10.1301466607
 20
-36.2256705713
 30
0.0
 11
10.8773966474
 21
-35.3005193005
 31
0.0
  0
LINE
  5
187
330
1F
100
AcDbEntity
  8
SK3
  6
SLD-Dashed
370
    18
100
AcDbLine
 10
10.8773966474
 20
-35.3005193005
 30
0.0
 11
11.312227106
 21
-34.9793339872
 31
0.0
  0
LINE
  5
188
330
1F
100
AcDbEntity
  8
SK3
  6
SLD-Dashed
370
    18
100
AcDbLine
 10
11.312227106
 20
-34.9793339872
 30
0.0
 11
11.8000958315
 21
-34.810754733
 31
0.0
  0
LINE
  5
189
330
1F
100
AcDbEntity
  8
SK3
  6
SLD-Dashed
370
    18
100
AcDbLine
 10
11.8000958315
 20
-34.810754733
 30
0.0
 11
12.1948617266
 21
-34.8179786511
 31
0.0
  0
LINE
  5
18A
330
1F
100
AcDbEntity
  8
SK3
  6
SLD-Dashed
370
    18
100
AcDbLine
 10
12.1948617266
 20
-34.8179786511
 30
0.0
 11
12.5000186462
 21
-34.9235723772
 31
0.0
  0
LINE
  5
18B
330
1F
100
AcDbEntity
  8
SK3
  6
SLD-Dashed
370
    18
100
AcDbLine
 10
12.5000186462
 20
-34.9235723772
 30
0.0
 11
12.7042394553
 21
-35.0956853241
 31
0.0
  0
LINE
  5
18C
330
1F
100
AcDbEntity
  8
SK3
  6
SLD-Dashed
370
    18
100
AcDbLine
 10
12.7042394553
 20
-35.0956853241
 30
0.0
 11
12.7416446651
 21
-35.2866958897
 31
0.0
  0
LINE
  5
18D
330
1F
100
AcDbEntity
  8
SK3
  6
SLD-Dashed
370
    18
100
AcDbLine
 10
12.7416446651
 20
-35.2866958897
 30
0.0
 11
12.6054093111
 21
-35.4544885425
 31
0.0
  0
LINE
  5
18E
330
1F
100
AcDbEntity
  8
SK3
  6
SLD-Dashed
370
    18
100
AcDbLine
 10
11.1
 20
-39.8624815174
 30
0.0
 11
10.5642458758
 21
-39.8930586487
 31
0.0
  0
LINE
  5
18F
330
1F
100
AcDbEntity
  8
SK3
  6
SLD-Dashed
370
    18
100
AcDbLine
 10
10.5642458758
 20
-39.8930586487
 30
0.0
 11
10.0865490241
 21
-39.9814765361
 31
0.0
  0
LINE
  5
190
330
1F
100
AcDbEntity
  8
SK3
  6
SLD-Dashed
370
    18
100
AcDbLine
 10
10.0865490241
 20
-39.9814765361
 30
0.0
 11
9.7186753109
 21
-40.1181537296
 31
0.0
  0
LINE
  5
191
330
1F
100
AcDbEntity
  8
SK3
  6
SLD-Dashed
370
    18
100
AcDbLine
 10
9.7186753109
 20
-40.1181537296
 30
0.0
 11
9.5004895612
 21
-40.2882791344
 31
0.0
  0
LINE
  5
192
330
1F
100
AcDbEntity
  8
SK3
  6
SLD-Dashed
370
    18
100
AcDbLine
 10
9.5004895612
 20
-40.2882791344
 30
0.0
 11
9.4556355865
 21
-40.4734170231
 31
0.0
  0
LINE
  5
193
330
1F
100
AcDbEntity
  8
SK3
  6
SLD-Dashed
370
    18
100
AcDbLine
 10
9.4556355865
 20
-40.4734170231
 30
0.0
 11
9.588974011
 21
-40.6535048329
 31
0.0
  0
LINE
  5
194
330
1F
100
AcDbEntity
  8
SK3
  6
SLD-Dashed
370
    18
100
AcDbLine
 10
9.588974011
 20
-40.6535048329
 30
0.0
 11
9.8860555474
 21
-40.8090272552
 31
0.0
  0
LINE
  5
195
330
1F
100
AcDbEntity
  8
SK3
  6
SLD-Dashed
370
    18
100
AcDbLine
 10
9.8860555474
 20
-40.8090272552
 30
0.0
 11
10.3146868015
 21
-40.9231310223
 31
0.0
  0
LINE
  5
196
330
1F
100
AcDbEntity
  8
SK3
  6
SLD-Dashed
370
    18
100
AcDbLine
 10
10.3146868015
 20
-40.9231310223
 30
0.0
 11
10.828418926
 21
-40.9834512205
 31
0.0
  0
LINE
  5
197
330
1F
100
AcDbEntity
  8
SK3
  6
SLD-Dashed
370
    18
100
AcDbLine
 10
10.828418926
 20
-40.9834512205
 30
0.0
 11
11.371581074
 21
-40.9834512205
 31
0.0
  0
LINE
  5
198
330
1F
100
AcDbEntity
  8
SK3
  6
SLD-Dashed
370
    18
100
AcDbLine
 10
11.371581074
 20
-40.9834512205
 30
0.0
 11
11.8853131985
 21
-40.9231310223
 31
0.0
  0
LINE
  5
199
330
1F
100
AcDbEntity
  8
SK3
  6
SLD-Dashed
370
    18
100
AcDbLine
 10
11.8853131985
 20
-40.9231310223
 30
0.0
 11
12.3139444526
 21
-40.8090272552
 31
0.0
  0
LINE
  5
19A
330
1F
100
AcDbEntity
  8
SK3
  6
SLD-Dashed
370
    18
100
AcDbLine
 10
12.3139444526
 20
-40.8090272552
 30
0.0
 11
12.611025989
 21
-40.6535048329
 31
0.0
  0
LINE
  5
19B
330
1F
100
AcDbEntity
  8
SK3
  6
SLD-Dashed
370
    18
100
AcDbLine
 10
12.611025989
 20
-40.6535048329
 30
0.0
 11
12.7443644135
 21
-40.4734170231
 31
0.0
  0
LINE
  5
19C
330
1F
100
AcDbEntity
  8
SK3
  6
SLD-Dashed
370
    18
100
AcDbLine
 10
12.7443644135
 20
-40.4734170231
 30
0.0
 11
12.6995104388
 21
-40.2882791344
 31
0.0
  0
LINE
  5
19D
330
1F
100
AcDbEntity
  8
SK3
  6
SLD-Dashed
370
    18
100
AcDbLine
 10
12.6995104388
 20
-40.2882791344
 30
0.0
 11
12.4813246891
 21
-40.1181537296
 31
0.0
  0
LINE
  5
19E
330
1F
100
AcDbEntity
  8
SK3
  6
SLD-Dashed
370
    18
100
AcDbLine
 10
12.4813246891
 20
-40.1181537296
 30
0.0
 11
12.1134509759
 21
-39.9814765361
 31
0.0
  0
LINE
  5
19F
330
1F
100
AcDbEntity
  8
SK3
  6
SLD-Dashed
370
    18
100
AcDbLine
 10
12.1134509759
 20
-39.9814765361
 30
0.0
 11
11.6357541242
 21
-39.8930586487
 31
0.0
  0
LINE
  5
1A0
330
1F
100
AcDbEntity
  8
SK3
  6
SLD-Dashed
370
    18
100
AcDbLine
 10
11.6357541242
 20
-39.8930586487
 30
0.0
 11
11.1
 21
-39.8624815174
 31
0.0
  0
LINE
  5
1A1
330
1F
100
AcDbEntity
  8
SK3
  6
SLD-Dashed
370
    18
100
AcDbLine
 10
6.2723069743
 20
-40.2901366077
 30
0.0
 11
6.1056572614
 21
-40.3025803013
 31
0.0
  0
LINE
  5
1A2
330
1F
100
AcDbEntity
  8
SK3
  6
SLD-Dashed
370
    18
100
AcDbLine
 10
6.1056572614
 20
-40.3025803013
 30
0.0
 11
5.8455057258
 21
-40.1713494354
 31
0.0
  0
LINE
  5
1A3
330
1F
100
AcDbEntity
  8
SK3
  6
SLD-Dashed
370
    18
100
AcDbLine
 10
5.8455057258
 20
-40.1713494354
 30
0.0
 11
5.5095812647
 21
-39.9053871766
 31
0.0
  0
LINE
  5
1A4
330
1F
100
AcDbEntity
  8
SK3
  6
SLD-Dashed
370
    18
100
AcDbLine
 10
5.5095812647
 20
-39.9053871766
 30
0.0
 11
5.1207765751
 21
-39.5228184133
 31
0.0
  0
LINE
  5
1A5
330
1F
100
AcDbEntity
  8
SK3
  6
SLD-Dashed
370
    18
100
AcDbLine
 10
5.1207765751
 20
-39.5228184133
 30
0.0
 11
4.705588054
 21
-39.0497145746
 31
0.0
  0
LINE
  5
1A6
330
1F
100
AcDbEntity
  8
SK3
  6
SLD-Dashed
370
    18
100
AcDbLine
 10
4.705588054
 20
-39.0497145746
 30
0.0
 11
4.292310113
 21
-38.5183169052
 31
0.0
  0
LINE
  5
1A7
330
1F
100
AcDbEntity
  8
SK3
  6
SLD-Dashed
370
    18
100
AcDbLine
 10
4.292310113
 20
-38.5183169052
 30
0.0
 11
3.9091069607
 21
-37.9648392782
 31
0.0
  0
LINE
  5
1A8
330
1F
100
AcDbEntity
  8
SK3
  6
SLD-Dashed
370
    18
100
AcDbLine
 10
3.9091069607
 20
-37.9648392782
 30
0.0
 11
3.5820932588
 21
-37.427000279
 31
0.0
  0
LINE
  5
1A9
330
1F
100
AcDbEntity
  8
SK3
  6
SLD-Dashed
370
    18
100
AcDbLine
 10
3.5820932588
 20
-37.427000279
 30
0.0
 11
3.3335544506
 21
-36.9414527468
 31
0.0
  0
LINE
  5
1AA
330
1F
100
AcDbEntity
  8
SK3
  6
SLD-Dashed
370
    18
100
AcDbLine
 10
3.3335544506
 20
-36.9414527468
 30
0.0
 11
3.1804280451
 21
-36.5412859433
 31
0.0
  0
LINE
  5
1AB
330
1F
100
AcDbEntity
  8
SK3
  6
SLD-Dashed
370
    18
100
AcDbLine
 10
3.1804280451
 20
-36.5412859433
 30
0.0
 11
3.1331493539
 21
-36.253770575
 31
0.0
  0
LINE
  5
1AC
330
1F
100
AcDbEntity
  8
SK3
  6
SLD-Dashed
370
    18
100
AcDbLine
 10
3.1331493539
 20
-36.253770575
 30
0.0
 11
3.1949403416
 21
-36.0985003391
 31
0.0
  0
LINE
  5
1AD
330
1F
100
AcDbEntity
  8
SK3
  6
SLD-Dashed
370
    18
100
AcDbLine
 10
3.1949403416
 20
-36.0985003391
 30
0.0
 11
3.3615900545
 21
-36.0860566456
 31
0.0
  0
LINE
  5
1AE
330
1F
100
AcDbEntity
  8
SK3
  6
SLD-Dashed
370
    18
100
AcDbLine
 10
3.3615900545
 20
-36.0860566456
 30
0.0
 11
3.6217415901
 21
-36.2172875115
 31
0.0
  0
LINE
  5
1AF
330
1F
100
AcDbEntity
  8
SK3
  6
SLD-Dashed
370
    18
100
AcDbLine
 10
3.6217415901
 20
-36.2172875115
 30
0.0
 11
3.9576660511
 21
-36.4832497703
 31
0.0
  0
LINE
  5
1B0
330
1F
100
AcDbEntity
  8
SK3
  6
SLD-Dashed
370
    18
100
AcDbLine
 10
3.9576660511
 20
-36.4832497703
 30
0.0
 11
4.3464707407
 21
-36.8658185335
 31
0.0
  0
LINE
  5
1B1
330
1F
100
AcDbEntity
  8
SK3
  6
SLD-Dashed
370
    18
100
AcDbLine
 10
4.3464707407
 20
-36.8658185335
 30
0.0
 11
4.7616592619
 21
-37.3389223722
 31
0.0
  0
LINE
  5
1B2
330
1F
100
AcDbEntity
  8
SK3
  6
SLD-Dashed
370
    18
100
AcDbLine
 10
4.7616592619
 20
-37.3389223722
 30
0.0
 11
5.1749372029
 21
-37.8703200416
 31
0.0
  0
LINE
  5
1B3
330
1F
100
AcDbEntity
  8
SK3
  6
SLD-Dashed
370
    18
100
AcDbLine
 10
5.1749372029
 20
-37.8703200416
 30
0.0
 11
5.5581403551
 21
-38.4237976687
 31
0.0
  0
LINE
  5
1B4
330
1F
100
AcDbEntity
  8
SK3
  6
SLD-Dashed
370
    18
100
AcDbLine
 10
5.5581403551
 20
-38.4237976687
 30
0.0
 11
5.8851540571
 21
-38.9616366678
 31
0.0
  0
LINE
  5
1B5
330
1F
100
AcDbEntity
  8
SK3
  6
SLD-Dashed
370
    18
100
AcDbLine
 10
5.8851540571
 20
-38.9616366678
 30
0.0
 11
6.1336928653
 21
-39.4471842001
 31
0.0
  0
LINE
  5
1B6
330
1F
100
AcDbEntity
  8
SK3
  6
SLD-Dashed
370
    18
100
AcDbLine
 10
6.1336928653
 20
-39.4471842001
 30
0.0
 11
6.2868192707
 21
-39.8473510035
 31
0.0
  0
LINE
  5
1B7
330
1F
100
AcDbEntity
  8
SK3
  6
SLD-Dashed
370
    18
100
AcDbLine
 10
6.2868192707
 20
-39.8473510035
 30
0.0
 11
6.3340979619
 21
-40.1348663718
 31
0.0
  0
LINE
  5
1B8
330
1F
100
AcDbEntity
  8
SK3
  6
SLD-Dashed
370
    18
100
AcDbLine
 10
6.3340979619
 20
-40.1348663718
 30
0.0
 11
6.2723069743
 21
-40.2901366077
 31
0.0
  0
LINE
  5
1B9
330
1F
100
AcDbEntity
  8
1
  6
SLD-Dashed
370
    18
100
AcDbLine
 10
25.0946705201
 20
-12.4176196574
 30
0.0
 11
26.0120598489
 21
-12.1220348081
 31
0.0
  0
LINE
  5
1BA
330
1F
100
AcDbEntity
  8
1
  6
SLD-Dashed
370
    18
100
AcDbLine
 10
26.0120598489
 20
-12.1220348081
 30
0.0
 11
27.0708687523
 21
-11.6824481636
 31
0.0
  0
LINE
  5
1BB
330
1F
100
AcDbEntity
  8
1
  6
SLD-Dashed
370
    18
100
AcDbLine
 10
29.9555800941
 20
-9.828238972
 30
0.0
 11
30.9831199763
 21
-8.8525171285
 31
0.0
  0
LINE
  5
1BC
330
1F
100
AcDbEntity
  8
1
  6
SLD-Dashed
370
    18
100
AcDbLine
 10
30.9831199763
 20
-8.8525171285
 30
0.0
 11
31.2741056578
 21
-8.5335619598
 31
0.0
  0
LINE
  5
1BD
330
1F
100
AcDbEntity
  8
1
  6
SLD-Dashed
370
    18
100
AcDbLine
 10
30.8655264558
 20
8.975523355
 30
0.0
 11
29.891960165
 21
9.8819733162
 31
0.0
  0
LINE
  5
1BE
330
1F
100
AcDbEntity
  8
1
  6
SLD-Dashed
370
    18
100
AcDbLine
 10
29.891960165
 20
9.8819733162
 30
0.0
 11
29.5556821976
 21
10.154660052
 31
0.0
  0
LINE
  5
1BF
330
1F
100
AcDbEntity
  8
SK3
  6
SLD-Dashed
370
    18
100
AcDbLine
 10
9.1
 20
46.9644866781
 30
0.0
 11
9.1
 21
43.111859234
 31
0.0
  0
LINE
  5
1C0
330
1F
100
AcDbEntity
  8
SK3
  6
SLD-Dashed
370
    18
100
AcDbLine
 10
13.1
 20
43.111859234
 30
0.0
 11
13.1
 21
46.9636476284
 31
0.0
  0
LINE
  5
1C1
330
1F
100
AcDbEntity
  8
SK3
  6
SLD-Dashed
370
    18
100
AcDbLine
 10
9.5474833261
 20
42.680630019
 30
0.0
 11
9.819173744
 21
42.566209006
 31
0.0
  0
LINE
  5
1C2
330
1F
100
AcDbEntity
  8
SK3
  6
SLD-Dashed
370
    18
100
AcDbLine
 10
12.380826256
 20
42.566209006
 30
0.0
 11
12.6525166739
 21
42.680630019
 31
0.0
  0
LINE
  5
1C3
330
1F
100
AcDbEntity
  8
SK3
  6
SLD-Dashed
370
    18
100
AcDbLine
 10
9.45
 20
42.9219731084
 30
0.0
 11
9.45
 21
37.6466575959
 31
0.0
  0
LINE
  5
1C4
330
1F
100
AcDbEntity
  8
SK3
  6
SLD-Dashed
370
    18
100
AcDbLine
 10
12.75
 20
35.2292695596
 30
0.0
 11
12.75
 21
42.9219731084
 31
0.0
  0
LINE
  5
1C5
330
1F
100
AcDbEntity
  8
SK3
  6
SLD-Dashed
370
    18
100
AcDbLine
 10
3.0
 20
36.2416193657
 30
0.0
 11
3.1949403416
 21
36.0985003391
 31
0.0
  0
LINE
  5
1C6
330
1F
100
AcDbEntity
  8
SK3
  6
SLD-Dashed
370
    18
100
AcDbLine
 10
6.2723069743
 20
40.2901366077
 30
0.0
 11
3.0
 21
42.6925607803
 31
0.0
  0
LINE
  5
1C7
330
1F
100
AcDbEntity
  8
SK3
  6
SLD-Dashed
370
    18
100
AcDbLine
 10
12.6054093111
 20
29.3757168249
 30
0.0
 11
14.0794578574
 21
28.2935170536
 31
0.0
  0
LINE
  5
1C8
330
1F
100
AcDbEntity
  8
SK3
  6
SLD-Dashed
370
    18
100
AcDbLine
 10
3.2837105329
 20
36.2194129238
 30
0.0
 11
9.5991218742
 21
31.5828378759
 31
0.0
  0
LINE
  5
1C9
330
1F
100
AcDbEntity
  8
SK3
  6
SLD-Dashed
370
    18
100
AcDbLine
 10
9.6073492409
 20
37.6555693213
 30
0.0
 11
6.1835367829
 21
40.1692240231
 31
0.0
  0
LINE
  5
1CA
330
1F
100
AcDbEntity
  8
SK3
  6
SLD-Dashed
370
    18
100
AcDbLine
 10
16.9792841073
 20
32.2433281529
 30
0.0
 11
12.6024732478
 21
35.4566441072
 31
0.0
  0
LINE
  5
1CB
330
1F
100
AcDbEntity
  8
SK3
  6
SLD-Dashed
370
    18
100
AcDbLine
 10
-101.8
 20
-13.5178629711
 30
0.0
 11
-100.05
 21
-12.5075
 31
0.0
  0
LINE
  5
1CC
330
1F
100
AcDbEntity
  8
SK3
  6
SLD-Dashed
370
    18
100
AcDbLine
 10
-100.05
 20
12.5075
 30
0.0
 11
-101.8
 21
13.5178629711
 31
0.0
  0
LINE
  5
1CD
330
1F
100
AcDbEntity
  8
SK3
  6
SLD-Dashed
370
    18
100
AcDbLine
 10
14.3249003637
 20
28.3153293831
 30
0.0
 11
16.6894083239
 21
29.4167599163
 31
0.0
  0
LINE
  5
1CE
330
1F
100
AcDbEntity
  8
SK3
  6
SLD-Dashed
370
    18
100
AcDbLine
 10
16.6894083239
 20
29.4167599163
 30
0.0
 11
17.0319937976
 21
32.0026219208
 31
0.0
  0
LINE
  5
1CF
330
1F
100
AcDbEntity
  8
SK3
  6
SLD-Dashed
370
    18
100
AcDbLine
 10
9.45
 20
31.8109690343
 30
0.0
 11
9.45
 21
9.8663980169
 31
0.0
  0
LINE
  5
1D0
330
1F
100
AcDbEntity
  8
SK3
  6
SLD-Dashed
370
    18
100
AcDbLine
 10
12.75
 20
9.8637305233
 30
0.0
 11
12.75
 21
29.3998867967
 31
0.0
  0
LINE
  5
1D1
330
1F
100
AcDbEntity
  8
SK3
  6
SLD-Dashed
370
    18
100
AcDbLine
 10
100.0
 20
13.0773502692
 30
0.0
 11
99.0
 21
12.5
 31
0.0
  0
LINE
  5
1D2
330
1F
100
AcDbEntity
  8
SK3
  6
SLD-Dashed
370
    18
100
AcDbLine
 10
99.0
 20
-12.5
 30
0.0
 11
100.0
 21
-13.0773502692
 31
0.0
  0
LINE
  5
1D3
330
1F
100
AcDbEntity
  8
SK3
  6
SLD-Dashed
370
    18
100
AcDbLine
 10
45.75
 20
12.75
 30
0.0
 11
41.25
 21
12.75
 31
0.0
  0
LINE
  5
1D4
330
1F
100
AcDbEntity
  8
SK3
  6
SLD-Dashed
370
    18
100
AcDbLine
 10
41.25
 20
-12.75
 30
0.0
 11
43.009315928
 21
-12.75
 31
0.0
  0
LINE
  5
1D5
330
1F
100
AcDbEntity
  8
SK3
  6
SLD-Dashed
370
    18
100
AcDbLine
 10
-91.55
 20
12.75
 30
0.0
 11
-91.9700223208
 21
12.5075
 31
0.0
  0
LINE
  5
1D6
330
1F
100
AcDbEntity
  8
SK3
  6
SLD-Dashed
370
    18
100
AcDbLine
 10
-91.9700223208
 20
-12.5075
 30
0.0
 11
-91.55
 21
-12.75
 31
0.0
  0
LINE
  5
1D7
330
1F
100
AcDbEntity
  8
SK3
  6
SLD-Dashed
370
    18
100
AcDbLine
 10
-88.55
 20
12.75
 30
0.0
 11
-91.55
 21
12.75
 31
0.0
  0
LINE
  5
1D8
330
1F
100
AcDbEntity
  8
SK3
  6
SLD-Dashed
370
    18
100
AcDbLine
 10
-91.55
 20
-12.75
 30
0.0
 11
-88.55
 21
-12.75
 31
0.0
  0
LINE
  5
1D9
330
1F
100
AcDbEntity
  8
SK3
  6
SLD-Dashed
370
    18
100
AcDbLine
 10
-88.55
 20
-12.75
 30
0.0
 11
-87.2509618943
 21
-10.5
 31
0.0
  0
LINE
  5
1DA
330
1F
100
AcDbEntity
  8
SK3
  6
SLD-Dashed
370
    18
100
AcDbLine
 10
-87.2509618943
 20
10.5
 30
0.0
 11
-88.55
 21
12.75
 31
0.0
  0
LINE
  5
1DB
330
1F
100
AcDbEntity
  8
SK3
  6
SLD-Dashed
370
    18
100
AcDbLine
 10
-91.9700223208
 20
12.5075
 30
0.0
 11
-100.05
 21
12.5075
 31
0.0
  0
LINE
  5
1DC
330
1F
100
AcDbEntity
  8
SK3
  6
SLD-Dashed
370
    18
100
AcDbLine
 10
-100.05
 20
-12.5075
 30
0.0
 11
-91.9700223208
 21
-12.5075
 31
0.0
  0
LINE
  5
1DD
330
1F
100
AcDbEntity
  8
SK3
  6
SLD-Dashed
370
    18
100
AcDbLine
 10
99.0
 20
12.5
 30
0.0
 11
46.0
 21
12.5
 31
0.0
  0
LINE
  5
1DE
330
1F
100
AcDbEntity
  8
SK3
  6
SLD-Dashed
370
    18
100
AcDbLine
 10
84.0
 20
-12.5
 30
0.0
 11
99.0
 21
-12.5
 31
0.0
  0
LINE
  5
1DF
330
1F
100
AcDbEntity
  8
SK3
  6
SLD-Dashed
370
    18
100
AcDbLine
 10
58.9888980024
 20
-12.5
 30
0.0
 11
68.0106033908
 21
-12.5
 31
0.0
  0
LINE
  5
1E0
330
1F
100
AcDbEntity
  8
SK3
  6
SLD-Dashed
370
    18
100
AcDbLine
 10
-87.2509618943
 20
-10.5
 30
0.0
 11
-38.8
 21
-10.5
 31
0.0
  0
LINE
  5
1E1
330
1F
100
AcDbEntity
  8
SK3
  6
SLD-Dashed
370
    18
100
AcDbLine
 10
-38.8
 20
10.5
 30
0.0
 11
-87.2509618943
 21
10.5
 31
0.0
  0
LINE
  5
1E2
330
1F
100
AcDbEntity
  8
SK3
  6
SLD-Dashed
370
    18
100
AcDbLine
 10
-38.799969957
 20
-10.49995
 30
0.0
 11
41.0
 21
-10.49995
 31
0.0
  0
LINE
  5
1E3
330
1F
100
AcDbEntity
  8
SK3
  6
SLD-Dashed
370
    18
100
AcDbLine
 10
41.0
 20
10.49995
 30
0.0
 11
-38.799969957
 21
10.49995
 31
0.0
  0
LINE
  5
1E4
330
1F
100
AcDbEntity
  8
SK3
  6
SLD-Dashed
370
    18
100
AcDbLine
 10
61.1
 20
-32.5637984272
 30
0.0
 11
61.1
 21
-30.4
 31
0.0
  0
LINE
  5
1E5
330
1F
100
AcDbEntity
  8
SK3
  6
SLD-Dashed
370
    18
100
AcDbLine
 10
40.9
 20
-30.4
 30
0.0
 11
40.9
 21
-32.5
 31
0.0
  0
LINE
  5
1E6
330
1F
100
AcDbEntity
  8
SK3
  6
SLD-Dashed
370
    18
100
AcDbLine
 10
86.1
 20
-32.5
 30
0.0
 11
86.1
 21
-30.4
 31
0.0
  0
LINE
  5
1E7
330
1F
100
AcDbEntity
  8
SK3
  6
SLD-Dashed
370
    18
100
AcDbLine
 10
65.9
 20
-30.4
 30
0.0
 11
65.9
 21
-32.5
 31
0.0
  0
LINE
  5
1E8
330
1F
100
AcDbEntity
  8
SK3
  6
SLD-Dashed
370
    18
100
AcDbLine
 10
84.0
 20
-30.4
 30
0.0
 11
84.0
 21
-12.5
 31
0.0
  0
LINE
  5
1E9
330
1F
100
AcDbEntity
  8
SK3
  6
SLD-Dashed
370
    18
100
AcDbLine
 10
68.0
 20
-12.4932392759
 30
0.0
 11
68.0
 21
-30.4
 31
0.0
  0
LINE
  5
1EA
330
1F
100
AcDbEntity
  8
SK3
  6
SLD-Dashed
370
    18
100
AcDbLine
 10
59.0
 20
-30.4
 30
0.0
 11
59.0
 21
-12.4929253997
 31
0.0
  0
LINE
  5
1EB
330
1F
100
AcDbEntity
  8
SK3
  6
SLD-Dashed
370
    18
100
AcDbLine
 10
43.0
 20
-12.744185805
 30
0.0
 11
43.0
 21
-30.4
 31
0.0
  0
LINE
  5
1EC
330
1F
100
AcDbEntity
  8
SK3
  6
SLD-Dashed
370
    18
100
AcDbLine
 10
9.45
 20
-9.8637305233
 30
0.0
 11
9.45
 21
-31.8113816397
 31
0.0
  0
LINE
  5
1ED
330
1F
100
AcDbEntity
  8
SK3
  6
SLD-Dashed
370
    18
100
AcDbLine
 10
12.75
 20
-29.3998151041
 30
0.0
 11
12.75
 21
-9.8663980169
 31
0.0
  0
LINE
  5
1EE
330
1F
100
AcDbEntity
  8
SK3
  6
SLD-Dashed
370
    18
100
AcDbLine
 10
12.6054093111
 20
-35.4544885425
 30
0.0
 11
16.9792841073
 21
-32.2433281529
 31
0.0
  0
LINE
  5
1EF
330
1F
100
AcDbEntity
  8
SK3
  6
SLD-Dashed
370
    18
100
AcDbLine
 10
6.1835367829
 20
-40.1692240231
 30
0.0
 11
9.6109272698
 21
-37.6529424458
 31
0.0
  0
LINE
  5
1F0
330
1F
100
AcDbEntity
  8
SK3
  6
SLD-Dashed
370
    18
100
AcDbLine
 10
9.5964423095
 20
-31.5848051275
 30
0.0
 11
3.2837105329
 21
-36.2194129238
 31
0.0
  0
LINE
  5
1F1
330
1F
100
AcDbEntity
  8
SK3
  6
SLD-Dashed
370
    18
100
AcDbLine
 10
14.0794578574
 20
-28.2935170536
 30
0.0
 11
12.5954378483
 21
-29.3830375572
 31
0.0
  0
LINE
  5
1F2
330
1F
100
AcDbEntity
  8
SK3
  6
SLD-Dashed
370
    18
100
AcDbLine
 10
17.0319937976
 20
-32.0026219208
 30
0.0
 11
16.6894083239
 21
-29.4167599163
 31
0.0
  0
LINE
  5
1F3
330
1F
100
AcDbEntity
  8
SK3
  6
SLD-Dashed
370
    18
100
AcDbLine
 10
16.6894083239
 20
-29.4167599163
 30
0.0
 11
14.3249003637
 21
-28.3153293831
 31
0.0
  0
LINE
  5
1F4
330
1F
100
AcDbEntity
  8
SK3
  6
SLD-Dashed
370
    18
100
AcDbLine
 10
9.45
 20
-37.6463211517
 30
0.0
 11
9.45
 21
-40.4268147538
 31
0.0
  0
LINE
  5
1F5
330
1F
100
AcDbEntity
  8
SK3
  6
SLD-Dashed
370
    18
100
AcDbLine
 10
12.75
 20
-40.4268147538
 30
0.0
 11
12.75
 21
-35.229287829
 31
0.0
  0
LINE
  5
1F6
330
1F
100
AcDbEntity
  8
SK3
  6
SLD-Dashed
370
    18
100
AcDbLine
 10
3.0
 20
-42.6925607803
 30
0.0
 11
6.2723069743
 21
-40.2901366077
 31
0.0
  0
LINE
  5
1F7
330
1F
100
AcDbEntity
  8
SK3
  6
SLD-Dashed
370
    18
100
AcDbLine
 10
3.1949403416
 20
-36.0985003391
 30
0.0
 11
3.0
 21
-36.2416193657
 31
0.0
  0
LINE
  5
1F8
330
1F
100
AcDbEntity
  8
SK3
  6
SLD-Dashed
370
    18
100
AcDbLine
 10
9.7871669195
 20
-40.7686585921
 30
0.0
 11
11.1
 21
-41.3584448321
 31
0.0
  0
LINE
  5
1F9
330
1F
100
AcDbEntity
  8
SK3
  6
SLD-Dashed
370
    18
100
AcDbLine
 10
11.1
 20
-41.3584448321
 30
0.0
 11
12.4128330805
 21
-40.7686585921
 31
0.0
  0
LINE
  5
1FA
330
1F
100
AcDbEntity
  8
SK3
  6
SLD-Solid
370
    18
100
AcDbLine
 10
-88.1169872981
 20
12.0
 30
0.0
 11
-55.8
 21
12.0
 31
0.0
  0
LINE
  5
1FB
330
1F
100
AcDbEntity
  8
SK3
  6
SLD-Solid
370
    18
100
AcDbLine
 10
-88.1169872981
 20
-12.0
 30
0.0
 11
-55.8
 21
-12.0
 31
0.0
  0
LINE
  5
1FC
330
1F
100
AcDbEntity
  8
SK3
  6
SLD-Dashed
370
    18
100
AcDbLine
 10
-55.8
 20
-12.0
 30
0.0
 11
-55.8
 21
12.0
 31
0.0
  0
LINE
  5
1FD
330
1F
100
AcDbEntity
  8
SK3
  6
SLD-Solid
370
    18
100
AcDbLine
 10
67.0
 20
-30.4
 30
0.0
 11
67.0
 21
-12.5
 31
0.0
  0
LINE
  5
1FE
330
1F
100
AcDbEntity
  8
SK3
  6
SLD-Solid
370
    18
100
AcDbLine
 10
85.0
 20
-30.4
 30
0.0
 11
85.0
 21
-12.5
 31
0.0
  0
LINE
  5
1FF
330
1F
100
AcDbEntity
  8
SK3
  6
SLD-Solid
370
    18
100
AcDbLine
 10
42.0
 20
-30.4
 30
0.0
 11
42.0
 21
-12.75
 31
0.0
  0
LINE
  5
200
330
1F
100
AcDbEntity
  8
SK3
  6
SLD-Solid
370
    18
100
AcDbLine
 10
60.0
 20
-30.4
 30
0.0
 11
60.0
 21
-12.5
 31
0.0
  0
LINE
  5
201
330
1F
100
AcDbEntity
  8
4
  6
SLD-Center
370
    18
100
AcDbLine
 10
102.0
 20
0.0
 30
0.0
 11
0.9691934495
 21
0.0
 31
0.0
  0
LINE
  5
202
330
1F
100
AcDbEntity
  8
4
  6
SLD-Center
370
    18
100
AcDbLine
 10
76.0
 20
-32.4
 30
0.0
 11
76.0
 21
-10.5
 31
0.0
  0
LINE
  5
203
330
1F
100
AcDbEntity
  8
4
  6
SLD-Center
370
    18
100
AcDbLine
 10
51.0
 20
-32.4
 30
0.0
 11
51.0
 21
-10.625
 31
0.0
  0
LINE
  5
204
330
1F
100
AcDbEntity
  8
SK4
  6
SLD-Center
370
    18
100
AcDbLine
 10
101.9256688251
 20
0.0
 30
0.0
 11
-104.025540941
 21
0.0
 31
0.0
  0
ARC
  5
205
330
1F
100
AcDbEntity
  8
1
  6
SLD-Solid
370
    25
100
AcDbCircle
 10
37.2499999933
 20
-49.2286823243
 30
0.0
 40
0.75
100
AcDbArc
 50
270.0
 51
0.0
  0
ARC
  5
206
330
1F
100
AcDbEntity
  8
1
  6
SLD-Solid
370
    25
100
AcDbCircle
 10
37.2499999933
 20
49.228682327
 30
0.0
 40
0.7500000000000001
100
AcDbArc
 50
0.0000002032
 51
89.99999905
  0
ARC
  5
207
330
1F
100
AcDbEntity
  8
1
  6
SLD-Solid
370
    25
100
AcDbCircle
 10
3.75
 20
49.228682327
 30
0.0
 40
0.7500000000000004
100
AcDbArc
 50
90.0
 51
180.0
  0
ARC
  5
208
330
1F
100
AcDbEntity
  8
1
  6
SLD-Solid
370
    25
100
AcDbCircle
 10
3.75
 20
-49.228682327
 30
0.0
 40
0.7500000000000004
100
AcDbArc
 50
180.0
 51
270.0
  0
ARC
  5
209
330
1F
100
AcDbEntity
  8
1
  6
SLD-Solid
370
    25
100
AcDbCircle
 10
26.33
 20
42.875
 30
0.0
 40
0.375
100
AcDbArc
 50
270.0
 51
0.0
  0
ARC
  5
20A
330
1F
100
AcDbEntity
  8
1
  6
SLD-Solid
370
    25
100
AcDbCircle
 10
26.33
 20
-42.875
 30
0.0
 40
0.3750000000000142
100
AcDbArc
 50
0.0
 51
90.0
  0
ARC
  5
20B
330
1F
100
AcDbEntity
  8
1
  6
SLD-Solid
370
    25
100
AcDbCircle
 10
20.08
 20
42.875
 30
0.0
 40
0.375
100
AcDbArc
 50
180.0
 51
270.0
  0
ARC
  5
20C
330
1F
100
AcDbEntity
  8
1
  6
SLD-Solid
370
    25
100
AcDbCircle
 10
20.08
 20
-42.875
 30
0.0
 40
0.3750000000000142
100
AcDbArc
 50
90.0
 51
180.0
  0
ARC
  5
20D
330
1F
100
AcDbEntity
  8
1
  6
SLD-Solid
370
    25
100
AcDbCircle
 10
41.0
 20
-35.5
 30
0.0
 40
3.00000000000001
100
AcDbArc
 50
89.9741523483
 51
180.0
  0
ARC
  5
20E
330
1F
100
AcDbEntity
  8
1
  6
SLD-Solid
370
    25
100
AcDbCircle
 10
41.0
 20
35.5
 30
0.0
 40
3.000000000000006
100
AcDbArc
 50
180.0
 51
262.6993600068
  0
ARC
  5
20F
330
1F
100
AcDbEntity
  8
1
  6
SLD-Solid
370
    25
100
AcDbCircle
 10
2.25
 20
35.5
 30
0.0
 40
0.7500000000000284
100
AcDbArc
 50
270.0
 51
0.0
  0
ARC
  5
210
330
1F
100
AcDbEntity
  8
1
  6
SLD-Solid
370
    25
100
AcDbCircle
 10
2.25
 20
-35.5
 30
0.0
 40
0.7500000000000147
100
AcDbArc
 50
0.0
 51
90.0
  0
ARC
  5
211
330
1F
100
AcDbEntity
  8
1
  6
SLD-Solid
370
    25
100
AcDbCircle
 10
0.7040707856
 20
35.5
 30
0.0
 40
0.7500000000000194
100
AcDbArc
 50
240.0
 51
270.0
  0
ARC
  5
212
330
1F
100
AcDbEntity
  8
1
  6
SLD-Solid
370
    25
100
AcDbCircle
 10
0.7040707856
 20
-35.5
 30
0.0
 40
0.7500000000000194
100
AcDbArc
 50
90.0
 51
120.0
  0
ARC
  5
213
330
1F
100
AcDbEntity
  8
SK1
  6
SLD-Solid
370
    25
100
AcDbCircle
 10
-100.8
 20
19.2132836634
 30
0.0
 40
1.0
100
AcDbArc
 50
98.2977777778
 51
180.0
  0
ARC
  5
214
330
1F
100
AcDbEntity
  8
SK1
  6
SLD-Solid
370
    25
100
AcDbCircle
 10
-100.8
 20
-19.2132836634
 30
0.0
 40
1.000000000000019
100
AcDbArc
 50
180.0
 51
261.7022222222
  0
CIRCLE
  5
215
330
1F
100
AcDbEntity
  8
1
  6
SLD-Solid
370
    25
100
AcDbCircle
 10
20.5
 20
0.0
 30
0.0
 40
4.999999999999979
  0
ARC
  5
216
330
1F
100
AcDbEntity
  8
SK3
  6
SLD-Dashed
370
    18
100
AcDbCircle
 10
-20.1675716225
 20
3.6714369187
 30
0.0
 40
46.53693622375069
100
AcDbArc
 50
312.2128871681
 51
314.7071534441
  0
ARC
  5
217
330
1F
100
AcDbEntity
  8
1
  6
SLD-Dashed
370
    18
100
AcDbCircle
 10
21.6
 20
0.0
 30
0.0
 40
12.90000000000001
100
AcDbArc
 50
55.4552186364
 51
79.8455459187
  0
ARC
  5
218
330
1F
100
AcDbEntity
  8
SK3
  6
SLD-Dashed
370
    18
100
AcDbCircle
 10
45.75
 20
12.5
 30
0.0
 40
0.25
100
AcDbArc
 50
0.0
 51
89.9999999986
  0
ARC
  5
219
330
1F
100
AcDbEntity
  8
SK3
  6
SLD-Dashed
370
    18
100
AcDbCircle
 10
41.25
 20
12.5
 30
0.0
 40
0.25
100
AcDbArc
 50
90.0
 51
180.0
  0
ARC
  5
21A
330
1F
100
AcDbEntity
  8
SK3
  6
SLD-Dashed
370
    18
100
AcDbCircle
 10
41.25
 20
-12.5
 30
0.0
 40
0.2499999999999964
100
AcDbArc
 50
180.0
 51
270.0
  0
ARC
  5
21B
330
1F
100
AcDbEntity
  8
SK3
  6
SLD-Dashed
370
    18
100
AcDbCircle
 10
75.0
 20
37.65
 30
0.0
 40
12.50000000000002
100
AcDbArc
 50
204.3368860175
 51
335.6133918095
  0
ARC
  5
21C
330
1F
100
AcDbEntity
  8
SK3
  6
SLD-Dashed
370
    18
100
AcDbCircle
 10
52.0
 20
37.65
 30
0.0
 40
12.50000000000004
100
AcDbArc
 50
204.2607657876
 51
335.6608571447
  0
ARC
  5
21D
330
1F
100
AcDbEntity
  8
1
370
    25
100
AcDbCircle
 10
76.0002092053
 20
-63.4750794826
 30
0.0
 40
32.58007555315649
100
AcDbArc
 50
71.9408298602
 51
108.0448167522
  0
ARC
  5
21E
330
1F
100
AcDbEntity
  8
1
370
    25
100
AcDbCircle
 10
52.0413203591
 20
68.9708116217
 30
0.0
 40
38.19451889150994
100
AcDbArc
 50
252.5986979775
 51
287.278890303
  0
ARC
  5
21F
330
1F
100
AcDbEntity
  8
1
370
    25
100
AcDbCircle
 10
74.9891002301
 20
69.4136124075
 30
0.0
 40
38.62867248382158
100
AcDbArc
 50
252.8690538469
 51
287.1373035299
  0
SPLINE
  5
220
330
1F
100
AcDbEntity
  8
1
  6
SLD-Solid
370
    25
100
AcDbSpline
210
0.0
220
0.0
230
1.0
 70
     8
 71
     3
 72
    31
 73
    27
 74
     0
 42
0.000000001
 43
0.00000001
 40
0.0
 40
0.0
 40
0.0
 40
0.0
 40
0.0156299919102962
 40
0.0312611152574498
 40
0.0469036958041208
 40
0.0625680366519135
 40
0.0936299719602808
 40
0.1247049179463524
 40
0.155833992322766
 40
0.1869705556223601
 40
0.2497987770515659
 40
0.3121643376927918
 40
0.3743966664430964
 40
0.4372018282094711
 40
0.5000178682537109
 40
0.5624441380575521
 40
0.6252062096388248
 40
0.6880556331759374
 40
0.750402278891263
 40
0.8129367420855194
 40
0.8442931371543467
 40
0.8756529736402776
 40
0.9067355150166901
 40
0.9377975042398503
 40
0.9689206191372022
 40
1.0
 40
1.0
 40
1.0
 40
1.0
 10
30.73000000571756
 20
10.30178929461884
 30
0.0
 10
30.8180213452816
 20
10.22015632916137
 30
0.0
 10
30.99407039617159
 20
10.0568844889314
 30
0.0
 10
31.2499422182627
 20
9.803254608876072
 30
0.0
 10
31.49973199187632
 20
9.54328924198871
 30
0.0
 10
31.82233278119358
 20
9.189095771923325
 30
0.0
 10
32.20754148017161
 20
8.731716259578546
 30
0.0
 10
32.6403808265603
 20
8.159929071217029
 30
0.0
 10
33.0436827867109
 20
7.565647907358905
 30
0.0
 10
33.54253700971442
 20
6.741702231183512
 30
0.0
 10
34.08553770400312
 20
5.663359812705375
 30
0.0
 10
34.60000747093754
 20
4.307495301451733
 30
0.0
 10
34.97274499240368
 20
2.903179756704392
 30
0.0
 10
35.1993027377407
 20
1.462162433434271
 30
0.0
 10
35.27521152406328
 20
0.0026667713353135
 30
0.0
 10
35.19971876803034
 20
-1.456473360368735
 30
0.0
 10
34.97385380792732
 20
-2.899053879083354
 30
0.0
 10
34.6001911632526
 20
-4.307643948851019
 30
0.0
 10
34.08445148242047
 20
-5.665530632649247
 30
0.0
 10
33.5416925689097
 20
-6.74316009850754
 30
0.0
 10
33.04219515164024
 20
-7.56814071956536
 30
0.0
 10
32.6366344457505
 20
-8.165137557126666
 30
0.0
 10
32.20245487009336
 20
-8.738244579289754
 30
0.0
 10
31.74000865826664
 20
-9.285860440217418
 30
0.0
 10
31.25174038965143
 20
-9.810606415137993
 30
0.0
 10
30.90383192152755
 20
-10.13813842100059
 30
0.0
 10
30.72999999317681
 20
-10.30178928147749
 30
0.0
  0
SPLINE
  5
221
330
1F
100
AcDbEntity
  8
1
  6
SLD-Solid
370
    25
100
AcDbSpline
210
0.0
220
0.0
230
1.0
 70
     8
 71
     3
 72
     9
 73
     5
 74
     0
 42
0.000000001
 43
0.00000001
 40
0.0
 40
0.0
 40
0.0
 40
0.0
 40
0.5024637826892193
 40
1.0
 40
1.0
 40
1.0
 40
1.0
 10
30.72999999317681
 20
-10.30178928147749
 30
0.0
 10
30.64643751663477
 20
-10.18210438561991
 30
0.0
 10
30.48013204463678
 20
-9.94390832058806
 30
0.0
 10
30.31472976597111
 20
-9.704898026464985
 30
0.0
 10
30.23243614190915
 20
-9.585981748828656
 30
0.0
  0
SPLINE
  5
222
330
1F
100
AcDbEntity
  8
1
  6
SLD-Solid
370
    25
100
AcDbSpline
210
0.0
220
0.0
230
1.0
 70
     8
 71
     3
 72
    30
 73
    26
 74
     0
 42
0.000000001
 43
0.00000001
 40
0.0
 40
0.0
 40
0.0
 40
0.0
 40
0.0114576281213257
 40
0.0313181038201679
 40
0.0625127256572089
 40
0.0936688899332165
 40
0.1248686720378087
 40
0.18767701170837
 40
0.2502254852177374
 40
0.3125016583143078
 40
0.375209257708118
 40
0.437777218889624
 40
0.4999846765357085
 40
0.4999998180745028
 40
0.5625938520325557
 40
0.6252041603645525
 40
0.6872935440919009
 40
0.7495853764251023
 40
0.812427375970916
 40
0.8747822710143646
 40
0.9059170529112882
 40
0.9371264788216145
 40
0.9684944127010285
 40
0.9885412936753146
 40
1.0
 40
1.0
 40
1.0
 40
1.0
 10
30.23243614190915
 20
-9.585981748828653
 30
0.0
 10
30.29311656413119
 20
-9.5307034156644
 30
0.0
 10
30.45897949342826
 20
-9.37960647319848
 30
0.0
 10
30.78052844472409
 20
-9.067780682015922
 30
0.0
 10
31.1864338203405
 20
-8.640701991394325
 30
0.0
 10
31.62231483228435
 20
-8.1309674356574
 30
0.0
 10
32.16960418355783
 20
-7.419422369870498
 30
0.0
 10
32.78399172221084
 20
-6.475982346036812
 30
0.0
 10
33.39917866535045
 20
-5.272261863729336
 30
0.0
 10
33.88628644089088
 20
-4.008627570960398
 30
0.0
 10
34.23918025732212
 20
-2.697813378526524
 30
0.0
 10
34.45250638078578
 20
-1.355488058538588
 30
0.0
 10
34.49999425118234
 20
-0.4508112828826595
 30
0.0
 10
34.50000578182541
 20
0.4532823723623184
 30
0.0
 10
34.45208045788085
 20
1.361080916076949
 30
0.0
 10
34.2380811350657
 20
2.701902899031111
 30
0.0
 10
33.88602974632073
 20
4.008678231797007
 30
0.0
 10
33.4001378722317
 20
5.27040405614389
 30
0.0
 10
32.78549210771249
 20
6.47326930788918
 30
0.0
 10
32.17219804172176
 20
7.415451392236038
 30
0.0
 10
31.62739023334142
 20
8.12470426601994
 30
0.0
 10
31.19108359433518
 20
8.635604119256502
 30
0.0
 10
30.783332271775
 20
9.06501659690703
 30
0.0
 10
30.45997721820632
 20
9.378695950578384
 30
0.0
 10
30.29312204014215
 20
9.530698006956891
 30
0.0
 10
30.23243615398334
 20
9.585981754193881
 30
0.0
  0
SPLINE
  5
223
330
1F
100
AcDbEntity
  8
1
  6
SLD-Solid
370
    25
100
AcDbSpline
210
0.0
220
0.0
230
1.0
 70
     8
 71
     3
 72
     9
 73
     5
 74
     0
 42
0.000000001
 43
0.00000001
 40
0.0
 40
0.0
 40
0.0
 40
0.0
 40
0.4975362207133463
 40
1.0
 40
1.0
 40
1.0
 40
1.0
 10
30.23243615398334
 20
9.585981754193881
 30
0.0
 10
30.31472977862586
 20
9.704898034107421
 30
0.0
 10
30.48013205732726
 20
9.943908331172924
 30
0.0
 10
30.64643752960223
 20
10.18210439844573
 30
0.0
 10
30.73000000571756
 20
10.30178929461884
 30
0.0
  0
SPLINE
  5
224
330
1F
100
AcDbEntity
  8
1
  6
SLD-Solid
370
    25
100
AcDbSpline
210
0.0
220
0.0
230
1.0
 70
     8
 71
     3
 72
    10
 73
     6
 74
     0
 42
0.000000001
 43
0.00000001
 40
0.0
 40
0.0
 40
0.0
 40
0.0
 40
0.5
 40
0.5
 40
1.0
 40
1.0
 40
1.0
 40
1.0
 10
26.70500000624353
 20
11.84689727503203
 30
0.0
 10
27.3122356189678
 20
11.58523063511026
 30
0.0
 10
27.91047593330402
 20
11.27265781630687
 30
0.0
 10
29.08730088918264
 20
10.52783197790761
 30
0.0
 10
29.66595732304149
 20
10.09611128119668
 30
0.0
 10
30.23243615398334
 20
9.585981754193881
 30
0.0
  0
SPLINE
  5
225
330
1F
100
AcDbEntity
  8
1
  6
SLD-Solid
370
    25
100
AcDbSpline
210
0.0
220
0.0
230
1.0
 70
     8
 71
     3
 72
    10
 73
     6
 74
     0
 42
0.000000001
 43
0.00000001
 40
0.0
 40
0.0
 40
0.0
 40
0.0
 40
0.5
 40
0.5
 40
1.0
 40
1.0
 40
1.0
 40
1.0
 10
30.23243614190915
 20
-9.585981748828656
 30
0.0
 10
29.6659573108323
 20
-10.09611127604793
 30
0.0
 10
29.0873008768304
 20
-10.527831972921
 30
0.0
 10
27.91047592065489
 20
-11.27265781157782
 30
0.0
 10
27.31223560616479
 20
-11.5852306304758
 30
0.0
 10
26.70499999328201
 20
-11.84689727046589
 30
0.0
  0
SPLINE
  5
226
330
1F
100
AcDbEntity
  8
1
  6
SLD-Solid
370
    25
100
AcDbSpline
210
0.0
220
0.0
230
1.0
 70
     8
 71
     3
 72
    10
 73
     6
 74
     0
 42
0.000000001
 43
0.00000001
 40
0.0
 40
0.0
 40
0.0
 40
0.0
 40
0.5
 40
0.5
 40
1.0
 40
1.0
 40
1.0
 40
1.0
 10
3.750000000000004
 20
-13.85795803413967
 30
0.0
 10
3.553650459150639
 20
-13.85795803413967
 30
0.0
 10
3.358510005927545
 20
-13.83554575288123
 30
0.0
 10
3.08082982229263
 20
-13.75855131940353
 30
0.0
 10
3.000000000000003
 20
-13.70444328602569
 30
0.0
 10
3.000000000000016
 20
-13.65000000000002
 30
0.0
  0
SPLINE
  5
227
330
1F
100
AcDbEntity
  8
1
  6
SLD-Solid
370
    25
100
AcDbSpline
210
0.0
220
0.0
230
1.0
 70
     8
 71
     3
 72
     8
 73
     4
 74
     0
 42
0.000000001
 43
0.00000001
 40
0.0
 40
0.0
 40
0.0
 40
0.0
 40
0.0013188854064183
 40
0.0013188854064183
 40
0.0013188854064183
 40
0.0013188854064183
 10
16.23001969424186
 20
-12.90000000000002
 30
0.0
 10
16.04753937863331
 20
-13.21963364267906
 30
0.0
 10
15.86418062995508
 20
-13.53894782528742
 30
0.0
 10
15.68000000000003
 20
-13.85795803413961
 30
0.0
  0
SPLINE
  5
228
330
1F
100
AcDbEntity
  8
1
  6
SLD-Solid
370
    25
100
AcDbSpline
210
0.0
220
0.0
230
1.0
 70
     8
 71
     3
 72
    10
 73
     6
 74
     0
 42
0.000000001
 43
0.00000001
 40
0.0
 40
0.0
 40
0.0
 40
0.0
 40
0.5
 40
0.5
 40
1.0
 40
1.0
 40
1.0
 40
1.0
 10
3.000000000000016
 20
13.65
 30
0.0
 10
3.000000000000016
 20
13.70444328602567
 30
0.0
 10
3.080829822292644
 20
13.75855131940354
 30
0.0
 10
3.358510005927531
 20
13.83554575288121
 30
0.0
 10
3.553650459150639
 20
13.85795803413965
 30
0.0
 10
3.749999999999989
 20
13.85795803413965
 30
0.0
  0
SPLINE
  5
229
330
1F
100
AcDbEntity
  8
1
  6
SLD-Solid
370
    25
100
AcDbSpline
210
0.0
220
0.0
230
1.0
 70
     8
 71
     3
 72
     8
 73
     4
 74
     0
 42
0.000000001
 43
0.00000001
 40
0.0
 40
0.0
 40
0.0
 40
0.0
 40
0.0013188854064184
 40
0.0013188854064184
 40
0.0013188854064184
 40
0.0013188854064184
 10
15.68000000000001
 20
13.85795803413965
 30
0.0
 10
15.86418062995508
 20
13.53894782528745
 30
0.0
 10
16.04753937863333
 20
13.21963364267906
 30
0.0
 10
16.23001969424189
 20
12.9
 30
0.0
  0
SPLINE
  5
22A
330
1F
100
AcDbEntity
  8
1
  6
SLD-Solid
370
    25
100
AcDbSpline
210
0.0
220
0.0
230
1.0
 70
     8
 71
     3
 72
    32
 73
    28
 74
     0
 42
0.000000001
 43
0.00000001
 40
0.5000000000000063
 40
0.5000000000000063
 40
0.5000000000000063
 40
0.5000000000000063
 40
0.5625000000000063
 40
0.5625000000000063
 40
0.6250000000000062
 40
0.6250000000000062
 40
0.6562500000000057
 40
0.6562500000000057
 40
0.6875000000000051
 40
0.6875000000000051
 40
0.7187500000000046
 40
0.7187500000000046
 40
0.750000000000004
 40
0.750000000000004
 40
0.7812500000000036
 40
0.7812500000000036
 40
0.812500000000003
 40
0.812500000000003
 40
0.8437500000000024
 40
0.8437500000000024
 40
0.8750000000000019
 40
0.8750000000000019
 40
0.9062500000000013
 40
0.9062500000000013
 40
0.9375000000000008
 40
0.9375000000000008
 40
1.0
 40
1.0
 40
1.0
 40
1.0
 10
11.10071146249392
 20
46.24293993692541
 30
0.0
 10
10.83966036263014
 20
46.24290468071934
 30
0.0
 10
10.57654432887647
 20
46.26283130064549
 30
0.0
 10
10.0950396931868
 20
46.3378480575818
 30
0.0
 10
9.871736797758935
 20
46.3936862129957
 30
0.0
 10
9.59486911967225
 20
46.49555476197274
 30
0.0
 10
9.510355808027935
 20
46.53319066240618
 30
0.0
 10
9.364898225395866
 20
46.61211139901827
 30
0.0
 10
9.303391160574368
 20
46.65344765224852
 30
0.0
 10
9.20288790583089
 20
46.73965007660369
 30
0.0
 10
9.164237099226021
 20
46.78455822929223
 30
0.0
 10
9.11318938056445
 20
46.87388294420761
 30
0.0
 10
9.100134371086934
 20
46.91878509458411
 30
0.0
 10
9.099867672658371
 20
47.00902982582041
 30
0.0
 10
9.11274552905142
 20
47.05316763831313
 30
0.0
 10
9.163318778191195
 20
47.1387265703648
 30
0.0
 10
9.201564549821613
 20
47.18069771324019
 30
0.0
 10
9.301851471514272
 20
47.26018357839141
 30
0.0
 10
9.363213060780057
 20
47.29742937389354
 30
0.0
 10
9.508037288393695
 20
47.36723524195035
 30
0.0
 10
9.592426282888006
 20
47.39998657776513
 30
0.0
 10
9.776893191111732
 20
47.45826780616675
 30
0.0
 10
9.877477150479361
 20
47.48415678629294
 30
0.0
 10
10.09565052704875
 20
47.52959536402749
 30
0.0
 10
10.21229123388059
 20
47.54884237695548
 30
0.0
 10
10.57316681370775
 20
47.59491735537485
 30
0.0
 10
10.83571231733928
 20
47.61102046218486
 30
0.0
 10
11.1
 20
47.61102046218488
 30
0.0
  0
SPLINE
  5
22B
330
1F
100
AcDbEntity
  8
1
  6
SLD-Solid
370
    25
100
AcDbSpline
210
0.0
220
0.0
230
1.0
 70
     8
 71
     3
 72
    34
 73
    30
 74
     0
 42
0.000000001
 43
0.00000001
 40
0.0
 40
0.0
 40
0.0
 40
0.0
 40
0.0312500000000007
 40
0.0312500000000007
 40
0.0625000000000013
 40
0.0625000000000013
 40
0.093750000000002
 40
0.093750000000002
 40
0.1250000000000027
 40
0.1250000000000027
 40
0.1875000000000038
 40
0.1875000000000038
 40
0.250000000000005
 40
0.250000000000005
 40
0.2812500000000052
 40
0.2812500000000052
 40
0.3125000000000053
 40
0.3125000000000053
 40
0.3437500000000055
 40
0.3437500000000055
 40
0.3750000000000057
 40
0.3750000000000057
 40
0.4062500000000059
 40
0.4062500000000059
 40
0.4375000000000061
 40
0.4375000000000061
 40
0.4687500000000062
 40
0.4687500000000062
 40
0.5000000000000063
 40
0.5000000000000063
 40
0.5000000000000063
 40
0.5000000000000063
 10
11.1
 20
47.61102046218488
 30
0.0
 10
11.23214384133038
 20
47.61102046218488
 30
0.0
 10
11.36207683011831
 20
47.60707775994187
 30
0.0
 10
11.61770274340579
 20
47.59157583547412
 30
0.0
 10
11.74472034796745
 20
47.57982745159403
 30
0.0
 10
11.98691872226756
 20
47.5489813390642
 30
0.0
 10
12.10178825693582
 20
47.53003810633189
 30
0.0
 10
12.3191838976514
 20
47.48494043179044
 30
0.0
 10
12.42210399098249
 20
47.45854159182394
 30
0.0
 10
12.69882146131235
 20
47.37124279569228
 30
0.0
 10
12.8478254923194
 20
47.29985068225717
 30
0.0
 10
13.04732370421203
 20
47.14216623040051
 30
0.0
 10
13.09986054057426
 20
47.05418872376664
 30
0.0
 10
13.10006930284499
 20
46.92035145215262
 30
0.0
 10
13.08708888085486
 20
46.87454231371452
 30
0.0
 10
13.03607100299481
 20
46.78492686228009
 30
0.0
 10
12.99832227536032
 20
46.74090637299763
 30
0.0
 10
12.89820560779054
 20
46.65460492149248
 30
0.0
 10
12.83559212600231
 20
46.61244003049264
 30
0.0
 10
12.69084705245927
 20
46.53378144217986
 30
0.0
 10
12.60821628179985
 20
46.49678850176285
 30
0.0
 10
12.42162673177077
 20
46.42794131645882
 30
0.0
 10
12.32044387441548
 20
46.39713531384615
 30
0.0
 10
12.1038893478486
 20
46.34304900107738
 30
0.0
 10
11.98703949363669
 20
46.31952416888134
 30
0.0
 10
11.7446998281336
 20
46.28167360529467
 30
0.0
 10
11.62003428466964
 20
46.26734814958862
 30
0.0
 10
11.36379198463242
 20
46.24794534725475
 30
0.0
 10
11.23123701242582
 20
46.24295756502843
 30
0.0
 10
11.10071146249392
 20
46.24293993692541
 30
0.0
  0
SPLINE
  5
22C
330
1F
100
AcDbEntity
  8
1
  6
SLD-Solid
370
    25
100
AcDbSpline
210
0.0
220
0.0
230
1.0
 70
    24
 71
     3
 72
     8
 73
     4
 74
     0
 42
0.000000001
 43
0.00000001
 40
0.0
 40
0.0
 40
0.0
 40
0.0
 40
1.0
 40
1.0
 40
1.0
 40
1.0
 10
19.705
 20
-12.9
 30
0.0
 10
18.5519882858111
 20
-12.9
 30
0.0
 10
17.39299087975339
 20
-12.90000000000002
 30
0.0
 10
16.23001969424186
 20
-12.90000000000002
 30
0.0
  0
SPLINE
  5
22D
330
1F
100
AcDbEntity
  8
1
  6
SLD-Solid
370
    25
100
AcDbSpline
210
0.0
220
0.0
230
1.0
 70
    24
 71
     3
 72
     8
 73
     4
 74
     0
 42
0.000000001
 43
0.00000001
 40
0.0
 40
0.0
 40
0.0
 40
0.0
 40
1.0
 40
1.0
 40
1.0
 40
1.0
 10
16.23001969424189
 20
12.9
 30
0.0
 10
17.39299174097687
 20
12.9
 30
0.0
 10
18.55200333802343
 20
12.9
 30
0.0
 10
19.705
 20
12.9
 30
0.0
  0
SPLINE
  5
22E
330
1F
100
AcDbEntity
  8
1
  6
SLD-Solid
370
    25
100
AcDbSpline
210
0.0
220
0.0
230
1.0
 70
     8
 71
     3
 72
    10
 73
     6
 74
     0
 42
0.000000001
 43
0.00000001
 40
0.0
 40
0.0
 40
0.0
 40
0.0
 40
0.5
 40
0.5
 40
1.0
 40
1.0
 40
1.0
 40
1.0
 10
21.60000000624355
 20
12.90000000190593
 30
0.0
 10
22.41944729976912
 20
12.90000000190593
 30
0.0
 10
23.22275585862842
 20
12.82265446171245
 30
0.0
 10
24.79922684344695
 20
12.52272940072961
 30
0.0
 10
25.57238486552589
 20
12.30013390883283
 30
0.0
 10
26.33000000624357
 20
12.0015457356854
 30
0.0
  0
SPLINE
  5
22F
330
1F
100
AcDbEntity
  8
1
  6
SLD-Solid
370
    25
100
AcDbSpline
210
0.0
220
0.0
230
1.0
 70
     8
 71
     3
 72
    10
 73
     6
 74
     0
 42
0.000000001
 43
0.00000001
 40
0.0
 40
0.0
 40
0.0
 40
0.0
 40
0.5
 40
0.5
 40
1.0
 40
1.0
 40
1.0
 40
1.0
 10
26.32999999328243
 20
-12.00154573111927
 30
0.0
 10
25.5723848525647
 20
-12.30013390426669
 30
0.0
 10
24.79922683048581
 20
-12.52272939616347
 30
0.0
 10
23.22275584566728
 20
-12.8226544571463
 30
0.0
 10
22.41944728680799
 20
-12.89999999733978
 30
0.0
 10
21.59999999328242
 20
-12.89999999733978
 30
0.0
  0
SPLINE
  5
230
330
1F
100
AcDbEntity
  8
1
  6
SLD-Solid
370
    25
100
AcDbSpline
210
0.0
220
0.0
230
1.0
 70
     8
 71
     3
 72
     8
 73
     4
 74
     0
 42
0.000000001
 43
0.00000001
 40
0.0
 40
0.0
 40
0.0
 40
0.0
 40
0.5
 40
0.5
 40
0.5
 40
0.5
 10
26.33000000624357
 20
12.0015457356854
 30
0.0
 10
26.4310547523318
 20
11.96171845346691
 30
0.0
 10
26.52423862347288
 20
11.92339812800251
 30
0.0
 10
26.59292328081335
 20
11.89456671004034
 30
0.0
  0
SPLINE
  5
231
330
1F
100
AcDbEntity
  8
1
  6
SLD-Solid
370
    25
100
AcDbSpline
210
0.0
220
0.0
230
1.0
 70
     8
 71
     2
 72
     6
 73
     3
 74
     0
 42
0.000000001
 43
0.00000001
 40
0.5
 40
0.5
 40
0.5
 40
1.0
 40
1.0
 40
1.0
 10
26.59292328081335
 20
11.89456671004034
 30
0.0
 10
26.66160793815385
 20
11.86573529207816
 30
0.0
 10
26.70500000624353
 20
11.84689727503203
 30
0.0
  0
SPLINE
  5
232
330
1F
100
AcDbEntity
  8
1
  6
SLD-Solid
370
    25
100
AcDbSpline
210
0.0
220
0.0
230
1.0
 70
     8
 71
     2
 72
     6
 73
     3
 74
     0
 42
0.000000001
 43
0.00000001
 40
0.0
 40
0.0
 40
0.0
 40
0.5
 40
0.5
 40
0.5
 10
26.70499999328201
 20
-11.84689727046589
 30
0.0
 10
26.66092466349781
 20
-11.86602408952808
 30
0.0
 10
26.59262757436749
 20
-11.89469082293874
 30
0.0
  0
SPLINE
  5
233
330
1F
100
AcDbEntity
  8
1
  6
SLD-Solid
370
    25
100
AcDbSpline
210
0.0
220
0.0
230
1.0
 70
     8
 71
     3
 72
     8
 73
     4
 74
     0
 42
0.000000001
 43
0.00000001
 40
0.5
 40
0.5
 40
0.5
 40
0.5
 40
1.0
 40
1.0
 40
1.0
 40
1.0
 10
26.59262757436749
 20
-11.89469082293874
 30
0.0
 10
26.52433048523718
 20
-11.92335755634942
 30
0.0
 10
26.43081087043362
 20
-11.96181456152643
 30
0.0
 10
26.32999999328243
 20
-12.00154573111927
 30
0.0
  0
SPLINE
  5
234
330
1F
100
AcDbEntity
  8
1
  6
SLD-Solid
370
    25
100
AcDbSpline
210
0.0
220
0.0
230
1.0
 70
    24
 71
     2
 72
     6
 73
     3
 74
     0
 42
0.000000001
 43
0.00000001
 40
0.0
 40
0.0
 40
0.0
 40
0.5
 40
0.5
 40
0.5
 10
19.705
 20
12.9
 30
0.0
 10
19.74338373915059
 20
12.9
 30
0.0
 10
19.81143937166968
 20
12.9
 30
0.0
  0
SPLINE
  5
235
330
1F
100
AcDbEntity
  8
1
  6
SLD-Solid
370
    25
100
AcDbSpline
210
0.0
220
0.0
230
1.0
 70
    24
 71
     3
 72
     8
 73
     4
 74
     0
 42
0.000000001
 43
0.00000001
 40
0.5
 40
0.5
 40
0.5
 40
0.5
 40
1.0
 40
1.0
 40
1.0
 40
1.0
 10
19.81143937166968
 20
12.9
 30
0.0
 10
19.87949500418877
 20
12.90000000048297
 30
0.0
 10
19.97908463495331
 20
12.90000000118975
 30
0.0
 10
20.08
 20
12.90000000190593
 30
0.0
  0
SPLINE
  5
236
330
1F
100
AcDbEntity
  8
1
  6
SLD-Solid
370
    25
100
AcDbSpline
210
0.0
220
0.0
230
1.0
 70
    24
 71
     3
 72
     8
 73
     4
 74
     0
 42
0.000000001
 43
0.00000001
 40
0.0
 40
0.0
 40
0.0
 40
0.0
 40
0.5
 40
0.5
 40
0.5
 40
0.5
 10
20.08000000000002
 20
-12.89999999733978
 30
0.0
 10
19.97988956666463
 20
-12.89999999833146
 30
0.0
 10
19.87972107531742
 20
-12.89999999932373
 30
0.0
 10
19.81145023067703
 20
-12.9
 30
0.0
  0
SPLINE
  5
237
330
1F
100
AcDbEntity
  8
1
  6
SLD-Solid
370
    25
100
AcDbSpline
210
0.0
220
0.0
230
1.0
 70
    24
 71
     2
 72
     6
 73
     3
 74
     0
 42
0.000000001
 43
0.00000001
 40
0.5
 40
0.5
 40
0.5
 40
1.0
 40
1.0
 40
1.0
 10
19.81145023067701
 20
-12.9
 30
0.0
 10
19.74317938603662
 20
-12.9
 30
0.0
 10
19.70499999999999
 20
-12.9
 30
0.0
  0
SPLINE
  5
238
330
1F
100
AcDbEntity
  8
1
  6
SLD-Solid
370
    25
100
AcDbSpline
210
0.0
220
0.0
230
1.0
 70
     8
 71
     3
 72
     8
 73
     4
 74
     0
 42
0.000000001
 43
0.00000001
 40
0.0
 40
0.0
 40
0.0
 40
0.0
 40
1.0
 40
1.0
 40
1.0
 40
1.0
 10
40.9048572038042
 20
-32.5
 30
0.0
 10
40.91633886837891
 20
-32.49606923516146
 30
0.0
 10
40.94806774063027
 20
-32.4850565800286
 30
0.0
 10
40.99999999999888
 20
-32.46906219772941
 30
0.0
  0
SPLINE
  5
239
330
1F
100
AcDbEntity
  8
1
  6
SLD-Solid
370
    25
100
AcDbSpline
210
0.0
220
0.0
230
1.0
 70
     8
 71
     3
 72
     9
 73
     5
 74
     0
 42
0.000000001
 43
0.00000001
 40
0.0
 40
0.0
 40
0.0
 40
0.0
 40
0.5404199353480017
 40
1.0
 40
1.0
 40
1.0
 40
1.0
 10
41.00000000000002
 20
32.38409694555115
 30
0.0
 10
40.8743413885989
 20
32.42656502859843
 30
0.0
 10
40.64182107766655
 20
32.50514851575259
 30
0.0
 10
40.6242043368482
 20
32.51509931396872
 30
0.0
 10
40.61610803396394
 20
32.51967250245622
 30
0.0
  0
SPLINE
  5
23A
330
1F
100
AcDbEntity
  8
1
  6
SLD-Solid
370
    25
100
AcDbSpline
210
0.0
220
0.0
230
1.0
 70
     8
 71
     3
 72
    14
 73
    10
 74
     0
 42
0.000000001
 43
0.00000001
 40
0.0
 40
0.0
 40
0.0
 40
0.0
 40
0.2500000000000001
 40
0.2500000000000001
 40
0.5
 40
0.5
 40
0.75
 40
0.75
 40
1.0
 40
1.0
 40
1.0
 40
1.0
 10
3.000000000000016
 20
-3.762977544445746
 30
0.0
 10
3.000000000000016
 20
-3.135929825443077
 30
0.0
 10
2.991678313258098
 20
-2.508737538536393
 30
0.0
 10
2.978060621190701
 20
-1.2544055281557
 30
0.0
 10
2.972842150110372
 20
-0.627275587815071
 30
0.0
 10
2.972841079462676
 20
0.627057791034058
 30
0.0
 10
2.978059537048022
 20
1.254301409576053
 30
0.0
 10
2.991678476802831
 20
2.508756860119407
 30
0.0
 10
3.000000000000016
 20
3.136051595231441
 30
0.0
 10
3.000000000000016
 20
3.762977544445725
 30
0.0
  0
SPLINE
  5
23B
330
1F
100
AcDbEntity
  8
1
  6
SLD-Solid
370
    25
100
AcDbSpline
210
0.0
220
0.0
230
1.0
 70
     8
 71
     3
 72
     8
 73
     4
 74
     0
 42
0.000000001
 43
0.00000001
 40
0.0
 40
0.0
 40
0.0
 40
0.0
 40
0.0624999999999987
 40
0.0624999999999987
 40
0.0624999999999987
 40
0.0624999999999987
 10
40.99999999999886
 20
-32.46906219772941
 30
0.0
 10
41.09002121715687
 20
-32.44133696913805
 30
0.0
 10
41.23829926469462
 20
-32.39587958713473
 30
0.0
 10
41.44178089854826
 20
-32.3357318208721
 30
0.0
  0
SPLINE
  5
23C
330
1F
100
AcDbEntity
  8
1
  6
SLD-Solid
370
    25
100
AcDbSpline
210
0.0
220
0.0
230
1.0
 70
     8
 71
     3
 72
     8
 73
     4
 74
     0
 42
0.000000001
 43
0.00000001
 40
0.0624999999999987
 40
0.0624999999999987
 40
0.0624999999999987
 40
0.0624999999999987
 40
0.0937499999999981
 40
0.0937499999999981
 40
0.0937499999999981
 40
0.0937499999999981
 10
41.44178089854826
 20
-32.3357318208721
 30
0.0
 10
41.54352171547508
 20
-32.30565793774075
 30
0.0
 10
41.65916363591714
 20
-32.27190364463993
 30
0.0
 10
41.78890818239307
 20
-32.23482918323578
 30
0.0
  0
SPLINE
  5
23D
330
1F
100
AcDbEntity
  8
1
  6
SLD-Solid
370
    25
100
AcDbSpline
210
0.0
220
0.0
230
1.0
 70
     8
 71
     3
 72
     8
 73
     4
 74
     0
 42
0.000000001
 43
0.00000001
 40
0.0937499999999981
 40
0.0937499999999981
 40
0.0937499999999981
 40
0.0937499999999981
 40
0.1249999999999974
 40
0.1249999999999974
 40
0.1249999999999974
 40
0.1249999999999974
 10
41.78890818239307
 20
-32.23482918323578
 30
0.0
 10
41.91865272886898
 20
-32.19775472183163
 30
0.0
 10
42.06330191666761
 20
-32.15714568842891
 30
0.0
 10
42.21943024321891
 20
-32.11445788509751
 30
0.0
  0
SPLINE
  5
23E
330
1F
100
AcDbEntity
  8
1
  6
SLD-Solid
370
    25
100
AcDbSpline
210
0.0
220
0.0
230
1.0
 70
     8
 71
     3
 72
     8
 73
     4
 74
     0
 42
0.000000001
 43
0.00000001
 40
0.1249999999999974
 40
0.1249999999999974
 40
0.1249999999999974
 40
0.1249999999999974
 40
0.1874999999999962
 40
0.1874999999999962
 40
0.1874999999999962
 40
0.1874999999999962
 10
42.21943024321891
 20
-32.11445788509751
 30
0.0
 10
42.53168689632149
 20
-32.02908227843474
 30
0.0
 10
42.89082218797603
 20
-31.93499887738996
 30
0.0
 10
43.29607248044261
 20
-31.83693608415542
 30
0.0
  0
SPLINE
  5
23F
330
1F
100
AcDbEntity
  8
1
  6
SLD-Solid
370
    25
100
AcDbSpline
210
0.0
220
0.0
230
1.0
 70
     8
 71
     3
 72
     8
 73
     4
 74
     0
 42
0.000000001
 43
0.00000001
 40
0.1874999999999962
 40
0.1874999999999962
 40
0.1874999999999962
 40
0.1874999999999962
 40
0.2499999999999949
 40
0.2499999999999949
 40
0.2499999999999949
 40
0.2499999999999949
 10
43.29607248044262
 20
-31.83693608415541
 30
0.0
 10
43.70132277290924
 20
-31.73887329092086
 30
0.0
 10
44.15753137106935
 20
-31.63592238122571
 30
0.0
 10
44.64480275526552
 20
-31.53773187817229
 30
0.0
  0
SPLINE
  5
240
330
1F
100
AcDbEntity
  8
1
  6
SLD-Solid
370
    25
100
AcDbSpline
210
0.0
220
0.0
230
1.0
 70
     8
 71
     3
 72
     8
 73
     4
 74
     0
 42
0.000000001
 43
0.00000001
 40
0.2499999999999949
 40
0.2499999999999949
 40
0.2499999999999949
 40
0.2499999999999949
 40
0.3124999999999935
 40
0.3124999999999935
 40
0.3124999999999935
 40
0.3124999999999935
 10
44.64480275526552
 20
-31.53773187817229
 30
0.0
 10
45.13207413946167
 20
-31.43954137511885
 30
0.0
 10
45.65248710341501
 20
-31.3454217738146
 30
0.0
 10
46.20715833601984
 20
-31.26037957568636
 30
0.0
  0
SPLINE
  5
241
330
1F
100
AcDbEntity
  8
1
  6
SLD-Solid
370
    25
100
AcDbSpline
210
0.0
220
0.0
230
1.0
 70
     8
 71
     3
 72
     8
 73
     4
 74
     0
 42
0.000000001
 43
0.00000001
 40
0.3124999999999935
 40
0.3124999999999935
 40
0.3124999999999935
 40
0.3124999999999935
 40
0.3437499999999932
 40
0.3437499999999932
 40
0.3437499999999932
 40
0.3437499999999932
 10
46.20715833601984
 20
-31.26037957568636
 30
0.0
 10
46.48449395232225
 20
-31.21785847662223
 30
0.0
 10
46.77209279279711
 20
-31.17741521565155
 30
0.0
 10
47.06422817030543
 20
-31.14049292955109
 30
0.0
  0
SPLINE
  5
242
330
1F
100
AcDbEntity
  8
1
  6
SLD-Solid
370
    25
100
AcDbSpline
210
0.0
220
0.0
230
1.0
 70
     8
 71
     3
 72
     8
 73
     4
 74
     0
 42
0.000000001
 43
0.00000001
 40
0.3437499999999932
 40
0.3437499999999932
 40
0.3437499999999932
 40
0.3437499999999932
 40
0.3749999999999929
 40
0.3749999999999929
 40
0.3749999999999929
 40
0.3749999999999929
 10
47.06422817030543
 20
-31.14049292955109
 30
0.0
 10
47.35636354781379
 20
-31.10357064345062
 30
0.0
 10
47.65259669162809
 20
-31.07017557842502
 30
0.0
 10
47.95287544284922
 20
-31.04069857568922
 30
0.0
  0
SPLINE
  5
243
330
1F
100
AcDbEntity
  8
1
  6
SLD-Solid
370
    25
100
AcDbSpline
210
0.0
220
0.0
230
1.0
 70
     8
 71
     3
 72
     8
 73
     4
 74
     0
 42
0.000000001
 43
0.00000001
 40
0.3749999999999929
 40
0.3749999999999929
 40
0.3749999999999929
 40
0.3749999999999929
 40
0.437499999999993
 40
0.437499999999993
 40
0.437499999999993
 40
0.437499999999993
 10
47.95287544284922
 20
-31.04069857568922
 30
0.0
 10
48.55343294529145
 20
-30.98174457021764
 30
0.0
 10
49.1700690899287
 20
-30.93845306486838
 30
0.0
 10
49.80360696618342
 20
-30.91393466208029
 30
0.0
  0
SPLINE
  5
244
330
1F
100
AcDbEntity
  8
1
  6
SLD-Solid
370
    25
100
AcDbSpline
210
0.0
220
0.0
230
1.0
 70
     8
 71
     3
 72
     8
 73
     4
 74
     0
 42
0.000000001
 43
0.00000001
 40
0.437499999999993
 40
0.437499999999993
 40
0.437499999999993
 40
0.437499999999993
 40
0.468749999999993
 40
0.468749999999993
 40
0.468749999999993
 40
0.468749999999993
 10
49.80360696618342
 20
-30.91393466208029
 30
0.0
 10
50.12037590431078
 20
-30.90167546068624
 30
0.0
 10
50.44146216252217
 20
-30.89418858720622
 30
0.0
 10
50.75939641033629
 20
-30.89171232041635
 30
0.0
  0
SPLINE
  5
245
330
1F
100
AcDbEntity
  8
1
  6
SLD-Solid
370
    25
100
AcDbSpline
210
0.0
220
0.0
230
1.0
 70
     8
 71
     3
 72
     8
 73
     4
 74
     0
 42
0.000000001
 43
0.00000001
 40
0.468749999999993
 40
0.468749999999993
 40
0.468749999999993
 40
0.468749999999993
 40
0.499999999999993
 40
0.499999999999993
 40
0.499999999999993
 40
0.499999999999993
 10
50.75939641033629
 20
-30.89171232041635
 30
0.0
 10
51.07733065815044
 20
-30.88923605362648
 30
0.0
 10
51.3939848729421
 20
-30.89167839494025
 30
0.0
 10
51.70938203966137
 20
-30.89891938779135
 30
0.0
  0
SPLINE
  5
246
330
1F
100
AcDbEntity
  8
1
  6
SLD-Solid
370
    25
100
AcDbSpline
210
0.0
220
0.0
230
1.0
 70
     8
 71
     3
 72
     8
 73
     4
 74
     0
 42
0.000000001
 43
0.00000001
 40
0.499999999999993
 40
0.499999999999993
 40
0.499999999999993
 40
0.499999999999993
 40
0.531249999999993
 40
0.531249999999993
 40
0.531249999999993
 40
0.531249999999993
 10
51.70938203966137
 20
-30.89891938779135
 30
0.0
 10
52.02477920638061
 20
-30.90616038064243
 30
0.0
 10
52.33891932502745
 20
-30.91820002503082
 30
0.0
 10
52.65179513169975
 20
-30.93490628977419
 30
0.0
  0
SPLINE
  5
247
330
1F
100
AcDbEntity
  8
1
  6
SLD-Solid
370
    25
100
AcDbSpline
210
0.0
220
0.0
230
1.0
 70
     8
 71
     3
 72
     8
 73
     4
 74
     0
 42
0.000000001
 43
0.00000001
 40
0.531249999999993
 40
0.531249999999993
 40
0.531249999999993
 40
0.531249999999993
 40
0.5624999999999931
 40
0.5624999999999931
 40
0.5624999999999931
 40
0.5624999999999931
 10
52.65179513169975
 20
-30.93490628977419
 30
0.0
 10
52.96467093837205
 20
-30.95161255451754
 30
0.0
 10
53.27768526574604
 20
-30.97310833582975
 30
0.0
 10
53.58602247232595
 20
-30.99883082032898
 30
0.0
  0
SPLINE
  5
248
330
1F
100
AcDbEntity
  8
1
  6
SLD-Solid
370
    25
100
AcDbSpline
210
0.0
220
0.0
230
1.0
 70
     8
 71
     3
 72
     8
 73
     4
 74
     0
 42
0.000000001
 43
0.00000001
 40
0.5624999999999931
 40
0.5624999999999931
 40
0.5624999999999931
 40
0.5624999999999931
 40
0.6249999999999938
 40
0.6249999999999938
 40
0.6249999999999938
 40
0.6249999999999938
 10
53.58602247232595
 20
-30.99883082032898
 30
0.0
 10
54.20269688548575
 20
-31.05027578932742
 30
0.0
 10
54.79398768825701
 20
-31.11782037251466
 30
0.0
 10
55.36134013062765
 20
-31.19713588993429
 30
0.0
  0
SPLINE
  5
249
330
1F
100
AcDbEntity
  8
1
  6
SLD-Solid
370
    25
100
AcDbSpline
210
0.0
220
0.0
230
1.0
 70
     8
 71
     3
 72
     8
 73
     4
 74
     0
 42
0.000000001
 43
0.00000001
 40
0.6249999999999938
 40
0.6249999999999938
 40
0.6249999999999938
 40
0.6249999999999938
 40
0.6562499999999942
 40
0.6562499999999942
 40
0.6562499999999942
 40
0.6562499999999942
 10
55.36134013062765
 20
-31.19713588993429
 30
0.0
 10
55.64501635181297
 20
-31.23679364864411
 30
0.0
 10
55.92266665265137
 20
-31.27940104202231
 30
0.0
 10
56.19422723526927
 20
-31.3244313048396
 30
0.0
  0
SPLINE
  5
24A
330
1F
100
AcDbEntity
  8
1
  6
SLD-Solid
370
    25
100
AcDbSpline
210
0.0
220
0.0
230
1.0
 70
     8
 71
     3
 72
     8
 73
     4
 74
     0
 42
0.000000001
 43
0.00000001
 40
0.6562499999999942
 40
0.6562499999999942
 40
0.6562499999999942
 40
0.6562499999999942
 40
0.6874999999999946
 40
0.6874999999999946
 40
0.6874999999999946
 40
0.6874999999999946
 10
56.19422723526925
 20
-31.3244313048396
 30
0.0
 10
56.46578781788718
 20
-31.36946156765691
 30
0.0
 10
56.72999584249948
 20
-31.41673289014024
 30
0.0
 10
56.98310302737993
 20
-31.46486170057394
 30
0.0
  0
SPLINE
  5
24B
330
1F
100
AcDbEntity
  8
1
  6
SLD-Solid
370
    25
100
AcDbSpline
210
0.0
220
0.0
230
1.0
 70
     8
 71
     3
 72
     8
 73
     4
 74
     0
 42
0.000000001
 43
0.00000001
 40
0.6874999999999946
 40
0.6874999999999946
 40
0.6874999999999946
 40
0.6874999999999946
 40
0.7499999999999952
 40
0.7499999999999952
 40
0.7499999999999952
 40
0.7499999999999952
 10
56.98310302737993
 20
-31.46486170057394
 30
0.0
 10
57.48931739714087
 20
-31.56111932144138
 30
0.0
 10
57.95632085060602
 20
-31.66159757293016
 30
0.0
 10
58.38476262290605
 20
-31.76121406679339
 30
0.0
  0
SPLINE
  5
24C
330
1F
100
AcDbEntity
  8
1
  6
SLD-Solid
370
    25
100
AcDbSpline
210
0.0
220
0.0
230
1.0
 70
     8
 71
     3
 72
     8
 73
     4
 74
     0
 42
0.000000001
 43
0.00000001
 40
0.7499999999999952
 40
0.7499999999999952
 40
0.7499999999999952
 40
0.7499999999999952
 40
0.781249999999996
 40
0.781249999999996
 40
0.781249999999996
 40
0.781249999999996
 10
58.38476262290605
 20
-31.76121406679339
 30
0.0
 10
58.59898350905608
 20
-31.81102231372499
 30
0.0
 10
58.80443137740508
 20
-31.86085788499711
 30
0.0
 10
58.99736154239026
 20
-31.90921170508143
 30
0.0
  0
SPLINE
  5
24D
330
1F
100
AcDbEntity
  8
1
  6
SLD-Solid
370
    25
100
AcDbSpline
210
0.0
220
0.0
230
1.0
 70
     8
 71
     3
 72
     8
 73
     4
 74
     0
 42
0.000000001
 43
0.00000001
 40
0.781249999999996
 40
0.781249999999996
 40
0.781249999999996
 40
0.781249999999996
 40
0.8124999999999967
 40
0.8124999999999967
 40
0.8124999999999967
 40
0.8124999999999967
 10
58.99736154239029
 20
-31.90921170508144
 30
0.0
 10
59.19029170737549
 20
-31.95756552516575
 30
0.0
 10
59.37030845502186
 20
-32.00431244390264
 30
0.0
 10
59.53775530917792
 20
-32.04891988381821
 30
0.0
  0
SPLINE
  5
24E
330
1F
100
AcDbEntity
  8
1
  6
SLD-Solid
370
    25
100
AcDbSpline
210
0.0
220
0.0
230
1.0
 70
     8
 71
     3
 72
     8
 73
     4
 74
     0
 42
0.000000001
 43
0.00000001
 40
0.8124999999999967
 40
0.8124999999999967
 40
0.8124999999999967
 40
0.8124999999999967
 40
0.8749999999999979
 40
0.8749999999999979
 40
0.8749999999999979
 40
0.8749999999999979
 10
59.53775530917792
 20
-32.04891988381821
 30
0.0
 10
59.8726490174901
 20
-32.13813476364936
 30
0.0
 10
60.15761810125454
 20
-32.21881554140393
 30
0.0
 10
60.39108270221168
 20
-32.28672226039338
 30
0.0
  0
SPLINE
  5
24F
330
1F
100
AcDbEntity
  8
1
  6
SLD-Solid
370
    25
100
AcDbSpline
210
0.0
220
0.0
230
1.0
 70
     8
 71
     3
 72
     8
 73
     4
 74
     0
 42
0.000000001
 43
0.00000001
 40
0.8749999999999979
 40
0.8749999999999979
 40
0.8749999999999979
 40
0.8749999999999979
 40
0.9062499999999984
 40
0.9062499999999984
 40
0.9062499999999984
 40
0.9062499999999984
 10
60.39108270221167
 20
-32.28672226039338
 30
0.0
 10
60.50781500269024
 20
-32.32067561988811
 30
0.0
 10
60.61160761299285
 20
-32.35144346995482
 30
0.0
 10
60.69996489119291
 20
-32.37791406021051
 30
0.0
  0
SPLINE
  5
250
330
1F
100
AcDbEntity
  8
1
  6
SLD-Solid
370
    25
100
AcDbSpline
210
0.0
220
0.0
230
1.0
 70
     8
 71
     3
 72
     8
 73
     4
 74
     0
 42
0.000000001
 43
0.00000001
 40
0.9062499999999984
 40
0.9062499999999984
 40
0.9062499999999984
 40
0.9062499999999984
 40
0.937499999999999
 40
0.937499999999999
 40
0.937499999999999
 40
0.937499999999999
 10
60.69996489119291
 20
-32.37791406021051
 30
0.0
 10
60.78832216939298
 20
-32.40438465046619
 30
0.0
 10
60.86195806679598
 20
-32.42676436827209
 30
0.0
 10
60.92108881348818
 20
-32.44484555742441
 30
0.0
  0
SPLINE
  5
251
330
1F
100
AcDbEntity
  8
1
  6
SLD-Solid
370
    25
100
AcDbSpline
210
0.0
220
0.0
230
1.0
 70
     8
 71
     2
 72
     6
 73
     3
 74
     0
 42
0.000000001
 43
0.00000001
 40
0.937499999999999
 40
0.937499999999999
 40
0.937499999999999
 40
1.0
 40
1.0
 40
1.0
 10
60.92108881348811
 20
-32.44484555742439
 30
0.0
 10
61.03935030687251
 20
-32.481007935729
 30
0.0
 10
61.09999999999889
 20
-32.49999999999964
 30
0.0
  0
SPLINE
  5
252
330
1F
100
AcDbEntity
  8
1
  6
SLD-Dashed
370
    18
100
AcDbSpline
210
0.0
220
0.0
230
1.0
 70
     8
 71
     3
 72
    31
 73
    27
 74
     0
 42
0.000000001
 43
0.00000001
 40
0.0
 40
0.0
 40
0.0
 40
0.0
 40
0.0155398018585007
 40
0.0310809192630995
 40
0.0466335010157368
 40
0.0622076735028118
 40
0.0932675544376523
 40
0.1243522097124201
 40
0.1557099215157861
 40
0.1870684468948753
 40
0.2496029157489517
 40
0.311949567092922
 40
0.3747989962963941
 40
0.4375610735445561
 40
0.4999873489797562
 40
0.5628033946911265
 40
0.6256085621204346
 40
0.6878408964855823
 40
0.7502064627627322
 40
0.8130346898668559
 40
0.8441691395060136
 40
0.8753003331850132
 40
0.9063731694829251
 40
0.9374372200972995
 40
0.9687404587125935
 40
1.0
 40
1.0
 40
1.0
 40
1.0
 10
30.72999999317681
 20
-10.30178928147749
 30
0.0
 10
30.81751693180977
 20
-10.22063125536961
 30
0.0
 10
30.99255821795822
 20
-10.05830833259492
 30
0.0
 10
31.24701472778003
 20
-9.806199724256114
 30
0.0
 10
31.49546285806683
 20
-9.547824047556725
 30
0.0
 10
31.81730805270035
 20
-9.194838018208918
 30
0.0
 10
32.2023718899115
 20
-8.738168862339156
 30
0.0
 10
32.63663513924721
 20
-8.165187926212605
 30
0.0
 10
33.04218110101238
 20
-7.568148239005909
 30
0.0
 10
33.54168818882484
 20
-6.74317838783367
 30
0.0
 10
34.0844504820995
 20
-5.665529414227717
 30
0.0
 10
34.60019145356931
 20
-4.307644281856176
 30
0.0
 10
34.97385375297326
 20
-2.89905379223724
 30
0.0
 10
35.19971880548482
 20
-1.456473386799294
 30
0.0
 10
35.27521154365833
 20
0.002666784032955
 30
0.0
 10
35.19930273880408
 20
1.462162409226211
 30
0.0
 10
34.97274508318275
 20
2.90317984741003
 30
0.0
 10
34.60000721780153
 20
4.307494978714598
 30
0.0
 10
34.08553873056426
 20
5.663361038390567
 30
0.0
 10
33.54254137606456
 20
6.741684017848304
 30
0.0
 10
33.04369673596084
 20
7.565640391955002
 30
0.0
 10
32.64038026624759
 20
8.159878936478584
 30
0.0
 10
32.2076244108684
 20
8.731792010711517
 30
0.0
 10
31.74464026672612
 20
9.28069099167734
 30
0.0
 10
31.25472218596663
 20
9.8077147192216
 30
0.0
 10
30.90482593679504
 20
10.13717447383015
 30
0.0
 10
30.73000000571756
 20
10.30178929461884
 30
0.0
  0
SPLINE
  5
253
330
1F
100
AcDbEntity
  8
SK3
  6
SLD-Dashed
370
    18
100
AcDbSpline
210
0.0
220
0.0
230
1.0
 70
     8
 71
     3
 72
    14
 73
    10
 74
     0
 42
0.000000001
 43
0.00000001
 40
0.0
 40
0.0
 40
0.0
 40
0.0
 40
0.25
 40
0.25
 40
0.5
 40
0.5
 40
0.75
 40
0.75
 40
1.0
 40
1.0
 40
1.0
 40
1.0
 10
11.10000000000001
 20
36.24434567831251
 30
0.0
 10
10.93010255201389
 20
36.3690790053232
 30
0.0
 10
10.77913223948143
 20
36.49899170200795
 30
0.0
 10
10.49714438169093
 20
36.7609928674993
 30
0.0
 10
10.36679773006396
 20
36.89280358391542
 30
0.0
 10
10.12677721550009
 20
37.14140646422412
 30
0.0
 10
10.01579455691602
 20
37.25974951232747
 30
0.0
 10
9.809048307797234
 20
37.4734189335295
 30
0.0
 10
9.71368023764048
 20
37.56868891722047
 30
0.0
 10
9.6336362513018
 20
37.63445251731464
 30
0.0
  0
SPLINE
  5
254
330
1F
100
AcDbEntity
  8
SK3
  6
SLD-Dashed
370
    18
100
AcDbSpline
210
0.0
220
0.0
230
1.0
 70
     8
 71
     3
 72
    34
 73
    30
 74
     0
 42
0.000000001
 43
0.00000001
 40
0.5000000000000002
 40
0.5000000000000002
 40
0.5000000000000002
 40
0.5000000000000002
 40
0.5312500000000003
 40
0.5312500000000003
 40
0.5625000000000004
 40
0.5625000000000004
 40
0.5937500000000006
 40
0.5937500000000006
 40
0.6250000000000007
 40
0.6250000000000007
 40
0.6562500000000008
 40
0.6562500000000008
 40
0.6875000000000009
 40
0.6875000000000009
 40
0.7500000000000007
 40
0.7500000000000007
 40
0.8125000000000013
 40
0.8125000000000013
 40
0.8437500000000011
 40
0.8437500000000011
 40
0.8750000000000009
 40
0.8750000000000009
 40
0.9062500000000007
 40
0.9062500000000007
 40
0.9375000000000004
 40
0.9375000000000004
 40
0.9687500000000002
 40
0.9687500000000002
 40
1.0
 40
1.0
 40
1.0
 40
1.0
 10
9.613805742161723
 20
32.06281097659473
 30
0.0
 10
9.668881160736317
 20
32.10309805177791
 30
0.0
 10
9.73817928315665
 20
32.14073483518616
 30
0.0
 10
9.898515798149973
 20
32.20110344536893
 30
0.0
 10
9.988902763524528
 20
32.22393554112017
 30
0.0
 10
10.18945694949211
 20
32.24641795601578
 30
0.0
 10
10.29767837600209
 20
32.24530201799808
 30
0.0
 10
10.51807526498123
 20
32.21214772693891
 30
0.0
 10
10.63291658596824
 20
32.17923875118971
 30
0.0
 10
10.85319871140988
 20
32.0850030547948
 30
0.0
 10
10.96108094611137
 20
32.02309673503585
 30
0.0
 10
11.16468749579594
 20
31.88015690790776
 30
0.0
 10
11.26027842069084
 20
31.79975923962912
 30
0.0
 10
11.53398297450223
 20
31.53947932429291
 30
0.0
 10
11.69837034356697
 20
31.34149906618454
 30
0.0
 10
11.99694861504764
 20
30.93451949723768
 30
0.0
 10
12.13420875119767
 20
30.72108106609182
 30
0.0
 10
12.32260730605759
 20
30.39792759977521
 30
0.0
 10
12.38188352391459
 20
30.29060318554874
 30
0.0
 10
12.49280294837551
 20
30.07810222598031
 30
0.0
 10
12.54469006353046
 20
29.97232875561899
 30
0.0
 10
12.63491931900843
 20
29.77290420087407
 30
0.0
 10
12.67429072119648
 20
29.67687735577868
 30
0.0
 10
12.73086568636481
 20
29.51167662882574
 30
0.0
 10
12.74803399215495
 20
29.44172730744222
 30
0.0
 10
12.75163319740261
 20
29.34952447988205
 30
0.0
 10
12.73806993948381
 20
29.32639093213393
 30
0.0
 10
12.68670841969952
 20
29.32396546256975
 30
0.0
 10
12.64969993892521
 20
29.34320004830024
 30
0.0
 10
12.60540931107558
 20
29.37571682493556
 30
0.0
  0
SPLINE
  5
255
330
1F
100
AcDbEntity
  8
SK3
  6
SLD-Dashed
370
    18
100
AcDbSpline
210
0.0
220
0.0
230
1.0
 70
     8
 71
     3
 72
    26
 73
    22
 74
     0
 42
0.000000001
 43
0.00000001
 40
0.0
 40
0.0
 40
0.0
 40
0.0
 40
0.0625
 40
0.0625
 40
0.125
 40
0.125
 40
0.1874999999999999
 40
0.1874999999999999
 40
0.2499999999999999
 40
0.2499999999999999
 40
0.2812500000000003
 40
0.2812500000000003
 40
0.3125000000000007
 40
0.3125000000000007
 40
0.3750000000000003
 40
0.3750000000000003
 40
0.4375
 40
0.4375
 40
0.4687500000000001
 40
0.4687500000000001
 40
0.5000000000000002
 40
0.5000000000000002
 40
0.5000000000000002
 40
0.5000000000000002
 10
12.60540931107558
 20
29.37571682493556
 30
0.0
 10
12.51682805537629
 20
29.4407503782062
 30
0.0
 10
12.40700682775377
 20
29.55051611962868
 30
0.0
 10
12.15919932759159
 20
29.80687692943998
 30
0.0
 10
12.02334522926919
 20
29.95248630818573
 30
0.0
 10
11.72814013646128
 20
30.25403810358308
 30
0.0
 10
11.56591385222426
 20
30.41343063102241
 30
0.0
 10
11.20504729019513
 20
30.72369135776141
 30
0.0
 10
11.00228334192553
 20
30.87603903040809
 30
0.0
 10
10.67487000905186
 20
31.07115716362112
 30
0.0
 10
10.56031472788944
 20
31.13155590588754
 30
0.0
 10
10.33896153134629
 20
31.23732451856055
 30
0.0
 10
10.22949961952681
 20
31.28426500057825
 30
0.0
 10
9.922578697971321
 20
31.41303027982768
 30
0.0
 10
9.751646578307197
 20
31.48319067939763
 30
0.0
 10
9.517451961566184
 20
31.63426232662331
 30
0.0
 10
9.453612055377938
 20
31.71535651469055
 30
0.0
 10
9.448421112414284
 20
31.84603582485067
 30
0.0
 10
9.461345898652649
 20
31.89014951197766
 30
0.0
 10
9.51639061562104
 20
31.9785612869524
 30
0.0
 10
9.558730323587131
 20
32.02252390141155
 30
0.0
 10
9.613805742161723
 20
32.06281097659473
 30
0.0
  0
SPLINE
  5
256
330
1F
100
AcDbEntity
  8
SK3
  6
SLD-Dashed
370
    18
100
AcDbSpline
210
0.0
220
0.0
230
1.0
 70
     8
 71
     3
 72
    28
 73
    24
 74
     0
 42
0.000000001
 43
0.00000001
 40
0.4999999999999996
 40
0.4999999999999996
 40
0.4999999999999996
 40
0.4999999999999996
 40
0.5624999999999998
 40
0.5624999999999998
 40
0.625
 40
0.625
 40
0.65625
 40
0.65625
 40
0.6875
 40
0.6875
 40
0.75
 40
0.75
 40
0.7812500000000001
 40
0.7812500000000001
 40
0.8125000000000002
 40
0.8125000000000002
 40
0.8437500000000003
 40
0.8437500000000003
 40
0.8750000000000004
 40
0.8750000000000004
 40
0.9375000000000002
 40
0.9375000000000002
 40
1.0
 40
1.0
 40
1.0
 40
1.0
 10
11.10063994677772
 20
9.17980581970515
 30
0.0
 10
10.88511437826825
 20
9.179764731078539
 30
0.0
 10
10.66767832081876
 20
9.20126512292447
 30
0.0
 10
10.27039433374755
 20
9.28017380806425
 30
0.0
 10
10.08661083741964
 20
9.338138102846443
 30
0.0
 10
9.85825182468604
 20
9.44006537980633
 30
0.0
 10
9.788576404990271
 20
9.477149305158457
 30
0.0
 10
9.668865269254923
 20
9.553080163044118
 30
0.0
 10
9.618080695444467
 20
9.59216831129068
 30
0.0
 10
9.493376272655492
 20
9.711752477283813
 30
0.0
 10
9.450181111458026
 20
9.791639621509383
 30
0.0
 10
9.449910292357325
 20
9.903567596435042
 30
0.0
 10
9.460525364944752
 20
9.93868264375513
 30
0.0
 10
9.502361606435263
 20
10.00486157884361
 30
0.0
 10
9.534127008594087
 20
10.03623086510929
 30
0.0
 10
9.616761891656541
 20
10.09321537097385
 30
0.0
 10
9.6673578398907
 20
10.11892320032906
 30
0.0
 10
9.787049538608942
 20
10.16555473396258
 30
0.0
 10
9.856502934081801
 20
10.18644292145534
 30
0.0
 10
10.08415986245242
 20
10.24048736872272
 30
0.0
 10
10.26789811615395
 20
10.26651718042253
 30
0.0
 10
10.66470419067458
 20
10.30022487924511
 30
0.0
 10
10.88162329216495
 20
10.30847223167889
 30
0.0
 10
11.10000000000001
 20
10.30847223167889
 30
0.0
  0
SPLINE
  5
257
330
1F
100
AcDbEntity
  8
SK3
  6
SLD-Dashed
370
    18
100
AcDbSpline
210
0.0
220
0.0
230
1.0
 70
     8
 71
     3
 72
    32
 73
    28
 74
     0
 42
0.000000001
 43
0.00000001
 40
0.0
 40
0.0
 40
0.0
 40
0.0
 40
0.0312499999999998
 40
0.0312499999999998
 40
0.0624999999999995
 40
0.0624999999999995
 40
0.0937499999999993
 40
0.0937499999999993
 40
0.1249999999999991
 40
0.1249999999999991
 40
0.1874999999999991
 40
0.1874999999999991
 40
0.2499999999999991
 40
0.2499999999999991
 40
0.281249999999999
 40
0.281249999999999
 40
0.3124999999999991
 40
0.3124999999999991
 40
0.3749999999999991
 40
0.3749999999999991
 40
0.4062499999999992
 40
0.4062499999999992
 40
0.4374999999999993
 40
0.4374999999999993
 40
0.4687499999999994
 40
0.4687499999999994
 40
0.4999999999999996
 40
0.4999999999999996
 40
0.4999999999999996
 40
0.4999999999999996
 10
11.10000000000001
 20
10.30847223167889
 30
0.0
 10
11.20918835391754
 20
10.30847223167889
 30
0.0
 10
11.31651771305064
 20
10.30642167162257
 30
0.0
 10
11.52762120394278
 20
10.29821030754582
 30
0.0
 10
11.63250189121384
 20
10.29194428668545
 30
0.0
 10
11.83223206661289
 20
10.27502374362116
 30
0.0
 10
11.92693470175493
 20
10.26444756624655
 30
0.0
 10
12.10616276605223
 20
10.23832625336568
 30
0.0
 10
12.1908896737172
 20
10.2226423287681
 30
0.0
 10
12.41879001739922
 20
10.168625803381
 30
0.0
 10
12.54167185323995
 20
10.12171939803715
 30
0.0
 10
12.70636644254865
 20
10.00846559837553
 30
0.0
 10
12.74987701797391
 20
9.940762454420806
 30
0.0
 10
12.75006109004669
 20
9.830188859982679
 30
0.0
 10
12.73931049884444
 20
9.79113104931667
 30
0.0
 10
12.69714619983564
 20
9.712601504592849
 30
0.0
 10
12.66595101562508
 20
9.672920129814681
 30
0.0
 10
12.54179369836861
 20
9.553356030122167
 30
0.0
 10
12.4207525379567
 20
9.47548083456614
 30
0.0
 10
12.19025712142206
 20
9.372372874597794
 30
0.0
 10
12.10711918455321
 20
9.34111047290162
 30
0.0
 10
11.92862050550957
 20
9.28545275449008
 30
0.0
 10
11.83208682777022
 20
9.260851367286078
 30
0.0
 10
11.6324788650929
 20
9.221112207445598
 30
0.0
 10
11.52963804660007
 20
9.205875681199489
 30
0.0
 10
11.31787187764578
 20
9.185172446042555
 30
0.0
 10
11.20840273103245
 20
9.17982636401845
 30
0.0
 10
11.10063994677772
 20
9.17980581970515
 30
0.0
  0
SPLINE
  5
258
330
1F
100
AcDbEntity
  8
SK3
  6
SLD-Dashed
370
    18
100
AcDbSpline
210
0.0
220
0.0
230
1.0
 70
     8
 71
     3
 72
    12
 73
     8
 74
     0
 42
0.000000001
 43
0.00000001
 40
0.0
 40
0.0
 40
0.0
 40
0.0
 40
0.2499999999999987
 40
0.2499999999999987
 40
0.4999999999999973
 40
0.4999999999999973
 40
1.0
 40
1.0
 40
1.0
 40
1.0
 10
45.99999999999397
 20
-10.82820391383599
 30
0.0
 10
45.99999999999397
 20
-10.87407469811004
 30
0.0
 10
45.99079758436017
 20
-10.91924754269404
 30
0.0
 10
45.96207727631568
 20
-11.0030003445601
 30
0.0
 10
45.9428294330591
 20
-11.04109472664983
 30
0.0
 10
45.87382385784946
 20
-11.14589237031943
 30
0.0
 10
45.8153902637525
 20
-11.19997038628879
 30
0.0
 10
45.75000000000004
 20
-11.23053872260811
 30
0.0
  0
SPLINE
  5
259
330
1F
100
AcDbEntity
  8
SK3
  6
SLD-Dashed
370
    18
100
AcDbSpline
210
0.0
220
0.0
230
1.0
 70
     8
 71
     3
 72
    23
 73
    19
 74
     0
 42
0.000000001
 43
0.00000001
 40
0.0
 40
0.0
 40
0.0
 40
0.0
 40
0.0585075554588732
 40
0.1193610015691015
 40
0.181809379334626
 40
0.2462716217309285
 40
0.3121630844100822
 40
0.3862016691057458
 40
0.4620298427164752
 40
0.529510525363669
 40
0.5987629514272617
 40
0.6554088373579245
 40
0.7136634260618228
 40
0.7703310713928846
 40
0.8285781780574814
 40
0.9000615568366277
 40
0.9736037693199525
 40
1.0
 40
1.0
 40
1.0
 40
1.0
 10
58.98889800237735
 20
-12.49291153721563
 30
0.0
 10
58.97929347780227
 20
-12.4867332694826
 30
0.0
 10
58.95969933027913
 20
-12.47412901318114
 30
0.0
 10
58.71813533784863
 20
-12.32072830804654
 30
0.0
 10
58.33429370171049
 20
-12.0829689085067
 30
0.0
 10
57.79198944703147
 20
-11.76000023515758
 30
0.0
 10
57.08055577466418
 20
-11.36113722727417
 30
0.0
 10
56.19037130831177
 20
-10.90577402816162
 30
0.0
 10
55.15936483986024
 20
-10.45086192075637
 30
0.0
 10
54.03685249616379
 20
-10.05410563430269
 30
0.0
 10
52.92601944697416
 20
-9.775093206493072
 30
0.0
 10
51.81117551051693
 20
-9.619527448408432
 30
0.0
 10
50.74773863625519
 20
-9.588097413109127
 30
0.0
 10
49.68272947230822
 20
-9.676101425329833
 30
0.0
 10
48.57648672228125
 20
-9.885378109090738
 30
0.0
 10
47.44794876877594
 20
-10.22173967120484
 30
0.0
 10
46.58096920701395
 20
-10.56455646792277
 30
0.0
 10
46.12138708035727
 20
-10.7731177004568
 30
0.0
 10
45.99999999999397
 20
-10.82820391383599
 30
0.0
  0
SPLINE
  5
25A
330
1F
100
AcDbEntity
  8
SK3
  6
SLD-Dashed
370
    18
100
AcDbSpline
210
0.0
220
0.0
230
1.0
 70
     8
 71
     3
 72
    32
 73
    28
 74
     0
 42
0.000000001
 43
0.00000001
 40
0.0
 40
0.0
 40
0.0
 40
0.0
 40
0.0461221980843317
 40
0.0937254537215512
 40
0.1398165113339444
 40
0.1870635380248415
 40
0.2370252661566796
 40
0.2881015325114075
 40
0.3164500184910526
 40
0.3449972059893421
 40
0.3742245803103674
 40
0.4037232084424383
 40
0.4452477206022124
 40
0.4879092101776489
 40
0.5294693917458488
 40
0.57232562978513
 40
0.6128812393868401
 40
0.6542751784484478
 40
0.7027059825634699
 40
0.7521430749180514
 40
0.7805495050917388
 40
0.8091564571746881
 40
0.8384383455315698
 40
0.8679781237421034
 40
0.9136924483517322
 40
0.960682036157038
 40
1.0
 40
1.0
 40
1.0
 40
1.0
 10
83.99999999999395
 20
-12.4999999999821
 30
0.0
 10
83.98265442961309
 20
-12.48886282686238
 30
0.0
 10
83.94740629484215
 20
-12.46623084818018
 30
0.0
 10
83.66666600578573
 20
-12.28827290315702
 30
0.0
 10
83.23124121315317
 20
-12.02028644930951
 30
0.0
 10
82.63533339510157
 20
-11.66945582912842
 30
0.0
 10
81.87787193791449
 20
-11.25297906908903
 30
0.0
 10
81.1024853723055
 20
-10.86855660954695
 30
0.0
 10
80.38849120673477
 20
-10.55534693874855
 30
0.0
 10
79.78195473002155
 20
-10.31695255500216
 30
0.0
 10
79.13127650386772
 20
-10.0954553393819
 30
0.0
 10
78.34504961067543
 20
-9.875213015158975
 30
0.0
 10
77.40561926364926
 20
-9.687769336228921
 30
0.0
 10
76.32464000298961
 20
-9.589258001084326
 30
0.0
 10
75.22205856104036
 20
-9.615574029976257
 30
0.0
 10
74.16165853476109
 20
-9.761302918152438
 30
0.0
 10
73.15387302366209
 20
-10.00333613439694
 30
0.0
 10
72.16883833283913
 20
-10.32713624294488
 30
0.0
 10
71.20595879454952
 20
-10.723233709425
 30
0.0
 10
70.42890323060566
 20
-11.09851957882563
 30
0.0
 10
69.84502677240987
 20
-11.40554505656487
 30
0.0
 10
69.41625246085908
 20
-11.64294730704837
 30
0.0
 10
69.03136885391383
 20
-11.8652099537456
 30
0.0
 10
68.63529756622205
 20
-12.10189333020659
 30
0.0
 10
68.28092592776333
 20
-12.32121401191999
 30
0.0
 10
68.0372033069944
 20
-12.47612967876497
 30
0.0
 10
68.01892856695302
 20
-12.48787653821213
 30
0.0
 10
68.01060339083037
 20
-12.49322789607355
 30
0.0
  0
SPLINE
  5
25B
330
1F
100
AcDbEntity
  8
SK3
  6
SLD-Dashed
370
    18
100
AcDbSpline
210
0.0
220
0.0
230
1.0
 70
     8
 71
     3
 72
    28
 73
    24
 74
     0
 42
0.000000001
 43
0.00000001
 40
0.4999999999999957
 40
0.4999999999999957
 40
0.4999999999999957
 40
0.4999999999999957
 40
0.562499999999996
 40
0.562499999999996
 40
0.6249999999999963
 40
0.6249999999999963
 40
0.6562499999999967
 40
0.6562499999999967
 40
0.6874999999999971
 40
0.6874999999999971
 40
0.7499999999999978
 40
0.7499999999999978
 40
0.7812499999999982
 40
0.7812499999999982
 40
0.8124999999999986
 40
0.8124999999999986
 40
0.843749999999999
 40
0.843749999999999
 40
0.8749999999999993
 40
0.8749999999999993
 40
0.9374999999999997
 40
0.9374999999999997
 40
1.0
 40
1.0
 40
1.0
 40
1.0
 10
11.09936005322232
 20
-10.30847220779005
 30
0.0
 10
11.31488562173179
 20
-10.30848829867283
 30
0.0
 10
11.53232167918127
 20
-10.30038291810947
 30
0.0
 10
11.92960566625248
 20
-10.26682253963409
 30
0.0
 10
12.11338916258038
 20
-10.24091814244866
 30
0.0
 10
12.34174817531398
 20
-10.1869321671529
 30
0.0
 10
12.41142359500977
 20
-10.16604649126496
 30
0.0
 10
12.53113473074509
 20
-10.11961101162701
 30
0.0
 10
12.58191930455556
 20
-10.09396314355892
 30
0.0
 10
12.70662372734453
 20
-10.00844657689387
 30
0.0
 10
12.749818888542
 20
-9.941757957492637
 30
0.0
 10
12.75008970764272
 20
-9.829909964458706
 30
0.0
 10
12.73947463505527
 20
-9.791631368429519
 30
0.0
 10
12.69763839356476
 20
-9.713326598996659
 30
0.0
 10
12.66587299140594
 20
-9.672843473092142
 30
0.0
 10
12.58323810834348
 20
-9.59326871764786
 30
0.0
 10
12.53264216010931
 20
-9.554155622927107
 30
0.0
 10
12.41295046139107
 20
-9.478001434160644
 30
0.0
 10
12.34349706591822
 20
-9.440948896913396
 30
0.0
 10
12.11584013754759
 20
-9.339030254466135
 30
0.0
 10
11.93210188384607
 20
-9.280862582071121
 30
0.0
 10
11.53529580932543
 20
-9.201665512708304
 30
0.0
 10
11.31837670783507
 20
-9.17980575870419
 30
0.0
 10
11.10000000000001
 20
-9.17980575870419
 30
0.0
  0
SPLINE
  5
25C
330
1F
100
AcDbEntity
  8
SK3
  6
SLD-Dashed
370
    18
100
AcDbSpline
210
0.0
220
0.0
230
1.0
 70
     8
 71
     3
 72
    32
 73
    28
 74
     0
 42
0.000000001
 43
0.00000001
 40
0.0
 40
0.0
 40
0.0
 40
0.0
 40
0.0312499999999997
 40
0.0312499999999997
 40
0.0624999999999994
 40
0.0624999999999994
 40
0.0937499999999991
 40
0.0937499999999991
 40
0.1249999999999989
 40
0.1249999999999989
 40
0.1874999999999981
 40
0.1874999999999981
 40
0.2499999999999974
 40
0.2499999999999974
 40
0.2812499999999971
 40
0.2812499999999971
 40
0.3124999999999967
 40
0.3124999999999967
 40
0.3749999999999962
 40
0.3749999999999962
 40
0.406249999999996
 40
0.406249999999996
 40
0.4374999999999959
 40
0.4374999999999959
 40
0.4687499999999958
 40
0.4687499999999958
 40
0.4999999999999957
 40
0.4999999999999957
 40
0.4999999999999957
 40
0.4999999999999957
 10
11.10000000000001
 20
-9.17980575870419
 30
0.0
 10
10.9908116460825
 20
-9.17980575870419
 30
0.0
 10
10.88348228694938
 20
-9.18509569861086
 30
0.0
 10
10.67237879605726
 20
-9.205623744994131
 30
0.0
 10
10.5674981087862
 20
-9.221113825588809
 30
0.0
 10
10.36776793338715
 20
-9.260883250848783
 30
0.0
 10
10.27306529824511
 20
-9.284980824838106
 30
0.0
 10
10.09383723394781
 20
-9.340759316938229
 30
0.0
 10
10.00911032628285
 20
-9.372667784685547
 30
0.0
 10
9.781209982600819
 20
-9.474579092729869
 30
0.0
 10
9.65832814676007
 20
-9.553409324848293
 30
0.0
 10
9.493633557451393
 20
-9.711670879081028
 30
0.0
 10
9.450122982026132
 20
-9.792652292130278
 30
0.0
 10
9.449938909953353
 20
-9.90328024918593
 30
0.0
 10
9.460689501155597
 20
-9.93913418952258
 30
0.0
 10
9.502853800164399
 20
-10.00544523446511
 30
0.0
 10
9.534048984374946
 20
-10.03617560862042
 30
0.0
 10
9.658206301631402
 20
-10.12179808298892
 30
0.0
 10
9.779247462043339
 20
-10.16814285650723
 30
0.0
 10
10.00974287857796
 20
-10.2228011319002
 30
0.0
 10
10.09288081544682
 20
-10.23815463549886
 30
0.0
 10
10.27137949449046
 20
-10.26423362425848
 30
0.0
 10
10.36791317222979
 20
-10.27503749928642
 30
0.0
 10
10.56752113490712
 20
-10.29194478470054
 30
0.0
 10
10.67036195339997
 20
-10.29810859820633
 30
0.0
 10
10.88212812235426
 20
-10.3063918904809
 30
0.0
 10
10.99159726896758
 20
-10.30846416234867
 30
0.0
 10
11.09936005322232
 20
-10.30847220779005
 30
0.0
  0
SPLINE
  5
25D
330
1F
100
AcDbEntity
  8
SK3
  6
SLD-Dashed
370
    18
100
AcDbSpline
210
0.0
220
0.0
230
1.0
 70
     8
 71
     3
 72
    25
 73
    21
 74
     0
 42
0.000000001
 43
0.00000001
 40
0.0
 40
0.0
 40
0.0
 40
0.0
 40
0.0534656948835903
 40
0.1072898045822333
 40
0.1555773384347107
 40
0.2076370803767219
 40
0.264676305176007
 40
0.3228569477206971
 40
0.3809271492259169
 40
0.439063066525914
 40
0.4941909542045471
 40
0.5430155832629198
 40
0.614217392527508
 40
0.7341408223267976
 40
0.8122012170701728
 40
0.8609098856172143
 40
0.8970743237524264
 40
0.9335294324645148
 40
0.9644757637958707
 40
0.9999999999999999
 40
0.9999999999999999
 40
0.9999999999999999
 40
0.9999999999999999
 10
11.10000000000004
 20
-30.79630739284151
 30
0.0
 10
10.95991741038953
 20
-30.8917447294002
 30
0.0
 10
10.67881316780169
 20
-31.08325918014332
 30
0.0
 10
10.22953125752077
 20
-31.28738762349353
 30
0.0
 10
9.850379898308823
 20
-31.43960793113958
 30
0.0
 10
9.57049224208971
 20
-31.58275767353763
 30
0.0
 10
9.427469019628306
 20
-31.75083238932094
 30
0.0
 10
9.4646222166027
 20
-31.94538289208663
 30
0.0
 10
9.6857607309591
 20
-32.13409050907642
 30
0.0
 10
10.06017153030481
 20
-32.25823451266338
 30
0.0
 10
10.51311666589266
 20
-32.23595735540071
 30
0.0
 10
11.00385056061975
 20
-32.02580288572027
 30
0.0
 10
11.58250765460514
 20
-31.52802629125864
 30
0.0
 10
12.08673846534154
 20
-30.82100501820258
 30
0.0
 10
12.46353507239927
 20
-30.1505014822318
 30
0.0
 10
12.65552292640125
 20
-29.73327532660481
 30
0.0
 10
12.7453719745869
 20
-29.47518533519155
 30
0.0
 10
12.75694937575028
 20
-29.3421492933185
 30
0.0
 10
12.70768327050101
 20
-29.30860241383867
 30
0.0
 10
12.63626371276462
 20
-29.3594267999697
 30
0.0
 10
12.5980945601202
 20
-29.38658916016597
 30
0.0
  0
SPLINE
  5
25E
330
1F
100
AcDbEntity
  8
SK3
  6
SLD-Dashed
370
    18
100
AcDbSpline
210
0.0
220
0.0
230
1.0
 70
     8
 71
     3
 72
    15
 73
    11
 74
     0
 42
0.000000001
 43
0.00000001
 40
0.0
 40
0.0
 40
0.0
 40
0.0
 40
0.1143598845380866
 40
0.2290293313738431
 40
0.3351313654166165
 40
0.4565391682432995
 40
0.6509025242617463
 40
0.8619846106762127
 40
0.9720441796422051
 40
1.0
 40
1.0
 40
1.0
 40
1.0
 10
12.60540931107558
 20
-35.45448854251146
 30
0.0
 10
12.51749734328081
 20
-35.50623438005752
 30
0.0
 10
12.34143543761242
 20
-35.60986612664789
 30
0.0
 10
11.91643927865697
 20
-35.7725910470449
 30
0.0
 10
11.43996843667397
 20
-36.00548755169029
 30
0.0
 10
10.89798979803039
 20
-36.37633203128223
 30
0.0
 10
10.35391603454039
 20
-36.89708712637808
 30
0.0
 10
9.935926880311058
 20
-37.34185077996021
 30
0.0
 10
9.681512357214206
 20
-37.60750328999235
 30
0.0
 10
9.619197805886465
 20
-37.64045461628817
 30
0.0
 10
9.606575630844022
 20
-37.64712909920628
 30
0.0
  0
INSERT
  5
25F
330
1F
100
AcDbEntity
  8
80
100
AcDbBlockReference
  2
Block12
 10
-61.7273641656
 20
-130.3356800267
 30
0.0
  0
INSERT
  5
260
330
1F
100
AcDbEntity
  8
81
100
AcDbBlockReference
  2
Block11
 10
8.3735173495
 20
-130.2676275275
 30
0.0
  0
DIMENSION
  5
261
330
1F
100
AcDbEntity
  8
SK2
100
AcDbDimension
  2
_D
 10
37.9999999933
 20
60.2665257838
 30
0.0
 11
19.3133925319
 21
60.2665257838
 31
0.0
 70
   160
  1
<>
 71
     2
 42
-1.0
  3
SLDDIMSTYLE0
100
AcDbAlignedDimension
 13
0.0
 23
34.925
 33
0.0
 14
37.9999999933
 24
49.2286823296
 34
0.0
100
AcDbRotatedDimension
  0
DIMENSION
  5
26D
330
1F
100
AcDbEntity
  8
SK2
100
AcDbDimension
  2
_D_1
 10
100.0
 20
60.2665257838
 30
0.0
 11
66.847875472
 21
60.2665257838
 31
0.0
 70
   160
  1
<>
 71
     2
 42
-1.0
  3
SLDDIMSTYLE0
100
AcDbAlignedDimension
 13
37.9999999933
 23
49.2286823296
 33
0.0
 14
100.0
 24
24.9944465005
 34
0.0
100
AcDbRotatedDimension
  0
DIMENSION
  5
277
330
1F
100
AcDbEntity
  8
2
100
AcDbDimension
  2
_D_2
 10
100.0
 20
70.0961873795
 30
0.0
 11
48.3622432175
 21
70.0961873795
 31
0.0
 70
   160
  1
<>
 71
     2
 42
-1.0
  3
SLDDIMSTYLE0
100
AcDbAlignedDimension
 13
0.0
 23
34.925
 33
0.0
 14
100.0
 24
24.9944465005
 34
0.0
100
AcDbRotatedDimension
  0
DIMENSION
  5
281
330
1F
100
AcDbEntity
  8
SK2
100
AcDbDimension
  2
_D_3
 10
87.0
 20
50.143441454
 30
0.0
 11
92.9624988157
 21
50.143441454
 31
0.0
 70
   160
  1
<>
 71
     2
 42
-1.0
  3
SLDDIMSTYLE0
100
AcDbAlignedDimension
 13
100.0
 23
24.9944465005
 33
0.0
 14
87.0
 24
32.5
 34
0.0
100
AcDbRotatedDimension
  0
DIMENSION
  5
28B
330
1F
100
AcDbEntity
  8
SK2
100
AcDbDimension
  2
_D_4
 10
140.2584400033
 20
-32.5
 30
0.0
 11
140.2584400033
 21
-0.5514388147
 31
0.0
 70
   160
  1
%%c<>
 71
     2
 42
-1.0
  3
SLDDIMSTYLE0
100
AcDbAlignedDimension
 13
87.0
 23
32.5
 33
0.0
 14
87.0
 24
-32.5
 34
0.0
 50
90.0
100
AcDbRotatedDimension
  0
DIMENSION
  5
296
330
1F
100
AcDbEntity
  8
SK2
100
AcDbDimension
  2
_D_5
 10
128.8686273801
 20
-24.9944465005
 30
0.0
 11
128.8686273801
 21
-0.5514388147
 31
0.0
 70
   160
  1
%%c<>
 71
     2
 42
-1.0
  3
SLDDIMSTYLE0
100
AcDbAlignedDimension
 13
100.0
 23
24.9944465005
 33
0.0
 14
100.0
 24
-24.9944465005
 34
0.0
 50
90.0
100
AcDbRotatedDimension
  0
DIMENSION
  5
2A1
330
1F
100
AcDbEntity
  8
SK2
100
AcDbDimension
  2
_D_6
 10
118.0854287201
 20
-12.5
 30
0.0
 11
118.0854287201
 21
-0.5514388147
 31
0.0
 70
   160
  1
%%c<>
 71
     2
 42
-1.0
  3
SLDDIMSTYLE0
100
AcDbAlignedDimension
 13
99.0
 23
12.5
 33
0.0
 14
99.0
 24
-12.5
 34
0.0
 50
90.0
100
AcDbRotatedDimension
  0
DIMENSION
  5
2AC
330
1F
100
AcDbEntity
  8
SK2
100
AcDbDimension
  2
_D_7
 10
76.0
 20
-42.9532105232
 30
0.0
 11
87.8789525869
 21
-42.9532105232
 31
0.0
 70
   160
  1
<>
 71
     2
 42
-1.0
  3
SLDDIMSTYLE0
100
AcDbAlignedDimension
 13
100.0
 23
-24.9944465005
 33
0.0
 14
76.0
 24
-32.4
 34
0.0
100
AcDbRotatedDimension
  0
DIMENSION
  5
2B6
330
1F
100
AcDbEntity
  8
SK2
100
AcDbDimension
  2
_D_8
 10
51.0
 20
-42.9532105232
 30
0.0
 11
64.0600450478
 21
-42.9532105232
 31
0.0
 70
   160
  1
<>
 71
     2
 42
-1.0
  3
SLDDIMSTYLE0
100
AcDbAlignedDimension
 13
76.0
 23
-32.4
 33
0.0
 14
51.0
 24
-32.4
 34
0.0
 50
0.0
100
AcDbRotatedDimension
  0
DIMENSION
  5
2C0
330
1F
100
AcDbEntity
  8
SK2
100
AcDbDimension
  2
_D_9
 10
100.0
 20
-52.4069935217
 30
0.0
 11
73.521309017
 21
-52.4069935217
 31
0.0
 70
   160
  1
<>
 71
     2
 42
-1.0
  3
SLDDIMSTYLE0
100
AcDbAlignedDimension
 13
46.0
 23
-10.8282039138
 33
0.0
 14
100.0
 24
-24.9944465005
 34
0.0
100
AcDbRotatedDimension
  0
DIMENSION
  5
2CA
330
1F
100
AcDbEntity
  8
SK2
100
AcDbDimension
  2
_D_10
 10
-120.2303328174
 20
-34.925
 30
0.0
 11
-120.2303328174
 21
-0.8446244024
 31
0.0
 70
   160
  1
%%c<>
 71
     2
 42
-1.0
  3
SLDDIMSTYLE0
100
AcDbAlignedDimension
 13
0.0
 23
34.925
 33
0.0
 14
0.2
 24
-34.925
 34
0.0
 50
90.0
100
AcDbRotatedDimension
  0
DIMENSION
  5
2D5
330
1F
100
AcDbEntity
  8
SK2
100
AcDbDimension
  2
_D_11
 10
-109.9567074057
 20
12.0
 30
0.0
 11
-109.9567074057
 21
0.4258464775
 31
0.0
 70
   160
  1
M<>
 71
     2
 42
-1.0
  3
SLDDIMSTYLE0
100
AcDbAlignedDimension
 13
-88.1169872981
 23
-12.0
 33
0.0
 14
-88.1169872981
 24
12.0
 34
0.0
 50
90.0
100
AcDbRotatedDimension
  0
DIMENSION
  5
2E0
330
1F
100
AcDbEntity
  8
SK2
100
AcDbDimension
  2
_D_12
 10
-131.9436719109
 20
-49.978682327
 30
0.0
 11
-131.9436719109
 21
-0.8446244024
 31
0.0
 70
   160
  1
%%c<>
 71
     2
 42
-1.0
  3
SLDDIMSTYLE0
100
AcDbAlignedDimension
 13
3.75
 23
49.978682327
 33
0.0
 14
3.75
 24
-49.978682327
 34
0.0
 50
90.0
100
AcDbRotatedDimension
  0
MTEXT
  5
2EB
330
1F
100
AcDbEntity
  8
SK6
 62
     5
100
AcDbMText
 10
-35.7929513077
 20
44.3524654001
 30
0.0
 40
3.5
 41
0.0
 71
     1
 72
     1
  1
MAS-403 BT50
  7
SLDTEXTSTYLE0
 73
     1
 44
1.0
  0
MTEXT
  5
2EC
330
1F
100
AcDbEntity
  8
SK6
 62
     5
100
AcDbMText
 10
-101.5909099791
 20
-55.7307924407
 30
0.0
 40
3.5
 41
0.0
 71
     1
 72
     1
  1
A2B20-50 25 100
  7
SLDTEXTSTYLE0
 73
     1
 44
1.0
  0
ENDSEC
  0
SECTION
  2
OBJECTS
  0
DICTIONARY
  5
C
330
0
100
AcDbDictionary
281
     1
  3
ACAD_GROUP
350
D
  3
ACAD_LAYOUT
350
1A
  3
ACAD_MLINESTYLE
350
17
  3
ACAD_PLOTSETTINGS
350
19
  3
ACAD_PLOTSTYLENAME
350
E
  3
ACAD_SCALELIST
350
47
  0
DICTIONARY
  5
D
102
{ACAD_REACTORS
330
C
102
}
330
C
100
AcDbDictionary
281
     1
  0
DICTIONARY
  5
1A
102
{ACAD_REACTORS
330
C
102
}
330
C
100
AcDbDictionary
281
     1
  3
Layout1
350
1E
  3
Layout2
350
26
  3
Model
350
22
  0
DICTIONARY
  5
17
102
{ACAD_REACTORS
330
C
102
}
330
C
100
AcDbDictionary
281
     1
  3
Standard
350
18
  0
DICTIONARY
  5
19
102
{ACAD_REACTORS
330
C
102
}
330
C
100
AcDbDictionary
281
     1
  0
ACDBDICTIONARYWDFLT
  5
E
102
{ACAD_REACTORS
330
C
102
}
330
C
100
AcDbDictionary
281
     1
  3
Normal
350
F
100
AcDbDictionaryWithDefault
340
F
  0
DICTIONARY
  5
47
102
{ACAD_REACTORS
330
C
102
}
330
C
100
AcDbDictionary
281
     1
  3
A0
350
48
  3
A1
350
49
  3
A2
350
4A
  3
A3
350
4B
  3
A4
350
4C
  3
A5
350
4D
  3
A6
350
4E
  3
A7
350
4F
  3
A8
350
50
  3
A9
350
51
  3
B0
350
52
  3
B1
350
53
  3
B2
350
54
  3
B3
350
55
  3
B4
350
56
  3
B5
350
57
  3
B6
350
58
  3
B7
350
59
  3
B8
350
5A
  3
B9
350
5B
  3
C0
350
5C
  3
C1
350
5D
  3
C2
350
5E
  3
C3
350
5F
  3
C4
350
60
  3
C5
350
61
  3
C6
350
62
  3
C7
350
63
  3
C8
350
64
  3
C9
350
65
  3
D0
350
66
  3
D1
350
67
  3
D2
350
68
  0
LAYOUT
  5
1E
102
{ACAD_REACTORS
330
1A
102
}
330
1A
100
AcDbPlotSettings
  1

  2
none_device
  4

  6

 40
0.0
 41
0.0
 42
0.0
 43
0.0
 44
0.0
 45
0.0
 46
0.0
 47
0.0
 48
0.0
 49
0.0
140
0.0
141
0.0
142
1.0
143
1.0
 70
   688
 72
     1
 73
     0
 74
     5
  7

 75
    16
147
1.0
148
0.0
149
0.0
100
AcDbLayout
  1
Layout1
 70
     1
 71
     1
 10
0.0
 20
0.0
 11
420.0
 21
297.0
 12
0.0
 22
0.0
 32
0.0
 14
1.0000000000E+20
 24
1.0000000000E+20
 34
1.0000000000E+20
 15
-1.0000000000E+20
 25
-1.0000000000E+20
 35
-1.0000000000E+20
146
0.0
 13
0.0
 23
0.0
 33
0.0
 16
1.0
 26
0.0
 36
0.0
 17
0.0
 27
1.0
 37
0.0
 76
     0
330
1B
  0
LAYOUT
  5
26
102
{ACAD_REACTORS
330
1A
102
}
330
1A
100
AcDbPlotSettings
  1

  2
none_device
  4

  6

 40
0.0
 41
0.0
 42
0.0
 43
0.0
 44
0.0
 45
0.0
 46
0.0
 47
0.0
 48
0.0
 49
0.0
140
0.0
141
0.0
142
1.0
143
1.0
 70
   688
 72
     1
 73
     0
 74
     5
  7

 75
    16
147
1.0
148
0.0
149
0.0
100
AcDbLayout
  1
Layout2
 70
     1
 71
     2
 10
0.0
 20
0.0
 11
0.0
 21
0.0
 12
0.0
 22
0.0
 32
0.0
 14
0.0
 24
0.0
 34
0.0
 15
0.0
 25
0.0
 35
0.0
146
0.0
 13
0.0
 23
0.0
 33
0.0
 16
1.0
 26
0.0
 36
0.0
 17
0.0
 27
1.0
 37
0.0
 76
     0
330
23
  0
LAYOUT
  5
22
102
{ACAD_REACTORS
330
1A
102
}
330
1A
100
AcDbPlotSettings
  1

  2
none_device
  4
Letter_(8.50_x_11.00_Inches)
  6

 40
6.35
 41
6.35
 42
6.35000508
 43
6.35000508
 44
215.9
 45
279.4
 46
0.0
 47
0.0
 48
0.0
 49
0.0
140
0.0
141
0.0
142
1.0
143
1.0
 70
  1712
 72
     1
 73
     0
 74
     0
  7

 75
     0
147
1.0
148
0.0
149
0.0
100
AcDbLayout
  1
Model
 70
     1
 71
     0
 10
0.0
 20
0.0
 11
297.0
 21
210.0
 12
0.0
 22
0.0
 32
0.0
 14
0.0
 24
0.0
 34
0.0
 15
297.0
 25
210.0
 35
0.0
146
0.0
 13
0.0
 23
0.0
 33
0.0
 16
1.0
 26
0.0
 36
0.0
 17
0.0
 27
1.0
 37
0.0
 76
     0
330
1F
331
29
  0
MLINESTYLE
  5
18
102
{ACAD_REACTORS
330
17
102
}
330
17
100
AcDbMlineStyle
  2
Standard
 70
     0
  3

 62
   256
 51
90.0
 52
90.0
 71
     2
 49
0.5
 62
   256
  6
BYLAYER
 49
-0.5
 62
   256
  6
BYLAYER
  0
ACDBPLACEHOLDER
  5
F
102
{ACAD_REACTORS
330
E
102
}
330
E
  0
SCALE
  5
48
102
{ACAD_REACTORS
330
47
102
}
330
47
100
AcDbScale
 70
     0
300
1:1
140
1.0
141
1.0
290
     1
  0
SCALE
  5
49
102
{ACAD_REACTORS
330
47
102
}
330
47
100
AcDbScale
 70
     0
300
1:2
140
1.0
141
2.0
290
     0
  0
SCALE
  5
4A
102
{ACAD_REACTORS
330
47
102
}
330
47
100
AcDbScale
 70
     0
300
1:4
140
1.0
141
4.0
290
     0
  0
SCALE
  5
4B
102
{ACAD_REACTORS
330
47
102
}
330
47
100
AcDbScale
 70
     0
300
1:5
140
1.0
141
5.0
290
     0
  0
SCALE
  5
4C
102
{ACAD_REACTORS
330
47
102
}
330
47
100
AcDbScale
 70
     0
300
1:8
140
1.0
141
8.0
290
     0
  0
SCALE
  5
4D
102
{ACAD_REACTORS
330
47
102
}
330
47
100
AcDbScale
 70
     0
300
1:10
140
1.0
141
10.0
290
     0
  0
SCALE
  5
4E
102
{ACAD_REACTORS
330
47
102
}
330
47
100
AcDbScale
 70
     0
300
1:16
140
1.0
141
16.0
290
     0
  0
SCALE
  5
4F
102
{ACAD_REACTORS
330
47
102
}
330
47
100
AcDbScale
 70
     0
300
1:20
140
1.0
141
20.0
290
     0
  0
SCALE
  5
50
102
{ACAD_REACTORS
330
47
102
}
330
47
100
AcDbScale
 70
     0
300
1:30
140
1.0
141
30.0
290
     0
  0
SCALE
  5
51
102
{ACAD_REACTORS
330
47
102
}
330
47
100
AcDbScale
 70
     0
300
1:40
140
1.0
141
40.0
290
     0
  0
SCALE
  5
52
102
{ACAD_REACTORS
330
47
102
}
330
47
100
AcDbScale
 70
     0
300
1:50
140
1.0
141
50.0
290
     0
  0
SCALE
  5
53
102
{ACAD_REACTORS
330
47
102
}
330
47
100
AcDbScale
 70
     0
300
1:100
140
1.0
141
100.0
290
     0
  0
SCALE
  5
54
102
{ACAD_REACTORS
330
47
102
}
330
47
100
AcDbScale
 70
     0
300
2:1
140
2.0
141
1.0
290
     0
  0
SCALE
  5
55
102
{ACAD_REACTORS
330
47
102
}
330
47
100
AcDbScale
 70
     0
300
4:1
140
4.0
141
1.0
290
     0
  0
SCALE
  5
56
102
{ACAD_REACTORS
330
47
102
}
330
47
100
AcDbScale
 70
     0
300
8:1
140
8.0
141
1.0
290
     0
  0
SCALE
  5
57
102
{ACAD_REACTORS
330
47
102
}
330
47
100
AcDbScale
 70
     0
300
10:1
140
10.0
141
1.0
290
     0
  0
SCALE
  5
58
102
{ACAD_REACTORS
330
47
102
}
330
47
100
AcDbScale
 70
     0
300
100:1
140
100.0
141
1.0
290
     0
  0
SCALE
  5
59
102
{ACAD_REACTORS
330
47
102
}
330
47
100
AcDbScale
 70
     0
300
1/128" = 1'-0"
140
0.0078125
141
12.0
290
     0
  0
SCALE
  5
5A
102
{ACAD_REACTORS
330
47
102
}
330
47
100
AcDbScale
 70
     0
300
1/64" = 1'-0"
140
0.015625
141
12.0
290
     0
  0
SCALE
  5
5B
102
{ACAD_REACTORS
330
47
102
}
330
47
100
AcDbScale
 70
     0
300
1/32" = 1'-0"
140
0.03125
141
12.0
290
     0
  0
SCALE
  5
5C
102
{ACAD_REACTORS
330
47
102
}
330
47
100
AcDbScale
 70
     0
300
1/16" = 1'-0"
140
0.0625
141
12.0
290
     0
  0
SCALE
  5
5D
102
{ACAD_REACTORS
330
47
102
}
330
47
100
AcDbScale
 70
     0
300
3/32" = 1'-0"
140
0.09375
141
12.0
290
     0
  0
SCALE
  5
5E
102
{ACAD_REACTORS
330
47
102
}
330
47
100
AcDbScale
 70
     0
300
1/8" = 1'-0"
140
0.125
141
12.0
290
     0
  0
SCALE
  5
5F
102
{ACAD_REACTORS
330
47
102
}
330
47
100
AcDbScale
 70
     0
300
3/16" = 1'-0"
140
0.1875
141
12.0
290
     0
  0
SCALE
  5
60
102
{ACAD_REACTORS
330
47
102
}
330
47
100
AcDbScale
 70
     0
300
1/4" = 1'-0"
140
0.25
141
12.0
290
     0
  0
SCALE
  5
61
102
{ACAD_REACTORS
330
47
102
}
330
47
100
AcDbScale
 70
     0
300
3/8" = 1'-0"
140
0.375
141
12.0
290
     0
  0
SCALE
  5
62
102
{ACAD_REACTORS
330
47
102
}
330
47
100
AcDbScale
 70
     0
300
1/2" = 1'-0"
140
0.5
141
12.0
290
     0
  0
SCALE
  5
63
102
{ACAD_REACTORS
330
47
102
}
330
47
100
AcDbScale
 70
     0
300
3/4" = 1'-0"
140
0.75
141
12.0
290
     0
  0
SCALE
  5
64
102
{ACAD_REACTORS
330
47
102
}
330
47
100
AcDbScale
 70
     0
300
1" = 1'-0"
140
1.0
141
12.0
290
     0
  0
SCALE
  5
65
102
{ACAD_REACTORS
330
47
102
}
330
47
100
AcDbScale
 70
     0
300
1-1/2" = 1'-0"
140
1.5
141
12.0
290
     0
  0
SCALE
  5
66
102
{ACAD_REACTORS
330
47
102
}
330
47
100
AcDbScale
 70
     0
300
3" = 1'-0"
140
3.0
141
12.0
290
     0
  0
SCALE
  5
67
102
{ACAD_REACTORS
330
47
102
}
330
47
100
AcDbScale
 70
     0
300
6" = 1'-0"
140
6.0
141
12.0
290
     0
  0
SCALE
  5
68
102
{ACAD_REACTORS
330
47
102
}
330
47
100
AcDbScale
 70
     0
300
1'-0" = 1'-0"
140
12.0
141
12.0
290
     0
  0
ENDSEC
  0
EOF
