  0
SECTION
  2
HEADER
  9
$ACADVER
  1
AC1015
  9
$ACADMAINTVER
 70
     6
  9
$DWGCODEPAGE
  3
ANSI_1250
  9
$INSBASE
 10
0.0
 20
0.0
 30
0.0
  9
$EXTMIN
 10
0.0
 20
0.0
 30
0.0
  9
$EXTMAX
 10
297.0
 20
210.0
 30
0.0
  9
$LIMMIN
 10
0.0
 20
0.0
  9
$LIMMAX
 10
297.0
 20
210.0
  9
$ORTHOMODE
 70
     0
  9
$REGENMODE
 70
     1
  9
$FILLMODE
 70
     1
  9
$QTEXTMODE
 70
     0
  9
$MIRRTEXT
 70
     1
  9
$LTSCALE
 40
1.0
  9
$ATTMODE
 70
     1
  9
$TEXTSIZE
 40
3.5
  9
$TRACEWID
 40
1.0
  9
$TEXTSTYLE
  7
Standard
  9
$CLAYER
  8
0
  9
$CELTYPE
  6
ByLayer
  9
$CECOLOR
 62
   256
  9
$CELTSCALE
 40
1.0
  9
$DISPSILH
 70
     0
  9
$DIMSCALE
 40
1.0
  9
$DIMASZ
 40
3.302
  9
$DIMEXO
 40
1.0
  9
$DIMDLI
 40
3.75
  9
$DIMRND
 40
0.0
  9
$DIMDLE
 40
0.0
  9
$DIMEXE
 40
1.0
  9
$DIMTP
 40
0.0
  9
$DIMTM
 40
0.0
  9
$DIMTXT
 40
3.5
  9
$DIMCEN
 40
2.5
  9
$DIMTSZ
 40
0.0
  9
$DIMTOL
 70
     0
  9
$DIMLIM
 70
     0
  9
$DIMTIH
 70
     1
  9
$DIMTOH
 70
     1
  9
$DIMSE1
 70
     0
  9
$DIMSE2
 70
     0
  9
$DIMTAD
 70
     1
  9
$DIMZIN
 70
     0
  9
$DIMBLK
  1

  9
$DIMASO
 70
     1
  9
$DIMSHO
 70
     1
  9
$DIMPOST
  1

  9
$DIMAPOST
  1

  9
$DIMALT
 70
     0
  9
$DIMALTD
 70
     3
  9
$DIMALTF
 40
0.0393700787
  9
$DIMLFAC
 40
1.0
  9
$DIMTOFL
 70
     1
  9
$DIMTVP
 40
0.0
  9
$DIMTIX
 70
     0
  9
$DIMSOXD
 70
     0
  9
$DIMSAH
 70
     0
  9
$DIMBLK1
  1

  9
$DIMBLK2
  1

  9
$DIMSTYLE
  2
ISO-25
  9
$DIMCLRD
 70
     0
  9
$DIMCLRE
 70
     0
  9
$DIMCLRT
 70
     0
  9
$DIMTFAC
 40
1.0
  9
$DIMGAP
 40
1.524
  9
$DIMJUST
 70
     0
  9
$DIMSD1
 70
     0
  9
$DIMSD2
 70
     0
  9
$DIMTOLJ
 70
     0
  9
$DIMTZIN
 70
     0
  9
$DIMALTZ
 70
     0
  9
$DIMALTTZ
 70
     0
  9
$DIMUPT
 70
     0
  9
$DIMDEC
 70
     2
  9
$DIMTDEC
 70
     2
  9
$DIMALTU
 70
     2
  9
$DIMALTTD
 70
     3
  9
$DIMTXSTY
  7
Standard
  9
$DIMAUNIT
 70
     0
  9
$DIMADEC
 70
     2
  9
$DIMALTRND
 40
0.0
  9
$DIMAZIN
 70
     0
  9
$DIMDSEP
 70
    44
  9
$DIMATFIT
 70
     3
  9
$DIMFRAC
 70
     0
  9
$DIMLDRBLK
  1

  9
$DIMLUNIT
 70
     2
  9
$DIMLWD
 70
    -2
  9
$DIMLWE
 70
    -2
  9
$DIMTMOVE
 70
     0
  9
$LUNITS
 70
     2
  9
$LUPREC
 70
     2
  9
$SKETCHINC
 40
1.0
  9
$FILLETRAD
 40
10.0
  9
$AUNITS
 70
     0
  9
$AUPREC
 70
     2
  9
$MENU
  1
.
  9
$ELEVATION
 40
0.0
  9
$PELEVATION
 40
0.0
  9
$THICKNESS
 40
0.0
  9
$LIMCHECK
 70
     0
  9
$CHAMFERA
 40
0.0
  9
$CHAMFERB
 40
0.0
  9
$CHAMFERC
 40
0.0
  9
$CHAMFERD
 40
0.0
  9
$SKPOLY
 70
     0
  9
$TDCREATE
 40
2459290.486328044
  9
$TDUCREATE
 40
2459290.444661377
  9
$TDUPDATE
 40
2459290.486329155
  9
$TDUUPDATE
 40
2459290.444662489
  9
$TDINDWG
 40
0.0000000116
  9
$TDUSRTIMER
 40
0.0000000116
  9
$USRTIMER
 70
     1
  9
$ANGBASE
 50
0.0
  9
$ANGDIR
 70
     0
  9
$PDMODE
 70
     0
  9
$PDSIZE
 40
-1.0
  9
$PLINEWID
 40
0.0
  9
$SPLFRAME
 70
     0
  9
$SPLINETYPE
 70
     6
  9
$SPLINESEGS
 70
     8
  9
$HANDSEED
  5
2C9
  9
$SURFTAB1
 70
     6
  9
$SURFTAB2
 70
     6
  9
$SURFTYPE
 70
     6
  9
$SURFU
 70
     6
  9
$SURFV
 70
     6
  9
$UCSBASE
  2

  9
$UCSNAME
  2

  9
$UCSORG
 10
0.0
 20
0.0
 30
0.0
  9
$UCSXDIR
 10
1.0
 20
0.0
 30
0.0
  9
$UCSYDIR
 10
0.0
 20
1.0
 30
0.0
  9
$UCSORTHOREF
  2

  9
$UCSORTHOVIEW
 70
     0
  9
$UCSORGTOP
 10
0.0
 20
0.0
 30
0.0
  9
$UCSORGBOTTOM
 10
0.0
 20
0.0
 30
0.0
  9
$UCSORGLEFT
 10
0.0
 20
0.0
 30
0.0
  9
$UCSORGRIGHT
 10
0.0
 20
0.0
 30
0.0
  9
$UCSORGFRONT
 10
0.0
 20
0.0
 30
0.0
  9
$UCSORGBACK
 10
0.0
 20
0.0
 30
0.0
  9
$PUCSBASE
  2

  9
$PUCSNAME
  2

  9
$PUCSORG
 10
0.0
 20
0.0
 30
0.0
  9
$PUCSXDIR
 10
1.0
 20
0.0
 30
0.0
  9
$PUCSYDIR
 10
0.0
 20
1.0
 30
0.0
  9
$PUCSORTHOREF
  2

  9
$PUCSORTHOVIEW
 70
     0
  9
$PUCSORGTOP
 10
0.0
 20
0.0
 30
0.0
  9
$PUCSORGBOTTOM
 10
0.0
 20
0.0
 30
0.0
  9
$PUCSORGLEFT
 10
0.0
 20
0.0
 30
0.0
  9
$PUCSORGRIGHT
 10
0.0
 20
0.0
 30
0.0
  9
$PUCSORGFRONT
 10
0.0
 20
0.0
 30
0.0
  9
$PUCSORGBACK
 10
0.0
 20
0.0
 30
0.0
  9
$USERI1
 70
     0
  9
$USERI2
 70
     0
  9
$USERI3
 70
     0
  9
$USERI4
 70
     0
  9
$USERI5
 70
     0
  9
$USERR1
 40
0.0
  9
$USERR2
 40
0.0
  9
$USERR3
 40
0.0
  9
$USERR4
 40
0.0
  9
$USERR5
 40
0.0
  9
$WORLDVIEW
 70
     1
  9
$SHADEDGE
 70
     3
  9
$SHADEDIF
 70
    70
  9
$TILEMODE
 70
     1
  9
$MAXACTVP
 70
    64
  9
$PINSBASE
 10
0.0
 20
0.0
 30
0.0
  9
$PLIMCHECK
 70
     0
  9
$PEXTMIN
 10
1.0000000000E+20
 20
1.0000000000E+20
 30
1.0000000000E+20
  9
$PEXTMAX
 10
-1.0000000000E+20
 20
-1.0000000000E+20
 30
-1.0000000000E+20
  9
$PLIMMIN
 10
0.0
 20
0.0
  9
$PLIMMAX
 10
420.0
 20
297.0
  9
$UNITMODE
 70
     0
  9
$VISRETAIN
 70
     1
  9
$PLINEGEN
 70
     0
  9
$PSLTSCALE
 70
     1
  9
$TREEDEPTH
 70
  3020
  9
$CMLSTYLE
  2
Standard
  9
$CMLJUST
 70
     0
  9
$CMLSCALE
 40
20.0
  9
$PROXYGRAPHICS
 70
     1
  9
$MEASUREMENT
 70
     1
  9
$CELWEIGHT
370
    -1
  9
$ENDCAPS
280
     0
  9
$JOINSTYLE
280
     0
  9
$LWDISPLAY
290
     1
  9
$INSUNITS
 70
     4
  9
$HYPERLINKBASE
  1

  9
$STYLESHEET
  1

  9
$XEDIT
290
     1
  9
$CEPSNTYPE
380
     0
  9
$PSTYLEMODE
290
     1
  9
$FINGERPRINTGUID
  2
{03C27A3D-B542-4605-93C1-FE17B69EB258}
  9
$VERSIONGUID
  2
{FAEB1C32-E019-11D5-929B-00C0DF256EC4}
  9
$EXTNAMES
290
     1
  9
$PSVPSCALE
 40
0.0
  9
$OLESTARTUP
290
     0
  0
ENDSEC
  0
SECTION
  2
CLASSES
  0
CLASS
  1
ACDBDICTIONARYWDFLT
  2
AcDbDictionaryWithDefault
  3
ObjectDBX Classes
 90
        0
280
     0
281
     0
  0
CLASS
  1
VISUALSTYLE
  2
AcDbVisualStyle
  3
ObjectDBX Classes
 90
     4095
280
     0
281
     0
  0
CLASS
  1
MATERIAL
  2
AcDbMaterial
  3
ObjectDBX Classes
 90
     1153
280
     0
281
     0
  0
CLASS
  1
SCALE
  2
AcDbScale
  3
ObjectDBX Classes
 90
     1153
280
     0
281
     0
  0
CLASS
  1
TABLESTYLE
  2
AcDbTableStyle
  3
ObjectDBX Classes
 90
     4095
280
     0
281
     0
  0
CLASS
  1
MLEADERSTYLE
  2
AcDbMLeaderStyle
  3
ACDB_MLEADERSTYLE_CLASS
 90
     4095
280
     0
281
     0
  0
CLASS
  1
SUN
  2
AcDbSun
  3
SCENEOE
 90
     1153
280
     0
281
     0
  0
CLASS
  1
ACDBPLACEHOLDER
  2
AcDbPlaceHolder
  3
ObjectDBX Classes
 90
        0
280
     0
281
     0
  0
CLASS
  1
LAYOUT
  2
AcDbLayout
  3
ObjectDBX Classes
 90
        0
280
     0
281
     0
  0
ENDSEC
  0
SECTION
  2
TABLES
  0
TABLE
  2
VPORT
  5
8
330
0
100
AcDbSymbolTable
 70
     1
  0
VPORT
  5
29
330
8
100
AcDbSymbolTableRecord
100
AcDbViewportTableRecord
  2
*Active
 70
     0
 10
0.0
 20
0.0
 11
1.0
 21
1.0
 12
148.5
 22
105.0
 13
0.0
 23
0.0
 14
10.0
 24
10.0
 15
10.0
 25
10.0
 16
0.0
 26
0.0
 36
1.0
 17
0.0
 27
0.0
 37
0.0
 40
210.0
 41
1.4142857143
 42
50.0
 43
0.0
 44
0.0
 50
0.0
 51
0.0
 71
     0
 72
  2000
 73
     1
 74
     3
 75
     0
 76
     0
 77
     0
 78
     0
281
     0
 65
     1
110
0.0
120
0.0
130
0.0
111
1.0
121
0.0
131
0.0
112
0.0
122
1.0
132
0.0
 79
     0
146
0.0
  0
ENDTAB
  0
TABLE
  2
LTYPE
  5
5
330
0
100
AcDbSymbolTable
 70
     8
  0
LTYPE
  5
14
330
5
100
AcDbSymbolTableRecord
100
AcDbLinetypeTableRecord
  2
ByBlock
 70
     0
  3

 72
    65
 73
     0
 40
0.0
  0
LTYPE
  5
15
330
5
100
AcDbSymbolTableRecord
100
AcDbLinetypeTableRecord
  2
ByLayer
 70
     0
  3

 72
    65
 73
     0
 40
0.0
  0
LTYPE
  5
16
330
5
100
AcDbSymbolTableRecord
100
AcDbLinetypeTableRecord
  2
Continuous
 70
     0
  3
Solid line
 72
    65
 73
     0
 40
0.0
  0
LTYPE
  5
6E
330
5
100
AcDbSymbolTableRecord
100
AcDbLinetypeTableRecord
  2
SLD-Solid
 70
     0
  3
SolidWorks Line Style
 72
    65
 73
     0
 40
0.0
  0
LTYPE
  5
6F
330
5
100
AcDbSymbolTableRecord
100
AcDbLinetypeTableRecord
  2
SLD-Dashed
 70
     0
  3
SolidWorks Line Style
 72
    65
 73
     2
 40
1.905
 49
1.27
 74
     0
 49
-0.635
 74
     0
  0
LTYPE
  5
70
330
5
100
AcDbSymbolTableRecord
100
AcDbLinetypeTableRecord
  2
SLD-Phantom
 70
     0
  3
SolidWorks Line Style
 72
    65
 73
     6
 40
12.7
 49
6.35
 74
     0
 49
-1.27
 74
     0
 49
1.27
 74
     0
 49
-1.27
 74
     0
 49
1.27
 74
     0
 49
-1.27
 74
     0
  0
LTYPE
  5
71
330
5
100
AcDbSymbolTableRecord
100
AcDbLinetypeTableRecord
  2
SLD-Chain
 70
     0
  3
SolidWorks Line Style
 72
    65
 73
     4
 40
10.16
 49
6.35
 74
     0
 49
-1.27
 74
     0
 49
1.27
 74
     0
 49
-1.27
 74
     0
  0
LTYPE
  5
72
330
5
100
AcDbSymbolTableRecord
100
AcDbLinetypeTableRecord
  2
SLD-Center
 70
     0
  3
SolidWorks Line Style
 72
    65
 73
     4
 40
19.05
 49
15.24
 74
     0
 49
-1.27
 74
     0
 49
1.27
 74
     0
 49
-1.27
 74
     0
  0
LTYPE
  5
73
330
5
100
AcDbSymbolTableRecord
100
AcDbLinetypeTableRecord
  2
SLD-Stitch
 70
     0
  3
SolidWorks Line Style
 72
    65
 73
     2
 40
0.635
 49
0.0
 74
     0
 49
-0.635
 74
     0
  0
LTYPE
  5
74
330
5
100
AcDbSymbolTableRecord
100
AcDbLinetypeTableRecord
  2
SLD-Thin-Thick-Chain
 70
     0
  3
SolidWorks Line Style
 72
    65
 73
     4
 40
10.16
 49
6.35
 74
     0
 49
-1.27
 74
     0
 49
1.27
 74
     0
 49
-1.27
 74
     0
  0
ENDTAB
  0
TABLE
  2
LAYER
  5
2
330
0
100
AcDbSymbolTable
 70
    12
  0
LAYER
  5
10
330
2
100
AcDbSymbolTableRecord
100
AcDbLayerTableRecord
  2
0
 70
     0
 62
     7
  6
Continuous
370
    -3
390
F
  0
LAYER
  5
75
330
2
100
AcDbSymbolTableRecord
100
AcDbLayerTableRecord
  2
SLD-0
 70
     0
 62
   179
  6
SLD-Solid
370
    -3
390
F
  0
LAYER
  5
76
330
2
100
AcDbSymbolTableRecord
100
AcDbLayerTableRecord
  2
80
 70
     0
 62
    -6
  6
SLD-Solid
290
     0
370
    -3
390
F
  0
LAYER
  5
77
330
2
100
AcDbSymbolTableRecord
100
AcDbLayerTableRecord
  2
81
 70
     0
 62
    -3
  6
SLD-Solid
290
     0
370
    -3
390
F
  0
LAYER
  5
78
330
2
100
AcDbSymbolTableRecord
100
AcDbLayerTableRecord
  2
1
 70
     0
 62
     4
  6
SLD-Solid
290
     0
370
    -3
390
F
  0
LAYER
  5
79
330
2
100
AcDbSymbolTableRecord
100
AcDbLayerTableRecord
  2
4
 70
     0
 62
    -2
  6
SLD-Chain
290
     0
370
    -3
390
F
  0
LAYER
  5
7A
330
2
100
AcDbSymbolTableRecord
100
AcDbLayerTableRecord
  2
2
 70
     0
 62
     7
  6
SLD-Solid
290
     0
370
    -3
390
F
  0
LAYER
  5
7B
330
2
100
AcDbSymbolTableRecord
100
AcDbLayerTableRecord
  2
SK3
 70
     0
 62
     1
  6
SLD-Dashed
290
     0
370
    -3
390
F
  0
LAYER
  5
7C
330
2
100
AcDbSymbolTableRecord
100
AcDbLayerTableRecord
  2
SK4
 70
     0
 62
     2
  6
SLD-Chain
290
     0
370
    -3
390
F
  0
LAYER
  5
7D
330
2
100
AcDbSymbolTableRecord
100
AcDbLayerTableRecord
  2
SK2
 70
     0
 62
     7
  6
SLD-Solid
290
     0
370
    -3
390
F
  0
LAYER
  5
7E
330
2
100
AcDbSymbolTableRecord
100
AcDbLayerTableRecord
  2
SK6
 70
     0
 62
     5
  6
SLD-Solid
290
     0
370
    -3
390
F
  0
LAYER
  5
7F
330
2
100
AcDbSymbolTableRecord
100
AcDbLayerTableRecord
  2
SK1
 70
     0
 62
     4
  6
SLD-Solid
370
    -3
390
F
  0
ENDTAB
  0
TABLE
  2
STYLE
  5
3
330
0
100
AcDbSymbolTable
 70
     2
  0
STYLE
  5
11
330
3
100
AcDbSymbolTableRecord
100
AcDbTextStyleTableRecord
  2
Standard
 70
     0
 40
0.0
 41
1.0
 50
0.0
 71
     0
 42
3.5
  3
txt
  4

  0
STYLE
  5
248
330
3
100
AcDbSymbolTableRecord
100
AcDbTextStyleTableRecord
  2
SLDTEXTSTYLE0
 70
     0
 40
0.0
 41
0.75
 50
0.0
 71
     0
 42
3.5
  3
TXT
  4

  0
ENDTAB
  0
TABLE
  2
VIEW
  5
6
330
0
100
AcDbSymbolTable
 70
     0
  0
ENDTAB
  0
TABLE
  2
UCS
  5
7
330
0
100
AcDbSymbolTable
 70
     0
  0
ENDTAB
  0
TABLE
  2
APPID
  5
9
330
0
100
AcDbSymbolTable
 70
     1
  0
APPID
  5
12
330
9
100
AcDbSymbolTableRecord
100
AcDbRegAppTableRecord
  2
ACAD
 70
     0
  0
ENDTAB
  0
TABLE
  2
DIMSTYLE
  5
A
330
0
100
AcDbSymbolTable
 70
     2
100
AcDbDimStyleTable
  0
DIMSTYLE
105
27
330
A
100
AcDbSymbolTableRecord
100
AcDbDimStyleTableRecord
  2
ISO-25
 70
     0
 41
2.5
 42
0.625
 43
3.75
 44
1.25
 73
     0
 74
     0
 77
     1
 78
     8
140
2.5
141
2.5
143
0.0393700787
147
0.625
171
     3
172
     1
178
     0
271
     2
272
     2
274
     3
278
    44
283
     0
284
     8
340
11
  0
DIMSTYLE
105
249
102
{ACAD_REACTORS
330
247
330
253
330
25D
330
267
330
271
330
27C
330
287
330
292
330
29C
330
2A6
330
2B1
330
2BC
102
}
330
A
100
AcDbSymbolTableRecord
100
AcDbDimStyleTableRecord
  2
SLDDIMSTYLE0
 70
     0
 41
3.302
 44
0.0
 45
0.000000001
 73
     0
 74
     0
 77
     1
 78
    12
 79
     3
140
3.5
147
0.875
173
     1
178
     0
271
     2
272
     2
276
     2
284
    12
340
248
  0
ENDTAB
  0
TABLE
  2
BLOCK_RECORD
  5
1
330
0
100
AcDbSymbolTable
 70
    15
  0
BLOCK_RECORD
  5
1F
330
1
100
AcDbSymbolTableRecord
100
AcDbBlockTableRecord
  2
*Model_Space
340
22
  0
BLOCK_RECORD
  5
1B
330
1
100
AcDbSymbolTableRecord
100
AcDbBlockTableRecord
  2
*Paper_Space
340
1E
  0
BLOCK_RECORD
  5
23
330
1
100
AcDbSymbolTableRecord
100
AcDbBlockTableRecord
  2
*Paper_Space0
340
26
  0
BLOCK_RECORD
  5
80
330
1
100
AcDbSymbolTableRecord
100
AcDbBlockTableRecord
  2
Block11
340
0
102
{BLKREFS
331
246
102
}
  0
BLOCK_RECORD
  5
89
330
1
100
AcDbSymbolTableRecord
100
AcDbBlockTableRecord
  2
Block12
340
0
102
{BLKREFS
331
245
102
}
  0
BLOCK_RECORD
  5
24A
330
1
100
AcDbSymbolTableRecord
100
AcDbBlockTableRecord
  2
_D
340
0
  0
BLOCK_RECORD
  5
254
330
1
100
AcDbSymbolTableRecord
100
AcDbBlockTableRecord
  2
_D_1
340
0
  0
BLOCK_RECORD
  5
25E
330
1
100
AcDbSymbolTableRecord
100
AcDbBlockTableRecord
  2
_D_2
340
0
  0
BLOCK_RECORD
  5
268
330
1
100
AcDbSymbolTableRecord
100
AcDbBlockTableRecord
  2
_D_3
340
0
  0
BLOCK_RECORD
  5
272
330
1
100
AcDbSymbolTableRecord
100
AcDbBlockTableRecord
  2
_D_4
340
0
  0
BLOCK_RECORD
  5
27D
330
1
100
AcDbSymbolTableRecord
100
AcDbBlockTableRecord
  2
_D_5
340
0
  0
BLOCK_RECORD
  5
288
330
1
100
AcDbSymbolTableRecord
100
AcDbBlockTableRecord
  2
_D_6
340
0
  0
BLOCK_RECORD
  5
293
330
1
100
AcDbSymbolTableRecord
100
AcDbBlockTableRecord
  2
_D_7
340
0
  0
BLOCK_RECORD
  5
29D
330
1
100
AcDbSymbolTableRecord
100
AcDbBlockTableRecord
  2
_D_8
340
0
  0
BLOCK_RECORD
  5
2A7
330
1
100
AcDbSymbolTableRecord
100
AcDbBlockTableRecord
  2
_D_9
340
0
  0
BLOCK_RECORD
  5
2B2
330
1
100
AcDbSymbolTableRecord
100
AcDbBlockTableRecord
  2
_D_10
340
0
  0
BLOCK_RECORD
  5
2BD
330
1
100
AcDbSymbolTableRecord
100
AcDbBlockTableRecord
  2
_D_11
340
0
  0
ENDTAB
  0
ENDSEC
  0
SECTION
  2
BLOCKS
  0
BLOCK
  5
20
330
1F
100
AcDbEntity
  8
0
100
AcDbBlockBegin
  2
*Model_Space
 70
     0
 10
0.0
 20
0.0
 30
0.0
  3
*Model_Space
  1

  0
ENDBLK
  5
21
330
1F
100
AcDbEntity
  8
0
100
AcDbBlockEnd
  0
BLOCK
  5
1C
330
1B
100
AcDbEntity
 67
     1
  8
0
100
AcDbBlockBegin
  2
*Paper_Space
 70
     0
 10
0.0
 20
0.0
 30
0.0
  3
*Paper_Space
  1

  0
ENDBLK
  5
1D
330
1B
100
AcDbEntity
 67
     1
  8
0
100
AcDbBlockEnd
  0
BLOCK
  5
24
330
23
100
AcDbEntity
  8
0
100
AcDbBlockBegin
  2
*Paper_Space0
 70
     0
 10
0.0
 20
0.0
 30
0.0
  3
*Paper_Space0
  1

  0
ENDBLK
  5
25
330
23
100
AcDbEntity
  8
0
100
AcDbBlockEnd
  0
BLOCK
  5
81
330
80
100
AcDbEntity
  8
0
100
AcDbBlockBegin
  2
Block11
 70
     0
 10
0.0
 20
0.0
 30
0.0
  3
Block11
  1

  0
CIRCLE
  5
83
330
80
100
AcDbEntity
  8
81
370
    18
100
AcDbCircle
 10
91.6264826505
 20
130.2676275275
 30
0.0
 40
2.499999999999981
  0
LINE
  5
84
330
80
100
AcDbEntity
  8
81
370
    18
100
AcDbLine
 10
91.6264826505
 20
130.2676275275
 30
0.0
 11
95.1620165565
 21
133.8031614334
 31
0.0
  0
LINE
  5
85
330
80
100
AcDbEntity
  8
81
370
    18
100
AcDbLine
 10
91.6264826505
 20
130.2676275275
 30
0.0
 11
88.0909487446
 21
126.7320936216
 31
0.0
  0
LINE
  5
86
330
80
100
AcDbEntity
  8
81
370
    18
100
AcDbLine
 10
91.6264826505
 20
130.2676275275
 30
0.0
 11
88.0909487446
 21
133.8031614334
 31
0.0
  0
LINE
  5
87
330
80
100
AcDbEntity
  8
81
100
AcDbLine
 10
91.6264826505
 20
130.2676275275
 30
0.0
 11
101.6264826505
 21
130.2676275275
 31
0.0
  0
LINE
  5
88
330
80
100
AcDbEntity
  8
81
370
    18
100
AcDbLine
 10
91.6264826505
 20
130.2676275275
 30
0.0
 11
95.1620165565
 21
126.7320936216
 31
0.0
  0
ENDBLK
  5
82
330
80
100
AcDbEntity
  8
0
100
AcDbBlockEnd
  0
BLOCK
  5
8A
330
89
100
AcDbEntity
  8
0
100
AcDbBlockBegin
  2
Block12
 70
     0
 10
0.0
 20
0.0
 30
0.0
  3
Block12
  1

  0
CIRCLE
  5
8C
330
89
100
AcDbEntity
  8
80
370
    18
100
AcDbCircle
 10
61.7273641656
 20
130.3356800267
 30
0.0
 40
2.500000000000004
  0
LINE
  5
8D
330
89
100
AcDbEntity
  8
80
370
    18
100
AcDbLine
 10
61.7273641656
 20
130.3356800267
 30
0.0
 11
65.2628980715
 21
133.8712139326
 31
0.0
  0
LINE
  5
8E
330
89
100
AcDbEntity
  8
80
370
    18
100
AcDbLine
 10
61.7273641656
 20
130.3356800267
 30
0.0
 11
58.1918302597
 21
126.8001461208
 31
0.0
  0
LINE
  5
8F
330
89
100
AcDbEntity
  8
80
370
    18
100
AcDbLine
 10
61.7273641656
 20
130.3356800267
 30
0.0
 11
58.1918302597
 21
133.8712139326
 31
0.0
  0
LINE
  5
90
330
89
100
AcDbEntity
  8
80
370
    18
100
AcDbLine
 10
61.7273641656
 20
130.3356800267
 30
0.0
 11
51.7273641656
 21
130.3356800267
 31
0.0
  0
LINE
  5
91
330
89
100
AcDbEntity
  8
80
370
    18
100
AcDbLine
 10
61.7273641656
 20
130.3356800267
 30
0.0
 11
65.2628980715
 21
126.8001461208
 31
0.0
  0
ENDBLK
  5
8B
330
89
100
AcDbEntity
  8
0
100
AcDbBlockEnd
  0
BLOCK
  5
24B
330
24A
100
AcDbEntity
  8
0
100
AcDbBlockBegin
  2
_D
 70
     0
 10
0.0
 20
0.0
 30
0.0
  3
_D
  1

  0
SOLID
  5
24D
330
24A
100
AcDbEntity
  8
SK2
100
AcDbTrace
 10
0.0
 20
59.4324888285
 30
0.0
 11
3.302
 21
58.9244888285
 31
0.0
 12
3.302
 22
59.9404888285
 32
0.0
 13
3.302
 23
59.9404888285
 33
0.0
  0
SOLID
  5
24E
330
24A
100
AcDbEntity
  8
SK2
100
AcDbTrace
 10
38.0
 20
59.4324888285
 30
0.0
 11
34.698
 21
59.9404888285
 31
0.0
 12
34.698
 22
58.9244888285
 32
0.0
 13
34.698
 23
58.9244888285
 33
0.0
  0
LINE
  5
24F
330
24A
100
AcDbEntity
  8
SK2
100
AcDbLine
 10
0.0
 20
35.925
 30
0.0
 11
0.0
 21
60.4324888285
 31
0.0
  0
LINE
  5
250
330
24A
100
AcDbEntity
  8
SK2
100
AcDbLine
 10
38.0
 20
50.228682327
 30
0.0
 11
38.0
 21
60.4324888285
 31
0.0
  0
LINE
  5
251
330
24A
100
AcDbEntity
  8
SK2
100
AcDbLine
 10
0.0
 20
59.4324888285
 30
0.0
 11
38.0
 21
59.4324888285
 31
0.0
  0
MTEXT
  5
252
330
24A
100
AcDbEntity
  8
SK2
100
AcDbMText
 10
16.6638164871
 20
63.9442257431
 30
0.0
 40
3.5
 41
0.0
 71
     1
 72
     1
  1
38
  7
SLDTEXTSTYLE0
 73
     1
 44
1.0
  0
ENDBLK
  5
24C
330
24A
100
AcDbEntity
  8
0
100
AcDbBlockEnd
  0
BLOCK
  5
255
330
254
100
AcDbEntity
  8
0
100
AcDbBlockBegin
  2
_D_1
 70
     0
 10
0.0
 20
0.0
 30
0.0
  3
_D_1
  1

  0
SOLID
  5
257
330
254
100
AcDbEntity
  8
SK2
100
AcDbTrace
 10
38.0
 20
59.4324888285
 30
0.0
 11
41.302
 21
58.9244888285
 31
0.0
 12
41.302
 22
59.9404888285
 32
0.0
 13
41.302
 23
59.9404888285
 33
0.0
  0
SOLID
  5
258
330
254
100
AcDbEntity
  8
SK2
100
AcDbTrace
 10
80.0
 20
59.4324888285
 30
0.0
 11
76.698
 21
59.9404888285
 31
0.0
 12
76.698
 22
58.9244888285
 32
0.0
 13
76.698
 23
58.9244888285
 33
0.0
  0
LINE
  5
259
330
254
100
AcDbEntity
  8
SK2
100
AcDbLine
 10
38.0
 20
50.228682327
 30
0.0
 11
38.0
 21
60.4324888285
 31
0.0
  0
LINE
  5
25A
330
254
100
AcDbEntity
  8
SK2
100
AcDbLine
 10
80.0
 20
17.4944465005
 30
0.0
 11
80.0
 21
60.4324888285
 31
0.0
  0
LINE
  5
25B
330
254
100
AcDbEntity
  8
SK2
100
AcDbLine
 10
38.0
 20
59.4324888285
 30
0.0
 11
80.0
 21
59.4324888285
 31
0.0
  0
MTEXT
  5
25C
330
254
100
AcDbEntity
  8
SK2
100
AcDbMText
 10
56.0229402894
 20
63.9442257431
 30
0.0
 40
3.5
 41
0.0
 71
     1
 72
     1
  1
42
  7
SLDTEXTSTYLE0
 73
     1
 44
1.0
  0
ENDBLK
  5
256
330
254
100
AcDbEntity
  8
0
100
AcDbBlockEnd
  0
BLOCK
  5
25F
330
25E
100
AcDbEntity
  8
0
100
AcDbBlockBegin
  2
_D_2
 70
     0
 10
0.0
 20
0.0
 30
0.0
  3
_D_2
  1

  0
SOLID
  5
261
330
25E
100
AcDbEntity
  8
SK2
100
AcDbTrace
 10
80.0
 20
33.2738096245
 30
0.0
 11
76.698
 21
33.7818096245
 31
0.0
 12
76.698
 22
32.7658096245
 32
0.0
 13
76.698
 23
32.7658096245
 33
0.0
  0
SOLID
  5
262
330
25E
100
AcDbEntity
  8
SK2
100
AcDbTrace
 10
67.0
 20
33.2738096245
 30
0.0
 11
70.302
 21
32.7658096245
 31
0.0
 12
70.302
 22
33.7818096245
 32
0.0
 13
70.302
 23
33.7818096245
 33
0.0
  0
LINE
  5
263
330
25E
100
AcDbEntity
  8
SK2
100
AcDbLine
 10
80.0
 20
17.4944465005
 30
0.0
 11
80.0
 21
34.2738096245
 31
0.0
  0
LINE
  5
264
330
25E
100
AcDbEntity
  8
SK2
100
AcDbLine
 10
67.0
 20
25.0
 30
0.0
 11
67.0
 21
34.2738096245
 31
0.0
  0
LINE
  5
265
330
25E
100
AcDbEntity
  8
SK2
100
AcDbLine
 10
80.0
 20
33.2738096245
 30
0.0
 11
67.0
 21
33.2738096245
 31
0.0
  0
MTEXT
  5
266
330
25E
100
AcDbEntity
  8
SK2
100
AcDbMText
 10
70.4344348508
 20
37.7855465391
 30
0.0
 40
3.5
 41
0.0
 71
     1
 72
     1
  1
13
  7
SLDTEXTSTYLE0
 73
     1
 44
1.0
  0
ENDBLK
  5
260
330
25E
100
AcDbEntity
  8
0
100
AcDbBlockEnd
  0
BLOCK
  5
269
330
268
100
AcDbEntity
  8
0
100
AcDbBlockBegin
  2
_D_3
 70
     0
 10
0.0
 20
0.0
 30
0.0
  3
_D_3
  1

  0
SOLID
  5
26B
330
268
100
AcDbEntity
  8
2
100
AcDbTrace
 10
0.0
 20
68.6364685484
 30
0.0
 11
3.302
 21
68.1284685484
 31
0.0
 12
3.302
 22
69.1444685484
 32
0.0
 13
3.302
 23
69.1444685484
 33
0.0
  0
SOLID
  5
26C
330
268
100
AcDbEntity
  8
2
100
AcDbTrace
 10
80.0
 20
68.6364685484
 30
0.0
 11
76.698
 21
69.1444685484
 31
0.0
 12
76.698
 22
68.1284685484
 32
0.0
 13
76.698
 23
68.1284685484
 33
0.0
  0
LINE
  5
26D
330
268
100
AcDbEntity
  8
2
100
AcDbLine
 10
0.0
 20
35.925
 30
0.0
 11
0.0
 21
69.6364685484
 31
0.0
  0
LINE
  5
26E
330
268
100
AcDbEntity
  8
2
100
AcDbLine
 10
80.0
 20
17.4944465005
 30
0.0
 11
80.0
 21
69.6364685484
 31
0.0
  0
LINE
  5
26F
330
268
100
AcDbEntity
  8
2
100
AcDbLine
 10
0.0
 20
68.6364685484
 30
0.0
 11
80.0
 21
68.6364685484
 31
0.0
  0
MTEXT
  5
270
330
268
100
AcDbEntity
  8
2
100
AcDbMText
 10
36.7214046332
 20
73.148205463
 30
0.0
 40
3.5
 41
0.0
 71
     1
 72
     1
  1
80
  7
SLDTEXTSTYLE0
 73
     1
 44
1.0
  0
ENDBLK
  5
26A
330
268
100
AcDbEntity
  8
0
100
AcDbBlockEnd
  0
BLOCK
  5
273
330
272
100
AcDbEntity
  8
0
100
AcDbBlockBegin
  2
_D_4
 70
     0
 10
0.0
 20
0.0
 30
0.0
  3
_D_4
  1

  0
SOLID
  5
275
330
272
100
AcDbEntity
  8
SK2
100
AcDbTrace
 10
118.1965344155
 20
24.0
 30
0.0
 11
117.6885344155
 21
20.698
 31
0.0
 12
118.7045344155
 22
20.698
 32
0.0
 13
118.7045344155
 23
20.698
 33
0.0
  0
SOLID
  5
276
330
272
100
AcDbEntity
  8
SK2
100
AcDbTrace
 10
118.1965344155
 20
-24.0
 30
0.0
 11
118.7045344155
 21
-20.698
 31
0.0
 12
117.6885344155
 22
-20.698
 32
0.0
 13
117.6885344155
 23
-20.698
 33
0.0
  0
LINE
  5
277
330
272
100
AcDbEntity
  8
SK2
100
AcDbLine
 10
68.0
 20
24.0
 30
0.0
 11
119.1965344155
 21
24.0
 31
0.0
  0
LINE
  5
278
330
272
100
AcDbEntity
  8
SK2
100
AcDbLine
 10
68.0
 20
-24.0
 30
0.0
 11
119.1965344155
 21
-24.0
 31
0.0
  0
LINE
  5
279
330
272
100
AcDbEntity
  8
SK2
100
AcDbLine
 10
118.1965344155
 20
24.0
 30
0.0
 11
118.1965344155
 21
-24.0
 31
0.0
  0
MTEXT
  5
27A
330
272
100
AcDbEntity
  8
SK2
100
AcDbMText
 10
113.6847973263
 20
-6.2166917288
 30
0.0
 40
3.5
 41
0.0
 71
     1
 72
     1
  1
%%c
  7
SLDTEXTSTYLE0
 11
-7.044195017643634E-15
 21
1.0
 31
0.0
 73
     1
 44
1.0
  0
MTEXT
  5
27B
330
272
100
AcDbEntity
  8
SK2
100
AcDbMText
 10
113.6313251496
 20
-0.9382543304
 30
0.0
 40
3.5
 41
0.0
 71
     1
 72
     1
  1
48
  7
SLDTEXTSTYLE0
 11
-7.044195017643634E-15
 21
1.0
 31
0.0
 73
     1
 44
1.0
  0
ENDBLK
  5
274
330
272
100
AcDbEntity
  8
0
100
AcDbBlockEnd
  0
BLOCK
  5
27E
330
27D
100
AcDbEntity
  8
0
100
AcDbBlockBegin
  2
_D_5
 70
     0
 10
0.0
 20
0.0
 30
0.0
  3
_D_5
  1

  0
SOLID
  5
280
330
27D
100
AcDbEntity
  8
SK2
100
AcDbTrace
 10
107.6930846994
 20
16.4944465005
 30
0.0
 11
107.1850846994
 21
13.1924465005
 31
0.0
 12
108.2010846994
 22
13.1924465005
 32
0.0
 13
108.2010846994
 23
13.1924465005
 33
0.0
  0
SOLID
  5
281
330
27D
100
AcDbEntity
  8
SK2
100
AcDbTrace
 10
107.6930846994
 20
-16.4944465005
 30
0.0
 11
108.2010846994
 21
-13.1924465005
 31
0.0
 12
107.1850846994
 22
-13.1924465005
 32
0.0
 13
107.1850846994
 23
-13.1924465005
 33
0.0
  0
LINE
  5
282
330
27D
100
AcDbEntity
  8
SK2
100
AcDbLine
 10
81.0
 20
16.4944465005
 30
0.0
 11
108.6930846994
 21
16.4944465005
 31
0.0
  0
LINE
  5
283
330
27D
100
AcDbEntity
  8
SK2
100
AcDbLine
 10
81.0
 20
-16.4944465005
 30
0.0
 11
108.6930846994
 21
-16.4944465005
 31
0.0
  0
LINE
  5
284
330
27D
100
AcDbEntity
  8
SK2
100
AcDbLine
 10
107.6930846994
 20
16.4944465005
 30
0.0
 11
107.6930846994
 21
-16.4944465005
 31
0.0
  0
MTEXT
  5
285
330
27D
100
AcDbEntity
  8
SK2
100
AcDbMText
 10
103.1813476102
 20
-6.2166917288
 30
0.0
 40
3.5
 41
0.0
 71
     1
 72
     1
  1
%%c
  7
SLDTEXTSTYLE0
 11
-7.044195017643634E-15
 21
1.0
 31
0.0
 73
     1
 44
1.0
  0
MTEXT
  5
286
330
27D
100
AcDbEntity
  8
SK2
100
AcDbMText
 10
103.1278754335
 20
-0.9382543304
 30
0.0
 40
3.5
 41
0.0
 71
     1
 72
     1
  1
33
  7
SLDTEXTSTYLE0
 11
-7.044195017643634E-15
 21
1.0
 31
0.0
 73
     1
 44
1.0
  0
ENDBLK
  5
27F
330
27D
100
AcDbEntity
  8
0
100
AcDbBlockEnd
  0
BLOCK
  5
289
330
288
100
AcDbEntity
  8
0
100
AcDbBlockBegin
  2
_D_6
 70
     0
 10
0.0
 20
0.0
 30
0.0
  3
_D_6
  1

  0
SOLID
  5
28B
330
288
100
AcDbEntity
  8
SK2
100
AcDbTrace
 10
96.6407612135
 20
-8.0
 30
0.0
 11
97.1487612135
 21
-4.698
 31
0.0
 12
96.1327612135
 22
-4.698
 32
0.0
 13
96.1327612135
 23
-4.698
 33
0.0
  0
SOLID
  5
28C
330
288
100
AcDbEntity
  8
SK2
100
AcDbTrace
 10
96.6407612135
 20
8.0
 30
0.0
 11
96.1327612135
 21
4.698
 31
0.0
 12
97.1487612135
 22
4.698
 32
0.0
 13
97.1487612135
 23
4.698
 33
0.0
  0
LINE
  5
28D
330
288
100
AcDbEntity
  8
SK2
100
AcDbLine
 10
80.0
 20
-8.0
 30
0.0
 11
97.6407612135
 21
-8.0
 31
0.0
  0
LINE
  5
28E
330
288
100
AcDbEntity
  8
SK2
100
AcDbLine
 10
80.0
 20
8.0
 30
0.0
 11
97.6407612135
 21
8.0
 31
0.0
  0
LINE
  5
28F
330
288
100
AcDbEntity
  8
SK2
100
AcDbLine
 10
96.6407612135
 20
-8.0
 30
0.0
 11
96.6407612135
 21
8.0
 31
0.0
  0
MTEXT
  5
290
330
288
100
AcDbEntity
  8
SK2
100
AcDbMText
 10
92.1290241243
 20
-6.2166917288
 30
0.0
 40
3.5
 41
0.0
 71
     1
 72
     1
  1
%%c
  7
SLDTEXTSTYLE0
 11
6.123233995736766E-17
 21
1.0
 31
0.0
 73
     1
 44
1.0
  0
MTEXT
  5
291
330
288
100
AcDbEntity
  8
SK2
100
AcDbMText
 10
92.0755519476
 20
-0.9382543304
 30
0.0
 40
3.5
 41
0.0
 71
     1
 72
     1
  1
16
  7
SLDTEXTSTYLE0
 11
6.123233995736766E-17
 21
1.0
 31
0.0
 73
     1
 44
1.0
  0
ENDBLK
  5
28A
330
288
100
AcDbEntity
  8
0
100
AcDbBlockEnd
  0
BLOCK
  5
294
330
293
100
AcDbEntity
  8
0
100
AcDbBlockBegin
  2
_D_7
 70
     0
 10
0.0
 20
0.0
 30
0.0
  3
_D_7
  1

  0
SOLID
  5
296
330
293
100
AcDbEntity
  8
SK2
100
AcDbTrace
 10
80.0
 20
-36.3358694716
 30
0.0
 11
76.698
 21
-35.8278694716
 31
0.0
 12
76.698
 22
-36.8438694716
 32
0.0
 13
76.698
 23
-36.8438694716
 33
0.0
  0
SOLID
  5
297
330
293
100
AcDbEntity
  8
SK2
100
AcDbTrace
 10
56.0
 20
-36.3358694716
 30
0.0
 11
59.302
 21
-36.8438694716
 31
0.0
 12
59.302
 22
-35.8278694716
 32
0.0
 13
59.302
 23
-35.8278694716
 33
0.0
  0
LINE
  5
298
330
293
100
AcDbEntity
  8
SK2
100
AcDbLine
 10
80.0
 20
-17.4944465005
 30
0.0
 11
80.0
 21
-37.3358694716
 31
0.0
  0
LINE
  5
299
330
293
100
AcDbEntity
  8
SK2
100
AcDbLine
 10
56.0
 20
-25.3
 30
0.0
 11
56.0
 21
-37.3358694716
 31
0.0
  0
LINE
  5
29A
330
293
100
AcDbEntity
  8
SK2
100
AcDbLine
 10
80.0
 20
-36.3358694716
 30
0.0
 11
56.0
 21
-36.3358694716
 31
0.0
  0
MTEXT
  5
29B
330
293
100
AcDbEntity
  8
SK2
100
AcDbMText
 10
65.7979048105
 20
-31.824132557
 30
0.0
 40
3.5
 41
0.0
 71
     1
 72
     1
  1
24
  7
SLDTEXTSTYLE0
 73
     1
 44
1.0
  0
ENDBLK
  5
295
330
293
100
AcDbEntity
  8
0
100
AcDbBlockEnd
  0
BLOCK
  5
29E
330
29D
100
AcDbEntity
  8
0
100
AcDbBlockBegin
  2
_D_8
 70
     0
 10
0.0
 20
0.0
 30
0.0
  3
_D_8
  1

  0
SOLID
  5
2A0
330
29D
100
AcDbEntity
  8
SK2
100
AcDbTrace
 10
33.7021215045
 20
-56.8442117768
 30
0.0
 11
37.0041215045
 21
-57.3522117768
 31
0.0
 12
37.0041215045
 22
-56.3362117768
 32
0.0
 13
37.0041215045
 23
-56.3362117768
 33
0.0
  0
SOLID
  5
2A1
330
29D
100
AcDbEntity
  8
SK2
100
AcDbTrace
 10
80.0
 20
-56.8442117768
 30
0.0
 11
76.698
 21
-56.3362117768
 31
0.0
 12
76.698
 22
-57.3522117768
 32
0.0
 13
76.698
 23
-57.3522117768
 33
0.0
  0
LINE
  5
2A2
330
29D
100
AcDbEntity
  8
SK2
100
AcDbLine
 10
33.7021215045
 20
-9.0
 30
0.0
 11
33.7021215045
 21
-57.8442117768
 31
0.0
  0
LINE
  5
2A3
330
29D
100
AcDbEntity
  8
SK2
100
AcDbLine
 10
80.0
 20
-17.4944465005
 30
0.0
 11
80.0
 21
-57.8442117768
 31
0.0
  0
LINE
  5
2A4
330
29D
100
AcDbEntity
  8
SK2
100
AcDbLine
 10
33.7021215045
 20
-56.8442117768
 30
0.0
 11
80.0
 21
-56.8442117768
 31
0.0
  0
MTEXT
  5
2A5
330
29D
100
AcDbEntity
  8
SK2
100
AcDbMText
 10
52.2198248195
 20
-52.3324748622
 30
0.0
 40
3.5
 41
0.0
 71
     1
 72
     1
  1
46,3
  7
SLDTEXTSTYLE0
 73
     1
 44
1.0
  0
ENDBLK
  5
29F
330
29D
100
AcDbEntity
  8
0
100
AcDbBlockEnd
  0
BLOCK
  5
2A8
330
2A7
100
AcDbEntity
  8
0
100
AcDbBlockBegin
  2
_D_9
 70
     0
 10
0.0
 20
0.0
 30
0.0
  3
_D_9
  1

  0
SOLID
  5
2AA
330
2A7
100
AcDbEntity
  8
SK2
100
AcDbTrace
 10
-134.9917830615
 20
-49.978682327
 30
0.0
 11
-134.4837830615
 21
-46.676682327
 31
0.0
 12
-135.4997830615
 22
-46.676682327
 32
0.0
 13
-135.4997830615
 23
-46.676682327
 33
0.0
  0
SOLID
  5
2AB
330
2A7
100
AcDbEntity
  8
SK2
100
AcDbTrace
 10
-134.9917830615
 20
49.978682327
 30
0.0
 11
-135.4997830615
 21
46.676682327
 31
0.0
 12
-134.4837830615
 22
46.676682327
 32
0.0
 13
-134.4837830615
 23
46.676682327
 33
0.0
  0
LINE
  5
2AC
330
2A7
100
AcDbEntity
  8
SK2
100
AcDbLine
 10
2.75
 20
-49.978682327
 30
0.0
 11
-135.9917830615
 21
-49.978682327
 31
0.0
  0
LINE
  5
2AD
330
2A7
100
AcDbEntity
  8
SK2
100
AcDbLine
 10
2.75
 20
49.978682327
 30
0.0
 11
-135.9917830615
 21
49.978682327
 31
0.0
  0
LINE
  5
2AE
330
2A7
100
AcDbEntity
  8
SK2
100
AcDbLine
 10
-134.9917830615
 20
-49.978682327
 30
0.0
 11
-134.9917830615
 21
49.978682327
 31
0.0
  0
MTEXT
  5
2AF
330
2A7
100
AcDbEntity
  8
SK2
100
AcDbMText
 10
-139.5035201507
 20
-7.509747442
 30
0.0
 40
3.5
 41
0.0
 71
     1
 72
     1
  1
%%c
  7
SLDTEXTSTYLE0
 11
6.123233995736766E-17
 21
1.0
 31
0.0
 73
     1
 44
1.0
  0
MTEXT
  5
2B0
330
2A7
100
AcDbEntity
  8
SK2
100
AcDbMText
 10
-139.5569923274
 20
-2.2313100436
 30
0.0
 40
3.5
 41
0.0
 71
     1
 72
     1
  1
100
  7
SLDTEXTSTYLE0
 11
6.123233995736766E-17
 21
1.0
 31
0.0
 73
     1
 44
1.0
  0
ENDBLK
  5
2A9
330
2A7
100
AcDbEntity
  8
0
100
AcDbBlockEnd
  0
BLOCK
  5
2B3
330
2B2
100
AcDbEntity
  8
0
100
AcDbBlockBegin
  2
_D_10
 70
     0
 10
0.0
 20
0.0
 30
0.0
  3
_D_10
  1

  0
SOLID
  5
2B5
330
2B2
100
AcDbEntity
  8
SK2
100
AcDbTrace
 10
-122.1352505272
 20
-34.925
 30
0.0
 11
-121.6272505272
 21
-31.623
 31
0.0
 12
-122.6432505272
 22
-31.623
 32
0.0
 13
-122.6432505272
 23
-31.623
 33
0.0
  0
SOLID
  5
2B6
330
2B2
100
AcDbEntity
  8
SK2
100
AcDbTrace
 10
-122.1352505272
 20
34.925
 30
0.0
 11
-122.6432505272
 21
31.623
 31
0.0
 12
-121.6272505272
 22
31.623
 32
0.0
 13
-121.6272505272
 23
31.623
 33
0.0
  0
LINE
  5
2B7
330
2B2
100
AcDbEntity
  8
SK2
100
AcDbLine
 10
-1.0
 20
-34.925
 30
0.0
 11
-123.1352505272
 21
-34.925
 31
0.0
  0
LINE
  5
2B8
330
2B2
100
AcDbEntity
  8
SK2
100
AcDbLine
 10
-1.0
 20
34.925
 30
0.0
 11
-123.1352505272
 21
34.925
 31
0.0
  0
LINE
  5
2B9
330
2B2
100
AcDbEntity
  8
SK2
100
AcDbLine
 10
-122.1352505272
 20
-34.925
 30
0.0
 11
-122.1352505272
 21
34.925
 31
0.0
  0
MTEXT
  5
2BA
330
2B2
100
AcDbEntity
  8
SK2
100
AcDbMText
 10
-126.6469876164
 20
-9.4493305461
 30
0.0
 40
3.5
 41
0.0
 71
     1
 72
     1
  1
%%c
  7
SLDTEXTSTYLE0
 11
6.123233995736766E-17
 21
1.0
 31
0.0
 73
     1
 44
1.0
  0
MTEXT
  5
2BB
330
2B2
100
AcDbEntity
  8
SK2
100
AcDbMText
 10
-126.7004597931
 20
-4.1708931477
 30
0.0
 40
3.5
 41
0.0
 71
     1
 72
     1
  1
69,85
  7
SLDTEXTSTYLE0
 11
6.123233995736766E-17
 21
1.0
 31
0.0
 73
     1
 44
1.0
  0
ENDBLK
  5
2B4
330
2B2
100
AcDbEntity
  8
0
100
AcDbBlockEnd
  0
BLOCK
  5
2BE
330
2BD
100
AcDbEntity
  8
0
100
AcDbBlockBegin
  2
_D_11
 70
     0
 10
0.0
 20
0.0
 30
0.0
  3
_D_11
  1

  0
SOLID
  5
2C0
330
2BD
100
AcDbEntity
  8
SK2
100
AcDbTrace
 10
-110.9212020594
 20
-12.0
 30
0.0
 11
-110.4132020594
 21
-8.698
 31
0.0
 12
-111.4292020594
 22
-8.698
 32
0.0
 13
-111.4292020594
 23
-8.698
 33
0.0
  0
SOLID
  5
2C1
330
2BD
100
AcDbEntity
  8
SK2
100
AcDbTrace
 10
-110.9212020594
 20
12.0
 30
0.0
 11
-111.4292020594
 21
8.698
 31
0.0
 12
-110.4132020594
 22
8.698
 32
0.0
 13
-110.4132020594
 23
8.698
 33
0.0
  0
LINE
  5
2C2
330
2BD
100
AcDbEntity
  8
SK2
100
AcDbLine
 10
-89.1169872981
 20
-12.0
 30
0.0
 11
-111.9212020594
 21
-12.0
 31
0.0
  0
LINE
  5
2C3
330
2BD
100
AcDbEntity
  8
SK2
100
AcDbLine
 10
-89.1169872981
 20
12.0
 30
0.0
 11
-111.9212020594
 21
12.0
 31
0.0
  0
LINE
  5
2C4
330
2BD
100
AcDbEntity
  8
SK2
100
AcDbLine
 10
-110.9212020594
 20
-12.0
 30
0.0
 11
-110.9212020594
 21
12.0
 31
0.0
  0
MTEXT
  5
2C5
330
2BD
100
AcDbEntity
  8
SK2
100
AcDbMText
 10
-115.4329389739
 20
-4.4329535655
 30
0.0
 40
3.5
 41
0.0
 71
     1
 72
     1
  1
M
  7
SLDTEXTSTYLE0
 11
3.613946018757869E-15
 21
1.0
 31
0.0
 73
     1
 44
1.0
  0
MTEXT
  5
2C6
330
2BD
100
AcDbEntity
  8
SK2
100
AcDbMText
 10
-115.4329389739
 20
-0.145453631
 30
0.0
 40
3.5
 41
0.0
 71
     1
 72
     1
  1
24
  7
SLDTEXTSTYLE0
 11
3.613946018757869E-15
 21
1.0
 31
0.0
 73
     1
 44
1.0
  0
ENDBLK
  5
2BF
330
2BD
100
AcDbEntity
  8
0
100
AcDbBlockEnd
  0
ENDSEC
  0
SECTION
  2
ENTITIES
  0
LINE
  5
92
330
1F
100
AcDbEntity
  8
1
  6
SLD-Solid
370
    25
100
AcDbLine
 10
37.2500000003
 20
49.9786823243
 30
0.0
 11
30.7300000003
 21
49.9786823243
 31
0.0
  0
LINE
  5
93
330
1F
100
AcDbEntity
  8
1
  6
SLD-Solid
370
    25
100
AcDbLine
 10
30.73
 20
-49.978682327
 30
0.0
 11
37.25
 21
-49.978682327
 31
0.0
  0
LINE
  5
94
330
1F
100
AcDbEntity
  8
1
  6
SLD-Solid
370
    25
100
AcDbLine
 10
30.7300000003
 20
49.9786823243
 30
0.0
 11
26.7050000008
 21
43.0071778257
 31
0.0
  0
LINE
  5
95
330
1F
100
AcDbEntity
  8
1
  6
SLD-Solid
370
    25
100
AcDbLine
 10
26.705
 20
-43.0071778265
 30
0.0
 11
30.73
 21
-49.978682327
 31
0.0
  0
LINE
  5
96
330
1F
100
AcDbEntity
  8
1
  6
SLD-Solid
370
    25
100
AcDbLine
 10
3.75
 20
-49.978682327
 30
0.0
 11
15.68
 21
-49.978682327
 31
0.0
  0
LINE
  5
97
330
1F
100
AcDbEntity
  8
1
  6
SLD-Solid
370
    25
100
AcDbLine
 10
15.68
 20
49.978682327
 30
0.0
 11
3.75
 21
49.978682327
 31
0.0
  0
LINE
  5
98
330
1F
100
AcDbEntity
  8
1
  6
SLD-Solid
370
    25
100
AcDbLine
 10
15.68
 20
-49.978682327
 30
0.0
 11
19.705
 21
-43.0071778265
 31
0.0
  0
LINE
  5
99
330
1F
100
AcDbEntity
  8
1
  6
SLD-Solid
370
    25
100
AcDbLine
 10
19.705
 20
43.0071778265
 30
0.0
 11
15.68
 21
49.978682327
 31
0.0
  0
LINE
  5
9A
330
1F
100
AcDbEntity
  8
1
  6
SLD-Solid
370
    25
100
AcDbLine
 10
20.08
 20
-42.5
 30
0.0
 11
26.33
 21
-42.5
 31
0.0
  0
LINE
  5
9B
330
1F
100
AcDbEntity
  8
1
  6
SLD-Solid
370
    25
100
AcDbLine
 10
26.33
 20
42.5
 30
0.0
 11
20.08
 21
42.5
 31
0.0
  0
LINE
  5
9C
330
1F
100
AcDbEntity
  8
SK1
  6
SLD-Solid
370
    25
100
AcDbLine
 10
0.0
 20
34.925
 30
0.0
 11
-100.944317822
 21
20.2028150506
 31
0.0
  0
LINE
  5
9D
330
1F
100
AcDbEntity
  8
SK1
  6
SLD-Solid
370
    25
100
AcDbLine
 10
-100.944317822
 20
-20.2028150506
 30
0.0
 11
0.0
 21
-34.925
 31
0.0
  0
LINE
  5
9E
330
1F
100
AcDbEntity
  8
1
  6
SLD-Solid
370
    25
100
AcDbLine
 10
0.2
 20
34.925
 30
0.0
 11
0.0
 21
34.925
 31
0.0
  0
LINE
  5
9F
330
1F
100
AcDbEntity
  8
1
  6
SLD-Solid
370
    25
100
AcDbLine
 10
0.0
 20
-34.925
 30
0.0
 11
0.2
 21
-34.925
 31
0.0
  0
LINE
  5
A0
330
1F
100
AcDbEntity
  8
1
  6
SLD-Solid
370
    25
100
AcDbLine
 10
0.2
 20
-34.925
 30
0.0
 11
0.3290707856
 21
-34.8504809472
 31
0.0
  0
LINE
  5
A1
330
1F
100
AcDbEntity
  8
1
  6
SLD-Solid
370
    25
100
AcDbLine
 10
0.3290707856
 20
34.8504809472
 30
0.0
 11
0.2
 21
34.925
 31
0.0
  0
LINE
  5
A2
330
1F
100
AcDbEntity
  8
1
  6
SLD-Solid
370
    25
100
AcDbLine
 10
2.25
 20
34.75
 30
0.0
 11
0.7040707856
 21
34.75
 31
0.0
  0
LINE
  5
A3
330
1F
100
AcDbEntity
  8
1
  6
SLD-Solid
370
    25
100
AcDbLine
 10
0.7040707856
 20
-34.75
 30
0.0
 11
2.25
 21
-34.75
 31
0.0
  0
LINE
  5
A4
330
1F
100
AcDbEntity
  8
1
  6
SLD-Solid
370
    25
100
AcDbLine
 10
46.5654888839
 20
24.0
 30
0.0
 11
41.0
 21
24.0
 31
0.0
  0
LINE
  5
A5
330
1F
100
AcDbEntity
  8
1
  6
SLD-Solid
370
    25
100
AcDbLine
 10
67.0
 20
24.0
 30
0.0
 11
65.4202650788
 21
24.0
 31
0.0
  0
LINE
  5
A6
330
1F
100
AcDbEntity
  8
1
  6
SLD-Solid
370
    25
100
AcDbLine
 10
64.1
 20
-24.0
 30
0.0
 11
67.0
 21
-24.0
 31
0.0
  0
LINE
  5
A7
330
1F
100
AcDbEntity
  8
1
  6
SLD-Solid
370
    25
100
AcDbLine
 10
41.0
 20
-24.0
 30
0.0
 11
47.9140602995
 21
-24.0
 31
0.0
  0
LINE
  5
A8
330
1F
100
AcDbEntity
  8
1
  6
SLD-Solid
370
    25
100
AcDbLine
 10
67.0
 20
-24.0
 30
0.0
 11
80.0
 21
-16.4944465005
 31
0.0
  0
LINE
  5
A9
330
1F
100
AcDbEntity
  8
1
  6
SLD-Solid
370
    25
100
AcDbLine
 10
80.0
 20
16.4944465005
 30
0.0
 11
67.0
 21
24.0
 31
0.0
  0
LINE
  5
AA
330
1F
100
AcDbEntity
  8
1
  6
SLD-Solid
370
    25
100
AcDbLine
 10
30.7300000003
 20
49.9786823243
 30
0.0
 11
30.7300000003
 21
10.301789292
 31
0.0
  0
LINE
  5
AB
330
1F
100
AcDbEntity
  8
1
  6
SLD-Solid
370
    25
100
AcDbLine
 10
30.7299999999
 20
-10.3017892841
 30
0.0
 11
30.73
 21
-49.978682327
 31
0.0
  0
LINE
  5
AC
330
1F
100
AcDbEntity
  8
1
  6
SLD-Solid
370
    25
100
AcDbLine
 10
38.0
 20
49.228682327
 30
0.0
 11
38.0
 21
-49.228682327
 31
0.0
  0
LINE
  5
AD
330
1F
100
AcDbEntity
  8
1
  6
SLD-Solid
370
    25
100
AcDbLine
 10
26.7050000008
 20
43.0071778257
 30
0.0
 11
26.7050000008
 21
11.8468972724
 31
0.0
  0
LINE
  5
AE
330
1F
100
AcDbEntity
  8
1
  6
SLD-Solid
370
    25
100
AcDbLine
 10
26.705
 20
-11.8468972731
 30
0.0
 11
26.705
 21
-43.0071778265
 31
0.0
  0
LINE
  5
AF
330
1F
100
AcDbEntity
  8
1
  6
SLD-Solid
370
    25
100
AcDbLine
 10
3.0
 20
-13.65
 30
0.0
 11
3.75
 21
-12.9
 31
0.0
  0
LINE
  5
B0
330
1F
100
AcDbEntity
  8
1
  6
SLD-Solid
370
    25
100
AcDbLine
 10
3.75
 20
-12.9
 30
0.0
 11
16.2300196942
 21
-12.9
 31
0.0
  0
LINE
  5
B1
330
1F
100
AcDbEntity
  8
1
  6
SLD-Solid
370
    25
100
AcDbLine
 10
15.68
 20
-13.8579580341
 30
0.0
 11
3.75
 21
-13.8579580341
 31
0.0
  0
LINE
  5
B2
330
1F
100
AcDbEntity
  8
1
  6
SLD-Solid
370
    25
100
AcDbLine
 10
3.0
 20
-49.228682327
 30
0.0
 11
3.0
 21
-13.65
 31
0.0
  0
LINE
  5
B3
330
1F
100
AcDbEntity
  8
1
  6
SLD-Solid
370
    25
100
AcDbLine
 10
15.68
 20
-13.8579580341
 30
0.0
 11
15.68
 21
-49.978682327
 31
0.0
  0
LINE
  5
B4
330
1F
100
AcDbEntity
  8
1
  6
SLD-Solid
370
    25
100
AcDbLine
 10
3.75
 20
12.9
 30
0.0
 11
3.0
 21
13.65
 31
0.0
  0
LINE
  5
B5
330
1F
100
AcDbEntity
  8
1
  6
SLD-Solid
370
    25
100
AcDbLine
 10
3.0
 20
13.65
 30
0.0
 11
3.0
 21
49.228682327
 31
0.0
  0
LINE
  5
B6
330
1F
100
AcDbEntity
  8
1
  6
SLD-Solid
370
    25
100
AcDbLine
 10
16.2300196942
 20
12.9
 30
0.0
 11
3.75
 21
12.9
 31
0.0
  0
LINE
  5
B7
330
1F
100
AcDbEntity
  8
1
  6
SLD-Solid
370
    25
100
AcDbLine
 10
3.75
 20
13.8579580341
 30
0.0
 11
15.68
 21
13.8579580341
 31
0.0
  0
LINE
  5
B8
330
1F
100
AcDbEntity
  8
1
  6
SLD-Solid
370
    25
100
AcDbLine
 10
15.68
 20
49.978682327
 30
0.0
 11
15.68
 21
13.8579580341
 31
0.0
  0
LINE
  5
B9
330
1F
100
AcDbEntity
  8
1
  6
SLD-Solid
370
    25
100
AcDbLine
 10
19.705
 20
-12.9
 30
0.0
 11
19.705
 21
-43.0071778265
 31
0.0
  0
LINE
  5
BA
330
1F
100
AcDbEntity
  8
1
  6
SLD-Solid
370
    25
100
AcDbLine
 10
19.705
 20
43.0071778265
 30
0.0
 11
19.705
 21
12.9
 31
0.0
  0
LINE
  5
BB
330
1F
100
AcDbEntity
  8
1
  6
SLD-Solid
370
    25
100
AcDbLine
 10
21.6
 20
-12.9
 30
0.0
 11
20.08
 21
-12.9
 31
0.0
  0
LINE
  5
BC
330
1F
100
AcDbEntity
  8
1
  6
SLD-Solid
370
    25
100
AcDbLine
 10
20.08
 20
12.8999999992
 30
0.0
 11
21.6000000008
 21
12.8999999992
 31
0.0
  0
LINE
  5
BD
330
1F
100
AcDbEntity
  8
1
  6
SLD-Solid
370
    25
100
AcDbLine
 10
3.0
 20
-13.65
 30
0.0
 11
3.0
 21
-11.4643398282
 31
0.0
  0
LINE
  5
BE
330
1F
100
AcDbEntity
  8
1
  6
SLD-Solid
370
    25
100
AcDbLine
 10
3.0
 20
11.4643398282
 30
0.0
 11
3.0
 21
13.65
 31
0.0
  0
LINE
  5
BF
330
1F
100
AcDbEntity
  8
1
  6
SLD-Solid
370
    25
100
AcDbLine
 10
3.0
 20
-11.4643398282
 30
0.0
 11
3.0
 21
-3.7629775444
 31
0.0
  0
LINE
  5
C0
330
1F
100
AcDbEntity
  8
1
  6
SLD-Solid
370
    25
100
AcDbLine
 10
3.0
 20
3.7629775444
 30
0.0
 11
3.0
 21
11.4643398282
 31
0.0
  0
LINE
  5
C1
330
1F
100
AcDbEntity
  8
1
  6
SLD-Solid
370
    25
100
AcDbLine
 10
0.0
 20
34.925
 30
0.0
 11
0.0
 21
-34.925
 31
0.0
  0
LINE
  5
C2
330
1F
100
AcDbEntity
  8
1
  6
SLD-Solid
370
    25
100
AcDbLine
 10
67.0
 20
24.0
 30
0.0
 11
67.0
 21
-24.0
 31
0.0
  0
LINE
  5
C3
330
1F
100
AcDbEntity
  8
1
  6
SLD-Solid
370
    25
100
AcDbLine
 10
80.0
 20
16.4944465005
 30
0.0
 11
80.0
 21
-16.4944465005
 31
0.0
  0
LINE
  5
C4
330
1F
100
AcDbEntity
  8
SK1
  6
SLD-Solid
370
    25
100
AcDbLine
 10
-101.8
 20
-19.2132836634
 30
0.0
 11
-101.8
 21
19.2132836634
 31
0.0
  0
LINE
  5
C5
330
1F
100
AcDbEntity
  8
SK3
  6
SLD-Dashed
370
    18
100
AcDbLine
 10
11.1
 20
43.7958995207
 30
0.0
 11
10.5365348863
 21
43.7681910827
 31
0.0
  0
LINE
  5
C6
330
1F
100
AcDbEntity
  8
SK3
  6
SLD-Dashed
370
    18
100
AcDbLine
 10
10.5365348863
 20
43.7681910827
 30
0.0
 11
10.0187183651
 21
43.6873105418
 31
0.0
  0
LINE
  5
C7
330
1F
100
AcDbEntity
  8
SK3
  6
SLD-Dashed
370
    18
100
AcDbLine
 10
10.0187183651
 20
43.6873105418
 30
0.0
 11
9.5885008513
 21
43.5598103582
 31
0.0
  0
LINE
  5
C8
330
1F
100
AcDbEntity
  8
SK3
  6
SLD-Dashed
370
    18
100
AcDbLine
 10
9.5885008513
 20
43.5598103582
 30
0.0
 11
9.2807360093
 21
43.3960198386
 31
0.0
  0
LINE
  5
C9
330
1F
100
AcDbEntity
  8
SK3
  6
SLD-Dashed
370
    18
100
AcDbLine
 10
9.2807360093
 20
43.3960198386
 30
0.0
 11
9.1203571162
 21
43.2092083168
 31
0.0
  0
LINE
  5
CA
330
1F
100
AcDbEntity
  8
SK3
  6
SLD-Dashed
370
    18
100
AcDbLine
 10
9.1203571162
 20
43.2092083168
 30
0.0
 11
9.1203571162
 21
43.0145101513
 31
0.0
  0
LINE
  5
CB
330
1F
100
AcDbEntity
  8
SK3
  6
SLD-Dashed
370
    18
100
AcDbLine
 10
9.1203571162
 20
43.0145101513
 30
0.0
 11
9.2807360093
 21
42.8276986294
 31
0.0
  0
LINE
  5
CC
330
1F
100
AcDbEntity
  8
SK3
  6
SLD-Dashed
370
    18
100
AcDbLine
 10
9.2807360093
 20
42.8276986294
 30
0.0
 11
9.5885008513
 21
42.6639081099
 31
0.0
  0
LINE
  5
CD
330
1F
100
AcDbEntity
  8
SK3
  6
SLD-Dashed
370
    18
100
AcDbLine
 10
9.5885008513
 20
42.6639081099
 30
0.0
 11
10.0187183651
 21
42.5364079263
 31
0.0
  0
LINE
  5
CE
330
1F
100
AcDbEntity
  8
SK3
  6
SLD-Dashed
370
    18
100
AcDbLine
 10
10.0187183651
 20
42.5364079263
 30
0.0
 11
10.5365348863
 21
42.4555273853
 31
0.0
  0
LINE
  5
CF
330
1F
100
AcDbEntity
  8
SK3
  6
SLD-Dashed
370
    18
100
AcDbLine
 10
10.5365348863
 20
42.4555273853
 30
0.0
 11
11.1
 21
42.4278189474
 31
0.0
  0
LINE
  5
D0
330
1F
100
AcDbEntity
  8
SK3
  6
SLD-Dashed
370
    18
100
AcDbLine
 10
11.1
 20
42.4278189474
 30
0.0
 11
11.6634651137
 21
42.4555273853
 31
0.0
  0
LINE
  5
D1
330
1F
100
AcDbEntity
  8
SK3
  6
SLD-Dashed
370
    18
100
AcDbLine
 10
11.6634651137
 20
42.4555273853
 30
0.0
 11
12.1812816349
 21
42.5364079263
 31
0.0
  0
LINE
  5
D2
330
1F
100
AcDbEntity
  8
SK3
  6
SLD-Dashed
370
    18
100
AcDbLine
 10
12.1812816349
 20
42.5364079263
 30
0.0
 11
12.6114991487
 21
42.6639081099
 31
0.0
  0
LINE
  5
D3
330
1F
100
AcDbEntity
  8
SK3
  6
SLD-Dashed
370
    18
100
AcDbLine
 10
12.6114991487
 20
42.6639081099
 30
0.0
 11
12.9192639907
 21
42.8276986294
 31
0.0
  0
LINE
  5
D4
330
1F
100
AcDbEntity
  8
SK3
  6
SLD-Dashed
370
    18
100
AcDbLine
 10
12.9192639907
 20
42.8276986294
 30
0.0
 11
13.0796428838
 21
43.0145101513
 31
0.0
  0
LINE
  5
D5
330
1F
100
AcDbEntity
  8
SK3
  6
SLD-Dashed
370
    18
100
AcDbLine
 10
13.0796428838
 20
43.0145101513
 30
0.0
 11
13.0796428838
 21
43.2092083168
 31
0.0
  0
LINE
  5
D6
330
1F
100
AcDbEntity
  8
SK3
  6
SLD-Dashed
370
    18
100
AcDbLine
 10
13.0796428838
 20
43.2092083168
 30
0.0
 11
12.9192639907
 21
43.3960198386
 31
0.0
  0
LINE
  5
D7
330
1F
100
AcDbEntity
  8
SK3
  6
SLD-Dashed
370
    18
100
AcDbLine
 10
12.9192639907
 20
43.3960198386
 30
0.0
 11
12.6114991487
 21
43.5598103582
 31
0.0
  0
LINE
  5
D8
330
1F
100
AcDbEntity
  8
SK3
  6
SLD-Dashed
370
    18
100
AcDbLine
 10
12.6114991487
 20
43.5598103582
 30
0.0
 11
12.1812816349
 21
43.6873105418
 31
0.0
  0
LINE
  5
D9
330
1F
100
AcDbEntity
  8
SK3
  6
SLD-Dashed
370
    18
100
AcDbLine
 10
12.1812816349
 20
43.6873105418
 30
0.0
 11
11.6634651137
 21
43.7681910827
 31
0.0
  0
LINE
  5
DA
330
1F
100
AcDbEntity
  8
SK3
  6
SLD-Dashed
370
    18
100
AcDbLine
 10
11.6634651137
 20
43.7681910827
 30
0.0
 11
11.1
 21
43.7958995207
 31
0.0
  0
LINE
  5
DB
330
1F
100
AcDbEntity
  8
SK3
  6
SLD-Dashed
370
    18
100
AcDbLine
 10
11.1
 20
43.4863063449
 30
0.0
 11
10.5901219593
 21
43.4586859103
 31
0.0
  0
LINE
  5
DC
330
1F
100
AcDbEntity
  8
SK3
  6
SLD-Dashed
370
    18
100
AcDbLine
 10
10.5901219593
 20
43.4586859103
 30
0.0
 11
10.1301543337
 21
43.3785282872
 31
0.0
  0
LINE
  5
DD
330
1F
100
AcDbEntity
  8
SK3
  6
SLD-Dashed
370
    18
100
AcDbLine
 10
10.1301543337
 20
43.3785282872
 30
0.0
 11
9.7651219593
 21
43.2536798622
 31
0.0
  0
LINE
  5
DE
330
1F
100
AcDbEntity
  8
SK3
  6
SLD-Dashed
370
    18
100
AcDbLine
 10
9.7651219593
 20
43.2536798622
 30
0.0
 11
9.5307567481
 21
43.0963616689
 31
0.0
  0
LINE
  5
DF
330
1F
100
AcDbEntity
  8
SK3
  6
SLD-Dashed
370
    18
100
AcDbLine
 10
9.5307567481
 20
43.0963616689
 30
0.0
 11
9.45
 21
42.9219731084
 31
0.0
  0
LINE
  5
E0
330
1F
100
AcDbEntity
  8
SK3
  6
SLD-Dashed
370
    18
100
AcDbLine
 10
9.45
 20
42.9219731084
 30
0.0
 11
9.5307567481
 21
42.7475845478
 31
0.0
  0
LINE
  5
E1
330
1F
100
AcDbEntity
  8
SK3
  6
SLD-Dashed
370
    18
100
AcDbLine
 10
9.5307567481
 20
42.7475845478
 30
0.0
 11
9.7651219593
 21
42.5902663546
 31
0.0
  0
LINE
  5
E2
330
1F
100
AcDbEntity
  8
SK3
  6
SLD-Dashed
370
    18
100
AcDbLine
 10
9.7651219593
 20
42.5902663546
 30
0.0
 11
10.1301543337
 21
42.4654179296
 31
0.0
  0
LINE
  5
E3
330
1F
100
AcDbEntity
  8
SK3
  6
SLD-Dashed
370
    18
100
AcDbLine
 10
10.1301543337
 20
42.4654179296
 30
0.0
 11
10.5901219593
 21
42.3852603065
 31
0.0
  0
LINE
  5
E4
330
1F
100
AcDbEntity
  8
SK3
  6
SLD-Dashed
370
    18
100
AcDbLine
 10
10.5901219593
 20
42.3852603065
 30
0.0
 11
11.1
 21
42.3576398719
 31
0.0
  0
LINE
  5
E5
330
1F
100
AcDbEntity
  8
SK3
  6
SLD-Dashed
370
    18
100
AcDbLine
 10
11.1
 20
42.3576398719
 30
0.0
 11
11.6098780407
 21
42.3852603065
 31
0.0
  0
LINE
  5
E6
330
1F
100
AcDbEntity
  8
SK3
  6
SLD-Dashed
370
    18
100
AcDbLine
 10
11.6098780407
 20
42.3852603065
 30
0.0
 11
12.0698456663
 21
42.4654179296
 31
0.0
  0
LINE
  5
E7
330
1F
100
AcDbEntity
  8
SK3
  6
SLD-Dashed
370
    18
100
AcDbLine
 10
12.0698456663
 20
42.4654179296
 30
0.0
 11
12.4348780407
 21
42.5902663546
 31
0.0
  0
LINE
  5
E8
330
1F
100
AcDbEntity
  8
SK3
  6
SLD-Dashed
370
    18
100
AcDbLine
 10
12.4348780407
 20
42.5902663546
 30
0.0
 11
12.6692432519
 21
42.7475845478
 31
0.0
  0
LINE
  5
E9
330
1F
100
AcDbEntity
  8
SK3
  6
SLD-Dashed
370
    18
100
AcDbLine
 10
12.6692432519
 20
42.7475845478
 30
0.0
 11
12.75
 21
42.9219731084
 31
0.0
  0
LINE
  5
EA
330
1F
100
AcDbEntity
  8
SK3
  6
SLD-Dashed
370
    18
100
AcDbLine
 10
12.75
 20
42.9219731084
 30
0.0
 11
12.6692432519
 21
43.0963616689
 31
0.0
  0
LINE
  5
EB
330
1F
100
AcDbEntity
  8
SK3
  6
SLD-Dashed
370
    18
100
AcDbLine
 10
12.6692432519
 20
43.0963616689
 30
0.0
 11
12.4348780407
 21
43.2536798622
 31
0.0
  0
LINE
  5
EC
330
1F
100
AcDbEntity
  8
SK3
  6
SLD-Dashed
370
    18
100
AcDbLine
 10
12.4348780407
 20
43.2536798622
 30
0.0
 11
12.0698456663
 21
43.3785282872
 31
0.0
  0
LINE
  5
ED
330
1F
100
AcDbEntity
  8
SK3
  6
SLD-Dashed
370
    18
100
AcDbLine
 10
12.0698456663
 20
43.3785282872
 30
0.0
 11
11.6098780407
 21
43.4586859103
 31
0.0
  0
LINE
  5
EE
330
1F
100
AcDbEntity
  8
SK3
  6
SLD-Dashed
370
    18
100
AcDbLine
 10
11.6098780407
 20
43.4586859103
 30
0.0
 11
11.1
 21
43.4863063449
 31
0.0
  0
LINE
  5
EF
330
1F
100
AcDbEntity
  8
SK3
  6
SLD-Dashed
370
    18
100
AcDbLine
 10
9.6039384425
 20
37.6510244886
 30
0.0
 11
9.4883859037
 21
37.7155051163
 31
0.0
  0
LINE
  5
F0
330
1F
100
AcDbEntity
  8
SK3
  6
SLD-Dashed
370
    18
100
AcDbLine
 10
9.4883859037
 20
37.7155051163
 30
0.0
 11
9.4510251871
 21
37.6716120846
 31
0.0
  0
LINE
  5
F1
330
1F
100
AcDbEntity
  8
SK3
  6
SLD-Dashed
370
    18
100
AcDbLine
 10
9.4510251871
 20
37.6716120846
 30
0.0
 11
9.4683049732
 21
37.5413753617
 31
0.0
  0
LINE
  5
F2
330
1F
100
AcDbEntity
  8
SK3
  6
SLD-Dashed
370
    18
100
AcDbLine
 10
9.4683049732
 20
37.5413753617
 30
0.0
 11
9.5321185428
 21
37.3521608151
 31
0.0
  0
LINE
  5
F3
330
1F
100
AcDbEntity
  8
SK3
  6
SLD-Dashed
370
    18
100
AcDbLine
 10
9.5321185428
 20
37.3521608151
 30
0.0
 11
9.7109914129
 21
36.9572232263
 31
0.0
  0
LINE
  5
F4
330
1F
100
AcDbEntity
  8
SK3
  6
SLD-Dashed
370
    18
100
AcDbLine
 10
9.7109914129
 20
36.9572232263
 30
0.0
 11
10.1362287949
 21
36.2162854985
 31
0.0
  0
LINE
  5
F5
330
1F
100
AcDbEntity
  8
SK3
  6
SLD-Dashed
370
    18
100
AcDbLine
 10
10.1362287949
 20
36.2162854985
 30
0.0
 11
10.882255187
 21
35.2960293739
 31
0.0
  0
LINE
  5
F6
330
1F
100
AcDbEntity
  8
SK3
  6
SLD-Dashed
370
    18
100
AcDbLine
 10
10.882255187
 20
35.2960293739
 30
0.0
 11
11.3166645362
 21
34.9768973214
 31
0.0
  0
LINE
  5
F7
330
1F
100
AcDbEntity
  8
SK3
  6
SLD-Dashed
370
    18
100
AcDbLine
 10
11.3166645362
 20
34.9768973214
 30
0.0
 11
11.8034084809
 21
34.810282363
 31
0.0
  0
LINE
  5
F8
330
1F
100
AcDbEntity
  8
SK3
  6
SLD-Dashed
370
    18
100
AcDbLine
 10
11.8034084809
 20
34.810282363
 30
0.0
 11
12.1971344444
 21
34.8184039859
 31
0.0
  0
LINE
  5
F9
330
1F
100
AcDbEntity
  8
SK3
  6
SLD-Dashed
370
    18
100
AcDbLine
 10
12.1971344444
 20
34.8184039859
 30
0.0
 11
12.5018110505
 21
34.9245493855
 31
0.0
  0
LINE
  5
FA
330
1F
100
AcDbEntity
  8
SK3
  6
SLD-Dashed
370
    18
100
AcDbLine
 10
12.5018110505
 20
34.9245493855
 30
0.0
 11
12.7051006403
 21
35.0969646428
 31
0.0
  0
LINE
  5
FB
330
1F
100
AcDbEntity
  8
SK3
  6
SLD-Dashed
370
    18
100
AcDbLine
 10
12.7051006403
 20
35.0969646428
 30
0.0
 11
12.7412641999
 21
35.2879442037
 31
0.0
  0
LINE
  5
FC
330
1F
100
AcDbEntity
  8
SK3
  6
SLD-Dashed
370
    18
100
AcDbLine
 10
12.7412641999
 20
35.2879442037
 30
0.0
 11
12.5931133743
 21
35.4633189362
 31
0.0
  0
LINE
  5
FD
330
1F
100
AcDbEntity
  8
SK3
  6
SLD-Dashed
370
    18
100
AcDbLine
 10
12.5931133743
 20
35.4633189362
 30
0.0
 11
12.2764819223
 21
35.6276304465
 31
0.0
  0
LINE
  5
FE
330
1F
100
AcDbEntity
  8
SK3
  6
SLD-Dashed
370
    18
100
AcDbLine
 10
12.2764819223
 20
35.6276304465
 30
0.0
 11
11.8432412473
 21
35.8129767597
 31
0.0
  0
LINE
  5
FF
330
1F
100
AcDbEntity
  8
SK3
  6
SLD-Dashed
370
    18
100
AcDbLine
 10
11.8432412473
 20
35.8129767597
 30
0.0
 11
11.4174985696
 21
36.0336380552
 31
0.0
  0
LINE
  5
100
330
1F
100
AcDbEntity
  8
SK3
  6
SLD-Dashed
370
    18
100
AcDbLine
 10
11.4174985696
 20
36.0336380552
 30
0.0
 11
11.1
 21
36.2443456783
 31
0.0
  0
LINE
  5
101
330
1F
100
AcDbEntity
  8
SK3
  6
SLD-Dashed
370
    18
100
AcDbLine
 10
3.1949403416
 20
36.0985003391
 30
0.0
 11
3.3530311231
 21
36.0837691863
 31
0.0
  0
LINE
  5
102
330
1F
100
AcDbEntity
  8
SK3
  6
SLD-Dashed
370
    18
100
AcDbLine
 10
3.3530311231
 20
36.0837691863
 30
0.0
 11
3.5978696111
 21
36.2016516072
 31
0.0
  0
LINE
  5
103
330
1F
100
AcDbEntity
  8
SK3
  6
SLD-Dashed
370
    18
100
AcDbLine
 10
3.5978696111
 20
36.2016516072
 30
0.0
 11
3.9140717028
 21
36.4447406159
 31
0.0
  0
LINE
  5
104
330
1F
100
AcDbEntity
  8
SK3
  6
SLD-Dashed
370
    18
100
AcDbLine
 10
3.9140717028
 20
36.4447406159
 30
0.0
 11
4.281769258
 21
36.7977620359
 31
0.0
  0
LINE
  5
105
330
1F
100
AcDbEntity
  8
SK3
  6
SLD-Dashed
370
    18
100
AcDbLine
 10
4.281769258
 20
36.7977620359
 30
0.0
 11
4.6778584869
 21
37.238534233
 31
0.0
  0
LINE
  5
106
330
1F
100
AcDbEntity
  8
SK3
  6
SLD-Dashed
370
    18
100
AcDbLine
 10
4.6778584869
 20
37.238534233
 30
0.0
 11
5.0774516466
 21
37.739361869
 31
0.0
  0
LINE
  5
107
330
1F
100
AcDbEntity
  8
SK3
  6
SLD-Dashed
370
    18
100
AcDbLine
 10
5.0774516466
 20
37.739361869
 30
0.0
 11
5.4554408293
 21
38.2687761017
 31
0.0
  0
LINE
  5
108
330
1F
100
AcDbEntity
  8
SK3
  6
SLD-Dashed
370
    18
100
AcDbLine
 10
5.4554408293
 20
38.2687761017
 30
0.0
 11
5.7880755844
 21
38.7935118878
 31
0.0
  0
LINE
  5
109
330
1F
100
AcDbEntity
  8
SK3
  6
SLD-Dashed
370
    18
100
AcDbLine
 10
5.7880755844
 20
38.7935118878
 30
0.0
 11
6.054455247
 21
39.280598148
 31
0.0
  0
LINE
  5
10A
330
1F
100
AcDbEntity
  8
SK3
  6
SLD-Dashed
370
    18
100
AcDbLine
 10
6.054455247
 20
39.280598148
 30
0.0
 11
6.2378422032
 21
39.6994294612
 31
0.0
  0
LINE
  5
10B
330
1F
100
AcDbEntity
  8
SK3
  6
SLD-Dashed
370
    18
100
AcDbLine
 10
6.2378422032
 20
39.6994294612
 30
0.0
 11
6.326713576
 21
40.0236891156
 31
0.0
  0
LINE
  5
10C
330
1F
100
AcDbEntity
  8
SK3
  6
SLD-Dashed
370
    18
100
AcDbLine
 10
6.326713576
 20
40.0236891156
 30
0.0
 11
6.3154852503
 21
40.2330026846
 31
0.0
  0
LINE
  5
10D
330
1F
100
AcDbEntity
  8
SK3
  6
SLD-Dashed
370
    18
100
AcDbLine
 10
6.3154852503
 20
40.2330026846
 30
0.0
 11
6.2048627431
 21
40.3142182269
 31
0.0
  0
LINE
  5
10E
330
1F
100
AcDbEntity
  8
SK3
  6
SLD-Dashed
370
    18
100
AcDbLine
 10
6.2048627431
 20
40.3142182269
 30
0.0
 11
6.0017968733
 21
40.2622326712
 31
0.0
  0
LINE
  5
10F
330
1F
100
AcDbEntity
  8
SK3
  6
SLD-Dashed
370
    18
100
AcDbLine
 10
6.0017968733
 20
40.2622326712
 30
0.0
 11
5.7190470164
 21
40.0803124612
 31
0.0
  0
LINE
  5
110
330
1F
100
AcDbEntity
  8
SK3
  6
SLD-Dashed
370
    18
100
AcDbLine
 10
5.7190470164
 20
40.0803124612
 30
0.0
 11
5.3743793858
 21
39.7798883127
 31
0.0
  0
LINE
  5
111
330
1F
100
AcDbEntity
  8
SK3
  6
SLD-Dashed
370
    18
100
AcDbLine
 10
5.3743793858
 20
39.7798883127
 30
0.0
 11
4.9894507162
 21
39.37983698
 31
0.0
  0
LINE
  5
112
330
1F
100
AcDbEntity
  8
SK3
  6
SLD-Dashed
370
    18
100
AcDbLine
 10
4.9894507162
 20
39.37983698
 30
0.0
 11
4.5884474917
 21
38.9052951594
 31
0.0
  0
LINE
  5
113
330
1F
100
AcDbEntity
  8
SK3
  6
SLD-Dashed
370
    18
100
AcDbLine
 10
4.5884474917
 20
38.9052951594
 30
0.0
 11
4.1965662196
 21
38.3860800589
 31
0.0
  0
LINE
  5
114
330
1F
100
AcDbEntity
  8
SK3
  6
SLD-Dashed
370
    18
100
AcDbLine
 10
4.1965662196
 20
38.3860800589
 30
0.0
 11
3.8384302416
 21
37.8548158726
 31
0.0
  0
LINE
  5
115
330
1F
100
AcDbEntity
  8
SK3
  6
SLD-Dashed
370
    18
100
AcDbLine
 10
3.8384302416
 20
37.8548158726
 30
0.0
 11
3.5365425582
 21
37.3448838835
 31
0.0
  0
LINE
  5
116
330
1F
100
AcDbEntity
  8
SK3
  6
SLD-Dashed
370
    18
100
AcDbLine
 10
3.5365425582
 20
37.3448838835
 30
0.0
 11
3.3098718828
 21
36.8883249936
 31
0.0
  0
LINE
  5
117
330
1F
100
AcDbEntity
  8
SK3
  6
SLD-Dashed
370
    18
100
AcDbLine
 10
3.3098718828
 20
36.8883249936
 30
0.0
 11
3.1726607677
 21
36.5138264771
 31
0.0
  0
LINE
  5
118
330
1F
100
AcDbEntity
  8
SK3
  6
SLD-Dashed
370
    18
100
AcDbLine
 10
3.1726607677
 20
36.5138264771
 30
0.0
 11
3.1335306917
 21
36.2449194532
 31
0.0
  0
LINE
  5
119
330
1F
100
AcDbEntity
  8
SK3
  6
SLD-Dashed
370
    18
100
AcDbLine
 10
3.1335306917
 20
36.2449194532
 30
0.0
 11
3.1949403416
 21
36.0985003391
 31
0.0
  0
LINE
  5
11A
330
1F
100
AcDbEntity
  8
SK3
  6
SLD-Dashed
370
    18
100
AcDbLine
 10
3.2837105329
 20
36.2194129238
 30
0.0
 11
3.4407458393
 21
36.2076871356
 31
0.0
  0
LINE
  5
11B
330
1F
100
AcDbEntity
  8
SK3
  6
SLD-Dashed
370
    18
100
AcDbLine
 10
3.4407458393
 20
36.2076871356
 30
0.0
 11
3.6858886325
 21
36.3313469901
 31
0.0
  0
LINE
  5
11C
330
1F
100
AcDbEntity
  8
SK3
  6
SLD-Dashed
370
    18
100
AcDbLine
 10
3.6858886325
 20
36.3313469901
 30
0.0
 11
4.0024328361
 21
36.5819652724
 31
0.0
  0
LINE
  5
11D
330
1F
100
AcDbEntity
  8
SK3
  6
SLD-Dashed
370
    18
100
AcDbLine
 10
4.0024328361
 20
36.5819652724
 30
0.0
 11
4.368806486
 21
36.9424627608
 31
0.0
  0
LINE
  5
11E
330
1F
100
AcDbEntity
  8
SK3
  6
SLD-Dashed
370
    18
100
AcDbLine
 10
4.368806486
 20
36.9424627608
 30
0.0
 11
4.7600418232
 21
37.3882721473
 31
0.0
  0
LINE
  5
11F
330
1F
100
AcDbEntity
  8
SK3
  6
SLD-Dashed
370
    18
100
AcDbLine
 10
4.7600418232
 20
37.3882721473
 30
0.0
 11
5.1494768061
 21
37.8890122588
 31
0.0
  0
LINE
  5
120
330
1F
100
AcDbEntity
  8
SK3
  6
SLD-Dashed
370
    18
100
AcDbLine
 10
5.1494768061
 20
37.8890122588
 30
0.0
 11
5.5105720841
 21
38.4105584843
 31
0.0
  0
LINE
  5
121
330
1F
100
AcDbEntity
  8
SK3
  6
SLD-Dashed
370
    18
100
AcDbLine
 10
5.5105720841
 20
38.4105584843
 30
0.0
 11
5.818719611
 21
38.9173683105
 31
0.0
  0
LINE
  5
122
330
1F
100
AcDbEntity
  8
SK3
  6
SLD-Dashed
370
    18
100
AcDbLine
 10
5.818719611
 20
38.9173683105
 30
0.0
 11
6.0529196418
 21
39.3749034851
 31
0.0
  0
LINE
  5
123
330
1F
100
AcDbEntity
  8
SK3
  6
SLD-Dashed
370
    18
100
AcDbLine
 10
6.0529196418
 20
39.3749034851
 30
0.0
 11
6.1972118315
 21
39.7519837422
 31
0.0
  0
LINE
  5
124
330
1F
100
AcDbEntity
  8
SK3
  6
SLD-Dashed
370
    18
100
AcDbLine
 10
6.1972118315
 20
39.7519837422
 30
0.0
 11
6.2417629059
 21
40.0229116854
 31
0.0
  0
LINE
  5
125
330
1F
100
AcDbEntity
  8
SK3
  6
SLD-Dashed
370
    18
100
AcDbLine
 10
6.2417629059
 20
40.0229116854
 30
0.0
 11
6.1835367829
 21
40.1692240231
 31
0.0
  0
LINE
  5
126
330
1F
100
AcDbEntity
  8
SK3
  6
SLD-Dashed
370
    18
100
AcDbLine
 10
6.1835367829
 20
40.1692240231
 30
0.0
 11
6.0265014765
 21
40.1809498112
 31
0.0
  0
LINE
  5
127
330
1F
100
AcDbEntity
  8
SK3
  6
SLD-Dashed
370
    18
100
AcDbLine
 10
6.0265014765
 20
40.1809498112
 30
0.0
 11
5.7813586834
 21
40.0572899568
 31
0.0
  0
LINE
  5
128
330
1F
100
AcDbEntity
  8
SK3
  6
SLD-Dashed
370
    18
100
AcDbLine
 10
5.7813586834
 20
40.0572899568
 30
0.0
 11
5.4648144797
 21
39.8066716745
 31
0.0
  0
LINE
  5
129
330
1F
100
AcDbEntity
  8
SK3
  6
SLD-Dashed
370
    18
100
AcDbLine
 10
5.4648144797
 20
39.8066716745
 30
0.0
 11
5.0984408299
 21
39.446174186
 31
0.0
  0
LINE
  5
12A
330
1F
100
AcDbEntity
  8
SK3
  6
SLD-Dashed
370
    18
100
AcDbLine
 10
5.0984408299
 20
39.446174186
 30
0.0
 11
4.7072054927
 21
39.0003647996
 31
0.0
  0
LINE
  5
12B
330
1F
100
AcDbEntity
  8
SK3
  6
SLD-Dashed
370
    18
100
AcDbLine
 10
4.7072054927
 20
39.0003647996
 30
0.0
 11
4.3177705098
 21
38.499624688
 31
0.0
  0
LINE
  5
12C
330
1F
100
AcDbEntity
  8
SK3
  6
SLD-Dashed
370
    18
100
AcDbLine
 10
4.3177705098
 20
38.499624688
 30
0.0
 11
3.9566752317
 21
37.9780784625
 31
0.0
  0
LINE
  5
12D
330
1F
100
AcDbEntity
  8
SK3
  6
SLD-Dashed
370
    18
100
AcDbLine
 10
3.9566752317
 20
37.9780784625
 30
0.0
 11
3.6485277049
 21
37.4712686364
 31
0.0
  0
LINE
  5
12E
330
1F
100
AcDbEntity
  8
SK3
  6
SLD-Dashed
370
    18
100
AcDbLine
 10
3.6485277049
 20
37.4712686364
 30
0.0
 11
3.4143276741
 21
37.0137334618
 31
0.0
  0
LINE
  5
12F
330
1F
100
AcDbEntity
  8
SK3
  6
SLD-Dashed
370
    18
100
AcDbLine
 10
3.4143276741
 20
37.0137334618
 30
0.0
 11
3.2700354843
 21
36.6366532047
 31
0.0
  0
LINE
  5
130
330
1F
100
AcDbEntity
  8
SK3
  6
SLD-Dashed
370
    18
100
AcDbLine
 10
3.2700354843
 20
36.6366532047
 30
0.0
 11
3.2254844099
 21
36.3657252615
 31
0.0
  0
LINE
  5
131
330
1F
100
AcDbEntity
  8
SK3
  6
SLD-Dashed
370
    18
100
AcDbLine
 10
3.2254844099
 20
36.3657252615
 30
0.0
 11
3.2837105329
 21
36.2194129238
 31
0.0
  0
LINE
  5
132
330
1F
100
AcDbEntity
  8
SK3
  6
SLD-Dashed
370
    18
100
AcDbLine
 10
14.0794578574
 20
28.2935170536
 30
0.0
 11
14.2364931637
 21
28.2817912655
 31
0.0
  0
LINE
  5
133
330
1F
100
AcDbEntity
  8
SK3
  6
SLD-Dashed
370
    18
100
AcDbLine
 10
14.2364931637
 20
28.2817912655
 30
0.0
 11
14.4816359569
 21
28.4054511199
 31
0.0
  0
LINE
  5
134
330
1F
100
AcDbEntity
  8
SK3
  6
SLD-Dashed
370
    18
100
AcDbLine
 10
14.4816359569
 20
28.4054511199
 30
0.0
 11
14.7981801606
 21
28.6560694023
 31
0.0
  0
LINE
  5
135
330
1F
100
AcDbEntity
  8
SK3
  6
SLD-Dashed
370
    18
100
AcDbLine
 10
14.7981801606
 20
28.6560694023
 30
0.0
 11
15.1645538104
 21
29.0165668907
 31
0.0
  0
LINE
  5
136
330
1F
100
AcDbEntity
  8
SK3
  6
SLD-Dashed
370
    18
100
AcDbLine
 10
15.1645538104
 20
29.0165668907
 30
0.0
 11
15.5557891476
 21
29.4623762772
 31
0.0
  0
LINE
  5
137
330
1F
100
AcDbEntity
  8
SK3
  6
SLD-Dashed
370
    18
100
AcDbLine
 10
15.5557891476
 20
29.4623762772
 30
0.0
 11
15.9452241305
 21
29.9631163887
 31
0.0
  0
LINE
  5
138
330
1F
100
AcDbEntity
  8
SK3
  6
SLD-Dashed
370
    18
100
AcDbLine
 10
15.9452241305
 20
29.9631163887
 30
0.0
 11
16.3063194086
 21
30.4846626142
 31
0.0
  0
LINE
  5
139
330
1F
100
AcDbEntity
  8
SK3
  6
SLD-Dashed
370
    18
100
AcDbLine
 10
16.3063194086
 20
30.4846626142
 30
0.0
 11
16.6144669354
 21
30.9914724403
 31
0.0
  0
LINE
  5
13A
330
1F
100
AcDbEntity
  8
SK3
  6
SLD-Dashed
370
    18
100
AcDbLine
 10
16.6144669354
 20
30.9914724403
 30
0.0
 11
16.8486669662
 21
31.449007615
 31
0.0
  0
LINE
  5
13B
330
1F
100
AcDbEntity
  8
SK3
  6
SLD-Dashed
370
    18
100
AcDbLine
 10
16.8486669662
 20
31.449007615
 30
0.0
 11
16.9929591559
 21
31.826087872
 31
0.0
  0
LINE
  5
13C
330
1F
100
AcDbEntity
  8
SK3
  6
SLD-Dashed
370
    18
100
AcDbLine
 10
16.9929591559
 20
31.826087872
 30
0.0
 11
17.0375102304
 21
32.0970158152
 31
0.0
  0
LINE
  5
13D
330
1F
100
AcDbEntity
  8
SK3
  6
SLD-Dashed
370
    18
100
AcDbLine
 10
17.0375102304
 20
32.0970158152
 30
0.0
 11
16.9792841073
 21
32.2433281529
 31
0.0
  0
LINE
  5
13E
330
1F
100
AcDbEntity
  8
SK3
  6
SLD-Dashed
370
    18
100
AcDbLine
 10
16.9792841073
 20
32.2433281529
 30
0.0
 11
16.822248801
 21
32.2550539411
 31
0.0
  0
LINE
  5
13F
330
1F
100
AcDbEntity
  8
SK3
  6
SLD-Dashed
370
    18
100
AcDbLine
 10
16.822248801
 20
32.2550539411
 30
0.0
 11
16.5771060078
 21
32.1313940866
 31
0.0
  0
LINE
  5
140
330
1F
100
AcDbEntity
  8
SK3
  6
SLD-Dashed
370
    18
100
AcDbLine
 10
16.5771060078
 20
32.1313940866
 30
0.0
 11
16.2605618041
 21
31.8807758043
 31
0.0
  0
LINE
  5
141
330
1F
100
AcDbEntity
  8
SK3
  6
SLD-Dashed
370
    18
100
AcDbLine
 10
16.2605618041
 20
31.8807758043
 30
0.0
 11
15.8941881543
 21
31.5202783159
 31
0.0
  0
LINE
  5
142
330
1F
100
AcDbEntity
  8
SK3
  6
SLD-Dashed
370
    18
100
AcDbLine
 10
15.8941881543
 20
31.5202783159
 30
0.0
 11
15.5029528171
 21
31.0744689294
 31
0.0
  0
LINE
  5
143
330
1F
100
AcDbEntity
  8
SK3
  6
SLD-Dashed
370
    18
100
AcDbLine
 10
15.5029528171
 20
31.0744689294
 30
0.0
 11
15.1135178342
 21
30.5737288179
 31
0.0
  0
LINE
  5
144
330
1F
100
AcDbEntity
  8
SK3
  6
SLD-Dashed
370
    18
100
AcDbLine
 10
15.1135178342
 20
30.5737288179
 30
0.0
 11
14.7524225561
 21
30.0521825924
 31
0.0
  0
LINE
  5
145
330
1F
100
AcDbEntity
  8
SK3
  6
SLD-Dashed
370
    18
100
AcDbLine
 10
14.7524225561
 20
30.0521825924
 30
0.0
 11
14.4442750293
 21
29.5453727662
 31
0.0
  0
LINE
  5
146
330
1F
100
AcDbEntity
  8
SK3
  6
SLD-Dashed
370
    18
100
AcDbLine
 10
14.4442750293
 20
29.5453727662
 30
0.0
 11
14.2100749985
 21
29.0878375916
 31
0.0
  0
LINE
  5
147
330
1F
100
AcDbEntity
  8
SK3
  6
SLD-Dashed
370
    18
100
AcDbLine
 10
14.2100749985
 20
29.0878375916
 30
0.0
 11
14.0657828088
 21
28.7107573345
 31
0.0
  0
LINE
  5
148
330
1F
100
AcDbEntity
  8
SK3
  6
SLD-Dashed
370
    18
100
AcDbLine
 10
14.0657828088
 20
28.7107573345
 30
0.0
 11
14.0212317343
 21
28.4398293913
 31
0.0
  0
LINE
  5
149
330
1F
100
AcDbEntity
  8
SK3
  6
SLD-Dashed
370
    18
100
AcDbLine
 10
14.0212317343
 20
28.4398293913
 30
0.0
 11
14.0794578574
 21
28.2935170536
 31
0.0
  0
LINE
  5
14A
330
1F
100
AcDbEntity
  8
SK3
  6
SLD-Dashed
370
    18
100
AcDbLine
 10
-100.05
 20
12.5075
 30
0.0
 11
-100.05
 21
-12.5075
 31
0.0
  0
LINE
  5
14B
330
1F
100
AcDbEntity
  8
SK3
  6
SLD-Dashed
370
    18
100
AcDbLine
 10
-88.55
 20
12.75
 30
0.0
 11
-88.55
 21
-12.75
 31
0.0
  0
LINE
  5
14C
330
1F
100
AcDbEntity
  8
SK3
  6
SLD-Dashed
370
    18
100
AcDbLine
 10
-87.2509618943
 20
10.5
 30
0.0
 11
-87.2509618943
 21
-10.5
 31
0.0
  0
LINE
  5
14D
330
1F
100
AcDbEntity
  8
SK3
  6
SLD-Dashed
370
    18
100
AcDbLine
 10
-91.55
 20
12.75
 30
0.0
 11
-91.55
 21
-12.75
 31
0.0
  0
LINE
  5
14E
330
1F
100
AcDbEntity
  8
SK3
  6
SLD-Dashed
370
    18
100
AcDbLine
 10
-91.9700223208
 20
12.5075
 30
0.0
 11
-91.9700223208
 21
-12.5075
 31
0.0
  0
LINE
  5
14F
330
1F
100
AcDbEntity
  8
SK3
  6
SLD-Dashed
370
    18
100
AcDbLine
 10
32.2
 20
-10.49995
 30
0.0
 11
32.2
 21
10.49995
 31
0.0
  0
LINE
  5
150
330
1F
100
AcDbEntity
  8
SK3
  6
SLD-Dashed
370
    18
100
AcDbLine
 10
33.7021215045
 20
8.0
 30
0.0
 11
33.7021215045
 21
-8.0
 31
0.0
  0
LINE
  5
151
330
1F
100
AcDbEntity
  8
SK3
  6
SLD-Dashed
370
    18
100
AcDbLine
 10
79.0
 20
-8.0
 30
0.0
 11
79.0
 21
8.0
 31
0.0
  0
LINE
  5
152
330
1F
100
AcDbEntity
  8
SK3
  6
SLD-Dashed
370
    18
100
AcDbLine
 10
64.1
 20
-22.3
 30
0.0
 11
47.9
 21
-22.3
 31
0.0
  0
LINE
  5
153
330
1F
100
AcDbEntity
  8
SK3
  6
SLD-Dashed
370
    18
100
AcDbLine
 10
6.1835367829
 20
-40.1692240231
 30
0.0
 11
6.0265014765
 21
-40.1809498112
 31
0.0
  0
LINE
  5
154
330
1F
100
AcDbEntity
  8
SK3
  6
SLD-Dashed
370
    18
100
AcDbLine
 10
6.0265014765
 20
-40.1809498112
 30
0.0
 11
5.7813586834
 21
-40.0572899568
 31
0.0
  0
LINE
  5
155
330
1F
100
AcDbEntity
  8
SK3
  6
SLD-Dashed
370
    18
100
AcDbLine
 10
5.7813586834
 20
-40.0572899568
 30
0.0
 11
5.4648144797
 21
-39.8066716745
 31
0.0
  0
LINE
  5
156
330
1F
100
AcDbEntity
  8
SK3
  6
SLD-Dashed
370
    18
100
AcDbLine
 10
5.4648144797
 20
-39.8066716745
 30
0.0
 11
5.0984408299
 21
-39.446174186
 31
0.0
  0
LINE
  5
157
330
1F
100
AcDbEntity
  8
SK3
  6
SLD-Dashed
370
    18
100
AcDbLine
 10
5.0984408299
 20
-39.446174186
 30
0.0
 11
4.7072054927
 21
-39.0003647996
 31
0.0
  0
LINE
  5
158
330
1F
100
AcDbEntity
  8
SK3
  6
SLD-Dashed
370
    18
100
AcDbLine
 10
4.7072054927
 20
-39.0003647996
 30
0.0
 11
4.3177705098
 21
-38.499624688
 31
0.0
  0
LINE
  5
159
330
1F
100
AcDbEntity
  8
SK3
  6
SLD-Dashed
370
    18
100
AcDbLine
 10
4.3177705098
 20
-38.499624688
 30
0.0
 11
3.9566752317
 21
-37.9780784625
 31
0.0
  0
LINE
  5
15A
330
1F
100
AcDbEntity
  8
SK3
  6
SLD-Dashed
370
    18
100
AcDbLine
 10
3.9566752317
 20
-37.9780784625
 30
0.0
 11
3.6485277049
 21
-37.4712686364
 31
0.0
  0
LINE
  5
15B
330
1F
100
AcDbEntity
  8
SK3
  6
SLD-Dashed
370
    18
100
AcDbLine
 10
3.6485277049
 20
-37.4712686364
 30
0.0
 11
3.4143276741
 21
-37.0137334618
 31
0.0
  0
LINE
  5
15C
330
1F
100
AcDbEntity
  8
SK3
  6
SLD-Dashed
370
    18
100
AcDbLine
 10
3.4143276741
 20
-37.0137334618
 30
0.0
 11
3.2700354843
 21
-36.6366532047
 31
0.0
  0
LINE
  5
15D
330
1F
100
AcDbEntity
  8
SK3
  6
SLD-Dashed
370
    18
100
AcDbLine
 10
3.2700354843
 20
-36.6366532047
 30
0.0
 11
3.2254844099
 21
-36.3657252615
 31
0.0
  0
LINE
  5
15E
330
1F
100
AcDbEntity
  8
SK3
  6
SLD-Dashed
370
    18
100
AcDbLine
 10
3.2254844099
 20
-36.3657252615
 30
0.0
 11
3.2837105329
 21
-36.2194129238
 31
0.0
  0
LINE
  5
15F
330
1F
100
AcDbEntity
  8
SK3
  6
SLD-Dashed
370
    18
100
AcDbLine
 10
3.2837105329
 20
-36.2194129238
 30
0.0
 11
3.4407458393
 21
-36.2076871356
 31
0.0
  0
LINE
  5
160
330
1F
100
AcDbEntity
  8
SK3
  6
SLD-Dashed
370
    18
100
AcDbLine
 10
3.4407458393
 20
-36.2076871356
 30
0.0
 11
3.6858886325
 21
-36.3313469901
 31
0.0
  0
LINE
  5
161
330
1F
100
AcDbEntity
  8
SK3
  6
SLD-Dashed
370
    18
100
AcDbLine
 10
3.6858886325
 20
-36.3313469901
 30
0.0
 11
4.0024328361
 21
-36.5819652724
 31
0.0
  0
LINE
  5
162
330
1F
100
AcDbEntity
  8
SK3
  6
SLD-Dashed
370
    18
100
AcDbLine
 10
4.0024328361
 20
-36.5819652724
 30
0.0
 11
4.368806486
 21
-36.9424627608
 31
0.0
  0
LINE
  5
163
330
1F
100
AcDbEntity
  8
SK3
  6
SLD-Dashed
370
    18
100
AcDbLine
 10
4.368806486
 20
-36.9424627608
 30
0.0
 11
4.7600418232
 21
-37.3882721473
 31
0.0
  0
LINE
  5
164
330
1F
100
AcDbEntity
  8
SK3
  6
SLD-Dashed
370
    18
100
AcDbLine
 10
4.7600418232
 20
-37.3882721473
 30
0.0
 11
5.1494768061
 21
-37.8890122588
 31
0.0
  0
LINE
  5
165
330
1F
100
AcDbEntity
  8
SK3
  6
SLD-Dashed
370
    18
100
AcDbLine
 10
5.1494768061
 20
-37.8890122588
 30
0.0
 11
5.5105720841
 21
-38.4105584843
 31
0.0
  0
LINE
  5
166
330
1F
100
AcDbEntity
  8
SK3
  6
SLD-Dashed
370
    18
100
AcDbLine
 10
5.5105720841
 20
-38.4105584843
 30
0.0
 11
5.818719611
 21
-38.9173683105
 31
0.0
  0
LINE
  5
167
330
1F
100
AcDbEntity
  8
SK3
  6
SLD-Dashed
370
    18
100
AcDbLine
 10
5.818719611
 20
-38.9173683105
 30
0.0
 11
6.0529196418
 21
-39.3749034851
 31
0.0
  0
LINE
  5
168
330
1F
100
AcDbEntity
  8
SK3
  6
SLD-Dashed
370
    18
100
AcDbLine
 10
6.0529196418
 20
-39.3749034851
 30
0.0
 11
6.1972118315
 21
-39.7519837422
 31
0.0
  0
LINE
  5
169
330
1F
100
AcDbEntity
  8
SK3
  6
SLD-Dashed
370
    18
100
AcDbLine
 10
6.1972118315
 20
-39.7519837422
 30
0.0
 11
6.2417629059
 21
-40.0229116854
 31
0.0
  0
LINE
  5
16A
330
1F
100
AcDbEntity
  8
SK3
  6
SLD-Dashed
370
    18
100
AcDbLine
 10
6.2417629059
 20
-40.0229116854
 30
0.0
 11
6.1835367829
 21
-40.1692240231
 31
0.0
  0
LINE
  5
16B
330
1F
100
AcDbEntity
  8
SK3
  6
SLD-Dashed
370
    18
100
AcDbLine
 10
16.9792841073
 20
-32.2433281529
 30
0.0
 11
16.822248801
 21
-32.2550539411
 31
0.0
  0
LINE
  5
16C
330
1F
100
AcDbEntity
  8
SK3
  6
SLD-Dashed
370
    18
100
AcDbLine
 10
16.822248801
 20
-32.2550539411
 30
0.0
 11
16.5771060078
 21
-32.1313940866
 31
0.0
  0
LINE
  5
16D
330
1F
100
AcDbEntity
  8
SK3
  6
SLD-Dashed
370
    18
100
AcDbLine
 10
16.5771060078
 20
-32.1313940866
 30
0.0
 11
16.2605618041
 21
-31.8807758043
 31
0.0
  0
LINE
  5
16E
330
1F
100
AcDbEntity
  8
SK3
  6
SLD-Dashed
370
    18
100
AcDbLine
 10
16.2605618041
 20
-31.8807758043
 30
0.0
 11
15.8941881543
 21
-31.5202783159
 31
0.0
  0
LINE
  5
16F
330
1F
100
AcDbEntity
  8
SK3
  6
SLD-Dashed
370
    18
100
AcDbLine
 10
15.8941881543
 20
-31.5202783159
 30
0.0
 11
15.5029528171
 21
-31.0744689294
 31
0.0
  0
LINE
  5
170
330
1F
100
AcDbEntity
  8
SK3
  6
SLD-Dashed
370
    18
100
AcDbLine
 10
15.5029528171
 20
-31.0744689294
 30
0.0
 11
15.1135178342
 21
-30.5737288179
 31
0.0
  0
LINE
  5
171
330
1F
100
AcDbEntity
  8
SK3
  6
SLD-Dashed
370
    18
100
AcDbLine
 10
15.1135178342
 20
-30.5737288179
 30
0.0
 11
14.7524225561
 21
-30.0521825924
 31
0.0
  0
LINE
  5
172
330
1F
100
AcDbEntity
  8
SK3
  6
SLD-Dashed
370
    18
100
AcDbLine
 10
14.7524225561
 20
-30.0521825924
 30
0.0
 11
14.4442750293
 21
-29.5453727662
 31
0.0
  0
LINE
  5
173
330
1F
100
AcDbEntity
  8
SK3
  6
SLD-Dashed
370
    18
100
AcDbLine
 10
14.4442750293
 20
-29.5453727662
 30
0.0
 11
14.2100749985
 21
-29.0878375916
 31
0.0
  0
LINE
  5
174
330
1F
100
AcDbEntity
  8
SK3
  6
SLD-Dashed
370
    18
100
AcDbLine
 10
14.2100749985
 20
-29.0878375916
 30
0.0
 11
14.0657828088
 21
-28.7107573345
 31
0.0
  0
LINE
  5
175
330
1F
100
AcDbEntity
  8
SK3
  6
SLD-Dashed
370
    18
100
AcDbLine
 10
14.0657828088
 20
-28.7107573345
 30
0.0
 11
14.0212317343
 21
-28.4398293913
 31
0.0
  0
LINE
  5
176
330
1F
100
AcDbEntity
  8
SK3
  6
SLD-Dashed
370
    18
100
AcDbLine
 10
14.0212317343
 20
-28.4398293913
 30
0.0
 11
14.0794578574
 21
-28.2935170536
 31
0.0
  0
LINE
  5
177
330
1F
100
AcDbEntity
  8
SK3
  6
SLD-Dashed
370
    18
100
AcDbLine
 10
14.0794578574
 20
-28.2935170536
 30
0.0
 11
14.2364931637
 21
-28.2817912655
 31
0.0
  0
LINE
  5
178
330
1F
100
AcDbEntity
  8
SK3
  6
SLD-Dashed
370
    18
100
AcDbLine
 10
14.2364931637
 20
-28.2817912655
 30
0.0
 11
14.4816359569
 21
-28.4054511199
 31
0.0
  0
LINE
  5
179
330
1F
100
AcDbEntity
  8
SK3
  6
SLD-Dashed
370
    18
100
AcDbLine
 10
14.4816359569
 20
-28.4054511199
 30
0.0
 11
14.7981801606
 21
-28.6560694023
 31
0.0
  0
LINE
  5
17A
330
1F
100
AcDbEntity
  8
SK3
  6
SLD-Dashed
370
    18
100
AcDbLine
 10
14.7981801606
 20
-28.6560694023
 30
0.0
 11
15.1645538104
 21
-29.0165668907
 31
0.0
  0
LINE
  5
17B
330
1F
100
AcDbEntity
  8
SK3
  6
SLD-Dashed
370
    18
100
AcDbLine
 10
15.1645538104
 20
-29.0165668907
 30
0.0
 11
15.5557891476
 21
-29.4623762772
 31
0.0
  0
LINE
  5
17C
330
1F
100
AcDbEntity
  8
SK3
  6
SLD-Dashed
370
    18
100
AcDbLine
 10
15.5557891476
 20
-29.4623762772
 30
0.0
 11
15.9452241305
 21
-29.9631163887
 31
0.0
  0
LINE
  5
17D
330
1F
100
AcDbEntity
  8
SK3
  6
SLD-Dashed
370
    18
100
AcDbLine
 10
15.9452241305
 20
-29.9631163887
 30
0.0
 11
16.3063194086
 21
-30.4846626142
 31
0.0
  0
LINE
  5
17E
330
1F
100
AcDbEntity
  8
SK3
  6
SLD-Dashed
370
    18
100
AcDbLine
 10
16.3063194086
 20
-30.4846626142
 30
0.0
 11
16.6144669354
 21
-30.9914724403
 31
0.0
  0
LINE
  5
17F
330
1F
100
AcDbEntity
  8
SK3
  6
SLD-Dashed
370
    18
100
AcDbLine
 10
16.6144669354
 20
-30.9914724403
 30
0.0
 11
16.8486669662
 21
-31.449007615
 31
0.0
  0
LINE
  5
180
330
1F
100
AcDbEntity
  8
SK3
  6
SLD-Dashed
370
    18
100
AcDbLine
 10
16.8486669662
 20
-31.449007615
 30
0.0
 11
16.9929591559
 21
-31.826087872
 31
0.0
  0
LINE
  5
181
330
1F
100
AcDbEntity
  8
SK3
  6
SLD-Dashed
370
    18
100
AcDbLine
 10
16.9929591559
 20
-31.826087872
 30
0.0
 11
17.0375102304
 21
-32.0970158152
 31
0.0
  0
LINE
  5
182
330
1F
100
AcDbEntity
  8
SK3
  6
SLD-Dashed
370
    18
100
AcDbLine
 10
17.0375102304
 20
-32.0970158152
 30
0.0
 11
16.9792841073
 21
-32.2433281529
 31
0.0
  0
LINE
  5
183
330
1F
100
AcDbEntity
  8
SK3
  6
SLD-Dashed
370
    18
100
AcDbLine
 10
9.5577782396
 20
-37.6898197572
 30
0.0
 11
9.4892049402
 21
-37.7155235373
 31
0.0
  0
LINE
  5
184
330
1F
100
AcDbEntity
  8
SK3
  6
SLD-Dashed
370
    18
100
AcDbLine
 10
9.4892049402
 20
-37.7155235373
 30
0.0
 11
9.4640308453
 21
-37.7051933903
 31
0.0
  0
LINE
  5
185
330
1F
100
AcDbEntity
  8
SK3
  6
SLD-Dashed
370
    18
100
AcDbLine
 10
9.4640308453
 20
-37.7051933903
 30
0.0
 11
9.451163823
 21
-37.6727008139
 31
0.0
  0
LINE
  5
186
330
1F
100
AcDbEntity
  8
SK3
  6
SLD-Dashed
370
    18
100
AcDbLine
 10
9.451163823
 20
-37.6727008139
 30
0.0
 11
9.452395308
 21
-37.6192190296
 31
0.0
  0
LINE
  5
187
330
1F
100
AcDbEntity
  8
SK3
  6
SLD-Dashed
370
    18
100
AcDbLine
 10
9.452395308
 20
-37.6192190296
 30
0.0
 11
9.4677936757
 21
-37.5433314837
 31
0.0
  0
LINE
  5
188
330
1F
100
AcDbEntity
  8
SK3
  6
SLD-Dashed
370
    18
100
AcDbLine
 10
9.4677936757
 20
-37.5433314837
 30
0.0
 11
9.4941294462
 21
-37.4560776336
 31
0.0
  0
LINE
  5
189
330
1F
100
AcDbEntity
  8
SK3
  6
SLD-Dashed
370
    18
100
AcDbLine
 10
9.4941294462
 20
-37.4560776336
 30
0.0
 11
9.5310538088
 21
-37.3548883227
 31
0.0
  0
LINE
  5
18A
330
1F
100
AcDbEntity
  8
SK3
  6
SLD-Dashed
370
    18
100
AcDbLine
 10
9.5310538088
 20
-37.3548883227
 30
0.0
 11
9.6101483509
 21
-37.1681403822
 31
0.0
  0
LINE
  5
18B
330
1F
100
AcDbEntity
  8
SK3
  6
SLD-Dashed
370
    18
100
AcDbLine
 10
9.6101483509
 20
-37.1681403822
 30
0.0
 11
9.7084210519
 21
-36.9623522257
 31
0.0
  0
LINE
  5
18C
330
1F
100
AcDbEntity
  8
SK3
  6
SLD-Dashed
370
    18
100
AcDbLine
 10
9.7084210519
 20
-36.9623522257
 30
0.0
 11
9.9030637158
 21
-36.5993714581
 31
0.0
  0
LINE
  5
18D
330
1F
100
AcDbEntity
  8
SK3
  6
SLD-Dashed
370
    18
100
AcDbLine
 10
9.9030637158
 20
-36.5993714581
 30
0.0
 11
10.1301466607
 21
-36.2256705713
 31
0.0
  0
LINE
  5
18E
330
1F
100
AcDbEntity
  8
SK3
  6
SLD-Dashed
370
    18
100
AcDbLine
 10
10.1301466607
 20
-36.2256705713
 30
0.0
 11
10.4708329413
 21
-35.7468424839
 31
0.0
  0
LINE
  5
18F
330
1F
100
AcDbEntity
  8
SK3
  6
SLD-Dashed
370
    18
100
AcDbLine
 10
10.4708329413
 20
-35.7468424839
 30
0.0
 11
10.8773966474
 21
-35.3005193005
 31
0.0
  0
LINE
  5
190
330
1F
100
AcDbEntity
  8
SK3
  6
SLD-Dashed
370
    18
100
AcDbLine
 10
10.8773966474
 20
-35.3005193005
 30
0.0
 11
11.0848021672
 21
-35.1269369523
 31
0.0
  0
LINE
  5
191
330
1F
100
AcDbEntity
  8
SK3
  6
SLD-Dashed
370
    18
100
AcDbLine
 10
11.0848021672
 20
-35.1269369523
 30
0.0
 11
11.312227106
 21
-34.9793339872
 31
0.0
  0
LINE
  5
192
330
1F
100
AcDbEntity
  8
SK3
  6
SLD-Dashed
370
    18
100
AcDbLine
 10
11.312227106
 20
-34.9793339872
 30
0.0
 11
11.5491676727
 21
-34.8726566159
 31
0.0
  0
LINE
  5
193
330
1F
100
AcDbEntity
  8
SK3
  6
SLD-Dashed
370
    18
100
AcDbLine
 10
11.5491676727
 20
-34.8726566159
 30
0.0
 11
11.8000958315
 21
-34.810754733
 31
0.0
  0
LINE
  5
194
330
1F
100
AcDbEntity
  8
SK3
  6
SLD-Dashed
370
    18
100
AcDbLine
 10
11.8000958315
 20
-34.810754733
 30
0.0
 11
12.0020873962
 21
-34.7982820193
 31
0.0
  0
LINE
  5
195
330
1F
100
AcDbEntity
  8
SK3
  6
SLD-Dashed
370
    18
100
AcDbLine
 10
12.0020873962
 20
-34.7982820193
 30
0.0
 11
12.1948617266
 21
-34.8179786511
 31
0.0
  0
LINE
  5
196
330
1F
100
AcDbEntity
  8
SK3
  6
SLD-Dashed
370
    18
100
AcDbLine
 10
12.1948617266
 20
-34.8179786511
 30
0.0
 11
12.3585376519
 21
-34.8613429978
 31
0.0
  0
LINE
  5
197
330
1F
100
AcDbEntity
  8
SK3
  6
SLD-Dashed
370
    18
100
AcDbLine
 10
12.3585376519
 20
-34.8613429978
 30
0.0
 11
12.5000186462
 21
-34.9235723772
 31
0.0
  0
LINE
  5
198
330
1F
100
AcDbEntity
  8
SK3
  6
SLD-Dashed
370
    18
100
AcDbLine
 10
12.5000186462
 20
-34.9235723772
 30
0.0
 11
12.6204213433
 21
-35.0047055782
 31
0.0
  0
LINE
  5
199
330
1F
100
AcDbEntity
  8
SK3
  6
SLD-Dashed
370
    18
100
AcDbLine
 10
12.6204213433
 20
-35.0047055782
 30
0.0
 11
12.7042394553
 21
-35.0956853241
 31
0.0
  0
LINE
  5
19A
330
1F
100
AcDbEntity
  8
SK3
  6
SLD-Dashed
370
    18
100
AcDbLine
 10
12.7042394553
 20
-35.0956853241
 30
0.0
 11
12.7459466316
 21
-35.1907327306
 31
0.0
  0
LINE
  5
19B
330
1F
100
AcDbEntity
  8
SK3
  6
SLD-Dashed
370
    18
100
AcDbLine
 10
12.7459466316
 20
-35.1907327306
 30
0.0
 11
12.7416446651
 21
-35.2866958897
 31
0.0
  0
LINE
  5
19C
330
1F
100
AcDbEntity
  8
SK3
  6
SLD-Dashed
370
    18
100
AcDbLine
 10
12.7416446651
 20
-35.2866958897
 30
0.0
 11
12.6949075921
 21
-35.3717641916
 31
0.0
  0
LINE
  5
19D
330
1F
100
AcDbEntity
  8
SK3
  6
SLD-Dashed
370
    18
100
AcDbLine
 10
12.6949075921
 20
-35.3717641916
 30
0.0
 11
12.6054093111
 21
-35.4544885425
 31
0.0
  0
LINE
  5
19E
330
1F
100
AcDbEntity
  8
SK3
  6
SLD-Dashed
370
    18
100
AcDbLine
 10
11.1
 20
-39.8624815174
 30
0.0
 11
10.5901219593
 21
-39.8901019519
 31
0.0
  0
LINE
  5
19F
330
1F
100
AcDbEntity
  8
SK3
  6
SLD-Dashed
370
    18
100
AcDbLine
 10
10.5901219593
 20
-39.8901019519
 30
0.0
 11
10.1301543337
 21
-39.970259575
 31
0.0
  0
LINE
  5
1A0
330
1F
100
AcDbEntity
  8
SK3
  6
SLD-Dashed
370
    18
100
AcDbLine
 10
10.1301543337
 20
-39.970259575
 30
0.0
 11
9.7651219593
 21
-40.0951080001
 31
0.0
  0
LINE
  5
1A1
330
1F
100
AcDbEntity
  8
SK3
  6
SLD-Dashed
370
    18
100
AcDbLine
 10
9.7651219593
 20
-40.0951080001
 30
0.0
 11
9.5307567481
 21
-40.2524261933
 31
0.0
  0
LINE
  5
1A2
330
1F
100
AcDbEntity
  8
SK3
  6
SLD-Dashed
370
    18
100
AcDbLine
 10
9.5307567481
 20
-40.2524261933
 30
0.0
 11
9.45
 21
-40.4268147538
 31
0.0
  0
LINE
  5
1A3
330
1F
100
AcDbEntity
  8
SK3
  6
SLD-Dashed
370
    18
100
AcDbLine
 10
9.45
 20
-40.4268147538
 30
0.0
 11
9.5307567481
 21
-40.6012033144
 31
0.0
  0
LINE
  5
1A4
330
1F
100
AcDbEntity
  8
SK3
  6
SLD-Dashed
370
    18
100
AcDbLine
 10
9.5307567481
 20
-40.6012033144
 30
0.0
 11
9.7651219593
 21
-40.7585215076
 31
0.0
  0
LINE
  5
1A5
330
1F
100
AcDbEntity
  8
SK3
  6
SLD-Dashed
370
    18
100
AcDbLine
 10
9.7651219593
 20
-40.7585215076
 30
0.0
 11
10.1301543337
 21
-40.8833699327
 31
0.0
  0
LINE
  5
1A6
330
1F
100
AcDbEntity
  8
SK3
  6
SLD-Dashed
370
    18
100
AcDbLine
 10
10.1301543337
 20
-40.8833699327
 30
0.0
 11
10.5901219593
 21
-40.9635275558
 31
0.0
  0
LINE
  5
1A7
330
1F
100
AcDbEntity
  8
SK3
  6
SLD-Dashed
370
    18
100
AcDbLine
 10
10.5901219593
 20
-40.9635275558
 30
0.0
 11
11.1
 21
-40.9911479903
 31
0.0
  0
LINE
  5
1A8
330
1F
100
AcDbEntity
  8
SK3
  6
SLD-Dashed
370
    18
100
AcDbLine
 10
11.1
 20
-40.9911479903
 30
0.0
 11
11.6098780407
 21
-40.9635275558
 31
0.0
  0
LINE
  5
1A9
330
1F
100
AcDbEntity
  8
SK3
  6
SLD-Dashed
370
    18
100
AcDbLine
 10
11.6098780407
 20
-40.9635275558
 30
0.0
 11
12.0698456663
 21
-40.8833699327
 31
0.0
  0
LINE
  5
1AA
330
1F
100
AcDbEntity
  8
SK3
  6
SLD-Dashed
370
    18
100
AcDbLine
 10
12.0698456663
 20
-40.8833699327
 30
0.0
 11
12.4348780407
 21
-40.7585215076
 31
0.0
  0
LINE
  5
1AB
330
1F
100
AcDbEntity
  8
SK3
  6
SLD-Dashed
370
    18
100
AcDbLine
 10
12.4348780407
 20
-40.7585215076
 30
0.0
 11
12.6692432519
 21
-40.6012033144
 31
0.0
  0
LINE
  5
1AC
330
1F
100
AcDbEntity
  8
SK3
  6
SLD-Dashed
370
    18
100
AcDbLine
 10
12.6692432519
 20
-40.6012033144
 30
0.0
 11
12.75
 21
-40.4268147538
 31
0.0
  0
LINE
  5
1AD
330
1F
100
AcDbEntity
  8
SK3
  6
SLD-Dashed
370
    18
100
AcDbLine
 10
12.75
 20
-40.4268147538
 30
0.0
 11
12.6692432519
 21
-40.2524261933
 31
0.0
  0
LINE
  5
1AE
330
1F
100
AcDbEntity
  8
SK3
  6
SLD-Dashed
370
    18
100
AcDbLine
 10
12.6692432519
 20
-40.2524261933
 30
0.0
 11
12.4348780407
 21
-40.0951080001
 31
0.0
  0
LINE
  5
1AF
330
1F
100
AcDbEntity
  8
SK3
  6
SLD-Dashed
370
    18
100
AcDbLine
 10
12.4348780407
 20
-40.0951080001
 30
0.0
 11
12.0698456663
 21
-39.970259575
 31
0.0
  0
LINE
  5
1B0
330
1F
100
AcDbEntity
  8
SK3
  6
SLD-Dashed
370
    18
100
AcDbLine
 10
12.0698456663
 20
-39.970259575
 30
0.0
 11
11.6098780407
 21
-39.8901019519
 31
0.0
  0
LINE
  5
1B1
330
1F
100
AcDbEntity
  8
SK3
  6
SLD-Dashed
370
    18
100
AcDbLine
 10
11.6098780407
 20
-39.8901019519
 30
0.0
 11
11.1
 21
-39.8624815174
 31
0.0
  0
LINE
  5
1B2
330
1F
100
AcDbEntity
  8
SK3
  6
SLD-Dashed
370
    18
100
AcDbLine
 10
6.2723069743
 20
-40.2901366077
 30
0.0
 11
6.1142161927
 21
-40.3048677605
 31
0.0
  0
LINE
  5
1B3
330
1F
100
AcDbEntity
  8
SK3
  6
SLD-Dashed
370
    18
100
AcDbLine
 10
6.1142161927
 20
-40.3048677605
 30
0.0
 11
5.8693777048
 21
-40.1869853396
 31
0.0
  0
LINE
  5
1B4
330
1F
100
AcDbEntity
  8
SK3
  6
SLD-Dashed
370
    18
100
AcDbLine
 10
5.8693777048
 20
-40.1869853396
 30
0.0
 11
5.5531756131
 21
-39.9438963309
 31
0.0
  0
LINE
  5
1B5
330
1F
100
AcDbEntity
  8
SK3
  6
SLD-Dashed
370
    18
100
AcDbLine
 10
5.5531756131
 20
-39.9438963309
 30
0.0
 11
5.1854780579
 21
-39.590874911
 31
0.0
  0
LINE
  5
1B6
330
1F
100
AcDbEntity
  8
SK3
  6
SLD-Dashed
370
    18
100
AcDbLine
 10
5.1854780579
 20
-39.590874911
 30
0.0
 11
4.789388829
 21
-39.1501027139
 31
0.0
  0
LINE
  5
1B7
330
1F
100
AcDbEntity
  8
SK3
  6
SLD-Dashed
370
    18
100
AcDbLine
 10
4.789388829
 20
-39.1501027139
 30
0.0
 11
4.3897956693
 21
-38.6492750778
 31
0.0
  0
LINE
  5
1B8
330
1F
100
AcDbEntity
  8
SK3
  6
SLD-Dashed
370
    18
100
AcDbLine
 10
4.3897956693
 20
-38.6492750778
 30
0.0
 11
4.0118064866
 21
-38.1198608451
 31
0.0
  0
LINE
  5
1B9
330
1F
100
AcDbEntity
  8
SK3
  6
SLD-Dashed
370
    18
100
AcDbLine
 10
4.0118064866
 20
-38.1198608451
 30
0.0
 11
3.6791717315
 21
-37.595125059
 31
0.0
  0
LINE
  5
1BA
330
1F
100
AcDbEntity
  8
SK3
  6
SLD-Dashed
370
    18
100
AcDbLine
 10
3.6791717315
 20
-37.595125059
 30
0.0
 11
3.4127920689
 21
-37.1080387988
 31
0.0
  0
LINE
  5
1BB
330
1F
100
AcDbEntity
  8
SK3
  6
SLD-Dashed
370
    18
100
AcDbLine
 10
3.4127920689
 20
-37.1080387988
 30
0.0
 11
3.2294051127
 21
-36.6892074856
 31
0.0
  0
LINE
  5
1BC
330
1F
100
AcDbEntity
  8
SK3
  6
SLD-Dashed
370
    18
100
AcDbLine
 10
3.2294051127
 20
-36.6892074856
 30
0.0
 11
3.1405337399
 21
-36.3649478312
 31
0.0
  0
LINE
  5
1BD
330
1F
100
AcDbEntity
  8
SK3
  6
SLD-Dashed
370
    18
100
AcDbLine
 10
3.1405337399
 20
-36.3649478312
 30
0.0
 11
3.1517620655
 21
-36.1556342622
 31
0.0
  0
LINE
  5
1BE
330
1F
100
AcDbEntity
  8
SK3
  6
SLD-Dashed
370
    18
100
AcDbLine
 10
3.1517620655
 20
-36.1556342622
 30
0.0
 11
3.2623845728
 21
-36.07441872
 31
0.0
  0
LINE
  5
1BF
330
1F
100
AcDbEntity
  8
SK3
  6
SLD-Dashed
370
    18
100
AcDbLine
 10
3.2623845728
 20
-36.07441872
 30
0.0
 11
3.4654504425
 21
-36.1264042757
 31
0.0
  0
LINE
  5
1C0
330
1F
100
AcDbEntity
  8
SK3
  6
SLD-Dashed
370
    18
100
AcDbLine
 10
3.4654504425
 20
-36.1264042757
 30
0.0
 11
3.7482002994
 21
-36.3083244857
 31
0.0
  0
LINE
  5
1C1
330
1F
100
AcDbEntity
  8
SK3
  6
SLD-Dashed
370
    18
100
AcDbLine
 10
3.7482002994
 20
-36.3083244857
 30
0.0
 11
4.0928679301
 21
-36.6087486341
 31
0.0
  0
LINE
  5
1C2
330
1F
100
AcDbEntity
  8
SK3
  6
SLD-Dashed
370
    18
100
AcDbLine
 10
4.0928679301
 20
-36.6087486341
 30
0.0
 11
4.4777965997
 21
-37.0087999669
 31
0.0
  0
LINE
  5
1C3
330
1F
100
AcDbEntity
  8
SK3
  6
SLD-Dashed
370
    18
100
AcDbLine
 10
4.4777965997
 20
-37.0087999669
 30
0.0
 11
4.8787998242
 21
-37.4833417875
 31
0.0
  0
LINE
  5
1C4
330
1F
100
AcDbEntity
  8
SK3
  6
SLD-Dashed
370
    18
100
AcDbLine
 10
4.8787998242
 20
-37.4833417875
 30
0.0
 11
5.2706810962
 21
-38.002556888
 31
0.0
  0
LINE
  5
1C5
330
1F
100
AcDbEntity
  8
SK3
  6
SLD-Dashed
370
    18
100
AcDbLine
 10
5.2706810962
 20
-38.002556888
 30
0.0
 11
5.6288170743
 21
-38.5338210742
 31
0.0
  0
LINE
  5
1C6
330
1F
100
AcDbEntity
  8
SK3
  6
SLD-Dashed
370
    18
100
AcDbLine
 10
5.6288170743
 20
-38.5338210742
 30
0.0
 11
5.9307047577
 21
-39.0437530634
 31
0.0
  0
LINE
  5
1C7
330
1F
100
AcDbEntity
  8
SK3
  6
SLD-Dashed
370
    18
100
AcDbLine
 10
5.9307047577
 20
-39.0437530634
 30
0.0
 11
6.1573754331
 21
-39.5003119533
 31
0.0
  0
LINE
  5
1C8
330
1F
100
AcDbEntity
  8
SK3
  6
SLD-Dashed
370
    18
100
AcDbLine
 10
6.1573754331
 20
-39.5003119533
 30
0.0
 11
6.2945865482
 21
-39.8748104697
 31
0.0
  0
LINE
  5
1C9
330
1F
100
AcDbEntity
  8
SK3
  6
SLD-Dashed
370
    18
100
AcDbLine
 10
6.2945865482
 20
-39.8748104697
 30
0.0
 11
6.3337166241
 21
-40.1437174937
 31
0.0
  0
LINE
  5
1CA
330
1F
100
AcDbEntity
  8
SK3
  6
SLD-Dashed
370
    18
100
AcDbLine
 10
6.3337166241
 20
-40.1437174937
 30
0.0
 11
6.2723069743
 21
-40.2901366077
 31
0.0
  0
LINE
  5
1CB
330
1F
100
AcDbEntity
  8
1
  6
SLD-Dashed
370
    18
100
AcDbLine
 10
25.0194780588
 20
-12.4385356777
 30
0.0
 11
25.8605998992
 21
-12.176094961
 31
0.0
  0
LINE
  5
1CC
330
1F
100
AcDbEntity
  8
1
  6
SLD-Dashed
370
    18
100
AcDbLine
 10
25.8605998992
 20
-12.176094961
 30
0.0
 11
26.9515706665
 21
-11.7375760445
 31
0.0
  0
LINE
  5
1CD
330
1F
100
AcDbEntity
  8
1
  6
SLD-Dashed
370
    18
100
AcDbLine
 10
31.4875955426
 20
8.2852552397
 30
0.0
 11
30.7216774773
 21
9.1216774773
 31
0.0
  0
LINE
  5
1CE
330
1F
100
AcDbEntity
  8
1
  6
SLD-Dashed
370
    18
100
AcDbLine
 10
30.7216774773
 20
9.1216774773
 30
0.0
 11
30.1161400282
 21
9.689445754
 31
0.0
  0
LINE
  5
1CF
330
1F
100
AcDbEntity
  8
SK3
  6
SLD-Dashed
370
    18
100
AcDbLine
 10
9.1
 20
46.9644866781
 30
0.0
 11
9.1
 21
43.111859234
 31
0.0
  0
LINE
  5
1D0
330
1F
100
AcDbEntity
  8
SK3
  6
SLD-Dashed
370
    18
100
AcDbLine
 10
13.1
 20
43.111859234
 30
0.0
 11
13.1
 21
46.9636476284
 31
0.0
  0
LINE
  5
1D1
330
1F
100
AcDbEntity
  8
SK3
  6
SLD-Dashed
370
    18
100
AcDbLine
 10
9.5474833261
 20
42.680630019
 30
0.0
 11
9.819173744
 21
42.566209006
 31
0.0
  0
LINE
  5
1D2
330
1F
100
AcDbEntity
  8
SK3
  6
SLD-Dashed
370
    18
100
AcDbLine
 10
12.380826256
 20
42.566209006
 30
0.0
 11
12.6525166739
 21
42.680630019
 31
0.0
  0
LINE
  5
1D3
330
1F
100
AcDbEntity
  8
SK3
  6
SLD-Dashed
370
    18
100
AcDbLine
 10
9.45
 20
42.9219731084
 30
0.0
 11
9.45
 21
37.6466575959
 31
0.0
  0
LINE
  5
1D4
330
1F
100
AcDbEntity
  8
SK3
  6
SLD-Dashed
370
    18
100
AcDbLine
 10
12.75
 20
35.2292695596
 30
0.0
 11
12.75
 21
42.9219731084
 31
0.0
  0
LINE
  5
1D5
330
1F
100
AcDbEntity
  8
SK3
  6
SLD-Dashed
370
    18
100
AcDbLine
 10
3.0
 20
36.2416193657
 30
0.0
 11
3.1949403416
 21
36.0985003391
 31
0.0
  0
LINE
  5
1D6
330
1F
100
AcDbEntity
  8
SK3
  6
SLD-Dashed
370
    18
100
AcDbLine
 10
6.2723069743
 20
40.2901366077
 30
0.0
 11
3.0
 21
42.6925607803
 31
0.0
  0
LINE
  5
1D7
330
1F
100
AcDbEntity
  8
SK3
  6
SLD-Dashed
370
    18
100
AcDbLine
 10
12.6054093111
 20
29.3757168249
 30
0.0
 11
14.0794578574
 21
28.2935170536
 31
0.0
  0
LINE
  5
1D8
330
1F
100
AcDbEntity
  8
SK3
  6
SLD-Dashed
370
    18
100
AcDbLine
 10
3.2837105329
 20
36.2194129238
 30
0.0
 11
9.5991218742
 21
31.5828378759
 31
0.0
  0
LINE
  5
1D9
330
1F
100
AcDbEntity
  8
SK3
  6
SLD-Dashed
370
    18
100
AcDbLine
 10
9.6073492409
 20
37.6555693213
 30
0.0
 11
6.1835367829
 21
40.1692240231
 31
0.0
  0
LINE
  5
1DA
330
1F
100
AcDbEntity
  8
SK3
  6
SLD-Dashed
370
    18
100
AcDbLine
 10
16.9792841073
 20
32.2433281529
 30
0.0
 11
12.6024732478
 21
35.4566441072
 31
0.0
  0
LINE
  5
1DB
330
1F
100
AcDbEntity
  8
SK3
  6
SLD-Dashed
370
    18
100
AcDbLine
 10
-101.8
 20
-13.5178629711
 30
0.0
 11
-100.05
 21
-12.5075
 31
0.0
  0
LINE
  5
1DC
330
1F
100
AcDbEntity
  8
SK3
  6
SLD-Dashed
370
    18
100
AcDbLine
 10
-100.05
 20
12.5075
 30
0.0
 11
-101.8
 21
13.5178629711
 31
0.0
  0
LINE
  5
1DD
330
1F
100
AcDbEntity
  8
SK3
  6
SLD-Dashed
370
    18
100
AcDbLine
 10
14.3249003637
 20
28.3153293831
 30
0.0
 11
16.6894083239
 21
29.4167599163
 31
0.0
  0
LINE
  5
1DE
330
1F
100
AcDbEntity
  8
SK3
  6
SLD-Dashed
370
    18
100
AcDbLine
 10
16.6894083239
 20
29.4167599163
 30
0.0
 11
17.0319937976
 21
32.0026219208
 31
0.0
  0
LINE
  5
1DF
330
1F
100
AcDbEntity
  8
SK3
  6
SLD-Dashed
370
    18
100
AcDbLine
 10
9.45
 20
31.8109690343
 30
0.0
 11
9.45
 21
9.8663980169
 31
0.0
  0
LINE
  5
1E0
330
1F
100
AcDbEntity
  8
SK3
  6
SLD-Dashed
370
    18
100
AcDbLine
 10
12.75
 20
9.8637305233
 30
0.0
 11
12.75
 21
29.3998867967
 31
0.0
  0
LINE
  5
1E1
330
1F
100
AcDbEntity
  8
SK3
  6
SLD-Dashed
370
    18
100
AcDbLine
 10
-88.55
 20
-12.75
 30
0.0
 11
-87.2509618943
 21
-10.5
 31
0.0
  0
LINE
  5
1E2
330
1F
100
AcDbEntity
  8
SK3
  6
SLD-Dashed
370
    18
100
AcDbLine
 10
-87.2509618943
 20
10.5
 30
0.0
 11
-88.55
 21
12.75
 31
0.0
  0
LINE
  5
1E3
330
1F
100
AcDbEntity
  8
SK3
  6
SLD-Dashed
370
    18
100
AcDbLine
 10
-88.55
 20
12.75
 30
0.0
 11
-91.55
 21
12.75
 31
0.0
  0
LINE
  5
1E4
330
1F
100
AcDbEntity
  8
SK3
  6
SLD-Dashed
370
    18
100
AcDbLine
 10
-91.55
 20
-12.75
 30
0.0
 11
-88.55
 21
-12.75
 31
0.0
  0
LINE
  5
1E5
330
1F
100
AcDbEntity
  8
SK3
  6
SLD-Dashed
370
    18
100
AcDbLine
 10
-91.55
 20
12.75
 30
0.0
 11
-91.9700223208
 21
12.5075
 31
0.0
  0
LINE
  5
1E6
330
1F
100
AcDbEntity
  8
SK3
  6
SLD-Dashed
370
    18
100
AcDbLine
 10
-91.9700223208
 20
-12.5075
 30
0.0
 11
-91.55
 21
-12.75
 31
0.0
  0
LINE
  5
1E7
330
1F
100
AcDbEntity
  8
SK3
  6
SLD-Dashed
370
    18
100
AcDbLine
 10
-91.9700223208
 20
12.5075
 30
0.0
 11
-100.05
 21
12.5075
 31
0.0
  0
LINE
  5
1E8
330
1F
100
AcDbEntity
  8
SK3
  6
SLD-Dashed
370
    18
100
AcDbLine
 10
-100.05
 20
-12.5075
 30
0.0
 11
-91.9700223208
 21
-12.5075
 31
0.0
  0
LINE
  5
1E9
330
1F
100
AcDbEntity
  8
SK3
  6
SLD-Dashed
370
    18
100
AcDbLine
 10
-87.2509618943
 20
-10.5
 30
0.0
 11
-39.8
 21
-10.5
 31
0.0
  0
LINE
  5
1EA
330
1F
100
AcDbEntity
  8
SK3
  6
SLD-Dashed
370
    18
100
AcDbLine
 10
-39.8
 20
10.5
 30
0.0
 11
-87.2509618943
 21
10.5
 31
0.0
  0
LINE
  5
1EB
330
1F
100
AcDbEntity
  8
SK3
  6
SLD-Dashed
370
    18
100
AcDbLine
 10
-39.799969957
 20
-10.49995
 30
0.0
 11
32.2
 21
-10.49995
 31
0.0
  0
LINE
  5
1EC
330
1F
100
AcDbEntity
  8
SK3
  6
SLD-Dashed
370
    18
100
AcDbLine
 10
32.2
 20
10.49995
 30
0.0
 11
-39.799969957
 21
10.49995
 31
0.0
  0
LINE
  5
1ED
330
1F
100
AcDbEntity
  8
SK3
  6
SLD-Dashed
370
    18
100
AcDbLine
 10
32.2
 20
-10.49995
 30
0.0
 11
33.7021215045
 21
-8.0
 31
0.0
  0
LINE
  5
1EE
330
1F
100
AcDbEntity
  8
SK3
  6
SLD-Dashed
370
    18
100
AcDbLine
 10
33.7021215045
 20
8.0
 30
0.0
 11
32.2
 21
10.49995
 31
0.0
  0
LINE
  5
1EF
330
1F
100
AcDbEntity
  8
SK3
  6
SLD-Dashed
370
    18
100
AcDbLine
 10
80.0
 20
8.5773502692
 30
0.0
 11
79.0
 21
8.0
 31
0.0
  0
LINE
  5
1F0
330
1F
100
AcDbEntity
  8
SK3
  6
SLD-Dashed
370
    18
100
AcDbLine
 10
79.0
 20
-8.0
 30
0.0
 11
80.0
 21
-8.5773502692
 31
0.0
  0
LINE
  5
1F1
330
1F
100
AcDbEntity
  8
SK3
  6
SLD-Dashed
370
    18
100
AcDbLine
 10
64.1
 20
-24.0
 30
0.0
 11
64.1
 21
-22.3
 31
0.0
  0
LINE
  5
1F2
330
1F
100
AcDbEntity
  8
SK3
  6
SLD-Dashed
370
    18
100
AcDbLine
 10
47.9
 20
-22.3
 30
0.0
 11
47.9
 21
-24.0
 31
0.0
  0
LINE
  5
1F3
330
1F
100
AcDbEntity
  8
SK3
  6
SLD-Dashed
370
    18
100
AcDbLine
 10
79.0
 20
8.0
 30
0.0
 11
33.7021215045
 21
8.0
 31
0.0
  0
LINE
  5
1F4
330
1F
100
AcDbEntity
  8
SK3
  6
SLD-Dashed
370
    18
100
AcDbLine
 10
62.0
 20
-8.0
 30
0.0
 11
79.0
 21
-8.0
 31
0.0
  0
LINE
  5
1F5
330
1F
100
AcDbEntity
  8
SK3
  6
SLD-Dashed
370
    18
100
AcDbLine
 10
33.7021215045
 20
-8.0
 30
0.0
 11
50.0179164371
 21
-8.0
 31
0.0
  0
LINE
  5
1F6
330
1F
100
AcDbEntity
  8
SK3
  6
SLD-Dashed
370
    18
100
AcDbLine
 10
62.0
 20
-22.3
 30
0.0
 11
62.0
 21
-8.0
 31
0.0
  0
LINE
  5
1F7
330
1F
100
AcDbEntity
  8
SK3
  6
SLD-Dashed
370
    18
100
AcDbLine
 10
50.0
 20
-7.986571509
 30
0.0
 11
50.0
 21
-22.3
 31
0.0
  0
LINE
  5
1F8
330
1F
100
AcDbEntity
  8
SK3
  6
SLD-Dashed
370
    18
100
AcDbLine
 10
9.45
 20
-9.8659152165
 30
0.0
 11
9.45
 21
-31.8104777797
 31
0.0
  0
LINE
  5
1F9
330
1F
100
AcDbEntity
  8
SK3
  6
SLD-Dashed
370
    18
100
AcDbLine
 10
12.75
 20
-29.3906982522
 30
0.0
 11
12.75
 21
-9.8665632174
 31
0.0
  0
LINE
  5
1FA
330
1F
100
AcDbEntity
  8
SK3
  6
SLD-Dashed
370
    18
100
AcDbLine
 10
12.6054093111
 20
-35.4544885425
 30
0.0
 11
16.9792841073
 21
-32.2433281529
 31
0.0
  0
LINE
  5
1FB
330
1F
100
AcDbEntity
  8
SK3
  6
SLD-Dashed
370
    18
100
AcDbLine
 10
6.1835367829
 20
-40.1692240231
 30
0.0
 11
9.5992783659
 21
-37.6614947022
 31
0.0
  0
LINE
  5
1FC
330
1F
100
AcDbEntity
  8
SK3
  6
SLD-Dashed
370
    18
100
AcDbLine
 10
9.5954962781
 20
-31.5854996737
 30
0.0
 11
3.2837105329
 21
-36.2194129238
 31
0.0
  0
LINE
  5
1FD
330
1F
100
AcDbEntity
  8
SK3
  6
SLD-Dashed
370
    18
100
AcDbLine
 10
14.0794578574
 20
-28.2935170536
 30
0.0
 11
12.6019331366
 21
-29.3782689222
 31
0.0
  0
LINE
  5
1FE
330
1F
100
AcDbEntity
  8
SK3
  6
SLD-Dashed
370
    18
100
AcDbLine
 10
17.0319937976
 20
-32.0026219208
 30
0.0
 11
16.6894083239
 21
-29.4167599163
 31
0.0
  0
LINE
  5
1FF
330
1F
100
AcDbEntity
  8
SK3
  6
SLD-Dashed
370
    18
100
AcDbLine
 10
16.6894083239
 20
-29.4167599163
 30
0.0
 11
14.3249003637
 21
-28.3153293831
 31
0.0
  0
LINE
  5
200
330
1F
100
AcDbEntity
  8
SK3
  6
SLD-Dashed
370
    18
100
AcDbLine
 10
9.45
 20
-37.6507313784
 30
0.0
 11
9.45
 21
-40.4268147538
 31
0.0
  0
LINE
  5
201
330
1F
100
AcDbEntity
  8
SK3
  6
SLD-Dashed
370
    18
100
AcDbLine
 10
12.75
 20
-40.4268147538
 30
0.0
 11
12.75
 21
-35.2301460392
 31
0.0
  0
LINE
  5
202
330
1F
100
AcDbEntity
  8
SK3
  6
SLD-Dashed
370
    18
100
AcDbLine
 10
3.0
 20
-42.6925607803
 30
0.0
 11
6.2723069743
 21
-40.2901366077
 31
0.0
  0
LINE
  5
203
330
1F
100
AcDbEntity
  8
SK3
  6
SLD-Dashed
370
    18
100
AcDbLine
 10
3.1949403416
 20
-36.0985003391
 30
0.0
 11
3.0
 21
-36.2416193657
 31
0.0
  0
LINE
  5
204
330
1F
100
AcDbEntity
  8
SK3
  6
SLD-Dashed
370
    18
100
AcDbLine
 10
9.7871669195
 20
-40.7686585921
 30
0.0
 11
11.1
 21
-41.3584448321
 31
0.0
  0
LINE
  5
205
330
1F
100
AcDbEntity
  8
SK3
  6
SLD-Dashed
370
    18
100
AcDbLine
 10
11.1
 20
-41.3584448321
 30
0.0
 11
12.4128330805
 21
-40.7686585921
 31
0.0
  0
LINE
  5
206
330
1F
100
AcDbEntity
  8
SK3
  6
SLD-Solid
370
    18
100
AcDbLine
 10
-88.1169872981
 20
12.0
 30
0.0
 11
-55.8
 21
12.0
 31
0.0
  0
LINE
  5
207
330
1F
100
AcDbEntity
  8
SK3
  6
SLD-Solid
370
    18
100
AcDbLine
 10
-88.1169872981
 20
-12.0
 30
0.0
 11
-55.8
 21
-12.0
 31
0.0
  0
LINE
  5
208
330
1F
100
AcDbEntity
  8
SK3
  6
SLD-Dashed
370
    18
100
AcDbLine
 10
-55.8
 20
-12.0
 30
0.0
 11
-55.8
 21
12.0
 31
0.0
  0
LINE
  5
209
330
1F
100
AcDbEntity
  8
SK3
  6
SLD-Solid
370
    18
100
AcDbLine
 10
49.0
 20
-22.3
 30
0.0
 11
49.0
 21
-8.0
 31
0.0
  0
LINE
  5
20A
330
1F
100
AcDbEntity
  8
SK3
  6
SLD-Solid
370
    18
100
AcDbLine
 10
63.0
 20
-22.3
 30
0.0
 11
63.0
 21
-8.0
 31
0.0
  0
LINE
  5
20B
330
1F
100
AcDbEntity
  8
4
  6
SLD-Center
370
    18
100
AcDbLine
 10
82.0
 20
0.0
 30
0.0
 11
0.4210852029
 21
0.0
 31
0.0
  0
LINE
  5
20C
330
1F
100
AcDbEntity
  8
4
  6
SLD-Center
370
    18
100
AcDbLine
 10
56.0
 20
-24.3
 30
0.0
 11
56.0
 21
-6.0
 31
0.0
  0
LINE
  5
20D
330
1F
100
AcDbEntity
  8
SK4
  6
SLD-Center
370
    18
100
AcDbLine
 10
82.3751289574
 20
0.0
 30
0.0
 11
-105.142236057
 21
0.0
 31
0.0
  0
ARC
  5
20E
330
1F
100
AcDbEntity
  8
1
  6
SLD-Solid
370
    25
100
AcDbCircle
 10
37.25
 20
-49.228682327
 30
0.0
 40
0.75
100
AcDbArc
 50
270.0
 51
0.0
  0
ARC
  5
20F
330
1F
100
AcDbEntity
  8
1
  6
SLD-Solid
370
    25
100
AcDbCircle
 10
37.25
 20
49.2286823243
 30
0.0
 40
0.7500000000000142
100
AcDbArc
 50
0.0000002032
 51
89.9999999758
  0
ARC
  5
210
330
1F
100
AcDbEntity
  8
1
  6
SLD-Solid
370
    25
100
AcDbCircle
 10
3.75
 20
-49.228682327
 30
0.0
 40
0.7500000000000004
100
AcDbArc
 50
180.0
 51
270.0
  0
ARC
  5
211
330
1F
100
AcDbEntity
  8
1
  6
SLD-Solid
370
    25
100
AcDbCircle
 10
3.75
 20
49.228682327
 30
0.0
 40
0.7500000000000004
100
AcDbArc
 50
90.0
 51
180.0
  0
ARC
  5
212
330
1F
100
AcDbEntity
  8
1
  6
SLD-Solid
370
    25
100
AcDbCircle
 10
26.33
 20
42.875
 30
0.0
 40
0.3750000000000142
100
AcDbArc
 50
270.0
 51
0.0
  0
ARC
  5
213
330
1F
100
AcDbEntity
  8
1
  6
SLD-Solid
370
    25
100
AcDbCircle
 10
26.33
 20
-42.875
 30
0.0
 40
0.3750000000000142
100
AcDbArc
 50
0.0
 51
90.0
  0
ARC
  5
214
330
1F
100
AcDbEntity
  8
1
  6
SLD-Solid
370
    25
100
AcDbCircle
 10
20.08
 20
42.875
 30
0.0
 40
0.375
100
AcDbArc
 50
180.0
 51
270.0
  0
ARC
  5
215
330
1F
100
AcDbEntity
  8
1
  6
SLD-Solid
370
    25
100
AcDbCircle
 10
20.08
 20
-42.875
 30
0.0
 40
0.375
100
AcDbArc
 50
90.0
 51
180.0
  0
ARC
  5
216
330
1F
100
AcDbEntity
  8
1
  6
SLD-Solid
370
    25
100
AcDbCircle
 10
2.25
 20
35.5
 30
0.0
 40
0.7500000000000009
100
AcDbArc
 50
270.0
 51
0.0
  0
ARC
  5
217
330
1F
100
AcDbEntity
  8
1
  6
SLD-Solid
370
    25
100
AcDbCircle
 10
2.25
 20
-35.5
 30
0.0
 40
0.7500000000000009
100
AcDbArc
 50
0.0
 51
90.0
  0
ARC
  5
218
330
1F
100
AcDbEntity
  8
1
  6
SLD-Solid
370
    25
100
AcDbCircle
 10
0.7040707856
 20
35.5
 30
0.0
 40
0.7500000000000194
100
AcDbArc
 50
240.0
 51
270.0
  0
ARC
  5
219
330
1F
100
AcDbEntity
  8
1
  6
SLD-Solid
370
    25
100
AcDbCircle
 10
0.7040707856
 20
-35.5
 30
0.0
 40
0.7500000000000142
100
AcDbArc
 50
90.0
 51
120.0
  0
ARC
  5
21A
330
1F
100
AcDbEntity
  8
1
  6
SLD-Solid
370
    25
100
AcDbCircle
 10
41.0
 20
-27.0
 30
0.0
 40
3.0
100
AcDbArc
 50
90.0
 51
180.0
  0
ARC
  5
21B
330
1F
100
AcDbEntity
  8
1
  6
SLD-Solid
370
    25
100
AcDbCircle
 10
41.0
 20
27.0
 30
0.0
 40
3.0
100
AcDbArc
 50
180.0
 51
270.0
  0
ARC
  5
21C
330
1F
100
AcDbEntity
  8
SK1
  6
SLD-Solid
370
    25
100
AcDbCircle
 10
-100.8
 20
19.2132836634
 30
0.0
 40
1.000000000000009
100
AcDbArc
 50
98.2977777778
 51
180.0
  0
ARC
  5
21D
330
1F
100
AcDbEntity
  8
SK1
  6
SLD-Solid
370
    25
100
AcDbCircle
 10
-100.8
 20
-19.2132836634
 30
0.0
 40
1.0
100
AcDbArc
 50
180.0
 51
261.7022222222
  0
CIRCLE
  5
21E
330
1F
100
AcDbEntity
  8
1
  6
SLD-Solid
370
    25
100
AcDbCircle
 10
20.5
 20
0.0
 30
0.0
 40
4.999999999999979
  0
ARC
  5
21F
330
1F
100
AcDbEntity
  8
1
  6
SLD-Dashed
370
    18
100
AcDbCircle
 10
21.6
 20
0.0
 30
0.0
 40
12.90000000000001
100
AcDbArc
 50
308.3396445549
 51
316.7349651759
  0
ARC
  5
220
330
1F
100
AcDbEntity
  8
1
  6
SLD-Dashed
370
    18
100
AcDbCircle
 10
21.6
 20
0.0
 30
0.0
 40
12.89999999999999
100
AcDbArc
 50
63.5380806487
 51
71.9422408851
  0
ARC
  5
221
330
1F
100
AcDbEntity
  8
SK3
  6
SLD-Dashed
370
    18
100
AcDbCircle
 10
56.0
 20
32.2
 30
0.0
 40
12.50000000000002
100
AcDbArc
 50
220.9905698088
 51
318.9497963718
  0
SPLINE
  5
222
330
1F
100
AcDbEntity
  8
1
  6
SLD-Solid
370
    25
100
AcDbSpline
210
0.0
220
0.0
230
1.0
 70
     8
 71
     3
 72
    31
 73
    27
 74
     0
 42
0.000000001
 43
0.00000001
 40
0.0
 40
0.0
 40
0.0
 40
0.0
 40
0.0156299919103018
 40
0.0312611152574575
 40
0.0469036958041278
 40
0.0625680366519142
 40
0.0936299720058784
 40
0.1247049179464702
 40
0.1558339923684398
 40
0.1869705556223608
 40
0.2497987770515659
 40
0.3121643376927924
 40
0.3743966664430965
 40
0.4372018282094711
 40
0.5000178682537106
 40
0.5624441380575521
 40
0.6252062096388246
 40
0.6880556331759374
 40
0.750402278891261
 40
0.8129367420855181
 40
0.8442931371998452
 40
0.8756529736403952
 40
0.906735515127694
 40
0.9377975042400196
 40
0.968920619202515
 40
1.0
 40
1.0
 40
1.0
 40
1.0
 10
30.7300000003142
 20
10.30178929195606
 30
0.0
 10
30.81802133992634
 20
10.22015632655034
 30
0.0
 10
30.99407039091248
 20
10.05688448642392
 30
0.0
 10
31.24994221315231
 20
9.803254606518646
 30
0.0
 10
31.49973198692085
 20
9.5432892397799
 30
0.0
 10
31.82233277667201
 20
9.189095769637133
 30
0.0
 10
32.20754147598001
 20
8.731716257565095
 30
0.0
 10
32.64038082282461
 20
8.159929069107125
 30
0.0
 10
33.04368278303532
 20
7.565647905716546
 30
0.0
 10
33.54253700660558
 20
6.741702229885287
 30
0.0
 10
34.08553770131378
 20
5.663359812007627
 30
0.0
 10
34.60000746906372
 20
4.307495301067478
 30
0.0
 10
34.972744991351
 20
2.90317975653645
 30
0.0
 10
35.19930273753677
 20
1.462162433400388
 30
0.0
 10
35.27521152471763
 20
0.0026667713458259
 30
0.0
 10
35.19971876954256
 20
-1.456473360402333
 30
0.0
 10
34.97385381028942
 20
-2.899053879250692
 30
0.0
 10
34.60019116643787
 20
-4.307643949234816
 30
0.0
 10
34.08445148642419
 20
-5.665530633348563
 30
0.0
 10
33.54169257332787
 20
-6.743160099802075
 30
0.0
 10
33.04219515663711
 20
-7.568140721212903
 30
0.0
 10
32.63663445049161
 20
-8.165137559633418
 30
0.0
 10
32.20245487538656
 20
-8.738244581776037
 30
0.0
 10
31.74000866349538
 20
-9.285860443306259
 30
0.0
 10
31.25174039563833
 20
-9.810606417769167
 30
0.0
 10
30.9038319277567
 20
-10.13813842388183
 30
0.0
 10
30.72999999989187
 20
-10.3017892841402
 30
0.0
  0
SPLINE
  5
223
330
1F
100
AcDbEntity
  8
1
  6
SLD-Solid
370
    25
100
AcDbSpline
210
0.0
220
0.0
230
1.0
 70
     8
 71
     3
 72
     9
 73
     5
 74
     0
 42
0.000000001
 43
0.00000001
 40
0.0
 40
0.0
 40
0.0
 40
0.0
 40
0.50246378268976
 40
1.0
 40
1.0
 40
1.0
 40
1.0
 10
30.72999999989187
 20
-10.30178928414021
 30
0.0
 10
30.64643752334975
 20
-10.18210438828248
 30
0.0
 10
30.48013205135183
 20
-9.943908323250623
 30
0.0
 10
30.31472977268615
 20
-9.704898029127502
 30
0.0
 10
30.23243614862431
 20
-9.5859817514913
 30
0.0
  0
SPLINE
  5
224
330
1F
100
AcDbEntity
  8
1
  6
SLD-Solid
370
    25
100
AcDbSpline
210
0.0
220
0.0
230
1.0
 70
     8
 71
     3
 72
    30
 73
    26
 74
     0
 42
0.000000001
 43
0.00000001
 40
0.0
 40
0.0
 40
0.0
 40
0.0
 40
0.0114576231143894
 40
0.0313181038197402
 40
0.0625127256567985
 40
0.0936688899328239
 40
0.1248686720374335
 40
0.1876770117080301
 40
0.2502254852174332
 40
0.3125016583140379
 40
0.3752092577078844
 40
0.4377772188894246
 40
0.4999846765355447
 40
0.4999998180743346
 40
0.5625938520324275
 40
0.6252041603644598
 40
0.6872935440918437
 40
0.749585376425079
 40
0.8124273759709277
 40
0.874782271014412
 40
0.9059170529113528
 40
0.9371264788216964
 40
0.9684944127011286
 40
0.9885412949539442
 40
1.0
 40
1.0
 40
1.0
 40
1.0
 10
30.23243614862431
 20
-9.5859817514913
 30
0.0
 10
30.2931165444153
 20
-9.530703442585178
 30
0.0
 10
30.45897947394535
 20
-9.379606500399346
 30
0.0
 10
30.78052842643875
 20
-9.067780710370995
 30
0.0
 10
31.18643382644368
 20
-8.640701993444258
 30
0.0
 10
31.62231483808359
 20
-8.130967437444028
 30
0.0
 10
32.16960418890127
 20
-7.419422371307196
 30
0.0
 10
32.78399172696086
 20
-6.475982347087142
 30
0.0
 10
33.39917866933887
 20
-5.272261864390164
 30
0.0
 10
33.88628644407993
 20
-4.008627571313539
 30
0.0
 10
34.23918025968587
 20
-2.697813378656461
 30
0.0
 10
34.45250638228877
 20
-1.355488058534096
 30
0.0
 10
34.49999425214389
 20
-0.4508112828472341
 30
0.0
 10
34.50000578217396
 20
0.4532823723964324
 30
0.0
 10
34.45208045768611
 20
1.361080916081746
 30
0.0
 10
34.2380811340112
 20
2.701902898900273
 30
0.0
 10
33.88602974444349
 20
4.008678231443734
 30
0.0
 10
33.40013786955598
 20
5.270404055483402
 30
0.0
 10
32.78549210427692
 20
6.473269306840328
 30
0.0
 10
32.17219803768987
 20
7.415451390799029
 30
0.0
 10
31.62739022886277
 20
8.124704264239577
 30
0.0
 10
31.1910835895289
 20
8.635604117197202
 30
0.0
 10
30.78333226040339
 20
9.065016601245146
 30
0.0
 10
30.45997720627786
 20
9.378695954363206
 30
0.0
 10
30.29312202803305
 20
9.530698010537215
 30
0.0
 10
30.23243614858007
 20
9.58598175153113
 30
0.0
  0
SPLINE
  5
225
330
1F
100
AcDbEntity
  8
1
  6
SLD-Solid
370
    25
100
AcDbSpline
210
0.0
220
0.0
230
1.0
 70
     8
 71
     3
 72
     9
 73
     5
 74
     0
 42
0.000000001
 43
0.00000001
 40
0.0
 40
0.0
 40
0.0
 40
0.0
 40
0.497536220713669
 40
1.0
 40
1.0
 40
1.0
 40
1.0
 10
30.23243614858007
 20
9.58598175153113
 30
0.0
 10
30.31472977322258
 20
9.704898031444738
 30
0.0
 10
30.48013205192396
 20
9.94390832851022
 30
0.0
 10
30.64643752419896
 20
10.18210439578301
 30
0.0
 10
30.7300000003142
 20
10.30178929195605
 30
0.0
  0
SPLINE
  5
226
330
1F
100
AcDbEntity
  8
1
  6
SLD-Solid
370
    25
100
AcDbSpline
210
0.0
220
0.0
230
1.0
 70
     8
 71
     3
 72
    10
 73
     6
 74
     0
 42
0.000000001
 43
0.00000001
 40
0.0
 40
0.0
 40
0.0
 40
0.0
 40
0.5
 40
0.5
 40
1.0
 40
1.0
 40
1.0
 40
1.0
 10
26.70500000084028
 20
11.84689727236929
 30
0.0
 10
27.31223561356452
 20
11.58523063244752
 30
0.0
 10
27.91047592790075
 20
11.27265781364412
 30
0.0
 10
29.08730088377934
 20
10.52783197524487
 30
0.0
 10
29.66595731763821
 20
10.09611127853392
 30
0.0
 10
30.23243614858007
 20
9.58598175153113
 30
0.0
  0
SPLINE
  5
227
330
1F
100
AcDbEntity
  8
1
  6
SLD-Solid
370
    25
100
AcDbSpline
210
0.0
220
0.0
230
1.0
 70
     8
 71
     3
 72
    10
 73
     6
 74
     0
 42
0.000000001
 43
0.00000001
 40
0.0
 40
0.0
 40
0.0
 40
0.0
 40
0.5
 40
0.5
 40
1.0
 40
1.0
 40
1.0
 40
1.0
 10
30.23243614862431
 20
-9.5859817514913
 30
0.0
 10
29.66595731754745
 20
-10.09611127871057
 30
0.0
 10
29.08730088354552
 20
-10.52783197558365
 30
0.0
 10
27.91047592737003
 20
-11.27265781424047
 30
0.0
 10
27.3122356128799
 20
-11.58523063313845
 30
0.0
 10
26.70499999999715
 20
-11.84689727312853
 30
0.0
  0
SPLINE
  5
228
330
1F
100
AcDbEntity
  8
1
  6
SLD-Solid
370
    25
100
AcDbSpline
210
0.0
220
0.0
230
1.0
 70
     8
 71
     3
 72
    10
 73
     6
 74
     0
 42
0.000000001
 43
0.00000001
 40
0.0
 40
0.0
 40
0.0
 40
0.0
 40
0.5
 40
0.5
 40
1.0
 40
1.0
 40
1.0
 40
1.0
 10
3.750000000000004
 20
-13.85795803413967
 30
0.0
 10
3.553650459150654
 20
-13.85795803413967
 30
0.0
 10
3.358510005927545
 20
-13.83554575288121
 30
0.0
 10
3.08082982229263
 20
-13.75855131940355
 30
0.0
 10
3.000000000000003
 20
-13.70444328602569
 30
0.0
 10
3.000000000000003
 20
-13.65
 30
0.0
  0
SPLINE
  5
229
330
1F
100
AcDbEntity
  8
1
  6
SLD-Solid
370
    25
100
AcDbSpline
210
0.0
220
0.0
230
1.0
 70
     8
 71
     3
 72
     8
 73
     4
 74
     0
 42
0.000000001
 43
0.00000001
 40
0.0
 40
0.0
 40
0.0
 40
0.0
 40
0.0013188854064183
 40
0.0013188854064183
 40
0.0013188854064183
 40
0.0013188854064183
 10
16.23001969424184
 20
-12.9
 30
0.0
 10
16.04753937863331
 20
-13.21963364267906
 30
0.0
 10
15.86418062995508
 20
-13.53894782528742
 30
0.0
 10
15.68000000000003
 20
-13.85795803413961
 30
0.0
  0
SPLINE
  5
22A
330
1F
100
AcDbEntity
  8
1
  6
SLD-Solid
370
    25
100
AcDbSpline
210
0.0
220
0.0
230
1.0
 70
     8
 71
     3
 72
    10
 73
     6
 74
     0
 42
0.000000001
 43
0.00000001
 40
0.0
 40
0.0
 40
0.0
 40
0.0
 40
0.5
 40
0.5
 40
1.0
 40
1.0
 40
1.0
 40
1.0
 10
2.999999999999975
 20
13.65000000000005
 30
0.0
 10
2.999999999999975
 20
13.70444328602574
 30
0.0
 10
3.080829822292601
 20
13.75855131940358
 30
0.0
 10
3.358510005927488
 20
13.83554575288127
 30
0.0
 10
3.553650459150568
 20
13.8579580341397
 30
0.0
 10
3.749999999999931
 20
13.85795803413969
 30
0.0
  0
SPLINE
  5
22B
330
1F
100
AcDbEntity
  8
1
  6
SLD-Solid
370
    25
100
AcDbSpline
210
0.0
220
0.0
230
1.0
 70
     8
 71
     3
 72
     8
 73
     4
 74
     0
 42
0.000000001
 43
0.00000001
 40
0.0
 40
0.0
 40
0.0
 40
0.0
 40
0.0013188854064185
 40
0.0013188854064185
 40
0.0013188854064185
 40
0.0013188854064185
 10
15.68000000000001
 20
13.85795803413969
 30
0.0
 10
15.86418062995509
 20
13.53894782528745
 30
0.0
 10
16.04753937863335
 20
13.21963364267905
 30
0.0
 10
16.23001969424193
 20
12.89999999999996
 30
0.0
  0
SPLINE
  5
22C
330
1F
100
AcDbEntity
  8
1
  6
SLD-Solid
370
    25
100
AcDbSpline
210
0.0
220
0.0
230
1.0
 70
     8
 71
     3
 72
    32
 73
    28
 74
     0
 42
0.000000001
 43
0.00000001
 40
0.5000000000000063
 40
0.5000000000000063
 40
0.5000000000000063
 40
0.5000000000000063
 40
0.5625000000000063
 40
0.5625000000000063
 40
0.6250000000000062
 40
0.6250000000000062
 40
0.6562500000000057
 40
0.6562500000000057
 40
0.6875000000000051
 40
0.6875000000000051
 40
0.7187500000000046
 40
0.7187500000000046
 40
0.750000000000004
 40
0.750000000000004
 40
0.7812500000000036
 40
0.7812500000000036
 40
0.812500000000003
 40
0.812500000000003
 40
0.8437500000000024
 40
0.8437500000000024
 40
0.8750000000000019
 40
0.8750000000000019
 40
0.9062500000000013
 40
0.9062500000000013
 40
0.9375000000000008
 40
0.9375000000000008
 40
1.0
 40
1.0
 40
1.0
 40
1.0
 10
11.10071146249392
 20
46.24293993692538
 30
0.0
 10
10.83966036263014
 20
46.24290468071936
 30
0.0
 10
10.57654432887646
 20
46.2628313006455
 30
0.0
 10
10.0950396931868
 20
46.3378480575818
 30
0.0
 10
9.871736797758935
 20
46.3936862129957
 30
0.0
 10
9.594869119672236
 20
46.49555476197274
 30
0.0
 10
9.51035580802792
 20
46.53319066240618
 30
0.0
 10
9.364898225395851
 20
46.61211139901827
 30
0.0
 10
9.303391160574353
 20
46.65344765224853
 30
0.0
 10
9.202887905830876
 20
46.73965007660369
 30
0.0
 10
9.164237099226021
 20
46.78455822929223
 30
0.0
 10
9.113189380564435
 20
46.87388294420761
 30
0.0
 10
9.10013437108692
 20
46.91878509458411
 30
0.0
 10
9.099867672658371
 20
47.00902982582041
 30
0.0
 10
9.112745529051406
 20
47.05316763831313
 30
0.0
 10
9.163318778191181
 20
47.1387265703648
 30
0.0
 10
9.201564549821601
 20
47.1806977132402
 30
0.0
 10
9.301851471514258
 20
47.2601835783914
 30
0.0
 10
9.363213060780057
 20
47.29742937389354
 30
0.0
 10
9.508037288393695
 20
47.36723524195035
 30
0.0
 10
9.592426282888006
 20
47.39998657776513
 30
0.0
 10
9.776893191111732
 20
47.45826780616676
 30
0.0
 10
9.877477150479347
 20
47.48415678629295
 30
0.0
 10
10.09565052704874
 20
47.52959536402749
 30
0.0
 10
10.21229123388059
 20
47.54884237695548
 30
0.0
 10
10.57316681370775
 20
47.59491735537485
 30
0.0
 10
10.83571231733928
 20
47.61102046218485
 30
0.0
 10
11.1
 20
47.61102046218486
 30
0.0
  0
SPLINE
  5
22D
330
1F
100
AcDbEntity
  8
1
  6
SLD-Solid
370
    25
100
AcDbSpline
210
0.0
220
0.0
230
1.0
 70
     8
 71
     3
 72
    34
 73
    30
 74
     0
 42
0.000000001
 43
0.00000001
 40
0.0
 40
0.0
 40
0.0
 40
0.0
 40
0.0312500000000007
 40
0.0312500000000007
 40
0.0625000000000013
 40
0.0625000000000013
 40
0.093750000000002
 40
0.093750000000002
 40
0.1250000000000027
 40
0.1250000000000027
 40
0.1875000000000038
 40
0.1875000000000038
 40
0.250000000000005
 40
0.250000000000005
 40
0.2812500000000052
 40
0.2812500000000052
 40
0.3125000000000053
 40
0.3125000000000053
 40
0.3437500000000055
 40
0.3437500000000055
 40
0.3750000000000057
 40
0.3750000000000057
 40
0.4062500000000059
 40
0.4062500000000059
 40
0.4375000000000061
 40
0.4375000000000061
 40
0.4687500000000062
 40
0.4687500000000062
 40
0.5000000000000063
 40
0.5000000000000063
 40
0.5000000000000063
 40
0.5000000000000063
 10
11.1
 20
47.61102046218486
 30
0.0
 10
11.23214384133038
 20
47.61102046218486
 30
0.0
 10
11.36207683011832
 20
47.60707775994187
 30
0.0
 10
11.61770274340579
 20
47.5915758354741
 30
0.0
 10
11.74472034796746
 20
47.57982745159403
 30
0.0
 10
11.98691872226756
 20
47.54898133906418
 30
0.0
 10
12.10178825693582
 20
47.53003810633189
 30
0.0
 10
12.3191838976514
 20
47.48494043179043
 30
0.0
 10
12.42210399098251
 20
47.45854159182393
 30
0.0
 10
12.69882146131235
 20
47.37124279569227
 30
0.0
 10
12.8478254923194
 20
47.29985068225716
 30
0.0
 10
13.04732370421205
 20
47.14216623040048
 30
0.0
 10
13.09986054057427
 20
47.05418872376661
 30
0.0
 10
13.10006930284501
 20
46.92035145215261
 30
0.0
 10
13.08708888085487
 20
46.87454231371449
 30
0.0
 10
13.03607100299482
 20
46.78492686228006
 30
0.0
 10
12.99832227536034
 20
46.74090637299761
 30
0.0
 10
12.89820560779055
 20
46.65460492149248
 30
0.0
 10
12.83559212600233
 20
46.61244003049263
 30
0.0
 10
12.69084705245928
 20
46.53378144217984
 30
0.0
 10
12.60821628179985
 20
46.49678850176285
 30
0.0
 10
12.42162673177076
 20
46.42794131645881
 30
0.0
 10
12.32044387441547
 20
46.39713531384614
 30
0.0
 10
12.10388934784859
 20
46.34304900107738
 30
0.0
 10
11.98703949363669
 20
46.31952416888133
 30
0.0
 10
11.74469982813359
 20
46.28167360529466
 30
0.0
 10
11.62003428466964
 20
46.26734814958861
 30
0.0
 10
11.36379198463242
 20
46.24794534725473
 30
0.0
 10
11.23123701242582
 20
46.24295756502841
 30
0.0
 10
11.10071146249392
 20
46.24293993692538
 30
0.0
  0
SPLINE
  5
22E
330
1F
100
AcDbEntity
  8
1
  6
SLD-Solid
370
    25
100
AcDbSpline
210
0.0
220
0.0
230
1.0
 70
    24
 71
     3
 72
     8
 73
     4
 74
     0
 42
0.000000001
 43
0.00000001
 40
0.0
 40
0.0
 40
0.0
 40
0.0
 40
1.0
 40
1.0
 40
1.0
 40
1.0
 10
19.705
 20
-12.9
 30
0.0
 10
18.55198828581109
 20
-12.9
 30
0.0
 10
17.39299087975339
 20
-12.9
 30
0.0
 10
16.23001969424184
 20
-12.9
 30
0.0
  0
SPLINE
  5
22F
330
1F
100
AcDbEntity
  8
1
  6
SLD-Solid
370
    25
100
AcDbSpline
210
0.0
220
0.0
230
1.0
 70
    24
 71
     3
 72
     8
 73
     4
 74
     0
 42
0.000000001
 43
0.00000001
 40
0.0
 40
0.0
 40
0.0
 40
0.0
 40
1.0
 40
1.0
 40
1.0
 40
1.0
 10
16.23001969424192
 20
12.89999999999997
 30
0.0
 10
17.3929917409769
 20
12.89999999999998
 30
0.0
 10
18.55200333802345
 20
12.89999999999998
 30
0.0
 10
19.70500000000001
 20
12.9
 30
0.0
  0
SPLINE
  5
230
330
1F
100
AcDbEntity
  8
1
  6
SLD-Solid
370
    25
100
AcDbSpline
210
0.0
220
0.0
230
1.0
 70
     8
 71
     3
 72
    10
 73
     6
 74
     0
 42
0.000000001
 43
0.00000001
 40
0.0
 40
0.0
 40
0.0
 40
0.0
 40
0.5
 40
0.5
 40
1.0
 40
1.0
 40
1.0
 40
1.0
 10
26.32999999999758
 20
-12.00154573378192
 30
0.0
 10
25.57238485927987
 20
-12.30013390692936
 30
0.0
 10
24.79922683720095
 20
-12.52272939882614
 30
0.0
 10
23.22275585238243
 20
-12.82265445980897
 30
0.0
 10
22.41944729352316
 20
-12.90000000000246
 30
0.0
 10
21.59999999999759
 20
-12.90000000000246
 30
0.0
  0
SPLINE
  5
231
330
1F
100
AcDbEntity
  8
1
  6
SLD-Solid
370
    25
100
AcDbSpline
210
0.0
220
0.0
230
1.0
 70
     8
 71
     3
 72
    10
 73
     6
 74
     0
 42
0.000000001
 43
0.00000001
 40
0.0
 40
0.0
 40
0.0
 40
0.0
 40
0.5
 40
0.5
 40
1.0
 40
1.0
 40
1.0
 40
1.0
 10
21.60000000084036
 20
12.89999999924318
 30
0.0
 10
22.41944729436593
 20
12.89999999924318
 30
0.0
 10
23.22275585322519
 20
12.8226544590497
 30
0.0
 10
24.79922683804373
 20
12.52272939806687
 30
0.0
 10
25.57238486012267
 20
12.30013390617009
 30
0.0
 10
26.33000000084035
 20
12.00154573302265
 30
0.0
  0
SPLINE
  5
232
330
1F
100
AcDbEntity
  8
1
  6
SLD-Solid
370
    25
100
AcDbSpline
210
0.0
220
0.0
230
1.0
 70
     8
 71
     3
 72
     8
 73
     4
 74
     0
 42
0.000000001
 43
0.00000001
 40
0.0
 40
0.0
 40
0.0
 40
0.0
 40
0.5
 40
0.5
 40
0.5
 40
0.5
 10
26.33000000084035
 20
12.00154573302265
 30
0.0
 10
26.43105474692858
 20
11.96171845080416
 30
0.0
 10
26.52423861806966
 20
11.92339812533977
 30
0.0
 10
26.59292327541013
 20
11.8945667073776
 30
0.0
  0
SPLINE
  5
233
330
1F
100
AcDbEntity
  8
1
  6
SLD-Solid
370
    25
100
AcDbSpline
210
0.0
220
0.0
230
1.0
 70
     8
 71
     2
 72
     6
 73
     3
 74
     0
 42
0.000000001
 43
0.00000001
 40
0.5
 40
0.5
 40
0.5
 40
1.0
 40
1.0
 40
1.0
 10
26.59292327541013
 20
11.8945667073776
 30
0.0
 10
26.66160793275063
 20
11.86573528941542
 30
0.0
 10
26.70500000084028
 20
11.84689727236929
 30
0.0
  0
SPLINE
  5
234
330
1F
100
AcDbEntity
  8
1
  6
SLD-Solid
370
    25
100
AcDbSpline
210
0.0
220
0.0
230
1.0
 70
     8
 71
     2
 72
     6
 73
     3
 74
     0
 42
0.000000001
 43
0.00000001
 40
0.0
 40
0.0
 40
0.0
 40
0.5
 40
0.5
 40
0.5
 10
26.70499999999715
 20
-11.84689727312853
 30
0.0
 10
26.66092467021294
 20
-11.86602409219072
 30
0.0
 10
26.59262758108266
 20
-11.89469082560139
 30
0.0
  0
SPLINE
  5
235
330
1F
100
AcDbEntity
  8
1
  6
SLD-Solid
370
    25
100
AcDbSpline
210
0.0
220
0.0
230
1.0
 70
     8
 71
     3
 72
     8
 73
     4
 74
     0
 42
0.000000001
 43
0.00000001
 40
0.5
 40
0.5
 40
0.5
 40
0.5
 40
1.0
 40
1.0
 40
1.0
 40
1.0
 10
26.59262758108266
 20
-11.89469082560139
 30
0.0
 10
26.52433049195235
 20
-11.92335755901205
 30
0.0
 10
26.43081087714877
 20
-11.96181456418908
 30
0.0
 10
26.32999999999758
 20
-12.00154573378192
 30
0.0
  0
SPLINE
  5
236
330
1F
100
AcDbEntity
  8
1
  6
SLD-Solid
370
    25
100
AcDbSpline
210
0.0
220
0.0
230
1.0
 70
    24
 71
     2
 72
     6
 73
     3
 74
     0
 42
0.000000001
 43
0.00000001
 40
0.0
 40
0.0
 40
0.0
 40
0.5
 40
0.5
 40
0.5
 10
19.705
 20
12.9
 30
0.0
 10
19.74338373915058
 20
12.9
 30
0.0
 10
19.81143937166967
 20
12.9
 30
0.0
  0
SPLINE
  5
237
330
1F
100
AcDbEntity
  8
1
  6
SLD-Solid
370
    25
100
AcDbSpline
210
0.0
220
0.0
230
1.0
 70
    24
 71
     3
 72
     8
 73
     4
 74
     0
 42
0.000000001
 43
0.00000001
 40
0.5
 40
0.5
 40
0.5
 40
0.5
 40
1.0
 40
1.0
 40
1.0
 40
1.0
 10
19.8114393716697
 20
12.9
 30
0.0
 10
19.87949500418879
 20
12.89999999980822
 30
0.0
 10
19.97908463495332
 20
12.89999999952757
 30
0.0
 10
20.08000000000002
 20
12.89999999924318
 30
0.0
  0
SPLINE
  5
238
330
1F
100
AcDbEntity
  8
1
  6
SLD-Solid
370
    25
100
AcDbSpline
210
0.0
220
0.0
230
1.0
 70
    24
 71
     3
 72
     8
 73
     4
 74
     0
 42
0.000000001
 43
0.00000001
 40
0.0
 40
0.0
 40
0.0
 40
0.0
 40
0.5
 40
0.5
 40
0.5
 40
0.5
 10
20.07999999999999
 20
-12.90000000000246
 30
0.0
 10
19.9798895666646
 20
-12.90000000000153
 30
0.0
 10
19.87972107531738
 20
-12.90000000000063
 30
0.0
 10
19.81145023067701
 20
-12.9
 30
0.0
  0
SPLINE
  5
239
330
1F
100
AcDbEntity
  8
1
  6
SLD-Solid
370
    25
100
AcDbSpline
210
0.0
220
0.0
230
1.0
 70
    24
 71
     2
 72
     6
 73
     3
 74
     0
 42
0.000000001
 43
0.00000001
 40
0.5
 40
0.5
 40
0.5
 40
1.0
 40
1.0
 40
1.0
 10
19.81145023067701
 20
-12.9
 30
0.0
 10
19.74317938603662
 20
-12.90000000000002
 30
0.0
 10
19.705
 20
-12.9
 30
0.0
  0
SPLINE
  5
23A
330
1F
100
AcDbEntity
  8
1
  6
SLD-Solid
370
    25
100
AcDbSpline
210
0.0
220
0.0
230
1.0
 70
     8
 71
     3
 72
    14
 73
    10
 74
     0
 42
0.000000001
 43
0.00000001
 40
0.0
 40
0.0
 40
0.0
 40
0.0
 40
0.2500000000000001
 40
0.2500000000000001
 40
0.5
 40
0.5
 40
0.75
 40
0.75
 40
1.0
 40
1.0
 40
1.0
 40
1.0
 10
3.000000000000003
 20
-3.762977544445732
 30
0.0
 10
3.000000000000003
 20
-3.135929825443071
 30
0.0
 10
2.991678313258084
 20
-2.508737538536393
 30
0.0
 10
2.978060621190687
 20
-1.254405528155693
 30
0.0
 10
2.972842150110358
 20
-0.627275587815064
 30
0.0
 10
2.972841079462663
 20
0.627057791034058
 30
0.0
 10
2.978059537047981
 20
1.254301409576053
 30
0.0
 10
2.99167847680279
 20
2.508756860119407
 30
0.0
 10
2.999999999999975
 20
3.136051595231441
 30
0.0
 10
2.999999999999975
 20
3.762977544445732
 30
0.0
  0
SPLINE
  5
23B
330
1F
100
AcDbEntity
  8
SK3
  6
SLD-Dashed
370
    18
100
AcDbSpline
210
0.0
220
0.0
230
1.0
 70
     8
 71
     3
 72
    14
 73
    10
 74
     0
 42
0.000000001
 43
0.00000001
 40
0.0
 40
0.0
 40
0.0
 40
0.0
 40
0.25
 40
0.25
 40
0.5
 40
0.5
 40
0.75
 40
0.75
 40
1.0
 40
1.0
 40
1.0
 40
1.0
 10
11.1
 20
36.24434567831251
 30
0.0
 10
10.93010255201388
 20
36.3690790053232
 30
0.0
 10
10.77913223948142
 20
36.49899170200795
 30
0.0
 10
10.49714438169092
 20
36.76099286749931
 30
0.0
 10
10.36679773006396
 20
36.8928035839154
 30
0.0
 10
10.12677721550008
 20
37.14140646422412
 30
0.0
 10
10.01579455691602
 20
37.25974951232748
 30
0.0
 10
9.809048307797234
 20
37.4734189335295
 30
0.0
 10
9.71368023764048
 20
37.56868891722047
 30
0.0
 10
9.6336362513018
 20
37.63445251731464
 30
0.0
  0
SPLINE
  5
23C
330
1F
100
AcDbEntity
  8
SK3
  6
SLD-Dashed
370
    18
100
AcDbSpline
210
0.0
220
0.0
230
1.0
 70
     8
 71
     3
 72
    34
 73
    30
 74
     0
 42
0.000000001
 43
0.00000001
 40
0.5000000000000002
 40
0.5000000000000002
 40
0.5000000000000002
 40
0.5000000000000002
 40
0.5312500000000003
 40
0.5312500000000003
 40
0.5625000000000004
 40
0.5625000000000004
 40
0.5937500000000006
 40
0.5937500000000006
 40
0.6250000000000007
 40
0.6250000000000007
 40
0.6562500000000008
 40
0.6562500000000008
 40
0.6875000000000009
 40
0.6875000000000009
 40
0.7500000000000007
 40
0.7500000000000007
 40
0.8125000000000013
 40
0.8125000000000013
 40
0.8437500000000011
 40
0.8437500000000011
 40
0.8750000000000009
 40
0.8750000000000009
 40
0.9062500000000007
 40
0.9062500000000007
 40
0.9375000000000004
 40
0.9375000000000004
 40
0.9687500000000002
 40
0.9687500000000002
 40
1.0
 40
1.0
 40
1.0
 40
1.0
 10
9.613805742161711
 20
32.06281097659475
 30
0.0
 10
9.668881160736303
 20
32.10309805177793
 30
0.0
 10
9.738179283156637
 20
32.14073483518614
 30
0.0
 10
9.898515798149973
 20
32.20110344536893
 30
0.0
 10
9.988902763524528
 20
32.22393554112017
 30
0.0
 10
10.1894569494921
 20
32.24641795601578
 30
0.0
 10
10.29767837600208
 20
32.24530201799808
 30
0.0
 10
10.51807526498122
 20
32.21214772693891
 30
0.0
 10
10.63291658596824
 20
32.17923875118971
 30
0.0
 10
10.85319871140987
 20
32.0850030547948
 30
0.0
 10
10.96108094611137
 20
32.02309673503585
 30
0.0
 10
11.16468749579594
 20
31.88015690790776
 30
0.0
 10
11.26027842069083
 20
31.79975923962913
 30
0.0
 10
11.53398297450221
 20
31.53947932429291
 30
0.0
 10
11.69837034356695
 20
31.34149906618455
 30
0.0
 10
11.99694861504763
 20
30.93451949723768
 30
0.0
 10
12.13420875119767
 20
30.72108106609184
 30
0.0
 10
12.32260730605758
 20
30.39792759977521
 30
0.0
 10
12.38188352391459
 20
30.29060318554873
 30
0.0
 10
12.49280294837551
 20
30.07810222598031
 30
0.0
 10
12.54469006353044
 20
29.972328755619
 30
0.0
 10
12.63491931900843
 20
29.77290420087407
 30
0.0
 10
12.67429072119647
 20
29.67687735577868
 30
0.0
 10
12.73086568636479
 20
29.51167662882576
 30
0.0
 10
12.74803399215493
 20
29.44172730744224
 30
0.0
 10
12.75163319740259
 20
29.34952447988205
 30
0.0
 10
12.73806993948381
 20
29.32639093213395
 30
0.0
 10
12.6867084196995
 20
29.32396546256975
 30
0.0
 10
12.64969993892521
 20
29.34320004830024
 30
0.0
 10
12.60540931107559
 20
29.37571682493555
 30
0.0
  0
SPLINE
  5
23D
330
1F
100
AcDbEntity
  8
SK3
  6
SLD-Dashed
370
    18
100
AcDbSpline
210
0.0
220
0.0
230
1.0
 70
     8
 71
     3
 72
    26
 73
    22
 74
     0
 42
0.000000001
 43
0.00000001
 40
0.0
 40
0.0
 40
0.0
 40
0.0
 40
0.0625
 40
0.0625
 40
0.125
 40
0.125
 40
0.1874999999999999
 40
0.1874999999999999
 40
0.2499999999999999
 40
0.2499999999999999
 40
0.2812500000000003
 40
0.2812500000000003
 40
0.3125000000000007
 40
0.3125000000000007
 40
0.3750000000000003
 40
0.3750000000000003
 40
0.4375
 40
0.4375
 40
0.4687500000000001
 40
0.4687500000000001
 40
0.5000000000000002
 40
0.5000000000000002
 40
0.5000000000000002
 40
0.5000000000000002
 10
12.60540931107558
 20
29.37571682493556
 30
0.0
 10
12.51682805537631
 20
29.44075037820622
 30
0.0
 10
12.40700682775378
 20
29.5505161196287
 30
0.0
 10
12.1591993275916
 20
29.80687692943999
 30
0.0
 10
12.02334522926918
 20
29.95248630818574
 30
0.0
 10
11.72814013646128
 20
30.2540381035831
 30
0.0
 10
11.56591385222426
 20
30.41343063102242
 30
0.0
 10
11.20504729019511
 20
30.72369135776143
 30
0.0
 10
11.00228334192552
 20
30.8760390304081
 30
0.0
 10
10.67487000905186
 20
31.07115716362111
 30
0.0
 10
10.56031472788943
 20
31.13155590588755
 30
0.0
 10
10.33896153134629
 20
31.23732451856055
 30
0.0
 10
10.22949961952679
 20
31.28426500057827
 30
0.0
 10
9.922578697971307
 20
31.41303027982768
 30
0.0
 10
9.751646578307197
 20
31.48319067939763
 30
0.0
 10
9.51745196156617
 20
31.63426232662331
 30
0.0
 10
9.453612055377938
 20
31.71535651469055
 30
0.0
 10
9.448421112414284
 20
31.84603582485066
 30
0.0
 10
9.461345898652635
 20
31.89014951197766
 30
0.0
 10
9.51639061562104
 20
31.9785612869524
 30
0.0
 10
9.558730323587117
 20
32.02252390141155
 30
0.0
 10
9.613805742161711
 20
32.06281097659475
 30
0.0
  0
SPLINE
  5
23E
330
1F
100
AcDbEntity
  8
SK3
  6
SLD-Dashed
370
    18
100
AcDbSpline
210
0.0
220
0.0
230
1.0
 70
     8
 71
     3
 72
    28
 73
    24
 74
     0
 42
0.000000001
 43
0.00000001
 40
0.4999999999999982
 40
0.4999999999999982
 40
0.4999999999999982
 40
0.4999999999999982
 40
0.5624999999999982
 40
0.5624999999999982
 40
0.6249999999999982
 40
0.6249999999999982
 40
0.6562499999999984
 40
0.6562499999999984
 40
0.6874999999999986
 40
0.6874999999999986
 40
0.7499999999999989
 40
0.7499999999999989
 40
0.7812499999999991
 40
0.7812499999999991
 40
0.8124999999999993
 40
0.8124999999999993
 40
0.8437499999999996
 40
0.8437499999999996
 40
0.8749999999999998
 40
0.8749999999999998
 40
0.9374999999999999
 40
0.9374999999999999
 40
1.0
 40
1.0
 40
1.0
 40
1.0
 10
11.10063994677771
 20
9.179805819705157
 30
0.0
 10
10.88511437826824
 20
9.179764731078539
 30
0.0
 10
10.66767832081875
 20
9.20126512292449
 30
0.0
 10
10.27039433374755
 20
9.280173808064257
 30
0.0
 10
10.08661083741966
 20
9.338138102846456
 30
0.0
 10
9.858251824686025
 20
9.440065379806336
 30
0.0
 10
9.788576404990271
 20
9.477149305158465
 30
0.0
 10
9.668865269254923
 20
9.553080163044118
 30
0.0
 10
9.618080695444467
 20
9.592168311290687
 30
0.0
 10
9.49337627265548
 20
9.711752477283813
 30
0.0
 10
9.450181111458011
 20
9.791639621509397
 30
0.0
 10
9.449910292357325
 20
9.90356759643505
 30
0.0
 10
9.460525364944738
 20
9.938682643755143
 30
0.0
 10
9.502361606435278
 20
10.00486157884362
 30
0.0
 10
9.534127008594073
 20
10.0362308651093
 30
0.0
 10
9.616761891656529
 20
10.09321537097387
 30
0.0
 10
9.6673578398907
 20
10.11892320032907
 30
0.0
 10
9.787049538608954
 20
10.16555473396259
 30
0.0
 10
9.856502934081801
 20
10.18644292145535
 30
0.0
 10
10.08415986245242
 20
10.24048736872273
 30
0.0
 10
10.26789811615395
 20
10.26651718042254
 30
0.0
 10
10.66470419067458
 20
10.30022487924511
 30
0.0
 10
10.88162329216495
 20
10.3084722316789
 30
0.0
 10
11.1
 20
10.3084722316789
 30
0.0
  0
SPLINE
  5
23F
330
1F
100
AcDbEntity
  8
SK3
  6
SLD-Dashed
370
    18
100
AcDbSpline
210
0.0
220
0.0
230
1.0
 70
     8
 71
     3
 72
    32
 73
    28
 74
     0
 42
0.000000001
 43
0.00000001
 40
0.0
 40
0.0
 40
0.0
 40
0.0
 40
0.0312499999999997
 40
0.0312499999999997
 40
0.0624999999999994
 40
0.0624999999999994
 40
0.093749999999999
 40
0.093749999999999
 40
0.1249999999999987
 40
0.1249999999999987
 40
0.1874999999999985
 40
0.1874999999999985
 40
0.2499999999999983
 40
0.2499999999999983
 40
0.2812499999999982
 40
0.2812499999999982
 40
0.312499999999998
 40
0.312499999999998
 40
0.3749999999999982
 40
0.3749999999999982
 40
0.4062499999999982
 40
0.4062499999999982
 40
0.4374999999999982
 40
0.4374999999999982
 40
0.4687499999999982
 40
0.4687499999999982
 40
0.4999999999999982
 40
0.4999999999999982
 40
0.4999999999999982
 40
0.4999999999999982
 10
11.1
 20
10.30847223167889
 30
0.0
 10
11.2091883539175
 20
10.3084722316789
 30
0.0
 10
11.31651771305062
 20
10.30642167162259
 30
0.0
 10
11.52762120394274
 20
10.29821030754583
 30
0.0
 10
11.63250189121382
 20
10.29194428668547
 30
0.0
 10
11.83223206661287
 20
10.27502374362118
 30
0.0
 10
11.92693470175489
 20
10.26444756624659
 30
0.0
 10
12.10616276605218
 20
10.23832625336571
 30
0.0
 10
12.19088967371716
 20
10.22264232876813
 30
0.0
 10
12.41879001739918
 20
10.16862580338104
 30
0.0
 10
12.54167185323994
 20
10.12171939803718
 30
0.0
 10
12.70636644254863
 20
10.00846559837558
 30
0.0
 10
12.74987701797389
 20
9.940762454420854
 30
0.0
 10
12.75006109004667
 20
9.830188859982728
 30
0.0
 10
12.73931049884441
 20
9.791131049316713
 30
0.0
 10
12.69714619983561
 20
9.712601504592897
 30
0.0
 10
12.66595101562505
 20
9.672920129814717
 30
0.0
 10
12.54179369836861
 20
9.553356030122217
 30
0.0
 10
12.42075253795669
 20
9.475480834566188
 30
0.0
 10
12.19025712142205
 20
9.37237287459783
 30
0.0
 10
12.10711918455322
 20
9.341110472901647
 30
0.0
 10
11.92862050550955
 20
9.285452754490116
 30
0.0
 10
11.83208682777022
 20
9.260851367286085
 30
0.0
 10
11.63247886509289
 20
9.221112207445634
 30
0.0
 10
11.52963804660005
 20
9.205875681199496
 30
0.0
 10
11.31787187764577
 20
9.18517244604257
 30
0.0
 10
11.20840273103245
 20
9.179826364018457
 30
0.0
 10
11.10063994677771
 20
9.179805819705157
 30
0.0
  0
SPLINE
  5
240
330
1F
100
AcDbEntity
  8
SK3
  6
SLD-Dashed
370
    18
100
AcDbSpline
210
0.0
220
0.0
230
1.0
 70
     8
 71
     3
 72
    28
 73
    24
 74
     0
 42
0.000000001
 43
0.00000001
 40
0.499999999999999
 40
0.499999999999999
 40
0.499999999999999
 40
0.499999999999999
 40
0.562499999999999
 40
0.562499999999999
 40
0.6249999999999989
 40
0.6249999999999989
 40
0.6562499999999989
 40
0.6562499999999989
 40
0.6874999999999988
 40
0.6874999999999988
 40
0.7499999999999989
 40
0.7499999999999989
 40
0.7812499999999989
 40
0.7812499999999989
 40
0.8124999999999989
 40
0.8124999999999989
 40
0.8437499999999988
 40
0.8437499999999988
 40
0.8749999999999987
 40
0.8749999999999987
 40
0.9374999999999993
 40
0.9374999999999993
 40
1.0
 40
1.0
 40
1.0
 40
1.0
 10
11.0993600532223
 20
-10.30847220779006
 30
0.0
 10
11.31488562173177
 20
-10.30848829867284
 30
0.0
 10
11.53232167918125
 20
-10.30038291810947
 30
0.0
 10
11.92960566625245
 20
-10.26682253963408
 30
0.0
 10
12.11338916258038
 20
-10.24091814244865
 30
0.0
 10
12.34174817531397
 20
-10.18693216715291
 30
0.0
 10
12.41142359500977
 20
-10.16604649126496
 30
0.0
 10
12.53113473074509
 20
-10.119611011627
 30
0.0
 10
12.58191930455554
 20
-10.09396314355891
 30
0.0
 10
12.70662372734452
 20
-10.00844657689387
 30
0.0
 10
12.74981888854201
 20
-9.941757957492657
 30
0.0
 10
12.7500897076427
 20
-9.82990996445872
 30
0.0
 10
12.73947463505527
 20
-9.791631368429519
 30
0.0
 10
12.69763839356475
 20
-9.713326598996659
 30
0.0
 10
12.66587299140594
 20
-9.672843473092142
 30
0.0
 10
12.58323810834348
 20
-9.593268717647874
 30
0.0
 10
12.53264216010931
 20
-9.554155622927128
 30
0.0
 10
12.41295046139107
 20
-9.478001434160644
 30
0.0
 10
12.34349706591822
 20
-9.440948896913396
 30
0.0
 10
12.1158401375476
 20
-9.33903025446612
 30
0.0
 10
11.93210188384607
 20
-9.280862582071107
 30
0.0
 10
11.53529580932544
 20
-9.201665512708319
 30
0.0
 10
11.31837670783506
 20
-9.179805758704175
 30
0.0
 10
11.1
 20
-9.179805758704175
 30
0.0
  0
SPLINE
  5
241
330
1F
100
AcDbEntity
  8
SK3
  6
SLD-Dashed
370
    18
100
AcDbSpline
210
0.0
220
0.0
230
1.0
 70
     8
 71
     3
 72
    32
 73
    28
 74
     0
 42
0.000000001
 43
0.00000001
 40
0.0
 40
0.0
 40
0.0
 40
0.0
 40
0.0312499999999999
 40
0.0312499999999999
 40
0.0624999999999999
 40
0.0624999999999999
 40
0.0937499999999998
 40
0.0937499999999998
 40
0.1249999999999997
 40
0.1249999999999997
 40
0.1874999999999999
 40
0.1874999999999999
 40
0.2500000000000002
 40
0.2500000000000002
 40
0.2812500000000002
 40
0.2812500000000002
 40
0.3125000000000002
 40
0.3125000000000002
 40
0.3750000000000001
 40
0.3750000000000001
 40
0.4062499999999998
 40
0.4062499999999998
 40
0.4374999999999995
 40
0.4374999999999995
 40
0.4687499999999992
 40
0.4687499999999992
 40
0.499999999999999
 40
0.499999999999999
 40
0.499999999999999
 40
0.499999999999999
 10
11.1
 20
-9.179805758704175
 30
0.0
 10
10.99081164608247
 20
-9.179805758704175
 30
0.0
 10
10.88348228694935
 20
-9.185095698610867
 30
0.0
 10
10.67237879605723
 20
-9.205623744994146
 30
0.0
 10
10.56749810878617
 20
-9.221113825588823
 30
0.0
 10
10.36776793338712
 20
-9.260883250848783
 30
0.0
 10
10.27306529824508
 20
-9.284980824838133
 30
0.0
 10
10.0938372339478
 20
-9.340759316938257
 30
0.0
 10
10.00911032628281
 20
-9.37266778468559
 30
0.0
 10
9.781209982600792
 20
-9.474579092729897
 30
0.0
 10
9.658328146760041
 20
-9.553409324848335
 30
0.0
 10
9.49363355745135
 20
-9.711670879081078
 30
0.0
 10
9.450122982026091
 20
-9.792652292130319
 30
0.0
 10
9.449938909953326
 20
-9.903280249185977
 30
0.0
 10
9.460689501155583
 20
-9.939134189522623
 30
0.0
 10
9.502853800164385
 20
-10.00544523446515
 30
0.0
 10
9.534048984374932
 20
-10.03617560862046
 30
0.0
 10
9.658206301631402
 20
-10.12179808298895
 30
0.0
 10
9.779247462043312
 20
-10.16814285650726
 30
0.0
 10
10.00974287857795
 20
-10.22280113190021
 30
0.0
 10
10.09288081544681
 20
-10.2381546354989
 30
0.0
 10
10.27137949449045
 20
-10.26423362425849
 30
0.0
 10
10.36791317222979
 20
-10.27503749928643
 30
0.0
 10
10.56752113490711
 20
-10.29194478470054
 30
0.0
 10
10.67036195339996
 20
-10.29810859820633
 30
0.0
 10
10.88212812235423
 20
-10.3063918904809
 30
0.0
 10
10.99159726896756
 20
-10.30846416234867
 30
0.0
 10
11.0993600532223
 20
-10.30847220779006
 30
0.0
  0
SPLINE
  5
242
330
1F
100
AcDbEntity
  8
SK3
  6
SLD-Dashed
370
    18
100
AcDbSpline
210
0.0
220
0.0
230
1.0
 70
     8
 71
     3
 72
    26
 73
    22
 74
     0
 42
0.000000001
 43
0.00000001
 40
0.4999999999999966
 40
0.4999999999999966
 40
0.4999999999999966
 40
0.4999999999999966
 40
0.562499999999997
 40
0.562499999999997
 40
0.6249999999999974
 40
0.6249999999999974
 40
0.6562499999999976
 40
0.6562499999999976
 40
0.6874999999999977
 40
0.6874999999999977
 40
0.7187499999999978
 40
0.7187499999999978
 40
0.7499999999999979
 40
0.7499999999999979
 40
0.8124999999999984
 40
0.8124999999999984
 40
0.874999999999999
 40
0.874999999999999
 40
0.9374999999999996
 40
0.9374999999999996
 40
1.0
 40
1.0
 40
1.0
 40
1.0
 10
11.61369831779574
 20
-31.43458987071579
 30
0.0
 10
11.77817915771352
 20
-31.24188044205916
 30
0.0
 10
11.92581782962322
 20
-31.03685188148984
 30
0.0
 10
12.20116299685256
 20
-30.61274831597198
 30
0.0
 10
12.32736515469926
 20
-30.39519355739397
 30
0.0
 10
12.49374661426345
 20
-30.07622175565614
 30
0.0
 10
12.5455195339626
 20
-29.97060073968973
 30
0.0
 10
12.63570184098393
 20
-29.77106749702008
 30
0.0
 10
12.67501796005851
 20
-29.67499650261713
 30
0.0
 10
12.73124339139554
 20
-29.51032620686441
 30
0.0
 10
12.74823165300573
 20
-29.44066325535371
 30
0.0
 10
12.75149462889749
 20
-29.34900523743124
 30
0.0
 10
12.73778670669284
 20
-29.32611922066646
 30
0.0
 10
12.66016730486989
 20
-29.32323598341124
 30
0.0
 10
12.56496305158957
 20
-29.40123698033912
 30
0.0
 10
12.34815603453728
 20
-29.60831074976817
 30
0.0
 10
12.22247178673941
 20
-29.74170837524677
 30
0.0
 10
11.95176737519449
 20
-30.02581575846274
 30
0.0
 10
11.80602686354768
 20
-30.17801440915272
 30
0.0
 10
11.48008373269933
 20
-30.4900929941407
 30
0.0
 10
11.30247339457478
 20
-30.64765783726652
 30
0.0
 10
11.1
 20
-30.7963073928415
 30
0.0
  0
SPLINE
  5
243
330
1F
100
AcDbEntity
  8
SK3
  6
SLD-Dashed
370
    18
100
AcDbSpline
210
0.0
220
0.0
230
1.0
 70
     8
 71
     3
 72
    34
 73
    30
 74
     0
 42
0.000000001
 43
0.00000001
 40
0.0
 40
0.0
 40
0.0
 40
0.0
 40
0.0312499999999994
 40
0.0312499999999994
 40
0.0624999999999989
 40
0.0624999999999989
 40
0.0937499999999987
 40
0.0937499999999987
 40
0.1249999999999985
 40
0.1249999999999985
 40
0.1562499999999983
 40
0.1562499999999983
 40
0.1874999999999981
 40
0.1874999999999981
 40
0.2187499999999979
 40
0.2187499999999979
 40
0.2499999999999977
 40
0.2499999999999977
 40
0.2812499999999975
 40
0.2812499999999975
 40
0.3124999999999973
 40
0.3124999999999973
 40
0.374999999999997
 40
0.374999999999997
 40
0.4062499999999969
 40
0.4062499999999969
 40
0.4374999999999968
 40
0.4374999999999968
 40
0.4999999999999966
 40
0.4999999999999966
 40
0.4999999999999966
 40
0.4999999999999966
 10
11.1
 20
-30.7963073928415
 30
0.0
 10
10.99876330271261
 20
-30.87063217062898
 30
0.0
 10
10.89375434041334
 20
-30.94070300792379
 30
0.0
 10
10.67482193729478
 20
-31.07119838641705
 30
0.0
 10
10.56065504429782
 20
-31.13138216942539
 30
0.0
 10
10.33933306908851
 20
-31.23715807591856
 30
0.0
 10
10.22886240054302
 20
-31.28453388313672
 30
0.0
 10
10.0249875386661
 20
-31.37006423452739
 30
0.0
 10
9.93088787302096
 20
-31.40873992690078
 30
0.0
 10
9.764076352163546
 20
-31.48458944888351
 30
0.0
 10
9.693022202672056
 20
-31.52097848016948
 30
0.0
 10
9.575536001433168
 20
-31.59682321304021
 30
0.0
 10
9.53015968390121
 20
-31.6357961130883
 30
0.0
 10
9.468538953914294
 20
-31.71660035162582
 30
0.0
 10
9.451799814585938
 20
-31.75936243922391
 30
0.0
 10
9.448480888754677
 20
-31.846157905455
 30
0.0
 10
9.46135422537181
 20
-31.89031367314392
 30
0.0
 10
9.51690660979046
 20
-31.97923784772515
 30
0.0
 10
9.558939125903803
 20
-32.02273028574062
 30
0.0
 10
9.669361385739595
 20
-32.10339534755474
 30
0.0
 10
9.73904698691734
 20
-32.14112589913189
 30
0.0
 10
9.978991200491796
 20
-32.2312738423236
 30
0.0
 10
10.18777179464266
 20
-32.26201965489406
 30
0.0
 10
10.5194699112901
 20
-32.21184508840295
 30
0.0
 10
10.6342589859006
 20
-32.17877958661838
 30
0.0
 10
10.85434718809658
 20
-32.08439532349007
 30
0.0
 10
10.96264418607855
 20
-32.02210819728818
 30
0.0
 10
11.26710738731387
 20
-31.80803424741535
 30
0.0
 10
11.44921747787794
 20
-31.62729929937243
 30
0.0
 10
11.61369831779574
 20
-31.43458987071579
 30
0.0
  0
SPLINE
  5
244
330
1F
100
AcDbEntity
  8
SK3
  6
SLD-Dashed
370
    18
100
AcDbSpline
210
0.0
220
0.0
230
1.0
 70
     8
 71
     3
 72
    22
 73
    18
 74
     0
 42
0.000000001
 43
0.00000001
 40
0.0
 40
0.0
 40
0.0
 40
0.0
 40
0.0563296855874123
 40
0.11419647724311
 40
0.1705547937048082
 40
0.2287952000670337
 40
0.2809342985569236
 40
0.3348211996780101
 40
0.3945735336228389
 40
0.456047973049102
 40
0.5517990264472844
 40
0.6500343806480031
 40
0.7543395202759727
 40
0.8606079513859007
 40
0.9151385968419917
 40
0.9703109848355673
 40
1.0
 40
1.0
 40
1.0
 40
1.0
 10
12.60540931107557
 20
-35.45448854251144
 30
0.0
 10
12.56584089481545
 20
-35.48047918160886
 30
0.0
 10
12.48562433227167
 20
-35.53316968387725
 30
0.0
 10
12.31948603608561
 20
-35.61016928629267
 30
0.0
 10
12.12288729350663
 20
-35.69252802623207
 30
0.0
 10
11.90830459744233
 20
-35.78227902305112
 30
0.0
 10
11.68470419266973
 20
-35.88570020765765
 30
0.0
 10
11.45730983056792
 20
-36.00667845390758
 30
0.0
 10
11.22573266073497
 20
-36.15153271872418
 30
0.0
 10
10.95831118284617
 20
-36.3468746671971
 30
0.0
 10
10.67452088195944
 20
-36.5905825479689
 30
0.0
 10
10.38093703267547
 20
-36.87657653369088
 30
0.0
 10
10.10902652621916
 20
-37.16032236790375
 30
0.0
 10
9.899982558324401
 20
-37.3814141554479
 30
0.0
 10
9.7487890938001
 20
-37.53177299915455
 30
0.0
 10
9.658025689214437
 20
-37.61713954318151
 30
0.0
 10
9.613603962951883
 20
-37.64877036813202
 30
0.0
 10
9.5980628894419
 20
-37.65983650664343
 30
0.0
  0
INSERT
  5
245
330
1F
100
AcDbEntity
  8
80
100
AcDbBlockReference
  2
Block12
 10
-61.7273641656
 20
-130.3356800267
 30
0.0
  0
INSERT
  5
246
330
1F
100
AcDbEntity
  8
81
100
AcDbBlockReference
  2
Block11
 10
-11.6264826505
 20
-130.2676275275
 30
0.0
  0
DIMENSION
  5
247
330
1F
100
AcDbEntity
  8
SK2
100
AcDbDimension
  2
_D
 10
38.0
 20
59.4324888285
 30
0.0
 11
19.2499276806
 21
59.4324888285
 31
0.0
 70
   160
  1
<>
 71
     2
 42
-1.0
  3
SLDDIMSTYLE0
100
AcDbAlignedDimension
 13
0.0
 23
34.925
 33
0.0
 14
38.0
 24
49.228682327
 34
0.0
100
AcDbRotatedDimension
  0
DIMENSION
  5
253
330
1F
100
AcDbEntity
  8
SK2
100
AcDbDimension
  2
_D_1
 10
80.0
 20
59.4324888285
 30
0.0
 11
58.6090514829
 21
59.4324888285
 31
0.0
 70
   160
  1
<>
 71
     2
 42
-1.0
  3
SLDDIMSTYLE0
100
AcDbAlignedDimension
 13
38.0
 23
49.228682327
 33
0.0
 14
80.0
 24
16.4944465005
 34
0.0
 50
0.0
100
AcDbRotatedDimension
  0
DIMENSION
  5
25D
330
1F
100
AcDbEntity
  8
SK2
100
AcDbDimension
  2
_D_2
 10
67.0
 20
33.2738096245
 30
0.0
 11
73.0205460443
 21
33.2738096245
 31
0.0
 70
   160
  1
<>
 71
     2
 42
-1.0
  3
SLDDIMSTYLE0
100
AcDbAlignedDimension
 13
80.0
 23
16.4944465005
 33
0.0
 14
67.0
 24
24.0
 34
0.0
100
AcDbRotatedDimension
  0
DIMENSION
  5
267
330
1F
100
AcDbEntity
  8
2
100
AcDbDimension
  2
_D_3
 10
80.0
 20
68.6364685484
 30
0.0
 11
39.3075158267
 21
68.6364685484
 31
0.0
 70
   160
  1
<>
 71
     2
 42
-1.0
  3
SLDDIMSTYLE0
100
AcDbAlignedDimension
 13
0.0
 23
34.925
 33
0.0
 14
80.0
 24
16.4944465005
 34
0.0
100
AcDbRotatedDimension
  0
DIMENSION
  5
271
330
1F
100
AcDbEntity
  8
SK2
100
AcDbDimension
  2
_D_4
 10
118.1965344155
 20
-24.0
 30
0.0
 11
118.1965344155
 21
-0.9913616032
 31
0.0
 70
   160
  1
%%c<>
 71
     2
 42
-1.0
  3
SLDDIMSTYLE0
100
AcDbAlignedDimension
 13
67.0
 23
24.0
 33
0.0
 14
67.0
 24
-24.0
 34
0.0
 50
90.0
100
AcDbRotatedDimension
  0
DIMENSION
  5
27C
330
1F
100
AcDbEntity
  8
SK2
100
AcDbDimension
  2
_D_5
 10
107.6930846994
 20
-16.4944465005
 30
0.0
 11
107.6930846994
 21
-0.9913616032
 31
0.0
 70
   160
  1
%%c<>
 71
     2
 42
-1.0
  3
SLDDIMSTYLE0
100
AcDbAlignedDimension
 13
80.0
 23
16.4944465005
 33
0.0
 14
80.0
 24
-16.4944465005
 34
0.0
 50
90.0
100
AcDbRotatedDimension
  0
DIMENSION
  5
287
330
1F
100
AcDbEntity
  8
SK2
100
AcDbDimension
  2
_D_6
 10
96.6407612135
 20
8.0
 30
0.0
 11
96.6407612135
 21
-0.9913616032
 31
0.0
 70
   160
  1
%%c<>
 71
     2
 42
-1.0
  3
SLDDIMSTYLE0
100
AcDbAlignedDimension
 13
79.0
 23
-8.0
 33
0.0
 14
79.0
 24
8.0
 34
0.0
 50
90.0
100
AcDbRotatedDimension
  0
DIMENSION
  5
292
330
1F
100
AcDbEntity
  8
SK2
100
AcDbDimension
  2
_D_7
 10
56.0
 20
-36.3358694716
 30
0.0
 11
68.3840160041
 21
-36.3358694716
 31
0.0
 70
   160
  1
<>
 71
     2
 42
-1.0
  3
SLDDIMSTYLE0
100
AcDbAlignedDimension
 13
80.0
 23
-16.4944465005
 33
0.0
 14
56.0
 24
-24.3
 34
0.0
100
AcDbRotatedDimension
  0
DIMENSION
  5
29C
330
1F
100
AcDbEntity
  8
SK2
100
AcDbDimension
  2
_D_8
 10
80.0
 20
-56.8442117768
 30
0.0
 11
56.74551935
 21
-56.8442117768
 31
0.0
 70
   160
  1
<>
 71
     2
 42
-1.0
  3
SLDDIMSTYLE0
100
AcDbAlignedDimension
 13
33.7021215045
 23
-8.0
 33
0.0
 14
80.0
 24
-16.4944465005
 34
0.0
100
AcDbRotatedDimension
  0
DIMENSION
  5
2A6
330
1F
100
AcDbEntity
  8
SK2
100
AcDbDimension
  2
_D_9
 10
-134.9917830615
 20
49.978682327
 30
0.0
 11
-134.9917830615
 21
-0.9913616032
 31
0.0
 70
   160
  1
%%c<>
 71
     2
 42
-1.0
  3
SLDDIMSTYLE0
100
AcDbAlignedDimension
 13
3.75
 23
-49.978682327
 33
0.0
 14
3.75
 24
49.978682327
 34
0.0
 50
90.0
100
AcDbRotatedDimension
  0
DIMENSION
  5
2B1
330
1F
100
AcDbEntity
  8
SK2
100
AcDbDimension
  2
_D_10
 10
-122.1352505272
 20
34.925
 30
0.0
 11
-122.1352505272
 21
-0.9913616032
 31
0.0
 70
   160
  1
%%c<>
 71
     2
 42
-1.0
  3
SLDDIMSTYLE0
100
AcDbAlignedDimension
 13
0.0
 23
-34.925
 33
0.0
 14
0.0
 24
34.925
 34
0.0
 50
90.0
100
AcDbRotatedDimension
  0
DIMENSION
  5
2BC
330
1F
100
AcDbEntity
  8
SK2
100
AcDbDimension
  2
_D_11
 10
-110.9212020594
 20
12.0
 30
0.0
 11
-110.9212020594
 21
0.2969078281
 31
0.0
 70
   160
  1
M<>
 71
     2
 42
-1.0
  3
SLDDIMSTYLE0
100
AcDbAlignedDimension
 13
-88.1169872981
 23
-12.0
 33
0.0
 14
-88.1169872981
 24
12.0
 34
0.0
 50
90.0
100
AcDbRotatedDimension
  0
MTEXT
  5
2C7
330
1F
100
AcDbEntity
  8
SK6
 62
     5
100
AcDbMText
 10
-33.5956308891
 20
44.4342982062
 30
0.0
 40
3.5
 41
0.0
 71
     1
 72
     1
  1
MAS-403 BT50
  7
SLDTEXTSTYLE0
 73
     1
 44
1.0
  0
MTEXT
  5
2C8
330
1F
100
AcDbEntity
  8
SK6
 62
     5
100
AcDbMText
 10
-100.66093898
 20
-53.35816911
 30
0.0
 40
3.5
 41
0.0
 71
     1
 72
     1
  1
A2B20-50 16 080
  7
SLDTEXTSTYLE0
 73
     1
 44
1.0
  0
ENDSEC
  0
SECTION
  2
OBJECTS
  0
DICTIONARY
  5
C
330
0
100
AcDbDictionary
281
     1
  3
ACAD_GROUP
350
D
  3
ACAD_LAYOUT
350
1A
  3
ACAD_MLINESTYLE
350
17
  3
ACAD_PLOTSETTINGS
350
19
  3
ACAD_PLOTSTYLENAME
350
E
  3
ACAD_SCALELIST
350
47
  0
DICTIONARY
  5
D
102
{ACAD_REACTORS
330
C
102
}
330
C
100
AcDbDictionary
281
     1
  0
DICTIONARY
  5
1A
102
{ACAD_REACTORS
330
C
102
}
330
C
100
AcDbDictionary
281
     1
  3
Layout1
350
1E
  3
Layout2
350
26
  3
Model
350
22
  0
DICTIONARY
  5
17
102
{ACAD_REACTORS
330
C
102
}
330
C
100
AcDbDictionary
281
     1
  3
Standard
350
18
  0
DICTIONARY
  5
19
102
{ACAD_REACTORS
330
C
102
}
330
C
100
AcDbDictionary
281
     1
  0
ACDBDICTIONARYWDFLT
  5
E
102
{ACAD_REACTORS
330
C
102
}
330
C
100
AcDbDictionary
281
     1
  3
Normal
350
F
100
AcDbDictionaryWithDefault
340
F
  0
DICTIONARY
  5
47
102
{ACAD_REACTORS
330
C
102
}
330
C
100
AcDbDictionary
281
     1
  3
A0
350
48
  3
A1
350
49
  3
A2
350
4A
  3
A3
350
4B
  3
A4
350
4C
  3
A5
350
4D
  3
A6
350
4E
  3
A7
350
4F
  3
A8
350
50
  3
A9
350
51
  3
B0
350
52
  3
B1
350
53
  3
B2
350
54
  3
B3
350
55
  3
B4
350
56
  3
B5
350
57
  3
B6
350
58
  3
B7
350
59
  3
B8
350
5A
  3
B9
350
5B
  3
C0
350
5C
  3
C1
350
5D
  3
C2
350
5E
  3
C3
350
5F
  3
C4
350
60
  3
C5
350
61
  3
C6
350
62
  3
C7
350
63
  3
C8
350
64
  3
C9
350
65
  3
D0
350
66
  3
D1
350
67
  3
D2
350
68
  0
LAYOUT
  5
1E
102
{ACAD_REACTORS
330
1A
102
}
330
1A
100
AcDbPlotSettings
  1

  2
none_device
  4

  6

 40
0.0
 41
0.0
 42
0.0
 43
0.0
 44
0.0
 45
0.0
 46
0.0
 47
0.0
 48
0.0
 49
0.0
140
0.0
141
0.0
142
1.0
143
1.0
 70
   688
 72
     1
 73
     0
 74
     5
  7

 75
    16
147
1.0
148
0.0
149
0.0
100
AcDbLayout
  1
Layout1
 70
     1
 71
     1
 10
0.0
 20
0.0
 11
420.0
 21
297.0
 12
0.0
 22
0.0
 32
0.0
 14
1.0000000000E+20
 24
1.0000000000E+20
 34
1.0000000000E+20
 15
-1.0000000000E+20
 25
-1.0000000000E+20
 35
-1.0000000000E+20
146
0.0
 13
0.0
 23
0.0
 33
0.0
 16
1.0
 26
0.0
 36
0.0
 17
0.0
 27
1.0
 37
0.0
 76
     0
330
1B
  0
LAYOUT
  5
26
102
{ACAD_REACTORS
330
1A
102
}
330
1A
100
AcDbPlotSettings
  1

  2
none_device
  4

  6

 40
0.0
 41
0.0
 42
0.0
 43
0.0
 44
0.0
 45
0.0
 46
0.0
 47
0.0
 48
0.0
 49
0.0
140
0.0
141
0.0
142
1.0
143
1.0
 70
   688
 72
     1
 73
     0
 74
     5
  7

 75
    16
147
1.0
148
0.0
149
0.0
100
AcDbLayout
  1
Layout2
 70
     1
 71
     2
 10
0.0
 20
0.0
 11
0.0
 21
0.0
 12
0.0
 22
0.0
 32
0.0
 14
0.0
 24
0.0
 34
0.0
 15
0.0
 25
0.0
 35
0.0
146
0.0
 13
0.0
 23
0.0
 33
0.0
 16
1.0
 26
0.0
 36
0.0
 17
0.0
 27
1.0
 37
0.0
 76
     0
330
23
  0
LAYOUT
  5
22
102
{ACAD_REACTORS
330
1A
102
}
330
1A
100
AcDbPlotSettings
  1

  2
none_device
  4
Letter_(8.50_x_11.00_Inches)
  6

 40
6.35
 41
6.35
 42
6.35000508
 43
6.35000508
 44
215.9
 45
279.4
 46
0.0
 47
0.0
 48
0.0
 49
0.0
140
0.0
141
0.0
142
1.0
143
1.0
 70
  1712
 72
     1
 73
     0
 74
     0
  7

 75
     0
147
1.0
148
0.0
149
0.0
100
AcDbLayout
  1
Model
 70
     1
 71
     0
 10
0.0
 20
0.0
 11
297.0
 21
210.0
 12
0.0
 22
0.0
 32
0.0
 14
0.0
 24
0.0
 34
0.0
 15
297.0
 25
210.0
 35
0.0
146
0.0
 13
0.0
 23
0.0
 33
0.0
 16
1.0
 26
0.0
 36
0.0
 17
0.0
 27
1.0
 37
0.0
 76
     0
330
1F
331
29
  0
MLINESTYLE
  5
18
102
{ACAD_REACTORS
330
17
102
}
330
17
100
AcDbMlineStyle
  2
Standard
 70
     0
  3

 62
   256
 51
90.0
 52
90.0
 71
     2
 49
0.5
 62
   256
  6
BYLAYER
 49
-0.5
 62
   256
  6
BYLAYER
  0
ACDBPLACEHOLDER
  5
F
102
{ACAD_REACTORS
330
E
102
}
330
E
  0
SCALE
  5
48
102
{ACAD_REACTORS
330
47
102
}
330
47
100
AcDbScale
 70
     0
300
1:1
140
1.0
141
1.0
290
     1
  0
SCALE
  5
49
102
{ACAD_REACTORS
330
47
102
}
330
47
100
AcDbScale
 70
     0
300
1:2
140
1.0
141
2.0
290
     0
  0
SCALE
  5
4A
102
{ACAD_REACTORS
330
47
102
}
330
47
100
AcDbScale
 70
     0
300
1:4
140
1.0
141
4.0
290
     0
  0
SCALE
  5
4B
102
{ACAD_REACTORS
330
47
102
}
330
47
100
AcDbScale
 70
     0
300
1:5
140
1.0
141
5.0
290
     0
  0
SCALE
  5
4C
102
{ACAD_REACTORS
330
47
102
}
330
47
100
AcDbScale
 70
     0
300
1:8
140
1.0
141
8.0
290
     0
  0
SCALE
  5
4D
102
{ACAD_REACTORS
330
47
102
}
330
47
100
AcDbScale
 70
     0
300
1:10
140
1.0
141
10.0
290
     0
  0
SCALE
  5
4E
102
{ACAD_REACTORS
330
47
102
}
330
47
100
AcDbScale
 70
     0
300
1:16
140
1.0
141
16.0
290
     0
  0
SCALE
  5
4F
102
{ACAD_REACTORS
330
47
102
}
330
47
100
AcDbScale
 70
     0
300
1:20
140
1.0
141
20.0
290
     0
  0
SCALE
  5
50
102
{ACAD_REACTORS
330
47
102
}
330
47
100
AcDbScale
 70
     0
300
1:30
140
1.0
141
30.0
290
     0
  0
SCALE
  5
51
102
{ACAD_REACTORS
330
47
102
}
330
47
100
AcDbScale
 70
     0
300
1:40
140
1.0
141
40.0
290
     0
  0
SCALE
  5
52
102
{ACAD_REACTORS
330
47
102
}
330
47
100
AcDbScale
 70
     0
300
1:50
140
1.0
141
50.0
290
     0
  0
SCALE
  5
53
102
{ACAD_REACTORS
330
47
102
}
330
47
100
AcDbScale
 70
     0
300
1:100
140
1.0
141
100.0
290
     0
  0
SCALE
  5
54
102
{ACAD_REACTORS
330
47
102
}
330
47
100
AcDbScale
 70
     0
300
2:1
140
2.0
141
1.0
290
     0
  0
SCALE
  5
55
102
{ACAD_REACTORS
330
47
102
}
330
47
100
AcDbScale
 70
     0
300
4:1
140
4.0
141
1.0
290
     0
  0
SCALE
  5
56
102
{ACAD_REACTORS
330
47
102
}
330
47
100
AcDbScale
 70
     0
300
8:1
140
8.0
141
1.0
290
     0
  0
SCALE
  5
57
102
{ACAD_REACTORS
330
47
102
}
330
47
100
AcDbScale
 70
     0
300
10:1
140
10.0
141
1.0
290
     0
  0
SCALE
  5
58
102
{ACAD_REACTORS
330
47
102
}
330
47
100
AcDbScale
 70
     0
300
100:1
140
100.0
141
1.0
290
     0
  0
SCALE
  5
59
102
{ACAD_REACTORS
330
47
102
}
330
47
100
AcDbScale
 70
     0
300
1/128" = 1'-0"
140
0.0078125
141
12.0
290
     0
  0
SCALE
  5
5A
102
{ACAD_REACTORS
330
47
102
}
330
47
100
AcDbScale
 70
     0
300
1/64" = 1'-0"
140
0.015625
141
12.0
290
     0
  0
SCALE
  5
5B
102
{ACAD_REACTORS
330
47
102
}
330
47
100
AcDbScale
 70
     0
300
1/32" = 1'-0"
140
0.03125
141
12.0
290
     0
  0
SCALE
  5
5C
102
{ACAD_REACTORS
330
47
102
}
330
47
100
AcDbScale
 70
     0
300
1/16" = 1'-0"
140
0.0625
141
12.0
290
     0
  0
SCALE
  5
5D
102
{ACAD_REACTORS
330
47
102
}
330
47
100
AcDbScale
 70
     0
300
3/32" = 1'-0"
140
0.09375
141
12.0
290
     0
  0
SCALE
  5
5E
102
{ACAD_REACTORS
330
47
102
}
330
47
100
AcDbScale
 70
     0
300
1/8" = 1'-0"
140
0.125
141
12.0
290
     0
  0
SCALE
  5
5F
102
{ACAD_REACTORS
330
47
102
}
330
47
100
AcDbScale
 70
     0
300
3/16" = 1'-0"
140
0.1875
141
12.0
290
     0
  0
SCALE
  5
60
102
{ACAD_REACTORS
330
47
102
}
330
47
100
AcDbScale
 70
     0
300
1/4" = 1'-0"
140
0.25
141
12.0
290
     0
  0
SCALE
  5
61
102
{ACAD_REACTORS
330
47
102
}
330
47
100
AcDbScale
 70
     0
300
3/8" = 1'-0"
140
0.375
141
12.0
290
     0
  0
SCALE
  5
62
102
{ACAD_REACTORS
330
47
102
}
330
47
100
AcDbScale
 70
     0
300
1/2" = 1'-0"
140
0.5
141
12.0
290
     0
  0
SCALE
  5
63
102
{ACAD_REACTORS
330
47
102
}
330
47
100
AcDbScale
 70
     0
300
3/4" = 1'-0"
140
0.75
141
12.0
290
     0
  0
SCALE
  5
64
102
{ACAD_REACTORS
330
47
102
}
330
47
100
AcDbScale
 70
     0
300
1" = 1'-0"
140
1.0
141
12.0
290
     0
  0
SCALE
  5
65
102
{ACAD_REACTORS
330
47
102
}
330
47
100
AcDbScale
 70
     0
300
1-1/2" = 1'-0"
140
1.5
141
12.0
290
     0
  0
SCALE
  5
66
102
{ACAD_REACTORS
330
47
102
}
330
47
100
AcDbScale
 70
     0
300
3" = 1'-0"
140
3.0
141
12.0
290
     0
  0
SCALE
  5
67
102
{ACAD_REACTORS
330
47
102
}
330
47
100
AcDbScale
 70
     0
300
6" = 1'-0"
140
6.0
141
12.0
290
     0
  0
SCALE
  5
68
102
{ACAD_REACTORS
330
47
102
}
330
47
100
AcDbScale
 70
     0
300
1'-0" = 1'-0"
140
12.0
141
12.0
290
     0
  0
ENDSEC
  0
EOF
