  0
SECTION
  2
HEADER
  9
$ACADVER
  1
AC1015
  9
$ACADMAINTVER
 70
     6
  9
$DWGCODEPAGE
  3
ANSI_1250
  9
$INSBASE
 10
0.0
 20
0.0
 30
0.0
  9
$EXTMIN
 10
0.0
 20
0.0
 30
0.0
  9
$EXTMAX
 10
297.0
 20
210.0
 30
0.0
  9
$LIMMIN
 10
0.0
 20
0.0
  9
$LIMMAX
 10
297.0
 20
210.0
  9
$ORTHOMODE
 70
     0
  9
$REGENMODE
 70
     1
  9
$FILLMODE
 70
     1
  9
$QTEXTMODE
 70
     0
  9
$MIRRTEXT
 70
     1
  9
$LTSCALE
 40
1.0
  9
$ATTMODE
 70
     1
  9
$TEXTSIZE
 40
3.5
  9
$TRACEWID
 40
1.0
  9
$TEXTSTYLE
  7
Standard
  9
$CLAYER
  8
0
  9
$CELTYPE
  6
ByLayer
  9
$CECOLOR
 62
   256
  9
$CELTSCALE
 40
1.0
  9
$DISPSILH
 70
     0
  9
$DIMSCALE
 40
1.0
  9
$DIMASZ
 40
3.302
  9
$DIMEXO
 40
1.0
  9
$DIMDLI
 40
3.75
  9
$DIMRND
 40
0.0
  9
$DIMDLE
 40
0.0
  9
$DIMEXE
 40
1.0
  9
$DIMTP
 40
0.0
  9
$DIMTM
 40
0.0
  9
$DIMTXT
 40
3.5
  9
$DIMCEN
 40
2.5
  9
$DIMTSZ
 40
0.0
  9
$DIMTOL
 70
     0
  9
$DIMLIM
 70
     0
  9
$DIMTIH
 70
     1
  9
$DIMTOH
 70
     1
  9
$DIMSE1
 70
     0
  9
$DIMSE2
 70
     0
  9
$DIMTAD
 70
     1
  9
$DIMZIN
 70
     0
  9
$DIMBLK
  1

  9
$DIMASO
 70
     1
  9
$DIMSHO
 70
     1
  9
$DIMPOST
  1

  9
$DIMAPOST
  1

  9
$DIMALT
 70
     0
  9
$DIMALTD
 70
     3
  9
$DIMALTF
 40
0.0393700787
  9
$DIMLFAC
 40
1.0
  9
$DIMTOFL
 70
     1
  9
$DIMTVP
 40
0.0
  9
$DIMTIX
 70
     0
  9
$DIMSOXD
 70
     0
  9
$DIMSAH
 70
     0
  9
$DIMBLK1
  1

  9
$DIMBLK2
  1

  9
$DIMSTYLE
  2
ISO-25
  9
$DIMCLRD
 70
     0
  9
$DIMCLRE
 70
     0
  9
$DIMCLRT
 70
     0
  9
$DIMTFAC
 40
1.0
  9
$DIMGAP
 40
1.524
  9
$DIMJUST
 70
     0
  9
$DIMSD1
 70
     0
  9
$DIMSD2
 70
     0
  9
$DIMTOLJ
 70
     0
  9
$DIMTZIN
 70
     0
  9
$DIMALTZ
 70
     0
  9
$DIMALTTZ
 70
     0
  9
$DIMUPT
 70
     0
  9
$DIMDEC
 70
     2
  9
$DIMTDEC
 70
     2
  9
$DIMALTU
 70
     2
  9
$DIMALTTD
 70
     3
  9
$DIMTXSTY
  7
Standard
  9
$DIMAUNIT
 70
     0
  9
$DIMADEC
 70
     2
  9
$DIMALTRND
 40
0.0
  9
$DIMAZIN
 70
     0
  9
$DIMDSEP
 70
    44
  9
$DIMATFIT
 70
     3
  9
$DIMFRAC
 70
     0
  9
$DIMLDRBLK
  1

  9
$DIMLUNIT
 70
     2
  9
$DIMLWD
 70
    -2
  9
$DIMLWE
 70
    -2
  9
$DIMTMOVE
 70
     0
  9
$LUNITS
 70
     2
  9
$LUPREC
 70
     2
  9
$SKETCHINC
 40
1.0
  9
$FILLETRAD
 40
10.0
  9
$AUNITS
 70
     0
  9
$AUPREC
 70
     2
  9
$MENU
  1
.
  9
$ELEVATION
 40
0.0
  9
$PELEVATION
 40
0.0
  9
$THICKNESS
 40
0.0
  9
$LIMCHECK
 70
     0
  9
$CHAMFERA
 40
0.0
  9
$CHAMFERB
 40
0.0
  9
$CHAMFERC
 40
0.0
  9
$CHAMFERD
 40
0.0
  9
$SKPOLY
 70
     0
  9
$TDCREATE
 40
2459290.478548183
  9
$TDUCREATE
 40
2459290.436881516
  9
$TDUPDATE
 40
2459290.478549294
  9
$TDUUPDATE
 40
2459290.436882627
  9
$TDINDWG
 40
0.0000000116
  9
$TDUSRTIMER
 40
0.0000000116
  9
$USRTIMER
 70
     1
  9
$ANGBASE
 50
0.0
  9
$ANGDIR
 70
     0
  9
$PDMODE
 70
     0
  9
$PDSIZE
 40
-1.0
  9
$PLINEWID
 40
0.0
  9
$SPLFRAME
 70
     0
  9
$SPLINETYPE
 70
     6
  9
$SPLINESEGS
 70
     8
  9
$HANDSEED
  5
2E4
  9
$SURFTAB1
 70
     6
  9
$SURFTAB2
 70
     6
  9
$SURFTYPE
 70
     6
  9
$SURFU
 70
     6
  9
$SURFV
 70
     6
  9
$UCSBASE
  2

  9
$UCSNAME
  2

  9
$UCSORG
 10
0.0
 20
0.0
 30
0.0
  9
$UCSXDIR
 10
1.0
 20
0.0
 30
0.0
  9
$UCSYDIR
 10
0.0
 20
1.0
 30
0.0
  9
$UCSORTHOREF
  2

  9
$UCSORTHOVIEW
 70
     0
  9
$UCSORGTOP
 10
0.0
 20
0.0
 30
0.0
  9
$UCSORGBOTTOM
 10
0.0
 20
0.0
 30
0.0
  9
$UCSORGLEFT
 10
0.0
 20
0.0
 30
0.0
  9
$UCSORGRIGHT
 10
0.0
 20
0.0
 30
0.0
  9
$UCSORGFRONT
 10
0.0
 20
0.0
 30
0.0
  9
$UCSORGBACK
 10
0.0
 20
0.0
 30
0.0
  9
$PUCSBASE
  2

  9
$PUCSNAME
  2

  9
$PUCSORG
 10
0.0
 20
0.0
 30
0.0
  9
$PUCSXDIR
 10
1.0
 20
0.0
 30
0.0
  9
$PUCSYDIR
 10
0.0
 20
1.0
 30
0.0
  9
$PUCSORTHOREF
  2

  9
$PUCSORTHOVIEW
 70
     0
  9
$PUCSORGTOP
 10
0.0
 20
0.0
 30
0.0
  9
$PUCSORGBOTTOM
 10
0.0
 20
0.0
 30
0.0
  9
$PUCSORGLEFT
 10
0.0
 20
0.0
 30
0.0
  9
$PUCSORGRIGHT
 10
0.0
 20
0.0
 30
0.0
  9
$PUCSORGFRONT
 10
0.0
 20
0.0
 30
0.0
  9
$PUCSORGBACK
 10
0.0
 20
0.0
 30
0.0
  9
$USERI1
 70
     0
  9
$USERI2
 70
     0
  9
$USERI3
 70
     0
  9
$USERI4
 70
     0
  9
$USERI5
 70
     0
  9
$USERR1
 40
0.0
  9
$USERR2
 40
0.0
  9
$USERR3
 40
0.0
  9
$USERR4
 40
0.0
  9
$USERR5
 40
0.0
  9
$WORLDVIEW
 70
     1
  9
$SHADEDGE
 70
     3
  9
$SHADEDIF
 70
    70
  9
$TILEMODE
 70
     1
  9
$MAXACTVP
 70
    64
  9
$PINSBASE
 10
0.0
 20
0.0
 30
0.0
  9
$PLIMCHECK
 70
     0
  9
$PEXTMIN
 10
1.0000000000E+20
 20
1.0000000000E+20
 30
1.0000000000E+20
  9
$PEXTMAX
 10
-1.0000000000E+20
 20
-1.0000000000E+20
 30
-1.0000000000E+20
  9
$PLIMMIN
 10
0.0
 20
0.0
  9
$PLIMMAX
 10
420.0
 20
297.0
  9
$UNITMODE
 70
     0
  9
$VISRETAIN
 70
     1
  9
$PLINEGEN
 70
     0
  9
$PSLTSCALE
 70
     1
  9
$TREEDEPTH
 70
  3020
  9
$CMLSTYLE
  2
Standard
  9
$CMLJUST
 70
     0
  9
$CMLSCALE
 40
20.0
  9
$PROXYGRAPHICS
 70
     1
  9
$MEASUREMENT
 70
     1
  9
$CELWEIGHT
370
    -1
  9
$ENDCAPS
280
     0
  9
$JOINSTYLE
280
     0
  9
$LWDISPLAY
290
     1
  9
$INSUNITS
 70
     4
  9
$HYPERLINKBASE
  1

  9
$STYLESHEET
  1

  9
$XEDIT
290
     1
  9
$CEPSNTYPE
380
     0
  9
$PSTYLEMODE
290
     1
  9
$FINGERPRINTGUID
  2
{19CA9790-3230-4AF4-94A8-FE967FB7C2A8}
  9
$VERSIONGUID
  2
{FAEB1C32-E019-11D5-929B-00C0DF256EC4}
  9
$EXTNAMES
290
     1
  9
$PSVPSCALE
 40
0.0
  9
$OLESTARTUP
290
     0
  0
ENDSEC
  0
SECTION
  2
CLASSES
  0
CLASS
  1
ACDBDICTIONARYWDFLT
  2
AcDbDictionaryWithDefault
  3
ObjectDBX Classes
 90
        0
280
     0
281
     0
  0
CLASS
  1
VISUALSTYLE
  2
AcDbVisualStyle
  3
ObjectDBX Classes
 90
     4095
280
     0
281
     0
  0
CLASS
  1
MATERIAL
  2
AcDbMaterial
  3
ObjectDBX Classes
 90
     1153
280
     0
281
     0
  0
CLASS
  1
SCALE
  2
AcDbScale
  3
ObjectDBX Classes
 90
     1153
280
     0
281
     0
  0
CLASS
  1
TABLESTYLE
  2
AcDbTableStyle
  3
ObjectDBX Classes
 90
     4095
280
     0
281
     0
  0
CLASS
  1
MLEADERSTYLE
  2
AcDbMLeaderStyle
  3
ACDB_MLEADERSTYLE_CLASS
 90
     4095
280
     0
281
     0
  0
CLASS
  1
SUN
  2
AcDbSun
  3
SCENEOE
 90
     1153
280
     0
281
     0
  0
CLASS
  1
ACDBPLACEHOLDER
  2
AcDbPlaceHolder
  3
ObjectDBX Classes
 90
        0
280
     0
281
     0
  0
CLASS
  1
LAYOUT
  2
AcDbLayout
  3
ObjectDBX Classes
 90
        0
280
     0
281
     0
  0
ENDSEC
  0
SECTION
  2
TABLES
  0
TABLE
  2
VPORT
  5
8
330
0
100
AcDbSymbolTable
 70
     1
  0
VPORT
  5
29
330
8
100
AcDbSymbolTableRecord
100
AcDbViewportTableRecord
  2
*Active
 70
     0
 10
0.0
 20
0.0
 11
1.0
 21
1.0
 12
148.5
 22
105.0
 13
0.0
 23
0.0
 14
10.0
 24
10.0
 15
10.0
 25
10.0
 16
0.0
 26
0.0
 36
1.0
 17
0.0
 27
0.0
 37
0.0
 40
210.0
 41
1.4142857143
 42
50.0
 43
0.0
 44
0.0
 50
0.0
 51
0.0
 71
     0
 72
  2000
 73
     1
 74
     3
 75
     0
 76
     0
 77
     0
 78
     0
281
     0
 65
     1
110
0.0
120
0.0
130
0.0
111
1.0
121
0.0
131
0.0
112
0.0
122
1.0
132
0.0
 79
     0
146
0.0
  0
ENDTAB
  0
TABLE
  2
LTYPE
  5
5
330
0
100
AcDbSymbolTable
 70
     8
  0
LTYPE
  5
14
330
5
100
AcDbSymbolTableRecord
100
AcDbLinetypeTableRecord
  2
ByBlock
 70
     0
  3

 72
    65
 73
     0
 40
0.0
  0
LTYPE
  5
15
330
5
100
AcDbSymbolTableRecord
100
AcDbLinetypeTableRecord
  2
ByLayer
 70
     0
  3

 72
    65
 73
     0
 40
0.0
  0
LTYPE
  5
16
330
5
100
AcDbSymbolTableRecord
100
AcDbLinetypeTableRecord
  2
Continuous
 70
     0
  3
Solid line
 72
    65
 73
     0
 40
0.0
  0
LTYPE
  5
6E
330
5
100
AcDbSymbolTableRecord
100
AcDbLinetypeTableRecord
  2
SLD-Solid
 70
     0
  3
SolidWorks Line Style
 72
    65
 73
     0
 40
0.0
  0
LTYPE
  5
6F
330
5
100
AcDbSymbolTableRecord
100
AcDbLinetypeTableRecord
  2
SLD-Dashed
 70
     0
  3
SolidWorks Line Style
 72
    65
 73
     2
 40
1.905
 49
1.27
 74
     0
 49
-0.635
 74
     0
  0
LTYPE
  5
70
330
5
100
AcDbSymbolTableRecord
100
AcDbLinetypeTableRecord
  2
SLD-Phantom
 70
     0
  3
SolidWorks Line Style
 72
    65
 73
     6
 40
12.7
 49
6.35
 74
     0
 49
-1.27
 74
     0
 49
1.27
 74
     0
 49
-1.27
 74
     0
 49
1.27
 74
     0
 49
-1.27
 74
     0
  0
LTYPE
  5
71
330
5
100
AcDbSymbolTableRecord
100
AcDbLinetypeTableRecord
  2
SLD-Chain
 70
     0
  3
SolidWorks Line Style
 72
    65
 73
     4
 40
10.16
 49
6.35
 74
     0
 49
-1.27
 74
     0
 49
1.27
 74
     0
 49
-1.27
 74
     0
  0
LTYPE
  5
72
330
5
100
AcDbSymbolTableRecord
100
AcDbLinetypeTableRecord
  2
SLD-Center
 70
     0
  3
SolidWorks Line Style
 72
    65
 73
     4
 40
19.05
 49
15.24
 74
     0
 49
-1.27
 74
     0
 49
1.27
 74
     0
 49
-1.27
 74
     0
  0
LTYPE
  5
73
330
5
100
AcDbSymbolTableRecord
100
AcDbLinetypeTableRecord
  2
SLD-Stitch
 70
     0
  3
SolidWorks Line Style
 72
    65
 73
     2
 40
0.635
 49
0.0
 74
     0
 49
-0.635
 74
     0
  0
LTYPE
  5
74
330
5
100
AcDbSymbolTableRecord
100
AcDbLinetypeTableRecord
  2
SLD-Thin-Thick-Chain
 70
     0
  3
SolidWorks Line Style
 72
    65
 73
     4
 40
10.16
 49
6.35
 74
     0
 49
-1.27
 74
     0
 49
1.27
 74
     0
 49
-1.27
 74
     0
  0
ENDTAB
  0
TABLE
  2
LAYER
  5
2
330
0
100
AcDbSymbolTable
 70
    12
  0
LAYER
  5
10
330
2
100
AcDbSymbolTableRecord
100
AcDbLayerTableRecord
  2
0
 70
     0
 62
     7
  6
Continuous
370
    -3
390
F
  0
LAYER
  5
75
330
2
100
AcDbSymbolTableRecord
100
AcDbLayerTableRecord
  2
SLD-0
 70
     0
 62
   179
  6
SLD-Solid
370
    -3
390
F
  0
LAYER
  5
76
330
2
100
AcDbSymbolTableRecord
100
AcDbLayerTableRecord
  2
80
 70
     0
 62
    -6
  6
SLD-Solid
290
     0
370
    -3
390
F
  0
LAYER
  5
77
330
2
100
AcDbSymbolTableRecord
100
AcDbLayerTableRecord
  2
81
 70
     0
 62
    -3
  6
SLD-Solid
290
     0
370
    -3
390
F
  0
LAYER
  5
78
330
2
100
AcDbSymbolTableRecord
100
AcDbLayerTableRecord
  2
1
 70
     0
 62
     4
  6
SLD-Solid
290
     0
370
    -3
390
F
  0
LAYER
  5
79
330
2
100
AcDbSymbolTableRecord
100
AcDbLayerTableRecord
  2
4
 70
     0
 62
    -2
  6
SLD-Chain
290
     0
370
    -3
390
F
  0
LAYER
  5
7A
330
2
100
AcDbSymbolTableRecord
100
AcDbLayerTableRecord
  2
2
 70
     0
 62
     7
  6
SLD-Solid
290
     0
370
    -3
390
F
  0
LAYER
  5
7B
330
2
100
AcDbSymbolTableRecord
100
AcDbLayerTableRecord
  2
SK3
 70
     0
 62
     1
  6
SLD-Dashed
290
     0
370
    -3
390
F
  0
LAYER
  5
7C
330
2
100
AcDbSymbolTableRecord
100
AcDbLayerTableRecord
  2
SK4
 70
     0
 62
     2
  6
SLD-Chain
290
     0
370
    -3
390
F
  0
LAYER
  5
7D
330
2
100
AcDbSymbolTableRecord
100
AcDbLayerTableRecord
  2
SK2
 70
     0
 62
     7
  6
SLD-Solid
290
     0
370
    -3
390
F
  0
LAYER
  5
7E
330
2
100
AcDbSymbolTableRecord
100
AcDbLayerTableRecord
  2
SK6
 70
     0
 62
     5
  6
SLD-Solid
290
     0
370
    -3
390
F
  0
LAYER
  5
7F
330
2
100
AcDbSymbolTableRecord
100
AcDbLayerTableRecord
  2
SK1
 70
     0
 62
     4
  6
SLD-Solid
370
    -3
390
F
  0
ENDTAB
  0
TABLE
  2
STYLE
  5
3
330
0
100
AcDbSymbolTable
 70
     2
  0
STYLE
  5
11
330
3
100
AcDbSymbolTableRecord
100
AcDbTextStyleTableRecord
  2
Standard
 70
     0
 40
0.0
 41
1.0
 50
0.0
 71
     0
 42
3.5
  3
txt
  4

  0
STYLE
  5
25E
330
3
100
AcDbSymbolTableRecord
100
AcDbTextStyleTableRecord
  2
SLDTEXTSTYLE0
 70
     0
 40
0.0
 41
0.75
 50
0.0
 71
     0
 42
3.5
  3
TXT
  4

  0
ENDTAB
  0
TABLE
  2
VIEW
  5
6
330
0
100
AcDbSymbolTable
 70
     0
  0
ENDTAB
  0
TABLE
  2
UCS
  5
7
330
0
100
AcDbSymbolTable
 70
     0
  0
ENDTAB
  0
TABLE
  2
APPID
  5
9
330
0
100
AcDbSymbolTable
 70
     1
  0
APPID
  5
12
330
9
100
AcDbSymbolTableRecord
100
AcDbRegAppTableRecord
  2
ACAD
 70
     0
  0
ENDTAB
  0
TABLE
  2
DIMSTYLE
  5
A
330
0
100
AcDbSymbolTable
 70
     3
100
AcDbDimStyleTable
  0
DIMSTYLE
105
27
330
A
100
AcDbSymbolTableRecord
100
AcDbDimStyleTableRecord
  2
ISO-25
 70
     0
 41
2.5
 42
0.625
 43
3.75
 44
1.25
 73
     0
 74
     0
 77
     1
 78
     8
140
2.5
141
2.5
143
0.0393700787
147
0.625
171
     3
172
     1
178
     0
271
     2
272
     2
274
     3
278
    44
283
     0
284
     8
340
11
  0
DIMSTYLE
105
25F
102
{ACAD_REACTORS
330
25D
330
269
330
273
330
27D
330
287
330
291
330
29B
330
2A6
330
2BF
330
2CA
102
}
330
A
100
AcDbSymbolTableRecord
100
AcDbDimStyleTableRecord
  2
SLDDIMSTYLE0
 70
     0
 41
3.302
 44
0.0
 45
0.000000001
 73
     0
 74
     0
 77
     1
 78
    12
 79
     3
140
3.5
147
0.875
173
     1
178
     0
271
     2
272
     2
276
     2
284
    12
340
25E
  0
DIMSTYLE
105
2B2
102
{ACAD_REACTORS
330
2B1
330
2D5
102
}
330
A
100
AcDbSymbolTableRecord
100
AcDbDimStyleTableRecord
  2
SLDDIMSTYLE1
 70
     0
 41
3.302
 44
0.0
 45
0.000000001
 73
     0
 74
     0
 77
     1
 78
    12
 79
     3
140
3.5
147
0.875
172
     1
173
     1
178
     0
271
     2
272
     2
276
     2
284
    12
289
     0
340
25E
  0
ENDTAB
  0
TABLE
  2
BLOCK_RECORD
  5
1
330
0
100
AcDbSymbolTable
 70
    15
  0
BLOCK_RECORD
  5
1F
330
1
100
AcDbSymbolTableRecord
100
AcDbBlockTableRecord
  2
*Model_Space
340
22
  0
BLOCK_RECORD
  5
1B
330
1
100
AcDbSymbolTableRecord
100
AcDbBlockTableRecord
  2
*Paper_Space
340
1E
  0
BLOCK_RECORD
  5
23
330
1
100
AcDbSymbolTableRecord
100
AcDbBlockTableRecord
  2
*Paper_Space0
340
26
  0
BLOCK_RECORD
  5
80
330
1
100
AcDbSymbolTableRecord
100
AcDbBlockTableRecord
  2
Block11
340
0
102
{BLKREFS
331
25B
102
}
  0
BLOCK_RECORD
  5
89
330
1
100
AcDbSymbolTableRecord
100
AcDbBlockTableRecord
  2
Block12
340
0
102
{BLKREFS
331
25C
102
}
  0
BLOCK_RECORD
  5
260
330
1
100
AcDbSymbolTableRecord
100
AcDbBlockTableRecord
  2
_D
340
0
  0
BLOCK_RECORD
  5
26A
330
1
100
AcDbSymbolTableRecord
100
AcDbBlockTableRecord
  2
_D_1
340
0
  0
BLOCK_RECORD
  5
274
330
1
100
AcDbSymbolTableRecord
100
AcDbBlockTableRecord
  2
_D_2
340
0
  0
BLOCK_RECORD
  5
27E
330
1
100
AcDbSymbolTableRecord
100
AcDbBlockTableRecord
  2
_D_3
340
0
  0
BLOCK_RECORD
  5
288
330
1
100
AcDbSymbolTableRecord
100
AcDbBlockTableRecord
  2
_D_4
340
0
  0
BLOCK_RECORD
  5
292
330
1
100
AcDbSymbolTableRecord
100
AcDbBlockTableRecord
  2
_D_5
340
0
  0
BLOCK_RECORD
  5
29C
330
1
100
AcDbSymbolTableRecord
100
AcDbBlockTableRecord
  2
_D_6
340
0
  0
BLOCK_RECORD
  5
2A7
330
1
100
AcDbSymbolTableRecord
100
AcDbBlockTableRecord
  2
_D_7
340
0
  0
BLOCK_RECORD
  5
2B3
330
1
100
AcDbSymbolTableRecord
100
AcDbBlockTableRecord
  2
_D_8
340
0
  0
BLOCK_RECORD
  5
2C0
330
1
100
AcDbSymbolTableRecord
100
AcDbBlockTableRecord
  2
_D_9
340
0
  0
BLOCK_RECORD
  5
2CB
330
1
100
AcDbSymbolTableRecord
100
AcDbBlockTableRecord
  2
_D_10
340
0
  0
BLOCK_RECORD
  5
2D6
330
1
100
AcDbSymbolTableRecord
100
AcDbBlockTableRecord
  2
_D_11
340
0
  0
ENDTAB
  0
ENDSEC
  0
SECTION
  2
BLOCKS
  0
BLOCK
  5
20
330
1F
100
AcDbEntity
  8
0
100
AcDbBlockBegin
  2
*Model_Space
 70
     0
 10
0.0
 20
0.0
 30
0.0
  3
*Model_Space
  1

  0
ENDBLK
  5
21
330
1F
100
AcDbEntity
  8
0
100
AcDbBlockEnd
  0
BLOCK
  5
1C
330
1B
100
AcDbEntity
 67
     1
  8
0
100
AcDbBlockBegin
  2
*Paper_Space
 70
     0
 10
0.0
 20
0.0
 30
0.0
  3
*Paper_Space
  1

  0
ENDBLK
  5
1D
330
1B
100
AcDbEntity
 67
     1
  8
0
100
AcDbBlockEnd
  0
BLOCK
  5
24
330
23
100
AcDbEntity
  8
0
100
AcDbBlockBegin
  2
*Paper_Space0
 70
     0
 10
0.0
 20
0.0
 30
0.0
  3
*Paper_Space0
  1

  0
ENDBLK
  5
25
330
23
100
AcDbEntity
  8
0
100
AcDbBlockEnd
  0
BLOCK
  5
81
330
80
100
AcDbEntity
  8
0
100
AcDbBlockBegin
  2
Block11
 70
     0
 10
0.0
 20
0.0
 30
0.0
  3
Block11
  1

  0
CIRCLE
  5
83
330
80
100
AcDbEntity
  8
81
370
    18
100
AcDbCircle
 10
91.6264826505
 20
130.2676275275
 30
0.0
 40
2.499999999999981
  0
LINE
  5
84
330
80
100
AcDbEntity
  8
81
370
    18
100
AcDbLine
 10
91.6264826505
 20
130.2676275275
 30
0.0
 11
95.1620165565
 21
133.8031614334
 31
0.0
  0
LINE
  5
85
330
80
100
AcDbEntity
  8
81
370
    18
100
AcDbLine
 10
91.6264826505
 20
130.2676275275
 30
0.0
 11
88.0909487446
 21
126.7320936216
 31
0.0
  0
LINE
  5
86
330
80
100
AcDbEntity
  8
81
370
    18
100
AcDbLine
 10
91.6264826505
 20
130.2676275275
 30
0.0
 11
88.0909487446
 21
133.8031614334
 31
0.0
  0
LINE
  5
87
330
80
100
AcDbEntity
  8
81
100
AcDbLine
 10
91.6264826505
 20
130.2676275275
 30
0.0
 11
101.6264826505
 21
130.2676275275
 31
0.0
  0
LINE
  5
88
330
80
100
AcDbEntity
  8
81
370
    18
100
AcDbLine
 10
91.6264826505
 20
130.2676275275
 30
0.0
 11
95.1620165565
 21
126.7320936216
 31
0.0
  0
ENDBLK
  5
82
330
80
100
AcDbEntity
  8
0
100
AcDbBlockEnd
  0
BLOCK
  5
8A
330
89
100
AcDbEntity
  8
0
100
AcDbBlockBegin
  2
Block12
 70
     0
 10
0.0
 20
0.0
 30
0.0
  3
Block12
  1

  0
CIRCLE
  5
8C
330
89
100
AcDbEntity
  8
80
370
    18
100
AcDbCircle
 10
61.7273641656
 20
130.3356800267
 30
0.0
 40
2.500000000000004
  0
LINE
  5
8D
330
89
100
AcDbEntity
  8
80
370
    18
100
AcDbLine
 10
61.7273641656
 20
130.3356800267
 30
0.0
 11
65.2628980715
 21
133.8712139326
 31
0.0
  0
LINE
  5
8E
330
89
100
AcDbEntity
  8
80
370
    18
100
AcDbLine
 10
61.7273641656
 20
130.3356800267
 30
0.0
 11
58.1918302597
 21
126.8001461208
 31
0.0
  0
LINE
  5
8F
330
89
100
AcDbEntity
  8
80
370
    18
100
AcDbLine
 10
61.7273641656
 20
130.3356800267
 30
0.0
 11
58.1918302597
 21
133.8712139326
 31
0.0
  0
LINE
  5
90
330
89
100
AcDbEntity
  8
80
370
    18
100
AcDbLine
 10
61.7273641656
 20
130.3356800267
 30
0.0
 11
51.7273641656
 21
130.3356800267
 31
0.0
  0
LINE
  5
91
330
89
100
AcDbEntity
  8
80
370
    18
100
AcDbLine
 10
61.7273641656
 20
130.3356800267
 30
0.0
 11
65.2628980715
 21
126.8001461208
 31
0.0
  0
ENDBLK
  5
8B
330
89
100
AcDbEntity
  8
0
100
AcDbBlockEnd
  0
BLOCK
  5
261
330
260
100
AcDbEntity
  8
0
100
AcDbBlockBegin
  2
_D
 70
     0
 10
0.0
 20
0.0
 30
0.0
  3
_D
  1

  0
SOLID
  5
263
330
260
100
AcDbEntity
  8
SK2
100
AcDbTrace
 10
0.0
 20
39.7355635051
 30
0.0
 11
3.302
 21
39.2275635051
 31
0.0
 12
3.302
 22
40.2435635051
 32
0.0
 13
3.302
 23
40.2435635051
 33
0.0
  0
SOLID
  5
264
330
260
100
AcDbEntity
  8
SK2
100
AcDbTrace
 10
27.0
 20
39.7355635051
 30
0.0
 11
23.698
 21
40.2435635051
 31
0.0
 12
23.698
 22
39.2275635051
 32
0.0
 13
23.698
 23
39.2275635051
 33
0.0
  0
LINE
  5
265
330
260
100
AcDbEntity
  8
SK2
100
AcDbLine
 10
0.0
 20
23.225
 30
0.0
 11
0.0
 21
40.7355635051
 31
0.0
  0
LINE
  5
266
330
260
100
AcDbEntity
  8
SK2
100
AcDbLine
 10
27.0
 20
31.75
 30
0.0
 11
27.0
 21
40.7355635051
 31
0.0
  0
LINE
  5
267
330
260
100
AcDbEntity
  8
SK2
100
AcDbLine
 10
0.0
 20
39.7355635051
 30
0.0
 11
27.0
 21
39.7355635051
 31
0.0
  0
MTEXT
  5
268
330
260
100
AcDbEntity
  8
SK2
100
AcDbMText
 10
11.1412117529
 20
44.2473004197
 30
0.0
 40
3.5
 41
0.0
 71
     1
 72
     1
  1
27
  7
SLDTEXTSTYLE0
 73
     1
 44
1.0
  0
ENDBLK
  5
262
330
260
100
AcDbEntity
  8
0
100
AcDbBlockEnd
  0
BLOCK
  5
26B
330
26A
100
AcDbEntity
  8
0
100
AcDbBlockBegin
  2
_D_1
 70
     0
 10
0.0
 20
0.0
 30
0.0
  3
_D_1
  1

  0
SOLID
  5
26D
330
26A
100
AcDbEntity
  8
SK2
100
AcDbTrace
 10
27.0
 20
39.7355635051
 30
0.0
 11
30.302
 21
39.2275635051
 31
0.0
 12
30.302
 22
40.2435635051
 32
0.0
 13
30.302
 23
40.2435635051
 33
0.0
  0
SOLID
  5
26E
330
26A
100
AcDbEntity
  8
SK2
100
AcDbTrace
 10
100.0
 20
39.7355635051
 30
0.0
 11
96.698
 21
40.2435635051
 31
0.0
 12
96.698
 22
39.2275635051
 32
0.0
 13
96.698
 23
39.2275635051
 33
0.0
  0
LINE
  5
26F
330
26A
100
AcDbEntity
  8
SK2
100
AcDbLine
 10
27.0
 20
31.75
 30
0.0
 11
27.0
 21
40.7355635051
 31
0.0
  0
LINE
  5
270
330
26A
100
AcDbEntity
  8
SK2
100
AcDbLine
 10
100.0
 20
17.4944465005
 30
0.0
 11
100.0
 21
40.7355635051
 31
0.0
  0
LINE
  5
271
330
26A
100
AcDbEntity
  8
SK2
100
AcDbLine
 10
27.0
 20
39.7355635051
 30
0.0
 11
100.0
 21
39.7355635051
 31
0.0
  0
MTEXT
  5
272
330
26A
100
AcDbEntity
  8
SK2
100
AcDbMText
 10
60.4810146989
 20
44.2473004197
 30
0.0
 40
3.5
 41
0.0
 71
     1
 72
     1
  1
73
  7
SLDTEXTSTYLE0
 73
     1
 44
1.0
  0
ENDBLK
  5
26C
330
26A
100
AcDbEntity
  8
0
100
AcDbBlockEnd
  0
BLOCK
  5
275
330
274
100
AcDbEntity
  8
0
100
AcDbBlockBegin
  2
_D_2
 70
     0
 10
0.0
 20
0.0
 30
0.0
  3
_D_2
  1

  0
SOLID
  5
277
330
274
100
AcDbEntity
  8
2
100
AcDbTrace
 10
100.0
 20
49.7829415596
 30
0.0
 11
96.698
 21
50.2909415596
 31
0.0
 12
96.698
 22
49.2749415596
 32
0.0
 13
96.698
 23
49.2749415596
 33
0.0
  0
SOLID
  5
278
330
274
100
AcDbEntity
  8
2
100
AcDbTrace
 10
0.0
 20
49.7829415596
 30
0.0
 11
3.302
 21
49.2749415596
 31
0.0
 12
3.302
 22
50.2909415596
 32
0.0
 13
3.302
 23
50.2909415596
 33
0.0
  0
LINE
  5
279
330
274
100
AcDbEntity
  8
2
100
AcDbLine
 10
100.0
 20
17.4944465005
 30
0.0
 11
100.0
 21
50.7829415596
 31
0.0
  0
LINE
  5
27A
330
274
100
AcDbEntity
  8
2
100
AcDbLine
 10
0.0
 20
23.225
 30
0.0
 11
0.0
 21
50.7829415596
 31
0.0
  0
LINE
  5
27B
330
274
100
AcDbEntity
  8
2
100
AcDbLine
 10
100.0
 20
49.7829415596
 30
0.0
 11
0.0
 21
49.7829415596
 31
0.0
  0
MTEXT
  5
27C
330
274
100
AcDbEntity
  8
2
100
AcDbMText
 10
44.6551445326
 20
54.2946784742
 30
0.0
 40
3.5
 41
0.0
 71
     1
 72
     1
  1
100
  7
SLDTEXTSTYLE0
 73
     1
 44
1.0
  0
ENDBLK
  5
276
330
274
100
AcDbEntity
  8
0
100
AcDbBlockEnd
  0
BLOCK
  5
27F
330
27E
100
AcDbEntity
  8
0
100
AcDbBlockBegin
  2
_D_3
 70
     0
 10
0.0
 20
0.0
 30
0.0
  3
_D_3
  1

  0
SOLID
  5
281
330
27E
100
AcDbEntity
  8
SK2
100
AcDbTrace
 10
100.0
 20
30.2264378464
 30
0.0
 11
96.698
 21
30.7344378464
 31
0.0
 12
96.698
 22
29.7184378464
 32
0.0
 13
96.698
 23
29.7184378464
 33
0.0
  0
SOLID
  5
282
330
27E
100
AcDbEntity
  8
SK2
100
AcDbTrace
 10
87.0
 20
30.2264378464
 30
0.0
 11
90.302
 21
29.7184378464
 31
0.0
 12
90.302
 22
30.7344378464
 32
0.0
 13
90.302
 23
30.7344378464
 33
0.0
  0
LINE
  5
283
330
27E
100
AcDbEntity
  8
SK2
100
AcDbLine
 10
100.0
 20
17.4944465005
 30
0.0
 11
100.0
 21
31.2264378464
 31
0.0
  0
LINE
  5
284
330
27E
100
AcDbEntity
  8
SK2
100
AcDbLine
 10
87.0
 20
25.0
 30
0.0
 11
87.0
 21
31.2264378464
 31
0.0
  0
LINE
  5
285
330
27E
100
AcDbEntity
  8
SK2
100
AcDbLine
 10
100.0
 20
30.2264378464
 30
0.0
 11
87.0
 21
30.2264378464
 31
0.0
  0
MTEXT
  5
286
330
27E
100
AcDbEntity
  8
SK2
100
AcDbMText
 10
90.443731397
 20
34.738174761
 30
0.0
 40
3.5
 41
0.0
 71
     1
 72
     1
  1
13
  7
SLDTEXTSTYLE0
 73
     1
 44
1.0
  0
ENDBLK
  5
280
330
27E
100
AcDbEntity
  8
0
100
AcDbBlockEnd
  0
BLOCK
  5
289
330
288
100
AcDbEntity
  8
0
100
AcDbBlockBegin
  2
_D_4
 70
     0
 10
0.0
 20
0.0
 30
0.0
  3
_D_4
  1

  0
SOLID
  5
28B
330
288
100
AcDbEntity
  8
SK2
100
AcDbTrace
 10
100.0
 20
-35.5551706784
 30
0.0
 11
96.698
 21
-35.0471706784
 31
0.0
 12
96.698
 22
-36.0631706784
 32
0.0
 13
96.698
 23
-36.0631706784
 33
0.0
  0
SOLID
  5
28C
330
288
100
AcDbEntity
  8
SK2
100
AcDbTrace
 10
76.0
 20
-35.5551706784
 30
0.0
 11
79.302
 21
-36.0631706784
 31
0.0
 12
79.302
 22
-35.0471706784
 32
0.0
 13
79.302
 23
-35.0471706784
 33
0.0
  0
LINE
  5
28D
330
288
100
AcDbEntity
  8
SK2
100
AcDbLine
 10
100.0
 20
-17.4944465005
 30
0.0
 11
100.0
 21
-36.5551706784
 31
0.0
  0
LINE
  5
28E
330
288
100
AcDbEntity
  8
SK2
100
AcDbLine
 10
76.0
 20
-25.3
 30
0.0
 11
76.0
 21
-36.5551706784
 31
0.0
  0
LINE
  5
28F
330
288
100
AcDbEntity
  8
SK2
100
AcDbLine
 10
100.0
 20
-35.5551706784
 30
0.0
 11
76.0
 21
-35.5551706784
 31
0.0
  0
MTEXT
  5
290
330
288
100
AcDbEntity
  8
SK2
100
AcDbMText
 10
85.2037517669
 20
-31.0434337639
 30
0.0
 40
3.5
 41
0.0
 71
     1
 72
     1
  1
24
  7
SLDTEXTSTYLE0
 73
     1
 44
1.0
  0
ENDBLK
  5
28A
330
288
100
AcDbEntity
  8
0
100
AcDbBlockEnd
  0
BLOCK
  5
293
330
292
100
AcDbEntity
  8
0
100
AcDbBlockBegin
  2
_D_5
 70
     0
 10
0.0
 20
0.0
 30
0.0
  3
_D_5
  1

  0
SOLID
  5
295
330
292
100
AcDbEntity
  8
SK2
100
AcDbTrace
 10
100.0
 20
-44.9096173921
 30
0.0
 11
96.698
 21
-44.4016173921
 31
0.0
 12
96.698
 22
-45.4176173921
 32
0.0
 13
96.698
 23
-45.4176173921
 33
0.0
  0
SOLID
  5
296
330
292
100
AcDbEntity
  8
SK2
100
AcDbTrace
 10
53.0
 20
-44.9096173921
 30
0.0
 11
56.302
 21
-45.4176173921
 31
0.0
 12
56.302
 22
-44.4016173921
 32
0.0
 13
56.302
 23
-44.4016173921
 33
0.0
  0
LINE
  5
297
330
292
100
AcDbEntity
  8
SK2
100
AcDbLine
 10
100.0
 20
-17.4944465005
 30
0.0
 11
100.0
 21
-45.9096173921
 31
0.0
  0
LINE
  5
298
330
292
100
AcDbEntity
  8
SK2
100
AcDbLine
 10
53.0
 20
-8.9999999828
 30
0.0
 11
53.0
 21
-45.9096173921
 31
0.0
  0
LINE
  5
299
330
292
100
AcDbEntity
  8
SK2
100
AcDbLine
 10
100.0
 20
-44.9096173921
 30
0.0
 11
53.0
 21
-44.9096173921
 31
0.0
  0
MTEXT
  5
29A
330
292
100
AcDbEntity
  8
SK2
100
AcDbMText
 10
75.3839074548
 20
-40.3978804776
 30
0.0
 40
3.5
 41
0.0
 71
     1
 72
     1
  1
47
  7
SLDTEXTSTYLE0
 73
     1
 44
1.0
  0
ENDBLK
  5
294
330
292
100
AcDbEntity
  8
0
100
AcDbBlockEnd
  0
BLOCK
  5
29D
330
29C
100
AcDbEntity
  8
0
100
AcDbBlockBegin
  2
_D_6
 70
     0
 10
0.0
 20
0.0
 30
0.0
  3
_D_6
  1

  0
SOLID
  5
29F
330
29C
100
AcDbEntity
  8
SK2
100
AcDbTrace
 10
135.7410125417
 20
24.0
 30
0.0
 11
135.2330125417
 21
20.698
 31
0.0
 12
136.2490125417
 22
20.698
 32
0.0
 13
136.2490125417
 23
20.698
 33
0.0
  0
SOLID
  5
2A0
330
29C
100
AcDbEntity
  8
SK2
100
AcDbTrace
 10
135.7410125417
 20
-24.0
 30
0.0
 11
136.2490125417
 21
-20.698
 31
0.0
 12
135.2330125417
 22
-20.698
 32
0.0
 13
135.2330125417
 23
-20.698
 33
0.0
  0
LINE
  5
2A1
330
29C
100
AcDbEntity
  8
SK2
100
AcDbLine
 10
88.0
 20
24.0
 30
0.0
 11
136.7410125417
 21
24.0
 31
0.0
  0
LINE
  5
2A2
330
29C
100
AcDbEntity
  8
SK2
100
AcDbLine
 10
88.0
 20
-24.0
 30
0.0
 11
136.7410125417
 21
-24.0
 31
0.0
  0
LINE
  5
2A3
330
29C
100
AcDbEntity
  8
SK2
100
AcDbLine
 10
135.7410125417
 20
24.0
 30
0.0
 11
135.7410125417
 21
-24.0
 31
0.0
  0
MTEXT
  5
2A4
330
29C
100
AcDbEntity
  8
SK2
100
AcDbMText
 10
131.2292754525
 20
-4.7663835869
 30
0.0
 40
3.5
 41
0.0
 71
     1
 72
     1
  1
%%c
  7
SLDTEXTSTYLE0
 11
-7.044195017643634E-15
 21
1.0
 31
0.0
 73
     1
 44
1.0
  0
MTEXT
  5
2A5
330
29C
100
AcDbEntity
  8
SK2
100
AcDbMText
 10
131.1758032759
 20
0.5120538114
 30
0.0
 40
3.5
 41
0.0
 71
     1
 72
     1
  1
48
  7
SLDTEXTSTYLE0
 11
-7.044195017643634E-15
 21
1.0
 31
0.0
 73
     1
 44
1.0
  0
ENDBLK
  5
29E
330
29C
100
AcDbEntity
  8
0
100
AcDbBlockEnd
  0
BLOCK
  5
2A8
330
2A7
100
AcDbEntity
  8
0
100
AcDbBlockBegin
  2
_D_7
 70
     0
 10
0.0
 20
0.0
 30
0.0
  3
_D_7
  1

  0
SOLID
  5
2AA
330
2A7
100
AcDbEntity
  8
SK2
100
AcDbTrace
 10
126.2087771755
 20
16.4944465005
 30
0.0
 11
125.7007771755
 21
13.1924465005
 31
0.0
 12
126.7167771755
 22
13.1924465005
 32
0.0
 13
126.7167771755
 23
13.1924465005
 33
0.0
  0
SOLID
  5
2AB
330
2A7
100
AcDbEntity
  8
SK2
100
AcDbTrace
 10
126.2087771755
 20
-16.4944465005
 30
0.0
 11
126.7167771755
 21
-13.1924465005
 31
0.0
 12
125.7007771755
 22
-13.1924465005
 32
0.0
 13
125.7007771755
 23
-13.1924465005
 33
0.0
  0
LINE
  5
2AC
330
2A7
100
AcDbEntity
  8
SK2
100
AcDbLine
 10
101.0
 20
16.4944465005
 30
0.0
 11
127.2087771755
 21
16.4944465005
 31
0.0
  0
LINE
  5
2AD
330
2A7
100
AcDbEntity
  8
SK2
100
AcDbLine
 10
101.0
 20
-16.4944465005
 30
0.0
 11
127.2087771755
 21
-16.4944465005
 31
0.0
  0
LINE
  5
2AE
330
2A7
100
AcDbEntity
  8
SK2
100
AcDbLine
 10
126.2087771755
 20
16.4944465005
 30
0.0
 11
126.2087771755
 21
-16.4944465005
 31
0.0
  0
MTEXT
  5
2AF
330
2A7
100
AcDbEntity
  8
SK2
100
AcDbMText
 10
121.6970400863
 20
-4.7663835869
 30
0.0
 40
3.5
 41
0.0
 71
     1
 72
     1
  1
%%c
  7
SLDTEXTSTYLE0
 11
-7.044195017643634E-15
 21
1.0
 31
0.0
 73
     1
 44
1.0
  0
MTEXT
  5
2B0
330
2A7
100
AcDbEntity
  8
SK2
100
AcDbMText
 10
121.6435679096
 20
0.5120538114
 30
0.0
 40
3.5
 41
0.0
 71
     1
 72
     1
  1
33
  7
SLDTEXTSTYLE0
 11
-7.044195017643634E-15
 21
1.0
 31
0.0
 73
     1
 44
1.0
  0
ENDBLK
  5
2A9
330
2A7
100
AcDbEntity
  8
0
100
AcDbBlockEnd
  0
BLOCK
  5
2B4
330
2B3
100
AcDbEntity
  8
0
100
AcDbBlockBegin
  2
_D_8
 70
     0
 10
0.0
 20
0.0
 30
0.0
  3
_D_8
  1

  0
SOLID
  5
2B6
330
2B3
100
AcDbEntity
  8
SK2
100
AcDbTrace
 10
117.2536248848
 20
-8.0
 30
0.0
 11
116.7456248848
 21
-11.302
 31
0.0
 12
117.7616248848
 22
-11.302
 32
0.0
 13
117.7616248848
 23
-11.302
 33
0.0
  0
SOLID
  5
2B7
330
2B3
100
AcDbEntity
  8
SK2
100
AcDbTrace
 10
117.2536248848
 20
8.0
 30
0.0
 11
117.7616248848
 21
11.302
 31
0.0
 12
116.7456248848
 22
11.302
 32
0.0
 13
116.7456248848
 23
11.302
 33
0.0
  0
LINE
  5
2B8
330
2B3
100
AcDbEntity
  8
SK2
100
AcDbLine
 10
100.0
 20
-8.0
 30
0.0
 11
118.2536248848
 21
-8.0
 31
0.0
  0
LINE
  5
2B9
330
2B3
100
AcDbEntity
  8
SK2
100
AcDbLine
 10
100.0
 20
8.0
 30
0.0
 11
118.2536248848
 21
8.0
 31
0.0
  0
LINE
  5
2BA
330
2B3
100
AcDbEntity
  8
SK2
100
AcDbLine
 10
117.2536248848
 20
-8.0
 30
0.0
 11
117.2536248848
 21
-14.35
 31
0.0
  0
LINE
  5
2BB
330
2B3
100
AcDbEntity
  8
SK2
100
AcDbLine
 10
117.2536248848
 20
-8.0
 30
0.0
 11
117.2536248848
 21
8.0
 31
0.0
  0
LINE
  5
2BC
330
2B3
100
AcDbEntity
  8
SK2
100
AcDbLine
 10
117.2536248848
 20
8.0
 30
0.0
 11
117.2536248848
 21
14.35
 31
0.0
  0
MTEXT
  5
2BD
330
2B3
100
AcDbEntity
  8
SK2
100
AcDbMText
 10
112.7418877956
 20
-4.7663835869
 30
0.0
 40
3.5
 41
0.0
 71
     1
 72
     1
  1
%%c
  7
SLDTEXTSTYLE0
 11
6.123233995736766E-17
 21
1.0
 31
0.0
 73
     1
 44
1.0
  0
MTEXT
  5
2BE
330
2B3
100
AcDbEntity
  8
SK2
100
AcDbMText
 10
112.688415619
 20
0.5120538114
 30
0.0
 40
3.5
 41
0.0
 71
     1
 72
     1
  1
16
  7
SLDTEXTSTYLE0
 11
6.123233995736766E-17
 21
1.0
 31
0.0
 73
     1
 44
1.0
  0
ENDBLK
  5
2B5
330
2B3
100
AcDbEntity
  8
0
100
AcDbBlockEnd
  0
BLOCK
  5
2C1
330
2C0
100
AcDbEntity
  8
0
100
AcDbBlockBegin
  2
_D_9
 70
     0
 10
0.0
 20
0.0
 30
0.0
  3
_D_9
  1

  0
SOLID
  5
2C3
330
2C0
100
AcDbEntity
  8
SK2
100
AcDbTrace
 10
-93.8888854956
 20
31.5
 30
0.0
 11
-94.3968854956
 21
28.198
 31
0.0
 12
-93.3808854956
 22
28.198
 32
0.0
 13
-93.3808854956
 23
28.198
 33
0.0
  0
SOLID
  5
2C4
330
2C0
100
AcDbEntity
  8
SK2
100
AcDbTrace
 10
-93.8888854956
 20
-31.5
 30
0.0
 11
-93.3808854956
 21
-28.198
 31
0.0
 12
-94.3968854956
 22
-28.198
 32
0.0
 13
-94.3968854956
 23
-28.198
 33
0.0
  0
LINE
  5
2C5
330
2C0
100
AcDbEntity
  8
SK2
100
AcDbLine
 10
1.75
 20
31.5
 30
0.0
 11
-94.8888854956
 21
31.5
 31
0.0
  0
LINE
  5
2C6
330
2C0
100
AcDbEntity
  8
SK2
100
AcDbLine
 10
1.75
 20
-31.5
 30
0.0
 11
-94.8888854956
 21
-31.5
 31
0.0
  0
LINE
  5
2C7
330
2C0
100
AcDbEntity
  8
SK2
100
AcDbLine
 10
-93.8888854956
 20
31.5
 30
0.0
 11
-93.8888854956
 21
-31.5
 31
0.0
  0
MTEXT
  5
2C8
330
2C0
100
AcDbEntity
  8
SK2
100
AcDbMText
 10
-98.4006225848
 20
-6.2379080252
 30
0.0
 40
3.5
 41
0.0
 71
     1
 72
     1
  1
%%c
  7
SLDTEXTSTYLE0
 11
-7.044195017643634E-15
 21
1.0
 31
0.0
 73
     1
 44
1.0
  0
MTEXT
  5
2C9
330
2C0
100
AcDbEntity
  8
SK2
100
AcDbMText
 10
-98.4540947615
 20
-0.9594706268
 30
0.0
 40
3.5
 41
0.0
 71
     1
 72
     1
  1
63
  7
SLDTEXTSTYLE0
 11
-7.044195017643634E-15
 21
1.0
 31
0.0
 73
     1
 44
1.0
  0
ENDBLK
  5
2C2
330
2C0
100
AcDbEntity
  8
0
100
AcDbBlockEnd
  0
BLOCK
  5
2CC
330
2CB
100
AcDbEntity
  8
0
100
AcDbBlockBegin
  2
_D_10
 70
     0
 10
0.0
 20
0.0
 30
0.0
  3
_D_10
  1

  0
SOLID
  5
2CE
330
2CB
100
AcDbEntity
  8
SK2
100
AcDbTrace
 10
-82.2124574188
 20
22.225
 30
0.0
 11
-82.7204574188
 21
18.923
 31
0.0
 12
-81.7044574188
 22
18.923
 32
0.0
 13
-81.7044574188
 23
18.923
 33
0.0
  0
SOLID
  5
2CF
330
2CB
100
AcDbEntity
  8
SK2
100
AcDbTrace
 10
-82.2124574188
 20
-22.225
 30
0.0
 11
-81.7044574188
 21
-18.923
 31
0.0
 12
-82.7204574188
 22
-18.923
 32
0.0
 13
-82.7204574188
 23
-18.923
 33
0.0
  0
LINE
  5
2D0
330
2CB
100
AcDbEntity
  8
SK2
100
AcDbLine
 10
-0.8
 20
22.225
 30
0.0
 11
-83.2124574188
 21
22.225
 31
0.0
  0
LINE
  5
2D1
330
2CB
100
AcDbEntity
  8
SK2
100
AcDbLine
 10
-1.0
 20
-22.225
 30
0.0
 11
-83.2124574188
 21
-22.225
 31
0.0
  0
LINE
  5
2D2
330
2CB
100
AcDbEntity
  8
SK2
100
AcDbLine
 10
-82.2124574188
 20
22.225
 30
0.0
 11
-82.2124574188
 21
-22.225
 31
0.0
  0
MTEXT
  5
2D3
330
2CB
100
AcDbEntity
  8
SK2
100
AcDbMText
 10
-86.724194508
 20
-9.4705468425
 30
0.0
 40
3.5
 41
0.0
 71
     1
 72
     1
  1
%%c
  7
SLDTEXTSTYLE0
 11
-7.044195017643634E-15
 21
1.0
 31
0.0
 73
     1
 44
1.0
  0
MTEXT
  5
2D4
330
2CB
100
AcDbEntity
  8
SK2
100
AcDbMText
 10
-86.7776666846
 20
-4.1921094441
 30
0.0
 40
3.5
 41
0.0
 71
     1
 72
     1
  1
44,45
  7
SLDTEXTSTYLE0
 11
-7.044195017643634E-15
 21
1.0
 31
0.0
 73
     1
 44
1.0
  0
ENDBLK
  5
2CD
330
2CB
100
AcDbEntity
  8
0
100
AcDbBlockEnd
  0
BLOCK
  5
2D7
330
2D6
100
AcDbEntity
  8
0
100
AcDbBlockBegin
  2
_D_11
 70
     0
 10
0.0
 20
0.0
 30
0.0
  3
_D_11
  1

  0
SOLID
  5
2D9
330
2D6
100
AcDbEntity
  8
SK2
100
AcDbTrace
 10
-72.5062641229
 20
-8.00000038
 30
0.0
 11
-73.0142641229
 21
-11.30200038
 31
0.0
 12
-71.9982641229
 22
-11.30200038
 32
0.0
 13
-71.9982641229
 23
-11.30200038
 33
0.0
  0
SOLID
  5
2DA
330
2D6
100
AcDbEntity
  8
SK2
100
AcDbTrace
 10
-72.5062641229
 20
8.00000038
 30
0.0
 11
-71.9982641229
 21
11.30200038
 31
0.0
 12
-73.0142641229
 22
11.30200038
 32
0.0
 13
-73.0142641229
 23
11.30200038
 33
0.0
  0
LINE
  5
2DB
330
2D6
100
AcDbEntity
  8
SK2
100
AcDbLine
 10
-56.6881204247
 20
-8.00000038
 30
0.0
 11
-73.5062641229
 21
-8.00000038
 31
0.0
  0
LINE
  5
2DC
330
2D6
100
AcDbEntity
  8
SK2
100
AcDbLine
 10
-56.6881204247
 20
8.00000038
 30
0.0
 11
-73.5062641229
 21
8.00000038
 31
0.0
  0
LINE
  5
2DD
330
2D6
100
AcDbEntity
  8
SK2
100
AcDbLine
 10
-72.5062641229
 20
-8.00000038
 30
0.0
 11
-72.5062641229
 21
-14.35000038
 31
0.0
  0
LINE
  5
2DE
330
2D6
100
AcDbEntity
  8
SK2
100
AcDbLine
 10
-72.5062641229
 20
-8.00000038
 30
0.0
 11
-72.5062641229
 21
8.00000038
 31
0.0
  0
LINE
  5
2DF
330
2D6
100
AcDbEntity
  8
SK2
100
AcDbLine
 10
-72.5062641229
 20
8.00000038
 30
0.0
 11
-72.5062641229
 21
14.35000038
 31
0.0
  0
MTEXT
  5
2E0
330
2D6
100
AcDbEntity
  8
SK2
100
AcDbMText
 10
-77.0180010375
 20
-4.270914855
 30
0.0
 40
3.5
 41
0.0
 71
     1
 72
     1
  1
M
  7
SLDTEXTSTYLE0
 11
3.613946018757869E-15
 21
1.0
 31
0.0
 73
     1
 44
1.0
  0
MTEXT
  5
2E1
330
2D6
100
AcDbEntity
  8
SK2
100
AcDbMText
 10
-77.0180010375
 20
0.0165850795
 30
0.0
 40
3.5
 41
0.0
 71
     1
 72
     1
  1
16
  7
SLDTEXTSTYLE0
 11
3.613946018757869E-15
 21
1.0
 31
0.0
 73
     1
 44
1.0
  0
ENDBLK
  5
2D8
330
2D6
100
AcDbEntity
  8
0
100
AcDbBlockEnd
  0
ENDSEC
  0
SECTION
  2
ENTITIES
  0
LINE
  5
92
330
1F
100
AcDbEntity
  8
1
  6
SLD-Solid
370
    25
100
AcDbLine
 10
26.2500000235
 20
31.5
 30
0.0
 11
21.6200000235
 21
31.5
 31
0.0
  0
LINE
  5
93
330
1F
100
AcDbEntity
  8
1
  6
SLD-Solid
370
    25
100
AcDbLine
 10
21.62
 20
-31.5
 30
0.0
 11
26.25
 21
-31.5
 31
0.0
  0
LINE
  5
94
330
1F
100
AcDbEntity
  8
1
  6
SLD-Solid
370
    25
100
AcDbLine
 10
19.1
 20
-27.113157367
 30
0.0
 11
21.62
 21
-31.5
 31
0.0
  0
LINE
  5
95
330
1F
100
AcDbEntity
  8
1
  6
SLD-Solid
370
    25
100
AcDbLine
 10
21.6200000235
 20
31.5
 30
0.0
 11
19.1000001077
 21
27.1131572383
 31
0.0
  0
LINE
  5
96
330
1F
100
AcDbEntity
  8
1
  6
SLD-Solid
370
    25
100
AcDbLine
 10
2.75
 20
-31.5
 30
0.0
 11
11.58
 21
-31.5
 31
0.0
  0
LINE
  5
97
330
1F
100
AcDbEntity
  8
1
  6
SLD-Solid
370
    25
100
AcDbLine
 10
11.58
 20
-31.5
 30
0.0
 11
14.1
 21
-27.113157367
 31
0.0
  0
LINE
  5
98
330
1F
100
AcDbEntity
  8
1
  6
SLD-Solid
370
    25
100
AcDbLine
 10
11.58
 20
31.5
 30
0.0
 11
2.75
 21
31.5
 31
0.0
  0
LINE
  5
99
330
1F
100
AcDbEntity
  8
1
  6
SLD-Solid
370
    25
100
AcDbLine
 10
14.1
 20
27.113157367
 30
0.0
 11
11.58
 21
31.5
 31
0.0
  0
LINE
  5
9A
330
1F
100
AcDbEntity
  8
1
  6
SLD-Solid
370
    25
100
AcDbLine
 10
14.475
 20
-26.5
 30
0.0
 11
18.725
 21
-26.5
 31
0.0
  0
LINE
  5
9B
330
1F
100
AcDbEntity
  8
1
  6
SLD-Solid
370
    25
100
AcDbLine
 10
18.725
 20
26.5
 30
0.0
 11
14.475
 21
26.5
 31
0.0
  0
LINE
  5
9C
330
1F
100
AcDbEntity
  8
1
  6
SLD-Solid
370
    25
100
AcDbLine
 10
66.5829091541
 20
24.0
 30
0.0
 11
29.0
 21
24.0
 31
0.0
  0
LINE
  5
9D
330
1F
100
AcDbEntity
  8
1
  6
SLD-Solid
370
    25
100
AcDbLine
 10
87.0
 20
24.0
 30
0.0
 11
85.4102412451
 21
24.0
 31
0.0
  0
LINE
  5
9E
330
1F
100
AcDbEntity
  8
1
  6
SLD-Solid
370
    25
100
AcDbLine
 10
84.1
 20
-24.0
 30
0.0
 11
87.0
 21
-24.0
 31
0.0
  0
LINE
  5
9F
330
1F
100
AcDbEntity
  8
1
  6
SLD-Solid
370
    25
100
AcDbLine
 10
29.0
 20
-24.0
 30
0.0
 11
67.9011674093
 21
-24.0
 31
0.0
  0
LINE
  5
A0
330
1F
100
AcDbEntity
  8
1
  6
SLD-Solid
370
    25
100
AcDbLine
 10
87.0
 20
-24.0
 30
0.0
 11
100.0
 21
-16.4944465005
 31
0.0
  0
LINE
  5
A1
330
1F
100
AcDbEntity
  8
1
  6
SLD-Solid
370
    25
100
AcDbLine
 10
100.0
 20
16.4944465005
 30
0.0
 11
87.0
 21
24.0
 31
0.0
  0
LINE
  5
A2
330
1F
100
AcDbEntity
  8
1
  6
SLD-Solid
370
    25
100
AcDbLine
 10
0.2
 20
22.225
 30
0.0
 11
0.0
 21
22.225
 31
0.0
  0
LINE
  5
A3
330
1F
100
AcDbEntity
  8
1
  6
SLD-Solid
370
    25
100
AcDbLine
 10
0.0
 20
-22.225
 30
0.0
 11
0.2
 21
-22.225
 31
0.0
  0
LINE
  5
A4
330
1F
100
AcDbEntity
  8
1
  6
SLD-Solid
370
    25
100
AcDbLine
 10
0.2
 20
-22.225
 30
0.0
 11
0.9330363037
 21
-21.8831795579
 31
0.0
  0
LINE
  5
A5
330
1F
100
AcDbEntity
  8
1
  6
SLD-Solid
370
    25
100
AcDbLine
 10
0.9330363037
 20
21.8831795579
 30
0.0
 11
0.2
 21
22.225
 31
0.0
  0
LINE
  5
A6
330
1F
100
AcDbEntity
  8
SK1
  6
SLD-Solid
370
    25
100
AcDbLine
 10
0.0
 20
22.225
 30
0.0
 11
-64.544317822
 21
12.8115589574
 31
0.0
  0
LINE
  5
A7
330
1F
100
AcDbEntity
  8
SK1
  6
SLD-Solid
370
    25
100
AcDbLine
 10
-64.544317822
 20
-12.8115589574
 30
0.0
 11
0.0
 21
-22.225
 31
0.0
  0
LINE
  5
A8
330
1F
100
AcDbEntity
  8
1
  6
SLD-Solid
370
    25
100
AcDbLine
 10
21.3784546204
 20
5.4632284209
 30
0.0
 11
21.6200000235
 21
5.8238675595
 31
0.0
  0
LINE
  5
A9
330
1F
100
AcDbEntity
  8
1
  6
SLD-Solid
370
    25
100
AcDbLine
 10
21.6200000025
 20
-5.823866909
 30
0.0
 11
21.3784546216
 21
-5.4632284305
 31
0.0
  0
LINE
  5
AA
330
1F
100
AcDbEntity
  8
1
  6
SLD-Solid
370
    25
100
AcDbLine
 10
21.6200000235
 20
31.5
 30
0.0
 11
21.6200000235
 21
5.8238675595
 31
0.0
  0
LINE
  5
AB
330
1F
100
AcDbEntity
  8
1
  6
SLD-Solid
370
    25
100
AcDbLine
 10
21.6200000025
 20
-5.823866909
 30
0.0
 11
21.62
 21
-31.5
 31
0.0
  0
LINE
  5
AC
330
1F
100
AcDbEntity
  8
1
  6
SLD-Solid
370
    25
100
AcDbLine
 10
27.0
 20
30.75
 30
0.0
 11
27.0
 21
-30.75
 31
0.0
  0
LINE
  5
AD
330
1F
100
AcDbEntity
  8
1
  6
SLD-Solid
370
    25
100
AcDbLine
 10
19.1
 20
-7.2024995661
 30
0.0
 11
19.1
 21
-27.113157367
 31
0.0
  0
LINE
  5
AE
330
1F
100
AcDbEntity
  8
1
  6
SLD-Solid
370
    25
100
AcDbLine
 10
19.1000001077
 20
27.1131572383
 30
0.0
 11
19.1000001077
 21
7.2024994374
 31
0.0
  0
LINE
  5
AF
330
1F
100
AcDbEntity
  8
1
  6
SLD-Solid
370
    25
100
AcDbLine
 10
2.75
 20
-8.095
 30
0.0
 11
11.804131339
 21
-8.095
 31
0.0
  0
LINE
  5
B0
330
1F
100
AcDbEntity
  8
1
  6
SLD-Solid
370
    25
100
AcDbLine
 10
11.58
 20
-8.439532456
 30
0.0
 11
2.75
 21
-8.439532456
 31
0.0
  0
LINE
  5
B1
330
1F
100
AcDbEntity
  8
1
  6
SLD-Solid
370
    25
100
AcDbLine
 10
11.58
 20
-8.439532456
 30
0.0
 11
11.58
 21
-31.5
 31
0.0
  0
LINE
  5
B2
330
1F
100
AcDbEntity
  8
1
  6
SLD-Solid
370
    25
100
AcDbLine
 10
2.0
 20
-30.75
 30
0.0
 11
2.0
 21
-8.3532699268
 31
0.0
  0
LINE
  5
B3
330
1F
100
AcDbEntity
  8
1
  6
SLD-Solid
370
    25
100
AcDbLine
 10
2.3219692183
 20
-8.095
 30
0.0
 11
2.0
 21
-8.3532699268
 31
0.0
  0
LINE
  5
B4
330
1F
100
AcDbEntity
  8
1
  6
SLD-Solid
370
    25
100
AcDbLine
 10
14.1
 20
-8.095
 30
0.0
 11
14.1
 21
-27.113157367
 31
0.0
  0
LINE
  5
B5
330
1F
100
AcDbEntity
  8
1
  6
SLD-Solid
370
    25
100
AcDbLine
 10
2.0
 20
8.47
 30
0.0
 11
2.0
 21
30.75
 31
0.0
  0
LINE
  5
B6
330
1F
100
AcDbEntity
  8
1
  6
SLD-Solid
370
    25
100
AcDbLine
 10
2.0
 20
8.47
 30
0.0
 11
2.375
 21
8.095
 31
0.0
  0
LINE
  5
B7
330
1F
100
AcDbEntity
  8
1
  6
SLD-Solid
370
    25
100
AcDbLine
 10
11.58
 20
31.5
 30
0.0
 11
11.58
 21
8.5720481928
 31
0.0
  0
LINE
  5
B8
330
1F
100
AcDbEntity
  8
1
  6
SLD-Solid
370
    25
100
AcDbLine
 10
2.75
 20
8.5720481928
 30
0.0
 11
11.58
 21
8.5720481928
 31
0.0
  0
LINE
  5
B9
330
1F
100
AcDbEntity
  8
1
  6
SLD-Solid
370
    25
100
AcDbLine
 10
11.8528324644
 20
8.095
 30
0.0
 11
2.75
 21
8.095
 31
0.0
  0
LINE
  5
BA
330
1F
100
AcDbEntity
  8
1
  6
SLD-Solid
370
    25
100
AcDbLine
 10
14.1
 20
27.113157367
 30
0.0
 11
14.1
 21
8.095
 31
0.0
  0
LINE
  5
BB
330
1F
100
AcDbEntity
  8
1
  6
SLD-Solid
370
    25
100
AcDbLine
 10
14.475
 20
-8.095
 30
0.0
 11
15.405
 21
-8.095
 31
0.0
  0
LINE
  5
BC
330
1F
100
AcDbEntity
  8
1
  6
SLD-Solid
370
    25
100
AcDbLine
 10
15.4050001077
 20
8.0949998713
 30
0.0
 11
14.475
 21
8.095
 31
0.0
  0
LINE
  5
BD
330
1F
100
AcDbEntity
  8
1
  6
SLD-Solid
370
    25
100
AcDbLine
 10
87.0
 20
24.0
 30
0.0
 11
87.0
 21
-24.0
 31
0.0
  0
LINE
  5
BE
330
1F
100
AcDbEntity
  8
1
  6
SLD-Solid
370
    25
100
AcDbLine
 10
100.0
 20
16.4944465005
 30
0.0
 11
100.0
 21
-16.4944465005
 31
0.0
  0
LINE
  5
BF
330
1F
100
AcDbEntity
  8
1
  6
SLD-Solid
370
    25
100
AcDbLine
 10
2.0
 20
8.47
 30
0.0
 11
2.0
 21
2.2544235705
 31
0.0
  0
LINE
  5
C0
330
1F
100
AcDbEntity
  8
1
  6
SLD-Solid
370
    25
100
AcDbLine
 10
2.0
 20
-2.2544235705
 30
0.0
 11
2.0
 21
-8.3532699268
 31
0.0
  0
LINE
  5
C1
330
1F
100
AcDbEntity
  8
1
  6
SLD-Solid
370
    25
100
AcDbLine
 10
0.0
 20
22.225
 30
0.0
 11
0.0
 21
-22.225
 31
0.0
  0
LINE
  5
C2
330
1F
100
AcDbEntity
  8
SK1
  6
SLD-Solid
370
    25
100
AcDbLine
 10
-65.4
 20
11.8220275702
 30
0.0
 11
-65.4
 21
-11.8220275702
 31
0.0
  0
LINE
  5
C3
330
1F
100
AcDbEntity
  8
SK3
  6
SLD-Dashed
370
    18
100
AcDbLine
 10
9.0
 20
26.4316180962
 30
0.0
 11
8.4823619098
 21
26.4083099886
 31
0.0
  0
LINE
  5
C4
330
1F
100
AcDbEntity
  8
SK3
  6
SLD-Dashed
370
    18
100
AcDbLine
 10
8.4823619098
 20
26.4083099886
 30
0.0
 11
8.0
 21
26.339974075
 31
0.0
  0
LINE
  5
C5
330
1F
100
AcDbEntity
  8
SK3
  6
SLD-Dashed
370
    18
100
AcDbLine
 10
8.0
 20
26.339974075
 30
0.0
 11
7.5857864376
 21
26.2312673348
 31
0.0
  0
LINE
  5
C6
330
1F
100
AcDbEntity
  8
SK3
  6
SLD-Dashed
370
    18
100
AcDbLine
 10
7.5857864376
 20
26.2312673348
 30
0.0
 11
7.2679491924
 21
26.0895979529
 31
0.0
  0
LINE
  5
C7
330
1F
100
AcDbEntity
  8
SK3
  6
SLD-Dashed
370
    18
100
AcDbLine
 10
7.2679491924
 20
26.0895979529
 30
0.0
 11
7.0681483474
 21
25.9246204633
 31
0.0
  0
LINE
  5
C8
330
1F
100
AcDbEntity
  8
SK3
  6
SLD-Dashed
370
    18
100
AcDbLine
 10
7.0681483474
 20
25.9246204633
 30
0.0
 11
7.0
 21
25.7475778095
 31
0.0
  0
LINE
  5
C9
330
1F
100
AcDbEntity
  8
SK3
  6
SLD-Dashed
370
    18
100
AcDbLine
 10
7.0
 20
25.7475778095
 30
0.0
 11
7.0681483474
 21
25.5705351557
 31
0.0
  0
LINE
  5
CA
330
1F
100
AcDbEntity
  8
SK3
  6
SLD-Dashed
370
    18
100
AcDbLine
 10
7.0681483474
 20
25.5705351557
 30
0.0
 11
7.2679491924
 21
25.4055576662
 31
0.0
  0
LINE
  5
CB
330
1F
100
AcDbEntity
  8
SK3
  6
SLD-Dashed
370
    18
100
AcDbLine
 10
7.2679491924
 20
25.4055576662
 30
0.0
 11
7.5857864376
 21
25.2638882842
 31
0.0
  0
LINE
  5
CC
330
1F
100
AcDbEntity
  8
SK3
  6
SLD-Dashed
370
    18
100
AcDbLine
 10
7.5857864376
 20
25.2638882842
 30
0.0
 11
8.0
 21
25.1551815441
 31
0.0
  0
LINE
  5
CD
330
1F
100
AcDbEntity
  8
SK3
  6
SLD-Dashed
370
    18
100
AcDbLine
 10
8.0
 20
25.1551815441
 30
0.0
 11
8.4823619098
 21
25.0868456304
 31
0.0
  0
LINE
  5
CE
330
1F
100
AcDbEntity
  8
SK3
  6
SLD-Dashed
370
    18
100
AcDbLine
 10
8.4823619098
 20
25.0868456304
 30
0.0
 11
9.0
 21
25.0635375229
 31
0.0
  0
LINE
  5
CF
330
1F
100
AcDbEntity
  8
SK3
  6
SLD-Dashed
370
    18
100
AcDbLine
 10
9.0
 20
25.0635375229
 30
0.0
 11
9.5176380902
 21
25.0868456304
 31
0.0
  0
LINE
  5
D0
330
1F
100
AcDbEntity
  8
SK3
  6
SLD-Dashed
370
    18
100
AcDbLine
 10
9.5176380902
 20
25.0868456304
 30
0.0
 11
10.0
 21
25.1551815441
 31
0.0
  0
LINE
  5
D1
330
1F
100
AcDbEntity
  8
SK3
  6
SLD-Dashed
370
    18
100
AcDbLine
 10
10.0
 20
25.1551815441
 30
0.0
 11
10.4142135624
 21
25.2638882842
 31
0.0
  0
LINE
  5
D2
330
1F
100
AcDbEntity
  8
SK3
  6
SLD-Dashed
370
    18
100
AcDbLine
 10
10.4142135624
 20
25.2638882842
 30
0.0
 11
10.7320508076
 21
25.4055576662
 31
0.0
  0
LINE
  5
D3
330
1F
100
AcDbEntity
  8
SK3
  6
SLD-Dashed
370
    18
100
AcDbLine
 10
10.7320508076
 20
25.4055576662
 30
0.0
 11
10.9318516526
 21
25.5705351557
 31
0.0
  0
LINE
  5
D4
330
1F
100
AcDbEntity
  8
SK3
  6
SLD-Dashed
370
    18
100
AcDbLine
 10
10.9318516526
 20
25.5705351557
 30
0.0
 11
11.0
 21
25.7475778095
 31
0.0
  0
LINE
  5
D5
330
1F
100
AcDbEntity
  8
SK3
  6
SLD-Dashed
370
    18
100
AcDbLine
 10
11.0
 20
25.7475778095
 30
0.0
 11
10.9318516526
 21
25.9246204633
 31
0.0
  0
LINE
  5
D6
330
1F
100
AcDbEntity
  8
SK3
  6
SLD-Dashed
370
    18
100
AcDbLine
 10
10.9318516526
 20
25.9246204633
 30
0.0
 11
10.7320508076
 21
26.0895979529
 31
0.0
  0
LINE
  5
D7
330
1F
100
AcDbEntity
  8
SK3
  6
SLD-Dashed
370
    18
100
AcDbLine
 10
10.7320508076
 20
26.0895979529
 30
0.0
 11
10.4142135624
 21
26.2312673348
 31
0.0
  0
LINE
  5
D8
330
1F
100
AcDbEntity
  8
SK3
  6
SLD-Dashed
370
    18
100
AcDbLine
 10
10.4142135624
 20
26.2312673348
 30
0.0
 11
10.0
 21
26.339974075
 31
0.0
  0
LINE
  5
D9
330
1F
100
AcDbEntity
  8
SK3
  6
SLD-Dashed
370
    18
100
AcDbLine
 10
10.0
 20
26.339974075
 30
0.0
 11
9.5176380902
 21
26.4083099886
 31
0.0
  0
LINE
  5
DA
330
1F
100
AcDbEntity
  8
SK3
  6
SLD-Dashed
370
    18
100
AcDbLine
 10
9.5176380902
 20
26.4083099886
 30
0.0
 11
9.0
 21
26.4316180962
 31
0.0
  0
LINE
  5
DB
330
1F
100
AcDbEntity
  8
SK3
  6
SLD-Dashed
370
    18
100
AcDbLine
 10
2.2382596061
 20
22.7011180302
 30
0.0
 11
2.3601108266
 21
22.6999184304
 31
0.0
  0
LINE
  5
DC
330
1F
100
AcDbEntity
  8
SK3
  6
SLD-Dashed
370
    18
100
AcDbLine
 10
2.3601108266
 20
22.6999184304
 30
0.0
 11
2.5468345299
 21
22.8090237859
 31
0.0
  0
LINE
  5
DD
330
1F
100
AcDbEntity
  8
SK3
  6
SLD-Dashed
370
    18
100
AcDbLine
 10
2.5468345299
 20
22.8090237859
 30
0.0
 11
2.786698179
 21
23.0215786057
 31
0.0
  0
LINE
  5
DE
330
1F
100
AcDbEntity
  8
SK3
  6
SLD-Dashed
370
    18
100
AcDbLine
 10
2.786698179
 20
23.0215786057
 30
0.0
 11
3.0646302588
 21
23.3242272888
 31
0.0
  0
LINE
  5
DF
330
1F
100
AcDbEntity
  8
SK3
  6
SLD-Dashed
370
    18
100
AcDbLine
 10
3.0646302588
 20
23.3242272888
 30
0.0
 11
3.3631672744
 21
23.6979533055
 31
0.0
  0
LINE
  5
E0
330
1F
100
AcDbEntity
  8
SK3
  6
SLD-Dashed
370
    18
100
AcDbLine
 10
3.3631672744
 20
23.6979533055
 30
0.0
 11
3.6635510473
 21
24.1192740755
 31
0.0
  0
LINE
  5
E1
330
1F
100
AcDbEntity
  8
SK3
  6
SLD-Dashed
370
    18
100
AcDbLine
 10
3.6635510473
 20
24.1192740755
 30
0.0
 11
3.9469073602
 21
24.5617164655
 31
0.0
  0
LINE
  5
E2
330
1F
100
AcDbEntity
  8
SK3
  6
SLD-Dashed
370
    18
100
AcDbLine
 10
3.9469073602
 20
24.5617164655
 30
0.0
 11
4.195431894
 21
24.9974801929
 31
0.0
  0
LINE
  5
E3
330
1F
100
AcDbEntity
  8
SK3
  6
SLD-Dashed
370
    18
100
AcDbLine
 10
4.195431894
 20
24.9974801929
 30
0.0
 11
4.393508938
 21
25.39918462
 31
0.0
  0
LINE
  5
E4
330
1F
100
AcDbEntity
  8
SK3
  6
SLD-Dashed
370
    18
100
AcDbLine
 10
4.393508938
 20
25.39918462
 30
0.0
 11
4.5286925833
 21
25.7415891804
 31
0.0
  0
LINE
  5
E5
330
1F
100
AcDbEntity
  8
SK3
  6
SLD-Dashed
370
    18
100
AcDbLine
 10
4.5286925833
 20
25.7415891804
 30
0.0
 11
4.5924887442
 21
26.0031793362
 31
0.0
  0
LINE
  5
E6
330
1F
100
AcDbEntity
  8
SK3
  6
SLD-Dashed
370
    18
100
AcDbLine
 10
4.5924887442
 20
26.0031793362
 30
0.0
 11
4.5808888732
 21
26.1675184158
 31
0.0
  0
LINE
  5
E7
330
1F
100
AcDbEntity
  8
SK3
  6
SLD-Dashed
370
    18
100
AcDbLine
 10
4.5808888732
 20
26.1675184158
 30
0.0
 11
4.494621833
 21
26.2242803906
 31
0.0
  0
LINE
  5
E8
330
1F
100
AcDbEntity
  8
SK3
  6
SLD-Dashed
370
    18
100
AcDbLine
 10
4.494621833
 20
26.2242803906
 30
0.0
 11
4.3391080989
 21
26.1698986969
 31
0.0
  0
LINE
  5
E9
330
1F
100
AcDbEntity
  8
SK3
  6
SLD-Dashed
370
    18
100
AcDbLine
 10
4.3391080989
 20
26.1698986969
 30
0.0
 11
4.1241191707
 21
26.0077903364
 31
0.0
  0
LINE
  5
EA
330
1F
100
AcDbEntity
  8
SK3
  6
SLD-Dashed
370
    18
100
AcDbLine
 10
4.1241191707
 20
26.0077903364
 30
0.0
 11
3.8631635936
 21
25.7481411737
 31
0.0
  0
LINE
  5
EB
330
1F
100
AcDbEntity
  8
SK3
  6
SLD-Dashed
370
    18
100
AcDbLine
 10
3.8631635936
 20
25.7481411737
 30
0.0
 11
3.5726381662
 21
25.4072659207
 31
0.0
  0
LINE
  5
EC
330
1F
100
AcDbEntity
  8
SK3
  6
SLD-Dashed
370
    18
100
AcDbLine
 10
3.5726381662
 20
25.4072659207
 30
0.0
 11
3.2707976694
 21
25.006583023
 31
0.0
  0
LINE
  5
ED
330
1F
100
AcDbEntity
  8
SK3
  6
SLD-Dashed
370
    18
100
AcDbLine
 10
3.2707976694
 20
25.006583023
 30
0.0
 11
2.9766078519
 21
24.5712688607
 31
0.0
  0
LINE
  5
EE
330
1F
100
AcDbEntity
  8
SK3
  6
SLD-Dashed
370
    18
100
AcDbLine
 10
2.9766078519
 20
24.5712688607
 30
0.0
 11
2.7085537419
 21
24.1286758238
 31
0.0
  0
LINE
  5
EF
330
1F
100
AcDbEntity
  8
SK3
  6
SLD-Dashed
370
    18
100
AcDbLine
 10
2.7085537419
 20
24.1286758238
 30
0.0
 11
2.4834781648
 21
23.7066136603
 31
0.0
  0
LINE
  5
F0
330
1F
100
AcDbEntity
  8
SK3
  6
SLD-Dashed
370
    18
100
AcDbLine
 10
2.4834781648
 20
23.7066136603
 30
0.0
 11
2.315523447
 21
23.3316020883
 31
0.0
  0
LINE
  5
F1
330
1F
100
AcDbEntity
  8
SK3
  6
SLD-Dashed
370
    18
100
AcDbLine
 10
2.315523447
 20
23.3316020883
 30
0.0
 11
2.2152428011
 21
23.027204464
 31
0.0
  0
LINE
  5
F2
330
1F
100
AcDbEntity
  8
SK3
  6
SLD-Dashed
370
    18
100
AcDbLine
 10
2.2152428011
 20
23.027204464
 30
0.0
 11
2.1889372288
 21
22.8125472097
 31
0.0
  0
LINE
  5
F3
330
1F
100
AcDbEntity
  8
SK3
  6
SLD-Dashed
370
    18
100
AcDbLine
 10
2.1889372288
 20
22.8125472097
 30
0.0
 11
2.2382596061
 21
22.7011180302
 31
0.0
  0
LINE
  5
F4
330
1F
100
AcDbEntity
  8
SK3
  6
SLD-Dashed
370
    18
100
AcDbLine
 10
9.0
 20
26.1220249204
 30
0.0
 11
8.5351412812
 21
26.0991654591
 31
0.0
  0
LINE
  5
F5
330
1F
100
AcDbEntity
  8
SK3
  6
SLD-Dashed
370
    18
100
AcDbLine
 10
8.5351412812
 20
26.0991654591
 30
0.0
 11
8.1079426512
 21
26.0324390128
 31
0.0
  0
LINE
  5
F6
330
1F
100
AcDbEntity
  8
SK3
  6
SLD-Dashed
370
    18
100
AcDbLine
 10
8.1079426512
 20
26.0324390128
 30
0.0
 11
7.7530132023
 21
25.9272513613
 31
0.0
  0
LINE
  5
F7
330
1F
100
AcDbEntity
  8
SK3
  6
SLD-Dashed
370
    18
100
AcDbLine
 10
7.7530132023
 20
25.9272513613
 30
0.0
 11
7.4991072077
 21
25.7921241827
 31
0.0
  0
LINE
  5
F8
330
1F
100
AcDbEntity
  8
SK3
  6
SLD-Dashed
370
    18
100
AcDbLine
 10
7.4991072077
 20
25.7921241827
 30
0.0
 11
7.3667946209
 21
25.6380046772
 31
0.0
  0
LINE
  5
F9
330
1F
100
AcDbEntity
  8
SK3
  6
SLD-Dashed
370
    18
100
AcDbLine
 10
7.3667946209
 20
25.6380046772
 30
0.0
 11
7.3667946209
 21
25.4773786906
 31
0.0
  0
LINE
  5
FA
330
1F
100
AcDbEntity
  8
SK3
  6
SLD-Dashed
370
    18
100
AcDbLine
 10
7.3667946209
 20
25.4773786906
 30
0.0
 11
7.4991072077
 21
25.3232591851
 31
0.0
  0
LINE
  5
FB
330
1F
100
AcDbEntity
  8
SK3
  6
SLD-Dashed
370
    18
100
AcDbLine
 10
7.4991072077
 20
25.3232591851
 30
0.0
 11
7.7530132023
 21
25.1881320064
 31
0.0
  0
LINE
  5
FC
330
1F
100
AcDbEntity
  8
SK3
  6
SLD-Dashed
370
    18
100
AcDbLine
 10
7.7530132023
 20
25.1881320064
 30
0.0
 11
8.1079426512
 21
25.082944355
 31
0.0
  0
LINE
  5
FD
330
1F
100
AcDbEntity
  8
SK3
  6
SLD-Dashed
370
    18
100
AcDbLine
 10
8.1079426512
 20
25.082944355
 30
0.0
 11
8.5351412812
 21
25.0162179087
 31
0.0
  0
LINE
  5
FE
330
1F
100
AcDbEntity
  8
SK3
  6
SLD-Dashed
370
    18
100
AcDbLine
 10
8.5351412812
 20
25.0162179087
 30
0.0
 11
9.0
 21
24.9933584474
 31
0.0
  0
LINE
  5
FF
330
1F
100
AcDbEntity
  8
SK3
  6
SLD-Dashed
370
    18
100
AcDbLine
 10
9.0
 20
24.9933584474
 30
0.0
 11
9.4648587188
 21
25.0162179087
 31
0.0
  0
LINE
  5
100
330
1F
100
AcDbEntity
  8
SK3
  6
SLD-Dashed
370
    18
100
AcDbLine
 10
9.4648587188
 20
25.0162179087
 30
0.0
 11
9.8920573488
 21
25.082944355
 31
0.0
  0
LINE
  5
101
330
1F
100
AcDbEntity
  8
SK3
  6
SLD-Dashed
370
    18
100
AcDbLine
 10
9.8920573488
 20
25.082944355
 30
0.0
 11
10.2469867977
 21
25.1881320064
 31
0.0
  0
LINE
  5
102
330
1F
100
AcDbEntity
  8
SK3
  6
SLD-Dashed
370
    18
100
AcDbLine
 10
10.2469867977
 20
25.1881320064
 30
0.0
 11
10.5008927923
 21
25.3232591851
 31
0.0
  0
LINE
  5
103
330
1F
100
AcDbEntity
  8
SK3
  6
SLD-Dashed
370
    18
100
AcDbLine
 10
10.5008927923
 20
25.3232591851
 30
0.0
 11
10.6332053791
 21
25.4773786906
 31
0.0
  0
LINE
  5
104
330
1F
100
AcDbEntity
  8
SK3
  6
SLD-Dashed
370
    18
100
AcDbLine
 10
10.6332053791
 20
25.4773786906
 30
0.0
 11
10.6332053791
 21
25.6380046772
 31
0.0
  0
LINE
  5
105
330
1F
100
AcDbEntity
  8
SK3
  6
SLD-Dashed
370
    18
100
AcDbLine
 10
10.6332053791
 20
25.6380046772
 30
0.0
 11
10.5008927923
 21
25.7921241827
 31
0.0
  0
LINE
  5
106
330
1F
100
AcDbEntity
  8
SK3
  6
SLD-Dashed
370
    18
100
AcDbLine
 10
10.5008927923
 20
25.7921241827
 30
0.0
 11
10.2469867977
 21
25.9272513613
 31
0.0
  0
LINE
  5
107
330
1F
100
AcDbEntity
  8
SK3
  6
SLD-Dashed
370
    18
100
AcDbLine
 10
10.2469867977
 20
25.9272513613
 30
0.0
 11
9.8920573488
 21
26.0324390128
 31
0.0
  0
LINE
  5
108
330
1F
100
AcDbEntity
  8
SK3
  6
SLD-Dashed
370
    18
100
AcDbLine
 10
9.8920573488
 20
26.0324390128
 30
0.0
 11
9.4648587188
 21
26.0991654591
 31
0.0
  0
LINE
  5
109
330
1F
100
AcDbEntity
  8
SK3
  6
SLD-Dashed
370
    18
100
AcDbLine
 10
9.4648587188
 20
26.0991654591
 30
0.0
 11
9.0
 21
26.1220249204
 31
0.0
  0
LINE
  5
10A
330
1F
100
AcDbEntity
  8
SK3
  6
SLD-Dashed
370
    18
100
AcDbLine
 10
2.3207095254
 20
22.8264256948
 30
0.0
 11
2.4399423086
 21
22.8275107239
 31
0.0
  0
LINE
  5
10B
330
1F
100
AcDbEntity
  8
SK3
  6
SLD-Dashed
370
    18
100
AcDbLine
 10
2.4399423086
 20
22.8275107239
 30
0.0
 11
2.6240943094
 21
22.9395354435
 31
0.0
  0
LINE
  5
10C
330
1F
100
AcDbEntity
  8
SK3
  6
SLD-Dashed
370
    18
100
AcDbLine
 10
2.6240943094
 20
22.9395354435
 30
0.0
 11
2.8606158731
 21
23.154865554
 31
0.0
  0
LINE
  5
10D
330
1F
100
AcDbEntity
  8
SK3
  6
SLD-Dashed
370
    18
100
AcDbLine
 10
2.8606158731
 20
23.154865554
 30
0.0
 11
3.1333884461
 21
23.4588266644
 31
0.0
  0
LINE
  5
10E
330
1F
100
AcDbEntity
  8
SK3
  6
SLD-Dashed
370
    18
100
AcDbLine
 10
3.1333884461
 20
23.4588266644
 30
0.0
 11
3.4238230283
 21
23.8307043273
 31
0.0
  0
LINE
  5
10F
330
1F
100
AcDbEntity
  8
SK3
  6
SLD-Dashed
370
    18
100
AcDbLine
 10
3.4238230283
 20
23.8307043273
 30
0.0
 11
3.7121269829
 21
24.2451556944
 31
0.0
  0
LINE
  5
110
330
1F
100
AcDbEntity
  8
SK3
  6
SLD-Dashed
370
    18
100
AcDbLine
 10
3.7121269829
 20
24.2451556944
 30
0.0
 11
3.9786528717
 21
24.6739365901
 31
0.0
  0
LINE
  5
111
330
1F
100
AcDbEntity
  8
SK3
  6
SLD-Dashed
370
    18
100
AcDbLine
 10
3.9786528717
 20
24.6739365901
 30
0.0
 11
4.2052373961
 21
25.0878263049
 31
0.0
  0
LINE
  5
112
330
1F
100
AcDbEntity
  8
SK3
  6
SLD-Dashed
370
    18
100
AcDbLine
 10
4.2052373961
 20
25.0878263049
 30
0.0
 11
4.376439195
 21
25.4586189386
 31
0.0
  0
LINE
  5
113
330
1F
100
AcDbEntity
  8
SK3
  6
SLD-Dashed
370
    18
100
AcDbLine
 10
4.376439195
 20
25.4586189386
 30
0.0
 11
4.4805911487
 21
25.7610455862
 31
0.0
  0
LINE
  5
114
330
1F
100
AcDbEntity
  8
SK3
  6
SLD-Dashed
370
    18
100
AcDbLine
 10
4.4805911487
 20
25.7610455862
 30
0.0
 11
4.5105954739
 21
25.9744963713
 31
0.0
  0
LINE
  5
115
330
1F
100
AcDbEntity
  8
SK3
  6
SLD-Dashed
370
    18
100
AcDbLine
 10
4.5105954739
 20
25.9744963713
 30
0.0
 11
4.4644074252
 21
26.0844249757
 31
0.0
  0
LINE
  5
116
330
1F
100
AcDbEntity
  8
SK3
  6
SLD-Dashed
370
    18
100
AcDbLine
 10
4.4644074252
 20
26.0844249757
 30
0.0
 11
4.3451746419
 21
26.0833399466
 31
0.0
  0
LINE
  5
117
330
1F
100
AcDbEntity
  8
SK3
  6
SLD-Dashed
370
    18
100
AcDbLine
 10
4.3451746419
 20
26.0833399466
 30
0.0
 11
4.1610226412
 21
25.971315227
 31
0.0
  0
LINE
  5
118
330
1F
100
AcDbEntity
  8
SK3
  6
SLD-Dashed
370
    18
100
AcDbLine
 10
4.1610226412
 20
25.971315227
 30
0.0
 11
3.9245010774
 21
25.7559851164
 31
0.0
  0
LINE
  5
119
330
1F
100
AcDbEntity
  8
SK3
  6
SLD-Dashed
370
    18
100
AcDbLine
 10
3.9245010774
 20
25.7559851164
 30
0.0
 11
3.6517285045
 21
25.452024006
 31
0.0
  0
LINE
  5
11A
330
1F
100
AcDbEntity
  8
SK3
  6
SLD-Dashed
370
    18
100
AcDbLine
 10
3.6517285045
 20
25.452024006
 30
0.0
 11
3.3612939223
 21
25.0801463432
 31
0.0
  0
LINE
  5
11B
330
1F
100
AcDbEntity
  8
SK3
  6
SLD-Dashed
370
    18
100
AcDbLine
 10
3.3612939223
 20
25.0801463432
 30
0.0
 11
3.0729899677
 21
24.665694976
 31
0.0
  0
LINE
  5
11C
330
1F
100
AcDbEntity
  8
SK3
  6
SLD-Dashed
370
    18
100
AcDbLine
 10
3.0729899677
 20
24.665694976
 30
0.0
 11
2.8064640788
 21
24.2369140804
 31
0.0
  0
LINE
  5
11D
330
1F
100
AcDbEntity
  8
SK3
  6
SLD-Dashed
370
    18
100
AcDbLine
 10
2.8064640788
 20
24.2369140804
 30
0.0
 11
2.5798795545
 21
23.8230243656
 31
0.0
  0
LINE
  5
11E
330
1F
100
AcDbEntity
  8
SK3
  6
SLD-Dashed
370
    18
100
AcDbLine
 10
2.5798795545
 20
23.8230243656
 30
0.0
 11
2.4086777556
 21
23.4522317318
 31
0.0
  0
LINE
  5
11F
330
1F
100
AcDbEntity
  8
SK3
  6
SLD-Dashed
370
    18
100
AcDbLine
 10
2.4086777556
 20
23.4522317318
 30
0.0
 11
2.3045258018
 21
23.1498050843
 31
0.0
  0
LINE
  5
120
330
1F
100
AcDbEntity
  8
SK3
  6
SLD-Dashed
370
    18
100
AcDbLine
 10
2.3045258018
 20
23.1498050843
 30
0.0
 11
2.2745214767
 21
22.9363542992
 31
0.0
  0
LINE
  5
121
330
1F
100
AcDbEntity
  8
SK3
  6
SLD-Dashed
370
    18
100
AcDbLine
 10
2.2745214767
 20
22.9363542992
 30
0.0
 11
2.3207095254
 21
22.8264256948
 31
0.0
  0
LINE
  5
122
330
1F
100
AcDbEntity
  8
SK3
  6
SLD-Dashed
370
    18
100
AcDbLine
 10
7.4570510199
 20
24.1052202839
 30
0.0
 11
7.3976883993
 21
24.1456788519
 31
0.0
  0
LINE
  5
123
330
1F
100
AcDbEntity
  8
SK3
  6
SLD-Dashed
370
    18
100
AcDbLine
 10
7.3976883993
 20
24.1456788519
 30
0.0
 11
7.3535770614
 21
24.1197714526
 31
0.0
  0
LINE
  5
124
330
1F
100
AcDbEntity
  8
SK3
  6
SLD-Dashed
370
    18
100
AcDbLine
 10
7.3535770614
 20
24.1197714526
 30
0.0
 11
7.361074152
 21
24.0051579741
 31
0.0
  0
LINE
  5
125
330
1F
100
AcDbEntity
  8
SK3
  6
SLD-Dashed
370
    18
100
AcDbLine
 10
7.361074152
 20
24.0051579741
 30
0.0
 11
7.4129285201
 21
23.831942356
 31
0.0
  0
LINE
  5
126
330
1F
100
AcDbEntity
  8
SK3
  6
SLD-Dashed
370
    18
100
AcDbLine
 10
7.4129285201
 20
23.831942356
 30
0.0
 11
7.5585112941
 21
23.4782549596
 31
0.0
  0
LINE
  5
127
330
1F
100
AcDbEntity
  8
SK3
  6
SLD-Dashed
370
    18
100
AcDbLine
 10
7.5585112941
 20
23.4782549596
 30
0.0
 11
7.9049335919
 21
22.7960887741
 31
0.0
  0
LINE
  5
128
330
1F
100
AcDbEntity
  8
SK3
  6
SLD-Dashed
370
    18
100
AcDbLine
 10
7.9049335919
 20
22.7960887741
 30
0.0
 11
8.2587545243
 21
22.2137219987
 31
0.0
  0
LINE
  5
129
330
1F
100
AcDbEntity
  8
SK3
  6
SLD-Dashed
370
    18
100
AcDbLine
 10
8.2587545243
 20
22.2137219987
 30
0.0
 11
8.6897174442
 21
21.6598949107
 31
0.0
  0
LINE
  5
12A
330
1F
100
AcDbEntity
  8
SK3
  6
SLD-Dashed
370
    18
100
AcDbLine
 10
8.6897174442
 20
21.6598949107
 30
0.0
 11
9.0187825099
 21
21.3815375084
 31
0.0
  0
LINE
  5
12B
330
1F
100
AcDbEntity
  8
SK3
  6
SLD-Dashed
370
    18
100
AcDbLine
 10
9.0187825099
 20
21.3815375084
 30
0.0
 11
9.3310463374
 21
21.2463430543
 31
0.0
  0
LINE
  5
12C
330
1F
100
AcDbEntity
  8
SK3
  6
SLD-Dashed
370
    18
100
AcDbLine
 10
9.3310463374
 20
21.2463430543
 30
0.0
 11
9.6616044379
 21
21.2267833783
 31
0.0
  0
LINE
  5
12D
330
1F
100
AcDbEntity
  8
SK3
  6
SLD-Dashed
370
    18
100
AcDbLine
 10
9.6616044379
 20
21.2267833783
 30
0.0
 11
10.0490816672
 21
21.3339609132
 31
0.0
  0
LINE
  5
12E
330
1F
100
AcDbEntity
  8
SK3
  6
SLD-Dashed
370
    18
100
AcDbLine
 10
10.0490816672
 20
21.3339609132
 30
0.0
 11
10.3629042855
 21
21.51710624
 31
0.0
  0
LINE
  5
12F
330
1F
100
AcDbEntity
  8
SK3
  6
SLD-Dashed
370
    18
100
AcDbLine
 10
10.3629042855
 20
21.51710624
 30
0.0
 11
10.5951935462
 21
21.75600212
 31
0.0
  0
LINE
  5
130
330
1F
100
AcDbEntity
  8
SK3
  6
SLD-Dashed
370
    18
100
AcDbLine
 10
10.5951935462
 20
21.75600212
 30
0.0
 11
10.6450791666
 21
21.9591380276
 31
0.0
  0
LINE
  5
131
330
1F
100
AcDbEntity
  8
SK3
  6
SLD-Dashed
370
    18
100
AcDbLine
 10
10.6450791666
 20
21.9591380276
 30
0.0
 11
10.5210923685
 21
22.0969583763
 31
0.0
  0
LINE
  5
132
330
1F
100
AcDbEntity
  8
SK3
  6
SLD-Dashed
370
    18
100
AcDbLine
 10
10.5210923685
 20
22.0969583763
 30
0.0
 11
10.2406535263
 21
22.1781146638
 31
0.0
  0
LINE
  5
133
330
1F
100
AcDbEntity
  8
SK3
  6
SLD-Dashed
370
    18
100
AcDbLine
 10
10.2406535263
 20
22.1781146638
 30
0.0
 11
9.8074172571
 21
22.2364096103
 31
0.0
  0
LINE
  5
134
330
1F
100
AcDbEntity
  8
SK3
  6
SLD-Dashed
370
    18
100
AcDbLine
 10
9.8074172571
 20
22.2364096103
 30
0.0
 11
9.4692948959
 21
22.3061562179
 31
0.0
  0
LINE
  5
135
330
1F
100
AcDbEntity
  8
SK3
  6
SLD-Dashed
370
    18
100
AcDbLine
 10
9.4692948959
 20
22.3061562179
 30
0.0
 11
9.1269876917
 21
22.4459693682
 31
0.0
  0
LINE
  5
136
330
1F
100
AcDbEntity
  8
SK3
  6
SLD-Dashed
370
    18
100
AcDbLine
 10
9.1269876917
 20
22.4459693682
 30
0.0
 11
9.0
 21
22.5223312367
 31
0.0
  0
LINE
  5
137
330
1F
100
AcDbEntity
  8
SK3
  6
SLD-Dashed
370
    18
100
AcDbLine
 10
13.5430925321
 20
15.4423237325
 30
0.0
 11
13.6623253154
 21
15.4434087615
 31
0.0
  0
LINE
  5
138
330
1F
100
AcDbEntity
  8
SK3
  6
SLD-Dashed
370
    18
100
AcDbLine
 10
13.6623253154
 20
15.4434087615
 30
0.0
 11
13.8464773162
 21
15.5554334811
 31
0.0
  0
LINE
  5
139
330
1F
100
AcDbEntity
  8
SK3
  6
SLD-Dashed
370
    18
100
AcDbLine
 10
13.8464773162
 20
15.5554334811
 30
0.0
 11
14.0829988799
 21
15.7707635917
 31
0.0
  0
LINE
  5
13A
330
1F
100
AcDbEntity
  8
SK3
  6
SLD-Dashed
370
    18
100
AcDbLine
 10
14.0829988799
 20
15.7707635917
 30
0.0
 11
14.3557714529
 21
16.0747247021
 31
0.0
  0
LINE
  5
13B
330
1F
100
AcDbEntity
  8
SK3
  6
SLD-Dashed
370
    18
100
AcDbLine
 10
14.3557714529
 20
16.0747247021
 30
0.0
 11
14.6462060351
 21
16.446602365
 31
0.0
  0
LINE
  5
13C
330
1F
100
AcDbEntity
  8
SK3
  6
SLD-Dashed
370
    18
100
AcDbLine
 10
14.6462060351
 20
16.446602365
 30
0.0
 11
14.9345099896
 21
16.8610537321
 31
0.0
  0
LINE
  5
13D
330
1F
100
AcDbEntity
  8
SK3
  6
SLD-Dashed
370
    18
100
AcDbLine
 10
14.9345099896
 20
16.8610537321
 30
0.0
 11
15.2010358785
 21
17.2898346278
 31
0.0
  0
LINE
  5
13E
330
1F
100
AcDbEntity
  8
SK3
  6
SLD-Dashed
370
    18
100
AcDbLine
 10
15.2010358785
 20
17.2898346278
 30
0.0
 11
15.4276204028
 21
17.7037243425
 31
0.0
  0
LINE
  5
13F
330
1F
100
AcDbEntity
  8
SK3
  6
SLD-Dashed
370
    18
100
AcDbLine
 10
15.4276204028
 20
17.7037243425
 30
0.0
 11
15.5988222017
 21
18.0745169763
 31
0.0
  0
LINE
  5
140
330
1F
100
AcDbEntity
  8
SK3
  6
SLD-Dashed
370
    18
100
AcDbLine
 10
15.5988222017
 20
18.0745169763
 30
0.0
 11
15.7029741555
 21
18.3769436239
 31
0.0
  0
LINE
  5
141
330
1F
100
AcDbEntity
  8
SK3
  6
SLD-Dashed
370
    18
100
AcDbLine
 10
15.7029741555
 20
18.3769436239
 30
0.0
 11
15.7329784806
 21
18.590394409
 31
0.0
  0
LINE
  5
142
330
1F
100
AcDbEntity
  8
SK3
  6
SLD-Dashed
370
    18
100
AcDbLine
 10
15.7329784806
 20
18.590394409
 30
0.0
 11
15.686790432
 21
18.7003230133
 31
0.0
  0
LINE
  5
143
330
1F
100
AcDbEntity
  8
SK3
  6
SLD-Dashed
370
    18
100
AcDbLine
 10
15.686790432
 20
18.7003230133
 30
0.0
 11
15.5675576487
 21
18.6992379843
 31
0.0
  0
LINE
  5
144
330
1F
100
AcDbEntity
  8
SK3
  6
SLD-Dashed
370
    18
100
AcDbLine
 10
15.5675576487
 20
18.6992379843
 30
0.0
 11
15.3834056479
 21
18.5872132647
 31
0.0
  0
LINE
  5
145
330
1F
100
AcDbEntity
  8
SK3
  6
SLD-Dashed
370
    18
100
AcDbLine
 10
15.3834056479
 20
18.5872132647
 30
0.0
 11
15.1468840842
 21
18.3718831541
 31
0.0
  0
LINE
  5
146
330
1F
100
AcDbEntity
  8
SK3
  6
SLD-Dashed
370
    18
100
AcDbLine
 10
15.1468840842
 20
18.3718831541
 30
0.0
 11
14.8741115112
 21
18.0679220437
 31
0.0
  0
LINE
  5
147
330
1F
100
AcDbEntity
  8
SK3
  6
SLD-Dashed
370
    18
100
AcDbLine
 10
14.8741115112
 20
18.0679220437
 30
0.0
 11
14.583676929
 21
17.6960443809
 31
0.0
  0
LINE
  5
148
330
1F
100
AcDbEntity
  8
SK3
  6
SLD-Dashed
370
    18
100
AcDbLine
 10
14.583676929
 20
17.6960443809
 30
0.0
 11
14.2953729745
 21
17.2815930137
 31
0.0
  0
LINE
  5
149
330
1F
100
AcDbEntity
  8
SK3
  6
SLD-Dashed
370
    18
100
AcDbLine
 10
14.2953729745
 20
17.2815930137
 30
0.0
 11
14.0288470856
 21
16.852812118
 31
0.0
  0
LINE
  5
14A
330
1F
100
AcDbEntity
  8
SK3
  6
SLD-Dashed
370
    18
100
AcDbLine
 10
14.0288470856
 20
16.852812118
 30
0.0
 11
13.8022625613
 21
16.4389224033
 31
0.0
  0
LINE
  5
14B
330
1F
100
AcDbEntity
  8
SK3
  6
SLD-Dashed
370
    18
100
AcDbLine
 10
13.8022625613
 20
16.4389224033
 30
0.0
 11
13.6310607624
 21
16.0681297695
 31
0.0
  0
LINE
  5
14C
330
1F
100
AcDbEntity
  8
SK3
  6
SLD-Dashed
370
    18
100
AcDbLine
 10
13.6310607624
 20
16.0681297695
 30
0.0
 11
13.5269088086
 21
15.7657031219
 31
0.0
  0
LINE
  5
14D
330
1F
100
AcDbEntity
  8
SK3
  6
SLD-Dashed
370
    18
100
AcDbLine
 10
13.5269088086
 20
15.7657031219
 30
0.0
 11
13.4969044835
 21
15.5522523368
 31
0.0
  0
LINE
  5
14E
330
1F
100
AcDbEntity
  8
SK3
  6
SLD-Dashed
370
    18
100
AcDbLine
 10
13.4969044835
 20
15.5522523368
 30
0.0
 11
13.5430925321
 21
15.4423237325
 31
0.0
  0
LINE
  5
14F
330
1F
100
AcDbEntity
  8
SK3
  6
SLD-Dashed
370
    18
100
AcDbLine
 10
-63.65
 20
-8.505
 30
0.0
 11
-63.65
 21
8.505
 31
0.0
  0
LINE
  5
150
330
1F
100
AcDbEntity
  8
SK3
  6
SLD-Dashed
370
    18
100
AcDbLine
 10
-56.15
 20
-8.8
 30
0.0
 11
-56.15
 21
8.8
 31
0.0
  0
LINE
  5
151
330
1F
100
AcDbEntity
  8
SK3
  6
SLD-Dashed
370
    18
100
AcDbLine
 10
-59.15
 20
-8.8
 30
0.0
 11
-59.15
 21
8.8
 31
0.0
  0
LINE
  5
152
330
1F
100
AcDbEntity
  8
SK3
  6
SLD-Dashed
370
    18
100
AcDbLine
 10
-59.6609549882
 20
-8.505
 30
0.0
 11
-59.6609549882
 21
8.505
 31
0.0
  0
LINE
  5
153
330
1F
100
AcDbEntity
  8
SK3
  6
SLD-Dashed
370
    18
100
AcDbLine
 10
-55.1107695155
 20
-7.0
 30
0.0
 11
-55.1107695155
 21
7.0
 31
0.0
  0
LINE
  5
154
330
1F
100
AcDbEntity
  8
SK3
  6
SLD-Dashed
370
    18
100
AcDbLine
 10
99.0
 20
-8.0
 30
0.0
 11
99.0
 21
8.0
 31
0.0
  0
LINE
  5
155
330
1F
100
AcDbEntity
  8
SK3
  6
SLD-Dashed
370
    18
100
AcDbLine
 10
50.0
 20
8.0
 30
0.0
 11
50.0
 21
-7.9999999828
 31
0.0
  0
LINE
  5
156
330
1F
100
AcDbEntity
  8
SK3
  6
SLD-Dashed
370
    18
100
AcDbLine
 10
50.25
 20
8.25
 30
0.0
 11
50.25
 21
-8.25
 31
0.0
  0
LINE
  5
157
330
1F
100
AcDbEntity
  8
SK3
  6
SLD-Dashed
370
    18
100
AcDbLine
 10
52.75
 20
8.25
 30
0.0
 11
52.75
 21
-8.25
 31
0.0
  0
LINE
  5
158
330
1F
100
AcDbEntity
  8
SK3
  6
SLD-Dashed
370
    18
100
AcDbLine
 10
53.0
 20
8.0
 30
0.0
 11
53.0
 21
-7.9999999828
 31
0.0
  0
LINE
  5
159
330
1F
100
AcDbEntity
  8
SK3
  6
SLD-Dashed
370
    18
100
AcDbLine
 10
84.1
 20
-22.3
 30
0.0
 11
67.9
 21
-22.3
 31
0.0
  0
LINE
  5
15A
330
1F
100
AcDbEntity
  8
SK3
  6
SLD-Dashed
370
    18
100
AcDbLine
 10
4.4644074252
 20
-26.0844249757
 30
0.0
 11
4.3451746419
 21
-26.0833399466
 31
0.0
  0
LINE
  5
15B
330
1F
100
AcDbEntity
  8
SK3
  6
SLD-Dashed
370
    18
100
AcDbLine
 10
4.3451746419
 20
-26.0833399466
 30
0.0
 11
4.1610226412
 21
-25.971315227
 31
0.0
  0
LINE
  5
15C
330
1F
100
AcDbEntity
  8
SK3
  6
SLD-Dashed
370
    18
100
AcDbLine
 10
4.1610226412
 20
-25.971315227
 30
0.0
 11
3.9245010774
 21
-25.7559851164
 31
0.0
  0
LINE
  5
15D
330
1F
100
AcDbEntity
  8
SK3
  6
SLD-Dashed
370
    18
100
AcDbLine
 10
3.9245010774
 20
-25.7559851164
 30
0.0
 11
3.6517285045
 21
-25.452024006
 31
0.0
  0
LINE
  5
15E
330
1F
100
AcDbEntity
  8
SK3
  6
SLD-Dashed
370
    18
100
AcDbLine
 10
3.6517285045
 20
-25.452024006
 30
0.0
 11
3.3612939223
 21
-25.0801463432
 31
0.0
  0
LINE
  5
15F
330
1F
100
AcDbEntity
  8
SK3
  6
SLD-Dashed
370
    18
100
AcDbLine
 10
3.3612939223
 20
-25.0801463432
 30
0.0
 11
3.0729899677
 21
-24.665694976
 31
0.0
  0
LINE
  5
160
330
1F
100
AcDbEntity
  8
SK3
  6
SLD-Dashed
370
    18
100
AcDbLine
 10
3.0729899677
 20
-24.665694976
 30
0.0
 11
2.8064640788
 21
-24.2369140804
 31
0.0
  0
LINE
  5
161
330
1F
100
AcDbEntity
  8
SK3
  6
SLD-Dashed
370
    18
100
AcDbLine
 10
2.8064640788
 20
-24.2369140804
 30
0.0
 11
2.5798795545
 21
-23.8230243656
 31
0.0
  0
LINE
  5
162
330
1F
100
AcDbEntity
  8
SK3
  6
SLD-Dashed
370
    18
100
AcDbLine
 10
2.5798795545
 20
-23.8230243656
 30
0.0
 11
2.4086777556
 21
-23.4522317318
 31
0.0
  0
LINE
  5
163
330
1F
100
AcDbEntity
  8
SK3
  6
SLD-Dashed
370
    18
100
AcDbLine
 10
2.4086777556
 20
-23.4522317318
 30
0.0
 11
2.3045258018
 21
-23.1498050843
 31
0.0
  0
LINE
  5
164
330
1F
100
AcDbEntity
  8
SK3
  6
SLD-Dashed
370
    18
100
AcDbLine
 10
2.3045258018
 20
-23.1498050843
 30
0.0
 11
2.2745214767
 21
-22.9363542992
 31
0.0
  0
LINE
  5
165
330
1F
100
AcDbEntity
  8
SK3
  6
SLD-Dashed
370
    18
100
AcDbLine
 10
2.2745214767
 20
-22.9363542992
 30
0.0
 11
2.3207095254
 21
-22.8264256948
 31
0.0
  0
LINE
  5
166
330
1F
100
AcDbEntity
  8
SK3
  6
SLD-Dashed
370
    18
100
AcDbLine
 10
2.3207095254
 20
-22.8264256948
 30
0.0
 11
2.4399423086
 21
-22.8275107239
 31
0.0
  0
LINE
  5
167
330
1F
100
AcDbEntity
  8
SK3
  6
SLD-Dashed
370
    18
100
AcDbLine
 10
2.4399423086
 20
-22.8275107239
 30
0.0
 11
2.6240943094
 21
-22.9395354435
 31
0.0
  0
LINE
  5
168
330
1F
100
AcDbEntity
  8
SK3
  6
SLD-Dashed
370
    18
100
AcDbLine
 10
2.6240943094
 20
-22.9395354435
 30
0.0
 11
2.8606158731
 21
-23.154865554
 31
0.0
  0
LINE
  5
169
330
1F
100
AcDbEntity
  8
SK3
  6
SLD-Dashed
370
    18
100
AcDbLine
 10
2.8606158731
 20
-23.154865554
 30
0.0
 11
3.1333884461
 21
-23.4588266644
 31
0.0
  0
LINE
  5
16A
330
1F
100
AcDbEntity
  8
SK3
  6
SLD-Dashed
370
    18
100
AcDbLine
 10
3.1333884461
 20
-23.4588266644
 30
0.0
 11
3.4238230283
 21
-23.8307043273
 31
0.0
  0
LINE
  5
16B
330
1F
100
AcDbEntity
  8
SK3
  6
SLD-Dashed
370
    18
100
AcDbLine
 10
3.4238230283
 20
-23.8307043273
 30
0.0
 11
3.7121269829
 21
-24.2451556944
 31
0.0
  0
LINE
  5
16C
330
1F
100
AcDbEntity
  8
SK3
  6
SLD-Dashed
370
    18
100
AcDbLine
 10
3.7121269829
 20
-24.2451556944
 30
0.0
 11
3.9786528717
 21
-24.6739365901
 31
0.0
  0
LINE
  5
16D
330
1F
100
AcDbEntity
  8
SK3
  6
SLD-Dashed
370
    18
100
AcDbLine
 10
3.9786528717
 20
-24.6739365901
 30
0.0
 11
4.2052373961
 21
-25.0878263049
 31
0.0
  0
LINE
  5
16E
330
1F
100
AcDbEntity
  8
SK3
  6
SLD-Dashed
370
    18
100
AcDbLine
 10
4.2052373961
 20
-25.0878263049
 30
0.0
 11
4.376439195
 21
-25.4586189386
 31
0.0
  0
LINE
  5
16F
330
1F
100
AcDbEntity
  8
SK3
  6
SLD-Dashed
370
    18
100
AcDbLine
 10
4.376439195
 20
-25.4586189386
 30
0.0
 11
4.4805911487
 21
-25.7610455862
 31
0.0
  0
LINE
  5
170
330
1F
100
AcDbEntity
  8
SK3
  6
SLD-Dashed
370
    18
100
AcDbLine
 10
4.4805911487
 20
-25.7610455862
 30
0.0
 11
4.5105954739
 21
-25.9744963713
 31
0.0
  0
LINE
  5
171
330
1F
100
AcDbEntity
  8
SK3
  6
SLD-Dashed
370
    18
100
AcDbLine
 10
4.5105954739
 20
-25.9744963713
 30
0.0
 11
4.4644074252
 21
-26.0844249757
 31
0.0
  0
LINE
  5
172
330
1F
100
AcDbEntity
  8
SK3
  6
SLD-Dashed
370
    18
100
AcDbLine
 10
15.686790432
 20
-18.7003230133
 30
0.0
 11
15.5675576487
 21
-18.6992379843
 31
0.0
  0
LINE
  5
173
330
1F
100
AcDbEntity
  8
SK3
  6
SLD-Dashed
370
    18
100
AcDbLine
 10
15.5675576487
 20
-18.6992379843
 30
0.0
 11
15.3834056479
 21
-18.5872132647
 31
0.0
  0
LINE
  5
174
330
1F
100
AcDbEntity
  8
SK3
  6
SLD-Dashed
370
    18
100
AcDbLine
 10
15.3834056479
 20
-18.5872132647
 30
0.0
 11
15.1468840842
 21
-18.3718831541
 31
0.0
  0
LINE
  5
175
330
1F
100
AcDbEntity
  8
SK3
  6
SLD-Dashed
370
    18
100
AcDbLine
 10
15.1468840842
 20
-18.3718831541
 30
0.0
 11
14.8741115112
 21
-18.0679220437
 31
0.0
  0
LINE
  5
176
330
1F
100
AcDbEntity
  8
SK3
  6
SLD-Dashed
370
    18
100
AcDbLine
 10
14.8741115112
 20
-18.0679220437
 30
0.0
 11
14.583676929
 21
-17.6960443809
 31
0.0
  0
LINE
  5
177
330
1F
100
AcDbEntity
  8
SK3
  6
SLD-Dashed
370
    18
100
AcDbLine
 10
14.583676929
 20
-17.6960443809
 30
0.0
 11
14.2953729745
 21
-17.2815930137
 31
0.0
  0
LINE
  5
178
330
1F
100
AcDbEntity
  8
SK3
  6
SLD-Dashed
370
    18
100
AcDbLine
 10
14.2953729745
 20
-17.2815930137
 30
0.0
 11
14.0288470856
 21
-16.852812118
 31
0.0
  0
LINE
  5
179
330
1F
100
AcDbEntity
  8
SK3
  6
SLD-Dashed
370
    18
100
AcDbLine
 10
14.0288470856
 20
-16.852812118
 30
0.0
 11
13.8022625613
 21
-16.4389224033
 31
0.0
  0
LINE
  5
17A
330
1F
100
AcDbEntity
  8
SK3
  6
SLD-Dashed
370
    18
100
AcDbLine
 10
13.8022625613
 20
-16.4389224033
 30
0.0
 11
13.6310607624
 21
-16.0681297695
 31
0.0
  0
LINE
  5
17B
330
1F
100
AcDbEntity
  8
SK3
  6
SLD-Dashed
370
    18
100
AcDbLine
 10
13.6310607624
 20
-16.0681297695
 30
0.0
 11
13.5269088086
 21
-15.7657031219
 31
0.0
  0
LINE
  5
17C
330
1F
100
AcDbEntity
  8
SK3
  6
SLD-Dashed
370
    18
100
AcDbLine
 10
13.5269088086
 20
-15.7657031219
 30
0.0
 11
13.4969044835
 21
-15.5522523368
 31
0.0
  0
LINE
  5
17D
330
1F
100
AcDbEntity
  8
SK3
  6
SLD-Dashed
370
    18
100
AcDbLine
 10
13.4969044835
 20
-15.5522523368
 30
0.0
 11
13.5430925321
 21
-15.4423237325
 31
0.0
  0
LINE
  5
17E
330
1F
100
AcDbEntity
  8
SK3
  6
SLD-Dashed
370
    18
100
AcDbLine
 10
13.5430925321
 20
-15.4423237325
 30
0.0
 11
13.6623253154
 21
-15.4434087615
 31
0.0
  0
LINE
  5
17F
330
1F
100
AcDbEntity
  8
SK3
  6
SLD-Dashed
370
    18
100
AcDbLine
 10
13.6623253154
 20
-15.4434087615
 30
0.0
 11
13.8464773162
 21
-15.5554334811
 31
0.0
  0
LINE
  5
180
330
1F
100
AcDbEntity
  8
SK3
  6
SLD-Dashed
370
    18
100
AcDbLine
 10
13.8464773162
 20
-15.5554334811
 30
0.0
 11
14.0829988799
 21
-15.7707635917
 31
0.0
  0
LINE
  5
181
330
1F
100
AcDbEntity
  8
SK3
  6
SLD-Dashed
370
    18
100
AcDbLine
 10
14.0829988799
 20
-15.7707635917
 30
0.0
 11
14.3557714529
 21
-16.0747247021
 31
0.0
  0
LINE
  5
182
330
1F
100
AcDbEntity
  8
SK3
  6
SLD-Dashed
370
    18
100
AcDbLine
 10
14.3557714529
 20
-16.0747247021
 30
0.0
 11
14.6462060351
 21
-16.446602365
 31
0.0
  0
LINE
  5
183
330
1F
100
AcDbEntity
  8
SK3
  6
SLD-Dashed
370
    18
100
AcDbLine
 10
14.6462060351
 20
-16.446602365
 30
0.0
 11
14.9345099896
 21
-16.8610537321
 31
0.0
  0
LINE
  5
184
330
1F
100
AcDbEntity
  8
SK3
  6
SLD-Dashed
370
    18
100
AcDbLine
 10
14.9345099896
 20
-16.8610537321
 30
0.0
 11
15.2010358785
 21
-17.2898346278
 31
0.0
  0
LINE
  5
185
330
1F
100
AcDbEntity
  8
SK3
  6
SLD-Dashed
370
    18
100
AcDbLine
 10
15.2010358785
 20
-17.2898346278
 30
0.0
 11
15.4276204028
 21
-17.7037243425
 31
0.0
  0
LINE
  5
186
330
1F
100
AcDbEntity
  8
SK3
  6
SLD-Dashed
370
    18
100
AcDbLine
 10
15.4276204028
 20
-17.7037243425
 30
0.0
 11
15.5988222017
 21
-18.0745169763
 31
0.0
  0
LINE
  5
187
330
1F
100
AcDbEntity
  8
SK3
  6
SLD-Dashed
370
    18
100
AcDbLine
 10
15.5988222017
 20
-18.0745169763
 30
0.0
 11
15.7029741555
 21
-18.3769436239
 31
0.0
  0
LINE
  5
188
330
1F
100
AcDbEntity
  8
SK3
  6
SLD-Dashed
370
    18
100
AcDbLine
 10
15.7029741555
 20
-18.3769436239
 30
0.0
 11
15.7329784806
 21
-18.590394409
 31
0.0
  0
LINE
  5
189
330
1F
100
AcDbEntity
  8
SK3
  6
SLD-Dashed
370
    18
100
AcDbLine
 10
15.7329784806
 20
-18.590394409
 30
0.0
 11
15.686790432
 21
-18.7003230133
 31
0.0
  0
LINE
  5
18A
330
1F
100
AcDbEntity
  8
SK3
  6
SLD-Dashed
370
    18
100
AcDbLine
 10
7.3820378341
 20
-24.1470331691
 30
0.0
 11
7.3504918459
 21
-24.1014337538
 31
0.0
  0
LINE
  5
18B
330
1F
100
AcDbEntity
  8
SK3
  6
SLD-Dashed
370
    18
100
AcDbLine
 10
7.3504918459
 20
-24.1014337538
 30
0.0
 11
7.3687923493
 21
-23.9729506595
 31
0.0
  0
LINE
  5
18C
330
1F
100
AcDbEntity
  8
SK3
  6
SLD-Dashed
370
    18
100
AcDbLine
 10
7.3687923493
 20
-23.9729506595
 30
0.0
 11
7.4479218764
 21
-23.7382957702
 31
0.0
  0
LINE
  5
18D
330
1F
100
AcDbEntity
  8
SK3
  6
SLD-Dashed
370
    18
100
AcDbLine
 10
7.4479218764
 20
-23.7382957702
 30
0.0
 11
7.6410805432
 21
-23.3023903098
 31
0.0
  0
LINE
  5
18E
330
1F
100
AcDbEntity
  8
SK3
  6
SLD-Dashed
370
    18
100
AcDbLine
 10
7.6410805432
 20
-23.3023903098
 30
0.0
 11
8.105178812
 21
-22.4536692312
 31
0.0
  0
LINE
  5
18F
330
1F
100
AcDbEntity
  8
SK3
  6
SLD-Dashed
370
    18
100
AcDbLine
 10
8.105178812
 20
-22.4536692312
 30
0.0
 11
8.7667857623
 21
-21.582430302
 31
0.0
  0
LINE
  5
190
330
1F
100
AcDbEntity
  8
SK3
  6
SLD-Dashed
370
    18
100
AcDbLine
 10
8.7667857623
 20
-21.582430302
 30
0.0
 11
9.093568309
 21
-21.3378291832
 31
0.0
  0
LINE
  5
191
330
1F
100
AcDbEntity
  8
SK3
  6
SLD-Dashed
370
    18
100
AcDbLine
 10
9.093568309
 20
-21.3378291832
 30
0.0
 11
9.4029273959
 21
-21.2321009531
 31
0.0
  0
LINE
  5
192
330
1F
100
AcDbEntity
  8
SK3
  6
SLD-Dashed
370
    18
100
AcDbLine
 10
9.4029273959
 20
-21.2321009531
 30
0.0
 11
9.7191716979
 21
-21.2345133763
 31
0.0
  0
LINE
  5
193
330
1F
100
AcDbEntity
  8
SK3
  6
SLD-Dashed
370
    18
100
AcDbLine
 10
9.7191716979
 20
-21.2345133763
 30
0.0
 11
10.1148068689
 21
-21.3646203742
 31
0.0
  0
LINE
  5
194
330
1F
100
AcDbEntity
  8
SK3
  6
SLD-Dashed
370
    18
100
AcDbLine
 10
10.1148068689
 20
-21.3646203742
 30
0.0
 11
10.4222460794
 21
-21.5646137107
 31
0.0
  0
LINE
  5
195
330
1F
100
AcDbEntity
  8
SK3
  6
SLD-Dashed
370
    18
100
AcDbLine
 10
10.4222460794
 20
-21.5646137107
 30
0.0
 11
10.6206198047
 21
-21.8019877866
 31
0.0
  0
LINE
  5
196
330
1F
100
AcDbEntity
  8
SK3
  6
SLD-Dashed
370
    18
100
AcDbLine
 10
10.6206198047
 20
-21.8019877866
 30
0.0
 11
10.633134177
 21
-21.9923554895
 31
0.0
  0
LINE
  5
197
330
1F
100
AcDbEntity
  8
SK3
  6
SLD-Dashed
370
    18
100
AcDbLine
 10
10.633134177
 20
-21.9923554895
 30
0.0
 11
10.5530882486
 21
-22.0781956401
 31
0.0
  0
LINE
  5
198
330
1F
100
AcDbEntity
  8
SK3
  6
SLD-Dashed
370
    18
100
AcDbLine
 10
9.0
 20
-24.3375212143
 30
0.0
 11
8.5351412812
 21
-24.3603806756
 31
0.0
  0
LINE
  5
199
330
1F
100
AcDbEntity
  8
SK3
  6
SLD-Dashed
370
    18
100
AcDbLine
 10
8.5351412812
 20
-24.3603806756
 30
0.0
 11
8.1079426512
 21
-24.4271071219
 31
0.0
  0
LINE
  5
19A
330
1F
100
AcDbEntity
  8
SK3
  6
SLD-Dashed
370
    18
100
AcDbLine
 10
8.1079426512
 20
-24.4271071219
 30
0.0
 11
7.7530132023
 21
-24.5322947734
 31
0.0
  0
LINE
  5
19B
330
1F
100
AcDbEntity
  8
SK3
  6
SLD-Dashed
370
    18
100
AcDbLine
 10
7.7530132023
 20
-24.5322947734
 30
0.0
 11
7.4991072077
 21
-24.6674219521
 31
0.0
  0
LINE
  5
19C
330
1F
100
AcDbEntity
  8
SK3
  6
SLD-Dashed
370
    18
100
AcDbLine
 10
7.4991072077
 20
-24.6674219521
 30
0.0
 11
7.3667946209
 21
-24.8215414575
 31
0.0
  0
LINE
  5
19D
330
1F
100
AcDbEntity
  8
SK3
  6
SLD-Dashed
370
    18
100
AcDbLine
 10
7.3667946209
 20
-24.8215414575
 30
0.0
 11
7.3667946209
 21
-24.9821674441
 31
0.0
  0
LINE
  5
19E
330
1F
100
AcDbEntity
  8
SK3
  6
SLD-Dashed
370
    18
100
AcDbLine
 10
7.3667946209
 20
-24.9821674441
 30
0.0
 11
7.4991072077
 21
-25.1362869496
 31
0.0
  0
LINE
  5
19F
330
1F
100
AcDbEntity
  8
SK3
  6
SLD-Dashed
370
    18
100
AcDbLine
 10
7.4991072077
 20
-25.1362869496
 30
0.0
 11
7.7530132023
 21
-25.2714141283
 31
0.0
  0
LINE
  5
1A0
330
1F
100
AcDbEntity
  8
SK3
  6
SLD-Dashed
370
    18
100
AcDbLine
 10
7.7530132023
 20
-25.2714141283
 30
0.0
 11
8.1079426512
 21
-25.3766017797
 31
0.0
  0
LINE
  5
1A1
330
1F
100
AcDbEntity
  8
SK3
  6
SLD-Dashed
370
    18
100
AcDbLine
 10
8.1079426512
 20
-25.3766017797
 30
0.0
 11
8.5351412812
 21
-25.443328226
 31
0.0
  0
LINE
  5
1A2
330
1F
100
AcDbEntity
  8
SK3
  6
SLD-Dashed
370
    18
100
AcDbLine
 10
8.5351412812
 20
-25.443328226
 30
0.0
 11
9.0
 21
-25.4661876873
 31
0.0
  0
LINE
  5
1A3
330
1F
100
AcDbEntity
  8
SK3
  6
SLD-Dashed
370
    18
100
AcDbLine
 10
9.0
 20
-25.4661876873
 30
0.0
 11
9.4648587188
 21
-25.443328226
 31
0.0
  0
LINE
  5
1A4
330
1F
100
AcDbEntity
  8
SK3
  6
SLD-Dashed
370
    18
100
AcDbLine
 10
9.4648587188
 20
-25.443328226
 30
0.0
 11
9.8920573488
 21
-25.3766017797
 31
0.0
  0
LINE
  5
1A5
330
1F
100
AcDbEntity
  8
SK3
  6
SLD-Dashed
370
    18
100
AcDbLine
 10
9.8920573488
 20
-25.3766017797
 30
0.0
 11
10.2469867977
 21
-25.2714141283
 31
0.0
  0
LINE
  5
1A6
330
1F
100
AcDbEntity
  8
SK3
  6
SLD-Dashed
370
    18
100
AcDbLine
 10
10.2469867977
 20
-25.2714141283
 30
0.0
 11
10.5008927923
 21
-25.1362869496
 31
0.0
  0
LINE
  5
1A7
330
1F
100
AcDbEntity
  8
SK3
  6
SLD-Dashed
370
    18
100
AcDbLine
 10
10.5008927923
 20
-25.1362869496
 30
0.0
 11
10.6332053791
 21
-24.9821674441
 31
0.0
  0
LINE
  5
1A8
330
1F
100
AcDbEntity
  8
SK3
  6
SLD-Dashed
370
    18
100
AcDbLine
 10
10.6332053791
 20
-24.9821674441
 30
0.0
 11
10.6332053791
 21
-24.8215414575
 31
0.0
  0
LINE
  5
1A9
330
1F
100
AcDbEntity
  8
SK3
  6
SLD-Dashed
370
    18
100
AcDbLine
 10
10.6332053791
 20
-24.8215414575
 30
0.0
 11
10.5008927923
 21
-24.6674219521
 31
0.0
  0
LINE
  5
1AA
330
1F
100
AcDbEntity
  8
SK3
  6
SLD-Dashed
370
    18
100
AcDbLine
 10
10.5008927923
 20
-24.6674219521
 30
0.0
 11
10.2469867977
 21
-24.5322947734
 31
0.0
  0
LINE
  5
1AB
330
1F
100
AcDbEntity
  8
SK3
  6
SLD-Dashed
370
    18
100
AcDbLine
 10
10.2469867977
 20
-24.5322947734
 30
0.0
 11
9.8920573488
 21
-24.4271071219
 31
0.0
  0
LINE
  5
1AC
330
1F
100
AcDbEntity
  8
SK3
  6
SLD-Dashed
370
    18
100
AcDbLine
 10
9.8920573488
 20
-24.4271071219
 30
0.0
 11
9.4648587188
 21
-24.3603806756
 31
0.0
  0
LINE
  5
1AD
330
1F
100
AcDbEntity
  8
SK3
  6
SLD-Dashed
370
    18
100
AcDbLine
 10
9.4648587188
 20
-24.3603806756
 30
0.0
 11
9.0
 21
-24.3375212143
 31
0.0
  0
LINE
  5
1AE
330
1F
100
AcDbEntity
  8
SK3
  6
SLD-Dashed
370
    18
100
AcDbLine
 10
4.5468573445
 20
-26.2097326403
 30
0.0
 11
4.425006124
 21
-26.21093224
 31
0.0
  0
LINE
  5
1AF
330
1F
100
AcDbEntity
  8
SK3
  6
SLD-Dashed
370
    18
100
AcDbLine
 10
4.425006124
 20
-26.21093224
 30
0.0
 11
4.2382824207
 21
-26.1018268846
 31
0.0
  0
LINE
  5
1B0
330
1F
100
AcDbEntity
  8
SK3
  6
SLD-Dashed
370
    18
100
AcDbLine
 10
4.2382824207
 20
-26.1018268846
 30
0.0
 11
3.9984187716
 21
-25.8892720648
 31
0.0
  0
LINE
  5
1B1
330
1F
100
AcDbEntity
  8
SK3
  6
SLD-Dashed
370
    18
100
AcDbLine
 10
3.9984187716
 20
-25.8892720648
 30
0.0
 11
3.7204866918
 21
-25.5866233817
 31
0.0
  0
LINE
  5
1B2
330
1F
100
AcDbEntity
  8
SK3
  6
SLD-Dashed
370
    18
100
AcDbLine
 10
3.7204866918
 20
-25.5866233817
 30
0.0
 11
3.4219496762
 21
-25.212897365
 31
0.0
  0
LINE
  5
1B3
330
1F
100
AcDbEntity
  8
SK3
  6
SLD-Dashed
370
    18
100
AcDbLine
 10
3.4219496762
 20
-25.212897365
 30
0.0
 11
3.1215659033
 21
-24.7915765949
 31
0.0
  0
LINE
  5
1B4
330
1F
100
AcDbEntity
  8
SK3
  6
SLD-Dashed
370
    18
100
AcDbLine
 10
3.1215659033
 20
-24.7915765949
 30
0.0
 11
2.8382095904
 21
-24.3491342049
 31
0.0
  0
LINE
  5
1B5
330
1F
100
AcDbEntity
  8
SK3
  6
SLD-Dashed
370
    18
100
AcDbLine
 10
2.8382095904
 20
-24.3491342049
 30
0.0
 11
2.5896850566
 21
-23.9133704776
 31
0.0
  0
LINE
  5
1B6
330
1F
100
AcDbEntity
  8
SK3
  6
SLD-Dashed
370
    18
100
AcDbLine
 10
2.5896850566
 20
-23.9133704776
 30
0.0
 11
2.3916080125
 21
-23.5116660504
 31
0.0
  0
LINE
  5
1B7
330
1F
100
AcDbEntity
  8
SK3
  6
SLD-Dashed
370
    18
100
AcDbLine
 10
2.3916080125
 20
-23.5116660504
 30
0.0
 11
2.2564243673
 21
-23.1692614901
 31
0.0
  0
LINE
  5
1B8
330
1F
100
AcDbEntity
  8
SK3
  6
SLD-Dashed
370
    18
100
AcDbLine
 10
2.2564243673
 20
-23.1692614901
 30
0.0
 11
2.1926282064
 21
-22.9076713343
 31
0.0
  0
LINE
  5
1B9
330
1F
100
AcDbEntity
  8
SK3
  6
SLD-Dashed
370
    18
100
AcDbLine
 10
2.1926282064
 20
-22.9076713343
 30
0.0
 11
2.2042280774
 21
-22.7433322546
 31
0.0
  0
LINE
  5
1BA
330
1F
100
AcDbEntity
  8
SK3
  6
SLD-Dashed
370
    18
100
AcDbLine
 10
2.2042280774
 20
-22.7433322546
 30
0.0
 11
2.2904951176
 21
-22.6865702799
 31
0.0
  0
LINE
  5
1BB
330
1F
100
AcDbEntity
  8
SK3
  6
SLD-Dashed
370
    18
100
AcDbLine
 10
2.2904951176
 20
-22.6865702799
 30
0.0
 11
2.4460088517
 21
-22.7409519736
 31
0.0
  0
LINE
  5
1BC
330
1F
100
AcDbEntity
  8
SK3
  6
SLD-Dashed
370
    18
100
AcDbLine
 10
2.4460088517
 20
-22.7409519736
 30
0.0
 11
2.6609977798
 21
-22.9030603341
 31
0.0
  0
LINE
  5
1BD
330
1F
100
AcDbEntity
  8
SK3
  6
SLD-Dashed
370
    18
100
AcDbLine
 10
2.6609977798
 20
-22.9030603341
 30
0.0
 11
2.921953357
 21
-23.1627094967
 31
0.0
  0
LINE
  5
1BE
330
1F
100
AcDbEntity
  8
SK3
  6
SLD-Dashed
370
    18
100
AcDbLine
 10
2.921953357
 20
-23.1627094967
 30
0.0
 11
3.2124787844
 21
-23.5035847498
 31
0.0
  0
LINE
  5
1BF
330
1F
100
AcDbEntity
  8
SK3
  6
SLD-Dashed
370
    18
100
AcDbLine
 10
3.2124787844
 20
-23.5035847498
 30
0.0
 11
3.5143192812
 21
-23.9042676475
 31
0.0
  0
LINE
  5
1C0
330
1F
100
AcDbEntity
  8
SK3
  6
SLD-Dashed
370
    18
100
AcDbLine
 10
3.5143192812
 20
-23.9042676475
 30
0.0
 11
3.8085090986
 21
-24.3395818097
 31
0.0
  0
LINE
  5
1C1
330
1F
100
AcDbEntity
  8
SK3
  6
SLD-Dashed
370
    18
100
AcDbLine
 10
3.8085090986
 20
-24.3395818097
 30
0.0
 11
4.0765632087
 21
-24.7821748467
 31
0.0
  0
LINE
  5
1C2
330
1F
100
AcDbEntity
  8
SK3
  6
SLD-Dashed
370
    18
100
AcDbLine
 10
4.0765632087
 20
-24.7821748467
 30
0.0
 11
4.3016387858
 21
-25.2042370102
 31
0.0
  0
LINE
  5
1C3
330
1F
100
AcDbEntity
  8
SK3
  6
SLD-Dashed
370
    18
100
AcDbLine
 10
4.3016387858
 20
-25.2042370102
 30
0.0
 11
4.4695935036
 21
-25.5792485822
 31
0.0
  0
LINE
  5
1C4
330
1F
100
AcDbEntity
  8
SK3
  6
SLD-Dashed
370
    18
100
AcDbLine
 10
4.4695935036
 20
-25.5792485822
 30
0.0
 11
4.5698741495
 21
-25.8836462064
 31
0.0
  0
LINE
  5
1C5
330
1F
100
AcDbEntity
  8
SK3
  6
SLD-Dashed
370
    18
100
AcDbLine
 10
4.5698741495
 20
-25.8836462064
 30
0.0
 11
4.5961797217
 21
-26.0983034607
 31
0.0
  0
LINE
  5
1C6
330
1F
100
AcDbEntity
  8
SK3
  6
SLD-Dashed
370
    18
100
AcDbLine
 10
4.5961797217
 20
-26.0983034607
 30
0.0
 11
4.5468573445
 21
-26.2097326403
 31
0.0
  0
LINE
  5
1C7
330
1F
100
AcDbEntity
  8
1
  6
SLD-Dashed
370
    18
100
AcDbLine
 10
17.6192265766
 20
-7.7862844584
 30
0.0
 11
18.502822385
 21
-7.4788048157
 31
0.0
  0
LINE
  5
1C8
330
1F
100
AcDbEntity
  8
1
  6
SLD-Dashed
370
    18
100
AcDbLine
 10
18.502822385
 20
-7.4788048157
 30
0.0
 11
19.2305912168
 21
-7.1339944521
 31
0.0
  0
LINE
  5
1C9
330
1F
100
AcDbEntity
  8
1
  6
SLD-Dashed
370
    18
100
AcDbLine
 10
2.75
 20
8.095
 30
0.0
 11
2.75
 21
8.5720481928
 31
0.0
  0
LINE
  5
1CA
330
1F
100
AcDbEntity
  8
SK3
  6
SLD-Dashed
370
    18
100
AcDbLine
 10
7.0
 20
29.6001745626
 30
0.0
 11
7.0
 21
25.7475778095
 31
0.0
  0
LINE
  5
1CB
330
1F
100
AcDbEntity
  8
SK3
  6
SLD-Dashed
370
    18
100
AcDbLine
 10
11.0
 20
25.7475778095
 30
0.0
 11
11.0
 21
29.5988125155
 31
0.0
  0
LINE
  5
1CC
330
1F
100
AcDbEntity
  8
SK3
  6
SLD-Dashed
370
    18
100
AcDbLine
 10
2.0
 20
22.8578880517
 30
0.0
 11
2.2382596061
 21
22.7011180302
 31
0.0
  0
LINE
  5
1CD
330
1F
100
AcDbEntity
  8
SK3
  6
SLD-Dashed
370
    18
100
AcDbLine
 10
4.5468573445
 20
26.2097326403
 30
0.0
 11
2.0
 21
27.8855134708
 31
0.0
  0
LINE
  5
1CE
330
1F
100
AcDbEntity
  8
SK3
  6
SLD-Dashed
370
    18
100
AcDbLine
 10
7.4474833261
 20
25.3163485945
 30
0.0
 11
7.719173744
 21
25.2019275815
 31
0.0
  0
LINE
  5
1CF
330
1F
100
AcDbEntity
  8
SK3
  6
SLD-Dashed
370
    18
100
AcDbLine
 10
10.280826256
 20
25.2019275815
 30
0.0
 11
10.5525166739
 21
25.3163485945
 31
0.0
  0
LINE
  5
1D0
330
1F
100
AcDbEntity
  8
SK3
  6
SLD-Dashed
370
    18
100
AcDbLine
 10
7.35
 20
25.5576916839
 30
0.0
 11
7.35
 21
24.0782137397
 31
0.0
  0
LINE
  5
1D1
330
1F
100
AcDbEntity
  8
SK3
  6
SLD-Dashed
370
    18
100
AcDbLine
 10
10.65
 20
21.9120695751
 30
0.0
 11
10.65
 21
25.5576916839
 31
0.0
  0
LINE
  5
1D2
330
1F
100
AcDbEntity
  8
SK3
  6
SLD-Dashed
370
    18
100
AcDbLine
 10
10.5530882486
 20
17.4096863224
 30
0.0
 11
13.5430925321
 21
15.4423237325
 31
0.0
  0
LINE
  5
1D3
330
1F
100
AcDbEntity
  8
SK3
  6
SLD-Dashed
370
    18
100
AcDbLine
 10
2.3207095254
 20
22.8264256948
 30
0.0
 11
7.458905343
 21
19.4455963472
 31
0.0
  0
LINE
  5
1D4
330
1F
100
AcDbEntity
  8
SK3
  6
SLD-Dashed
370
    18
100
AcDbLine
 10
7.4616816698
 20
24.1122788978
 30
0.0
 11
4.4644074252
 21
26.0844249757
 31
0.0
  0
LINE
  5
1D5
330
1F
100
AcDbEntity
  8
SK3
  6
SLD-Dashed
370
    18
100
AcDbLine
 10
15.686790432
 20
18.7003230133
 30
0.0
 11
10.5469004204
 21
22.0822671065
 31
0.0
  0
LINE
  5
1D6
330
1F
100
AcDbEntity
  8
SK3
  6
SLD-Dashed
370
    18
100
AcDbLine
 10
-65.4
 20
-9.5153629711
 30
0.0
 11
-63.65
 21
-8.505
 31
0.0
  0
LINE
  5
1D7
330
1F
100
AcDbEntity
  8
SK3
  6
SLD-Dashed
370
    18
100
AcDbLine
 10
-63.65
 20
8.505
 30
0.0
 11
-65.4
 21
9.5153629711
 31
0.0
  0
LINE
  5
1D8
330
1F
100
AcDbEntity
  8
SK3
  6
SLD-Dashed
370
    18
100
AcDbLine
 10
7.35
 20
19.6209851702
 30
0.0
 11
7.35
 21
6.5760827024
 31
0.0
  0
LINE
  5
1D9
330
1F
100
AcDbEntity
  8
SK3
  6
SLD-Dashed
370
    18
100
AcDbLine
 10
10.65
 20
6.5734926391
 30
0.0
 11
10.65
 21
17.4508800412
 31
0.0
  0
LINE
  5
1DA
330
1F
100
AcDbEntity
  8
SK3
  6
SLD-Dashed
370
    18
100
AcDbLine
 10
-59.15
 20
-8.8
 30
0.0
 11
-56.15
 21
-8.8
 31
0.0
  0
LINE
  5
1DB
330
1F
100
AcDbEntity
  8
SK3
  6
SLD-Dashed
370
    18
100
AcDbLine
 10
-56.15
 20
8.8
 30
0.0
 11
-59.15
 21
8.8
 31
0.0
  0
LINE
  5
1DC
330
1F
100
AcDbEntity
  8
SK3
  6
SLD-Dashed
370
    18
100
AcDbLine
 10
-59.15
 20
8.8
 30
0.0
 11
-59.6609549882
 21
8.505
 31
0.0
  0
LINE
  5
1DD
330
1F
100
AcDbEntity
  8
SK3
  6
SLD-Dashed
370
    18
100
AcDbLine
 10
-59.6609549882
 20
-8.505
 30
0.0
 11
-59.15
 21
-8.8
 31
0.0
  0
LINE
  5
1DE
330
1F
100
AcDbEntity
  8
SK3
  6
SLD-Dashed
370
    18
100
AcDbLine
 10
-56.15
 20
-8.8
 30
0.0
 11
-55.1107695155
 21
-7.0
 31
0.0
  0
LINE
  5
1DF
330
1F
100
AcDbEntity
  8
SK3
  6
SLD-Dashed
370
    18
100
AcDbLine
 10
-55.1107695155
 20
7.0
 30
0.0
 11
-56.15
 21
8.8
 31
0.0
  0
LINE
  5
1E0
330
1F
100
AcDbEntity
  8
SK3
  6
SLD-Dashed
370
    18
100
AcDbLine
 10
100.0
 20
8.5773502692
 30
0.0
 11
99.0
 21
8.0
 31
0.0
  0
LINE
  5
1E1
330
1F
100
AcDbEntity
  8
SK3
  6
SLD-Dashed
370
    18
100
AcDbLine
 10
99.0
 20
-8.0
 30
0.0
 11
100.0
 21
-8.5773502692
 31
0.0
  0
LINE
  5
1E2
330
1F
100
AcDbEntity
  8
SK3
  6
SLD-Dashed
370
    18
100
AcDbLine
 10
-63.65
 20
-8.505
 30
0.0
 11
-59.6609549882
 21
-8.505
 31
0.0
  0
LINE
  5
1E3
330
1F
100
AcDbEntity
  8
SK3
  6
SLD-Dashed
370
    18
100
AcDbLine
 10
-59.6609549882
 20
8.505
 30
0.0
 11
-63.65
 21
8.505
 31
0.0
  0
LINE
  5
1E4
330
1F
100
AcDbEntity
  8
SK3
  6
SLD-Dashed
370
    18
100
AcDbLine
 10
52.75
 20
8.25
 30
0.0
 11
50.25
 21
8.25
 31
0.0
  0
LINE
  5
1E5
330
1F
100
AcDbEntity
  8
SK3
  6
SLD-Dashed
370
    18
100
AcDbLine
 10
50.25
 20
-8.25
 30
0.0
 11
52.75
 21
-8.25
 31
0.0
  0
LINE
  5
1E6
330
1F
100
AcDbEntity
  8
SK3
  6
SLD-Dashed
370
    18
100
AcDbLine
 10
13.7106542296
 20
15.4652612534
 30
0.0
 11
15.5747240806
 21
16.4398057562
 31
0.0
  0
LINE
  5
1E7
330
1F
100
AcDbEntity
  8
SK3
  6
SLD-Dashed
370
    18
100
AcDbLine
 10
15.5747240806
 20
16.4398057562
 30
0.0
 11
15.7320353246
 21
18.5373630427
 31
0.0
  0
LINE
  5
1E8
330
1F
100
AcDbEntity
  8
SK3
  6
SLD-Dashed
370
    18
100
AcDbLine
 10
84.1
 20
-24.0
 30
0.0
 11
84.1
 21
-22.3
 31
0.0
  0
LINE
  5
1E9
330
1F
100
AcDbEntity
  8
SK3
  6
SLD-Dashed
370
    18
100
AcDbLine
 10
67.9
 20
-22.3
 30
0.0
 11
67.9
 21
-24.0
 31
0.0
  0
LINE
  5
1EA
330
1F
100
AcDbEntity
  8
SK3
  6
SLD-Dashed
370
    18
100
AcDbLine
 10
99.0
 20
8.0
 30
0.0
 11
53.0
 21
8.0
 31
0.0
  0
LINE
  5
1EB
330
1F
100
AcDbEntity
  8
SK3
  6
SLD-Dashed
370
    18
100
AcDbLine
 10
82.0
 20
-8.0
 30
0.0
 11
99.0
 21
-8.0
 31
0.0
  0
LINE
  5
1EC
330
1F
100
AcDbEntity
  8
SK3
  6
SLD-Dashed
370
    18
100
AcDbLine
 10
53.0
 20
-7.9999999828
 30
0.0
 11
70.0179164371
 21
-7.9999999828
 31
0.0
  0
LINE
  5
1ED
330
1F
100
AcDbEntity
  8
SK3
  6
SLD-Dashed
370
    18
100
AcDbLine
 10
-55.1107695155
 20
-7.0
 30
0.0
 11
-5.4
 21
-7.0
 31
0.0
  0
LINE
  5
1EE
330
1F
100
AcDbEntity
  8
SK3
  6
SLD-Dashed
370
    18
100
AcDbLine
 10
-5.4
 20
7.0
 30
0.0
 11
-55.1107695155
 21
7.0
 31
0.0
  0
LINE
  5
1EF
330
1F
100
AcDbEntity
  8
SK3
  6
SLD-Dashed
370
    18
100
AcDbLine
 10
-5.399969957
 20
-6.99995
 30
0.0
 11
50.0
 21
-6.99995
 31
0.0
  0
LINE
  5
1F0
330
1F
100
AcDbEntity
  8
SK3
  6
SLD-Dashed
370
    18
100
AcDbLine
 10
50.0
 20
6.99995
 30
0.0
 11
-5.399969957
 21
6.99995
 31
0.0
  0
LINE
  5
1F1
330
1F
100
AcDbEntity
  8
SK3
  6
SLD-Dashed
370
    18
100
AcDbLine
 10
82.0
 20
-22.3
 30
0.0
 11
82.0
 21
-8.0
 31
0.0
  0
LINE
  5
1F2
330
1F
100
AcDbEntity
  8
SK3
  6
SLD-Dashed
370
    18
100
AcDbLine
 10
70.0
 20
-7.986571509
 30
0.0
 11
70.0
 21
-22.3
 31
0.0
  0
LINE
  5
1F3
330
1F
100
AcDbEntity
  8
SK3
  6
SLD-Dashed
370
    18
100
AcDbLine
 10
7.35
 20
-6.5734926391
 30
0.0
 11
7.35
 21
-19.620297775
 31
0.0
  0
LINE
  5
1F4
330
1F
100
AcDbEntity
  8
SK3
  6
SLD-Dashed
370
    18
100
AcDbLine
 10
10.65
 20
-17.4451559932
 30
0.0
 11
10.65
 21
-6.5760827024
 31
0.0
  0
LINE
  5
1F5
330
1F
100
AcDbEntity
  8
SK3
  6
SLD-Dashed
370
    18
100
AcDbLine
 10
10.5530882486
 20
-22.0781956401
 30
0.0
 11
15.686790432
 21
-18.7003230133
 31
0.0
  0
LINE
  5
1F6
330
1F
100
AcDbEntity
  8
SK3
  6
SLD-Dashed
370
    18
100
AcDbLine
 10
4.4644074252
 20
-26.0844249757
 30
0.0
 11
7.4591862887
 21
-24.1139208083
 31
0.0
  0
LINE
  5
1F7
330
1F
100
AcDbEntity
  8
SK3
  6
SLD-Dashed
370
    18
100
AcDbLine
 10
7.4577573144
 20
-19.4463517268
 30
0.0
 11
2.3207095254
 21
-22.8264256948
 31
0.0
  0
LINE
  5
1F8
330
1F
100
AcDbEntity
  8
SK3
  6
SLD-Dashed
370
    18
100
AcDbLine
 10
13.5430925321
 20
-15.4423237325
 30
0.0
 11
10.5491667264
 21
-17.412266605
 31
0.0
  0
LINE
  5
1F9
330
1F
100
AcDbEntity
  8
SK3
  6
SLD-Dashed
370
    18
100
AcDbLine
 10
15.7320353246
 20
-18.5373630427
 30
0.0
 11
15.5747240806
 21
-16.4398057562
 31
0.0
  0
LINE
  5
1FA
330
1F
100
AcDbEntity
  8
SK3
  6
SLD-Dashed
370
    18
100
AcDbLine
 10
15.5747240806
 20
-16.4398057562
 30
0.0
 11
13.7106542296
 21
-15.4652612534
 31
0.0
  0
LINE
  5
1FB
330
1F
100
AcDbEntity
  8
SK3
  6
SLD-Dashed
370
    18
100
AcDbLine
 10
7.35
 20
-24.0835192562
 30
0.0
 11
7.35
 21
-24.9018544508
 31
0.0
  0
LINE
  5
1FC
330
1F
100
AcDbEntity
  8
SK3
  6
SLD-Dashed
370
    18
100
AcDbLine
 10
10.65
 20
-24.9018544508
 30
0.0
 11
10.65
 21
-21.9102094894
 31
0.0
  0
LINE
  5
1FD
330
1F
100
AcDbEntity
  8
SK3
  6
SLD-Dashed
370
    18
100
AcDbLine
 10
2.0
 20
-27.8855134708
 30
0.0
 11
4.5468573445
 21
-26.2097326403
 31
0.0
  0
LINE
  5
1FE
330
1F
100
AcDbEntity
  8
SK3
  6
SLD-Dashed
370
    18
100
AcDbLine
 10
2.2382596061
 20
-22.7011180302
 30
0.0
 11
2.0
 21
-22.8578880517
 31
0.0
  0
LINE
  5
1FF
330
1F
100
AcDbEntity
  8
SK3
  6
SLD-Dashed
370
    18
100
AcDbLine
 10
7.6871669195
 20
-25.2436982891
 30
0.0
 11
9.0
 21
-25.833484529
 31
0.0
  0
LINE
  5
200
330
1F
100
AcDbEntity
  8
SK3
  6
SLD-Dashed
370
    18
100
AcDbLine
 10
9.0
 20
-25.833484529
 30
0.0
 11
10.3128330805
 21
-25.2436982891
 31
0.0
  0
LINE
  5
201
330
1F
100
AcDbEntity
  8
SK3
  6
SLD-Solid
370
    18
100
AcDbLine
 10
-34.4000011683
 20
8.00000038
 30
0.0
 11
-55.6881204247
 21
8.00000038
 31
0.0
  0
LINE
  5
202
330
1F
100
AcDbEntity
  8
SK3
  6
SLD-Solid
370
    18
100
AcDbLine
 10
-55.6881204247
 20
-8.00000038
 30
0.0
 11
-34.4000011683
 21
-8.00000038
 31
0.0
  0
LINE
  5
203
330
1F
100
AcDbEntity
  8
SK3
  6
SLD-Solid
370
    18
100
AcDbLine
 10
-34.4000011683
 20
8.00000038
 30
0.0
 11
-34.4000011683
 21
7.9015064985
 31
0.0
  0
LINE
  5
204
330
1F
100
AcDbEntity
  8
SK3
  6
SLD-Solid
370
    18
100
AcDbLine
 10
-34.4000376247
 20
7.9015064985
 30
0.0
 11
-34.4000011683
 21
7.6084523462
 31
0.0
  0
LINE
  5
205
330
1F
100
AcDbEntity
  8
SK3
  6
SLD-Solid
370
    18
100
AcDbLine
 10
-34.4000011683
 20
7.6084523462
 30
0.0
 11
-34.4000011683
 21
7.1280524135
 31
0.0
  0
LINE
  5
206
330
1F
100
AcDbEntity
  8
SK3
  6
SLD-Solid
370
    18
100
AcDbLine
 10
-34.4000011683
 20
7.1280524135
 30
0.0
 11
-34.4000011683
 21
6.472135894
 31
0.0
  0
LINE
  5
207
330
1F
100
AcDbEntity
  8
SK3
  6
SLD-Solid
370
    18
100
AcDbLine
 10
-34.4000011683
 20
6.472135894
 30
0.0
 11
-34.4000011683
 21
5.6568542495
 31
0.0
  0
LINE
  5
208
330
1F
100
AcDbEntity
  8
SK3
  6
SLD-Solid
370
    18
100
AcDbLine
 10
-34.4000011683
 20
5.6568542495
 30
0.0
 11
-34.4000011683
 21
4.7022821382
 31
0.0
  0
LINE
  5
209
330
1F
100
AcDbEntity
  8
SK3
  6
SLD-Solid
370
    18
100
AcDbLine
 10
-34.4000011683
 20
4.7022821382
 30
0.0
 11
-34.4000011683
 21
3.6319240462
 31
0.0
  0
LINE
  5
20A
330
1F
100
AcDbEntity
  8
SK3
  6
SLD-Solid
370
    18
100
AcDbLine
 10
-34.4000011683
 20
3.6319240462
 30
0.0
 11
-34.4000011683
 21
2.4721359368
 31
0.0
  0
LINE
  5
20B
330
1F
100
AcDbEntity
  8
SK3
  6
SLD-Solid
370
    18
100
AcDbLine
 10
-34.4000011683
 20
2.4721359368
 30
0.0
 11
-34.4000011683
 21
1.2514757691
 31
0.0
  0
LINE
  5
20C
330
1F
100
AcDbEntity
  8
SK3
  6
SLD-Solid
370
    18
100
AcDbLine
 10
-34.4000011683
 20
1.2514757691
 30
0.0
 11
-34.4000011683
 21
0.0
 31
0.0
  0
LINE
  5
20D
330
1F
100
AcDbEntity
  8
SK3
  6
SLD-Solid
370
    18
100
AcDbLine
 10
-34.4000011683
 20
0.0
 30
0.0
 11
-34.4000011683
 21
-1.2514757691
 31
0.0
  0
LINE
  5
20E
330
1F
100
AcDbEntity
  8
SK3
  6
SLD-Solid
370
    18
100
AcDbLine
 10
-34.4000011683
 20
-1.2514757691
 30
0.0
 11
-34.4000011683
 21
-2.4721359368
 31
0.0
  0
LINE
  5
20F
330
1F
100
AcDbEntity
  8
SK3
  6
SLD-Solid
370
    18
100
AcDbLine
 10
-34.4000011683
 20
-2.4721359368
 30
0.0
 11
-34.4000011683
 21
-3.6319240462
 31
0.0
  0
LINE
  5
210
330
1F
100
AcDbEntity
  8
SK3
  6
SLD-Solid
370
    18
100
AcDbLine
 10
-34.4000011683
 20
-3.6319240462
 30
0.0
 11
-34.4000011683
 21
-4.7022821382
 31
0.0
  0
LINE
  5
211
330
1F
100
AcDbEntity
  8
SK3
  6
SLD-Solid
370
    18
100
AcDbLine
 10
-34.4000011683
 20
-4.7022821382
 30
0.0
 11
-34.4000011683
 21
-5.6568542495
 31
0.0
  0
LINE
  5
212
330
1F
100
AcDbEntity
  8
SK3
  6
SLD-Solid
370
    18
100
AcDbLine
 10
-34.4000011683
 20
-5.6568542495
 30
0.0
 11
-34.4000011683
 21
-6.472135894
 31
0.0
  0
LINE
  5
213
330
1F
100
AcDbEntity
  8
SK3
  6
SLD-Solid
370
    18
100
AcDbLine
 10
-34.4000011683
 20
-6.472135894
 30
0.0
 11
-34.4000011683
 21
-7.1280524135
 31
0.0
  0
LINE
  5
214
330
1F
100
AcDbEntity
  8
SK3
  6
SLD-Solid
370
    18
100
AcDbLine
 10
-34.4000011683
 20
-7.1280524135
 30
0.0
 11
-34.4000011683
 21
-7.6084523462
 31
0.0
  0
LINE
  5
215
330
1F
100
AcDbEntity
  8
SK3
  6
SLD-Solid
370
    18
100
AcDbLine
 10
-34.4000011683
 20
-7.6084523462
 30
0.0
 11
-34.4000011683
 21
-7.9015064985
 31
0.0
  0
LINE
  5
216
330
1F
100
AcDbEntity
  8
SK3
  6
SLD-Solid
370
    18
100
AcDbLine
 10
-34.4000011683
 20
-7.9015064985
 30
0.0
 11
-34.4000011683
 21
-8.00000038
 31
0.0
  0
LINE
  5
217
330
1F
100
AcDbEntity
  8
SK3
  6
SLD-Solid
370
    18
100
AcDbLine
 10
68.9999982715
 20
-8.00000038
 30
0.0
 11
68.9999982715
 21
-22.2999993712
 31
0.0
  0
LINE
  5
218
330
1F
100
AcDbEntity
  8
SK3
  6
SLD-Solid
370
    18
100
AcDbLine
 10
82.999996841
 20
-22.2999993712
 30
0.0
 11
82.999996841
 21
-8.00000038
 31
0.0
  0
LINE
  5
219
330
1F
100
AcDbEntity
  8
SK3
  6
SLD-Solid
370
    18
100
AcDbLine
 10
68.9998947597
 20
-8.00000038
 30
0.0
 11
82.999996841
 21
-8.00000038
 31
0.0
  0
LINE
  5
21A
330
1F
100
AcDbEntity
  8
4
  6
SLD-Center
370
    18
100
AcDbLine
 10
102.0
 20
0.0
 30
0.0
 11
0.1419429882
 21
0.0
 31
0.0
  0
LINE
  5
21B
330
1F
100
AcDbEntity
  8
4
  6
SLD-Center
370
    18
100
AcDbLine
 10
76.0
 20
-6.0
 30
0.0
 11
76.0
 21
-24.3
 31
0.0
  0
LINE
  5
21C
330
1F
100
AcDbEntity
  8
SK4
  6
SLD-Center
370
    18
100
AcDbLine
 10
101.7464668757
 20
0.0
 30
0.0
 11
-67.3382173546
 21
0.0
 31
0.0
  0
ARC
  5
21D
330
1F
100
AcDbEntity
  8
1
  6
SLD-Solid
370
    25
100
AcDbCircle
 10
26.25
 20
-30.75
 30
0.0
 40
0.75
100
AcDbArc
 50
270.0
 51
0.0
  0
ARC
  5
21E
330
1F
100
AcDbEntity
  8
1
  6
SLD-Solid
370
    25
100
AcDbCircle
 10
26.25
 20
30.75
 30
0.0
 40
0.7500000000000003
100
AcDbArc
 50
0.0
 51
89.9999982044
  0
ARC
  5
21F
330
1F
100
AcDbEntity
  8
1
  6
SLD-Solid
370
    25
100
AcDbCircle
 10
2.75
 20
-30.75
 30
0.0
 40
0.75
100
AcDbArc
 50
180.0
 51
270.0
  0
ARC
  5
220
330
1F
100
AcDbEntity
  8
1
  6
SLD-Solid
370
    25
100
AcDbCircle
 10
2.75
 20
30.75
 30
0.0
 40
0.75
100
AcDbArc
 50
90.0
 51
180.0
  0
ARC
  5
221
330
1F
100
AcDbEntity
  8
1
  6
SLD-Solid
370
    25
100
AcDbCircle
 10
29.0
 20
-26.0
 30
0.0
 40
2.000000000000004
100
AcDbArc
 50
90.0
 51
180.0
  0
ARC
  5
222
330
1F
100
AcDbEntity
  8
1
  6
SLD-Solid
370
    25
100
AcDbCircle
 10
29.0
 20
26.0
 30
0.0
 40
2.000000000000004
100
AcDbArc
 50
180.0
 51
270.0
  0
ARC
  5
223
330
1F
100
AcDbEntity
  8
1
  6
SLD-Solid
370
    25
100
AcDbCircle
 10
18.725
 20
-26.875
 30
0.0
 40
0.3750000000000142
100
AcDbArc
 50
0.0
 51
90.0
  0
ARC
  5
224
330
1F
100
AcDbEntity
  8
1
  6
SLD-Solid
370
    25
100
AcDbCircle
 10
18.725
 20
26.875
 30
0.0
 40
0.3750000000000142
100
AcDbArc
 50
270.0
 51
0.0
  0
ARC
  5
225
330
1F
100
AcDbEntity
  8
1
  6
SLD-Solid
370
    25
100
AcDbCircle
 10
14.475
 20
-26.875
 30
0.0
 40
0.3750000000000036
100
AcDbArc
 50
90.0
 51
180.0
  0
ARC
  5
226
330
1F
100
AcDbEntity
  8
1
  6
SLD-Solid
370
    25
100
AcDbCircle
 10
14.475
 20
26.875
 30
0.0
 40
0.3750000000000071
100
AcDbArc
 50
180.0
 51
270.0000000016
  0
ARC
  5
227
330
1F
100
AcDbEntity
  8
1
  6
SLD-Solid
370
    25
100
AcDbCircle
 10
1.25
 20
22.5629103982
 30
0.0
 40
0.750000000000005
100
AcDbArc
 50
245.0
 51
0.0
  0
ARC
  5
228
330
1F
100
AcDbEntity
  8
1
  6
SLD-Solid
370
    25
100
AcDbCircle
 10
1.25
 20
-22.5629103982
 30
0.0
 40
0.7500000000000044
100
AcDbArc
 50
0.0
 51
115.0
  0
ARC
  5
229
330
1F
100
AcDbEntity
  8
SK1
  6
SLD-Solid
370
    25
100
AcDbCircle
 10
-64.4
 20
11.8220275702
 30
0.0
 40
1.000000000000014
100
AcDbArc
 50
98.2977777777
 51
180.0
  0
ARC
  5
22A
330
1F
100
AcDbEntity
  8
SK1
  6
SLD-Solid
370
    25
100
AcDbCircle
 10
-64.4
 20
-11.8220275702
 30
0.0
 40
1.000000000000014
100
AcDbArc
 50
180.0
 51
261.7022222223
  0
CIRCLE
  5
22B
330
1F
100
AcDbEntity
  8
1
  6
SLD-Solid
370
    25
100
AcDbCircle
 10
14.5
 20
0.0
 30
0.0
 40
4.999999999999989
  0
ARC
  5
22C
330
1F
100
AcDbEntity
  8
1
  6
SLD-Dashed
370
    18
100
AcDbCircle
 10
15.405
 20
0.0
 30
0.0
 40
8.094999999999988
100
AcDbArc
 50
314.9597648814
 51
326.941851105
  0
ARC
  5
22D
330
1F
100
AcDbEntity
  8
1
  6
SLD-Dashed
370
    18
100
AcDbCircle
 10
15.405
 20
0.0
 30
0.0
 40
8.094999999999997
100
AcDbArc
 50
40.6014610738
 51
53.6155286387
  0
ARC
  5
22E
330
1F
100
AcDbEntity
  8
1
  6
SLD-Dashed
370
    18
100
AcDbCircle
 10
15.405
 20
0.0
 30
0.0
 40
8.094999999999995
100
AcDbArc
 50
55.8719775898
 51
67.7006340929
  0
ARC
  5
22F
330
1F
100
AcDbEntity
  8
SK3
  6
SLD-Dashed
370
    18
100
AcDbCircle
 10
76.0
 20
32.22
 30
0.0
 40
12.50000000000003
100
AcDbArc
 50
221.1193564112
 51
318.8550822602
  0
ARC
  5
230
330
1F
100
AcDbEntity
  8
SK3
  6
SLD-Dashed
370
    18
100
AcDbCircle
 10
50.25
 20
8.0
 30
0.0
 40
0.25
100
AcDbArc
 50
90.0
 51
180.0
  0
ARC
  5
231
330
1F
100
AcDbEntity
  8
SK3
  6
SLD-Dashed
370
    18
100
AcDbCircle
 10
50.25
 20
-8.0
 30
0.0
 40
0.2499999999999929
100
AcDbArc
 50
179.9999960488
 51
270.0
  0
ARC
  5
232
330
1F
100
AcDbEntity
  8
SK3
  6
SLD-Dashed
370
    18
100
AcDbCircle
 10
52.75
 20
8.0
 30
0.0
 40
0.25
100
AcDbArc
 50
0.0
 51
90.0
  0
ARC
  5
233
330
1F
100
AcDbEntity
  8
SK3
  6
SLD-Dashed
370
    18
100
AcDbCircle
 10
52.75
 20
-8.0
 30
0.0
 40
0.2500000000000006
100
AcDbArc
 50
270.0
 51
0.0000039512
  0
ARC
  5
234
330
1F
100
AcDbEntity
  8
1
370
    25
100
AcDbCircle
 10
76.0
 20
-46.0175626297
 30
0.0
 40
23.46024433275922
100
AcDbArc
 50
69.802030091
 51
110.197969909
  0
SPLINE
  5
235
330
1F
100
AcDbEntity
  8
1
  6
SLD-Solid
370
    25
100
AcDbSpline
210
0.0
220
0.0
230
1.0
 70
     8
 71
     3
 72
    29
 73
    25
 74
     0
 42
0.000000001
 43
0.00000001
 40
0.0
 40
0.0
 40
0.0
 40
0.0
 40
0.0230663838025172
 40
0.0440225352293025
 40
0.0628684662202233
 40
0.0952096354793705
 40
0.1252070778029592
 40
0.1874433642827061
 40
0.2501294624714331
 40
0.3127669124399246
 40
0.3749089742081319
 40
0.4371218866260112
 40
0.4999111694600359
 40
0.5000015146531739
 40
0.5624696363129276
 40
0.6246518458511716
 40
0.687124712641044
 40
0.7499411646625921
 40
0.8122670361742208
 40
0.8745776578213296
 40
0.9047904009619863
 40
0.937394698159691
 40
0.9663358577881175
 40
1.0
 40
1.0
 40
1.0
 40
1.0
 10
21.3784546215904
 20
-5.463228430497773
 30
0.0
 10
21.43968048489582
 20
-5.394961302213779
 30
0.0
 10
21.55653095211181
 20
-5.264672476465653
 30
0.0
 10
21.71560511831894
 20
-5.071758676205553
 30
0.0
 10
21.89210272514108
 20
-4.845511463818189
 30
0.0
 10
22.08097804333661
 20
-4.58327053421358
 30
0.0
 10
22.35220085373915
 20
-4.167846022785294
 30
0.0
 10
22.65429554915195
 20
-3.628148349416476
 30
0.0
 10
22.95872006986101
 20
-2.942611934423217
 30
0.0
 10
23.19861776881074
 20
-2.23075663887937
 30
0.0
 10
23.37148733661112
 20
-1.500355534366039
 30
0.0
 10
23.47639954189732
 20
-0.7556129446529593
 30
0.0
 10
23.49998301693163
 20
-0.2528920903511825
 30
0.0
 10
23.50001686206207
 20
0.250513772629718
 30
0.0
 10
23.47668764518361
 20
0.7518198752287029
 30
0.0
 10
23.37226014104492
 20
1.496549466375244
 30
0.0
 10
23.19924549850183
 20
2.22891155168916
 30
0.0
 10
22.95917289957124
 20
2.9413470116159
 30
0.0
 10
22.65505348782215
 20
3.626543732636843
 30
0.0
 10
22.35325963701342
 20
4.166080914104045
 30
0.0
 10
22.08097444094948
 20
4.583468076208179
 30
0.0
 10
21.86720762157969
 20
4.879597172965197
 30
0.0
 10
21.63275480960844
 20
5.177140340463453
 30
0.0
 10
21.46738000913481
 20
5.363187230028411
 30
0.0
 10
21.37845462042562
 20
5.463228420858675
 30
0.0
  0
SPLINE
  5
236
330
1F
100
AcDbEntity
  8
1
  6
SLD-Solid
370
    25
100
AcDbSpline
210
0.0
220
0.0
230
1.0
 70
     8
 71
     3
 72
    28
 73
    24
 74
     0
 42
0.000000001
 43
0.00000001
 40
0.0
 40
0.0
 40
0.0
 40
0.0
 40
0.0207858127208253
 40
0.0415710762957561
 40
0.0623748580549171
 40
0.0937270008798478
 40
0.1250848978846605
 40
0.1873494245775419
 40
0.2496708886179854
 40
0.3125394829960974
 40
0.3751322031575706
 40
0.4374541246843983
 40
0.5000756334531883
 40
0.5630077694104354
 40
0.6253444518636561
 40
0.6875870131392443
 40
0.7502971038394413
 40
0.8129514609106392
 40
0.8751106021476166
 40
0.9062159067426651
 40
0.9373306543632903
 40
0.9686737077305453
 40
1.0
 40
1.0
 40
1.0
 40
1.0
 10
21.62000002350462
 20
5.823867559505716
 30
0.0
 10
21.67887774454521
 20
5.758348120659986
 30
0.0
 10
21.79663163112029
 20
5.62731097394395
 30
0.0
 10
21.96553116474945
 20
5.423838743813906
 30
0.0
 10
22.15613918729102
 20
5.180290884667052
 30
0.0
 10
22.36340666332083
 20
4.89288123805666
 30
0.0
 10
22.65342220260758
 20
4.448647622839904
 30
0.0
 10
22.97676366840192
 20
3.86921240607109
 30
0.0
 10
23.3000605478442
 20
3.138684693279582
 30
0.0
 10
23.55531019183564
 20
2.378643813996259
 30
0.0
 10
23.73928089069981
 20
1.596976251942841
 30
0.0
 10
23.85028710921454
 20
0.80176437901084
 30
0.0
 10
23.88749131514555
 20
-0.0022804745153718
 30
0.0
 10
23.84992341756853
 20
-0.8063861902457281
 30
0.0
 10
23.73837844649938
 20
-1.601409780704211
 30
0.0
 10
23.55455757309057
 20
-2.380922615370852
 30
0.0
 10
23.29949859918745
 20
-3.140226093025788
 30
0.0
 10
22.97593067653049
 20
-3.870974292477854
 30
0.0
 10
22.65242048626337
 20
-4.450166333039365
 30
0.0
 10
22.36381869712523
 20
-4.892326548904518
 30
0.0
 10
22.13144965638304
 20
-5.214141920263444
 30
0.0
 10
21.88493963428299
 20
-5.5263432866768
 30
0.0
 10
21.70829746524216
 20
-5.724710052831115
 30
0.0
 10
21.62000000245133
 20
-5.823866909025515
 30
0.0
  0
SPLINE
  5
237
330
1F
100
AcDbEntity
  8
1
  6
SLD-Solid
370
    25
100
AcDbSpline
210
0.0
220
0.0
230
1.0
 70
     8
 71
     3
 72
    10
 73
     6
 74
     0
 42
0.000000001
 43
0.00000001
 40
0.0
 40
0.0
 40
0.0
 40
0.0
 40
0.5
 40
0.5
 40
1.0
 40
1.0
 40
1.0
 40
1.0
 10
19.1
 20
-7.202499566123385
 30
0.0
 10
19.49579104774718
 20
-6.999452289549422
 30
0.0
 10
19.88446432465929
 20
-6.759413056975974
 30
0.0
 10
20.64524840052841
 20
-6.188300429962116
 30
0.0
 10
21.01747268260146
 20
-5.857923482919122
 30
0.0
 10
21.3784546215904
 20
-5.463228430497773
 30
0.0
  0
SPLINE
  5
238
330
1F
100
AcDbEntity
  8
1
  6
SLD-Solid
370
    25
100
AcDbSpline
210
0.0
220
0.0
230
1.0
 70
     8
 71
     3
 72
    10
 73
     6
 74
     0
 42
0.000000001
 43
0.00000001
 40
0.0
 40
0.0
 40
0.0
 40
0.0
 40
0.5
 40
0.5
 40
1.0
 40
1.0
 40
1.0
 40
1.0
 10
21.37845462042562
 20
5.463228420858675
 30
0.0
 10
21.01828732092903
 20
5.857032736565883
 30
0.0
 10
20.64641279900216
 20
6.187322552259449
 30
0.0
 10
19.88555427862786
 20
6.758698213452992
 30
0.0
 10
19.49593576684383
 20
6.99937797285706
 30
0.0
 10
19.10000010771837
 20
7.202499437431626
 30
0.0
  0
SPLINE
  5
239
330
1F
100
AcDbEntity
  8
1
  6
SLD-Solid
370
    25
100
AcDbSpline
210
0.0
220
0.0
230
1.0
 70
     8
 71
     3
 72
     8
 73
     4
 74
     0
 42
0.000000001
 43
0.00000001
 40
0.0
 40
0.0
 40
0.0
 40
0.0
 40
0.0005149373009987
 40
0.0005149373009987
 40
0.0005149373009987
 40
0.0005149373009987
 10
11.80413133902066
 20
-8.094999999999999
 30
0.0
 10
11.72957739294793
 20
-8.209900308283274
 30
0.0
 10
11.65486478285153
 20
-8.324743826175315
 30
0.0
 10
11.57999999999998
 20
-8.439532455962562
 30
0.0
  0
SPLINE
  5
23A
330
1F
100
AcDbEntity
  8
1
  6
SLD-Solid
370
    25
100
AcDbSpline
210
0.0
220
0.0
230
1.0
 70
     8
 71
     3
 72
    18
 73
    14
 74
     0
 42
0.000000001
 43
0.00000001
 40
0.0
 40
0.0
 40
0.0
 40
0.0
 40
0.0626482473860757
 40
0.1257017858649318
 40
0.189176135616779
 40
0.2530864219763319
 40
0.3784696579957303
 40
0.5038788462432556
 40
0.6284396298377477
 40
0.7522705273054919
 40
0.8761638109126594
 40
0.9302069410252553
 40
1.0
 40
1.0
 40
1.0
 40
1.0
 10
2.749999999999988
 20
-8.439532455962562
 30
0.0
 10
2.725257861912953
 20
-8.439453539551923
 30
0.0
 10
2.67561352111452
 20
-8.439295196195726
 30
0.0
 10
2.601654207373225
 20
-8.437995004105879
 30
0.0
 10
2.528714112184638
 20
-8.43590001104029
 30
0.0
 10
2.434953328091724
 20
-8.432011419944784
 30
0.0
 10
2.325373217853921
 20
-8.425229592616416
 30
0.0
 10
2.21155176946615
 20
-8.41436997952215
 30
0.0
 10
2.119115299988386
 20
-8.401221457266711
 30
0.0
 10
2.050973292507904
 20
-8.386308066943414
 30
0.0
 10
2.017342905936484
 20
-8.373159139804736
 30
0.0
 10
2.00234403067609
 20
-8.362077257943207
 30
0.0
 10
2.000844898551485
 20
-8.35644450187522
 30
0.0
 10
2.000000000000002
 20
-8.353269926822952
 30
0.0
  0
SPLINE
  5
23B
330
1F
100
AcDbEntity
  8
1
  6
SLD-Solid
370
    25
100
AcDbSpline
210
0.0
220
0.0
230
1.0
 70
    24
 71
     3
 72
    63
 73
    59
 74
     0
 42
0.000000001
 43
0.00000001
 40
0.0
 40
0.0
 40
0.0
 40
0.0
 40
0.0157295157055994
 40
0.031422074234084
 40
0.0439554384940822
 40
0.0627308195836761
 40
0.0877444204354877
 40
0.1027535466968316
 40
0.1252799962043012
 40
0.1416547533301804
 40
0.1662894095368008
 40
0.1786159749224169
 40
0.1970505205304782
 40
0.2184788700430704
 40
0.2313066989620065
 40
0.2505190728270451
 40
0.2667670769854795
 40
0.2911322934021384
 40
0.3033217097733919
 40
0.3216239404912597
 40
0.3430175351158149
 40
0.3558901504979025
 40
0.375272504382348
 40
0.3917161976147457
 40
0.4162913796883942
 40
0.4285394952917361
 40
0.4468710955821854
 40
0.4682186365340774
 40
0.4810168198013257
 40
0.5002109812802532
 40
0.5164697654542666
 40
0.5408976995044128
 40
0.5531386085851936
 40
0.5715482257911025
 40
0.5931083106509799
 40
0.606047313614312
 40
0.6253935778583544
 40
0.6417053778005348
 40
0.6661245429600033
 40
0.6783182135136201
 40
0.6965960868825017
 40
0.7179269875418145
 40
0.7307375012761065
 40
0.7499789322767985
 40
0.7663145205709632
 40
0.7909228061602738
 40
0.8032612506346957
 40
0.8217178636892551
 40
0.8431546207703584
 40
0.8559812701724099
 40
0.875187944859314
 40
0.9000553704843862
 40
0.9149757888089226
 40
0.9373785494047091
 40
0.9498468283169813
 40
0.968592693534194
 40
0.9842666733420213
 40
1.0
 40
1.0
 40
1.0
 40
1.0
 10
2.321969218327724
 20
-8.094999999999999
 30
0.0
 10
2.321993397395889
 20
-8.094999999999999
 30
0.0
 10
2.322041698722494
 20
-8.094999999999999
 30
0.0
 10
2.322406149385975
 20
-8.094999999999999
 30
0.0
 10
2.323003039637866
 20
-8.094999999999999
 30
0.0
 10
2.324021843331372
 20
-8.094999999999999
 30
0.0
 10
2.325518386346884
 20
-8.094999999999999
 30
0.0
 10
2.327532786373237
 20
-8.094999999999999
 30
0.0
 10
2.329608433204192
 20
-8.095
 30
0.0
 10
2.332468150510178
 20
-8.094999999999999
 30
0.0
 10
2.335233935131908
 20
-8.094999999999999
 30
0.0
 10
2.338444748372623
 20
-8.094999999999999
 30
0.0
 10
2.341735343308046
 20
-8.094999999999999
 30
0.0
 10
2.345401208996303
 20
-8.094999999999999
 30
0.0
 10
2.349419105887304
 20
-8.094999999999999
 30
0.0
 10
2.353298491200792
 20
-8.094999999999999
 30
0.0
 10
2.358444267123894
 20
-8.095
 30
0.0
 10
2.363327876500093
 20
-8.094999999999999
 30
0.0
 10
2.368716386326561
 20
-8.094999999999999
 30
0.0
 10
2.374059587044189
 20
-8.094999999999999
 30
0.0
 10
2.379794509526967
 20
-8.094999999999999
 30
0.0
 10
2.385927180867373
 20
-8.094999999999999
 30
0.0
 10
2.391730887594035
 20
-8.094999999999999
 30
0.0
 10
2.399249282476188
 20
-8.095
 30
0.0
 10
2.406200022457047
 20
-8.095
 30
0.0
 10
2.413686765886367
 20
-8.094999999999999
 30
0.0
 10
2.420960250775122
 20
-8.094999999999999
 30
0.0
 10
2.428599505721898
 20
-8.095
 30
0.0
 10
2.436610864465033
 20
-8.095
 30
0.0
 10
2.44406436025163
 20
-8.094999999999999
 30
0.0
 10
2.453590084938284
 20
-8.094999999999999
 30
0.0
 10
2.462285248095122
 20
-8.095
 30
0.0
 10
2.471580820246663
 20
-8.094999999999999
 30
0.0
 10
2.480584947827977
 20
-8.094999999999999
 30
0.0
 10
2.489959325866015
 20
-8.094999999999999
 30
0.0
 10
2.499706241659738
 20
-8.094999999999999
 30
0.0
 10
2.508676179910643
 20
-8.094999999999999
 30
0.0
 10
2.519992201880664
 20
-8.095
 30
0.0
 10
2.530180668881901
 20
-8.094999999999999
 30
0.0
 10
2.540940155035962
 20
-8.095
 30
0.0
 10
2.551242183200741
 20
-8.094999999999999
 30
0.0
 10
2.561851640364321
 20
-8.094999999999999
 30
0.0
 10
2.572807424090551
 20
-8.095
 30
0.0
 10
2.582862497191377
 20
-8.094999999999999
 30
0.0
 10
2.595529095689719
 20
-8.095
 30
0.0
 10
2.60689794369455
 20
-8.095
 30
0.0
 10
2.618848053426146
 20
-8.094999999999999
 30
0.0
 10
2.630211496703422
 20
-8.095
 30
0.0
 10
2.641796398349397
 20
-8.095
 30
0.0
 10
2.653634317679121
 20
-8.094999999999999
 30
0.0
 10
2.666313651356639
 20
-8.094999999999999
 30
0.0
 10
2.679561341264514
 20
-8.094999999999999
 30
0.0
 10
2.693602759555214
 20
-8.094999999999999
 30
0.0
 10
2.704895432241228
 20
-8.094999999999999
 30
0.0
 10
2.717091213092326
 20
-8.094999999999999
 30
0.0
 10
2.727780256489273
 20
-8.095
 30
0.0
 10
2.739230294237435
 20
-8.094999999999999
 30
0.0
 10
2.746405578636854
 20
-8.095
 30
0.0
 10
2.749999999999988
 20
-8.094999999999999
 30
0.0
  0
SPLINE
  5
23C
330
1F
100
AcDbEntity
  8
1
  6
SLD-Solid
370
    25
100
AcDbSpline
210
0.0
220
0.0
230
1.0
 70
    24
 71
     3
 72
     8
 73
     4
 74
     0
 42
0.000000001
 43
0.00000001
 40
0.0
 40
0.0
 40
0.0
 40
0.0
 40
1.0
 40
1.0
 40
1.0
 40
1.0
 10
11.80413133902066
 20
-8.094999999999999
 30
0.0
 10
12.57258501008907
 20
-8.094999999999999
 30
0.0
 10
13.33836559689471
 20
-8.094999999999999
 30
0.0
 10
14.09999999999999
 20
-8.094999999999999
 30
0.0
  0
SPLINE
  5
23D
330
1F
100
AcDbEntity
  8
1
  6
SLD-Solid
370
    25
100
AcDbSpline
210
0.0
220
0.0
230
1.0
 70
     8
 71
     3
 72
    16
 73
    12
 74
     0
 42
0.000000001
 43
0.00000001
 40
0.0
 40
0.0
 40
0.0
 40
0.0
 40
0.0696579493767896
 40
0.1232237427978531
 40
0.246845363442319
 40
0.370369796625057
 40
0.4952239315358815
 40
0.6234450069087121
 40
0.7461876710764175
 40
0.873925588851829
 40
1.0
 40
1.0
 40
1.0
 40
1.0
 10
2.000000000000002
 20
8.470000000000047
 30
0.0
 10
2.000842955979673
 20
8.473745173424453
 30
0.0
 10
2.002334130953396
 20
8.480370322325777
 30
0.0
 10
2.017249525634992
 20
8.493435092485909
 30
0.0
 10
2.050688830818534
 20
8.50893869516401
 30
0.0
 10
2.118651708604161
 20
8.52658807641305
 30
0.0
 10
2.211629334130119
 20
8.542270877509118
 30
0.0
 10
2.325711345799703
 20
8.555162177558987
 30
0.0
 10
2.45738373205702
 20
8.564713714889566
 30
0.0
 10
2.600030045720139
 20
8.570896686464033
 30
0.0
 10
2.700228919092551
 20
8.571666038133175
 30
0.0
 10
2.749999999999905
 20
8.572048192771076
 30
0.0
  0
SPLINE
  5
23E
330
1F
100
AcDbEntity
  8
1
  6
SLD-Solid
370
    25
100
AcDbSpline
210
0.0
220
0.0
230
1.0
 70
    24
 71
     3
 72
    33
 73
    29
 74
     0
 42
0.000000001
 43
0.00000001
 40
0.0
 40
0.0
 40
0.0
 40
0.0
 40
0.0252074134106629
 40
0.0503577904579126
 40
0.1006529947214906
 40
0.1499358903108502
 40
0.1865968300683702
 40
0.2121850661003518
 40
0.2505508593283921
 40
0.2790355981719783
 40
0.3220351822744494
 40
0.3758116768115509
 40
0.4042896239144513
 40
0.4469019640738625
 40
0.500239364105761
 40
0.528851603727047
 40
0.5719840762781448
 40
0.6254852477883687
 40
0.6539061918383554
 40
0.6965246131662879
 40
0.7500236545650174
 40
0.7787621048148663
 40
0.8217598145492444
 40
0.8751426615489913
 40
0.9000107751982609
 40
0.937354186519911
 40
0.968588669576068
 40
1.0
 40
1.0
 40
1.0
 40
1.0
 10
2.749999999999961
 20
8.095000000000004
 30
0.0
 10
2.744952075539042
 20
8.095000000000004
 30
0.0
 10
2.734867648465575
 20
8.095000000000004
 30
0.0
 10
2.714748012478757
 20
8.095000000000004
 30
0.0
 10
2.689938093634922
 20
8.095000000000011
 30
0.0
 10
2.66321766329912
 20
8.095000000000011
 30
0.0
 10
2.641737731956209
 20
8.095000000000004
 30
0.0
 10
2.622677452818967
 20
8.095000000000011
 30
0.0
 10
2.605498004815979
 20
8.095000000000011
 30
0.0
 10
2.585570941770754
 20
8.095000000000004
 30
0.0
 10
2.563495615805766
 20
8.095000000000011
 30
0.0
 10
2.542410579551429
 20
8.095000000000011
 30
0.0
 10
2.522358340672506
 20
8.095000000000011
 30
0.0
 10
2.50324025747499
 20
8.095000000000018
 30
0.0
 10
2.485365150187352
 20
8.095000000000018
 30
0.0
 10
2.468594930052137
 20
8.095000000000011
 30
0.0
 10
2.452863354130821
 20
8.095000000000018
 30
0.0
 10
2.438652440579197
 20
8.095000000000011
 30
0.0
 10
2.425831939336515
 20
8.095000000000018
 30
0.0
 10
2.414186000781554
 20
8.095000000000011
 30
0.0
 10
2.404147153635599
 20
8.095000000000011
 30
0.0
 10
2.395531415073454
 20
8.095000000000018
 30
0.0
 10
2.388195715005689
 20
8.095000000000011
 30
0.0
 10
2.382777406320591
 20
8.095000000000018
 30
0.0
 10
2.378932867899003
 20
8.095000000000018
 30
0.0
 10
2.376698345849415
 20
8.095000000000011
 30
0.0
 10
2.375252749706749
 20
8.095000000000018
 30
0.0
 10
2.375084408309941
 20
8.095000000000018
 30
0.0
 10
2.37500000000003
 20
8.095000000000018
 30
0.0
  0
SPLINE
  5
23F
330
1F
100
AcDbEntity
  8
1
  6
SLD-Solid
370
    25
100
AcDbSpline
210
0.0
220
0.0
230
1.0
 70
     8
 71
     3
 72
    32
 73
    28
 74
     0
 42
0.000000001
 43
0.00000001
 40
0.500000000000001
 40
0.500000000000001
 40
0.500000000000001
 40
0.500000000000001
 40
0.5625000000000009
 40
0.5625000000000009
 40
0.6250000000000008
 40
0.6250000000000008
 40
0.6562500000000008
 40
0.6562500000000008
 40
0.6875000000000008
 40
0.6875000000000008
 40
0.7187500000000008
 40
0.7187500000000008
 40
0.7500000000000007
 40
0.7500000000000007
 40
0.7812500000000007
 40
0.7812500000000007
 40
0.8125000000000007
 40
0.8125000000000007
 40
0.8437500000000007
 40
0.8437500000000007
 40
0.8750000000000007
 40
0.8750000000000007
 40
0.9062500000000007
 40
0.9062500000000007
 40
0.9375000000000004
 40
0.9375000000000004
 40
1.0
 40
1.0
 40
1.0
 40
1.0
 10
9.000718311324082
 20
28.85655404586558
 30
0.0
 10
8.739648845282124
 20
28.85651637090115
 30
0.0
 10
8.476483617751871
 20
28.87764834218614
 30
0.0
 10
7.994978454253412
 20
28.95674520765162
 30
0.0
 10
7.771727105570003
 20
29.01546373101427
 30
0.0
 10
7.494870704764899
 20
29.12165157954838
 30
0.0
 10
7.410357175501065
 20
29.16075139711488
 30
0.0
 10
7.264939772708312
 20
29.24231679164009
 30
0.0
 10
7.203428503355383
 20
29.28486307536838
 30
0.0
 10
7.102898551066813
 20
29.37313007885738
 30
0.0
 10
7.064253503967056
 20
29.41885676962864
 30
0.0
 10
7.013197151496009
 20
29.5092871568026
 30
0.0
 10
7.000132293476055
 20
29.55449055760335
 30
0.0
 10
6.999869686187473
 20
29.64478332664316
 30
0.0
 10
7.012746684787782
 20
29.68860883293815
 30
0.0
 10
7.063332711442605
 20
29.77308562765029
 30
0.0
 10
7.101609104832068
 20
29.8142584892794
 30
0.0
 10
7.201880072252365
 20
29.89167522800111
 30
0.0
 10
7.26323616197104
 20
29.9277053406037
 30
0.0
 10
7.408082569311344
 20
29.99485472251369
 30
0.0
 10
7.492460159511674
 20
30.02613496318348
 30
0.0
 10
7.676867575711024
 20
30.08151243681515
 30
0.0
 10
7.777440638244593
 20
30.10596752726188
 30
0.0
 10
7.995666654038572
 20
30.14873009768034
 30
0.0
 10
8.11222169295038
 20
30.16672835399464
 30
0.0
 10
8.473071046004115
 20
30.20974024765998
 30
0.0
 10
8.735669452941089
 20
30.22463456733846
 30
0.0
 10
8.999999999999995
 20
30.22463456733846
 30
0.0
  0
SPLINE
  5
240
330
1F
100
AcDbEntity
  8
1
  6
SLD-Solid
370
    25
100
AcDbSpline
210
0.0
220
0.0
230
1.0
 70
     8
 71
     3
 72
    34
 73
    30
 74
     0
 42
0.000000001
 43
0.00000001
 40
0.0
 40
0.0
 40
0.0
 40
0.0
 40
0.0312500000000001
 40
0.0312500000000001
 40
0.0625000000000002
 40
0.0625000000000002
 40
0.0937500000000003
 40
0.0937500000000003
 40
0.1250000000000004
 40
0.1250000000000004
 40
0.1875000000000001
 40
0.1875000000000001
 40
0.2499999999999997
 40
0.2499999999999997
 40
0.2812499999999999
 40
0.2812499999999999
 40
0.3125000000000001
 40
0.3125000000000001
 40
0.3437500000000002
 40
0.3437500000000002
 40
0.3750000000000003
 40
0.3750000000000003
 40
0.4062500000000005
 40
0.4062500000000005
 40
0.4375000000000007
 40
0.4375000000000007
 40
0.4687500000000008
 40
0.4687500000000008
 40
0.500000000000001
 40
0.500000000000001
 40
0.500000000000001
 40
0.500000000000001
 10
8.999999999999995
 20
30.22463456733846
 30
0.0
 10
9.132165273529461
 20
30.22463456733846
 30
0.0
 10
9.26211531690857
 20
30.22098059739494
 30
0.0
 10
9.517768175951819
 20
30.20657876108876
 30
0.0
 10
9.64479762534745
 20
30.195654153296
 30
0.0
 10
9.886985586437246
 20
30.16685895133092
 30
0.0
 10
10.00184700916194
 20
30.1491314403186
 30
0.0
 10
10.21922714441986
 20
30.10670409231735
 30
0.0
 10
10.32212467954467
 20
30.08177337880267
 30
0.0
 10
10.59879176140524
 20
29.99881474713836
 30
0.0
 10
10.74779008738132
 20
29.93031869116877
 30
0.0
 10
10.94730142923195
 20
29.77670931193758
 30
0.0
 10
10.99985953044358
 20
29.68992163715392
 30
0.0
 10
11.00006980186094
 20
29.55606671380143
 30
0.0
 10
10.9870840226628
 20
29.50995920123076
 30
0.0
 10
10.93605685755787
 20
29.41923444804258
 30
0.0
 10
10.89830163888694
 20
29.37440176171913
 30
0.0
 10
10.79816322090123
 20
29.28604871920953
 30
0.0
 10
10.73555746439631
 20
29.24265838728704
 30
0.0
 10
10.59082402928065
 20
29.16135197089564
 30
0.0
 10
10.50819662566586
 20
29.12292728814683
 30
0.0
 10
10.32159156855531
 20
29.05115888240977
 30
0.0
 10
10.22047644564857
 20
29.0189364750088
 30
0.0
 10
10.00394371977603
 20
28.96218884147903
 30
0.0
 10
9.88707361213835
 20
28.93741971981141
 30
0.0
 10
9.644775896688925
 20
28.89751849970317
 30
0.0
 10
9.520111979223255
 20
28.88237644429807
 30
0.0
 10
9.263825058387562
 20
28.86185505429757
 30
0.0
 10
9.131253044345062
 20
28.85657288334779
 30
0.0
 10
9.000718311324082
 20
28.85655404586558
 30
0.0
  0
SPLINE
  5
241
330
1F
100
AcDbEntity
  8
1
  6
SLD-Solid
370
    25
100
AcDbSpline
210
0.0
220
0.0
230
1.0
 70
     8
 71
     3
 72
     8
 73
     4
 74
     0
 42
0.000000001
 43
0.00000001
 40
0.0
 40
0.0
 40
0.0
 40
0.0
 40
0.0006574372199583
 40
0.0006574372199583
 40
0.0006574372199583
 40
0.0006574372199583
 10
11.57999999999998
 20
8.572048192771076
 30
0.0
 10
11.67127640594344
 20
8.41315326063518
 30
0.0
 10
11.76222642389328
 20
8.254138786342951
 30
0.0
 10
11.85283246435887
 20
8.094999999999978
 30
0.0
  0
SPLINE
  5
242
330
1F
100
AcDbEntity
  8
1
  6
SLD-Solid
370
    25
100
AcDbSpline
210
0.0
220
0.0
230
1.0
 70
    24
 71
     3
 72
     8
 73
     4
 74
     0
 42
0.000000001
 43
0.00000001
 40
0.0
 40
0.0
 40
0.0
 40
0.0
 40
1.0
 40
1.0
 40
1.0
 40
1.0
 10
14.1
 20
8.095000000000004
 30
0.0
 10
13.35444575301459
 20
8.094999999999999
 30
0.0
 10
12.60493632912238
 20
8.094999999999985
 30
0.0
 10
11.85283246435887
 20
8.094999999999978
 30
0.0
  0
SPLINE
  5
243
330
1F
100
AcDbEntity
  8
1
  6
SLD-Solid
370
    25
100
AcDbSpline
210
0.0
220
0.0
230
1.0
 70
     8
 71
     3
 72
     8
 73
     4
 74
     0
 42
0.000000001
 43
0.00000001
 40
0.0
 40
0.0
 40
0.0
 40
0.0
 40
0.4999999999999993
 40
0.4999999999999993
 40
0.4999999999999993
 40
0.4999999999999993
 10
18.72499999999996
 20
-7.382860218099765
 30
0.0
 10
18.8255182577578
 20
-7.337658141140768
 30
0.0
 10
18.91735913082714
 20
-7.293714212873549
 30
0.0
 10
18.98629537144465
 20
-7.259707188480049
 30
0.0
  0
SPLINE
  5
244
330
1F
100
AcDbEntity
  8
1
  6
SLD-Solid
370
    25
100
AcDbSpline
210
0.0
220
0.0
230
1.0
 70
     8
 71
     3
 72
     8
 73
     4
 74
     0
 42
0.000000001
 43
0.00000001
 40
0.4999999999999993
 40
0.4999999999999993
 40
0.4999999999999993
 40
0.4999999999999993
 40
0.7499999999999997
 40
0.7499999999999997
 40
0.7499999999999997
 40
0.7499999999999997
 10
18.98629537144465
 20
-7.259707188480049
 30
0.0
 10
19.02076349175341
 20
-7.242703676283302
 30
0.0
 10
19.0486910221001
 20
-7.228626825593052
 30
0.0
 10
19.06873084400278
 20
-7.218455603707942
 30
0.0
  0
SPLINE
  5
245
330
1F
100
AcDbEntity
  8
1
  6
SLD-Solid
370
    25
100
AcDbSpline
210
0.0
220
0.0
230
1.0
 70
     8
 71
     2
 72
     6
 73
     3
 74
     0
 42
0.000000001
 43
0.00000001
 40
0.7499999999999997
 40
0.7499999999999997
 40
0.7499999999999997
 40
1.0
 40
1.0
 40
1.0
 10
19.06873084400278
 20
-7.218455603707942
 30
0.0
 10
19.08877066590545
 20
-7.208284381822836
 30
0.0
 10
19.1
 20
-7.202499566123385
 30
0.0
  0
SPLINE
  5
246
330
1F
100
AcDbEntity
  8
1
  6
SLD-Solid
370
    25
100
AcDbSpline
210
0.0
220
0.0
230
1.0
 70
     8
 71
     2
 72
     6
 73
     3
 74
     0
 42
0.000000001
 43
0.00000001
 40
0.0
 40
0.0
 40
0.0
 40
0.5
 40
0.5
 40
0.5
 10
19.10000010771837
 20
7.202499437431626
 30
0.0
 10
19.05448213914485
 20
7.226071880363463
 30
0.0
 10
18.98611858964211
 20
7.259794318703578
 30
0.0
  0
SPLINE
  5
247
330
1F
100
AcDbEntity
  8
1
  6
SLD-Solid
370
    25
100
AcDbSpline
210
0.0
220
0.0
230
1.0
 70
     8
 71
     3
 72
     8
 73
     4
 74
     0
 42
0.000000001
 43
0.00000001
 40
0.5
 40
0.5
 40
0.5
 40
0.5
 40
1.0
 40
1.0
 40
1.0
 40
1.0
 10
18.98611858964211
 20
7.259794318703578
 30
0.0
 10
18.91775504013937
 20
7.293516757043691
 30
0.0
 10
18.82528765987239
 20
7.337761758502266
 30
0.0
 10
18.72500010771878
 20
7.382860089408451
 30
0.0
  0
SPLINE
  5
248
330
1F
100
AcDbEntity
  8
1
  6
SLD-Solid
370
    25
100
AcDbSpline
210
0.0
220
0.0
230
1.0
 70
     8
 71
     3
 72
    10
 73
     6
 74
     0
 42
0.000000001
 43
0.00000001
 40
0.0
 40
0.0
 40
0.0
 40
0.0
 40
0.5000000000000001
 40
0.5000000000000001
 40
1.0
 40
1.0
 40
1.0
 40
1.0
 10
15.405
 20
-8.094999999999999
 30
0.0
 10
15.98112657985153
 20
-8.095
 30
0.0
 10
16.54624836374907
 20
-8.034200497612773
 30
0.0
 10
17.6556194249876
 20
-7.796508043186358
 30
0.0
 10
18.20339005803119
 20
-7.617423105135173
 30
0.0
 10
18.72499999999998
 20
-7.382860218099759
 30
0.0
  0
SPLINE
  5
249
330
1F
100
AcDbEntity
  8
1
  6
SLD-Solid
370
    25
100
AcDbSpline
210
0.0
220
0.0
230
1.0
 70
     8
 71
     3
 72
    10
 73
     6
 74
     0
 42
0.000000001
 43
0.00000001
 40
0.0
 40
0.0
 40
0.0
 40
0.0
 40
0.4999999999999999
 40
0.4999999999999999
 40
1.0
 40
1.0
 40
1.0
 40
1.0
 10
18.72500010771878
 20
7.382860089408451
 30
0.0
 10
18.20352437575645
 20
7.617362623517192
 30
0.0
 10
17.66546737266203
 20
7.793658058452134
 30
0.0
 10
16.55640670316608
 20
8.03275052384786
 30
0.0
 10
15.98103488572565
 20
8.09499987130869
 30
0.0
 10
15.4050001077188
 20
8.094999871308698
 30
0.0
  0
SPLINE
  5
24A
330
1F
100
AcDbEntity
  8
1
  6
SLD-Solid
370
    25
100
AcDbSpline
210
0.0
220
0.0
230
1.0
 70
    24
 71
     2
 72
     6
 73
     3
 74
     0
 42
0.000000001
 43
0.00000001
 40
0.0
 40
0.0
 40
0.0
 40
0.5
 40
0.5
 40
0.5
 10
14.09999999999999
 20
-8.094999999999999
 30
0.0
 10
14.13829554285044
 20
-8.095
 30
0.0
 10
14.20649777567376
 20
-8.094999999999999
 30
0.0
  0
SPLINE
  5
24B
330
1F
100
AcDbEntity
  8
1
  6
SLD-Solid
370
    25
100
AcDbSpline
210
0.0
220
0.0
230
1.0
 70
    24
 71
     3
 72
     8
 73
     4
 74
     0
 42
0.000000001
 43
0.00000001
 40
0.5
 40
0.5
 40
0.5
 40
0.5
 40
1.0
 40
1.0
 40
1.0
 40
1.0
 10
14.20649777567376
 20
-8.094999999999999
 30
0.0
 10
14.27470000849711
 20
-8.094999999999999
 30
0.0
 10
14.37352808422139
 20
-8.095
 30
0.0
 10
14.47499999999999
 20
-8.095
 30
0.0
  0
SPLINE
  5
24C
330
1F
100
AcDbEntity
  8
1
  6
SLD-Solid
370
    25
100
AcDbSpline
210
0.0
220
0.0
230
1.0
 70
    24
 71
     3
 72
     8
 73
     4
 74
     0
 42
0.000000001
 43
0.00000001
 40
0.0
 40
0.0
 40
0.0
 40
0.0
 40
0.5
 40
0.5
 40
0.5
 40
0.5
 10
14.47499999999999
 20
8.095000000000004
 30
0.0
 10
14.37490394397868
 20
8.094999999999999
 30
0.0
 10
14.2745797149141
 20
8.095000000000004
 30
0.0
 10
14.20643128914249
 20
8.095000000000004
 30
0.0
  0
SPLINE
  5
24D
330
1F
100
AcDbEntity
  8
1
  6
SLD-Solid
370
    25
100
AcDbSpline
210
0.0
220
0.0
230
1.0
 70
    24
 71
     2
 72
     6
 73
     3
 74
     0
 42
0.000000001
 43
0.00000001
 40
0.5
 40
0.5
 40
0.5
 40
1.0
 40
1.0
 40
1.0
 10
14.20643128914249
 20
8.095000000000004
 30
0.0
 10
14.13828286337092
 20
8.094999999999999
 30
0.0
 10
14.09999999999999
 20
8.095000000000004
 30
0.0
  0
SPLINE
  5
24E
330
1F
100
AcDbEntity
  8
1
  6
SLD-Solid
370
    25
100
AcDbSpline
210
0.0
220
0.0
230
1.0
 70
     8
 71
     3
 72
    26
 73
    22
 74
     0
 42
0.000000001
 43
0.00000001
 40
0.0
 40
0.0
 40
0.0
 40
0.0
 40
0.0453131890355161
 40
0.0922450796677371
 40
0.1375308904361956
 40
0.1841358677831721
 40
0.2297943237635021
 40
0.276460637956428
 40
0.3290044066675451
 40
0.3827414721231188
 40
0.4422188116687199
 40
0.503185909184485
 40
0.5671001295421529
 40
0.6328636241796477
 40
0.6965621305799881
 40
0.7624658347079922
 40
0.8110866747009886
 40
0.8610366676248569
 40
0.9097101357910424
 40
0.960190661266135
 40
1.0
 40
1.0
 40
1.0
 40
1.0
 10
66.5829091540965
 20
24.0
 30
0.0
 10
66.60458803367304
 20
23.99362657085568
 30
0.0
 10
66.64872021717667
 20
23.98065203757547
 30
0.0
 10
67.0004240380266
 20
23.87962314717585
 30
0.0
 10
67.54577660135654
 20
23.73091610482719
 30
0.0
 10
68.26936042639943
 20
23.54785380469862
 30
0.0
 10
69.15083962237735
 20
23.3471991926798
 30
0.0
 10
70.19961167731869
 20
23.1392746959031
 30
0.0
 10
71.42274480081203
 20
22.93984551874792
 30
0.0
 10
72.84602211866397
 20
22.76658771956047
 30
0.0
 10
74.41445282581628
 20
22.64869890649089
 30
0.0
 10
76.11360333582269
 20
22.60847902483813
 30
0.0
 10
77.86866905159916
 20
22.66171282936238
 30
0.0
 10
79.59780862814904
 20
22.80989903132051
 30
0.0
 10
81.2382897767144
 20
23.03699146155616
 30
0.0
 10
82.58543102989763
 20
23.28944106515111
 30
0.0
 10
83.6512513734689
 20
23.52827607673077
 30
0.0
 10
84.4387693927127
 20
23.72650669995326
 30
0.0
 10
85.02332345994091
 20
23.88615542697786
 30
0.0
 10
85.36408722156983
 20
23.98444128651457
 30
0.0
 10
85.39611847478785
 20
23.99385565900546
 30
0.0
 10
85.41024124505226
 20
23.99800651189179
 30
0.0
  0
SPLINE
  5
24F
330
1F
100
AcDbEntity
  8
1
  6
SLD-Solid
370
    25
100
AcDbSpline
210
0.0
220
0.0
230
1.0
 70
     8
 71
     3
 72
    10
 73
     6
 74
     0
 42
0.000000001
 43
0.00000001
 40
0.0
 40
0.0
 40
0.0
 40
0.0
 40
0.5
 40
0.5
 40
1.0
 40
1.0
 40
1.0
 40
1.0
 10
2.000000000000002
 20
2.254423570529101
 30
0.0
 10
2.000000000000002
 20
1.503942689015998
 30
0.0
 10
1.991466734792169
 20
0.753347077269463
 30
0.0
 10
1.991437555172462
 20
-0.7476150780783632
 30
0.0
 10
2.000000000000002
 20
-1.502087565517844
 30
0.0
 10
2.000000000000002
 20
-2.254423570529091
 30
0.0
  0
SPLINE
  5
250
330
1F
100
AcDbEntity
  8
1
  6
SLD-Dashed
370
    18
100
AcDbSpline
210
0.0
220
0.0
230
1.0
 70
     8
 71
     3
 72
    28
 73
    24
 74
     0
 42
0.000000001
 43
0.00000001
 40
0.0
 40
0.0
 40
0.0
 40
0.0
 40
0.0208848787760346
 40
0.0417692468663837
 40
0.0626724436867481
 40
0.0937833486241915
 40
0.1248924931938363
 40
0.1870516317136093
 40
0.2497059860485787
 40
0.3124160740059312
 40
0.3746586325612387
 40
0.4369953122912638
 40
0.4999274454992726
 40
0.5625489515323554
 40
0.624870870336075
 40
0.6874635877609557
 40
0.7503321793926649
 40
0.8126536407098792
 40
0.87491816467881
 40
0.9062722023378295
 40
0.9376282017468426
 40
0.9688222759430771
 40
1.0
 40
1.0
 40
1.0
 40
1.0
 10
21.62000000245133
 20
-5.823866909025522
 30
0.0
 10
21.67915553739
 20
-5.758032571530028
 30
0.0
 10
21.79746516077174
 20
-5.626365506347458
 30
0.0
 10
21.96712444092624
 20
-5.421882978239045
 30
0.0
 10
22.15753276998542
 20
-5.178406928455125
 30
0.0
 10
22.36375926533594
 20
-4.89229120875586
 30
0.0
 10
22.65244146433604
 20
-4.450208737196905
 30
0.0
 10
22.97592075703599
 20
-3.870964653039481
 30
0.0
 10
23.29950126695887
 20
-3.140228687299192
 30
0.0
 10
23.55455686153865
 20
-2.380921925087844
 30
0.0
 10
23.73837863291761
 20
-1.601409965868501
 30
0.0
 10
23.84992336724931
 20
-0.806386136566712
 30
0.0
 10
23.88749131251947
 20
-0.0022805013247043
 30
0.0
 10
23.8502871541163
 20
0.8017644320692796
 30
0.0
 10
23.73928069919848
 20
1.596976065964338
 30
0.0
 10
23.55531090367638
 20
2.378644508004409
 30
0.0
 10
23.30005787744556
 20
3.138682099372931
 30
0.0
 10
22.97677352448294
 20
3.869221985390782
 30
0.0
 10
22.65340115112341
 20
4.44860505659591
 30
0.0
 10
22.36346664671068
 20
4.892917014940282
 30
0.0
 10
22.13016927272678
 20
5.215848132823976
 30
0.0
 10
21.88370044482299
 20
5.527773189079086
 30
0.0
 10
21.70788480117676
 20
5.725186686017437
 30
0.0
 10
21.62000002350462
 20
5.823867559505709
 30
0.0
  0
SPLINE
  5
251
330
1F
100
AcDbEntity
  8
SK3
  6
SLD-Dashed
370
    18
100
AcDbSpline
210
0.0
220
0.0
230
1.0
 70
     8
 71
     3
 72
    14
 73
    10
 74
     0
 42
0.000000001
 43
0.00000001
 40
0.0
 40
0.0
 40
0.0
 40
0.0
 40
0.2500000000000001
 40
0.2500000000000001
 40
0.5000000000000002
 40
0.5000000000000002
 40
0.7500000000000003
 40
0.7500000000000003
 40
1.0
 40
1.0
 40
1.0
 40
1.0
 10
8.999999999999995
 20
22.52233123672765
 30
0.0
 10
8.812777191913563
 20
22.64552007315853
 30
0.0
 10
8.66211287510904
 20
22.78785458759382
 30
0.0
 10
8.381886162599134
 20
23.07755921415753
 30
0.0
 10
8.254956459178398
 20
23.22498791588272
 30
0.0
 10
8.019354036156557
 20
23.50322072174431
 30
0.0
 10
7.909797220188267
 20
23.6358937615536
 30
0.0
 10
7.703969370161295
 20
23.87567519811309
 30
0.0
 10
7.607104185181554
 20
23.98396357657228
 30
0.0
 10
7.525977601282722
 20
24.05824340254708
 30
0.0
  0
SPLINE
  5
252
330
1F
100
AcDbEntity
  8
SK3
  6
SLD-Dashed
370
    18
100
AcDbSpline
210
0.0
220
0.0
230
1.0
 70
     8
 71
     3
 72
    32
 73
    28
 74
     0
 42
0.000000001
 43
0.00000001
 40
0.5000000000000022
 40
0.5000000000000022
 40
0.5000000000000022
 40
0.5000000000000022
 40
0.5625000000000027
 40
0.5625000000000027
 40
0.5937500000000028
 40
0.5937500000000028
 40
0.6250000000000029
 40
0.6250000000000029
 40
0.6562500000000031
 40
0.6562500000000031
 40
0.6875000000000032
 40
0.6875000000000032
 40
0.7187500000000033
 40
0.7187500000000033
 40
0.7500000000000034
 40
0.7500000000000034
 40
0.8125000000000028
 40
0.8125000000000028
 40
0.8750000000000021
 40
0.8750000000000021
 40
0.9062500000000016
 40
0.9062500000000016
 40
0.937500000000001
 40
0.937500000000001
 40
0.9687500000000006
 40
0.9687500000000006
 40
1.0
 40
1.0
 40
1.0
 40
1.0
 10
7.456230207610118
 20
19.84600673884608
 30
0.0
 10
7.546439438621988
 20
19.95426866967479
 30
0.0
 10
7.692733571173963
 20
20.07094934226743
 30
0.0
 10
7.972968724529392
 20
20.2109181782994
 30
0.0
 10
8.075281363416357
 20
20.25117971404977
 30
0.0
 10
8.29955682501006
 20
20.30548974841721
 30
0.0
 10
8.420055834779783
 20
20.31835458358097
 30
0.0
 10
8.664330351546527
 20
20.29472325415855
 30
0.0
 10
8.78429562543473
 20
20.2577863873856
 30
0.0
 10
9.008919125679347
 20
20.1403224878861
 30
0.0
 10
9.109838184184357
 20
20.06343380589292
 30
0.0
 10
9.297290894689947
 20
19.89078717598882
 30
0.0
 10
9.383733967009242
 20
19.79494548607432
 30
0.0
 10
9.54509887219461
 20
19.59705747977522
 30
0.0
 10
9.620726716161599
 20
19.49411222683431
 30
0.0
 10
9.838475211045125
 20
19.17772611922447
 30
0.0
 10
9.972459158192171
 20
18.95551747124611
 30
0.0
 10
10.2181075349755
 20
18.51489382659244
 30
0.0
 10
10.33101402996076
 20
18.2944664044408
 30
0.0
 10
10.47999063705325
 20
17.96958614238823
 30
0.0
 10
10.52474319299179
 20
17.86515021015936
 30
0.0
 10
10.59843589743607
 20
17.67242127134742
 30
0.0
 10
10.62620768260131
 20
17.587028417322
 30
0.0
 10
10.65415209263676
 20
17.45435220691153
 30
0.0
 10
10.65286856709548
 20
17.4109153037984
 30
0.0
 10
10.62120361374107
 20
17.37653193951725
 30
0.0
 10
10.59130436150138
 20
17.38454088990771
 30
0.0
 10
10.55308824864451
 20
17.40968632236791
 30
0.0
  0
SPLINE
  5
253
330
1F
100
AcDbEntity
  8
SK3
  6
SLD-Dashed
370
    18
100
AcDbSpline
210
0.0
220
0.0
230
1.0
 70
     8
 71
     3
 72
    32
 73
    28
 74
     0
 42
0.000000001
 43
0.00000001
 40
0.0
 40
0.0
 40
0.0
 40
0.0
 40
0.0312500000000004
 40
0.0312500000000004
 40
0.0625000000000007
 40
0.0625000000000007
 40
0.1250000000000012
 40
0.1250000000000012
 40
0.1875000000000016
 40
0.1875000000000016
 40
0.2187500000000017
 40
0.2187500000000017
 40
0.2500000000000017
 40
0.2500000000000017
 40
0.2812500000000018
 40
0.2812500000000018
 40
0.3125000000000018
 40
0.3125000000000018
 40
0.3437500000000018
 40
0.3437500000000018
 40
0.3750000000000018
 40
0.3750000000000018
 40
0.4062500000000019
 40
0.4062500000000019
 40
0.4375000000000019
 40
0.4375000000000019
 40
0.5000000000000022
 40
0.5000000000000022
 40
0.5000000000000022
 40
0.5000000000000022
 10
10.55308824864452
 20
17.4096863223679
 30
0.0
 10
10.51487213578764
 20
17.43483175482811
 30
0.0
 10
10.46983022717767
 20
17.47541959914541
 30
0.0
 10
10.37081904354849
 20
17.5749550122468
 30
0.0
 10
10.31630583330353
 20
17.63468171470312
 30
0.0
 10
10.14470275204581
 20
17.83011468983802
 30
0.0
 10
10.0208717841328
 20
17.98043066739105
 30
0.0
 10
9.751365665135777
 20
18.29967117781139
 30
0.0
 10
9.60624404303484
 20
18.46955195332399
 30
0.0
 10
9.360735956978672
 20
18.71806092835866
 30
0.0
 10
9.273067061356304
 20
18.8007476129437
 30
0.0
 10
9.08248159836958
 20
18.95594905056458
 30
0.0
 10
8.978191466547589
 20
19.02910999751616
 30
0.0
 10
8.752139650361423
 20
19.15082152874419
 30
0.0
 10
8.629341373283737
 20
19.19863634895722
 30
0.0
 10
8.38720478721229
 20
19.26501062988958
 30
0.0
 10
8.266814367632215
 20
19.28512289757325
 30
0.0
 10
8.046561717486481
 20
19.3156318921451
 30
0.0
 10
7.944121662684142
 20
19.32668936035089
 30
0.0
 10
7.760725737691557
 20
19.35213271930934
 30
0.0
 10
7.680377292549625
 20
19.36624187488923
 30
0.0
 10
7.541999915855996
 20
19.40397372362142
 30
0.0
 10
7.486162551754924
 20
19.42699569581447
 30
0.0
 10
7.401526261015645
 20
19.48406624904846
 30
0.0
 10
7.372625165964458
 20
19.51869988496408
 30
0.0
 10
7.332227545734399
 20
19.63671408738469
 30
0.0
 10
7.366020976598262
 20
19.73774480801737
 30
0.0
 10
7.456230207610118
 20
19.84600673884608
 30
0.0
  0
SPLINE
  5
254
330
1F
100
AcDbEntity
  8
SK3
  6
SLD-Dashed
370
    18
100
AcDbSpline
210
0.0
220
0.0
230
1.0
 70
     8
 71
     3
 72
    30
 73
    26
 74
     0
 42
0.000000001
 43
0.00000001
 40
0.4999999999999987
 40
0.4999999999999987
 40
0.4999999999999987
 40
0.4999999999999987
 40
0.5624999999999992
 40
0.5624999999999992
 40
0.5937499999999996
 40
0.5937499999999996
 40
0.6249999999999999
 40
0.6249999999999999
 40
0.6562499999999999
 40
0.6562499999999999
 40
0.6874999999999998
 40
0.6874999999999998
 40
0.75
 40
0.75
 40
0.7812500000000001
 40
0.7812500000000001
 40
0.8125000000000001
 40
0.8125000000000001
 40
0.8750000000000001
 40
0.8750000000000001
 40
0.9375
 40
0.9375
 40
0.96875
 40
0.96875
 40
1.0
 40
1.0
 40
1.0
 40
1.0
 10
9.00069631694153
 20
5.828118860750117
 30
0.0
 10
8.784908724696686
 20
5.82806695911723
 30
0.0
 10
8.567048694399073
 20
5.853178352513249
 30
0.0
 10
8.268946802941713
 20
5.921330855601307
 30
0.0
 10
8.172466043233683
 20
5.949419321585631
 30
0.0
 10
7.993203237886867
 20
6.012924687184097
 30
0.0
 10
7.910379012452839
 20
6.048179240353363
 30
0.0
 10
7.758121289792086
 20
6.124333354423847
 30
0.0
 10
7.68868193396828
 20
6.165418181912428
 30
0.0
 10
7.569279941293249
 20
6.248573285672903
 30
0.0
 10
7.518412105938566
 20
6.291049151618503
 30
0.0
 10
7.393205589629484
 20
6.419647104437542
 30
0.0
 10
7.35012532902915
 20
6.50297594938342
 30
0.0
 10
7.349937743673027
 20
6.614727810660207
 30
0.0
 10
7.360546983123994
 20
6.649079505291756
 30
0.0
 10
7.402585039394061
 20
6.712381754065973
 30
0.0
 10
7.434548798404952
 20
6.741521134481808
 30
0.0
 10
7.558420656055956
 20
6.818244166438434
 30
0.0
 10
7.681132065308669
 20
6.856913129969278
 30
0.0
 10
7.983931170274364
 20
6.912480095519855
 30
0.0
 10
8.167181972037751
 20
6.930192911438398
 30
0.0
 10
8.464950082261863
 20
6.946625347922487
 30
0.0
 10
8.569947795646405
 20
6.950524619014957
 30
0.0
 10
8.782695288988284
 20
6.955579984062175
 30
0.0
 10
8.890578685517584
 20
6.956785249985109
 30
0.0
 10
8.999999999999995
 20
6.956785249985109
 30
0.0
  0
SPLINE
  5
255
330
1F
100
AcDbEntity
  8
SK3
  6
SLD-Dashed
370
    18
100
AcDbSpline
210
0.0
220
0.0
230
1.0
 70
     8
 71
     3
 72
    32
 73
    28
 74
     0
 42
0.000000001
 43
0.00000001
 40
0.0
 40
0.0
 40
0.0
 40
0.0
 40
0.0312499999999999
 40
0.0312499999999999
 40
0.0624999999999997
 40
0.0624999999999997
 40
0.0937499999999996
 40
0.0937499999999996
 40
0.1249999999999994
 40
0.1249999999999994
 40
0.1874999999999992
 40
0.1874999999999992
 40
0.2499999999999989
 40
0.2499999999999989
 40
0.2812499999999987
 40
0.2812499999999987
 40
0.3124999999999984
 40
0.3124999999999984
 40
0.3749999999999983
 40
0.3749999999999983
 40
0.4062499999999983
 40
0.4062499999999983
 40
0.4374999999999984
 40
0.4374999999999984
 40
0.4687499999999985
 40
0.4687499999999985
 40
0.4999999999999987
 40
0.4999999999999987
 40
0.4999999999999987
 40
0.4999999999999987
 10
8.999999999999995
 20
6.956785249985109
 30
0.0
 10
9.109421314482432
 20
6.956785249985102
 30
0.0
 10
9.216934141527203
 20
6.955579635659611
 30
0.0
 10
9.428324443196162
 20
6.950574738100415
 30
0.0
 10
9.53332098289328
 20
6.946705728820869
 30
0.0
 10
9.732933064688087
 20
6.935719952199597
 30
0.0
 10
9.827545190420922
 20
6.928648943863712
 30
0.0
 10
10.00660221727667
 20
6.910183829536301
 30
0.0
 10
10.0910674534529
 20
6.898696105629814
 30
0.0
 10
10.31845668439875
 20
6.857030184983508
 30
0.0
 10
10.44127007785234
 20
6.818300476594014
 30
0.0
 10
10.60612945459308
 20
6.716460560978667
 30
0.0
 10
10.64986706317449
 20
6.652019447780856
 30
0.0
 10
10.6500660021792
 20
6.541211798441047
 30
0.0
 10
10.63926006613776
 20
6.501252463902041
 30
0.0
 10
10.59698911749946
 20
6.419578813744928
 30
0.0
 10
10.56571768111607
 20
6.377598407896416
 30
0.0
 10
10.44118179578639
 20
6.249271679382565
 30
0.0
 10
10.31980936785251
 20
6.163428739056981
 30
0.0
 10
10.09031421017588
 20
6.048468009215199
 30
0.0
 10
10.00743739559384
 20
6.013200883306917
 30
0.0
 10
9.8291084455608
 20
5.949928459094076
 30
0.0
 10
9.732492335567915
 20
5.921708122695684
 30
0.0
 10
9.533290589479451
 20
5.876070401958463
 30
0.0
 10
9.430444258687887
 20
5.858412277425409
 30
0.0
 10
9.218127825784975
 20
5.834356571066255
 30
0.0
 10
9.108590113063961
 20
5.828144811566564
 30
0.0
 10
9.00069631694153
 20
5.828118860750117
 30
0.0
  0
SPLINE
  5
256
330
1F
100
AcDbEntity
  8
SK3
  6
SLD-Dashed
370
    18
100
AcDbSpline
210
0.0
220
0.0
230
1.0
 70
     8
 71
     3
 72
    30
 73
    26
 74
     0
 42
0.000000001
 43
0.00000001
 40
0.5000000000000016
 40
0.5000000000000016
 40
0.5000000000000016
 40
0.5000000000000016
 40
0.5625000000000012
 40
0.5625000000000012
 40
0.593750000000001
 40
0.593750000000001
 40
0.6250000000000008
 40
0.6250000000000008
 40
0.6562500000000007
 40
0.6562500000000007
 40
0.6875000000000004
 40
0.6875000000000004
 40
0.7500000000000003
 40
0.7500000000000003
 40
0.7812500000000002
 40
0.7812500000000002
 40
0.8125000000000001
 40
0.8125000000000001
 40
0.875
 40
0.875
 40
0.9375
 40
0.9375
 40
0.96875
 40
0.96875
 40
1.0
 40
1.0
 40
1.0
 40
1.0
 10
8.999303683058443
 20
-6.956785233221209
 30
0.0
 10
9.215091275303289
 20
-6.956795623434965
 30
0.0
 10
9.4329513056009
 20
-6.952193217180723
 30
0.0
 10
9.731053197058277
 20
-6.935841424474249
 30
0.0
 10
9.827533956766318
 20
-6.928651961099111
 30
0.0
 10
10.00679676211312
 20
-6.910161906578553
 30
0.0
 10
10.08962098754714
 20
-6.898922416800186
 30
0.0
 10
10.2418787102079
 20
-6.871100206533844
 30
0.0
 10
10.31131806603171
 20
-6.854385757486231
 30
0.0
 10
10.43072005870672
 20
-6.815565320931603
 30
0.0
 10
10.48158789406141
 20
-6.793338880874089
 30
0.0
 10
10.60679441037049
 20
-6.716160531564947
 30
0.0
 10
10.64987467097084
 20
-6.652571251466271
 30
0.0
 10
10.65006225632696
 20
-6.540902490698282
 30
0.0
 10
10.63945301687599
 20
-6.501808848192771
 30
0.0
 10
10.59741496060593
 20
-6.420220705647815
 30
0.0
 10
10.56545120159502
 20
-6.377316705302404
 30
0.0
 10
10.44157934394403
 20
-6.24969556347859
 30
0.0
 10
10.31886793469131
 20
-6.163028705867212
 30
0.0
 10
10.01606882972562
 20
-6.011205112641492
 30
0.0
 10
9.832818027962237
 20
-5.944805669355191
 30
0.0
 10
9.535049917738124
 20
-5.876417755056647
 30
0.0
 10
9.43005220435357
 20
-5.85834481475693
 30
0.0
 10
9.217304711011689
 20
-5.834286485611691
 30
0.0
 10
9.109421314482432
 20
-5.828118777010397
 30
0.0
 10
9.000000000000007
 20
-5.828118777010394
 30
0.0
  0
SPLINE
  5
257
330
1F
100
AcDbEntity
  8
SK3
  6
SLD-Dashed
370
    18
100
AcDbSpline
210
0.0
220
0.0
230
1.0
 70
     8
 71
     3
 72
    32
 73
    28
 74
     0
 42
0.000000001
 43
0.00000001
 40
0.0
 40
0.0
 40
0.0
 40
0.0
 40
0.0312500000000003
 40
0.0312500000000003
 40
0.0625000000000007
 40
0.0625000000000007
 40
0.093750000000001
 40
0.093750000000001
 40
0.1250000000000014
 40
0.1250000000000014
 40
0.1875000000000014
 40
0.1875000000000014
 40
0.2500000000000014
 40
0.2500000000000014
 40
0.2812500000000013
 40
0.2812500000000013
 40
0.3125000000000013
 40
0.3125000000000013
 40
0.3750000000000013
 40
0.3750000000000013
 40
0.4062500000000013
 40
0.4062500000000013
 40
0.4375000000000014
 40
0.4375000000000014
 40
0.4687500000000015
 40
0.4687500000000015
 40
0.5000000000000016
 40
0.5000000000000016
 40
0.5000000000000016
 40
0.5000000000000016
 10
9.000000000000007
 20
-5.828118777010394
 30
0.0
 10
8.890578685517598
 20
-5.82811877701039
 30
0.0
 10
8.783065858472785
 20
-5.834284418330168
 30
0.0
 10
8.571675556803868
 20
-5.858109988008061
 30
0.0
 10
8.466679017106724
 20
-5.876067982477958
 30
0.0
 10
8.2670669353119
 20
-5.921818499940102
 30
0.0
 10
8.172454809579108
 20
-5.949427367456874
 30
0.0
 10
7.99339778272333
 20
-6.0128517059364
 30
0.0
 10
7.908932546547121
 20
-6.048842538536825
 30
0.0
 10
7.681543315601225
 20
-6.162756727646966
 30
0.0
 10
7.558729922147678
 20
-6.2495219561883
 30
0.0
 10
7.393870545406897
 20
-6.419081974581021
 30
0.0
 10
7.350132936825488
 20
-6.503524382808379
 30
0.0
 10
7.349933997820787
 20
-6.614420162333233
 30
0.0
 10
7.360739933862215
 20
-6.649550307798437
 30
0.0
 10
7.403010882500519
 20
-6.712840086506203
 30
0.0
 10
7.43428231888392
 20
-6.741349407769707
 30
0.0
 10
7.558818204213585
 20
-6.818503738973178
 30
0.0
 10
7.680190632147463
 20
-6.856785886595773
 30
0.0
 10
7.909685789824109
 20
-6.898832345070015
 30
0.0
 10
7.992562604406131
 20
-6.910073301990241
 30
0.0
 10
8.170891554439175
 20
-6.92851180902759
 30
0.0
 10
8.267507664432058
 20
-6.935747180365933
 30
0.0
 10
8.46670941052055
 20
-6.946704422141254
 30
0.0
 10
8.569555741312115
 20
-6.950509985122828
 30
0.0
 10
8.781872174215014
 20
-6.955565712422587
 30
0.0
 10
8.891409886936014
 20
-6.956780038114327
 30
0.0
 10
8.999303683058443
 20
-6.956785233221209
 30
0.0
  0
SPLINE
  5
258
330
1F
100
AcDbEntity
  8
SK3
  6
SLD-Dashed
370
    18
100
AcDbSpline
210
0.0
220
0.0
230
1.0
 70
     8
 71
     3
 72
    30
 73
    26
 74
     0
 42
0.000000001
 43
0.00000001
 40
0.5000000000000036
 40
0.5000000000000036
 40
0.5000000000000036
 40
0.5000000000000036
 40
0.5625000000000034
 40
0.5625000000000034
 40
0.6250000000000033
 40
0.6250000000000033
 40
0.656250000000003
 40
0.656250000000003
 40
0.6875000000000027
 40
0.6875000000000027
 40
0.7187500000000024
 40
0.7187500000000024
 40
0.7500000000000021
 40
0.7500000000000021
 40
0.7812500000000018
 40
0.7812500000000018
 40
0.8125000000000016
 40
0.8125000000000016
 40
0.8750000000000011
 40
0.8750000000000011
 40
0.9375000000000008
 40
0.9375000000000008
 40
0.9687500000000004
 40
0.9687500000000004
 40
1.0
 40
1.0
 40
1.0
 40
1.0
 10
9.60489337774205
 20
-19.51347850842541
 30
0.0
 10
9.7557933188418
 20
-19.30677243266497
 30
0.0
 10
9.893662796082031
 20
-19.08656912488679
 30
0.0
 10
10.14805664695104
 20
-18.64615615242743
 30
0.0
 10
10.26529533769357
 20
-18.42441699642167
 30
0.0
 10
10.42392440395894
 20
-18.09399279727537
 30
0.0
 10
10.47259202337671
 20
-17.98671496934669
 30
0.0
 10
10.55785759585895
 20
-17.78229420130048
 30
0.0
 10
10.59326128133259
 20
-17.68804522709431
 30
0.0
 10
10.64183233662708
 20
-17.52669154829954
 30
0.0
 10
10.6533951452847
 20
-17.46303104768353
 30
0.0
 10
10.64476472747593
 20
-17.38873292205963
 30
0.0
 10
10.62471573718475
 20
-17.37809859267778
 30
0.0
 10
10.56411130935853
 20
-17.39839565630087
 30
0.0
 10
10.52329695534175
 20
-17.42868893004588
 30
0.0
 10
10.43204397918215
 20
-17.51153884675923
 30
0.0
 10
10.38099542270567
 20
-17.56445171258742
 30
0.0
 10
10.21662618950932
 20
-17.74507224580027
 30
0.0
 10
10.09647406147365
 20
-17.8895537070524
 30
0.0
 10
9.8354537132061
 20
-18.20069059067215
 30
0.0
 10
9.694824864369608
 20
-18.36836325662092
 30
0.0
 10
9.462561182676826
 20
-18.61652471163248
 30
0.0
 10
9.381211268074715
 20
-18.6990225491887
 30
0.0
 10
9.20412812435327
 20
-18.85969063580464
 30
0.0
 10
9.106631126133108
 20
-18.93919115918043
 30
0.0
 10
8.999999999999995
 20
-19.00935229227053
 30
0.0
  0
SPLINE
  5
259
330
1F
100
AcDbEntity
  8
SK3
  6
SLD-Dashed
370
    18
100
AcDbSpline
210
0.0
220
0.0
230
1.0
 70
     8
 71
     3
 72
    36
 73
    32
 74
     0
 42
0.000000001
 43
0.00000001
 40
0.0
 40
0.0
 40
0.0
 40
0.0
 40
0.0312500000000002
 40
0.0312500000000002
 40
0.0625000000000003
 40
0.0625000000000003
 40
0.0937500000000005
 40
0.0937500000000005
 40
0.1250000000000006
 40
0.1250000000000006
 40
0.1875000000000009
 40
0.1875000000000009
 40
0.2187500000000012
 40
0.2187500000000012
 40
0.2500000000000014
 40
0.2500000000000014
 40
0.2812500000000017
 40
0.2812500000000017
 40
0.312500000000002
 40
0.312500000000002
 40
0.3437500000000022
 40
0.3437500000000022
 40
0.3750000000000025
 40
0.3750000000000025
 40
0.4062500000000028
 40
0.4062500000000028
 40
0.4375000000000031
 40
0.4375000000000031
 40
0.4687500000000033
 40
0.4687500000000033
 40
0.5000000000000036
 40
0.5000000000000036
 40
0.5000000000000036
 40
0.5000000000000036
 10
8.999999999999995
 20
-19.00935229227053
 30
0.0
 10
8.893368873866866
 20
-19.07951342536062
 30
0.0
 10
8.77907849688049
 20
-19.1387634364352
 30
0.0
 10
8.535888225312844
 20
-19.22910219513932
 30
0.0
 10
8.413981832791267
 20
-19.25794010302161
 30
0.0
 10
8.179271157767815
 20
-19.29928852710618
 30
0.0
 10
8.070803189778472
 20
-19.31172242241064
 30
0.0
 10
7.870144624719064
 20
-19.33654780644654
 30
0.0
 10
7.780090866186279
 20
-19.34853604168465
 30
0.0
 10
7.544512767225481
 20
-19.3953110187003
 30
0.0
 10
7.434195142488748
 20
-19.4419205563395
 30
0.0
 10
7.357340922935024
 20
-19.54785336765127
 30
0.0
 10
7.346659110617132
 20
-19.5880559358204
 30
0.0
 10
7.355124597260995
 20
-19.67872704820324
 30
0.0
 10
7.374722264446507
 20
-19.72901567754586
 30
0.0
 10
7.442070988465916
 20
-19.83365591862578
 30
0.0
 10
7.490734580698668
 20
-19.88938085498791
 30
0.0
 10
7.612774729317512
 20
-19.99928377880172
 30
0.0
 10
7.685839339782355
 20
-20.05367502517112
 30
0.0
 10
7.857040323147629
 20
-20.15628465959962
 30
0.0
 10
7.952261026648006
 20
-20.20282117663173
 30
0.0
 10
8.161504958136986
 20
-20.27630660982456
 30
0.0
 10
8.27758816215017
 20
-20.30338148582379
 30
0.0
 10
8.516407933335593
 20
-20.31580644474791
 30
0.0
 10
8.641679517825255
 20
-20.29974308132085
 30
0.0
 10
8.875951503651835
 20
-20.21819193323016
 30
0.0
 10
8.98735301930377
 20
-20.15278169598952
 30
0.0
 10
9.187585804504156
 20
-19.99813205379243
 30
0.0
 10
9.279840777075012
 20
-19.90750849637211
 30
0.0
 10
9.450435476899125
 20
-19.71714874234588
 30
0.0
 10
9.529443407192167
 20
-19.61683154630563
 30
0.0
 10
9.60489337774205
 20
-19.51347850842541
 30
0.0
  0
SPLINE
  5
25A
330
1F
100
AcDbEntity
  8
SK3
  6
SLD-Dashed
370
    18
100
AcDbSpline
210
0.0
220
0.0
230
1.0
 70
     8
 71
     3
 72
    17
 73
    13
 74
     0
 42
0.000000001
 43
0.00000001
 40
0.0
 40
0.0
 40
0.0
 40
0.0
 40
0.1125962084631589
 40
0.2251681550871067
 40
0.3017048564870089
 40
0.3788515390169475
 40
0.465235402721159
 40
0.6359757469078463
 40
0.76296228161034
 40
0.8937151135414482
 40
0.9740070234963158
 40
1.0
 40
1.0
 40
1.0
 40
1.0
 10
10.55308824864452
 20
-22.07819564013879
 30
0.0
 10
10.47281539603495
 20
-22.11283399186943
 30
0.0
 10
10.31228698773075
 20
-22.18210323157921
 30
0.0
 10
9.922893180811077
 20
-22.2162615993379
 30
0.0
 10
9.515964065579766
 20
-22.28064402087961
 30
0.0
 10
9.131323407064961
 20
-22.42295330449017
 30
0.0
 10
8.68383837575265
 20
-22.74221651174732
 30
0.0
 10
8.29802190552785
 20
-23.17031221967504
 30
0.0
 10
7.925603906948825
 20
-23.61789054118143
 30
0.0
 10
7.673092509371732
 20
-23.91078278679012
 30
0.0
 10
7.511383730702162
 20
-24.08256742753224
 30
0.0
 10
7.46632659118214
 20
-24.10308797505351
 30
0.0
 10
7.455307440596471
 20
-24.10810646947295
 30
0.0
  0
INSERT
  5
25B
330
1F
100
AcDbEntity
  8
81
100
AcDbBlockReference
  2
Block11
 10
8.3735173495
 20
-130.2676275275
 30
0.0
  0
INSERT
  5
25C
330
1F
100
AcDbEntity
  8
80
100
AcDbBlockReference
  2
Block12
 10
-61.7273641656
 20
-130.3356800267
 30
0.0
  0
DIMENSION
  5
25D
330
1F
100
AcDbEntity
  8
SK2
100
AcDbDimension
  2
_D
 10
27.0
 20
39.7355635051
 30
0.0
 11
13.7273229464
 21
39.7355635051
 31
0.0
 70
   160
  1
<>
 71
     2
 42
-1.0
  3
SLDDIMSTYLE0
100
AcDbAlignedDimension
 13
0.0
 23
22.225
 33
0.0
 14
27.0
 24
30.75
 34
0.0
100
AcDbRotatedDimension
  0
DIMENSION
  5
269
330
1F
100
AcDbEntity
  8
SK2
100
AcDbDimension
  2
_D_1
 10
100.0
 20
39.7355635051
 30
0.0
 11
63.0671258924
 21
39.7355635051
 31
0.0
 70
   160
  1
<>
 71
     2
 42
-1.0
  3
SLDDIMSTYLE0
100
AcDbAlignedDimension
 13
27.0
 23
30.75
 33
0.0
 14
100.0
 24
16.4944465005
 34
0.0
100
AcDbRotatedDimension
  0
DIMENSION
  5
273
330
1F
100
AcDbEntity
  8
2
100
AcDbDimension
  2
_D_2
 10
0.0
 20
49.7829415596
 30
0.0
 11
48.5343112065
 21
49.7829415596
 31
0.0
 70
   160
  1
<>
 71
     2
 42
-1.0
  3
SLDDIMSTYLE0
100
AcDbAlignedDimension
 13
100.0
 23
16.4944465005
 33
0.0
 14
0.0
 24
22.225
 34
0.0
100
AcDbRotatedDimension
  0
DIMENSION
  5
27D
330
1F
100
AcDbEntity
  8
SK2
100
AcDbDimension
  2
_D_3
 10
87.0
 20
30.2264378464
 30
0.0
 11
93.0298425905
 21
30.2264378464
 31
0.0
 70
   160
  1
<>
 71
     2
 42
-1.0
  3
SLDDIMSTYLE0
100
AcDbAlignedDimension
 13
100.0
 23
16.4944465005
 33
0.0
 14
87.0
 24
24.0
 34
0.0
100
AcDbRotatedDimension
  0
DIMENSION
  5
287
330
1F
100
AcDbEntity
  8
SK2
100
AcDbDimension
  2
_D_4
 10
76.0
 20
-35.5551706784
 30
0.0
 11
87.7898629605
 21
-35.5551706784
 31
0.0
 70
   160
  1
<>
 71
     2
 42
-1.0
  3
SLDDIMSTYLE0
100
AcDbAlignedDimension
 13
100.0
 23
-16.4944465005
 33
0.0
 14
76.0
 24
-24.3
 34
0.0
100
AcDbRotatedDimension
  0
DIMENSION
  5
291
330
1F
100
AcDbEntity
  8
SK2
100
AcDbDimension
  2
_D_5
 10
53.0
 20
-44.9096173921
 30
0.0
 11
77.9700186483
 21
-44.9096173921
 31
0.0
 70
   160
  1
<>
 71
     2
 42
-1.0
  3
SLDDIMSTYLE0
100
AcDbAlignedDimension
 13
100.0
 23
-16.4944465005
 33
0.0
 14
53.0
 24
-7.9999999828
 34
0.0
100
AcDbRotatedDimension
  0
DIMENSION
  5
29B
330
1F
100
AcDbEntity
  8
SK2
100
AcDbDimension
  2
_D_6
 10
135.7410125417
 20
-24.0
 30
0.0
 11
135.7410125417
 21
0.4589465386
 31
0.0
 70
   160
  1
%%c<>
 71
     2
 42
-1.0
  3
SLDDIMSTYLE0
100
AcDbAlignedDimension
 13
87.0
 23
24.0
 33
0.0
 14
87.0
 24
-24.0
 34
0.0
 50
90.0
100
AcDbRotatedDimension
  0
DIMENSION
  5
2A6
330
1F
100
AcDbEntity
  8
SK2
100
AcDbDimension
  2
_D_7
 10
126.2087771755
 20
-16.4944465005
 30
0.0
 11
126.2087771755
 21
0.4589465386
 31
0.0
 70
   160
  1
%%c<>
 71
     2
 42
-1.0
  3
SLDDIMSTYLE0
100
AcDbAlignedDimension
 13
100.0
 23
16.4944465005
 33
0.0
 14
100.0
 24
-16.4944465005
 34
0.0
 50
90.0
100
AcDbRotatedDimension
  0
DIMENSION
  5
2B1
330
1F
100
AcDbEntity
  8
SK2
100
AcDbDimension
  2
_D_8
 10
117.2536248848
 20
8.0
 30
0.0
 11
117.2536248848
 21
0.4589465386
 31
0.0
 70
   160
  1
%%c<>
 71
     2
 42
-1.0
  3
SLDDIMSTYLE1
100
AcDbAlignedDimension
 13
99.0
 23
-8.0
 33
0.0
 14
99.0
 24
8.0
 34
0.0
 50
90.0
100
AcDbRotatedDimension
  0
DIMENSION
  5
2BF
330
1F
100
AcDbEntity
  8
SK2
100
AcDbDimension
  2
_D_9
 10
-93.8888854956
 20
-31.5
 30
0.0
 11
-93.8888854956
 21
-1.0125778996
 31
0.0
 70
   160
  1
%%c<>
 71
     2
 42
-1.0
  3
SLDDIMSTYLE0
100
AcDbAlignedDimension
 13
2.75
 23
31.5
 33
0.0
 14
2.75
 24
-31.5
 34
0.0
 50
90.0
100
AcDbRotatedDimension
  0
DIMENSION
  5
2CA
330
1F
100
AcDbEntity
  8
SK2
100
AcDbDimension
  2
_D_10
 10
-82.2124574188
 20
-22.225
 30
0.0
 11
-82.2124574188
 21
-1.0125778996
 31
0.0
 70
   160
  1
%%c<>
 71
     2
 42
-1.0
  3
SLDDIMSTYLE0
100
AcDbAlignedDimension
 13
0.2
 23
22.225
 33
0.0
 14
0.0
 24
-22.225
 34
0.0
 50
90.0
100
AcDbRotatedDimension
  0
DIMENSION
  5
2D5
330
1F
100
AcDbEntity
  8
SK2
100
AcDbDimension
  2
_D_11
 10
-72.5062641229
 20
8.00000038
 30
0.0
 11
-72.5062641229
 21
0.4589465386
 31
0.0
 70
   160
  1
M<>
 71
     2
 42
-1.0
  3
SLDDIMSTYLE1
100
AcDbAlignedDimension
 13
-55.6881204247
 23
-8.00000038
 33
0.0
 14
-55.6881204247
 24
8.00000038
 34
0.0
 50
90.0
100
AcDbRotatedDimension
  0
MTEXT
  5
2E2
330
1F
100
AcDbEntity
  8
SK6
 62
     5
100
AcDbMText
 10
-32.778125875
 20
28.7841300269
 30
0.0
 40
3.5
 41
0.0
 71
     1
 72
     1
  1
MAS-403 BT40
  7
SLDTEXTSTYLE0
 73
     1
 44
1.0
  0
MTEXT
  5
2E3
330
1F
100
AcDbEntity
  8
SK6
 62
     5
100
AcDbMText
 10
-64.2168230689
 20
-41.4235747254
 30
0.0
 40
3.5
 41
0.0
 71
     1
 72
     1
  1
A2B20-40 16 100
  7
SLDTEXTSTYLE0
 73
     1
 44
1.0
  0
ENDSEC
  0
SECTION
  2
OBJECTS
  0
DICTIONARY
  5
C
330
0
100
AcDbDictionary
281
     1
  3
ACAD_GROUP
350
D
  3
ACAD_LAYOUT
350
1A
  3
ACAD_MLINESTYLE
350
17
  3
ACAD_PLOTSETTINGS
350
19
  3
ACAD_PLOTSTYLENAME
350
E
  3
ACAD_SCALELIST
350
47
  0
DICTIONARY
  5
D
102
{ACAD_REACTORS
330
C
102
}
330
C
100
AcDbDictionary
281
     1
  0
DICTIONARY
  5
1A
102
{ACAD_REACTORS
330
C
102
}
330
C
100
AcDbDictionary
281
     1
  3
Layout1
350
1E
  3
Layout2
350
26
  3
Model
350
22
  0
DICTIONARY
  5
17
102
{ACAD_REACTORS
330
C
102
}
330
C
100
AcDbDictionary
281
     1
  3
Standard
350
18
  0
DICTIONARY
  5
19
102
{ACAD_REACTORS
330
C
102
}
330
C
100
AcDbDictionary
281
     1
  0
ACDBDICTIONARYWDFLT
  5
E
102
{ACAD_REACTORS
330
C
102
}
330
C
100
AcDbDictionary
281
     1
  3
Normal
350
F
100
AcDbDictionaryWithDefault
340
F
  0
DICTIONARY
  5
47
102
{ACAD_REACTORS
330
C
102
}
330
C
100
AcDbDictionary
281
     1
  3
A0
350
48
  3
A1
350
49
  3
A2
350
4A
  3
A3
350
4B
  3
A4
350
4C
  3
A5
350
4D
  3
A6
350
4E
  3
A7
350
4F
  3
A8
350
50
  3
A9
350
51
  3
B0
350
52
  3
B1
350
53
  3
B2
350
54
  3
B3
350
55
  3
B4
350
56
  3
B5
350
57
  3
B6
350
58
  3
B7
350
59
  3
B8
350
5A
  3
B9
350
5B
  3
C0
350
5C
  3
C1
350
5D
  3
C2
350
5E
  3
C3
350
5F
  3
C4
350
60
  3
C5
350
61
  3
C6
350
62
  3
C7
350
63
  3
C8
350
64
  3
C9
350
65
  3
D0
350
66
  3
D1
350
67
  3
D2
350
68
  0
LAYOUT
  5
1E
102
{ACAD_REACTORS
330
1A
102
}
330
1A
100
AcDbPlotSettings
  1

  2
none_device
  4

  6

 40
0.0
 41
0.0
 42
0.0
 43
0.0
 44
0.0
 45
0.0
 46
0.0
 47
0.0
 48
0.0
 49
0.0
140
0.0
141
0.0
142
1.0
143
1.0
 70
   688
 72
     1
 73
     0
 74
     5
  7

 75
    16
147
1.0
148
0.0
149
0.0
100
AcDbLayout
  1
Layout1
 70
     1
 71
     1
 10
0.0
 20
0.0
 11
420.0
 21
297.0
 12
0.0
 22
0.0
 32
0.0
 14
1.0000000000E+20
 24
1.0000000000E+20
 34
1.0000000000E+20
 15
-1.0000000000E+20
 25
-1.0000000000E+20
 35
-1.0000000000E+20
146
0.0
 13
0.0
 23
0.0
 33
0.0
 16
1.0
 26
0.0
 36
0.0
 17
0.0
 27
1.0
 37
0.0
 76
     0
330
1B
  0
LAYOUT
  5
26
102
{ACAD_REACTORS
330
1A
102
}
330
1A
100
AcDbPlotSettings
  1

  2
none_device
  4

  6

 40
0.0
 41
0.0
 42
0.0
 43
0.0
 44
0.0
 45
0.0
 46
0.0
 47
0.0
 48
0.0
 49
0.0
140
0.0
141
0.0
142
1.0
143
1.0
 70
   688
 72
     1
 73
     0
 74
     5
  7

 75
    16
147
1.0
148
0.0
149
0.0
100
AcDbLayout
  1
Layout2
 70
     1
 71
     2
 10
0.0
 20
0.0
 11
0.0
 21
0.0
 12
0.0
 22
0.0
 32
0.0
 14
0.0
 24
0.0
 34
0.0
 15
0.0
 25
0.0
 35
0.0
146
0.0
 13
0.0
 23
0.0
 33
0.0
 16
1.0
 26
0.0
 36
0.0
 17
0.0
 27
1.0
 37
0.0
 76
     0
330
23
  0
LAYOUT
  5
22
102
{ACAD_REACTORS
330
1A
102
}
330
1A
100
AcDbPlotSettings
  1

  2
none_device
  4
Letter_(8.50_x_11.00_Inches)
  6

 40
6.35
 41
6.35
 42
6.35000508
 43
6.35000508
 44
215.9
 45
279.4
 46
0.0
 47
0.0
 48
0.0
 49
0.0
140
0.0
141
0.0
142
1.0
143
1.0
 70
  1712
 72
     1
 73
     0
 74
     0
  7

 75
     0
147
1.0
148
0.0
149
0.0
100
AcDbLayout
  1
Model
 70
     1
 71
     0
 10
0.0
 20
0.0
 11
297.0
 21
210.0
 12
0.0
 22
0.0
 32
0.0
 14
0.0
 24
0.0
 34
0.0
 15
297.0
 25
210.0
 35
0.0
146
0.0
 13
0.0
 23
0.0
 33
0.0
 16
1.0
 26
0.0
 36
0.0
 17
0.0
 27
1.0
 37
0.0
 76
     0
330
1F
331
29
  0
MLINESTYLE
  5
18
102
{ACAD_REACTORS
330
17
102
}
330
17
100
AcDbMlineStyle
  2
Standard
 70
     0
  3

 62
   256
 51
90.0
 52
90.0
 71
     2
 49
0.5
 62
   256
  6
BYLAYER
 49
-0.5
 62
   256
  6
BYLAYER
  0
ACDBPLACEHOLDER
  5
F
102
{ACAD_REACTORS
330
E
102
}
330
E
  0
SCALE
  5
48
102
{ACAD_REACTORS
330
47
102
}
330
47
100
AcDbScale
 70
     0
300
1:1
140
1.0
141
1.0
290
     1
  0
SCALE
  5
49
102
{ACAD_REACTORS
330
47
102
}
330
47
100
AcDbScale
 70
     0
300
1:2
140
1.0
141
2.0
290
     0
  0
SCALE
  5
4A
102
{ACAD_REACTORS
330
47
102
}
330
47
100
AcDbScale
 70
     0
300
1:4
140
1.0
141
4.0
290
     0
  0
SCALE
  5
4B
102
{ACAD_REACTORS
330
47
102
}
330
47
100
AcDbScale
 70
     0
300
1:5
140
1.0
141
5.0
290
     0
  0
SCALE
  5
4C
102
{ACAD_REACTORS
330
47
102
}
330
47
100
AcDbScale
 70
     0
300
1:8
140
1.0
141
8.0
290
     0
  0
SCALE
  5
4D
102
{ACAD_REACTORS
330
47
102
}
330
47
100
AcDbScale
 70
     0
300
1:10
140
1.0
141
10.0
290
     0
  0
SCALE
  5
4E
102
{ACAD_REACTORS
330
47
102
}
330
47
100
AcDbScale
 70
     0
300
1:16
140
1.0
141
16.0
290
     0
  0
SCALE
  5
4F
102
{ACAD_REACTORS
330
47
102
}
330
47
100
AcDbScale
 70
     0
300
1:20
140
1.0
141
20.0
290
     0
  0
SCALE
  5
50
102
{ACAD_REACTORS
330
47
102
}
330
47
100
AcDbScale
 70
     0
300
1:30
140
1.0
141
30.0
290
     0
  0
SCALE
  5
51
102
{ACAD_REACTORS
330
47
102
}
330
47
100
AcDbScale
 70
     0
300
1:40
140
1.0
141
40.0
290
     0
  0
SCALE
  5
52
102
{ACAD_REACTORS
330
47
102
}
330
47
100
AcDbScale
 70
     0
300
1:50
140
1.0
141
50.0
290
     0
  0
SCALE
  5
53
102
{ACAD_REACTORS
330
47
102
}
330
47
100
AcDbScale
 70
     0
300
1:100
140
1.0
141
100.0
290
     0
  0
SCALE
  5
54
102
{ACAD_REACTORS
330
47
102
}
330
47
100
AcDbScale
 70
     0
300
2:1
140
2.0
141
1.0
290
     0
  0
SCALE
  5
55
102
{ACAD_REACTORS
330
47
102
}
330
47
100
AcDbScale
 70
     0
300
4:1
140
4.0
141
1.0
290
     0
  0
SCALE
  5
56
102
{ACAD_REACTORS
330
47
102
}
330
47
100
AcDbScale
 70
     0
300
8:1
140
8.0
141
1.0
290
     0
  0
SCALE
  5
57
102
{ACAD_REACTORS
330
47
102
}
330
47
100
AcDbScale
 70
     0
300
10:1
140
10.0
141
1.0
290
     0
  0
SCALE
  5
58
102
{ACAD_REACTORS
330
47
102
}
330
47
100
AcDbScale
 70
     0
300
100:1
140
100.0
141
1.0
290
     0
  0
SCALE
  5
59
102
{ACAD_REACTORS
330
47
102
}
330
47
100
AcDbScale
 70
     0
300
1/128" = 1'-0"
140
0.0078125
141
12.0
290
     0
  0
SCALE
  5
5A
102
{ACAD_REACTORS
330
47
102
}
330
47
100
AcDbScale
 70
     0
300
1/64" = 1'-0"
140
0.015625
141
12.0
290
     0
  0
SCALE
  5
5B
102
{ACAD_REACTORS
330
47
102
}
330
47
100
AcDbScale
 70
     0
300
1/32" = 1'-0"
140
0.03125
141
12.0
290
     0
  0
SCALE
  5
5C
102
{ACAD_REACTORS
330
47
102
}
330
47
100
AcDbScale
 70
     0
300
1/16" = 1'-0"
140
0.0625
141
12.0
290
     0
  0
SCALE
  5
5D
102
{ACAD_REACTORS
330
47
102
}
330
47
100
AcDbScale
 70
     0
300
3/32" = 1'-0"
140
0.09375
141
12.0
290
     0
  0
SCALE
  5
5E
102
{ACAD_REACTORS
330
47
102
}
330
47
100
AcDbScale
 70
     0
300
1/8" = 1'-0"
140
0.125
141
12.0
290
     0
  0
SCALE
  5
5F
102
{ACAD_REACTORS
330
47
102
}
330
47
100
AcDbScale
 70
     0
300
3/16" = 1'-0"
140
0.1875
141
12.0
290
     0
  0
SCALE
  5
60
102
{ACAD_REACTORS
330
47
102
}
330
47
100
AcDbScale
 70
     0
300
1/4" = 1'-0"
140
0.25
141
12.0
290
     0
  0
SCALE
  5
61
102
{ACAD_REACTORS
330
47
102
}
330
47
100
AcDbScale
 70
     0
300
3/8" = 1'-0"
140
0.375
141
12.0
290
     0
  0
SCALE
  5
62
102
{ACAD_REACTORS
330
47
102
}
330
47
100
AcDbScale
 70
     0
300
1/2" = 1'-0"
140
0.5
141
12.0
290
     0
  0
SCALE
  5
63
102
{ACAD_REACTORS
330
47
102
}
330
47
100
AcDbScale
 70
     0
300
3/4" = 1'-0"
140
0.75
141
12.0
290
     0
  0
SCALE
  5
64
102
{ACAD_REACTORS
330
47
102
}
330
47
100
AcDbScale
 70
     0
300
1" = 1'-0"
140
1.0
141
12.0
290
     0
  0
SCALE
  5
65
102
{ACAD_REACTORS
330
47
102
}
330
47
100
AcDbScale
 70
     0
300
1-1/2" = 1'-0"
140
1.5
141
12.0
290
     0
  0
SCALE
  5
66
102
{ACAD_REACTORS
330
47
102
}
330
47
100
AcDbScale
 70
     0
300
3" = 1'-0"
140
3.0
141
12.0
290
     0
  0
SCALE
  5
67
102
{ACAD_REACTORS
330
47
102
}
330
47
100
AcDbScale
 70
     0
300
6" = 1'-0"
140
6.0
141
12.0
290
     0
  0
SCALE
  5
68
102
{ACAD_REACTORS
330
47
102
}
330
47
100
AcDbScale
 70
     0
300
1'-0" = 1'-0"
140
12.0
141
12.0
290
     0
  0
ENDSEC
  0
EOF
