  0
SECTION
  2
HEADER
  9
$ACADVER
  1
AC1015
  9
$ACADMAINTVER
 70
     6
  9
$DWGCODEPAGE
  3
ANSI_1250
  9
$INSBASE
 10
0.0
 20
0.0
 30
0.0
  9
$EXTMIN
 10
0.0
 20
0.0
 30
0.0
  9
$EXTMAX
 10
297.0
 20
210.0
 30
0.0
  9
$LIMMIN
 10
0.0
 20
0.0
  9
$LIMMAX
 10
297.0
 20
210.0
  9
$ORTHOMODE
 70
     0
  9
$REGENMODE
 70
     1
  9
$FILLMODE
 70
     1
  9
$QTEXTMODE
 70
     0
  9
$MIRRTEXT
 70
     1
  9
$LTSCALE
 40
1.0
  9
$ATTMODE
 70
     1
  9
$TEXTSIZE
 40
3.5
  9
$TRACEWID
 40
1.0
  9
$TEXTSTYLE
  7
Standard
  9
$CLAYER
  8
0
  9
$CELTYPE
  6
ByLayer
  9
$CECOLOR
 62
   256
  9
$CELTSCALE
 40
1.0
  9
$DISPSILH
 70
     0
  9
$DIMSCALE
 40
1.0
  9
$DIMASZ
 40
3.302
  9
$DIMEXO
 40
1.0
  9
$DIMDLI
 40
3.75
  9
$DIMRND
 40
0.0
  9
$DIMDLE
 40
0.0
  9
$DIMEXE
 40
1.0
  9
$DIMTP
 40
0.0
  9
$DIMTM
 40
0.0
  9
$DIMTXT
 40
3.5
  9
$DIMCEN
 40
2.5
  9
$DIMTSZ
 40
0.0
  9
$DIMTOL
 70
     0
  9
$DIMLIM
 70
     0
  9
$DIMTIH
 70
     1
  9
$DIMTOH
 70
     1
  9
$DIMSE1
 70
     0
  9
$DIMSE2
 70
     0
  9
$DIMTAD
 70
     1
  9
$DIMZIN
 70
     0
  9
$DIMBLK
  1

  9
$DIMASO
 70
     1
  9
$DIMSHO
 70
     1
  9
$DIMPOST
  1

  9
$DIMAPOST
  1

  9
$DIMALT
 70
     0
  9
$DIMALTD
 70
     3
  9
$DIMALTF
 40
0.0393700787
  9
$DIMLFAC
 40
1.0
  9
$DIMTOFL
 70
     1
  9
$DIMTVP
 40
0.0
  9
$DIMTIX
 70
     0
  9
$DIMSOXD
 70
     0
  9
$DIMSAH
 70
     0
  9
$DIMBLK1
  1

  9
$DIMBLK2
  1

  9
$DIMSTYLE
  2
ISO-25
  9
$DIMCLRD
 70
     0
  9
$DIMCLRE
 70
     0
  9
$DIMCLRT
 70
     0
  9
$DIMTFAC
 40
1.0
  9
$DIMGAP
 40
1.524
  9
$DIMJUST
 70
     0
  9
$DIMSD1
 70
     0
  9
$DIMSD2
 70
     0
  9
$DIMTOLJ
 70
     0
  9
$DIMTZIN
 70
     0
  9
$DIMALTZ
 70
     0
  9
$DIMALTTZ
 70
     0
  9
$DIMUPT
 70
     0
  9
$DIMDEC
 70
     2
  9
$DIMTDEC
 70
     2
  9
$DIMALTU
 70
     2
  9
$DIMALTTD
 70
     3
  9
$DIMTXSTY
  7
Standard
  9
$DIMAUNIT
 70
     0
  9
$DIMADEC
 70
     2
  9
$DIMALTRND
 40
0.0
  9
$DIMAZIN
 70
     0
  9
$DIMDSEP
 70
    44
  9
$DIMATFIT
 70
     3
  9
$DIMFRAC
 70
     0
  9
$DIMLDRBLK
  1

  9
$DIMLUNIT
 70
     2
  9
$DIMLWD
 70
    -2
  9
$DIMLWE
 70
    -2
  9
$DIMTMOVE
 70
     0
  9
$LUNITS
 70
     2
  9
$LUPREC
 70
     2
  9
$SKETCHINC
 40
1.0
  9
$FILLETRAD
 40
10.0
  9
$AUNITS
 70
     0
  9
$AUPREC
 70
     2
  9
$MENU
  1
.
  9
$ELEVATION
 40
0.0
  9
$PELEVATION
 40
0.0
  9
$THICKNESS
 40
0.0
  9
$LIMCHECK
 70
     0
  9
$CHAMFERA
 40
0.0
  9
$CHAMFERB
 40
0.0
  9
$CHAMFERC
 40
0.0
  9
$CHAMFERD
 40
0.0
  9
$SKPOLY
 70
     0
  9
$TDCREATE
 40
2459290.481897812
  9
$TDUCREATE
 40
2459290.440231146
  9
$TDUPDATE
 40
2459290.481898866
  9
$TDUUPDATE
 40
2459290.440232199
  9
$TDINDWG
 40
0.0000000116
  9
$TDUSRTIMER
 40
0.0000000116
  9
$USRTIMER
 70
     1
  9
$ANGBASE
 50
0.0
  9
$ANGDIR
 70
     0
  9
$PDMODE
 70
     0
  9
$PDSIZE
 40
-1.0
  9
$PLINEWID
 40
0.0
  9
$SPLFRAME
 70
     0
  9
$SPLINETYPE
 70
     6
  9
$SPLINESEGS
 70
     8
  9
$HANDSEED
  5
339
  9
$SURFTAB1
 70
     6
  9
$SURFTAB2
 70
     6
  9
$SURFTYPE
 70
     6
  9
$SURFU
 70
     6
  9
$SURFV
 70
     6
  9
$UCSBASE
  2

  9
$UCSNAME
  2

  9
$UCSORG
 10
0.0
 20
0.0
 30
0.0
  9
$UCSXDIR
 10
1.0
 20
0.0
 30
0.0
  9
$UCSYDIR
 10
0.0
 20
1.0
 30
0.0
  9
$UCSORTHOREF
  2

  9
$UCSORTHOVIEW
 70
     0
  9
$UCSORGTOP
 10
0.0
 20
0.0
 30
0.0
  9
$UCSORGBOTTOM
 10
0.0
 20
0.0
 30
0.0
  9
$UCSORGLEFT
 10
0.0
 20
0.0
 30
0.0
  9
$UCSORGRIGHT
 10
0.0
 20
0.0
 30
0.0
  9
$UCSORGFRONT
 10
0.0
 20
0.0
 30
0.0
  9
$UCSORGBACK
 10
0.0
 20
0.0
 30
0.0
  9
$PUCSBASE
  2

  9
$PUCSNAME
  2

  9
$PUCSORG
 10
0.0
 20
0.0
 30
0.0
  9
$PUCSXDIR
 10
1.0
 20
0.0
 30
0.0
  9
$PUCSYDIR
 10
0.0
 20
1.0
 30
0.0
  9
$PUCSORTHOREF
  2

  9
$PUCSORTHOVIEW
 70
     0
  9
$PUCSORGTOP
 10
0.0
 20
0.0
 30
0.0
  9
$PUCSORGBOTTOM
 10
0.0
 20
0.0
 30
0.0
  9
$PUCSORGLEFT
 10
0.0
 20
0.0
 30
0.0
  9
$PUCSORGRIGHT
 10
0.0
 20
0.0
 30
0.0
  9
$PUCSORGFRONT
 10
0.0
 20
0.0
 30
0.0
  9
$PUCSORGBACK
 10
0.0
 20
0.0
 30
0.0
  9
$USERI1
 70
     0
  9
$USERI2
 70
     0
  9
$USERI3
 70
     0
  9
$USERI4
 70
     0
  9
$USERI5
 70
     0
  9
$USERR1
 40
0.0
  9
$USERR2
 40
0.0
  9
$USERR3
 40
0.0
  9
$USERR4
 40
0.0
  9
$USERR5
 40
0.0
  9
$WORLDVIEW
 70
     1
  9
$SHADEDGE
 70
     3
  9
$SHADEDIF
 70
    70
  9
$TILEMODE
 70
     1
  9
$MAXACTVP
 70
    64
  9
$PINSBASE
 10
0.0
 20
0.0
 30
0.0
  9
$PLIMCHECK
 70
     0
  9
$PEXTMIN
 10
1.0000000000E+20
 20
1.0000000000E+20
 30
1.0000000000E+20
  9
$PEXTMAX
 10
-1.0000000000E+20
 20
-1.0000000000E+20
 30
-1.0000000000E+20
  9
$PLIMMIN
 10
0.0
 20
0.0
  9
$PLIMMAX
 10
420.0
 20
297.0
  9
$UNITMODE
 70
     0
  9
$VISRETAIN
 70
     1
  9
$PLINEGEN
 70
     0
  9
$PSLTSCALE
 70
     1
  9
$TREEDEPTH
 70
  3020
  9
$CMLSTYLE
  2
Standard
  9
$CMLJUST
 70
     0
  9
$CMLSCALE
 40
20.0
  9
$PROXYGRAPHICS
 70
     1
  9
$MEASUREMENT
 70
     1
  9
$CELWEIGHT
370
    -1
  9
$ENDCAPS
280
     0
  9
$JOINSTYLE
280
     0
  9
$LWDISPLAY
290
     1
  9
$INSUNITS
 70
     4
  9
$HYPERLINKBASE
  1

  9
$STYLESHEET
  1

  9
$XEDIT
290
     1
  9
$CEPSNTYPE
380
     0
  9
$PSTYLEMODE
290
     1
  9
$FINGERPRINTGUID
  2
{66C7E453-286F-4B79-87CF-05B6E3A27388}
  9
$VERSIONGUID
  2
{FAEB1C32-E019-11D5-929B-00C0DF256EC4}
  9
$EXTNAMES
290
     1
  9
$PSVPSCALE
 40
0.0
  9
$OLESTARTUP
290
     0
  0
ENDSEC
  0
SECTION
  2
CLASSES
  0
CLASS
  1
ACDBDICTIONARYWDFLT
  2
AcDbDictionaryWithDefault
  3
ObjectDBX Classes
 90
        0
280
     0
281
     0
  0
CLASS
  1
VISUALSTYLE
  2
AcDbVisualStyle
  3
ObjectDBX Classes
 90
     4095
280
     0
281
     0
  0
CLASS
  1
MATERIAL
  2
AcDbMaterial
  3
ObjectDBX Classes
 90
     1153
280
     0
281
     0
  0
CLASS
  1
SCALE
  2
AcDbScale
  3
ObjectDBX Classes
 90
     1153
280
     0
281
     0
  0
CLASS
  1
TABLESTYLE
  2
AcDbTableStyle
  3
ObjectDBX Classes
 90
     4095
280
     0
281
     0
  0
CLASS
  1
MLEADERSTYLE
  2
AcDbMLeaderStyle
  3
ACDB_MLEADERSTYLE_CLASS
 90
     4095
280
     0
281
     0
  0
CLASS
  1
SUN
  2
AcDbSun
  3
SCENEOE
 90
     1153
280
     0
281
     0
  0
CLASS
  1
ACDBPLACEHOLDER
  2
AcDbPlaceHolder
  3
ObjectDBX Classes
 90
        0
280
     0
281
     0
  0
CLASS
  1
LAYOUT
  2
AcDbLayout
  3
ObjectDBX Classes
 90
        0
280
     0
281
     0
  0
ENDSEC
  0
SECTION
  2
TABLES
  0
TABLE
  2
VPORT
  5
8
330
0
100
AcDbSymbolTable
 70
     1
  0
VPORT
  5
29
330
8
100
AcDbSymbolTableRecord
100
AcDbViewportTableRecord
  2
*Active
 70
     0
 10
0.0
 20
0.0
 11
1.0
 21
1.0
 12
148.5
 22
105.0
 13
0.0
 23
0.0
 14
10.0
 24
10.0
 15
10.0
 25
10.0
 16
0.0
 26
0.0
 36
1.0
 17
0.0
 27
0.0
 37
0.0
 40
210.0
 41
1.4142857143
 42
50.0
 43
0.0
 44
0.0
 50
0.0
 51
0.0
 71
     0
 72
  2000
 73
     1
 74
     3
 75
     0
 76
     0
 77
     0
 78
     0
281
     0
 65
     1
110
0.0
120
0.0
130
0.0
111
1.0
121
0.0
131
0.0
112
0.0
122
1.0
132
0.0
 79
     0
146
0.0
  0
ENDTAB
  0
TABLE
  2
LTYPE
  5
5
330
0
100
AcDbSymbolTable
 70
     8
  0
LTYPE
  5
14
330
5
100
AcDbSymbolTableRecord
100
AcDbLinetypeTableRecord
  2
ByBlock
 70
     0
  3

 72
    65
 73
     0
 40
0.0
  0
LTYPE
  5
15
330
5
100
AcDbSymbolTableRecord
100
AcDbLinetypeTableRecord
  2
ByLayer
 70
     0
  3

 72
    65
 73
     0
 40
0.0
  0
LTYPE
  5
16
330
5
100
AcDbSymbolTableRecord
100
AcDbLinetypeTableRecord
  2
Continuous
 70
     0
  3
Solid line
 72
    65
 73
     0
 40
0.0
  0
LTYPE
  5
6E
330
5
100
AcDbSymbolTableRecord
100
AcDbLinetypeTableRecord
  2
SLD-Solid
 70
     0
  3
SolidWorks Line Style
 72
    65
 73
     0
 40
0.0
  0
LTYPE
  5
6F
330
5
100
AcDbSymbolTableRecord
100
AcDbLinetypeTableRecord
  2
SLD-Dashed
 70
     0
  3
SolidWorks Line Style
 72
    65
 73
     2
 40
1.905
 49
1.27
 74
     0
 49
-0.635
 74
     0
  0
LTYPE
  5
70
330
5
100
AcDbSymbolTableRecord
100
AcDbLinetypeTableRecord
  2
SLD-Phantom
 70
     0
  3
SolidWorks Line Style
 72
    65
 73
     6
 40
12.7
 49
6.35
 74
     0
 49
-1.27
 74
     0
 49
1.27
 74
     0
 49
-1.27
 74
     0
 49
1.27
 74
     0
 49
-1.27
 74
     0
  0
LTYPE
  5
71
330
5
100
AcDbSymbolTableRecord
100
AcDbLinetypeTableRecord
  2
SLD-Chain
 70
     0
  3
SolidWorks Line Style
 72
    65
 73
     4
 40
10.16
 49
6.35
 74
     0
 49
-1.27
 74
     0
 49
1.27
 74
     0
 49
-1.27
 74
     0
  0
LTYPE
  5
72
330
5
100
AcDbSymbolTableRecord
100
AcDbLinetypeTableRecord
  2
SLD-Center
 70
     0
  3
SolidWorks Line Style
 72
    65
 73
     4
 40
19.05
 49
15.24
 74
     0
 49
-1.27
 74
     0
 49
1.27
 74
     0
 49
-1.27
 74
     0
  0
LTYPE
  5
73
330
5
100
AcDbSymbolTableRecord
100
AcDbLinetypeTableRecord
  2
SLD-Stitch
 70
     0
  3
SolidWorks Line Style
 72
    65
 73
     2
 40
0.635
 49
0.0
 74
     0
 49
-0.635
 74
     0
  0
LTYPE
  5
74
330
5
100
AcDbSymbolTableRecord
100
AcDbLinetypeTableRecord
  2
SLD-Thin-Thick-Chain
 70
     0
  3
SolidWorks Line Style
 72
    65
 73
     4
 40
10.16
 49
6.35
 74
     0
 49
-1.27
 74
     0
 49
1.27
 74
     0
 49
-1.27
 74
     0
  0
ENDTAB
  0
TABLE
  2
LAYER
  5
2
330
0
100
AcDbSymbolTable
 70
    12
  0
LAYER
  5
10
330
2
100
AcDbSymbolTableRecord
100
AcDbLayerTableRecord
  2
0
 70
     0
 62
     7
  6
Continuous
370
    -3
390
F
  0
LAYER
  5
75
330
2
100
AcDbSymbolTableRecord
100
AcDbLayerTableRecord
  2
SLD-0
 70
     0
 62
   179
  6
SLD-Solid
370
    -3
390
F
  0
LAYER
  5
76
330
2
100
AcDbSymbolTableRecord
100
AcDbLayerTableRecord
  2
80
 70
     0
 62
    -6
  6
SLD-Solid
290
     0
370
    -3
390
F
  0
LAYER
  5
77
330
2
100
AcDbSymbolTableRecord
100
AcDbLayerTableRecord
  2
81
 70
     0
 62
    -3
  6
SLD-Solid
290
     0
370
    -3
390
F
  0
LAYER
  5
78
330
2
100
AcDbSymbolTableRecord
100
AcDbLayerTableRecord
  2
1
 70
     0
 62
     4
  6
SLD-Solid
290
     0
370
    -3
390
F
  0
LAYER
  5
79
330
2
100
AcDbSymbolTableRecord
100
AcDbLayerTableRecord
  2
4
 70
     0
 62
    -2
  6
SLD-Chain
290
     0
370
    -3
390
F
  0
LAYER
  5
7A
330
2
100
AcDbSymbolTableRecord
100
AcDbLayerTableRecord
  2
2
 70
     0
 62
     7
  6
SLD-Solid
290
     0
370
    -3
390
F
  0
LAYER
  5
7B
330
2
100
AcDbSymbolTableRecord
100
AcDbLayerTableRecord
  2
SK3
 70
     0
 62
     1
  6
SLD-Dashed
290
     0
370
    -3
390
F
  0
LAYER
  5
7C
330
2
100
AcDbSymbolTableRecord
100
AcDbLayerTableRecord
  2
SK4
 70
     0
 62
     2
  6
SLD-Chain
290
     0
370
    -3
390
F
  0
LAYER
  5
7D
330
2
100
AcDbSymbolTableRecord
100
AcDbLayerTableRecord
  2
SK2
 70
     0
 62
     7
  6
SLD-Solid
290
     0
370
    -3
390
F
  0
LAYER
  5
7E
330
2
100
AcDbSymbolTableRecord
100
AcDbLayerTableRecord
  2
SK6
 70
     0
 62
     5
  6
SLD-Solid
290
     0
370
    -3
390
F
  0
LAYER
  5
7F
330
2
100
AcDbSymbolTableRecord
100
AcDbLayerTableRecord
  2
SK1
 70
     0
 62
     4
  6
SLD-Solid
370
    -3
390
F
  0
ENDTAB
  0
TABLE
  2
STYLE
  5
3
330
0
100
AcDbSymbolTable
 70
     2
  0
STYLE
  5
11
330
3
100
AcDbSymbolTableRecord
100
AcDbTextStyleTableRecord
  2
Standard
 70
     0
 40
0.0
 41
1.0
 50
0.0
 71
     0
 42
3.5
  3
txt
  4

  0
STYLE
  5
2CA
330
3
100
AcDbSymbolTableRecord
100
AcDbTextStyleTableRecord
  2
SLDTEXTSTYLE0
 70
     0
 40
0.0
 41
0.75
 50
0.0
 71
     0
 42
3.5
  3
TXT
  4

  0
ENDTAB
  0
TABLE
  2
VIEW
  5
6
330
0
100
AcDbSymbolTable
 70
     0
  0
ENDTAB
  0
TABLE
  2
UCS
  5
7
330
0
100
AcDbSymbolTable
 70
     0
  0
ENDTAB
  0
TABLE
  2
APPID
  5
9
330
0
100
AcDbSymbolTable
 70
     1
  0
APPID
  5
12
330
9
100
AcDbSymbolTableRecord
100
AcDbRegAppTableRecord
  2
ACAD
 70
     0
  0
ENDTAB
  0
TABLE
  2
DIMSTYLE
  5
A
330
0
100
AcDbSymbolTable
 70
     3
100
AcDbDimStyleTable
  0
DIMSTYLE
105
27
330
A
100
AcDbSymbolTableRecord
100
AcDbDimStyleTableRecord
  2
ISO-25
 70
     0
 41
2.5
 42
0.625
 43
3.75
 44
1.25
 73
     0
 74
     0
 77
     1
 78
     8
140
2.5
141
2.5
143
0.0393700787
147
0.625
171
     3
172
     1
178
     0
271
     2
272
     2
274
     3
278
    44
283
     0
284
     8
340
11
  0
DIMSTYLE
105
2CB
102
{ACAD_REACTORS
330
2C9
330
2D5
330
2DF
330
2E9
330
2F4
330
30D
330
317
330
322
330
32D
102
}
330
A
100
AcDbSymbolTableRecord
100
AcDbDimStyleTableRecord
  2
SLDDIMSTYLE0
 70
     0
 41
3.302
 44
0.0
 45
0.000000001
 73
     0
 74
     0
 77
     1
 78
    12
 79
     3
140
3.5
147
0.875
173
     1
178
     0
271
     2
272
     2
276
     2
284
    12
340
2CA
  0
DIMSTYLE
105
300
102
{ACAD_REACTORS
330
2FF
102
}
330
A
100
AcDbSymbolTableRecord
100
AcDbDimStyleTableRecord
  2
SLDDIMSTYLE1
 70
     0
 41
3.302
 44
0.0
 45
0.000000001
 73
     0
 74
     0
 77
     1
 78
    12
 79
     3
140
3.5
147
0.875
172
     1
173
     1
178
     0
271
     2
272
     2
276
     2
284
    12
289
     0
340
2CA
  0
ENDTAB
  0
TABLE
  2
BLOCK_RECORD
  5
1
330
0
100
AcDbSymbolTable
 70
    13
  0
BLOCK_RECORD
  5
1F
330
1
100
AcDbSymbolTableRecord
100
AcDbBlockTableRecord
  2
*Model_Space
340
22
  0
BLOCK_RECORD
  5
1B
330
1
100
AcDbSymbolTableRecord
100
AcDbBlockTableRecord
  2
*Paper_Space
340
1E
  0
BLOCK_RECORD
  5
23
330
1
100
AcDbSymbolTableRecord
100
AcDbBlockTableRecord
  2
*Paper_Space0
340
26
  0
BLOCK_RECORD
  5
80
330
1
100
AcDbSymbolTableRecord
100
AcDbBlockTableRecord
  2
Block11
340
0
102
{BLKREFS
331
2C7
102
}
  0
BLOCK_RECORD
  5
89
330
1
100
AcDbSymbolTableRecord
100
AcDbBlockTableRecord
  2
Block12
340
0
102
{BLKREFS
331
2C8
102
}
  0
BLOCK_RECORD
  5
2CC
330
1
100
AcDbSymbolTableRecord
100
AcDbBlockTableRecord
  2
_D
340
0
  0
BLOCK_RECORD
  5
2D6
330
1
100
AcDbSymbolTableRecord
100
AcDbBlockTableRecord
  2
_D_1
340
0
  0
BLOCK_RECORD
  5
2E0
330
1
100
AcDbSymbolTableRecord
100
AcDbBlockTableRecord
  2
_D_2
340
0
  0
BLOCK_RECORD
  5
2EA
330
1
100
AcDbSymbolTableRecord
100
AcDbBlockTableRecord
  2
_D_3
340
0
  0
BLOCK_RECORD
  5
2F5
330
1
100
AcDbSymbolTableRecord
100
AcDbBlockTableRecord
  2
_D_4
340
0
  0
BLOCK_RECORD
  5
301
330
1
100
AcDbSymbolTableRecord
100
AcDbBlockTableRecord
  2
_D_5
340
0
  0
BLOCK_RECORD
  5
30E
330
1
100
AcDbSymbolTableRecord
100
AcDbBlockTableRecord
  2
_D_6
340
0
  0
BLOCK_RECORD
  5
318
330
1
100
AcDbSymbolTableRecord
100
AcDbBlockTableRecord
  2
_D_7
340
0
  0
BLOCK_RECORD
  5
323
330
1
100
AcDbSymbolTableRecord
100
AcDbBlockTableRecord
  2
_D_8
340
0
  0
BLOCK_RECORD
  5
32E
330
1
100
AcDbSymbolTableRecord
100
AcDbBlockTableRecord
  2
_D_9
340
0
  0
ENDTAB
  0
ENDSEC
  0
SECTION
  2
BLOCKS
  0
BLOCK
  5
20
330
1F
100
AcDbEntity
  8
0
100
AcDbBlockBegin
  2
*Model_Space
 70
     0
 10
0.0
 20
0.0
 30
0.0
  3
*Model_Space
  1

  0
ENDBLK
  5
21
330
1F
100
AcDbEntity
  8
0
100
AcDbBlockEnd
  0
BLOCK
  5
1C
330
1B
100
AcDbEntity
 67
     1
  8
0
100
AcDbBlockBegin
  2
*Paper_Space
 70
     0
 10
0.0
 20
0.0
 30
0.0
  3
*Paper_Space
  1

  0
ENDBLK
  5
1D
330
1B
100
AcDbEntity
 67
     1
  8
0
100
AcDbBlockEnd
  0
BLOCK
  5
24
330
23
100
AcDbEntity
  8
0
100
AcDbBlockBegin
  2
*Paper_Space0
 70
     0
 10
0.0
 20
0.0
 30
0.0
  3
*Paper_Space0
  1

  0
ENDBLK
  5
25
330
23
100
AcDbEntity
  8
0
100
AcDbBlockEnd
  0
BLOCK
  5
81
330
80
100
AcDbEntity
  8
0
100
AcDbBlockBegin
  2
Block11
 70
     0
 10
0.0
 20
0.0
 30
0.0
  3
Block11
  1

  0
CIRCLE
  5
83
330
80
100
AcDbEntity
  8
81
370
    18
100
AcDbCircle
 10
91.6264826505
 20
130.2676275275
 30
0.0
 40
2.499999999999981
  0
LINE
  5
84
330
80
100
AcDbEntity
  8
81
370
    18
100
AcDbLine
 10
91.6264826505
 20
130.2676275275
 30
0.0
 11
95.1620165565
 21
133.8031614334
 31
0.0
  0
LINE
  5
85
330
80
100
AcDbEntity
  8
81
370
    18
100
AcDbLine
 10
91.6264826505
 20
130.2676275275
 30
0.0
 11
88.0909487446
 21
126.7320936216
 31
0.0
  0
LINE
  5
86
330
80
100
AcDbEntity
  8
81
370
    18
100
AcDbLine
 10
91.6264826505
 20
130.2676275275
 30
0.0
 11
88.0909487446
 21
133.8031614334
 31
0.0
  0
LINE
  5
87
330
80
100
AcDbEntity
  8
81
100
AcDbLine
 10
91.6264826505
 20
130.2676275275
 30
0.0
 11
101.6264826505
 21
130.2676275275
 31
0.0
  0
LINE
  5
88
330
80
100
AcDbEntity
  8
81
370
    18
100
AcDbLine
 10
91.6264826505
 20
130.2676275275
 30
0.0
 11
95.1620165565
 21
126.7320936216
 31
0.0
  0
ENDBLK
  5
82
330
80
100
AcDbEntity
  8
0
100
AcDbBlockEnd
  0
BLOCK
  5
8A
330
89
100
AcDbEntity
  8
0
100
AcDbBlockBegin
  2
Block12
 70
     0
 10
0.0
 20
0.0
 30
0.0
  3
Block12
  1

  0
CIRCLE
  5
8C
330
89
100
AcDbEntity
  8
80
370
    18
100
AcDbCircle
 10
61.7273641656
 20
130.3356800267
 30
0.0
 40
2.500000000000004
  0
LINE
  5
8D
330
89
100
AcDbEntity
  8
80
370
    18
100
AcDbLine
 10
61.7273641656
 20
130.3356800267
 30
0.0
 11
65.2628980715
 21
133.8712139326
 31
0.0
  0
LINE
  5
8E
330
89
100
AcDbEntity
  8
80
370
    18
100
AcDbLine
 10
61.7273641656
 20
130.3356800267
 30
0.0
 11
58.1918302597
 21
126.8001461208
 31
0.0
  0
LINE
  5
8F
330
89
100
AcDbEntity
  8
80
370
    18
100
AcDbLine
 10
61.7273641656
 20
130.3356800267
 30
0.0
 11
58.1918302597
 21
133.8712139326
 31
0.0
  0
LINE
  5
90
330
89
100
AcDbEntity
  8
80
370
    18
100
AcDbLine
 10
61.7273641656
 20
130.3356800267
 30
0.0
 11
51.7273641656
 21
130.3356800267
 31
0.0
  0
LINE
  5
91
330
89
100
AcDbEntity
  8
80
370
    18
100
AcDbLine
 10
61.7273641656
 20
130.3356800267
 30
0.0
 11
65.2628980715
 21
126.8001461208
 31
0.0
  0
ENDBLK
  5
8B
330
89
100
AcDbEntity
  8
0
100
AcDbBlockEnd
  0
BLOCK
  5
2CD
330
2CC
100
AcDbEntity
  8
0
100
AcDbBlockBegin
  2
_D
 70
     0
 10
0.0
 20
0.0
 30
0.0
  3
_D
  1

  0
SOLID
  5
2CF
330
2CC
100
AcDbEntity
  8
SK2
100
AcDbTrace
 10
0.0
 20
40.0126130521
 30
0.0
 11
3.302
 21
39.5046130521
 31
0.0
 12
3.302
 22
40.5206130521
 32
0.0
 13
3.302
 23
40.5206130521
 33
0.0
  0
SOLID
  5
2D0
330
2CC
100
AcDbEntity
  8
SK2
100
AcDbTrace
 10
27.0
 20
40.0126130521
 30
0.0
 11
23.698
 21
40.5206130521
 31
0.0
 12
23.698
 22
39.5046130521
 32
0.0
 13
23.698
 23
39.5046130521
 33
0.0
  0
LINE
  5
2D1
330
2CC
100
AcDbEntity
  8
SK2
100
AcDbLine
 10
0.0
 20
23.225
 30
0.0
 11
0.0
 21
41.0126130521
 31
0.0
  0
LINE
  5
2D2
330
2CC
100
AcDbEntity
  8
SK2
100
AcDbLine
 10
27.0
 20
31.724895054
 30
0.0
 11
27.0
 21
41.0126130521
 31
0.0
  0
LINE
  5
2D3
330
2CC
100
AcDbEntity
  8
SK2
100
AcDbLine
 10
0.0
 20
40.0126130521
 30
0.0
 11
27.0
 21
40.0126130521
 31
0.0
  0
MTEXT
  5
2D4
330
2CC
100
AcDbEntity
  8
SK2
100
AcDbMText
 10
11.4723189755
 20
44.5243499667
 30
0.0
 40
3.5
 41
0.0
 71
     1
 72
     1
  1
27
  7
SLDTEXTSTYLE0
 73
     1
 44
1.0
  0
ENDBLK
  5
2CE
330
2CC
100
AcDbEntity
  8
0
100
AcDbBlockEnd
  0
BLOCK
  5
2D7
330
2D6
100
AcDbEntity
  8
0
100
AcDbBlockBegin
  2
_D_1
 70
     0
 10
0.0
 20
0.0
 30
0.0
  3
_D_1
  1

  0
SOLID
  5
2D9
330
2D6
100
AcDbEntity
  8
SK2
100
AcDbTrace
 10
27.0
 20
40.0126130521
 30
0.0
 11
30.302
 21
39.5046130521
 31
0.0
 12
30.302
 22
40.5206130521
 32
0.0
 13
30.302
 23
40.5206130521
 33
0.0
  0
SOLID
  5
2DA
330
2D6
100
AcDbEntity
  8
SK2
100
AcDbTrace
 10
70.0
 20
40.0126130521
 30
0.0
 11
66.698
 21
40.5206130521
 31
0.0
 12
66.698
 22
39.5046130521
 32
0.0
 13
66.698
 23
39.5046130521
 33
0.0
  0
LINE
  5
2DB
330
2D6
100
AcDbEntity
  8
SK2
100
AcDbLine
 10
27.0
 20
31.724895054
 30
0.0
 11
27.0
 21
41.0126130521
 31
0.0
  0
LINE
  5
2DC
330
2D6
100
AcDbEntity
  8
SK2
100
AcDbLine
 10
70.0
 20
14.8564064606
 30
0.0
 11
70.0
 21
41.0126130521
 31
0.0
  0
LINE
  5
2DD
330
2D6
100
AcDbEntity
  8
SK2
100
AcDbLine
 10
27.0
 20
40.0126130521
 30
0.0
 11
70.0
 21
40.0126130521
 31
0.0
  0
MTEXT
  5
2DE
330
2D6
100
AcDbEntity
  8
SK2
100
AcDbMText
 10
45.8031185251
 20
44.5243499667
 30
0.0
 40
3.5
 41
0.0
 71
     1
 72
     1
  1
43
  7
SLDTEXTSTYLE0
 73
     1
 44
1.0
  0
ENDBLK
  5
2D8
330
2D6
100
AcDbEntity
  8
0
100
AcDbBlockEnd
  0
BLOCK
  5
2E1
330
2E0
100
AcDbEntity
  8
0
100
AcDbBlockBegin
  2
_D_2
 70
     0
 10
0.0
 20
0.0
 30
0.0
  3
_D_2
  1

  0
SOLID
  5
2E3
330
2E0
100
AcDbEntity
  8
2
100
AcDbTrace
 10
0.0
 20
48.8186545722
 30
0.0
 11
3.302
 21
48.3106545722
 31
0.0
 12
3.302
 22
49.3266545722
 32
0.0
 13
3.302
 23
49.3266545722
 33
0.0
  0
SOLID
  5
2E4
330
2E0
100
AcDbEntity
  8
2
100
AcDbTrace
 10
70.0
 20
48.8186545722
 30
0.0
 11
66.698
 21
49.3266545722
 31
0.0
 12
66.698
 22
48.3106545722
 32
0.0
 13
66.698
 23
48.3106545722
 33
0.0
  0
LINE
  5
2E5
330
2E0
100
AcDbEntity
  8
2
100
AcDbLine
 10
0.0
 20
23.225
 30
0.0
 11
0.0
 21
49.8186545722
 31
0.0
  0
LINE
  5
2E6
330
2E0
100
AcDbEntity
  8
2
100
AcDbLine
 10
70.0
 20
14.8564064606
 30
0.0
 11
70.0
 21
49.8186545722
 31
0.0
  0
LINE
  5
2E7
330
2E0
100
AcDbEntity
  8
2
100
AcDbLine
 10
0.0
 20
48.8186545722
 30
0.0
 11
70.0
 21
48.8186545722
 31
0.0
  0
MTEXT
  5
2E8
330
2E0
100
AcDbEntity
  8
2
100
AcDbMText
 10
33.0407395104
 20
53.3303914868
 30
0.0
 40
3.5
 41
0.0
 71
     1
 72
     1
  1
70
  7
SLDTEXTSTYLE0
 73
     1
 44
1.0
  0
ENDBLK
  5
2E2
330
2E0
100
AcDbEntity
  8
0
100
AcDbBlockEnd
  0
BLOCK
  5
2EB
330
2EA
100
AcDbEntity
  8
0
100
AcDbBlockBegin
  2
_D_3
 70
     0
 10
0.0
 20
0.0
 30
0.0
  3
_D_3
  1

  0
SOLID
  5
2ED
330
2EA
100
AcDbEntity
  8
SK2
100
AcDbTrace
 10
-92.9651069745
 20
31.474895054
 30
0.0
 11
-93.4731069745
 21
28.172895054
 31
0.0
 12
-92.4571069745
 22
28.172895054
 32
0.0
 13
-92.4571069745
 23
28.172895054
 33
0.0
  0
SOLID
  5
2EE
330
2EA
100
AcDbEntity
  8
SK2
100
AcDbTrace
 10
-92.9651069745
 20
-31.474895054
 30
0.0
 11
-92.4571069745
 21
-28.172895054
 31
0.0
 12
-93.4731069745
 22
-28.172895054
 32
0.0
 13
-93.4731069745
 23
-28.172895054
 33
0.0
  0
LINE
  5
2EF
330
2EA
100
AcDbEntity
  8
SK2
100
AcDbLine
 10
1.75
 20
31.474895054
 30
0.0
 11
-93.9651069745
 21
31.474895054
 31
0.0
  0
LINE
  5
2F0
330
2EA
100
AcDbEntity
  8
SK2
100
AcDbLine
 10
1.75
 20
-31.474895054
 30
0.0
 11
-93.9651069745
 21
-31.474895054
 31
0.0
  0
LINE
  5
2F1
330
2EA
100
AcDbEntity
  8
SK2
100
AcDbLine
 10
-92.9651069745
 20
31.474895054
 30
0.0
 11
-92.9651069745
 21
-31.474895054
 31
0.0
  0
MTEXT
  5
2F2
330
2EA
100
AcDbEntity
  8
SK2
100
AcDbMText
 10
-97.4768440637
 20
-5.0382615234
 30
0.0
 40
3.5
 41
0.0
 71
     1
 72
     1
  1
%%c
  7
SLDTEXTSTYLE0
 11
-7.044195017643634E-15
 21
1.0
 31
0.0
 73
     1
 44
1.0
  0
MTEXT
  5
2F3
330
2EA
100
AcDbEntity
  8
SK2
100
AcDbMText
 10
-97.5303162404
 20
0.240175875
 30
0.0
 40
3.5
 41
0.0
 71
     1
 72
     1
  1
63
  7
SLDTEXTSTYLE0
 11
-7.044195017643634E-15
 21
1.0
 31
0.0
 73
     1
 44
1.0
  0
ENDBLK
  5
2EC
330
2EA
100
AcDbEntity
  8
0
100
AcDbBlockEnd
  0
BLOCK
  5
2F6
330
2F5
100
AcDbEntity
  8
0
100
AcDbBlockBegin
  2
_D_4
 70
     0
 10
0.0
 20
0.0
 30
0.0
  3
_D_4
  1

  0
SOLID
  5
2F8
330
2F5
100
AcDbEntity
  8
SK2
100
AcDbTrace
 10
-82.2972737264
 20
22.225
 30
0.0
 11
-82.8052737264
 21
18.923
 31
0.0
 12
-81.7892737264
 22
18.923
 32
0.0
 13
-81.7892737264
 23
18.923
 33
0.0
  0
SOLID
  5
2F9
330
2F5
100
AcDbEntity
  8
SK2
100
AcDbTrace
 10
-82.2972737264
 20
-22.225
 30
0.0
 11
-81.7892737264
 21
-18.923
 31
0.0
 12
-82.8052737264
 22
-18.923
 32
0.0
 13
-82.8052737264
 23
-18.923
 33
0.0
  0
LINE
  5
2FA
330
2F5
100
AcDbEntity
  8
SK2
100
AcDbLine
 10
-1.0
 20
22.225
 30
0.0
 11
-83.2972737264
 21
22.225
 31
0.0
  0
LINE
  5
2FB
330
2F5
100
AcDbEntity
  8
SK2
100
AcDbLine
 10
-1.0
 20
-22.225
 30
0.0
 11
-83.2972737264
 21
-22.225
 31
0.0
  0
LINE
  5
2FC
330
2F5
100
AcDbEntity
  8
SK2
100
AcDbLine
 10
-82.2972737264
 20
22.225
 30
0.0
 11
-82.2972737264
 21
-22.225
 31
0.0
  0
MTEXT
  5
2FD
330
2F5
100
AcDbEntity
  8
SK2
100
AcDbMText
 10
-86.8090108156
 20
-8.2709003407
 30
0.0
 40
3.5
 41
0.0
 71
     1
 72
     1
  1
%%c
  7
SLDTEXTSTYLE0
 11
-7.044195017643634E-15
 21
1.0
 31
0.0
 73
     1
 44
1.0
  0
MTEXT
  5
2FE
330
2F5
100
AcDbEntity
  8
SK2
100
AcDbMText
 10
-86.8624829922
 20
-2.9924629423
 30
0.0
 40
3.5
 41
0.0
 71
     1
 72
     1
  1
44,45
  7
SLDTEXTSTYLE0
 11
-7.044195017643634E-15
 21
1.0
 31
0.0
 73
     1
 44
1.0
  0
ENDBLK
  5
2F7
330
2F5
100
AcDbEntity
  8
0
100
AcDbBlockEnd
  0
BLOCK
  5
302
330
301
100
AcDbEntity
  8
0
100
AcDbBlockBegin
  2
_D_5
 70
     0
 10
0.0
 20
0.0
 30
0.0
  3
_D_5
  1

  0
SOLID
  5
304
330
301
100
AcDbEntity
  8
SK2
100
AcDbTrace
 10
-71.9764676136
 20
-8.00000038
 30
0.0
 11
-72.4844676136
 21
-11.30200038
 31
0.0
 12
-71.4684676136
 22
-11.30200038
 32
0.0
 13
-71.4684676136
 23
-11.30200038
 33
0.0
  0
SOLID
  5
305
330
301
100
AcDbEntity
  8
SK2
100
AcDbTrace
 10
-71.9764676136
 20
8.00000038
 30
0.0
 11
-71.4684676136
 21
11.30200038
 31
0.0
 12
-72.4844676136
 22
11.30200038
 32
0.0
 13
-72.4844676136
 23
11.30200038
 33
0.0
  0
LINE
  5
306
330
301
100
AcDbEntity
  8
SK2
100
AcDbLine
 10
-56.6881204247
 20
-8.00000038
 30
0.0
 11
-72.9764676136
 21
-8.00000038
 31
0.0
  0
LINE
  5
307
330
301
100
AcDbEntity
  8
SK2
100
AcDbLine
 10
-56.6881204247
 20
8.00000038
 30
0.0
 11
-72.9764676136
 21
8.00000038
 31
0.0
  0
LINE
  5
308
330
301
100
AcDbEntity
  8
SK2
100
AcDbLine
 10
-71.9764676136
 20
-8.00000038
 30
0.0
 11
-71.9764676136
 21
-14.35000038
 31
0.0
  0
LINE
  5
309
330
301
100
AcDbEntity
  8
SK2
100
AcDbLine
 10
-71.9764676136
 20
-8.00000038
 30
0.0
 11
-71.9764676136
 21
8.00000038
 31
0.0
  0
LINE
  5
30A
330
301
100
AcDbEntity
  8
SK2
100
AcDbLine
 10
-71.9764676136
 20
8.00000038
 30
0.0
 11
-71.9764676136
 21
14.35000038
 31
0.0
  0
MTEXT
  5
30B
330
301
100
AcDbEntity
  8
SK2
100
AcDbMText
 10
-76.4882045282
 20
-4.5427927914
 30
0.0
 40
3.5
 41
0.0
 71
     1
 72
     1
  1
M
  7
SLDTEXTSTYLE0
 11
3.391901413832837E-15
 21
1.0
 31
0.0
 73
     1
 44
1.0
  0
MTEXT
  5
30C
330
301
100
AcDbEntity
  8
SK2
100
AcDbMText
 10
-76.4882045282
 20
-0.255292857
 30
0.0
 40
3.5
 41
0.0
 71
     1
 72
     1
  1
16
  7
SLDTEXTSTYLE0
 11
3.391901413832837E-15
 21
1.0
 31
0.0
 73
     1
 44
1.0
  0
ENDBLK
  5
303
330
301
100
AcDbEntity
  8
0
100
AcDbBlockEnd
  0
BLOCK
  5
30F
330
30E
100
AcDbEntity
  8
0
100
AcDbBlockBegin
  2
_D_6
 70
     0
 10
0.0
 20
0.0
 30
0.0
  3
_D_6
  1

  0
SOLID
  5
311
330
30E
100
AcDbEntity
  8
SK2
100
AcDbTrace
 10
0.0
 20
-43.4996696659
 30
0.0
 11
3.302
 21
-44.0076696659
 31
0.0
 12
3.302
 22
-42.9916696659
 32
0.0
 13
3.302
 23
-42.9916696659
 33
0.0
  0
SOLID
  5
312
330
30E
100
AcDbEntity
  8
SK2
100
AcDbTrace
 10
58.34
 20
-43.4996696659
 30
0.0
 11
55.038
 21
-42.9916696659
 31
0.0
 12
55.038
 22
-44.0076696659
 32
0.0
 13
55.038
 23
-44.0076696659
 33
0.0
  0
LINE
  5
313
330
30E
100
AcDbEntity
  8
SK2
100
AcDbLine
 10
0.0
 20
-23.225
 30
0.0
 11
0.0
 21
-44.4996696659
 31
0.0
  0
LINE
  5
314
330
30E
100
AcDbEntity
  8
SK2
100
AcDbLine
 10
58.34
 20
-14.4762877484
 30
0.0
 11
58.34
 21
-44.4996696659
 31
0.0
  0
LINE
  5
315
330
30E
100
AcDbEntity
  8
SK2
100
AcDbLine
 10
0.0
 20
-43.4996696659
 30
0.0
 11
58.34
 21
-43.4996696659
 31
0.0
  0
MTEXT
  5
316
330
30E
100
AcDbEntity
  8
SK2
100
AcDbMText
 10
24.0775141765
 20
-38.9879327514
 30
0.0
 40
3.5
 41
0.0
 71
     1
 72
     1
  1
58,34
  7
SLDTEXTSTYLE0
 73
     1
 44
1.0
  0
ENDBLK
  5
310
330
30E
100
AcDbEntity
  8
0
100
AcDbBlockEnd
  0
BLOCK
  5
319
330
318
100
AcDbEntity
  8
0
100
AcDbBlockBegin
  2
_D_7
 70
     0
 10
0.0
 20
0.0
 30
0.0
  3
_D_7
  1

  0
SOLID
  5
31B
330
318
100
AcDbEntity
  8
SK2
100
AcDbTrace
 10
80.9486752525
 20
-12.5
 30
0.0
 11
81.4566752525
 21
-9.198
 31
0.0
 12
80.4406752525
 22
-9.198
 32
0.0
 13
80.4406752525
 23
-9.198
 33
0.0
  0
SOLID
  5
31C
330
318
100
AcDbEntity
  8
SK2
100
AcDbTrace
 10
80.9486752525
 20
12.5
 30
0.0
 11
80.4406752525
 21
9.198
 31
0.0
 12
81.4566752525
 22
9.198
 32
0.0
 13
81.4566752525
 23
9.198
 33
0.0
  0
LINE
  5
31D
330
318
100
AcDbEntity
  8
SK2
100
AcDbLine
 10
58.479173101
 20
-12.5
 30
0.0
 11
81.9486752525
 21
-12.5
 31
0.0
  0
LINE
  5
31E
330
318
100
AcDbEntity
  8
SK2
100
AcDbLine
 10
58.479173101
 20
12.5
 30
0.0
 11
81.9486752525
 21
12.5
 31
0.0
  0
LINE
  5
31F
330
318
100
AcDbEntity
  8
SK2
100
AcDbLine
 10
80.9486752525
 20
-12.5
 30
0.0
 11
80.9486752525
 21
12.5
 31
0.0
  0
MTEXT
  5
320
330
318
100
AcDbEntity
  8
SK2
100
AcDbMText
 10
76.4369381633
 20
-6.2026693779
 30
0.0
 40
3.5
 41
0.0
 71
     1
 72
     1
  1
%%c
  7
SLDTEXTSTYLE0
 11
6.123233995736766E-17
 21
1.0
 31
0.0
 73
     1
 44
1.0
  0
MTEXT
  5
321
330
318
100
AcDbEntity
  8
SK2
100
AcDbMText
 10
76.3834659866
 20
-0.9242319795
 30
0.0
 40
3.5
 41
0.0
 71
     1
 72
     1
  1
25
  7
SLDTEXTSTYLE0
 11
6.123233995736766E-17
 21
1.0
 31
0.0
 73
     1
 44
1.0
  0
ENDBLK
  5
31A
330
318
100
AcDbEntity
  8
0
100
AcDbBlockEnd
  0
BLOCK
  5
324
330
323
100
AcDbEntity
  8
0
100
AcDbBlockBegin
  2
_D_8
 70
     0
 10
0.0
 20
0.0
 30
0.0
  3
_D_8
  1

  0
SOLID
  5
326
330
323
100
AcDbEntity
  8
SK2
100
AcDbTrace
 10
92.6380636173
 20
21.0
 30
0.0
 11
92.1300636173
 21
17.698
 31
0.0
 12
93.1460636173
 22
17.698
 32
0.0
 13
93.1460636173
 23
17.698
 33
0.0
  0
SOLID
  5
327
330
323
100
AcDbEntity
  8
SK2
100
AcDbTrace
 10
92.6380636173
 20
-21.0
 30
0.0
 11
93.1460636173
 21
-17.698
 31
0.0
 12
92.1300636173
 22
-17.698
 32
0.0
 13
92.1300636173
 23
-17.698
 33
0.0
  0
LINE
  5
328
330
323
100
AcDbEntity
  8
SK2
100
AcDbLine
 10
68.1132486541
 20
21.0
 30
0.0
 11
93.6380636173
 21
21.0
 31
0.0
  0
LINE
  5
329
330
323
100
AcDbEntity
  8
SK2
100
AcDbLine
 10
68.1132486541
 20
-21.0
 30
0.0
 11
93.6380636173
 21
-21.0
 31
0.0
  0
LINE
  5
32A
330
323
100
AcDbEntity
  8
SK2
100
AcDbLine
 10
92.6380636173
 20
21.0
 30
0.0
 11
92.6380636173
 21
-21.0
 31
0.0
  0
MTEXT
  5
32B
330
323
100
AcDbEntity
  8
SK2
100
AcDbMText
 10
88.1263265281
 20
-6.2026693779
 30
0.0
 40
3.5
 41
0.0
 71
     1
 72
     1
  1
%%c
  7
SLDTEXTSTYLE0
 11
-7.044195017643634E-15
 21
1.0
 31
0.0
 73
     1
 44
1.0
  0
MTEXT
  5
32C
330
323
100
AcDbEntity
  8
SK2
100
AcDbMText
 10
88.0728543515
 20
-0.9242319795
 30
0.0
 40
3.5
 41
0.0
 71
     1
 72
     1
  1
42
  7
SLDTEXTSTYLE0
 11
-7.044195017643634E-15
 21
1.0
 31
0.0
 73
     1
 44
1.0
  0
ENDBLK
  5
325
330
323
100
AcDbEntity
  8
0
100
AcDbBlockEnd
  0
BLOCK
  5
32F
330
32E
100
AcDbEntity
  8
0
100
AcDbBlockBegin
  2
_D_9
 70
     0
 10
0.0
 20
0.0
 30
0.0
  3
_D_9
  1

  0
SOLID
  5
331
330
32E
100
AcDbEntity
  8
SK2
100
AcDbTrace
 10
70.0
 20
30.9069381113
 30
0.0
 11
66.698
 21
31.4149381113
 31
0.0
 12
66.698
 22
30.3989381113
 32
0.0
 13
66.698
 23
30.3989381113
 33
0.0
  0
SOLID
  5
332
330
32E
100
AcDbEntity
  8
SK2
100
AcDbTrace
 10
50.0
 20
30.9069381113
 30
0.0
 11
53.302
 21
30.3989381113
 31
0.0
 12
53.302
 22
31.4149381113
 32
0.0
 13
53.302
 23
31.4149381113
 33
0.0
  0
LINE
  5
333
330
32E
100
AcDbEntity
  8
SK2
100
AcDbLine
 10
70.0
 20
14.8564064606
 30
0.0
 11
70.0
 21
31.9069381113
 31
0.0
  0
LINE
  5
334
330
32E
100
AcDbEntity
  8
SK2
100
AcDbLine
 10
50.0
 20
18.4937131564
 30
0.0
 11
50.0
 21
31.9069381113
 31
0.0
  0
LINE
  5
335
330
32E
100
AcDbEntity
  8
SK2
100
AcDbLine
 10
70.0
 20
30.9069381113
 30
0.0
 11
50.0
 21
30.9069381113
 31
0.0
  0
MTEXT
  5
336
330
32E
100
AcDbEntity
  8
SK2
100
AcDbMText
 10
57.0915921485
 20
35.4186750259
 30
0.0
 40
3.5
 41
0.0
 71
     1
 72
     1
  1
20
  7
SLDTEXTSTYLE0
 73
     1
 44
1.0
  0
ENDBLK
  5
330
330
32E
100
AcDbEntity
  8
0
100
AcDbBlockEnd
  0
ENDSEC
  0
SECTION
  2
ENTITIES
  0
LINE
  5
92
330
1F
100
AcDbEntity
  8
1
  6
SLD-Solid
370
    25
100
AcDbLine
 10
67.1132486541
 20
21.0
 30
0.0
 11
50.8
 21
21.0
 31
0.0
  0
LINE
  5
93
330
1F
100
AcDbEntity
  8
1
  6
SLD-Solid
370
    25
100
AcDbLine
 10
50.8
 20
-21.0
 30
0.0
 11
67.1132486541
 21
-21.0
 31
0.0
  0
LINE
  5
94
330
1F
100
AcDbEntity
  8
1
  6
SLD-Solid
370
    25
100
AcDbLine
 10
50.8
 20
21.0
 30
0.0
 11
50.0
 21
20.2
 31
0.0
  0
LINE
  5
95
330
1F
100
AcDbEntity
  8
1
  6
SLD-Solid
370
    25
100
AcDbLine
 10
50.0
 20
-20.2
 30
0.0
 11
50.8
 21
-21.0
 31
0.0
  0
LINE
  5
96
330
1F
100
AcDbEntity
  8
1
  6
SLD-Solid
370
    25
100
AcDbLine
 10
67.1132486541
 20
-21.0
 30
0.0
 11
70.0
 21
-16.0
 31
0.0
  0
LINE
  5
97
330
1F
100
AcDbEntity
  8
1
  6
SLD-Solid
370
    25
100
AcDbLine
 10
70.0
 20
16.0
 30
0.0
 11
67.1132486541
 21
21.0
 31
0.0
  0
LINE
  5
98
330
1F
100
AcDbEntity
  8
1
  6
SLD-Solid
370
    25
100
AcDbLine
 10
26.2500000198
 20
31.474895049
 30
0.0
 11
21.6200000198
 21
31.474895049
 31
0.0
  0
LINE
  5
99
330
1F
100
AcDbEntity
  8
1
  6
SLD-Solid
370
    25
100
AcDbLine
 10
21.62
 20
-31.474895054
 30
0.0
 11
26.25
 21
-31.474895054
 31
0.0
  0
LINE
  5
9A
330
1F
100
AcDbEntity
  8
1
  6
SLD-Solid
370
    25
100
AcDbLine
 10
19.1
 20
-27.1101270189
 30
0.0
 11
21.62
 21
-31.474895054
 31
0.0
  0
LINE
  5
9B
330
1F
100
AcDbEntity
  8
1
  6
SLD-Solid
370
    25
100
AcDbLine
 10
21.6200000198
 20
31.474895049
 30
0.0
 11
19.100000109
 21
27.1101268898
 31
0.0
  0
LINE
  5
9C
330
1F
100
AcDbEntity
  8
1
  6
SLD-Solid
370
    25
100
AcDbLine
 10
11.58
 20
31.474895054
 30
0.0
 11
2.75
 21
31.474895054
 31
0.0
  0
LINE
  5
9D
330
1F
100
AcDbEntity
  8
1
  6
SLD-Solid
370
    25
100
AcDbLine
 10
2.75
 20
-31.474895054
 30
0.0
 11
11.58
 21
-31.474895054
 31
0.0
  0
LINE
  5
9E
330
1F
100
AcDbEntity
  8
1
  6
SLD-Solid
370
    25
100
AcDbLine
 10
14.1
 20
27.1101270189
 30
0.0
 11
11.58
 21
31.474895054
 31
0.0
  0
LINE
  5
9F
330
1F
100
AcDbEntity
  8
1
  6
SLD-Solid
370
    25
100
AcDbLine
 10
11.58
 20
-31.474895054
 30
0.0
 11
14.1
 21
-27.1101270189
 31
0.0
  0
LINE
  5
A0
330
1F
100
AcDbEntity
  8
1
  6
SLD-Solid
370
    25
100
AcDbLine
 10
14.475
 20
-26.5
 30
0.0
 11
18.725
 21
-26.5
 31
0.0
  0
LINE
  5
A1
330
1F
100
AcDbEntity
  8
1
  6
SLD-Solid
370
    25
100
AcDbLine
 10
18.725
 20
26.5
 30
0.0
 11
14.475
 21
26.5
 31
0.0
  0
LINE
  5
A2
330
1F
100
AcDbEntity
  8
1
  6
SLD-Solid
370
    25
100
AcDbLine
 10
0.2
 20
22.225
 30
0.0
 11
0.0
 21
22.225
 31
0.0
  0
LINE
  5
A3
330
1F
100
AcDbEntity
  8
1
  6
SLD-Solid
370
    25
100
AcDbLine
 10
0.0
 20
-22.225
 30
0.0
 11
0.2
 21
-22.225
 31
0.0
  0
LINE
  5
A4
330
1F
100
AcDbEntity
  8
1
  6
SLD-Solid
370
    25
100
AcDbLine
 10
0.2
 20
-22.225
 30
0.0
 11
0.9330363037
 21
-21.8831795579
 31
0.0
  0
LINE
  5
A5
330
1F
100
AcDbEntity
  8
1
  6
SLD-Solid
370
    25
100
AcDbLine
 10
0.9330363037
 20
21.8831795579
 30
0.0
 11
0.2
 21
22.225
 31
0.0
  0
LINE
  5
A6
330
1F
100
AcDbEntity
  8
SK1
  6
SLD-Solid
370
    25
100
AcDbLine
 10
0.0
 20
22.225
 30
0.0
 11
-64.544317822
 21
12.8115589574
 31
0.0
  0
LINE
  5
A7
330
1F
100
AcDbEntity
  8
SK1
  6
SLD-Solid
370
    25
100
AcDbLine
 10
-64.544317822
 20
-12.8115589574
 30
0.0
 11
0.0
 21
-22.225
 31
0.0
  0
LINE
  5
A8
330
1F
100
AcDbEntity
  8
1
  6
SLD-Solid
370
    25
100
AcDbLine
 10
31.8962523131
 20
20.8
 30
0.0
 11
29.0
 21
20.8
 31
0.0
  0
LINE
  5
A9
330
1F
100
AcDbEntity
  8
1
  6
SLD-Solid
370
    25
100
AcDbLine
 10
29.0
 20
-20.8
 30
0.0
 11
31.8962523131
 21
-20.8
 31
0.0
  0
LINE
  5
AA
330
1F
100
AcDbEntity
  8
1
  6
SLD-Solid
370
    25
100
AcDbLine
 10
31.8962523131
 20
-20.8
 30
0.0
 11
40.34
 21
-15.925
 31
0.0
  0
LINE
  5
AB
330
1F
100
AcDbEntity
  8
1
  6
SLD-Solid
370
    25
100
AcDbLine
 10
40.34
 20
15.925
 30
0.0
 11
31.8962523131
 21
20.8
 31
0.0
  0
LINE
  5
AC
330
1F
100
AcDbEntity
  8
1
  6
SLD-Solid
370
    25
100
AcDbLine
 10
50.0
 20
15.925
 30
0.0
 11
40.34
 21
15.925
 31
0.0
  0
LINE
  5
AD
330
1F
100
AcDbEntity
  8
1
  6
SLD-Solid
370
    25
100
AcDbLine
 10
40.34
 20
-15.925
 30
0.0
 11
50.0
 21
-15.925
 31
0.0
  0
LINE
  5
AE
330
1F
100
AcDbEntity
  8
1
  6
SLD-Solid
370
    25
100
AcDbLine
 10
67.1132486541
 20
-19.5127517838
 30
0.0
 11
53.0705029219
 21
-19.5127517838
 31
0.0
  0
LINE
  5
AF
330
1F
100
AcDbEntity
  8
1
  6
SLD-Solid
370
    25
100
AcDbLine
 10
67.1132486541
 20
-19.5127517838
 30
0.0
 11
67.1132486541
 21
-21.0
 31
0.0
  0
LINE
  5
B0
330
1F
100
AcDbEntity
  8
1
  6
SLD-Solid
370
    25
100
AcDbLine
 10
67.1132486541
 20
21.0
 30
0.0
 11
67.1132486541
 21
19.5127517838
 31
0.0
  0
LINE
  5
B1
330
1F
100
AcDbEntity
  8
1
  6
SLD-Solid
370
    25
100
AcDbLine
 10
53.0705029219
 20
19.5127517838
 30
0.0
 11
67.1132486541
 21
19.5127517838
 31
0.0
  0
LINE
  5
B2
330
1F
100
AcDbEntity
  8
1
  6
SLD-Solid
370
    25
100
AcDbLine
 10
67.1132486541
 20
16.4786811785
 30
0.0
 11
53.0705029219
 21
16.4786811785
 31
0.0
  0
LINE
  5
B3
330
1F
100
AcDbEntity
  8
1
  6
SLD-Solid
370
    25
100
AcDbLine
 10
67.1132486541
 20
16.4786811785
 30
0.0
 11
67.1132486541
 21
3.0340706053
 31
0.0
  0
LINE
  5
B4
330
1F
100
AcDbEntity
  8
1
  6
SLD-Solid
370
    25
100
AcDbLine
 10
53.0705029219
 20
3.0340706053
 30
0.0
 11
67.1132486541
 21
3.0340706053
 31
0.0
  0
LINE
  5
B5
330
1F
100
AcDbEntity
  8
1
  6
SLD-Solid
370
    25
100
AcDbLine
 10
67.1132486541
 20
-3.0340706053
 30
0.0
 11
53.0705029219
 21
-3.0340706053
 31
0.0
  0
LINE
  5
B6
330
1F
100
AcDbEntity
  8
1
  6
SLD-Solid
370
    25
100
AcDbLine
 10
67.1132486541
 20
-3.0340706053
 30
0.0
 11
67.1132486541
 21
-16.4786811785
 31
0.0
  0
LINE
  5
B7
330
1F
100
AcDbEntity
  8
1
  6
SLD-Solid
370
    25
100
AcDbLine
 10
53.0705029219
 20
-16.4786811785
 30
0.0
 11
67.1132486541
 21
-16.4786811785
 31
0.0
  0
LINE
  5
B8
330
1F
100
AcDbEntity
  8
1
  6
SLD-Solid
370
    25
100
AcDbLine
 10
50.8
 20
18.1865334795
 30
0.0
 11
50.8
 21
-21.0
 31
0.0
  0
LINE
  5
B9
330
1F
100
AcDbEntity
  8
1
  6
SLD-Solid
370
    25
100
AcDbLine
 10
50.8
 20
21.0
 30
0.0
 11
50.8
 21
18.1865334795
 31
0.0
  0
LINE
  5
BA
330
1F
100
AcDbEntity
  8
1
  6
SLD-Solid
370
    25
100
AcDbLine
 10
50.0
 20
17.4937131564
 30
0.0
 11
50.0
 21
-20.2
 31
0.0
  0
LINE
  5
BB
330
1F
100
AcDbEntity
  8
1
  6
SLD-Solid
370
    25
100
AcDbLine
 10
50.0
 20
20.2
 30
0.0
 11
50.0
 21
17.4937131564
 31
0.0
  0
LINE
  5
BC
330
1F
100
AcDbEntity
  8
1
  6
SLD-Solid
370
    25
100
AcDbLine
 10
68.7643610095
 20
-2.2508832728
 30
0.0
 11
67.1132486541
 21
-3.0340706053
 31
0.0
  0
LINE
  5
BD
330
1F
100
AcDbEntity
  8
1
  6
SLD-Solid
370
    25
100
AcDbLine
 10
67.1132486541
 20
3.0340706053
 30
0.0
 11
68.7643610095
 21
2.2508832728
 31
0.0
  0
LINE
  5
BE
330
1F
100
AcDbEntity
  8
1
  6
SLD-Solid
370
    25
100
AcDbLine
 10
68.7643610095
 20
14.4630156317
 30
0.0
 11
67.1132486541
 21
16.4786811785
 31
0.0
  0
LINE
  5
BF
330
1F
100
AcDbEntity
  8
1
  6
SLD-Solid
370
    25
100
AcDbLine
 10
67.1132486541
 20
19.5127517838
 30
0.0
 11
68.7643610095
 21
16.7138989045
 31
0.0
  0
LINE
  5
C0
330
1F
100
AcDbEntity
  8
1
  6
SLD-Solid
370
    25
100
AcDbLine
 10
68.7643610095
 20
-16.7138989045
 30
0.0
 11
67.1132486541
 21
-19.5127517838
 31
0.0
  0
LINE
  5
C1
330
1F
100
AcDbEntity
  8
1
  6
SLD-Solid
370
    25
100
AcDbLine
 10
67.1132486541
 20
-16.4786811785
 30
0.0
 11
68.7643610095
 21
-14.4630156317
 31
0.0
  0
LINE
  5
C2
330
1F
100
AcDbEntity
  8
1
  6
SLD-Solid
370
    25
100
AcDbLine
 10
70.0
 20
13.8564064606
 30
0.0
 11
70.0
 21
-16.0
 31
0.0
  0
LINE
  5
C3
330
1F
100
AcDbEntity
  8
1
  6
SLD-Solid
370
    25
100
AcDbLine
 10
70.0
 20
16.0
 30
0.0
 11
70.0
 21
13.8564064606
 31
0.0
  0
LINE
  5
C4
330
1F
100
AcDbEntity
  8
1
  6
SLD-Solid
370
    25
100
AcDbLine
 10
61.0
 20
-2.2508832728
 30
0.0
 11
61.0
 21
2.2508832728
 31
0.0
  0
LINE
  5
C5
330
1F
100
AcDbEntity
  8
1
  6
SLD-Solid
370
    25
100
AcDbLine
 10
68.7643610095
 20
2.2508832728
 30
0.0
 11
61.0
 21
2.2508832728
 31
0.0
  0
LINE
  5
C6
330
1F
100
AcDbEntity
  8
1
  6
SLD-Solid
370
    25
100
AcDbLine
 10
61.0
 20
-2.2508832728
 30
0.0
 11
68.7643610095
 21
-2.2508832728
 31
0.0
  0
LINE
  5
C7
330
1F
100
AcDbEntity
  8
1
  6
SLD-Solid
370
    25
100
AcDbLine
 10
68.7643610095
 20
16.7138989045
 30
0.0
 11
61.0
 21
16.7138989045
 31
0.0
  0
LINE
  5
C8
330
1F
100
AcDbEntity
  8
1
  6
SLD-Solid
370
    25
100
AcDbLine
 10
61.0
 20
-16.7138989045
 30
0.0
 11
68.7643610095
 21
-16.7138989045
 31
0.0
  0
LINE
  5
C9
330
1F
100
AcDbEntity
  8
1
  6
SLD-Solid
370
    25
100
AcDbLine
 10
21.3771985656
 20
5.4646014661
 30
0.0
 11
21.6200000198
 21
5.8239235224
 31
0.0
  0
LINE
  5
CA
330
1F
100
AcDbEntity
  8
1
  6
SLD-Solid
370
    25
100
AcDbLine
 10
21.62
 20
-5.823922546
 30
0.0
 11
21.3771985668
 21
-5.4646014748
 31
0.0
  0
LINE
  5
CB
330
1F
100
AcDbEntity
  8
1
  6
SLD-Solid
370
    25
100
AcDbLine
 10
21.6200000198
 20
31.474895049
 30
0.0
 11
21.6200000198
 21
5.8239235224
 31
0.0
  0
LINE
  5
CC
330
1F
100
AcDbEntity
  8
1
  6
SLD-Solid
370
    25
100
AcDbLine
 10
21.62
 20
-5.823922546
 30
0.0
 11
21.62
 21
-31.474895054
 31
0.0
  0
LINE
  5
CD
330
1F
100
AcDbEntity
  8
1
  6
SLD-Solid
370
    25
100
AcDbLine
 10
27.0
 20
-30.724895054
 30
0.0
 11
27.0
 21
30.724895054
 31
0.0
  0
LINE
  5
CE
330
1F
100
AcDbEntity
  8
1
  6
SLD-Solid
370
    25
100
AcDbLine
 10
19.1
 20
-7.2024995661
 30
0.0
 11
19.1
 21
-27.1101270189
 31
0.0
  0
LINE
  5
CF
330
1F
100
AcDbEntity
  8
1
  6
SLD-Solid
370
    25
100
AcDbLine
 10
19.100000109
 20
27.1101268898
 30
0.0
 11
19.100000109
 21
7.202499437
 31
0.0
  0
LINE
  5
D0
330
1F
100
AcDbEntity
  8
1
  6
SLD-Solid
370
    25
100
AcDbLine
 10
2.375
 20
8.095
 30
0.0
 11
2.0
 21
8.47
 31
0.0
  0
LINE
  5
D1
330
1F
100
AcDbEntity
  8
1
  6
SLD-Solid
370
    25
100
AcDbLine
 10
11.8542590336
 20
8.095
 30
0.0
 11
2.75
 21
8.095
 31
0.0
  0
LINE
  5
D2
330
1F
100
AcDbEntity
  8
1
  6
SLD-Solid
370
    25
100
AcDbLine
 10
2.75
 20
8.5721305697
 30
0.0
 11
11.58
 21
8.5721305697
 31
0.0
  0
LINE
  5
D3
330
1F
100
AcDbEntity
  8
1
  6
SLD-Solid
370
    25
100
AcDbLine
 10
2.0
 20
8.47
 30
0.0
 11
2.0
 21
30.724895054
 31
0.0
  0
LINE
  5
D4
330
1F
100
AcDbEntity
  8
1
  6
SLD-Solid
370
    25
100
AcDbLine
 10
11.58
 20
31.474895054
 30
0.0
 11
11.58
 21
8.5721305697
 31
0.0
  0
LINE
  5
D5
330
1F
100
AcDbEntity
  8
1
  6
SLD-Solid
370
    25
100
AcDbLine
 10
11.58
 20
-8.5721305697
 30
0.0
 11
2.75
 21
-8.5721305697
 31
0.0
  0
LINE
  5
D6
330
1F
100
AcDbEntity
  8
1
  6
SLD-Solid
370
    25
100
AcDbLine
 10
11.58
 20
-8.5721305697
 30
0.0
 11
11.58
 21
-31.474895054
 31
0.0
  0
LINE
  5
D7
330
1F
100
AcDbEntity
  8
1
  6
SLD-Solid
370
    25
100
AcDbLine
 10
2.0
 20
-30.724895054
 30
0.0
 11
2.0
 21
-8.47
 31
0.0
  0
LINE
  5
D8
330
1F
100
AcDbEntity
  8
1
  6
SLD-Solid
370
    25
100
AcDbLine
 10
2.0
 20
-8.47
 30
0.0
 11
2.375
 21
-8.095
 31
0.0
  0
LINE
  5
D9
330
1F
100
AcDbEntity
  8
1
  6
SLD-Solid
370
    25
100
AcDbLine
 10
2.75
 20
-8.095
 30
0.0
 11
11.8542590336
 21
-8.095
 31
0.0
  0
LINE
  5
DA
330
1F
100
AcDbEntity
  8
1
  6
SLD-Solid
370
    25
100
AcDbLine
 10
14.1
 20
27.1101270189
 30
0.0
 11
14.1
 21
8.095
 31
0.0
  0
LINE
  5
DB
330
1F
100
AcDbEntity
  8
1
  6
SLD-Solid
370
    25
100
AcDbLine
 10
14.1
 20
-8.095
 30
0.0
 11
14.1
 21
-27.1101270189
 31
0.0
  0
LINE
  5
DC
330
1F
100
AcDbEntity
  8
1
  6
SLD-Solid
370
    25
100
AcDbLine
 10
14.475
 20
-8.095
 30
0.0
 11
15.405
 21
-8.095
 31
0.0
  0
LINE
  5
DD
330
1F
100
AcDbEntity
  8
1
  6
SLD-Solid
370
    25
100
AcDbLine
 10
15.405000109
 20
8.0949998709
 30
0.0
 11
14.475
 21
8.0949998709
 31
0.0
  0
LINE
  5
DE
330
1F
100
AcDbEntity
  8
1
  6
SLD-Solid
370
    25
100
AcDbLine
 10
2.0
 20
7.0704809472
 30
0.0
 11
2.0
 21
8.47
 31
0.0
  0
LINE
  5
DF
330
1F
100
AcDbEntity
  8
1
  6
SLD-Solid
370
    25
100
AcDbLine
 10
2.0
 20
-8.47
 30
0.0
 11
2.0
 21
-7.0704809472
 31
0.0
  0
LINE
  5
E0
330
1F
100
AcDbEntity
  8
1
  6
SLD-Solid
370
    25
100
AcDbLine
 10
2.0
 20
-1.6837237408
 30
0.0
 11
2.0
 21
-7.0704809472
 31
0.0
  0
LINE
  5
E1
330
1F
100
AcDbEntity
  8
1
  6
SLD-Solid
370
    25
100
AcDbLine
 10
2.0
 20
7.0704809472
 30
0.0
 11
2.0
 21
1.6837237408
 31
0.0
  0
LINE
  5
E2
330
1F
100
AcDbEntity
  8
1
  6
SLD-Solid
370
    25
100
AcDbLine
 10
0.0
 20
22.225
 30
0.0
 11
0.0
 21
-22.225
 31
0.0
  0
LINE
  5
E3
330
1F
100
AcDbEntity
  8
1
  6
SLD-Solid
370
    25
100
AcDbLine
 10
31.8962523131
 20
20.8
 30
0.0
 11
31.8962523131
 21
-20.8
 31
0.0
  0
LINE
  5
E4
330
1F
100
AcDbEntity
  8
1
  6
SLD-Solid
370
    25
100
AcDbLine
 10
40.34
 20
15.925
 30
0.0
 11
40.34
 21
-15.925
 31
0.0
  0
LINE
  5
E5
330
1F
100
AcDbEntity
  8
SK1
  6
SLD-Solid
370
    25
100
AcDbLine
 10
-65.4
 20
11.8220275702
 30
0.0
 11
-65.4
 21
-11.8220275702
 31
0.0
  0
LINE
  5
E6
330
1F
100
AcDbEntity
  8
1
  6
SLD-Solid
370
    25
100
AcDbLine
 10
61.0
 20
-16.7138989045
 30
0.0
 11
61.0
 21
-16.4786811785
 31
0.0
  0
LINE
  5
E7
330
1F
100
AcDbEntity
  8
1
  6
SLD-Solid
370
    25
100
AcDbLine
 10
61.0
 20
16.4786811785
 30
0.0
 11
61.0
 21
16.7138989045
 31
0.0
  0
LINE
  5
E8
330
1F
100
AcDbEntity
  8
1
  6
SLD-Solid
370
    25
100
AcDbLine
 10
0.9330363037
 20
21.8831795579
 30
0.0
 11
0.9330363037
 21
-21.8831795579
 31
0.0
  0
LINE
  5
E9
330
1F
100
AcDbEntity
  8
SK3
  6
SLD-Dashed
370
    18
100
AcDbLine
 10
19.7485088519
 20
9.0
 30
0.0
 11
19.7485088519
 21
-9.0
 31
0.0
  0
LINE
  5
EA
330
1F
100
AcDbEntity
  8
SK3
  6
SLD-Dashed
370
    18
100
AcDbLine
 10
13.7485088519
 20
9.0
 30
0.0
 11
13.7485088519
 21
-9.0
 31
0.0
  0
LINE
  5
EB
330
1F
100
AcDbEntity
  8
SK3
  6
SLD-Dashed
370
    18
100
AcDbLine
 10
12.7485088519
 20
8.0
 30
0.0
 11
12.7485088519
 21
-8.0
 31
0.0
  0
LINE
  5
EC
330
1F
100
AcDbEntity
  8
SK3
  6
SLD-Dashed
370
    18
100
AcDbLine
 10
20.7485088519
 20
8.0
 30
0.0
 11
20.7485088519
 21
-8.0
 31
0.0
  0
LINE
  5
ED
330
1F
100
AcDbEntity
  8
SK3
  6
SLD-Dashed
370
    18
100
AcDbLine
 10
20.7485088519
 20
-0.1159707487
 30
0.0
 11
20.7485088519
 21
2.4399964289
 31
0.0
  0
LINE
  5
EE
330
1F
100
AcDbEntity
  8
SK3
  6
SLD-Dashed
370
    18
100
AcDbLine
 10
12.7485088519
 20
-0.1159707487
 30
0.0
 11
12.7485088519
 21
2.4399964289
 31
0.0
  0
LINE
  5
EF
330
1F
100
AcDbEntity
  8
SK3
  6
SLD-Dashed
370
    18
100
AcDbLine
 10
20.7485088519
 20
-0.1159707487
 30
0.0
 11
12.7485088519
 21
-0.1159707487
 31
0.0
  0
LINE
  5
F0
330
1F
100
AcDbEntity
  8
SK3
  6
SLD-Dashed
370
    18
100
AcDbLine
 10
20.7485088519
 20
-2.5559671775
 30
0.0
 11
20.7485088519
 21
-0.1159707487
 31
0.0
  0
LINE
  5
F1
330
1F
100
AcDbEntity
  8
SK3
  6
SLD-Dashed
370
    18
100
AcDbLine
 10
12.7485088519
 20
-2.5559671775
 30
0.0
 11
12.7485088519
 21
-0.1159707487
 31
0.0
  0
LINE
  5
F2
330
1F
100
AcDbEntity
  8
SK3
  6
SLD-Dashed
370
    18
100
AcDbLine
 10
20.7485088519
 20
2.4399964289
 30
0.0
 11
12.7485088519
 21
2.4399964289
 31
0.0
  0
LINE
  5
F3
330
1F
100
AcDbEntity
  8
SK3
  6
SLD-Dashed
370
    18
100
AcDbLine
 10
20.7485088519
 20
2.4399964289
 30
0.0
 11
20.7485088519
 21
2.5559671775
 31
0.0
  0
LINE
  5
F4
330
1F
100
AcDbEntity
  8
SK3
  6
SLD-Dashed
370
    18
100
AcDbLine
 10
12.7485088519
 20
2.4399964289
 30
0.0
 11
12.7485088519
 21
2.5559671775
 31
0.0
  0
LINE
  5
F5
330
1F
100
AcDbEntity
  8
SK3
  6
SLD-Dashed
370
    18
100
AcDbLine
 10
20.7485088519
 20
-2.4399964289
 30
0.0
 11
12.7485088519
 21
-2.4399964289
 31
0.0
  0
LINE
  5
F6
330
1F
100
AcDbEntity
  8
SK3
  6
SLD-Dashed
370
    18
100
AcDbLine
 10
20.7485088519
 20
-2.5559671775
 30
0.0
 11
12.7485088519
 21
-2.5559671775
 31
0.0
  0
LINE
  5
F7
330
1F
100
AcDbEntity
  8
SK3
  6
SLD-Dashed
370
    18
100
AcDbLine
 10
20.7485088519
 20
-2.4399964289
 30
0.0
 11
20.7485088519
 21
-2.5559671775
 31
0.0
  0
LINE
  5
F8
330
1F
100
AcDbEntity
  8
SK3
  6
SLD-Dashed
370
    18
100
AcDbLine
 10
12.7485088519
 20
-2.4399964289
 30
0.0
 11
12.7485088519
 21
-2.5559671775
 31
0.0
  0
LINE
  5
F9
330
1F
100
AcDbEntity
  8
SK3
  6
SLD-Dashed
370
    18
100
AcDbLine
 10
20.7485088519
 20
0.1159707487
 30
0.0
 11
12.7485088519
 21
0.1159707487
 31
0.0
  0
LINE
  5
FA
330
1F
100
AcDbEntity
  8
SK3
  6
SLD-Dashed
370
    18
100
AcDbLine
 10
20.7485088519
 20
2.5559671775
 30
0.0
 11
12.7485088519
 21
2.5559671775
 31
0.0
  0
LINE
  5
FB
330
1F
100
AcDbEntity
  8
SK3
  6
SLD-Dashed
370
    18
100
AcDbLine
 10
20.7485088519
 20
2.5559671775
 30
0.0
 11
20.7485088519
 21
0.1159707487
 31
0.0
  0
LINE
  5
FC
330
1F
100
AcDbEntity
  8
SK3
  6
SLD-Dashed
370
    18
100
AcDbLine
 10
12.7485088519
 20
2.5559671775
 30
0.0
 11
12.7485088519
 21
0.1159707487
 31
0.0
  0
LINE
  5
FD
330
1F
100
AcDbEntity
  8
SK3
  6
SLD-Dashed
370
    18
100
AcDbLine
 10
20.7485088519
 20
0.1159707487
 30
0.0
 11
20.7485088519
 21
-2.4399964289
 31
0.0
  0
LINE
  5
FE
330
1F
100
AcDbEntity
  8
SK3
  6
SLD-Dashed
370
    18
100
AcDbLine
 10
12.7485088519
 20
0.1159707487
 30
0.0
 11
12.7485088519
 21
-2.4399964289
 31
0.0
  0
LINE
  5
FF
330
1F
100
AcDbEntity
  8
SK3
  6
SLD-Dashed
370
    18
100
AcDbLine
 10
58.34
 20
13.4902680687
 30
0.0
 11
58.34
 21
-13.4762877484
 31
0.0
  0
LINE
  5
100
330
1F
100
AcDbEntity
  8
SK3
  6
SLD-Dashed
370
    18
100
AcDbLine
 10
9.0
 20
26.4316180962
 30
0.0
 11
8.5213686714
 21
26.4117411286
 31
0.0
  0
LINE
  5
101
330
1F
100
AcDbEntity
  8
SK3
  6
SLD-Dashed
370
    18
100
AcDbLine
 10
8.5213686714
 20
26.4117411286
 30
0.0
 11
8.0705536559
 21
26.3532654031
 31
0.0
  0
LINE
  5
102
330
1F
100
AcDbEntity
  8
SK3
  6
SLD-Dashed
370
    18
100
AcDbLine
 10
8.0705536559
 20
26.3532654031
 30
0.0
 11
7.6737546835
 21
26.2595893163
 31
0.0
  0
LINE
  5
103
330
1F
100
AcDbEntity
  8
SK3
  6
SLD-Dashed
370
    18
100
AcDbLine
 10
7.6737546835
 20
26.2595893163
 30
0.0
 11
7.3540322682
 21
26.1361569817
 31
0.0
  0
LINE
  5
104
330
1F
100
AcDbEntity
  8
SK3
  6
SLD-Dashed
370
    18
100
AcDbLine
 10
7.3540322682
 20
26.1361569817
 30
0.0
 11
7.1299675146
 21
25.9901418381
 31
0.0
  0
LINE
  5
105
330
1F
100
AcDbEntity
  8
SK3
  6
SLD-Dashed
370
    18
100
AcDbLine
 10
7.1299675146
 20
25.9901418381
 30
0.0
 11
7.0145822518
 21
25.8300297548
 31
0.0
  0
LINE
  5
106
330
1F
100
AcDbEntity
  8
SK3
  6
SLD-Dashed
370
    18
100
AcDbLine
 10
7.0145822518
 20
25.8300297548
 30
0.0
 11
7.0145822518
 21
25.6651258642
 31
0.0
  0
LINE
  5
107
330
1F
100
AcDbEntity
  8
SK3
  6
SLD-Dashed
370
    18
100
AcDbLine
 10
7.0145822518
 20
25.6651258642
 30
0.0
 11
7.1299675146
 21
25.505013781
 31
0.0
  0
LINE
  5
108
330
1F
100
AcDbEntity
  8
SK3
  6
SLD-Dashed
370
    18
100
AcDbLine
 10
7.1299675146
 20
25.505013781
 30
0.0
 11
7.3540322682
 21
25.3589986373
 31
0.0
  0
LINE
  5
109
330
1F
100
AcDbEntity
  8
SK3
  6
SLD-Dashed
370
    18
100
AcDbLine
 10
7.3540322682
 20
25.3589986373
 30
0.0
 11
7.6737546835
 21
25.2355663028
 31
0.0
  0
LINE
  5
10A
330
1F
100
AcDbEntity
  8
SK3
  6
SLD-Dashed
370
    18
100
AcDbLine
 10
7.6737546835
 20
25.2355663028
 30
0.0
 11
8.0705536559
 21
25.1418902159
 31
0.0
  0
LINE
  5
10B
330
1F
100
AcDbEntity
  8
SK3
  6
SLD-Dashed
370
    18
100
AcDbLine
 10
8.0705536559
 20
25.1418902159
 30
0.0
 11
8.5213686714
 21
25.0834144904
 31
0.0
  0
LINE
  5
10C
330
1F
100
AcDbEntity
  8
SK3
  6
SLD-Dashed
370
    18
100
AcDbLine
 10
8.5213686714
 20
25.0834144904
 30
0.0
 11
9.0
 21
25.0635375229
 31
0.0
  0
LINE
  5
10D
330
1F
100
AcDbEntity
  8
SK3
  6
SLD-Dashed
370
    18
100
AcDbLine
 10
9.0
 20
25.0635375229
 30
0.0
 11
9.4786313286
 21
25.0834144904
 31
0.0
  0
LINE
  5
10E
330
1F
100
AcDbEntity
  8
SK3
  6
SLD-Dashed
370
    18
100
AcDbLine
 10
9.4786313286
 20
25.0834144904
 30
0.0
 11
9.9294463441
 21
25.1418902159
 31
0.0
  0
LINE
  5
10F
330
1F
100
AcDbEntity
  8
SK3
  6
SLD-Dashed
370
    18
100
AcDbLine
 10
9.9294463441
 20
25.1418902159
 30
0.0
 11
10.3262453165
 21
25.2355663028
 31
0.0
  0
LINE
  5
110
330
1F
100
AcDbEntity
  8
SK3
  6
SLD-Dashed
370
    18
100
AcDbLine
 10
10.3262453165
 20
25.2355663028
 30
0.0
 11
10.6459677318
 21
25.3589986373
 31
0.0
  0
LINE
  5
111
330
1F
100
AcDbEntity
  8
SK3
  6
SLD-Dashed
370
    18
100
AcDbLine
 10
10.6459677318
 20
25.3589986373
 30
0.0
 11
10.8700324854
 21
25.505013781
 31
0.0
  0
LINE
  5
112
330
1F
100
AcDbEntity
  8
SK3
  6
SLD-Dashed
370
    18
100
AcDbLine
 10
10.8700324854
 20
25.505013781
 30
0.0
 11
10.9854177482
 21
25.6651258642
 31
0.0
  0
LINE
  5
113
330
1F
100
AcDbEntity
  8
SK3
  6
SLD-Dashed
370
    18
100
AcDbLine
 10
10.9854177482
 20
25.6651258642
 30
0.0
 11
10.9854177482
 21
25.8300297548
 31
0.0
  0
LINE
  5
114
330
1F
100
AcDbEntity
  8
SK3
  6
SLD-Dashed
370
    18
100
AcDbLine
 10
10.9854177482
 20
25.8300297548
 30
0.0
 11
10.8700324854
 21
25.9901418381
 31
0.0
  0
LINE
  5
115
330
1F
100
AcDbEntity
  8
SK3
  6
SLD-Dashed
370
    18
100
AcDbLine
 10
10.8700324854
 20
25.9901418381
 30
0.0
 11
10.6459677318
 21
26.1361569817
 31
0.0
  0
LINE
  5
116
330
1F
100
AcDbEntity
  8
SK3
  6
SLD-Dashed
370
    18
100
AcDbLine
 10
10.6459677318
 20
26.1361569817
 30
0.0
 11
10.3262453165
 21
26.2595893163
 31
0.0
  0
LINE
  5
117
330
1F
100
AcDbEntity
  8
SK3
  6
SLD-Dashed
370
    18
100
AcDbLine
 10
10.3262453165
 20
26.2595893163
 30
0.0
 11
9.9294463441
 21
26.3532654031
 31
0.0
  0
LINE
  5
118
330
1F
100
AcDbEntity
  8
SK3
  6
SLD-Dashed
370
    18
100
AcDbLine
 10
9.9294463441
 20
26.3532654031
 30
0.0
 11
9.4786313286
 21
26.4117411286
 31
0.0
  0
LINE
  5
119
330
1F
100
AcDbEntity
  8
SK3
  6
SLD-Dashed
370
    18
100
AcDbLine
 10
9.4786313286
 20
26.4117411286
 30
0.0
 11
9.0
 21
26.4316180962
 31
0.0
  0
LINE
  5
11A
330
1F
100
AcDbEntity
  8
SK3
  6
SLD-Dashed
370
    18
100
AcDbLine
 10
33.34
 20
9.1074604634
 30
0.0
 11
33.34
 21
-9.1074604634
 31
0.0
  0
LINE
  5
11B
330
1F
100
AcDbEntity
  8
SK3
  6
SLD-Dashed
370
    18
100
AcDbLine
 10
2.2382596061
 20
22.7011180302
 30
0.0
 11
2.348740495
 21
22.6961839777
 31
0.0
  0
LINE
  5
11C
330
1F
100
AcDbEntity
  8
SK3
  6
SLD-Dashed
370
    18
100
AcDbLine
 10
2.348740495
 20
22.6961839777
 30
0.0
 11
2.5154938814
 21
22.7860910821
 31
0.0
  0
LINE
  5
11D
330
1F
100
AcDbEntity
  8
SK3
  6
SLD-Dashed
370
    18
100
AcDbLine
 10
2.5154938814
 20
22.7860910821
 30
0.0
 11
2.729530047
 21
22.9659924283
 31
0.0
  0
LINE
  5
11E
330
1F
100
AcDbEntity
  8
SK3
  6
SLD-Dashed
370
    18
100
AcDbLine
 10
2.729530047
 20
22.9659924283
 30
0.0
 11
2.9793102468
 21
23.2261894879
 31
0.0
  0
LINE
  5
11F
330
1F
100
AcDbEntity
  8
SK3
  6
SLD-Dashed
370
    18
100
AcDbLine
 10
2.9793102468
 20
23.2261894879
 30
0.0
 11
3.2513687656
 21
23.5526549703
 31
0.0
  0
LINE
  5
120
330
1F
100
AcDbEntity
  8
SK3
  6
SLD-Dashed
370
    18
100
AcDbLine
 10
3.2513687656
 20
23.5526549703
 30
0.0
 11
3.5310388582
 21
23.9277890367
 31
0.0
  0
LINE
  5
121
330
1F
100
AcDbEntity
  8
SK3
  6
SLD-Dashed
370
    18
100
AcDbLine
 10
3.5310388582
 20
23.9277890367
 30
0.0
 11
3.8032434375
 21
24.3313681126
 31
0.0
  0
LINE
  5
122
330
1F
100
AcDbEntity
  8
SK3
  6
SLD-Dashed
370
    18
100
AcDbLine
 10
3.8032434375
 20
24.3313681126
 30
0.0
 11
4.0533078842
 21
24.7416351454
 31
0.0
  0
LINE
  5
123
330
1F
100
AcDbEntity
  8
SK3
  6
SLD-Dashed
370
    18
100
AcDbLine
 10
4.0533078842
 20
24.7416351454
 30
0.0
 11
4.2677511592
 21
25.1364725333
 31
0.0
  0
LINE
  5
124
330
1F
100
AcDbEntity
  8
SK3
  6
SLD-Dashed
370
    18
100
AcDbLine
 10
4.2677511592
 20
25.1364725333
 30
0.0
 11
4.4350125701
 21
25.4945944905
 31
0.0
  0
LINE
  5
125
330
1F
100
AcDbEntity
  8
SK3
  6
SLD-Dashed
370
    18
100
AcDbLine
 10
4.4350125701
 20
25.4945944905
 30
0.0
 11
4.5460750109
 21
25.7966945695
 31
0.0
  0
LINE
  5
126
330
1F
100
AcDbEntity
  8
SK3
  6
SLD-Dashed
370
    18
100
AcDbLine
 10
4.5460750109
 20
25.7966945695
 30
0.0
 11
4.5949510767
 21
26.0264864769
 31
0.0
  0
LINE
  5
127
330
1F
100
AcDbEntity
  8
SK3
  6
SLD-Dashed
370
    18
100
AcDbLine
 10
4.5949510767
 20
26.0264864769
 30
0.0
 11
4.5790058462
 21
26.1715820715
 31
0.0
  0
LINE
  5
128
330
1F
100
AcDbEntity
  8
SK3
  6
SLD-Dashed
370
    18
100
AcDbLine
 10
4.5790058462
 20
26.1715820715
 30
0.0
 11
4.4990989307
 21
26.2241592123
 31
0.0
  0
LINE
  5
129
330
1F
100
AcDbEntity
  8
SK3
  6
SLD-Dashed
370
    18
100
AcDbLine
 10
4.4990989307
 20
26.2241592123
 30
0.0
 11
4.3595381329
 21
26.1813834519
 31
0.0
  0
LINE
  5
12A
330
1F
100
AcDbEntity
  8
SK3
  6
SLD-Dashed
370
    18
100
AcDbLine
 10
4.3595381329
 20
26.1813834519
 30
0.0
 11
4.1678472115
 21
26.0455608427
 31
0.0
  0
LINE
  5
12B
330
1F
100
AcDbEntity
  8
SK3
  6
SLD-Dashed
370
    18
100
AcDbLine
 10
4.1678472115
 20
26.0455608427
 30
0.0
 11
3.9343602736
 21
25.8240136167
 31
0.0
  0
LINE
  5
12C
330
1F
100
AcDbEntity
  8
SK3
  6
SLD-Dashed
370
    18
100
AcDbLine
 10
3.9343602736
 20
25.8240136167
 30
0.0
 11
3.6716646605
 21
25.5286854423
 31
0.0
  0
LINE
  5
12D
330
1F
100
AcDbEntity
  8
SK3
  6
SLD-Dashed
370
    18
100
AcDbLine
 10
3.6716646605
 20
25.5286854423
 30
0.0
 11
3.3939223608
 21
25.1754975376
 31
0.0
  0
LINE
  5
12E
330
1F
100
AcDbEntity
  8
SK3
  6
SLD-Dashed
370
    18
100
AcDbLine
 10
3.3939223608
 20
25.1754975376
 30
0.0
 11
3.1161065336
 21
24.7834903541
 31
0.0
  0
LINE
  5
12F
330
1F
100
AcDbEntity
  8
SK3
  6
SLD-Dashed
370
    18
100
AcDbLine
 10
3.1161065336
 20
24.7834903541
 30
0.0
 11
2.8531943022
 21
24.3737971006
 31
0.0
  0
LINE
  5
130
330
1F
100
AcDbEntity
  8
SK3
  6
SLD-Dashed
370
    18
100
AcDbLine
 10
2.8531943022
 20
24.3737971006
 30
0.0
 11
2.6193593329
 21
23.9685044463
 31
0.0
  0
LINE
  5
131
330
1F
100
AcDbEntity
  8
SK3
  6
SLD-Dashed
370
    18
100
AcDbLine
 10
2.6193593329
 20
23.9685044463
 30
0.0
 11
2.4272077295
 21
23.5894618231
 31
0.0
  0
LINE
  5
132
330
1F
100
AcDbEntity
  8
SK3
  6
SLD-Dashed
370
    18
100
AcDbLine
 10
2.4272077295
 20
23.5894618231
 30
0.0
 11
2.2870984348
 21
23.2571035171
 31
0.0
  0
LINE
  5
133
330
1F
100
AcDbEntity
  8
SK3
  6
SLD-Dashed
370
    18
100
AcDbLine
 10
2.2870984348
 20
23.2571035171
 30
0.0
 11
2.2065847769
 21
22.9893470504
 31
0.0
  0
LINE
  5
134
330
1F
100
AcDbEntity
  8
SK3
  6
SLD-Dashed
370
    18
100
AcDbLine
 10
2.2065847769
 20
22.9893470504
 30
0.0
 11
2.1900072681
 21
22.8006272436
 31
0.0
  0
LINE
  5
135
330
1F
100
AcDbEntity
  8
SK3
  6
SLD-Dashed
370
    18
100
AcDbLine
 10
2.1900072681
 20
22.8006272436
 30
0.0
 11
2.2382596061
 21
22.7011180302
 31
0.0
  0
LINE
  5
136
330
1F
100
AcDbEntity
  8
SK3
  6
SLD-Dashed
370
    18
100
AcDbLine
 10
2.0
 20
27.8810933837
 30
0.0
 11
2.0
 21
22.8623081388
 31
0.0
  0
LINE
  5
137
330
1F
100
AcDbEntity
  8
SK3
  6
SLD-Dashed
370
    18
100
AcDbLine
 10
9.0
 20
26.1220249204
 30
0.0
 11
8.5729485756
 21
26.1027957316
 31
0.0
  0
LINE
  5
138
330
1F
100
AcDbEntity
  8
SK3
  6
SLD-Dashed
370
    18
100
AcDbLine
 10
8.5729485756
 20
26.1027957316
 30
0.0
 11
8.175
 21
26.0464186029
 31
0.0
  0
LINE
  5
139
330
1F
100
AcDbEntity
  8
SK3
  6
SLD-Dashed
370
    18
100
AcDbLine
 10
8.175
 20
26.0464186029
 30
0.0
 11
7.833273811
 21
25.9567355423
 31
0.0
  0
LINE
  5
13A
330
1F
100
AcDbEntity
  8
SK3
  6
SLD-Dashed
370
    18
100
AcDbLine
 10
7.833273811
 20
25.9567355423
 30
0.0
 11
7.5710580838
 21
25.8398583021
 31
0.0
  0
LINE
  5
13B
330
1F
100
AcDbEntity
  8
SK3
  6
SLD-Dashed
370
    18
100
AcDbLine
 10
7.5710580838
 20
25.8398583021
 30
0.0
 11
7.4062223866
 21
25.7037518733
 31
0.0
  0
LINE
  5
13C
330
1F
100
AcDbEntity
  8
SK3
  6
SLD-Dashed
370
    18
100
AcDbLine
 10
7.4062223866
 20
25.7037518733
 30
0.0
 11
7.35
 21
25.5576916839
 31
0.0
  0
LINE
  5
13D
330
1F
100
AcDbEntity
  8
SK3
  6
SLD-Dashed
370
    18
100
AcDbLine
 10
7.35
 20
25.5576916839
 30
0.0
 11
7.4062223866
 21
25.4116314945
 31
0.0
  0
LINE
  5
13E
330
1F
100
AcDbEntity
  8
SK3
  6
SLD-Dashed
370
    18
100
AcDbLine
 10
7.4062223866
 20
25.4116314945
 30
0.0
 11
7.5710580838
 21
25.2755250656
 31
0.0
  0
LINE
  5
13F
330
1F
100
AcDbEntity
  8
SK3
  6
SLD-Dashed
370
    18
100
AcDbLine
 10
7.5710580838
 20
25.2755250656
 30
0.0
 11
7.833273811
 21
25.1586478255
 31
0.0
  0
LINE
  5
140
330
1F
100
AcDbEntity
  8
SK3
  6
SLD-Dashed
370
    18
100
AcDbLine
 10
7.833273811
 20
25.1586478255
 30
0.0
 11
8.175
 21
25.0689647649
 31
0.0
  0
LINE
  5
141
330
1F
100
AcDbEntity
  8
SK3
  6
SLD-Dashed
370
    18
100
AcDbLine
 10
8.175
 20
25.0689647649
 30
0.0
 11
8.5729485756
 21
25.0125876361
 31
0.0
  0
LINE
  5
142
330
1F
100
AcDbEntity
  8
SK3
  6
SLD-Dashed
370
    18
100
AcDbLine
 10
8.5729485756
 20
25.0125876361
 30
0.0
 11
9.0
 21
24.9933584474
 31
0.0
  0
LINE
  5
143
330
1F
100
AcDbEntity
  8
SK3
  6
SLD-Dashed
370
    18
100
AcDbLine
 10
9.0
 20
24.9933584474
 30
0.0
 11
9.4270514244
 21
25.0125876361
 31
0.0
  0
LINE
  5
144
330
1F
100
AcDbEntity
  8
SK3
  6
SLD-Dashed
370
    18
100
AcDbLine
 10
9.4270514244
 20
25.0125876361
 30
0.0
 11
9.825
 21
25.0689647649
 31
0.0
  0
LINE
  5
145
330
1F
100
AcDbEntity
  8
SK3
  6
SLD-Dashed
370
    18
100
AcDbLine
 10
9.825
 20
25.0689647649
 30
0.0
 11
10.166726189
 21
25.1586478255
 31
0.0
  0
LINE
  5
146
330
1F
100
AcDbEntity
  8
SK3
  6
SLD-Dashed
370
    18
100
AcDbLine
 10
10.166726189
 20
25.1586478255
 30
0.0
 11
10.4289419162
 21
25.2755250656
 31
0.0
  0
LINE
  5
147
330
1F
100
AcDbEntity
  8
SK3
  6
SLD-Dashed
370
    18
100
AcDbLine
 10
10.4289419162
 20
25.2755250656
 30
0.0
 11
10.5937776134
 21
25.4116314945
 31
0.0
  0
LINE
  5
148
330
1F
100
AcDbEntity
  8
SK3
  6
SLD-Dashed
370
    18
100
AcDbLine
 10
10.5937776134
 20
25.4116314945
 30
0.0
 11
10.65
 21
25.5576916839
 31
0.0
  0
LINE
  5
149
330
1F
100
AcDbEntity
  8
SK3
  6
SLD-Dashed
370
    18
100
AcDbLine
 10
10.65
 20
25.5576916839
 30
0.0
 11
10.5937776134
 21
25.7037518733
 31
0.0
  0
LINE
  5
14A
330
1F
100
AcDbEntity
  8
SK3
  6
SLD-Dashed
370
    18
100
AcDbLine
 10
10.5937776134
 20
25.7037518733
 30
0.0
 11
10.4289419162
 21
25.8398583021
 31
0.0
  0
LINE
  5
14B
330
1F
100
AcDbEntity
  8
SK3
  6
SLD-Dashed
370
    18
100
AcDbLine
 10
10.4289419162
 20
25.8398583021
 30
0.0
 11
10.166726189
 21
25.9567355423
 31
0.0
  0
LINE
  5
14C
330
1F
100
AcDbEntity
  8
SK3
  6
SLD-Dashed
370
    18
100
AcDbLine
 10
10.166726189
 20
25.9567355423
 30
0.0
 11
9.825
 21
26.0464186029
 31
0.0
  0
LINE
  5
14D
330
1F
100
AcDbEntity
  8
SK3
  6
SLD-Dashed
370
    18
100
AcDbLine
 10
9.825
 20
26.0464186029
 30
0.0
 11
9.4270514244
 21
26.1027957316
 31
0.0
  0
LINE
  5
14E
330
1F
100
AcDbEntity
  8
SK3
  6
SLD-Dashed
370
    18
100
AcDbLine
 10
9.4270514244
 20
26.1027957316
 30
0.0
 11
9.0
 21
26.1220249204
 31
0.0
  0
LINE
  5
14F
330
1F
100
AcDbEntity
  8
SK3
  6
SLD-Dashed
370
    18
100
AcDbLine
 10
2.3207095254
 20
22.8264256948
 30
0.0
 11
2.4283332575
 21
22.823440645
 31
0.0
  0
LINE
  5
150
330
1F
100
AcDbEntity
  8
SK3
  6
SLD-Dashed
370
    18
100
AcDbLine
 10
2.4283332575
 20
22.823440645
 30
0.0
 11
2.5919942545
 21
22.9153006134
 31
0.0
  0
LINE
  5
151
330
1F
100
AcDbEntity
  8
SK3
  6
SLD-Dashed
370
    18
100
AcDbLine
 10
2.5919942545
 20
22.9153006134
 30
0.0
 11
2.8021811341
 21
23.0966670324
 31
0.0
  0
LINE
  5
152
330
1F
100
AcDbEntity
  8
SK3
  6
SLD-Dashed
370
    18
100
AcDbLine
 10
2.8021811341
 20
23.0966670324
 30
0.0
 11
3.0466785988
 21
23.3569995452
 31
0.0
  0
LINE
  5
153
330
1F
100
AcDbEntity
  8
SK3
  6
SLD-Dashed
370
    18
100
AcDbLine
 10
3.0466785988
 20
23.3569995452
 30
0.0
 11
3.3112773447
 21
23.6811685723
 31
0.0
  0
LINE
  5
154
330
1F
100
AcDbEntity
  8
SK3
  6
SLD-Dashed
370
    18
100
AcDbLine
 10
3.3112773447
 20
23.6811685723
 30
0.0
 11
3.5805998545
 21
24.0503345881
 31
0.0
  0
LINE
  5
155
330
1F
100
AcDbEntity
  8
SK3
  6
SLD-Dashed
370
    18
100
AcDbLine
 10
3.5805998545
 20
24.0503345881
 30
0.0
 11
3.8389940828
 21
24.4430430056
 31
0.0
  0
LINE
  5
156
330
1F
100
AcDbEntity
  8
SK3
  6
SLD-Dashed
370
    18
100
AcDbLine
 10
3.8389940828
 20
24.4430430056
 30
0.0
 11
4.0714430963
 21
24.8364710392
 31
0.0
  0
LINE
  5
157
330
1F
100
AcDbEntity
  8
SK3
  6
SLD-Dashed
370
    18
100
AcDbLine
 10
4.0714430963
 20
24.8364710392
 30
0.0
 11
4.2644378033
 21
25.2077540815
 31
0.0
  0
LINE
  5
158
330
1F
100
AcDbEntity
  8
SK3
  6
SLD-Dashed
370
    18
100
AcDbLine
 10
4.2644378033
 20
25.2077540815
 30
0.0
 11
4.406762053
 21
25.5353145117
 31
0.0
  0
LINE
  5
159
330
1F
100
AcDbEntity
  8
SK3
  6
SLD-Dashed
370
    18
100
AcDbLine
 10
4.406762053
 20
25.5353145117
 30
0.0
 11
4.4901444771
 21
25.8001157082
 31
0.0
  0
LINE
  5
15A
330
1F
100
AcDbEntity
  8
SK3
  6
SLD-Dashed
370
    18
100
AcDbLine
 10
4.4901444771
 20
25.8001157082
 30
0.0
 11
4.5097391924
 21
25.9867683879
 31
0.0
  0
LINE
  5
15B
330
1F
100
AcDbEntity
  8
SK3
  6
SLD-Dashed
370
    18
100
AcDbLine
 10
4.5097391924
 20
25.9867683879
 30
0.0
 11
4.4644074252
 21
26.0844249757
 31
0.0
  0
LINE
  5
15C
330
1F
100
AcDbEntity
  8
SK3
  6
SLD-Dashed
370
    18
100
AcDbLine
 10
4.4644074252
 20
26.0844249757
 30
0.0
 11
4.3567836931
 21
26.0874100255
 31
0.0
  0
LINE
  5
15D
330
1F
100
AcDbEntity
  8
SK3
  6
SLD-Dashed
370
    18
100
AcDbLine
 10
4.3567836931
 20
26.0874100255
 30
0.0
 11
4.1931226961
 21
25.9955500571
 31
0.0
  0
LINE
  5
15E
330
1F
100
AcDbEntity
  8
SK3
  6
SLD-Dashed
370
    18
100
AcDbLine
 10
4.1931226961
 20
25.9955500571
 30
0.0
 11
3.9829358165
 21
25.814183638
 31
0.0
  0
LINE
  5
15F
330
1F
100
AcDbEntity
  8
SK3
  6
SLD-Dashed
370
    18
100
AcDbLine
 10
3.9829358165
 20
25.814183638
 30
0.0
 11
3.7384383518
 21
25.5538511253
 31
0.0
  0
LINE
  5
160
330
1F
100
AcDbEntity
  8
SK3
  6
SLD-Dashed
370
    18
100
AcDbLine
 10
3.7384383518
 20
25.5538511253
 30
0.0
 11
3.4738396059
 21
25.2296820982
 31
0.0
  0
LINE
  5
161
330
1F
100
AcDbEntity
  8
SK3
  6
SLD-Dashed
370
    18
100
AcDbLine
 10
3.4738396059
 20
25.2296820982
 30
0.0
 11
3.2045170961
 21
24.8605160824
 31
0.0
  0
LINE
  5
162
330
1F
100
AcDbEntity
  8
SK3
  6
SLD-Dashed
370
    18
100
AcDbLine
 10
3.2045170961
 20
24.8605160824
 30
0.0
 11
2.9461228678
 21
24.4678076648
 31
0.0
  0
LINE
  5
163
330
1F
100
AcDbEntity
  8
SK3
  6
SLD-Dashed
370
    18
100
AcDbLine
 10
2.9461228678
 20
24.4678076648
 30
0.0
 11
2.7136738542
 21
24.0743796312
 31
0.0
  0
LINE
  5
164
330
1F
100
AcDbEntity
  8
SK3
  6
SLD-Dashed
370
    18
100
AcDbLine
 10
2.7136738542
 20
24.0743796312
 30
0.0
 11
2.5206791472
 21
23.7030965889
 31
0.0
  0
LINE
  5
165
330
1F
100
AcDbEntity
  8
SK3
  6
SLD-Dashed
370
    18
100
AcDbLine
 10
2.5206791472
 20
23.7030965889
 30
0.0
 11
2.3783548976
 21
23.3755361588
 31
0.0
  0
LINE
  5
166
330
1F
100
AcDbEntity
  8
SK3
  6
SLD-Dashed
370
    18
100
AcDbLine
 10
2.3783548976
 20
23.3755361588
 30
0.0
 11
2.2949724735
 21
23.1107349623
 31
0.0
  0
LINE
  5
167
330
1F
100
AcDbEntity
  8
SK3
  6
SLD-Dashed
370
    18
100
AcDbLine
 10
2.2949724735
 20
23.1107349623
 30
0.0
 11
2.2753777582
 21
22.9240822825
 31
0.0
  0
LINE
  5
168
330
1F
100
AcDbEntity
  8
SK3
  6
SLD-Dashed
370
    18
100
AcDbLine
 10
2.2753777582
 20
22.9240822825
 30
0.0
 11
2.3207095254
 21
22.8264256948
 31
0.0
  0
LINE
  5
169
330
1F
100
AcDbEntity
  8
SK3
  6
SLD-Dashed
370
    18
100
AcDbLine
 10
13.5430925321
 20
15.4423237325
 30
0.0
 11
13.6507162643
 21
15.4393386827
 31
0.0
  0
LINE
  5
16A
330
1F
100
AcDbEntity
  8
SK3
  6
SLD-Dashed
370
    18
100
AcDbLine
 10
13.6507162643
 20
15.4393386827
 30
0.0
 11
13.8143772613
 21
15.531198651
 31
0.0
  0
LINE
  5
16B
330
1F
100
AcDbEntity
  8
SK3
  6
SLD-Dashed
370
    18
100
AcDbLine
 10
13.8143772613
 20
15.531198651
 30
0.0
 11
14.0245641408
 21
15.7125650701
 31
0.0
  0
LINE
  5
16C
330
1F
100
AcDbEntity
  8
SK3
  6
SLD-Dashed
370
    18
100
AcDbLine
 10
14.0245641408
 20
15.7125650701
 30
0.0
 11
14.2690616055
 21
15.9728975829
 31
0.0
  0
LINE
  5
16D
330
1F
100
AcDbEntity
  8
SK3
  6
SLD-Dashed
370
    18
100
AcDbLine
 10
14.2690616055
 20
15.9728975829
 30
0.0
 11
14.5336603515
 21
16.2970666099
 31
0.0
  0
LINE
  5
16E
330
1F
100
AcDbEntity
  8
SK3
  6
SLD-Dashed
370
    18
100
AcDbLine
 10
14.5336603515
 20
16.2970666099
 30
0.0
 11
14.8029828612
 21
16.6662326257
 31
0.0
  0
LINE
  5
16F
330
1F
100
AcDbEntity
  8
SK3
  6
SLD-Dashed
370
    18
100
AcDbLine
 10
14.8029828612
 20
16.6662326257
 30
0.0
 11
15.0613770896
 21
17.0589410433
 31
0.0
  0
LINE
  5
170
330
1F
100
AcDbEntity
  8
SK3
  6
SLD-Dashed
370
    18
100
AcDbLine
 10
15.0613770896
 20
17.0589410433
 30
0.0
 11
15.2938261031
 21
17.4523690769
 31
0.0
  0
LINE
  5
171
330
1F
100
AcDbEntity
  8
SK3
  6
SLD-Dashed
370
    18
100
AcDbLine
 10
15.2938261031
 20
17.4523690769
 30
0.0
 11
15.4868208101
 21
17.8236521192
 31
0.0
  0
LINE
  5
172
330
1F
100
AcDbEntity
  8
SK3
  6
SLD-Dashed
370
    18
100
AcDbLine
 10
15.4868208101
 20
17.8236521192
 30
0.0
 11
15.6291450597
 21
18.1512125494
 31
0.0
  0
LINE
  5
173
330
1F
100
AcDbEntity
  8
SK3
  6
SLD-Dashed
370
    18
100
AcDbLine
 10
15.6291450597
 20
18.1512125494
 30
0.0
 11
15.7125274839
 21
18.4160137459
 31
0.0
  0
LINE
  5
174
330
1F
100
AcDbEntity
  8
SK3
  6
SLD-Dashed
370
    18
100
AcDbLine
 10
15.7125274839
 20
18.4160137459
 30
0.0
 11
15.7321221992
 21
18.6026664256
 31
0.0
  0
LINE
  5
175
330
1F
100
AcDbEntity
  8
SK3
  6
SLD-Dashed
370
    18
100
AcDbLine
 10
15.7321221992
 20
18.6026664256
 30
0.0
 11
15.686790432
 21
18.7003230133
 31
0.0
  0
LINE
  5
176
330
1F
100
AcDbEntity
  8
SK3
  6
SLD-Dashed
370
    18
100
AcDbLine
 10
15.686790432
 20
18.7003230133
 30
0.0
 11
15.5791666998
 21
18.7033080631
 31
0.0
  0
LINE
  5
177
330
1F
100
AcDbEntity
  8
SK3
  6
SLD-Dashed
370
    18
100
AcDbLine
 10
15.5791666998
 20
18.7033080631
 30
0.0
 11
15.4155057028
 21
18.6114480948
 31
0.0
  0
LINE
  5
178
330
1F
100
AcDbEntity
  8
SK3
  6
SLD-Dashed
370
    18
100
AcDbLine
 10
15.4155057028
 20
18.6114480948
 30
0.0
 11
15.2053188233
 21
18.4300816757
 31
0.0
  0
LINE
  5
179
330
1F
100
AcDbEntity
  8
SK3
  6
SLD-Dashed
370
    18
100
AcDbLine
 10
15.2053188233
 20
18.4300816757
 30
0.0
 11
14.9608213586
 21
18.1697491629
 31
0.0
  0
LINE
  5
17A
330
1F
100
AcDbEntity
  8
SK3
  6
SLD-Dashed
370
    18
100
AcDbLine
 10
14.9608213586
 20
18.1697491629
 30
0.0
 11
14.6962226126
 21
17.8455801359
 31
0.0
  0
LINE
  5
17B
330
1F
100
AcDbEntity
  8
SK3
  6
SLD-Dashed
370
    18
100
AcDbLine
 10
14.6962226126
 20
17.8455801359
 30
0.0
 11
14.4269001029
 21
17.4764141201
 31
0.0
  0
LINE
  5
17C
330
1F
100
AcDbEntity
  8
SK3
  6
SLD-Dashed
370
    18
100
AcDbLine
 10
14.4269001029
 20
17.4764141201
 30
0.0
 11
14.1685058745
 21
17.0837057025
 31
0.0
  0
LINE
  5
17D
330
1F
100
AcDbEntity
  8
SK3
  6
SLD-Dashed
370
    18
100
AcDbLine
 10
14.1685058745
 20
17.0837057025
 30
0.0
 11
13.936056861
 21
16.6902776689
 31
0.0
  0
LINE
  5
17E
330
1F
100
AcDbEntity
  8
SK3
  6
SLD-Dashed
370
    18
100
AcDbLine
 10
13.936056861
 20
16.6902776689
 30
0.0
 11
13.743062154
 21
16.3189946266
 31
0.0
  0
LINE
  5
17F
330
1F
100
AcDbEntity
  8
SK3
  6
SLD-Dashed
370
    18
100
AcDbLine
 10
13.743062154
 20
16.3189946266
 30
0.0
 11
13.6007379044
 21
15.9914341964
 31
0.0
  0
LINE
  5
180
330
1F
100
AcDbEntity
  8
SK3
  6
SLD-Dashed
370
    18
100
AcDbLine
 10
13.6007379044
 20
15.9914341964
 30
0.0
 11
13.5173554802
 21
15.726633
 31
0.0
  0
LINE
  5
181
330
1F
100
AcDbEntity
  8
SK3
  6
SLD-Dashed
370
    18
100
AcDbLine
 10
13.5173554802
 20
15.726633
 30
0.0
 11
13.4977607649
 21
15.5399803202
 31
0.0
  0
LINE
  5
182
330
1F
100
AcDbEntity
  8
SK3
  6
SLD-Dashed
370
    18
100
AcDbLine
 10
13.4977607649
 20
15.5399803202
 30
0.0
 11
13.5430925321
 21
15.4423237325
 31
0.0
  0
LINE
  5
183
330
1F
100
AcDbEntity
  8
SK3
  6
SLD-Dashed
370
    18
100
AcDbLine
 10
-63.65
 20
8.505
 30
0.0
 11
-63.65
 21
-8.505
 31
0.0
  0
LINE
  5
184
330
1F
100
AcDbEntity
  8
SK3
  6
SLD-Dashed
370
    18
100
AcDbLine
 10
-65.4
 20
-9.5153629711
 30
0.0
 11
-65.4
 21
9.5153629711
 31
0.0
  0
LINE
  5
185
330
1F
100
AcDbEntity
  8
SK3
  6
SLD-Dashed
370
    18
100
AcDbLine
 10
28.34
 20
-9.25
 30
0.0
 11
28.34
 21
9.25
 31
0.0
  0
LINE
  5
186
330
1F
100
AcDbEntity
  8
SK3
  6
SLD-Dashed
370
    18
100
AcDbLine
 10
33.34
 20
-9.25
 30
0.0
 11
33.34
 21
9.25
 31
0.0
  0
LINE
  5
187
330
1F
100
AcDbEntity
  8
SK3
  6
SLD-Dashed
370
    18
100
AcDbLine
 10
27.739139381
 20
-8.25
 30
0.0
 11
27.739139381
 21
8.25
 31
0.0
  0
LINE
  5
188
330
1F
100
AcDbEntity
  8
SK3
  6
SLD-Dashed
370
    18
100
AcDbLine
 10
-59.15
 20
8.8
 30
0.0
 11
-59.15
 21
-8.8
 31
0.0
  0
LINE
  5
189
330
1F
100
AcDbEntity
  8
SK3
  6
SLD-Dashed
370
    18
100
AcDbLine
 10
-59.6609549882
 20
8.505
 30
0.0
 11
-59.6609549882
 21
-8.505
 31
0.0
  0
LINE
  5
18A
330
1F
100
AcDbEntity
  8
SK3
  6
SLD-Dashed
370
    18
100
AcDbLine
 10
-56.15
 20
8.8
 30
0.0
 11
-56.15
 21
-8.8
 31
0.0
  0
LINE
  5
18B
330
1F
100
AcDbEntity
  8
SK3
  6
SLD-Dashed
370
    18
100
AcDbLine
 10
-55.1107695155
 20
7.0
 30
0.0
 11
-55.1107695155
 21
-7.0
 31
0.0
  0
LINE
  5
18C
330
1F
100
AcDbEntity
  8
SK3
  6
SLD-Dashed
370
    18
100
AcDbLine
 10
-26.66
 20
-8.25
 30
0.0
 11
-26.66
 21
8.25
 31
0.0
  0
LINE
  5
18D
330
1F
100
AcDbEntity
  8
SK3
  6
SLD-Dashed
370
    18
100
AcDbLine
 10
-27.4110757738
 20
-7.0
 30
0.0
 11
-27.4110757738
 21
7.0
 31
0.0
  0
LINE
  5
18E
330
1F
100
AcDbEntity
  8
SK3
  6
SLD-Dashed
370
    18
100
AcDbLine
 10
4.4644074252
 20
-26.0844249757
 30
0.0
 11
4.3567836931
 21
-26.0874100255
 31
0.0
  0
LINE
  5
18F
330
1F
100
AcDbEntity
  8
SK3
  6
SLD-Dashed
370
    18
100
AcDbLine
 10
4.3567836931
 20
-26.0874100255
 30
0.0
 11
4.1931226961
 21
-25.9955500571
 31
0.0
  0
LINE
  5
190
330
1F
100
AcDbEntity
  8
SK3
  6
SLD-Dashed
370
    18
100
AcDbLine
 10
4.1931226961
 20
-25.9955500571
 30
0.0
 11
3.9829358165
 21
-25.814183638
 31
0.0
  0
LINE
  5
191
330
1F
100
AcDbEntity
  8
SK3
  6
SLD-Dashed
370
    18
100
AcDbLine
 10
3.9829358165
 20
-25.814183638
 30
0.0
 11
3.7384383518
 21
-25.5538511253
 31
0.0
  0
LINE
  5
192
330
1F
100
AcDbEntity
  8
SK3
  6
SLD-Dashed
370
    18
100
AcDbLine
 10
3.7384383518
 20
-25.5538511253
 30
0.0
 11
3.4738396059
 21
-25.2296820982
 31
0.0
  0
LINE
  5
193
330
1F
100
AcDbEntity
  8
SK3
  6
SLD-Dashed
370
    18
100
AcDbLine
 10
3.4738396059
 20
-25.2296820982
 30
0.0
 11
3.2045170961
 21
-24.8605160824
 31
0.0
  0
LINE
  5
194
330
1F
100
AcDbEntity
  8
SK3
  6
SLD-Dashed
370
    18
100
AcDbLine
 10
3.2045170961
 20
-24.8605160824
 30
0.0
 11
2.9461228678
 21
-24.4678076648
 31
0.0
  0
LINE
  5
195
330
1F
100
AcDbEntity
  8
SK3
  6
SLD-Dashed
370
    18
100
AcDbLine
 10
2.9461228678
 20
-24.4678076648
 30
0.0
 11
2.7136738542
 21
-24.0743796312
 31
0.0
  0
LINE
  5
196
330
1F
100
AcDbEntity
  8
SK3
  6
SLD-Dashed
370
    18
100
AcDbLine
 10
2.7136738542
 20
-24.0743796312
 30
0.0
 11
2.5206791472
 21
-23.7030965889
 31
0.0
  0
LINE
  5
197
330
1F
100
AcDbEntity
  8
SK3
  6
SLD-Dashed
370
    18
100
AcDbLine
 10
2.5206791472
 20
-23.7030965889
 30
0.0
 11
2.3783548976
 21
-23.3755361588
 31
0.0
  0
LINE
  5
198
330
1F
100
AcDbEntity
  8
SK3
  6
SLD-Dashed
370
    18
100
AcDbLine
 10
2.3783548976
 20
-23.3755361588
 30
0.0
 11
2.2949724735
 21
-23.1107349623
 31
0.0
  0
LINE
  5
199
330
1F
100
AcDbEntity
  8
SK3
  6
SLD-Dashed
370
    18
100
AcDbLine
 10
2.2949724735
 20
-23.1107349623
 30
0.0
 11
2.2753777582
 21
-22.9240822825
 31
0.0
  0
LINE
  5
19A
330
1F
100
AcDbEntity
  8
SK3
  6
SLD-Dashed
370
    18
100
AcDbLine
 10
2.2753777582
 20
-22.9240822825
 30
0.0
 11
2.3207095254
 21
-22.8264256948
 31
0.0
  0
LINE
  5
19B
330
1F
100
AcDbEntity
  8
SK3
  6
SLD-Dashed
370
    18
100
AcDbLine
 10
2.3207095254
 20
-22.8264256948
 30
0.0
 11
2.4283332575
 21
-22.823440645
 31
0.0
  0
LINE
  5
19C
330
1F
100
AcDbEntity
  8
SK3
  6
SLD-Dashed
370
    18
100
AcDbLine
 10
2.4283332575
 20
-22.823440645
 30
0.0
 11
2.5919942545
 21
-22.9153006134
 31
0.0
  0
LINE
  5
19D
330
1F
100
AcDbEntity
  8
SK3
  6
SLD-Dashed
370
    18
100
AcDbLine
 10
2.5919942545
 20
-22.9153006134
 30
0.0
 11
2.8021811341
 21
-23.0966670324
 31
0.0
  0
LINE
  5
19E
330
1F
100
AcDbEntity
  8
SK3
  6
SLD-Dashed
370
    18
100
AcDbLine
 10
2.8021811341
 20
-23.0966670324
 30
0.0
 11
3.0466785988
 21
-23.3569995452
 31
0.0
  0
LINE
  5
19F
330
1F
100
AcDbEntity
  8
SK3
  6
SLD-Dashed
370
    18
100
AcDbLine
 10
3.0466785988
 20
-23.3569995452
 30
0.0
 11
3.3112773447
 21
-23.6811685723
 31
0.0
  0
LINE
  5
1A0
330
1F
100
AcDbEntity
  8
SK3
  6
SLD-Dashed
370
    18
100
AcDbLine
 10
3.3112773447
 20
-23.6811685723
 30
0.0
 11
3.5805998545
 21
-24.0503345881
 31
0.0
  0
LINE
  5
1A1
330
1F
100
AcDbEntity
  8
SK3
  6
SLD-Dashed
370
    18
100
AcDbLine
 10
3.5805998545
 20
-24.0503345881
 30
0.0
 11
3.8389940828
 21
-24.4430430056
 31
0.0
  0
LINE
  5
1A2
330
1F
100
AcDbEntity
  8
SK3
  6
SLD-Dashed
370
    18
100
AcDbLine
 10
3.8389940828
 20
-24.4430430056
 30
0.0
 11
4.0714430963
 21
-24.8364710392
 31
0.0
  0
LINE
  5
1A3
330
1F
100
AcDbEntity
  8
SK3
  6
SLD-Dashed
370
    18
100
AcDbLine
 10
4.0714430963
 20
-24.8364710392
 30
0.0
 11
4.2644378033
 21
-25.2077540815
 31
0.0
  0
LINE
  5
1A4
330
1F
100
AcDbEntity
  8
SK3
  6
SLD-Dashed
370
    18
100
AcDbLine
 10
4.2644378033
 20
-25.2077540815
 30
0.0
 11
4.406762053
 21
-25.5353145117
 31
0.0
  0
LINE
  5
1A5
330
1F
100
AcDbEntity
  8
SK3
  6
SLD-Dashed
370
    18
100
AcDbLine
 10
4.406762053
 20
-25.5353145117
 30
0.0
 11
4.4901444771
 21
-25.8001157082
 31
0.0
  0
LINE
  5
1A6
330
1F
100
AcDbEntity
  8
SK3
  6
SLD-Dashed
370
    18
100
AcDbLine
 10
4.4901444771
 20
-25.8001157082
 30
0.0
 11
4.5097391924
 21
-25.9867683879
 31
0.0
  0
LINE
  5
1A7
330
1F
100
AcDbEntity
  8
SK3
  6
SLD-Dashed
370
    18
100
AcDbLine
 10
4.5097391924
 20
-25.9867683879
 30
0.0
 11
4.4644074252
 21
-26.0844249757
 31
0.0
  0
LINE
  5
1A8
330
1F
100
AcDbEntity
  8
SK3
  6
SLD-Dashed
370
    18
100
AcDbLine
 10
15.686790432
 20
-18.7003230133
 30
0.0
 11
15.5791666998
 21
-18.7033080631
 31
0.0
  0
LINE
  5
1A9
330
1F
100
AcDbEntity
  8
SK3
  6
SLD-Dashed
370
    18
100
AcDbLine
 10
15.5791666998
 20
-18.7033080631
 30
0.0
 11
15.4155057028
 21
-18.6114480948
 31
0.0
  0
LINE
  5
1AA
330
1F
100
AcDbEntity
  8
SK3
  6
SLD-Dashed
370
    18
100
AcDbLine
 10
15.4155057028
 20
-18.6114480948
 30
0.0
 11
15.2053188233
 21
-18.4300816757
 31
0.0
  0
LINE
  5
1AB
330
1F
100
AcDbEntity
  8
SK3
  6
SLD-Dashed
370
    18
100
AcDbLine
 10
15.2053188233
 20
-18.4300816757
 30
0.0
 11
14.9608213586
 21
-18.1697491629
 31
0.0
  0
LINE
  5
1AC
330
1F
100
AcDbEntity
  8
SK3
  6
SLD-Dashed
370
    18
100
AcDbLine
 10
14.9608213586
 20
-18.1697491629
 30
0.0
 11
14.6962226126
 21
-17.8455801359
 31
0.0
  0
LINE
  5
1AD
330
1F
100
AcDbEntity
  8
SK3
  6
SLD-Dashed
370
    18
100
AcDbLine
 10
14.6962226126
 20
-17.8455801359
 30
0.0
 11
14.4269001029
 21
-17.4764141201
 31
0.0
  0
LINE
  5
1AE
330
1F
100
AcDbEntity
  8
SK3
  6
SLD-Dashed
370
    18
100
AcDbLine
 10
14.4269001029
 20
-17.4764141201
 30
0.0
 11
14.1685058745
 21
-17.0837057025
 31
0.0
  0
LINE
  5
1AF
330
1F
100
AcDbEntity
  8
SK3
  6
SLD-Dashed
370
    18
100
AcDbLine
 10
14.1685058745
 20
-17.0837057025
 30
0.0
 11
13.936056861
 21
-16.6902776689
 31
0.0
  0
LINE
  5
1B0
330
1F
100
AcDbEntity
  8
SK3
  6
SLD-Dashed
370
    18
100
AcDbLine
 10
13.936056861
 20
-16.6902776689
 30
0.0
 11
13.743062154
 21
-16.3189946266
 31
0.0
  0
LINE
  5
1B1
330
1F
100
AcDbEntity
  8
SK3
  6
SLD-Dashed
370
    18
100
AcDbLine
 10
13.743062154
 20
-16.3189946266
 30
0.0
 11
13.6007379044
 21
-15.9914341964
 31
0.0
  0
LINE
  5
1B2
330
1F
100
AcDbEntity
  8
SK3
  6
SLD-Dashed
370
    18
100
AcDbLine
 10
13.6007379044
 20
-15.9914341964
 30
0.0
 11
13.5173554802
 21
-15.726633
 31
0.0
  0
LINE
  5
1B3
330
1F
100
AcDbEntity
  8
SK3
  6
SLD-Dashed
370
    18
100
AcDbLine
 10
13.5173554802
 20
-15.726633
 30
0.0
 11
13.4977607649
 21
-15.5399803202
 31
0.0
  0
LINE
  5
1B4
330
1F
100
AcDbEntity
  8
SK3
  6
SLD-Dashed
370
    18
100
AcDbLine
 10
13.4977607649
 20
-15.5399803202
 30
0.0
 11
13.5430925321
 21
-15.4423237325
 31
0.0
  0
LINE
  5
1B5
330
1F
100
AcDbEntity
  8
SK3
  6
SLD-Dashed
370
    18
100
AcDbLine
 10
13.5430925321
 20
-15.4423237325
 30
0.0
 11
13.6507162643
 21
-15.4393386827
 31
0.0
  0
LINE
  5
1B6
330
1F
100
AcDbEntity
  8
SK3
  6
SLD-Dashed
370
    18
100
AcDbLine
 10
13.6507162643
 20
-15.4393386827
 30
0.0
 11
13.8143772613
 21
-15.531198651
 31
0.0
  0
LINE
  5
1B7
330
1F
100
AcDbEntity
  8
SK3
  6
SLD-Dashed
370
    18
100
AcDbLine
 10
13.8143772613
 20
-15.531198651
 30
0.0
 11
14.0245641408
 21
-15.7125650701
 31
0.0
  0
LINE
  5
1B8
330
1F
100
AcDbEntity
  8
SK3
  6
SLD-Dashed
370
    18
100
AcDbLine
 10
14.0245641408
 20
-15.7125650701
 30
0.0
 11
14.2690616055
 21
-15.9728975829
 31
0.0
  0
LINE
  5
1B9
330
1F
100
AcDbEntity
  8
SK3
  6
SLD-Dashed
370
    18
100
AcDbLine
 10
14.2690616055
 20
-15.9728975829
 30
0.0
 11
14.5336603515
 21
-16.2970666099
 31
0.0
  0
LINE
  5
1BA
330
1F
100
AcDbEntity
  8
SK3
  6
SLD-Dashed
370
    18
100
AcDbLine
 10
14.5336603515
 20
-16.2970666099
 30
0.0
 11
14.8029828612
 21
-16.6662326257
 31
0.0
  0
LINE
  5
1BB
330
1F
100
AcDbEntity
  8
SK3
  6
SLD-Dashed
370
    18
100
AcDbLine
 10
14.8029828612
 20
-16.6662326257
 30
0.0
 11
15.0613770896
 21
-17.0589410433
 31
0.0
  0
LINE
  5
1BC
330
1F
100
AcDbEntity
  8
SK3
  6
SLD-Dashed
370
    18
100
AcDbLine
 10
15.0613770896
 20
-17.0589410433
 30
0.0
 11
15.2938261031
 21
-17.4523690769
 31
0.0
  0
LINE
  5
1BD
330
1F
100
AcDbEntity
  8
SK3
  6
SLD-Dashed
370
    18
100
AcDbLine
 10
15.2938261031
 20
-17.4523690769
 30
0.0
 11
15.4868208101
 21
-17.8236521192
 31
0.0
  0
LINE
  5
1BE
330
1F
100
AcDbEntity
  8
SK3
  6
SLD-Dashed
370
    18
100
AcDbLine
 10
15.4868208101
 20
-17.8236521192
 30
0.0
 11
15.6291450597
 21
-18.1512125494
 31
0.0
  0
LINE
  5
1BF
330
1F
100
AcDbEntity
  8
SK3
  6
SLD-Dashed
370
    18
100
AcDbLine
 10
15.6291450597
 20
-18.1512125494
 30
0.0
 11
15.7125274839
 21
-18.4160137459
 31
0.0
  0
LINE
  5
1C0
330
1F
100
AcDbEntity
  8
SK3
  6
SLD-Dashed
370
    18
100
AcDbLine
 10
15.7125274839
 20
-18.4160137459
 30
0.0
 11
15.7321221992
 21
-18.6026664256
 31
0.0
  0
LINE
  5
1C1
330
1F
100
AcDbEntity
  8
SK3
  6
SLD-Dashed
370
    18
100
AcDbLine
 10
15.7321221992
 20
-18.6026664256
 30
0.0
 11
15.686790432
 21
-18.7003230133
 31
0.0
  0
LINE
  5
1C2
330
1F
100
AcDbEntity
  8
SK3
  6
SLD-Dashed
370
    18
100
AcDbLine
 10
9.0
 20
-24.3375212143
 30
0.0
 11
8.5729485756
 21
-24.3567504031
 31
0.0
  0
LINE
  5
1C3
330
1F
100
AcDbEntity
  8
SK3
  6
SLD-Dashed
370
    18
100
AcDbLine
 10
8.5729485756
 20
-24.3567504031
 30
0.0
 11
8.175
 21
-24.4131275318
 31
0.0
  0
LINE
  5
1C4
330
1F
100
AcDbEntity
  8
SK3
  6
SLD-Dashed
370
    18
100
AcDbLine
 10
8.175
 20
-24.4131275318
 30
0.0
 11
7.833273811
 21
-24.5028105925
 31
0.0
  0
LINE
  5
1C5
330
1F
100
AcDbEntity
  8
SK3
  6
SLD-Dashed
370
    18
100
AcDbLine
 10
7.833273811
 20
-24.5028105925
 30
0.0
 11
7.5710580838
 21
-24.6196878326
 31
0.0
  0
LINE
  5
1C6
330
1F
100
AcDbEntity
  8
SK3
  6
SLD-Dashed
370
    18
100
AcDbLine
 10
7.5710580838
 20
-24.6196878326
 30
0.0
 11
7.4062223866
 21
-24.7557942614
 31
0.0
  0
LINE
  5
1C7
330
1F
100
AcDbEntity
  8
SK3
  6
SLD-Dashed
370
    18
100
AcDbLine
 10
7.4062223866
 20
-24.7557942614
 30
0.0
 11
7.35
 21
-24.9018544508
 31
0.0
  0
LINE
  5
1C8
330
1F
100
AcDbEntity
  8
SK3
  6
SLD-Dashed
370
    18
100
AcDbLine
 10
7.35
 20
-24.9018544508
 30
0.0
 11
7.4062223866
 21
-25.0479146402
 31
0.0
  0
LINE
  5
1C9
330
1F
100
AcDbEntity
  8
SK3
  6
SLD-Dashed
370
    18
100
AcDbLine
 10
7.4062223866
 20
-25.0479146402
 30
0.0
 11
7.5710580838
 21
-25.1840210691
 31
0.0
  0
LINE
  5
1CA
330
1F
100
AcDbEntity
  8
SK3
  6
SLD-Dashed
370
    18
100
AcDbLine
 10
7.5710580838
 20
-25.1840210691
 30
0.0
 11
7.833273811
 21
-25.3008983092
 31
0.0
  0
LINE
  5
1CB
330
1F
100
AcDbEntity
  8
SK3
  6
SLD-Dashed
370
    18
100
AcDbLine
 10
7.833273811
 20
-25.3008983092
 30
0.0
 11
8.175
 21
-25.3905813698
 31
0.0
  0
LINE
  5
1CC
330
1F
100
AcDbEntity
  8
SK3
  6
SLD-Dashed
370
    18
100
AcDbLine
 10
8.175
 20
-25.3905813698
 30
0.0
 11
8.5729485756
 21
-25.4469584986
 31
0.0
  0
LINE
  5
1CD
330
1F
100
AcDbEntity
  8
SK3
  6
SLD-Dashed
370
    18
100
AcDbLine
 10
8.5729485756
 20
-25.4469584986
 30
0.0
 11
9.0
 21
-25.4661876873
 31
0.0
  0
LINE
  5
1CE
330
1F
100
AcDbEntity
  8
SK3
  6
SLD-Dashed
370
    18
100
AcDbLine
 10
9.0
 20
-25.4661876873
 30
0.0
 11
9.4270514244
 21
-25.4469584986
 31
0.0
  0
LINE
  5
1CF
330
1F
100
AcDbEntity
  8
SK3
  6
SLD-Dashed
370
    18
100
AcDbLine
 10
9.4270514244
 20
-25.4469584986
 30
0.0
 11
9.825
 21
-25.3905813698
 31
0.0
  0
LINE
  5
1D0
330
1F
100
AcDbEntity
  8
SK3
  6
SLD-Dashed
370
    18
100
AcDbLine
 10
9.825
 20
-25.3905813698
 30
0.0
 11
10.166726189
 21
-25.3008983092
 31
0.0
  0
LINE
  5
1D1
330
1F
100
AcDbEntity
  8
SK3
  6
SLD-Dashed
370
    18
100
AcDbLine
 10
10.166726189
 20
-25.3008983092
 30
0.0
 11
10.4289419162
 21
-25.1840210691
 31
0.0
  0
LINE
  5
1D2
330
1F
100
AcDbEntity
  8
SK3
  6
SLD-Dashed
370
    18
100
AcDbLine
 10
10.4289419162
 20
-25.1840210691
 30
0.0
 11
10.5937776134
 21
-25.0479146402
 31
0.0
  0
LINE
  5
1D3
330
1F
100
AcDbEntity
  8
SK3
  6
SLD-Dashed
370
    18
100
AcDbLine
 10
10.5937776134
 20
-25.0479146402
 30
0.0
 11
10.65
 21
-24.9018544508
 31
0.0
  0
LINE
  5
1D4
330
1F
100
AcDbEntity
  8
SK3
  6
SLD-Dashed
370
    18
100
AcDbLine
 10
10.65
 20
-24.9018544508
 30
0.0
 11
10.5937776134
 21
-24.7557942614
 31
0.0
  0
LINE
  5
1D5
330
1F
100
AcDbEntity
  8
SK3
  6
SLD-Dashed
370
    18
100
AcDbLine
 10
10.5937776134
 20
-24.7557942614
 30
0.0
 11
10.4289419162
 21
-24.6196878326
 31
0.0
  0
LINE
  5
1D6
330
1F
100
AcDbEntity
  8
SK3
  6
SLD-Dashed
370
    18
100
AcDbLine
 10
10.4289419162
 20
-24.6196878326
 30
0.0
 11
10.166726189
 21
-24.5028105925
 31
0.0
  0
LINE
  5
1D7
330
1F
100
AcDbEntity
  8
SK3
  6
SLD-Dashed
370
    18
100
AcDbLine
 10
10.166726189
 20
-24.5028105925
 30
0.0
 11
9.825
 21
-24.4131275318
 31
0.0
  0
LINE
  5
1D8
330
1F
100
AcDbEntity
  8
SK3
  6
SLD-Dashed
370
    18
100
AcDbLine
 10
9.825
 20
-24.4131275318
 30
0.0
 11
9.4270514244
 21
-24.3567504031
 31
0.0
  0
LINE
  5
1D9
330
1F
100
AcDbEntity
  8
SK3
  6
SLD-Dashed
370
    18
100
AcDbLine
 10
9.4270514244
 20
-24.3567504031
 30
0.0
 11
9.0
 21
-24.3375212143
 31
0.0
  0
LINE
  5
1DA
330
1F
100
AcDbEntity
  8
SK3
  6
SLD-Dashed
370
    18
100
AcDbLine
 10
4.5468573445
 20
-26.2097326403
 30
0.0
 11
4.4363764556
 21
-26.2146666928
 31
0.0
  0
LINE
  5
1DB
330
1F
100
AcDbEntity
  8
SK3
  6
SLD-Dashed
370
    18
100
AcDbLine
 10
4.4363764556
 20
-26.2146666928
 30
0.0
 11
4.2696230692
 21
-26.1247595884
 31
0.0
  0
LINE
  5
1DC
330
1F
100
AcDbEntity
  8
SK3
  6
SLD-Dashed
370
    18
100
AcDbLine
 10
4.2696230692
 20
-26.1247595884
 30
0.0
 11
4.0555869036
 21
-25.9448582422
 31
0.0
  0
LINE
  5
1DD
330
1F
100
AcDbEntity
  8
SK3
  6
SLD-Dashed
370
    18
100
AcDbLine
 10
4.0555869036
 20
-25.9448582422
 30
0.0
 11
3.8058067038
 21
-25.6846611825
 31
0.0
  0
LINE
  5
1DE
330
1F
100
AcDbEntity
  8
SK3
  6
SLD-Dashed
370
    18
100
AcDbLine
 10
3.8058067038
 20
-25.6846611825
 30
0.0
 11
3.533748185
 21
-25.3581957002
 31
0.0
  0
LINE
  5
1DF
330
1F
100
AcDbEntity
  8
SK3
  6
SLD-Dashed
370
    18
100
AcDbLine
 10
3.533748185
 20
-25.3581957002
 30
0.0
 11
3.2540780924
 21
-24.9830616337
 31
0.0
  0
LINE
  5
1E0
330
1F
100
AcDbEntity
  8
SK3
  6
SLD-Dashed
370
    18
100
AcDbLine
 10
3.2540780924
 20
-24.9830616337
 30
0.0
 11
2.9818735131
 21
-24.5794825579
 31
0.0
  0
LINE
  5
1E1
330
1F
100
AcDbEntity
  8
SK3
  6
SLD-Dashed
370
    18
100
AcDbLine
 10
2.9818735131
 20
-24.5794825579
 30
0.0
 11
2.7318090664
 21
-24.1692155251
 31
0.0
  0
LINE
  5
1E2
330
1F
100
AcDbEntity
  8
SK3
  6
SLD-Dashed
370
    18
100
AcDbLine
 10
2.7318090664
 20
-24.1692155251
 30
0.0
 11
2.5173657914
 21
-23.7743781372
 31
0.0
  0
LINE
  5
1E3
330
1F
100
AcDbEntity
  8
SK3
  6
SLD-Dashed
370
    18
100
AcDbLine
 10
2.5173657914
 20
-23.7743781372
 30
0.0
 11
2.3501043805
 21
-23.41625618
 31
0.0
  0
LINE
  5
1E4
330
1F
100
AcDbEntity
  8
SK3
  6
SLD-Dashed
370
    18
100
AcDbLine
 10
2.3501043805
 20
-23.41625618
 30
0.0
 11
2.2390419397
 21
-23.114156101
 31
0.0
  0
LINE
  5
1E5
330
1F
100
AcDbEntity
  8
SK3
  6
SLD-Dashed
370
    18
100
AcDbLine
 10
2.2390419397
 20
-23.114156101
 30
0.0
 11
2.1901658739
 21
-22.8843641936
 31
0.0
  0
LINE
  5
1E6
330
1F
100
AcDbEntity
  8
SK3
  6
SLD-Dashed
370
    18
100
AcDbLine
 10
2.1901658739
 20
-22.8843641936
 30
0.0
 11
2.2061111044
 21
-22.7392685989
 31
0.0
  0
LINE
  5
1E7
330
1F
100
AcDbEntity
  8
SK3
  6
SLD-Dashed
370
    18
100
AcDbLine
 10
2.2061111044
 20
-22.7392685989
 30
0.0
 11
2.2860180199
 21
-22.6866914582
 31
0.0
  0
LINE
  5
1E8
330
1F
100
AcDbEntity
  8
SK3
  6
SLD-Dashed
370
    18
100
AcDbLine
 10
2.2860180199
 20
-22.6866914582
 30
0.0
 11
2.4255788177
 21
-22.7294672186
 31
0.0
  0
LINE
  5
1E9
330
1F
100
AcDbEntity
  8
SK3
  6
SLD-Dashed
370
    18
100
AcDbLine
 10
2.4255788177
 20
-22.7294672186
 30
0.0
 11
2.6172697391
 21
-22.8652898277
 31
0.0
  0
LINE
  5
1EA
330
1F
100
AcDbEntity
  8
SK3
  6
SLD-Dashed
370
    18
100
AcDbLine
 10
2.6172697391
 20
-22.8652898277
 30
0.0
 11
2.850756677
 21
-23.0868370537
 31
0.0
  0
LINE
  5
1EB
330
1F
100
AcDbEntity
  8
SK3
  6
SLD-Dashed
370
    18
100
AcDbLine
 10
2.850756677
 20
-23.0868370537
 30
0.0
 11
3.11345229
 21
-23.3821652282
 31
0.0
  0
LINE
  5
1EC
330
1F
100
AcDbEntity
  8
SK3
  6
SLD-Dashed
370
    18
100
AcDbLine
 10
3.11345229
 20
-23.3821652282
 30
0.0
 11
3.3911945898
 21
-23.7353531329
 31
0.0
  0
LINE
  5
1ED
330
1F
100
AcDbEntity
  8
SK3
  6
SLD-Dashed
370
    18
100
AcDbLine
 10
3.3911945898
 20
-23.7353531329
 30
0.0
 11
3.669010417
 21
-24.1273603164
 31
0.0
  0
LINE
  5
1EE
330
1F
100
AcDbEntity
  8
SK3
  6
SLD-Dashed
370
    18
100
AcDbLine
 10
3.669010417
 20
-24.1273603164
 30
0.0
 11
3.9319226484
 21
-24.5370535699
 31
0.0
  0
LINE
  5
1EF
330
1F
100
AcDbEntity
  8
SK3
  6
SLD-Dashed
370
    18
100
AcDbLine
 10
3.9319226484
 20
-24.5370535699
 30
0.0
 11
4.1657576177
 21
-24.9423462242
 31
0.0
  0
LINE
  5
1F0
330
1F
100
AcDbEntity
  8
SK3
  6
SLD-Dashed
370
    18
100
AcDbLine
 10
4.1657576177
 20
-24.9423462242
 30
0.0
 11
4.357909221
 21
-25.3213888474
 31
0.0
  0
LINE
  5
1F1
330
1F
100
AcDbEntity
  8
SK3
  6
SLD-Dashed
370
    18
100
AcDbLine
 10
4.357909221
 20
-25.3213888474
 30
0.0
 11
4.4980185158
 21
-25.6537471534
 31
0.0
  0
LINE
  5
1F2
330
1F
100
AcDbEntity
  8
SK3
  6
SLD-Dashed
370
    18
100
AcDbLine
 10
4.4980185158
 20
-25.6537471534
 30
0.0
 11
4.5785321737
 21
-25.9215036201
 31
0.0
  0
LINE
  5
1F3
330
1F
100
AcDbEntity
  8
SK3
  6
SLD-Dashed
370
    18
100
AcDbLine
 10
4.5785321737
 20
-25.9215036201
 30
0.0
 11
4.5951096825
 21
-26.1102234269
 31
0.0
  0
LINE
  5
1F4
330
1F
100
AcDbEntity
  8
SK3
  6
SLD-Dashed
370
    18
100
AcDbLine
 10
4.5951096825
 20
-26.1102234269
 30
0.0
 11
4.5468573445
 21
-26.2097326403
 31
0.0
  0
LINE
  5
1F5
330
1F
100
AcDbEntity
  8
SK3
  6
SLD-Dashed
370
    18
100
AcDbLine
 10
2.0
 20
-27.8810933837
 30
0.0
 11
2.0
 21
-22.8623081388
 31
0.0
  0
LINE
  5
1F6
330
1F
100
AcDbEntity
  8
SK3
  6
SLD-Dashed
370
    18
100
AcDbLine
 10
13.7485088519
 20
-9.0
 30
0.0
 11
19.7485088519
 21
-9.0
 31
0.0
  0
LINE
  5
1F7
330
1F
100
AcDbEntity
  8
SK3
  6
SLD-Dashed
370
    18
100
AcDbLine
 10
19.7485088519
 20
9.0
 30
0.0
 11
13.7485088519
 21
9.0
 31
0.0
  0
LINE
  5
1F8
330
1F
100
AcDbEntity
  8
SK3
  6
SLD-Dashed
370
    18
100
AcDbLine
 10
13.7485088519
 20
9.0
 30
0.0
 11
12.7485088519
 21
8.0
 31
0.0
  0
LINE
  5
1F9
330
1F
100
AcDbEntity
  8
SK3
  6
SLD-Dashed
370
    18
100
AcDbLine
 10
12.7485088519
 20
-8.0
 30
0.0
 11
13.7485088519
 21
-9.0
 31
0.0
  0
LINE
  5
1FA
330
1F
100
AcDbEntity
  8
SK3
  6
SLD-Dashed
370
    18
100
AcDbLine
 10
19.7485088519
 20
-9.0
 30
0.0
 11
20.7485088519
 21
-8.0
 31
0.0
  0
LINE
  5
1FB
330
1F
100
AcDbEntity
  8
SK3
  6
SLD-Dashed
370
    18
100
AcDbLine
 10
20.7485088519
 20
8.0
 30
0.0
 11
19.7485088519
 21
9.0
 31
0.0
  0
LINE
  5
1FC
330
1F
100
AcDbEntity
  8
SK3
  6
SLD-Dashed
370
    18
100
AcDbLine
 10
7.0
 20
29.5765836097
 30
0.0
 11
7.0
 21
25.7475778095
 31
0.0
  0
LINE
  5
1FD
330
1F
100
AcDbEntity
  8
SK3
  6
SLD-Dashed
370
    18
100
AcDbLine
 10
11.0
 20
25.7475778095
 30
0.0
 11
11.0
 21
29.5752203942
 31
0.0
  0
LINE
  5
1FE
330
1F
100
AcDbEntity
  8
SK3
  6
SLD-Dashed
370
    18
100
AcDbLine
 10
57.479173101
 20
12.5
 30
0.0
 11
33.34
 21
9.1074604634
 31
0.0
  0
LINE
  5
1FF
330
1F
100
AcDbEntity
  8
SK3
  6
SLD-Dashed
370
    18
100
AcDbLine
 10
33.34
 20
-9.1074604634
 30
0.0
 11
57.479173101
 21
-12.5
 31
0.0
  0
LINE
  5
200
330
1F
100
AcDbEntity
  8
SK3
  6
SLD-Dashed
370
    18
100
AcDbLine
 10
2.0
 20
22.8578880517
 30
0.0
 11
2.2382596061
 21
22.7011180302
 31
0.0
  0
LINE
  5
201
330
1F
100
AcDbEntity
  8
SK3
  6
SLD-Dashed
370
    18
100
AcDbLine
 10
4.5468573445
 20
26.2097326403
 30
0.0
 11
2.0
 21
27.8855134708
 31
0.0
  0
LINE
  5
202
330
1F
100
AcDbEntity
  8
SK3
  6
SLD-Dashed
370
    18
100
AcDbLine
 10
7.4474833261
 20
25.3163485945
 30
0.0
 11
7.719173744
 21
25.2019275815
 31
0.0
  0
LINE
  5
203
330
1F
100
AcDbEntity
  8
SK3
  6
SLD-Dashed
370
    18
100
AcDbLine
 10
10.280826256
 20
25.2019275815
 30
0.0
 11
10.5525166739
 21
25.3163485945
 31
0.0
  0
LINE
  5
204
330
1F
100
AcDbEntity
  8
SK3
  6
SLD-Dashed
370
    18
100
AcDbLine
 10
7.35
 20
25.5576916839
 30
0.0
 11
7.35
 21
24.0782137397
 31
0.0
  0
LINE
  5
205
330
1F
100
AcDbEntity
  8
SK3
  6
SLD-Dashed
370
    18
100
AcDbLine
 10
10.65
 20
21.9120695751
 30
0.0
 11
10.65
 21
25.5576916839
 31
0.0
  0
LINE
  5
206
330
1F
100
AcDbEntity
  8
SK3
  6
SLD-Dashed
370
    18
100
AcDbLine
 10
10.5530882486
 20
17.4096863224
 30
0.0
 11
13.5430925321
 21
15.4423237325
 31
0.0
  0
LINE
  5
207
330
1F
100
AcDbEntity
  8
SK3
  6
SLD-Dashed
370
    18
100
AcDbLine
 10
2.3207095254
 20
22.8264256948
 30
0.0
 11
7.458905343
 21
19.4455963472
 31
0.0
  0
LINE
  5
208
330
1F
100
AcDbEntity
  8
SK3
  6
SLD-Dashed
370
    18
100
AcDbLine
 10
7.4616816698
 20
24.1122788978
 30
0.0
 11
4.4644074252
 21
26.0844249757
 31
0.0
  0
LINE
  5
209
330
1F
100
AcDbEntity
  8
SK3
  6
SLD-Dashed
370
    18
100
AcDbLine
 10
15.686790432
 20
18.7003230133
 30
0.0
 11
10.5469004204
 21
22.0822671065
 31
0.0
  0
LINE
  5
20A
330
1F
100
AcDbEntity
  8
SK3
  6
SLD-Dashed
370
    18
100
AcDbLine
 10
-65.4
 20
-9.5153629711
 30
0.0
 11
-63.65
 21
-8.505
 31
0.0
  0
LINE
  5
20B
330
1F
100
AcDbEntity
  8
SK3
  6
SLD-Dashed
370
    18
100
AcDbLine
 10
-63.65
 20
8.505
 30
0.0
 11
-65.4
 21
9.5153629711
 31
0.0
  0
LINE
  5
20C
330
1F
100
AcDbEntity
  8
SK3
  6
SLD-Dashed
370
    18
100
AcDbLine
 10
33.34
 20
9.25
 30
0.0
 11
28.34
 21
9.25
 31
0.0
  0
LINE
  5
20D
330
1F
100
AcDbEntity
  8
SK3
  6
SLD-Dashed
370
    18
100
AcDbLine
 10
28.34
 20
-9.25
 30
0.0
 11
33.34
 21
-9.25
 31
0.0
  0
LINE
  5
20E
330
1F
100
AcDbEntity
  8
SK3
  6
SLD-Dashed
370
    18
100
AcDbLine
 10
28.34
 20
9.25
 30
0.0
 11
27.739139381
 21
8.25
 31
0.0
  0
LINE
  5
20F
330
1F
100
AcDbEntity
  8
SK3
  6
SLD-Dashed
370
    18
100
AcDbLine
 10
27.739139381
 20
-8.25
 30
0.0
 11
28.34
 21
-9.25
 31
0.0
  0
LINE
  5
210
330
1F
100
AcDbEntity
  8
SK3
  6
SLD-Dashed
370
    18
100
AcDbLine
 10
7.35
 20
19.6209851702
 30
0.0
 11
7.35
 21
7.7515075769
 31
0.0
  0
LINE
  5
211
330
1F
100
AcDbEntity
  8
SK3
  6
SLD-Dashed
370
    18
100
AcDbLine
 10
10.65
 20
7.7487285197
 30
0.0
 11
10.65
 21
17.4508800412
 31
0.0
  0
LINE
  5
212
330
1F
100
AcDbEntity
  8
SK3
  6
SLD-Dashed
370
    18
100
AcDbLine
 10
-59.15
 20
8.8
 30
0.0
 11
-59.6609549882
 21
8.505
 31
0.0
  0
LINE
  5
213
330
1F
100
AcDbEntity
  8
SK3
  6
SLD-Dashed
370
    18
100
AcDbLine
 10
-59.6609549882
 20
-8.505
 30
0.0
 11
-59.15
 21
-8.8
 31
0.0
  0
LINE
  5
214
330
1F
100
AcDbEntity
  8
SK3
  6
SLD-Dashed
370
    18
100
AcDbLine
 10
-56.15
 20
-8.8
 30
0.0
 11
-55.1107695155
 21
-7.0
 31
0.0
  0
LINE
  5
215
330
1F
100
AcDbEntity
  8
SK3
  6
SLD-Dashed
370
    18
100
AcDbLine
 10
-55.1107695155
 20
7.0
 30
0.0
 11
-56.15
 21
8.8
 31
0.0
  0
LINE
  5
216
330
1F
100
AcDbEntity
  8
SK3
  6
SLD-Dashed
370
    18
100
AcDbLine
 10
-59.15
 20
-8.8
 30
0.0
 11
-56.15
 21
-8.8
 31
0.0
  0
LINE
  5
217
330
1F
100
AcDbEntity
  8
SK3
  6
SLD-Dashed
370
    18
100
AcDbLine
 10
-56.15
 20
8.8
 30
0.0
 11
-59.15
 21
8.8
 31
0.0
  0
LINE
  5
218
330
1F
100
AcDbEntity
  8
SK3
  6
SLD-Dashed
370
    18
100
AcDbLine
 10
-63.65
 20
-8.505
 30
0.0
 11
-59.6609549882
 21
-8.505
 31
0.0
  0
LINE
  5
219
330
1F
100
AcDbEntity
  8
SK3
  6
SLD-Dashed
370
    18
100
AcDbLine
 10
-59.6609549882
 20
8.505
 30
0.0
 11
-63.65
 21
8.505
 31
0.0
  0
LINE
  5
21A
330
1F
100
AcDbEntity
  8
SK3
  6
SLD-Dashed
370
    18
100
AcDbLine
 10
27.739139381
 20
8.25
 30
0.0
 11
-26.66
 21
8.25
 31
0.0
  0
LINE
  5
21B
330
1F
100
AcDbEntity
  8
SK3
  6
SLD-Dashed
370
    18
100
AcDbLine
 10
-26.66
 20
-8.25
 30
0.0
 11
27.739139381
 21
-8.25
 31
0.0
  0
LINE
  5
21C
330
1F
100
AcDbEntity
  8
SK3
  6
SLD-Dashed
370
    18
100
AcDbLine
 10
-26.66
 20
8.25
 30
0.0
 11
-27.4110757738
 21
7.0
 31
0.0
  0
LINE
  5
21D
330
1F
100
AcDbEntity
  8
SK3
  6
SLD-Dashed
370
    18
100
AcDbLine
 10
-27.4110757738
 20
-7.0
 30
0.0
 11
-26.66
 21
-8.25
 31
0.0
  0
LINE
  5
21E
330
1F
100
AcDbEntity
  8
SK3
  6
SLD-Dashed
370
    18
100
AcDbLine
 10
13.7106542296
 20
15.4652612534
 30
0.0
 11
15.5747240806
 21
16.4398057562
 31
0.0
  0
LINE
  5
21F
330
1F
100
AcDbEntity
  8
SK3
  6
SLD-Dashed
370
    18
100
AcDbLine
 10
15.5747240806
 20
16.4398057562
 30
0.0
 11
15.7320353246
 21
18.5373630427
 31
0.0
  0
LINE
  5
220
330
1F
100
AcDbEntity
  8
SK3
  6
SLD-Dashed
370
    18
100
AcDbLine
 10
-55.1107695155
 20
-7.0
 30
0.0
 11
-27.4110757738
 21
-7.0
 31
0.0
  0
LINE
  5
221
330
1F
100
AcDbEntity
  8
SK3
  6
SLD-Dashed
370
    18
100
AcDbLine
 10
-27.4110757738
 20
7.0
 30
0.0
 11
-55.1107695155
 21
7.0
 31
0.0
  0
LINE
  5
222
330
1F
100
AcDbEntity
  8
SK3
  6
SLD-Dashed
370
    18
100
AcDbLine
 10
7.35
 20
-7.7487285197
 30
0.0
 11
7.35
 21
-19.620297775
 31
0.0
  0
LINE
  5
223
330
1F
100
AcDbEntity
  8
SK3
  6
SLD-Dashed
370
    18
100
AcDbLine
 10
10.65
 20
-17.4451559932
 30
0.0
 11
10.65
 21
-7.7515075769
 31
0.0
  0
LINE
  5
224
330
1F
100
AcDbEntity
  8
SK3
  6
SLD-Dashed
370
    18
100
AcDbLine
 10
10.5530882486
 20
-22.0781956401
 30
0.0
 11
15.686790432
 21
-18.7003230133
 31
0.0
  0
LINE
  5
225
330
1F
100
AcDbEntity
  8
SK3
  6
SLD-Dashed
370
    18
100
AcDbLine
 10
4.4644074252
 20
-26.0844249757
 30
0.0
 11
7.4591862887
 21
-24.1139208083
 31
0.0
  0
LINE
  5
226
330
1F
100
AcDbEntity
  8
SK3
  6
SLD-Dashed
370
    18
100
AcDbLine
 10
7.4577573144
 20
-19.4463517268
 30
0.0
 11
2.3207095254
 21
-22.8264256948
 31
0.0
  0
LINE
  5
227
330
1F
100
AcDbEntity
  8
SK3
  6
SLD-Dashed
370
    18
100
AcDbLine
 10
13.5430925321
 20
-15.4423237325
 30
0.0
 11
10.5491667264
 21
-17.412266605
 31
0.0
  0
LINE
  5
228
330
1F
100
AcDbEntity
  8
SK3
  6
SLD-Dashed
370
    18
100
AcDbLine
 10
15.7320353246
 20
-18.5373630427
 30
0.0
 11
15.5747240806
 21
-16.4398057562
 31
0.0
  0
LINE
  5
229
330
1F
100
AcDbEntity
  8
SK3
  6
SLD-Dashed
370
    18
100
AcDbLine
 10
15.5747240806
 20
-16.4398057562
 30
0.0
 11
13.7106542296
 21
-15.4652612534
 31
0.0
  0
LINE
  5
22A
330
1F
100
AcDbEntity
  8
SK3
  6
SLD-Dashed
370
    18
100
AcDbLine
 10
7.35
 20
-24.0835192562
 30
0.0
 11
7.35
 21
-24.9018544508
 31
0.0
  0
LINE
  5
22B
330
1F
100
AcDbEntity
  8
SK3
  6
SLD-Dashed
370
    18
100
AcDbLine
 10
10.65
 20
-24.9018544508
 30
0.0
 11
10.65
 21
-21.9102094894
 31
0.0
  0
LINE
  5
22C
330
1F
100
AcDbEntity
  8
SK3
  6
SLD-Dashed
370
    18
100
AcDbLine
 10
2.0
 20
-27.8855134708
 30
0.0
 11
4.5468573445
 21
-26.2097326403
 31
0.0
  0
LINE
  5
22D
330
1F
100
AcDbEntity
  8
SK3
  6
SLD-Dashed
370
    18
100
AcDbLine
 10
2.2382596061
 20
-22.7011180302
 30
0.0
 11
2.0
 21
-22.8578880517
 31
0.0
  0
LINE
  5
22E
330
1F
100
AcDbEntity
  8
SK3
  6
SLD-Dashed
370
    18
100
AcDbLine
 10
7.6871669195
 20
-25.2436982891
 30
0.0
 11
9.0
 21
-25.833484529
 31
0.0
  0
LINE
  5
22F
330
1F
100
AcDbEntity
  8
SK3
  6
SLD-Dashed
370
    18
100
AcDbLine
 10
9.0
 20
-25.833484529
 30
0.0
 11
10.3128330805
 21
-25.2436982891
 31
0.0
  0
LINE
  5
230
330
1F
100
AcDbEntity
  8
SK3
  6
SLD-Solid
370
    18
100
AcDbLine
 10
-34.4000011683
 20
8.00000038
 30
0.0
 11
-55.6881204247
 21
8.00000038
 31
0.0
  0
LINE
  5
231
330
1F
100
AcDbEntity
  8
SK3
  6
SLD-Solid
370
    18
100
AcDbLine
 10
-55.6881204247
 20
-8.00000038
 30
0.0
 11
-34.4000011683
 21
-8.00000038
 31
0.0
  0
LINE
  5
232
330
1F
100
AcDbEntity
  8
SK3
  6
SLD-Solid
370
    18
100
AcDbLine
 10
-34.4000011683
 20
8.00000038
 30
0.0
 11
-34.4000011683
 21
7.918571122
 31
0.0
  0
LINE
  5
233
330
1F
100
AcDbEntity
  8
SK3
  6
SLD-Solid
370
    18
100
AcDbLine
 10
-34.4000011683
 20
7.918571122
 30
0.0
 11
-34.4000011683
 21
7.6759438962
 31
0.0
  0
LINE
  5
234
330
1F
100
AcDbEntity
  8
SK3
  6
SLD-Solid
370
    18
100
AcDbLine
 10
-34.4000011683
 20
7.6759438962
 30
0.0
 11
-34.4000011683
 21
7.2770561092
 31
0.0
  0
LINE
  5
235
330
1F
100
AcDbEntity
  8
SK3
  6
SLD-Solid
370
    18
100
AcDbLine
 10
-34.4000011683
 20
7.2770561092
 30
0.0
 11
-34.4000011683
 21
6.7300284281
 31
0.0
  0
LINE
  5
236
330
1F
100
AcDbEntity
  8
SK3
  6
SLD-Solid
370
    18
100
AcDbLine
 10
-34.4000011683
 20
6.7300284281
 30
0.0
 11
-34.4000011683
 21
6.0459966771
 31
0.0
  0
LINE
  5
237
330
1F
100
AcDbEntity
  8
SK3
  6
SLD-Solid
370
    18
100
AcDbLine
 10
-34.4000011683
 20
6.0459966771
 30
0.0
 11
-34.4000011683
 21
5.2388859913
 31
0.0
  0
LINE
  5
238
330
1F
100
AcDbEntity
  8
SK3
  6
SLD-Solid
370
    18
100
AcDbLine
 10
-34.4000011683
 20
5.2388859913
 30
0.0
 11
-34.4000011683
 21
4.3251267634
 31
0.0
  0
LINE
  5
239
330
1F
100
AcDbEntity
  8
SK3
  6
SLD-Solid
370
    18
100
AcDbLine
 10
-34.4000011683
 20
4.3251267634
 30
0.0
 11
-34.4000011683
 21
3.3233200666
 31
0.0
  0
LINE
  5
23A
330
1F
100
AcDbEntity
  8
SK3
  6
SLD-Solid
370
    18
100
AcDbLine
 10
-34.4000011683
 20
3.3233200666
 30
0.0
 11
-34.4000011683
 21
2.253860468
 31
0.0
  0
LINE
  5
23B
330
1F
100
AcDbEntity
  8
SK3
  6
SLD-Solid
370
    18
100
AcDbLine
 10
-34.4000011683
 20
2.253860468
 30
0.0
 11
-34.4000011683
 21
1.1385186808
 31
0.0
  0
LINE
  5
23C
330
1F
100
AcDbEntity
  8
SK3
  6
SLD-Solid
370
    18
100
AcDbLine
 10
-34.4000011683
 20
1.1385186808
 30
0.0
 11
-34.4000011683
 21
0.0
 31
0.0
  0
LINE
  5
23D
330
1F
100
AcDbEntity
  8
SK3
  6
SLD-Solid
370
    18
100
AcDbLine
 10
-34.4000011683
 20
0.0
 30
0.0
 11
-34.4000011683
 21
-1.1385186808
 31
0.0
  0
LINE
  5
23E
330
1F
100
AcDbEntity
  8
SK3
  6
SLD-Solid
370
    18
100
AcDbLine
 10
-34.4000011683
 20
-1.1385186808
 30
0.0
 11
-34.4000011683
 21
-2.253860468
 31
0.0
  0
LINE
  5
23F
330
1F
100
AcDbEntity
  8
SK3
  6
SLD-Solid
370
    18
100
AcDbLine
 10
-34.4000011683
 20
-2.253860468
 30
0.0
 11
-34.4000011683
 21
-3.3233200666
 31
0.0
  0
LINE
  5
240
330
1F
100
AcDbEntity
  8
SK3
  6
SLD-Solid
370
    18
100
AcDbLine
 10
-34.4000011683
 20
-3.3233200666
 30
0.0
 11
-34.4000011683
 21
-4.3251267634
 31
0.0
  0
LINE
  5
241
330
1F
100
AcDbEntity
  8
SK3
  6
SLD-Solid
370
    18
100
AcDbLine
 10
-34.4000011683
 20
-4.3251267634
 30
0.0
 11
-34.4000011683
 21
-5.2388859913
 31
0.0
  0
LINE
  5
242
330
1F
100
AcDbEntity
  8
SK3
  6
SLD-Solid
370
    18
100
AcDbLine
 10
-34.4000011683
 20
-5.2388859913
 30
0.0
 11
-34.4000011683
 21
-6.0459966771
 31
0.0
  0
LINE
  5
243
330
1F
100
AcDbEntity
  8
SK3
  6
SLD-Solid
370
    18
100
AcDbLine
 10
-34.4000011683
 20
-6.0459966771
 30
0.0
 11
-34.4000011683
 21
-6.7300284281
 31
0.0
  0
LINE
  5
244
330
1F
100
AcDbEntity
  8
SK3
  6
SLD-Solid
370
    18
100
AcDbLine
 10
-34.4000011683
 20
-6.7300284281
 30
0.0
 11
-34.4000011683
 21
-7.2770561092
 31
0.0
  0
LINE
  5
245
330
1F
100
AcDbEntity
  8
SK3
  6
SLD-Solid
370
    18
100
AcDbLine
 10
-34.4000011683
 20
-7.2770561092
 30
0.0
 11
-34.4000011683
 21
-7.6759438962
 31
0.0
  0
LINE
  5
246
330
1F
100
AcDbEntity
  8
SK3
  6
SLD-Solid
370
    18
100
AcDbLine
 10
-34.4000011683
 20
-7.6759438962
 30
0.0
 11
-34.4000011683
 21
-7.918571122
 31
0.0
  0
LINE
  5
247
330
1F
100
AcDbEntity
  8
SK3
  6
SLD-Solid
370
    18
100
AcDbLine
 10
-34.4000011683
 20
-7.918571122
 30
0.0
 11
-34.4000011683
 21
-8.00000038
 31
0.0
  0
LINE
  5
248
330
1F
100
AcDbEntity
  8
SK3
  6
SLD-Solid
370
    18
100
AcDbLine
 10
-19.659999758
 20
-8.9999996126
 30
0.0
 11
28.1897839159
 21
-8.9999996126
 31
0.0
  0
LINE
  5
249
330
1F
100
AcDbEntity
  8
SK3
  6
SLD-Solid
370
    18
100
AcDbLine
 10
28.1897839159
 20
8.9999996126
 30
0.0
 11
-19.659999758
 21
8.9999996126
 31
0.0
  0
LINE
  5
24A
330
1F
100
AcDbEntity
  8
SK3
  6
SLD-Solid
370
    18
100
AcDbLine
 10
-19.659999758
 20
-8.9999996126
 30
0.0
 11
-19.659999758
 21
-8.9161731303
 31
0.0
  0
LINE
  5
24B
330
1F
100
AcDbEntity
  8
SK3
  6
SLD-Solid
370
    18
100
AcDbLine
 10
-19.6600192195
 20
-8.9161731303
 30
0.0
 11
-19.659999758
 21
-8.6662555113
 31
0.0
  0
LINE
  5
24C
330
1F
100
AcDbEntity
  8
SK3
  6
SLD-Solid
370
    18
100
AcDbLine
 10
-19.659999758
 20
-8.6662555113
 30
0.0
 11
-19.659999758
 21
-8.254901506
 31
0.0
  0
LINE
  5
24D
330
1F
100
AcDbEntity
  8
SK3
  6
SLD-Solid
370
    18
100
AcDbLine
 10
-19.659999758
 20
-8.254901506
 30
0.0
 11
-19.659999758
 21
-7.6897745021
 31
0.0
  0
LINE
  5
24E
330
1F
100
AcDbEntity
  8
SK3
  6
SLD-Solid
370
    18
100
AcDbLine
 10
-19.659999758
 20
-7.6897745021
 30
0.0
 11
-19.659999758
 21
-6.9814017043
 31
0.0
  0
LINE
  5
24F
330
1F
100
AcDbEntity
  8
SK3
  6
SLD-Solid
370
    18
100
AcDbLine
 10
-19.659999758
 20
-6.9814017043
 30
0.0
 11
-19.659999758
 21
-6.1429780908
 31
0.0
  0
LINE
  5
250
330
1F
100
AcDbEntity
  8
SK3
  6
SLD-Solid
370
    18
100
AcDbLine
 10
-19.659999758
 20
-6.1429780908
 30
0.0
 11
-19.659999758
 21
-5.1901228726
 31
0.0
  0
LINE
  5
251
330
1F
100
AcDbEntity
  8
SK3
  6
SLD-Solid
370
    18
100
AcDbLine
 10
-19.659999758
 20
-5.1901228726
 30
0.0
 11
-19.659999758
 21
-4.1405851953
 31
0.0
  0
LINE
  5
252
330
1F
100
AcDbEntity
  8
SK3
  6
SLD-Solid
370
    18
100
AcDbLine
 10
-19.659999758
 20
-4.1405851953
 30
0.0
 11
-19.659999758
 21
-3.0139165465
 31
0.0
  0
LINE
  5
253
330
1F
100
AcDbEntity
  8
SK3
  6
SLD-Solid
370
    18
100
AcDbLine
 10
-19.659999758
 20
-3.0139165465
 30
0.0
 11
-19.659999758
 21
-1.831104164
 31
0.0
  0
LINE
  5
254
330
1F
100
AcDbEntity
  8
SK3
  6
SLD-Solid
370
    18
100
AcDbLine
 10
-19.659999758
 20
-1.831104164
 30
0.0
 11
-19.659999758
 21
-0.614181743
 31
0.0
  0
LINE
  5
255
330
1F
100
AcDbEntity
  8
SK3
  6
SLD-Solid
370
    18
100
AcDbLine
 10
-19.659999758
 20
-0.614181743
 30
0.0
 11
-19.659999758
 21
0.614181743
 31
0.0
  0
LINE
  5
256
330
1F
100
AcDbEntity
  8
SK3
  6
SLD-Solid
370
    18
100
AcDbLine
 10
-19.659999758
 20
0.614181743
 30
0.0
 11
-19.659999758
 21
1.831104164
 31
0.0
  0
LINE
  5
257
330
1F
100
AcDbEntity
  8
SK3
  6
SLD-Solid
370
    18
100
AcDbLine
 10
-19.659999758
 20
1.831104164
 30
0.0
 11
-19.659999758
 21
3.0139165465
 31
0.0
  0
LINE
  5
258
330
1F
100
AcDbEntity
  8
SK3
  6
SLD-Solid
370
    18
100
AcDbLine
 10
-19.659999758
 20
3.0139165465
 30
0.0
 11
-19.659999758
 21
4.1405851953
 31
0.0
  0
LINE
  5
259
330
1F
100
AcDbEntity
  8
SK3
  6
SLD-Solid
370
    18
100
AcDbLine
 10
-19.659999758
 20
4.1405851953
 30
0.0
 11
-19.659999758
 21
5.1901228726
 31
0.0
  0
LINE
  5
25A
330
1F
100
AcDbEntity
  8
SK3
  6
SLD-Solid
370
    18
100
AcDbLine
 10
-19.659999758
 20
5.1901228726
 30
0.0
 11
-19.659999758
 21
6.1429780908
 31
0.0
  0
LINE
  5
25B
330
1F
100
AcDbEntity
  8
SK3
  6
SLD-Solid
370
    18
100
AcDbLine
 10
-19.659999758
 20
6.1429780908
 30
0.0
 11
-19.659999758
 21
6.9814017043
 31
0.0
  0
LINE
  5
25C
330
1F
100
AcDbEntity
  8
SK3
  6
SLD-Solid
370
    18
100
AcDbLine
 10
-19.659999758
 20
6.9814017043
 30
0.0
 11
-19.659999758
 21
7.6897745021
 31
0.0
  0
LINE
  5
25D
330
1F
100
AcDbEntity
  8
SK3
  6
SLD-Solid
370
    18
100
AcDbLine
 10
-19.659999758
 20
7.6897745021
 30
0.0
 11
-19.659999758
 21
8.254901506
 31
0.0
  0
LINE
  5
25E
330
1F
100
AcDbEntity
  8
SK3
  6
SLD-Solid
370
    18
100
AcDbLine
 10
-19.659999758
 20
8.254901506
 30
0.0
 11
-19.659999758
 21
8.6662555113
 31
0.0
  0
LINE
  5
25F
330
1F
100
AcDbEntity
  8
SK3
  6
SLD-Solid
370
    18
100
AcDbLine
 10
-19.659999758
 20
8.6662555113
 30
0.0
 11
-19.659999758
 21
8.9161731303
 31
0.0
  0
LINE
  5
260
330
1F
100
AcDbEntity
  8
SK3
  6
SLD-Solid
370
    18
100
AcDbLine
 10
-19.659999758
 20
8.9161731303
 30
0.0
 11
-19.659999758
 21
8.9999996126
 31
0.0
  0
LINE
  5
261
330
1F
100
AcDbEntity
  8
1
  6
SLD-Solid
370
    18
100
AcDbLine
 10
42.3399992287
 20
-15.2500001714
 30
0.0
 11
50.0000007451
 21
-15.2500001714
 31
0.0
  0
LINE
  5
262
330
1F
100
AcDbEntity
  8
1
  6
SLD-Solid
370
    18
100
AcDbLine
 10
50.0000007451
 20
15.2500001714
 30
0.0
 11
42.3399992287
 21
15.2500001714
 31
0.0
  0
LINE
  5
263
330
1F
100
AcDbEntity
  8
1
  6
SLD-Solid
370
    18
100
AcDbLine
 10
42.3399992287
 20
-15.9249994904
 30
0.0
 11
42.3399992287
 21
-15.8432945609
 31
0.0
  0
LINE
  5
264
330
1F
100
AcDbEntity
  8
1
  6
SLD-Solid
370
    18
100
AcDbLine
 10
42.3398978108
 20
-15.8432945609
 30
0.0
 11
42.3399992287
 21
-15.5990142375
 31
0.0
  0
LINE
  5
265
330
1F
100
AcDbEntity
  8
1
  6
SLD-Solid
370
    18
100
AcDbLine
 10
42.3399992287
 20
-15.5990142375
 30
0.0
 11
42.3399992287
 21
-15.1946675032
 31
0.0
  0
LINE
  5
266
330
1F
100
AcDbEntity
  8
1
  6
SLD-Solid
370
    18
100
AcDbLine
 10
42.3399992287
 20
-15.1946675032
 30
0.0
 11
42.3399992287
 21
-14.6344034001
 31
0.0
  0
LINE
  5
267
330
1F
100
AcDbEntity
  8
1
  6
SLD-Solid
370
    18
100
AcDbLine
 10
42.3399992287
 20
-14.6344034001
 30
0.0
 11
42.3399992287
 21
-13.9239700511
 31
0.0
  0
LINE
  5
268
330
1F
100
AcDbEntity
  8
1
  6
SLD-Solid
370
    18
100
AcDbLine
 10
42.3399992287
 20
-13.9239700511
 30
0.0
 11
42.3399992287
 21
-13.0706578493
 31
0.0
  0
LINE
  5
269
330
1F
100
AcDbEntity
  8
1
  6
SLD-Solid
370
    18
100
AcDbLine
 10
42.3399992287
 20
-13.0706578493
 30
0.0
 11
42.3399992287
 21
-12.0832230896
 31
0.0
  0
LINE
  5
26A
330
1F
100
AcDbEntity
  8
1
  6
SLD-Solid
370
    18
100
AcDbLine
 10
42.3399992287
 20
-12.0832230896
 30
0.0
 11
42.3399992287
 21
-10.9717985615
 31
0.0
  0
LINE
  5
26B
330
1F
100
AcDbEntity
  8
1
  6
SLD-Solid
370
    18
100
AcDbLine
 10
42.3399992287
 20
-10.9717985615
 30
0.0
 11
42.3399992287
 21
-9.7477873787
 31
0.0
  0
LINE
  5
26C
330
1F
100
AcDbEntity
  8
1
  6
SLD-Solid
370
    18
100
AcDbLine
 10
42.3399992287
 20
-9.7477873787
 30
0.0
 11
42.3399992287
 21
-8.4237521514
 31
0.0
  0
LINE
  5
26D
330
1F
100
AcDbEntity
  8
1
  6
SLD-Solid
370
    18
100
AcDbLine
 10
42.3399992287
 20
-8.4237521514
 30
0.0
 11
42.3399992287
 21
-7.013276685
 31
0.0
  0
LINE
  5
26E
330
1F
100
AcDbEntity
  8
1
  6
SLD-Solid
370
    18
100
AcDbLine
 10
42.3399992287
 20
-7.013276685
 30
0.0
 11
42.3399992287
 21
-5.5308360606
 31
0.0
  0
LINE
  5
26F
330
1F
100
AcDbEntity
  8
1
  6
SLD-Solid
370
    18
100
AcDbLine
 10
42.3399992287
 20
-5.5308360606
 30
0.0
 11
42.3399992287
 21
-3.9916415699
 31
0.0
  0
LINE
  5
270
330
1F
100
AcDbEntity
  8
1
  6
SLD-Solid
370
    18
100
AcDbLine
 10
42.3399992287
 20
-3.9916415699
 30
0.0
 11
42.3399992287
 21
-2.4114872795
 31
0.0
  0
LINE
  5
271
330
1F
100
AcDbEntity
  8
1
  6
SLD-Solid
370
    18
100
AcDbLine
 10
42.3399992287
 20
-2.4114872795
 30
0.0
 11
42.3399992287
 21
-0.8065880393
 31
0.0
  0
LINE
  5
272
330
1F
100
AcDbEntity
  8
1
  6
SLD-Solid
370
    18
100
AcDbLine
 10
42.3399992287
 20
-0.8065880393
 30
0.0
 11
42.3399992287
 21
0.8065880393
 31
0.0
  0
LINE
  5
273
330
1F
100
AcDbEntity
  8
1
  6
SLD-Solid
370
    18
100
AcDbLine
 10
42.3399992287
 20
0.8065880393
 30
0.0
 11
42.3399992287
 21
2.4114872795
 31
0.0
  0
LINE
  5
274
330
1F
100
AcDbEntity
  8
1
  6
SLD-Solid
370
    18
100
AcDbLine
 10
42.3399992287
 20
2.4114872795
 30
0.0
 11
42.3399992287
 21
3.9916415699
 31
0.0
  0
LINE
  5
275
330
1F
100
AcDbEntity
  8
1
  6
SLD-Solid
370
    18
100
AcDbLine
 10
42.3399992287
 20
3.9916415699
 30
0.0
 11
42.3399992287
 21
5.5308360606
 31
0.0
  0
LINE
  5
276
330
1F
100
AcDbEntity
  8
1
  6
SLD-Solid
370
    18
100
AcDbLine
 10
42.3399992287
 20
5.5308360606
 30
0.0
 11
42.3399992287
 21
7.013276685
 31
0.0
  0
LINE
  5
277
330
1F
100
AcDbEntity
  8
1
  6
SLD-Solid
370
    18
100
AcDbLine
 10
42.3399992287
 20
7.013276685
 30
0.0
 11
42.3399992287
 21
8.4237521514
 31
0.0
  0
LINE
  5
278
330
1F
100
AcDbEntity
  8
1
  6
SLD-Solid
370
    18
100
AcDbLine
 10
42.3399992287
 20
8.4237521514
 30
0.0
 11
42.3399992287
 21
9.7477873787
 31
0.0
  0
LINE
  5
279
330
1F
100
AcDbEntity
  8
1
  6
SLD-Solid
370
    18
100
AcDbLine
 10
42.3399992287
 20
9.7477873787
 30
0.0
 11
42.3399992287
 21
10.9717985615
 31
0.0
  0
LINE
  5
27A
330
1F
100
AcDbEntity
  8
1
  6
SLD-Solid
370
    18
100
AcDbLine
 10
42.3399992287
 20
10.9717985615
 30
0.0
 11
42.3399992287
 21
12.0832230896
 31
0.0
  0
LINE
  5
27B
330
1F
100
AcDbEntity
  8
1
  6
SLD-Solid
370
    18
100
AcDbLine
 10
42.3399992287
 20
12.0832230896
 30
0.0
 11
42.3399992287
 21
13.0706578493
 31
0.0
  0
LINE
  5
27C
330
1F
100
AcDbEntity
  8
1
  6
SLD-Solid
370
    18
100
AcDbLine
 10
42.3399992287
 20
13.0706578493
 30
0.0
 11
42.3399992287
 21
13.9239700511
 31
0.0
  0
LINE
  5
27D
330
1F
100
AcDbEntity
  8
1
  6
SLD-Solid
370
    18
100
AcDbLine
 10
42.3399992287
 20
13.9239700511
 30
0.0
 11
42.3399992287
 21
14.6344034001
 31
0.0
  0
LINE
  5
27E
330
1F
100
AcDbEntity
  8
1
  6
SLD-Solid
370
    18
100
AcDbLine
 10
42.3399992287
 20
14.6344034001
 30
0.0
 11
42.3399992287
 21
15.1946675032
 31
0.0
  0
LINE
  5
27F
330
1F
100
AcDbEntity
  8
1
  6
SLD-Solid
370
    18
100
AcDbLine
 10
42.3399992287
 20
15.1946675032
 30
0.0
 11
42.3399992287
 21
15.5990142375
 31
0.0
  0
LINE
  5
280
330
1F
100
AcDbEntity
  8
1
  6
SLD-Solid
370
    18
100
AcDbLine
 10
42.3399992287
 20
15.5990142375
 30
0.0
 11
42.3399992287
 21
15.8432945609
 31
0.0
  0
LINE
  5
281
330
1F
100
AcDbEntity
  8
1
  6
SLD-Solid
370
    18
100
AcDbLine
 10
42.3399992287
 20
15.8432945609
 30
0.0
 11
42.3399992287
 21
15.9249994904
 31
0.0
  0
LINE
  5
282
330
1F
100
AcDbEntity
  8
4
  6
SLD-Center
370
    18
100
AcDbLine
 10
60.34
 20
0.0
 30
0.0
 11
0.4887246058
 21
0.0
 31
0.0
  0
LINE
  5
283
330
1F
100
AcDbEntity
  8
SK4
  6
SLD-Center
370
    18
100
AcDbLine
 10
60.3493915763
 20
0.0
 30
0.0
 11
-67.2837013409
 21
0.0
 31
0.0
  0
ARC
  5
284
330
1F
100
AcDbEntity
  8
1
  6
SLD-Solid
370
    25
100
AcDbCircle
 10
26.25
 20
-30.724895054
 30
0.0
 40
0.75
100
AcDbArc
 50
270.0
 51
0.0
  0
ARC
  5
285
330
1F
100
AcDbEntity
  8
1
  6
SLD-Solid
370
    25
100
AcDbCircle
 10
26.25
 20
30.724895049
 30
0.0
 40
0.7500000000000003
100
AcDbArc
 50
0.0000003817
 51
89.9999984911
  0
ARC
  5
286
330
1F
100
AcDbEntity
  8
1
  6
SLD-Solid
370
    25
100
AcDbCircle
 10
2.75
 20
30.724895054
 30
0.0
 40
0.7500000000000009
100
AcDbArc
 50
90.0
 51
180.0
  0
ARC
  5
287
330
1F
100
AcDbEntity
  8
1
  6
SLD-Solid
370
    25
100
AcDbCircle
 10
2.75
 20
-30.724895054
 30
0.0
 40
0.7500000000000009
100
AcDbArc
 50
180.0
 51
270.0
  0
ARC
  5
288
330
1F
100
AcDbEntity
  8
1
  6
SLD-Solid
370
    25
100
AcDbCircle
 10
18.725
 20
-26.875
 30
0.0
 40
0.3750000000000071
100
AcDbArc
 50
0.0
 51
90.0
  0
ARC
  5
289
330
1F
100
AcDbEntity
  8
1
  6
SLD-Solid
370
    25
100
AcDbCircle
 10
18.725
 20
26.875
 30
0.0
 40
0.3750000000000071
100
AcDbArc
 50
270.0
 51
0.0
  0
ARC
  5
28A
330
1F
100
AcDbEntity
  8
1
  6
SLD-Solid
370
    25
100
AcDbCircle
 10
14.475
 20
-26.875
 30
0.0
 40
0.3750000000000071
100
AcDbArc
 50
90.0
 51
180.0
  0
ARC
  5
28B
330
1F
100
AcDbEntity
  8
1
  6
SLD-Solid
370
    25
100
AcDbCircle
 10
14.475
 20
26.875
 30
0.0
 40
0.3750000000000071
100
AcDbArc
 50
180.0
 51
270.0000000016
  0
ARC
  5
28C
330
1F
100
AcDbEntity
  8
1
  6
SLD-Solid
370
    25
100
AcDbCircle
 10
29.0
 20
-22.8
 30
0.0
 40
2.000000000000004
100
AcDbArc
 50
90.0
 51
180.0
  0
ARC
  5
28D
330
1F
100
AcDbEntity
  8
1
  6
SLD-Solid
370
    25
100
AcDbCircle
 10
29.0
 20
22.8
 30
0.0
 40
2.000000000000007
100
AcDbArc
 50
180.0
 51
270.0
  0
ARC
  5
28E
330
1F
100
AcDbEntity
  8
1
  6
SLD-Solid
370
    25
100
AcDbCircle
 10
1.25
 20
22.5629103982
 30
0.0
 40
0.7500000000000007
100
AcDbArc
 50
245.0
 51
0.0
  0
ARC
  5
28F
330
1F
100
AcDbEntity
  8
1
  6
SLD-Solid
370
    25
100
AcDbCircle
 10
1.25
 20
-22.5629103982
 30
0.0
 40
0.7500000000000007
100
AcDbArc
 50
0.0
 51
115.0
  0
ARC
  5
290
330
1F
100
AcDbEntity
  8
SK1
  6
SLD-Solid
370
    25
100
AcDbCircle
 10
-64.4
 20
11.8220275702
 30
0.0
 40
1.000000000000014
100
AcDbArc
 50
98.2977777777
 51
180.0
  0
ARC
  5
291
330
1F
100
AcDbEntity
  8
SK1
  6
SLD-Solid
370
    25
100
AcDbCircle
 10
-64.4
 20
-11.8220275702
 30
0.0
 40
1.000000000000014
100
AcDbArc
 50
180.0
 51
261.7022222223
  0
CIRCLE
  5
292
330
1F
100
AcDbEntity
  8
1
  6
SLD-Solid
370
    25
100
AcDbCircle
 10
14.5
 20
0.0
 30
0.0
 40
4.999999999999977
  0
ARC
  5
293
330
1F
100
AcDbEntity
  8
SK3
  6
SLD-Dashed
370
    18
100
AcDbCircle
 10
57.34
 20
13.4902680687
 30
0.0
 40
1.000000000000028
100
AcDbArc
 50
278.0
 51
0.0
  0
ARC
  5
294
330
1F
100
AcDbEntity
  8
SK3
  6
SLD-Dashed
370
    18
100
AcDbCircle
 10
57.34
 20
-13.4902680687
 30
0.0
 40
1.000000000000006
100
AcDbArc
 50
0.0
 51
82.0
  0
SPLINE
  5
295
330
1F
100
AcDbEntity
  8
1
  6
SLD-Solid
370
    25
100
AcDbSpline
210
0.0
220
0.0
230
1.0
 70
     8
 71
     3
 72
    11
 73
     7
 74
     0
 42
0.000000001
 43
0.00000001
 40
0.0
 40
0.0
 40
0.0
 40
0.0
 40
0.1307890103833979
 40
0.4947684351344124
 40
0.8692109896166015
 40
1.0
 40
1.0
 40
1.0
 40
1.0
 10
53.07050292185131
 20
16.47868117853925
 30
0.0
 10
53.02710801466322
 20
16.63941916728479
 30
0.0
 10
52.86294720130957
 20
17.24748312407407
 30
0.0
 10
52.75902840663375
 20
18.21391135432328
 30
0.0
 10
52.85950750287285
 20
19.02618318711308
 30
0.0
 10
53.02711457386769
 20
19.41269554710481
 30
0.0
 10
53.07050292185131
 20
19.51275178384791
 30
0.0
  0
SPLINE
  5
296
330
1F
100
AcDbEntity
  8
1
  6
SLD-Solid
370
    25
100
AcDbSpline
210
0.0
220
0.0
230
1.0
 70
     8
 71
     3
 72
    11
 73
     7
 74
     0
 42
0.000000001
 43
0.00000001
 40
0.0
 40
0.0
 40
0.0
 40
0.0
 40
0.1307890103833987
 40
0.4947684351344105
 40
0.8692109896166007
 40
1.0
 40
1.0
 40
1.0
 40
1.0
 10
53.07050292185131
 20
-3.03407060530882
 30
0.0
 10
53.02710801466322
 20
-2.773278120060851
 30
0.0
 10
52.86294720130957
 20
-1.786712892273688
 30
0.0
 10
52.75902840663378
 20
-0.0109438225986275
 30
0.0
 10
52.85950750287279
 20
1.765858682592554
 30
0.0
 10
53.02711457386769
 20
2.773280013331977
 30
0.0
 10
53.07050292185131
 20
3.034070605308532
 30
0.0
  0
SPLINE
  5
297
330
1F
100
AcDbEntity
  8
1
  6
SLD-Solid
370
    25
100
AcDbSpline
210
0.0
220
0.0
230
1.0
 70
     8
 71
     3
 72
    11
 73
     7
 74
     0
 42
0.000000001
 43
0.00000001
 40
0.0
 40
0.0
 40
0.0
 40
0.0
 40
0.1307890103833982
 40
0.4947684351344114
 40
0.8692109896166007
 40
0.9999999999999999
 40
0.9999999999999999
 40
0.9999999999999999
 40
0.9999999999999999
 10
53.07050292185131
 20
-19.51275178384798
 30
0.0
 10
53.02710801466322
 20
-19.41269728734555
 30
0.0
 10
52.86294720130957
 20
-19.03419601634766
 30
0.0
 10
52.75902840663378
 20
-18.22485517692186
 30
0.0
 10
52.85950750287285
 20
-17.26032450452045
 30
0.0
 10
53.02711457386769
 20
-16.63941553377279
 30
0.0
 10
53.07050292185131
 20
-16.47868117853935
 30
0.0
  0
SPLINE
  5
298
330
1F
100
AcDbEntity
  8
1
  6
SLD-Solid
370
    25
100
AcDbSpline
210
0.0
220
0.0
230
1.0
 70
     8
 71
     3
 72
    11
 73
     7
 74
     0
 42
0.000000001
 43
0.00000001
 40
0.0
 40
0.0
 40
0.0
 40
0.0
 40
0.0001451833425798
 40
0.4987147615060555
 40
0.9998548166574193
 40
1.0
 40
1.0
 40
1.0
 40
1.0
 10
68.76436100950217
 20
2.250883272825952
 30
0.0
 10
68.76437658554462
 20
2.250665828646879
 30
0.0
 10
68.81788136218519
 20
1.50373012667273
 30
0.0
 10
68.87257174551358
 20
0.0019398840234927
 30
0.0
 10
68.81815713686149
 20
-1.499880269011603
 30
0.0
 10
68.76437658554471
 20
-2.250665828647243
 30
0.0
 10
68.76436100950217
 20
-2.250883272826201
 30
0.0
  0
SPLINE
  5
299
330
1F
100
AcDbEntity
  8
1
  6
SLD-Solid
370
    25
100
AcDbSpline
210
0.0
220
0.0
230
1.0
 70
     8
 71
     3
 72
    10
 73
     6
 74
     0
 42
0.000000001
 43
0.00000001
 40
0.0
 40
0.0
 40
0.0
 40
0.0
 40
0.1310200725086424
 40
0.5646618017528396
 40
1.0
 40
1.0
 40
1.0
 40
1.0
 10
68.76436100950217
 20
16.71389890453295
 30
0.0
 10
68.77723352257745
 20
16.61573884111733
 30
0.0
 10
68.83271064365506
 20
16.19269497305061
 30
0.0
 10
68.8693468558617
 20
15.4411985764322
 30
0.0
 10
68.79940180844049
 20
14.78950070640574
 30
0.0
 10
68.76436100950217
 20
14.46301563170687
 30
0.0
  0
SPLINE
  5
29A
330
1F
100
AcDbEntity
  8
1
  6
SLD-Solid
370
    25
100
AcDbSpline
210
0.0
220
0.0
230
1.0
 70
     8
 71
     3
 72
    11
 73
     7
 74
     0
 42
0.000000001
 43
0.00000001
 40
0.0
 40
0.0
 40
0.0
 40
0.0
 40
0.00014518334258
 40
0.4987147615060549
 40
0.9998548166574182
 40
1.0
 40
1.0
 40
1.0
 40
1.0
 10
68.76436100950217
 20
-14.46301563170695
 30
0.0
 10
68.76437658554465
 20
-14.4631243537965
 30
0.0
 10
68.81788136217502
 20
-14.83659220478903
 30
0.0
 10
68.87257174552997
 20
-15.58748732610978
 30
0.0
 10
68.81815713683869
 20
-16.33839740261692
 30
0.0
 10
68.76437658554474
 20
-16.71379018244352
 30
0.0
 10
68.76436100950217
 20
-16.71389890453301
 30
0.0
  0
SPLINE
  5
29B
330
1F
100
AcDbEntity
  8
1
  6
SLD-Solid
370
    25
100
AcDbSpline
210
0.0
220
0.0
230
1.0
 70
     8
 71
     3
 72
    29
 73
    25
 74
     0
 42
0.000000001
 43
0.00000001
 40
0.0
 40
0.0
 40
0.0
 40
0.0
 40
0.0230715775316607
 40
0.0440279221544181
 40
0.0628690454311713
 40
0.0952120618571596
 40
0.1252082824845316
 40
0.1874443143946091
 40
0.2501296237171894
 40
0.3127676613642624
 40
0.374909679964516
 40
0.4371223082215359
 40
0.499911456350327
 40
0.5000015161484085
 40
0.5624697494052605
 40
0.6246519449431386
 40
0.687125378978679
 40
0.749941391460512
 40
0.8122668496053744
 40
0.8745780800877345
 40
0.9047897694322812
 40
0.9373962146516616
 40
0.9663311415724875
 40
0.9999999999999999
 40
0.9999999999999999
 40
0.9999999999999999
 40
0.9999999999999999
 10
21.37719856678899
 20
-5.464601474841811
 30
0.0
 10
21.43847205378291
 20
-5.396312152536345
 30
0.0
 10
21.55540139300109
 20
-5.265994363806148
 30
0.0
 10
21.71456483767956
 20
-5.073053428852535
 30
0.0
 10
21.89115456681728
 20
-4.846782311592842
 30
0.0
 10
22.08012774058527
 20
-4.584511980886958
 30
0.0
 10
22.35150755032954
 20
-4.169008760264139
 30
0.0
 10
22.65377575809326
 20
-3.629202096841908
 30
0.0
 10
22.9583834470567
 20
-2.943495692528796
 30
0.0
 10
23.19842885143197
 20
-2.23144337737961
 30
0.0
 10
23.37140669802379
 20
-1.500822879327839
 30
0.0
 10
23.47638486158647
 20
-0.7558491308013761
 30
0.0
 10
23.49998306027224
 20
-0.2529701107184881
 30
0.0
 10
23.50001681998143
 20
0.2505954626118162
 30
0.0
 10
23.47667263874638
 20
0.7520613460207937
 30
0.0
 10
23.37217811205882
 20
1.497026526464496
 30
0.0
 10
23.19905401742356
 20
2.229607808015413
 30
0.0
 10
22.95883272695819
 20
2.942239917110921
 30
0.0
 10
22.6545294005228
 20
3.627607098885391
 30
0.0
 10
22.35255850014685
 20
4.167257671703832
 30
0.0
 10
22.0801117302855
 20
4.584727730887709
 30
0.0
 10
21.86623430236959
 20
4.880887877786226
 30
0.0
 10
21.63164803857743
 20
5.178474515934679
 30
0.0
 10
21.46618566461138
 20
5.364535991653624
 30
0.0
 10
21.37719856561819
 20
5.46460146612833
 30
0.0
  0
SPLINE
  5
29C
330
1F
100
AcDbEntity
  8
1
  6
SLD-Solid
370
    25
100
AcDbSpline
210
0.0
220
0.0
230
1.0
 70
     8
 71
     3
 72
    28
 73
    24
 74
     0
 42
0.000000001
 43
0.00000001
 40
0.0
 40
0.0
 40
0.0
 40
0.0
 40
0.0207857080744523
 40
0.0415708735400801
 40
0.0623745617818689
 40
0.0937267530778085
 40
0.125084682912772
 40
0.1873493424237325
 40
0.2496708103803953
 40
0.3125394066446922
 40
0.3751323463721328
 40
0.4374543879872271
 40
0.500075970836482
 40
0.5630082451657259
 40
0.625344939507923
 40
0.6875873965093031
 40
0.750297322972603
 40
0.8129518654679826
 40
0.8751109964368167
 40
0.9062161894146091
 40
0.9373308448684342
 40
0.9686738084890167
 40
1.0
 40
1.0
 40
1.0
 40
1.0
 10
21.62000001975173
 20
5.823923522431988
 30
0.0
 10
21.67887711000122
 20
5.758404168649076
 30
0.0
 10
21.79662975351965
 20
5.627367171459417
 30
0.0
 10
21.96552761833283
 20
5.423895208576473
 30
0.0
 10
22.1561343997908
 20
5.180346997444553
 30
0.0
 10
22.36340106763465
 20
4.892936355332562
 30
0.0
 10
22.65341631475227
 20
4.448700110929591
 30
0.0
 10
22.97675786926703
 20
3.869261113980941
 30
0.0
 10
23.30005572112558
 20
3.138727232581136
 30
0.0
 10
23.55530712794508
 20
2.37867768379841
 30
0.0
 10
23.73927966591853
 20
1.596998832461609
 30
0.0
 10
23.85028708093785
 20
0.8017737098183833
 30
0.0
 10
23.88749143694346
 20
-0.0022849636551539
 30
0.0
 10
23.84992256296842
 20
-0.8064039979349749
 30
0.0
 10
23.73837580859009
 20
-1.601439142759991
 30
0.0
 10
23.55455314612423
 20
-2.380960591072831
 30
0.0
 10
23.29949258431508
 20
-3.140271385471686
 30
0.0
 10
22.97592365520944
 20
-3.871025144236869
 30
0.0
 10
22.65241339767674
 20
-4.450220440185515
 30
0.0
 10
22.36381282242408
 20
-4.892381706050917
 30
0.0
 10
22.13144539821624
 20
-5.214197242680952
 30
0.0
 10
21.88493731194806
 20
-5.52639874433393
 30
0.0
 10
21.70829667923936
 20
-5.724765641720652
 30
0.0
 10
21.62
 20
-5.823922546005226
 30
0.0
  0
SPLINE
  5
29D
330
1F
100
AcDbEntity
  8
1
  6
SLD-Solid
370
    25
100
AcDbSpline
210
0.0
220
0.0
230
1.0
 70
     8
 71
     3
 72
    10
 73
     6
 74
     0
 42
0.000000001
 43
0.00000001
 40
0.0
 40
0.0
 40
0.0
 40
0.0
 40
0.5
 40
0.5
 40
1.0
 40
1.0
 40
1.0
 40
1.0
 10
19.09999999999999
 20
-7.202499566122858
 30
0.0
 10
19.49568963348792
 20
-6.999504316721559
 30
0.0
 10
19.88420462171461
 20
-6.759564815308878
 30
0.0
 10
20.64456767747192
 20
-6.188854586168809
 30
0.0
 10
21.01652879891046
 20
-5.858773214670443
 30
0.0
 10
21.37719856678899
 20
-5.464601474841808
 30
0.0
  0
SPLINE
  5
29E
330
1F
100
AcDbEntity
  8
1
  6
SLD-Solid
370
    25
100
AcDbSpline
210
0.0
220
0.0
230
1.0
 70
     8
 71
     3
 72
    10
 73
     6
 74
     0
 42
0.000000001
 43
0.00000001
 40
0.0
 40
0.0
 40
0.0
 40
0.0
 40
0.5
 40
0.5
 40
1.0
 40
1.0
 40
1.0
 40
1.0
 10
21.37719856561819
 20
5.46460146612833
 30
0.0
 10
21.01735231861768
 20
5.857873173773336
 30
0.0
 10
20.64574497536777
 20
6.187866137063382
 30
0.0
 10
19.88530547626707
 20
6.758842930057386
 30
0.0
 10
19.49582647766877
 20
6.9994340402251
 30
0.0
 10
19.10000010899302
 20
7.20249943701265
 30
0.0
  0
SPLINE
  5
29F
330
1F
100
AcDbEntity
  8
1
  6
SLD-Solid
370
    25
100
AcDbSpline
210
0.0
220
0.0
230
1.0
 70
    24
 71
     3
 72
    33
 73
    29
 74
     0
 42
0.000000001
 43
0.00000001
 40
0.0
 40
0.0
 40
0.0
 40
0.0
 40
0.0252074824815513
 40
0.0503579512879904
 40
0.1006534270886784
 40
0.1499358844483532
 40
0.1865967979878393
 40
0.2121849653061194
 40
0.2505508094801715
 40
0.2790356761955126
 40
0.3220357786263562
 40
0.3758118528652144
 40
0.404289581664539
 40
0.4469018084879729
 40
0.5002394139146363
 40
0.5288518672268698
 40
0.5719843088306776
 40
0.6254852111034821
 40
0.65390608788764
 40
0.6965245109396256
 40
0.7500237094317356
 40
0.7787622199762743
 40
0.821759819500321
 40
0.8751426117198197
 40
0.900010728336425
 40
0.9373541614063063
 40
0.9685886636354878
 40
1.0
 40
1.0
 40
1.0
 40
1.0
 10
2.749999999999968
 20
8.095000000000004
 30
0.0
 10
2.744951890107462
 20
8.095000000000011
 30
0.0
 10
2.734867088015534
 20
8.095000000000011
 30
0.0
 10
2.714746689273677
 20
8.095000000000004
 30
0.0
 10
2.689935974604131
 20
8.095000000000011
 30
0.0
 10
2.663214788992403
 20
8.095000000000006
 30
0.0
 10
2.641734385248888
 20
8.095000000000013
 30
0.0
 10
2.62267366427852
 20
8.095000000000006
 30
0.0
 10
2.605493847259395
 20
8.095000000000013
 30
0.0
 10
2.585566331205054
 20
8.095000000000013
 30
0.0
 10
2.563490717180365
 20
8.095000000000015
 30
0.0
 10
2.542405605456356
 20
8.095000000000022
 30
0.0
 10
2.522353516277879
 20
8.095000000000022
 30
0.0
 10
2.503235577485434
 20
8.095000000000022
 30
0.0
 10
2.485360680175998
 20
8.095000000000022
 30
0.0
 10
2.468590756819537
 20
8.095000000000024
 30
0.0
 10
2.452859611815843
 20
8.095000000000024
 30
0.0
 10
2.438649216257964
 20
8.095000000000024
 30
0.0
 10
2.425829245839707
 20
8.095000000000024
 30
0.0
 10
2.4141838032549
 20
8.095000000000024
 30
0.0
 10
2.404145436199025
 20
8.095000000000017
 30
0.0
 10
2.395530154489504
 20
8.095000000000024
 30
0.0
 10
2.388194882538296
 20
8.095000000000026
 30
0.0
 10
2.38277691148598
 20
8.095000000000018
 30
0.0
 10
2.37893261486468
 20
8.095000000000026
 30
0.0
 10
2.376698235289805
 20
8.095000000000018
 30
0.0
 10
2.37525273307284
 20
8.095000000000026
 30
0.0
 10
2.37508440274297
 20
8.095000000000026
 30
0.0
 10
2.374999999999995
 20
8.095000000000026
 30
0.0
  0
SPLINE
  5
2A0
330
1F
100
AcDbEntity
  8
1
  6
SLD-Solid
370
    25
100
AcDbSpline
210
0.0
220
0.0
230
1.0
 70
     8
 71
     3
 72
    16
 73
    12
 74
     0
 42
0.000000001
 43
0.00000001
 40
0.0
 40
0.0
 40
0.0
 40
0.0
 40
0.0696547606816114
 40
0.1232208983190195
 40
0.2468399562955041
 40
0.3703627862932272
 40
0.495216151787467
 40
0.6234384874367187
 40
0.7461820926635779
 40
0.8739229026265799
 40
1.0
 40
1.0
 40
1.0
 40
1.0
 10
2.000000000000016
 20
8.470000000000006
 30
0.0
 10
2.000842866455618
 20
8.473748025573325
 30
0.0
 10
2.002333916899385
 20
8.480378370341567
 30
0.0
 10
2.017248272217858
 20
8.493453394683105
 30
0.0
 10
2.050685869312799
 20
8.508969297195343
 30
0.0
 10
2.11864570170893
 20
8.526632734762465
 30
0.0
 10
2.211620958768715
 20
8.54232828072235
 30
0.0
 10
2.325702075107378
 20
8.555230235496605
 30
0.0
 10
2.45737591381974
 20
8.564789826112182
 30
0.0
 10
2.600025422701866
 20
8.570978074271158
 30
0.0
 10
2.700227407175251
 20
8.571748086981572
 30
0.0
 10
2.749999999999919
 20
8.572130569716876
 30
0.0
  0
SPLINE
  5
2A1
330
1F
100
AcDbEntity
  8
1
  6
SLD-Solid
370
    25
100
AcDbSpline
210
0.0
220
0.0
230
1.0
 70
     8
 71
     3
 72
     8
 73
     4
 74
     0
 42
0.000000001
 43
0.00000001
 40
0.0
 40
0.0
 40
0.0
 40
0.0
 40
0.0006580774610835
 40
0.0006580774610835
 40
0.0006580774610835
 40
0.0006580774610835
 10
11.57999999999999
 20
8.572130569716876
 30
0.0
 10
11.67175324177072
 20
8.413209293210814
 30
0.0
 10
11.7631788180525
 20
8.254167378692404
 30
0.0
 10
11.85425903357669
 20
8.095000000000004
 30
0.0
  0
SPLINE
  5
2A2
330
1F
100
AcDbEntity
  8
1
  6
SLD-Solid
370
    25
100
AcDbSpline
210
0.0
220
0.0
230
1.0
 70
     8
 71
     3
 72
    32
 73
    28
 74
     0
 42
0.000000001
 43
0.00000001
 40
0.5000000000000007
 40
0.5000000000000007
 40
0.5000000000000007
 40
0.5000000000000007
 40
0.5625000000000004
 40
0.5625000000000004
 40
0.6250000000000002
 40
0.6250000000000002
 40
0.6562500000000003
 40
0.6562500000000003
 40
0.6875000000000004
 40
0.6875000000000004
 40
0.7187500000000004
 40
0.7187500000000004
 40
0.7500000000000004
 40
0.7500000000000004
 40
0.7812500000000006
 40
0.7812500000000006
 40
0.8125000000000006
 40
0.8125000000000006
 40
0.8437500000000007
 40
0.8437500000000007
 40
0.8750000000000007
 40
0.8750000000000007
 40
0.9062500000000007
 40
0.9062500000000007
 40
0.9375000000000004
 40
0.9375000000000004
 40
1.0
 40
1.0
 40
1.0
 40
1.0
 10
9.000718329482584
 20
28.83291538058086
 30
0.0
 10
8.73964881423947
 20
28.83287770016758
 30
0.0
 10
8.476483457308836
 20
28.85401228113056
 30
0.0
 10
7.994978290847943
 20
28.93311796799179
 30
0.0
 10
7.771727080162383
 20
28.99184270757326
 30
0.0
 10
7.494870707924928
 20
29.09803988153831
 30
0.0
 10
7.41035718007245
 20
29.13714285943468
 30
0.0
 10
7.264939882707807
 20
29.21871394893839
 30
0.0
 10
7.203428601889924
 20
29.26126284237539
 30
0.0
 10
7.102898578439862
 20
29.34953431063598
 30
0.0
 10
7.064253547477306
 20
29.39526276182396
 30
0.0
 10
7.013197171924252
 20
29.48569553586012
 30
0.0
 10
7.000132287800998
 20
29.53089959247784
 30
0.0
 10
6.999869691689073
 20
29.62119248630603
 30
0.0
 10
7.012746687881363
 20
29.66501730535937
 30
0.0
 10
7.063332748869416
 20
29.74949177141588
 30
0.0
 10
7.101609222188471
 20
29.79066291849528
 30
0.0
 10
7.201880148290179
 20
29.86807518229787
 30
0.0
 10
7.263236224076111
 20
29.90410267012509
 30
0.0
 10
7.408082691640685
 20
29.97124632011676
 30
0.0
 10
7.492460248430755
 20
30.00252338006221
 30
0.0
 10
7.67686750921863
 20
30.05789457704153
 30
0.0
 10
7.777440543983147
 20
30.08234657102343
 30
0.0
 10
7.995666701594962
 20
30.12510336479402
 30
0.0
 10
8.112221508822639
 20
30.143098917528
 30
0.0
 10
8.473070795871743
 20
30.18610419330952
 30
0.0
 10
8.735669339325735
 20
30.20099590204495
 30
0.0
 10
9.000000000000007
 20
30.20099590204495
 30
0.0
  0
SPLINE
  5
2A3
330
1F
100
AcDbEntity
  8
1
  6
SLD-Solid
370
    25
100
AcDbSpline
210
0.0
220
0.0
230
1.0
 70
     8
 71
     3
 72
    34
 73
    30
 74
     0
 42
0.000000001
 43
0.00000001
 40
0.0
 40
0.0
 40
0.0
 40
0.0
 40
0.03125
 40
0.03125
 40
0.0625000000000001
 40
0.0625000000000001
 40
0.0937500000000001
 40
0.0937500000000001
 40
0.1250000000000002
 40
0.1250000000000002
 40
0.1875
 40
0.1875
 40
0.2499999999999998
 40
0.2499999999999998
 40
0.2812499999999999
 40
0.2812499999999999
 40
0.3125000000000001
 40
0.3125000000000001
 40
0.3437500000000002
 40
0.3437500000000002
 40
0.3750000000000002
 40
0.3750000000000002
 40
0.4062500000000003
 40
0.4062500000000003
 40
0.4375000000000004
 40
0.4375000000000004
 40
0.4687500000000006
 40
0.4687500000000006
 40
0.5000000000000007
 40
0.5000000000000007
 40
0.5000000000000007
 40
0.5000000000000007
 10
9.000000000000007
 20
30.20099590204495
 30
0.0
 10
9.132165330337157
 20
30.20099590204494
 30
0.0
 10
9.262115418905815
 20
30.19734255586318
 30
0.0
 10
9.517768349322747
 20
30.18294309611896
 30
0.0
 10
9.644797830011044
 20
30.1720202677901
 30
0.0
 10
9.886985763458005
 20
30.14322949692818
 30
0.0
 10
10.00184716466072
 20
30.1255046124872
 30
0.0
 10
10.21922725879594
 20
30.08308303291048
 30
0.0
 10
10.32212473398295
 20
30.05815549169778
 30
0.0
 10
10.59879168257413
 20
29.97520623770064
 30
0.0
 10
10.74778999337625
 20
29.90671643716595
 30
0.0
 10
10.9473013702133
 20
29.75311585549607
 30
0.0
 10
10.99985952776592
 20
29.66633074416317
 30
0.0
 10
11.00006980318371
 20
29.53247577176003
 30
0.0
 10
10.98708400981419
 20
29.48636761072461
 30
0.0
 10
10.93605682005549
 20
29.39564046114029
 30
0.0
 10
10.89830158413792
 20
29.35080602038983
 30
0.0
 10
10.79816310838261
 20
29.26244854513281
 30
0.0
 10
10.73555737259532
 20
29.2190555744348
 30
0.0
 10
10.59082396794621
 20
29.13774344813203
 30
0.0
 10
10.50819657307255
 20
29.09931567532084
 30
0.0
 10
10.32159147462156
 20
29.02754095938936
 30
0.0
 10
10.22047653184149
 20
28.99531550600517
 30
0.0
 10
10.00394386320708
 20
28.93856212494889
 30
0.0
 10
9.887073702976895
 20
28.91379031181735
 30
0.0
 10
9.644776098335
 20
28.87388466254811
 30
0.0
 10
9.520112184998943
 20
28.85874084033452
 30
0.0
 10
9.263825145385512
 20
28.83821702864356
 30
0.0
 10
9.131253087104149
 20
28.8329342207875
 30
0.0
 10
9.000718329482584
 20
28.83291538058086
 30
0.0
  0
SPLINE
  5
2A4
330
1F
100
AcDbEntity
  8
1
  6
SLD-Solid
370
    25
100
AcDbSpline
210
0.0
220
0.0
230
1.0
 70
     8
 71
     3
 72
    18
 73
    14
 74
     0
 42
0.000000001
 43
0.00000001
 40
0.0
 40
0.0
 40
0.0
 40
0.0
 40
0.0627579384725003
 40
0.1259236188642686
 40
0.1895094567858916
 40
0.2535275525789342
 40
0.3762719952188876
 40
0.5044894117534432
 40
0.629008524052228
 40
0.752696535392243
 40
0.8763987421632402
 40
0.9301250821023527
 40
1.0
 40
1.0
 40
1.0
 40
1.0
 10
2.750000000000003
 20
-8.572130569716892
 30
0.0
 10
2.725247004560491
 20
-8.57203651403868
 30
0.0
 10
2.675580192052995
 20
-8.57184779159714
 30
0.0
 10
2.6015843436199
 20
-8.570302823069888
 30
0.0
 10
2.528604493603245
 20
-8.56781780965279
 30
0.0
 10
2.435839309436319
 20
-8.563252566280411
 30
0.0
 10
2.326166243981909
 20
-8.55526127627686
 30
0.0
 10
2.21210231292529
 20
-8.542395569033298
 30
0.0
 10
2.119026744014721
 20
-8.526710226805779
 30
0.0
 10
2.050928106131694
 20
-8.509055555623874
 30
0.0
 10
2.017348575331174
 20
-8.493516731290528
 30
0.0
 10
2.002350099421929
 20
-8.480414138640684
 30
0.0
 10
2.00084875051687
 20
-8.473761119836748
 30
0.0
 10
2.000000000000002
 20
-8.47000000000001
 30
0.0
  0
SPLINE
  5
2A5
330
1F
100
AcDbEntity
  8
1
  6
SLD-Solid
370
    25
100
AcDbSpline
210
0.0
220
0.0
230
1.0
 70
    24
 71
     3
 72
    33
 73
    29
 74
     0
 42
0.000000001
 43
0.00000001
 40
0.0
 40
0.0
 40
0.0
 40
0.0
 40
0.0314237011767337
 40
0.0627338405838602
 40
0.0877464954133504
 40
0.1252832386178655
 40
0.1539645866459526
 40
0.1970563067230938
 40
0.2505255177847354
 40
0.2789594549292257
 40
0.3216329583856229
 40
0.375268220463781
 40
0.4040082420405375
 40
0.4468773540298183
 40
0.5002148082814621
 40
0.5286826550732796
 40
0.5715495672142539
 40
0.6253905027017045
 40
0.6539239774352609
 40
0.6965997818910221
 40
0.7499747437940889
 40
0.7785995635307223
 40
0.8217149157189394
 40
0.8751793187678318
 40
0.9000505647746745
 40
0.9373747247573453
 40
0.9685907020195158
 40
1.0
 40
1.0
 40
1.0
 40
1.0
 10
2.374999999999988
 20
-8.095000000000018
 30
0.0
 10
2.375084653143247
 20
-8.095000000000018
 30
0.0
 10
2.375253653502676
 20
-8.095000000000018
 30
0.0
 10
2.376523288498716
 20
-8.095000000000026
 30
0.0
 10
2.378604433210099
 20
-8.095000000000018
 30
0.0
 10
2.381481695767823
 20
-8.095000000000018
 30
0.0
 10
2.385982972786777
 20
-8.095000000000018
 30
0.0
 10
2.392449659118445
 20
-8.095000000000018
 30
0.0
 10
2.400638163765664
 20
-8.095000000000026
 30
0.0
 10
2.410229138284981
 20
-8.095000000000018
 30
0.0
 10
2.421063479730257
 20
-8.095000000000018
 30
0.0
 10
2.433554974923216
 20
-8.095000000000015
 30
0.0
 10
2.447402504695578
 20
-8.095000000000015
 30
0.0
 10
2.462353574794587
 20
-8.095000000000015
 30
0.0
 10
2.478736246500274
 20
-8.095000000000015
 30
0.0
 10
2.496277991374987
 20
-8.095000000000022
 30
0.0
 10
2.514873650347984
 20
-8.095000000000011
 30
0.0
 10
2.534730261353493
 20
-8.095000000000011
 30
0.0
 10
2.555504834926739
 20
-8.095000000000018
 30
0.0
 10
2.576977045940607
 20
-8.095000000000011
 30
0.0
 10
2.599407555219063
 20
-8.095000000000008
 30
0.0
 10
2.622583009878054
 20
-8.095000000000008
 30
0.0
 10
2.646309265266197
 20
-8.095000000000008
 30
0.0
 10
2.669897011154568
 20
-8.095000000000004
 30
0.0
 10
2.692658387484031
 20
-8.095000000000004
 30
0.0
 10
2.711206195171928
 20
-8.095000000000011
 30
0.0
 10
2.731167694149217
 20
-8.095
 30
0.0
 10
2.743709659268359
 20
-8.095000000000008
 30
0.0
 10
2.750000000000016
 20
-8.095
 30
0.0
  0
SPLINE
  5
2A6
330
1F
100
AcDbEntity
  8
SK3
  6
SLD-Solid
370
    25
100
AcDbSpline
210
0.0
220
0.0
230
1.0
 70
     8
 71
     3
 72
     8
 73
     4
 74
     0
 42
0.000000001
 43
0.00000001
 40
0.0
 40
0.0
 40
0.0
 40
0.0
 40
0.0006580774610835
 40
0.0006580774610835
 40
0.0006580774610835
 40
0.0006580774610835
 10
11.85425903357669
 20
-8.095
 30
0.0
 10
11.76317881805253
 20
-8.254167378692417
 30
0.0
 10
11.67175324177072
 20
-8.413209293210828
 30
0.0
 10
11.57999999999999
 20
-8.572130569716892
 30
0.0
  0
SPLINE
  5
2A7
330
1F
100
AcDbEntity
  8
1
  6
SLD-Solid
370
    25
100
AcDbSpline
210
0.0
220
0.0
230
1.0
 70
    24
 71
     3
 72
     8
 73
     4
 74
     0
 42
0.000000001
 43
0.00000001
 40
0.0
 40
0.0
 40
0.0
 40
0.0
 40
1.0
 40
1.0
 40
1.0
 40
1.0
 10
14.10000000000003
 20
8.095000000000004
 30
0.0
 10
13.35489499866901
 20
8.095000000000004
 30
0.0
 10
12.60586652431962
 20
8.095000000000004
 30
0.0
 10
11.85425903357669
 20
8.095000000000004
 30
0.0
  0
SPLINE
  5
2A8
330
1F
100
AcDbEntity
  8
SK3
  6
SLD-Solid
370
    25
100
AcDbSpline
210
0.0
220
0.0
230
1.0
 70
    24
 71
     3
 72
     8
 73
     4
 74
     0
 42
0.000000001
 43
0.00000001
 40
0.0
 40
0.0
 40
0.0
 40
0.0
 40
1.0
 40
1.0
 40
1.0
 40
1.0
 10
11.85425903357669
 20
-8.095
 30
0.0
 10
12.60586728865158
 20
-8.095
 30
0.0
 10
13.35490602558602
 20
-8.095
 30
0.0
 10
14.1
 20
-8.095
 30
0.0
  0
SPLINE
  5
2A9
330
1F
100
AcDbEntity
  8
1
  6
SLD-Solid
370
    25
100
AcDbSpline
210
0.0
220
0.0
230
1.0
 70
     8
 71
     3
 72
     8
 73
     4
 74
     0
 42
0.000000001
 43
0.00000001
 40
0.0
 40
0.0
 40
0.0
 40
0.0
 40
0.4999999999999993
 40
0.4999999999999993
 40
0.4999999999999993
 40
0.4999999999999993
 10
18.7250000000008
 20
-7.382860218099384
 30
0.0
 10
18.82551825775797
 20
-7.337658141140691
 30
0.0
 10
18.91735913082668
 20
-7.29371421287378
 30
0.0
 10
18.9862953714441
 20
-7.259707188480338
 30
0.0
  0
SPLINE
  5
2AA
330
1F
100
AcDbEntity
  8
1
  6
SLD-Solid
370
    25
100
AcDbSpline
210
0.0
220
0.0
230
1.0
 70
     8
 71
     3
 72
     8
 73
     4
 74
     0
 42
0.000000001
 43
0.00000001
 40
0.4999999999999993
 40
0.4999999999999993
 40
0.4999999999999993
 40
0.4999999999999993
 40
0.7499999999999997
 40
0.7499999999999997
 40
0.7499999999999997
 40
0.7499999999999997
 10
18.9862953714441
 20
-7.259707188480338
 30
0.0
 10
19.02076349175282
 20
-7.242703676283615
 30
0.0
 10
19.04869102209948
 20
-7.228626825593367
 30
0.0
 10
19.06873084400239
 20
-7.218455603708148
 30
0.0
  0
SPLINE
  5
2AB
330
1F
100
AcDbEntity
  8
SK3
  6
SLD-Solid
370
    25
100
AcDbSpline
210
0.0
220
0.0
230
1.0
 70
     8
 71
     2
 72
     6
 73
     3
 74
     0
 42
0.000000001
 43
0.00000001
 40
0.7499999999999997
 40
0.7499999999999997
 40
0.7499999999999997
 40
1.0
 40
1.0
 40
1.0
 10
19.06873084400239
 20
-7.218455603708148
 30
0.0
 10
19.08877066590516
 20
-7.208284381822653
 30
0.0
 10
19.09999999999999
 20
-7.202499566122858
 30
0.0
  0
SPLINE
  5
2AC
330
1F
100
AcDbEntity
  8
1
  6
SLD-Solid
370
    25
100
AcDbSpline
210
0.0
220
0.0
230
1.0
 70
     8
 71
     2
 72
     6
 73
     3
 74
     0
 42
0.000000001
 43
0.00000001
 40
0.0
 40
0.0
 40
0.0
 40
0.5
 40
0.5
 40
0.5
 10
19.10000010899302
 20
7.20249943701265
 30
0.0
 10
19.05448214041952
 20
7.22607187994448
 30
0.0
 10
18.98611859091677
 20
7.259794318284593
 30
0.0
  0
SPLINE
  5
2AD
330
1F
100
AcDbEntity
  8
1
  6
SLD-Solid
370
    25
100
AcDbSpline
210
0.0
220
0.0
230
1.0
 70
     8
 71
     3
 72
     8
 73
     4
 74
     0
 42
0.000000001
 43
0.00000001
 40
0.5
 40
0.5
 40
0.5
 40
0.5
 40
1.0
 40
1.0
 40
1.0
 40
1.0
 10
18.98611859091677
 20
7.259794318284593
 30
0.0
 10
18.91775504141402
 20
7.293516756624714
 30
0.0
 10
18.82528766114704
 20
7.337761758083275
 30
0.0
 10
18.72500010899345
 20
7.382860088989466
 30
0.0
  0
SPLINE
  5
2AE
330
1F
100
AcDbEntity
  8
1
  6
SLD-Solid
370
    25
100
AcDbSpline
210
0.0
220
0.0
230
1.0
 70
     8
 71
     3
 72
    10
 73
     6
 74
     0
 42
0.000000001
 43
0.00000001
 40
0.0
 40
0.0
 40
0.0
 40
0.0
 40
0.5000000000000001
 40
0.5000000000000001
 40
1.0
 40
1.0
 40
1.0
 40
1.0
 10
15.40500000000082
 20
-8.094999999999821
 30
0.0
 10
15.9811265798524
 20
-8.094999999999793
 30
0.0
 10
16.54624836374988
 20
-8.034200497612526
 30
0.0
 10
17.65561942498843
 20
-7.796508043186043
 30
0.0
 10
18.203390058032
 20
-7.617423105134829
 30
0.0
 10
18.7250000000008
 20
-7.38286021809938
 30
0.0
  0
SPLINE
  5
2AF
330
1F
100
AcDbEntity
  8
1
  6
SLD-Solid
370
    25
100
AcDbSpline
210
0.0
220
0.0
230
1.0
 70
     8
 71
     3
 72
    10
 73
     6
 74
     0
 42
0.000000001
 43
0.00000001
 40
0.0
 40
0.0
 40
0.0
 40
0.0
 40
0.4999999999999999
 40
0.4999999999999999
 40
1.0
 40
1.0
 40
1.0
 40
1.0
 10
18.72500010899345
 20
7.382860088989466
 30
0.0
 10
18.20352437703111
 20
7.617362623098201
 30
0.0
 10
17.66546737393669
 20
7.79365805803315
 30
0.0
 10
16.55640670444073
 20
8.032750523428875
 30
0.0
 10
15.98103488700028
 20
8.094999870889707
 30
0.0
 10
15.40500010899343
 20
8.094999870889714
 30
0.0
  0
SPLINE
  5
2B0
330
1F
100
AcDbEntity
  8
1
  6
SLD-Solid
370
    25
100
AcDbSpline
210
0.0
220
0.0
230
1.0
 70
    24
 71
     2
 72
     6
 73
     3
 74
     0
 42
0.000000001
 43
0.00000001
 40
0.0
 40
0.0
 40
0.0
 40
0.5
 40
0.5
 40
0.5
 10
14.1
 20
-8.095
 30
0.0
 10
14.13833775894856
 20
-8.095000000000008
 30
0.0
 10
14.20646774268722
 20
-8.095
 30
0.0
  0
SPLINE
  5
2B1
330
1F
100
AcDbEntity
  8
1
  6
SLD-Solid
370
    25
100
AcDbSpline
210
0.0
220
0.0
230
1.0
 70
    24
 71
     3
 72
     8
 73
     4
 74
     0
 42
0.000000001
 43
0.00000001
 40
0.5
 40
0.5
 40
0.5
 40
0.5
 40
1.0
 40
1.0
 40
1.0
 40
1.0
 10
14.20646774268722
 20
-8.095
 30
0.0
 10
14.27459772642586
 20
-8.094999999999956
 30
0.0
 10
14.37375021474617
 20
-8.094999999999887
 30
0.0
 10
14.475
 20
-8.094999999999821
 30
0.0
  0
SPLINE
  5
2B2
330
1F
100
AcDbEntity
  8
1
  6
SLD-Solid
370
    25
100
AcDbSpline
210
0.0
220
0.0
230
1.0
 70
    24
 71
     3
 72
     8
 73
     4
 74
     0
 42
0.000000001
 43
0.00000001
 40
0.0
 40
0.0
 40
0.0
 40
0.0
 40
0.5
 40
0.5
 40
0.5
 40
0.5
 10
14.475
 20
8.094999870889714
 30
0.0
 10
14.37490757871318
 20
8.0949999190075
 30
0.0
 10
14.27461163852711
 20
8.09499996722314
 30
0.0
 10
14.20643072196751
 20
8.095000000000004
 30
0.0
  0
SPLINE
  5
2B3
330
1F
100
AcDbEntity
  8
1
  6
SLD-Solid
370
    25
100
AcDbSpline
210
0.0
220
0.0
230
1.0
 70
    24
 71
     2
 72
     6
 73
     3
 74
     0
 42
0.000000001
 43
0.00000001
 40
0.5
 40
0.5
 40
0.5
 40
1.0
 40
1.0
 40
1.0
 10
14.20643072196748
 20
8.095000000000004
 30
0.0
 10
14.13824980540784
 20
8.094999999999999
 30
0.0
 10
14.1
 20
8.095000000000004
 30
0.0
  0
SPLINE
  5
2B4
330
1F
100
AcDbEntity
  8
1
  6
SLD-Solid
370
    25
100
AcDbSpline
210
0.0
220
0.0
230
1.0
 70
     8
 71
     3
 72
    14
 73
    10
 74
     0
 42
0.000000001
 43
0.00000001
 40
0.0
 40
0.0
 40
0.0
 40
0.0
 40
0.4999999999999999
 40
0.4999999999999999
 40
0.6249999999999999
 40
0.6249999999999999
 40
0.7499999999999998
 40
0.7499999999999998
 40
1.0
 40
1.0
 40
1.0
 40
1.0
 10
2.000000000000016
 20
1.683723740806976
 30
0.0
 10
2.000000000000013
 20
1.126490098731149
 30
0.0
 10
1.997382192824535
 20
0.5692544504007844
 30
0.0
 10
1.997350869356755
 20
-0.1272876261999151
 30
0.0
 10
1.997459903751267
 20
-0.270459306125636
 30
0.0
 10
1.997869036802385
 20
-0.5531130871575946
 30
0.0
 10
1.998168915110833
 20
-0.6944398168474731
 30
0.0
 10
1.999165407249539
 20
-1.118419842483304
 30
0.0
 10
2.000000000000003
 20
-1.401081182309572
 30
0.0
 10
2.000000000000002
 20
-1.683723740806983
 30
0.0
  0
SPLINE
  5
2B5
330
1F
100
AcDbEntity
  8
SK3
  6
SLD-Dashed
370
    18
100
AcDbSpline
210
0.0
220
0.0
230
1.0
 70
     8
 71
     3
 72
    38
 73
    34
 74
     0
 42
0.000000001
 43
0.00000001
 40
0.4999999999999987
 40
0.4999999999999987
 40
0.4999999999999987
 40
0.4999999999999987
 40
0.5312499999999988
 40
0.5312499999999988
 40
0.5624999999999989
 40
0.5624999999999989
 40
0.5937499999999989
 40
0.5937499999999989
 40
0.624999999999999
 40
0.624999999999999
 40
0.6562499999999991
 40
0.6562499999999991
 40
0.6874999999999992
 40
0.6874999999999992
 40
0.7187499999999992
 40
0.7187499999999992
 40
0.7499999999999993
 40
0.7499999999999993
 40
0.7812499999999994
 40
0.7812499999999994
 40
0.8124999999999994
 40
0.8124999999999994
 40
0.8437499999999996
 40
0.8437499999999996
 40
0.8749999999999997
 40
0.8749999999999997
 40
0.9062499999999998
 40
0.9062499999999998
 40
0.9374999999999998
 40
0.9374999999999998
 40
0.9687499999999999
 40
0.9687499999999999
 40
1.0
 40
1.0
 40
1.0
 40
1.0
 10
8.389615677742796
 20
22.02574124125794
 30
0.0
 10
8.464552773645384
 20
21.92269241252431
 30
0.0
 10
8.54323354838192
 20
21.82223799751589
 30
0.0
 10
8.713916410064638
 20
21.6305478167555
 30
0.0
 10
8.8056637611737
 20
21.53965513039453
 30
0.0
 10
9.0061720248093
 20
21.38306963701531
 30
0.0
 10
9.116713426886122
 20
21.31709871582837
 30
0.0
 10
9.351563167496636
 20
21.23330030716373
 30
0.0
 10
9.476232506091433
 20
21.21629005250828
 30
0.0
 10
9.716528990621837
 20
21.22724276834262
 30
0.0
 10
9.831917245784776
 20
21.25357631554408
 30
0.0
 10
10.04289827390622
 20
21.32667968202407
 30
0.0
 10
10.14022771182219
 20
21.37403069860862
 30
0.0
 10
10.31063412821963
 20
21.47563535088542
 30
0.0
 10
10.38562569486487
 20
21.53114724163315
 30
0.0
 10
10.50796370028681
 20
21.64094684167993
 30
0.0
 10
10.55606402350248
 20
21.69557020423586
 30
0.0
 10
10.62492158793413
 20
21.80168829963677
 30
0.0
 10
10.64435392420919
 20
21.85131897067857
 30
0.0
 10
10.65353346741671
 20
21.94188708351501
 30
0.0
 10
10.64282065621593
 20
21.98327972318027
 30
0.0
 10
10.59223103275131
 20
22.05365970427719
 30
0.0
 10
10.55218811311152
 20
22.08346950947482
 30
0.0
 10
10.44469162253345
 20
22.13262267987434
 30
0.0
 10
10.37851141132154
 20
22.15158107185287
 30
0.0
 10
10.22144238602042
 20
22.1829168891065
 30
0.0
 10
10.13084925405602
 20
22.195004256691
 30
0.0
 10
9.932439369296429
 20
22.21956826484688
 30
0.0
 10
9.821730225994237
 20
22.23228632873231
 30
0.0
 10
9.58834848988789
 20
22.27326612130304
 30
0.0
 10
9.463550429519934
 20
22.30287456048987
 30
0.0
 10
9.22342444545908
 20
22.39190629614585
 30
0.0
 10
9.107139849438935
 20
22.45183537394972
 30
0.0
 10
9.000000000000007
 20
22.52233123672765
 30
0.0
  0
SPLINE
  5
2B6
330
1F
100
AcDbEntity
  8
SK3
  6
SLD-Dashed
370
    18
100
AcDbSpline
210
0.0
220
0.0
230
1.0
 70
     8
 71
     3
 72
    28
 73
    24
 74
     0
 42
0.000000001
 43
0.00000001
 40
0.0
 40
0.0
 40
0.0
 40
0.0
 40
0.03125
 40
0.03125
 40
0.0624999999999999
 40
0.0624999999999999
 40
0.1249999999999998
 40
0.1249999999999998
 40
0.1874999999999996
 40
0.1874999999999996
 40
0.2499999999999995
 40
0.2499999999999995
 40
0.2812499999999994
 40
0.2812499999999994
 40
0.3124999999999992
 40
0.3124999999999992
 40
0.3437499999999991
 40
0.3437499999999991
 40
0.3749999999999989
 40
0.3749999999999989
 40
0.4374999999999988
 40
0.4374999999999988
 40
0.4999999999999987
 40
0.4999999999999987
 40
0.4999999999999987
 40
0.4999999999999987
 10
9.000000000000007
 20
22.52233123672765
 30
0.0
 10
8.892860150561066
 20
22.59282709950558
 30
0.0
 10
8.79838523689927
 20
22.66990750004075
 30
0.0
 10
8.621939216902922
 20
22.82961370479943
 30
0.0
 10
8.540182184178777
 20
22.91231215829967
 30
0.0
 10
8.305768068220893
 20
23.16252103113794
 30
0.0
 10
8.166534969209271
 20
23.32864106752399
 30
0.0
 10
7.907638346472138
 20
23.63720960672155
 30
0.0
 10
7.787080491755749
 20
23.78227041719408
 30
0.0
 10
7.567189363434215
 20
24.024429699986
 30
0.0
 10
7.469088099480673
 20
24.1209219983082
 30
0.0
 10
7.376384877224584
 20
24.1538142913686
 30
0.0
 10
7.355974983827146
 20
24.14399772135308
 30
0.0
 10
7.346322109364658
 20
24.07127996177712
 30
0.0
 10
7.357377282906641
 20
24.00857113869987
 30
0.0
 10
7.404737655688942
 20
23.84938637299234
 30
0.0
 10
7.440626644395682
 20
23.75336240380342
 30
0.0
 10
7.524523969418037
 20
23.55156101378864
 30
0.0
 10
7.573578154217761
 20
23.44314090558986
 30
0.0
 10
7.730197706592834
 20
23.11618036874424
 30
0.0
 10
7.84895180333084
 20
22.8909652042408
 30
0.0
 10
8.104485198360074
 20
22.44806671860827
 30
0.0
 10
8.239741485937632
 20
22.23183889872521
 30
0.0
 10
8.389615677742796
 20
22.02574124125794
 30
0.0
  0
SPLINE
  5
2B7
330
1F
100
AcDbEntity
  8
SK3
  6
SLD-Dashed
370
    18
100
AcDbSpline
210
0.0
220
0.0
230
1.0
 70
     8
 71
     3
 72
    38
 73
    34
 74
     0
 42
0.000000001
 43
0.00000001
 40
0.4999999999999987
 40
0.4999999999999987
 40
0.4999999999999987
 40
0.4999999999999987
 40
0.5312499999999988
 40
0.5312499999999988
 40
0.5624999999999989
 40
0.5624999999999989
 40
0.5937499999999989
 40
0.5937499999999989
 40
0.624999999999999
 40
0.624999999999999
 40
0.6562499999999991
 40
0.6562499999999991
 40
0.6874999999999992
 40
0.6874999999999992
 40
0.7187499999999992
 40
0.7187499999999992
 40
0.7499999999999993
 40
0.7499999999999993
 40
0.7812499999999994
 40
0.7812499999999994
 40
0.8124999999999994
 40
0.8124999999999994
 40
0.8437499999999996
 40
0.8437499999999996
 40
0.8749999999999997
 40
0.8749999999999997
 40
0.9062499999999998
 40
0.9062499999999998
 40
0.9374999999999998
 40
0.9374999999999998
 40
0.9687499999999999
 40
0.9687499999999999
 40
1.0
 40
1.0
 40
1.0
 40
1.0
 10
8.389615677742796
 20
22.02574124125794
 30
0.0
 10
8.464552773645384
 20
21.92269241252431
 30
0.0
 10
8.54323354838192
 20
21.82223799751589
 30
0.0
 10
8.713916410064638
 20
21.6305478167555
 30
0.0
 10
8.8056637611737
 20
21.53965513039453
 30
0.0
 10
9.0061720248093
 20
21.38306963701531
 30
0.0
 10
9.116713426886122
 20
21.31709871582837
 30
0.0
 10
9.351563167496636
 20
21.23330030716373
 30
0.0
 10
9.476232506091433
 20
21.21629005250828
 30
0.0
 10
9.716528990621837
 20
21.22724276834262
 30
0.0
 10
9.831917245784776
 20
21.25357631554408
 30
0.0
 10
10.04289827390622
 20
21.32667968202407
 30
0.0
 10
10.14022771182219
 20
21.37403069860862
 30
0.0
 10
10.31063412821963
 20
21.47563535088542
 30
0.0
 10
10.38562569486487
 20
21.53114724163315
 30
0.0
 10
10.50796370028681
 20
21.64094684167993
 30
0.0
 10
10.55606402350248
 20
21.69557020423586
 30
0.0
 10
10.62492158793413
 20
21.80168829963677
 30
0.0
 10
10.64435392420919
 20
21.85131897067857
 30
0.0
 10
10.65353346741671
 20
21.94188708351501
 30
0.0
 10
10.64282065621593
 20
21.98327972318027
 30
0.0
 10
10.59223103275131
 20
22.05365970427719
 30
0.0
 10
10.55218811311152
 20
22.08346950947482
 30
0.0
 10
10.44469162253345
 20
22.13262267987434
 30
0.0
 10
10.37851141132154
 20
22.15158107185287
 30
0.0
 10
10.22144238602042
 20
22.1829168891065
 30
0.0
 10
10.13084925405602
 20
22.195004256691
 30
0.0
 10
9.932439369296429
 20
22.21956826484688
 30
0.0
 10
9.821730225994237
 20
22.23228632873231
 30
0.0
 10
9.58834848988789
 20
22.27326612130304
 30
0.0
 10
9.463550429519934
 20
22.30287456048987
 30
0.0
 10
9.22342444545908
 20
22.39190629614585
 30
0.0
 10
9.107139849438935
 20
22.45183537394972
 30
0.0
 10
9.000000000000007
 20
22.52233123672765
 30
0.0
  0
SPLINE
  5
2B8
330
1F
100
AcDbEntity
  8
SK3
  6
SLD-Dashed
370
    18
100
AcDbSpline
210
0.0
220
0.0
230
1.0
 70
     8
 71
     3
 72
    28
 73
    24
 74
     0
 42
0.000000001
 43
0.00000001
 40
0.0
 40
0.0
 40
0.0
 40
0.0
 40
0.03125
 40
0.03125
 40
0.0624999999999999
 40
0.0624999999999999
 40
0.1249999999999998
 40
0.1249999999999998
 40
0.1874999999999996
 40
0.1874999999999996
 40
0.2499999999999995
 40
0.2499999999999995
 40
0.2812499999999994
 40
0.2812499999999994
 40
0.3124999999999992
 40
0.3124999999999992
 40
0.3437499999999991
 40
0.3437499999999991
 40
0.3749999999999989
 40
0.3749999999999989
 40
0.4374999999999988
 40
0.4374999999999988
 40
0.4999999999999987
 40
0.4999999999999987
 40
0.4999999999999987
 40
0.4999999999999987
 10
9.000000000000007
 20
22.52233123672765
 30
0.0
 10
8.892860150561066
 20
22.59282709950558
 30
0.0
 10
8.79838523689927
 20
22.66990750004075
 30
0.0
 10
8.621939216902922
 20
22.82961370479943
 30
0.0
 10
8.540182184178777
 20
22.91231215829967
 30
0.0
 10
8.305768068220893
 20
23.16252103113794
 30
0.0
 10
8.166534969209271
 20
23.32864106752399
 30
0.0
 10
7.907638346472138
 20
23.63720960672155
 30
0.0
 10
7.787080491755749
 20
23.78227041719408
 30
0.0
 10
7.567189363434215
 20
24.024429699986
 30
0.0
 10
7.469088099480673
 20
24.1209219983082
 30
0.0
 10
7.376384877224584
 20
24.1538142913686
 30
0.0
 10
7.355974983827146
 20
24.14399772135308
 30
0.0
 10
7.346322109364658
 20
24.07127996177712
 30
0.0
 10
7.357377282906641
 20
24.00857113869987
 30
0.0
 10
7.404737655688942
 20
23.84938637299234
 30
0.0
 10
7.440626644395682
 20
23.75336240380342
 30
0.0
 10
7.524523969418037
 20
23.55156101378864
 30
0.0
 10
7.573578154217761
 20
23.44314090558986
 30
0.0
 10
7.730197706592834
 20
23.11618036874424
 30
0.0
 10
7.84895180333084
 20
22.8909652042408
 30
0.0
 10
8.104485198360074
 20
22.44806671860827
 30
0.0
 10
8.239741485937632
 20
22.23183889872521
 30
0.0
 10
8.389615677742796
 20
22.02574124125794
 30
0.0
  0
SPLINE
  5
2B9
330
1F
100
AcDbEntity
  8
SK3
  6
SLD-Dashed
370
    18
100
AcDbSpline
210
0.0
220
0.0
230
1.0
 70
     8
 71
     3
 72
    32
 73
    28
 74
     0
 42
0.000000001
 43
0.00000001
 40
0.5000000000000022
 40
0.5000000000000022
 40
0.5000000000000022
 40
0.5000000000000022
 40
0.5625000000000027
 40
0.5625000000000027
 40
0.5937500000000028
 40
0.5937500000000028
 40
0.6250000000000029
 40
0.6250000000000029
 40
0.6562500000000031
 40
0.6562500000000031
 40
0.6875000000000032
 40
0.6875000000000032
 40
0.7187500000000033
 40
0.7187500000000033
 40
0.7500000000000034
 40
0.7500000000000034
 40
0.8125000000000028
 40
0.8125000000000028
 40
0.8750000000000021
 40
0.8750000000000021
 40
0.9062500000000016
 40
0.9062500000000016
 40
0.937500000000001
 40
0.937500000000001
 40
0.9687500000000006
 40
0.9687500000000006
 40
1.0
 40
1.0
 40
1.0
 40
1.0
 10
7.456230207610104
 20
19.84600673884608
 30
0.0
 10
7.546439438621974
 20
19.95426866967478
 30
0.0
 10
7.69273357117399
 20
20.07094934226743
 30
0.0
 10
7.972968724529405
 20
20.21091817829938
 30
0.0
 10
8.075281363416343
 20
20.25117971404976
 30
0.0
 10
8.299556825010088
 20
20.30548974841721
 30
0.0
 10
8.420055834779797
 20
20.31835458358097
 30
0.0
 10
8.664330351546512
 20
20.29472325415855
 30
0.0
 10
8.784295625434742
 20
20.2577863873856
 30
0.0
 10
9.008919125679373
 20
20.1403224878861
 30
0.0
 10
9.109838184184357
 20
20.06343380589292
 30
0.0
 10
9.297290894689962
 20
19.89078717598882
 30
0.0
 10
9.383733967009256
 20
19.79494548607432
 30
0.0
 10
9.545098872194652
 20
19.59705747977521
 30
0.0
 10
9.620726716161585
 20
19.49411222683431
 30
0.0
 10
9.838475211045111
 20
19.17772611922446
 30
0.0
 10
9.972459158192185
 20
18.95551747124611
 30
0.0
 10
10.2181075349755
 20
18.51489382659243
 30
0.0
 10
10.33101402996076
 20
18.2944664044408
 30
0.0
 10
10.47999063705325
 20
17.96958614238823
 30
0.0
 10
10.52474319299179
 20
17.86515021015935
 30
0.0
 10
10.59843589743607
 20
17.67242127134742
 30
0.0
 10
10.62620768260132
 20
17.587028417322
 30
0.0
 10
10.65415209263677
 20
17.45435220691153
 30
0.0
 10
10.65286856709552
 20
17.4109153037984
 30
0.0
 10
10.62120361374108
 20
17.37653193951725
 30
0.0
 10
10.59130436150139
 20
17.38454088990769
 30
0.0
 10
10.55308824864455
 20
17.40968632236791
 30
0.0
  0
SPLINE
  5
2BA
330
1F
100
AcDbEntity
  8
SK3
  6
SLD-Dashed
370
    18
100
AcDbSpline
210
0.0
220
0.0
230
1.0
 70
     8
 71
     3
 72
    32
 73
    28
 74
     0
 42
0.000000001
 43
0.00000001
 40
0.0
 40
0.0
 40
0.0
 40
0.0
 40
0.0312500000000004
 40
0.0312500000000004
 40
0.0625000000000007
 40
0.0625000000000007
 40
0.1250000000000012
 40
0.1250000000000012
 40
0.1875000000000016
 40
0.1875000000000016
 40
0.2187500000000017
 40
0.2187500000000017
 40
0.2500000000000017
 40
0.2500000000000017
 40
0.2812500000000018
 40
0.2812500000000018
 40
0.3125000000000018
 40
0.3125000000000018
 40
0.3437500000000018
 40
0.3437500000000018
 40
0.3750000000000018
 40
0.3750000000000018
 40
0.4062500000000019
 40
0.4062500000000019
 40
0.4375000000000019
 40
0.4375000000000019
 40
0.5000000000000022
 40
0.5000000000000022
 40
0.5000000000000022
 40
0.5000000000000022
 10
10.55308824864455
 20
17.40968632236791
 30
0.0
 10
10.51487213578767
 20
17.43483175482812
 30
0.0
 10
10.46983022717768
 20
17.47541959914543
 30
0.0
 10
10.37081904354853
 20
17.57495501224682
 30
0.0
 10
10.31630583330358
 20
17.63468171470313
 30
0.0
 10
10.14470275204582
 20
17.83011468983803
 30
0.0
 10
10.0208717841328
 20
17.98043066739106
 30
0.0
 10
9.751365665135777
 20
18.29967117781139
 30
0.0
 10
9.606244043034854
 20
18.46955195332399
 30
0.0
 10
9.360735956978658
 20
18.71806092835867
 30
0.0
 10
9.273067061356304
 20
18.80074761294372
 30
0.0
 10
9.08248159836958
 20
18.95594905056459
 30
0.0
 10
8.978191466547603
 20
19.02910999751616
 30
0.0
 10
8.752139650361451
 20
19.15082152874418
 30
0.0
 10
8.62934137328375
 20
19.19863634895722
 30
0.0
 10
8.387204787212319
 20
19.26501062988957
 30
0.0
 10
8.266814367632215
 20
19.28512289757326
 30
0.0
 10
8.046561717486494
 20
19.3156318921451
 30
0.0
 10
7.944121662684156
 20
19.3266893603509
 30
0.0
 10
7.760725737691529
 20
19.35213271930933
 30
0.0
 10
7.680377292549625
 20
19.36624187488922
 30
0.0
 10
7.541999915855968
 20
19.40397372362142
 30
0.0
 10
7.486162551754952
 20
19.42699569581447
 30
0.0
 10
7.401526261015645
 20
19.48406624904845
 30
0.0
 10
7.372625165964458
 20
19.51869988496407
 30
0.0
 10
7.332227545734413
 20
19.63671408738469
 30
0.0
 10
7.366020976598234
 20
19.73774480801737
 30
0.0
 10
7.456230207610104
 20
19.84600673884608
 30
0.0
  0
SPLINE
  5
2BB
330
1F
100
AcDbEntity
  8
SK3
  6
SLD-Dashed
370
    18
100
AcDbSpline
210
0.0
220
0.0
230
1.0
 70
     8
 71
     3
 72
    30
 73
    26
 74
     0
 42
0.000000001
 43
0.00000001
 40
0.5000000000000029
 40
0.5000000000000029
 40
0.5000000000000029
 40
0.5000000000000029
 40
0.5625000000000032
 40
0.5625000000000032
 40
0.5937500000000032
 40
0.5937500000000032
 40
0.6250000000000032
 40
0.6250000000000032
 40
0.6562500000000032
 40
0.6562500000000032
 40
0.6875000000000031
 40
0.6875000000000031
 40
0.7500000000000028
 40
0.7500000000000028
 40
0.7812500000000026
 40
0.7812500000000026
 40
0.8125000000000022
 40
0.8125000000000022
 40
0.843750000000002
 40
0.843750000000002
 40
0.8750000000000018
 40
0.8750000000000018
 40
0.9375000000000009
 40
0.9375000000000009
 40
1.0
 40
1.0
 40
1.0
 40
1.0
 10
9.000671260813247
 20
7.031499375151427
 30
0.0
 10
8.785022969585498
 20
7.031452541318401
 30
0.0
 10
8.56736815454466
 20
7.054893428876719
 30
0.0
 10
8.26934956030241
 20
7.118909709930469
 30
0.0
 10
8.172991148140934
 20
7.145297371413853
 30
0.0
 10
7.99334526244988
 20
7.205386197226452
 30
0.0
 10
7.910443379625668
 20
7.238807336677692
 30
0.0
 10
7.758204322728377
 20
7.311201391774255
 30
0.0
 10
7.68862163257529
 20
7.350480644211705
 30
0.0
 10
7.569075026854708
 20
7.430348436704898
 30
0.0
 10
7.518253104931233
 20
7.471275892259127
 30
0.0
 10
7.393307808703842
 20
7.595726762006836
 30
0.0
 10
7.350153293003217
 20
7.677511959663909
 30
0.0
 10
7.349923962694141
 20
7.789346161426403
 30
0.0
 10
7.360534583711511
 20
7.824040558644107
 30
0.0
 10
7.402463189108436
 20
7.88864091962977
 30
0.0
 10
7.434338265051118
 20
7.918806930307033
 30
0.0
 10
7.516934594877664
 20
7.972612757066039
 30
0.0
 10
7.567531837664093
 20
7.996474507136524
 30
0.0
 10
7.687410796836755
 20
8.039066803513323
 30
0.0
 10
7.756662478394557
 20
8.057643597863297
 30
0.0
 10
7.984004279984844
 20
8.104969859354604
 30
0.0
 10
8.167545136853734
 20
8.126502996962422
 30
0.0
 10
8.564396052552562
 20
8.153835395103746
 30
0.0
 10
8.781394109755022
 20
8.160165775234963
 30
0.0
 10
9.000000000000007
 20
8.160165775234956
 30
0.0
  0
SPLINE
  5
2BC
330
1F
100
AcDbEntity
  8
SK3
  6
SLD-Dashed
370
    18
100
AcDbSpline
210
0.0
220
0.0
230
1.0
 70
     8
 71
     3
 72
    32
 73
    28
 74
     0
 42
0.000000001
 43
0.00000001
 40
0.0
 40
0.0
 40
0.0
 40
0.0
 40
0.0312500000000002
 40
0.0312500000000002
 40
0.0625000000000004
 40
0.0625000000000004
 40
0.0937500000000006
 40
0.0937500000000006
 40
0.1250000000000008
 40
0.1250000000000008
 40
0.1875000000000012
 40
0.1875000000000012
 40
0.2500000000000016
 40
0.2500000000000016
 40
0.2812500000000018
 40
0.2812500000000018
 40
0.3125000000000021
 40
0.3125000000000021
 40
0.3750000000000024
 40
0.3750000000000024
 40
0.4062500000000026
 40
0.4062500000000026
 40
0.4375000000000027
 40
0.4375000000000027
 40
0.4687500000000028
 40
0.4687500000000028
 40
0.5000000000000029
 40
0.5000000000000029
 40
0.5000000000000029
 40
0.5000000000000029
 10
9.000000000000007
 20
8.160165775234956
 30
0.0
 10
9.109302945122465
 20
8.160165775234956
 30
0.0
 10
9.216722749822798
 20
8.158570331486523
 30
0.0
 10
9.42796795045306
 20
8.152087864053408
 30
0.0
 10
9.532906947896949
 20
8.147114686235447
 30
0.0
 10
9.732579505763992
 20
8.133400627263233
 30
0.0
 10
9.82723783612946
 20
8.12471996233656
 30
0.0
 10
10.00638197342531
 20
8.102743902927195
 30
0.0
 10
10.09098169308473
 20
8.089334783392605
 30
0.0
 10
10.31862683424166
 20
8.042020257323584
 30
0.0
 10
10.44147564989657
 20
7.999557508641848
 30
0.0
 10
10.60624912986501
 20
7.892514248357095
 30
0.0
 10
10.64987191641109
 20
7.826589794413696
 30
0.0
 10
10.65006360790861
 20
7.715902439187052
 30
0.0
 10
10.63928555850448
 20
7.67635814715846
 30
0.0
 10
10.59706948235006
 20
7.596121604683266
 30
0.0
 10
10.56583742020971
 20
7.555191749201446
 30
0.0
 10
10.441496502983
 20
7.430874212317182
 30
0.0
 10
10.3202753317505
 20
7.348657628997259
 30
0.0
 10
10.0902863822999
 20
7.239086757303205
 30
0.0
 10
10.00728107421782
 20
7.205648826709196
 30
0.0
 10
9.828872659112198
 20
7.145868393577816
 30
0.0
 10
9.732284235501085
 20
7.119308920044511
 30
0.0
 10
9.532881362971354
 20
7.076380011258154
 30
0.0
 10
9.430040275621193
 20
7.059840389124834
 30
0.0
 10
9.218010308974552
 20
7.037336085089239
 30
0.0
 10
9.108495406427123
 20
7.031522792067937
 30
0.0
 10
9.000671260813247
 20
7.031499375151427
 30
0.0
  0
SPLINE
  5
2BD
330
1F
100
AcDbEntity
  8
SK3
  6
SLD-Dashed
370
    18
100
AcDbSpline
210
0.0
220
0.0
230
1.0
 70
     8
 71
     3
 72
    30
 73
    26
 74
     0
 42
0.000000001
 43
0.00000001
 40
0.5000000000000036
 40
0.5000000000000036
 40
0.5000000000000036
 40
0.5000000000000036
 40
0.5625000000000034
 40
0.5625000000000034
 40
0.593750000000003
 40
0.593750000000003
 40
0.6250000000000027
 40
0.6250000000000027
 40
0.6562500000000023
 40
0.6562500000000023
 40
0.687500000000002
 40
0.687500000000002
 40
0.7500000000000014
 40
0.7500000000000014
 40
0.7812500000000013
 40
0.7812500000000013
 40
0.8125000000000012
 40
0.8125000000000012
 40
0.8437500000000011
 40
0.8437500000000011
 40
0.875000000000001
 40
0.875000000000001
 40
0.9375000000000004
 40
0.9375000000000004
 40
1.0
 40
1.0
 40
1.0
 40
1.0
 10
8.999328739186755
 20
-8.16016575472538
 30
0.0
 10
9.214977030414504
 20
-8.160178932476066
 30
0.0
 10
9.432631845455356
 20
-8.153959645678777
 30
0.0
 10
9.730650439697577
 20
-8.133553998150925
 30
0.0
 10
9.827008851859068
 20
-8.124748537274444
 30
0.0
 10
10.00665473755009
 20
-8.102709957286912
 30
0.0
 10
10.08955662037435
 20
-8.089587904989658
 30
0.0
 10
10.2417956772716
 20
-8.058031504741544
 30
0.0
 10
10.31137836742468
 20
-8.039405681749573
 30
0.0
 10
10.4309249731453
 20
-7.997112035467165
 30
0.0
 10
10.48174689506877
 20
-7.973326183281126
 30
0.0
 10
10.60669219129613
 20
-7.892364370666074
 30
0.0
 10
10.64984670699678
 20
-7.827358663995577
 30
0.0
 10
10.65007603730585
 20
-7.715610662212373
 30
0.0
 10
10.63946541628846
 20
-7.676891971191205
 30
0.0
 10
10.59753681089157
 20
-7.596820766521784
 30
0.0
 10
10.5656617349489
 20
-7.555011871479757
 30
0.0
 10
10.48306540512235
 20
-7.472439526328787
 30
0.0
 10
10.43246816233588
 20
-7.431489598896734
 30
0.0
 10
10.31258920316322
 20
-7.351181916034784
 30
0.0
 10
10.24333752160542
 20
-7.312035420833675
 30
0.0
 10
10.01599572001516
 20
-7.20362904059629
 30
0.0
 10
9.832454863146268
 20
-7.140983413105196
 30
0.0
 10
9.435603947447454
 20
-7.055329181928173
 30
0.0
 10
9.218605890244994
 20
-7.031499302260241
 30
0.0
 10
9.000000000000007
 20
-7.031499302260237
 30
0.0
  0
SPLINE
  5
2BE
330
1F
100
AcDbEntity
  8
SK3
  6
SLD-Dashed
370
    18
100
AcDbSpline
210
0.0
220
0.0
230
1.0
 70
     8
 71
     3
 72
    32
 73
    28
 74
     0
 42
0.000000001
 43
0.00000001
 40
0.0
 40
0.0
 40
0.0
 40
0.0
 40
0.0312500000000005
 40
0.0312500000000005
 40
0.0625000000000011
 40
0.0625000000000011
 40
0.0937500000000016
 40
0.0937500000000016
 40
0.1250000000000021
 40
0.1250000000000021
 40
0.1875000000000026
 40
0.1875000000000026
 40
0.2500000000000031
 40
0.2500000000000031
 40
0.2812500000000034
 40
0.2812500000000034
 40
0.3125000000000037
 40
0.3125000000000037
 40
0.3750000000000041
 40
0.3750000000000041
 40
0.406250000000004
 40
0.406250000000004
 40
0.4375000000000039
 40
0.4375000000000039
 40
0.4687500000000037
 40
0.4687500000000037
 40
0.5000000000000036
 40
0.5000000000000036
 40
0.5000000000000036
 40
0.5000000000000036
 10
9.000000000000007
 20
-7.031499302260245
 30
0.0
 10
8.890697054877508
 20
-7.031499302260241
 30
0.0
 10
8.783277250177205
 20
-7.037259482480255
 30
0.0
 10
8.572032049546985
 20
-7.059561330150406
 30
0.0
 10
8.467093052103053
 20
-7.076379464967767
 30
0.0
 10
8.26742049423601
 20
-7.119378552123086
 30
0.0
 10
8.172762163870543
 20
-7.145374894079487
 30
0.0
 10
7.993618026574667
 20
-7.205294031090641
 30
0.0
 10
7.909018306915275
 20
-7.239422579579688
 30
0.0
 10
7.681373165758343
 20
-7.347863135459657
 30
0.0
 10
7.558524350103429
 20
-7.431019098690345
 30
0.0
 10
7.393750870134996
 20
-7.595431184456242
 30
0.0
 10
7.350128083588883
 20
-7.678290304880514
 30
0.0
 10
7.349936392091402
 20
-7.789049712529305
 30
0.0
 10
7.360714441495511
 20
-7.824506532941287
 30
0.0
 10
7.402930517649911
 20
-7.889169154930851
 30
0.0
 10
7.434162579790265
 20
-7.918688485828562
 30
0.0
 10
7.558503497016977
 20
-7.999700028470253
 30
0.0
 10
7.679724668249496
 20
-8.041671381113797
 30
0.0
 10
7.909713617700084
 20
-8.089482419973672
 30
0.0
 10
7.992718925782155
 20
-8.102605498938361
 30
0.0
 10
8.171127340887804
 20
-8.124547127321337
 30
0.0
 10
8.267715764498917
 20
-8.133423271493943
 30
0.0
 10
8.467118637028648
 20
-8.14711407541168
 30
0.0
 10
8.569959724378808
 20
-8.152005630478202
 30
0.0
 10
8.781989691025421
 20
-8.158549167523208
 30
0.0
 10
8.89150459357288
 20
-8.160159165850036
 30
0.0
 10
8.999328739186755
 20
-8.16016575472538
 30
0.0
  0
SPLINE
  5
2BF
330
1F
100
AcDbEntity
  8
SK3
  6
SLD-Dashed
370
    18
100
AcDbSpline
210
0.0
220
0.0
230
1.0
 70
     8
 71
     3
 72
    30
 73
    26
 74
     0
 42
0.000000001
 43
0.00000001
 40
0.5000000000000051
 40
0.5000000000000051
 40
0.5000000000000051
 40
0.5000000000000051
 40
0.5625000000000053
 40
0.5625000000000053
 40
0.6250000000000056
 40
0.6250000000000056
 40
0.6562500000000052
 40
0.6562500000000052
 40
0.6875000000000048
 40
0.6875000000000048
 40
0.7187500000000044
 40
0.7187500000000044
 40
0.750000000000004
 40
0.750000000000004
 40
0.7812500000000037
 40
0.7812500000000037
 40
0.8125000000000033
 40
0.8125000000000033
 40
0.8750000000000022
 40
0.8750000000000022
 40
0.9375000000000013
 40
0.9375000000000013
 40
0.9687500000000007
 40
0.9687500000000007
 40
1.0
 40
1.0
 40
1.0
 40
1.0
 10
9.604893377742036
 20
-19.51347850842541
 30
0.0
 10
9.7557933188418
 20
-19.30677243266497
 30
0.0
 10
9.893662796082031
 20
-19.0865691248868
 30
0.0
 10
10.14805664695104
 20
-18.64615615242744
 30
0.0
 10
10.26529533769355
 20
-18.42441699642167
 30
0.0
 10
10.4239244039589
 20
-18.09399279727539
 30
0.0
 10
10.47259202337668
 20
-17.98671496934671
 30
0.0
 10
10.55785759585894
 20
-17.78229420130049
 30
0.0
 10
10.59326128133256
 20
-17.68804522709432
 30
0.0
 10
10.64183233662709
 20
-17.52669154829955
 30
0.0
 10
10.65339514528472
 20
-17.46303104768353
 30
0.0
 10
10.64476472747591
 20
-17.38873292205965
 30
0.0
 10
10.62471573718478
 20
-17.37809859267778
 30
0.0
 10
10.56411130935854
 20
-17.39839565630088
 30
0.0
 10
10.52329695534175
 20
-17.42868893004589
 30
0.0
 10
10.43204397918217
 20
-17.51153884675923
 30
0.0
 10
10.38099542270569
 20
-17.56445171258742
 30
0.0
 10
10.21662618950933
 20
-17.74507224580028
 30
0.0
 10
10.09647406147365
 20
-17.8895537070524
 30
0.0
 10
9.835453713206114
 20
-18.20069059067216
 30
0.0
 10
9.694824864369595
 20
-18.36836325662092
 30
0.0
 10
9.46256118267684
 20
-18.6165247116325
 30
0.0
 10
9.381211268074743
 20
-18.69902254918873
 30
0.0
 10
9.20412812435331
 20
-18.85969063580465
 30
0.0
 10
9.106631126133122
 20
-18.93919115918044
 30
0.0
 10
9.000000000000007
 20
-19.00935229227053
 30
0.0
  0
SPLINE
  5
2C0
330
1F
100
AcDbEntity
  8
SK3
  6
SLD-Dashed
370
    18
100
AcDbSpline
210
0.0
220
0.0
230
1.0
 70
     8
 71
     3
 72
    36
 73
    32
 74
     0
 42
0.000000001
 43
0.00000001
 40
0.0
 40
0.0
 40
0.0
 40
0.0
 40
0.0312500000000006
 40
0.0312500000000006
 40
0.0625000000000012
 40
0.0625000000000012
 40
0.0937500000000019
 40
0.0937500000000019
 40
0.1250000000000025
 40
0.1250000000000025
 40
0.1875000000000034
 40
0.1875000000000034
 40
0.2187500000000037
 40
0.2187500000000037
 40
0.2500000000000041
 40
0.2500000000000041
 40
0.2812500000000044
 40
0.2812500000000044
 40
0.3125000000000048
 40
0.3125000000000048
 40
0.3437500000000048
 40
0.3437500000000048
 40
0.3750000000000049
 40
0.3750000000000049
 40
0.406250000000005
 40
0.406250000000005
 40
0.4375000000000051
 40
0.4375000000000051
 40
0.4687500000000051
 40
0.4687500000000051
 40
0.5000000000000051
 40
0.5000000000000051
 40
0.5000000000000051
 40
0.5000000000000051
 10
9.000000000000018
 20
-19.00935229227053
 30
0.0
 10
8.89336887386689
 20
-19.07951342536062
 30
0.0
 10
8.779078496880532
 20
-19.13876343643521
 30
0.0
 10
8.535888225312869
 20
-19.22910219513932
 30
0.0
 10
8.413981832791308
 20
-19.25794010302164
 30
0.0
 10
8.179271157767827
 20
-19.29928852710619
 30
0.0
 10
8.070803189778498
 20
-19.31172242241064
 30
0.0
 10
7.870144624719076
 20
-19.33654780644656
 30
0.0
 10
7.780090866186306
 20
-19.34853604168464
 30
0.0
 10
7.544512767225481
 20
-19.3953110187003
 30
0.0
 10
7.434195142488761
 20
-19.44192055633952
 30
0.0
 10
7.357340922935037
 20
-19.54785336765125
 30
0.0
 10
7.346659110617146
 20
-19.58805593582038
 30
0.0
 10
7.355124597260982
 20
-19.67872704820322
 30
0.0
 10
7.374722264446493
 20
-19.72901567754584
 30
0.0
 10
7.442070988465903
 20
-19.83365591862577
 30
0.0
 10
7.490734580698643
 20
-19.88938085498788
 30
0.0
 10
7.612774729317501
 20
-19.99928377880171
 30
0.0
 10
7.685839339782357
 20
-20.0536750251711
 30
0.0
 10
7.857040323147603
 20
-20.15628465959959
 30
0.0
 10
7.952261026648021
 20
-20.20282117663173
 30
0.0
 10
8.16150495813699
 20
-20.27630660982454
 30
0.0
 10
8.27758816215016
 20
-20.30338148582379
 30
0.0
 10
8.516407933335596
 20
-20.31580644474792
 30
0.0
 10
8.64167951782523
 20
-20.29974308132084
 30
0.0
 10
8.875951503651809
 20
-20.21819193323015
 30
0.0
 10
8.987353019303757
 20
-20.15278169598954
 30
0.0
 10
9.18758580450413
 20
-19.99813205379244
 30
0.0
 10
9.279840777075014
 20
-19.90750849637211
 30
0.0
 10
9.450435476899125
 20
-19.71714874234589
 30
0.0
 10
9.529443407192167
 20
-19.61683154630563
 30
0.0
 10
9.604893377742036
 20
-19.51347850842541
 30
0.0
  0
SPLINE
  5
2C1
330
1F
100
AcDbEntity
  8
SK3
  6
SLD-Dashed
370
    18
100
AcDbSpline
210
0.0
220
0.0
230
1.0
 70
     8
 71
     3
 72
    30
 73
    26
 74
     0
 42
0.000000001
 43
0.00000001
 40
0.4999999999999961
 40
0.4999999999999961
 40
0.4999999999999961
 40
0.4999999999999961
 40
0.5624999999999969
 40
0.5624999999999969
 40
0.6249999999999976
 40
0.6249999999999976
 40
0.6874999999999984
 40
0.6874999999999984
 40
0.7187499999999986
 40
0.7187499999999986
 40
0.7499999999999986
 40
0.7499999999999986
 40
0.7812499999999987
 40
0.7812499999999987
 40
0.8124999999999988
 40
0.8124999999999988
 40
0.8749999999999992
 40
0.8749999999999992
 40
0.9062499999999994
 40
0.9062499999999994
 40
0.9374999999999996
 40
0.9374999999999996
 40
0.9687499999999998
 40
0.9687499999999998
 40
1.0
 40
1.0
 40
1.0
 40
1.0
 10
7.436859087524672
 20
-23.76696278326609
 30
0.0
 10
7.509676830095485
 20
-23.57579668224518
 30
0.0
 10
7.613065511401715
 20
-23.35317585088172
 30
0.0
 10
7.838608917670714
 20
-22.91051554108673
 30
0.0
 10
7.961638321792017
 20
-22.68829164303301
 30
0.0
 10
8.230578655852472
 20
-22.24863452697305
 30
0.0
 10
8.372972987343422
 20
-22.03536487677042
 30
0.0
 10
8.614583211177667
 20
-21.73867006114146
 30
0.0
 10
8.700413567216458
 20
-21.64322242959068
 30
0.0
 10
8.888908212879077
 20
-21.46919640845405
 30
0.0
 10
8.99008451487561
 20
-21.39199605361949
 30
0.0
 10
9.215143367245105
 20
-21.27407731950581
 30
0.0
 10
9.335814515638877
 20
-21.23692815097296
 30
0.0
 10
9.580074120962594
 20
-21.21333450306163
 30
0.0
 10
9.701232200183943
 20
-21.22630876579618
 30
0.0
 10
10.0376702753448
 20
-21.30800890721464
 30
0.0
 10
10.22849536548449
 20
-21.41403738869959
 30
0.0
 10
10.44177370626159
 20
-21.57751705828932
 30
0.0
 10
10.50075442010857
 20
-21.63370378892924
 30
0.0
 10
10.59000233868145
 20
-21.74152356658088
 30
0.0
 10
10.62131569445648
 20
-21.79454927734228
 30
0.0
 10
10.65323980420377
 20
-21.89187948406071
 30
0.0
 10
10.65426054449234
 20
-21.93604220679278
 30
0.0
 10
10.62603895192976
 20
-22.01520414799319
 30
0.0
 10
10.59666888514466
 20
-22.04952045918067
 30
0.0
 10
10.55308824864455
 20
-22.0781956401388
 30
0.0
  0
SPLINE
  5
2C2
330
1F
100
AcDbEntity
  8
SK3
  6
SLD-Dashed
370
    18
100
AcDbSpline
210
0.0
220
0.0
230
1.0
 70
     8
 71
     3
 72
    34
 73
    30
 74
     0
 42
0.000000001
 43
0.00000001
 40
0.0
 40
0.0
 40
0.0
 40
0.0
 40
0.0312499999999996
 40
0.0312499999999996
 40
0.0624999999999993
 40
0.0624999999999993
 40
0.0937499999999989
 40
0.0937499999999989
 40
0.1249999999999986
 40
0.1249999999999986
 40
0.1562499999999982
 40
0.1562499999999982
 40
0.1874999999999979
 40
0.1874999999999979
 40
0.2499999999999971
 40
0.2499999999999971
 40
0.3124999999999963
 40
0.3124999999999963
 40
0.3437499999999961
 40
0.3437499999999961
 40
0.3749999999999958
 40
0.3749999999999958
 40
0.4062499999999958
 40
0.4062499999999958
 40
0.4374999999999959
 40
0.4374999999999959
 40
0.468749999999996
 40
0.468749999999996
 40
0.4999999999999961
 40
0.4999999999999961
 40
0.4999999999999961
 40
0.4999999999999961
 10
10.55308824864455
 20
-22.07819564013881
 30
0.0
 10
10.50950761214441
 20
-22.10687082109693
 30
0.0
 10
10.45292012691668
 20
-22.12944082002933
 30
0.0
 10
10.31491468618433
 20
-22.16635398793357
 30
0.0
 10
10.23248693779769
 20
-22.18061952073997
 30
0.0
 10
10.04949690181167
 20
-22.20574284375281
 30
0.0
 10
9.947721621782993
 20
-22.21669388553149
 30
0.0
 10
9.724652921572874
 20
-22.24790198114962
 30
0.0
 10
9.605773300435258
 20
-22.26805333194659
 30
0.0
 10
9.361805299436018
 20
-22.33605498088233
 30
0.0
 10
9.24183556472201
 20
-22.38349967197322
 30
0.0
 10
9.015162187552855
 20
-22.50679313358193
 30
0.0
 10
8.913205789306378
 20
-22.57889843696142
 30
0.0
 10
8.627007347227336
 20
-22.8130300768522
 30
0.0
 10
8.470259171177108
 20
-22.98232870849177
 30
0.0
 10
8.176663877968366
 20
-23.31411633812836
 30
0.0
 10
8.043399477505833
 20
-23.4758037451914
 30
0.0
 10
7.858241400008417
 20
-23.69585942272661
 30
0.0
 10
7.798957391259617
 20
-23.76569700947325
 30
0.0
 10
7.685394665360127
 20
-23.89509977976551
 30
0.0
 10
7.630639807790232
 20
-23.95519735532305
 30
0.0
 10
7.530619547365461
 20
-24.05587513768665
 30
0.0
 10
7.484680739878721
 20
-24.09712053924379
 30
0.0
 10
7.409402768177253
 20
-24.14670270801247
 30
0.0
 10
7.379434168824736
 20
-24.15510711958716
 30
0.0
 10
7.347373564233956
 20
-24.12174803152655
 30
0.0
 10
7.345809739794359
 20
-24.07874667985498
 30
0.0
 10
7.372756994200216
 20
-23.94838408266154
 30
0.0
 10
7.400450216239279
 20
-23.86254583377654
 30
0.0
 10
7.436859087524672
 20
-23.76696278326609
 30
0.0
  0
ELLIPSE
  5
2C3
330
1F
100
AcDbEntity
  8
1
  6
SLD-Solid
370
    25
100
AcDbEllipse
 10
61.0
 20
5.8291865779
 30
0.0
 11
12.69999999999999
 21
0.0
 31
0.0
210
0.0
220
0.0
230
1.0
 40
0.2817561658
 41
4.038064426589231
 42
4.712388980384699
  0
ELLIPSE
  5
2C4
330
1F
100
AcDbEntity
  8
1
  6
SLD-Solid
370
    25
100
AcDbEllipse
 10
61.0
 20
-5.8291865779
 30
0.0
 11
12.69999999999999
 21
0.0
 31
0.0
210
0.0
220
0.0
230
1.0
 40
0.2817561658
 41
1.570796326794897
 42
2.24512088059038
  0
ELLIPSE
  5
2C5
330
1F
100
AcDbEntity
  8
1
  6
SLD-Solid
370
    25
100
AcDbEllipse
 10
61.0
 20
-29.5015731851
 30
0.0
 11
0.0
 21
12.78767428060153
 31
0.0
210
0.0
220
0.0
230
1.0
 40
0.9931438447
 41
0.0
 42
0.6743245537954833
  0
ELLIPSE
  5
2C6
330
1F
100
AcDbEntity
  8
1
  6
SLD-Solid
370
    25
100
AcDbEllipse
 10
61.0
 20
29.5015731851
 30
0.0
 11
0.0
 21
12.78767428060153
 31
0.0
210
0.0
220
0.0
230
1.0
 40
0.9931438447
 41
2.46726809979431
 42
3.141592653589793
  0
INSERT
  5
2C7
330
1F
100
AcDbEntity
  8
81
100
AcDbBlockReference
  2
Block11
 10
-33.2864826505
 20
-130.2606373674
 30
0.0
  0
INSERT
  5
2C8
330
1F
100
AcDbEntity
  8
80
100
AcDbBlockReference
  2
Block12
 10
-61.7273641656
 20
-130.3356800267
 30
0.0
  0
DIMENSION
  5
2C9
330
1F
100
AcDbEntity
  8
SK2
100
AcDbDimension
  2
_D
 10
27.0
 20
40.0126130521
 30
0.0
 11
14.058430169
 21
40.0126130521
 31
0.0
 70
   160
  1
<>
 71
     2
 42
-1.0
  3
SLDDIMSTYLE0
100
AcDbAlignedDimension
 13
0.0
 23
22.225
 33
0.0
 14
27.0
 24
30.724895054
 34
0.0
100
AcDbRotatedDimension
  0
DIMENSION
  5
2D5
330
1F
100
AcDbEntity
  8
SK2
100
AcDbDimension
  2
_D_1
 10
70.0
 20
40.0126130521
 30
0.0
 11
48.3892297186
 21
40.0126130521
 31
0.0
 70
   160
  1
<>
 71
     2
 42
-1.0
  3
SLDDIMSTYLE0
100
AcDbAlignedDimension
 13
27.0
 23
30.724895054
 33
0.0
 14
70.0
 24
13.8564064606
 34
0.0
100
AcDbRotatedDimension
  0
DIMENSION
  5
2DF
330
1F
100
AcDbEntity
  8
2
100
AcDbDimension
  2
_D_2
 10
70.0
 20
48.8186545722
 30
0.0
 11
35.6268507039
 21
48.8186545722
 31
0.0
 70
   160
  1
<>
 71
     2
 42
-1.0
  3
SLDDIMSTYLE0
100
AcDbAlignedDimension
 13
0.0
 23
22.225
 33
0.0
 14
70.0
 24
13.8564064606
 34
0.0
 50
0.0
100
AcDbRotatedDimension
  0
DIMENSION
  5
2E9
330
1F
100
AcDbEntity
  8
SK2
100
AcDbDimension
  2
_D_3
 10
-92.9651069745
 20
-31.474895054
 30
0.0
 11
-92.9651069745
 21
0.1870686021
 31
0.0
 70
   160
  1
%%c<>
 71
     2
 42
-1.0
  3
SLDDIMSTYLE0
100
AcDbAlignedDimension
 13
2.75
 23
31.474895054
 33
0.0
 14
2.75
 24
-31.474895054
 34
0.0
 50
90.0
100
AcDbRotatedDimension
  0
DIMENSION
  5
2F4
330
1F
100
AcDbEntity
  8
SK2
100
AcDbDimension
  2
_D_4
 10
-82.2972737264
 20
-22.225
 30
0.0
 11
-82.2972737264
 21
0.1870686021
 31
0.0
 70
   160
  1
%%c<>
 71
     2
 42
-1.0
  3
SLDDIMSTYLE0
100
AcDbAlignedDimension
 13
0.0
 23
22.225
 33
0.0
 14
0.0
 24
-22.225
 34
0.0
 50
90.0
100
AcDbRotatedDimension
  0
DIMENSION
  5
2FF
330
1F
100
AcDbEntity
  8
SK2
100
AcDbDimension
  2
_D_5
 10
-71.9764676136
 20
8.00000038
 30
0.0
 11
-71.9764676136
 21
0.1870686021
 31
0.0
 70
   160
  1
M<>
 71
     2
 42
-1.0
  3
SLDDIMSTYLE1
100
AcDbAlignedDimension
 13
-55.6881204247
 23
-8.00000038
 33
0.0
 14
-55.6881204247
 24
8.00000038
 34
0.0
 50
90.0
100
AcDbRotatedDimension
  0
DIMENSION
  5
30D
330
1F
100
AcDbEntity
  8
SK2
100
AcDbDimension
  2
_D_6
 10
58.34
 20
-43.4996696659
 30
0.0
 11
29.8962644202
 21
-43.4996696659
 31
0.0
 70
   160
  1
<>
 71
     2
 42
-1.0
  3
SLDDIMSTYLE0
100
AcDbAlignedDimension
 13
0.0
 23
-22.225
 33
0.0
 14
58.34
 24
-13.4762877484
 34
0.0
 50
0.0
100
AcDbRotatedDimension
  0
DIMENSION
  5
317
330
1F
100
AcDbEntity
  8
SK2
100
AcDbDimension
  2
_D_7
 10
80.9486752525
 20
12.5
 30
0.0
 11
80.9486752525
 21
-0.9773392523
 31
0.0
 70
   160
  1
%%c<>
 71
     2
 42
-1.0
  3
SLDDIMSTYLE0
100
AcDbAlignedDimension
 13
57.479173101
 23
-12.5
 33
0.0
 14
57.479173101
 24
12.5
 34
0.0
 50
90.0
100
AcDbRotatedDimension
  0
DIMENSION
  5
322
330
1F
100
AcDbEntity
  8
SK2
100
AcDbDimension
  2
_D_8
 10
92.6380636173
 20
-21.0
 30
0.0
 11
92.6380636173
 21
-0.9773392523
 31
0.0
 70
   160
  1
%%c<>
 71
     2
 42
-1.0
  3
SLDDIMSTYLE0
100
AcDbAlignedDimension
 13
67.1132486541
 23
21.0
 33
0.0
 14
67.1132486541
 24
-21.0
 34
0.0
 50
90.0
100
AcDbRotatedDimension
  0
DIMENSION
  5
32D
330
1F
100
AcDbEntity
  8
SK2
100
AcDbDimension
  2
_D_9
 10
50.0
 20
30.9069381113
 30
0.0
 11
59.677703342
 21
30.9069381113
 31
0.0
 70
   160
  1
<>
 71
     2
 42
-1.0
  3
SLDDIMSTYLE0
100
AcDbAlignedDimension
 13
70.0
 23
13.8564064606
 33
0.0
 14
50.0
 24
17.4937131564
 34
0.0
100
AcDbRotatedDimension
  0
MTEXT
  5
337
330
1F
100
AcDbEntity
  8
SK6
 62
     5
100
AcDbMText
 10
-65.7863495993
 20
-40.0136269992
 30
0.0
 40
3.5
 41
0.0
 71
     1
 72
     1
  1
A2B14-40 25 075
  7
SLDTEXTSTYLE0
 73
     1
 44
1.0
  0
MTEXT
  5
338
330
1F
100
AcDbEntity
  8
SK6
 62
     5
100
AcDbMText
 10
-32.8881010608
 20
28.3764956422
 30
0.0
 40
3.5
 41
0.0
 71
     1
 72
     1
  1
MAS-403 BT40
  7
SLDTEXTSTYLE0
 73
     1
 44
1.0
  0
ENDSEC
  0
SECTION
  2
OBJECTS
  0
DICTIONARY
  5
C
330
0
100
AcDbDictionary
281
     1
  3
ACAD_GROUP
350
D
  3
ACAD_LAYOUT
350
1A
  3
ACAD_MLINESTYLE
350
17
  3
ACAD_PLOTSETTINGS
350
19
  3
ACAD_PLOTSTYLENAME
350
E
  3
ACAD_SCALELIST
350
47
  0
DICTIONARY
  5
D
102
{ACAD_REACTORS
330
C
102
}
330
C
100
AcDbDictionary
281
     1
  0
DICTIONARY
  5
1A
102
{ACAD_REACTORS
330
C
102
}
330
C
100
AcDbDictionary
281
     1
  3
Layout1
350
1E
  3
Layout2
350
26
  3
Model
350
22
  0
DICTIONARY
  5
17
102
{ACAD_REACTORS
330
C
102
}
330
C
100
AcDbDictionary
281
     1
  3
Standard
350
18
  0
DICTIONARY
  5
19
102
{ACAD_REACTORS
330
C
102
}
330
C
100
AcDbDictionary
281
     1
  0
ACDBDICTIONARYWDFLT
  5
E
102
{ACAD_REACTORS
330
C
102
}
330
C
100
AcDbDictionary
281
     1
  3
Normal
350
F
100
AcDbDictionaryWithDefault
340
F
  0
DICTIONARY
  5
47
102
{ACAD_REACTORS
330
C
102
}
330
C
100
AcDbDictionary
281
     1
  3
A0
350
48
  3
A1
350
49
  3
A2
350
4A
  3
A3
350
4B
  3
A4
350
4C
  3
A5
350
4D
  3
A6
350
4E
  3
A7
350
4F
  3
A8
350
50
  3
A9
350
51
  3
B0
350
52
  3
B1
350
53
  3
B2
350
54
  3
B3
350
55
  3
B4
350
56
  3
B5
350
57
  3
B6
350
58
  3
B7
350
59
  3
B8
350
5A
  3
B9
350
5B
  3
C0
350
5C
  3
C1
350
5D
  3
C2
350
5E
  3
C3
350
5F
  3
C4
350
60
  3
C5
350
61
  3
C6
350
62
  3
C7
350
63
  3
C8
350
64
  3
C9
350
65
  3
D0
350
66
  3
D1
350
67
  3
D2
350
68
  0
LAYOUT
  5
1E
102
{ACAD_REACTORS
330
1A
102
}
330
1A
100
AcDbPlotSettings
  1

  2
none_device
  4

  6

 40
0.0
 41
0.0
 42
0.0
 43
0.0
 44
0.0
 45
0.0
 46
0.0
 47
0.0
 48
0.0
 49
0.0
140
0.0
141
0.0
142
1.0
143
1.0
 70
   688
 72
     1
 73
     0
 74
     5
  7

 75
    16
147
1.0
148
0.0
149
0.0
100
AcDbLayout
  1
Layout1
 70
     1
 71
     1
 10
0.0
 20
0.0
 11
420.0
 21
297.0
 12
0.0
 22
0.0
 32
0.0
 14
1.0000000000E+20
 24
1.0000000000E+20
 34
1.0000000000E+20
 15
-1.0000000000E+20
 25
-1.0000000000E+20
 35
-1.0000000000E+20
146
0.0
 13
0.0
 23
0.0
 33
0.0
 16
1.0
 26
0.0
 36
0.0
 17
0.0
 27
1.0
 37
0.0
 76
     0
330
1B
  0
LAYOUT
  5
26
102
{ACAD_REACTORS
330
1A
102
}
330
1A
100
AcDbPlotSettings
  1

  2
none_device
  4

  6

 40
0.0
 41
0.0
 42
0.0
 43
0.0
 44
0.0
 45
0.0
 46
0.0
 47
0.0
 48
0.0
 49
0.0
140
0.0
141
0.0
142
1.0
143
1.0
 70
   688
 72
     1
 73
     0
 74
     5
  7

 75
    16
147
1.0
148
0.0
149
0.0
100
AcDbLayout
  1
Layout2
 70
     1
 71
     2
 10
0.0
 20
0.0
 11
0.0
 21
0.0
 12
0.0
 22
0.0
 32
0.0
 14
0.0
 24
0.0
 34
0.0
 15
0.0
 25
0.0
 35
0.0
146
0.0
 13
0.0
 23
0.0
 33
0.0
 16
1.0
 26
0.0
 36
0.0
 17
0.0
 27
1.0
 37
0.0
 76
     0
330
23
  0
LAYOUT
  5
22
102
{ACAD_REACTORS
330
1A
102
}
330
1A
100
AcDbPlotSettings
  1

  2
none_device
  4
Letter_(8.50_x_11.00_Inches)
  6

 40
6.35
 41
6.35
 42
6.35000508
 43
6.35000508
 44
215.9
 45
279.4
 46
0.0
 47
0.0
 48
0.0
 49
0.0
140
0.0
141
0.0
142
1.0
143
1.0
 70
  1712
 72
     1
 73
     0
 74
     0
  7

 75
     0
147
1.0
148
0.0
149
0.0
100
AcDbLayout
  1
Model
 70
     1
 71
     0
 10
0.0
 20
0.0
 11
297.0
 21
210.0
 12
0.0
 22
0.0
 32
0.0
 14
0.0
 24
0.0
 34
0.0
 15
297.0
 25
210.0
 35
0.0
146
0.0
 13
0.0
 23
0.0
 33
0.0
 16
1.0
 26
0.0
 36
0.0
 17
0.0
 27
1.0
 37
0.0
 76
     0
330
1F
331
29
  0
MLINESTYLE
  5
18
102
{ACAD_REACTORS
330
17
102
}
330
17
100
AcDbMlineStyle
  2
Standard
 70
     0
  3

 62
   256
 51
90.0
 52
90.0
 71
     2
 49
0.5
 62
   256
  6
BYLAYER
 49
-0.5
 62
   256
  6
BYLAYER
  0
ACDBPLACEHOLDER
  5
F
102
{ACAD_REACTORS
330
E
102
}
330
E
  0
SCALE
  5
48
102
{ACAD_REACTORS
330
47
102
}
330
47
100
AcDbScale
 70
     0
300
1:1
140
1.0
141
1.0
290
     1
  0
SCALE
  5
49
102
{ACAD_REACTORS
330
47
102
}
330
47
100
AcDbScale
 70
     0
300
1:2
140
1.0
141
2.0
290
     0
  0
SCALE
  5
4A
102
{ACAD_REACTORS
330
47
102
}
330
47
100
AcDbScale
 70
     0
300
1:4
140
1.0
141
4.0
290
     0
  0
SCALE
  5
4B
102
{ACAD_REACTORS
330
47
102
}
330
47
100
AcDbScale
 70
     0
300
1:5
140
1.0
141
5.0
290
     0
  0
SCALE
  5
4C
102
{ACAD_REACTORS
330
47
102
}
330
47
100
AcDbScale
 70
     0
300
1:8
140
1.0
141
8.0
290
     0
  0
SCALE
  5
4D
102
{ACAD_REACTORS
330
47
102
}
330
47
100
AcDbScale
 70
     0
300
1:10
140
1.0
141
10.0
290
     0
  0
SCALE
  5
4E
102
{ACAD_REACTORS
330
47
102
}
330
47
100
AcDbScale
 70
     0
300
1:16
140
1.0
141
16.0
290
     0
  0
SCALE
  5
4F
102
{ACAD_REACTORS
330
47
102
}
330
47
100
AcDbScale
 70
     0
300
1:20
140
1.0
141
20.0
290
     0
  0
SCALE
  5
50
102
{ACAD_REACTORS
330
47
102
}
330
47
100
AcDbScale
 70
     0
300
1:30
140
1.0
141
30.0
290
     0
  0
SCALE
  5
51
102
{ACAD_REACTORS
330
47
102
}
330
47
100
AcDbScale
 70
     0
300
1:40
140
1.0
141
40.0
290
     0
  0
SCALE
  5
52
102
{ACAD_REACTORS
330
47
102
}
330
47
100
AcDbScale
 70
     0
300
1:50
140
1.0
141
50.0
290
     0
  0
SCALE
  5
53
102
{ACAD_REACTORS
330
47
102
}
330
47
100
AcDbScale
 70
     0
300
1:100
140
1.0
141
100.0
290
     0
  0
SCALE
  5
54
102
{ACAD_REACTORS
330
47
102
}
330
47
100
AcDbScale
 70
     0
300
2:1
140
2.0
141
1.0
290
     0
  0
SCALE
  5
55
102
{ACAD_REACTORS
330
47
102
}
330
47
100
AcDbScale
 70
     0
300
4:1
140
4.0
141
1.0
290
     0
  0
SCALE
  5
56
102
{ACAD_REACTORS
330
47
102
}
330
47
100
AcDbScale
 70
     0
300
8:1
140
8.0
141
1.0
290
     0
  0
SCALE
  5
57
102
{ACAD_REACTORS
330
47
102
}
330
47
100
AcDbScale
 70
     0
300
10:1
140
10.0
141
1.0
290
     0
  0
SCALE
  5
58
102
{ACAD_REACTORS
330
47
102
}
330
47
100
AcDbScale
 70
     0
300
100:1
140
100.0
141
1.0
290
     0
  0
SCALE
  5
59
102
{ACAD_REACTORS
330
47
102
}
330
47
100
AcDbScale
 70
     0
300
1/128" = 1'-0"
140
0.0078125
141
12.0
290
     0
  0
SCALE
  5
5A
102
{ACAD_REACTORS
330
47
102
}
330
47
100
AcDbScale
 70
     0
300
1/64" = 1'-0"
140
0.015625
141
12.0
290
     0
  0
SCALE
  5
5B
102
{ACAD_REACTORS
330
47
102
}
330
47
100
AcDbScale
 70
     0
300
1/32" = 1'-0"
140
0.03125
141
12.0
290
     0
  0
SCALE
  5
5C
102
{ACAD_REACTORS
330
47
102
}
330
47
100
AcDbScale
 70
     0
300
1/16" = 1'-0"
140
0.0625
141
12.0
290
     0
  0
SCALE
  5
5D
102
{ACAD_REACTORS
330
47
102
}
330
47
100
AcDbScale
 70
     0
300
3/32" = 1'-0"
140
0.09375
141
12.0
290
     0
  0
SCALE
  5
5E
102
{ACAD_REACTORS
330
47
102
}
330
47
100
AcDbScale
 70
     0
300
1/8" = 1'-0"
140
0.125
141
12.0
290
     0
  0
SCALE
  5
5F
102
{ACAD_REACTORS
330
47
102
}
330
47
100
AcDbScale
 70
     0
300
3/16" = 1'-0"
140
0.1875
141
12.0
290
     0
  0
SCALE
  5
60
102
{ACAD_REACTORS
330
47
102
}
330
47
100
AcDbScale
 70
     0
300
1/4" = 1'-0"
140
0.25
141
12.0
290
     0
  0
SCALE
  5
61
102
{ACAD_REACTORS
330
47
102
}
330
47
100
AcDbScale
 70
     0
300
3/8" = 1'-0"
140
0.375
141
12.0
290
     0
  0
SCALE
  5
62
102
{ACAD_REACTORS
330
47
102
}
330
47
100
AcDbScale
 70
     0
300
1/2" = 1'-0"
140
0.5
141
12.0
290
     0
  0
SCALE
  5
63
102
{ACAD_REACTORS
330
47
102
}
330
47
100
AcDbScale
 70
     0
300
3/4" = 1'-0"
140
0.75
141
12.0
290
     0
  0
SCALE
  5
64
102
{ACAD_REACTORS
330
47
102
}
330
47
100
AcDbScale
 70
     0
300
1" = 1'-0"
140
1.0
141
12.0
290
     0
  0
SCALE
  5
65
102
{ACAD_REACTORS
330
47
102
}
330
47
100
AcDbScale
 70
     0
300
1-1/2" = 1'-0"
140
1.5
141
12.0
290
     0
  0
SCALE
  5
66
102
{ACAD_REACTORS
330
47
102
}
330
47
100
AcDbScale
 70
     0
300
3" = 1'-0"
140
3.0
141
12.0
290
     0
  0
SCALE
  5
67
102
{ACAD_REACTORS
330
47
102
}
330
47
100
AcDbScale
 70
     0
300
6" = 1'-0"
140
6.0
141
12.0
290
     0
  0
SCALE
  5
68
102
{ACAD_REACTORS
330
47
102
}
330
47
100
AcDbScale
 70
     0
300
1'-0" = 1'-0"
140
12.0
141
12.0
290
     0
  0
ENDSEC
  0
EOF
