  0
SECTION
  2
HEADER
  9
$ACADVER
  1
AC1015
  9
$ACADMAINTVER
 70
     6
  9
$DWGCODEPAGE
  3
ANSI_1250
  9
$INSBASE
 10
0.0
 20
0.0
 30
0.0
  9
$EXTMIN
 10
0.0
 20
0.0
 30
0.0
  9
$EXTMAX
 10
297.0
 20
210.0
 30
0.0
  9
$LIMMIN
 10
0.0
 20
0.0
  9
$LIMMAX
 10
297.0
 20
210.0
  9
$ORTHOMODE
 70
     0
  9
$REGENMODE
 70
     1
  9
$FILLMODE
 70
     1
  9
$QTEXTMODE
 70
     0
  9
$MIRRTEXT
 70
     1
  9
$LTSCALE
 40
1.0
  9
$ATTMODE
 70
     1
  9
$TEXTSIZE
 40
3.5
  9
$TRACEWID
 40
1.0
  9
$TEXTSTYLE
  7
Standard
  9
$CLAYER
  8
0
  9
$CELTYPE
  6
ByLayer
  9
$CECOLOR
 62
   256
  9
$CELTSCALE
 40
1.0
  9
$DISPSILH
 70
     0
  9
$DIMSCALE
 40
1.0
  9
$DIMASZ
 40
3.302
  9
$DIMEXO
 40
1.0
  9
$DIMDLI
 40
3.75
  9
$DIMRND
 40
0.0
  9
$DIMDLE
 40
0.0
  9
$DIMEXE
 40
1.0
  9
$DIMTP
 40
0.0
  9
$DIMTM
 40
0.0
  9
$DIMTXT
 40
3.5
  9
$DIMCEN
 40
2.5
  9
$DIMTSZ
 40
0.0
  9
$DIMTOL
 70
     0
  9
$DIMLIM
 70
     0
  9
$DIMTIH
 70
     1
  9
$DIMTOH
 70
     1
  9
$DIMSE1
 70
     0
  9
$DIMSE2
 70
     0
  9
$DIMTAD
 70
     1
  9
$DIMZIN
 70
     0
  9
$DIMBLK
  1

  9
$DIMASO
 70
     1
  9
$DIMSHO
 70
     1
  9
$DIMPOST
  1

  9
$DIMAPOST
  1

  9
$DIMALT
 70
     0
  9
$DIMALTD
 70
     3
  9
$DIMALTF
 40
0.0393700787
  9
$DIMLFAC
 40
1.0
  9
$DIMTOFL
 70
     1
  9
$DIMTVP
 40
0.0
  9
$DIMTIX
 70
     0
  9
$DIMSOXD
 70
     0
  9
$DIMSAH
 70
     0
  9
$DIMBLK1
  1

  9
$DIMBLK2
  1

  9
$DIMSTYLE
  2
ISO-25
  9
$DIMCLRD
 70
     0
  9
$DIMCLRE
 70
     0
  9
$DIMCLRT
 70
     0
  9
$DIMTFAC
 40
1.0
  9
$DIMGAP
 40
1.524
  9
$DIMJUST
 70
     0
  9
$DIMSD1
 70
     0
  9
$DIMSD2
 70
     0
  9
$DIMTOLJ
 70
     0
  9
$DIMTZIN
 70
     0
  9
$DIMALTZ
 70
     0
  9
$DIMALTTZ
 70
     0
  9
$DIMUPT
 70
     0
  9
$DIMDEC
 70
     2
  9
$DIMTDEC
 70
     2
  9
$DIMALTU
 70
     2
  9
$DIMALTTD
 70
     3
  9
$DIMTXSTY
  7
Standard
  9
$DIMAUNIT
 70
     0
  9
$DIMADEC
 70
     2
  9
$DIMALTRND
 40
0.0
  9
$DIMAZIN
 70
     0
  9
$DIMDSEP
 70
    44
  9
$DIMATFIT
 70
     3
  9
$DIMFRAC
 70
     0
  9
$DIMLDRBLK
  1

  9
$DIMLUNIT
 70
     2
  9
$DIMLWD
 70
    -2
  9
$DIMLWE
 70
    -2
  9
$DIMTMOVE
 70
     0
  9
$LUNITS
 70
     2
  9
$LUPREC
 70
     2
  9
$SKETCHINC
 40
1.0
  9
$FILLETRAD
 40
10.0
  9
$AUNITS
 70
     0
  9
$AUPREC
 70
     2
  9
$MENU
  1
.
  9
$ELEVATION
 40
0.0
  9
$PELEVATION
 40
0.0
  9
$THICKNESS
 40
0.0
  9
$LIMCHECK
 70
     0
  9
$CHAMFERA
 40
0.0
  9
$CHAMFERB
 40
0.0
  9
$CHAMFERC
 40
0.0
  9
$CHAMFERD
 40
0.0
  9
$SKPOLY
 70
     0
  9
$TDCREATE
 40
2459290.469659965
  9
$TDUCREATE
 40
2459290.427993299
  9
$TDUPDATE
 40
2459290.469661204
  9
$TDUUPDATE
 40
2459290.427994537
  9
$TDINDWG
 40
0.0000000116
  9
$TDUSRTIMER
 40
0.0000000116
  9
$USRTIMER
 70
     1
  9
$ANGBASE
 50
0.0
  9
$ANGDIR
 70
     0
  9
$PDMODE
 70
     0
  9
$PDSIZE
 40
-1.0
  9
$PLINEWID
 40
0.0
  9
$SPLFRAME
 70
     0
  9
$SPLINETYPE
 70
     6
  9
$SPLINESEGS
 70
     8
  9
$HANDSEED
  5
292
  9
$SURFTAB1
 70
     6
  9
$SURFTAB2
 70
     6
  9
$SURFTYPE
 70
     6
  9
$SURFU
 70
     6
  9
$SURFV
 70
     6
  9
$UCSBASE
  2

  9
$UCSNAME
  2

  9
$UCSORG
 10
0.0
 20
0.0
 30
0.0
  9
$UCSXDIR
 10
1.0
 20
0.0
 30
0.0
  9
$UCSYDIR
 10
0.0
 20
1.0
 30
0.0
  9
$UCSORTHOREF
  2

  9
$UCSORTHOVIEW
 70
     0
  9
$UCSORGTOP
 10
0.0
 20
0.0
 30
0.0
  9
$UCSORGBOTTOM
 10
0.0
 20
0.0
 30
0.0
  9
$UCSORGLEFT
 10
0.0
 20
0.0
 30
0.0
  9
$UCSORGRIGHT
 10
0.0
 20
0.0
 30
0.0
  9
$UCSORGFRONT
 10
0.0
 20
0.0
 30
0.0
  9
$UCSORGBACK
 10
0.0
 20
0.0
 30
0.0
  9
$PUCSBASE
  2

  9
$PUCSNAME
  2

  9
$PUCSORG
 10
0.0
 20
0.0
 30
0.0
  9
$PUCSXDIR
 10
1.0
 20
0.0
 30
0.0
  9
$PUCSYDIR
 10
0.0
 20
1.0
 30
0.0
  9
$PUCSORTHOREF
  2

  9
$PUCSORTHOVIEW
 70
     0
  9
$PUCSORGTOP
 10
0.0
 20
0.0
 30
0.0
  9
$PUCSORGBOTTOM
 10
0.0
 20
0.0
 30
0.0
  9
$PUCSORGLEFT
 10
0.0
 20
0.0
 30
0.0
  9
$PUCSORGRIGHT
 10
0.0
 20
0.0
 30
0.0
  9
$PUCSORGFRONT
 10
0.0
 20
0.0
 30
0.0
  9
$PUCSORGBACK
 10
0.0
 20
0.0
 30
0.0
  9
$USERI1
 70
     0
  9
$USERI2
 70
     0
  9
$USERI3
 70
     0
  9
$USERI4
 70
     0
  9
$USERI5
 70
     0
  9
$USERR1
 40
0.0
  9
$USERR2
 40
0.0
  9
$USERR3
 40
0.0
  9
$USERR4
 40
0.0
  9
$USERR5
 40
0.0
  9
$WORLDVIEW
 70
     1
  9
$SHADEDGE
 70
     3
  9
$SHADEDIF
 70
    70
  9
$TILEMODE
 70
     1
  9
$MAXACTVP
 70
    64
  9
$PINSBASE
 10
0.0
 20
0.0
 30
0.0
  9
$PLIMCHECK
 70
     0
  9
$PEXTMIN
 10
1.0000000000E+20
 20
1.0000000000E+20
 30
1.0000000000E+20
  9
$PEXTMAX
 10
-1.0000000000E+20
 20
-1.0000000000E+20
 30
-1.0000000000E+20
  9
$PLIMMIN
 10
0.0
 20
0.0
  9
$PLIMMAX
 10
420.0
 20
297.0
  9
$UNITMODE
 70
     0
  9
$VISRETAIN
 70
     1
  9
$PLINEGEN
 70
     0
  9
$PSLTSCALE
 70
     1
  9
$TREEDEPTH
 70
  3020
  9
$CMLSTYLE
  2
Standard
  9
$CMLJUST
 70
     0
  9
$CMLSCALE
 40
20.0
  9
$PROXYGRAPHICS
 70
     1
  9
$MEASUREMENT
 70
     1
  9
$CELWEIGHT
370
    -1
  9
$ENDCAPS
280
     0
  9
$JOINSTYLE
280
     0
  9
$LWDISPLAY
290
     1
  9
$INSUNITS
 70
     4
  9
$HYPERLINKBASE
  1

  9
$STYLESHEET
  1

  9
$XEDIT
290
     1
  9
$CEPSNTYPE
380
     0
  9
$PSTYLEMODE
290
     1
  9
$FINGERPRINTGUID
  2
{DEB53D15-6486-43C1-8A64-8AAED67DFB30}
  9
$VERSIONGUID
  2
{FAEB1C32-E019-11D5-929B-00C0DF256EC4}
  9
$EXTNAMES
290
     1
  9
$PSVPSCALE
 40
0.0
  9
$OLESTARTUP
290
     0
  0
ENDSEC
  0
SECTION
  2
CLASSES
  0
CLASS
  1
ACDBDICTIONARYWDFLT
  2
AcDbDictionaryWithDefault
  3
ObjectDBX Classes
 90
        0
280
     0
281
     0
  0
CLASS
  1
VISUALSTYLE
  2
AcDbVisualStyle
  3
ObjectDBX Classes
 90
     4095
280
     0
281
     0
  0
CLASS
  1
MATERIAL
  2
AcDbMaterial
  3
ObjectDBX Classes
 90
     1153
280
     0
281
     0
  0
CLASS
  1
SCALE
  2
AcDbScale
  3
ObjectDBX Classes
 90
     1153
280
     0
281
     0
  0
CLASS
  1
TABLESTYLE
  2
AcDbTableStyle
  3
ObjectDBX Classes
 90
     4095
280
     0
281
     0
  0
CLASS
  1
MLEADERSTYLE
  2
AcDbMLeaderStyle
  3
ACDB_MLEADERSTYLE_CLASS
 90
     4095
280
     0
281
     0
  0
CLASS
  1
SUN
  2
AcDbSun
  3
SCENEOE
 90
     1153
280
     0
281
     0
  0
CLASS
  1
ACDBPLACEHOLDER
  2
AcDbPlaceHolder
  3
ObjectDBX Classes
 90
        0
280
     0
281
     0
  0
CLASS
  1
LAYOUT
  2
AcDbLayout
  3
ObjectDBX Classes
 90
        0
280
     0
281
     0
  0
ENDSEC
  0
SECTION
  2
TABLES
  0
TABLE
  2
VPORT
  5
8
330
0
100
AcDbSymbolTable
 70
     1
  0
VPORT
  5
29
330
8
100
AcDbSymbolTableRecord
100
AcDbViewportTableRecord
  2
*Active
 70
     0
 10
0.0
 20
0.0
 11
1.0
 21
1.0
 12
148.5
 22
105.0
 13
0.0
 23
0.0
 14
10.0
 24
10.0
 15
10.0
 25
10.0
 16
0.0
 26
0.0
 36
1.0
 17
0.0
 27
0.0
 37
0.0
 40
210.0
 41
1.4142857143
 42
50.0
 43
0.0
 44
0.0
 50
0.0
 51
0.0
 71
     0
 72
  2000
 73
     1
 74
     3
 75
     0
 76
     0
 77
     0
 78
     0
281
     0
 65
     1
110
0.0
120
0.0
130
0.0
111
1.0
121
0.0
131
0.0
112
0.0
122
1.0
132
0.0
 79
     0
146
0.0
  0
ENDTAB
  0
TABLE
  2
LTYPE
  5
5
330
0
100
AcDbSymbolTable
 70
     8
  0
LTYPE
  5
14
330
5
100
AcDbSymbolTableRecord
100
AcDbLinetypeTableRecord
  2
ByBlock
 70
     0
  3

 72
    65
 73
     0
 40
0.0
  0
LTYPE
  5
15
330
5
100
AcDbSymbolTableRecord
100
AcDbLinetypeTableRecord
  2
ByLayer
 70
     0
  3

 72
    65
 73
     0
 40
0.0
  0
LTYPE
  5
16
330
5
100
AcDbSymbolTableRecord
100
AcDbLinetypeTableRecord
  2
Continuous
 70
     0
  3
Solid line
 72
    65
 73
     0
 40
0.0
  0
LTYPE
  5
6E
330
5
100
AcDbSymbolTableRecord
100
AcDbLinetypeTableRecord
  2
SLD-Solid
 70
     0
  3
SolidWorks Line Style
 72
    65
 73
     0
 40
0.0
  0
LTYPE
  5
6F
330
5
100
AcDbSymbolTableRecord
100
AcDbLinetypeTableRecord
  2
SLD-Dashed
 70
     0
  3
SolidWorks Line Style
 72
    65
 73
     2
 40
1.905
 49
1.27
 74
     0
 49
-0.635
 74
     0
  0
LTYPE
  5
70
330
5
100
AcDbSymbolTableRecord
100
AcDbLinetypeTableRecord
  2
SLD-Phantom
 70
     0
  3
SolidWorks Line Style
 72
    65
 73
     6
 40
12.7
 49
6.35
 74
     0
 49
-1.27
 74
     0
 49
1.27
 74
     0
 49
-1.27
 74
     0
 49
1.27
 74
     0
 49
-1.27
 74
     0
  0
LTYPE
  5
71
330
5
100
AcDbSymbolTableRecord
100
AcDbLinetypeTableRecord
  2
SLD-Chain
 70
     0
  3
SolidWorks Line Style
 72
    65
 73
     4
 40
10.16
 49
6.35
 74
     0
 49
-1.27
 74
     0
 49
1.27
 74
     0
 49
-1.27
 74
     0
  0
LTYPE
  5
72
330
5
100
AcDbSymbolTableRecord
100
AcDbLinetypeTableRecord
  2
SLD-Center
 70
     0
  3
SolidWorks Line Style
 72
    65
 73
     4
 40
19.05
 49
15.24
 74
     0
 49
-1.27
 74
     0
 49
1.27
 74
     0
 49
-1.27
 74
     0
  0
LTYPE
  5
73
330
5
100
AcDbSymbolTableRecord
100
AcDbLinetypeTableRecord
  2
SLD-Stitch
 70
     0
  3
SolidWorks Line Style
 72
    65
 73
     2
 40
0.635
 49
0.0
 74
     0
 49
-0.635
 74
     0
  0
LTYPE
  5
74
330
5
100
AcDbSymbolTableRecord
100
AcDbLinetypeTableRecord
  2
SLD-Thin-Thick-Chain
 70
     0
  3
SolidWorks Line Style
 72
    65
 73
     4
 40
10.16
 49
6.35
 74
     0
 49
-1.27
 74
     0
 49
1.27
 74
     0
 49
-1.27
 74
     0
  0
ENDTAB
  0
TABLE
  2
LAYER
  5
2
330
0
100
AcDbSymbolTable
 70
    12
  0
LAYER
  5
10
330
2
100
AcDbSymbolTableRecord
100
AcDbLayerTableRecord
  2
0
 70
     0
 62
     7
  6
Continuous
370
    -3
390
F
  0
LAYER
  5
75
330
2
100
AcDbSymbolTableRecord
100
AcDbLayerTableRecord
  2
SLD-0
 70
     0
 62
   179
  6
SLD-Solid
370
    -3
390
F
  0
LAYER
  5
76
330
2
100
AcDbSymbolTableRecord
100
AcDbLayerTableRecord
  2
80
 70
     0
 62
    -6
  6
SLD-Solid
290
     0
370
    -3
390
F
  0
LAYER
  5
77
330
2
100
AcDbSymbolTableRecord
100
AcDbLayerTableRecord
  2
81
 70
     0
 62
    -3
  6
SLD-Solid
290
     0
370
    -3
390
F
  0
LAYER
  5
78
330
2
100
AcDbSymbolTableRecord
100
AcDbLayerTableRecord
  2
1
 70
     0
 62
     4
  6
SLD-Solid
290
     0
370
    -3
390
F
  0
LAYER
  5
79
330
2
100
AcDbSymbolTableRecord
100
AcDbLayerTableRecord
  2
4
 70
     0
 62
    -2
  6
SLD-Chain
290
     0
370
    -3
390
F
  0
LAYER
  5
7A
330
2
100
AcDbSymbolTableRecord
100
AcDbLayerTableRecord
  2
2
 70
     0
 62
     7
  6
SLD-Solid
290
     0
370
    -3
390
F
  0
LAYER
  5
7B
330
2
100
AcDbSymbolTableRecord
100
AcDbLayerTableRecord
  2
SK3
 70
     0
 62
     1
  6
SLD-Dashed
290
     0
370
    -3
390
F
  0
LAYER
  5
7C
330
2
100
AcDbSymbolTableRecord
100
AcDbLayerTableRecord
  2
SK4
 70
     0
 62
     2
  6
SLD-Chain
290
     0
370
    -3
390
F
  0
LAYER
  5
7D
330
2
100
AcDbSymbolTableRecord
100
AcDbLayerTableRecord
  2
SK2
 70
     0
 62
     7
  6
SLD-Solid
290
     0
370
    -3
390
F
  0
LAYER
  5
7E
330
2
100
AcDbSymbolTableRecord
100
AcDbLayerTableRecord
  2
SK6
 70
     0
 62
     5
  6
SLD-Solid
290
     0
370
    -3
390
F
  0
LAYER
  5
7F
330
2
100
AcDbSymbolTableRecord
100
AcDbLayerTableRecord
  2
SK1
 70
     0
 62
     4
  6
SLD-Solid
370
    -3
390
F
  0
ENDTAB
  0
TABLE
  2
STYLE
  5
3
330
0
100
AcDbSymbolTable
 70
     2
  0
STYLE
  5
11
330
3
100
AcDbSymbolTableRecord
100
AcDbTextStyleTableRecord
  2
Standard
 70
     0
 40
0.0
 41
1.0
 50
0.0
 71
     0
 42
3.5
  3
txt
  4

  0
STYLE
  5
211
330
3
100
AcDbSymbolTableRecord
100
AcDbTextStyleTableRecord
  2
SLDTEXTSTYLE0
 70
     0
 40
0.0
 41
0.75
 50
0.0
 71
     0
 42
3.5
  3
TXT
  4

  0
ENDTAB
  0
TABLE
  2
VIEW
  5
6
330
0
100
AcDbSymbolTable
 70
     0
  0
ENDTAB
  0
TABLE
  2
UCS
  5
7
330
0
100
AcDbSymbolTable
 70
     0
  0
ENDTAB
  0
TABLE
  2
APPID
  5
9
330
0
100
AcDbSymbolTable
 70
     1
  0
APPID
  5
12
330
9
100
AcDbSymbolTableRecord
100
AcDbRegAppTableRecord
  2
ACAD
 70
     0
  0
ENDTAB
  0
TABLE
  2
DIMSTYLE
  5
A
330
0
100
AcDbSymbolTable
 70
     2
100
AcDbDimStyleTable
  0
DIMSTYLE
105
27
330
A
100
AcDbSymbolTableRecord
100
AcDbDimStyleTableRecord
  2
ISO-25
 70
     0
 41
2.5
 42
0.625
 43
3.75
 44
1.25
 73
     0
 74
     0
 77
     1
 78
     8
140
2.5
141
2.5
143
0.0393700787
147
0.625
171
     3
172
     1
178
     0
271
     2
272
     2
274
     3
278
    44
283
     0
284
     8
340
11
  0
DIMSTYLE
105
212
102
{ACAD_REACTORS
330
210
330
21C
330
226
330
230
330
23A
330
244
330
24F
330
25A
330
265
330
26F
330
27A
330
285
102
}
330
A
100
AcDbSymbolTableRecord
100
AcDbDimStyleTableRecord
  2
SLDDIMSTYLE0
 70
     0
 41
3.302
 44
0.0
 45
0.000000001
 73
     0
 74
     0
 77
     1
 78
    12
 79
     3
140
3.5
147
0.875
173
     1
178
     0
271
     2
272
     2
276
     2
284
    12
340
211
  0
ENDTAB
  0
TABLE
  2
BLOCK_RECORD
  5
1
330
0
100
AcDbSymbolTable
 70
    15
  0
BLOCK_RECORD
  5
1F
330
1
100
AcDbSymbolTableRecord
100
AcDbBlockTableRecord
  2
*Model_Space
340
22
  0
BLOCK_RECORD
  5
1B
330
1
100
AcDbSymbolTableRecord
100
AcDbBlockTableRecord
  2
*Paper_Space
340
1E
  0
BLOCK_RECORD
  5
23
330
1
100
AcDbSymbolTableRecord
100
AcDbBlockTableRecord
  2
*Paper_Space0
340
26
  0
BLOCK_RECORD
  5
80
330
1
100
AcDbSymbolTableRecord
100
AcDbBlockTableRecord
  2
Block11
340
0
102
{BLKREFS
331
20E
102
}
  0
BLOCK_RECORD
  5
89
330
1
100
AcDbSymbolTableRecord
100
AcDbBlockTableRecord
  2
Block12
340
0
102
{BLKREFS
331
20F
102
}
  0
BLOCK_RECORD
  5
213
330
1
100
AcDbSymbolTableRecord
100
AcDbBlockTableRecord
  2
_D
340
0
  0
BLOCK_RECORD
  5
21D
330
1
100
AcDbSymbolTableRecord
100
AcDbBlockTableRecord
  2
_D_1
340
0
  0
BLOCK_RECORD
  5
227
330
1
100
AcDbSymbolTableRecord
100
AcDbBlockTableRecord
  2
_D_2
340
0
  0
BLOCK_RECORD
  5
231
330
1
100
AcDbSymbolTableRecord
100
AcDbBlockTableRecord
  2
_D_3
340
0
  0
BLOCK_RECORD
  5
23B
330
1
100
AcDbSymbolTableRecord
100
AcDbBlockTableRecord
  2
_D_4
340
0
  0
BLOCK_RECORD
  5
245
330
1
100
AcDbSymbolTableRecord
100
AcDbBlockTableRecord
  2
_D_5
340
0
  0
BLOCK_RECORD
  5
250
330
1
100
AcDbSymbolTableRecord
100
AcDbBlockTableRecord
  2
_D_6
340
0
  0
BLOCK_RECORD
  5
25B
330
1
100
AcDbSymbolTableRecord
100
AcDbBlockTableRecord
  2
_D_7
340
0
  0
BLOCK_RECORD
  5
266
330
1
100
AcDbSymbolTableRecord
100
AcDbBlockTableRecord
  2
_D_8
340
0
  0
BLOCK_RECORD
  5
270
330
1
100
AcDbSymbolTableRecord
100
AcDbBlockTableRecord
  2
_D_9
340
0
  0
BLOCK_RECORD
  5
27B
330
1
100
AcDbSymbolTableRecord
100
AcDbBlockTableRecord
  2
_D_10
340
0
  0
BLOCK_RECORD
  5
286
330
1
100
AcDbSymbolTableRecord
100
AcDbBlockTableRecord
  2
_D_11
340
0
  0
ENDTAB
  0
ENDSEC
  0
SECTION
  2
BLOCKS
  0
BLOCK
  5
20
330
1F
100
AcDbEntity
  8
0
100
AcDbBlockBegin
  2
*Model_Space
 70
     0
 10
0.0
 20
0.0
 30
0.0
  3
*Model_Space
  1

  0
ENDBLK
  5
21
330
1F
100
AcDbEntity
  8
0
100
AcDbBlockEnd
  0
BLOCK
  5
1C
330
1B
100
AcDbEntity
 67
     1
  8
0
100
AcDbBlockBegin
  2
*Paper_Space
 70
     0
 10
0.0
 20
0.0
 30
0.0
  3
*Paper_Space
  1

  0
ENDBLK
  5
1D
330
1B
100
AcDbEntity
 67
     1
  8
0
100
AcDbBlockEnd
  0
BLOCK
  5
24
330
23
100
AcDbEntity
  8
0
100
AcDbBlockBegin
  2
*Paper_Space0
 70
     0
 10
0.0
 20
0.0
 30
0.0
  3
*Paper_Space0
  1

  0
ENDBLK
  5
25
330
23
100
AcDbEntity
  8
0
100
AcDbBlockEnd
  0
BLOCK
  5
81
330
80
100
AcDbEntity
  8
0
100
AcDbBlockBegin
  2
Block11
 70
     0
 10
0.0
 20
0.0
 30
0.0
  3
Block11
  1

  0
CIRCLE
  5
83
330
80
100
AcDbEntity
  8
81
370
    18
100
AcDbCircle
 10
91.6264826505
 20
130.2676275275
 30
0.0
 40
2.499999999999981
  0
LINE
  5
84
330
80
100
AcDbEntity
  8
81
370
    18
100
AcDbLine
 10
91.6264826505
 20
130.2676275275
 30
0.0
 11
95.1620165565
 21
133.8031614334
 31
0.0
  0
LINE
  5
85
330
80
100
AcDbEntity
  8
81
370
    18
100
AcDbLine
 10
91.6264826505
 20
130.2676275275
 30
0.0
 11
88.0909487446
 21
126.7320936216
 31
0.0
  0
LINE
  5
86
330
80
100
AcDbEntity
  8
81
370
    18
100
AcDbLine
 10
91.6264826505
 20
130.2676275275
 30
0.0
 11
88.0909487446
 21
133.8031614334
 31
0.0
  0
LINE
  5
87
330
80
100
AcDbEntity
  8
81
100
AcDbLine
 10
91.6264826505
 20
130.2676275275
 30
0.0
 11
101.6264826505
 21
130.2676275275
 31
0.0
  0
LINE
  5
88
330
80
100
AcDbEntity
  8
81
370
    18
100
AcDbLine
 10
91.6264826505
 20
130.2676275275
 30
0.0
 11
95.1620165565
 21
126.7320936216
 31
0.0
  0
ENDBLK
  5
82
330
80
100
AcDbEntity
  8
0
100
AcDbBlockEnd
  0
BLOCK
  5
8A
330
89
100
AcDbEntity
  8
0
100
AcDbBlockBegin
  2
Block12
 70
     0
 10
0.0
 20
0.0
 30
0.0
  3
Block12
  1

  0
CIRCLE
  5
8C
330
89
100
AcDbEntity
  8
80
370
    18
100
AcDbCircle
 10
61.7273641656
 20
130.3356800267
 30
0.0
 40
2.500000000000004
  0
LINE
  5
8D
330
89
100
AcDbEntity
  8
80
370
    18
100
AcDbLine
 10
61.7273641656
 20
130.3356800267
 30
0.0
 11
65.2628980715
 21
133.8712139326
 31
0.0
  0
LINE
  5
8E
330
89
100
AcDbEntity
  8
80
370
    18
100
AcDbLine
 10
61.7273641656
 20
130.3356800267
 30
0.0
 11
58.1918302597
 21
126.8001461208
 31
0.0
  0
LINE
  5
8F
330
89
100
AcDbEntity
  8
80
370
    18
100
AcDbLine
 10
61.7273641656
 20
130.3356800267
 30
0.0
 11
58.1918302597
 21
133.8712139326
 31
0.0
  0
LINE
  5
90
330
89
100
AcDbEntity
  8
80
370
    18
100
AcDbLine
 10
61.7273641656
 20
130.3356800267
 30
0.0
 11
51.7273641656
 21
130.3356800267
 31
0.0
  0
LINE
  5
91
330
89
100
AcDbEntity
  8
80
370
    18
100
AcDbLine
 10
61.7273641656
 20
130.3356800267
 30
0.0
 11
65.2628980715
 21
126.8001461208
 31
0.0
  0
ENDBLK
  5
8B
330
89
100
AcDbEntity
  8
0
100
AcDbBlockEnd
  0
BLOCK
  5
214
330
213
100
AcDbEntity
  8
0
100
AcDbBlockBegin
  2
_D
 70
     0
 10
0.0
 20
0.0
 30
0.0
  3
_D
  1

  0
SOLID
  5
216
330
213
100
AcDbEntity
  8
SK2
100
AcDbTrace
 10
80.0
 20
26.9583637828
 30
0.0
 11
76.698
 21
27.4663637828
 31
0.0
 12
76.698
 22
26.4503637828
 32
0.0
 13
76.698
 23
26.4503637828
 33
0.0
  0
SOLID
  5
217
330
213
100
AcDbEntity
  8
SK2
100
AcDbTrace
 10
65.5
 20
26.9583637828
 30
0.0
 11
68.802
 21
26.4503637828
 31
0.0
 12
68.802
 22
27.4663637828
 32
0.0
 13
68.802
 23
27.4663637828
 33
0.0
  0
LINE
  5
218
330
213
100
AcDbEntity
  8
SK2
100
AcDbLine
 10
80.0
 20
19.0
 30
0.0
 11
80.0
 21
27.9583637828
 31
0.0
  0
LINE
  5
219
330
213
100
AcDbEntity
  8
SK2
100
AcDbLine
 10
65.5
 20
21.45
 30
0.0
 11
65.5
 21
27.9583637828
 31
0.0
  0
LINE
  5
21A
330
213
100
AcDbEntity
  8
SK2
100
AcDbLine
 10
80.0
 20
26.9583637828
 30
0.0
 11
65.5
 21
26.9583637828
 31
0.0
  0
MTEXT
  5
21B
330
213
100
AcDbEntity
  8
SK2
100
AcDbMText
 10
68.1200741285
 20
31.4701006973
 30
0.0
 40
3.5
 41
0.0
 71
     1
 72
     1
  1
14,5
  7
SLDTEXTSTYLE0
 73
     1
 44
1.0
  0
ENDBLK
  5
215
330
213
100
AcDbEntity
  8
0
100
AcDbBlockEnd
  0
BLOCK
  5
21E
330
21D
100
AcDbEntity
  8
0
100
AcDbBlockBegin
  2
_D_1
 70
     0
 10
0.0
 20
0.0
 30
0.0
  3
_D_1
  1

  0
SOLID
  5
220
330
21D
100
AcDbEntity
  8
SK2
100
AcDbTrace
 10
65.5
 20
26.9583637828
 30
0.0
 11
62.198
 21
27.4663637828
 31
0.0
 12
62.198
 22
26.4503637828
 32
0.0
 13
62.198
 23
26.4503637828
 33
0.0
  0
SOLID
  5
221
330
21D
100
AcDbEntity
  8
SK2
100
AcDbTrace
 10
42.5
 20
26.9583637828
 30
0.0
 11
45.802
 21
26.4503637828
 31
0.0
 12
45.802
 22
27.4663637828
 32
0.0
 13
45.802
 23
27.4663637828
 33
0.0
  0
LINE
  5
222
330
21D
100
AcDbEntity
  8
SK2
100
AcDbLine
 10
65.5
 20
21.45
 30
0.0
 11
65.5
 21
27.9583637828
 31
0.0
  0
LINE
  5
223
330
21D
100
AcDbEntity
  8
SK2
100
AcDbLine
 10
42.5
 20
21.45
 30
0.0
 11
42.5
 21
27.9583637828
 31
0.0
  0
LINE
  5
224
330
21D
100
AcDbEntity
  8
SK2
100
AcDbLine
 10
65.5
 20
26.9583637828
 30
0.0
 11
42.5
 21
26.9583637828
 31
0.0
  0
MTEXT
  5
225
330
21D
100
AcDbEntity
  8
SK2
100
AcDbMText
 10
51.1173432304
 20
31.4701006973
 30
0.0
 40
3.5
 41
0.0
 71
     1
 72
     1
  1
23
  7
SLDTEXTSTYLE0
 73
     1
 44
1.0
  0
ENDBLK
  5
21F
330
21D
100
AcDbEntity
  8
0
100
AcDbBlockEnd
  0
BLOCK
  5
228
330
227
100
AcDbEntity
  8
0
100
AcDbBlockBegin
  2
_D_2
 70
     0
 10
0.0
 20
0.0
 30
0.0
  3
_D_2
  1

  0
SOLID
  5
22A
330
227
100
AcDbEntity
  8
SK2
100
AcDbTrace
 10
80.0
 20
36.2775772032
 30
0.0
 11
76.698
 21
36.7855772032
 31
0.0
 12
76.698
 22
35.7695772032
 32
0.0
 13
76.698
 23
35.7695772032
 33
0.0
  0
SOLID
  5
22B
330
227
100
AcDbEntity
  8
SK2
100
AcDbTrace
 10
22.1
 20
36.2775772032
 30
0.0
 11
25.402
 21
35.7695772032
 31
0.0
 12
25.402
 22
36.7855772032
 32
0.0
 13
25.402
 23
36.7855772032
 33
0.0
  0
LINE
  5
22C
330
227
100
AcDbEntity
  8
SK2
100
AcDbLine
 10
80.0
 20
19.0
 30
0.0
 11
80.0
 21
37.2775772032
 31
0.0
  0
LINE
  5
22D
330
227
100
AcDbEntity
  8
SK2
100
AcDbLine
 10
22.1
 20
23.24
 30
0.0
 11
22.1
 21
37.2775772032
 31
0.0
  0
LINE
  5
22E
330
227
100
AcDbEntity
  8
SK2
100
AcDbLine
 10
80.0
 20
36.2775772032
 30
0.0
 11
22.1
 21
36.2775772032
 31
0.0
  0
MTEXT
  5
22F
330
227
100
AcDbEntity
  8
SK2
100
AcDbMText
 10
47.3544355286
 20
40.7893141178
 30
0.0
 40
3.5
 41
0.0
 71
     1
 72
     1
  1
57,9
  7
SLDTEXTSTYLE0
 73
     1
 44
1.0
  0
ENDBLK
  5
229
330
227
100
AcDbEntity
  8
0
100
AcDbBlockEnd
  0
BLOCK
  5
232
330
231
100
AcDbEntity
  8
0
100
AcDbBlockBegin
  2
_D_3
 70
     0
 10
0.0
 20
0.0
 30
0.0
  3
_D_3
  1

  0
SOLID
  5
234
330
231
100
AcDbEntity
  8
SK2
100
AcDbTrace
 10
0.0
 20
36.2775772032
 30
0.0
 11
3.302
 21
35.7695772032
 31
0.0
 12
3.302
 22
36.7855772032
 32
0.0
 13
3.302
 23
36.7855772032
 33
0.0
  0
SOLID
  5
235
330
231
100
AcDbEntity
  8
SK2
100
AcDbTrace
 10
22.1
 20
36.2775772032
 30
0.0
 11
18.798
 21
36.7855772032
 31
0.0
 12
18.798
 22
35.7695772032
 32
0.0
 13
18.798
 23
35.7695772032
 33
0.0
  0
LINE
  5
236
330
231
100
AcDbEntity
  8
SK2
100
AcDbLine
 10
0.0
 20
16.875
 30
0.0
 11
0.0
 21
37.2775772032
 31
0.0
  0
LINE
  5
237
330
231
100
AcDbEntity
  8
SK2
100
AcDbLine
 10
22.1
 20
23.24
 30
0.0
 11
22.1
 21
37.2775772032
 31
0.0
  0
LINE
  5
238
330
231
100
AcDbEntity
  8
SK2
100
AcDbLine
 10
0.0
 20
36.2775772032
 30
0.0
 11
22.1
 21
36.2775772032
 31
0.0
  0
MTEXT
  5
239
330
231
100
AcDbEntity
  8
SK2
100
AcDbMText
 10
6.8361163092
 20
40.7893141178
 30
0.0
 40
3.5
 41
0.0
 71
     1
 72
     1
  1
22,1
  7
SLDTEXTSTYLE0
 73
     1
 44
1.0
  0
ENDBLK
  5
233
330
231
100
AcDbEntity
  8
0
100
AcDbBlockEnd
  0
BLOCK
  5
23C
330
23B
100
AcDbEntity
  8
0
100
AcDbBlockBegin
  2
_D_4
 70
     0
 10
0.0
 20
0.0
 30
0.0
  3
_D_4
  1

  0
SOLID
  5
23E
330
23B
100
AcDbEntity
  8
2
100
AcDbTrace
 10
0.0
 20
45.1916074315
 30
0.0
 11
3.302
 21
44.6836074315
 31
0.0
 12
3.302
 22
45.6996074315
 32
0.0
 13
3.302
 23
45.6996074315
 33
0.0
  0
SOLID
  5
23F
330
23B
100
AcDbEntity
  8
2
100
AcDbTrace
 10
80.0
 20
45.1916074315
 30
0.0
 11
76.698
 21
45.6996074315
 31
0.0
 12
76.698
 22
44.6836074315
 32
0.0
 13
76.698
 23
44.6836074315
 33
0.0
  0
LINE
  5
240
330
23B
100
AcDbEntity
  8
2
100
AcDbLine
 10
0.0
 20
16.875
 30
0.0
 11
0.0
 21
46.1916074315
 31
0.0
  0
LINE
  5
241
330
23B
100
AcDbEntity
  8
2
100
AcDbLine
 10
80.0
 20
19.0
 30
0.0
 11
80.0
 21
46.1916074315
 31
0.0
  0
LINE
  5
242
330
23B
100
AcDbEntity
  8
2
100
AcDbLine
 10
0.0
 20
45.1916074315
 30
0.0
 11
80.0
 21
45.1916074315
 31
0.0
  0
MTEXT
  5
243
330
23B
100
AcDbEntity
  8
2
100
AcDbMText
 10
37.1385230997
 20
49.7033443461
 30
0.0
 40
3.5
 41
0.0
 71
     1
 72
     1
  1
80
  7
SLDTEXTSTYLE0
 73
     1
 44
1.0
  0
ENDBLK
  5
23D
330
23B
100
AcDbEntity
  8
0
100
AcDbBlockEnd
  0
BLOCK
  5
246
330
245
100
AcDbEntity
  8
0
100
AcDbBlockBegin
  2
_D_5
 70
     0
 10
0.0
 20
0.0
 30
0.0
  3
_D_5
  1

  0
SOLID
  5
248
330
245
100
AcDbEntity
  8
SK2
100
AcDbTrace
 10
112.6642920549
 20
-20.0
 30
0.0
 11
113.1722920549
 21
-16.698
 31
0.0
 12
112.1562920549
 22
-16.698
 32
0.0
 13
112.1562920549
 23
-16.698
 33
0.0
  0
SOLID
  5
249
330
245
100
AcDbEntity
  8
SK2
100
AcDbTrace
 10
112.6642920549
 20
20.0
 30
0.0
 11
112.1562920549
 21
16.698
 31
0.0
 12
113.1722920549
 22
16.698
 32
0.0
 13
113.1722920549
 23
16.698
 33
0.0
  0
LINE
  5
24A
330
245
100
AcDbEntity
  8
SK2
100
AcDbLine
 10
79.0
 20
-20.0
 30
0.0
 11
113.6642920549
 21
-20.0
 31
0.0
  0
LINE
  5
24B
330
245
100
AcDbEntity
  8
SK2
100
AcDbLine
 10
79.0
 20
20.0
 30
0.0
 11
113.6642920549
 21
20.0
 31
0.0
  0
LINE
  5
24C
330
245
100
AcDbEntity
  8
SK2
100
AcDbLine
 10
112.6642920549
 20
-20.0
 30
0.0
 11
112.6642920549
 21
20.0
 31
0.0
  0
MTEXT
  5
24D
330
245
100
AcDbEntity
  8
SK2
100
AcDbMText
 10
108.1525549657
 20
-5.9538710326
 30
0.0
 40
3.5
 41
0.0
 71
     1
 72
     1
  1
%%c
  7
SLDTEXTSTYLE0
 11
6.123233995736766E-17
 21
1.0
 31
0.0
 73
     1
 44
1.0
  0
MTEXT
  5
24E
330
245
100
AcDbEntity
  8
SK2
100
AcDbMText
 10
108.099082789
 20
-0.6754336342
 30
0.0
 40
3.5
 41
0.0
 71
     1
 72
     1
  1
40
  7
SLDTEXTSTYLE0
 11
6.123233995736766E-17
 21
1.0
 31
0.0
 73
     1
 44
1.0
  0
ENDBLK
  5
247
330
245
100
AcDbEntity
  8
0
100
AcDbBlockEnd
  0
BLOCK
  5
251
330
250
100
AcDbEntity
  8
0
100
AcDbBlockBegin
  2
_D_6
 70
     0
 10
0.0
 20
0.0
 30
0.0
  3
_D_6
  1

  0
SOLID
  5
253
330
250
100
AcDbEntity
  8
SK2
100
AcDbTrace
 10
102.742956843
 20
-18.0
 30
0.0
 11
103.250956843
 21
-14.698
 31
0.0
 12
102.234956843
 22
-14.698
 32
0.0
 13
102.234956843
 23
-14.698
 33
0.0
  0
SOLID
  5
254
330
250
100
AcDbEntity
  8
SK2
100
AcDbTrace
 10
102.742956843
 20
18.0
 30
0.0
 11
102.234956843
 21
14.698
 31
0.0
 12
103.250956843
 22
14.698
 32
0.0
 13
103.250956843
 23
14.698
 33
0.0
  0
LINE
  5
255
330
250
100
AcDbEntity
  8
SK2
100
AcDbLine
 10
81.0
 20
-18.0
 30
0.0
 11
103.742956843
 21
-18.0
 31
0.0
  0
LINE
  5
256
330
250
100
AcDbEntity
  8
SK2
100
AcDbLine
 10
81.0
 20
18.0
 30
0.0
 11
103.742956843
 21
18.0
 31
0.0
  0
LINE
  5
257
330
250
100
AcDbEntity
  8
SK2
100
AcDbLine
 10
102.742956843
 20
-18.0
 30
0.0
 11
102.742956843
 21
18.0
 31
0.0
  0
MTEXT
  5
258
330
250
100
AcDbEntity
  8
SK2
100
AcDbMText
 10
98.2312197538
 20
-5.9538710326
 30
0.0
 40
3.5
 41
0.0
 71
     1
 72
     1
  1
%%c
  7
SLDTEXTSTYLE0
 11
6.123233995736766E-17
 21
1.0
 31
0.0
 73
     1
 44
1.0
  0
MTEXT
  5
259
330
250
100
AcDbEntity
  8
SK2
100
AcDbMText
 10
98.1777475772
 20
-0.6754336342
 30
0.0
 40
3.5
 41
0.0
 71
     1
 72
     1
  1
36
  7
SLDTEXTSTYLE0
 11
6.123233995736766E-17
 21
1.0
 31
0.0
 73
     1
 44
1.0
  0
ENDBLK
  5
252
330
250
100
AcDbEntity
  8
0
100
AcDbBlockEnd
  0
BLOCK
  5
25C
330
25B
100
AcDbEntity
  8
0
100
AcDbBlockBegin
  2
_D_7
 70
     0
 10
0.0
 20
0.0
 30
0.0
  3
_D_7
  1

  0
SOLID
  5
25E
330
25B
100
AcDbEntity
  8
SK2
100
AcDbTrace
 10
92.4651192551
 20
-10.0
 30
0.0
 11
92.9731192551
 21
-6.698
 31
0.0
 12
91.9571192551
 22
-6.698
 32
0.0
 13
91.9571192551
 23
-6.698
 33
0.0
  0
SOLID
  5
25F
330
25B
100
AcDbEntity
  8
SK2
100
AcDbTrace
 10
92.4651192551
 20
10.0
 30
0.0
 11
91.9571192551
 21
6.698
 31
0.0
 12
92.9731192551
 22
6.698
 32
0.0
 13
92.9731192551
 23
6.698
 33
0.0
  0
LINE
  5
260
330
25B
100
AcDbEntity
  8
SK2
100
AcDbLine
 10
79.2679491924
 20
-10.0
 30
0.0
 11
93.4651192551
 21
-10.0
 31
0.0
  0
LINE
  5
261
330
25B
100
AcDbEntity
  8
SK2
100
AcDbLine
 10
79.2679491924
 20
10.0
 30
0.0
 11
93.4651192551
 21
10.0
 31
0.0
  0
LINE
  5
262
330
25B
100
AcDbEntity
  8
SK2
100
AcDbLine
 10
92.4651192551
 20
-10.0
 30
0.0
 11
92.4651192551
 21
10.0
 31
0.0
  0
MTEXT
  5
263
330
25B
100
AcDbEntity
  8
SK2
100
AcDbMText
 10
87.9533821659
 20
-5.9538710326
 30
0.0
 40
3.5
 41
0.0
 71
     1
 72
     1
  1
%%c
  7
SLDTEXTSTYLE0
 11
6.123233995736766E-17
 21
1.0
 31
0.0
 73
     1
 44
1.0
  0
MTEXT
  5
264
330
25B
100
AcDbEntity
  8
SK2
100
AcDbMText
 10
87.8999099892
 20
-0.6754336342
 30
0.0
 40
3.5
 41
0.0
 71
     1
 72
     1
  1
20
  7
SLDTEXTSTYLE0
 11
6.123233995736766E-17
 21
1.0
 31
0.0
 73
     1
 44
1.0
  0
ENDBLK
  5
25D
330
25B
100
AcDbEntity
  8
0
100
AcDbBlockEnd
  0
BLOCK
  5
267
330
266
100
AcDbEntity
  8
0
100
AcDbBlockBegin
  2
_D_8
 70
     0
 10
0.0
 20
0.0
 30
0.0
  3
_D_8
  1

  0
SOLID
  5
269
330
266
100
AcDbEntity
  8
SK2
100
AcDbTrace
 10
80.0
 20
-30.0620130525
 30
0.0
 11
76.698
 21
-29.5540130525
 31
0.0
 12
76.698
 22
-30.5700130525
 32
0.0
 13
76.698
 23
-30.5700130525
 33
0.0
  0
SOLID
  5
26A
330
266
100
AcDbEntity
  8
SK2
100
AcDbTrace
 10
31.5
 20
-30.0620130525
 30
0.0
 11
34.802
 21
-30.5700130525
 31
0.0
 12
34.802
 22
-29.5540130525
 32
0.0
 13
34.802
 23
-29.5540130525
 33
0.0
  0
LINE
  5
26B
330
266
100
AcDbEntity
  8
SK2
100
AcDbLine
 10
80.0
 20
-19.0
 30
0.0
 11
80.0
 21
-31.0620130525
 31
0.0
  0
LINE
  5
26C
330
266
100
AcDbEntity
  8
SK2
100
AcDbLine
 10
31.5
 20
-11.25
 30
0.0
 11
31.5
 21
-31.0620130525
 31
0.0
  0
LINE
  5
26D
330
266
100
AcDbEntity
  8
SK2
100
AcDbLine
 10
80.0
 20
-30.0620130525
 30
0.0
 11
31.5
 21
-30.0620130525
 31
0.0
  0
MTEXT
  5
26E
330
266
100
AcDbEntity
  8
SK2
100
AcDbMText
 10
50.8041352342
 20
-25.5502761379
 30
0.0
 40
3.5
 41
0.0
 71
     1
 72
     1
  1
48,5
  7
SLDTEXTSTYLE0
 73
     1
 44
1.0
  0
ENDBLK
  5
268
330
266
100
AcDbEntity
  8
0
100
AcDbBlockEnd
  0
BLOCK
  5
271
330
270
100
AcDbEntity
  8
0
100
AcDbBlockBegin
  2
_D_9
 70
     0
 10
0.0
 20
0.0
 30
0.0
  3
_D_9
  1

  0
SOLID
  5
273
330
270
100
AcDbEntity
  8
SK2
100
AcDbTrace
 10
-73.6843612765
 20
22.99
 30
0.0
 11
-74.1923612765
 21
19.688
 31
0.0
 12
-73.1763612765
 22
19.688
 32
0.0
 13
-73.1763612765
 23
19.688
 33
0.0
  0
SOLID
  5
274
330
270
100
AcDbEntity
  8
SK2
100
AcDbTrace
 10
-73.6843612765
 20
-22.99
 30
0.0
 11
-73.1763612765
 21
-19.688
 31
0.0
 12
-74.1923612765
 22
-19.688
 32
0.0
 13
-74.1923612765
 23
-19.688
 33
0.0
  0
LINE
  5
275
330
270
100
AcDbEntity
  8
SK2
100
AcDbLine
 10
18.874649423
 20
22.99
 30
0.0
 11
-74.6843612765
 21
22.99
 31
0.0
  0
LINE
  5
276
330
270
100
AcDbEntity
  8
SK2
100
AcDbLine
 10
18.8746494411
 20
-22.99
 30
0.0
 11
-74.6843612765
 21
-22.99
 31
0.0
  0
LINE
  5
277
330
270
100
AcDbEntity
  8
SK2
100
AcDbLine
 10
-73.6843612765
 20
22.99
 30
0.0
 11
-73.6843612765
 21
-22.99
 31
0.0
  0
MTEXT
  5
278
330
270
100
AcDbEntity
  8
SK2
100
AcDbMText
 10
-78.1960983657
 20
-5.9538710326
 30
0.0
 40
3.5
 41
0.0
 71
     1
 72
     1
  1
%%c
  7
SLDTEXTSTYLE0
 11
-7.044195017643634E-15
 21
1.0
 31
0.0
 73
     1
 44
1.0
  0
MTEXT
  5
279
330
270
100
AcDbEntity
  8
SK2
100
AcDbMText
 10
-78.2495705424
 20
-0.6754336342
 30
0.0
 40
3.5
 41
0.0
 71
     1
 72
     1
  1
46
  7
SLDTEXTSTYLE0
 11
-7.044195017643634E-15
 21
1.0
 31
0.0
 73
     1
 44
1.0
  0
ENDBLK
  5
272
330
270
100
AcDbEntity
  8
0
100
AcDbBlockEnd
  0
BLOCK
  5
27C
330
27B
100
AcDbEntity
  8
0
100
AcDbBlockBegin
  2
_D_10
 70
     0
 10
0.0
 20
0.0
 30
0.0
  3
_D_10
  1

  0
SOLID
  5
27E
330
27B
100
AcDbEntity
  8
SK2
100
AcDbTrace
 10
-63.2967557407
 20
-15.875
 30
0.0
 11
-62.7887557407
 21
-12.573
 31
0.0
 12
-63.8047557407
 22
-12.573
 32
0.0
 13
-63.8047557407
 23
-12.573
 33
0.0
  0
SOLID
  5
27F
330
27B
100
AcDbEntity
  8
SK2
100
AcDbTrace
 10
-63.2967557407
 20
15.875
 30
0.0
 11
-63.8047557407
 21
12.573
 31
0.0
 12
-62.7887557407
 22
12.573
 32
0.0
 13
-62.7887557407
 23
12.573
 33
0.0
  0
LINE
  5
280
330
27B
100
AcDbEntity
  8
SK2
100
AcDbLine
 10
-1.0
 20
-15.875
 30
0.0
 11
-64.2967557407
 21
-15.875
 31
0.0
  0
LINE
  5
281
330
27B
100
AcDbEntity
  8
SK2
100
AcDbLine
 10
-1.0
 20
15.875
 30
0.0
 11
-64.2967557407
 21
15.875
 31
0.0
  0
LINE
  5
282
330
27B
100
AcDbEntity
  8
SK2
100
AcDbLine
 10
-63.2967557407
 20
-15.875
 30
0.0
 11
-63.2967557407
 21
15.875
 31
0.0
  0
MTEXT
  5
283
330
27B
100
AcDbEntity
  8
SK2
100
AcDbMText
 10
-67.8084928299
 20
-9.1865098498
 30
0.0
 40
3.5
 41
0.0
 71
     1
 72
     1
  1
%%c
  7
SLDTEXTSTYLE0
 11
6.123233995736766E-17
 21
1.0
 31
0.0
 73
     1
 44
1.0
  0
MTEXT
  5
284
330
27B
100
AcDbEntity
  8
SK2
100
AcDbMText
 10
-67.8619650066
 20
-3.9080724515
 30
0.0
 40
3.5
 41
0.0
 71
     1
 72
     1
  1
31,75
  7
SLDTEXTSTYLE0
 11
6.123233995736766E-17
 21
1.0
 31
0.0
 73
     1
 44
1.0
  0
ENDBLK
  5
27D
330
27B
100
AcDbEntity
  8
0
100
AcDbBlockEnd
  0
BLOCK
  5
287
330
286
100
AcDbEntity
  8
0
100
AcDbBlockBegin
  2
_D_11
 70
     0
 10
0.0
 20
0.0
 30
0.0
  3
_D_11
  1

  0
SOLID
  5
289
330
286
100
AcDbEntity
  8
SK2
100
AcDbTrace
 10
-55.228206351
 20
-6.0000000522
 30
0.0
 11
-54.720206351
 21
-2.6980000522
 31
0.0
 12
-55.736206351
 22
-2.6980000522
 32
0.0
 13
-55.736206351
 23
-2.6980000522
 33
0.0
  0
SOLID
  5
28A
330
286
100
AcDbEntity
  8
SK2
100
AcDbTrace
 10
-55.228206351
 20
6.0000000522
 30
0.0
 11
-55.736206351
 21
2.6980000522
 31
0.0
 12
-54.720206351
 22
2.6980000522
 32
0.0
 13
-54.720206351
 23
2.6980000522
 33
0.0
  0
LINE
  5
28B
330
286
100
AcDbEntity
  8
SK2
100
AcDbLine
 10
-41.7891571522
 20
-6.0000000522
 30
0.0
 11
-56.228206351
 21
-6.0000000522
 31
0.0
  0
LINE
  5
28C
330
286
100
AcDbEntity
  8
SK2
100
AcDbLine
 10
-41.7891571522
 20
6.0000000522
 30
0.0
 11
-56.228206351
 21
6.0000000522
 31
0.0
  0
LINE
  5
28D
330
286
100
AcDbEntity
  8
SK2
100
AcDbLine
 10
-55.228206351
 20
-6.0000000522
 30
0.0
 11
-55.228206351
 21
6.0000000522
 31
0.0
  0
MTEXT
  5
28E
330
286
100
AcDbEntity
  8
SK2
100
AcDbMText
 10
-59.7399432655
 20
-4.5077031299
 30
0.0
 40
3.5
 41
0.0
 71
     1
 72
     1
  1
M
  7
SLDTEXTSTYLE0
 11
-6.822150412718603E-15
 21
1.0
 31
0.0
 73
     1
 44
1.0
  0
MTEXT
  5
28F
330
286
100
AcDbEntity
  8
SK2
100
AcDbMText
 10
-59.7399432655
 20
-0.2202031955
 30
0.0
 40
3.5
 41
0.0
 71
     1
 72
     1
  1
12
  7
SLDTEXTSTYLE0
 11
-6.822150412718603E-15
 21
1.0
 31
0.0
 73
     1
 44
1.0
  0
ENDBLK
  5
288
330
286
100
AcDbEntity
  8
0
100
AcDbBlockEnd
  0
ENDSEC
  0
SECTION
  2
ENTITIES
  0
LINE
  5
92
330
1F
100
AcDbEntity
  8
1
  6
SLD-Solid
370
    25
100
AcDbLine
 10
19.8746494411
 20
-22.99
 30
0.0
 11
21.35
 21
-22.99
 31
0.0
  0
LINE
  5
93
330
1F
100
AcDbEntity
  8
1
  6
SLD-Solid
370
    25
100
AcDbLine
 10
21.35
 20
22.99
 30
0.0
 11
19.874649423
 21
22.99
 31
0.0
  0
LINE
  5
94
330
1F
100
AcDbEntity
  8
1
  6
SLD-Solid
370
    25
100
AcDbLine
 10
71.8152215225
 20
-20.0
 30
0.0
 11
78.0
 21
-20.0
 31
0.0
  0
LINE
  5
95
330
1F
100
AcDbEntity
  8
1
  6
SLD-Solid
370
    25
100
AcDbLine
 10
48.8152215225
 20
-20.0
 30
0.0
 11
59.1952132126
 21
-20.0
 31
0.0
  0
LINE
  5
96
330
1F
100
AcDbEntity
  8
1
  6
SLD-Solid
370
    25
100
AcDbLine
 10
23.1
 20
-20.0
 30
0.0
 11
36.1952132126
 21
-20.0
 31
0.0
  0
LINE
  5
97
330
1F
100
AcDbEntity
  8
1
  6
SLD-Solid
370
    25
100
AcDbLine
 10
36.4598862914
 20
20.0
 30
0.0
 11
23.1
 21
20.0
 31
0.0
  0
LINE
  5
98
330
1F
100
AcDbEntity
  8
1
  6
SLD-Solid
370
    25
100
AcDbLine
 10
59.4598862914
 20
20.0
 30
0.0
 11
48.529813756
 21
20.0
 31
0.0
  0
LINE
  5
99
330
1F
100
AcDbEntity
  8
1
  6
SLD-Solid
370
    25
100
AcDbLine
 10
78.0
 20
20.0
 30
0.0
 11
71.529813756
 21
20.0
 31
0.0
  0
LINE
  5
9A
330
1F
100
AcDbEntity
  8
1
  6
SLD-Solid
370
    25
100
AcDbLine
 10
78.0
 20
-20.0
 30
0.0
 11
80.0
 21
-18.0
 31
0.0
  0
LINE
  5
9B
330
1F
100
AcDbEntity
  8
1
  6
SLD-Solid
370
    25
100
AcDbLine
 10
80.0
 20
18.0
 30
0.0
 11
78.0
 21
20.0
 31
0.0
  0
LINE
  5
9C
330
1F
100
AcDbEntity
  8
1
  6
SLD-Solid
370
    25
100
AcDbLine
 10
0.0
 20
-15.875
 30
0.0
 11
0.2
 21
-15.875
 31
0.0
  0
LINE
  5
9D
330
1F
100
AcDbEntity
  8
1
  6
SLD-Solid
370
    25
100
AcDbLine
 10
0.2
 20
15.875
 30
0.0
 11
0.0
 21
15.875
 31
0.0
  0
LINE
  5
9E
330
1F
100
AcDbEntity
  8
1
  6
SLD-Solid
370
    25
100
AcDbLine
 10
0.2
 20
-15.875
 30
0.0
 11
0.8619053906
 21
-15.5663484474
 31
0.0
  0
LINE
  5
9F
330
1F
100
AcDbEntity
  8
1
  6
SLD-Solid
370
    25
100
AcDbLine
 10
0.8619053906
 20
15.5663484474
 30
0.0
 11
0.2
 21
15.875
 31
0.0
  0
LINE
  5
A0
330
1F
100
AcDbEntity
  8
SK1
  6
SLD-Solid
370
    25
100
AcDbLine
 10
0.0
 20
15.875
 30
0.0
 11
-48.0791191833
 21
8.8629194779
 31
0.0
  0
LINE
  5
A1
330
1F
100
AcDbEntity
  8
SK1
  6
SLD-Solid
370
    25
100
AcDbLine
 10
-48.0791191833
 20
-8.8629194779
 30
0.0
 11
0.0
 21
-15.875
 31
0.0
  0
LINE
  5
A2
330
1F
100
AcDbEntity
  8
1
  6
SLD-Solid
370
    25
100
AcDbLine
 10
2.0
 20
-20.5619059185
 30
0.0
 11
2.0
 21
20.5619059185
 31
0.0
  0
LINE
  5
A3
330
1F
100
AcDbEntity
  8
1
  6
SLD-Solid
370
    25
100
AcDbLine
 10
17.6270180319
 20
-22.2347719471
 30
0.0
 11
17.6270181276
 21
22.2347719748
 31
0.0
  0
LINE
  5
A4
330
1F
100
AcDbEntity
  8
1
  6
SLD-Solid
370
    25
100
AcDbLine
 10
17.3742823051
 20
-21.8788932612
 30
0.0
 11
17.6270180319
 21
-22.2347719471
 31
0.0
  0
LINE
  5
A5
330
1F
100
AcDbEntity
  8
1
  6
SLD-Solid
370
    25
100
AcDbLine
 10
15.6
 20
-18.2061912473
 30
0.0
 11
15.6
 21
18.2061912473
 31
0.0
  0
LINE
  5
A6
330
1F
100
AcDbEntity
  8
1
  6
SLD-Solid
370
    25
100
AcDbLine
 10
17.6270181276
 20
22.2347719748
 30
0.0
 11
17.3742822791
 21
21.8788932261
 31
0.0
  0
LINE
  5
A7
330
1F
100
AcDbEntity
  8
1
  6
SLD-Solid
370
    25
100
AcDbLine
 10
2.75
 20
-21.3146126652
 30
0.0
 11
9.5729818724
 21
-21.3146126652
 31
0.0
  0
LINE
  5
A8
330
1F
100
AcDbEntity
  8
1
  6
SLD-Solid
370
    25
100
AcDbLine
 10
9.5729818724
 20
21.3146126652
 30
0.0
 11
2.75
 21
21.3146126652
 31
0.0
  0
LINE
  5
A9
330
1F
100
AcDbEntity
  8
1
  6
SLD-Solid
370
    25
100
AcDbLine
 10
9.5729818724
 20
-21.3146126652
 30
0.0
 11
9.5729818724
 21
21.3146126652
 31
0.0
  0
LINE
  5
AA
330
1F
100
AcDbEntity
  8
1
  6
SLD-Solid
370
    25
100
AcDbLine
 10
22.1
 20
22.24
 30
0.0
 11
22.1
 21
-22.24
 31
0.0
  0
LINE
  5
AB
330
1F
100
AcDbEntity
  8
1
  6
SLD-Solid
370
    25
100
AcDbLine
 10
11.6
 20
-17.7162467733
 30
0.0
 11
11.6
 21
17.7162467733
 31
0.0
  0
LINE
  5
AC
330
1F
100
AcDbEntity
  8
1
  6
SLD-Solid
370
    25
100
AcDbLine
 10
78.0
 20
-20.0
 30
0.0
 11
78.0
 21
20.0
 31
0.0
  0
LINE
  5
AD
330
1F
100
AcDbEntity
  8
1
  6
SLD-Solid
370
    25
100
AcDbLine
 10
80.0
 20
-18.0
 30
0.0
 11
80.0
 21
18.0
 31
0.0
  0
LINE
  5
AE
330
1F
100
AcDbEntity
  8
1
  6
SLD-Solid
370
    25
100
AcDbLine
 10
0.0
 20
-15.875
 30
0.0
 11
0.0
 21
15.875
 31
0.0
  0
LINE
  5
AF
330
1F
100
AcDbEntity
  8
SK1
  6
SLD-Solid
370
    25
100
AcDbLine
 10
-48.4
 20
0.0
 30
0.0
 11
-48.4
 21
8.4918452077
 31
0.0
  0
LINE
  5
B0
330
1F
100
AcDbEntity
  8
SK1
  6
SLD-Solid
370
    25
100
AcDbLine
 10
-48.4
 20
-8.4918452077
 30
0.0
 11
-48.4
 21
0.0
 31
0.0
  0
LINE
  5
B1
330
1F
100
AcDbEntity
  8
1
  6
SLD-Solid
370
    25
100
AcDbLine
 10
17.6270180319
 20
-22.2347719471
 30
0.0
 11
17.3742823051
 21
-21.8788932612
 31
0.0
  0
LINE
  5
B2
330
1F
100
AcDbEntity
  8
1
  6
SLD-Solid
370
    25
100
AcDbLine
 10
17.3742822791
 20
21.8788932261
 30
0.0
 11
17.6270181276
 21
22.2347719748
 31
0.0
  0
LINE
  5
B3
330
1F
100
AcDbEntity
  8
1
  6
SLD-Solid
370
    25
100
AcDbLine
 10
0.8619053906
 20
-15.5663484474
 30
0.0
 11
0.8619053906
 21
15.5663484474
 31
0.0
  0
LINE
  5
B4
330
1F
100
AcDbEntity
  8
SK3
  6
SLD-Dashed
370
    18
100
AcDbLine
 10
78.2679491924
 20
10.0
 30
0.0
 11
78.2679491924
 21
-10.0
 31
0.0
  0
LINE
  5
B5
330
1F
100
AcDbEntity
  8
SK3
  6
SLD-Dashed
370
    18
100
AcDbLine
 10
80.0
 20
10.987540731
 30
0.0
 11
80.0
 21
-10.987540731
 31
0.0
  0
LINE
  5
B6
330
1F
100
AcDbEntity
  8
SK3
  6
SLD-Dashed
370
    18
100
AcDbLine
 10
31.5
 20
10.25
 30
0.0
 11
31.5
 21
-10.25
 31
0.0
  0
LINE
  5
B7
330
1F
100
AcDbEntity
  8
SK3
  6
SLD-Dashed
370
    18
100
AcDbLine
 10
28.5
 20
10.25
 30
0.0
 11
28.5
 21
-10.25
 31
0.0
  0
LINE
  5
B8
330
1F
100
AcDbEntity
  8
SK3
  6
SLD-Dashed
370
    18
100
AcDbLine
 10
31.5
 20
9.99689182
 30
0.0
 11
31.5
 21
-9.99689182
 31
0.0
  0
LINE
  5
B9
330
1F
100
AcDbEntity
  8
SK3
  6
SLD-Dashed
370
    18
100
AcDbLine
 10
2.75
 20
21.3146126652
 30
0.0
 11
2.75
 21
20.9669406447
 31
0.0
  0
LINE
  5
BA
330
1F
100
AcDbEntity
  8
SK3
  6
SLD-Dashed
370
    18
100
AcDbLine
 10
2.0
 20
20.5619059185
 30
0.0
 11
2.375
 21
20.5619059185
 31
0.0
  0
LINE
  5
BB
330
1F
100
AcDbEntity
  8
1
  6
SLD-Dashed
370
    18
100
AcDbLine
 10
2.0
 20
20.5619059185
 30
0.0
 11
2.0
 21
16.525
 31
0.0
  0
LINE
  5
BC
330
1F
100
AcDbEntity
  8
SK3
  6
SLD-Dashed
370
    18
100
AcDbLine
 10
2.375
 20
16.15
 30
0.0
 11
2.375
 21
16.525
 31
0.0
  0
LINE
  5
BD
330
1F
100
AcDbEntity
  8
SK3
  6
SLD-Dashed
370
    18
100
AcDbLine
 10
2.0
 20
16.525
 30
0.0
 11
2.375
 21
16.525
 31
0.0
  0
LINE
  5
BE
330
1F
100
AcDbEntity
  8
1
  6
SLD-Dashed
370
    18
100
AcDbLine
 10
2.0
 20
16.525
 30
0.0
 11
2.0
 21
15.7766058076
 31
0.0
  0
LINE
  5
BF
330
1F
100
AcDbEntity
  8
SK3
  6
SLD-Dashed
370
    18
100
AcDbLine
 10
2.375
 20
-20.5619059185
 30
0.0
 11
2.375
 21
-16.525
 31
0.0
  0
LINE
  5
C0
330
1F
100
AcDbEntity
  8
SK3
  6
SLD-Dashed
370
    18
100
AcDbLine
 10
9.869071747
 20
-20.9669406447
 30
0.0
 11
2.75
 21
-20.9669406447
 31
0.0
  0
LINE
  5
C1
330
1F
100
AcDbEntity
  8
SK3
  6
SLD-Dashed
370
    18
100
AcDbLine
 10
2.375
 20
16.525
 30
0.0
 11
2.375
 21
20.5619059185
 31
0.0
  0
LINE
  5
C2
330
1F
100
AcDbEntity
  8
SK3
  6
SLD-Dashed
370
    18
100
AcDbLine
 10
2.75
 20
20.9669406447
 30
0.0
 11
9.869071747
 21
20.9669406447
 31
0.0
  0
LINE
  5
C3
330
1F
100
AcDbEntity
  8
SK3
  6
SLD-Dashed
370
    18
100
AcDbLine
 10
11.4
 20
16.525
 30
0.0
 11
11.4
 21
16.15
 31
0.0
  0
LINE
  5
C4
330
1F
100
AcDbEntity
  8
SK3
  6
SLD-Dashed
370
    18
100
AcDbLine
 10
2.375
 20
16.15
 30
0.0
 11
11.4
 21
16.15
 31
0.0
  0
LINE
  5
C5
330
1F
100
AcDbEntity
  8
SK3
  6
SLD-Dashed
370
    18
100
AcDbLine
 10
11.4
 20
16.525
 30
0.0
 11
2.375
 21
16.525
 31
0.0
  0
LINE
  5
C6
330
1F
100
AcDbEntity
  8
SK3
  6
SLD-Dashed
370
    18
100
AcDbLine
 10
11.4
 20
-16.15
 30
0.0
 11
2.375
 21
-16.15
 31
0.0
  0
LINE
  5
C7
330
1F
100
AcDbEntity
  8
SK3
  6
SLD-Dashed
370
    18
100
AcDbLine
 10
2.375
 20
-16.525
 30
0.0
 11
11.4
 21
-16.525
 31
0.0
  0
LINE
  5
C8
330
1F
100
AcDbEntity
  8
SK3
  6
SLD-Dashed
370
    18
100
AcDbLine
 10
11.4
 20
16.525
 30
0.0
 11
19.5
 21
16.525
 31
0.0
  0
LINE
  5
C9
330
1F
100
AcDbEntity
  8
SK3
  6
SLD-Dashed
370
    18
100
AcDbLine
 10
11.4
 20
16.15
 30
0.0
 11
19.125
 21
16.15
 31
0.0
  0
LINE
  5
CA
330
1F
100
AcDbEntity
  8
SK3
  6
SLD-Dashed
370
    18
100
AcDbLine
 10
11.4
 20
16.525
 30
0.0
 11
11.4
 21
16.15
 31
0.0
  0
LINE
  5
CB
330
1F
100
AcDbEntity
  8
1
  6
SLD-Dashed
370
    18
100
AcDbLine
 10
15.6
 20
-18.2061912473
 30
0.0
 11
15.6
 21
-17.9608602244
 31
0.0
  0
LINE
  5
CC
330
1F
100
AcDbEntity
  8
1
  6
SLD-Dashed
370
    18
100
AcDbLine
 10
11.6
 20
-17.4640344709
 30
0.0
 11
11.6
 21
-17.7162467733
 31
0.0
  0
LINE
  5
CD
330
1F
100
AcDbEntity
  8
SK3
  6
SLD-Dashed
370
    18
100
AcDbLine
 10
11.4
 20
-18.0953286018
 30
0.0
 11
11.4
 21
-16.525
 31
0.0
  0
LINE
  5
CE
330
1F
100
AcDbEntity
  8
SK3
  6
SLD-Dashed
370
    18
100
AcDbLine
 10
11.4
 20
-16.525
 30
0.0
 11
19.5
 21
-16.525
 31
0.0
  0
LINE
  5
CF
330
1F
100
AcDbEntity
  8
SK3
  6
SLD-Dashed
370
    18
100
AcDbLine
 10
11.4
 20
-16.15
 30
0.0
 11
19.125
 21
-16.15
 31
0.0
  0
LINE
  5
D0
330
1F
100
AcDbEntity
  8
SK3
  6
SLD-Dashed
370
    18
100
AcDbLine
 10
11.4
 20
18.0953286018
 30
0.0
 11
11.4
 21
16.525
 31
0.0
  0
LINE
  5
D1
330
1F
100
AcDbEntity
  8
1
  6
SLD-Dashed
370
    18
100
AcDbLine
 10
11.6
 20
17.4640344709
 30
0.0
 11
11.6
 21
17.7162467733
 31
0.0
  0
LINE
  5
D2
330
1F
100
AcDbEntity
  8
1
  6
SLD-Dashed
370
    18
100
AcDbLine
 10
15.6
 20
18.2061912473
 30
0.0
 11
15.6
 21
17.9608602244
 31
0.0
  0
LINE
  5
D3
330
1F
100
AcDbEntity
  8
SK3
  6
SLD-Dashed
370
    18
100
AcDbLine
 10
25.268235731
 20
5.1
 30
0.0
 11
25.268235731
 21
-5.1
 31
0.0
  0
LINE
  5
D4
330
1F
100
AcDbEntity
  8
SK3
  6
SLD-Dashed
370
    18
100
AcDbLine
 10
26.5
 20
7.15
 30
0.0
 11
26.5
 21
-7.15
 31
0.0
  0
LINE
  5
D5
330
1F
100
AcDbEntity
  8
SK3
  6
SLD-Dashed
370
    18
100
AcDbLine
 10
28.5
 20
7.146859981
 30
0.0
 11
28.5
 21
-7.146859981
 31
0.0
  0
LINE
  5
D6
330
1F
100
AcDbEntity
  8
SK3
  6
SLD-Dashed
370
    18
100
AcDbLine
 10
-47.2
 20
6.2565
 30
0.0
 11
-47.2
 21
-6.2565
 31
0.0
  0
LINE
  5
D7
330
1F
100
AcDbEntity
  8
SK3
  6
SLD-Dashed
370
    18
100
AcDbLine
 10
-48.4
 20
6.949320323
 30
0.0
 11
-48.4
 21
-6.949320323
 31
0.0
  0
LINE
  5
D8
330
1F
100
AcDbEntity
  8
SK3
  6
SLD-Dashed
370
    18
100
AcDbLine
 10
-41.15
 20
6.625
 30
0.0
 11
-41.15
 21
-6.625
 31
0.0
  0
LINE
  5
D9
330
1F
100
AcDbEntity
  8
SK3
  6
SLD-Dashed
370
    18
100
AcDbLine
 10
-40.2695408395
 20
-5.1
 30
0.0
 11
-40.2695408395
 21
5.1
 31
0.0
  0
LINE
  5
DA
330
1F
100
AcDbEntity
  8
SK3
  6
SLD-Dashed
370
    18
100
AcDbLine
 10
-43.15
 20
6.625
 30
0.0
 11
-43.15
 21
-6.625
 31
0.0
  0
LINE
  5
DB
330
1F
100
AcDbEntity
  8
SK3
  6
SLD-Dashed
370
    18
100
AcDbLine
 10
-43.7882607226
 20
6.2565
 30
0.0
 11
-43.7882607226
 21
-6.2565
 31
0.0
  0
LINE
  5
DC
330
1F
100
AcDbEntity
  8
SK3
  6
SLD-Dashed
370
    18
100
AcDbLine
 10
61.0
 20
18.45
 30
0.0
 11
70.0
 21
18.45
 31
0.0
  0
LINE
  5
DD
330
1F
100
AcDbEntity
  8
SK3
  6
SLD-Dashed
370
    18
100
AcDbLine
 10
38.0
 20
18.45
 30
0.0
 11
47.0
 21
18.45
 31
0.0
  0
LINE
  5
DE
330
1F
100
AcDbEntity
  8
SK3
  6
SLD-Dashed
370
    18
100
AcDbLine
 10
6.3000000741
 20
-11.45
 30
0.0
 11
15.7
 21
-11.45
 31
0.0
  0
LINE
  5
DF
330
1F
100
AcDbEntity
  8
SK3
  6
SLD-Dashed
370
    18
100
AcDbLine
 10
16.0
 20
-11.75
 30
0.0
 11
6.0
 21
-11.75
 31
0.0
  0
LINE
  5
E0
330
1F
100
AcDbEntity
  8
SK3
  6
SLD-Dashed
370
    18
100
AcDbLine
 10
6.0
 20
-16.15
 30
0.0
 11
16.0
 21
-16.15
 31
0.0
  0
LINE
  5
E1
330
1F
100
AcDbEntity
  8
SK3
  6
SLD-Dashed
370
    18
100
AcDbLine
 10
2.375
 20
16.525
 30
0.0
 11
2.375
 21
16.15
 31
0.0
  0
LINE
  5
E2
330
1F
100
AcDbEntity
  8
1
  6
SLD-Dashed
370
    18
100
AcDbLine
 10
2.0
 20
16.525
 30
0.0
 11
2.0
 21
15.7766058076
 31
0.0
  0
LINE
  5
E3
330
1F
100
AcDbEntity
  8
SK3
  6
SLD-Dashed
370
    18
100
AcDbLine
 10
2.375
 20
20.5619059185
 30
0.0
 11
2.0
 21
20.5619059185
 31
0.0
  0
LINE
  5
E4
330
1F
100
AcDbEntity
  8
SK3
  6
SLD-Dashed
370
    18
100
AcDbLine
 10
2.75
 20
20.9669406447
 30
0.0
 11
2.75
 21
21.3146126652
 31
0.0
  0
LINE
  5
E5
330
1F
100
AcDbEntity
  8
1
  6
SLD-Dashed
370
    18
100
AcDbLine
 10
2.75
 20
21.3146126652
 30
0.0
 11
9.5729818724
 21
21.3146126652
 31
0.0
  0
LINE
  5
E6
330
1F
100
AcDbEntity
  8
SK3
  6
SLD-Dashed
370
    18
100
AcDbLine
 10
80.0
 20
11.0
 30
0.0
 11
78.2679491924
 21
10.0
 31
0.0
  0
LINE
  5
E7
330
1F
100
AcDbEntity
  8
SK3
  6
SLD-Dashed
370
    18
100
AcDbLine
 10
78.2679491924
 20
-10.0
 30
0.0
 11
80.0
 21
-11.0
 31
0.0
  0
LINE
  5
E8
330
1F
100
AcDbEntity
  8
SK3
  6
SLD-Dashed
370
    18
100
AcDbLine
 10
31.5
 20
10.25
 30
0.0
 11
28.5
 21
10.25
 31
0.0
  0
LINE
  5
E9
330
1F
100
AcDbEntity
  8
SK3
  6
SLD-Dashed
370
    18
100
AcDbLine
 10
28.5
 20
-10.25
 30
0.0
 11
31.5
 21
-10.25
 31
0.0
  0
LINE
  5
EA
330
1F
100
AcDbEntity
  8
SK3
  6
SLD-Dashed
370
    18
100
AcDbLine
 10
38.011952572
 20
10.0
 30
0.0
 11
31.5
 21
10.0
 31
0.0
  0
LINE
  5
EB
330
1F
100
AcDbEntity
  8
SK3
  6
SLD-Dashed
370
    18
100
AcDbLine
 10
61.011952572
 20
10.0
 30
0.0
 11
47.0
 21
10.0
 31
0.0
  0
LINE
  5
EC
330
1F
100
AcDbEntity
  8
SK3
  6
SLD-Dashed
370
    18
100
AcDbLine
 10
78.2679491924
 20
10.0
 30
0.0
 11
70.0
 21
10.0
 31
0.0
  0
LINE
  5
ED
330
1F
100
AcDbEntity
  8
SK3
  6
SLD-Dashed
370
    18
100
AcDbLine
 10
31.5
 20
-10.0
 30
0.0
 11
78.2679491924
 21
-10.0
 31
0.0
  0
LINE
  5
EE
330
1F
100
AcDbEntity
  8
SK3
  6
SLD-Dashed
370
    18
100
AcDbLine
 10
2.0
 20
15.775
 30
0.0
 11
2.375
 21
16.15
 31
0.0
  0
LINE
  5
EF
330
1F
100
AcDbEntity
  8
SK3
  6
SLD-Dashed
370
    18
100
AcDbLine
 10
19.5
 20
-22.6151875392
 30
0.0
 11
19.5
 21
-16.525
 31
0.0
  0
LINE
  5
F0
330
1F
100
AcDbEntity
  8
SK3
  6
SLD-Dashed
370
    18
100
AcDbLine
 10
19.5
 20
16.525
 30
0.0
 11
19.5
 21
22.6152218738
 31
0.0
  0
LINE
  5
F1
330
1F
100
AcDbEntity
  8
SK3
  6
SLD-Dashed
370
    18
100
AcDbLine
 10
26.5
 20
7.15
 30
0.0
 11
25.268235731
 21
5.1
 31
0.0
  0
LINE
  5
F2
330
1F
100
AcDbEntity
  8
SK3
  6
SLD-Dashed
370
    18
100
AcDbLine
 10
25.268235731
 20
-5.1
 30
0.0
 11
26.5
 21
-7.15
 31
0.0
  0
LINE
  5
F3
330
1F
100
AcDbEntity
  8
SK3
  6
SLD-Dashed
370
    18
100
AcDbLine
 10
28.5
 20
7.15
 30
0.0
 11
26.5
 21
7.15
 31
0.0
  0
LINE
  5
F4
330
1F
100
AcDbEntity
  8
SK3
  6
SLD-Dashed
370
    18
100
AcDbLine
 10
26.5
 20
-7.15
 30
0.0
 11
28.5
 21
-7.15
 31
0.0
  0
LINE
  5
F5
330
1F
100
AcDbEntity
  8
SK3
  6
SLD-Dashed
370
    18
100
AcDbLine
 10
-48.4
 20
-6.949320323
 30
0.0
 11
-47.2
 21
-6.2565
 31
0.0
  0
LINE
  5
F6
330
1F
100
AcDbEntity
  8
SK3
  6
SLD-Dashed
370
    18
100
AcDbLine
 10
-47.2
 20
6.2565
 30
0.0
 11
-48.4
 21
6.949320323
 31
0.0
  0
LINE
  5
F7
330
1F
100
AcDbEntity
  8
SK3
  6
SLD-Dashed
370
    18
100
AcDbLine
 10
-41.15
 20
-6.625
 30
0.0
 11
-40.2695408395
 21
-5.1
 31
0.0
  0
LINE
  5
F8
330
1F
100
AcDbEntity
  8
SK3
  6
SLD-Dashed
370
    18
100
AcDbLine
 10
-40.2695408395
 20
5.1
 30
0.0
 11
-41.15
 21
6.625
 31
0.0
  0
LINE
  5
F9
330
1F
100
AcDbEntity
  8
SK3
  6
SLD-Dashed
370
    18
100
AcDbLine
 10
-43.15
 20
6.625
 30
0.0
 11
-43.7882607226
 21
6.2565
 31
0.0
  0
LINE
  5
FA
330
1F
100
AcDbEntity
  8
SK3
  6
SLD-Dashed
370
    18
100
AcDbLine
 10
-43.7882607226
 20
-6.2565
 30
0.0
 11
-43.15
 21
-6.625
 31
0.0
  0
LINE
  5
FB
330
1F
100
AcDbEntity
  8
SK3
  6
SLD-Dashed
370
    18
100
AcDbLine
 10
-41.15
 20
6.625
 30
0.0
 11
-43.15
 21
6.625
 31
0.0
  0
LINE
  5
FC
330
1F
100
AcDbEntity
  8
SK3
  6
SLD-Dashed
370
    18
100
AcDbLine
 10
-43.15
 20
-6.625
 30
0.0
 11
-41.15
 21
-6.625
 31
0.0
  0
LINE
  5
FD
330
1F
100
AcDbEntity
  8
SK3
  6
SLD-Dashed
370
    18
100
AcDbLine
 10
-43.7882607226
 20
6.2565
 30
0.0
 11
-47.2
 21
6.2565
 31
0.0
  0
LINE
  5
FE
330
1F
100
AcDbEntity
  8
SK3
  6
SLD-Dashed
370
    18
100
AcDbLine
 10
-47.2
 20
-6.2565
 30
0.0
 11
-43.7882607226
 21
-6.2565
 31
0.0
  0
LINE
  5
FF
330
1F
100
AcDbEntity
  8
SK3
  6
SLD-Dashed
370
    18
100
AcDbLine
 10
19.4999991329
 20
22.6149996793
 30
0.0
 11
19.8749999617
 21
22.99
 31
0.0
  0
LINE
  5
100
330
1F
100
AcDbEntity
  8
SK3
  6
SLD-Dashed
370
    18
100
AcDbLine
 10
59.45
 20
20.0
 30
0.0
 11
61.0
 21
18.45
 31
0.0
  0
LINE
  5
101
330
1F
100
AcDbEntity
  8
SK3
  6
SLD-Dashed
370
    18
100
AcDbLine
 10
70.0
 20
18.45
 30
0.0
 11
71.55
 21
20.0
 31
0.0
  0
LINE
  5
102
330
1F
100
AcDbEntity
  8
SK3
  6
SLD-Dashed
370
    18
100
AcDbLine
 10
36.45
 20
20.0
 30
0.0
 11
38.0
 21
18.45
 31
0.0
  0
LINE
  5
103
330
1F
100
AcDbEntity
  8
SK3
  6
SLD-Dashed
370
    18
100
AcDbLine
 10
47.0
 20
18.45
 30
0.0
 11
48.55
 21
20.0
 31
0.0
  0
LINE
  5
104
330
1F
100
AcDbEntity
  8
SK3
  6
SLD-Dashed
370
    18
100
AcDbLine
 10
-40.2695408395
 20
-5.1
 30
0.0
 11
25.268235731
 21
-5.1
 31
0.0
  0
LINE
  5
105
330
1F
100
AcDbEntity
  8
SK3
  6
SLD-Dashed
370
    18
100
AcDbLine
 10
25.268235731
 20
5.1
 30
0.0
 11
-40.2695408395
 21
5.1
 31
0.0
  0
LINE
  5
106
330
1F
100
AcDbEntity
  8
SK3
  6
SLD-Dashed
370
    18
100
AcDbLine
 10
16.0
 20
-16.15
 30
0.0
 11
16.0
 21
-11.75
 31
0.0
  0
LINE
  5
107
330
1F
100
AcDbEntity
  8
SK3
  6
SLD-Dashed
370
    18
100
AcDbLine
 10
6.0
 20
-11.75
 30
0.0
 11
6.0
 21
-16.15
 31
0.0
  0
LINE
  5
108
330
1F
100
AcDbEntity
  8
SK3
  6
SLD-Dashed
370
    18
100
AcDbLine
 10
61.0
 20
18.45
 30
0.0
 11
61.0
 21
9.9946412573
 31
0.0
  0
LINE
  5
109
330
1F
100
AcDbEntity
  8
SK3
  6
SLD-Dashed
370
    18
100
AcDbLine
 10
70.0
 20
10.0
 30
0.0
 11
70.0
 21
18.45
 31
0.0
  0
LINE
  5
10A
330
1F
100
AcDbEntity
  8
SK3
  6
SLD-Dashed
370
    18
100
AcDbLine
 10
38.0
 20
18.45
 30
0.0
 11
38.0
 21
9.9946412573
 31
0.0
  0
LINE
  5
10B
330
1F
100
AcDbEntity
  8
SK3
  6
SLD-Dashed
370
    18
100
AcDbLine
 10
47.0
 20
10.0
 30
0.0
 11
47.0
 21
18.45
 31
0.0
  0
LINE
  5
10C
330
1F
100
AcDbEntity
  8
SK3
  6
SLD-Dashed
370
    18
100
AcDbLine
 10
2.0
 20
15.775
 30
0.0
 11
2.375
 21
16.15
 31
0.0
  0
LINE
  5
10D
330
1F
100
AcDbEntity
  8
SK3
  6
SLD-Solid
370
    18
100
AcDbLine
 10
47.499999404
 20
9.9768415093
 30
0.0
 11
47.499999404
 21
18.9500004053
 31
0.0
  0
LINE
  5
10E
330
1F
100
AcDbEntity
  8
SK3
  6
SLD-Solid
370
    18
100
AcDbLine
 10
37.5000014901
 20
18.9500004053
 30
0.0
 11
37.5000014901
 21
9.9768415093
 31
0.0
  0
LINE
  5
10F
330
1F
100
AcDbEntity
  8
SK3
  6
SLD-Solid
370
    18
100
AcDbLine
 10
40.3205491602
 20
8.9302854612
 30
0.0
 11
39.5777113736
 21
9.1400947422
 31
0.0
  0
LINE
  5
110
330
1F
100
AcDbEntity
  8
SK3
  6
SLD-Solid
370
    18
100
AcDbLine
 10
47.4533103406
 20
9.9768415093
 30
0.0
 11
47.3638698459
 21
9.9326344207
 31
0.0
  0
LINE
  5
111
330
1F
100
AcDbEntity
  8
SK3
  6
SLD-Solid
370
    18
100
AcDbLine
 10
44.6793412351
 20
8.9302854612
 30
0.0
 11
40.3205491602
 21
8.9302854612
 31
0.0
  0
LINE
  5
112
330
1F
100
AcDbEntity
  8
SK3
  6
SLD-Solid
370
    18
100
AcDbLine
 10
70.5000013113
 20
9.9768415093
 30
0.0
 11
70.5000013113
 21
18.9500004053
 31
0.0
  0
LINE
  5
113
330
1F
100
AcDbEntity
  8
SK3
  6
SLD-Solid
370
    18
100
AcDbLine
 10
60.4999996722
 20
18.9500004053
 30
0.0
 11
60.4999996722
 21
9.9768415093
 31
0.0
  0
LINE
  5
114
330
1F
100
AcDbEntity
  8
SK3
  6
SLD-Solid
370
    18
100
AcDbLine
 10
63.3205473423
 20
8.9302854612
 30
0.0
 11
62.5875890255
 21
9.1368546709
 31
0.0
  0
LINE
  5
115
330
1F
100
AcDbEntity
  8
SK3
  6
SLD-Solid
370
    18
100
AcDbLine
 10
70.4533085227
 20
9.9768415093
 30
0.0
 11
70.3638717532
 21
9.9326344207
 31
0.0
  0
LINE
  5
116
330
1F
100
AcDbEntity
  8
SK3
  6
SLD-Solid
370
    18
100
AcDbLine
 10
67.6793431425
 20
8.9302854612
 30
0.0
 11
63.3205473423
 21
8.9302854612
 31
0.0
  0
LINE
  5
117
330
1F
100
AcDbEntity
  8
SK3
  6
SLD-Solid
370
    18
100
AcDbLine
 10
-23.3999993652
 20
6.0000000522
 30
0.0
 11
-40.7891571522
 21
6.0000000522
 31
0.0
  0
LINE
  5
118
330
1F
100
AcDbEntity
  8
SK3
  6
SLD-Solid
370
    18
100
AcDbLine
 10
-40.7891571522
 20
-6.0000000522
 30
0.0
 11
-23.3999993652
 21
-6.0000000522
 31
0.0
  0
LINE
  5
119
330
1F
100
AcDbEntity
  8
SK3
  6
SLD-Solid
370
    18
100
AcDbLine
 10
-23.3999993652
 20
6.0000000522
 30
0.0
 11
-23.3999993652
 21
5.9261298738
 31
0.0
  0
LINE
  5
11A
330
1F
100
AcDbEntity
  8
SK3
  6
SLD-Solid
370
    18
100
AcDbLine
 10
-23.4000111437
 20
5.9261298738
 30
0.0
 11
-23.3999993652
 21
5.7063391432
 31
0.0
  0
LINE
  5
11B
330
1F
100
AcDbEntity
  8
SK3
  6
SLD-Solid
370
    18
100
AcDbLine
 10
-23.3999993652
 20
5.7063391432
 30
0.0
 11
-23.3999993652
 21
5.3460393101
 31
0.0
  0
LINE
  5
11C
330
1F
100
AcDbEntity
  8
SK3
  6
SLD-Solid
370
    18
100
AcDbLine
 10
-23.3999993652
 20
5.3460393101
 30
0.0
 11
-23.3999993652
 21
4.8541021533
 31
0.0
  0
LINE
  5
11D
330
1F
100
AcDbEntity
  8
SK3
  6
SLD-Solid
370
    18
100
AcDbLine
 10
-23.3999993652
 20
4.8541021533
 30
0.0
 11
-23.3999993652
 21
4.2426404543
 31
0.0
  0
LINE
  5
11E
330
1F
100
AcDbEntity
  8
SK3
  6
SLD-Solid
370
    18
100
AcDbLine
 10
-23.3999993652
 20
4.2426404543
 30
0.0
 11
-23.3999993652
 21
3.5267116036
 31
0.0
  0
LINE
  5
11F
330
1F
100
AcDbEntity
  8
SK3
  6
SLD-Solid
370
    18
100
AcDbLine
 10
-23.3999993652
 20
3.5267116036
 30
0.0
 11
-23.3999993652
 21
2.7239429764
 31
0.0
  0
LINE
  5
120
330
1F
100
AcDbEntity
  8
SK3
  6
SLD-Solid
370
    18
100
AcDbLine
 10
-23.3999993652
 20
2.7239429764
 30
0.0
 11
-23.3999993652
 21
1.8541020108
 31
0.0
  0
LINE
  5
121
330
1F
100
AcDbEntity
  8
SK3
  6
SLD-Solid
370
    18
100
AcDbLine
 10
-23.3999993652
 20
1.8541020108
 30
0.0
 11
-23.3999993652
 21
0.9386067977
 31
0.0
  0
LINE
  5
122
330
1F
100
AcDbEntity
  8
SK3
  6
SLD-Solid
370
    18
100
AcDbLine
 10
-23.3999993652
 20
0.9386067977
 30
0.0
 11
-23.3999993652
 21
0.0
 31
0.0
  0
LINE
  5
123
330
1F
100
AcDbEntity
  8
SK3
  6
SLD-Solid
370
    18
100
AcDbLine
 10
-23.3999993652
 20
0.0
 30
0.0
 11
-23.3999993652
 21
-0.9386067977
 31
0.0
  0
LINE
  5
124
330
1F
100
AcDbEntity
  8
SK3
  6
SLD-Solid
370
    18
100
AcDbLine
 10
-23.3999993652
 20
-0.9386067977
 30
0.0
 11
-23.3999993652
 21
-1.8541020108
 31
0.0
  0
LINE
  5
125
330
1F
100
AcDbEntity
  8
SK3
  6
SLD-Solid
370
    18
100
AcDbLine
 10
-23.3999993652
 20
-1.8541020108
 30
0.0
 11
-23.3999993652
 21
-2.7239429764
 31
0.0
  0
LINE
  5
126
330
1F
100
AcDbEntity
  8
SK3
  6
SLD-Solid
370
    18
100
AcDbLine
 10
-23.3999993652
 20
-2.7239429764
 30
0.0
 11
-23.3999993652
 21
-3.5267116036
 31
0.0
  0
LINE
  5
127
330
1F
100
AcDbEntity
  8
SK3
  6
SLD-Solid
370
    18
100
AcDbLine
 10
-23.3999993652
 20
-3.5267116036
 30
0.0
 11
-23.3999993652
 21
-4.2426404543
 31
0.0
  0
LINE
  5
128
330
1F
100
AcDbEntity
  8
SK3
  6
SLD-Solid
370
    18
100
AcDbLine
 10
-23.3999993652
 20
-4.2426404543
 30
0.0
 11
-23.3999993652
 21
-4.8541021533
 31
0.0
  0
LINE
  5
129
330
1F
100
AcDbEntity
  8
SK3
  6
SLD-Solid
370
    18
100
AcDbLine
 10
-23.3999993652
 20
-4.8541021533
 30
0.0
 11
-23.3999993652
 21
-5.3460393101
 31
0.0
  0
LINE
  5
12A
330
1F
100
AcDbEntity
  8
SK3
  6
SLD-Solid
370
    18
100
AcDbLine
 10
-23.3999993652
 20
-5.3460393101
 30
0.0
 11
-23.3999993652
 21
-5.7063391432
 31
0.0
  0
LINE
  5
12B
330
1F
100
AcDbEntity
  8
SK3
  6
SLD-Solid
370
    18
100
AcDbLine
 10
-23.3999993652
 20
-5.7063391432
 30
0.0
 11
-23.3999993652
 21
-5.9261298738
 31
0.0
  0
LINE
  5
12C
330
1F
100
AcDbEntity
  8
SK3
  6
SLD-Solid
370
    18
100
AcDbLine
 10
-23.3999993652
 20
-5.9261298738
 30
0.0
 11
-23.3999993652
 21
-6.0000000522
 31
0.0
  0
LINE
  5
12D
330
1F
100
AcDbEntity
  8
4
  6
SLD-Center
370
    18
100
AcDbLine
 10
0.5097042739
 20
0.0
 30
0.0
 11
82.0
 21
0.0
 31
0.0
  0
LINE
  5
12E
330
1F
100
AcDbEntity
  8
4
  6
SLD-Center
370
    18
100
AcDbLine
 10
42.5
 20
8.0
 30
0.0
 11
42.5
 21
20.45
 31
0.0
  0
LINE
  5
12F
330
1F
100
AcDbEntity
  8
4
  6
SLD-Center
370
    18
100
AcDbLine
 10
65.5
 20
8.0
 30
0.0
 11
65.5
 21
20.45
 31
0.0
  0
LINE
  5
130
330
1F
100
AcDbEntity
  8
SK4
  6
SLD-Center
370
    18
100
AcDbLine
 10
81.9084178286
 20
0.0
 30
0.0
 11
-49.2
 21
0.0
 31
0.0
  0
ARC
  5
131
330
1F
100
AcDbEntity
  8
1
  6
SLD-Solid
370
    25
100
AcDbCircle
 10
21.35
 20
-22.24
 30
0.0
 40
0.7500000000000284
100
AcDbArc
 50
270.0
 51
0.0
  0
ARC
  5
132
330
1F
100
AcDbEntity
  8
1
  6
SLD-Solid
370
    25
100
AcDbCircle
 10
21.35
 20
22.24
 30
0.0
 40
0.7500000000000284
100
AcDbArc
 50
0.0
 51
90.0
  0
ARC
  5
133
330
1F
100
AcDbEntity
  8
1
  6
SLD-Solid
370
    25
100
AcDbCircle
 10
23.1
 20
-21.0
 30
0.0
 40
1.0
100
AcDbArc
 50
90.0
 51
180.0
  0
ARC
  5
134
330
1F
100
AcDbEntity
  8
1
  6
SLD-Solid
370
    25
100
AcDbCircle
 10
23.1
 20
21.0
 30
0.0
 40
1.0
100
AcDbArc
 50
180.0
 51
270.0
  0
ARC
  5
135
330
1F
100
AcDbEntity
  8
1
  6
SLD-Solid
370
    25
100
AcDbCircle
 10
1.2
 20
-16.291394677
 30
0.0
 40
0.8000000000000136
100
AcDbArc
 50
10.1826318988
 51
115.0
  0
ARC
  5
136
330
1F
100
AcDbEntity
  8
1
  6
SLD-Solid
370
    25
100
AcDbCircle
 10
1.2
 20
16.291394677
 30
0.0
 40
0.8000000000000054
100
AcDbArc
 50
245.0
 51
349.8284775697
  0
ARC
  5
137
330
1F
100
AcDbEntity
  8
SK1
  6
SLD-Solid
370
    25
100
AcDbCircle
 10
-48.025
 20
8.4918452077
 30
0.0
 40
0.3750000000000055
100
AcDbArc
 50
98.2977777778
 51
180.0
  0
ARC
  5
138
330
1F
100
AcDbEntity
  8
SK1
  6
SLD-Solid
370
    25
100
AcDbCircle
 10
-48.025
 20
-8.4918452077
 30
0.0
 40
0.3750000000000019
100
AcDbArc
 50
180.0
 51
261.7022222222
  0
ARC
  5
139
330
1F
100
AcDbEntity
  8
SK3
  6
SLD-Dashed
370
    18
100
AcDbCircle
 10
19.125
 20
16.525
 30
0.0
 40
0.375
100
AcDbArc
 50
270.0
 51
0.0
  0
ARC
  5
13A
330
1F
100
AcDbEntity
  8
1
370
    25
100
AcDbCircle
 10
42.4970109999
 20
-41.5295669235
 30
0.0
 40
22.43751403614856
100
AcDbArc
 50
73.6447938282
 51
106.3115324928
  0
ARC
  5
13B
330
1F
100
AcDbEntity
  8
1
370
    25
100
AcDbCircle
 10
65.5052173676
 20
-44.7763481057
 30
0.0
 40
25.56723641476182
100
AcDbArc
 50
75.7117432732
 51
104.2882567268
  0
ARC
  5
13C
330
1F
100
AcDbEntity
  8
1
370
    25
100
AcDbCircle
 10
42.5003582388
 20
46.9703772385
 30
0.0
 40
27.64069614182272
100
AcDbArc
 50
257.3559710218
 51
282.5996271614
  0
ARC
  5
13D
330
1F
100
AcDbEntity
  8
1
370
    25
100
AcDbCircle
 10
65.4948500237
 20
45.3122470213
 30
0.0
 40
26.02173392607433
100
AcDbArc
 50
256.5898561857
 51
283.4101438143
  0
SPLINE
  5
13E
330
1F
100
AcDbEntity
  8
1
  6
SLD-Solid
370
    25
100
AcDbSpline
210
0.0
220
0.0
230
1.0
 70
     8
 71
     3
 72
    16
 73
    12
 74
     0
 42
0.000000001
 43
0.00000001
 40
0.0
 40
0.0
 40
0.0
 40
0.0
 40
0.0680357699036085
 40
0.1216271915820827
 40
0.2437825385130227
 40
0.3664174069514821
 40
0.490731140877868
 40
0.6196738304046167
 40
0.7429210525082813
 40
0.872347967660542
 40
1.0
 40
1.0
 40
1.0
 40
1.0
 10
2.000000000000002
 20
-20.56190591846973
 30
0.0
 10
2.000796789497119
 20
-20.58840543175366
 30
0.0
 10
2.002221205932103
 20
-20.6357784736636
 30
0.0
 10
2.016562271733691
 20
-20.72978897901818
 30
0.0
 10
2.049010913405244
 20
-20.84222874359101
 30
0.0
 10
2.115216794569705
 20
-20.97140279656768
 30
0.0
 10
2.206796006851593
 20
-21.08800070372172
 30
0.0
 10
2.320292410439878
 20
-21.18491683748361
 30
0.0
 10
2.452780038505742
 20
-21.25807956078388
 30
0.0
 10
2.597289938916593
 20
-21.30559252572299
 30
0.0
 10
2.699331479194801
 20
-21.3116198229091
 30
0.0
 10
2.750000000000003
 20
-21.31461266515787
 30
0.0
  0
SPLINE
  5
13F
330
1F
100
AcDbEntity
  8
1
  6
SLD-Solid
370
    25
100
AcDbSpline
210
0.0
220
0.0
230
1.0
 70
     8
 71
     3
 72
    18
 73
    14
 74
     0
 42
0.000000001
 43
0.00000001
 40
0.0
 40
0.0
 40
0.0
 40
0.0
 40
0.0635512407506229
 40
0.1275226617845625
 40
0.1919409794165681
 40
0.256832142275133
 40
0.380041850074854
 40
0.5089684150964031
 40
0.6332965405611967
 40
0.755870851700698
 40
0.8782286158027892
 40
0.9318514945236942
 40
1.0
 40
1.0
 40
1.0
 40
1.0
 10
2.750000000000003
 20
21.31461266515787
 30
0.0
 10
2.724798834662173
 20
21.31387419569564
 30
0.0
 10
2.674229882018694
 20
21.31239237424955
 30
0.0
 10
2.598924813386007
 20
21.30040578464826
 30
0.0
 10
2.524717706842809
 20
21.28123664385643
 30
0.0
 10
2.430981090684299
 20
21.24625065054662
 30
0.0
 10
2.320753334449581
 20
21.18515247680333
 30
0.0
 10
2.207178689022086
 20
21.08842439202675
 30
0.0
 10
2.115494057380575
 20
20.97183348780208
 30
0.0
 10
2.049153466090602
 20
20.84261177433913
 30
0.0
 10
2.016619789506839
 20
20.73007755144124
 30
0.0
 10
2.002229319045014
 20
20.63590436880763
 30
0.0
 10
2.000799941287927
 20
20.58845860764178
 30
0.0
 10
2.000000000000002
 20
20.56190591846972
 30
0.0
  0
SPLINE
  5
140
330
1F
100
AcDbEntity
  8
1
  6
SLD-Solid
370
    25
100
AcDbSpline
210
0.0
220
0.0
230
1.0
 70
     8
 71
     3
 72
    10
 73
     6
 74
     0
 42
0.000000001
 43
0.00000001
 40
0.0
 40
0.0
 40
0.0
 40
0.0
 40
0.5
 40
0.5
 40
1.0
 40
1.0
 40
1.0
 40
1.0
 10
15.59999999999999
 20
-18.20619124728898
 30
0.0
 10
15.90371676884135
 20
-18.83908846428042
 30
0.0
 10
16.20431228748104
 20
-19.46290423235503
 30
0.0
 10
16.79677392958327
 20
-20.68882545936863
 30
0.0
 10
17.08869106513466
 20
-21.2910269173053
 30
0.0
 10
17.37428230507106
 20
-21.87889326115168
 30
0.0
  0
SPLINE
  5
141
330
1F
100
AcDbEntity
  8
1
  6
SLD-Solid
370
    25
100
AcDbSpline
210
0.0
220
0.0
230
1.0
 70
     8
 71
     3
 72
    10
 73
     6
 74
     0
 42
0.000000001
 43
0.00000001
 40
0.0
 40
0.0
 40
0.0
 40
0.0
 40
0.5
 40
0.5
 40
1.0
 40
1.0
 40
1.0
 40
1.0
 10
15.59999999999999
 20
18.20619124728897
 30
0.0
 10
15.90371708393186
 20
18.83908912410739
 30
0.0
 10
16.20431277300971
 20
19.46290524542579
 30
0.0
 10
16.79677442407697
 20
20.68882649307462
 30
0.0
 10
17.08869139852444
 20
21.29102761902301
 30
0.0
 10
17.37428227908526
 20
21.87889322612936
 30
0.0
  0
SPLINE
  5
142
330
1F
100
AcDbEntity
  8
1
  6
SLD-Solid
370
    25
100
AcDbSpline
210
0.0
220
0.0
230
1.0
 70
     8
 71
     3
 72
     8
 73
     4
 74
     0
 42
0.000000001
 43
0.00000001
 40
0.0000433325284341
 40
0.0000433325284341
 40
0.0000433325284341
 40
0.0000433325284341
 40
0.0004719455603877
 40
0.0004719455603877
 40
0.0004719455603877
 40
0.0004719455603877
 10
11.40000000000001
 20
18.0953286017731
 30
0.0
 10
11.46660587253707
 20
17.96893325601978
 30
0.0
 10
11.533273339173
 20
17.84256764359956
 30
0.0
 10
11.6
 20
17.71624677331127
 30
0.0
  0
SPLINE
  5
143
330
1F
100
AcDbEntity
  8
1
  6
SLD-Solid
370
    25
100
AcDbSpline
210
0.0
220
0.0
230
1.0
 70
     8
 71
     3
 72
     8
 73
     4
 74
     0
 42
0.000000001
 43
0.00000001
 40
0.0000433325284341
 40
0.0000433325284341
 40
0.0000433325284341
 40
0.0000433325284341
 40
0.0004719455603877
 40
0.0004719455603877
 40
0.0004719455603877
 40
0.0004719455603877
 10
11.40000000000001
 20
-18.09532860177311
 30
0.0
 10
11.46660587253707
 20
-17.96893325601977
 30
0.0
 10
11.533273339173
 20
-17.84256764359957
 30
0.0
 10
11.6
 20
-17.71624677331126
 30
0.0
  0
SPLINE
  5
144
330
1F
100
AcDbEntity
  8
1
  6
SLD-Solid
370
    25
100
AcDbSpline
210
0.0
220
0.0
230
1.0
 70
     8
 71
     3
 72
     8
 73
     4
 74
     0
 42
0.000000001
 43
0.00000001
 40
0.0
 40
0.0
 40
0.0
 40
0.0
 40
1.0
 40
1.0
 40
1.0
 40
1.0
 10
9.869071747011931
 20
-20.96694064473558
 30
0.0
 10
10.38341093814468
 20
-20.01191163479274
 30
0.0
 10
10.89434185816693
 20
-19.05489617795642
 30
0.0
 10
11.40000000000001
 20
-18.09532860177311
 30
0.0
  0
SPLINE
  5
145
330
1F
100
AcDbEntity
  8
1
  6
SLD-Solid
370
    25
100
AcDbSpline
210
0.0
220
0.0
230
1.0
 70
     8
 71
     3
 72
     8
 73
     4
 74
     0
 42
0.000000001
 43
0.00000001
 40
0.0
 40
0.0
 40
0.0
 40
0.0
 40
0.0006887074915347
 40
0.0006887074915347
 40
0.0006887074915347
 40
0.0006887074915347
 10
9.572981872402666
 20
-21.31461266515631
 30
0.0
 10
9.672099735101247
 20
-21.19883443678471
 30
0.0
 10
9.770807239793886
 20
-21.08294605744204
 30
0.0
 10
9.869071747011931
 20
-20.96694064473558
 30
0.0
  0
SPLINE
  5
146
330
1F
100
AcDbEntity
  8
1
  6
SLD-Solid
370
    25
100
AcDbSpline
210
0.0
220
0.0
230
1.0
 70
     8
 71
     3
 72
     8
 73
     4
 74
     0
 42
0.000000001
 43
0.00000001
 40
0.0000000000000033
 40
0.0000000000000033
 40
0.0000000000000033
 40
0.0000000000000033
 40
0.0006887074915357
 40
0.0006887074915357
 40
0.0006887074915357
 40
0.0006887074915357
 10
9.869071747017898
 20
20.96694064473884
 30
0.0
 10
9.770807239799852
 20
21.0829460574453
 30
0.0
 10
9.6720997351009
 20
21.19883443678629
 30
0.0
 10
9.57298187240234
 20
21.31461266515788
 30
0.0
  0
SPLINE
  5
147
330
1F
100
AcDbEntity
  8
1
  6
SLD-Solid
370
    25
100
AcDbSpline
210
0.0
220
0.0
230
1.0
 70
     8
 71
     3
 72
     8
 73
     4
 74
     0
 42
0.000000001
 43
0.00000001
 40
0.0
 40
0.0
 40
0.0
 40
0.0
 40
1.0
 40
1.0
 40
1.0
 40
1.0
 10
9.869071747016186
 20
20.96694064474205
 30
0.0
 10
10.38346933995268
 20
20.01180319387108
 30
0.0
 10
10.89434699821251
 20
19.0548864238989
 30
0.0
 10
11.40000000000001
 20
18.0953286017731
 30
0.0
  0
SPLINE
  5
148
330
1F
100
AcDbEntity
  8
1
  6
SLD-Solid
370
    25
100
AcDbSpline
210
0.0
220
0.0
230
1.0
 70
     8
 71
     3
 72
    10
 73
     6
 74
     0
 42
0.000000001
 43
0.00000001
 40
0.0
 40
0.0
 40
0.0
 40
0.0
 40
0.5
 40
0.5
 40
1.0
 40
1.0
 40
1.0
 40
1.0
 10
11.59999999999999
 20
-17.46403447087754
 30
0.0
 10
11.59999999999999
 20
-17.3613194075662
 30
0.0
 10
11.63550396785903
 20
-17.25803952516974
 30
0.0
 10
11.77037083671394
 20
-17.10325698438409
 30
0.0
 10
11.87123694733056
 20
-17.05482145092322
 30
0.0
 10
11.975
 20
-17.05831908483361
 30
0.0
  0
SPLINE
  5
149
330
1F
100
AcDbEntity
  8
1
  6
SLD-Solid
370
    25
100
AcDbSpline
210
0.0
220
0.0
230
1.0
 70
     8
 71
     3
 72
    10
 73
     6
 74
     0
 42
0.000000001
 43
0.00000001
 40
0.0
 40
0.0
 40
0.0
 40
0.0
 40
0.5
 40
0.5
 40
1.0
 40
1.0
 40
1.0
 40
1.0
 10
11.59999999999999
 20
17.46403447087756
 30
0.0
 10
11.59999999999999
 20
17.36131940756621
 30
0.0
 10
11.63550396785903
 20
17.25803952516974
 30
0.0
 10
11.77037083671393
 20
17.1032569843841
 30
0.0
 10
11.87123694733056
 20
17.05482145092322
 30
0.0
 10
11.975
 20
17.0583190848336
 30
0.0
  0
SPLINE
  5
14A
330
1F
100
AcDbEntity
  8
1
  6
SLD-Solid
370
    25
100
AcDbSpline
210
0.0
220
0.0
230
1.0
 70
     8
 71
     3
 72
    12
 73
     8
 74
     0
 42
0.000000001
 43
0.00000001
 40
0.0
 40
0.0
 40
0.0
 40
0.0
 40
0.4999999999999946
 40
0.4999999999999946
 40
0.7499999999999972
 40
0.7499999999999972
 40
1.0
 40
1.0
 40
1.0
 40
1.0
 10
15.22499999999999
 20
-17.47244258825881
 30
0.0
 10
15.32729887405207
 20
-17.49483746472057
 30
0.0
 10
15.41719738376061
 20
-17.55779867282207
 30
0.0
 10
15.51968846278896
 20
-17.68801867128204
 30
0.0
 10
15.54763266947685
 20
-17.73672976760799
 30
0.0
 10
15.58792031705414
 20
-17.84364628541224
 30
0.0
 10
15.59999999999999
 20
-17.90173537609954
 30
0.0
 10
15.59999999999999
 20
-17.96086022438792
 30
0.0
  0
SPLINE
  5
14B
330
1F
100
AcDbEntity
  8
1
  6
SLD-Solid
370
    25
100
AcDbSpline
210
0.0
220
0.0
230
1.0
 70
     8
 71
     3
 72
    12
 73
     8
 74
     0
 42
0.000000001
 43
0.00000001
 40
0.0
 40
0.0
 40
0.0
 40
0.0
 40
0.500000000000007
 40
0.500000000000007
 40
0.7500000000000034
 40
0.7500000000000034
 40
1.0
 40
1.0
 40
1.0
 40
1.0
 10
15.22499999999999
 20
17.4724425882588
 30
0.0
 10
15.32729887405207
 20
17.49483746472057
 30
0.0
 10
15.41719738376061
 20
17.55779867282207
 30
0.0
 10
15.51968846278896
 20
17.68801867128203
 30
0.0
 10
15.54763266947685
 20
17.73672976760799
 30
0.0
 10
15.58792031705414
 20
17.84364628541223
 30
0.0
 10
15.59999999999999
 20
17.90173537609953
 30
0.0
 10
15.59999999999999
 20
17.96086022438792
 30
0.0
  0
SPLINE
  5
14C
330
1F
100
AcDbEntity
  8
1
  6
SLD-Solid
370
    25
100
AcDbSpline
210
0.0
220
0.0
230
1.0
 70
     8
 71
     3
 72
    10
 73
     6
 74
     0
 42
0.000000001
 43
0.00000001
 40
0.0
 40
0.0
 40
0.0
 40
0.0
 40
0.4999999999999999
 40
0.4999999999999999
 40
1.0
 40
1.0
 40
1.0
 40
1.0
 10
11.97500000000001
 20
-17.05831908483361
 30
0.0
 10
12.55072229411917
 20
-17.07772547050808
 30
0.0
 10
13.1093640716413
 20
-17.1256473527862
 30
0.0
 10
14.19529318991715
 20
-17.26787583173369
 30
0.0
 10
14.72557374316147
 20
-17.36311011097304
 30
0.0
 10
15.22499999999999
 20
-17.47244258825881
 30
0.0
  0
SPLINE
  5
14D
330
1F
100
AcDbEntity
  8
1
  6
SLD-Solid
370
    25
100
AcDbSpline
210
0.0
220
0.0
230
1.0
 70
     8
 71
     3
 72
    10
 73
     6
 74
     0
 42
0.000000001
 43
0.00000001
 40
0.0
 40
0.0
 40
0.0
 40
0.0
 40
0.4999999999999999
 40
0.4999999999999999
 40
1.0
 40
1.0
 40
1.0
 40
1.0
 10
11.97500000000001
 20
17.0583190848336
 30
0.0
 10
12.55072229411917
 20
17.07772547050808
 30
0.0
 10
13.1093640716413
 20
17.1256473527862
 30
0.0
 10
14.19529318991715
 20
17.26787583173368
 30
0.0
 10
14.72557374316147
 20
17.36311011097304
 30
0.0
 10
15.22499999999999
 20
17.4724425882588
 30
0.0
  0
SPLINE
  5
14E
330
1F
100
AcDbEntity
  8
1
  6
SLD-Solid
370
    25
100
AcDbSpline
210
0.0
220
0.0
230
1.0
 70
    24
 71
     3
 72
     8
 73
     4
 74
     0
 42
0.000000001
 43
0.00000001
 40
0.0
 40
0.0
 40
0.0
 40
0.0
 40
1.0
 40
1.0
 40
1.0
 40
1.0
 10
2.000000000000002
 20
16.15
 30
0.0
 10
1.996111189589672
 20
16.15
 30
0.0
 10
1.989801036440912
 20
16.14999999999999
 30
0.0
 10
1.987405578664413
 20
16.15
 30
0.0
  0
SPLINE
  5
14F
330
1F
100
AcDbEntity
  8
1
  6
SLD-Dashed
370
    18
100
AcDbSpline
210
0.0
220
0.0
230
1.0
 70
     8
 71
     3
 72
    11
 73
     7
 74
     0
 42
0.000000001
 43
0.00000001
 40
0.0
 40
0.0
 40
0.0
 40
0.0
 40
0.2499573108264326
 40
0.4993433902248162
 40
0.7504973994015155
 40
1.0
 40
1.0
 40
1.0
 40
1.0
 10
17.62701812759761
 20
22.23477197484033
 30
0.0
 10
17.96178000035055
 20
22.33632733788711
 30
0.0
 10
18.63053870921082
 20
22.53920597789017
 30
0.0
 10
19.32771796101584
 20
22.7858603401829
 30
0.0
 10
19.78947050119828
 20
22.95696684589506
 30
0.0
 10
19.84631895369451
 20
22.97892472950695
 30
0.0
 10
19.87464942304393
 20
22.98986745743234
 30
0.0
  0
SPLINE
  5
150
330
1F
100
AcDbEntity
  8
1
  6
SLD-Dashed
370
    18
100
AcDbSpline
210
0.0
220
0.0
230
1.0
 70
    24
 71
     2
 72
     6
 73
     3
 74
     0
 42
0.000000001
 43
0.00000001
 40
0.0
 40
0.0
 40
0.0
 40
0.5
 40
0.5
 40
0.5
 10
2.000000000000002
 20
-16.15
 30
0.0
 10
1.987440911077658
 20
-16.15
 30
0.0
 10
1.98740568856566
 20
-16.15
 30
0.0
  0
SPLINE
  5
151
330
1F
100
AcDbEntity
  8
1
  6
SLD-Dashed
370
    18
100
AcDbSpline
210
0.0
220
0.0
230
1.0
 70
    24
 71
     3
 72
     8
 73
     4
 74
     0
 42
0.000000001
 43
0.00000001
 40
0.5
 40
0.5
 40
0.5
 40
0.5
 40
0.75
 40
0.75
 40
0.75
 40
0.75
 10
1.98740568856566
 20
-16.15
 30
0.0
 10
1.987388077309679
 20
-16.15
 30
0.0
 10
1.989776961366478
 20
-16.15
 30
0.0
 10
1.992936635836093
 20
-16.15
 30
0.0
  0
SPLINE
  5
152
330
1F
100
AcDbEntity
  8
1
  6
SLD-Dashed
370
    18
100
AcDbSpline
210
0.0
220
0.0
230
1.0
 70
    24
 71
     2
 72
     6
 73
     3
 74
     0
 42
0.000000001
 43
0.00000001
 40
0.75
 40
0.75
 40
0.75
 40
1.0
 40
1.0
 40
1.0
 10
1.992936635836092
 20
-16.15
 30
0.0
 10
1.996096310305707
 20
-16.15
 30
0.0
 10
2.000000000000001
 20
-16.15
 30
0.0
  0
SPLINE
  5
153
330
1F
100
AcDbEntity
  8
1
  6
SLD-Dashed
370
    18
100
AcDbSpline
210
0.0
220
0.0
230
1.0
 70
    24
 71
     3
 72
     8
 73
     4
 74
     0
 42
0.000000001
 43
0.00000001
 40
0.0
 40
0.0
 40
0.0
 40
0.0
 40
1.0
 40
1.0
 40
1.0
 40
1.0
 10
1.987405578664413
 20
16.15
 30
0.0
 10
1.989801174459217
 20
16.15
 30
0.0
 10
1.9961115454388
 20
16.14999999999999
 30
0.0
 10
2.000000000000002
 20
16.15
 30
0.0
  0
SPLINE
  5
154
330
1F
100
AcDbEntity
  8
SK3
  6
SLD-Dashed
370
    18
100
AcDbSpline
210
0.0
220
0.0
230
1.0
 70
     8
 71
     2
 72
     6
 73
     3
 74
     0
 42
0.000000001
 43
0.00000001
 40
0.0
 40
0.0
 40
0.0
 40
0.03125
 40
0.03125
 40
0.03125
 10
47.0
 20
9.999999999999995
 30
0.0
 10
46.97000600573557
 20
9.986401324136564
 30
0.0
 10
46.91159785628596
 20
9.960531895716551
 30
0.0
  0
SPLINE
  5
155
330
1F
100
AcDbEntity
  8
SK3
  6
SLD-Dashed
370
    18
100
AcDbSpline
210
0.0
220
0.0
230
1.0
 70
     8
 71
     3
 72
     8
 73
     4
 74
     0
 42
0.000000001
 43
0.00000001
 40
0.03125
 40
0.03125
 40
0.03125
 40
0.03125
 40
0.0624999999999999
 40
0.0624999999999999
 40
0.0624999999999999
 40
0.0624999999999999
 10
46.91159785628596
 20
9.960531895716551
 30
0.0
 10
46.85318970683633
 20
9.934662467296539
 30
0.0
 10
46.76477062144937
 20
9.895839236677611
 30
0.0
 10
46.6510518798141
 20
9.847904940082822
 30
0.0
  0
SPLINE
  5
156
330
1F
100
AcDbEntity
  8
SK3
  6
SLD-Dashed
370
    18
100
AcDbSpline
210
0.0
220
0.0
230
1.0
 70
     8
 71
     3
 72
     8
 73
     4
 74
     0
 42
0.000000001
 43
0.00000001
 40
0.0624999999999999
 40
0.0624999999999999
 40
0.0624999999999999
 40
0.0624999999999999
 40
0.0937499999999999
 40
0.0937499999999999
 40
0.0937499999999999
 40
0.0937499999999999
 10
46.6510518798141
 20
9.847904940082822
 30
0.0
 10
46.53733313817883
 20
9.799970643488045
 30
0.0
 10
46.39874291481647
 20
9.743075060252778
 30
0.0
 10
46.23548294232352
 20
9.680074008621517
 30
0.0
  0
SPLINE
  5
157
330
1F
100
AcDbEntity
  8
SK3
  6
SLD-Dashed
370
    18
100
AcDbSpline
210
0.0
220
0.0
230
1.0
 70
     8
 71
     3
 72
     8
 73
     4
 74
     0
 42
0.000000001
 43
0.00000001
 40
0.0937499999999999
 40
0.0937499999999999
 40
0.0937499999999999
 40
0.0937499999999999
 40
0.1249999999999998
 40
0.1249999999999998
 40
0.1249999999999998
 40
0.1249999999999998
 10
46.23548294232352
 20
9.680074008621517
 30
0.0
 10
46.07222296983058
 20
9.617072956990254
 30
0.0
 10
45.8853485897211
 20
9.548477079026146
 30
0.0
 10
45.68068824334318
 20
9.47980894856755
 30
0.0
  0
SPLINE
  5
158
330
1F
100
AcDbEntity
  8
SK3
  6
SLD-Dashed
370
    18
100
AcDbSpline
210
0.0
220
0.0
230
1.0
 70
     8
 71
     3
 72
     8
 73
     4
 74
     0
 42
0.000000001
 43
0.00000001
 40
0.1249999999999998
 40
0.1249999999999998
 40
0.1249999999999998
 40
0.1249999999999998
 40
0.1562499999999998
 40
0.1562499999999998
 40
0.1562499999999998
 40
0.1562499999999998
 10
45.68068824334318
 20
9.47980894856755
 30
0.0
 10
45.47602789696526
 20
9.411140818108954
 30
0.0
 10
45.25075013866297
 20
9.341403698474561
 30
0.0
 10
45.00759518671288
 20
9.275668904204462
 30
0.0
  0
SPLINE
  5
159
330
1F
100
AcDbEntity
  8
SK3
  6
SLD-Dashed
370
    18
100
AcDbSpline
210
0.0
220
0.0
230
1.0
 70
     8
 71
     3
 72
     8
 73
     4
 74
     0
 42
0.000000001
 43
0.00000001
 40
0.1562499999999998
 40
0.1562499999999998
 40
0.1562499999999998
 40
0.1562499999999998
 40
0.1874999999999997
 40
0.1874999999999997
 40
0.1874999999999997
 40
0.1874999999999997
 10
45.00759518671288
 20
9.275668904204462
 30
0.0
 10
44.76444023476278
 20
9.209934109934355
 30
0.0
 10
44.50834498591089
 20
9.149505118940388
 30
0.0
 10
44.2387904704712
 20
9.097988365578486
 30
0.0
  0
SPLINE
  5
15A
330
1F
100
AcDbEntity
  8
SK3
  6
SLD-Dashed
370
    18
100
AcDbSpline
210
0.0
220
0.0
230
1.0
 70
     8
 71
     3
 72
     8
 73
     4
 74
     0
 42
0.000000001
 43
0.00000001
 40
0.1874999999999997
 40
0.1874999999999997
 40
0.1874999999999997
 40
0.1874999999999997
 40
0.2031249999999997
 40
0.2031249999999997
 40
0.2031249999999997
 40
0.2031249999999997
 10
44.2387904704712
 20
9.097988365578486
 30
0.0
 10
44.10401321275137
 20
9.072229988897528
 30
0.0
 10
43.96584653228126
 20
9.048703559865528
 30
0.0
 10
43.82406378871008
 20
9.027909221772955
 30
0.0
  0
SPLINE
  5
15B
330
1F
100
AcDbEntity
  8
SK3
  6
SLD-Dashed
370
    18
100
AcDbSpline
210
0.0
220
0.0
230
1.0
 70
     8
 71
     3
 72
     8
 73
     4
 74
     0
 42
0.000000001
 43
0.00000001
 40
0.2031249999999997
 40
0.2031249999999997
 40
0.2031249999999997
 40
0.2031249999999997
 40
0.2187499999999997
 40
0.2187499999999997
 40
0.2187499999999997
 40
0.2187499999999997
 10
43.82406378871008
 20
9.027909221772955
 30
0.0
 10
43.68228104513889
 20
9.007114883680382
 30
0.0
 10
43.53665242695362
 20
8.989086106806363
 30
0.0
 10
43.39109109417816
 20
8.974633326109961
 30
0.0
  0
SPLINE
  5
15C
330
1F
100
AcDbEntity
  8
SK3
  6
SLD-Dashed
370
    18
100
AcDbSpline
210
0.0
220
0.0
230
1.0
 70
     8
 71
     3
 72
     8
 73
     4
 74
     0
 42
0.000000001
 43
0.00000001
 40
0.2187499999999997
 40
0.2187499999999997
 40
0.2187499999999997
 40
0.2187499999999997
 40
0.2499999999999997
 40
0.2499999999999997
 40
0.2499999999999997
 40
0.2499999999999997
 10
43.39109109417816
 20
8.974633326109961
 30
0.0
 10
43.09996842862725
 20
8.945727764717152
 30
0.0
 10
42.80545116265398
 20
8.930537420717872
 30
0.0
 10
42.50745476702883
 20
8.930288661266855
 30
0.0
  0
SPLINE
  5
15D
330
1F
100
AcDbEntity
  8
SK3
  6
SLD-Dashed
370
    18
100
AcDbSpline
210
0.0
220
0.0
230
1.0
 70
     8
 71
     3
 72
     8
 73
     4
 74
     0
 42
0.000000001
 43
0.00000001
 40
0.2499999999999997
 40
0.2499999999999997
 40
0.2499999999999997
 40
0.2499999999999997
 40
0.2812499999999997
 40
0.2812499999999997
 40
0.2812499999999997
 40
0.2812499999999997
 10
42.50745476702883
 20
8.930288661266855
 30
0.0
 10
42.20945837140368
 20
8.930039901815832
 30
0.0
 10
41.90710420936517
 20
8.94527613088543
 30
0.0
 10
41.61662530158779
 20
8.973870450245801
 30
0.0
  0
SPLINE
  5
15E
330
1F
100
AcDbEntity
  8
SK3
  6
SLD-Dashed
370
    18
100
AcDbSpline
210
0.0
220
0.0
230
1.0
 70
     8
 71
     3
 72
     8
 73
     4
 74
     0
 42
0.000000001
 43
0.00000001
 40
0.2812499999999997
 40
0.2812499999999997
 40
0.2812499999999997
 40
0.2812499999999997
 40
0.3124999999999997
 40
0.3124999999999997
 40
0.3124999999999997
 40
0.3124999999999997
 10
41.61662530158779
 20
8.973870450245801
 30
0.0
 10
41.32614639381043
 20
9.002464769606172
 30
0.0
 10
41.04206841154245
 20
9.044533688061698
 30
0.0
 10
40.76879242356932
 20
9.096542182208081
 30
0.0
  0
SPLINE
  5
15F
330
1F
100
AcDbEntity
  8
SK3
  6
SLD-Dashed
370
    18
100
AcDbSpline
210
0.0
220
0.0
230
1.0
 70
     8
 71
     3
 72
     8
 73
     4
 74
     0
 42
0.000000001
 43
0.00000001
 40
0.3124999999999997
 40
0.3124999999999997
 40
0.3124999999999997
 40
0.3124999999999997
 40
0.3437499999999997
 40
0.3437499999999997
 40
0.3437499999999997
 40
0.3437499999999997
 10
40.76879242356932
 20
9.096542182208081
 30
0.0
 10
40.49551643559618
 20
9.148550676354464
 30
0.0
 10
40.23864249455633
 20
9.209205613470814
 30
0.0
 10
39.99670433878227
 20
9.274507489213178
 30
0.0
  0
SPLINE
  5
160
330
1F
100
AcDbEntity
  8
SK3
  6
SLD-Dashed
370
    18
100
AcDbSpline
210
0.0
220
0.0
230
1.0
 70
     8
 71
     3
 72
     8
 73
     4
 74
     0
 42
0.000000001
 43
0.00000001
 40
0.3437499999999997
 40
0.3437499999999997
 40
0.3437499999999997
 40
0.3437499999999997
 40
0.3749999999999997
 40
0.3749999999999997
 40
0.3749999999999997
 40
0.3749999999999997
 10
39.99670433878227
 20
9.274507489213178
 30
0.0
 10
39.75476618300823
 20
9.339809364955542
 30
0.0
 10
39.52667985418222
 20
9.410275203645165
 30
0.0
 10
39.32153317982766
 20
9.479063842328342
 30
0.0
  0
SPLINE
  5
161
330
1F
100
AcDbEntity
  8
SK3
  6
SLD-Dashed
370
    18
100
AcDbSpline
210
0.0
220
0.0
230
1.0
 70
     8
 71
     3
 72
     8
 73
     4
 74
     0
 42
0.000000001
 43
0.00000001
 40
0.3749999999999997
 40
0.3749999999999997
 40
0.3749999999999997
 40
0.3749999999999997
 40
0.4062499999999997
 40
0.4062499999999997
 40
0.4062499999999997
 40
0.4062499999999997
 10
39.32153317982766
 20
9.479063842328342
 30
0.0
 10
39.11638650547311
 20
9.547852481011503
 30
0.0
 10
38.93188528489733
 20
9.615541182315127
 30
0.0
 10
38.76819760221726
 20
9.678654303987551
 30
0.0
  0
SPLINE
  5
162
330
1F
100
AcDbEntity
  8
SK3
  6
SLD-Dashed
370
    18
100
AcDbSpline
210
0.0
220
0.0
230
1.0
 70
     8
 71
     3
 72
     8
 73
     4
 74
     0
 42
0.000000001
 43
0.00000001
 40
0.4062499999999997
 40
0.4062499999999997
 40
0.4062499999999997
 40
0.4062499999999997
 40
0.4374999999999997
 40
0.4374999999999997
 40
0.4374999999999997
 40
0.4374999999999997
 10
38.76819760221726
 20
9.678654303987551
 30
0.0
 10
38.60450991953724
 20
9.741767425659985
 30
0.0
 10
38.46391627503544
 20
9.799460133689708
 30
0.0
 10
38.35064144566658
 20
9.847191295614206
 30
0.0
  0
SPLINE
  5
163
330
1F
100
AcDbEntity
  8
SK3
  6
SLD-Dashed
370
    18
100
AcDbSpline
210
0.0
220
0.0
230
1.0
 70
     8
 71
     3
 72
     8
 73
     4
 74
     0
 42
0.000000001
 43
0.00000001
 40
0.4374999999999997
 40
0.4374999999999997
 40
0.4374999999999997
 40
0.4374999999999997
 40
0.4687499999999997
 40
0.4687499999999997
 40
0.4687499999999997
 40
0.4687499999999997
 10
38.35064144566658
 20
9.847191295614206
 30
0.0
 10
38.23736661629771
 20
9.894922457538694
 30
0.0
 10
38.14967950873438
 20
9.933399202760686
 30
0.0
 10
38.08994482330982
 20
9.959848726835766
 30
0.0
  0
SPLINE
  5
164
330
1F
100
AcDbEntity
  8
SK3
  6
SLD-Dashed
370
    18
100
AcDbSpline
210
0.0
220
0.0
230
1.0
 70
     8
 71
     3
 72
     8
 73
     4
 74
     0
 42
0.000000001
 43
0.00000001
 40
0.4687499999999997
 40
0.4687499999999997
 40
0.4687499999999997
 40
0.4687499999999997
 40
0.4999999999999997
 40
0.4999999999999997
 40
0.4999999999999997
 40
0.4999999999999997
 10
38.08994482330982
 20
9.959848726835766
 30
0.0
 10
38.03021013788523
 20
9.986298250910846
 30
0.0
 10
38.00054504362183
 20
9.999754730688315
 30
0.0
 10
38.00000736894825
 20
9.999996683975464
 30
0.0
  0
SPLINE
  5
165
330
1F
100
AcDbEntity
  8
SK3
  6
SLD-Dashed
370
    18
100
AcDbSpline
210
0.0
220
0.0
230
1.0
 70
     8
 71
     3
 72
     8
 73
     4
 74
     0
 42
0.000000001
 43
0.00000001
 40
0.4999999999999997
 40
0.4999999999999997
 40
0.4999999999999997
 40
0.4999999999999997
 40
0.5312499999999998
 40
0.5312499999999998
 40
0.5312499999999998
 40
0.5312499999999998
 10
38.00000736894825
 20
9.999996683975464
 30
0.0
 10
37.99946969427463
 20
10.0002386372626
 30
0.0
 10
38.02908190351326
 20
9.986809732863936
 30
0.0
 10
38.08746798428271
 20
9.960945677481133
 30
0.0
  0
SPLINE
  5
166
330
1F
100
AcDbEntity
  8
SK3
  6
SLD-Dashed
370
    18
100
AcDbSpline
210
0.0
220
0.0
230
1.0
 70
     8
 71
     3
 72
     8
 73
     4
 74
     0
 42
0.000000001
 43
0.00000001
 40
0.5312499999999998
 40
0.5312499999999998
 40
0.5312499999999998
 40
0.5312499999999998
 40
0.5624999999999998
 40
0.5624999999999998
 40
0.5624999999999998
 40
0.5624999999999998
 10
38.08746798428271
 20
9.960945677481133
 30
0.0
 10
38.14585406505219
 20
9.935081622098316
 30
0.0
 10
38.23214756500155
 20
9.89716687822051
 30
0.0
 10
38.3459766475423
 20
9.849157832665892
 30
0.0
  0
SPLINE
  5
167
330
1F
100
AcDbEntity
  8
SK3
  6
SLD-Dashed
370
    18
100
AcDbSpline
210
0.0
220
0.0
230
1.0
 70
     8
 71
     3
 72
     8
 73
     4
 74
     0
 42
0.000000001
 43
0.00000001
 40
0.5624999999999998
 40
0.5624999999999998
 40
0.5624999999999998
 40
0.5624999999999998
 40
0.5937499999999998
 40
0.5937499999999998
 40
0.5937499999999998
 40
0.5937499999999998
 10
38.3459766475423
 20
9.849157832665892
 30
0.0
 10
38.45980573008308
 20
9.801148787111268
 30
0.0
 10
38.60027084786148
 20
9.74348592337624
 30
0.0
 10
38.76240638833653
 20
9.680888699181898
 30
0.0
  0
SPLINE
  5
168
330
1F
100
AcDbEntity
  8
SK3
  6
SLD-Dashed
370
    18
100
AcDbSpline
210
0.0
220
0.0
230
1.0
 70
     8
 71
     3
 72
     8
 73
     4
 74
     0
 42
0.000000001
 43
0.00000001
 40
0.5937499999999998
 40
0.5937499999999998
 40
0.5937499999999998
 40
0.5937499999999998
 40
0.6249999999999997
 40
0.6249999999999997
 40
0.6249999999999997
 40
0.6249999999999997
 10
38.76240638833653
 20
9.680888699181898
 30
0.0
 10
38.92454192881158
 20
9.61829147498755
 30
0.0
 10
39.11121313759645
 20
9.549670570353747
 30
0.0
 10
39.31725451089013
 20
9.480499398684081
 30
0.0
  0
SPLINE
  5
169
330
1F
100
AcDbEntity
  8
SK3
  6
SLD-Dashed
370
    18
100
AcDbSpline
210
0.0
220
0.0
230
1.0
 70
     8
 71
     3
 72
     8
 73
     4
 74
     0
 42
0.000000001
 43
0.00000001
 40
0.6249999999999997
 40
0.6249999999999997
 40
0.6249999999999997
 40
0.6249999999999997
 40
0.6562499999999997
 40
0.6562499999999997
 40
0.6562499999999997
 40
0.6562499999999997
 10
39.31725451089013
 20
9.480499398684081
 30
0.0
 10
39.52329588418382
 20
9.411328227014417
 30
0.0
 10
39.74664665850641
 20
9.342218585225575
 30
0.0
 10
39.98783618745548
 20
9.27690503460385
 30
0.0
  0
SPLINE
  5
16A
330
1F
100
AcDbEntity
  8
SK3
  6
SLD-Dashed
370
    18
100
AcDbSpline
210
0.0
220
0.0
230
1.0
 70
     8
 71
     3
 72
     8
 73
     4
 74
     0
 42
0.000000001
 43
0.00000001
 40
0.6562499999999997
 40
0.6562499999999997
 40
0.6562499999999997
 40
0.6562499999999997
 40
0.6874999999999996
 40
0.6874999999999996
 40
0.6874999999999996
 40
0.6874999999999996
 10
39.98783618745548
 20
9.27690503460385
 30
0.0
 10
40.22902571640458
 20
9.211591483982124
 30
0.0
 10
40.49088646300692
 20
9.14965321777713
 30
0.0
 10
40.76116709101191
 20
9.097996476443598
 30
0.0
  0
SPLINE
  5
16B
330
1F
100
AcDbEntity
  8
SK3
  6
SLD-Dashed
370
    18
100
AcDbSpline
210
0.0
220
0.0
230
1.0
 70
     8
 71
     3
 72
     8
 73
     4
 74
     0
 42
0.000000001
 43
0.00000001
 40
0.6874999999999996
 40
0.6874999999999996
 40
0.6874999999999996
 40
0.6874999999999996
 40
0.7187499999999996
 40
0.7187499999999996
 40
0.7187499999999996
 40
0.7187499999999996
 10
40.76116709101191
 20
9.097996476443598
 30
0.0
 10
41.0314477190169
 20
9.04633973511007
 30
0.0
 10
41.31186241386776
 20
9.00431038495081
 30
0.0
 10
41.60326088605759
 20
8.975195877443248
 30
0.0
  0
SPLINE
  5
16C
330
1F
100
AcDbEntity
  8
SK3
  6
SLD-Dashed
370
    18
100
AcDbSpline
210
0.0
220
0.0
230
1.0
 70
     8
 71
     3
 72
     8
 73
     4
 74
     0
 42
0.000000001
 43
0.00000001
 40
0.7187499999999996
 40
0.7187499999999996
 40
0.7187499999999996
 40
0.7187499999999996
 40
0.7343749999999996
 40
0.7343749999999996
 40
0.7343749999999996
 40
0.7343749999999996
 10
41.60326088605759
 20
8.975195877443248
 30
0.0
 10
41.74896012215251
 20
8.96063862368946
 30
0.0
 10
41.89842457738936
 20
8.949289305544061
 30
0.0
 10
42.04732298621283
 20
8.941751309380685
 30
0.0
  0
SPLINE
  5
16D
330
1F
100
AcDbEntity
  8
SK3
  6
SLD-Dashed
370
    18
100
AcDbSpline
210
0.0
220
0.0
230
1.0
 70
     8
 71
     3
 72
     8
 73
     4
 74
     0
 42
0.000000001
 43
0.00000001
 40
0.7343749999999996
 40
0.7343749999999996
 40
0.7343749999999996
 40
0.7343749999999996
 40
0.7499999999999994
 40
0.7499999999999994
 40
0.7499999999999994
 40
0.7499999999999994
 10
42.04732298621283
 20
8.941751309380685
 30
0.0
 10
42.19622139503633
 20
8.934213313217324
 30
0.0
 10
42.34493459710267
 20
8.930396614807254
 30
0.0
 10
42.49346605244175
 20
8.930287940065021
 30
0.0
  0
SPLINE
  5
16E
330
1F
100
AcDbEntity
  8
SK3
  6
SLD-Dashed
370
    18
100
AcDbSpline
210
0.0
220
0.0
230
1.0
 70
     8
 71
     3
 72
     8
 73
     4
 74
     0
 42
0.000000001
 43
0.00000001
 40
0.7499999999999994
 40
0.7499999999999994
 40
0.7499999999999994
 40
0.7499999999999994
 40
0.7812499999999996
 40
0.7812499999999996
 40
0.7812499999999996
 40
0.7812499999999996
 10
42.49346605244175
 20
8.930287940065021
 30
0.0
 10
42.79052896311995
 20
8.930070590580556
 30
0.0
 10
43.08843783858998
 20
8.944873874520336
 30
0.0
 10
43.38224874502322
 20
8.973759682992133
 30
0.0
  0
SPLINE
  5
16F
330
1F
100
AcDbEntity
  8
SK3
  6
SLD-Dashed
370
    18
100
AcDbSpline
210
0.0
220
0.0
230
1.0
 70
     8
 71
     3
 72
     8
 73
     4
 74
     0
 42
0.000000001
 43
0.00000001
 40
0.7812499999999996
 40
0.7812499999999996
 40
0.7812499999999996
 40
0.7812499999999996
 40
0.8124999999999997
 40
0.8124999999999997
 40
0.8124999999999997
 40
0.8124999999999997
 10
43.38224874502322
 20
8.973759682992133
 30
0.0
 10
43.67605965145645
 20
9.002645491463928
 30
0.0
 10
43.95821734534536
 20
9.04463019595391
 30
0.0
 10
44.22974733378086
 20
9.09626438922715
 30
0.0
  0
SPLINE
  5
170
330
1F
100
AcDbEntity
  8
SK3
  6
SLD-Dashed
370
    18
100
AcDbSpline
210
0.0
220
0.0
230
1.0
 70
     8
 71
     3
 72
     8
 73
     4
 74
     0
 42
0.000000001
 43
0.00000001
 40
0.8124999999999997
 40
0.8124999999999997
 40
0.8124999999999997
 40
0.8124999999999997
 40
0.8437499999999997
 40
0.8437499999999997
 40
0.8437499999999997
 40
0.8437499999999997
 10
44.22974733378086
 20
9.09626438922715
 30
0.0
 10
44.5012773222164
 20
9.147898582500389
 30
0.0
 10
44.76321714500934
 20
9.209667316646867
 30
0.0
 10
45.00496641999709
 20
9.27495858563869
 30
0.0
  0
SPLINE
  5
171
330
1F
100
AcDbEntity
  8
SK3
  6
SLD-Dashed
370
    18
100
AcDbSpline
210
0.0
220
0.0
230
1.0
 70
     8
 71
     3
 72
     8
 73
     4
 74
     0
 42
0.000000001
 43
0.00000001
 40
0.8437499999999997
 40
0.8437499999999997
 40
0.8437499999999997
 40
0.8437499999999997
 40
0.8749999999999998
 40
0.8749999999999998
 40
0.8749999999999998
 40
0.8749999999999998
 10
45.00496641999709
 20
9.27495858563869
 30
0.0
 10
45.2467156949848
 20
9.340249854630507
 30
0.0
 10
45.47107923491157
 20
9.409525168213264
 30
0.0
 10
45.6783960351016
 20
9.479040107307775
 30
0.0
  0
SPLINE
  5
172
330
1F
100
AcDbEntity
  8
SK3
  6
SLD-Dashed
370
    18
100
AcDbSpline
210
0.0
220
0.0
230
1.0
 70
     8
 71
     3
 72
     8
 73
     4
 74
     0
 42
0.000000001
 43
0.00000001
 40
0.8749999999999998
 40
0.8749999999999998
 40
0.8749999999999998
 40
0.8749999999999998
 40
0.9062499999999998
 40
0.9062499999999998
 40
0.9062499999999998
 40
0.9062499999999998
 10
45.6783960351016
 20
9.479040107307775
 30
0.0
 10
45.88571283529165
 20
9.548555046402285
 30
0.0
 10
46.07084545602978
 20
9.616576067180006
 30
0.0
 10
46.23306945322022
 20
9.679142913634767
 30
0.0
  0
SPLINE
  5
173
330
1F
100
AcDbEntity
  8
SK3
  6
SLD-Dashed
370
    18
100
AcDbSpline
210
0.0
220
0.0
230
1.0
 70
     8
 71
     3
 72
     8
 73
     4
 74
     0
 42
0.000000001
 43
0.00000001
 40
0.9062499999999998
 40
0.9062499999999998
 40
0.9062499999999998
 40
0.9062499999999998
 40
0.9374999999999999
 40
0.9374999999999999
 40
0.9374999999999999
 40
0.9374999999999999
 10
46.23306945322022
 20
9.679142913634767
 30
0.0
 10
46.39529345041068
 20
9.74170976008952
 30
0.0
 10
46.53631065433373
 20
9.79954353214027
 30
0.0
 10
46.65064598192944
 20
9.847733854410713
 30
0.0
  0
SPLINE
  5
174
330
1F
100
AcDbEntity
  8
SK3
  6
SLD-Dashed
370
    18
100
AcDbSpline
210
0.0
220
0.0
230
1.0
 70
     8
 71
     3
 72
     8
 73
     4
 74
     0
 42
0.000000001
 43
0.00000001
 40
0.9374999999999999
 40
0.9374999999999999
 40
0.9374999999999999
 40
0.9374999999999999
 40
0.9687499999999999
 40
0.9687499999999999
 40
0.9687499999999999
 40
0.9687499999999999
 10
46.65064598192944
 20
9.847733854410713
 30
0.0
 10
46.76498130952513
 20
9.895924176681156
 30
0.0
 10
46.85155221126485
 20
9.933943118279242
 30
0.0
 10
46.91036556380561
 20
9.959986164970424
 30
0.0
  0
SPLINE
  5
175
330
1F
100
AcDbEntity
  8
SK3
  6
SLD-Dashed
370
    18
100
AcDbSpline
210
0.0
220
0.0
230
1.0
 70
     8
 71
     2
 72
     6
 73
     3
 74
     0
 42
0.000000001
 43
0.00000001
 40
0.9687499999999999
 40
0.9687499999999999
 40
0.9687499999999999
 40
1.0
 40
1.0
 40
1.0
 10
46.91036556380558
 20
9.959986164970411
 30
0.0
 10
46.96917891634637
 20
9.986029211661608
 30
0.0
 10
47.0
 20
9.999999999999995
 30
0.0
  0
SPLINE
  5
176
330
1F
100
AcDbEntity
  8
SK3
  6
SLD-Dashed
370
    18
100
AcDbSpline
210
0.0
220
0.0
230
1.0
 70
     8
 71
     2
 72
     6
 73
     3
 74
     0
 42
0.000000001
 43
0.00000001
 40
0.0
 40
0.0
 40
0.0
 40
0.03125
 40
0.03125
 40
0.03125
 10
47.0
 20
9.999999999999995
 30
0.0
 10
46.97000600573557
 20
9.986401324136564
 30
0.0
 10
46.91159785628596
 20
9.960531895716551
 30
0.0
  0
SPLINE
  5
177
330
1F
100
AcDbEntity
  8
SK3
  6
SLD-Dashed
370
    18
100
AcDbSpline
210
0.0
220
0.0
230
1.0
 70
     8
 71
     3
 72
     8
 73
     4
 74
     0
 42
0.000000001
 43
0.00000001
 40
0.03125
 40
0.03125
 40
0.03125
 40
0.03125
 40
0.0624999999999999
 40
0.0624999999999999
 40
0.0624999999999999
 40
0.0624999999999999
 10
46.91159785628596
 20
9.960531895716551
 30
0.0
 10
46.85318970683633
 20
9.934662467296539
 30
0.0
 10
46.76477062144937
 20
9.895839236677611
 30
0.0
 10
46.6510518798141
 20
9.847904940082822
 30
0.0
  0
SPLINE
  5
178
330
1F
100
AcDbEntity
  8
SK3
  6
SLD-Dashed
370
    18
100
AcDbSpline
210
0.0
220
0.0
230
1.0
 70
     8
 71
     3
 72
     8
 73
     4
 74
     0
 42
0.000000001
 43
0.00000001
 40
0.0624999999999999
 40
0.0624999999999999
 40
0.0624999999999999
 40
0.0624999999999999
 40
0.0937499999999999
 40
0.0937499999999999
 40
0.0937499999999999
 40
0.0937499999999999
 10
46.6510518798141
 20
9.847904940082822
 30
0.0
 10
46.53733313817883
 20
9.799970643488045
 30
0.0
 10
46.39874291481647
 20
9.743075060252778
 30
0.0
 10
46.23548294232352
 20
9.680074008621517
 30
0.0
  0
SPLINE
  5
179
330
1F
100
AcDbEntity
  8
SK3
  6
SLD-Dashed
370
    18
100
AcDbSpline
210
0.0
220
0.0
230
1.0
 70
     8
 71
     3
 72
     8
 73
     4
 74
     0
 42
0.000000001
 43
0.00000001
 40
0.0937499999999999
 40
0.0937499999999999
 40
0.0937499999999999
 40
0.0937499999999999
 40
0.1249999999999998
 40
0.1249999999999998
 40
0.1249999999999998
 40
0.1249999999999998
 10
46.23548294232352
 20
9.680074008621517
 30
0.0
 10
46.07222296983058
 20
9.617072956990254
 30
0.0
 10
45.8853485897211
 20
9.548477079026146
 30
0.0
 10
45.68068824334318
 20
9.47980894856755
 30
0.0
  0
SPLINE
  5
17A
330
1F
100
AcDbEntity
  8
SK3
  6
SLD-Dashed
370
    18
100
AcDbSpline
210
0.0
220
0.0
230
1.0
 70
     8
 71
     3
 72
     8
 73
     4
 74
     0
 42
0.000000001
 43
0.00000001
 40
0.1249999999999998
 40
0.1249999999999998
 40
0.1249999999999998
 40
0.1249999999999998
 40
0.1562499999999998
 40
0.1562499999999998
 40
0.1562499999999998
 40
0.1562499999999998
 10
45.68068824334318
 20
9.47980894856755
 30
0.0
 10
45.47602789696526
 20
9.411140818108954
 30
0.0
 10
45.25075013866297
 20
9.341403698474561
 30
0.0
 10
45.00759518671288
 20
9.275668904204462
 30
0.0
  0
SPLINE
  5
17B
330
1F
100
AcDbEntity
  8
SK3
  6
SLD-Dashed
370
    18
100
AcDbSpline
210
0.0
220
0.0
230
1.0
 70
     8
 71
     3
 72
     8
 73
     4
 74
     0
 42
0.000000001
 43
0.00000001
 40
0.1562499999999998
 40
0.1562499999999998
 40
0.1562499999999998
 40
0.1562499999999998
 40
0.1874999999999997
 40
0.1874999999999997
 40
0.1874999999999997
 40
0.1874999999999997
 10
45.00759518671288
 20
9.275668904204462
 30
0.0
 10
44.76444023476278
 20
9.209934109934355
 30
0.0
 10
44.50834498591089
 20
9.149505118940388
 30
0.0
 10
44.2387904704712
 20
9.097988365578486
 30
0.0
  0
SPLINE
  5
17C
330
1F
100
AcDbEntity
  8
SK3
  6
SLD-Dashed
370
    18
100
AcDbSpline
210
0.0
220
0.0
230
1.0
 70
     8
 71
     3
 72
     8
 73
     4
 74
     0
 42
0.000000001
 43
0.00000001
 40
0.1874999999999997
 40
0.1874999999999997
 40
0.1874999999999997
 40
0.1874999999999997
 40
0.2031249999999997
 40
0.2031249999999997
 40
0.2031249999999997
 40
0.2031249999999997
 10
44.2387904704712
 20
9.097988365578486
 30
0.0
 10
44.10401321275137
 20
9.072229988897528
 30
0.0
 10
43.96584653228126
 20
9.048703559865528
 30
0.0
 10
43.82406378871008
 20
9.027909221772955
 30
0.0
  0
SPLINE
  5
17D
330
1F
100
AcDbEntity
  8
SK3
  6
SLD-Dashed
370
    18
100
AcDbSpline
210
0.0
220
0.0
230
1.0
 70
     8
 71
     3
 72
     8
 73
     4
 74
     0
 42
0.000000001
 43
0.00000001
 40
0.2031249999999997
 40
0.2031249999999997
 40
0.2031249999999997
 40
0.2031249999999997
 40
0.2187499999999997
 40
0.2187499999999997
 40
0.2187499999999997
 40
0.2187499999999997
 10
43.82406378871008
 20
9.027909221772955
 30
0.0
 10
43.68228104513889
 20
9.007114883680382
 30
0.0
 10
43.53665242695362
 20
8.989086106806363
 30
0.0
 10
43.39109109417816
 20
8.974633326109961
 30
0.0
  0
SPLINE
  5
17E
330
1F
100
AcDbEntity
  8
SK3
  6
SLD-Dashed
370
    18
100
AcDbSpline
210
0.0
220
0.0
230
1.0
 70
     8
 71
     3
 72
     8
 73
     4
 74
     0
 42
0.000000001
 43
0.00000001
 40
0.2187499999999997
 40
0.2187499999999997
 40
0.2187499999999997
 40
0.2187499999999997
 40
0.2499999999999997
 40
0.2499999999999997
 40
0.2499999999999997
 40
0.2499999999999997
 10
43.39109109417816
 20
8.974633326109961
 30
0.0
 10
43.09996842862725
 20
8.945727764717152
 30
0.0
 10
42.80545116265398
 20
8.930537420717872
 30
0.0
 10
42.50745476702883
 20
8.930288661266855
 30
0.0
  0
SPLINE
  5
17F
330
1F
100
AcDbEntity
  8
SK3
  6
SLD-Dashed
370
    18
100
AcDbSpline
210
0.0
220
0.0
230
1.0
 70
     8
 71
     3
 72
     8
 73
     4
 74
     0
 42
0.000000001
 43
0.00000001
 40
0.2499999999999997
 40
0.2499999999999997
 40
0.2499999999999997
 40
0.2499999999999997
 40
0.2812499999999997
 40
0.2812499999999997
 40
0.2812499999999997
 40
0.2812499999999997
 10
42.50745476702883
 20
8.930288661266855
 30
0.0
 10
42.20945837140368
 20
8.930039901815832
 30
0.0
 10
41.90710420936517
 20
8.94527613088543
 30
0.0
 10
41.61662530158779
 20
8.973870450245801
 30
0.0
  0
SPLINE
  5
180
330
1F
100
AcDbEntity
  8
SK3
  6
SLD-Dashed
370
    18
100
AcDbSpline
210
0.0
220
0.0
230
1.0
 70
     8
 71
     3
 72
     8
 73
     4
 74
     0
 42
0.000000001
 43
0.00000001
 40
0.2812499999999997
 40
0.2812499999999997
 40
0.2812499999999997
 40
0.2812499999999997
 40
0.3124999999999997
 40
0.3124999999999997
 40
0.3124999999999997
 40
0.3124999999999997
 10
41.61662530158779
 20
8.973870450245801
 30
0.0
 10
41.32614639381043
 20
9.002464769606172
 30
0.0
 10
41.04206841154245
 20
9.044533688061698
 30
0.0
 10
40.76879242356932
 20
9.096542182208081
 30
0.0
  0
SPLINE
  5
181
330
1F
100
AcDbEntity
  8
SK3
  6
SLD-Dashed
370
    18
100
AcDbSpline
210
0.0
220
0.0
230
1.0
 70
     8
 71
     3
 72
     8
 73
     4
 74
     0
 42
0.000000001
 43
0.00000001
 40
0.3124999999999997
 40
0.3124999999999997
 40
0.3124999999999997
 40
0.3124999999999997
 40
0.3437499999999997
 40
0.3437499999999997
 40
0.3437499999999997
 40
0.3437499999999997
 10
40.76879242356932
 20
9.096542182208081
 30
0.0
 10
40.49551643559618
 20
9.148550676354464
 30
0.0
 10
40.23864249455633
 20
9.209205613470814
 30
0.0
 10
39.99670433878227
 20
9.274507489213178
 30
0.0
  0
SPLINE
  5
182
330
1F
100
AcDbEntity
  8
SK3
  6
SLD-Dashed
370
    18
100
AcDbSpline
210
0.0
220
0.0
230
1.0
 70
     8
 71
     3
 72
     8
 73
     4
 74
     0
 42
0.000000001
 43
0.00000001
 40
0.3437499999999997
 40
0.3437499999999997
 40
0.3437499999999997
 40
0.3437499999999997
 40
0.3749999999999997
 40
0.3749999999999997
 40
0.3749999999999997
 40
0.3749999999999997
 10
39.99670433878227
 20
9.274507489213178
 30
0.0
 10
39.75476618300823
 20
9.339809364955542
 30
0.0
 10
39.52667985418222
 20
9.410275203645165
 30
0.0
 10
39.32153317982766
 20
9.479063842328342
 30
0.0
  0
SPLINE
  5
183
330
1F
100
AcDbEntity
  8
SK3
  6
SLD-Dashed
370
    18
100
AcDbSpline
210
0.0
220
0.0
230
1.0
 70
     8
 71
     3
 72
     8
 73
     4
 74
     0
 42
0.000000001
 43
0.00000001
 40
0.3749999999999997
 40
0.3749999999999997
 40
0.3749999999999997
 40
0.3749999999999997
 40
0.4062499999999997
 40
0.4062499999999997
 40
0.4062499999999997
 40
0.4062499999999997
 10
39.32153317982766
 20
9.479063842328342
 30
0.0
 10
39.11638650547311
 20
9.547852481011503
 30
0.0
 10
38.93188528489733
 20
9.615541182315127
 30
0.0
 10
38.76819760221726
 20
9.678654303987551
 30
0.0
  0
SPLINE
  5
184
330
1F
100
AcDbEntity
  8
SK3
  6
SLD-Dashed
370
    18
100
AcDbSpline
210
0.0
220
0.0
230
1.0
 70
     8
 71
     3
 72
     8
 73
     4
 74
     0
 42
0.000000001
 43
0.00000001
 40
0.4062499999999997
 40
0.4062499999999997
 40
0.4062499999999997
 40
0.4062499999999997
 40
0.4374999999999997
 40
0.4374999999999997
 40
0.4374999999999997
 40
0.4374999999999997
 10
38.76819760221726
 20
9.678654303987551
 30
0.0
 10
38.60450991953724
 20
9.741767425659985
 30
0.0
 10
38.46391627503544
 20
9.799460133689708
 30
0.0
 10
38.35064144566658
 20
9.847191295614206
 30
0.0
  0
SPLINE
  5
185
330
1F
100
AcDbEntity
  8
SK3
  6
SLD-Dashed
370
    18
100
AcDbSpline
210
0.0
220
0.0
230
1.0
 70
     8
 71
     3
 72
     8
 73
     4
 74
     0
 42
0.000000001
 43
0.00000001
 40
0.4374999999999997
 40
0.4374999999999997
 40
0.4374999999999997
 40
0.4374999999999997
 40
0.4687499999999997
 40
0.4687499999999997
 40
0.4687499999999997
 40
0.4687499999999997
 10
38.35064144566658
 20
9.847191295614206
 30
0.0
 10
38.23736661629771
 20
9.894922457538694
 30
0.0
 10
38.14967950873438
 20
9.933399202760686
 30
0.0
 10
38.08994482330982
 20
9.959848726835766
 30
0.0
  0
SPLINE
  5
186
330
1F
100
AcDbEntity
  8
SK3
  6
SLD-Dashed
370
    18
100
AcDbSpline
210
0.0
220
0.0
230
1.0
 70
     8
 71
     3
 72
     8
 73
     4
 74
     0
 42
0.000000001
 43
0.00000001
 40
0.4687499999999997
 40
0.4687499999999997
 40
0.4687499999999997
 40
0.4687499999999997
 40
0.4999999999999997
 40
0.4999999999999997
 40
0.4999999999999997
 40
0.4999999999999997
 10
38.08994482330982
 20
9.959848726835766
 30
0.0
 10
38.03021013788523
 20
9.986298250910846
 30
0.0
 10
38.00054504362183
 20
9.999754730688315
 30
0.0
 10
38.00000736894825
 20
9.999996683975464
 30
0.0
  0
SPLINE
  5
187
330
1F
100
AcDbEntity
  8
SK3
  6
SLD-Dashed
370
    18
100
AcDbSpline
210
0.0
220
0.0
230
1.0
 70
     8
 71
     3
 72
     8
 73
     4
 74
     0
 42
0.000000001
 43
0.00000001
 40
0.4999999999999997
 40
0.4999999999999997
 40
0.4999999999999997
 40
0.4999999999999997
 40
0.5312499999999998
 40
0.5312499999999998
 40
0.5312499999999998
 40
0.5312499999999998
 10
38.00000736894825
 20
9.999996683975464
 30
0.0
 10
37.99946969427463
 20
10.0002386372626
 30
0.0
 10
38.02908190351326
 20
9.986809732863936
 30
0.0
 10
38.08746798428271
 20
9.960945677481133
 30
0.0
  0
SPLINE
  5
188
330
1F
100
AcDbEntity
  8
SK3
  6
SLD-Dashed
370
    18
100
AcDbSpline
210
0.0
220
0.0
230
1.0
 70
     8
 71
     3
 72
     8
 73
     4
 74
     0
 42
0.000000001
 43
0.00000001
 40
0.5312499999999998
 40
0.5312499999999998
 40
0.5312499999999998
 40
0.5312499999999998
 40
0.5624999999999998
 40
0.5624999999999998
 40
0.5624999999999998
 40
0.5624999999999998
 10
38.08746798428271
 20
9.960945677481133
 30
0.0
 10
38.14585406505219
 20
9.935081622098316
 30
0.0
 10
38.23214756500155
 20
9.89716687822051
 30
0.0
 10
38.3459766475423
 20
9.849157832665892
 30
0.0
  0
SPLINE
  5
189
330
1F
100
AcDbEntity
  8
SK3
  6
SLD-Dashed
370
    18
100
AcDbSpline
210
0.0
220
0.0
230
1.0
 70
     8
 71
     3
 72
     8
 73
     4
 74
     0
 42
0.000000001
 43
0.00000001
 40
0.5624999999999998
 40
0.5624999999999998
 40
0.5624999999999998
 40
0.5624999999999998
 40
0.5937499999999998
 40
0.5937499999999998
 40
0.5937499999999998
 40
0.5937499999999998
 10
38.3459766475423
 20
9.849157832665892
 30
0.0
 10
38.45980573008308
 20
9.801148787111268
 30
0.0
 10
38.60027084786148
 20
9.74348592337624
 30
0.0
 10
38.76240638833653
 20
9.680888699181898
 30
0.0
  0
SPLINE
  5
18A
330
1F
100
AcDbEntity
  8
SK3
  6
SLD-Dashed
370
    18
100
AcDbSpline
210
0.0
220
0.0
230
1.0
 70
     8
 71
     3
 72
     8
 73
     4
 74
     0
 42
0.000000001
 43
0.00000001
 40
0.5937499999999998
 40
0.5937499999999998
 40
0.5937499999999998
 40
0.5937499999999998
 40
0.6249999999999997
 40
0.6249999999999997
 40
0.6249999999999997
 40
0.6249999999999997
 10
38.76240638833653
 20
9.680888699181898
 30
0.0
 10
38.92454192881158
 20
9.61829147498755
 30
0.0
 10
39.11121313759645
 20
9.549670570353747
 30
0.0
 10
39.31725451089013
 20
9.480499398684081
 30
0.0
  0
SPLINE
  5
18B
330
1F
100
AcDbEntity
  8
SK3
  6
SLD-Dashed
370
    18
100
AcDbSpline
210
0.0
220
0.0
230
1.0
 70
     8
 71
     3
 72
     8
 73
     4
 74
     0
 42
0.000000001
 43
0.00000001
 40
0.6249999999999997
 40
0.6249999999999997
 40
0.6249999999999997
 40
0.6249999999999997
 40
0.6562499999999997
 40
0.6562499999999997
 40
0.6562499999999997
 40
0.6562499999999997
 10
39.31725451089013
 20
9.480499398684081
 30
0.0
 10
39.52329588418382
 20
9.411328227014417
 30
0.0
 10
39.74664665850641
 20
9.342218585225575
 30
0.0
 10
39.98783618745548
 20
9.27690503460385
 30
0.0
  0
SPLINE
  5
18C
330
1F
100
AcDbEntity
  8
SK3
  6
SLD-Dashed
370
    18
100
AcDbSpline
210
0.0
220
0.0
230
1.0
 70
     8
 71
     3
 72
     8
 73
     4
 74
     0
 42
0.000000001
 43
0.00000001
 40
0.6562499999999997
 40
0.6562499999999997
 40
0.6562499999999997
 40
0.6562499999999997
 40
0.6874999999999996
 40
0.6874999999999996
 40
0.6874999999999996
 40
0.6874999999999996
 10
39.98783618745548
 20
9.27690503460385
 30
0.0
 10
40.22902571640458
 20
9.211591483982124
 30
0.0
 10
40.49088646300692
 20
9.14965321777713
 30
0.0
 10
40.76116709101191
 20
9.097996476443598
 30
0.0
  0
SPLINE
  5
18D
330
1F
100
AcDbEntity
  8
SK3
  6
SLD-Dashed
370
    18
100
AcDbSpline
210
0.0
220
0.0
230
1.0
 70
     8
 71
     3
 72
     8
 73
     4
 74
     0
 42
0.000000001
 43
0.00000001
 40
0.6874999999999996
 40
0.6874999999999996
 40
0.6874999999999996
 40
0.6874999999999996
 40
0.7187499999999996
 40
0.7187499999999996
 40
0.7187499999999996
 40
0.7187499999999996
 10
40.76116709101191
 20
9.097996476443598
 30
0.0
 10
41.0314477190169
 20
9.04633973511007
 30
0.0
 10
41.31186241386776
 20
9.00431038495081
 30
0.0
 10
41.60326088605759
 20
8.975195877443248
 30
0.0
  0
SPLINE
  5
18E
330
1F
100
AcDbEntity
  8
SK3
  6
SLD-Dashed
370
    18
100
AcDbSpline
210
0.0
220
0.0
230
1.0
 70
     8
 71
     3
 72
     8
 73
     4
 74
     0
 42
0.000000001
 43
0.00000001
 40
0.7187499999999996
 40
0.7187499999999996
 40
0.7187499999999996
 40
0.7187499999999996
 40
0.7343749999999996
 40
0.7343749999999996
 40
0.7343749999999996
 40
0.7343749999999996
 10
41.60326088605759
 20
8.975195877443248
 30
0.0
 10
41.74896012215251
 20
8.96063862368946
 30
0.0
 10
41.89842457738936
 20
8.949289305544061
 30
0.0
 10
42.04732298621283
 20
8.941751309380685
 30
0.0
  0
SPLINE
  5
18F
330
1F
100
AcDbEntity
  8
SK3
  6
SLD-Dashed
370
    18
100
AcDbSpline
210
0.0
220
0.0
230
1.0
 70
     8
 71
     3
 72
     8
 73
     4
 74
     0
 42
0.000000001
 43
0.00000001
 40
0.7343749999999996
 40
0.7343749999999996
 40
0.7343749999999996
 40
0.7343749999999996
 40
0.7499999999999994
 40
0.7499999999999994
 40
0.7499999999999994
 40
0.7499999999999994
 10
42.04732298621283
 20
8.941751309380685
 30
0.0
 10
42.19622139503633
 20
8.934213313217324
 30
0.0
 10
42.34493459710267
 20
8.930396614807254
 30
0.0
 10
42.49346605244175
 20
8.930287940065021
 30
0.0
  0
SPLINE
  5
190
330
1F
100
AcDbEntity
  8
SK3
  6
SLD-Dashed
370
    18
100
AcDbSpline
210
0.0
220
0.0
230
1.0
 70
     8
 71
     3
 72
     8
 73
     4
 74
     0
 42
0.000000001
 43
0.00000001
 40
0.7499999999999994
 40
0.7499999999999994
 40
0.7499999999999994
 40
0.7499999999999994
 40
0.7812499999999996
 40
0.7812499999999996
 40
0.7812499999999996
 40
0.7812499999999996
 10
42.49346605244175
 20
8.930287940065021
 30
0.0
 10
42.79052896311995
 20
8.930070590580556
 30
0.0
 10
43.08843783858998
 20
8.944873874520336
 30
0.0
 10
43.38224874502322
 20
8.973759682992133
 30
0.0
  0
SPLINE
  5
191
330
1F
100
AcDbEntity
  8
SK3
  6
SLD-Dashed
370
    18
100
AcDbSpline
210
0.0
220
0.0
230
1.0
 70
     8
 71
     3
 72
     8
 73
     4
 74
     0
 42
0.000000001
 43
0.00000001
 40
0.7812499999999996
 40
0.7812499999999996
 40
0.7812499999999996
 40
0.7812499999999996
 40
0.8124999999999997
 40
0.8124999999999997
 40
0.8124999999999997
 40
0.8124999999999997
 10
43.38224874502322
 20
8.973759682992133
 30
0.0
 10
43.67605965145645
 20
9.002645491463928
 30
0.0
 10
43.95821734534536
 20
9.04463019595391
 30
0.0
 10
44.22974733378086
 20
9.09626438922715
 30
0.0
  0
SPLINE
  5
192
330
1F
100
AcDbEntity
  8
SK3
  6
SLD-Dashed
370
    18
100
AcDbSpline
210
0.0
220
0.0
230
1.0
 70
     8
 71
     3
 72
     8
 73
     4
 74
     0
 42
0.000000001
 43
0.00000001
 40
0.8124999999999997
 40
0.8124999999999997
 40
0.8124999999999997
 40
0.8124999999999997
 40
0.8437499999999997
 40
0.8437499999999997
 40
0.8437499999999997
 40
0.8437499999999997
 10
44.22974733378086
 20
9.09626438922715
 30
0.0
 10
44.5012773222164
 20
9.147898582500389
 30
0.0
 10
44.76321714500934
 20
9.209667316646867
 30
0.0
 10
45.00496641999709
 20
9.27495858563869
 30
0.0
  0
SPLINE
  5
193
330
1F
100
AcDbEntity
  8
SK3
  6
SLD-Dashed
370
    18
100
AcDbSpline
210
0.0
220
0.0
230
1.0
 70
     8
 71
     3
 72
     8
 73
     4
 74
     0
 42
0.000000001
 43
0.00000001
 40
0.8437499999999997
 40
0.8437499999999997
 40
0.8437499999999997
 40
0.8437499999999997
 40
0.8749999999999998
 40
0.8749999999999998
 40
0.8749999999999998
 40
0.8749999999999998
 10
45.00496641999709
 20
9.27495858563869
 30
0.0
 10
45.2467156949848
 20
9.340249854630507
 30
0.0
 10
45.47107923491157
 20
9.409525168213264
 30
0.0
 10
45.6783960351016
 20
9.479040107307775
 30
0.0
  0
SPLINE
  5
194
330
1F
100
AcDbEntity
  8
SK3
  6
SLD-Dashed
370
    18
100
AcDbSpline
210
0.0
220
0.0
230
1.0
 70
     8
 71
     3
 72
     8
 73
     4
 74
     0
 42
0.000000001
 43
0.00000001
 40
0.8749999999999998
 40
0.8749999999999998
 40
0.8749999999999998
 40
0.8749999999999998
 40
0.9062499999999998
 40
0.9062499999999998
 40
0.9062499999999998
 40
0.9062499999999998
 10
45.6783960351016
 20
9.479040107307775
 30
0.0
 10
45.88571283529165
 20
9.548555046402285
 30
0.0
 10
46.07084545602978
 20
9.616576067180006
 30
0.0
 10
46.23306945322022
 20
9.679142913634767
 30
0.0
  0
SPLINE
  5
195
330
1F
100
AcDbEntity
  8
SK3
  6
SLD-Dashed
370
    18
100
AcDbSpline
210
0.0
220
0.0
230
1.0
 70
     8
 71
     3
 72
     8
 73
     4
 74
     0
 42
0.000000001
 43
0.00000001
 40
0.9062499999999998
 40
0.9062499999999998
 40
0.9062499999999998
 40
0.9062499999999998
 40
0.9374999999999999
 40
0.9374999999999999
 40
0.9374999999999999
 40
0.9374999999999999
 10
46.23306945322022
 20
9.679142913634767
 30
0.0
 10
46.39529345041068
 20
9.74170976008952
 30
0.0
 10
46.53631065433373
 20
9.79954353214027
 30
0.0
 10
46.65064598192944
 20
9.847733854410713
 30
0.0
  0
SPLINE
  5
196
330
1F
100
AcDbEntity
  8
SK3
  6
SLD-Dashed
370
    18
100
AcDbSpline
210
0.0
220
0.0
230
1.0
 70
     8
 71
     3
 72
     8
 73
     4
 74
     0
 42
0.000000001
 43
0.00000001
 40
0.9374999999999999
 40
0.9374999999999999
 40
0.9374999999999999
 40
0.9374999999999999
 40
0.9687499999999999
 40
0.9687499999999999
 40
0.9687499999999999
 40
0.9687499999999999
 10
46.65064598192944
 20
9.847733854410713
 30
0.0
 10
46.76498130952513
 20
9.895924176681156
 30
0.0
 10
46.85155221126485
 20
9.933943118279242
 30
0.0
 10
46.91036556380561
 20
9.959986164970424
 30
0.0
  0
SPLINE
  5
197
330
1F
100
AcDbEntity
  8
SK3
  6
SLD-Dashed
370
    18
100
AcDbSpline
210
0.0
220
0.0
230
1.0
 70
     8
 71
     2
 72
     6
 73
     3
 74
     0
 42
0.000000001
 43
0.00000001
 40
0.9687499999999999
 40
0.9687499999999999
 40
0.9687499999999999
 40
1.0
 40
1.0
 40
1.0
 10
46.91036556380558
 20
9.959986164970411
 30
0.0
 10
46.96917891634637
 20
9.986029211661608
 30
0.0
 10
47.0
 20
9.999999999999995
 30
0.0
  0
SPLINE
  5
198
330
1F
100
AcDbEntity
  8
SK3
  6
SLD-Dashed
370
    18
100
AcDbSpline
210
0.0
220
0.0
230
1.0
 70
     8
 71
     2
 72
     6
 73
     3
 74
     0
 42
0.000000001
 43
0.00000001
 40
0.0
 40
0.0
 40
0.0
 40
0.0312499999999999
 40
0.0312499999999999
 40
0.0312499999999999
 10
70.00000000000001
 20
9.999999999999995
 30
0.0
 10
69.9700060057356
 20
9.986401324136564
 30
0.0
 10
69.91159785628597
 20
9.960531895716551
 30
0.0
  0
SPLINE
  5
199
330
1F
100
AcDbEntity
  8
SK3
  6
SLD-Dashed
370
    18
100
AcDbSpline
210
0.0
220
0.0
230
1.0
 70
     8
 71
     3
 72
     8
 73
     4
 74
     0
 42
0.000000001
 43
0.00000001
 40
0.0312499999999999
 40
0.0312499999999999
 40
0.0312499999999999
 40
0.0312499999999999
 40
0.0624999999999999
 40
0.0624999999999999
 40
0.0624999999999999
 40
0.0624999999999999
 10
69.91159785628597
 20
9.960531895716551
 30
0.0
 10
69.85318970683636
 20
9.934662467296539
 30
0.0
 10
69.76477062144932
 20
9.895839236677611
 30
0.0
 10
69.65105187981405
 20
9.84790494008283
 30
0.0
  0
SPLINE
  5
19A
330
1F
100
AcDbEntity
  8
SK3
  6
SLD-Dashed
370
    18
100
AcDbSpline
210
0.0
220
0.0
230
1.0
 70
     8
 71
     3
 72
     8
 73
     4
 74
     0
 42
0.000000001
 43
0.00000001
 40
0.0624999999999999
 40
0.0624999999999999
 40
0.0624999999999999
 40
0.0624999999999999
 40
0.0937499999999998
 40
0.0937499999999998
 40
0.0937499999999998
 40
0.0937499999999998
 10
69.65105187981405
 20
9.84790494008283
 30
0.0
 10
69.53733313817878
 20
9.799970643488045
 30
0.0
 10
69.39874291481648
 20
9.743075060252778
 30
0.0
 10
69.23548294232356
 20
9.680074008621517
 30
0.0
  0
SPLINE
  5
19B
330
1F
100
AcDbEntity
  8
SK3
  6
SLD-Dashed
370
    18
100
AcDbSpline
210
0.0
220
0.0
230
1.0
 70
     8
 71
     3
 72
     8
 73
     4
 74
     0
 42
0.000000001
 43
0.00000001
 40
0.0937499999999998
 40
0.0937499999999998
 40
0.0937499999999998
 40
0.0937499999999998
 40
0.1249999999999998
 40
0.1249999999999998
 40
0.1249999999999998
 40
0.1249999999999998
 10
69.23548294232356
 20
9.680074008621517
 30
0.0
 10
69.07222296983062
 20
9.617072956990254
 30
0.0
 10
68.88534858972108
 20
9.548477079026146
 30
0.0
 10
68.68068824334316
 20
9.47980894856755
 30
0.0
  0
SPLINE
  5
19C
330
1F
100
AcDbEntity
  8
SK3
  6
SLD-Dashed
370
    18
100
AcDbSpline
210
0.0
220
0.0
230
1.0
 70
     8
 71
     3
 72
     8
 73
     4
 74
     0
 42
0.000000001
 43
0.00000001
 40
0.1249999999999998
 40
0.1249999999999998
 40
0.1249999999999998
 40
0.1249999999999998
 40
0.1562499999999997
 40
0.1562499999999997
 40
0.1562499999999997
 40
0.1562499999999997
 10
68.68068824334316
 20
9.47980894856755
 30
0.0
 10
68.47602789696526
 20
9.411140818108954
 30
0.0
 10
68.250750138663
 20
9.341403698474561
 30
0.0
 10
68.0075951867129
 20
9.275668904204462
 30
0.0
  0
SPLINE
  5
19D
330
1F
100
AcDbEntity
  8
SK3
  6
SLD-Dashed
370
    18
100
AcDbSpline
210
0.0
220
0.0
230
1.0
 70
     8
 71
     3
 72
     8
 73
     4
 74
     0
 42
0.000000001
 43
0.00000001
 40
0.1562499999999997
 40
0.1562499999999997
 40
0.1562499999999997
 40
0.1562499999999997
 40
0.1874999999999997
 40
0.1874999999999997
 40
0.1874999999999997
 40
0.1874999999999997
 10
68.0075951867129
 20
9.275668904204462
 30
0.0
 10
67.76444023476279
 20
9.209934109934355
 30
0.0
 10
67.50834498591087
 20
9.149505118940395
 30
0.0
 10
67.2387904704712
 20
9.097988365578479
 30
0.0
  0
SPLINE
  5
19E
330
1F
100
AcDbEntity
  8
SK3
  6
SLD-Dashed
370
    18
100
AcDbSpline
210
0.0
220
0.0
230
1.0
 70
     8
 71
     3
 72
     8
 73
     4
 74
     0
 42
0.000000001
 43
0.00000001
 40
0.1874999999999997
 40
0.1874999999999997
 40
0.1874999999999997
 40
0.1874999999999997
 40
0.2031249999999997
 40
0.2031249999999997
 40
0.2031249999999997
 40
0.2031249999999997
 10
67.2387904704712
 20
9.097988365578479
 30
0.0
 10
67.10401321275134
 20
9.07222998889752
 30
0.0
 10
66.9658465322812
 20
9.048703559865528
 30
0.0
 10
66.82406378871005
 20
9.027909221772955
 30
0.0
  0
SPLINE
  5
19F
330
1F
100
AcDbEntity
  8
SK3
  6
SLD-Dashed
370
    18
100
AcDbSpline
210
0.0
220
0.0
230
1.0
 70
     8
 71
     3
 72
     8
 73
     4
 74
     0
 42
0.000000001
 43
0.00000001
 40
0.2031249999999997
 40
0.2031249999999997
 40
0.2031249999999997
 40
0.2031249999999997
 40
0.2187499999999997
 40
0.2187499999999997
 40
0.2187499999999997
 40
0.2187499999999997
 10
66.82406378871005
 20
9.027909221772955
 30
0.0
 10
66.6822810451389
 20
9.007114883680389
 30
0.0
 10
66.53665242695365
 20
8.989086106806363
 30
0.0
 10
66.3910910941782
 20
8.974633326109961
 30
0.0
  0
SPLINE
  5
1A0
330
1F
100
AcDbEntity
  8
SK3
  6
SLD-Dashed
370
    18
100
AcDbSpline
210
0.0
220
0.0
230
1.0
 70
     8
 71
     3
 72
     8
 73
     4
 74
     0
 42
0.000000001
 43
0.00000001
 40
0.2187499999999997
 40
0.2187499999999997
 40
0.2187499999999997
 40
0.2187499999999997
 40
0.2499999999999997
 40
0.2499999999999997
 40
0.2499999999999997
 40
0.2499999999999997
 10
66.3910910941782
 20
8.974633326109961
 30
0.0
 10
66.09996842862728
 20
8.945727764717152
 30
0.0
 10
65.80545116265401
 20
8.930537420717872
 30
0.0
 10
65.50745476702883
 20
8.930288661266855
 30
0.0
  0
SPLINE
  5
1A1
330
1F
100
AcDbEntity
  8
SK3
  6
SLD-Dashed
370
    18
100
AcDbSpline
210
0.0
220
0.0
230
1.0
 70
     8
 71
     3
 72
     8
 73
     4
 74
     0
 42
0.000000001
 43
0.00000001
 40
0.2499999999999997
 40
0.2499999999999997
 40
0.2499999999999997
 40
0.2499999999999997
 40
0.2812499999999997
 40
0.2812499999999997
 40
0.2812499999999997
 40
0.2812499999999997
 10
65.50745476702883
 20
8.930288661266855
 30
0.0
 10
65.20945837140366
 20
8.930039901815832
 30
0.0
 10
64.9071042093652
 20
8.94527613088543
 30
0.0
 10
64.61662530158777
 20
8.973870450245794
 30
0.0
  0
SPLINE
  5
1A2
330
1F
100
AcDbEntity
  8
SK3
  6
SLD-Dashed
370
    18
100
AcDbSpline
210
0.0
220
0.0
230
1.0
 70
     8
 71
     3
 72
     8
 73
     4
 74
     0
 42
0.000000001
 43
0.00000001
 40
0.2812499999999997
 40
0.2812499999999997
 40
0.2812499999999997
 40
0.2812499999999997
 40
0.3124999999999996
 40
0.3124999999999996
 40
0.3124999999999996
 40
0.3124999999999996
 10
64.61662530158777
 20
8.973870450245794
 30
0.0
 10
64.32614639381035
 20
9.002464769606165
 30
0.0
 10
64.04206841154243
 20
9.044533688061698
 30
0.0
 10
63.76879242356929
 20
9.096542182208081
 30
0.0
  0
SPLINE
  5
1A3
330
1F
100
AcDbEntity
  8
SK3
  6
SLD-Dashed
370
    18
100
AcDbSpline
210
0.0
220
0.0
230
1.0
 70
     8
 71
     3
 72
     8
 73
     4
 74
     0
 42
0.000000001
 43
0.00000001
 40
0.3124999999999996
 40
0.3124999999999996
 40
0.3124999999999996
 40
0.3124999999999996
 40
0.3437499999999996
 40
0.3437499999999996
 40
0.3437499999999996
 40
0.3437499999999996
 10
63.76879242356929
 20
9.096542182208081
 30
0.0
 10
63.49551643559619
 20
9.148550676354464
 30
0.0
 10
63.23864249455635
 20
9.209205613470822
 30
0.0
 10
62.99670433878228
 20
9.274507489213185
 30
0.0
  0
SPLINE
  5
1A4
330
1F
100
AcDbEntity
  8
SK3
  6
SLD-Dashed
370
    18
100
AcDbSpline
210
0.0
220
0.0
230
1.0
 70
     8
 71
     3
 72
     8
 73
     4
 74
     0
 42
0.000000001
 43
0.00000001
 40
0.3437499999999996
 40
0.3437499999999996
 40
0.3437499999999996
 40
0.3437499999999996
 40
0.3749999999999996
 40
0.3749999999999996
 40
0.3749999999999996
 40
0.3749999999999996
 10
62.99670433878228
 20
9.274507489213185
 30
0.0
 10
62.75476618300819
 20
9.339809364955542
 30
0.0
 10
62.52667985418221
 20
9.410275203645165
 30
0.0
 10
62.3215331798277
 20
9.479063842328342
 30
0.0
  0
SPLINE
  5
1A5
330
1F
100
AcDbEntity
  8
SK3
  6
SLD-Dashed
370
    18
100
AcDbSpline
210
0.0
220
0.0
230
1.0
 70
     8
 71
     3
 72
     8
 73
     4
 74
     0
 42
0.000000001
 43
0.00000001
 40
0.3749999999999996
 40
0.3749999999999996
 40
0.3749999999999996
 40
0.3749999999999996
 40
0.4062499999999996
 40
0.4062499999999996
 40
0.4062499999999996
 40
0.4062499999999996
 10
62.3215331798277
 20
9.479063842328342
 30
0.0
 10
62.11638650547314
 20
9.547852481011503
 30
0.0
 10
61.93188528489731
 20
9.615541182315127
 30
0.0
 10
61.76819760221727
 20
9.678654303987551
 30
0.0
  0
SPLINE
  5
1A6
330
1F
100
AcDbEntity
  8
SK3
  6
SLD-Dashed
370
    18
100
AcDbSpline
210
0.0
220
0.0
230
1.0
 70
     8
 71
     3
 72
     8
 73
     4
 74
     0
 42
0.000000001
 43
0.00000001
 40
0.4062499999999996
 40
0.4062499999999996
 40
0.4062499999999996
 40
0.4062499999999996
 40
0.4374999999999996
 40
0.4374999999999996
 40
0.4374999999999996
 40
0.4374999999999996
 10
61.76819760221727
 20
9.678654303987551
 30
0.0
 10
61.6045099195372
 20
9.741767425659985
 30
0.0
 10
61.46391627503544
 20
9.799460133689708
 30
0.0
 10
61.35064144566658
 20
9.847191295614206
 30
0.0
  0
SPLINE
  5
1A7
330
1F
100
AcDbEntity
  8
SK3
  6
SLD-Dashed
370
    18
100
AcDbSpline
210
0.0
220
0.0
230
1.0
 70
     8
 71
     3
 72
     8
 73
     4
 74
     0
 42
0.000000001
 43
0.00000001
 40
0.4374999999999996
 40
0.4374999999999996
 40
0.4374999999999996
 40
0.4374999999999996
 40
0.4687499999999996
 40
0.4687499999999996
 40
0.4687499999999996
 40
0.4687499999999996
 10
61.35064144566658
 20
9.847191295614206
 30
0.0
 10
61.23736661629769
 20
9.894922457538701
 30
0.0
 10
61.14967950873437
 20
9.933399202760679
 30
0.0
 10
61.08994482330981
 20
9.959848726835759
 30
0.0
  0
SPLINE
  5
1A8
330
1F
100
AcDbEntity
  8
SK3
  6
SLD-Dashed
370
    18
100
AcDbSpline
210
0.0
220
0.0
230
1.0
 70
     8
 71
     3
 72
     8
 73
     4
 74
     0
 42
0.000000001
 43
0.00000001
 40
0.4687499999999996
 40
0.4687499999999996
 40
0.4687499999999996
 40
0.4687499999999996
 40
0.4999999999999996
 40
0.4999999999999996
 40
0.4999999999999996
 40
0.4999999999999996
 10
61.08994482330981
 20
9.959848726835759
 30
0.0
 10
61.03021013788523
 20
9.986298250910846
 30
0.0
 10
61.00054504362186
 20
9.999754730688329
 30
0.0
 10
61.00000736894824
 20
9.999996683975464
 30
0.0
  0
SPLINE
  5
1A9
330
1F
100
AcDbEntity
  8
SK3
  6
SLD-Dashed
370
    18
100
AcDbSpline
210
0.0
220
0.0
230
1.0
 70
     8
 71
     3
 72
     8
 73
     4
 74
     0
 42
0.000000001
 43
0.00000001
 40
0.4999999999999996
 40
0.4999999999999996
 40
0.4999999999999996
 40
0.4999999999999996
 40
0.5312499999999994
 40
0.5312499999999994
 40
0.5312499999999994
 40
0.5312499999999994
 10
61.00000736894824
 20
9.999996683975464
 30
0.0
 10
60.99946969427461
 20
10.0002386372626
 30
0.0
 10
61.02908190351329
 20
9.986809732863936
 30
0.0
 10
61.08746798428276
 20
9.960945677481133
 30
0.0
  0
SPLINE
  5
1AA
330
1F
100
AcDbEntity
  8
SK3
  6
SLD-Dashed
370
    18
100
AcDbSpline
210
0.0
220
0.0
230
1.0
 70
     8
 71
     3
 72
     8
 73
     4
 74
     0
 42
0.000000001
 43
0.00000001
 40
0.5312499999999994
 40
0.5312499999999994
 40
0.5312499999999994
 40
0.5312499999999994
 40
0.5624999999999994
 40
0.5624999999999994
 40
0.5624999999999994
 40
0.5624999999999994
 10
61.08746798428276
 20
9.960945677481133
 30
0.0
 10
61.14585406505221
 20
9.935081622098316
 30
0.0
 10
61.23214756500158
 20
9.897166878220515
 30
0.0
 10
61.34597664754232
 20
9.849157832665892
 30
0.0
  0
SPLINE
  5
1AB
330
1F
100
AcDbEntity
  8
SK3
  6
SLD-Dashed
370
    18
100
AcDbSpline
210
0.0
220
0.0
230
1.0
 70
     8
 71
     3
 72
     8
 73
     4
 74
     0
 42
0.000000001
 43
0.00000001
 40
0.5624999999999994
 40
0.5624999999999994
 40
0.5624999999999994
 40
0.5624999999999994
 40
0.5937499999999993
 40
0.5937499999999993
 40
0.5937499999999993
 40
0.5937499999999993
 10
61.34597664754232
 20
9.849157832665892
 30
0.0
 10
61.45980573008307
 20
9.801148787111268
 30
0.0
 10
61.60027084786147
 20
9.743485923376232
 30
0.0
 10
61.76240638833652
 20
9.680888699181898
 30
0.0
  0
SPLINE
  5
1AC
330
1F
100
AcDbEntity
  8
SK3
  6
SLD-Dashed
370
    18
100
AcDbSpline
210
0.0
220
0.0
230
1.0
 70
     8
 71
     3
 72
     8
 73
     4
 74
     0
 42
0.000000001
 43
0.00000001
 40
0.5937499999999993
 40
0.5937499999999993
 40
0.5937499999999993
 40
0.5937499999999993
 40
0.6249999999999992
 40
0.6249999999999992
 40
0.6249999999999992
 40
0.6249999999999992
 10
61.76240638833652
 20
9.680888699181898
 30
0.0
 10
61.92454192881157
 20
9.618291474987558
 30
0.0
 10
62.11121313759644
 20
9.549670570353747
 30
0.0
 10
62.31725451089014
 20
9.480499398684081
 30
0.0
  0
SPLINE
  5
1AD
330
1F
100
AcDbEntity
  8
SK3
  6
SLD-Dashed
370
    18
100
AcDbSpline
210
0.0
220
0.0
230
1.0
 70
     8
 71
     3
 72
     8
 73
     4
 74
     0
 42
0.000000001
 43
0.00000001
 40
0.6249999999999992
 40
0.6249999999999992
 40
0.6249999999999992
 40
0.6249999999999992
 40
0.6562499999999992
 40
0.6562499999999992
 40
0.6562499999999992
 40
0.6562499999999992
 10
62.31725451089014
 20
9.480499398684081
 30
0.0
 10
62.52329588418382
 20
9.411328227014417
 30
0.0
 10
62.74664665850645
 20
9.342218585225575
 30
0.0
 10
62.98783618745554
 20
9.27690503460385
 30
0.0
  0
SPLINE
  5
1AE
330
1F
100
AcDbEntity
  8
SK3
  6
SLD-Dashed
370
    18
100
AcDbSpline
210
0.0
220
0.0
230
1.0
 70
     8
 71
     3
 72
     8
 73
     4
 74
     0
 42
0.000000001
 43
0.00000001
 40
0.6562499999999992
 40
0.6562499999999992
 40
0.6562499999999992
 40
0.6562499999999992
 40
0.6874999999999991
 40
0.6874999999999991
 40
0.6874999999999991
 40
0.6874999999999991
 10
62.98783618745554
 20
9.27690503460385
 30
0.0
 10
63.22902571640457
 20
9.211591483982124
 30
0.0
 10
63.49088646300695
 20
9.149653217777123
 30
0.0
 10
63.76116709101191
 20
9.09799647644359
 30
0.0
  0
SPLINE
  5
1AF
330
1F
100
AcDbEntity
  8
SK3
  6
SLD-Dashed
370
    18
100
AcDbSpline
210
0.0
220
0.0
230
1.0
 70
     8
 71
     3
 72
     8
 73
     4
 74
     0
 42
0.000000001
 43
0.00000001
 40
0.6874999999999991
 40
0.6874999999999991
 40
0.6874999999999991
 40
0.6874999999999991
 40
0.7187499999999991
 40
0.7187499999999991
 40
0.7187499999999991
 40
0.7187499999999991
 10
63.76116709101191
 20
9.09799647644359
 30
0.0
 10
64.03144771901688
 20
9.04633973511007
 30
0.0
 10
64.31186241386774
 20
9.004310384950802
 30
0.0
 10
64.6032608860576
 20
8.975195877443241
 30
0.0
  0
SPLINE
  5
1B0
330
1F
100
AcDbEntity
  8
SK3
  6
SLD-Dashed
370
    18
100
AcDbSpline
210
0.0
220
0.0
230
1.0
 70
     8
 71
     3
 72
     8
 73
     4
 74
     0
 42
0.000000001
 43
0.00000001
 40
0.7187499999999991
 40
0.7187499999999991
 40
0.7187499999999991
 40
0.7187499999999991
 40
0.7343749999999998
 40
0.7343749999999998
 40
0.7343749999999998
 40
0.7343749999999998
 10
64.6032608860576
 20
8.975195877443241
 30
0.0
 10
64.74896012215254
 20
8.96063862368946
 30
0.0
 10
64.89842457738938
 20
8.949289305544054
 30
0.0
 10
65.04732298621289
 20
8.941751309380685
 30
0.0
  0
SPLINE
  5
1B1
330
1F
100
AcDbEntity
  8
SK3
  6
SLD-Dashed
370
    18
100
AcDbSpline
210
0.0
220
0.0
230
1.0
 70
     8
 71
     3
 72
     8
 73
     4
 74
     0
 42
0.000000001
 43
0.00000001
 40
0.7343749999999998
 40
0.7343749999999998
 40
0.7343749999999998
 40
0.7343749999999998
 40
0.7500000000000006
 40
0.7500000000000006
 40
0.7500000000000006
 40
0.7500000000000006
 10
65.04732298621289
 20
8.941751309380685
 30
0.0
 10
65.19622139503636
 20
8.934213313217324
 30
0.0
 10
65.34493459710268
 20
8.930396614807254
 30
0.0
 10
65.49346605244179
 20
8.930287940065014
 30
0.0
  0
SPLINE
  5
1B2
330
1F
100
AcDbEntity
  8
SK3
  6
SLD-Dashed
370
    18
100
AcDbSpline
210
0.0
220
0.0
230
1.0
 70
     8
 71
     3
 72
     8
 73
     4
 74
     0
 42
0.000000001
 43
0.00000001
 40
0.7500000000000006
 40
0.7500000000000006
 40
0.7500000000000006
 40
0.7500000000000006
 40
0.7812500000000004
 40
0.7812500000000004
 40
0.7812500000000004
 40
0.7812500000000004
 10
65.49346605244179
 20
8.930287940065014
 30
0.0
 10
65.79052896311997
 20
8.930070590580549
 30
0.0
 10
66.08843783858998
 20
8.944873874520336
 30
0.0
 10
66.38224874502319
 20
8.973759682992133
 30
0.0
  0
SPLINE
  5
1B3
330
1F
100
AcDbEntity
  8
SK3
  6
SLD-Dashed
370
    18
100
AcDbSpline
210
0.0
220
0.0
230
1.0
 70
     8
 71
     3
 72
     8
 73
     4
 74
     0
 42
0.000000001
 43
0.00000001
 40
0.7812500000000004
 40
0.7812500000000004
 40
0.7812500000000004
 40
0.7812500000000004
 40
0.8125000000000004
 40
0.8125000000000004
 40
0.8125000000000004
 40
0.8125000000000004
 10
66.38224874502319
 20
8.973759682992133
 30
0.0
 10
66.67605965145643
 20
9.002645491463936
 30
0.0
 10
66.95821734534539
 20
9.044630195953918
 30
0.0
 10
67.22974733378088
 20
9.09626438922715
 30
0.0
  0
SPLINE
  5
1B4
330
1F
100
AcDbEntity
  8
SK3
  6
SLD-Dashed
370
    18
100
AcDbSpline
210
0.0
220
0.0
230
1.0
 70
     8
 71
     3
 72
     8
 73
     4
 74
     0
 42
0.000000001
 43
0.00000001
 40
0.8125000000000004
 40
0.8125000000000004
 40
0.8125000000000004
 40
0.8125000000000004
 40
0.8437500000000003
 40
0.8437500000000003
 40
0.8437500000000003
 40
0.8437500000000003
 10
67.22974733378088
 20
9.09626438922715
 30
0.0
 10
67.5012773222164
 20
9.147898582500384
 30
0.0
 10
67.76321714500929
 20
9.209667316646867
 30
0.0
 10
68.00496641999706
 20
9.27495858563869
 30
0.0
  0
SPLINE
  5
1B5
330
1F
100
AcDbEntity
  8
SK3
  6
SLD-Dashed
370
    18
100
AcDbSpline
210
0.0
220
0.0
230
1.0
 70
     8
 71
     3
 72
     8
 73
     4
 74
     0
 42
0.000000001
 43
0.00000001
 40
0.8437500000000003
 40
0.8437500000000003
 40
0.8437500000000003
 40
0.8437500000000003
 40
0.8750000000000002
 40
0.8750000000000002
 40
0.8750000000000002
 40
0.8750000000000002
 10
68.00496641999706
 20
9.27495858563869
 30
0.0
 10
68.24671569498483
 20
9.340249854630507
 30
0.0
 10
68.47107923491154
 20
9.409525168213257
 30
0.0
 10
68.67839603510158
 20
9.479040107307775
 30
0.0
  0
SPLINE
  5
1B6
330
1F
100
AcDbEntity
  8
SK3
  6
SLD-Dashed
370
    18
100
AcDbSpline
210
0.0
220
0.0
230
1.0
 70
     8
 71
     3
 72
     8
 73
     4
 74
     0
 42
0.000000001
 43
0.00000001
 40
0.8750000000000002
 40
0.8750000000000002
 40
0.8750000000000002
 40
0.8750000000000002
 40
0.9062500000000002
 40
0.9062500000000002
 40
0.9062500000000002
 40
0.9062500000000002
 10
68.67839603510158
 20
9.479040107307775
 30
0.0
 10
68.88571283529166
 20
9.548555046402292
 30
0.0
 10
69.07084545602979
 20
9.616576067179999
 30
0.0
 10
69.23306945322028
 20
9.67914291363476
 30
0.0
  0
SPLINE
  5
1B7
330
1F
100
AcDbEntity
  8
SK3
  6
SLD-Dashed
370
    18
100
AcDbSpline
210
0.0
220
0.0
230
1.0
 70
     8
 71
     3
 72
     8
 73
     4
 74
     0
 42
0.000000001
 43
0.00000001
 40
0.9062500000000002
 40
0.9062500000000002
 40
0.9062500000000002
 40
0.9062500000000002
 40
0.9375000000000001
 40
0.9375000000000001
 40
0.9375000000000001
 40
0.9375000000000001
 10
69.23306945322028
 20
9.67914291363476
 30
0.0
 10
69.39529345041075
 20
9.74170976008952
 30
0.0
 10
69.53631065433376
 20
9.79954353214027
 30
0.0
 10
69.65064598192944
 20
9.847733854410713
 30
0.0
  0
SPLINE
  5
1B8
330
1F
100
AcDbEntity
  8
SK3
  6
SLD-Dashed
370
    18
100
AcDbSpline
210
0.0
220
0.0
230
1.0
 70
     8
 71
     3
 72
     8
 73
     4
 74
     0
 42
0.000000001
 43
0.00000001
 40
0.9375000000000001
 40
0.9375000000000001
 40
0.9375000000000001
 40
0.9375000000000001
 40
0.9687500000000001
 40
0.9687500000000001
 40
0.9687500000000001
 40
0.9687500000000001
 10
69.65064598192944
 20
9.847733854410713
 30
0.0
 10
69.76498130952514
 20
9.895924176681156
 30
0.0
 10
69.85155221126483
 20
9.933943118279242
 30
0.0
 10
69.91036556380564
 20
9.959986164970424
 30
0.0
  0
SPLINE
  5
1B9
330
1F
100
AcDbEntity
  8
SK3
  6
SLD-Dashed
370
    18
100
AcDbSpline
210
0.0
220
0.0
230
1.0
 70
     8
 71
     2
 72
     6
 73
     3
 74
     0
 42
0.000000001
 43
0.00000001
 40
0.9687500000000001
 40
0.9687500000000001
 40
0.9687500000000001
 40
1.0
 40
1.0
 40
1.0
 10
69.91036556380564
 20
9.959986164970424
 30
0.0
 10
69.96917891634644
 20
9.986029211661613
 30
0.0
 10
70.00000000000001
 20
9.999999999999995
 30
0.0
  0
SPLINE
  5
1BA
330
1F
100
AcDbEntity
  8
SK3
  6
SLD-Dashed
370
    18
100
AcDbSpline
210
0.0
220
0.0
230
1.0
 70
     8
 71
     2
 72
     6
 73
     3
 74
     0
 42
0.000000001
 43
0.00000001
 40
0.0
 40
0.0
 40
0.0
 40
0.0312499999999999
 40
0.0312499999999999
 40
0.0312499999999999
 10
70.00000000000001
 20
9.999999999999995
 30
0.0
 10
69.9700060057356
 20
9.986401324136564
 30
0.0
 10
69.91159785628597
 20
9.960531895716551
 30
0.0
  0
SPLINE
  5
1BB
330
1F
100
AcDbEntity
  8
SK3
  6
SLD-Dashed
370
    18
100
AcDbSpline
210
0.0
220
0.0
230
1.0
 70
     8
 71
     3
 72
     8
 73
     4
 74
     0
 42
0.000000001
 43
0.00000001
 40
0.0312499999999999
 40
0.0312499999999999
 40
0.0312499999999999
 40
0.0312499999999999
 40
0.0624999999999999
 40
0.0624999999999999
 40
0.0624999999999999
 40
0.0624999999999999
 10
69.91159785628597
 20
9.960531895716551
 30
0.0
 10
69.85318970683636
 20
9.934662467296539
 30
0.0
 10
69.76477062144932
 20
9.895839236677611
 30
0.0
 10
69.65105187981405
 20
9.84790494008283
 30
0.0
  0
SPLINE
  5
1BC
330
1F
100
AcDbEntity
  8
SK3
  6
SLD-Dashed
370
    18
100
AcDbSpline
210
0.0
220
0.0
230
1.0
 70
     8
 71
     3
 72
     8
 73
     4
 74
     0
 42
0.000000001
 43
0.00000001
 40
0.0624999999999999
 40
0.0624999999999999
 40
0.0624999999999999
 40
0.0624999999999999
 40
0.0937499999999998
 40
0.0937499999999998
 40
0.0937499999999998
 40
0.0937499999999998
 10
69.65105187981405
 20
9.84790494008283
 30
0.0
 10
69.53733313817878
 20
9.799970643488045
 30
0.0
 10
69.39874291481648
 20
9.743075060252778
 30
0.0
 10
69.23548294232356
 20
9.680074008621517
 30
0.0
  0
SPLINE
  5
1BD
330
1F
100
AcDbEntity
  8
SK3
  6
SLD-Dashed
370
    18
100
AcDbSpline
210
0.0
220
0.0
230
1.0
 70
     8
 71
     3
 72
     8
 73
     4
 74
     0
 42
0.000000001
 43
0.00000001
 40
0.0937499999999998
 40
0.0937499999999998
 40
0.0937499999999998
 40
0.0937499999999998
 40
0.1249999999999998
 40
0.1249999999999998
 40
0.1249999999999998
 40
0.1249999999999998
 10
69.23548294232356
 20
9.680074008621517
 30
0.0
 10
69.07222296983062
 20
9.617072956990254
 30
0.0
 10
68.88534858972108
 20
9.548477079026146
 30
0.0
 10
68.68068824334316
 20
9.47980894856755
 30
0.0
  0
SPLINE
  5
1BE
330
1F
100
AcDbEntity
  8
SK3
  6
SLD-Dashed
370
    18
100
AcDbSpline
210
0.0
220
0.0
230
1.0
 70
     8
 71
     3
 72
     8
 73
     4
 74
     0
 42
0.000000001
 43
0.00000001
 40
0.1249999999999998
 40
0.1249999999999998
 40
0.1249999999999998
 40
0.1249999999999998
 40
0.1562499999999997
 40
0.1562499999999997
 40
0.1562499999999997
 40
0.1562499999999997
 10
68.68068824334316
 20
9.47980894856755
 30
0.0
 10
68.47602789696526
 20
9.411140818108954
 30
0.0
 10
68.250750138663
 20
9.341403698474561
 30
0.0
 10
68.0075951867129
 20
9.275668904204462
 30
0.0
  0
SPLINE
  5
1BF
330
1F
100
AcDbEntity
  8
SK3
  6
SLD-Dashed
370
    18
100
AcDbSpline
210
0.0
220
0.0
230
1.0
 70
     8
 71
     3
 72
     8
 73
     4
 74
     0
 42
0.000000001
 43
0.00000001
 40
0.1562499999999997
 40
0.1562499999999997
 40
0.1562499999999997
 40
0.1562499999999997
 40
0.1874999999999997
 40
0.1874999999999997
 40
0.1874999999999997
 40
0.1874999999999997
 10
68.0075951867129
 20
9.275668904204462
 30
0.0
 10
67.76444023476279
 20
9.209934109934355
 30
0.0
 10
67.50834498591087
 20
9.149505118940395
 30
0.0
 10
67.2387904704712
 20
9.097988365578479
 30
0.0
  0
SPLINE
  5
1C0
330
1F
100
AcDbEntity
  8
SK3
  6
SLD-Dashed
370
    18
100
AcDbSpline
210
0.0
220
0.0
230
1.0
 70
     8
 71
     3
 72
     8
 73
     4
 74
     0
 42
0.000000001
 43
0.00000001
 40
0.1874999999999997
 40
0.1874999999999997
 40
0.1874999999999997
 40
0.1874999999999997
 40
0.2031249999999997
 40
0.2031249999999997
 40
0.2031249999999997
 40
0.2031249999999997
 10
67.2387904704712
 20
9.097988365578479
 30
0.0
 10
67.10401321275134
 20
9.07222998889752
 30
0.0
 10
66.9658465322812
 20
9.048703559865528
 30
0.0
 10
66.82406378871005
 20
9.027909221772955
 30
0.0
  0
SPLINE
  5
1C1
330
1F
100
AcDbEntity
  8
SK3
  6
SLD-Dashed
370
    18
100
AcDbSpline
210
0.0
220
0.0
230
1.0
 70
     8
 71
     3
 72
     8
 73
     4
 74
     0
 42
0.000000001
 43
0.00000001
 40
0.2031249999999997
 40
0.2031249999999997
 40
0.2031249999999997
 40
0.2031249999999997
 40
0.2187499999999997
 40
0.2187499999999997
 40
0.2187499999999997
 40
0.2187499999999997
 10
66.82406378871005
 20
9.027909221772955
 30
0.0
 10
66.6822810451389
 20
9.007114883680389
 30
0.0
 10
66.53665242695365
 20
8.989086106806363
 30
0.0
 10
66.3910910941782
 20
8.974633326109961
 30
0.0
  0
SPLINE
  5
1C2
330
1F
100
AcDbEntity
  8
SK3
  6
SLD-Dashed
370
    18
100
AcDbSpline
210
0.0
220
0.0
230
1.0
 70
     8
 71
     3
 72
     8
 73
     4
 74
     0
 42
0.000000001
 43
0.00000001
 40
0.2187499999999997
 40
0.2187499999999997
 40
0.2187499999999997
 40
0.2187499999999997
 40
0.2499999999999997
 40
0.2499999999999997
 40
0.2499999999999997
 40
0.2499999999999997
 10
66.3910910941782
 20
8.974633326109961
 30
0.0
 10
66.09996842862728
 20
8.945727764717152
 30
0.0
 10
65.80545116265401
 20
8.930537420717872
 30
0.0
 10
65.50745476702883
 20
8.930288661266855
 30
0.0
  0
SPLINE
  5
1C3
330
1F
100
AcDbEntity
  8
SK3
  6
SLD-Dashed
370
    18
100
AcDbSpline
210
0.0
220
0.0
230
1.0
 70
     8
 71
     3
 72
     8
 73
     4
 74
     0
 42
0.000000001
 43
0.00000001
 40
0.2499999999999997
 40
0.2499999999999997
 40
0.2499999999999997
 40
0.2499999999999997
 40
0.2812499999999997
 40
0.2812499999999997
 40
0.2812499999999997
 40
0.2812499999999997
 10
65.50745476702883
 20
8.930288661266855
 30
0.0
 10
65.20945837140366
 20
8.930039901815832
 30
0.0
 10
64.9071042093652
 20
8.94527613088543
 30
0.0
 10
64.61662530158777
 20
8.973870450245794
 30
0.0
  0
SPLINE
  5
1C4
330
1F
100
AcDbEntity
  8
SK3
  6
SLD-Dashed
370
    18
100
AcDbSpline
210
0.0
220
0.0
230
1.0
 70
     8
 71
     3
 72
     8
 73
     4
 74
     0
 42
0.000000001
 43
0.00000001
 40
0.2812499999999997
 40
0.2812499999999997
 40
0.2812499999999997
 40
0.2812499999999997
 40
0.3124999999999996
 40
0.3124999999999996
 40
0.3124999999999996
 40
0.3124999999999996
 10
64.61662530158777
 20
8.973870450245794
 30
0.0
 10
64.32614639381035
 20
9.002464769606165
 30
0.0
 10
64.04206841154243
 20
9.044533688061698
 30
0.0
 10
63.76879242356929
 20
9.096542182208081
 30
0.0
  0
SPLINE
  5
1C5
330
1F
100
AcDbEntity
  8
SK3
  6
SLD-Dashed
370
    18
100
AcDbSpline
210
0.0
220
0.0
230
1.0
 70
     8
 71
     3
 72
     8
 73
     4
 74
     0
 42
0.000000001
 43
0.00000001
 40
0.3124999999999996
 40
0.3124999999999996
 40
0.3124999999999996
 40
0.3124999999999996
 40
0.3437499999999996
 40
0.3437499999999996
 40
0.3437499999999996
 40
0.3437499999999996
 10
63.76879242356929
 20
9.096542182208081
 30
0.0
 10
63.49551643559619
 20
9.148550676354464
 30
0.0
 10
63.23864249455635
 20
9.209205613470822
 30
0.0
 10
62.99670433878228
 20
9.274507489213185
 30
0.0
  0
SPLINE
  5
1C6
330
1F
100
AcDbEntity
  8
SK3
  6
SLD-Dashed
370
    18
100
AcDbSpline
210
0.0
220
0.0
230
1.0
 70
     8
 71
     3
 72
     8
 73
     4
 74
     0
 42
0.000000001
 43
0.00000001
 40
0.3437499999999996
 40
0.3437499999999996
 40
0.3437499999999996
 40
0.3437499999999996
 40
0.3749999999999996
 40
0.3749999999999996
 40
0.3749999999999996
 40
0.3749999999999996
 10
62.99670433878228
 20
9.274507489213185
 30
0.0
 10
62.75476618300819
 20
9.339809364955542
 30
0.0
 10
62.52667985418221
 20
9.410275203645165
 30
0.0
 10
62.3215331798277
 20
9.479063842328342
 30
0.0
  0
SPLINE
  5
1C7
330
1F
100
AcDbEntity
  8
SK3
  6
SLD-Dashed
370
    18
100
AcDbSpline
210
0.0
220
0.0
230
1.0
 70
     8
 71
     3
 72
     8
 73
     4
 74
     0
 42
0.000000001
 43
0.00000001
 40
0.3749999999999996
 40
0.3749999999999996
 40
0.3749999999999996
 40
0.3749999999999996
 40
0.4062499999999996
 40
0.4062499999999996
 40
0.4062499999999996
 40
0.4062499999999996
 10
62.3215331798277
 20
9.479063842328342
 30
0.0
 10
62.11638650547314
 20
9.547852481011503
 30
0.0
 10
61.93188528489731
 20
9.615541182315127
 30
0.0
 10
61.76819760221727
 20
9.678654303987551
 30
0.0
  0
SPLINE
  5
1C8
330
1F
100
AcDbEntity
  8
SK3
  6
SLD-Dashed
370
    18
100
AcDbSpline
210
0.0
220
0.0
230
1.0
 70
     8
 71
     3
 72
     8
 73
     4
 74
     0
 42
0.000000001
 43
0.00000001
 40
0.4062499999999996
 40
0.4062499999999996
 40
0.4062499999999996
 40
0.4062499999999996
 40
0.4374999999999996
 40
0.4374999999999996
 40
0.4374999999999996
 40
0.4374999999999996
 10
61.76819760221727
 20
9.678654303987551
 30
0.0
 10
61.6045099195372
 20
9.741767425659985
 30
0.0
 10
61.46391627503544
 20
9.799460133689708
 30
0.0
 10
61.35064144566658
 20
9.847191295614206
 30
0.0
  0
SPLINE
  5
1C9
330
1F
100
AcDbEntity
  8
SK3
  6
SLD-Dashed
370
    18
100
AcDbSpline
210
0.0
220
0.0
230
1.0
 70
     8
 71
     3
 72
     8
 73
     4
 74
     0
 42
0.000000001
 43
0.00000001
 40
0.4374999999999996
 40
0.4374999999999996
 40
0.4374999999999996
 40
0.4374999999999996
 40
0.4687499999999996
 40
0.4687499999999996
 40
0.4687499999999996
 40
0.4687499999999996
 10
61.35064144566658
 20
9.847191295614206
 30
0.0
 10
61.23736661629769
 20
9.894922457538701
 30
0.0
 10
61.14967950873437
 20
9.933399202760679
 30
0.0
 10
61.08994482330981
 20
9.959848726835759
 30
0.0
  0
SPLINE
  5
1CA
330
1F
100
AcDbEntity
  8
SK3
  6
SLD-Dashed
370
    18
100
AcDbSpline
210
0.0
220
0.0
230
1.0
 70
     8
 71
     3
 72
     8
 73
     4
 74
     0
 42
0.000000001
 43
0.00000001
 40
0.4687499999999996
 40
0.4687499999999996
 40
0.4687499999999996
 40
0.4687499999999996
 40
0.4999999999999996
 40
0.4999999999999996
 40
0.4999999999999996
 40
0.4999999999999996
 10
61.08994482330981
 20
9.959848726835759
 30
0.0
 10
61.03021013788523
 20
9.986298250910846
 30
0.0
 10
61.00054504362186
 20
9.999754730688329
 30
0.0
 10
61.00000736894824
 20
9.999996683975464
 30
0.0
  0
SPLINE
  5
1CB
330
1F
100
AcDbEntity
  8
SK3
  6
SLD-Dashed
370
    18
100
AcDbSpline
210
0.0
220
0.0
230
1.0
 70
     8
 71
     3
 72
     8
 73
     4
 74
     0
 42
0.000000001
 43
0.00000001
 40
0.4999999999999996
 40
0.4999999999999996
 40
0.4999999999999996
 40
0.4999999999999996
 40
0.5312499999999994
 40
0.5312499999999994
 40
0.5312499999999994
 40
0.5312499999999994
 10
61.00000736894824
 20
9.999996683975464
 30
0.0
 10
60.99946969427461
 20
10.0002386372626
 30
0.0
 10
61.02908190351329
 20
9.986809732863936
 30
0.0
 10
61.08746798428276
 20
9.960945677481133
 30
0.0
  0
SPLINE
  5
1CC
330
1F
100
AcDbEntity
  8
SK3
  6
SLD-Dashed
370
    18
100
AcDbSpline
210
0.0
220
0.0
230
1.0
 70
     8
 71
     3
 72
     8
 73
     4
 74
     0
 42
0.000000001
 43
0.00000001
 40
0.5312499999999994
 40
0.5312499999999994
 40
0.5312499999999994
 40
0.5312499999999994
 40
0.5624999999999994
 40
0.5624999999999994
 40
0.5624999999999994
 40
0.5624999999999994
 10
61.08746798428276
 20
9.960945677481133
 30
0.0
 10
61.14585406505221
 20
9.935081622098316
 30
0.0
 10
61.23214756500158
 20
9.897166878220515
 30
0.0
 10
61.34597664754232
 20
9.849157832665892
 30
0.0
  0
SPLINE
  5
1CD
330
1F
100
AcDbEntity
  8
SK3
  6
SLD-Dashed
370
    18
100
AcDbSpline
210
0.0
220
0.0
230
1.0
 70
     8
 71
     3
 72
     8
 73
     4
 74
     0
 42
0.000000001
 43
0.00000001
 40
0.5624999999999994
 40
0.5624999999999994
 40
0.5624999999999994
 40
0.5624999999999994
 40
0.5937499999999993
 40
0.5937499999999993
 40
0.5937499999999993
 40
0.5937499999999993
 10
61.34597664754232
 20
9.849157832665892
 30
0.0
 10
61.45980573008307
 20
9.801148787111268
 30
0.0
 10
61.60027084786147
 20
9.743485923376232
 30
0.0
 10
61.76240638833652
 20
9.680888699181898
 30
0.0
  0
SPLINE
  5
1CE
330
1F
100
AcDbEntity
  8
SK3
  6
SLD-Dashed
370
    18
100
AcDbSpline
210
0.0
220
0.0
230
1.0
 70
     8
 71
     3
 72
     8
 73
     4
 74
     0
 42
0.000000001
 43
0.00000001
 40
0.5937499999999993
 40
0.5937499999999993
 40
0.5937499999999993
 40
0.5937499999999993
 40
0.6249999999999992
 40
0.6249999999999992
 40
0.6249999999999992
 40
0.6249999999999992
 10
61.76240638833652
 20
9.680888699181898
 30
0.0
 10
61.92454192881157
 20
9.618291474987558
 30
0.0
 10
62.11121313759644
 20
9.549670570353747
 30
0.0
 10
62.31725451089014
 20
9.480499398684081
 30
0.0
  0
SPLINE
  5
1CF
330
1F
100
AcDbEntity
  8
SK3
  6
SLD-Dashed
370
    18
100
AcDbSpline
210
0.0
220
0.0
230
1.0
 70
     8
 71
     3
 72
     8
 73
     4
 74
     0
 42
0.000000001
 43
0.00000001
 40
0.6249999999999992
 40
0.6249999999999992
 40
0.6249999999999992
 40
0.6249999999999992
 40
0.6562499999999992
 40
0.6562499999999992
 40
0.6562499999999992
 40
0.6562499999999992
 10
62.31725451089014
 20
9.480499398684081
 30
0.0
 10
62.52329588418382
 20
9.411328227014417
 30
0.0
 10
62.74664665850645
 20
9.342218585225575
 30
0.0
 10
62.98783618745554
 20
9.27690503460385
 30
0.0
  0
SPLINE
  5
1D0
330
1F
100
AcDbEntity
  8
SK3
  6
SLD-Dashed
370
    18
100
AcDbSpline
210
0.0
220
0.0
230
1.0
 70
     8
 71
     3
 72
     8
 73
     4
 74
     0
 42
0.000000001
 43
0.00000001
 40
0.6562499999999992
 40
0.6562499999999992
 40
0.6562499999999992
 40
0.6562499999999992
 40
0.6874999999999991
 40
0.6874999999999991
 40
0.6874999999999991
 40
0.6874999999999991
 10
62.98783618745554
 20
9.27690503460385
 30
0.0
 10
63.22902571640457
 20
9.211591483982124
 30
0.0
 10
63.49088646300695
 20
9.149653217777123
 30
0.0
 10
63.76116709101191
 20
9.09799647644359
 30
0.0
  0
SPLINE
  5
1D1
330
1F
100
AcDbEntity
  8
SK3
  6
SLD-Dashed
370
    18
100
AcDbSpline
210
0.0
220
0.0
230
1.0
 70
     8
 71
     3
 72
     8
 73
     4
 74
     0
 42
0.000000001
 43
0.00000001
 40
0.6874999999999991
 40
0.6874999999999991
 40
0.6874999999999991
 40
0.6874999999999991
 40
0.7187499999999991
 40
0.7187499999999991
 40
0.7187499999999991
 40
0.7187499999999991
 10
63.76116709101191
 20
9.09799647644359
 30
0.0
 10
64.03144771901688
 20
9.04633973511007
 30
0.0
 10
64.31186241386774
 20
9.004310384950802
 30
0.0
 10
64.6032608860576
 20
8.975195877443241
 30
0.0
  0
SPLINE
  5
1D2
330
1F
100
AcDbEntity
  8
SK3
  6
SLD-Dashed
370
    18
100
AcDbSpline
210
0.0
220
0.0
230
1.0
 70
     8
 71
     3
 72
     8
 73
     4
 74
     0
 42
0.000000001
 43
0.00000001
 40
0.7187499999999991
 40
0.7187499999999991
 40
0.7187499999999991
 40
0.7187499999999991
 40
0.7343749999999998
 40
0.7343749999999998
 40
0.7343749999999998
 40
0.7343749999999998
 10
64.6032608860576
 20
8.975195877443241
 30
0.0
 10
64.74896012215254
 20
8.96063862368946
 30
0.0
 10
64.89842457738938
 20
8.949289305544054
 30
0.0
 10
65.04732298621289
 20
8.941751309380685
 30
0.0
  0
SPLINE
  5
1D3
330
1F
100
AcDbEntity
  8
SK3
  6
SLD-Dashed
370
    18
100
AcDbSpline
210
0.0
220
0.0
230
1.0
 70
     8
 71
     3
 72
     8
 73
     4
 74
     0
 42
0.000000001
 43
0.00000001
 40
0.7343749999999998
 40
0.7343749999999998
 40
0.7343749999999998
 40
0.7343749999999998
 40
0.7500000000000006
 40
0.7500000000000006
 40
0.7500000000000006
 40
0.7500000000000006
 10
65.04732298621289
 20
8.941751309380685
 30
0.0
 10
65.19622139503636
 20
8.934213313217324
 30
0.0
 10
65.34493459710268
 20
8.930396614807254
 30
0.0
 10
65.49346605244179
 20
8.930287940065014
 30
0.0
  0
SPLINE
  5
1D4
330
1F
100
AcDbEntity
  8
SK3
  6
SLD-Dashed
370
    18
100
AcDbSpline
210
0.0
220
0.0
230
1.0
 70
     8
 71
     3
 72
     8
 73
     4
 74
     0
 42
0.000000001
 43
0.00000001
 40
0.7500000000000006
 40
0.7500000000000006
 40
0.7500000000000006
 40
0.7500000000000006
 40
0.7812500000000004
 40
0.7812500000000004
 40
0.7812500000000004
 40
0.7812500000000004
 10
65.49346605244179
 20
8.930287940065014
 30
0.0
 10
65.79052896311997
 20
8.930070590580549
 30
0.0
 10
66.08843783858998
 20
8.944873874520336
 30
0.0
 10
66.38224874502319
 20
8.973759682992133
 30
0.0
  0
SPLINE
  5
1D5
330
1F
100
AcDbEntity
  8
SK3
  6
SLD-Dashed
370
    18
100
AcDbSpline
210
0.0
220
0.0
230
1.0
 70
     8
 71
     3
 72
     8
 73
     4
 74
     0
 42
0.000000001
 43
0.00000001
 40
0.7812500000000004
 40
0.7812500000000004
 40
0.7812500000000004
 40
0.7812500000000004
 40
0.8125000000000004
 40
0.8125000000000004
 40
0.8125000000000004
 40
0.8125000000000004
 10
66.38224874502319
 20
8.973759682992133
 30
0.0
 10
66.67605965145643
 20
9.002645491463936
 30
0.0
 10
66.95821734534539
 20
9.044630195953918
 30
0.0
 10
67.22974733378088
 20
9.09626438922715
 30
0.0
  0
SPLINE
  5
1D6
330
1F
100
AcDbEntity
  8
SK3
  6
SLD-Dashed
370
    18
100
AcDbSpline
210
0.0
220
0.0
230
1.0
 70
     8
 71
     3
 72
     8
 73
     4
 74
     0
 42
0.000000001
 43
0.00000001
 40
0.8125000000000004
 40
0.8125000000000004
 40
0.8125000000000004
 40
0.8125000000000004
 40
0.8437500000000003
 40
0.8437500000000003
 40
0.8437500000000003
 40
0.8437500000000003
 10
67.22974733378088
 20
9.09626438922715
 30
0.0
 10
67.5012773222164
 20
9.147898582500384
 30
0.0
 10
67.76321714500929
 20
9.209667316646867
 30
0.0
 10
68.00496641999706
 20
9.27495858563869
 30
0.0
  0
SPLINE
  5
1D7
330
1F
100
AcDbEntity
  8
SK3
  6
SLD-Dashed
370
    18
100
AcDbSpline
210
0.0
220
0.0
230
1.0
 70
     8
 71
     3
 72
     8
 73
     4
 74
     0
 42
0.000000001
 43
0.00000001
 40
0.8437500000000003
 40
0.8437500000000003
 40
0.8437500000000003
 40
0.8437500000000003
 40
0.8750000000000002
 40
0.8750000000000002
 40
0.8750000000000002
 40
0.8750000000000002
 10
68.00496641999706
 20
9.27495858563869
 30
0.0
 10
68.24671569498483
 20
9.340249854630507
 30
0.0
 10
68.47107923491154
 20
9.409525168213257
 30
0.0
 10
68.67839603510158
 20
9.479040107307775
 30
0.0
  0
SPLINE
  5
1D8
330
1F
100
AcDbEntity
  8
SK3
  6
SLD-Dashed
370
    18
100
AcDbSpline
210
0.0
220
0.0
230
1.0
 70
     8
 71
     3
 72
     8
 73
     4
 74
     0
 42
0.000000001
 43
0.00000001
 40
0.8750000000000002
 40
0.8750000000000002
 40
0.8750000000000002
 40
0.8750000000000002
 40
0.9062500000000002
 40
0.9062500000000002
 40
0.9062500000000002
 40
0.9062500000000002
 10
68.67839603510158
 20
9.479040107307775
 30
0.0
 10
68.88571283529166
 20
9.548555046402292
 30
0.0
 10
69.07084545602979
 20
9.616576067179999
 30
0.0
 10
69.23306945322028
 20
9.67914291363476
 30
0.0
  0
SPLINE
  5
1D9
330
1F
100
AcDbEntity
  8
SK3
  6
SLD-Dashed
370
    18
100
AcDbSpline
210
0.0
220
0.0
230
1.0
 70
     8
 71
     3
 72
     8
 73
     4
 74
     0
 42
0.000000001
 43
0.00000001
 40
0.9062500000000002
 40
0.9062500000000002
 40
0.9062500000000002
 40
0.9062500000000002
 40
0.9375000000000001
 40
0.9375000000000001
 40
0.9375000000000001
 40
0.9375000000000001
 10
69.23306945322028
 20
9.67914291363476
 30
0.0
 10
69.39529345041075
 20
9.74170976008952
 30
0.0
 10
69.53631065433376
 20
9.79954353214027
 30
0.0
 10
69.65064598192944
 20
9.847733854410713
 30
0.0
  0
SPLINE
  5
1DA
330
1F
100
AcDbEntity
  8
SK3
  6
SLD-Dashed
370
    18
100
AcDbSpline
210
0.0
220
0.0
230
1.0
 70
     8
 71
     3
 72
     8
 73
     4
 74
     0
 42
0.000000001
 43
0.00000001
 40
0.9375000000000001
 40
0.9375000000000001
 40
0.9375000000000001
 40
0.9375000000000001
 40
0.9687500000000001
 40
0.9687500000000001
 40
0.9687500000000001
 40
0.9687500000000001
 10
69.65064598192944
 20
9.847733854410713
 30
0.0
 10
69.76498130952514
 20
9.895924176681156
 30
0.0
 10
69.85155221126483
 20
9.933943118279242
 30
0.0
 10
69.91036556380564
 20
9.959986164970424
 30
0.0
  0
SPLINE
  5
1DB
330
1F
100
AcDbEntity
  8
SK3
  6
SLD-Dashed
370
    18
100
AcDbSpline
210
0.0
220
0.0
230
1.0
 70
     8
 71
     2
 72
     6
 73
     3
 74
     0
 42
0.000000001
 43
0.00000001
 40
0.9687500000000001
 40
0.9687500000000001
 40
0.9687500000000001
 40
1.0
 40
1.0
 40
1.0
 10
69.91036556380564
 20
9.959986164970424
 30
0.0
 10
69.96917891634644
 20
9.986029211661613
 30
0.0
 10
70.00000000000001
 20
9.999999999999995
 30
0.0
  0
SPLINE
  5
1DC
330
1F
100
AcDbEntity
  8
SK3
  6
SLD-Dashed
370
    18
100
AcDbSpline
210
0.0
220
0.0
230
1.0
 70
    24
 71
     2
 72
     6
 73
     3
 74
     0
 42
0.000000001
 43
0.00000001
 40
0.0
 40
0.0
 40
0.0
 40
0.2500000000000007
 40
0.2500000000000007
 40
0.2500000000000007
 10
2.374999999998822
 20
-16.14999999999988
 30
0.0
 10
2.357424479332223
 20
-16.14999999999993
 30
0.0
 10
2.331652105107224
 20
-16.15
 30
0.0
  0
SPLINE
  5
1DD
330
1F
100
AcDbEntity
  8
SK3
  6
SLD-Dashed
370
    18
100
AcDbSpline
210
0.0
220
0.0
230
1.0
 70
    24
 71
     3
 72
     8
 73
     4
 74
     0
 42
0.000000001
 43
0.00000001
 40
0.2500000000000007
 40
0.2500000000000007
 40
0.2500000000000007
 40
0.2500000000000007
 40
0.5000000000000014
 40
0.5000000000000014
 40
0.5000000000000014
 40
0.5000000000000014
 10
2.331652105107225
 20
-16.15
 30
0.0
 10
2.305879730881546
 20
-16.15
 30
0.0
 10
2.272790772310303
 20
-16.15
 30
0.0
 10
2.236965951746446
 20
-16.15
 30
0.0
  0
SPLINE
  5
1DE
330
1F
100
AcDbEntity
  8
SK3
  6
SLD-Dashed
370
    18
100
AcDbSpline
210
0.0
220
0.0
230
1.0
 70
    24
 71
     3
 72
     8
 73
     4
 74
     0
 42
0.000000001
 43
0.00000001
 40
0.5000000000000014
 40
0.5000000000000014
 40
0.5000000000000014
 40
0.5000000000000014
 40
1.0
 40
1.0
 40
1.0
 40
1.0
 10
2.236965951746445
 20
-16.15
 30
0.0
 10
2.165316310618725
 20
-16.15
 30
0.0
 10
2.083397657057318
 20
-16.15
 30
0.0
 10
2.000000000000001
 20
-16.15
 30
0.0
  0
SPLINE
  5
1DF
330
1F
100
AcDbEntity
  8
SK3
  6
SLD-Dashed
370
    18
100
AcDbSpline
210
0.0
220
0.0
230
1.0
 70
    24
 71
     3
 72
     8
 73
     4
 74
     0
 42
0.000000001
 43
0.00000001
 40
0.0
 40
0.0
 40
0.0
 40
0.0
 40
0.4999999999999991
 40
0.4999999999999991
 40
0.4999999999999991
 40
0.4999999999999991
 10
2.000000000000002
 20
16.15
 30
0.0
 10
2.083477230592455
 20
16.15
 30
0.0
 10
2.165250237669232
 20
16.15
 30
0.0
 10
2.237167806898754
 20
16.14999999999999
 30
0.0
  0
SPLINE
  5
1E0
330
1F
100
AcDbEntity
  8
SK3
  6
SLD-Dashed
370
    18
100
AcDbSpline
210
0.0
220
0.0
230
1.0
 70
    24
 71
     3
 72
     8
 73
     4
 74
     0
 42
0.000000001
 43
0.00000001
 40
0.4999999999999991
 40
0.4999999999999991
 40
0.4999999999999991
 40
0.4999999999999991
 40
0.7499999999999996
 40
0.7499999999999996
 40
0.7499999999999996
 40
0.7499999999999996
 10
2.237167806898754
 20
16.14999999999999
 30
0.0
 10
2.273126591513519
 20
16.14999999999999
 30
0.0
 10
2.306332390229773
 20
16.15
 30
0.0
 10
2.33212347818193
 20
16.15
 30
0.0
  0
SPLINE
  5
1E1
330
1F
100
AcDbEntity
  8
SK3
  6
SLD-Dashed
370
    18
100
AcDbSpline
210
0.0
220
0.0
230
1.0
 70
    24
 71
     2
 72
     6
 73
     3
 74
     0
 42
0.000000001
 43
0.00000001
 40
0.7499999999999996
 40
0.7499999999999996
 40
0.7499999999999996
 40
1.0
 40
1.0
 40
1.0
 10
2.33212347818193
 20
16.15
 30
0.0
 10
2.357914566135509
 20
16.14999999999993
 30
0.0
 10
2.375000000002375
 20
16.14999999999988
 30
0.0
  0
SPLINE
  5
1E2
330
1F
100
AcDbEntity
  8
SK3
  6
SLD-Dashed
370
    18
100
AcDbSpline
210
0.0
220
0.0
230
1.0
 70
     8
 71
     3
 72
   135
 73
   131
 74
     0
 42
0.000000001
 43
0.00000001
 40
0.0
 40
0.0
 40
0.0
 40
0.0
 40
0.0078951982393524
 40
0.0157833990815797
 40
0.0236661583325545
 40
0.0315450276558374
 40
0.0394215536578481
 40
0.0472972769807245
 40
0.0551737314055242
 40
0.0630524429683423
 40
0.0709361420252802
 40
0.0788238506165626
 40
0.0867114970578734
 40
0.0945949853785667
 40
0.1024702009748936
 40
0.1103330161809894
 40
0.118179295800649
 40
0.1260049026432136
 40
0.1338144185139057
 40
0.1416157577181248
 40
0.1494097843206429
 40
0.1571973533785412
 40
0.1649793107925672
 40
0.1727564931678849
 40
0.1805297276843968
 40
0.1882998319767583
 40
0.1960689634516307
 40
0.2038394066750543
 40
0.2116121599443825
 40
0.2193882168908451
 40
0.2271685661675191
 40
0.2349541911443192
 40
0.2427460696105449
 40
0.2505451734854157
 40
0.2583560389769978
 40
0.2661816682492645
 40
0.2740207179477663
 40
0.2818718384852985
 40
0.2897398161259759
 40
0.2976220237011045
 40
0.3055059714812885
 40
0.3133791644923736
 40
0.3212337892771695
 40
0.3290715795460237
 40
0.3368943590106009
 40
0.3447039336858164
 40
0.3525020907647742
 40
0.3602905975277129
 40
0.368071200288327
 40
0.3758456233809293
 40
0.3836149515197326
 40
0.3913799673450714
 40
0.3991419179764465
 40
0.4069020408937741
 40
0.4146615633665811
 40
0.4224217018986573
 40
0.4301836616894278
 40
0.4379486361132865
 40
0.4457178041747071
 40
0.453492354878297
 40
0.4612734845178467
 40
0.4690623859410031
 40
0.4768602480146577
 40
0.4846682550990531
 40
0.4924875865316398
 40
0.5003194161219487
 40
0.5081666757724802
 40
0.5160277245387401
 40
0.523896844246186
 40
0.531768293285921
 40
0.5396363123876077
 40
0.54749513025478
 40
0.5553389691239733
 40
0.5631620503089647
 40
0.5709692396794516
 40
0.5787695195195895
 40
0.5865632874583466
 40
0.5943509306973018
 40
0.6021328261576694
 40
0.609909340633033
 40
0.6176808309473595
 40
0.6254476441182948
 40
0.6332112109189824
 40
0.6409734299116701
 40
0.6487353400818778
 40
0.6564979753301944
 40
0.6642623640685653
 40
0.6720295288240181
 40
0.6798004858505622
 40
0.687576244750087
 40
0.6953571763089855
 40
0.7031440250676182
 40
0.7109383589363509
 40
0.7187417487530928
 40
0.7265557674545672
 40
0.7343819892484097
 40
0.7422219887881237
 40
0.7500773403536266
 40
0.757946303854078
 40
0.7658199527656733
 40
0.7736890660567212
 40
0.7815444132482979
 40
0.7893857016324152
 40
0.7972179773014059
 40
0.8050400117016581
 40
0.8128505691914264
 40
0.8206517083128055
 40
0.8284467116860025
 40
0.8362361730772596
 40
0.8440206808483218
 40
0.8518008178782722
 40
0.8595771614892189
 40
0.8673502833759359
 40
0.875120749539433
 40
0.882890052742591
 40
0.8906599012669876
 40
0.8984311852507825
 40
0.9062047991389616
 40
0.9139816413792597
 40
0.9217626141140584
 40
0.9295486228685668
 40
0.9373405762358665
 40
0.9451393855595517
 40
0.952945964614197
 40
0.9607612292845591
 40
0.9685860972437288
 40
0.9764214876311387
 40
0.9842683207307235
 40
0.9921275176499073
 40
1.0
 40
1.0
 40
1.0
 40
1.0
 10
2.749999999999996
 20
-20.96694064473884
 30
0.0
 10
2.748386932988109
 20
-20.96693412668374
 30
0.0
 10
2.745162228601695
 20
-20.96692109635042
 30
0.0
 10
2.740327935035605
 20
-20.96681635618189
 30
0.0
 10
2.73549884579212
 20
-20.96664936228252
 30
0.0
 10
2.730674939779361
 20
-20.96641411424435
 30
0.0
 10
2.725856196269798
 20
-20.9661123499293
 30
0.0
 10
2.721042592465792
 20
-20.96574375362826
 30
0.0
 10
2.716234113438569
 20
-20.96530849229222
 30
0.0
 10
2.711430468306658
 20
-20.96480682914904
 30
0.0
 10
2.70663198229857
 20
-20.96423810083629
 30
0.0
 10
2.701840100384482
 20
-20.96360216141529
 30
0.0
 10
2.69705752219452
 20
-20.96289998125092
 30
0.0
 10
2.692287601094898
 20
-20.96213233152723
 30
0.0
 10
2.687533680794996
 20
-20.96130006151725
 30
0.0
 10
2.682799111628165
 20
-20.9604039812235
 30
0.0
 10
2.678087227169342
 20
-20.95944497957066
 30
0.0
 10
2.673399681297921
 20
-20.95842329083701
 30
0.0
 10
2.668735533089175
 20
-20.95733950422962
 30
0.0
 10
2.664092730874923
 20
-20.95619429960284
 30
0.0
 10
2.659470212895677
 20
-20.95498741326914
 30
0.0
 10
2.654868256742868
 20
-20.95371917939094
 30
0.0
 10
2.650287156475168
 20
-20.95238985960622
 30
0.0
 10
2.645727202121556
 20
-20.950999733829
 30
0.0
 10
2.641188683335294
 20
-20.94954908132722
 30
0.0
 10
2.636671633777267
 20
-20.94803807826957
 30
0.0
 10
2.63217578425208
 20
-20.94646684807419
 30
0.0
 10
2.627700848839773
 20
-20.94483542776588
 30
0.0
 10
2.623246791933751
 20
-20.9431438504103
 30
0.0
 10
2.618813818919485
 20
-20.94139225316351
 30
0.0
 10
2.614402137931148
 20
-20.93958076611619
 30
0.0
 10
2.610011952313057
 20
-20.93770952999349
 30
0.0
 10
2.605643481781966
 20
-20.93577865006099
 30
0.0
 10
2.601296221959967
 20
-20.93378805928392
 30
0.0
 10
2.596969536931164
 20
-20.93173698153452
 30
0.0
 10
2.592663187819706
 20
-20.92962494434754
 30
0.0
 10
2.588377838543432
 20
-20.92745237171215
 30
0.0
 10
2.584113825118743
 20
-20.92521950337011
 30
0.0
 10
2.579872026011593
 20
-20.9229261156086
 30
0.0
 10
2.575655099082335
 20
-20.92057351612105
 30
0.0
 10
2.571468539605728
 20
-20.91816515424037
 30
0.0
 10
2.567318995598193
 20
-20.91570459062528
 30
0.0
 10
2.563210186279176
 20
-20.91319464279918
 30
0.0
 10
2.559142990685555
 20
-20.91063710962093
 30
0.0
 10
2.555117054485176
 20
-20.90803201171124
 30
0.0
 10
2.551131880122293
 20
-20.90537956448615
 30
0.0
 10
2.547187003357903
 20
-20.90267992822864
 30
0.0
 10
2.54328195076857
 20
-20.89993327832062
 30
0.0
 10
2.539416252215175
 20
-20.89713978485208
 30
0.0
 10
2.535589534540132
 20
-20.89429969918736
 30
0.0
 10
2.531801578953489
 20
-20.89141336986813
 30
0.0
 10
2.528052389719385
 20
-20.88848099598039
 30
0.0
 10
2.52434192504087
 20
-20.88550277801671
 30
0.0
 10
2.520670069597053
 20
-20.88247885287851
 30
0.0
 10
2.517036707457315
 20
-20.87940935843692
 30
0.0
 10
2.513441721592437
 20
-20.87629443367893
 30
0.0
 10
2.509884999867249
 20
-20.87313421219472
 30
0.0
 10
2.506366411857197
 20
-20.86992884836607
 30
0.0
 10
2.502885893451434
 20
-20.86667841702285
 30
0.0
 10
2.499443496673248
 20
-20.86338286488015
 30
0.0
 10
2.496039200414225
 20
-20.86004221149992
 30
0.0
 10
2.492672999633454
 20
-20.85665645564436
 30
0.0
 10
2.489344888556455
 20
-20.85322559770364
 30
0.0
 10
2.48605484661487
 20
-20.84974965102374
 30
0.0
 10
2.482802913178997
 20
-20.84622857542632
 30
0.0
 10
2.479588660775897
 20
-20.84266226460065
 30
0.0
 10
2.47641289896948
 20
-20.83905027431049
 30
0.0
 10
2.473277022220964
 20
-20.83539356243411
 30
0.0
 10
2.470182784797804
 20
-20.83169510683786
 30
0.0
 10
2.467132716327245
 20
-20.8279583048644
 30
0.0
 10
2.464129280432388
 20
-20.82418661137455
 30
0.0
 10
2.461174974750936
 20
-20.82038345382947
 30
0.0
 10
2.458272226691635
 20
-20.81655231213391
 30
0.0
 10
2.455422417577381
 20
-20.81269473630942
 30
0.0
 10
2.452624353629973
 20
-20.80881043318718
 30
0.0
 10
2.449875728141808
 20
-20.80489830996246
 30
0.0
 10
2.447175765558189
 20
-20.80095728414182
 30
0.0
 10
2.444524469661251
 20
-20.7969878723655
 30
0.0
 10
2.441921908910918
 20
-20.79299054416732
 30
0.0
 10
2.439368137327765
 20
-20.78896577996611
 30
0.0
 10
2.436863202090765
 20
-20.78491406365746
 30
0.0
 10
2.434407076875318
 20
-20.7808356629807
 30
0.0
 10
2.431999423028519
 20
-20.7767306584637
 30
0.0
 10
2.429639896605794
 20
-20.77259895701655
 30
0.0
 10
2.427328362910576
 20
-20.76844043316216
 30
0.0
 10
2.425064732499683
 20
-20.76425513744848
 30
0.0
 10
2.42284892732076
 20
-20.76004311369696
 30
0.0
 10
2.420680866793479
 20
-20.75580440728715
 30
0.0
 10
2.418560468984671
 20
-20.75153906409722
 30
0.0
 10
2.416487715972755
 20
-20.74724724268672
 30
0.0
 10
2.414462575365178
 20
-20.74292916455892
 30
0.0
 10
2.412485163303543
 20
-20.73858485200405
 30
0.0
 10
2.410555513151939
 20
-20.73421409866629
 30
0.0
 10
2.408673578278966
 20
-20.72981655048766
 30
0.0
 10
2.406839316862266
 20
-20.72539185146352
 30
0.0
 10
2.405052676585716
 20
-20.72093964952396
 30
0.0
 10
2.403313642240765
 20
-20.71645957882149
 30
0.0
 10
2.401622297986919
 20
-20.7119519586318
 30
0.0
 10
2.399979944082434
 20
-20.70741894461687
 30
0.0
 10
2.398388285020134
 20
-20.70286490545133
 30
0.0
 10
2.396849013070954
 20
-20.69829582969492
 30
0.0
 10
2.39536352101824
 20
-20.69371593704948
 30
0.0
 10
2.3939319917708
 20
-20.68912677662166
 30
0.0
 10
2.392553811711627
 20
-20.68452841952475
 30
0.0
 10
2.391228853975989
 20
-20.67992097807528
 30
0.0
 10
2.38995717317994
 20
-20.67530514696799
 30
0.0
 10
2.388738337754479
 20
-20.67068079373767
 30
0.0
 10
2.387571774651952
 20
-20.66604742329536
 30
0.0
 10
2.386457329738877
 20
-20.66140473610279
 30
0.0
 10
2.3853949051202
 20
-20.65675298513302
 30
0.0
 10
2.384384423749428
 20
-20.65209241764476
 30
0.0
 10
2.383425808572273
 20
-20.64742328142865
 30
0.0
 10
2.382518961733485
 20
-20.64274582784096
 30
0.0
 10
2.381663834317052
 20
-20.63806010601029
 30
0.0
 10
2.380860035174924
 20
-20.63336598666118
 30
0.0
 10
2.380107351498913
 20
-20.62866323111204
 30
0.0
 10
2.379405913237494
 20
-20.62395166862769
 30
0.0
 10
2.378755795056066
 20
-20.61923130854016
 30
0.0
 10
2.37815709401925
 20
-20.61450215633209
 30
0.0
 10
2.377609901216847
 20
-20.60976421852215
 30
0.0
 10
2.37711430918347
 20
-20.60501750135494
 30
0.0
 10
2.376670410604028
 20
-20.60026201115162
 30
0.0
 10
2.376278296064134
 20
-20.59549775421565
 30
0.0
 10
2.375938064356959
 20
-20.59072473685601
 30
0.0
 10
2.375649783448154
 20
-20.58594296538613
 30
0.0
 10
2.375413636542922
 20
-20.58115244610213
 30
0.0
 10
2.375229375890305
 20
-20.57635318536808
 30
0.0
 10
2.375098365425987
 20
-20.57154518929359
 30
0.0
 10
2.375015940483199
 20
-20.56672846493773
 30
0.0
 10
2.37500531648506
 20
-20.56351433873748
 30
0.0
 10
2.374999999999988
 20
-20.56190591846973
 30
0.0
  0
SPLINE
  5
1E3
330
1F
100
AcDbEntity
  8
SK3
  6
SLD-Dashed
370
    18
100
AcDbSpline
210
0.0
220
0.0
230
1.0
 70
     8
 71
     3
 72
   135
 73
   131
 74
     0
 42
0.000000001
 43
0.00000001
 40
0.0
 40
0.0
 40
0.0
 40
0.0
 40
0.007864681016407
 40
0.0157185253863017
 40
0.0235625032847849
 40
0.0313975813593563
 40
0.0392247223728663
 40
0.0470448848492511
 40
0.0548590227226328
 40
0.0626680849905557
 40
0.0704730141681818
 40
0.078274742217668
 40
0.0860742007077298
 40
0.0938723238939914
 40
0.1016700483869101
 40
0.109468312816668
 40
0.1172680574953962
 40
0.1250702240776262
 40
0.1328750006251248
 40
0.1406830189597069
 40
0.1484958965093382
 40
0.1563152619133362
 40
0.1641427542046053
 40
0.1719800219736404
 40
0.1798287225167571
 40
0.1876905209713355
 40
0.1955552962429092
 40
0.203411687407569
 40
0.2112595015136723
 40
0.2190985428695627
 40
0.2269286135649761
 40
0.2347495139948185
 40
0.2425610433854159
 40
0.2503630003236483
 40
0.2581571977873812
 40
0.265946177084552
 40
0.2737308340659774
 40
0.2815120696606524
 40
0.2892907895800599
 40
0.297067904016431
 40
0.3048443273351263
 40
0.3126209777618763
 40
0.3203995364026292
 40
0.3281813984286003
 40
0.3359670615431709
 40
0.3437570320434082
 40
0.351551824842178
 40
0.3593519634848726
 40
0.3671579801600441
 40
0.3749704157043364
 40
0.3827964137542063
 40
0.3906392833587531
 40
0.398493810860253
 40
0.4063547824089091
 40
0.414216988781686
 40
0.4220752302121122
 40
0.4299243212788965
 40
0.4377590959019934
 40
0.4455806831533846
 40
0.4533941844343131
 40
0.4612004216319299
 40
0.4690002240708878
 40
0.4767944283132346
 40
0.4845838779495063
 40
0.4923694233817218
 40
0.500151921598151
 40
0.5079330443890132
 40
0.5157144341292261
 40
0.5234969176804496
 40
0.5312813335800096
 40
0.539068531845269
 40
0.5468593737655225
 40
0.554654731682149
 40
0.5624554887568076
 40
0.5702655757559485
 40
0.5780876260059714
 40
0.5859205900304539
 40
0.5937634307321763
 40
0.6016203969331974
 40
0.6094894410424933
 40
0.6173600923016265
 40
0.6252218942399221
 40
0.6330682392945134
 40
0.6409005716380518
 40
0.6487205385839107
 40
0.6565297919670294
 40
0.6643299871719306
 40
0.6721227821466021
 40
0.6799098364051385
 40
0.6876928100223186
 40
0.6954729774884474
 40
0.7032512910687806
 40
0.7110289362796214
 40
0.7188071104218017
 40
0.7265870220678567
 40
0.7343698905318775
 40
0.7421569453232626
 40
0.7499494255854892
 40
0.7577501324638424
 40
0.7655608771654634
 40
0.7733814293855729
 40
0.7812115734590679
 40
0.7890567593827071
 40
0.7969184559402104
 40
0.80479049425729
 40
0.8126667242920963
 40
0.8205325446154604
 40
0.8283790449579451
 40
0.8362086336047478
 40
0.8440237160684678
 40
0.8518266932334025
 40
0.8596199594968671
 40
0.867405900916001
 40
0.8751868933686153
 40
0.8829639143776923
 40
0.8907373151395876
 40
0.8985085277695163
 40
0.9062789907771541
 40
0.9140501482788852
 40
0.9218234491992243
 40
0.9296003464636755
 40
0.9373822961852437
 40
0.9451707623798096
 40
0.952967236185846
 40
0.9607732291759309
 40
0.9685902695308933
 40
0.9764199011677697
 40
0.9842636828430672
 40
0.9921231872339497
 40
0.9999999999999999
 40
0.9999999999999999
 40
0.9999999999999999
 40
0.9999999999999999
 10
2.374999999999995
 20
20.56190591846973
 30
0.0
 10
2.375005114569943
 20
20.56351274583072
 30
0.0
 10
2.375015336662539
 20
20.56672418652519
 30
0.0
 10
2.375097569706337
 20
20.57153764498732
 30
0.0
 10
2.375228634838813
 20
20.57634389906143
 30
0.0
 10
2.375413193691327
 20
20.58114296648556
 30
0.0
 10
2.375649832448201
 20
20.58593486510505
 30
0.0
 10
2.37593876259562
 20
20.5907196127041
 30
0.0
 10
2.376279759651011
 20
20.59549722721758
 30
0.0
 10
2.376672720065337
 20
20.60026772581097
 30
0.0
 10
2.377117491695238
 20
20.60503112636642
 30
0.0
 10
2.377614097610517
 20
20.60978742978932
 30
0.0
 10
2.378162575693704
 20
20.61453663139261
 30
0.0
 10
2.378762959815143
 20
20.61927872632914
 30
0.0
 10
2.379415284522193
 20
20.62401370967529
 30
0.0
 10
2.380119585544897
 20
20.62874157627524
 30
0.0
 10
2.380875893149892
 20
20.63346232197629
 30
0.0
 10
2.381684232167606
 20
20.63817578689057
 30
0.0
 10
2.382544531363564
 20
20.64288176398369
 30
0.0
 10
2.383456971740631
 20
20.64758014013233
 30
0.0
 10
2.384421850252096
 20
20.65227107208641
 30
0.0
 10
2.385439478632762
 20
20.65695491627482
 30
0.0
 10
2.38651017527805
 20
20.66163202776437
 30
0.0
 10
2.387634252780872
 20
20.66630276304064
 30
0.0
 10
2.388812040149138
 20
20.67096747425565
 30
0.0
 10
2.390043190378298
 20
20.675624200048
 30
0.0
 10
2.391326754231899
 20
20.68026838333491
 30
0.0
 10
2.39266158324674
 20
20.68489511899381
 30
0.0
 10
2.394046712755941
 20
20.68950155547285
 30
0.0
 10
2.395481846282736
 20
20.69408702473861
 30
0.0
 10
2.396966670520931
 20
20.69865086342388
 30
0.0
 10
2.398500879442766
 20
20.70319240589767
 30
0.0
 10
2.40008415477206
 20
20.70771099091381
 30
0.0
 10
2.401716360397294
 20
20.71220632884445
 30
0.0
 10
2.40339742266768
 20
20.7166787038606
 30
0.0
 10
2.40512742429886
 20
20.72112858515823
 30
0.0
 10
2.406906553202276
 20
20.72555620014133
 30
0.0
 10
2.408734837265273
 20
20.72996147598967
 30
0.0
 10
2.410612315996291
 20
20.73434433547003
 30
0.0
 10
2.412539023683109
 20
20.73870470351646
 30
0.0
 10
2.414515003825814
 20
20.74304250080435
 30
0.0
 10
2.416540334155504
 20
20.7473578033218
 30
0.0
 10
2.418615258884746
 20
20.75165071490078
 30
0.0
 10
2.420740062121431
 20
20.75592121639867
 30
0.0
 10
2.422914815649393
 20
20.76016911832115
 30
0.0
 10
2.425139540876614
 20
20.76439405020225
 30
0.0
 10
2.427414255235155
 20
20.76859564296622
 30
0.0
 10
2.429738961828881
 20
20.77277353627854
 30
0.0
 10
2.432113725101118
 20
20.77692733338975
 30
0.0
 10
2.434539060357399
 20
20.78105793640339
 30
0.0
 10
2.43701669934409
 20
20.78516617983941
 30
0.0
 10
2.439547431212989
 20
20.78925205104931
 30
0.0
 10
2.442129986914981
 20
20.79331383386185
 30
0.0
 10
2.444762431024192
 20
20.79734818180685
 30
0.0
 10
2.447442761668896
 20
20.80135178894031
 30
0.0
 10
2.450169009394529
 20
20.80532132790817
 30
0.0
 10
2.452939141377203
 20
20.8092535167304
 30
0.0
 10
2.455752095566255
 20
20.81314595256298
 30
0.0
 10
2.4586072925585
 20
20.81699845859912
 30
0.0
 10
2.461504562885582
 20
20.82081210391156
 30
0.0
 10
2.464444548877585
 20
20.82458727922547
 30
0.0
 10
2.467427154087987
 20
20.82832383118766
 30
0.0
 10
2.470452339990062
 20
20.83202156390037
 30
0.0
 10
2.473520053256621
 20
20.83568029221551
 30
0.0
 10
2.476630241863662
 20
20.83929983047343
 30
0.0
 10
2.479782972459703
 20
20.84288010829379
 30
0.0
 10
2.482978384847102
 20
20.84642120176641
 30
0.0
 10
2.486216682130449
 20
20.84992311739132
 30
0.0
 10
2.489497996560577
 20
20.85338568641517
 30
0.0
 10
2.492822336145242
 20
20.85680862460814
 30
0.0
 10
2.496189713247901
 20
20.86019164351607
 30
0.0
 10
2.499600133739129
 20
20.86353446155224
 30
0.0
 10
2.503053625057108
 20
20.8668367738624
 30
0.0
 10
2.50655058846927
 20
20.87009878512566
 30
0.0
 10
2.510092008523361
 20
20.87332058997993
 30
0.0
 10
2.513678526129839
 20
20.87650204158082
 30
0.0
 10
2.517309793676307
 20
20.87964255857083
 30
0.0
 10
2.520985718681222
 20
20.88274176642478
 30
0.0
 10
2.524706395920631
 20
20.88579873199049
 30
0.0
 10
2.528470165185342
 20
20.88881158305007
 30
0.0
 10
2.532272765400183
 20
20.89177688239521
 30
0.0
 10
2.536109435497411
 20
20.89469030710537
 30
0.0
 10
2.53997691987222
 20
20.8975495480483
 30
0.0
 10
2.5438736668272
 20
20.90035417092712
 30
0.0
 10
2.54779990134836
 20
20.903104176502
 30
0.0
 10
2.551755764131872
 20
20.90579974598759
 30
0.0
 10
2.555741427116891
 20
20.90844101870711
 30
0.0
 10
2.559757053610771
 20
20.91102814559449
 30
0.0
 10
2.563802810127073
 20
20.91356127308325
 30
0.0
 10
2.567878791614589
 20
20.91604051326565
 30
0.0
 10
2.571984980498217
 20
20.91846588727527
 30
0.0
 10
2.57612138888489
 20
20.92083716951714
 30
0.0
 10
2.580287993999335
 20
20.92315414588989
 30
0.0
 10
2.584484815421263
 20
20.92541661985658
 30
0.0
 10
2.588711872318371
 20
20.92762439518087
 30
0.0
 10
2.592969181919293
 20
20.92977727987717
 30
0.0
 10
2.597256769524395
 20
20.93187506470773
 30
0.0
 10
2.601574916777496
 20
20.93391774099559
 30
0.0
 10
2.605924130193289
 20
20.93590508753949
 30
0.0
 10
2.610304646844426
 20
20.93783671152087
 30
0.0
 10
2.6147160481238
 20
20.93971214775342
 30
0.0
 10
2.619158595440742
 20
20.94153121900919
 30
0.0
 10
2.623633017692931
 20
20.94329348822564
 30
0.0
 10
2.628138807939329
 20
20.94499827581638
 30
0.0
 10
2.632673148264715
 20
20.94664429147305
 30
0.0
 10
2.637230214389788
 20
20.94822887380189
 30
0.0
 10
2.641803412802964
 20
20.94974981959307
 30
0.0
 10
2.646387684357696
 20
20.95120587971603
 30
0.0
 10
2.650981380525254
 20
20.95259656446057
 30
0.0
 10
2.655585000927038
 20
20.95392225187032
 30
0.0
 10
2.660199057674693
 20
20.95518328270461
 30
0.0
 10
2.664824059036834
 20
20.9563800097871
 30
0.0
 10
2.66946051609604
 20
20.95751277527032
 30
0.0
 10
2.674108656410809
 20
20.9585818888251
 30
0.0
 10
2.678768331626023
 20
20.95958747790089
 30
0.0
 10
2.683439276074354
 20
20.96052929702299
 30
0.0
 10
2.688121282650717
 20
20.96140724684507
 30
0.0
 10
2.692814365647979
 20
20.96222124409963
 30
0.0
 10
2.697518537494066
 20
20.9629712135891
 30
0.0
 10
2.702233811060807
 20
20.96365707816937
 30
0.0
 10
2.706960199251714
 20
20.96427876056781
 30
0.0
 10
2.711697715475199
 20
20.96483618626412
 30
0.0
 10
2.71644638187471
 20
20.9653292711223
 30
0.0
 10
2.721206252837296
 20
20.96575767224513
 30
0.0
 10
2.725977382810628
 20
20.96612109928858
 30
0.0
 10
2.730759827455263
 20
20.96641911206549
 30
0.0
 10
2.735553642234566
 20
20.96665181908613
 30
0.0
 10
2.740358882695422
 20
20.96681727926429
 30
0.0
 10
2.745175604163014
 20
20.9669212217826
 30
0.0
 10
2.74839068929697
 20
20.96693416567442
 30
0.0
 10
2.750000000000003
 20
20.96694064473883
 30
0.0
  0
SPLINE
  5
1E4
330
1F
100
AcDbEntity
  8
1
  6
SLD-Dashed
370
    18
100
AcDbSpline
210
0.0
220
0.0
230
1.0
 70
     8
 71
     3
 72
    10
 73
     6
 74
     0
 42
0.000000001
 43
0.00000001
 40
0.0
 40
0.0
 40
0.0
 40
0.0
 40
0.5
 40
0.5
 40
1.0
 40
1.0
 40
1.0
 40
1.0
 10
15.60000000000135
 20
-17.9608602243897
 30
0.0
 10
15.60000000000078
 20
-17.84309061700634
 30
0.0
 10
15.55324029371398
 20
-17.73064651892003
 30
0.0
 10
15.4178038279879
 20
-17.55857060774288
 30
0.0
 10
15.32693692219694
 20
-17.49475822761089
 30
0.0
 10
15.22499999999999
 20
-17.47244258825881
 30
0.0
  0
SPLINE
  5
1E5
330
1F
100
AcDbEntity
  8
1
  6
SLD-Dashed
370
    18
100
AcDbSpline
210
0.0
220
0.0
230
1.0
 70
     8
 71
     3
 72
    10
 73
     6
 74
     0
 42
0.000000001
 43
0.00000001
 40
0.0
 40
0.0
 40
0.0
 40
0.0
 40
0.5
 40
0.5
 40
1.0
 40
1.0
 40
1.0
 40
1.0
 10
15.22499999999999
 20
-17.47244258825881
 30
0.0
 10
14.72586738206641
 20
-17.3631743932739
 30
0.0
 10
14.20531594595906
 20
-17.26950902984325
 30
0.0
 10
13.11981343473119
 20
-17.12670145782503
 30
0.0
 10
12.55043216059937
 20
-17.07771569071834
 30
0.0
 10
11.975
 20
-17.05831908483361
 30
0.0
  0
SPLINE
  5
1E6
330
1F
100
AcDbEntity
  8
1
  6
SLD-Dashed
370
    18
100
AcDbSpline
210
0.0
220
0.0
230
1.0
 70
     8
 71
     3
 72
    10
 73
     6
 74
     0
 42
0.000000001
 43
0.00000001
 40
0.0
 40
0.0
 40
0.0
 40
0.0
 40
0.5
 40
0.5
 40
1.0
 40
1.0
 40
1.0
 40
1.0
 10
11.97499999999998
 20
-17.05831908483363
 30
0.0
 10
11.87152057286505
 20
-17.05483101134252
 30
0.0
 10
11.77071697238919
 20
-17.10302441606797
 30
0.0
 10
11.63569438794236
 20
-17.25765695847894
 30
0.0
 10
11.59999999999998
 20
-17.36066582511049
 30
0.0
 10
11.59999999999999
 20
-17.46403447087754
 30
0.0
  0
SPLINE
  5
1E7
330
1F
100
AcDbEntity
  8
1
  6
SLD-Dashed
370
    18
100
AcDbSpline
210
0.0
220
0.0
230
1.0
 70
     8
 71
     3
 72
     8
 73
     4
 74
     0
 42
0.000000001
 43
0.00000001
 40
0.0000432461654743
 40
0.0000432461654743
 40
0.0000432461654743
 40
0.0000432461654743
 40
0.000471859197428
 40
0.000471859197428
 40
0.000471859197428
 40
0.000471859197428
 10
11.59999999999999
 20
-17.71624677331127
 30
0.0
 10
11.53327333917299
 20
-17.84256764359958
 30
0.0
 10
11.46660587253707
 20
-17.96893325601979
 30
0.0
 10
11.40000000000001
 20
-18.09532860177311
 30
0.0
  0
SPLINE
  5
1E8
330
1F
100
AcDbEntity
  8
SK3
  6
SLD-Dashed
370
    18
100
AcDbSpline
210
0.0
220
0.0
230
1.0
 70
     8
 71
     3
 72
     8
 73
     4
 74
     0
 42
0.000000001
 43
0.00000001
 40
0.0
 40
0.0
 40
0.0
 40
0.0
 40
0.016295901251405
 40
0.016295901251405
 40
0.016295901251405
 40
0.016295901251405
 10
17.37428230507106
 20
-21.87889326115168
 30
0.0
 10
17.41752794401362
 20
-21.89189524055805
 30
0.0
 10
17.4607735829562
 20
-21.90489721996442
 30
0.0
 10
17.50329112461557
 20
-21.91783808561872
 30
0.0
  0
SPLINE
  5
1E9
330
1F
100
AcDbEntity
  8
SK3
  6
SLD-Dashed
370
    18
100
AcDbSpline
210
0.0
220
0.0
230
1.0
 70
     8
 71
     3
 72
     8
 73
     4
 74
     0
 42
0.000000001
 43
0.00000001
 40
0.016295901251405
 40
0.016295901251405
 40
0.016295901251405
 40
0.016295901251405
 40
0.0312311734376826
 40
0.0312311734376826
 40
0.0312311734376826
 40
0.0312311734376826
 10
17.50329112461557
 20
-21.91783808561872
 30
0.0
 10
17.54225865685433
 20
-21.9296984514795
 30
0.0
 10
17.58061460113541
 20
-21.94150748294354
 30
0.0
 10
17.6185023393278
 20
-21.95326365397651
 30
0.0
  0
SPLINE
  5
1EA
330
1F
100
AcDbEntity
  8
SK3
  6
SLD-Dashed
370
    18
100
AcDbSpline
210
0.0
220
0.0
230
1.0
 70
     8
 71
     3
 72
     8
 73
     4
 74
     0
 42
0.000000001
 43
0.00000001
 40
0.0312311734376826
 40
0.0312311734376826
 40
0.0312311734376826
 40
0.0312311734376826
 40
0.0625738786984576
 40
0.0625738786984576
 40
0.0625738786984576
 40
0.0625738786984576
 10
17.6185023393278
 20
-21.95326365397651
 30
0.0
 10
17.69801238751108
 20
-21.97793479482257
 30
0.0
 10
17.77546045910151
 20
-22.00237313867135
 30
0.0
 10
17.85066133881542
 20
-22.02647707675965
 30
0.0
  0
SPLINE
  5
1EB
330
1F
100
AcDbEntity
  8
SK3
  6
SLD-Dashed
370
    18
100
AcDbSpline
210
0.0
220
0.0
230
1.0
 70
     8
 71
     3
 72
     8
 73
     4
 74
     0
 42
0.000000001
 43
0.00000001
 40
0.0625738786984576
 40
0.0625738786984576
 40
0.0625738786984576
 40
0.0625738786984576
 40
0.1254922810616717
 40
0.1254922810616717
 40
0.1254922810616717
 40
0.1254922810616717
 10
17.85066133881542
 20
-22.02647707675965
 30
0.0
 10
18.00162211799963
 20
-22.07486413405287
 30
0.0
 10
18.1435271858199
 20
-22.12190360635477
 30
0.0
 10
18.27579649822368
 20
-22.16682128527115
 30
0.0
  0
SPLINE
  5
1EC
330
1F
100
AcDbEntity
  8
SK3
  6
SLD-Dashed
370
    18
100
AcDbSpline
210
0.0
220
0.0
230
1.0
 70
     8
 71
     3
 72
     8
 73
     4
 74
     0
 42
0.000000001
 43
0.00000001
 40
0.1254922810616717
 40
0.1254922810616717
 40
0.1254922810616717
 40
0.1254922810616717
 40
0.1879270426821898
 40
0.1879270426821898
 40
0.1879270426821898
 40
0.1879270426821898
 10
18.27579649822368
 20
-22.16682128527115
 30
0.0
 10
18.40704908378629
 20
-22.21139369128206
 30
0.0
 10
18.52881348070361
 20
-22.25387679811111
 30
0.0
 10
18.64049725437911
 20
-22.29358473668364
 30
0.0
  0
SPLINE
  5
1ED
330
1F
100
AcDbEntity
  8
SK3
  6
SLD-Dashed
370
    18
100
AcDbSpline
210
0.0
220
0.0
230
1.0
 70
     8
 71
     3
 72
     8
 73
     4
 74
     0
 42
0.000000001
 43
0.00000001
 40
0.1879270426821898
 40
0.1879270426821898
 40
0.1879270426821898
 40
0.1879270426821898
 40
0.2502818102740673
 40
0.2502818102740673
 40
0.2502818102740673
 40
0.2502818102740673
 10
18.64049725437911
 20
-22.29358473668364
 30
0.0
 10
18.7520379341313
 20
-22.33324179978401
 30
0.0
 10
18.853523805526
 20
-22.37013080139555
 30
0.0
 10
18.94441445475852
 20
-22.40363778361515
 30
0.0
  0
SPLINE
  5
1EE
330
1F
100
AcDbEntity
  8
SK3
  6
SLD-Dashed
370
    18
100
AcDbSpline
210
0.0
220
0.0
230
1.0
 70
     8
 71
     3
 72
     8
 73
     4
 74
     0
 42
0.000000001
 43
0.00000001
 40
0.2502818102740673
 40
0.2502818102740673
 40
0.2502818102740673
 40
0.2502818102740673
 40
0.313093097745709
 40
0.313093097745709
 40
0.313093097745709
 40
0.313093097745709
 10
18.94441445475852
 20
-22.40363778361515
 30
0.0
 10
19.03597054449964
 20
-22.43739008153529
 30
0.0
 10
19.11677570190222
 20
-22.46771065701548
 30
0.0
 10
19.18634229218935
 20
-22.49407230367907
 30
0.0
  0
SPLINE
  5
1EF
330
1F
100
AcDbEntity
  8
SK3
  6
SLD-Dashed
370
    18
100
AcDbSpline
210
0.0
220
0.0
230
1.0
 70
     8
 71
     3
 72
     8
 73
     4
 74
     0
 42
0.000000001
 43
0.00000001
 40
0.313093097745709
 40
0.313093097745709
 40
0.313093097745709
 40
0.313093097745709
 40
0.3756498732271631
 40
0.3756498732271631
 40
0.3756498732271631
 40
0.3756498732271631
 10
19.18634229218935
 20
-22.49407230367907
 30
0.0
 10
19.25562699792903
 20
-22.52032713267615
 30
0.0
 10
19.3137640296113
 20
-22.54265505109733
 30
0.0
 10
19.3603769466207
 20
-22.56066019835293
 30
0.0
  0
SPLINE
  5
1F0
330
1F
100
AcDbEntity
  8
SK3
  6
SLD-Dashed
370
    18
100
AcDbSpline
210
0.0
220
0.0
230
1.0
 70
     8
 71
     3
 72
     8
 73
     4
 74
     0
 42
0.000000001
 43
0.00000001
 40
0.3756498732271631
 40
0.3756498732271631
 40
0.3756498732271631
 40
0.3756498732271631
 40
0.4376979459571559
 40
0.4376979459571559
 40
0.4376979459571559
 40
0.4376979459571559
 10
19.3603769466207
 20
-22.56066019835293
 30
0.0
 10
19.40661081405548
 20
-22.57851893032612
 30
0.0
 10
19.44150722966585
 20
-22.59212490959515
 30
0.0
 10
19.46483052793987
 20
-22.60123572508535
 30
0.0
  0
SPLINE
  5
1F1
330
1F
100
AcDbEntity
  8
SK3
  6
SLD-Dashed
370
    18
100
AcDbSpline
210
0.0
220
0.0
230
1.0
 70
     8
 71
     3
 72
     8
 73
     4
 74
     0
 42
0.000000001
 43
0.00000001
 40
0.5003090050996676
 40
0.5003090050996676
 40
0.5003090050996676
 40
0.5003090050996676
 40
0.5630984084178801
 40
0.5630984084178801
 40
0.5630984084178801
 40
0.5630984084178801
 10
19.49999913823062
 20
-22.61499968716665
 30
0.0
 10
19.49988167027182
 20
-22.61495358630949
 30
0.0
 10
19.48782842472204
 20
-22.61021859395391
 30
0.0
 10
19.46392578032983
 20
-22.60088238494629
 30
0.0
  0
SPLINE
  5
1F2
330
1F
100
AcDbEntity
  8
SK3
  6
SLD-Dashed
370
    18
100
AcDbSpline
210
0.0
220
0.0
230
1.0
 70
     8
 71
     3
 72
     8
 73
     4
 74
     0
 42
0.000000001
 43
0.00000001
 40
0.5630984084178801
 40
0.5630984084178801
 40
0.5630984084178801
 40
0.5630984084178801
 40
0.6252492304296202
 40
0.6252492304296202
 40
0.6252492304296202
 40
0.6252492304296202
 10
19.46392578032983
 20
-22.60088238494629
 30
0.0
 10
19.44026623080833
 20
-22.59164112712838
 30
0.0
 10
19.40499707853123
 20
-22.57789176740308
 30
0.0
 10
19.35835781223555
 20
-22.55988044447096
 30
0.0
  0
SPLINE
  5
1F3
330
1F
100
AcDbEntity
  8
SK3
  6
SLD-Dashed
370
    18
100
AcDbSpline
210
0.0
220
0.0
230
1.0
 70
     8
 71
     3
 72
     8
 73
     4
 74
     0
 42
0.000000001
 43
0.00000001
 40
0.6252492304296202
 40
0.6252492304296202
 40
0.6252492304296202
 40
0.6252492304296202
 40
0.6872878045438474
 40
0.6872878045438474
 40
0.6872878045438474
 40
0.6872878045438474
 10
19.35835781223555
 20
-22.55988044447096
 30
0.0
 10
19.31180277909103
 20
-22.54190165100609
 30
0.0
 10
19.25391866497761
 20
-22.51967627512544
 30
0.0
 10
19.18507367484064
 20
-22.4935917519259
 30
0.0
  0
SPLINE
  5
1F4
330
1F
100
AcDbEntity
  8
SK3
  6
SLD-Dashed
370
    18
100
AcDbSpline
210
0.0
220
0.0
230
1.0
 70
     8
 71
     3
 72
     8
 73
     4
 74
     0
 42
0.000000001
 43
0.00000001
 40
0.6872878045438474
 40
0.6872878045438474
 40
0.6872878045438474
 40
0.6872878045438474
 40
0.749808607218828
 40
0.749808607218828
 40
0.749808607218828
 40
0.749808607218828
 10
19.18507367484064
 20
-22.4935917519259
 30
0.0
 10
19.11569354957224
 20
-22.46730447258212
 30
0.0
 10
19.03518148728056
 20
-22.43709781810579
 30
0.0
 10
18.94401767365976
 20
-22.40349155909868
 30
0.0
  0
SPLINE
  5
1F5
330
1F
100
AcDbEntity
  8
SK3
  6
SLD-Dashed
370
    18
100
AcDbSpline
210
0.0
220
0.0
230
1.0
 70
     8
 71
     3
 72
     8
 73
     4
 74
     0
 42
0.000000001
 43
0.00000001
 40
0.749808607218828
 40
0.749808607218828
 40
0.749808607218828
 40
0.749808607218828
 40
0.8125905274666048
 40
0.8125905274666048
 40
0.8125905274666048
 40
0.8125905274666048
 10
18.94401767365976
 20
-22.40349155909868
 30
0.0
 10
18.8524731151873
 20
-22.36974494385159
 30
0.0
 10
18.7501876456982
 20
-22.33257026793836
 30
0.0
 10
18.63771435186992
 20
-22.2925953184428
 30
0.0
  0
SPLINE
  5
1F6
330
1F
100
AcDbEntity
  8
SK3
  6
SLD-Dashed
370
    18
100
AcDbSpline
210
0.0
220
0.0
230
1.0
 70
     8
 71
     3
 72
     8
 73
     4
 74
     0
 42
0.000000001
 43
0.00000001
 40
0.8125905274666048
 40
0.8125905274666048
 40
0.8125905274666048
 40
0.8125905274666048
 40
0.8748692062353571
 40
0.8748692062353571
 40
0.8748692062353571
 40
0.8748692062353571
 10
18.63771435186992
 20
-22.2925953184428
 30
0.0
 10
18.52614261101282
 20
-22.25294079643063
 30
0.0
 10
18.40454571646312
 20
-22.21053071325944
 30
0.0
 10
18.27351243155213
 20
-22.16604599955676
 30
0.0
  0
SPLINE
  5
1F7
330
1F
100
AcDbEntity
  8
SK3
  6
SLD-Dashed
370
    18
100
AcDbSpline
210
0.0
220
0.0
230
1.0
 70
     8
 71
     3
 72
     8
 73
     4
 74
     0
 42
0.000000001
 43
0.00000001
 40
0.8748692062353571
 40
0.8748692062353571
 40
0.8748692062353571
 40
0.8748692062353571
 40
0.9371664635659143
 40
0.9371664635659143
 40
0.9371664635659143
 40
0.9371664635659143
 10
18.27351243155213
 20
-22.16604599955676
 30
0.0
 10
18.14244005766189
 20
-22.12154801546975
 30
0.0
 10
18.00192566256802
 20
-22.07497416288663
 30
0.0
 10
17.85252911758399
 20
-22.02707598401499
 30
0.0
  0
SPLINE
  5
1F8
330
1F
100
AcDbEntity
  8
SK3
  6
SLD-Dashed
370
    18
100
AcDbSpline
210
0.0
220
0.0
230
1.0
 70
     8
 71
     3
 72
     8
 73
     4
 74
     0
 42
0.000000001
 43
0.00000001
 40
0.9371664635659143
 40
0.9371664635659143
 40
0.9371664635659143
 40
0.9371664635659143
 40
0.9684913764306415
 40
0.9684913764306415
 40
0.9684913764306415
 40
0.9684913764306415
 10
17.85252911758399
 20
-22.02707598401499
 30
0.0
 10
17.77740809373081
 20
-22.00299135583349
 30
0.0
 10
17.70004132722774
 20
-21.97857188799434
 30
0.0
 10
17.62061497615032
 20
-21.95391898080884
 30
0.0
  0
SPLINE
  5
1F9
330
1F
100
AcDbEntity
  8
SK3
  6
SLD-Dashed
370
    18
100
AcDbSpline
210
0.0
220
0.0
230
1.0
 70
     8
 71
     3
 72
     8
 73
     4
 74
     0
 42
0.000000001
 43
0.00000001
 40
0.9684913764306415
 40
0.9684913764306415
 40
0.9684913764306415
 40
0.9684913764306415
 40
0.9835502298011094
 40
0.9835502298011094
 40
0.9835502298011094
 40
0.9835502298011094
 10
17.62061497615032
 20
-21.95391898080884
 30
0.0
 10
17.58243227537823
 20
-21.9420675666943
 30
0.0
 10
17.54377360009518
 20
-21.93016220423498
 30
0.0
 10
17.50449297712661
 20
-21.91820453342546
 30
0.0
  0
SPLINE
  5
1FA
330
1F
100
AcDbEntity
  8
SK3
  6
SLD-Dashed
370
    18
100
AcDbSpline
210
0.0
220
0.0
230
1.0
 70
     8
 71
     3
 72
     8
 73
     4
 74
     0
 42
0.000000001
 43
0.00000001
 40
0.9835502298011094
 40
0.9835502298011094
 40
0.9835502298011094
 40
0.9835502298011094
 40
1.0
 40
1.0
 40
1.0
 40
1.0
 10
17.50449297712661
 20
-21.91820453342546
 30
0.0
 10
17.46158418419226
 20
-21.90514238771679
 30
0.0
 10
17.41793324463167
 20
-21.89201782443423
 30
0.0
 10
17.37428230507106
 20
-21.87889326115168
 30
0.0
  0
SPLINE
  5
1FB
330
1F
100
AcDbEntity
  8
1
  6
SLD-Dashed
370
    18
100
AcDbSpline
210
0.0
220
0.0
230
1.0
 70
     8
 71
     3
 72
    10
 73
     6
 74
     0
 42
0.000000001
 43
0.00000001
 40
0.0
 40
0.0
 40
0.0
 40
0.0
 40
0.5
 40
0.5
 40
1.0
 40
1.0
 40
1.0
 40
1.0
 10
17.37428230507106
 20
-21.87889326115168
 30
0.0
 10
17.0886910654441
 20
-21.29102691798383
 30
0.0
 10
16.79677392997642
 20
-20.68882546025273
 30
0.0
 10
16.20431228782267
 20
-19.46290423314764
 30
0.0
 10
15.90371676904255
 20
-18.83908846476609
 30
0.0
 10
15.59999999999999
 20
-18.20619124728898
 30
0.0
  0
SPLINE
  5
1FC
330
1F
100
AcDbEntity
  8
1
  6
SLD-Dashed
370
    18
100
AcDbSpline
210
0.0
220
0.0
230
1.0
 70
     8
 71
     3
 72
     8
 73
     4
 74
     0
 42
0.000000001
 43
0.00000001
 40
0.0000432461654743
 40
0.0000432461654743
 40
0.0000432461654743
 40
0.0000432461654743
 40
0.000471859197428
 40
0.000471859197428
 40
0.000471859197428
 40
0.000471859197428
 10
11.59999999999999
 20
17.71624677331128
 30
0.0
 10
11.53327333917299
 20
17.84256764359957
 30
0.0
 10
11.46660587253707
 20
17.96893325601978
 30
0.0
 10
11.40000000000001
 20
18.0953286017731
 30
0.0
  0
SPLINE
  5
1FD
330
1F
100
AcDbEntity
  8
1
  6
SLD-Dashed
370
    18
100
AcDbSpline
210
0.0
220
0.0
230
1.0
 70
     8
 71
     3
 72
    10
 73
     6
 74
     0
 42
0.000000001
 43
0.00000001
 40
0.0
 40
0.0
 40
0.0
 40
0.0
 40
0.5
 40
0.5
 40
1.0
 40
1.0
 40
1.0
 40
1.0
 10
11.97499999999997
 20
17.05831908483362
 30
0.0
 10
11.87152057286505
 20
17.05483101134251
 30
0.0
 10
11.77071697238919
 20
17.10302441606797
 30
0.0
 10
11.63569438794237
 20
17.25765695847895
 30
0.0
 10
11.59999999999998
 20
17.36066582511049
 30
0.0
 10
11.59999999999999
 20
17.46403447087756
 30
0.0
  0
SPLINE
  5
1FE
330
1F
100
AcDbEntity
  8
1
  6
SLD-Dashed
370
    18
100
AcDbSpline
210
0.0
220
0.0
230
1.0
 70
     8
 71
     3
 72
    10
 73
     6
 74
     0
 42
0.000000001
 43
0.00000001
 40
0.0
 40
0.0
 40
0.0
 40
0.0
 40
0.5
 40
0.5
 40
1.0
 40
1.0
 40
1.0
 40
1.0
 10
15.22499999999997
 20
17.4724425882588
 30
0.0
 10
14.7258673820664
 20
17.36317439327392
 30
0.0
 10
14.20531594595904
 20
17.26950902984324
 30
0.0
 10
13.11981343473119
 20
17.12670145782505
 30
0.0
 10
12.55043216059937
 20
17.07771569071835
 30
0.0
 10
11.975
 20
17.0583190848336
 30
0.0
  0
SPLINE
  5
1FF
330
1F
100
AcDbEntity
  8
1
  6
SLD-Dashed
370
    18
100
AcDbSpline
210
0.0
220
0.0
230
1.0
 70
     8
 71
     3
 72
    10
 73
     6
 74
     0
 42
0.000000001
 43
0.00000001
 40
0.0
 40
0.0
 40
0.0
 40
0.0
 40
0.5
 40
0.5
 40
1.0
 40
1.0
 40
1.0
 40
1.0
 10
15.60000000000135
 20
17.9608602243897
 30
0.0
 10
15.60000000000078
 20
17.84309061700633
 30
0.0
 10
15.55324029371398
 20
17.73064651892002
 30
0.0
 10
15.4178038279879
 20
17.55857060774288
 30
0.0
 10
15.32693692219694
 20
17.49475822761089
 30
0.0
 10
15.22499999999999
 20
17.4724425882588
 30
0.0
  0
SPLINE
  5
200
330
1F
100
AcDbEntity
  8
1
  6
SLD-Dashed
370
    18
100
AcDbSpline
210
0.0
220
0.0
230
1.0
 70
     8
 71
     3
 72
    10
 73
     6
 74
     0
 42
0.000000001
 43
0.00000001
 40
0.0
 40
0.0
 40
0.0
 40
0.0
 40
0.5
 40
0.5
 40
1.0
 40
1.0
 40
1.0
 40
1.0
 10
17.37428227908526
 20
21.87889322612936
 30
0.0
 10
17.08869139181013
 20
21.29102760429951
 30
0.0
 10
16.79677441554594
 20
20.68882647389058
 30
0.0
 10
16.20431276559681
 20
19.46290522822645
 30
0.0
 10
15.90371707956514
 20
18.83908911356867
 30
0.0
 10
15.59999999999999
 20
18.20619124728897
 30
0.0
  0
SPLINE
  5
201
330
1F
100
AcDbEntity
  8
SK3
  6
SLD-Dashed
370
    18
100
AcDbSpline
210
0.0
220
0.0
230
1.0
 70
     8
 71
     3
 72
    17
 73
    13
 74
     0
 42
0.000000001
 43
0.00000001
 40
0.0
 40
0.0
 40
0.0
 40
0.0
 40
0.0164474139759551
 40
0.0315086356838262
 40
0.0628335605488106
 40
0.1251308418237216
 40
0.1874095446378108
 40
0.2501914891846147
 40
0.3127123157633821
 40
0.374750913718291
 40
0.4369017597299584
 40
0.4996911872993925
 40
0.4996911872993925
 40
0.4996911872993925
 40
0.4996911872993925
 10
17.37428227908526
 20
21.87889322612936
 30
0.0
 10
17.41792699276572
 20
21.89201588629237
 30
0.0
 10
17.50153803246431
 20
21.91715522545432
 30
0.0
 10
17.6628428722371
 20
21.96683085779398
 30
0.0
 10
17.93127082778352
 20
22.05155539106103
 30
0.0
 10
18.28291252993245
 20
22.1681079633101
 30
0.0
 10
18.64872205308971
 20
22.29569355174826
 30
0.0
 10
18.95433315619328
 20
22.40676499119561
 30
0.0
 10
19.19558460749269
 20
22.49727812827125
 30
0.0
 10
19.36979161457883
 20
22.56416722977885
 30
0.0
 10
19.47589776883904
 20
22.60553175040577
 30
0.0
 10
19.49988164051431
 20
22.61495357577749
 30
0.0
 10
19.4999991329279
 20
22.61499967926627
 30
0.0
  0
SPLINE
  5
202
330
1F
100
AcDbEntity
  8
SK3
  6
SLD-Dashed
370
    18
100
AcDbSpline
210
0.0
220
0.0
230
1.0
 70
    24
 71
     3
 72
     8
 73
     4
 74
     0
 42
0.000000001
 43
0.00000001
 40
0.0
 40
0.0
 40
0.0
 40
0.0
 40
0.4999999999999982
 40
0.4999999999999982
 40
0.4999999999999982
 40
0.4999999999999982
 10
2.000000000000001
 20
-16.15
 30
0.0
 10
2.083477230592468
 20
-16.15
 30
0.0
 10
2.165250237669245
 20
-16.15
 30
0.0
 10
2.237167806898781
 20
-16.15
 30
0.0
  0
SPLINE
  5
203
330
1F
100
AcDbEntity
  8
SK3
  6
SLD-Dashed
370
    18
100
AcDbSpline
210
0.0
220
0.0
230
1.0
 70
    24
 71
     3
 72
     8
 73
     4
 74
     0
 42
0.000000001
 43
0.00000001
 40
0.4999999999999982
 40
0.4999999999999982
 40
0.4999999999999982
 40
0.4999999999999982
 40
0.7499999999999991
 40
0.7499999999999991
 40
0.7499999999999991
 40
0.7499999999999991
 10
2.237167806898782
 20
-16.15
 30
0.0
 10
2.273126591513547
 20
-16.15
 30
0.0
 10
2.306332390229801
 20
-16.15
 30
0.0
 10
2.332123478181944
 20
-16.15
 30
0.0
  0
SPLINE
  5
204
330
1F
100
AcDbEntity
  8
SK3
  6
SLD-Dashed
370
    18
100
AcDbSpline
210
0.0
220
0.0
230
1.0
 70
    24
 71
     2
 72
     6
 73
     3
 74
     0
 42
0.000000001
 43
0.00000001
 40
0.7499999999999991
 40
0.7499999999999991
 40
0.7499999999999991
 40
1.0
 40
1.0
 40
1.0
 10
2.332123478181916
 20
-16.15
 30
0.0
 10
2.357914566133344
 20
-16.14999999999993
 30
0.0
 10
2.374999999998795
 20
-16.14999999999988
 30
0.0
  0
SPLINE
  5
205
330
1F
100
AcDbEntity
  8
SK3
  6
SLD-Dashed
370
    18
100
AcDbSpline
210
0.0
220
0.0
230
1.0
 70
    24
 71
     2
 72
     6
 73
     3
 74
     0
 42
0.000000001
 43
0.00000001
 40
0.0
 40
0.0
 40
0.0
 40
0.25
 40
0.25
 40
0.25
 10
2.375000000002375
 20
16.14999999999988
 30
0.0
 10
2.35742447933434
 20
16.14999999999993
 30
0.0
 10
2.331652105107253
 20
16.15
 30
0.0
  0
SPLINE
  5
206
330
1F
100
AcDbEntity
  8
SK3
  6
SLD-Dashed
370
    18
100
AcDbSpline
210
0.0
220
0.0
230
1.0
 70
    24
 71
     3
 72
     8
 73
     4
 74
     0
 42
0.000000001
 43
0.00000001
 40
0.25
 40
0.25
 40
0.25
 40
0.25
 40
0.5
 40
0.5
 40
0.5
 40
0.5
 10
2.331652105107253
 20
16.15
 30
0.0
 10
2.305879730881561
 20
16.14999999999999
 30
0.0
 10
2.272790772310317
 20
16.15
 30
0.0
 10
2.236965951746446
 20
16.15
 30
0.0
  0
SPLINE
  5
207
330
1F
100
AcDbEntity
  8
SK3
  6
SLD-Dashed
370
    18
100
AcDbSpline
210
0.0
220
0.0
230
1.0
 70
    24
 71
     3
 72
     8
 73
     4
 74
     0
 42
0.000000001
 43
0.00000001
 40
0.5
 40
0.5
 40
0.5
 40
0.5
 40
1.0
 40
1.0
 40
1.0
 40
1.0
 10
2.236965951746446
 20
16.15
 30
0.0
 10
2.165316310618726
 20
16.15
 30
0.0
 10
2.083397657057319
 20
16.15
 30
0.0
 10
2.000000000000002
 20
16.15
 30
0.0
  0
SPLINE
  5
208
330
1F
100
AcDbEntity
  8
SK3
  6
SLD-Dashed
370
    18
100
AcDbSpline
210
0.0
220
0.0
230
1.0
 70
     8
 71
     3
 72
   135
 73
   131
 74
     0
 42
0.000000001
 43
0.00000001
 40
0.0
 40
0.0
 40
0.0
 40
0.0
 40
0.007864681016419
 40
0.0157185253863086
 40
0.0235625032847867
 40
0.0313975813593587
 40
0.0392247223728806
 40
0.0470448848492547
 40
0.0548590227226314
 40
0.0626680849905549
 40
0.0704730141681701
 40
0.0782747422176685
 40
0.0860742007077309
 40
0.0938723238939873
 40
0.1016700483869121
 40
0.1094683128166703
 40
0.1172680574953937
 40
0.12507022407763
 40
0.1328750006251184
 40
0.1406830189597179
 40
0.1484958965093439
 40
0.156315261913348
 40
0.1641427542046179
 40
0.1719800219736533
 40
0.1798287225167598
 40
0.1876905209713385
 40
0.1955552962428964
 40
0.2034116874075788
 40
0.2112595015136819
 40
0.2190985428695777
 40
0.2269286135649863
 40
0.2347495139948241
 40
0.2425610433854107
 40
0.2503630003236495
 40
0.2581571977873781
 40
0.2659461770845502
 40
0.2737308340659817
 40
0.2815120696606515
 40
0.2892907895800695
 40
0.2970679040164415
 40
0.3048443273351261
 40
0.3126209777618879
 40
0.3203995364026372
 40
0.3281813984286032
 40
0.3359670615431845
 40
0.3437570320434064
 40
0.3515518248421813
 40
0.3593519634848703
 40
0.3671579801600279
 40
0.3749704157043348
 40
0.3827964137542048
 40
0.3906392833587619
 40
0.3984938108602576
 40
0.406354782408914
 40
0.4142169887816919
 40
0.4220752302121178
 40
0.4299243212789015
 40
0.4377590959019952
 40
0.4455806831533821
 40
0.4533941844343095
 40
0.4612004216319283
 40
0.469000224070896
 40
0.4767944283132333
 40
0.4845838779495026
 40
0.4923694233817169
 40
0.5001519215981534
 40
0.5079330443890081
 40
0.51571443412923
 40
0.523496917680451
 40
0.5312813335800237
 40
0.5390685318452728
 40
0.5468593737655317
 40
0.5546547316821528
 40
0.5624554887568198
 40
0.5702655757559499
 40
0.578087626005972
 40
0.5859205900304529
 40
0.5937634307321754
 40
0.6016203969331958
 40
0.6094894410424888
 40
0.6173600923016256
 40
0.6252218942399236
 40
0.6330682392945187
 40
0.6409005716380498
 40
0.6487205385839129
 40
0.6565297919670284
 40
0.6643299871719328
 40
0.672122782146605
 40
0.679909836405142
 40
0.6876928100223219
 40
0.695472977488454
 40
0.7032512910687844
 40
0.7110289362796252
 40
0.7188071104218062
 40
0.7265870220678646
 40
0.7343698905318823
 40
0.742156945323269
 40
0.7499494255854915
 40
0.7577501324638453
 40
0.7655608771654691
 40
0.7733814293855761
 40
0.7812115734590662
 40
0.7890567593827083
 40
0.7969184559402122
 40
0.804790494257289
 40
0.8126667242920954
 40
0.820532544615455
 40
0.8283790449579439
 40
0.8362086336047463
 40
0.844023716068466
 40
0.8518266932334022
 40
0.8596199594968709
 40
0.8674059009160028
 40
0.8751868933686179
 40
0.8829639143776918
 40
0.8907373151395903
 40
0.8985085277695161
 40
0.9062789907771558
 40
0.914050148278887
 40
0.921823449199226
 40
0.9296003464636792
 40
0.9373822961852454
 40
0.945170762379812
 40
0.9529672361858498
 40
0.9607732291759343
 40
0.9685902695308973
 40
0.9764199011677701
 40
0.9842636828430693
 40
0.9921231872339504
 40
1.0
 40
1.0
 40
1.0
 40
1.0
 10
2.37500000000003
 20
-20.56190591846977
 30
0.0
 10
2.375005114569978
 20
-20.56351274583077
 30
0.0
 10
2.375015336662574
 20
-20.56672418652524
 30
0.0
 10
2.375097569706386
 20
-20.57153764498735
 30
0.0
 10
2.375228634838841
 20
-20.57634389906146
 30
0.0
 10
2.375413193691355
 20
-20.58114296648561
 30
0.0
 10
2.375649832448229
 20
-20.5859348651051
 30
0.0
 10
2.375938762595648
 20
-20.59071961270413
 30
0.0
 10
2.376279759651038
 20
-20.59549722721763
 30
0.0
 10
2.376672720065365
 20
-20.600267725811
 30
0.0
 10
2.377117491695266
 20
-20.60503112636646
 30
0.0
 10
2.377614097610545
 20
-20.60978742978934
 30
0.0
 10
2.378162575693732
 20
-20.61453663139265
 30
0.0
 10
2.378762959815171
 20
-20.61927872632918
 30
0.0
 10
2.379415284522221
 20
-20.62401370967532
 30
0.0
 10
2.380119585544925
 20
-20.62874157627527
 30
0.0
 10
2.380875893149927
 20
-20.63346232197632
 30
0.0
 10
2.381684232167641
 20
-20.63817578689062
 30
0.0
 10
2.38254453136362
 20
-20.64288176398372
 30
0.0
 10
2.383456971740666
 20
-20.64758014013237
 30
0.0
 10
2.384421850252137
 20
-20.65227107208645
 30
0.0
 10
2.385439478632803
 20
-20.65695491627486
 30
0.0
 10
2.386510175278085
 20
-20.66163202776439
 30
0.0
 10
2.387634252780907
 20
-20.66630276304068
 30
0.0
 10
2.388812040149173
 20
-20.67096747425568
 30
0.0
 10
2.390043190378333
 20
-20.67562420004804
 30
0.0
 10
2.391326754231947
 20
-20.68026838333494
 30
0.0
 10
2.392661583246775
 20
-20.68489511899386
 30
0.0
 10
2.394046712755976
 20
-20.68950155547289
 30
0.0
 10
2.395481846282771
 20
-20.69408702473863
 30
0.0
 10
2.396966670520965
 20
-20.69865086342393
 30
0.0
 10
2.398500879442801
 20
-20.7031924058977
 30
0.0
 10
2.400084154772095
 20
-20.70771099091385
 30
0.0
 10
2.401716360397314
 20
-20.71220632884448
 30
0.0
 10
2.403397422667722
 20
-20.71667870386063
 30
0.0
 10
2.405127424298894
 20
-20.72112858515827
 30
0.0
 10
2.406906553202318
 20
-20.72555620014137
 30
0.0
 10
2.408734837265309
 20
-20.7299614759897
 30
0.0
 10
2.410612315996312
 20
-20.73434433547009
 30
0.0
 10
2.412539023683151
 20
-20.7387047035165
 30
0.0
 10
2.414515003825848
 20
-20.74304250080439
 30
0.0
 10
2.416540334155538
 20
-20.74735780332185
 30
0.0
 10
2.418615258884781
 20
-20.75165071490082
 30
0.0
 10
2.420740062121479
 20
-20.75592121639868
 30
0.0
 10
2.422914815649428
 20
-20.76016911832118
 30
0.0
 10
2.425139540876656
 20
-20.76439405020226
 30
0.0
 10
2.42741425523519
 20
-20.76859564296626
 30
0.0
 10
2.429738961828902
 20
-20.77277353627856
 30
0.0
 10
2.432113725101159
 20
-20.77692733338978
 30
0.0
 10
2.43453906035742
 20
-20.78105793640341
 30
0.0
 10
2.43701669934411
 20
-20.78516617983943
 30
0.0
 10
2.439547431213017
 20
-20.78925205104934
 30
0.0
 10
2.442129986915009
 20
-20.79331383386187
 30
0.0
 10
2.444762431024206
 20
-20.79734818180688
 30
0.0
 10
2.447442761668909
 20
-20.80135178894034
 30
0.0
 10
2.450169009394557
 20
-20.8053213279082
 30
0.0
 10
2.452939141377217
 20
-20.80925351673045
 30
0.0
 10
2.455752095566282
 20
-20.813145952563
 30
0.0
 10
2.458607292558514
 20
-20.81699845859914
 30
0.0
 10
2.461504562885596
 20
-20.82081210391159
 30
0.0
 10
2.464444548877613
 20
-20.82458727922548
 30
0.0
 10
2.467427154088
 20
-20.82832383118769
 30
0.0
 10
2.470452339990076
 20
-20.83202156390039
 30
0.0
 10
2.473520053256656
 20
-20.83568029221552
 30
0.0
 10
2.476630241863689
 20
-20.83929983047345
 30
0.0
 10
2.479782972459717
 20
-20.84288010829382
 30
0.0
 10
2.48297838484713
 20
-20.84642120176643
 30
0.0
 10
2.486216682130463
 20
-20.84992311739132
 30
0.0
 10
2.489497996560605
 20
-20.85338568641519
 30
0.0
 10
2.492822336145256
 20
-20.85680862460817
 30
0.0
 10
2.496189713247936
 20
-20.8601916435161
 30
0.0
 10
2.499600133739142
 20
-20.86353446155226
 30
0.0
 10
2.503053625057136
 20
-20.86683677386243
 30
0.0
 10
2.506550588469283
 20
-20.87009878512571
 30
0.0
 10
2.510092008523361
 20
-20.87332058997995
 30
0.0
 10
2.513678526129853
 20
-20.87650204158085
 30
0.0
 10
2.517309793676322
 20
-20.87964255857083
 30
0.0
 10
2.52098571868125
 20
-20.8827417664248
 30
0.0
 10
2.524706395920652
 20
-20.8857987319905
 30
0.0
 10
2.528470165185356
 20
-20.88881158305009
 30
0.0
 10
2.532272765400197
 20
-20.89177688239525
 30
0.0
 10
2.536109435497438
 20
-20.89469030710537
 30
0.0
 10
2.539976919872233
 20
-20.89754954804833
 30
0.0
 10
2.543873666827213
 20
-20.90035417092714
 30
0.0
 10
2.54779990134836
 20
-20.90310417650205
 30
0.0
 10
2.551755764131872
 20
-20.90579974598761
 30
0.0
 10
2.555741427116891
 20
-20.90844101870715
 30
0.0
 10
2.559757053610771
 20
-20.91102814559451
 30
0.0
 10
2.563802810127088
 20
-20.91356127308329
 30
0.0
 10
2.567878791614624
 20
-20.91604051326567
 30
0.0
 10
2.571984980498231
 20
-20.91846588727526
 30
0.0
 10
2.576121388884918
 20
-20.92083716951713
 30
0.0
 10
2.580287993999349
 20
-20.92315414588988
 30
0.0
 10
2.584484815421277
 20
-20.92541661985658
 30
0.0
 10
2.588711872318385
 20
-20.92762439518087
 30
0.0
 10
2.592969181919306
 20
-20.92977727987718
 30
0.0
 10
2.597256769524408
 20
-20.93187506470776
 30
0.0
 10
2.60157491677751
 20
-20.93391774099559
 30
0.0
 10
2.605924130193289
 20
-20.9359050875395
 30
0.0
 10
2.610304646844447
 20
-20.93783671152089
 30
0.0
 10
2.614716048123813
 20
-20.93971214775343
 30
0.0
 10
2.619158595440755
 20
-20.94153121900919
 30
0.0
 10
2.623633017692945
 20
-20.94329348822566
 30
0.0
 10
2.628138807939342
 20
-20.94499827581639
 30
0.0
 10
2.632673148264729
 20
-20.94664429147305
 30
0.0
 10
2.637230214389809
 20
-20.9482288738019
 30
0.0
 10
2.641803412802964
 20
-20.94974981959307
 30
0.0
 10
2.646387684357696
 20
-20.95120587971603
 30
0.0
 10
2.650981380525254
 20
-20.95259656446059
 30
0.0
 10
2.655585000927038
 20
-20.95392225187033
 30
0.0
 10
2.660199057674693
 20
-20.95518328270462
 30
0.0
 10
2.664824059036848
 20
-20.95638000978716
 30
0.0
 10
2.66946051609604
 20
-20.95751277527035
 30
0.0
 10
2.674108656410809
 20
-20.95858188882513
 30
0.0
 10
2.678768331626023
 20
-20.95958747790087
 30
0.0
 10
2.683439276074354
 20
-20.960529297023
 30
0.0
 10
2.688121282650717
 20
-20.96140724684507
 30
0.0
 10
2.692814365647979
 20
-20.96222124409964
 30
0.0
 10
2.697518537494066
 20
-20.96297121358913
 30
0.0
 10
2.702233811060807
 20
-20.96365707816938
 30
0.0
 10
2.706960199251714
 20
-20.96427876056783
 30
0.0
 10
2.711697715475199
 20
-20.96483618626413
 30
0.0
 10
2.71644638187471
 20
-20.9653292711223
 30
0.0
 10
2.721206252837296
 20
-20.96575767224512
 30
0.0
 10
2.725977382810628
 20
-20.96612109928859
 30
0.0
 10
2.730759827455263
 20
-20.9664191120655
 30
0.0
 10
2.73555364223458
 20
-20.96665181908611
 30
0.0
 10
2.740358882695422
 20
-20.96681727926429
 30
0.0
 10
2.745175604163014
 20
-20.96692122178261
 30
0.0
 10
2.74839068929697
 20
-20.96693416567445
 30
0.0
 10
2.750000000000003
 20
-20.96694064473884
 30
0.0
  0
SPLINE
  5
209
330
1F
100
AcDbEntity
  8
SK3
  6
SLD-Dashed
370
    18
100
AcDbSpline
210
0.0
220
0.0
230
1.0
 70
     8
 71
     3
 72
   135
 73
   131
 74
     0
 42
0.000000001
 43
0.00000001
 40
0.0
 40
0.0
 40
0.0
 40
0.0
 40
0.0078951982393535
 40
0.0157833990815809
 40
0.0236661583325525
 40
0.0315450276558367
 40
0.0394215536578471
 40
0.0472972769807247
 40
0.0551737314055257
 40
0.0630524429683409
 40
0.0709361420252813
 40
0.0788238506165611
 40
0.0867114970578725
 40
0.0945949853785625
 40
0.10247020097489
 40
0.1103330161809865
 40
0.1181792958006467
 40
0.1260049026432105
 40
0.1338144185139036
 40
0.141615757718123
 40
0.1494097843206457
 40
0.1571973533785428
 40
0.1649793107925666
 40
0.1727564931678849
 40
0.1805297276843999
 40
0.1882998319767592
 40
0.1960689634516287
 40
0.2038394066750488
 40
0.211612159944386
 40
0.2193882168908489
 40
0.2271685661675228
 40
0.2349541911443168
 40
0.2427460696105467
 40
0.2505451734854183
 40
0.2583560389769976
 40
0.2661816682492672
 40
0.2740207179477687
 40
0.2818718384853024
 40
0.2897398161259781
 40
0.297622023701114
 40
0.3055059714812968
 40
0.3133791644923818
 40
0.3212337892771827
 40
0.3290715795460293
 40
0.3368943590106128
 40
0.3447039336858274
 40
0.3525020907647771
 40
0.3602905975277176
 40
0.3680712002883245
 40
0.3758456233809284
 40
0.38361495151973
 40
0.3913799673450654
 40
0.3991419179764436
 40
0.4069020408937762
 40
0.4146615633665774
 40
0.4224217018986502
 40
0.4301836616894377
 40
0.437948636113292
 40
0.4457178041747003
 40
0.4534923548783059
 40
0.461273484517849
 40
0.4690623859409972
 40
0.4768602480146609
 40
0.4846682550990445
 40
0.4924875865316327
 40
0.5003194161219494
 40
0.5081666757724812
 40
0.5160277245387401
 40
0.5238968442461953
 40
0.5317682932859188
 40
0.5396363123876085
 40
0.5474951302547806
 40
0.5553389691239677
 40
0.5631620503089667
 40
0.570969239679453
 40
0.5787695195195857
 40
0.5865632874583531
 40
0.5943509306972982
 40
0.602132826157669
 40
0.609909340633031
 40
0.6176808309473465
 40
0.6254476441182913
 40
0.6332112109189828
 40
0.6409734299116778
 40
0.6487353400818746
 40
0.6564979753301967
 40
0.6642623640685701
 40
0.6720295288240157
 40
0.6798004858505611
 40
0.6875762447500903
 40
0.6953571763089891
 40
0.7031440250676193
 40
0.7109383589363573
 40
0.7187417487530868
 40
0.7265557674545646
 40
0.7343819892484164
 40
0.7422219887881234
 40
0.750077340353626
 40
0.7579463038540735
 40
0.7658199527656792
 40
0.7736890660567276
 40
0.7815444132482993
 40
0.7893857016324112
 40
0.7972179773014019
 40
0.8050400117016651
 40
0.812850569191434
 40
0.820651708312803
 40
0.8284467116860166
 40
0.8362361730772621
 40
0.8440206808483298
 40
0.851800817878269
 40
0.8595771614892274
 40
0.8673502833759336
 40
0.8751207495394373
 40
0.8828900527425851
 40
0.8906599012669768
 40
0.8984311852507784
 40
0.9062047991389524
 40
0.9139816413792509
 40
0.9217626141140668
 40
0.9295486228685754
 40
0.9373405762358697
 40
0.9451393855595496
 40
0.9529459646142063
 40
0.9607612292845576
 40
0.9685860972437331
 40
0.9764214876311433
 40
0.9842683207307228
 40
0.9921275176499069
 40
1.0
 40
1.0
 40
1.0
 40
1.0
 10
2.749999999999985
 20
20.96694064473882
 30
0.0
 10
2.748386932988099
 20
20.96693412668372
 30
0.0
 10
2.745162228601686
 20
20.9669210963504
 30
0.0
 10
2.740327935035595
 20
20.96681635618187
 30
0.0
 10
2.73549884579211
 20
20.9666493622825
 30
0.0
 10
2.730674939779351
 20
20.96641411424432
 30
0.0
 10
2.725856196269802
 20
20.96611234992931
 30
0.0
 10
2.721042592465782
 20
20.96574375362822
 30
0.0
 10
2.716234113438559
 20
20.96530849229221
 30
0.0
 10
2.711430468306649
 20
20.96480682914903
 30
0.0
 10
2.706631982298574
 20
20.96423810083626
 30
0.0
 10
2.701840100384473
 20
20.96360216141527
 30
0.0
 10
2.69705752219451
 20
20.96289998125089
 30
0.0
 10
2.692287601094888
 20
20.96213233152721
 30
0.0
 10
2.687533680794986
 20
20.96130006151723
 30
0.0
 10
2.682799111628155
 20
20.96040398122346
 30
0.0
 10
2.678087227169332
 20
20.95944497957063
 30
0.0
 10
2.673399681297911
 20
20.95842329083699
 30
0.0
 10
2.668735533089166
 20
20.95733950422959
 30
0.0
 10
2.664092730874914
 20
20.95619429960283
 30
0.0
 10
2.659470212895668
 20
20.95498741326911
 30
0.0
 10
2.654868256742858
 20
20.95371917939093
 30
0.0
 10
2.650287156475158
 20
20.95238985960621
 30
0.0
 10
2.645727202121547
 20
20.950999733829
 30
0.0
 10
2.641188683335284
 20
20.94954908132719
 30
0.0
 10
2.636671633777258
 20
20.94803807826957
 30
0.0
 10
2.632175784252085
 20
20.94646684807418
 30
0.0
 10
2.627700848839763
 20
20.94483542776587
 30
0.0
 10
2.623246791933741
 20
20.94314385041028
 30
0.0
 10
2.618813818919476
 20
20.94139225316351
 30
0.0
 10
2.614402137931152
 20
20.93958076611615
 30
0.0
 10
2.610011952313048
 20
20.93770952999349
 30
0.0
 10
2.60564348178197
 20
20.93577865006097
 30
0.0
 10
2.601296221959972
 20
20.9337880592839
 30
0.0
 10
2.596969536931154
 20
20.9317369815345
 30
0.0
 10
2.592663187819697
 20
20.92962494434752
 30
0.0
 10
2.588377838543423
 20
20.92745237171212
 30
0.0
 10
2.584113825118734
 20
20.92521950337008
 30
0.0
 10
2.579872026011583
 20
20.92292611560859
 30
0.0
 10
2.575655099082326
 20
20.92057351612102
 30
0.0
 10
2.571468539605719
 20
20.91816515424033
 30
0.0
 10
2.567318995598197
 20
20.91570459062526
 30
0.0
 10
2.56321018627918
 20
20.91319464279913
 30
0.0
 10
2.559142990685545
 20
20.91063710962093
 30
0.0
 10
2.55511705448518
 20
20.90803201171119
 30
0.0
 10
2.551131880122311
 20
20.90537956448612
 30
0.0
 10
2.547187003357922
 20
20.9026799282286
 30
0.0
 10
2.543281950768602
 20
20.89993327832059
 30
0.0
 10
2.53941625221518
 20
20.89713978485203
 30
0.0
 10
2.535589534540137
 20
20.89429969918735
 30
0.0
 10
2.53180157895348
 20
20.89141336986812
 30
0.0
 10
2.528052389719361
 20
20.88848099598042
 30
0.0
 10
2.524341925040861
 20
20.88550277801669
 30
0.0
 10
2.520670069597044
 20
20.88247885287851
 30
0.0
 10
2.517036707457306
 20
20.87940935843691
 30
0.0
 10
2.513441721592442
 20
20.87629443367891
 30
0.0
 10
2.509884999867253
 20
20.87313421219469
 30
0.0
 10
2.506366411857202
 20
20.86992884836605
 30
0.0
 10
2.502885893451425
 20
20.86667841702283
 30
0.0
 10
2.499443496673253
 20
20.86338286488014
 30
0.0
 10
2.496039200414216
 20
20.86004221149993
 30
0.0
 10
2.492672999633431
 20
20.85665645564436
 30
0.0
 10
2.48934488855646
 20
20.85322559770364
 30
0.0
 10
2.486054846614861
 20
20.84974965102374
 30
0.0
 10
2.482802913179002
 20
20.8462285754263
 30
0.0
 10
2.479588660775902
 20
20.84266226460063
 30
0.0
 10
2.476412898969484
 20
20.83905027431048
 30
0.0
 10
2.473277022220969
 20
20.83539356243408
 30
0.0
 10
2.470182784797816
 20
20.83169510683785
 30
0.0
 10
2.467132716327243
 20
20.82795830486438
 30
0.0
 10
2.464129280432407
 20
20.82418661137451
 30
0.0
 10
2.461174974750948
 20
20.82038345382944
 30
0.0
 10
2.458272226691633
 20
20.8165523121339
 30
0.0
 10
2.455422417577379
 20
20.8126947363094
 30
0.0
 10
2.452624353629957
 20
20.80881043318718
 30
0.0
 10
2.449875728141806
 20
20.80489830996245
 30
0.0
 10
2.447175765558201
 20
20.8009572841418
 30
0.0
 10
2.444524469661277
 20
20.79698787236547
 30
0.0
 10
2.441921908910945
 20
20.79299054416728
 30
0.0
 10
2.439368137327804
 20
20.78896577996606
 30
0.0
 10
2.436863202090763
 20
20.78491406365744
 30
0.0
 10
2.434407076875331
 20
20.78083566298069
 30
0.0
 10
2.43199942302849
 20
20.77673065846369
 30
0.0
 10
2.429639896605765
 20
20.77259895701655
 30
0.0
 10
2.427328362910547
 20
20.76844043316215
 30
0.0
 10
2.425064732499655
 20
20.7642551374485
 30
0.0
 10
2.422848927320745
 20
20.76004311369695
 30
0.0
 10
2.420680866793477
 20
20.75580440728714
 30
0.0
 10
2.41856046898467
 20
20.75153906409721
 30
0.0
 10
2.416487715972754
 20
20.74724724268671
 30
0.0
 10
2.414462575365177
 20
20.74292916455892
 30
0.0
 10
2.412485163303528
 20
20.73858485200404
 30
0.0
 10
2.410555513151938
 20
20.73421409866629
 30
0.0
 10
2.408673578278951
 20
20.72981655048766
 30
0.0
 10
2.406839316862265
 20
20.72539185146351
 30
0.0
 10
2.405052676585701
 20
20.72093964952396
 30
0.0
 10
2.403313642240764
 20
20.71645957882147
 30
0.0
 10
2.401622297986918
 20
20.7119519586318
 30
0.0
 10
2.399979944082419
 20
20.70741894461683
 30
0.0
 10
2.398388285020133
 20
20.70286490545133
 30
0.0
 10
2.396849013070967
 20
20.69829582969492
 30
0.0
 10
2.395363521018239
 20
20.69371593704948
 30
0.0
 10
2.393931991770799
 20
20.68912677662165
 30
0.0
 10
2.392553811711626
 20
20.68452841952473
 30
0.0
 10
2.391228853975988
 20
20.67992097807528
 30
0.0
 10
2.38995717317994
 20
20.67530514696799
 30
0.0
 10
2.388738337754464
 20
20.67068079373766
 30
0.0
 10
2.387571774651951
 20
20.66604742329536
 30
0.0
 10
2.386457329738876
 20
20.66140473610276
 30
0.0
 10
2.385394905120199
 20
20.65675298513302
 30
0.0
 10
2.384384423749441
 20
20.65209241764474
 30
0.0
 10
2.383425808572273
 20
20.64742328142865
 30
0.0
 10
2.382518961733484
 20
20.64274582784097
 30
0.0
 10
2.381663834317059
 20
20.6380601060103
 30
0.0
 10
2.380860035174924
 20
20.63336598666118
 30
0.0
 10
2.380107351498912
 20
20.62866323111205
 30
0.0
 10
2.379405913237493
 20
20.62395166862768
 30
0.0
 10
2.378755795056052
 20
20.61923130854017
 30
0.0
 10
2.378157094019249
 20
20.61450215633209
 30
0.0
 10
2.377609901216847
 20
20.60976421852215
 30
0.0
 10
2.37711430918347
 20
20.60501750135494
 30
0.0
 10
2.376670410604027
 20
20.60026201115161
 30
0.0
 10
2.376278296064134
 20
20.59549775421565
 30
0.0
 10
2.375938064356965
 20
20.590724736856
 30
0.0
 10
2.37564978344814
 20
20.58594296538613
 30
0.0
 10
2.375413636542922
 20
20.58115244610214
 30
0.0
 10
2.375229375890305
 20
20.57635318536808
 30
0.0
 10
2.375098365425987
 20
20.57154518929358
 30
0.0
 10
2.375015940483199
 20
20.56672846493773
 30
0.0
 10
2.37500531648506
 20
20.56351433873748
 30
0.0
 10
2.374999999999988
 20
20.56190591846972
 30
0.0
  0
SPLINE
  5
20A
330
1F
100
AcDbEntity
  8
1
  6
SLD-Dashed
370
    18
100
AcDbSpline
210
0.0
220
0.0
230
1.0
 70
     8
 71
     3
 72
     8
 73
     4
 74
     0
 42
0.000000001
 43
0.00000001
 40
0.0
 40
0.0
 40
0.0
 40
0.0
 40
1.0
 40
1.0
 40
1.0
 40
1.0
 10
11.4000000000017
 20
18.09532860176992
 30
0.0
 10
10.89434699821419
 20
19.0548864238957
 30
0.0
 10
10.38346933995439
 20
20.01180319386788
 30
0.0
 10
9.869071747017898
 20
20.96694064473884
 30
0.0
  0
SPLINE
  5
20B
330
1F
100
AcDbEntity
  8
1
  6
SLD-Dashed
370
    18
100
AcDbSpline
210
0.0
220
0.0
230
1.0
 70
     8
 71
     3
 72
     8
 73
     4
 74
     0
 42
0.000000001
 43
0.00000001
 40
0.0
 40
0.0
 40
0.0
 40
0.0
 40
1.0
 40
1.0
 40
1.0
 40
1.0
 10
11.40000000000173
 20
-18.09532860176989
 30
0.0
 10
10.89428872080337
 20
-19.05499701464225
 30
0.0
 10
10.38340163897135
 20
-20.01192890157016
 30
0.0
 10
9.869071747011931
 20
-20.96694064473558
 30
0.0
  0
SPLINE
  5
20C
330
1F
100
AcDbEntity
  8
1
  6
SLD-Dashed
370
    18
100
AcDbSpline
210
0.0
220
0.0
230
1.0
 70
     8
 71
     3
 72
     8
 73
     4
 74
     0
 42
0.000000001
 43
0.00000001
 40
0.0
 40
0.0
 40
0.0
 40
0.0
 40
0.0006887074915324
 40
0.0006887074915324
 40
0.0006887074915324
 40
0.0006887074915324
 10
9.57298187240234
 20
21.31461266515788
 30
0.0
 10
9.672099735103004
 20
21.19883443678685
 30
0.0
 10
9.770807239797758
 20
21.08294605744473
 30
0.0
 10
9.869071747017898
 20
20.96694064473884
 30
0.0
  0
SPLINE
  5
20D
330
1F
100
AcDbEntity
  8
1
  6
SLD-Dashed
370
    18
100
AcDbSpline
210
0.0
220
0.0
230
1.0
 70
     8
 71
     3
 72
    16
 73
    12
 74
     0
 42
0.000000001
 43
0.00000001
 40
0.0
 40
0.0
 40
0.0
 40
0.0
 40
0.0680357693717727
 40
0.1216271915822843
 40
0.2437825385131753
 40
0.3664174069515734
 40
0.4907311408778927
 40
0.6196738302135131
 40
0.742921052508262
 40
0.8723479675774792
 40
1.0
 40
1.0
 40
1.0
 40
1.0
 10
2.000000000000009
 20
20.56190591846973
 30
0.0
 10
2.000796789485615
 20
20.58840543154611
 30
0.0
 10
2.002221205911169
 20
20.63577847345539
 30
0.0
 10
2.016562271675792
 20
20.72978897881837
 30
0.0
 10
2.049010913405286
 20
20.84222874359078
 30
0.0
 10
2.115216794569608
 20
20.97140279656776
 30
0.0
 10
2.206796006805408
 20
21.0880007036625
 30
0.0
 10
2.320292410375589
 20
21.18491683743916
 30
0.0
 10
2.452780038404843
 20
21.2580795607438
 30
0.0
 10
2.597289938882724
 20
21.30559252571815
 30
0.0
 10
2.699331479161529
 20
21.3116198229062
 30
0.0
 10
2.750000000000003
 20
21.31461266515787
 30
0.0
  0
INSERT
  5
20E
330
1F
100
AcDbEntity
  8
81
100
AcDbBlockReference
  2
Block11
 10
-11.6264826505
 20
-130.2676275275
 30
0.0
  0
INSERT
  5
20F
330
1F
100
AcDbEntity
  8
80
100
AcDbBlockReference
  2
Block12
 10
-61.7273641656
 20
-130.3356800267
 30
0.0
  0
DIMENSION
  5
210
330
1F
100
AcDbEntity
  8
SK2
100
AcDbDimension
  2
_D
 10
65.5
 20
26.9583637828
 30
0.0
 11
72.645768659
 21
26.9583637828
 31
0.0
 70
   160
  1
<>
 71
     2
 42
-1.0
  3
SLDDIMSTYLE0
100
AcDbAlignedDimension
 13
80.0
 23
18.0
 33
0.0
 14
65.5
 24
20.45
 34
0.0
100
AcDbRotatedDimension
  0
DIMENSION
  5
21C
330
1F
100
AcDbEntity
  8
SK2
100
AcDbDimension
  2
_D_1
 10
42.5
 20
26.9583637828
 30
0.0
 11
53.7034544239
 21
26.9583637828
 31
0.0
 70
   160
  1
<>
 71
     2
 42
-1.0
  3
SLDDIMSTYLE0
100
AcDbAlignedDimension
 13
65.5
 23
20.45
 33
0.0
 14
42.5
 24
20.45
 34
0.0
 50
0.0
100
AcDbRotatedDimension
  0
DIMENSION
  5
226
330
1F
100
AcDbEntity
  8
SK2
100
AcDbDimension
  2
_D_2
 10
22.1
 20
36.2775772032
 30
0.0
 11
51.880130059
 21
36.2775772032
 31
0.0
 70
   160
  1
<>
 71
     2
 42
-1.0
  3
SLDDIMSTYLE0
100
AcDbAlignedDimension
 13
80.0
 23
18.0
 33
0.0
 14
22.1
 24
22.24
 34
0.0
100
AcDbRotatedDimension
  0
DIMENSION
  5
230
330
1F
100
AcDbEntity
  8
SK2
100
AcDbDimension
  2
_D_3
 10
22.1
 20
36.2775772032
 30
0.0
 11
11.3618108396
 21
36.2775772032
 31
0.0
 70
   160
  1
<>
 71
     2
 42
-1.0
  3
SLDDIMSTYLE0
100
AcDbAlignedDimension
 13
0.0
 23
15.875
 33
0.0
 14
22.1
 24
22.24
 34
0.0
100
AcDbRotatedDimension
  0
DIMENSION
  5
23A
330
1F
100
AcDbEntity
  8
2
100
AcDbDimension
  2
_D_4
 10
80.0
 20
45.1916074315
 30
0.0
 11
39.7246342932
 21
45.1916074315
 31
0.0
 70
   160
  1
<>
 71
     2
 42
-1.0
  3
SLDDIMSTYLE0
100
AcDbAlignedDimension
 13
0.0
 23
15.875
 33
0.0
 14
80.0
 24
18.0
 34
0.0
100
AcDbRotatedDimension
  0
DIMENSION
  5
244
330
1F
100
AcDbEntity
  8
SK2
100
AcDbDimension
  2
_D_5
 10
112.6642920549
 20
20.0
 30
0.0
 11
112.6642920549
 21
-0.728540907
 31
0.0
 70
   160
  1
%%c<>
 71
     2
 42
-1.0
  3
SLDDIMSTYLE0
100
AcDbAlignedDimension
 13
78.0
 23
-20.0
 33
0.0
 14
78.0
 24
20.0
 34
0.0
 50
90.0
100
AcDbRotatedDimension
  0
DIMENSION
  5
24F
330
1F
100
AcDbEntity
  8
SK2
100
AcDbDimension
  2
_D_6
 10
102.742956843
 20
18.0
 30
0.0
 11
102.742956843
 21
-0.728540907
 31
0.0
 70
   160
  1
%%c<>
 71
     2
 42
-1.0
  3
SLDDIMSTYLE0
100
AcDbAlignedDimension
 13
80.0
 23
-18.0
 33
0.0
 14
80.0
 24
18.0
 34
0.0
 50
90.0
100
AcDbRotatedDimension
  0
DIMENSION
  5
25A
330
1F
100
AcDbEntity
  8
SK2
100
AcDbDimension
  2
_D_7
 10
92.4651192551
 20
10.0
 30
0.0
 11
92.4651192551
 21
-0.728540907
 31
0.0
 70
   160
  1
%%c<>
 71
     2
 42
-1.0
  3
SLDDIMSTYLE0
100
AcDbAlignedDimension
 13
78.2679491924
 23
-10.0
 33
0.0
 14
78.2679491924
 24
10.0
 34
0.0
 50
90.0
100
AcDbRotatedDimension
  0
DIMENSION
  5
265
330
1F
100
AcDbEntity
  8
SK2
100
AcDbDimension
  2
_D_8
 10
31.5
 20
-30.0620130525
 30
0.0
 11
55.3298297646
 21
-30.0620130525
 31
0.0
 70
   160
  1
<>
 71
     2
 42
-1.0
  3
SLDDIMSTYLE0
100
AcDbAlignedDimension
 13
80.0
 23
-18.0
 33
0.0
 14
31.5
 24
-10.25
 34
0.0
100
AcDbRotatedDimension
  0
DIMENSION
  5
26F
330
1F
100
AcDbEntity
  8
SK2
100
AcDbDimension
  2
_D_9
 10
-73.6843612765
 20
-22.99
 30
0.0
 11
-73.6843612765
 21
-0.728540907
 31
0.0
 70
   160
  1
%%c<>
 71
     2
 42
-1.0
  3
SLDDIMSTYLE0
100
AcDbAlignedDimension
 13
19.874649423
 23
22.99
 33
0.0
 14
19.8746494411
 24
-22.99
 34
0.0
 50
90.0
100
AcDbRotatedDimension
  0
DIMENSION
  5
27A
330
1F
100
AcDbEntity
  8
SK2
100
AcDbDimension
  2
_D_10
 10
-63.2967557407
 20
15.875
 30
0.0
 11
-63.2967557407
 21
-0.728540907
 31
0.0
 70
   160
  1
%%c<>
 71
     2
 42
-1.0
  3
SLDDIMSTYLE0
100
AcDbAlignedDimension
 13
0.0
 23
-15.875
 33
0.0
 14
0.0
 24
15.875
 34
0.0
 50
90.0
100
AcDbRotatedDimension
  0
DIMENSION
  5
285
330
1F
100
AcDbEntity
  8
SK2
100
AcDbDimension
  2
_D_11
 10
-55.228206351
 20
6.0000000522
 30
0.0
 11
-55.228206351
 21
0.2221582637
 31
0.0
 70
   160
  1
M<>
 71
     2
 42
-1.0
  3
SLDDIMSTYLE0
100
AcDbAlignedDimension
 13
-40.7891571522
 23
-6.0000000522
 33
0.0
 14
-40.7891571522
 24
6.0000000522
 34
0.0
 50
90.0
100
AcDbRotatedDimension
  0
MTEXT
  5
290
330
1F
100
AcDbEntity
  8
SK6
 62
     5
100
AcDbMText
 10
-47.7185448656
 20
-26.5759703857
 30
0.0
 40
3.5
 41
0.0
 71
     1
 72
     1
  1
A227-30 20 080
  7
SLDTEXTSTYLE0
 73
     1
 44
1.0
  0
MTEXT
  5
291
330
1F
100
AcDbEntity
  8
SK6
 62
     5
100
AcDbMText
 10
-32.0355361506
 20
21.0998447017
 30
0.0
 40
3.5
 41
0.0
 71
     1
 72
     1
  1
MAS-403 BT30
  7
SLDTEXTSTYLE0
 73
     1
 44
1.0
  0
ENDSEC
  0
SECTION
  2
OBJECTS
  0
DICTIONARY
  5
C
330
0
100
AcDbDictionary
281
     1
  3
ACAD_GROUP
350
D
  3
ACAD_LAYOUT
350
1A
  3
ACAD_MLINESTYLE
350
17
  3
ACAD_PLOTSETTINGS
350
19
  3
ACAD_PLOTSTYLENAME
350
E
  3
ACAD_SCALELIST
350
47
  0
DICTIONARY
  5
D
102
{ACAD_REACTORS
330
C
102
}
330
C
100
AcDbDictionary
281
     1
  0
DICTIONARY
  5
1A
102
{ACAD_REACTORS
330
C
102
}
330
C
100
AcDbDictionary
281
     1
  3
Layout1
350
1E
  3
Layout2
350
26
  3
Model
350
22
  0
DICTIONARY
  5
17
102
{ACAD_REACTORS
330
C
102
}
330
C
100
AcDbDictionary
281
     1
  3
Standard
350
18
  0
DICTIONARY
  5
19
102
{ACAD_REACTORS
330
C
102
}
330
C
100
AcDbDictionary
281
     1
  0
ACDBDICTIONARYWDFLT
  5
E
102
{ACAD_REACTORS
330
C
102
}
330
C
100
AcDbDictionary
281
     1
  3
Normal
350
F
100
AcDbDictionaryWithDefault
340
F
  0
DICTIONARY
  5
47
102
{ACAD_REACTORS
330
C
102
}
330
C
100
AcDbDictionary
281
     1
  3
A0
350
48
  3
A1
350
49
  3
A2
350
4A
  3
A3
350
4B
  3
A4
350
4C
  3
A5
350
4D
  3
A6
350
4E
  3
A7
350
4F
  3
A8
350
50
  3
A9
350
51
  3
B0
350
52
  3
B1
350
53
  3
B2
350
54
  3
B3
350
55
  3
B4
350
56
  3
B5
350
57
  3
B6
350
58
  3
B7
350
59
  3
B8
350
5A
  3
B9
350
5B
  3
C0
350
5C
  3
C1
350
5D
  3
C2
350
5E
  3
C3
350
5F
  3
C4
350
60
  3
C5
350
61
  3
C6
350
62
  3
C7
350
63
  3
C8
350
64
  3
C9
350
65
  3
D0
350
66
  3
D1
350
67
  3
D2
350
68
  0
LAYOUT
  5
1E
102
{ACAD_REACTORS
330
1A
102
}
330
1A
100
AcDbPlotSettings
  1

  2
none_device
  4

  6

 40
0.0
 41
0.0
 42
0.0
 43
0.0
 44
0.0
 45
0.0
 46
0.0
 47
0.0
 48
0.0
 49
0.0
140
0.0
141
0.0
142
1.0
143
1.0
 70
   688
 72
     1
 73
     0
 74
     5
  7

 75
    16
147
1.0
148
0.0
149
0.0
100
AcDbLayout
  1
Layout1
 70
     1
 71
     1
 10
0.0
 20
0.0
 11
420.0
 21
297.0
 12
0.0
 22
0.0
 32
0.0
 14
1.0000000000E+20
 24
1.0000000000E+20
 34
1.0000000000E+20
 15
-1.0000000000E+20
 25
-1.0000000000E+20
 35
-1.0000000000E+20
146
0.0
 13
0.0
 23
0.0
 33
0.0
 16
1.0
 26
0.0
 36
0.0
 17
0.0
 27
1.0
 37
0.0
 76
     0
330
1B
  0
LAYOUT
  5
26
102
{ACAD_REACTORS
330
1A
102
}
330
1A
100
AcDbPlotSettings
  1

  2
none_device
  4

  6

 40
0.0
 41
0.0
 42
0.0
 43
0.0
 44
0.0
 45
0.0
 46
0.0
 47
0.0
 48
0.0
 49
0.0
140
0.0
141
0.0
142
1.0
143
1.0
 70
   688
 72
     1
 73
     0
 74
     5
  7

 75
    16
147
1.0
148
0.0
149
0.0
100
AcDbLayout
  1
Layout2
 70
     1
 71
     2
 10
0.0
 20
0.0
 11
0.0
 21
0.0
 12
0.0
 22
0.0
 32
0.0
 14
0.0
 24
0.0
 34
0.0
 15
0.0
 25
0.0
 35
0.0
146
0.0
 13
0.0
 23
0.0
 33
0.0
 16
1.0
 26
0.0
 36
0.0
 17
0.0
 27
1.0
 37
0.0
 76
     0
330
23
  0
LAYOUT
  5
22
102
{ACAD_REACTORS
330
1A
102
}
330
1A
100
AcDbPlotSettings
  1

  2
none_device
  4
Letter_(8.50_x_11.00_Inches)
  6

 40
6.35
 41
6.35
 42
6.35000508
 43
6.35000508
 44
215.9
 45
279.4
 46
0.0
 47
0.0
 48
0.0
 49
0.0
140
0.0
141
0.0
142
1.0
143
1.0
 70
  1712
 72
     1
 73
     0
 74
     0
  7

 75
     0
147
1.0
148
0.0
149
0.0
100
AcDbLayout
  1
Model
 70
     1
 71
     0
 10
0.0
 20
0.0
 11
297.0
 21
210.0
 12
0.0
 22
0.0
 32
0.0
 14
0.0
 24
0.0
 34
0.0
 15
297.0
 25
210.0
 35
0.0
146
0.0
 13
0.0
 23
0.0
 33
0.0
 16
1.0
 26
0.0
 36
0.0
 17
0.0
 27
1.0
 37
0.0
 76
     0
330
1F
331
29
  0
MLINESTYLE
  5
18
102
{ACAD_REACTORS
330
17
102
}
330
17
100
AcDbMlineStyle
  2
Standard
 70
     0
  3

 62
   256
 51
90.0
 52
90.0
 71
     2
 49
0.5
 62
   256
  6
BYLAYER
 49
-0.5
 62
   256
  6
BYLAYER
  0
ACDBPLACEHOLDER
  5
F
102
{ACAD_REACTORS
330
E
102
}
330
E
  0
SCALE
  5
48
102
{ACAD_REACTORS
330
47
102
}
330
47
100
AcDbScale
 70
     0
300
1:1
140
1.0
141
1.0
290
     1
  0
SCALE
  5
49
102
{ACAD_REACTORS
330
47
102
}
330
47
100
AcDbScale
 70
     0
300
1:2
140
1.0
141
2.0
290
     0
  0
SCALE
  5
4A
102
{ACAD_REACTORS
330
47
102
}
330
47
100
AcDbScale
 70
     0
300
1:4
140
1.0
141
4.0
290
     0
  0
SCALE
  5
4B
102
{ACAD_REACTORS
330
47
102
}
330
47
100
AcDbScale
 70
     0
300
1:5
140
1.0
141
5.0
290
     0
  0
SCALE
  5
4C
102
{ACAD_REACTORS
330
47
102
}
330
47
100
AcDbScale
 70
     0
300
1:8
140
1.0
141
8.0
290
     0
  0
SCALE
  5
4D
102
{ACAD_REACTORS
330
47
102
}
330
47
100
AcDbScale
 70
     0
300
1:10
140
1.0
141
10.0
290
     0
  0
SCALE
  5
4E
102
{ACAD_REACTORS
330
47
102
}
330
47
100
AcDbScale
 70
     0
300
1:16
140
1.0
141
16.0
290
     0
  0
SCALE
  5
4F
102
{ACAD_REACTORS
330
47
102
}
330
47
100
AcDbScale
 70
     0
300
1:20
140
1.0
141
20.0
290
     0
  0
SCALE
  5
50
102
{ACAD_REACTORS
330
47
102
}
330
47
100
AcDbScale
 70
     0
300
1:30
140
1.0
141
30.0
290
     0
  0
SCALE
  5
51
102
{ACAD_REACTORS
330
47
102
}
330
47
100
AcDbScale
 70
     0
300
1:40
140
1.0
141
40.0
290
     0
  0
SCALE
  5
52
102
{ACAD_REACTORS
330
47
102
}
330
47
100
AcDbScale
 70
     0
300
1:50
140
1.0
141
50.0
290
     0
  0
SCALE
  5
53
102
{ACAD_REACTORS
330
47
102
}
330
47
100
AcDbScale
 70
     0
300
1:100
140
1.0
141
100.0
290
     0
  0
SCALE
  5
54
102
{ACAD_REACTORS
330
47
102
}
330
47
100
AcDbScale
 70
     0
300
2:1
140
2.0
141
1.0
290
     0
  0
SCALE
  5
55
102
{ACAD_REACTORS
330
47
102
}
330
47
100
AcDbScale
 70
     0
300
4:1
140
4.0
141
1.0
290
     0
  0
SCALE
  5
56
102
{ACAD_REACTORS
330
47
102
}
330
47
100
AcDbScale
 70
     0
300
8:1
140
8.0
141
1.0
290
     0
  0
SCALE
  5
57
102
{ACAD_REACTORS
330
47
102
}
330
47
100
AcDbScale
 70
     0
300
10:1
140
10.0
141
1.0
290
     0
  0
SCALE
  5
58
102
{ACAD_REACTORS
330
47
102
}
330
47
100
AcDbScale
 70
     0
300
100:1
140
100.0
141
1.0
290
     0
  0
SCALE
  5
59
102
{ACAD_REACTORS
330
47
102
}
330
47
100
AcDbScale
 70
     0
300
1/128" = 1'-0"
140
0.0078125
141
12.0
290
     0
  0
SCALE
  5
5A
102
{ACAD_REACTORS
330
47
102
}
330
47
100
AcDbScale
 70
     0
300
1/64" = 1'-0"
140
0.015625
141
12.0
290
     0
  0
SCALE
  5
5B
102
{ACAD_REACTORS
330
47
102
}
330
47
100
AcDbScale
 70
     0
300
1/32" = 1'-0"
140
0.03125
141
12.0
290
     0
  0
SCALE
  5
5C
102
{ACAD_REACTORS
330
47
102
}
330
47
100
AcDbScale
 70
     0
300
1/16" = 1'-0"
140
0.0625
141
12.0
290
     0
  0
SCALE
  5
5D
102
{ACAD_REACTORS
330
47
102
}
330
47
100
AcDbScale
 70
     0
300
3/32" = 1'-0"
140
0.09375
141
12.0
290
     0
  0
SCALE
  5
5E
102
{ACAD_REACTORS
330
47
102
}
330
47
100
AcDbScale
 70
     0
300
1/8" = 1'-0"
140
0.125
141
12.0
290
     0
  0
SCALE
  5
5F
102
{ACAD_REACTORS
330
47
102
}
330
47
100
AcDbScale
 70
     0
300
3/16" = 1'-0"
140
0.1875
141
12.0
290
     0
  0
SCALE
  5
60
102
{ACAD_REACTORS
330
47
102
}
330
47
100
AcDbScale
 70
     0
300
1/4" = 1'-0"
140
0.25
141
12.0
290
     0
  0
SCALE
  5
61
102
{ACAD_REACTORS
330
47
102
}
330
47
100
AcDbScale
 70
     0
300
3/8" = 1'-0"
140
0.375
141
12.0
290
     0
  0
SCALE
  5
62
102
{ACAD_REACTORS
330
47
102
}
330
47
100
AcDbScale
 70
     0
300
1/2" = 1'-0"
140
0.5
141
12.0
290
     0
  0
SCALE
  5
63
102
{ACAD_REACTORS
330
47
102
}
330
47
100
AcDbScale
 70
     0
300
3/4" = 1'-0"
140
0.75
141
12.0
290
     0
  0
SCALE
  5
64
102
{ACAD_REACTORS
330
47
102
}
330
47
100
AcDbScale
 70
     0
300
1" = 1'-0"
140
1.0
141
12.0
290
     0
  0
SCALE
  5
65
102
{ACAD_REACTORS
330
47
102
}
330
47
100
AcDbScale
 70
     0
300
1-1/2" = 1'-0"
140
1.5
141
12.0
290
     0
  0
SCALE
  5
66
102
{ACAD_REACTORS
330
47
102
}
330
47
100
AcDbScale
 70
     0
300
3" = 1'-0"
140
3.0
141
12.0
290
     0
  0
SCALE
  5
67
102
{ACAD_REACTORS
330
47
102
}
330
47
100
AcDbScale
 70
     0
300
6" = 1'-0"
140
6.0
141
12.0
290
     0
  0
SCALE
  5
68
102
{ACAD_REACTORS
330
47
102
}
330
47
100
AcDbScale
 70
     0
300
1'-0" = 1'-0"
140
12.0
141
12.0
290
     0
  0
ENDSEC
  0
EOF
