  0
SECTION
  2
HEADER
  9
$ACADVER
  1
AC1015
  9
$ACADMAINTVER
 70
     6
  9
$DWGCODEPAGE
  3
ANSI_1250
  9
$INSBASE
 10
0.0
 20
0.0
 30
0.0
  9
$EXTMIN
 10
0.0
 20
0.0
 30
0.0
  9
$EXTMAX
 10
297.0
 20
210.0
 30
0.0
  9
$LIMMIN
 10
0.0
 20
0.0
  9
$LIMMAX
 10
297.0
 20
210.0
  9
$ORTHOMODE
 70
     0
  9
$REGENMODE
 70
     1
  9
$FILLMODE
 70
     1
  9
$QTEXTMODE
 70
     0
  9
$MIRRTEXT
 70
     1
  9
$LTSCALE
 40
1.0
  9
$ATTMODE
 70
     1
  9
$TEXTSIZE
 40
3.5
  9
$TRACEWID
 40
1.0
  9
$TEXTSTYLE
  7
Standard
  9
$CLAYER
  8
0
  9
$CELTYPE
  6
ByLayer
  9
$CECOLOR
 62
   256
  9
$CELTSCALE
 40
1.0
  9
$DISPSILH
 70
     0
  9
$DIMSCALE
 40
1.0
  9
$DIMASZ
 40
3.302
  9
$DIMEXO
 40
1.0
  9
$DIMDLI
 40
3.75
  9
$DIMRND
 40
0.0
  9
$DIMDLE
 40
0.0
  9
$DIMEXE
 40
1.0
  9
$DIMTP
 40
0.0
  9
$DIMTM
 40
0.0
  9
$DIMTXT
 40
3.5
  9
$DIMCEN
 40
2.5
  9
$DIMTSZ
 40
0.0
  9
$DIMTOL
 70
     0
  9
$DIMLIM
 70
     0
  9
$DIMTIH
 70
     1
  9
$DIMTOH
 70
     1
  9
$DIMSE1
 70
     0
  9
$DIMSE2
 70
     0
  9
$DIMTAD
 70
     1
  9
$DIMZIN
 70
     0
  9
$DIMBLK
  1

  9
$DIMASO
 70
     1
  9
$DIMSHO
 70
     1
  9
$DIMPOST
  1

  9
$DIMAPOST
  1

  9
$DIMALT
 70
     0
  9
$DIMALTD
 70
     3
  9
$DIMALTF
 40
0.0393700787
  9
$DIMLFAC
 40
1.0
  9
$DIMTOFL
 70
     1
  9
$DIMTVP
 40
0.0
  9
$DIMTIX
 70
     0
  9
$DIMSOXD
 70
     0
  9
$DIMSAH
 70
     0
  9
$DIMBLK1
  1

  9
$DIMBLK2
  1

  9
$DIMSTYLE
  2
ISO-25
  9
$DIMCLRD
 70
     0
  9
$DIMCLRE
 70
     0
  9
$DIMCLRT
 70
     0
  9
$DIMTFAC
 40
1.0
  9
$DIMGAP
 40
1.524
  9
$DIMJUST
 70
     0
  9
$DIMSD1
 70
     0
  9
$DIMSD2
 70
     0
  9
$DIMTOLJ
 70
     0
  9
$DIMTZIN
 70
     0
  9
$DIMALTZ
 70
     0
  9
$DIMALTTZ
 70
     0
  9
$DIMUPT
 70
     0
  9
$DIMDEC
 70
     2
  9
$DIMTDEC
 70
     2
  9
$DIMALTU
 70
     2
  9
$DIMALTTD
 70
     3
  9
$DIMTXSTY
  7
Standard
  9
$DIMAUNIT
 70
     0
  9
$DIMADEC
 70
     2
  9
$DIMALTRND
 40
0.0
  9
$DIMAZIN
 70
     0
  9
$DIMDSEP
 70
    44
  9
$DIMATFIT
 70
     3
  9
$DIMFRAC
 70
     0
  9
$DIMLDRBLK
  1

  9
$DIMLUNIT
 70
     2
  9
$DIMLWD
 70
    -2
  9
$DIMLWE
 70
    -2
  9
$DIMTMOVE
 70
     0
  9
$LUNITS
 70
     2
  9
$LUPREC
 70
     2
  9
$SKETCHINC
 40
1.0
  9
$FILLETRAD
 40
10.0
  9
$AUNITS
 70
     0
  9
$AUPREC
 70
     2
  9
$MENU
  1
.
  9
$ELEVATION
 40
0.0
  9
$PELEVATION
 40
0.0
  9
$THICKNESS
 40
0.0
  9
$LIMCHECK
 70
     0
  9
$CHAMFERA
 40
0.0
  9
$CHAMFERB
 40
0.0
  9
$CHAMFERC
 40
0.0
  9
$CHAMFERD
 40
0.0
  9
$SKPOLY
 70
     0
  9
$TDCREATE
 40
2459290.469139919
  9
$TDUCREATE
 40
2459290.427473252
  9
$TDUPDATE
 40
2459290.469141134
  9
$TDUUPDATE
 40
2459290.427474468
  9
$TDINDWG
 40
0.0000000116
  9
$TDUSRTIMER
 40
0.0000000116
  9
$USRTIMER
 70
     1
  9
$ANGBASE
 50
0.0
  9
$ANGDIR
 70
     0
  9
$PDMODE
 70
     0
  9
$PDSIZE
 40
-1.0
  9
$PLINEWID
 40
0.0
  9
$SPLFRAME
 70
     0
  9
$SPLINETYPE
 70
     6
  9
$SPLINESEGS
 70
     8
  9
$HANDSEED
  5
262
  9
$SURFTAB1
 70
     6
  9
$SURFTAB2
 70
     6
  9
$SURFTYPE
 70
     6
  9
$SURFU
 70
     6
  9
$SURFV
 70
     6
  9
$UCSBASE
  2

  9
$UCSNAME
  2

  9
$UCSORG
 10
0.0
 20
0.0
 30
0.0
  9
$UCSXDIR
 10
1.0
 20
0.0
 30
0.0
  9
$UCSYDIR
 10
0.0
 20
1.0
 30
0.0
  9
$UCSORTHOREF
  2

  9
$UCSORTHOVIEW
 70
     0
  9
$UCSORGTOP
 10
0.0
 20
0.0
 30
0.0
  9
$UCSORGBOTTOM
 10
0.0
 20
0.0
 30
0.0
  9
$UCSORGLEFT
 10
0.0
 20
0.0
 30
0.0
  9
$UCSORGRIGHT
 10
0.0
 20
0.0
 30
0.0
  9
$UCSORGFRONT
 10
0.0
 20
0.0
 30
0.0
  9
$UCSORGBACK
 10
0.0
 20
0.0
 30
0.0
  9
$PUCSBASE
  2

  9
$PUCSNAME
  2

  9
$PUCSORG
 10
0.0
 20
0.0
 30
0.0
  9
$PUCSXDIR
 10
1.0
 20
0.0
 30
0.0
  9
$PUCSYDIR
 10
0.0
 20
1.0
 30
0.0
  9
$PUCSORTHOREF
  2

  9
$PUCSORTHOVIEW
 70
     0
  9
$PUCSORGTOP
 10
0.0
 20
0.0
 30
0.0
  9
$PUCSORGBOTTOM
 10
0.0
 20
0.0
 30
0.0
  9
$PUCSORGLEFT
 10
0.0
 20
0.0
 30
0.0
  9
$PUCSORGRIGHT
 10
0.0
 20
0.0
 30
0.0
  9
$PUCSORGFRONT
 10
0.0
 20
0.0
 30
0.0
  9
$PUCSORGBACK
 10
0.0
 20
0.0
 30
0.0
  9
$USERI1
 70
     0
  9
$USERI2
 70
     0
  9
$USERI3
 70
     0
  9
$USERI4
 70
     0
  9
$USERI5
 70
     0
  9
$USERR1
 40
0.0
  9
$USERR2
 40
0.0
  9
$USERR3
 40
0.0
  9
$USERR4
 40
0.0
  9
$USERR5
 40
0.0
  9
$WORLDVIEW
 70
     1
  9
$SHADEDGE
 70
     3
  9
$SHADEDIF
 70
    70
  9
$TILEMODE
 70
     1
  9
$MAXACTVP
 70
    64
  9
$PINSBASE
 10
0.0
 20
0.0
 30
0.0
  9
$PLIMCHECK
 70
     0
  9
$PEXTMIN
 10
1.0000000000E+20
 20
1.0000000000E+20
 30
1.0000000000E+20
  9
$PEXTMAX
 10
-1.0000000000E+20
 20
-1.0000000000E+20
 30
-1.0000000000E+20
  9
$PLIMMIN
 10
0.0
 20
0.0
  9
$PLIMMAX
 10
420.0
 20
297.0
  9
$UNITMODE
 70
     0
  9
$VISRETAIN
 70
     1
  9
$PLINEGEN
 70
     0
  9
$PSLTSCALE
 70
     1
  9
$TREEDEPTH
 70
  3020
  9
$CMLSTYLE
  2
Standard
  9
$CMLJUST
 70
     0
  9
$CMLSCALE
 40
20.0
  9
$PROXYGRAPHICS
 70
     1
  9
$MEASUREMENT
 70
     1
  9
$CELWEIGHT
370
    -1
  9
$ENDCAPS
280
     0
  9
$JOINSTYLE
280
     0
  9
$LWDISPLAY
290
     1
  9
$INSUNITS
 70
     4
  9
$HYPERLINKBASE
  1

  9
$STYLESHEET
  1

  9
$XEDIT
290
     1
  9
$CEPSNTYPE
380
     0
  9
$PSTYLEMODE
290
     1
  9
$FINGERPRINTGUID
  2
{75EDF253-A0C0-4878-94E3-4DDBEF3933AF}
  9
$VERSIONGUID
  2
{FAEB1C32-E019-11D5-929B-00C0DF256EC4}
  9
$EXTNAMES
290
     1
  9
$PSVPSCALE
 40
0.0
  9
$OLESTARTUP
290
     0
  0
ENDSEC
  0
SECTION
  2
CLASSES
  0
CLASS
  1
ACDBDICTIONARYWDFLT
  2
AcDbDictionaryWithDefault
  3
ObjectDBX Classes
 90
        0
280
     0
281
     0
  0
CLASS
  1
VISUALSTYLE
  2
AcDbVisualStyle
  3
ObjectDBX Classes
 90
     4095
280
     0
281
     0
  0
CLASS
  1
MATERIAL
  2
AcDbMaterial
  3
ObjectDBX Classes
 90
     1153
280
     0
281
     0
  0
CLASS
  1
SCALE
  2
AcDbScale
  3
ObjectDBX Classes
 90
     1153
280
     0
281
     0
  0
CLASS
  1
TABLESTYLE
  2
AcDbTableStyle
  3
ObjectDBX Classes
 90
     4095
280
     0
281
     0
  0
CLASS
  1
MLEADERSTYLE
  2
AcDbMLeaderStyle
  3
ACDB_MLEADERSTYLE_CLASS
 90
     4095
280
     0
281
     0
  0
CLASS
  1
SUN
  2
AcDbSun
  3
SCENEOE
 90
     1153
280
     0
281
     0
  0
CLASS
  1
ACDBPLACEHOLDER
  2
AcDbPlaceHolder
  3
ObjectDBX Classes
 90
        0
280
     0
281
     0
  0
CLASS
  1
LAYOUT
  2
AcDbLayout
  3
ObjectDBX Classes
 90
        0
280
     0
281
     0
  0
ENDSEC
  0
SECTION
  2
TABLES
  0
TABLE
  2
VPORT
  5
8
330
0
100
AcDbSymbolTable
 70
     1
  0
VPORT
  5
29
330
8
100
AcDbSymbolTableRecord
100
AcDbViewportTableRecord
  2
*Active
 70
     0
 10
0.0
 20
0.0
 11
1.0
 21
1.0
 12
148.5
 22
105.0
 13
0.0
 23
0.0
 14
10.0
 24
10.0
 15
10.0
 25
10.0
 16
0.0
 26
0.0
 36
1.0
 17
0.0
 27
0.0
 37
0.0
 40
210.0
 41
1.4142857143
 42
50.0
 43
0.0
 44
0.0
 50
0.0
 51
0.0
 71
     0
 72
  2000
 73
     1
 74
     3
 75
     0
 76
     0
 77
     0
 78
     0
281
     0
 65
     1
110
0.0
120
0.0
130
0.0
111
1.0
121
0.0
131
0.0
112
0.0
122
1.0
132
0.0
 79
     0
146
0.0
  0
ENDTAB
  0
TABLE
  2
LTYPE
  5
5
330
0
100
AcDbSymbolTable
 70
     8
  0
LTYPE
  5
14
330
5
100
AcDbSymbolTableRecord
100
AcDbLinetypeTableRecord
  2
ByBlock
 70
     0
  3

 72
    65
 73
     0
 40
0.0
  0
LTYPE
  5
15
330
5
100
AcDbSymbolTableRecord
100
AcDbLinetypeTableRecord
  2
ByLayer
 70
     0
  3

 72
    65
 73
     0
 40
0.0
  0
LTYPE
  5
16
330
5
100
AcDbSymbolTableRecord
100
AcDbLinetypeTableRecord
  2
Continuous
 70
     0
  3
Solid line
 72
    65
 73
     0
 40
0.0
  0
LTYPE
  5
6E
330
5
100
AcDbSymbolTableRecord
100
AcDbLinetypeTableRecord
  2
SLD-Solid
 70
     0
  3
SolidWorks Line Style
 72
    65
 73
     0
 40
0.0
  0
LTYPE
  5
6F
330
5
100
AcDbSymbolTableRecord
100
AcDbLinetypeTableRecord
  2
SLD-Dashed
 70
     0
  3
SolidWorks Line Style
 72
    65
 73
     2
 40
1.905
 49
1.27
 74
     0
 49
-0.635
 74
     0
  0
LTYPE
  5
70
330
5
100
AcDbSymbolTableRecord
100
AcDbLinetypeTableRecord
  2
SLD-Phantom
 70
     0
  3
SolidWorks Line Style
 72
    65
 73
     6
 40
12.7
 49
6.35
 74
     0
 49
-1.27
 74
     0
 49
1.27
 74
     0
 49
-1.27
 74
     0
 49
1.27
 74
     0
 49
-1.27
 74
     0
  0
LTYPE
  5
71
330
5
100
AcDbSymbolTableRecord
100
AcDbLinetypeTableRecord
  2
SLD-Chain
 70
     0
  3
SolidWorks Line Style
 72
    65
 73
     4
 40
10.16
 49
6.35
 74
     0
 49
-1.27
 74
     0
 49
1.27
 74
     0
 49
-1.27
 74
     0
  0
LTYPE
  5
72
330
5
100
AcDbSymbolTableRecord
100
AcDbLinetypeTableRecord
  2
SLD-Center
 70
     0
  3
SolidWorks Line Style
 72
    65
 73
     4
 40
19.05
 49
15.24
 74
     0
 49
-1.27
 74
     0
 49
1.27
 74
     0
 49
-1.27
 74
     0
  0
LTYPE
  5
73
330
5
100
AcDbSymbolTableRecord
100
AcDbLinetypeTableRecord
  2
SLD-Stitch
 70
     0
  3
SolidWorks Line Style
 72
    65
 73
     2
 40
0.635
 49
0.0
 74
     0
 49
-0.635
 74
     0
  0
LTYPE
  5
74
330
5
100
AcDbSymbolTableRecord
100
AcDbLinetypeTableRecord
  2
SLD-Thin-Thick-Chain
 70
     0
  3
SolidWorks Line Style
 72
    65
 73
     4
 40
10.16
 49
6.35
 74
     0
 49
-1.27
 74
     0
 49
1.27
 74
     0
 49
-1.27
 74
     0
  0
ENDTAB
  0
TABLE
  2
LAYER
  5
2
330
0
100
AcDbSymbolTable
 70
    12
  0
LAYER
  5
10
330
2
100
AcDbSymbolTableRecord
100
AcDbLayerTableRecord
  2
0
 70
     0
 62
     7
  6
Continuous
370
    -3
390
F
  0
LAYER
  5
75
330
2
100
AcDbSymbolTableRecord
100
AcDbLayerTableRecord
  2
SLD-0
 70
     0
 62
   179
  6
SLD-Solid
370
    -3
390
F
  0
LAYER
  5
76
330
2
100
AcDbSymbolTableRecord
100
AcDbLayerTableRecord
  2
80
 70
     0
 62
    -6
  6
SLD-Solid
290
     0
370
    -3
390
F
  0
LAYER
  5
77
330
2
100
AcDbSymbolTableRecord
100
AcDbLayerTableRecord
  2
81
 70
     0
 62
    -3
  6
SLD-Solid
290
     0
370
    -3
390
F
  0
LAYER
  5
78
330
2
100
AcDbSymbolTableRecord
100
AcDbLayerTableRecord
  2
1
 70
     0
 62
     4
  6
SLD-Solid
290
     0
370
    -3
390
F
  0
LAYER
  5
79
330
2
100
AcDbSymbolTableRecord
100
AcDbLayerTableRecord
  2
4
 70
     0
 62
    -2
  6
SLD-Chain
290
     0
370
    -3
390
F
  0
LAYER
  5
7A
330
2
100
AcDbSymbolTableRecord
100
AcDbLayerTableRecord
  2
2
 70
     0
 62
     7
  6
SLD-Solid
290
     0
370
    -3
390
F
  0
LAYER
  5
7B
330
2
100
AcDbSymbolTableRecord
100
AcDbLayerTableRecord
  2
SK3
 70
     0
 62
     1
  6
SLD-Dashed
290
     0
370
    -3
390
F
  0
LAYER
  5
7C
330
2
100
AcDbSymbolTableRecord
100
AcDbLayerTableRecord
  2
SK4
 70
     0
 62
     2
  6
SLD-Chain
290
     0
370
    -3
390
F
  0
LAYER
  5
7D
330
2
100
AcDbSymbolTableRecord
100
AcDbLayerTableRecord
  2
SK2
 70
     0
 62
     7
  6
SLD-Solid
290
     0
370
    -3
390
F
  0
LAYER
  5
7E
330
2
100
AcDbSymbolTableRecord
100
AcDbLayerTableRecord
  2
SK6
 70
     0
 62
     5
  6
SLD-Solid
290
     0
370
    -3
390
F
  0
LAYER
  5
7F
330
2
100
AcDbSymbolTableRecord
100
AcDbLayerTableRecord
  2
SK1
 70
     0
 62
     4
  6
SLD-Solid
370
    -3
390
F
  0
ENDTAB
  0
TABLE
  2
STYLE
  5
3
330
0
100
AcDbSymbolTable
 70
     2
  0
STYLE
  5
11
330
3
100
AcDbSymbolTableRecord
100
AcDbTextStyleTableRecord
  2
Standard
 70
     0
 40
0.0
 41
1.0
 50
0.0
 71
     0
 42
3.5
  3
txt
  4

  0
STYLE
  5
1DE
330
3
100
AcDbSymbolTableRecord
100
AcDbTextStyleTableRecord
  2
SLDTEXTSTYLE0
 70
     0
 40
0.0
 41
0.75
 50
0.0
 71
     0
 42
3.5
  3
TXT
  4

  0
ENDTAB
  0
TABLE
  2
VIEW
  5
6
330
0
100
AcDbSymbolTable
 70
     0
  0
ENDTAB
  0
TABLE
  2
UCS
  5
7
330
0
100
AcDbSymbolTable
 70
     0
  0
ENDTAB
  0
TABLE
  2
APPID
  5
9
330
0
100
AcDbSymbolTable
 70
     1
  0
APPID
  5
12
330
9
100
AcDbSymbolTableRecord
100
AcDbRegAppTableRecord
  2
ACAD
 70
     0
  0
ENDTAB
  0
TABLE
  2
DIMSTYLE
  5
A
330
0
100
AcDbSymbolTable
 70
     3
100
AcDbDimStyleTable
  0
DIMSTYLE
105
27
330
A
100
AcDbSymbolTableRecord
100
AcDbDimStyleTableRecord
  2
ISO-25
 70
     0
 41
2.5
 42
0.625
 43
3.75
 44
1.25
 73
     0
 74
     0
 77
     1
 78
     8
140
2.5
141
2.5
143
0.0393700787
147
0.625
171
     3
172
     1
178
     0
271
     2
272
     2
274
     3
278
    44
283
     0
284
     8
340
11
  0
DIMSTYLE
105
1DF
102
{ACAD_REACTORS
330
1DD
330
1E9
330
1F3
330
1FD
330
207
330
211
330
21C
330
227
330
232
330
24A
330
255
102
}
330
A
100
AcDbSymbolTableRecord
100
AcDbDimStyleTableRecord
  2
SLDDIMSTYLE0
 70
     0
 41
3.302
 44
0.0
 45
0.000000001
 73
     0
 74
     0
 77
     1
 78
    12
 79
     3
140
3.5
147
0.875
173
     1
178
     0
271
     2
272
     2
276
     2
284
    12
340
1DE
  0
DIMSTYLE
105
23D
102
{ACAD_REACTORS
330
23C
102
}
330
A
100
AcDbSymbolTableRecord
100
AcDbDimStyleTableRecord
  2
SLDDIMSTYLE1
 70
     0
 41
3.302
 44
0.0
 45
0.000000001
 73
     0
 74
     0
 77
     1
 78
    12
 79
     3
140
3.5
147
0.875
172
     1
173
     1
178
     0
271
     2
272
     2
276
     2
284
    12
289
     0
340
1DE
  0
ENDTAB
  0
TABLE
  2
BLOCK_RECORD
  5
1
330
0
100
AcDbSymbolTable
 70
    15
  0
BLOCK_RECORD
  5
1F
330
1
100
AcDbSymbolTableRecord
100
AcDbBlockTableRecord
  2
*Model_Space
340
22
  0
BLOCK_RECORD
  5
1B
330
1
100
AcDbSymbolTableRecord
100
AcDbBlockTableRecord
  2
*Paper_Space
340
1E
  0
BLOCK_RECORD
  5
23
330
1
100
AcDbSymbolTableRecord
100
AcDbBlockTableRecord
  2
*Paper_Space0
340
26
  0
BLOCK_RECORD
  5
80
330
1
100
AcDbSymbolTableRecord
100
AcDbBlockTableRecord
  2
Block11
340
0
102
{BLKREFS
331
1DB
102
}
  0
BLOCK_RECORD
  5
89
330
1
100
AcDbSymbolTableRecord
100
AcDbBlockTableRecord
  2
Block12
340
0
102
{BLKREFS
331
1DC
102
}
  0
BLOCK_RECORD
  5
1E0
330
1
100
AcDbSymbolTableRecord
100
AcDbBlockTableRecord
  2
_D
340
0
  0
BLOCK_RECORD
  5
1EA
330
1
100
AcDbSymbolTableRecord
100
AcDbBlockTableRecord
  2
_D_1
340
0
  0
BLOCK_RECORD
  5
1F4
330
1
100
AcDbSymbolTableRecord
100
AcDbBlockTableRecord
  2
_D_2
340
0
  0
BLOCK_RECORD
  5
1FE
330
1
100
AcDbSymbolTableRecord
100
AcDbBlockTableRecord
  2
_D_3
340
0
  0
BLOCK_RECORD
  5
208
330
1
100
AcDbSymbolTableRecord
100
AcDbBlockTableRecord
  2
_D_4
340
0
  0
BLOCK_RECORD
  5
212
330
1
100
AcDbSymbolTableRecord
100
AcDbBlockTableRecord
  2
_D_5
340
0
  0
BLOCK_RECORD
  5
21D
330
1
100
AcDbSymbolTableRecord
100
AcDbBlockTableRecord
  2
_D_6
340
0
  0
BLOCK_RECORD
  5
228
330
1
100
AcDbSymbolTableRecord
100
AcDbBlockTableRecord
  2
_D_7
340
0
  0
BLOCK_RECORD
  5
233
330
1
100
AcDbSymbolTableRecord
100
AcDbBlockTableRecord
  2
_D_8
340
0
  0
BLOCK_RECORD
  5
23E
330
1
100
AcDbSymbolTableRecord
100
AcDbBlockTableRecord
  2
_D_9
340
0
  0
BLOCK_RECORD
  5
24B
330
1
100
AcDbSymbolTableRecord
100
AcDbBlockTableRecord
  2
_D_10
340
0
  0
BLOCK_RECORD
  5
256
330
1
100
AcDbSymbolTableRecord
100
AcDbBlockTableRecord
  2
_D_11
340
0
  0
ENDTAB
  0
ENDSEC
  0
SECTION
  2
BLOCKS
  0
BLOCK
  5
20
330
1F
100
AcDbEntity
  8
0
100
AcDbBlockBegin
  2
*Model_Space
 70
     0
 10
0.0
 20
0.0
 30
0.0
  3
*Model_Space
  1

  0
ENDBLK
  5
21
330
1F
100
AcDbEntity
  8
0
100
AcDbBlockEnd
  0
BLOCK
  5
1C
330
1B
100
AcDbEntity
 67
     1
  8
0
100
AcDbBlockBegin
  2
*Paper_Space
 70
     0
 10
0.0
 20
0.0
 30
0.0
  3
*Paper_Space
  1

  0
ENDBLK
  5
1D
330
1B
100
AcDbEntity
 67
     1
  8
0
100
AcDbBlockEnd
  0
BLOCK
  5
24
330
23
100
AcDbEntity
  8
0
100
AcDbBlockBegin
  2
*Paper_Space0
 70
     0
 10
0.0
 20
0.0
 30
0.0
  3
*Paper_Space0
  1

  0
ENDBLK
  5
25
330
23
100
AcDbEntity
  8
0
100
AcDbBlockEnd
  0
BLOCK
  5
81
330
80
100
AcDbEntity
  8
0
100
AcDbBlockBegin
  2
Block11
 70
     0
 10
0.0
 20
0.0
 30
0.0
  3
Block11
  1

  0
CIRCLE
  5
83
330
80
100
AcDbEntity
  8
81
370
    18
100
AcDbCircle
 10
91.6264826505
 20
130.2676275275
 30
0.0
 40
2.499999999999981
  0
LINE
  5
84
330
80
100
AcDbEntity
  8
81
370
    18
100
AcDbLine
 10
91.6264826505
 20
130.2676275275
 30
0.0
 11
95.1620165565
 21
133.8031614334
 31
0.0
  0
LINE
  5
85
330
80
100
AcDbEntity
  8
81
370
    18
100
AcDbLine
 10
91.6264826505
 20
130.2676275275
 30
0.0
 11
88.0909487446
 21
126.7320936216
 31
0.0
  0
LINE
  5
86
330
80
100
AcDbEntity
  8
81
370
    18
100
AcDbLine
 10
91.6264826505
 20
130.2676275275
 30
0.0
 11
88.0909487446
 21
133.8031614334
 31
0.0
  0
LINE
  5
87
330
80
100
AcDbEntity
  8
81
100
AcDbLine
 10
91.6264826505
 20
130.2676275275
 30
0.0
 11
101.6264826505
 21
130.2676275275
 31
0.0
  0
LINE
  5
88
330
80
100
AcDbEntity
  8
81
370
    18
100
AcDbLine
 10
91.6264826505
 20
130.2676275275
 30
0.0
 11
95.1620165565
 21
126.7320936216
 31
0.0
  0
ENDBLK
  5
82
330
80
100
AcDbEntity
  8
0
100
AcDbBlockEnd
  0
BLOCK
  5
8A
330
89
100
AcDbEntity
  8
0
100
AcDbBlockBegin
  2
Block12
 70
     0
 10
0.0
 20
0.0
 30
0.0
  3
Block12
  1

  0
CIRCLE
  5
8C
330
89
100
AcDbEntity
  8
80
370
    18
100
AcDbCircle
 10
61.7273641656
 20
130.3356800267
 30
0.0
 40
2.500000000000004
  0
LINE
  5
8D
330
89
100
AcDbEntity
  8
80
370
    18
100
AcDbLine
 10
61.7273641656
 20
130.3356800267
 30
0.0
 11
65.2628980715
 21
133.8712139326
 31
0.0
  0
LINE
  5
8E
330
89
100
AcDbEntity
  8
80
370
    18
100
AcDbLine
 10
61.7273641656
 20
130.3356800267
 30
0.0
 11
58.1918302597
 21
126.8001461208
 31
0.0
  0
LINE
  5
8F
330
89
100
AcDbEntity
  8
80
370
    18
100
AcDbLine
 10
61.7273641656
 20
130.3356800267
 30
0.0
 11
58.1918302597
 21
133.8712139326
 31
0.0
  0
LINE
  5
90
330
89
100
AcDbEntity
  8
80
370
    18
100
AcDbLine
 10
61.7273641656
 20
130.3356800267
 30
0.0
 11
51.7273641656
 21
130.3356800267
 31
0.0
  0
LINE
  5
91
330
89
100
AcDbEntity
  8
80
370
    18
100
AcDbLine
 10
61.7273641656
 20
130.3356800267
 30
0.0
 11
65.2628980715
 21
126.8001461208
 31
0.0
  0
ENDBLK
  5
8B
330
89
100
AcDbEntity
  8
0
100
AcDbBlockEnd
  0
BLOCK
  5
1E1
330
1E0
100
AcDbEntity
  8
0
100
AcDbBlockBegin
  2
_D
 70
     0
 10
0.0
 20
0.0
 30
0.0
  3
_D
  1

  0
SOLID
  5
1E3
330
1E0
100
AcDbEntity
  8
SK2
100
AcDbTrace
 10
0.0
 20
34.1295396314
 30
0.0
 11
3.302
 21
33.6215396314
 31
0.0
 12
3.302
 22
34.6375396314
 32
0.0
 13
3.302
 23
34.6375396314
 33
0.0
  0
SOLID
  5
1E4
330
1E0
100
AcDbEntity
  8
SK2
100
AcDbTrace
 10
22.1
 20
34.1295396314
 30
0.0
 11
18.798
 21
34.6375396314
 31
0.0
 12
18.798
 22
33.6215396314
 32
0.0
 13
18.798
 23
33.6215396314
 33
0.0
  0
LINE
  5
1E5
330
1E0
100
AcDbEntity
  8
SK2
100
AcDbLine
 10
0.0
 20
16.875
 30
0.0
 11
0.0
 21
35.1295396314
 31
0.0
  0
LINE
  5
1E6
330
1E0
100
AcDbEntity
  8
SK2
100
AcDbLine
 10
22.1
 20
23.24
 30
0.0
 11
22.1
 21
35.1295396314
 31
0.0
  0
LINE
  5
1E7
330
1E0
100
AcDbEntity
  8
SK2
100
AcDbLine
 10
0.0
 20
34.1295396314
 30
0.0
 11
22.1
 21
34.1295396314
 31
0.0
  0
MTEXT
  5
1E8
330
1E0
100
AcDbEntity
  8
SK2
100
AcDbMText
 10
6.6085297576
 20
38.641276546
 30
0.0
 40
3.5
 41
0.0
 71
     1
 72
     1
  1
22,1
  7
SLDTEXTSTYLE0
 73
     1
 44
1.0
  0
ENDBLK
  5
1E2
330
1E0
100
AcDbEntity
  8
0
100
AcDbBlockEnd
  0
BLOCK
  5
1EB
330
1EA
100
AcDbEntity
  8
0
100
AcDbBlockBegin
  2
_D_1
 70
     0
 10
0.0
 20
0.0
 30
0.0
  3
_D_1
  1

  0
SOLID
  5
1ED
330
1EA
100
AcDbEntity
  8
SK2
100
AcDbTrace
 10
22.1
 20
34.1295396314
 30
0.0
 11
25.402
 21
33.6215396314
 31
0.0
 12
25.402
 22
34.6375396314
 32
0.0
 13
25.402
 23
34.6375396314
 33
0.0
  0
SOLID
  5
1EE
330
1EA
100
AcDbEntity
  8
SK2
100
AcDbTrace
 10
80.0
 20
34.1295396314
 30
0.0
 11
76.698
 21
34.6375396314
 31
0.0
 12
76.698
 22
33.6215396314
 32
0.0
 13
76.698
 23
33.6215396314
 33
0.0
  0
LINE
  5
1EF
330
1EA
100
AcDbEntity
  8
SK2
100
AcDbLine
 10
22.1
 20
23.24
 30
0.0
 11
22.1
 21
35.1295396314
 31
0.0
  0
LINE
  5
1F0
330
1EA
100
AcDbEntity
  8
SK2
100
AcDbLine
 10
80.0
 20
17.0
 30
0.0
 11
80.0
 21
35.1295396314
 31
0.0
  0
LINE
  5
1F1
330
1EA
100
AcDbEntity
  8
SK2
100
AcDbLine
 10
22.1
 20
34.1295396314
 30
0.0
 11
80.0
 21
34.1295396314
 31
0.0
  0
MTEXT
  5
1F2
330
1EA
100
AcDbEntity
  8
SK2
100
AcDbMText
 10
47.2534095821
 20
38.641276546
 30
0.0
 40
3.5
 41
0.0
 71
     1
 72
     1
  1
57,9
  7
SLDTEXTSTYLE0
 73
     1
 44
1.0
  0
ENDBLK
  5
1EC
330
1EA
100
AcDbEntity
  8
0
100
AcDbBlockEnd
  0
BLOCK
  5
1F5
330
1F4
100
AcDbEntity
  8
0
100
AcDbBlockBegin
  2
_D_2
 70
     0
 10
0.0
 20
0.0
 30
0.0
  3
_D_2
  1

  0
SOLID
  5
1F7
330
1F4
100
AcDbEntity
  8
SK2
100
AcDbTrace
 10
80.0
 20
25.7309226117
 30
0.0
 11
76.698
 21
26.2389226117
 31
0.0
 12
76.698
 22
25.2229226117
 32
0.0
 13
76.698
 23
25.2229226117
 33
0.0
  0
SOLID
  5
1F8
330
1F4
100
AcDbEntity
  8
SK2
100
AcDbTrace
 10
65.5
 20
25.7309226117
 30
0.0
 11
68.802
 21
25.2229226117
 31
0.0
 12
68.802
 22
26.2389226117
 32
0.0
 13
68.802
 23
26.2389226117
 33
0.0
  0
LINE
  5
1F9
330
1F4
100
AcDbEntity
  8
SK2
100
AcDbLine
 10
80.0
 20
17.0
 30
0.0
 11
80.0
 21
26.7309226117
 31
0.0
  0
LINE
  5
1FA
330
1F4
100
AcDbEntity
  8
SK2
100
AcDbLine
 10
65.5
 20
19.45
 30
0.0
 11
65.5
 21
26.7309226117
 31
0.0
  0
LINE
  5
1FB
330
1F4
100
AcDbEntity
  8
SK2
100
AcDbLine
 10
80.0
 20
25.7309226117
 30
0.0
 11
65.5
 21
25.7309226117
 31
0.0
  0
MTEXT
  5
1FC
330
1F4
100
AcDbEntity
  8
SK2
100
AcDbMText
 10
67.1442826218
 20
30.2426595263
 30
0.0
 40
3.5
 41
0.0
 71
     1
 72
     1
  1
14,5
  7
SLDTEXTSTYLE0
 73
     1
 44
1.0
  0
ENDBLK
  5
1F6
330
1F4
100
AcDbEntity
  8
0
100
AcDbBlockEnd
  0
BLOCK
  5
1FF
330
1FE
100
AcDbEntity
  8
0
100
AcDbBlockBegin
  2
_D_3
 70
     0
 10
0.0
 20
0.0
 30
0.0
  3
_D_3
  1

  0
SOLID
  5
201
330
1FE
100
AcDbEntity
  8
SK2
100
AcDbTrace
 10
65.5
 20
25.7309226117
 30
0.0
 11
62.198
 21
26.2389226117
 31
0.0
 12
62.198
 22
25.2229226117
 32
0.0
 13
62.198
 23
25.2229226117
 33
0.0
  0
SOLID
  5
202
330
1FE
100
AcDbEntity
  8
SK2
100
AcDbTrace
 10
44.5
 20
25.7309226117
 30
0.0
 11
47.802
 21
25.2229226117
 31
0.0
 12
47.802
 22
26.2389226117
 32
0.0
 13
47.802
 23
26.2389226117
 33
0.0
  0
LINE
  5
203
330
1FE
100
AcDbEntity
  8
SK2
100
AcDbLine
 10
65.5
 20
19.45
 30
0.0
 11
65.5
 21
26.7309226117
 31
0.0
  0
LINE
  5
204
330
1FE
100
AcDbEntity
  8
SK2
100
AcDbLine
 10
44.5
 20
19.45
 30
0.0
 11
44.5
 21
26.7309226117
 31
0.0
  0
LINE
  5
205
330
1FE
100
AcDbEntity
  8
SK2
100
AcDbLine
 10
65.5
 20
25.7309226117
 30
0.0
 11
44.5
 21
25.7309226117
 31
0.0
  0
MTEXT
  5
206
330
1FE
100
AcDbEntity
  8
SK2
100
AcDbMText
 10
52.808930009
 20
30.2426595263
 30
0.0
 40
3.5
 41
0.0
 71
     1
 72
     1
  1
21
  7
SLDTEXTSTYLE0
 73
     1
 44
1.0
  0
ENDBLK
  5
200
330
1FE
100
AcDbEntity
  8
0
100
AcDbBlockEnd
  0
BLOCK
  5
209
330
208
100
AcDbEntity
  8
0
100
AcDbBlockBegin
  2
_D_4
 70
     0
 10
0.0
 20
0.0
 30
0.0
  3
_D_4
  1

  0
SOLID
  5
20B
330
208
100
AcDbEntity
  8
2
100
AcDbTrace
 10
0.0
 20
42.4127122223
 30
0.0
 11
3.302
 21
41.9047122223
 31
0.0
 12
3.302
 22
42.9207122223
 32
0.0
 13
3.302
 23
42.9207122223
 33
0.0
  0
SOLID
  5
20C
330
208
100
AcDbEntity
  8
2
100
AcDbTrace
 10
80.0
 20
42.4127122223
 30
0.0
 11
76.698
 21
42.9207122223
 31
0.0
 12
76.698
 22
41.9047122223
 32
0.0
 13
76.698
 23
41.9047122223
 33
0.0
  0
LINE
  5
20D
330
208
100
AcDbEntity
  8
2
100
AcDbLine
 10
0.0
 20
16.875
 30
0.0
 11
0.0
 21
43.4127122223
 31
0.0
  0
LINE
  5
20E
330
208
100
AcDbEntity
  8
2
100
AcDbLine
 10
80.0
 20
17.0
 30
0.0
 11
80.0
 21
43.4127122223
 31
0.0
  0
LINE
  5
20F
330
208
100
AcDbEntity
  8
2
100
AcDbLine
 10
0.0
 20
42.4127122223
 30
0.0
 11
80.0
 21
42.4127122223
 31
0.0
  0
MTEXT
  5
210
330
208
100
AcDbEntity
  8
2
100
AcDbMText
 10
39.7422773242
 20
46.9244491369
 30
0.0
 40
3.5
 41
0.0
 71
     1
 72
     1
  1
80
  7
SLDTEXTSTYLE0
 73
     1
 44
1.0
  0
ENDBLK
  5
20A
330
208
100
AcDbEntity
  8
0
100
AcDbBlockEnd
  0
BLOCK
  5
213
330
212
100
AcDbEntity
  8
0
100
AcDbBlockBegin
  2
_D_5
 70
     0
 10
0.0
 20
0.0
 30
0.0
  3
_D_5
  1

  0
SOLID
  5
215
330
212
100
AcDbEntity
  8
SK2
100
AcDbTrace
 10
117.343447679
 20
-18.0
 30
0.0
 11
117.851447679
 21
-14.698
 31
0.0
 12
116.835447679
 22
-14.698
 32
0.0
 13
116.835447679
 23
-14.698
 33
0.0
  0
SOLID
  5
216
330
212
100
AcDbEntity
  8
SK2
100
AcDbTrace
 10
117.343447679
 20
18.0
 30
0.0
 11
116.835447679
 21
14.698
 31
0.0
 12
117.851447679
 22
14.698
 32
0.0
 13
117.851447679
 23
14.698
 33
0.0
  0
LINE
  5
217
330
212
100
AcDbEntity
  8
SK2
100
AcDbLine
 10
79.0
 20
-18.0
 30
0.0
 11
118.343447679
 21
-18.0
 31
0.0
  0
LINE
  5
218
330
212
100
AcDbEntity
  8
SK2
100
AcDbLine
 10
79.0
 20
18.0
 30
0.0
 11
118.343447679
 21
18.0
 31
0.0
  0
LINE
  5
219
330
212
100
AcDbEntity
  8
SK2
100
AcDbLine
 10
117.343447679
 20
-18.0
 30
0.0
 11
117.343447679
 21
18.0
 31
0.0
  0
MTEXT
  5
21A
330
212
100
AcDbEntity
  8
SK2
100
AcDbMText
 10
112.8317105898
 20
-5.734679315
 30
0.0
 40
3.5
 41
0.0
 71
     1
 72
     1
  1
%%c
  7
SLDTEXTSTYLE0
 11
6.123233995736766E-17
 21
1.0
 31
0.0
 73
     1
 44
1.0
  0
MTEXT
  5
21B
330
212
100
AcDbEntity
  8
SK2
100
AcDbMText
 10
112.7782384131
 20
-0.4562419167
 30
0.0
 40
3.5
 41
0.0
 71
     1
 72
     1
  1
36
  7
SLDTEXTSTYLE0
 11
6.123233995736766E-17
 21
1.0
 31
0.0
 73
     1
 44
1.0
  0
ENDBLK
  5
214
330
212
100
AcDbEntity
  8
0
100
AcDbBlockEnd
  0
BLOCK
  5
21E
330
21D
100
AcDbEntity
  8
0
100
AcDbBlockBegin
  2
_D_6
 70
     0
 10
0.0
 20
0.0
 30
0.0
  3
_D_6
  1

  0
SOLID
  5
220
330
21D
100
AcDbEntity
  8
SK2
100
AcDbTrace
 10
106.755972102
 20
-16.0
 30
0.0
 11
107.263972102
 21
-12.698
 31
0.0
 12
106.247972102
 22
-12.698
 32
0.0
 13
106.247972102
 23
-12.698
 33
0.0
  0
SOLID
  5
221
330
21D
100
AcDbEntity
  8
SK2
100
AcDbTrace
 10
106.755972102
 20
16.0
 30
0.0
 11
106.247972102
 21
12.698
 31
0.0
 12
107.263972102
 22
12.698
 32
0.0
 13
107.263972102
 23
12.698
 33
0.0
  0
LINE
  5
222
330
21D
100
AcDbEntity
  8
SK2
100
AcDbLine
 10
81.0
 20
-16.0
 30
0.0
 11
107.755972102
 21
-16.0
 31
0.0
  0
LINE
  5
223
330
21D
100
AcDbEntity
  8
SK2
100
AcDbLine
 10
81.0
 20
16.0
 30
0.0
 11
107.755972102
 21
16.0
 31
0.0
  0
LINE
  5
224
330
21D
100
AcDbEntity
  8
SK2
100
AcDbLine
 10
106.755972102
 20
-16.0
 30
0.0
 11
106.755972102
 21
16.0
 31
0.0
  0
MTEXT
  5
225
330
21D
100
AcDbEntity
  8
SK2
100
AcDbMText
 10
102.2442350128
 20
-5.734679315
 30
0.0
 40
3.5
 41
0.0
 71
     1
 72
     1
  1
%%c
  7
SLDTEXTSTYLE0
 11
6.123233995736766E-17
 21
1.0
 31
0.0
 73
     1
 44
1.0
  0
MTEXT
  5
226
330
21D
100
AcDbEntity
  8
SK2
100
AcDbMText
 10
102.1907628361
 20
-0.4562419167
 30
0.0
 40
3.5
 41
0.0
 71
     1
 72
     1
  1
32
  7
SLDTEXTSTYLE0
 11
6.123233995736766E-17
 21
1.0
 31
0.0
 73
     1
 44
1.0
  0
ENDBLK
  5
21F
330
21D
100
AcDbEntity
  8
0
100
AcDbBlockEnd
  0
BLOCK
  5
229
330
228
100
AcDbEntity
  8
0
100
AcDbBlockBegin
  2
_D_7
 70
     0
 10
0.0
 20
0.0
 30
0.0
  3
_D_7
  1

  0
SOLID
  5
22B
330
228
100
AcDbEntity
  8
SK2
100
AcDbTrace
 10
95.5154050101
 20
8.0
 30
0.0
 11
95.0074050101
 21
4.698
 31
0.0
 12
96.0234050101
 22
4.698
 32
0.0
 13
96.0234050101
 23
4.698
 33
0.0
  0
SOLID
  5
22C
330
228
100
AcDbEntity
  8
SK2
100
AcDbTrace
 10
95.5154050101
 20
-8.0
 30
0.0
 11
96.0234050101
 21
-4.698
 31
0.0
 12
95.0074050101
 22
-4.698
 32
0.0
 13
95.0074050101
 23
-4.698
 33
0.0
  0
LINE
  5
22D
330
228
100
AcDbEntity
  8
SK2
100
AcDbLine
 10
79.2679491924
 20
8.0
 30
0.0
 11
96.5154050101
 21
8.0
 31
0.0
  0
LINE
  5
22E
330
228
100
AcDbEntity
  8
SK2
100
AcDbLine
 10
79.2679491924
 20
-8.0
 30
0.0
 11
96.5154050101
 21
-8.0
 31
0.0
  0
LINE
  5
22F
330
228
100
AcDbEntity
  8
SK2
100
AcDbLine
 10
95.5154050101
 20
8.0
 30
0.0
 11
95.5154050101
 21
-8.0
 31
0.0
  0
MTEXT
  5
230
330
228
100
AcDbEntity
  8
SK2
100
AcDbMText
 10
91.0036679209
 20
-5.734679315
 30
0.0
 40
3.5
 41
0.0
 71
     1
 72
     1
  1
%%c
  7
SLDTEXTSTYLE0
 11
-7.044195017643634E-15
 21
1.0
 31
0.0
 73
     1
 44
1.0
  0
MTEXT
  5
231
330
228
100
AcDbEntity
  8
SK2
100
AcDbMText
 10
90.9501957442
 20
-0.4562419167
 30
0.0
 40
3.5
 41
0.0
 71
     1
 72
     1
  1
16
  7
SLDTEXTSTYLE0
 11
-7.044195017643634E-15
 21
1.0
 31
0.0
 73
     1
 44
1.0
  0
ENDBLK
  5
22A
330
228
100
AcDbEntity
  8
0
100
AcDbBlockEnd
  0
BLOCK
  5
234
330
233
100
AcDbEntity
  8
0
100
AcDbBlockBegin
  2
_D_8
 70
     0
 10
0.0
 20
0.0
 30
0.0
  3
_D_8
  1

  0
SOLID
  5
236
330
233
100
AcDbEntity
  8
SK2
100
AcDbTrace
 10
80.0
 20
-28.1083547322
 30
0.0
 11
76.698
 21
-27.6003547322
 31
0.0
 12
76.698
 22
-28.6163547322
 32
0.0
 13
76.698
 23
-28.6163547322
 33
0.0
  0
SOLID
  5
237
330
233
100
AcDbEntity
  8
SK2
100
AcDbTrace
 10
33.5
 20
-28.1083547322
 30
0.0
 11
36.802
 21
-28.6163547322
 31
0.0
 12
36.802
 22
-27.6003547322
 32
0.0
 13
36.802
 23
-27.6003547322
 33
0.0
  0
LINE
  5
238
330
233
100
AcDbEntity
  8
SK2
100
AcDbLine
 10
80.0
 20
-17.0
 30
0.0
 11
80.0
 21
-29.1083547322
 31
0.0
  0
LINE
  5
239
330
233
100
AcDbEntity
  8
SK2
100
AcDbLine
 10
33.5
 20
-9.25
 30
0.0
 11
33.5
 21
-29.1083547322
 31
0.0
  0
LINE
  5
23A
330
233
100
AcDbEntity
  8
SK2
100
AcDbLine
 10
80.0
 20
-28.1083547322
 30
0.0
 11
33.5
 21
-28.1083547322
 31
0.0
  0
MTEXT
  5
23B
330
233
100
AcDbEntity
  8
SK2
100
AcDbMText
 10
50.869346672
 20
-23.5966178177
 30
0.0
 40
3.5
 41
0.0
 71
     1
 72
     1
  1
46,5
  7
SLDTEXTSTYLE0
 73
     1
 44
1.0
  0
ENDBLK
  5
235
330
233
100
AcDbEntity
  8
0
100
AcDbBlockEnd
  0
BLOCK
  5
23F
330
23E
100
AcDbEntity
  8
0
100
AcDbBlockBegin
  2
_D_9
 70
     0
 10
0.0
 20
0.0
 30
0.0
  3
_D_9
  1

  0
SOLID
  5
241
330
23E
100
AcDbEntity
  8
SK2
100
AcDbTrace
 10
-54.4134261189
 20
-6.0
 30
0.0
 11
-54.9214261189
 21
-9.302
 31
0.0
 12
-53.9054261189
 22
-9.302
 32
0.0
 13
-53.9054261189
 23
-9.302
 33
0.0
  0
SOLID
  5
242
330
23E
100
AcDbEntity
  8
SK2
100
AcDbTrace
 10
-54.4134261189
 20
6.0
 30
0.0
 11
-53.9054261189
 21
9.302
 31
0.0
 12
-54.9214261189
 22
9.302
 32
0.0
 13
-54.9214261189
 23
9.302
 33
0.0
  0
LINE
  5
243
330
23E
100
AcDbEntity
  8
SK2
100
AcDbLine
 10
-41.7891560818
 20
-6.0
 30
0.0
 11
-55.4134261189
 21
-6.0
 31
0.0
  0
LINE
  5
244
330
23E
100
AcDbEntity
  8
SK2
100
AcDbLine
 10
-41.7891560818
 20
6.0
 30
0.0
 11
-55.4134261189
 21
6.0
 31
0.0
  0
LINE
  5
245
330
23E
100
AcDbEntity
  8
SK2
100
AcDbLine
 10
-54.4134261189
 20
-6.0
 30
0.0
 11
-54.4134261189
 21
-12.35
 31
0.0
  0
LINE
  5
246
330
23E
100
AcDbEntity
  8
SK2
100
AcDbLine
 10
-54.4134261189
 20
-6.0
 30
0.0
 11
-54.4134261189
 21
6.0
 31
0.0
  0
LINE
  5
247
330
23E
100
AcDbEntity
  8
SK2
100
AcDbLine
 10
-54.4134261189
 20
6.0
 30
0.0
 11
-54.4134261189
 21
12.35
 31
0.0
  0
MTEXT
  5
248
330
23E
100
AcDbEntity
  8
SK2
100
AcDbMText
 10
-58.9251630335
 20
-4.8806777996
 30
0.0
 40
3.5
 41
0.0
 71
     1
 72
     1
  1
M
  7
SLDTEXTSTYLE0
 11
6.722570487708307E-15
 21
1.0
 31
0.0
 73
     1
 44
1.0
  0
MTEXT
  5
249
330
23E
100
AcDbEntity
  8
SK2
100
AcDbMText
 10
-58.9251630335
 20
-0.5931778652
 30
0.0
 40
3.5
 41
0.0
 71
     1
 72
     1
  1
12
  7
SLDTEXTSTYLE0
 11
6.722570487708307E-15
 21
1.0
 31
0.0
 73
     1
 44
1.0
  0
ENDBLK
  5
240
330
23E
100
AcDbEntity
  8
0
100
AcDbBlockEnd
  0
BLOCK
  5
24C
330
24B
100
AcDbEntity
  8
0
100
AcDbBlockBegin
  2
_D_10
 70
     0
 10
0.0
 20
0.0
 30
0.0
  3
_D_10
  1

  0
SOLID
  5
24E
330
24B
100
AcDbEntity
  8
SK2
100
AcDbTrace
 10
-63.9833483662
 20
-15.875
 30
0.0
 11
-63.4753483662
 21
-12.573
 31
0.0
 12
-64.4913483662
 22
-12.573
 32
0.0
 13
-64.4913483662
 23
-12.573
 33
0.0
  0
SOLID
  5
24F
330
24B
100
AcDbEntity
  8
SK2
100
AcDbTrace
 10
-63.9833483662
 20
15.875
 30
0.0
 11
-64.4913483662
 21
12.573
 31
0.0
 12
-63.4753483662
 22
12.573
 32
0.0
 13
-63.4753483662
 23
12.573
 33
0.0
  0
LINE
  5
250
330
24B
100
AcDbEntity
  8
SK2
100
AcDbLine
 10
-1.0
 20
-15.875
 30
0.0
 11
-64.9833483662
 21
-15.875
 31
0.0
  0
LINE
  5
251
330
24B
100
AcDbEntity
  8
SK2
100
AcDbLine
 10
-1.0
 20
15.875
 30
0.0
 11
-64.9833483662
 21
15.875
 31
0.0
  0
LINE
  5
252
330
24B
100
AcDbEntity
  8
SK2
100
AcDbLine
 10
-63.9833483662
 20
-15.875
 30
0.0
 11
-63.9833483662
 21
15.875
 31
0.0
  0
MTEXT
  5
253
330
24B
100
AcDbEntity
  8
SK2
100
AcDbMText
 10
-68.4950854554
 20
-9.3548209833
 30
0.0
 40
3.5
 41
0.0
 71
     1
 72
     1
  1
%%c
  7
SLDTEXTSTYLE0
 11
6.123233995736766E-17
 21
1.0
 31
0.0
 73
     1
 44
1.0
  0
MTEXT
  5
254
330
24B
100
AcDbEntity
  8
SK2
100
AcDbMText
 10
-68.5485576321
 20
-4.076383585
 30
0.0
 40
3.5
 41
0.0
 71
     1
 72
     1
  1
31,75
  7
SLDTEXTSTYLE0
 11
6.123233995736766E-17
 21
1.0
 31
0.0
 73
     1
 44
1.0
  0
ENDBLK
  5
24D
330
24B
100
AcDbEntity
  8
0
100
AcDbBlockEnd
  0
BLOCK
  5
257
330
256
100
AcDbEntity
  8
0
100
AcDbBlockBegin
  2
_D_11
 70
     0
 10
0.0
 20
0.0
 30
0.0
  3
_D_11
  1

  0
SOLID
  5
259
330
256
100
AcDbEntity
  8
SK2
100
AcDbTrace
 10
-73.9304901594
 20
22.99
 30
0.0
 11
-74.4384901594
 21
19.688
 31
0.0
 12
-73.4224901594
 22
19.688
 32
0.0
 13
-73.4224901594
 23
19.688
 33
0.0
  0
SOLID
  5
25A
330
256
100
AcDbEntity
  8
SK2
100
AcDbTrace
 10
-73.9304901594
 20
-22.99
 30
0.0
 11
-73.4224901594
 21
-19.688
 31
0.0
 12
-74.4384901594
 22
-19.688
 32
0.0
 13
-74.4384901594
 23
-19.688
 33
0.0
  0
LINE
  5
25B
330
256
100
AcDbEntity
  8
SK2
100
AcDbLine
 10
20.35
 20
22.99
 30
0.0
 11
-74.9304901594
 21
22.99
 31
0.0
  0
LINE
  5
25C
330
256
100
AcDbEntity
  8
SK2
100
AcDbLine
 10
18.8746494219
 20
-22.99
 30
0.0
 11
-74.9304901594
 21
-22.99
 31
0.0
  0
LINE
  5
25D
330
256
100
AcDbEntity
  8
SK2
100
AcDbLine
 10
-73.9304901594
 20
22.99
 30
0.0
 11
-73.9304901594
 21
-22.99
 31
0.0
  0
MTEXT
  5
25E
330
256
100
AcDbEntity
  8
SK2
100
AcDbMText
 10
-78.4422272486
 20
-6.1221821661
 30
0.0
 40
3.5
 41
0.0
 71
     1
 72
     1
  1
%%c
  7
SLDTEXTSTYLE0
 11
-7.044195017643634E-15
 21
1.0
 31
0.0
 73
     1
 44
1.0
  0
MTEXT
  5
25F
330
256
100
AcDbEntity
  8
SK2
100
AcDbMText
 10
-78.4956994253
 20
-0.8437447677
 30
0.0
 40
3.5
 41
0.0
 71
     1
 72
     1
  1
46
  7
SLDTEXTSTYLE0
 11
-7.044195017643634E-15
 21
1.0
 31
0.0
 73
     1
 44
1.0
  0
ENDBLK
  5
258
330
256
100
AcDbEntity
  8
0
100
AcDbBlockEnd
  0
ENDSEC
  0
SECTION
  2
ENTITIES
  0
LINE
  5
92
330
1F
100
AcDbEntity
  8
1
  6
SLD-Solid
370
    25
100
AcDbLine
 10
19.8746494219
 20
-22.99
 30
0.0
 11
21.35
 21
-22.99
 31
0.0
  0
LINE
  5
93
330
1F
100
AcDbEntity
  8
1
  6
SLD-Solid
370
    25
100
AcDbLine
 10
21.35
 20
22.99
 30
0.0
 11
19.8746494423
 21
22.99
 31
0.0
  0
LINE
  5
94
330
1F
100
AcDbEntity
  8
1
  6
SLD-Solid
370
    25
100
AcDbLine
 10
78.0
 20
-18.0
 30
0.0
 11
80.0
 21
-16.0
 31
0.0
  0
LINE
  5
95
330
1F
100
AcDbEntity
  8
1
  6
SLD-Solid
370
    25
100
AcDbLine
 10
80.0
 20
16.0
 30
0.0
 11
78.0
 21
18.0
 31
0.0
  0
LINE
  5
96
330
1F
100
AcDbEntity
  8
1
  6
SLD-Solid
370
    25
100
AcDbLine
 10
71.3912644682
 20
-18.0
 30
0.0
 11
78.0
 21
-18.0
 31
0.0
  0
LINE
  5
97
330
1F
100
AcDbEntity
  8
1
  6
SLD-Solid
370
    25
100
AcDbLine
 10
50.3912644682
 20
-18.0
 30
0.0
 11
59.6162213036
 21
-18.0
 31
0.0
  0
LINE
  5
98
330
1F
100
AcDbEntity
  8
1
  6
SLD-Solid
370
    25
100
AcDbLine
 10
23.1
 20
-18.0
 30
0.0
 11
38.6162213036
 21
-18.0
 31
0.0
  0
LINE
  5
99
330
1F
100
AcDbEntity
  8
1
  6
SLD-Solid
370
    25
100
AcDbLine
 10
38.457536671
 20
18.0
 30
0.0
 11
23.1
 21
18.0
 31
0.0
  0
LINE
  5
9A
330
1F
100
AcDbEntity
  8
1
  6
SLD-Solid
370
    25
100
AcDbLine
 10
59.457536671
 20
18.0
 30
0.0
 11
50.536858972
 21
18.0
 31
0.0
  0
LINE
  5
9B
330
1F
100
AcDbEntity
  8
1
  6
SLD-Solid
370
    25
100
AcDbLine
 10
78.0
 20
18.0
 30
0.0
 11
71.536858972
 21
18.0
 31
0.0
  0
LINE
  5
9C
330
1F
100
AcDbEntity
  8
1
  6
SLD-Solid
370
    25
100
AcDbLine
 10
0.0
 20
-15.875
 30
0.0
 11
0.2
 21
-15.875
 31
0.0
  0
LINE
  5
9D
330
1F
100
AcDbEntity
  8
1
  6
SLD-Solid
370
    25
100
AcDbLine
 10
0.2
 20
15.875
 30
0.0
 11
0.0
 21
15.875
 31
0.0
  0
LINE
  5
9E
330
1F
100
AcDbEntity
  8
SK1
  6
SLD-Solid
370
    25
100
AcDbLine
 10
0.0
 20
15.875
 30
0.0
 11
-48.0791191833
 21
8.8629194779
 31
0.0
  0
LINE
  5
9F
330
1F
100
AcDbEntity
  8
SK1
  6
SLD-Solid
370
    25
100
AcDbLine
 10
-48.0791191833
 20
-8.8629194779
 30
0.0
 11
0.0
 21
-15.875
 31
0.0
  0
LINE
  5
A0
330
1F
100
AcDbEntity
  8
1
  6
SLD-Solid
370
    25
100
AcDbLine
 10
0.2
 20
-15.875
 30
0.0
 11
0.8619053906
 21
-15.5663484474
 31
0.0
  0
LINE
  5
A1
330
1F
100
AcDbEntity
  8
1
  6
SLD-Solid
370
    25
100
AcDbLine
 10
0.8619053906
 20
15.5663484474
 30
0.0
 11
0.2
 21
15.875
 31
0.0
  0
LINE
  5
A2
330
1F
100
AcDbEntity
  8
1
  6
SLD-Solid
370
    25
100
AcDbLine
 10
2.0
 20
-20.6471881524
 30
0.0
 11
2.0
 21
20.6471881524
 31
0.0
  0
LINE
  5
A3
330
1F
100
AcDbEntity
  8
1
  6
SLD-Solid
370
    25
100
AcDbLine
 10
17.6270180319
 20
-22.2347719534
 30
0.0
 11
17.6270181276
 21
22.2347719686
 31
0.0
  0
LINE
  5
A4
330
1F
100
AcDbEntity
  8
1
  6
SLD-Solid
370
    25
100
AcDbLine
 10
17.3742822957
 20
-21.8788932419
 30
0.0
 11
17.6270180319
 21
-22.2347719534
 31
0.0
  0
LINE
  5
A5
330
1F
100
AcDbEntity
  8
1
  6
SLD-Solid
370
    25
100
AcDbLine
 10
15.6
 20
-18.2061912473
 30
0.0
 11
15.6
 21
18.2061912473
 31
0.0
  0
LINE
  5
A6
330
1F
100
AcDbEntity
  8
1
  6
SLD-Solid
370
    25
100
AcDbLine
 10
17.6270181276
 20
22.2347719686
 30
0.0
 11
17.3742822885
 21
21.8788932454
 31
0.0
  0
LINE
  5
A7
330
1F
100
AcDbEntity
  8
1
  6
SLD-Solid
370
    25
100
AcDbLine
 10
2.75
 20
-21.4118244265
 30
0.0
 11
9.5729818724
 21
-21.4118244265
 31
0.0
  0
LINE
  5
A8
330
1F
100
AcDbEntity
  8
1
  6
SLD-Solid
370
    25
100
AcDbLine
 10
9.5729818724
 20
21.4118244265
 30
0.0
 11
2.75
 21
21.4118244265
 31
0.0
  0
LINE
  5
A9
330
1F
100
AcDbEntity
  8
1
  6
SLD-Solid
370
    25
100
AcDbLine
 10
9.5729818724
 20
-21.4118244265
 30
0.0
 11
9.5729818724
 21
21.4118244265
 31
0.0
  0
LINE
  5
AA
330
1F
100
AcDbEntity
  8
1
  6
SLD-Solid
370
    25
100
AcDbLine
 10
22.1
 20
22.24
 30
0.0
 11
22.1
 21
-22.24
 31
0.0
  0
LINE
  5
AB
330
1F
100
AcDbEntity
  8
1
  6
SLD-Solid
370
    25
100
AcDbLine
 10
11.6
 20
-17.7162467733
 30
0.0
 11
11.6
 21
17.7162467733
 31
0.0
  0
LINE
  5
AC
330
1F
100
AcDbEntity
  8
1
  6
SLD-Solid
370
    25
100
AcDbLine
 10
80.0
 20
-16.0
 30
0.0
 11
80.0
 21
16.0
 31
0.0
  0
LINE
  5
AD
330
1F
100
AcDbEntity
  8
1
  6
SLD-Solid
370
    25
100
AcDbLine
 10
78.0
 20
-18.0
 30
0.0
 11
78.0
 21
18.0
 31
0.0
  0
LINE
  5
AE
330
1F
100
AcDbEntity
  8
1
  6
SLD-Solid
370
    25
100
AcDbLine
 10
0.0
 20
-15.875
 30
0.0
 11
0.0
 21
15.875
 31
0.0
  0
LINE
  5
AF
330
1F
100
AcDbEntity
  8
SK1
  6
SLD-Solid
370
    25
100
AcDbLine
 10
-48.4
 20
0.0
 30
0.0
 11
-48.4
 21
8.4918452077
 31
0.0
  0
LINE
  5
B0
330
1F
100
AcDbEntity
  8
SK1
  6
SLD-Solid
370
    25
100
AcDbLine
 10
-48.4
 20
-8.4918452077
 30
0.0
 11
-48.4
 21
0.0
 31
0.0
  0
LINE
  5
B1
330
1F
100
AcDbEntity
  8
1
  6
SLD-Solid
370
    25
100
AcDbLine
 10
17.3742822885
 20
21.8788932454
 30
0.0
 11
17.6270181276
 21
22.2347719686
 31
0.0
  0
LINE
  5
B2
330
1F
100
AcDbEntity
  8
1
  6
SLD-Solid
370
    25
100
AcDbLine
 10
17.6270180319
 20
-22.2347719534
 30
0.0
 11
17.3742822957
 21
-21.8788932419
 31
0.0
  0
LINE
  5
B3
330
1F
100
AcDbEntity
  8
1
  6
SLD-Solid
370
    25
100
AcDbLine
 10
0.8619053906
 20
-15.5663484474
 30
0.0
 11
0.8619053906
 21
15.5663484474
 31
0.0
  0
LINE
  5
B4
330
1F
100
AcDbEntity
  8
SK3
  6
SLD-Dashed
370
    18
100
AcDbLine
 10
78.2679491924
 20
8.0
 30
0.0
 11
78.2679491924
 21
-8.0
 31
0.0
  0
LINE
  5
B5
330
1F
100
AcDbEntity
  8
SK3
  6
SLD-Dashed
370
    18
100
AcDbLine
 10
80.0
 20
9.0
 30
0.0
 11
80.0
 21
-9.0
 31
0.0
  0
LINE
  5
B6
330
1F
100
AcDbEntity
  8
SK3
  6
SLD-Dashed
370
    18
100
AcDbLine
 10
2.75
 20
21.1408104658
 30
0.0
 11
2.75
 21
21.4118244265
 31
0.0
  0
LINE
  5
B7
330
1F
100
AcDbEntity
  8
SK3
  6
SLD-Dashed
370
    18
100
AcDbLine
 10
2.2909892605
 20
20.6471881524
 30
0.0
 11
2.0
 21
20.6471881524
 31
0.0
  0
LINE
  5
B8
330
1F
100
AcDbEntity
  8
SK3
  6
SLD-Dashed
370
    18
100
AcDbLine
 10
2.0
 20
20.6471881524
 30
0.0
 11
2.0
 21
16.525
 31
0.0
  0
LINE
  5
B9
330
1F
100
AcDbEntity
  8
SK3
  6
SLD-Dashed
370
    18
100
AcDbLine
 10
2.2909892605
 20
16.15
 30
0.0
 11
2.2909892605
 21
16.525
 31
0.0
  0
LINE
  5
BA
330
1F
100
AcDbEntity
  8
SK3
  6
SLD-Dashed
370
    18
100
AcDbLine
 10
2.2909892605
 20
16.15
 30
0.0
 11
2.0
 21
15.9849397219
 31
0.0
  0
LINE
  5
BB
330
1F
100
AcDbEntity
  8
SK3
  6
SLD-Dashed
370
    18
100
AcDbLine
 10
2.2909892605
 20
16.525
 30
0.0
 11
2.0
 21
16.525
 31
0.0
  0
LINE
  5
BC
330
1F
100
AcDbEntity
  8
SK3
  6
SLD-Dashed
370
    18
100
AcDbLine
 10
2.0
 20
16.525
 30
0.0
 11
2.0
 21
15.9849397219
 31
0.0
  0
LINE
  5
BD
330
1F
100
AcDbEntity
  8
SK3
  6
SLD-Dashed
370
    18
100
AcDbLine
 10
33.5
 20
8.25
 30
0.0
 11
33.5
 21
-8.25
 31
0.0
  0
LINE
  5
BE
330
1F
100
AcDbEntity
  8
SK3
  6
SLD-Dashed
370
    18
100
AcDbLine
 10
30.5
 20
8.25
 30
0.0
 11
30.5
 21
-8.25
 31
0.0
  0
LINE
  5
BF
330
1F
100
AcDbEntity
  8
SK3
  6
SLD-Dashed
370
    18
100
AcDbLine
 10
2.2909892605
 20
-20.6471881524
 30
0.0
 11
2.2909892605
 21
-16.525
 31
0.0
  0
LINE
  5
C0
330
1F
100
AcDbEntity
  8
SK3
  6
SLD-Dashed
370
    18
100
AcDbLine
 10
9.7753825818
 20
-21.1408104658
 30
0.0
 11
2.75
 21
-21.1408104658
 31
0.0
  0
LINE
  5
C1
330
1F
100
AcDbEntity
  8
SK3
  6
SLD-Dashed
370
    18
100
AcDbLine
 10
2.2909892605
 20
16.525
 30
0.0
 11
2.2909892605
 21
20.6471881524
 31
0.0
  0
LINE
  5
C2
330
1F
100
AcDbEntity
  8
SK3
  6
SLD-Dashed
370
    18
100
AcDbLine
 10
2.75
 20
21.1408104658
 30
0.0
 11
9.7753825818
 21
21.1408104658
 31
0.0
  0
LINE
  5
C3
330
1F
100
AcDbEntity
  8
SK3
  6
SLD-Dashed
370
    18
100
AcDbLine
 10
11.4
 20
16.525
 30
0.0
 11
19.5
 21
16.525
 31
0.0
  0
LINE
  5
C4
330
1F
100
AcDbEntity
  8
SK3
  6
SLD-Dashed
370
    18
100
AcDbLine
 10
11.4
 20
16.525
 30
0.0
 11
11.4
 21
16.15
 31
0.0
  0
LINE
  5
C5
330
1F
100
AcDbEntity
  8
SK3
  6
SLD-Dashed
370
    18
100
AcDbLine
 10
11.4
 20
16.15
 30
0.0
 11
19.125
 21
16.15
 31
0.0
  0
LINE
  5
C6
330
1F
100
AcDbEntity
  8
SK3
  6
SLD-Dashed
370
    18
100
AcDbLine
 10
11.4
 20
16.525
 30
0.0
 11
11.4
 21
16.15
 31
0.0
  0
LINE
  5
C7
330
1F
100
AcDbEntity
  8
SK3
  6
SLD-Dashed
370
    18
100
AcDbLine
 10
11.4
 20
-16.15
 30
0.0
 11
19.125
 21
-16.15
 31
0.0
  0
LINE
  5
C8
330
1F
100
AcDbEntity
  8
SK3
  6
SLD-Dashed
370
    18
100
AcDbLine
 10
11.4
 20
-16.525
 30
0.0
 11
19.5
 21
-16.525
 31
0.0
  0
LINE
  5
C9
330
1F
100
AcDbEntity
  8
1
  6
SLD-Dashed
370
    18
100
AcDbLine
 10
15.6
 20
-18.2061912473
 30
0.0
 11
15.6
 21
-17.9608602244
 31
0.0
  0
LINE
  5
CA
330
1F
100
AcDbEntity
  8
1
  6
SLD-Dashed
370
    18
100
AcDbLine
 10
11.6
 20
-17.4640344709
 30
0.0
 11
11.6
 21
-17.7162467733
 31
0.0
  0
LINE
  5
CB
330
1F
100
AcDbEntity
  8
SK3
  6
SLD-Dashed
370
    18
100
AcDbLine
 10
11.4
 20
-18.0953286018
 30
0.0
 11
11.4
 21
-16.525
 31
0.0
  0
LINE
  5
CC
330
1F
100
AcDbEntity
  8
SK3
  6
SLD-Dashed
370
    18
100
AcDbLine
 10
2.2909892605
 20
16.15
 30
0.0
 11
11.4
 21
16.15
 31
0.0
  0
LINE
  5
CD
330
1F
100
AcDbEntity
  8
SK3
  6
SLD-Dashed
370
    18
100
AcDbLine
 10
11.4
 20
16.525
 30
0.0
 11
2.2909892605
 21
16.525
 31
0.0
  0
LINE
  5
CE
330
1F
100
AcDbEntity
  8
SK3
  6
SLD-Dashed
370
    18
100
AcDbLine
 10
11.4
 20
18.0953286018
 30
0.0
 11
11.4
 21
16.525
 31
0.0
  0
LINE
  5
CF
330
1F
100
AcDbEntity
  8
1
  6
SLD-Dashed
370
    18
100
AcDbLine
 10
11.6
 20
17.4640344709
 30
0.0
 11
11.6
 21
17.7162467733
 31
0.0
  0
LINE
  5
D0
330
1F
100
AcDbEntity
  8
1
  6
SLD-Dashed
370
    18
100
AcDbLine
 10
15.6
 20
18.2061912473
 30
0.0
 11
15.6
 21
17.9608602244
 31
0.0
  0
LINE
  5
D1
330
1F
100
AcDbEntity
  8
SK3
  6
SLD-Dashed
370
    18
100
AcDbLine
 10
11.4
 20
-16.15
 30
0.0
 11
2.2909892605
 21
-16.15
 31
0.0
  0
LINE
  5
D2
330
1F
100
AcDbEntity
  8
SK3
  6
SLD-Dashed
370
    18
100
AcDbLine
 10
2.2909892605
 20
-16.525
 30
0.0
 11
11.4
 21
-16.525
 31
0.0
  0
LINE
  5
D3
330
1F
100
AcDbEntity
  8
SK3
  6
SLD-Dashed
370
    18
100
AcDbLine
 10
33.5
 20
8.0
 30
0.0
 11
33.5
 21
-8.0
 31
0.0
  0
LINE
  5
D4
330
1F
100
AcDbEntity
  8
SK3
  6
SLD-Dashed
370
    18
100
AcDbLine
 10
-47.2
 20
6.2565
 30
0.0
 11
-47.2
 21
-6.2565
 31
0.0
  0
LINE
  5
D5
330
1F
100
AcDbEntity
  8
SK3
  6
SLD-Dashed
370
    18
100
AcDbLine
 10
-48.4
 20
6.949320323
 30
0.0
 11
-48.4
 21
-6.949320323
 31
0.0
  0
LINE
  5
D6
330
1F
100
AcDbEntity
  8
SK3
  6
SLD-Dashed
370
    18
100
AcDbLine
 10
-41.15
 20
6.625
 30
0.0
 11
-41.15
 21
-6.625
 31
0.0
  0
LINE
  5
D7
330
1F
100
AcDbEntity
  8
SK3
  6
SLD-Dashed
370
    18
100
AcDbLine
 10
-43.15
 20
6.625
 30
0.0
 11
-43.15
 21
-6.625
 31
0.0
  0
LINE
  5
D8
330
1F
100
AcDbEntity
  8
SK3
  6
SLD-Dashed
370
    18
100
AcDbLine
 10
-40.2695408395
 20
-5.1
 30
0.0
 11
-40.2695408395
 21
5.1
 31
0.0
  0
LINE
  5
D9
330
1F
100
AcDbEntity
  8
SK3
  6
SLD-Dashed
370
    18
100
AcDbLine
 10
-43.7882607226
 20
6.2565
 30
0.0
 11
-43.7882607226
 21
-6.2565
 31
0.0
  0
LINE
  5
DA
330
1F
100
AcDbEntity
  8
SK3
  6
SLD-Dashed
370
    18
100
AcDbLine
 10
61.0
 20
16.45
 30
0.0
 11
70.0
 21
16.45
 31
0.0
  0
LINE
  5
DB
330
1F
100
AcDbEntity
  8
SK3
  6
SLD-Dashed
370
    18
100
AcDbLine
 10
40.0
 20
16.45
 30
0.0
 11
49.0
 21
16.45
 31
0.0
  0
LINE
  5
DC
330
1F
100
AcDbEntity
  8
SK3
  6
SLD-Dashed
370
    18
100
AcDbLine
 10
28.1695266595
 20
5.1
 30
0.0
 11
28.1695266595
 21
-5.1
 31
0.0
  0
LINE
  5
DD
330
1F
100
AcDbEntity
  8
SK3
  6
SLD-Dashed
370
    18
100
AcDbLine
 10
28.5
 20
5.65
 30
0.0
 11
28.5
 21
-5.65
 31
0.0
  0
LINE
  5
DE
330
1F
100
AcDbEntity
  8
SK3
  6
SLD-Dashed
370
    18
100
AcDbLine
 10
30.5
 20
5.6468448351
 30
0.0
 11
30.5
 21
-5.6468448351
 31
0.0
  0
LINE
  5
DF
330
1F
100
AcDbEntity
  8
SK3
  6
SLD-Dashed
370
    18
100
AcDbLine
 10
16.0
 20
-11.75
 30
0.0
 11
6.0
 21
-11.75
 31
0.0
  0
LINE
  5
E0
330
1F
100
AcDbEntity
  8
SK3
  6
SLD-Dashed
370
    18
100
AcDbLine
 10
6.0
 20
-16.15
 30
0.0
 11
16.0
 21
-16.15
 31
0.0
  0
LINE
  5
E1
330
1F
100
AcDbEntity
  8
SK3
  6
SLD-Dashed
370
    18
100
AcDbLine
 10
6.3000000741
 20
-11.45
 30
0.0
 11
15.7
 21
-11.45
 31
0.0
  0
LINE
  5
E2
330
1F
100
AcDbEntity
  8
SK3
  6
SLD-Dashed
370
    18
100
AcDbLine
 10
2.2909892605
 20
16.15
 30
0.0
 11
2.0
 21
15.9849397219
 31
0.0
  0
LINE
  5
E3
330
1F
100
AcDbEntity
  8
SK3
  6
SLD-Dashed
370
    18
100
AcDbLine
 10
2.2909892605
 20
16.15
 30
0.0
 11
2.0
 21
15.9849397219
 31
0.0
  0
LINE
  5
E4
330
1F
100
AcDbEntity
  8
SK3
  6
SLD-Dashed
370
    18
100
AcDbLine
 10
2.2909892605
 20
16.525
 30
0.0
 11
2.2909892605
 21
16.15
 31
0.0
  0
LINE
  5
E5
330
1F
100
AcDbEntity
  8
SK3
  6
SLD-Dashed
370
    18
100
AcDbLine
 10
2.0
 20
15.9849397219
 30
0.0
 11
2.0
 21
16.525
 31
0.0
  0
LINE
  5
E6
330
1F
100
AcDbEntity
  8
SK3
  6
SLD-Dashed
370
    18
100
AcDbLine
 10
2.2909892605
 20
20.6471881524
 30
0.0
 11
2.0
 21
20.6471881524
 31
0.0
  0
LINE
  5
E7
330
1F
100
AcDbEntity
  8
SK3
  6
SLD-Dashed
370
    18
100
AcDbLine
 10
2.75
 20
21.1408104658
 30
0.0
 11
2.75
 21
21.4118244265
 31
0.0
  0
LINE
  5
E8
330
1F
100
AcDbEntity
  8
1
  6
SLD-Dashed
370
    18
100
AcDbLine
 10
2.75
 20
21.4118244265
 30
0.0
 11
9.5729818724
 21
21.4118244265
 31
0.0
  0
LINE
  5
E9
330
1F
100
AcDbEntity
  8
SK3
  6
SLD-Dashed
370
    18
100
AcDbLine
 10
80.0
 20
9.0
 30
0.0
 11
78.2679491924
 21
8.0
 31
0.0
  0
LINE
  5
EA
330
1F
100
AcDbEntity
  8
SK3
  6
SLD-Dashed
370
    18
100
AcDbLine
 10
78.2679491924
 20
-8.0
 30
0.0
 11
80.0
 21
-9.0
 31
0.0
  0
LINE
  5
EB
330
1F
100
AcDbEntity
  8
SK3
  6
SLD-Dashed
370
    18
100
AcDbLine
 10
33.5
 20
8.25
 30
0.0
 11
30.5
 21
8.25
 31
0.0
  0
LINE
  5
EC
330
1F
100
AcDbEntity
  8
SK3
  6
SLD-Dashed
370
    18
100
AcDbLine
 10
30.5
 20
-8.25
 30
0.0
 11
33.5
 21
-8.25
 31
0.0
  0
LINE
  5
ED
330
1F
100
AcDbEntity
  8
SK3
  6
SLD-Dashed
370
    18
100
AcDbLine
 10
19.5
 20
-22.61518752
 30
0.0
 11
19.5
 21
-16.525
 31
0.0
  0
LINE
  5
EE
330
1F
100
AcDbEntity
  8
SK3
  6
SLD-Dashed
370
    18
100
AcDbLine
 10
19.5
 20
16.525
 30
0.0
 11
19.5
 21
22.6152218931
 31
0.0
  0
LINE
  5
EF
330
1F
100
AcDbEntity
  8
SK3
  6
SLD-Dashed
370
    18
100
AcDbLine
 10
40.0028163563
 20
8.0
 30
0.0
 11
33.5
 21
8.0
 31
0.0
  0
LINE
  5
F0
330
1F
100
AcDbEntity
  8
SK3
  6
SLD-Dashed
370
    18
100
AcDbLine
 10
61.0028163563
 20
8.0
 30
0.0
 11
49.0
 21
8.0
 31
0.0
  0
LINE
  5
F1
330
1F
100
AcDbEntity
  8
SK3
  6
SLD-Dashed
370
    18
100
AcDbLine
 10
78.2679491924
 20
8.0
 30
0.0
 11
70.0
 21
8.0
 31
0.0
  0
LINE
  5
F2
330
1F
100
AcDbEntity
  8
SK3
  6
SLD-Dashed
370
    18
100
AcDbLine
 10
33.5
 20
-8.0
 30
0.0
 11
78.2679491924
 21
-8.0
 31
0.0
  0
LINE
  5
F3
330
1F
100
AcDbEntity
  8
SK3
  6
SLD-Dashed
370
    18
100
AcDbLine
 10
-48.4
 20
-6.949320323
 30
0.0
 11
-47.2
 21
-6.2565
 31
0.0
  0
LINE
  5
F4
330
1F
100
AcDbEntity
  8
SK3
  6
SLD-Dashed
370
    18
100
AcDbLine
 10
-47.2
 20
6.2565
 30
0.0
 11
-48.4
 21
6.949320323
 31
0.0
  0
LINE
  5
F5
330
1F
100
AcDbEntity
  8
SK3
  6
SLD-Dashed
370
    18
100
AcDbLine
 10
-41.15
 20
6.625
 30
0.0
 11
-43.15
 21
6.625
 31
0.0
  0
LINE
  5
F6
330
1F
100
AcDbEntity
  8
SK3
  6
SLD-Dashed
370
    18
100
AcDbLine
 10
-43.15
 20
-6.625
 30
0.0
 11
-41.15
 21
-6.625
 31
0.0
  0
LINE
  5
F7
330
1F
100
AcDbEntity
  8
SK3
  6
SLD-Dashed
370
    18
100
AcDbLine
 10
-41.15
 20
-6.625
 30
0.0
 11
-40.2695408395
 21
-5.1
 31
0.0
  0
LINE
  5
F8
330
1F
100
AcDbEntity
  8
SK3
  6
SLD-Dashed
370
    18
100
AcDbLine
 10
-40.2695408395
 20
5.1
 30
0.0
 11
-41.15
 21
6.625
 31
0.0
  0
LINE
  5
F9
330
1F
100
AcDbEntity
  8
SK3
  6
SLD-Dashed
370
    18
100
AcDbLine
 10
-43.15
 20
6.625
 30
0.0
 11
-43.7882607226
 21
6.2565
 31
0.0
  0
LINE
  5
FA
330
1F
100
AcDbEntity
  8
SK3
  6
SLD-Dashed
370
    18
100
AcDbLine
 10
-43.7882607226
 20
-6.2565
 30
0.0
 11
-43.15
 21
-6.625
 31
0.0
  0
LINE
  5
FB
330
1F
100
AcDbEntity
  8
SK3
  6
SLD-Dashed
370
    18
100
AcDbLine
 10
-43.7882607226
 20
6.2565
 30
0.0
 11
-47.2
 21
6.2565
 31
0.0
  0
LINE
  5
FC
330
1F
100
AcDbEntity
  8
SK3
  6
SLD-Dashed
370
    18
100
AcDbLine
 10
-47.2
 20
-6.2565
 30
0.0
 11
-43.7882607226
 21
-6.2565
 31
0.0
  0
LINE
  5
FD
330
1F
100
AcDbEntity
  8
SK3
  6
SLD-Dashed
370
    18
100
AcDbLine
 10
19.4999991329
 20
22.6149996985
 30
0.0
 11
19.8749999809
 21
22.99
 31
0.0
  0
LINE
  5
FE
330
1F
100
AcDbEntity
  8
SK3
  6
SLD-Dashed
370
    18
100
AcDbLine
 10
59.45
 20
18.0
 30
0.0
 11
61.0
 21
16.45
 31
0.0
  0
LINE
  5
FF
330
1F
100
AcDbEntity
  8
SK3
  6
SLD-Dashed
370
    18
100
AcDbLine
 10
70.0
 20
16.45
 30
0.0
 11
71.55
 21
18.0
 31
0.0
  0
LINE
  5
100
330
1F
100
AcDbEntity
  8
SK3
  6
SLD-Dashed
370
    18
100
AcDbLine
 10
38.45
 20
18.0
 30
0.0
 11
40.0
 21
16.45
 31
0.0
  0
LINE
  5
101
330
1F
100
AcDbEntity
  8
SK3
  6
SLD-Dashed
370
    18
100
AcDbLine
 10
49.0
 20
16.45
 30
0.0
 11
50.55
 21
18.0
 31
0.0
  0
LINE
  5
102
330
1F
100
AcDbEntity
  8
SK3
  6
SLD-Dashed
370
    18
100
AcDbLine
 10
28.5
 20
5.65
 30
0.0
 11
28.1695266595
 21
5.1
 31
0.0
  0
LINE
  5
103
330
1F
100
AcDbEntity
  8
SK3
  6
SLD-Dashed
370
    18
100
AcDbLine
 10
28.1695266595
 20
-5.1
 30
0.0
 11
28.5
 21
-5.65
 31
0.0
  0
LINE
  5
104
330
1F
100
AcDbEntity
  8
SK3
  6
SLD-Dashed
370
    18
100
AcDbLine
 10
30.5
 20
5.65
 30
0.0
 11
28.5
 21
5.65
 31
0.0
  0
LINE
  5
105
330
1F
100
AcDbEntity
  8
SK3
  6
SLD-Dashed
370
    18
100
AcDbLine
 10
28.5
 20
-5.65
 30
0.0
 11
30.5
 21
-5.65
 31
0.0
  0
LINE
  5
106
330
1F
100
AcDbEntity
  8
SK3
  6
SLD-Dashed
370
    18
100
AcDbLine
 10
-40.2695408395
 20
-5.1
 30
0.0
 11
28.1695266595
 21
-5.1
 31
0.0
  0
LINE
  5
107
330
1F
100
AcDbEntity
  8
SK3
  6
SLD-Dashed
370
    18
100
AcDbLine
 10
28.1695266595
 20
5.1
 30
0.0
 11
-40.2695408395
 21
5.1
 31
0.0
  0
LINE
  5
108
330
1F
100
AcDbEntity
  8
SK3
  6
SLD-Dashed
370
    18
100
AcDbLine
 10
16.0
 20
-16.15
 30
0.0
 11
16.0
 21
-11.75
 31
0.0
  0
LINE
  5
109
330
1F
100
AcDbEntity
  8
SK3
  6
SLD-Dashed
370
    18
100
AcDbLine
 10
6.0
 20
-11.75
 30
0.0
 11
6.0
 21
-16.15
 31
0.0
  0
LINE
  5
10A
330
1F
100
AcDbEntity
  8
SK3
  6
SLD-Dashed
370
    18
100
AcDbLine
 10
61.0
 20
16.45
 30
0.0
 11
61.0
 21
7.9984297698
 31
0.0
  0
LINE
  5
10B
330
1F
100
AcDbEntity
  8
SK3
  6
SLD-Dashed
370
    18
100
AcDbLine
 10
70.0
 20
8.0
 30
0.0
 11
70.0
 21
16.45
 31
0.0
  0
LINE
  5
10C
330
1F
100
AcDbEntity
  8
SK3
  6
SLD-Dashed
370
    18
100
AcDbLine
 10
40.0
 20
16.45
 30
0.0
 11
40.0
 21
7.9984297698
 31
0.0
  0
LINE
  5
10D
330
1F
100
AcDbEntity
  8
SK3
  6
SLD-Dashed
370
    18
100
AcDbLine
 10
49.0
 20
8.0
 30
0.0
 11
49.0
 21
16.45
 31
0.0
  0
LINE
  5
10E
330
1F
100
AcDbEntity
  8
SK3
  6
SLD-Dashed
370
    18
100
AcDbLine
 10
2.2470639556
 20
16.15
 30
0.0
 11
1.9677904768
 21
16.0666775574
 31
0.0
  0
LINE
  5
10F
330
1F
100
AcDbEntity
  8
SK3
  6
SLD-Solid
370
    18
100
AcDbLine
 10
49.5
 20
7.9772315285
 30
0.0
 11
49.5
 21
16.95
 31
0.0
  0
LINE
  5
110
330
1F
100
AcDbEntity
  8
SK3
  6
SLD-Solid
370
    18
100
AcDbLine
 10
39.5
 20
16.95
 30
0.0
 11
39.5
 21
7.9772315285
 31
0.0
  0
LINE
  5
111
330
1F
100
AcDbEntity
  8
SK3
  6
SLD-Solid
370
    18
100
AcDbLine
 10
42.3205505282
 20
6.6143782777
 30
0.0
 11
41.5643181506
 21
6.9005035415
 31
0.0
  0
LINE
  5
112
330
1F
100
AcDbEntity
  8
SK3
  6
SLD-Solid
370
    18
100
AcDbLine
 10
49.4633106042
 20
7.9772315285
 30
0.0
 11
49.3575939375
 21
7.9117772253
 31
0.0
  0
LINE
  5
113
330
1F
100
AcDbEntity
  8
SK3
  6
SLD-Solid
370
    18
100
AcDbLine
 10
46.679385109
 20
6.6143782777
 30
0.0
 11
42.3205505282
 21
6.6143782777
 31
0.0
  0
LINE
  5
114
330
1F
100
AcDbEntity
  8
SK3
  6
SLD-Solid
370
    18
100
AcDbLine
 10
70.5
 20
7.9772315285
 30
0.0
 11
70.5
 21
16.95
 31
0.0
  0
LINE
  5
115
330
1F
100
AcDbEntity
  8
SK3
  6
SLD-Solid
370
    18
100
AcDbLine
 10
60.5
 20
16.95
 30
0.0
 11
60.5
 21
7.9772315285
 31
0.0
  0
LINE
  5
116
330
1F
100
AcDbEntity
  8
SK3
  6
SLD-Solid
370
    18
100
AcDbLine
 10
63.3205505282
 20
6.6143782777
 30
0.0
 11
62.5743945665
 21
6.8963154766
 31
0.0
  0
LINE
  5
117
330
1F
100
AcDbEntity
  8
SK3
  6
SLD-Solid
370
    18
100
AcDbLine
 10
70.4633106042
 20
7.9772315285
 30
0.0
 11
70.3575939375
 21
7.9117772253
 31
0.0
  0
LINE
  5
118
330
1F
100
AcDbEntity
  8
SK3
  6
SLD-Solid
370
    18
100
AcDbLine
 10
67.6794127655
 20
6.6143782777
 30
0.0
 11
63.3205505282
 21
6.6143782777
 31
0.0
  0
LINE
  5
119
330
1F
100
AcDbEntity
  8
SK3
  6
SLD-Solid
370
    18
100
AcDbLine
 10
-23.4
 20
6.0
 30
0.0
 11
-40.7891560818
 21
6.0
 31
0.0
  0
LINE
  5
11A
330
1F
100
AcDbEntity
  8
SK3
  6
SLD-Solid
370
    18
100
AcDbLine
 10
-40.7891560818
 20
-6.0
 30
0.0
 11
-23.4
 21
-6.0
 31
0.0
  0
LINE
  5
11B
330
1F
100
AcDbEntity
  8
SK3
  6
SLD-Solid
370
    18
100
AcDbLine
 10
-23.4
 20
6.0
 30
0.0
 11
-23.4
 21
5.9261300436
 31
0.0
  0
LINE
  5
11C
330
1F
100
AcDbEntity
  8
SK3
  6
SLD-Solid
370
    18
100
AcDbLine
 10
-23.4
 20
5.9261300436
 30
0.0
 11
-23.4
 21
5.7063390978
 31
0.0
  0
LINE
  5
11D
330
1F
100
AcDbEntity
  8
SK3
  6
SLD-Solid
370
    18
100
AcDbLine
 10
-23.4
 20
5.7063390978
 30
0.0
 11
-23.4
 21
5.3460391451
 31
0.0
  0
LINE
  5
11E
330
1F
100
AcDbEntity
  8
SK3
  6
SLD-Solid
370
    18
100
AcDbLine
 10
-23.4
 20
5.3460391451
 30
0.0
 11
-23.4
 21
4.8541019663
 31
0.0
  0
LINE
  5
11F
330
1F
100
AcDbEntity
  8
SK3
  6
SLD-Solid
370
    18
100
AcDbLine
 10
-23.4
 20
4.8541019663
 30
0.0
 11
-23.4
 21
4.2426406871
 31
0.0
  0
LINE
  5
120
330
1F
100
AcDbEntity
  8
SK3
  6
SLD-Solid
370
    18
100
AcDbLine
 10
-23.4
 20
4.2426406871
 30
0.0
 11
-23.4
 21
3.5267115138
 31
0.0
  0
LINE
  5
121
330
1F
100
AcDbEntity
  8
SK3
  6
SLD-Solid
370
    18
100
AcDbLine
 10
-23.4
 20
3.5267115138
 30
0.0
 11
-23.4
 21
2.7239429984
 31
0.0
  0
LINE
  5
122
330
1F
100
AcDbEntity
  8
SK3
  6
SLD-Solid
370
    18
100
AcDbLine
 10
-23.4
 20
2.7239429984
 30
0.0
 11
-23.4
 21
1.8541019663
 31
0.0
  0
LINE
  5
123
330
1F
100
AcDbEntity
  8
SK3
  6
SLD-Solid
370
    18
100
AcDbLine
 10
-23.4
 20
1.8541019663
 30
0.0
 11
-23.4
 21
0.9386067902
 31
0.0
  0
LINE
  5
124
330
1F
100
AcDbEntity
  8
SK3
  6
SLD-Solid
370
    18
100
AcDbLine
 10
-23.4
 20
0.9386067902
 30
0.0
 11
-23.4
 21
0.0
 31
0.0
  0
LINE
  5
125
330
1F
100
AcDbEntity
  8
SK3
  6
SLD-Solid
370
    18
100
AcDbLine
 10
-23.4
 20
0.0
 30
0.0
 11
-23.4
 21
-0.9386067902
 31
0.0
  0
LINE
  5
126
330
1F
100
AcDbEntity
  8
SK3
  6
SLD-Solid
370
    18
100
AcDbLine
 10
-23.4
 20
-0.9386067902
 30
0.0
 11
-23.4
 21
-1.8541019662
 31
0.0
  0
LINE
  5
127
330
1F
100
AcDbEntity
  8
SK3
  6
SLD-Solid
370
    18
100
AcDbLine
 10
-23.4
 20
-1.8541019662
 30
0.0
 11
-23.4
 21
-2.7239429984
 31
0.0
  0
LINE
  5
128
330
1F
100
AcDbEntity
  8
SK3
  6
SLD-Solid
370
    18
100
AcDbLine
 10
-23.4
 20
-2.7239429984
 30
0.0
 11
-23.4
 21
-3.5267115138
 31
0.0
  0
LINE
  5
129
330
1F
100
AcDbEntity
  8
SK3
  6
SLD-Solid
370
    18
100
AcDbLine
 10
-23.4
 20
-3.5267115138
 30
0.0
 11
-23.4
 21
-4.2426406871
 31
0.0
  0
LINE
  5
12A
330
1F
100
AcDbEntity
  8
SK3
  6
SLD-Solid
370
    18
100
AcDbLine
 10
-23.4
 20
-4.2426406871
 30
0.0
 11
-23.4
 21
-4.8541019662
 31
0.0
  0
LINE
  5
12B
330
1F
100
AcDbEntity
  8
SK3
  6
SLD-Solid
370
    18
100
AcDbLine
 10
-23.4
 20
-4.8541019662
 30
0.0
 11
-23.4
 21
-5.3460391451
 31
0.0
  0
LINE
  5
12C
330
1F
100
AcDbEntity
  8
SK3
  6
SLD-Solid
370
    18
100
AcDbLine
 10
-23.4
 20
-5.3460391451
 30
0.0
 11
-23.4
 21
-5.7063390978
 31
0.0
  0
LINE
  5
12D
330
1F
100
AcDbEntity
  8
SK3
  6
SLD-Solid
370
    18
100
AcDbLine
 10
-23.4
 20
-5.7063390978
 30
0.0
 11
-23.4
 21
-5.9261300436
 31
0.0
  0
LINE
  5
12E
330
1F
100
AcDbEntity
  8
SK3
  6
SLD-Solid
370
    18
100
AcDbLine
 10
-23.4
 20
-5.9261300436
 30
0.0
 11
-23.4
 21
-6.0
 31
0.0
  0
LINE
  5
12F
330
1F
100
AcDbEntity
  8
4
  6
SLD-Center
370
    18
100
AcDbLine
 10
0.3309481372
 20
0.0
 30
0.0
 11
82.0
 21
0.0
 31
0.0
  0
LINE
  5
130
330
1F
100
AcDbEntity
  8
4
  6
SLD-Center
370
    18
100
AcDbLine
 10
65.5
 20
18.45
 30
0.0
 11
65.5
 21
6.0
 31
0.0
  0
LINE
  5
131
330
1F
100
AcDbEntity
  8
4
  6
SLD-Center
370
    18
100
AcDbLine
 10
44.5
 20
18.45
 30
0.0
 11
44.5
 21
6.0
 31
0.0
  0
LINE
  5
132
330
1F
100
AcDbEntity
  8
SK4
  6
SLD-Center
370
    18
100
AcDbLine
 10
81.9149100448
 20
0.0
 30
0.0
 11
-49.2
 21
0.0
 31
0.0
  0
ARC
  5
133
330
1F
100
AcDbEntity
  8
1
  6
SLD-Solid
370
    25
100
AcDbCircle
 10
21.35
 20
-22.24
 30
0.0
 40
0.7500000000000036
100
AcDbArc
 50
270.0
 51
0.0
  0
ARC
  5
134
330
1F
100
AcDbEntity
  8
1
  6
SLD-Solid
370
    25
100
AcDbCircle
 10
21.35
 20
22.24
 30
0.0
 40
0.75
100
AcDbArc
 50
0.0
 51
90.0
  0
ARC
  5
135
330
1F
100
AcDbEntity
  8
1
  6
SLD-Solid
370
    25
100
AcDbCircle
 10
23.1
 20
-19.0
 30
0.0
 40
1.0
100
AcDbArc
 50
90.0
 51
180.0
  0
ARC
  5
136
330
1F
100
AcDbEntity
  8
1
  6
SLD-Solid
370
    25
100
AcDbCircle
 10
23.1
 20
19.0
 30
0.0
 40
1.000000000000007
100
AcDbArc
 50
180.0
 51
270.0
  0
ARC
  5
137
330
1F
100
AcDbEntity
  8
1
  6
SLD-Solid
370
    25
100
AcDbCircle
 10
1.2
 20
-16.291394677
 30
0.0
 40
0.8000000000000095
100
AcDbArc
 50
16.2038973798
 51
115.0
  0
ARC
  5
138
330
1F
100
AcDbEntity
  8
1
  6
SLD-Solid
370
    25
100
AcDbCircle
 10
1.2
 20
16.291394677
 30
0.0
 40
0.8000000000000059
100
AcDbArc
 50
245.0
 51
343.6599244905
  0
ARC
  5
139
330
1F
100
AcDbEntity
  8
SK1
  6
SLD-Solid
370
    25
100
AcDbCircle
 10
-48.025
 20
8.4918452077
 30
0.0
 40
0.375
100
AcDbArc
 50
98.2977777778
 51
180.0
  0
ARC
  5
13A
330
1F
100
AcDbEntity
  8
SK1
  6
SLD-Solid
370
    25
100
AcDbCircle
 10
-48.025
 20
-8.4918452077
 30
0.0
 40
0.375
100
AcDbArc
 50
180.0
 51
261.7022222222
  0
ARC
  5
13B
330
1F
100
AcDbEntity
  8
SK3
  6
SLD-Dashed
370
    18
100
AcDbCircle
 10
19.125
 20
16.525
 30
0.0
 40
0.3750000000000284
100
AcDbArc
 50
270.0
 51
0.0
  0
ARC
  5
13C
330
1F
100
AcDbEntity
  8
1
370
    25
100
AcDbCircle
 10
65.5000300647
 20
-41.1526763497
 30
0.0
 40
23.89318839750116
100
AcDbArc
 50
75.7256350096
 51
104.2559918018
  0
ARC
  5
13D
330
1F
100
AcDbEntity
  8
1
370
    25
100
AcDbCircle
 10
44.5037428859
 20
-39.4323517492
 30
0.0
 40
22.22630450351414
100
AcDbArc
 50
74.6395945908
 51
105.3604054092
  0
ARC
  5
13E
330
1F
100
AcDbEntity
  8
1
370
    25
100
AcDbCircle
 10
44.4971978215
 20
40.6173264908
 30
0.0
 40
23.40984759463475
100
AcDbArc
 50
255.0487792183
 51
284.9512207817
  0
ARC
  5
13F
330
1F
100
AcDbEntity
  8
1
370
    25
100
AcDbCircle
 10
65.493429486
 20
42.3365141714
 30
0.0
 40
25.07566473631017
100
AcDbArc
 50
256.0539739168
 51
283.9460260832
  0
SPLINE
  5
140
330
1F
100
AcDbEntity
  8
1
  6
SLD-Solid
370
    25
100
AcDbSpline
210
0.0
220
0.0
230
1.0
 70
     8
 71
     3
 72
    17
 73
    13
 74
     0
 42
0.000000001
 43
0.00000001
 40
0.0
 40
0.0
 40
0.0
 40
0.0
 40
0.0613488462249153
 40
0.1223253366974401
 40
0.245096784412529
 40
0.368138365098355
 40
0.4926396224041513
 40
0.6175052456715788
 40
0.7442543672646715
 40
0.8710622148430806
 40
0.9356349193763264
 40
1.0
 40
1.0
 40
1.0
 40
1.0
 10
2.000000000000002
 20
-20.64718815236391
 30
0.0
 10
2.000652577571364
 20
-20.67137191979856
 30
0.0
 10
2.001953771905866
 20
-20.71959267171313
 30
0.0
 10
2.015846111275636
 20
-20.81537188437831
 30
0.0
 10
2.049151241530899
 20
-20.93242490851841
 30
0.0
 10
2.115511813171753
 20
-21.0637390674605
 30
0.0
 10
2.206281047285728
 20
-21.18095339175561
 30
0.0
 10
2.319482276692201
 20
-21.27942721241392
 30
0.0
 10
2.451051640458293
 20
-21.35417278346596
 30
0.0
 10
2.572374201880313
 20
-21.39302373215139
 30
0.0
 10
2.673034356246849
 20
-21.40948908716583
 30
0.0
 10
2.724372341323452
 20
-21.411046816156
 30
0.0
 10
2.750000000000003
 20
-21.4118244264734
 30
0.0
  0
SPLINE
  5
141
330
1F
100
AcDbEntity
  8
1
  6
SLD-Solid
370
    25
100
AcDbSpline
210
0.0
220
0.0
230
1.0
 70
     8
 71
     3
 72
    17
 73
    13
 74
     0
 42
0.000000001
 43
0.00000001
 40
0.0
 40
0.0
 40
0.0
 40
0.0
 40
0.0637634011307873
 40
0.1277256318707513
 40
0.2552395275219496
 40
0.381389629456754
 40
0.5068894502993633
 40
0.6314085105370987
 40
0.7544511054346207
 40
0.8774624006501419
 40
0.9386349676295338
 40
1.0
 40
1.0
 40
1.0
 40
1.0
 10
2.750000000000009
 20
21.4118244264734
 30
0.0
 10
2.724612197390508
 20
21.41106102479746
 30
0.0
 10
2.673757426901444
 20
21.40953184097569
 30
0.0
 10
2.573277136183917
 20
21.3932553007259
 30
0.0
 10
2.452078393922502
 20
21.35462724391571
 30
0.0
 10
2.320166321212451
 20
21.27991295792371
 30
0.0
 10
2.20681555700275
 20
21.18155658765449
 30
0.0
 10
2.115803715416073
 20
21.0642021009859
 30
0.0
 10
2.049304820300302
 20
20.93284220497185
 30
0.0
 10
2.015892598430512
 20
20.81563652660734
 30
0.0
 10
2.001957108542229
 20
20.71968242984647
 30
0.0
 10
2.000653052258814
 20
20.67137820142833
 30
0.0
 10
2.000000000000002
 20
20.64718815236391
 30
0.0
  0
SPLINE
  5
142
330
1F
100
AcDbEntity
  8
1
  6
SLD-Solid
370
    25
100
AcDbSpline
210
0.0
220
0.0
230
1.0
 70
     8
 71
     3
 72
    10
 73
     6
 74
     0
 42
0.000000001
 43
0.00000001
 40
0.0
 40
0.0
 40
0.0
 40
0.0
 40
0.5
 40
0.5
 40
1.0
 40
1.0
 40
1.0
 40
1.0
 10
15.59999999999999
 20
-18.20619124728896
 30
0.0
 10
15.90371676717988
 20
-18.83908846081819
 30
0.0
 10
16.20431228419183
 20
-19.46290422552876
 30
0.0
 10
16.79677392314942
 20
-20.68882544607592
 30
0.0
 10
17.08869105718221
 20
-21.29102690090684
 30
0.0
 10
17.37428229569721
 20
-21.87889324185635
 30
0.0
  0
SPLINE
  5
143
330
1F
100
AcDbEntity
  8
1
  6
SLD-Solid
370
    25
100
AcDbSpline
210
0.0
220
0.0
230
1.0
 70
     8
 71
     3
 72
    10
 73
     6
 74
     0
 42
0.000000001
 43
0.00000001
 40
0.0
 40
0.0
 40
0.0
 40
0.0
 40
0.5
 40
0.5
 40
1.0
 40
1.0
 40
1.0
 40
1.0
 10
15.59999999999999
 20
18.20619124728897
 30
0.0
 10
15.90371708559339
 20
18.83908912756978
 30
0.0
 10
16.20431277629911
 20
19.46290525225238
 30
0.0
 10
16.79677443051113
 20
20.68882650636797
 30
0.0
 10
17.08869140647726
 20
21.29102763542224
 30
0.0
 10
17.37428228845954
 20
21.87889324542558
 30
0.0
  0
SPLINE
  5
144
330
1F
100
AcDbEntity
  8
1
  6
SLD-Solid
370
    25
100
AcDbSpline
210
0.0
220
0.0
230
1.0
 70
     8
 71
     3
 72
     8
 73
     4
 74
     0
 42
0.000000001
 43
0.00000001
 40
0.0000433325284341
 40
0.0000433325284341
 40
0.0000433325284341
 40
0.0000433325284341
 40
0.0004719455603877
 40
0.0004719455603877
 40
0.0004719455603877
 40
0.0004719455603877
 10
11.39999999999999
 20
18.09532860177311
 30
0.0
 10
11.46660587253707
 20
17.96893325601978
 30
0.0
 10
11.533273339173
 20
17.84256764359955
 30
0.0
 10
11.6
 20
17.71624677331126
 30
0.0
  0
SPLINE
  5
145
330
1F
100
AcDbEntity
  8
1
  6
SLD-Solid
370
    25
100
AcDbSpline
210
0.0
220
0.0
230
1.0
 70
     8
 71
     3
 72
     8
 73
     4
 74
     0
 42
0.000000001
 43
0.00000001
 40
0.0000433325284341
 40
0.0000433325284341
 40
0.0000433325284341
 40
0.0000433325284341
 40
0.0004719455603877
 40
0.0004719455603877
 40
0.0004719455603877
 40
0.0004719455603877
 10
11.39999999999999
 20
-18.09532860177311
 30
0.0
 10
11.46660587253707
 20
-17.96893325601979
 30
0.0
 10
11.533273339173
 20
-17.84256764359957
 30
0.0
 10
11.6
 20
-17.71624677331127
 30
0.0
  0
SPLINE
  5
146
330
1F
100
AcDbEntity
  8
1
  6
SLD-Solid
370
    25
100
AcDbSpline
210
0.0
220
0.0
230
1.0
 70
     8
 71
     3
 72
     8
 73
     4
 74
     0
 42
0.000000001
 43
0.00000001
 40
0.0
 40
0.0
 40
0.0
 40
0.0
 40
1.0
 40
1.0
 40
1.0
 40
1.0
 10
9.775382581768188
 20
-21.14081046579471
 30
0.0
 10
10.32138734749773
 20
-20.12806350447993
 30
0.0
 10
10.86365190234564
 20
-19.1131353005657
 30
0.0
 10
11.39999999999999
 20
-18.09532860177311
 30
0.0
  0
SPLINE
  5
147
330
1F
100
AcDbEntity
  8
1
  6
SLD-Solid
370
    25
100
AcDbSpline
210
0.0
220
0.0
230
1.0
 70
     8
 71
     3
 72
     8
 73
     4
 74
     0
 42
0.000000001
 43
0.00000001
 40
0.0
 40
0.0
 40
0.0
 40
0.0
 40
0.0004334318642155
 40
0.0004334318642155
 40
0.0004334318642155
 40
0.0004334318642155
 10
9.57298187240234
 20
-21.4118244264734
 30
0.0
 10
9.640527281418814
 20
-21.32151577658485
 30
0.0
 10
9.707995478480559
 20
-21.23117822851763
 30
0.0
 10
9.775382581768188
 20
-21.14081046579471
 30
0.0
  0
SPLINE
  5
148
330
1F
100
AcDbEntity
  8
1
  6
SLD-Solid
370
    25
100
AcDbSpline
210
0.0
220
0.0
230
1.0
 70
     8
 71
     3
 72
     8
 73
     4
 74
     0
 42
0.000000001
 43
0.00000001
 40
0.0
 40
0.0
 40
0.0
 40
0.0
 40
0.0004334318642155
 40
0.0004334318642155
 40
0.0004334318642155
 40
0.0004334318642155
 10
9.775382581768174
 20
21.14081046579471
 30
0.0
 10
9.707995478480559
 20
21.23117822851763
 30
0.0
 10
9.640527281418814
 20
21.32151577658485
 30
0.0
 10
9.57298187240234
 20
21.41182442647339
 30
0.0
  0
SPLINE
  5
149
330
1F
100
AcDbEntity
  8
1
  6
SLD-Solid
370
    25
100
AcDbSpline
210
0.0
220
0.0
230
1.0
 70
     8
 71
     3
 72
     8
 73
     4
 74
     0
 42
0.000000001
 43
0.00000001
 40
0.0
 40
0.0
 40
0.0
 40
0.0
 40
1.0
 40
1.0
 40
1.0
 40
1.0
 10
9.775382581768174
 20
21.14081046579471
 30
0.0
 10
10.32145356533589
 20
20.12794068153301
 30
0.0
 10
10.863661064231
 20
19.11311791441607
 30
0.0
 10
11.39999999999999
 20
18.09532860177311
 30
0.0
  0
SPLINE
  5
14A
330
1F
100
AcDbEntity
  8
1
  6
SLD-Solid
370
    25
100
AcDbSpline
210
0.0
220
0.0
230
1.0
 70
     8
 71
     3
 72
    10
 73
     6
 74
     0
 42
0.000000001
 43
0.00000001
 40
0.0
 40
0.0
 40
0.0
 40
0.0
 40
0.5
 40
0.5
 40
1.0
 40
1.0
 40
1.0
 40
1.0
 10
11.59999999999999
 20
-17.46403447087756
 30
0.0
 10
11.59999999999999
 20
-17.3613194075662
 30
0.0
 10
11.63550396785903
 20
-17.25803952516974
 30
0.0
 10
11.77037083671394
 20
-17.1032569843841
 30
0.0
 10
11.87123694733056
 20
-17.05482145092323
 30
0.0
 10
11.975
 20
-17.0583190848336
 30
0.0
  0
SPLINE
  5
14B
330
1F
100
AcDbEntity
  8
1
  6
SLD-Solid
370
    25
100
AcDbSpline
210
0.0
220
0.0
230
1.0
 70
     8
 71
     3
 72
    10
 73
     6
 74
     0
 42
0.000000001
 43
0.00000001
 40
0.0
 40
0.0
 40
0.0
 40
0.0
 40
0.5
 40
0.5
 40
1.0
 40
1.0
 40
1.0
 40
1.0
 10
11.6
 20
17.46403447087756
 30
0.0
 10
11.6
 20
17.36042199696414
 30
0.0
 10
11.63498183234724
 20
17.25858091119263
 30
0.0
 10
11.77108027770143
 20
17.1025007133406
 30
0.0
 10
11.87189021649011
 20
17.05484347125043
 30
0.0
 10
11.975
 20
17.05831908483365
 30
0.0
  0
SPLINE
  5
14C
330
1F
100
AcDbEntity
  8
1
  6
SLD-Solid
370
    25
100
AcDbSpline
210
0.0
220
0.0
230
1.0
 70
     8
 71
     3
 72
    12
 73
     8
 74
     0
 42
0.000000001
 43
0.00000001
 40
0.0
 40
0.0
 40
0.0
 40
0.0
 40
0.4999999999999946
 40
0.4999999999999946
 40
0.7499999999999972
 40
0.7499999999999972
 40
1.0
 40
1.0
 40
1.0
 40
1.0
 10
15.22499999999999
 20
-17.47244258825881
 30
0.0
 10
15.32729887405207
 20
-17.49483746472058
 30
0.0
 10
15.41719738376061
 20
-17.55779867282207
 30
0.0
 10
15.51968846278896
 20
-17.68801867128204
 30
0.0
 10
15.54763266947685
 20
-17.73672976760799
 30
0.0
 10
15.58792031705414
 20
-17.84364628541224
 30
0.0
 10
15.59999999999999
 20
-17.90173537609954
 30
0.0
 10
15.59999999999999
 20
-17.96086022438792
 30
0.0
  0
SPLINE
  5
14D
330
1F
100
AcDbEntity
  8
1
  6
SLD-Solid
370
    25
100
AcDbSpline
210
0.0
220
0.0
230
1.0
 70
     8
 71
     3
 72
    12
 73
     8
 74
     0
 42
0.000000001
 43
0.00000001
 40
0.0
 40
0.0
 40
0.0
 40
0.0
 40
0.4999999999999944
 40
0.4999999999999944
 40
0.7499999999999972
 40
0.7499999999999972
 40
1.0
 40
1.0
 40
1.0
 40
1.0
 10
15.22500000000059
 20
17.47244258825875
 30
0.0
 10
15.32588416556205
 20
17.49452776217342
 30
0.0
 10
15.41756260417185
 20
17.55824967277498
 30
0.0
 10
15.51954306190308
 20
17.68784045115782
 30
0.0
 10
15.54760131973114
 20
17.73657709080342
 30
0.0
 10
15.58811175564412
 20
17.84422408554643
 30
0.0
 10
15.60000000000016
 20
17.90240067701384
 30
0.0
 10
15.60000000000013
 20
17.96086022438791
 30
0.0
  0
SPLINE
  5
14E
330
1F
100
AcDbEntity
  8
1
  6
SLD-Solid
370
    25
100
AcDbSpline
210
0.0
220
0.0
230
1.0
 70
     8
 71
     3
 72
    10
 73
     6
 74
     0
 42
0.000000001
 43
0.00000001
 40
0.0
 40
0.0
 40
0.0
 40
0.0
 40
0.4999999999999999
 40
0.4999999999999999
 40
1.0
 40
1.0
 40
1.0
 40
1.0
 10
11.97500000000001
 20
-17.0583190848336
 30
0.0
 10
12.55072229411917
 20
-17.07772547050808
 30
0.0
 10
13.10936407164132
 20
-17.1256473527862
 30
0.0
 10
14.19529318991715
 20
-17.26787583173369
 30
0.0
 10
14.72557374316147
 20
-17.36311011097304
 30
0.0
 10
15.22499999999999
 20
-17.47244258825881
 30
0.0
  0
SPLINE
  5
14F
330
1F
100
AcDbEntity
  8
1
  6
SLD-Solid
370
    25
100
AcDbSpline
210
0.0
220
0.0
230
1.0
 70
     8
 71
     3
 72
    10
 73
     6
 74
     0
 42
0.000000001
 43
0.00000001
 40
0.0
 40
0.0
 40
0.0
 40
0.0
 40
0.5000000000000001
 40
0.5000000000000001
 40
1.0
 40
1.0
 40
1.0
 40
1.0
 10
11.97500000000058
 20
17.05831908483372
 30
0.0
 10
12.55072229411988
 20
17.0777254705082
 30
0.0
 10
13.10936407164215
 20
17.12564735278628
 30
0.0
 10
14.19529318991826
 20
17.26787583173378
 30
0.0
 10
14.72557374316195
 20
17.36311011097299
 30
0.0
 10
15.22500000000059
 20
17.47244258825875
 30
0.0
  0
SPLINE
  5
150
330
1F
100
AcDbEntity
  8
1
  6
SLD-Dashed
370
    18
100
AcDbSpline
210
0.0
220
0.0
230
1.0
 70
     8
 71
     3
 72
    11
 73
     7
 74
     0
 42
0.000000001
 43
0.00000001
 40
0.0
 40
0.0
 40
0.0
 40
0.0
 40
0.2499573108436721
 40
0.4993433902566646
 40
0.7504973994162587
 40
0.9999999999999999
 40
0.9999999999999999
 40
0.9999999999999999
 40
0.9999999999999999
 10
17.62701812759761
 20
22.23477196856652
 30
0.0
 10
17.96178000309837
 20
22.33632733234068
 30
0.0
 10
18.63053871744451
 20
22.53920597379576
 30
0.0
 10
19.32771797533589
 20
22.78586033825605
 30
0.0
 10
19.78947051965597
 20
22.9569668455694
 30
0.0
 10
19.84631897268225
 20
22.97892472940011
 30
0.0
 10
19.87464944229594
 20
22.98986745743456
 30
0.0
  0
SPLINE
  5
151
330
1F
100
AcDbEntity
  8
SK3
  6
SLD-Dashed
370
    18
100
AcDbSpline
210
0.0
220
0.0
230
1.0
 70
     8
 71
     3
 72
    12
 73
     8
 74
     0
 42
0.000000001
 43
0.00000001
 40
0.5000127342443834
 40
0.5000127342443834
 40
0.5000127342443834
 40
0.5000127342443834
 40
0.6255474576782613
 40
0.7508672822971845
 40
0.8757524418307486
 40
0.9379665688286296
 40
1.0
 40
1.0
 40
1.0
 40
1.0
 10
1.967790476782076
 20
16.06667755738992
 30
0.0
 10
1.967790756883095
 20
16.06667720225013
 30
0.0
 10
1.970640157963874
 20
16.0631672453912
 30
0.0
 10
1.981814407013366
 20
16.04753686565232
 30
0.0
 10
1.992622400909645
 20
16.02599953624307
 30
0.0
 10
1.998879722925395
 20
16.00419317230419
 30
0.0
 10
1.999626936537942
 20
15.99135131329618
 30
0.0
 10
2.000000000000002
 20
15.98493972188446
 30
0.0
  0
SPLINE
  5
152
330
1F
100
AcDbEntity
  8
SK3
  6
SLD-Dashed
370
    18
100
AcDbSpline
210
0.0
220
0.0
230
1.0
 70
     8
 71
     3
 72
    12
 73
     8
 74
     0
 42
0.000000001
 43
0.00000001
 40
0.0
 40
0.0
 40
0.0
 40
0.0
 40
0.0620396280097623
 40
0.1242588656741696
 40
0.249150860076134
 40
0.3744759619005572
 40
0.5000127342443834
 40
0.5000127342443834
 40
0.5000127342443834
 40
0.5000127342443834
 10
2.000000000000002
 20
15.98493972188446
 30
0.0
 10
1.999626863053862
 20
15.99135193450975
 30
0.0
 10
1.998879508900507
 20
16.00419492362562
 30
0.0
 10
1.992621308562738
 20
16.02600240214882
 30
0.0
 10
1.981812516238253
 20
16.04753995725764
 30
0.0
 10
1.970638607993798
 20
16.06316921527657
 30
0.0
 10
1.967790196676485
 20
16.06667791253551
 30
0.0
 10
1.967790476782076
 20
16.06667755738992
 30
0.0
  0
SPLINE
  5
153
330
1F
100
AcDbEntity
  8
SK3
  6
SLD-Dashed
370
    18
100
AcDbSpline
210
0.0
220
0.0
230
1.0
 70
     8
 71
     3
 72
   187
 73
   183
 74
     0
 42
0.000000001
 43
0.00000001
 40
0.0
 40
0.0
 40
0.0
 40
0.0
 40
0.0078940426448464
 40
0.0118384295639285
 40
0.0157812679463811
 40
0.0220869861978289
 40
0.0268143759692425
 40
0.0315404487045571
 40
0.0354780470156678
 40
0.0394150955999188
 40
0.0433517597119394
 40
0.047288204205101
 40
0.051224593511398
 40
0.0551610916215215
 40
0.0590978620650897
 40
0.0630350678910962
 40
0.0669735955602362
 40
0.0709140434856764
 40
0.0748561412467277
 40
0.0787996178161733
 40
0.08274420166541
 40
0.0866896208690487
 40
0.0906356032090948
 40
0.094581876278822
 40
0.098525370784994
 40
0.1024634608720051
 40
0.1063965383756986
 40
0.1103249938573377
 40
0.1142492165204668
 40
0.1181695941286384
 40
0.1220865129241088
 40
0.1260003575476583
 40
0.1299112238047511
 40
0.133819076793498
 40
0.1377241030938768
 40
0.1416264883253601
 40
0.14552641712116
 40
0.1494240731028449
 40
0.1533196388553388
 40
0.1572132959023798
 40
0.1611052242931774
 40
0.1649956021225492
 40
0.1688846067045886
 40
0.1727724147191744
 40
0.1766592021883257
 40
0.1805451444528249
 40
0.1844304161491044
 40
0.1883151911864245
 40
0.1921997277979953
 40
0.1960842607493644
 40
0.1999689280473534
 40
0.2038538674890525
 40
0.2077392166481294
 40
0.211625112861285
 40
0.2155116932147727
 40
0.2193990945310197
 40
0.2232874533553546
 40
0.2271769059428436
 40
0.2310675882452416
 40
0.2349596358980892
 40
0.2388531842078991
 40
0.2427483681395233
 40
0.2466453223036363
 40
0.2505441809443755
 40
0.2544458514026698
 40
0.2583510417038069
 40
0.2622595861093461
 40
0.2661713184615444
 40
0.2700860722503675
 40
0.2740036806800503
 40
0.277923976735293
 40
0.2818467932471073
 40
0.2857745003335452
 40
0.2897084476462704
 40
0.2936469354141102
 40
0.2975882626042135
 40
0.3015307273904152
 40
0.3054726276165006
 40
0.3094122612573499
 40
0.3133479268810332
 40
0.3172789138299882
 40
0.3212057745580994
 40
0.3251287026816919
 40
0.3290478905859503
 40
0.3329635293983568
 40
0.3368758089625901
 40
0.3407849178129361
 40
0.3446910431492562
 40
0.3485943510470272
 40
0.352494995757304
 40
0.3563931449460918
 40
0.3602889651758218
 40
0.3641826218854487
 40
0.3680742793709416
 40
0.3719641007662404
 40
0.375852248024604
 40
0.3797388825865496
 40
0.3836241631759563
 40
0.3875082464260556
 40
0.3913912884149052
 40
0.3952734446469586
 40
0.3991548700348975
 40
0.4030357188816125
 40
0.4069161448624412
 40
0.4107963010076599
 40
0.414676339685184
 40
0.4185564125835454
 40
0.4224366706951275
 40
0.4301983054670921
 40
0.4379624751442595
 40
0.4457306083014266
 40
0.4535039999086237
 40
0.461283630935131
 40
0.4690704790130133
 40
0.4768655180973602
 40
0.4846697181327078
 40
0.492484044726144
 40
0.5003094588277905
 40
0.5081501787453693
 40
0.5160075077454452
 40
0.5238780204070664
 40
0.5317582860154919
 40
0.5396319444168566
 40
0.5474870404736039
 40
0.5553267345953102
 40
0.5631541651839658
 40
0.5709708669884187
 40
0.5787770797583317
 40
0.5865739693792502
 40
0.5943626855354961
 40
0.6021443586902435
 40
0.6099200967174061
 40
0.617690994275218
 40
0.625458134116681
 40
0.6332225872589862
 40
0.64098540911276
 40
0.6487476467522254
 40
0.6565103422923662
 40
0.6642745324777627
 40
0.6720412482787094
 40
0.6798115144954553
 40
0.6875863493711855
 40
0.6953667719144294
 40
0.7031538101172142
 40
0.7109484902932699
 40
0.7187518386494867
 40
0.7265651339203522
 40
0.7343893343295291
 40
0.7422249853055494
 40
0.7500726331124405
 40
0.757935775723844
 40
0.7658094723793892
 40
0.7736815983667399
 40
0.7815400227758319
 40
0.7893832934738862
 40
0.7972172053875852
 40
0.805040496707319
 40
0.8128518989262759
 40
0.8206537088135891
 40
0.8284494298529488
 40
0.8362395975320837
 40
0.8440247421196102
 40
0.8518053886323982
 40
0.8595820568062773
 40
0.8673552610702607
 40
0.8751255105242394
 40
0.8828944265129318
 40
0.8906638852660104
 40
0.8984347796596153
 40
0.9062080069952975
 40
0.9139844686944981
 40
0.9217650699886342
 40
0.9295507196054942
 40
0.9373423294523348
 40
0.9451408142963462
 40
0.9529470914429424
 40
0.9607620804125321
 40
0.9685867026162641
 40
0.9764218810313811
 40
0.9842685398767266
 40
0.9921276042889449
 40
1.0
 40
1.0
 40
1.0
 40
1.0
 10
2.750000000000004
 20
-21.14081046579471
 30
0.0
 10
2.74803033911788
 20
-21.14080292625462
 30
0.0
 10
2.745076505110794
 20
-21.14079161946058
 30
0.0
 10
2.741139484118369
 20
-21.14072157306963
 30
0.0
 10
2.73759921481521
 20
-21.14063638960173
 30
0.0
 10
2.733864537409892
 20
-21.14051234642567
 30
0.0
 10
2.729936028984673
 20
-21.1403440911738
 30
0.0
 10
2.726599146447546
 20
-21.14017345706226
 30
0.0
 10
2.723460528465416
 20
-21.1399891041622
 30
0.0
 10
2.720519797247712
 20
-21.13979603517995
 30
0.0
 10
2.717580752503184
 20
-21.13958274572336
 30
0.0
 10
2.714643408729208
 20
-21.13934925271635
 30
0.0
 10
2.711707781093331
 20
-21.13909557327895
 30
0.0
 10
2.708773884241131
 20
-21.13882172762126
 30
0.0
 10
2.70584173423487
 20
-21.13852772339813
 30
0.0
 10
2.702911162394532
 20
-21.13821359615316
 30
0.0
 10
2.699981911647756
 20
-21.13787918748202
 30
0.0
 10
2.697053833875565
 20
-21.13752436579234
 30
0.0
 10
2.694127048453768
 20
-21.13714919947288
 30
0.0
 10
2.691201895302151
 20
-21.13675373427311
 30
0.0
 10
2.688278712891479
 20
-21.13633802871377
 30
0.0
 10
2.685357840151817
 20
-21.13590213746505
 30
0.0
 10
2.682439615627337
 20
-21.13544611781917
 30
0.0
 10
2.679525067658709
 20
-21.13497013290437
 30
0.0
 10
2.676615795941266
 20
-21.13447448965937
 30
0.0
 10
2.673713231539929
 20
-21.1339594932064
 30
0.0
 10
2.670817952881906
 20
-21.13342530847189
 30
0.0
 10
2.667929794756109
 20
-21.1328719802803
 30
0.0
 10
2.665048592258664
 20
-21.13229955166977
 30
0.0
 10
2.662174180340491
 20
-21.13170806644325
 30
0.0
 10
2.659306394220512
 20
-21.13109756714025
 30
0.0
 10
2.656445138160853
 20
-21.13046811599015
 30
0.0
 10
2.653590420641756
 20
-21.12981978445482
 30
0.0
 10
2.650742304834539
 20
-21.12915262277408
 30
0.0
 10
2.647900827454879
 20
-21.12846669374965
 30
0.0
 10
2.645065972041111
 20
-21.12776204364766
 30
0.0
 10
2.64223772188227
 20
-21.12703871986052
 30
0.0
 10
2.639416060323372
 20
-21.1262967695186
 30
0.0
 10
2.636600970731993
 20
-21.12553623967796
 30
0.0
 10
2.633792436420869
 20
-21.12475717798179
 30
0.0
 10
2.630990441566313
 20
-21.12395962999352
 30
0.0
 10
2.628194976046634
 20
-21.12314362268564
 30
0.0
 10
2.625406029531522
 20
-21.12230918530454
 30
0.0
 10
2.622623591887309
 20
-21.12145634652387
 30
0.0
 10
2.61984765293403
 20
-21.12058513518601
 30
0.0
 10
2.617078202519213
 20
-21.11969558004496
 30
0.0
 10
2.614315230424985
 20
-21.11878771004179
 30
0.0
 10
2.611558706543895
 20
-21.11786154669938
 30
0.0
 10
2.60880858538848
 20
-21.11691710832823
 30
0.0
 10
2.606064836528666
 20
-21.11595439549461
 30
0.0
 10
2.603327458985625
 20
-21.11497341516394
 30
0.0
 10
2.6005964743338
 20
-21.11397418278159
 30
0.0
 10
2.597871904210127
 20
-21.11295671361789
 30
0.0
 10
2.595153770234533
 20
-21.11192102299044
 30
0.0
 10
2.592442094031431
 20
-21.11086712620423
 30
0.0
 10
2.589736897223397
 20
-21.10979503856873
 30
0.0
 10
2.587038201434642
 20
-21.10870477538946
 30
0.0
 10
2.584346028283566
 20
-21.10759635198453
 30
0.0
 10
2.581660399409236
 20
-21.1064697836269
 30
0.0
 10
2.578981336372495
 20
-21.10532508575891
 30
0.0
 10
2.576308861025259
 20
-21.10416227319124
 30
0.0
 10
2.573642994131752
 20
-21.1029813630945
 30
0.0
 10
2.570983760516845
 20
-21.10178236382689
 30
0.0
 10
2.568330994429902
 20
-21.1005652361784
 30
0.0
 10
2.565684459270976
 20
-21.09932975217252
 30
0.0
 10
2.563043984193348
 20
-21.09807572537865
 30
0.0
 10
2.560409587132927
 20
-21.0968031976171
 30
0.0
 10
2.557781498645032
 20
-21.09551227023078
 30
0.0
 10
2.55515994569098
 20
-21.09420305241391
 30
0.0
 10
2.552545154408241
 20
-21.09287565464561
 30
0.0
 10
2.549937357837867
 20
-21.09153017438836
 30
0.0
 10
2.54733620148872
 20
-21.0901664659665
 30
0.0
 10
2.544741106058937
 20
-21.08878399863784
 30
0.0
 10
2.542151788352884
 20
-21.0873825069336
 30
0.0
 10
2.539568773069227
 20
-21.08596236648478
 30
0.0
 10
2.536993283356598
 20
-21.08452425919702
 30
0.0
 10
2.534426534521844
 20
-21.08306888160535
 30
0.0
 10
2.531869745841806
 20
-21.08159692318162
 30
0.0
 10
2.529324128524269
 20
-21.08010908708893
 30
0.0
 10
2.526790709621427
 20
-21.07860590292116
 30
0.0
 10
2.524269934034757
 20
-21.07708778053878
 30
0.0
 10
2.5217617831073
 20
-21.07555497627982
 30
0.0
 10
2.519266150418637
 20
-21.07400745280987
 30
0.0
 10
2.516782977791928
 20
-21.07244526589445
 30
0.0
 10
2.514312214559599
 20
-21.070868458759
 30
0.0
 10
2.5118538081712
 20
-21.06927707779498
 30
0.0
 10
2.509407706106007
 20
-21.06767116925322
 30
0.0
 10
2.506973861704143
 20
-21.06605077952302
 30
0.0
 10
2.504552227425039
 20
-21.06441596983736
 30
0.0
 10
2.502142765763884
 20
-21.06276679313806
 30
0.0
 10
2.499745445506464
 20
-21.06110329138922
 30
0.0
 10
2.497360230549308
 20
-21.05942550733231
 30
0.0
 10
2.494987085232667
 20
-21.05773348304185
 30
0.0
 10
2.49262597400827
 20
-21.05602726046229
 30
0.0
 10
2.490276860436584
 20
-21.05430688272445
 30
0.0
 10
2.487939711388951
 20
-21.05257238824543
 30
0.0
 10
2.485614481004437
 20
-21.05082383281173
 30
0.0
 10
2.483301140120265
 20
-21.04906125032099
 30
0.0
 10
2.480999673297667
 20
-21.04728465800795
 30
0.0
 10
2.478710061935294
 20
-21.04549407795026
 30
0.0
 10
2.476432288360914
 20
-21.04368953099064
 30
0.0
 10
2.474166334654687
 20
-21.04187103830471
 30
0.0
 10
2.471912182956804
 20
-21.04003862097217
 30
0.0
 10
2.469669815412462
 20
-21.03819230012438
 30
0.0
 10
2.467439214084865
 20
-21.03633209678287
 30
0.0
 10
2.465220361358213
 20
-21.03445803235769
 30
0.0
 10
2.463013238412535
 20
-21.03257012681544
 30
0.0
 10
2.460085890192394
 20
-21.03003437866602
 30
0.0
 10
2.456455715976082
 20
-21.02682998216415
 30
0.0
 10
2.452146323788063
 20
-21.0229298606042
 30
0.0
 10
2.447883373021231
 20
-21.01897470936257
 30
0.0
 10
2.44366690277622
 20
-21.01496444566108
 30
0.0
 10
2.439496941059224
 20
-21.01089915116444
 30
0.0
 10
2.43537359771063
 20
-21.00677893586838
 30
0.0
 10
2.431296978576658
 20
-21.00260391388993
 30
0.0
 10
2.427267180415472
 20
-20.99837420738262
 30
0.0
 10
2.42328434033374
 20
-20.99408990218782
 30
0.0
 10
2.419347895841315
 20
-20.98975061875381
 30
0.0
 10
2.415457831050795
 20
-20.98535536695595
 30
0.0
 10
2.411614738494551
 20
-20.98090410933673
 30
0.0
 10
2.407819956421338
 20
-20.97639868834057
 30
0.0
 10
2.40407782672867
 20
-20.97184416646216
 30
0.0
 10
2.400393765171588
 20
-20.96724747772036
 30
0.0
 10
2.396771944772247
 20
-20.96261443369982
 30
0.0
 10
2.393213359470071
 20
-20.95794714259257
 30
0.0
 10
2.389716842063254
 20
-20.95324510892657
 30
0.0
 10
2.386281683611222
 20
-20.94850838059445
 30
0.0
 10
2.382907652128086
 20
-20.94373724953027
 30
0.0
 10
2.379594503490014
 20
-20.93893212185418
 30
0.0
 10
2.376341868189789
 20
-20.93409320480428
 30
0.0
 10
2.373149380887647
 20
-20.92922070501234
 30
0.0
 10
2.370016787747566
 20
-20.92431475932664
 30
0.0
 10
2.366943824356143
 20
-20.91937551571478
 30
0.0
 10
2.363930246716996
 20
-20.91440311009353
 30
0.0
 10
2.360975742481544
 20
-20.90939771962445
 30
0.0
 10
2.35808015772203
 20
-20.90435942655268
 30
0.0
 10
2.355243408899485
 20
-20.89928827644791
 30
0.0
 10
2.35246539452317
 20
-20.89418432643898
 30
0.0
 10
2.34974601840296
 20
-20.88904763059224
 30
0.0
 10
2.347085181485118
 20
-20.88387824449449
 30
0.0
 10
2.344482790783504
 20
-20.8786762207183
 30
0.0
 10
2.341938730960482
 20
-20.87344162065379
 30
0.0
 10
2.339452964176564
 20
-20.86817446102851
 30
0.0
 10
2.337025608218955
 20
-20.86287468229975
 30
0.0
 10
2.334656705133561
 20
-20.85754225997099
 30
0.0
 10
2.332346275825931
 20
-20.8521771092717
 30
0.0
 10
2.330094411291944
 20
-20.84677913388351
 30
0.0
 10
2.327901274690293
 20
-20.84134833905791
 30
0.0
 10
2.325767081942474
 20
-20.83588490880968
 30
0.0
 10
2.323691697962233
 20
-20.83038848125427
 30
0.0
 10
2.321676040861664
 20
-20.82485976441996
 30
0.0
 10
2.319721556665003
 20
-20.81930265416182
 30
0.0
 10
2.317830549569738
 20
-20.81372486773683
 30
0.0
 10
2.316005422455651
 20
-20.8081331629378
 30
0.0
 10
2.314246719891265
 20
-20.80253020717292
 30
0.0
 10
2.312553623230886
 20
-20.79691623587794
 30
0.0
 10
2.310925959702907
 20
-20.79129122218568
 30
0.0
 10
2.309363795508821
 20
-20.7856559795752
 30
0.0
 10
2.307866558803829
 20
-20.78001025823814
 30
0.0
 10
2.306433492544503
 20
-20.77435337440884
 30
0.0
 10
2.305064415271903
 20
-20.7686849418564
 30
0.0
 10
2.303759222379417
 20
-20.76300531925247
 30
0.0
 10
2.302517837385415
 20
-20.75731485750952
 30
0.0
 10
2.301340183816385
 20
-20.75161390825842
 30
0.0
 10
2.300226157073912
 20
-20.74590282798926
 30
0.0
 10
2.299175714605799
 20
-20.74018167876351
 30
0.0
 10
2.298188347763179
 20
-20.73445025714377
 30
0.0
 10
2.297263752477464
 20
-20.7287082118475
 30
0.0
 10
2.296402091945288
 20
-20.72295529754869
 30
0.0
 10
2.295603458132789
 20
-20.71719153147074
 30
0.0
 10
2.294867973288491
 20
-20.71141692559348
 30
0.0
 10
2.294195751579652
 20
-20.70563149330754
 30
0.0
 10
2.293586909147113
 20
-20.69983524763003
 30
0.0
 10
2.293041562263031
 20
-20.69402820168209
 30
0.0
 10
2.292559824634583
 20
-20.6882103685606
 30
0.0
 10
2.292141820049269
 20
-20.68238176136998
 30
0.0
 10
2.291787634418744
 20
-20.67654239322009
 30
0.0
 10
2.291497495246521
 20
-20.67069227719944
 30
0.0
 10
2.29127110052662
 20
-20.66483142648094
 30
0.0
 10
2.291110128522178
 20
-20.65895985392176
 30
0.0
 10
2.291008850134148
 20
-20.65307757355761
 30
0.0
 10
2.290995794071938
 20
-20.64915240153029
 30
0.0
 10
2.290989260508781
 20
-20.64718815236391
 30
0.0
  0
SPLINE
  5
154
330
1F
100
AcDbEntity
  8
SK3
  6
SLD-Dashed
370
    18
100
AcDbSpline
210
0.0
220
0.0
230
1.0
 70
     8
 71
     3
 72
   253
 73
   249
 74
     0
 42
0.000000001
 43
0.00000001
 40
0.0
 40
0.0
 40
0.0
 40
0.0
 40
0.0039339867539729
 40
0.0078651551186554
 40
0.0117936280489199
 40
0.0157195283047778
 40
0.0196429784399588
 40
0.0235641007904101
 40
0.0274830174629297
 40
0.0313998503236521
 40
0.0353147209868127
 40
0.0392277508033528
 40
0.0431390608497062
 40
0.0470487719165998
 40
0.0509570044979026
 40
0.054863878779596
 40
0.0587695146287559
 40
0.0626740315826343
 40
0.0665775487824223
 40
0.0704801841550759
 40
0.0743820553287798
 40
0.0782832801283682
 40
0.0821839765648706
 40
0.0860842628249005
 40
0.089984257260069
 40
0.0938840783763485
 40
0.0977838448232719
 40
0.1016836753832453
 40
0.1055836889606981
 40
0.1094840045712478
 40
0.1133847413308294
 40
0.1172860184447742
 40
0.121187955196919
 40
0.1250906709386254
 40
0.1289941538684504
 40
0.1328984284127611
 40
0.1368036689070846
 40
0.140710050414728
 40
0.1446177487067365
 40
0.1485269402413801
 40
0.152437802143484
 40
0.1563505121834704
 40
0.1602652487561478
 40
0.164182190859257
 40
0.1681015180718107
 40
0.1720234105322305
 40
0.1759480489162873
 40
0.1798756144148259
 40
0.1838062887114691
 40
0.1877402539599704
 40
0.1916745187343277
 40
0.1956060077704594
 40
0.1995347775934979
 40
0.2034608845687818
 40
0.2073843849031178
 40
0.2113053346459001
 40
0.2152237896904276
 40
0.2191398057750897
 40
0.223053438484714
 40
0.2269647432518305
 40
0.2308737753580584
 40
0.234780589935412
 40
0.2386852419677452
 40
0.2425877862921319
 40
0.2464882776003061
 40
0.2503867704401208
 40
0.2542835372716822
 40
0.2581788945416691
 40
0.262072962979323
 40
0.2659658636467521
 40
0.2698577179281378
 40
0.2737486475189105
 40
0.2776387744147779
 40
0.2815282209005973
 40
0.2854171095392457
 40
0.2893055631602604
 40
0.2931937048485661
 40
0.2970816579328917
 40
0.3009695459743127
 40
0.3048574927546093
 40
0.3087456222645379
 40
0.3126340586921141
 40
0.3165230620207409
 40
0.3204128618092655
 40
0.3243035370881334
 40
0.3281951674610163
 40
0.3320878331024212
 40
0.3359816147551757
 40
0.3398765937277308
 40
0.3437728518914407
 40
0.3476704716776802
 40
0.3515695360748343
 40
0.3554701286252472
 40
0.3593723334219472
 40
0.3632762351053697
 40
0.3671819188598861
 40
0.3710894704103072
 40
0.374998976018156
 40
0.3789120140328925
 40
0.3828296635297989
 40
0.3867512610740938
 40
0.3906761428097515
 40
0.3946036446156332
 40
0.3985331022605311
 40
0.4024638515575004
 40
0.406395228517832
 40
0.4103265695051721
 40
0.4142572113900864
 40
0.4181864917055074
 40
0.422113748803378
 40
0.4260383220130159
 40
0.4299595518015085
 40
0.433876779936583
 40
0.4377893496523136
 40
0.4416984308083437
 40
0.4456056836705323
 40
0.4495111894273777
 40
0.4534150297305676
 40
0.4573172866934643
 40
0.4612180428893791
 40
0.4651173813498894
 40
0.4690153855629058
 40
0.4729121394707457
 40
0.4768077274680721
 40
0.4807022343997117
 40
0.4845957455583811
 40
0.4884883466823507
 40
0.492380123952959
 40
0.4962711639920184
 40
0.5001615538592074
 40
0.5040515401534943
 40
0.5079414069257465
 40
0.5118312983315854
 40
0.5157213592161528
 40
0.5196117350989852
 40
0.523502572158618
 40
0.5273940172169502
 40
0.5312862177233906
 40
0.5351793218242866
 40
0.5390734789980461
 40
0.5429688398985149
 40
0.5468655561539548
 40
0.5507637803508807
 40
0.5546636660175109
 40
0.5585653676069253
 40
0.562469040479819
 40
0.5663749048445612
 40
0.5702831472838842
 40
0.574193874149849
 40
0.5781071928687405
 40
0.5820232119351513
 40
0.5859420409057272
 40
0.5898637903927378
 40
0.593788572057292
 40
0.5977174477808612
 40
0.6016503696902934
 40
0.6055857846494644
 40
0.609522139219852
 40
0.6134578800573546
 40
0.6173914543090084
 40
0.6213213100119627
 40
0.6252458964970499
 40
0.6291660813989283
 40
0.6330837657119914
 40
0.6369989506177168
 40
0.6409116374595191
 40
0.6448218277625372
 40
0.6487295232534405
 40
0.6526347258802949
 40
0.6565374378325477
 40
0.660437901866333
 40
0.6643364662603888
 40
0.6682332919693603
 40
0.672128540208251
 40
0.6760223724328605
 40
0.6799149503200618
 40
0.6838064357479398
 40
0.687696990775873
 40
0.6915868280873008
 40
0.695476146508012
 40
0.6993650880242936
 40
0.7032537953420929
 40
0.7071424118727286
 40
0.7110310817184212
 40
0.7149199496575516
 40
0.7188091611296435
 40
0.7226988622201262
 40
0.7265891996448538
 40
0.7304803207344028
 40
0.7343723734181365
 40
0.7382655062080739
 40
0.7421598681825544
 40
0.746055608969687
 40
0.7499528787306541
 40
0.7538523386537017
 40
0.7577545028581586
 40
0.7616593015580947
 40
0.7655666657031409
 40
0.7694765270195747
 40
0.773388818051401
 40
0.7773034722014318
 40
0.7809485633731779
 40
0.7845971467795955
 40
0.7889818809141184
 40
0.7955686699436123
 40
0.8010629733112731
 40
0.8051847646784284
 40
0.8093059337891715
 40
0.8133106989412383
 40
0.8173113159102744
 40
0.8213072052663651
 40
0.8252987284040739
 40
0.8292862463699148
 40
0.8332701197869821
 40
0.8372507087795712
 40
0.8412283728978976
 40
0.8452034509397311
 40
0.8491759331813661
 40
0.8531459114671638
 40
0.8571135749341502
 40
0.8610791125395612
 40
0.8650427130338572
 40
0.8690045649338052
 40
0.8729648564955748
 40
0.8769237758810534
 40
0.8808815114031776
 40
0.8848382490118399
 40
0.8887941747119013
 40
0.8927494749547634
 40
0.8967043366125074
 40
0.9006589469518217
 40
0.9046134936077477
 40
0.9105455907676522
 40
0.916478603366651
 40
0.9224131685259357
 40
0.9283499245543936
 40
0.934289510742832
 40
0.9402325674801061
 40
0.9461797426891718
 40
0.9521316941896134
 40
0.958089085665163
 40
0.9640525863299346
 40
0.9700228707096292
 40
0.9760006184178804
 40
0.981986513928142
 40
0.9879812463414318
 40
0.9939855091503907
 40
1.0
 40
1.0
 40
1.0
 40
1.0
 10
2.290989260508792
 20
20.64718815236392
 30
0.0
 10
2.29099084351857
 20
20.64816972404707
 30
0.0
 10
2.290994008404014
 20
20.65013216419518
 30
0.0
 10
2.291019326803606
 20
20.65307471037137
 30
0.0
 10
2.291059682891883
 20
20.65601505975361
 30
0.0
 10
2.291116532052131
 20
20.65895321500339
 30
0.0
 10
2.29118945946757
 20
20.66188917882028
 30
0.0
 10
2.291278550936863
 20
20.66482295389367
 30
0.0
 10
2.291383758247351
 20
20.66775454291572
 30
0.0
 10
2.291505069061627
 20
20.67068394857789
 30
0.0
 10
2.291642461437575
 20
20.67361117357187
 30
0.0
 10
2.291795916004726
 20
20.67653622058932
 30
0.0
 10
2.291965412702042
 20
20.67945909232212
 30
0.0
 10
2.292150931660057
 20
20.6823797914615
 30
0.0
 10
2.292352452931936
 20
20.68529832070143
 30
0.0
 10
2.29256995668774
 20
20.68821468272608
 30
0.0
 10
2.292803422706369
 20
20.69112888025617
 30
0.0
 10
2.293052832211785
 20
20.69404091586292
 30
0.0
 10
2.293318161013784
 20
20.69695079239584
 30
0.0
 10
2.293599410638991
 20
20.69985851009076
 30
0.0
 10
2.293896587968118
 20
20.70276406817795
 30
0.0
 10
2.29420969842586
 20
20.70566746590225
 30
0.0
 10
2.294538747823638
 20
20.70856870247081
 30
0.0
 10
2.294883741869039
 20
20.71146777710091
 30
0.0
 10
2.295244686297253
 20
20.71436468900711
 30
0.0
 10
2.29562158683592
 20
20.71725943740455
 30
0.0
 10
2.296014449214057
 20
20.72015202150836
 30
0.0
 10
2.296423279161688
 20
20.72304244053336
 30
0.0
 10
2.296848082402376
 20
20.72593069369551
 30
0.0
 10
2.297288864683392
 20
20.72881678020648
 30
0.0
 10
2.297745631662603
 20
20.73170069929397
 30
0.0
 10
2.298218389330811
 20
20.73458245012588
 30
0.0
 10
2.298707142434987
 20
20.73746203209348
 30
0.0
 10
2.299211894707993
 20
20.74033941150828
 30
0.0
 10
2.299732627524103
 20
20.74321453460679
 30
0.0
 10
2.300269357368492
 20
20.74608735528303
 30
0.0
 10
2.300822125096555
 20
20.74895786979689
 30
0.0
 10
2.301390973553664
 20
20.75182611187916
 30
0.0
 10
2.301975946829116
 20
20.75469211503288
 30
0.0
 10
2.302577088678234
 20
20.75755591282194
 30
0.0
 10
2.303194442945496
 20
20.76041753879382
 30
0.0
 10
2.303828053450685
 20
20.76327702650038
 30
0.0
 10
2.304477964020601
 20
20.76613440949193
 30
0.0
 10
2.305144218476339
 20
20.76898972132002
 30
0.0
 10
2.305826860652569
 20
20.77184299553246
 30
0.0
 10
2.306525934332569
 20
20.77469426569074
 30
0.0
 10
2.307241483489558
 20
20.77754356530503
 30
0.0
 10
2.307973551385146
 20
20.78039092807721
 30
0.0
 10
2.308722183937915
 20
20.78323638699295
 30
0.0
 10
2.309487211336033
 20
20.7860792129644
 30
0.0
 10
2.310268265856635
 20
20.7889178883157
 30
0.0
 10
2.311064959027202
 20
20.79175086777076
 30
0.0
 10
2.311877043866701
 20
20.79457735581894
 30
0.0
 10
2.31270449062849
 20
20.79739730769822
 30
0.0
 10
2.313547266910002
 20
20.80021067937173
 30
0.0
 10
2.314405341019588
 20
20.80301742660857
 30
0.0
 10
2.315278681075237
 20
20.80581750522974
 30
0.0
 10
2.316167255246098
 20
20.80861087104238
 30
0.0
 10
2.31707103168702
 20
20.81139747985753
 30
0.0
 10
2.317989978558653
 20
20.8141772874845
 30
0.0
 10
2.318924064012887
 20
20.81695024973575
 30
0.0
 10
2.319873256230816
 20
20.81971632241295
 30
0.0
 10
2.320837523285437
 20
20.82247546135794
 30
0.0
 10
2.321816833652681
 20
20.82522762226291
 30
0.0
 10
2.32281115430596
 20
20.82797276137807
 30
0.0
 10
2.323820476639532
 20
20.83071088392209
 30
0.0
 10
2.324844795420065
 20
20.83344206364365
 30
0.0
 10
2.325884130959669
 20
20.83616638272055
 30
0.0
 10
2.326938512456184
 20
20.83888387938029
 30
0.0
 10
2.32800794633828
 20
20.84159454814354
 30
0.0
 10
2.329092440531604
 20
20.8442983829694
 30
0.0
 10
2.330192002560643
 20
20.84699537796723
 30
0.0
 10
2.33130664005707
 20
20.84968552720619
 30
0.0
 10
2.332436360623422
 20
20.85236882476626
 30
0.0
 10
2.333581171870611
 20
20.85504526472415
 30
0.0
 10
2.334741081403824
 20
20.857714841159
 30
0.0
 10
2.335916096841578
 20
20.86037754814354
 30
0.0
 10
2.337106225753465
 20
20.86303337977374
 30
0.0
 10
2.338311475890429
 20
20.86568233005912
 30
0.0
 10
2.33953185432566
 20
20.86832439333203
 30
0.0
 10
2.340767370660664
 20
20.87095956271994
 30
0.0
 10
2.34201803959846
 20
20.87358786640129
 30
0.0
 10
2.343283923246365
 20
20.87620933898536
 30
0.0
 10
2.344565093720554
 20
20.8788239967474
 30
0.0
 10
2.34586156932433
 20
20.88143183141577
 30
0.0
 10
2.347173361391544
 20
20.88403279623736
 30
0.0
 10
2.348500478729721
 20
20.88662684567329
 30
0.0
 10
2.349842930823251
 20
20.88921393385921
 30
0.0
 10
2.351200726975465
 20
20.8917940150176
 30
0.0
 10
2.352573876536341
 20
20.89436704334879
 30
0.0
 10
2.35396238884983
 20
20.89693297305487
 30
0.0
 10
2.355366273236585
 20
20.8994917583523
 30
0.0
 10
2.356785539116024
 20
20.9020433533982
 30
0.0
 10
2.358220195534889
 20
20.90458771257226
 30
0.0
 10
2.359670252932011
 20
20.90712478942278
 30
0.0
 10
2.361135716546803
 20
20.9096545406026
 30
0.0
 10
2.362616611036138
 20
20.91217691116984
 30
0.0
 10
2.364113078821493
 20
20.91469220932233
 30
0.0
 10
2.365625669439175
 20
20.91720078835419
 30
0.0
 10
2.367154781621952
 20
20.91970286754534
 30
0.0
 10
2.36870026802652
 20
20.92219834239811
 30
0.0
 10
2.370261829402116
 20
20.92468669256377
 30
0.0
 10
2.371839147032235
 20
20.92716740940771
 30
0.0
 10
2.373431907421399
 20
20.92963998115269
 30
0.0
 10
2.375039795671192
 20
20.93210389686567
 30
0.0
 10
2.376662497259424
 20
20.93455864538701
 30
0.0
 10
2.378299697555029
 20
20.93700371562381
 30
0.0
 10
2.379951081978465
 20
20.93943859644932
 30
0.0
 10
2.381616335846563
 20
20.94186277681264
 30
0.0
 10
2.383295144833231
 20
20.94427574540209
 30
0.0
 10
2.384987193283652
 20
20.94667699188172
 30
0.0
 10
2.386692170491334
 20
20.94906600228802
 30
0.0
 10
2.388409747306455
 20
20.95144227618552
 30
0.0
 10
2.390139932279331
 20
20.95380563016496
 30
0.0
 10
2.391882831719317
 20
20.9561565249534
 30
0.0
 10
2.393638613974264
 20
20.95849561020382
 30
0.0
 10
2.395407550838926
 20
20.96082312114246
 30
0.0
 10
2.397189610992529
 20
20.96313902693131
 30
0.0
 10
2.398984781428714
 20
20.96544328320142
 30
0.0
 10
2.400793044236857
 20
20.96773584920696
 30
0.0
 10
2.402614382819469
 20
20.97001668323187
 30
0.0
 10
2.404448780227443
 20
20.97228574381971
 30
0.0
 10
2.406296219605198
 20
20.97454298944495
 30
0.0
 10
2.408156684073738
 20
20.97678837859887
 30
0.0
 10
2.410030156753611
 20
20.97902186977416
 30
0.0
 10
2.411916620789997
 20
20.98124342144099
 30
0.0
 10
2.41381605922935
 20
20.98345299215791
 30
0.0
 10
2.415728455487772
 20
20.98565054015234
 30
0.0
 10
2.417653791601041
 20
20.98783602488727
 30
0.0
 10
2.419592081177432
 20
20.99000943084342
 30
0.0
 10
2.421543352210128
 20
20.99217079529978
 30
0.0
 10
2.423507650516841
 20
20.99432015872265
 30
0.0
 10
2.425485024535109
 20
20.99645752432589
 30
0.0
 10
2.427475494063331
 20
20.99858287390931
 30
0.0
 10
2.429479080267729
 20
21.00069618804002
 30
0.0
 10
2.431495803971903
 20
21.00279744759076
 30
0.0
 10
2.433525686000014
 20
21.00488663344472
 30
0.0
 10
2.435568747529878
 20
21.00696372615344
 30
0.0
 10
2.437625008526769
 20
21.0090287077913
 30
0.0
 10
2.439694500977669
 20
21.01108154886621
 30
0.0
 10
2.441777258323258
 20
21.01312221858261
 30
0.0
 10
2.443873313653915
 20
21.01515068656968
 30
0.0
 10
2.445982700223754
 20
21.01716692228457
 30
0.0
 10
2.448105451012442
 20
21.01917089548082
 30
0.0
 10
2.450241599932006
 20
21.02116257489813
 30
0.0
 10
2.452391189174099
 20
21.0231419438478
 30
0.0
 10
2.45455427958443
 20
21.02510897621295
 30
0.0
 10
2.456730927673776
 20
21.02706363089825
 30
0.0
 10
2.458921156227819
 20
21.02900586081028
 30
0.0
 10
2.461124976311583
 20
21.03093560162069
 30
0.0
 10
2.463342398656823
 20
21.03285278929964
 30
0.0
 10
2.465573432032305
 20
21.03475736221446
 30
0.0
 10
2.467818093399931
 20
21.03664924883379
 30
0.0
 10
2.470076550924662
 20
21.03852856634935
 30
0.0
 10
2.472349061237014
 20
21.04039526193404
 30
0.0
 10
2.474635501084753
 20
21.04224908508269
 30
0.0
 10
2.476935138120883
 20
21.0440894995585
 30
0.0
 10
2.479246980837333
 20
21.04591569319262
 30
0.0
 10
2.481570028897797
 20
21.04772686462427
 30
0.0
 10
2.483903286263974
 20
21.04952220701772
 30
0.0
 10
2.486245748501822
 20
21.05130092468063
 30
0.0
 10
2.488596922926454
 20
21.05306254451057
 30
0.0
 10
2.49095691080948
 20
21.0548072353195
 30
0.0
 10
2.493326073865876
 20
21.0565354688126
 30
0.0
 10
2.495704716595021
 20
21.05824743110377
 30
0.0
 10
2.498092733491324
 20
21.05994306525845
 30
0.0
 10
2.500490026678605
 20
21.06162230408534
 30
0.0
 10
2.502896496540862
 20
21.06328508268773
 30
0.0
 10
2.505312042800814
 20
21.06493133723547
 30
0.0
 10
2.507736619323325
 20
21.06656103079331
 30
0.0
 10
2.510170235958162
 20
21.06817419774298
 30
0.0
 10
2.512612935615153
 20
21.06977089492938
 30
0.0
 10
2.515064761685553
 20
21.07135114135852
 30
0.0
 10
2.51752571405902
 20
21.0729149369168
 30
0.0
 10
2.519995793788075
 20
21.07446227974904
 30
0.0
 10
2.522475001754573
 20
21.07599316822949
 30
0.0
 10
2.524963338359249
 20
21.0775076015568
 30
0.0
 10
2.52746081689334
 20
21.07900558188168
 30
0.0
 10
2.529967450778402
 20
21.08048712894107
 30
0.0
 10
2.532483260960013
 20
21.08195223996915
 30
0.0
 10
2.53500826100029
 20
21.08340088926627
 30
0.0
 10
2.537542449992152
 20
21.08483304738974
 30
0.0
 10
2.540085827591458
 20
21.0862486839416
 30
0.0
 10
2.542638393302828
 20
21.08764776878006
 30
0.0
 10
2.545200146671041
 20
21.08903027169474
 30
0.0
 10
2.547771087229513
 20
21.0903961624944
 30
0.0
 10
2.550351214515266
 20
21.09174541098082
 30
0.0
 10
2.552940528060307
 20
21.09307798696573
 30
0.0
 10
2.555539027411347
 20
21.09439386022901
 30
0.0
 10
2.558146712059659
 20
21.09569300066938
 30
0.0
 10
2.56076358170175
 20
21.09697537774307
 30
0.0
 10
2.563389635266734
 20
21.09824096255936
 30
0.0
 10
2.566024874547726
 20
21.0994897200563
 30
0.0
 10
2.568669406106269
 20
21.10072169200708
 30
0.0
 10
2.571323460367827
 20
21.10193686839444
 30
0.0
 10
2.573987217135428
 20
21.10313521250569
 30
0.0
 10
2.576660652818134
 20
21.1043166926815
 30
0.0
 10
2.579343621749206
 20
21.10548119357315
 30
0.0
 10
2.582035975683128
 20
21.10662860546756
 30
0.0
 10
2.584737566130216
 20
21.10775881909715
 30
0.0
 10
2.587385498368705
 20
21.10884595518247
 30
0.0
 10
2.589979322184993
 20
21.10989147704084
 30
0.0
 10
2.592688662639266
 20
21.11096399996378
 30
0.0
 10
2.596089639566999
 20
21.11228329089822
 30
0.0
 10
2.599933770989153
 20
21.11373323070513
 30
0.0
 10
2.603730979270073
 20
21.11512096694508
 30
0.0
 10
2.606959894030668
 20
21.11627103981754
 30
0.0
 10
2.609845861964249
 20
21.11727606883156
 30
0.0
 10
2.612710173577532
 20
21.11825112001961
 30
0.0
 10
2.615551456720287
 20
21.11919659953556
 30
0.0
 10
2.618396010532598
 20
21.1201215633075
 30
0.0
 10
2.621243730884702
 20
21.12102599233646
 30
0.0
 10
2.624094728801651
 20
21.12190996447448
 30
0.0
 10
2.626949117372879
 20
21.12277355143215
 30
0.0
 10
2.629807009063276
 20
21.12361682682151
 30
0.0
 10
2.632668511950757
 20
21.12443986140655
 30
0.0
 10
2.635533644567735
 20
21.12524270528538
 30
0.0
 10
2.638402365377761
 20
21.12602537740272
 30
0.0
 10
2.641274601038704
 20
21.126787872132
 30
0.0
 10
2.644150324672585
 20
21.12753020218424
 30
0.0
 10
2.647029533177366
 20
21.12825238552632
 30
0.0
 10
2.649912223351779
 20
21.12895444049947
 30
0.0
 10
2.652798392071748
 20
21.12963638509361
 30
0.0
 10
2.655688036050041
 20
21.13029823834319
 30
0.0
 10
2.658581152922397
 20
21.13094001553837
 30
0.0
 10
2.661477733161465
 20
21.13156176397145
 30
0.0
 10
2.664377780969791
 20
21.13216346665029
 30
0.0
 10
2.667281298129299
 20
21.13274511313485
 30
0.0
 10
2.670188286832048
 20
21.13330669117139
 30
0.0
 10
2.673098748843091
 20
21.13384818894711
 30
0.0
 10
2.676012687122115
 20
21.13436959467953
 30
0.0
 10
2.679416365692494
 20
21.13495445138768
 30
0.0
 10
2.683312213234715
 20
21.13558935227885
 30
0.0
 10
2.687702826517841
 20
21.13625830370716
 30
0.0
 10
2.692101284904227
 20
21.13688191158078
 30
0.0
 10
2.696507593018572
 20
21.13746013646481
 30
0.0
 10
2.700921758688836
 20
21.13799293443129
 30
0.0
 10
2.705343788862141
 20
21.13848028029014
 30
0.0
 10
2.709773704884844
 20
21.13892205606517
 30
0.0
 10
2.714211536862125
 20
21.13931807560004
 30
0.0
 10
2.718657314168913
 20
21.1396681707179
 30
0.0
 10
2.723111066670981
 20
21.1399721615661
 30
0.0
 10
2.727572824104602
 20
21.14022989720406
 30
0.0
 10
2.732042616238987
 20
21.14044112259391
 30
0.0
 10
2.736520472819922
 20
21.14060597092185
 30
0.0
 10
2.741006423634673
 20
21.14072312374395
 30
0.0
 10
2.745500498311078
 20
21.14079669256306
 30
0.0
 10
2.748499315432473
 20
21.14080587211354
 30
0.0
 10
2.750000000000003
 20
21.14081046579471
 30
0.0
  0
SPLINE
  5
155
330
1F
100
AcDbEntity
  8
1
  6
SLD-Dashed
370
    18
100
AcDbSpline
210
0.0
220
0.0
230
1.0
 70
     8
 71
     3
 72
    10
 73
     6
 74
     0
 42
0.000000001
 43
0.00000001
 40
0.0
 40
0.0
 40
0.0
 40
0.0
 40
0.5
 40
0.5
 40
1.0
 40
1.0
 40
1.0
 40
1.0
 10
15.60000000000135
 20
-17.9608602243897
 30
0.0
 10
15.60000000000078
 20
-17.84309061700634
 30
0.0
 10
15.55324029371398
 20
-17.73064651892003
 30
0.0
 10
15.41780382798792
 20
-17.55857060774289
 30
0.0
 10
15.32693692219694
 20
-17.49475822761089
 30
0.0
 10
15.22499999999999
 20
-17.47244258825881
 30
0.0
  0
SPLINE
  5
156
330
1F
100
AcDbEntity
  8
1
  6
SLD-Dashed
370
    18
100
AcDbSpline
210
0.0
220
0.0
230
1.0
 70
     8
 71
     3
 72
    10
 73
     6
 74
     0
 42
0.000000001
 43
0.00000001
 40
0.0
 40
0.0
 40
0.0
 40
0.0
 40
0.5
 40
0.5
 40
1.0
 40
1.0
 40
1.0
 40
1.0
 10
15.22499999999997
 20
-17.47244258825881
 30
0.0
 10
14.7258673820664
 20
-17.36317439327392
 30
0.0
 10
14.20531594595906
 20
-17.26950902984325
 30
0.0
 10
13.11981343473119
 20
-17.12670145782505
 30
0.0
 10
12.55043216059937
 20
-17.07771569071835
 30
0.0
 10
11.975
 20
-17.0583190848336
 30
0.0
  0
SPLINE
  5
157
330
1F
100
AcDbEntity
  8
1
  6
SLD-Dashed
370
    18
100
AcDbSpline
210
0.0
220
0.0
230
1.0
 70
     8
 71
     3
 72
    10
 73
     6
 74
     0
 42
0.000000001
 43
0.00000001
 40
0.0
 40
0.0
 40
0.0
 40
0.0
 40
0.5
 40
0.5
 40
1.0
 40
1.0
 40
1.0
 40
1.0
 10
11.97499999999997
 20
-17.05831908483362
 30
0.0
 10
11.87152057286504
 20
-17.05483101134253
 30
0.0
 10
11.77071697238918
 20
-17.10302441606798
 30
0.0
 10
11.63569438794237
 20
-17.25765695847895
 30
0.0
 10
11.59999999999998
 20
-17.3606658251105
 30
0.0
 10
11.59999999999999
 20
-17.46403447087756
 30
0.0
  0
SPLINE
  5
158
330
1F
100
AcDbEntity
  8
1
  6
SLD-Dashed
370
    18
100
AcDbSpline
210
0.0
220
0.0
230
1.0
 70
     8
 71
     3
 72
     8
 73
     4
 74
     0
 42
0.000000001
 43
0.00000001
 40
0.0000432461654743
 40
0.0000432461654743
 40
0.0000432461654743
 40
0.0000432461654743
 40
0.000471859197428
 40
0.000471859197428
 40
0.000471859197428
 40
0.000471859197428
 10
11.59999999999999
 20
-17.71624677331128
 30
0.0
 10
11.53327333917299
 20
-17.84256764359957
 30
0.0
 10
11.46660587253706
 20
-17.96893325601979
 30
0.0
 10
11.39999999999999
 20
-18.09532860177311
 30
0.0
  0
SPLINE
  5
159
330
1F
100
AcDbEntity
  8
SK3
  6
SLD-Dashed
370
    18
100
AcDbSpline
210
0.0
220
0.0
230
1.0
 70
     8
 71
     3
 72
     8
 73
     4
 74
     0
 42
0.000000001
 43
0.00000001
 40
0.0
 40
0.0
 40
0.0
 40
0.0
 40
0.01629528882665
 40
0.01629528882665
 40
0.01629528882665
 40
0.01629528882665
 10
17.37428229569721
 20
-21.87889324185635
 30
0.0
 10
17.41752631904429
 20
-21.89189473974166
 30
0.0
 10
17.46077034239138
 20
-21.90489623762697
 30
0.0
 10
17.50328633000081
 20
-21.91783661984198
 30
0.0
  0
SPLINE
  5
15A
330
1F
100
AcDbEntity
  8
SK3
  6
SLD-Dashed
370
    18
100
AcDbSpline
210
0.0
220
0.0
230
1.0
 70
     8
 71
     3
 72
     8
 73
     4
 74
     0
 42
0.000000001
 43
0.00000001
 40
0.01629528882665
 40
0.01629528882665
 40
0.01629528882665
 40
0.01629528882665
 40
0.0312311734406649
 40
0.0312311734406649
 40
0.0312311734406649
 40
0.0312311734406649
 10
17.50328633000081
 20
-21.91783661984198
 30
0.0
 10
17.54225550028926
 20
-21.92969747469892
 30
0.0
 10
17.58061303819213
 20
-21.94150698547851
 30
0.0
 10
17.61850233096609
 20
-21.95326363460905
 30
0.0
  0
SPLINE
  5
15B
330
1F
100
AcDbEntity
  8
SK3
  6
SLD-Dashed
370
    18
100
AcDbSpline
210
0.0
220
0.0
230
1.0
 70
     8
 71
     3
 72
     8
 73
     4
 74
     0
 42
0.000000001
 43
0.00000001
 40
0.0312311734406649
 40
0.0312311734406649
 40
0.0312311734406649
 40
0.0312311734406649
 40
0.0625738786954606
 40
0.0625738786954606
 40
0.0625738786954606
 40
0.0625738786954606
 10
17.61850233096609
 20
-21.95326363460905
 30
0.0
 10
17.69801238118518
 20
-21.97793476712011
 30
0.0
 10
17.7754604519877
 20
-22.00237311636112
 30
0.0
 10
17.85066133142041
 20
-22.026477057338
 30
0.0
  0
SPLINE
  5
15C
330
1F
100
AcDbEntity
  8
SK3
  6
SLD-Dashed
370
    18
100
AcDbSpline
210
0.0
220
0.0
230
1.0
 70
     8
 71
     3
 72
     8
 73
     4
 74
     0
 42
0.000000001
 43
0.00000001
 40
0.0625738786954606
 40
0.0625738786954606
 40
0.0625738786954606
 40
0.0625738786954606
 40
0.1254922810556317
 40
0.1254922810556317
 40
0.1254922810556317
 40
0.1254922810556317
 10
17.85066133142041
 20
-22.026477057338
 30
0.0
 10
18.00162211006165
 20
-22.07486412043675
 30
0.0
 10
18.14352717937831
 20
-22.12190358845464
 30
0.0
 10
18.2757964926825
 20
-22.1668212658114
 30
0.0
  0
SPLINE
  5
15D
330
1F
100
AcDbEntity
  8
SK3
  6
SLD-Dashed
370
    18
100
AcDbSpline
210
0.0
220
0.0
230
1.0
 70
     8
 71
     3
 72
     8
 73
     4
 74
     0
 42
0.000000001
 43
0.00000001
 40
0.1254922810556317
 40
0.1254922810556317
 40
0.1254922810556317
 40
0.1254922810556317
 40
0.1879270426769591
 40
0.1879270426769591
 40
0.1879270426769591
 40
0.1879270426769591
 10
18.2757964926825
 20
-22.1668212658114
 30
0.0
 10
18.40704907914661
 20
-22.21139367027742
 30
0.0
 10
18.52881347637728
 20
-22.253876778244
 30
0.0
 10
18.64049725047022
 20
-22.29358471724159
 30
0.0
  0
SPLINE
  5
15E
330
1F
100
AcDbEntity
  8
SK3
  6
SLD-Dashed
370
    18
100
AcDbSpline
210
0.0
220
0.0
230
1.0
 70
     8
 71
     3
 72
     8
 73
     4
 74
     0
 42
0.000000001
 43
0.00000001
 40
0.1879270426769591
 40
0.1879270426769591
 40
0.1879270426769591
 40
0.1879270426769591
 40
0.2502818102646084
 40
0.2502818102646084
 40
0.2502818102646084
 40
0.2502818102646084
 10
18.64049725047022
 20
-22.29358471724159
 30
0.0
 10
18.75203793063037
 20
-22.33324178076328
 30
0.0
 10
18.85352380253841
 20
-22.37013078208594
 30
0.0
 10
18.94441445220018
 20
-22.40363776420984
 30
0.0
  0
SPLINE
  5
15F
330
1F
100
AcDbEntity
  8
SK3
  6
SLD-Dashed
370
    18
100
AcDbSpline
210
0.0
220
0.0
230
1.0
 70
     8
 71
     3
 72
     8
 73
     4
 74
     0
 42
0.000000001
 43
0.00000001
 40
0.2502818102646084
 40
0.2502818102646084
 40
0.2502818102646084
 40
0.2502818102646084
 40
0.3130930977313908
 40
0.3130930977313908
 40
0.3130930977313908
 40
0.3130930977313908
 10
18.94441445220018
 20
-22.40363776420984
 30
0.0
 10
19.03597054237278
 20
-22.43739006203324
 30
0.0
 10
19.1167757001218
 20
-22.46771063761278
 30
0.0
 10
19.18634229071771
 20
-22.49407228432356
 30
0.0
  0
SPLINE
  5
160
330
1F
100
AcDbEntity
  8
SK3
  6
SLD-Dashed
370
    18
100
AcDbSpline
210
0.0
220
0.0
230
1.0
 70
     8
 71
     3
 72
     8
 73
     4
 74
     0
 42
0.000000001
 43
0.00000001
 40
0.3130930977313908
 40
0.3130930977313908
 40
0.3130930977313908
 40
0.3130930977313908
 40
0.3756498732162624
 40
0.3756498732162624
 40
0.3756498732162624
 40
0.3756498732162624
 10
19.18634229071771
 20
-22.49407228432356
 30
0.0
 10
19.25562699677402
 20
-22.52032711337113
 30
0.0
 10
19.31376402873267
 20
-22.54265503179
 30
0.0
 10
19.36037694596217
 20
-22.56066017905423
 30
0.0
  0
SPLINE
  5
161
330
1F
100
AcDbEntity
  8
SK3
  6
SLD-Dashed
370
    18
100
AcDbSpline
210
0.0
220
0.0
230
1.0
 70
     8
 71
     3
 72
     8
 73
     4
 74
     0
 42
0.000000001
 43
0.00000001
 40
0.3756498732162624
 40
0.3756498732162624
 40
0.3756498732162624
 40
0.3756498732162624
 40
0.4376979459469843
 40
0.4376979459469843
 40
0.4376979459469843
 40
0.4376979459469843
 10
19.36037694596217
 20
-22.56066017905423
 30
0.0
 10
19.40661081361327
 20
-22.57851891103521
 30
0.0
 10
19.44150722938556
 20
-22.59212489032319
 30
0.0
 10
19.46483052776929
 20
-22.60123570582446
 30
0.0
  0
SPLINE
  5
162
330
1F
100
AcDbEntity
  8
SK3
  6
SLD-Dashed
370
    18
100
AcDbSpline
210
0.0
220
0.0
230
1.0
 70
     8
 71
     3
 72
     8
 73
     4
 74
     0
 42
0.000000001
 43
0.00000001
 40
0.5003090050898933
 40
0.5003090050898933
 40
0.5003090050898933
 40
0.5003090050898933
 40
0.5630984084080826
 40
0.5630984084080826
 40
0.5630984084080826
 40
0.5630984084080826
 10
19.49999913823068
 20
-22.61499966792162
 30
0.0
 10
19.49988167027437
 20
-22.61495356706598
 30
0.0
 10
19.48782842467206
 20
-22.61021857470982
 30
0.0
 10
19.46392578017425
 20
-22.60088236569259
 30
0.0
  0
SPLINE
  5
163
330
1F
100
AcDbEntity
  8
SK3
  6
SLD-Dashed
370
    18
100
AcDbSpline
210
0.0
220
0.0
230
1.0
 70
     8
 71
     3
 72
     8
 73
     4
 74
     0
 42
0.000000001
 43
0.00000001
 40
0.5630984084080826
 40
0.5630984084080826
 40
0.5630984084080826
 40
0.5630984084080826
 40
0.6252492304193704
 40
0.6252492304193704
 40
0.6252492304193704
 40
0.6252492304193704
 10
19.46392578017425
 20
-22.60088236569259
 30
0.0
 10
19.44026623054841
 20
-22.59164110786521
 30
0.0
 10
19.40499707811516
 20
-22.57789174812169
 30
0.0
 10
19.35835781160823
 20
-22.55988042518726
 30
0.0
  0
SPLINE
  5
164
330
1F
100
AcDbEntity
  8
SK3
  6
SLD-Dashed
370
    18
100
AcDbSpline
210
0.0
220
0.0
230
1.0
 70
     8
 71
     3
 72
     8
 73
     4
 74
     0
 42
0.000000001
 43
0.00000001
 40
0.6252492304193704
 40
0.6252492304193704
 40
0.6252492304193704
 40
0.6252492304193704
 40
0.6872878045352787
 40
0.6872878045352787
 40
0.6872878045352787
 40
0.6872878045352787
 10
19.35835781160823
 20
-22.55988042518726
 30
0.0
 10
19.31180277825122
 20
-22.54190163171948
 30
0.0
 10
19.25391866386958
 20
-22.5196762558515
 30
0.0
 10
19.18507367342888
 20
-22.49359173259496
 30
0.0
  0
SPLINE
  5
165
330
1F
100
AcDbEntity
  8
SK3
  6
SLD-Dashed
370
    18
100
AcDbSpline
210
0.0
220
0.0
230
1.0
 70
     8
 71
     3
 72
     8
 73
     4
 74
     0
 42
0.000000001
 43
0.00000001
 40
0.6872878045352787
 40
0.6872878045352787
 40
0.6872878045352787
 40
0.6872878045352787
 40
0.7498086072160774
 40
0.7498086072160774
 40
0.7498086072160774
 40
0.7498086072160774
 10
19.18507367342888
 20
-22.49359173259496
 30
0.0
 10
19.11569354784987
 20
-22.46730445319203
 30
0.0
 10
19.03518148521004
 20
-22.43709779858531
 30
0.0
 10
18.94401767113926
 20
-22.40349153970794
 30
0.0
  0
SPLINE
  5
166
330
1F
100
AcDbEntity
  8
SK3
  6
SLD-Dashed
370
    18
100
AcDbSpline
210
0.0
220
0.0
230
1.0
 70
     8
 71
     3
 72
     8
 73
     4
 74
     0
 42
0.000000001
 43
0.00000001
 40
0.7498086072160774
 40
0.7498086072160774
 40
0.7498086072160774
 40
0.7498086072160774
 40
0.8125905274559557
 40
0.8125905274559557
 40
0.8125905274559557
 40
0.8125905274559557
 10
18.94401767113926
 20
-22.40349153970794
 30
0.0
 10
18.85247311223499
 20
-22.36974492459854
 30
0.0
 10
18.75018764221612
 20
-22.33257024908681
 30
0.0
 10
18.63771434801707
 20
-22.29259529902482
 30
0.0
  0
SPLINE
  5
167
330
1F
100
AcDbEntity
  8
SK3
  6
SLD-Dashed
370
    18
100
AcDbSpline
210
0.0
220
0.0
230
1.0
 70
     8
 71
     3
 72
     8
 73
     4
 74
     0
 42
0.000000001
 43
0.00000001
 40
0.8125905274559557
 40
0.8125905274559557
 40
0.8125905274559557
 40
0.8125905274559557
 40
0.8748692062183098
 40
0.8748692062183098
 40
0.8748692062183098
 40
0.8748692062183098
 10
18.63771434801707
 20
-22.29259529902482
 30
0.0
 10
18.52614260678957
 20
-22.25294077644984
 30
0.0
 10
18.40454571202547
 20
-22.21053069176322
 30
0.0
 10
18.27351242612675
 20
-22.16604598013976
 30
0.0
  0
SPLINE
  5
168
330
1F
100
AcDbEntity
  8
SK3
  6
SLD-Dashed
370
    18
100
AcDbSpline
210
0.0
220
0.0
230
1.0
 70
     8
 71
     3
 72
     8
 73
     4
 74
     0
 42
0.000000001
 43
0.00000001
 40
0.8748692062183098
 40
0.8748692062183098
 40
0.8748692062183098
 40
0.8748692062183098
 40
0.9371664635494215
 40
0.9371664635494215
 40
0.9371664635494215
 40
0.9371664635494215
 10
18.27351242612675
 20
-22.16604598013976
 30
0.0
 10
18.14244005123386
 20
-22.12154799812762
 30
0.0
 10
18.00192565436147
 20
-22.07497415121568
 30
0.0
 10
17.85252911031482
 20
-22.02707596463085
 30
0.0
  0
SPLINE
  5
169
330
1F
100
AcDbEntity
  8
SK3
  6
SLD-Dashed
370
    18
100
AcDbSpline
210
0.0
220
0.0
230
1.0
 70
     8
 71
     3
 72
     8
 73
     4
 74
     0
 42
0.000000001
 43
0.00000001
 40
0.9371664635494215
 40
0.9371664635494215
 40
0.9371664635494215
 40
0.9371664635494215
 40
0.9684913764179471
 40
0.9684913764179471
 40
0.9684913764179471
 40
0.9684913764179471
 10
17.85252911031482
 20
-22.02707596463085
 30
0.0
 10
17.77740808692456
 20
-22.00299133256823
 30
0.0
 10
17.70004132157058
 20
-21.97857185746378
 30
0.0
 10
17.62061496784792
 20
-21.95391896145648
 30
0.0
  0
SPLINE
  5
16A
330
1F
100
AcDbEntity
  8
SK3
  6
SLD-Dashed
370
    18
100
AcDbSpline
210
0.0
220
0.0
230
1.0
 70
     8
 71
     3
 72
     8
 73
     4
 74
     0
 42
0.000000001
 43
0.00000001
 40
0.9684913764179471
 40
0.9684913764179471
 40
0.9684913764179471
 40
0.9684913764179471
 40
0.9835510517860734
 40
0.9835510517860734
 40
0.9835510517860734
 40
0.9835510517860734
 10
17.62061496784792
 20
-21.95391896145648
 30
0.0
 10
17.58243018158025
 20
-21.94206690579994
 30
0.0
 10
17.54376936796059
 20
-21.93016090017165
 30
0.0
 10
17.50448654651411
 20
-21.91820257304924
 30
0.0
  0
SPLINE
  5
16B
330
1F
100
AcDbEntity
  8
SK3
  6
SLD-Dashed
370
    18
100
AcDbSpline
210
0.0
220
0.0
230
1.0
 70
     8
 71
     3
 72
     8
 73
     4
 74
     0
 42
0.000000001
 43
0.00000001
 40
0.9835510517860734
 40
0.9835510517860734
 40
0.9835510517860734
 40
0.9835510517860734
 40
1.0
 40
1.0
 40
1.0
 40
1.0
 10
17.50448654651411
 20
-21.91820257304924
 30
0.0
 10
17.4615798383763
 20
-21.90514107612096
 30
0.0
 10
17.41793106703675
 20
-21.89201715898866
 30
0.0
 10
17.37428229569721
 20
-21.87889324185635
 30
0.0
  0
SPLINE
  5
16C
330
1F
100
AcDbEntity
  8
1
  6
SLD-Dashed
370
    18
100
AcDbSpline
210
0.0
220
0.0
230
1.0
 70
     8
 71
     3
 72
    10
 73
     6
 74
     0
 42
0.000000001
 43
0.00000001
 40
0.0
 40
0.0
 40
0.0
 40
0.0
 40
0.5
 40
0.5
 40
1.0
 40
1.0
 40
1.0
 40
1.0
 10
17.37428229569721
 20
-21.87889324185635
 30
0.0
 10
17.08869105749161
 20
-21.29102690158536
 30
0.0
 10
16.79677392354255
 20
-20.68882544695999
 30
0.0
 10
16.20431228453345
 20
-19.46290422632136
 30
0.0
 10
15.9037167673811
 20
-18.83908846130385
 30
0.0
 10
15.59999999999999
 20
-18.20619124728897
 30
0.0
  0
SPLINE
  5
16D
330
1F
100
AcDbEntity
  8
1
  6
SLD-Dashed
370
    18
100
AcDbSpline
210
0.0
220
0.0
230
1.0
 70
     8
 71
     3
 72
     8
 73
     4
 74
     0
 42
0.000000001
 43
0.00000001
 40
0.0000432461654743
 40
0.0000432461654743
 40
0.0000432461654743
 40
0.0000432461654743
 40
0.000471859197428
 40
0.000471859197428
 40
0.000471859197428
 40
0.000471859197428
 10
11.59999999999999
 20
17.71624677331127
 30
0.0
 10
11.53327333917299
 20
17.84256764359957
 30
0.0
 10
11.46660587253706
 20
17.96893325601979
 30
0.0
 10
11.39999999999999
 20
18.09532860177311
 30
0.0
  0
SPLINE
  5
16E
330
1F
100
AcDbEntity
  8
1
  6
SLD-Dashed
370
    18
100
AcDbSpline
210
0.0
220
0.0
230
1.0
 70
     8
 71
     3
 72
    10
 73
     6
 74
     0
 42
0.000000001
 43
0.00000001
 40
0.0
 40
0.0
 40
0.0
 40
0.0
 40
0.5
 40
0.5
 40
1.0
 40
1.0
 40
1.0
 40
1.0
 10
11.97500000000006
 20
17.05831908483358
 30
0.0
 10
11.87263440999246
 20
17.05486855644553
 30
0.0
 10
11.77129546076208
 20
17.10236848387975
 30
0.0
 10
11.63513721254481
 20
17.25828848333816
 30
0.0
 10
11.59999999999996
 20
17.36162496965595
 30
0.0
 10
11.6
 20
17.46403447087756
 30
0.0
  0
SPLINE
  5
16F
330
1F
100
AcDbEntity
  8
1
  6
SLD-Dashed
370
    18
100
AcDbSpline
210
0.0
220
0.0
230
1.0
 70
     8
 71
     3
 72
    10
 73
     6
 74
     0
 42
0.000000001
 43
0.00000001
 40
0.0
 40
0.0
 40
0.0
 40
0.0
 40
0.5000000000000001
 40
0.5000000000000001
 40
1.0
 40
1.0
 40
1.0
 40
1.0
 10
15.225
 20
17.47244258825867
 30
0.0
 10
14.72586738206644
 20
17.36317439327382
 30
0.0
 10
14.2053159459591
 20
17.26950902984317
 30
0.0
 10
13.11981343473123
 20
17.12670145782505
 30
0.0
 10
12.55043216059936
 20
17.07771569071836
 30
0.0
 10
11.975
 20
17.05831908483365
 30
0.0
  0
SPLINE
  5
170
330
1F
100
AcDbEntity
  8
1
  6
SLD-Dashed
370
    18
100
AcDbSpline
210
0.0
220
0.0
230
1.0
 70
     8
 71
     3
 72
    12
 73
     8
 74
     0
 42
0.000000001
 43
0.00000001
 40
0.0
 40
0.0
 40
0.0
 40
0.0
 40
0.25
 40
0.25
 40
0.5
 40
0.5
 40
1.0
 40
1.0
 40
1.0
 40
1.0
 10
15.60000000000016
 20
17.96086022438795
 30
0.0
 10
15.60000000000019
 20
17.90240659628985
 30
0.0
 10
15.58809798002365
 20
17.8442366951637
 30
0.0
 10
15.54772815917558
 20
17.7368650594007
 30
0.0
 10
15.51963120913042
 20
17.68790837715611
 30
0.0
 10
15.41688499567559
 20
17.55747710378503
 30
0.0
 10
15.32702154741283
 20
17.49477675343814
 30
0.0
 10
15.22500000000059
 20
17.47244258825875
 30
0.0
  0
SPLINE
  5
171
330
1F
100
AcDbEntity
  8
1
  6
SLD-Dashed
370
    18
100
AcDbSpline
210
0.0
220
0.0
230
1.0
 70
     8
 71
     3
 72
    10
 73
     6
 74
     0
 42
0.000000001
 43
0.00000001
 40
0.0
 40
0.0
 40
0.0
 40
0.0
 40
0.5
 40
0.5
 40
1.0
 40
1.0
 40
1.0
 40
1.0
 10
17.37428228845954
 20
21.87889324542559
 30
0.0
 10
17.08869139976289
 20
21.29102762069876
 30
0.0
 10
16.79677442198006
 20
20.68882648718392
 30
0.0
 10
16.20431276888619
 20
19.46290523505304
 30
0.0
 10
15.90371708122669
 20
18.83908911703106
 30
0.0
 10
15.59999999999999
 20
18.20619124728897
 30
0.0
  0
SPLINE
  5
172
330
1F
100
AcDbEntity
  8
SK3
  6
SLD-Dashed
370
    18
100
AcDbSpline
210
0.0
220
0.0
230
1.0
 70
     8
 71
     3
 72
    17
 73
    13
 74
     0
 42
0.000000001
 43
0.00000001
 40
0.0
 40
0.0
 40
0.0
 40
0.0
 40
0.0164474136695639
 40
0.0315086356818414
 40
0.0628335605424155
 40
0.1251308418155554
 40
0.1874095446348313
 40
0.2501914891883084
 40
0.3127123157600386
 40
0.3747509137120573
 40
0.4369017597229651
 40
0.4996911872911962
 40
0.4996911872911962
 40
0.4996911872911962
 40
0.4996911872911962
 10
17.37428228845954
 20
21.87889324542558
 30
0.0
 10
17.41792700114537
 20
21.89201590535823
 30
0.0
 10
17.50153804049069
 20
21.91715524454563
 30
0.0
 10
17.66284287959647
 20
21.96683087691382
 30
0.0
 10
17.93127083471967
 20
22.05155541046666
 30
0.0
 10
18.28291253533514
 20
22.1681079827399
 30
0.0
 10
18.64872205690061
 20
22.2956935711733
 30
0.0
 10
18.95433315864917
 20
22.40676501058164
 30
0.0
 10
19.19558460886079
 20
22.49727814760369
 30
0.0
 10
19.36979161515575
 20
22.56416724906134
 30
0.0
 10
19.47589776893995
 20
22.60553176965652
 30
0.0
 10
19.4998816405117
 20
22.61495359502225
 30
0.0
 10
19.49999913292786
 20
22.6149996985122
 30
0.0
  0
SPLINE
  5
173
330
1F
100
AcDbEntity
  8
SK3
  6
SLD-Dashed
370
    18
100
AcDbSpline
210
0.0
220
0.0
230
1.0
 70
     8
 71
     2
 72
     6
 73
     3
 74
     0
 42
0.000000001
 43
0.00000001
 40
0.0
 40
0.0
 40
0.0
 40
0.03125
 40
0.03125
 40
0.03125
 10
49.0
 20
7.999999999999989
 30
0.0
 10
48.96948304684298
 20
7.982721965835101
 30
0.0
 10
48.91025062392751
 20
7.949862298546596
 30
0.0
  0
SPLINE
  5
174
330
1F
100
AcDbEntity
  8
SK3
  6
SLD-Dashed
370
    18
100
AcDbSpline
210
0.0
220
0.0
230
1.0
 70
     8
 71
     3
 72
     8
 73
     4
 74
     0
 42
0.000000001
 43
0.00000001
 40
0.03125
 40
0.03125
 40
0.03125
 40
0.03125
 40
0.0625
 40
0.0625
 40
0.0625
 40
0.0625
 10
48.91025062392751
 20
7.949862298546596
 30
0.0
 10
48.85101820101204
 20
7.917002631258087
 30
0.0
 10
48.76144533340826
 20
7.867689224083384
 30
0.0
 10
48.64711685379905
 20
7.806957038376979
 30
0.0
  0
SPLINE
  5
175
330
1F
100
AcDbEntity
  8
SK3
  6
SLD-Dashed
370
    18
100
AcDbSpline
210
0.0
220
0.0
230
1.0
 70
     8
 71
     3
 72
     8
 73
     4
 74
     0
 42
0.000000001
 43
0.00000001
 40
0.0625
 40
0.0625
 40
0.0625
 40
0.0625
 40
0.09375
 40
0.09375
 40
0.09375
 40
0.09375
 10
48.64711685379905
 20
7.806957038376979
 30
0.0
 10
48.5327883741898
 20
7.746224852670572
 30
0.0
 10
48.39381076195139
 20
7.674080947736871
 30
0.0
 10
48.23046089122576
 20
7.593835556618595
 30
0.0
  0
SPLINE
  5
176
330
1F
100
AcDbEntity
  8
SK3
  6
SLD-Dashed
370
    18
100
AcDbSpline
210
0.0
220
0.0
230
1.0
 70
     8
 71
     3
 72
     8
 73
     4
 74
     0
 42
0.000000001
 43
0.00000001
 40
0.09375
 40
0.09375
 40
0.09375
 40
0.09375
 40
0.125
 40
0.125
 40
0.125
 40
0.125
 10
48.23046089122576
 20
7.593835556618595
 30
0.0
 10
48.06711102050016
 20
7.513590165500312
 30
0.0
 10
47.88241394426447
 20
7.426791183647623
 30
0.0
 10
47.67934721370556
 20
7.338817936513843
 30
0.0
  0
SPLINE
  5
177
330
1F
100
AcDbEntity
  8
SK3
  6
SLD-Dashed
370
    18
100
AcDbSpline
210
0.0
220
0.0
230
1.0
 70
     8
 71
     3
 72
     8
 73
     4
 74
     0
 42
0.000000001
 43
0.00000001
 40
0.125
 40
0.125
 40
0.125
 40
0.125
 40
0.15625
 40
0.15625
 40
0.15625
 40
0.15625
 10
47.67934721370556
 20
7.338817936513843
 30
0.0
 10
47.47628048314666
 20
7.25084468938006
 30
0.0
 10
47.25167377322943
 20
7.160407064960514
 30
0.0
 10
47.01181956354355
 20
7.075255297146518
 30
0.0
  0
SPLINE
  5
178
330
1F
100
AcDbEntity
  8
SK3
  6
SLD-Dashed
370
    18
100
AcDbSpline
210
0.0
220
0.0
230
1.0
 70
     8
 71
     3
 72
     8
 73
     4
 74
     0
 42
0.000000001
 43
0.00000001
 40
0.15625
 40
0.15625
 40
0.15625
 40
0.15625
 40
0.1874999999999999
 40
0.1874999999999999
 40
0.1874999999999999
 40
0.1874999999999999
 10
47.01181956354355
 20
7.075255297146518
 30
0.0
 10
46.77196535385767
 20
6.990103529332527
 30
0.0
 10
46.5184693581121
 20
6.910628704281469
 30
0.0
 10
46.24986408943602
 20
6.841931330516079
 30
0.0
  0
SPLINE
  5
179
330
1F
100
AcDbEntity
  8
SK3
  6
SLD-Dashed
370
    18
100
AcDbSpline
210
0.0
220
0.0
230
1.0
 70
     8
 71
     3
 72
     8
 73
     4
 74
     0
 42
0.000000001
 43
0.00000001
 40
0.1874999999999999
 40
0.1874999999999999
 40
0.1874999999999999
 40
0.1874999999999999
 40
0.2187499999999999
 40
0.2187499999999999
 40
0.2187499999999999
 40
0.2187499999999999
 10
46.24986408943602
 20
6.841931330516079
 30
0.0
 10
45.98125882075993
 20
6.773233956750692
 30
0.0
 10
45.69366732111089
 20
6.714987733068781
 30
0.0
 10
45.40154082944249
 20
6.675535623989416
 30
0.0
  0
SPLINE
  5
17A
330
1F
100
AcDbEntity
  8
SK3
  6
SLD-Dashed
370
    18
100
AcDbSpline
210
0.0
220
0.0
230
1.0
 70
     8
 71
     3
 72
     8
 73
     4
 74
     0
 42
0.000000001
 43
0.00000001
 40
0.2187499999999999
 40
0.2187499999999999
 40
0.2187499999999999
 40
0.2187499999999999
 40
0.2499999999999999
 40
0.2499999999999999
 40
0.2499999999999999
 40
0.2499999999999999
 10
45.40154082944249
 20
6.675535623989416
 30
0.0
 10
45.10941433777413
 20
6.636083514910046
 30
0.0
 10
44.81138496606584
 20
6.614699367385919
 30
0.0
 10
44.50689690883135
 20
6.614381873414271
 30
0.0
  0
SPLINE
  5
17B
330
1F
100
AcDbEntity
  8
SK3
  6
SLD-Dashed
370
    18
100
AcDbSpline
210
0.0
220
0.0
230
1.0
 70
     8
 71
     3
 72
     8
 73
     4
 74
     0
 42
0.000000001
 43
0.00000001
 40
0.2499999999999999
 40
0.2499999999999999
 40
0.2499999999999999
 40
0.2499999999999999
 40
0.2812499999999999
 40
0.2812499999999999
 40
0.2812499999999999
 40
0.2812499999999999
 10
44.50689690883135
 20
6.614381873414271
 30
0.0
 10
44.20240885159685
 20
6.614064379442626
 30
0.0
 10
43.90423645263235
 20
6.634830538552485
 30
0.0
 10
43.61188122332092
 20
6.673736207064962
 30
0.0
  0
SPLINE
  5
17C
330
1F
100
AcDbEntity
  8
SK3
  6
SLD-Dashed
370
    18
100
AcDbSpline
210
0.0
220
0.0
230
1.0
 70
     8
 71
     3
 72
     8
 73
     4
 74
     0
 42
0.000000001
 43
0.00000001
 40
0.2812499999999999
 40
0.2812499999999999
 40
0.2812499999999999
 40
0.2812499999999999
 40
0.3124999999999999
 40
0.3124999999999999
 40
0.3124999999999999
 40
0.3124999999999999
 10
43.61188122332092
 20
6.673736207064962
 30
0.0
 10
43.3195259940095
 20
6.712641875577439
 30
0.0
 10
43.03168400610724
 20
6.770349807727807
 30
0.0
 10
42.76143388490883
 20
6.839050528877757
 30
0.0
  0
SPLINE
  5
17D
330
1F
100
AcDbEntity
  8
SK3
  6
SLD-Dashed
370
    18
100
AcDbSpline
210
0.0
220
0.0
230
1.0
 70
     8
 71
     3
 72
     8
 73
     4
 74
     0
 42
0.000000001
 43
0.00000001
 40
0.3124999999999999
 40
0.3124999999999999
 40
0.3124999999999999
 40
0.3124999999999999
 40
0.3437499999999999
 40
0.3437499999999999
 40
0.3437499999999999
 40
0.3437499999999999
 10
42.76143388490883
 20
6.839050528877757
 30
0.0
 10
42.4911837637104
 20
6.907751250027707
 30
0.0
 10
42.2335910499701
 20
6.988259243251918
 30
0.0
 10
41.99244918078497
 20
7.073740955883663
 30
0.0
  0
SPLINE
  5
17E
330
1F
100
AcDbEntity
  8
SK3
  6
SLD-Dashed
370
    18
100
AcDbSpline
210
0.0
220
0.0
230
1.0
 70
     8
 71
     3
 72
     8
 73
     4
 74
     0
 42
0.000000001
 43
0.00000001
 40
0.3437499999999999
 40
0.3437499999999999
 40
0.3437499999999999
 40
0.3437499999999999
 40
0.3749999999999999
 40
0.3749999999999999
 40
0.3749999999999999
 40
0.3749999999999999
 10
41.99244918078497
 20
7.073740955883663
 30
0.0
 10
41.75130731159982
 20
7.159222668515406
 30
0.0
 10
41.52962353623504
 20
7.24840376934369
 30
0.0
 10
41.32576431760028
 20
7.33660494829998
 30
0.0
  0
SPLINE
  5
17F
330
1F
100
AcDbEntity
  8
SK3
  6
SLD-Dashed
370
    18
100
AcDbSpline
210
0.0
220
0.0
230
1.0
 70
     8
 71
     3
 72
     8
 73
     4
 74
     0
 42
0.000000001
 43
0.00000001
 40
0.3749999999999999
 40
0.3749999999999999
 40
0.3749999999999999
 40
0.3749999999999999
 40
0.4062499999999999
 40
0.4062499999999999
 40
0.4062499999999999
 40
0.4062499999999999
 10
41.32576431760028
 20
7.33660494829998
 30
0.0
 10
41.12190509896549
 20
7.42480612725626
 30
0.0
 10
40.93479619973814
 20
7.512704344542948
 30
0.0
 10
40.77266262793022
 20
7.592301619747992
 30
0.0
  0
SPLINE
  5
180
330
1F
100
AcDbEntity
  8
SK3
  6
SLD-Dashed
370
    18
100
AcDbSpline
210
0.0
220
0.0
230
1.0
 70
     8
 71
     3
 72
     8
 73
     4
 74
     0
 42
0.000000001
 43
0.00000001
 40
0.4062499999999999
 40
0.4062499999999999
 40
0.4062499999999999
 40
0.4062499999999999
 40
0.4374999999999999
 40
0.4374999999999999
 40
0.4374999999999999
 40
0.4374999999999999
 10
40.77266262793022
 20
7.592301619747992
 30
0.0
 10
40.61052905612231
 20
7.671898894953042
 30
0.0
 10
40.47150805821445
 20
7.743981812986886
 30
0.0
 10
40.35653749694225
 20
7.805016432669808
 30
0.0
  0
SPLINE
  5
181
330
1F
100
AcDbEntity
  8
SK3
  6
SLD-Dashed
370
    18
100
AcDbSpline
210
0.0
220
0.0
230
1.0
 70
     8
 71
     3
 72
     8
 73
     4
 74
     0
 42
0.000000001
 43
0.00000001
 40
0.4374999999999999
 40
0.4374999999999999
 40
0.4374999999999999
 40
0.4374999999999999
 40
0.4687499999999999
 40
0.4687499999999999
 40
0.4687499999999999
 40
0.4687499999999999
 10
40.35653749694225
 20
7.805016432669808
 30
0.0
 10
40.24156693567002
 20
7.866051052352725
 30
0.0
 10
40.15146363610697
 20
7.915636269537671
 30
0.0
 10
40.09172666379027
 20
7.948765552382185
 30
0.0
  0
SPLINE
  5
182
330
1F
100
AcDbEntity
  8
SK3
  6
SLD-Dashed
370
    18
100
AcDbSpline
210
0.0
220
0.0
230
1.0
 70
     8
 71
     3
 72
     8
 73
     4
 74
     0
 42
0.000000001
 43
0.00000001
 40
0.4687499999999999
 40
0.4687499999999999
 40
0.4687499999999999
 40
0.4687499999999999
 40
0.4999999999999999
 40
0.4999999999999999
 40
0.4999999999999999
 40
0.4999999999999999
 10
40.09172666379027
 20
7.948765552382185
 30
0.0
 10
40.03198969147356
 20
7.9818948352267
 30
0.0
 10
40.00077772980623
 20
7.99956252791902
 30
0.0
 10
40.00001419919223
 20
7.999992012962999
 30
0.0
  0
SPLINE
  5
183
330
1F
100
AcDbEntity
  8
SK3
  6
SLD-Dashed
370
    18
100
AcDbSpline
210
0.0
220
0.0
230
1.0
 70
     8
 71
     3
 72
     8
 73
     4
 74
     0
 42
0.000000001
 43
0.00000001
 40
0.4999999999999999
 40
0.4999999999999999
 40
0.4999999999999999
 40
0.4999999999999999
 40
0.5312499999999999
 40
0.5312499999999999
 40
0.5312499999999999
 40
0.5312499999999999
 10
40.00001419919223
 20
7.999992012962999
 30
0.0
 10
39.99925066857821
 20
8.00042149800698
 30
0.0
 10
40.02920713299409
 20
7.983457755170505
 30
0.0
 10
40.08798660710303
 20
7.950840344209044
 30
0.0
  0
SPLINE
  5
184
330
1F
100
AcDbEntity
  8
SK3
  6
SLD-Dashed
370
    18
100
AcDbSpline
210
0.0
220
0.0
230
1.0
 70
     8
 71
     3
 72
     8
 73
     4
 74
     0
 42
0.000000001
 43
0.00000001
 40
0.5312499999999999
 40
0.5312499999999999
 40
0.5312499999999999
 40
0.5312499999999999
 40
0.5624999999999999
 40
0.5624999999999999
 40
0.5624999999999999
 40
0.5624999999999999
 10
40.08798660710303
 20
7.950840344209044
 30
0.0
 10
40.14676608121198
 20
7.918222933247586
 30
0.0
 10
40.23594005271934
 20
7.869108127840238
 30
0.0
 10
40.35005812749554
 20
7.808458077313705
 30
0.0
  0
SPLINE
  5
185
330
1F
100
AcDbEntity
  8
SK3
  6
SLD-Dashed
370
    18
100
AcDbSpline
210
0.0
220
0.0
230
1.0
 70
     8
 71
     3
 72
     8
 73
     4
 74
     0
 42
0.000000001
 43
0.00000001
 40
0.5624999999999999
 40
0.5624999999999999
 40
0.5624999999999999
 40
0.5624999999999999
 40
0.5937499999999999
 40
0.5937499999999999
 40
0.5937499999999999
 40
0.5937499999999999
 10
40.35005812749554
 20
7.808458077313705
 30
0.0
 10
40.46417620227177
 20
7.747808026787172
 30
0.0
 10
40.60312681517339
 20
7.675632103598524
 30
0.0
 10
40.76670255125256
 20
7.595229413310975
 30
0.0
  0
SPLINE
  5
186
330
1F
100
AcDbEntity
  8
SK3
  6
SLD-Dashed
370
    18
100
AcDbSpline
210
0.0
220
0.0
230
1.0
 70
     8
 71
     3
 72
     8
 73
     4
 74
     0
 42
0.000000001
 43
0.00000001
 40
0.5937499999999999
 40
0.5937499999999999
 40
0.5937499999999999
 40
0.5937499999999999
 40
0.6249999999999999
 40
0.6249999999999999
 40
0.6249999999999999
 40
0.6249999999999999
 10
40.76670255125256
 20
7.595229413310975
 30
0.0
 10
40.93027828733173
 20
7.514826723023421
 30
0.0
 10
41.11445400508498
 20
7.428215304121331
 30
0.0
 10
41.31768445335257
 20
7.340104375173018
 30
0.0
  0
SPLINE
  5
187
330
1F
100
AcDbEntity
  8
SK3
  6
SLD-Dashed
370
    18
100
AcDbSpline
210
0.0
220
0.0
230
1.0
 70
     8
 71
     3
 72
     8
 73
     4
 74
     0
 42
0.000000001
 43
0.00000001
 40
0.6249999999999999
 40
0.6249999999999999
 40
0.6249999999999999
 40
0.6249999999999999
 40
0.6562499999999999
 40
0.6562499999999999
 40
0.6562499999999999
 40
0.6562499999999999
 10
41.31768445335257
 20
7.340104375173018
 30
0.0
 10
41.52091490162016
 20
7.251993446224701
 30
0.0
 10
41.74610790779078
 20
7.161262629541129
 30
0.0
 10
41.98589417627684
 20
7.076067275886992
 30
0.0
  0
SPLINE
  5
188
330
1F
100
AcDbEntity
  8
SK3
  6
SLD-Dashed
370
    18
100
AcDbSpline
210
0.0
220
0.0
230
1.0
 70
     8
 71
     3
 72
     8
 73
     4
 74
     0
 42
0.000000001
 43
0.00000001
 40
0.6562499999999999
 40
0.6562499999999999
 40
0.6562499999999999
 40
0.6562499999999999
 40
0.6874999999999999
 40
0.6874999999999999
 40
0.6874999999999999
 40
0.6874999999999999
 10
41.98589417627684
 20
7.076067275886992
 30
0.0
 10
42.22568044476289
 20
6.990871922232856
 30
0.0
 10
42.47939459028228
 20
6.911230157653335
 30
0.0
 10
42.74864052867402
 20
6.842313935928636
 30
0.0
  0
SPLINE
  5
189
330
1F
100
AcDbEntity
  8
SK3
  6
SLD-Dashed
370
    18
100
AcDbSpline
210
0.0
220
0.0
230
1.0
 70
     8
 71
     3
 72
     8
 73
     4
 74
     0
 42
0.000000001
 43
0.00000001
 40
0.6874999999999999
 40
0.6874999999999999
 40
0.6874999999999999
 40
0.6874999999999999
 40
0.7187499999999999
 40
0.7187499999999999
 40
0.7187499999999999
 40
0.7187499999999999
 10
42.74864052867402
 20
6.842313935928636
 30
0.0
 10
43.01788646706578
 20
6.77339771420394
 30
0.0
 10
43.3060204781849
 20
6.715036994504011
 30
0.0
 10
43.59829407969812
 20
6.675557921755115
 30
0.0
  0
SPLINE
  5
18A
330
1F
100
AcDbEntity
  8
SK3
  6
SLD-Dashed
370
    18
100
AcDbSpline
210
0.0
220
0.0
230
1.0
 70
     8
 71
     3
 72
     8
 73
     4
 74
     0
 42
0.000000001
 43
0.00000001
 40
0.7187499999999999
 40
0.7187499999999999
 40
0.7187499999999999
 40
0.7187499999999999
 40
0.7499999999999998
 40
0.7499999999999998
 40
0.7499999999999998
 40
0.7499999999999998
 10
43.59829407969813
 20
6.675557921755114
 30
0.0
 10
43.89056768121134
 20
6.636078849006227
 30
0.0
 10
44.19070549065115
 20
6.61461632572814
 30
0.0
 10
44.49486665294291
 20
6.614380269628595
 30
0.0
  0
SPLINE
  5
18B
330
1F
100
AcDbEntity
  8
SK3
  6
SLD-Dashed
370
    18
100
AcDbSpline
210
0.0
220
0.0
230
1.0
 70
     8
 71
     3
 72
     8
 73
     4
 74
     0
 42
0.000000001
 43
0.00000001
 40
0.7499999999999998
 40
0.7499999999999998
 40
0.7499999999999998
 40
0.7499999999999998
 40
0.7812499999999998
 40
0.7812499999999998
 40
0.7812499999999998
 40
0.7812499999999998
 10
44.4948666529429
 20
6.614380269628593
 30
0.0
 10
44.79902781523467
 20
6.614144213529047
 30
0.0
 10
45.09738188957716
 20
6.634949233349271
 30
0.0
 10
45.39036921514533
 20
6.67403606068161
 30
0.0
  0
SPLINE
  5
18C
330
1F
100
AcDbEntity
  8
SK3
  6
SLD-Dashed
370
    18
100
AcDbSpline
210
0.0
220
0.0
230
1.0
 70
     8
 71
     3
 72
     8
 73
     4
 74
     0
 42
0.000000001
 43
0.00000001
 40
0.7812499999999998
 40
0.7812499999999998
 40
0.7812499999999998
 40
0.7812499999999998
 40
0.8124999999999998
 40
0.8124999999999998
 40
0.8124999999999998
 40
0.8124999999999998
 10
45.39036921514533
 20
6.67403606068161
 30
0.0
 10
45.6833565407135
 20
6.713122888013949
 30
0.0
 10
45.97133606294673
 20
6.770999145119601
 30
0.0
 10
46.24178675407332
 20
6.839869961970422
 30
0.0
  0
SPLINE
  5
18D
330
1F
100
AcDbEntity
  8
SK3
  6
SLD-Dashed
370
    18
100
AcDbSpline
210
0.0
220
0.0
230
1.0
 70
     8
 71
     3
 72
     8
 73
     4
 74
     0
 42
0.000000001
 43
0.00000001
 40
0.8124999999999998
 40
0.8124999999999998
 40
0.8124999999999998
 40
0.8124999999999998
 40
0.8437499999999998
 40
0.8437499999999998
 40
0.8437499999999998
 40
0.8437499999999998
 10
46.24178675407332
 20
6.839869961970422
 30
0.0
 10
46.51223744519993
 20
6.90874077882124
 30
0.0
 10
46.77074161530805
 20
6.989673126553277
 30
0.0
 10
47.01168378033943
 20
7.075207093253173
 30
0.0
  0
SPLINE
  5
18E
330
1F
100
AcDbEntity
  8
SK3
  6
SLD-Dashed
370
    18
100
AcDbSpline
210
0.0
220
0.0
230
1.0
 70
     8
 71
     3
 72
     8
 73
     4
 74
     0
 42
0.000000001
 43
0.00000001
 40
0.8437499999999998
 40
0.8437499999999998
 40
0.8437499999999998
 40
0.8437499999999998
 40
0.8749999999999998
 40
0.8749999999999998
 40
0.8749999999999998
 40
0.8749999999999998
 10
47.01168378033943
 20
7.075207093253173
 30
0.0
 10
47.25262594537079
 20
7.160741059953068
 30
0.0
 10
47.47439725571288
 20
7.250048342873548
 30
0.0
 10
47.67848537565219
 20
7.33844460926392
 30
0.0
  0
SPLINE
  5
18F
330
1F
100
AcDbEntity
  8
SK3
  6
SLD-Dashed
370
    18
100
AcDbSpline
210
0.0
220
0.0
230
1.0
 70
     8
 71
     3
 72
     8
 73
     4
 74
     0
 42
0.000000001
 43
0.00000001
 40
0.8749999999999998
 40
0.8749999999999998
 40
0.8749999999999998
 40
0.8749999999999998
 40
0.9062499999999998
 40
0.9062499999999998
 40
0.9062499999999998
 40
0.9062499999999998
 10
47.67848537565219
 20
7.33844460926392
 30
0.0
 10
47.88257349559151
 20
7.426840875654293
 30
0.0
 10
48.06947626232053
 20
7.514738465825965
 30
0.0
 10
48.23130566180825
 20
7.594250584609535
 30
0.0
  0
SPLINE
  5
190
330
1F
100
AcDbEntity
  8
SK3
  6
SLD-Dashed
370
    18
100
AcDbSpline
210
0.0
220
0.0
230
1.0
 70
     8
 71
     3
 72
     8
 73
     4
 74
     0
 42
0.000000001
 43
0.00000001
 40
0.9062499999999998
 40
0.9062499999999998
 40
0.9062499999999998
 40
0.9062499999999998
 40
0.9374999999999998
 40
0.9374999999999998
 40
0.9374999999999998
 40
0.9374999999999998
 10
48.23130566180825
 20
7.594250584609535
 30
0.0
 10
48.39313506129599
 20
7.673762703393098
 30
0.0
 10
48.53206163155377
 20
7.745840814320451
 30
0.0
 10
48.64692641080899
 20
7.806855875233297
 30
0.0
  0
SPLINE
  5
191
330
1F
100
AcDbEntity
  8
SK3
  6
SLD-Dashed
370
    18
100
AcDbSpline
210
0.0
220
0.0
230
1.0
 70
     8
 71
     3
 72
     8
 73
     4
 74
     0
 42
0.000000001
 43
0.00000001
 40
0.9374999999999998
 40
0.9374999999999998
 40
0.9374999999999998
 40
0.9374999999999998
 40
0.9531249999999999
 40
0.9531249999999999
 40
0.9531249999999999
 40
0.9531249999999999
 10
48.64692641080899
 20
7.806855875233297
 30
0.0
 10
48.70435880043658
 20
7.83736340568972
 30
0.0
 10
48.7559152818643
 20
7.865205352799271
 30
0.0
 10
48.79989529343563
 20
7.889176099854124
 30
0.0
  0
SPLINE
  5
192
330
1F
100
AcDbEntity
  8
SK3
  6
SLD-Dashed
370
    18
100
AcDbSpline
210
0.0
220
0.0
230
1.0
 70
     8
 71
     3
 72
     8
 73
     4
 74
     0
 42
0.000000001
 43
0.00000001
 40
0.9531249999999999
 40
0.9531249999999999
 40
0.9531249999999999
 40
0.9531249999999999
 40
0.96875
 40
0.96875
 40
0.96875
 40
0.96875
 10
48.79989529343563
 20
7.889176099854124
 30
0.0
 10
48.84387530500695
 20
7.913146846908978
 30
0.0
 10
48.88061687514718
 20
7.93342290677003
 30
0.0
 10
48.9101843434062
 20
7.949825529080804
 30
0.0
  0
SPLINE
  5
193
330
1F
100
AcDbEntity
  8
SK3
  6
SLD-Dashed
370
    18
100
AcDbSpline
210
0.0
220
0.0
230
1.0
 70
     8
 71
     2
 72
     6
 73
     3
 74
     0
 42
0.000000001
 43
0.00000001
 40
0.96875
 40
0.96875
 40
0.96875
 40
1.0
 40
1.0
 40
1.0
 10
48.9101843434062
 20
7.949825529080804
 30
0.0
 10
48.96931927992421
 20
7.982630773702346
 30
0.0
 10
49.0
 20
7.999999999999989
 30
0.0
  0
SPLINE
  5
194
330
1F
100
AcDbEntity
  8
SK3
  6
SLD-Dashed
370
    18
100
AcDbSpline
210
0.0
220
0.0
230
1.0
 70
     8
 71
     2
 72
     6
 73
     3
 74
     0
 42
0.000000001
 43
0.00000001
 40
0.0
 40
0.0
 40
0.0
 40
0.0312500000000005
 40
0.0312500000000005
 40
0.0312500000000005
 10
69.99999999999999
 20
7.999999999999989
 30
0.0
 10
69.96948304684294
 20
7.982721965835101
 30
0.0
 10
69.91025062392747
 20
7.949862298546596
 30
0.0
  0
SPLINE
  5
195
330
1F
100
AcDbEntity
  8
SK3
  6
SLD-Dashed
370
    18
100
AcDbSpline
210
0.0
220
0.0
230
1.0
 70
     8
 71
     3
 72
     8
 73
     4
 74
     0
 42
0.000000001
 43
0.00000001
 40
0.0312500000000005
 40
0.0312500000000005
 40
0.0312500000000005
 40
0.0312500000000005
 40
0.062500000000001
 40
0.062500000000001
 40
0.062500000000001
 40
0.062500000000001
 10
69.91025062392747
 20
7.949862298546596
 30
0.0
 10
69.85101820101201
 20
7.917002631258087
 30
0.0
 10
69.76144533340826
 20
7.867689224083384
 30
0.0
 10
69.64711685379906
 20
7.806957038376979
 30
0.0
  0
SPLINE
  5
196
330
1F
100
AcDbEntity
  8
SK3
  6
SLD-Dashed
370
    18
100
AcDbSpline
210
0.0
220
0.0
230
1.0
 70
     8
 71
     3
 72
     8
 73
     4
 74
     0
 42
0.000000001
 43
0.00000001
 40
0.062500000000001
 40
0.062500000000001
 40
0.062500000000001
 40
0.062500000000001
 40
0.0937500000000016
 40
0.0937500000000016
 40
0.0937500000000016
 40
0.0937500000000016
 10
69.64711685379906
 20
7.806957038376979
 30
0.0
 10
69.53278837418983
 20
7.746224852670579
 30
0.0
 10
69.3938107619514
 20
7.674080947736871
 30
0.0
 10
69.23046089122576
 20
7.593835556618595
 30
0.0
  0
SPLINE
  5
197
330
1F
100
AcDbEntity
  8
SK3
  6
SLD-Dashed
370
    18
100
AcDbSpline
210
0.0
220
0.0
230
1.0
 70
     8
 71
     3
 72
     8
 73
     4
 74
     0
 42
0.000000001
 43
0.00000001
 40
0.0937500000000016
 40
0.0937500000000016
 40
0.0937500000000016
 40
0.0937500000000016
 40
0.1250000000000021
 40
0.1250000000000021
 40
0.1250000000000021
 40
0.1250000000000021
 10
69.23046089122576
 20
7.593835556618595
 30
0.0
 10
69.06711102050014
 20
7.513590165500312
 30
0.0
 10
68.88241394426446
 20
7.426791183647623
 30
0.0
 10
68.67934721370557
 20
7.338817936513843
 30
0.0
  0
SPLINE
  5
198
330
1F
100
AcDbEntity
  8
SK3
  6
SLD-Dashed
370
    18
100
AcDbSpline
210
0.0
220
0.0
230
1.0
 70
     8
 71
     3
 72
     8
 73
     4
 74
     0
 42
0.000000001
 43
0.00000001
 40
0.1250000000000021
 40
0.1250000000000021
 40
0.1250000000000021
 40
0.1250000000000021
 40
0.1562500000000026
 40
0.1562500000000026
 40
0.1562500000000026
 40
0.1562500000000026
 10
68.67934721370557
 20
7.338817936513843
 30
0.0
 10
68.47628048314667
 20
7.250844689380056
 30
0.0
 10
68.25167377322944
 20
7.16040706496051
 30
0.0
 10
68.01181956354354
 20
7.075255297146518
 30
0.0
  0
SPLINE
  5
199
330
1F
100
AcDbEntity
  8
SK3
  6
SLD-Dashed
370
    18
100
AcDbSpline
210
0.0
220
0.0
230
1.0
 70
     8
 71
     3
 72
     8
 73
     4
 74
     0
 42
0.000000001
 43
0.00000001
 40
0.1562500000000026
 40
0.1562500000000026
 40
0.1562500000000026
 40
0.1562500000000026
 40
0.1875000000000031
 40
0.1875000000000031
 40
0.1875000000000031
 40
0.1875000000000031
 10
68.01181956354354
 20
7.075255297146518
 30
0.0
 10
67.77196535385767
 20
6.99010352933253
 30
0.0
 10
67.51846935811213
 20
6.910628704281469
 30
0.0
 10
67.24986408943602
 20
6.841931330516079
 30
0.0
  0
SPLINE
  5
19A
330
1F
100
AcDbEntity
  8
SK3
  6
SLD-Dashed
370
    18
100
AcDbSpline
210
0.0
220
0.0
230
1.0
 70
     8
 71
     3
 72
     8
 73
     4
 74
     0
 42
0.000000001
 43
0.00000001
 40
0.1875000000000031
 40
0.1875000000000031
 40
0.1875000000000031
 40
0.1875000000000031
 40
0.2187500000000036
 40
0.2187500000000036
 40
0.2187500000000036
 40
0.2187500000000036
 10
67.24986408943602
 20
6.841931330516079
 30
0.0
 10
66.9812588207599
 20
6.773233956750692
 30
0.0
 10
66.69366732111088
 20
6.714987733068789
 30
0.0
 10
66.40154082944252
 20
6.675535623989419
 30
0.0
  0
SPLINE
  5
19B
330
1F
100
AcDbEntity
  8
SK3
  6
SLD-Dashed
370
    18
100
AcDbSpline
210
0.0
220
0.0
230
1.0
 70
     8
 71
     3
 72
     8
 73
     4
 74
     0
 42
0.000000001
 43
0.00000001
 40
0.2187500000000036
 40
0.2187500000000036
 40
0.2187500000000036
 40
0.2187500000000036
 40
0.2500000000000041
 40
0.2500000000000041
 40
0.2500000000000041
 40
0.2500000000000041
 10
66.40154082944252
 20
6.675535623989419
 30
0.0
 10
66.10941433777414
 20
6.636083514910053
 30
0.0
 10
65.81138496606582
 20
6.614699367385922
 30
0.0
 10
65.50689690883135
 20
6.614381873414274
 30
0.0
  0
SPLINE
  5
19C
330
1F
100
AcDbEntity
  8
SK3
  6
SLD-Dashed
370
    18
100
AcDbSpline
210
0.0
220
0.0
230
1.0
 70
     8
 71
     3
 72
     8
 73
     4
 74
     0
 42
0.000000001
 43
0.00000001
 40
0.2500000000000041
 40
0.2500000000000041
 40
0.2500000000000041
 40
0.2500000000000041
 40
0.2812500000000045
 40
0.2812500000000045
 40
0.2812500000000045
 40
0.2812500000000045
 10
65.50689690883135
 20
6.614381873414274
 30
0.0
 10
65.20240885159686
 20
6.614064379442629
 30
0.0
 10
64.90423645263233
 20
6.634830538552485
 30
0.0
 10
64.6118812233209
 20
6.673736207064962
 30
0.0
  0
SPLINE
  5
19D
330
1F
100
AcDbEntity
  8
SK3
  6
SLD-Dashed
370
    18
100
AcDbSpline
210
0.0
220
0.0
230
1.0
 70
     8
 71
     3
 72
     8
 73
     4
 74
     0
 42
0.000000001
 43
0.00000001
 40
0.2812500000000045
 40
0.2812500000000045
 40
0.2812500000000045
 40
0.2812500000000045
 40
0.312500000000005
 40
0.312500000000005
 40
0.312500000000005
 40
0.312500000000005
 10
64.6118812233209
 20
6.673736207064962
 30
0.0
 10
64.31952599400948
 20
6.712641875577439
 30
0.0
 10
64.03168400610724
 20
6.77034980772781
 30
0.0
 10
63.76143388490882
 20
6.839050528877761
 30
0.0
  0
SPLINE
  5
19E
330
1F
100
AcDbEntity
  8
SK3
  6
SLD-Dashed
370
    18
100
AcDbSpline
210
0.0
220
0.0
230
1.0
 70
     8
 71
     3
 72
     8
 73
     4
 74
     0
 42
0.000000001
 43
0.00000001
 40
0.312500000000005
 40
0.312500000000005
 40
0.312500000000005
 40
0.312500000000005
 40
0.3437500000000054
 40
0.3437500000000054
 40
0.3437500000000054
 40
0.3437500000000054
 10
63.76143388490882
 20
6.839050528877761
 30
0.0
 10
63.49118376371044
 20
6.907751250027707
 30
0.0
 10
63.2335910499701
 20
6.988259243251918
 30
0.0
 10
62.99244918078497
 20
7.073740955883665
 30
0.0
  0
SPLINE
  5
19F
330
1F
100
AcDbEntity
  8
SK3
  6
SLD-Dashed
370
    18
100
AcDbSpline
210
0.0
220
0.0
230
1.0
 70
     8
 71
     3
 72
     8
 73
     4
 74
     0
 42
0.000000001
 43
0.00000001
 40
0.3437500000000054
 40
0.3437500000000054
 40
0.3437500000000054
 40
0.3437500000000054
 40
0.3750000000000059
 40
0.3750000000000059
 40
0.3750000000000059
 40
0.3750000000000059
 10
62.99244918078497
 20
7.073740955883665
 30
0.0
 10
62.75130731159985
 20
7.15922266851541
 30
0.0
 10
62.52962353623499
 20
7.248403769343697
 30
0.0
 10
62.32576431760023
 20
7.33660494829998
 30
0.0
  0
SPLINE
  5
1A0
330
1F
100
AcDbEntity
  8
SK3
  6
SLD-Dashed
370
    18
100
AcDbSpline
210
0.0
220
0.0
230
1.0
 70
     8
 71
     3
 72
     8
 73
     4
 74
     0
 42
0.000000001
 43
0.00000001
 40
0.3750000000000059
 40
0.3750000000000059
 40
0.3750000000000059
 40
0.3750000000000059
 40
0.4062500000000059
 40
0.4062500000000059
 40
0.4062500000000059
 40
0.4062500000000059
 10
62.32576431760023
 20
7.33660494829998
 30
0.0
 10
62.12190509896549
 20
7.424806127256264
 30
0.0
 10
61.93479619973814
 20
7.512704344542952
 30
0.0
 10
61.77266262793023
 20
7.592301619747995
 30
0.0
  0
SPLINE
  5
1A1
330
1F
100
AcDbEntity
  8
SK3
  6
SLD-Dashed
370
    18
100
AcDbSpline
210
0.0
220
0.0
230
1.0
 70
     8
 71
     3
 72
     8
 73
     4
 74
     0
 42
0.000000001
 43
0.00000001
 40
0.4062500000000059
 40
0.4062500000000059
 40
0.4062500000000059
 40
0.4062500000000059
 40
0.4375000000000059
 40
0.4375000000000059
 40
0.4375000000000059
 40
0.4375000000000059
 10
61.77266262793023
 20
7.592301619747995
 30
0.0
 10
61.61052905612231
 20
7.671898894953042
 30
0.0
 10
61.47150805821445
 20
7.743981812986886
 30
0.0
 10
61.35653749694225
 20
7.805016432669808
 30
0.0
  0
SPLINE
  5
1A2
330
1F
100
AcDbEntity
  8
SK3
  6
SLD-Dashed
370
    18
100
AcDbSpline
210
0.0
220
0.0
230
1.0
 70
     8
 71
     3
 72
     8
 73
     4
 74
     0
 42
0.000000001
 43
0.00000001
 40
0.4375000000000059
 40
0.4375000000000059
 40
0.4375000000000059
 40
0.4375000000000059
 40
0.4687500000000059
 40
0.4687500000000059
 40
0.4687500000000059
 40
0.4687500000000059
 10
61.35653749694225
 20
7.805016432669808
 30
0.0
 10
61.24156693567002
 20
7.866051052352729
 30
0.0
 10
61.15146363610699
 20
7.915636269537671
 30
0.0
 10
61.09172666379027
 20
7.948765552382185
 30
0.0
  0
SPLINE
  5
1A3
330
1F
100
AcDbEntity
  8
SK3
  6
SLD-Dashed
370
    18
100
AcDbSpline
210
0.0
220
0.0
230
1.0
 70
     8
 71
     3
 72
     8
 73
     4
 74
     0
 42
0.000000001
 43
0.00000001
 40
0.4687500000000059
 40
0.4687500000000059
 40
0.4687500000000059
 40
0.4687500000000059
 40
0.5000000000000059
 40
0.5000000000000059
 40
0.5000000000000059
 40
0.5000000000000059
 10
61.09172666379027
 20
7.948765552382185
 30
0.0
 10
61.03198969147354
 20
7.981894835226696
 30
0.0
 10
61.00077772980622
 20
7.999562527919026
 30
0.0
 10
61.00001419919224
 20
7.999992012963003
 30
0.0
  0
SPLINE
  5
1A4
330
1F
100
AcDbEntity
  8
SK3
  6
SLD-Dashed
370
    18
100
AcDbSpline
210
0.0
220
0.0
230
1.0
 70
     8
 71
     3
 72
     8
 73
     4
 74
     0
 42
0.000000001
 43
0.00000001
 40
0.5000000000000059
 40
0.5000000000000059
 40
0.5000000000000059
 40
0.5000000000000059
 40
0.5312500000000059
 40
0.5312500000000059
 40
0.5312500000000059
 40
0.5312500000000059
 10
61.00001419919224
 20
7.999992012963003
 30
0.0
 10
60.99925066857821
 20
8.00042149800698
 30
0.0
 10
61.02920713299412
 20
7.983457755170505
 30
0.0
 10
61.08798660710303
 20
7.95084034420904
 30
0.0
  0
SPLINE
  5
1A5
330
1F
100
AcDbEntity
  8
SK3
  6
SLD-Dashed
370
    18
100
AcDbSpline
210
0.0
220
0.0
230
1.0
 70
     8
 71
     3
 72
     8
 73
     4
 74
     0
 42
0.000000001
 43
0.00000001
 40
0.5312500000000059
 40
0.5312500000000059
 40
0.5312500000000059
 40
0.5312500000000059
 40
0.5625000000000058
 40
0.5625000000000058
 40
0.5625000000000058
 40
0.5625000000000058
 10
61.08798660710303
 20
7.95084034420904
 30
0.0
 10
61.14676608121197
 20
7.918222933247582
 30
0.0
 10
61.23594005271934
 20
7.869108127840241
 30
0.0
 10
61.35005812749554
 20
7.808458077313705
 30
0.0
  0
SPLINE
  5
1A6
330
1F
100
AcDbEntity
  8
SK3
  6
SLD-Dashed
370
    18
100
AcDbSpline
210
0.0
220
0.0
230
1.0
 70
     8
 71
     3
 72
     8
 73
     4
 74
     0
 42
0.000000001
 43
0.00000001
 40
0.5625000000000058
 40
0.5625000000000058
 40
0.5625000000000058
 40
0.5625000000000058
 40
0.5937500000000058
 40
0.5937500000000058
 40
0.5937500000000058
 40
0.5937500000000058
 10
61.35005812749554
 20
7.808458077313705
 30
0.0
 10
61.46417620227177
 20
7.747808026787168
 30
0.0
 10
61.6031268151734
 20
7.67563210359852
 30
0.0
 10
61.76670255125256
 20
7.595229413310971
 30
0.0
  0
SPLINE
  5
1A7
330
1F
100
AcDbEntity
  8
SK3
  6
SLD-Dashed
370
    18
100
AcDbSpline
210
0.0
220
0.0
230
1.0
 70
     8
 71
     3
 72
     8
 73
     4
 74
     0
 42
0.000000001
 43
0.00000001
 40
0.5937500000000058
 40
0.5937500000000058
 40
0.5937500000000058
 40
0.5937500000000058
 40
0.6250000000000058
 40
0.6250000000000058
 40
0.6250000000000058
 40
0.6250000000000058
 10
61.76670255125256
 20
7.595229413310971
 30
0.0
 10
61.93027828733173
 20
7.514826723023417
 30
0.0
 10
62.114454005085
 20
7.428215304121334
 30
0.0
 10
62.31768445335256
 20
7.340104375173018
 30
0.0
  0
SPLINE
  5
1A8
330
1F
100
AcDbEntity
  8
SK3
  6
SLD-Dashed
370
    18
100
AcDbSpline
210
0.0
220
0.0
230
1.0
 70
     8
 71
     3
 72
     8
 73
     4
 74
     0
 42
0.000000001
 43
0.00000001
 40
0.6250000000000058
 40
0.6250000000000058
 40
0.6250000000000058
 40
0.6250000000000058
 40
0.6562500000000052
 40
0.6562500000000052
 40
0.6562500000000052
 40
0.6562500000000052
 10
62.31768445335256
 20
7.340104375173018
 30
0.0
 10
62.52091490162012
 20
7.251993446224701
 30
0.0
 10
62.74610790779075
 20
7.161262629541126
 30
0.0
 10
62.98589417627684
 20
7.076067275886992
 30
0.0
  0
SPLINE
  5
1A9
330
1F
100
AcDbEntity
  8
SK3
  6
SLD-Dashed
370
    18
100
AcDbSpline
210
0.0
220
0.0
230
1.0
 70
     8
 71
     3
 72
     8
 73
     4
 74
     0
 42
0.000000001
 43
0.00000001
 40
0.6562500000000052
 40
0.6562500000000052
 40
0.6562500000000052
 40
0.6562500000000052
 40
0.6875000000000048
 40
0.6875000000000048
 40
0.6875000000000048
 40
0.6875000000000048
 10
62.98589417627684
 20
7.076067275886992
 30
0.0
 10
63.22568044476293
 20
6.990871922232856
 30
0.0
 10
63.47939459028228
 20
6.911230157653332
 30
0.0
 10
63.74864052867403
 20
6.842313935928636
 30
0.0
  0
SPLINE
  5
1AA
330
1F
100
AcDbEntity
  8
SK3
  6
SLD-Dashed
370
    18
100
AcDbSpline
210
0.0
220
0.0
230
1.0
 70
     8
 71
     3
 72
     8
 73
     4
 74
     0
 42
0.000000001
 43
0.00000001
 40
0.6875000000000048
 40
0.6875000000000048
 40
0.6875000000000048
 40
0.6875000000000048
 40
0.7187500000000043
 40
0.7187500000000043
 40
0.7187500000000043
 40
0.7187500000000043
 10
63.74864052867403
 20
6.842313935928636
 30
0.0
 10
64.01788646706575
 20
6.773397714203943
 30
0.0
 10
64.30602047818493
 20
6.715036994504011
 30
0.0
 10
64.59829407969815
 20
6.675557921755115
 30
0.0
  0
SPLINE
  5
1AB
330
1F
100
AcDbEntity
  8
SK3
  6
SLD-Dashed
370
    18
100
AcDbSpline
210
0.0
220
0.0
230
1.0
 70
     8
 71
     3
 72
     8
 73
     4
 74
     0
 42
0.000000001
 43
0.00000001
 40
0.7187500000000043
 40
0.7187500000000043
 40
0.7187500000000043
 40
0.7187500000000043
 40
0.7500000000000038
 40
0.7500000000000038
 40
0.7500000000000038
 40
0.7500000000000038
 10
64.59829407969815
 20
6.675557921755115
 30
0.0
 10
64.89056768121134
 20
6.636078849006153
 30
0.0
 10
65.1907054906511
 20
6.614616325727997
 30
0.0
 10
65.49486665294287
 20
6.614380269628385
 30
0.0
  0
SPLINE
  5
1AC
330
1F
100
AcDbEntity
  8
SK3
  6
SLD-Dashed
370
    18
100
AcDbSpline
210
0.0
220
0.0
230
1.0
 70
     8
 71
     3
 72
     8
 73
     4
 74
     0
 42
0.000000001
 43
0.00000001
 40
0.7500000000000038
 40
0.7500000000000038
 40
0.7500000000000038
 40
0.7500000000000038
 40
0.7812500000000033
 40
0.7812500000000033
 40
0.7812500000000033
 40
0.7812500000000033
 10
65.49486665294287
 20
6.614380269628383
 30
0.0
 10
65.79902781523467
 20
6.614144213528911
 30
0.0
 10
66.09738188957718
 20
6.634949233349198
 30
0.0
 10
66.39036921514533
 20
6.674036060681607
 30
0.0
  0
SPLINE
  5
1AD
330
1F
100
AcDbEntity
  8
SK3
  6
SLD-Dashed
370
    18
100
AcDbSpline
210
0.0
220
0.0
230
1.0
 70
     8
 71
     3
 72
     8
 73
     4
 74
     0
 42
0.000000001
 43
0.00000001
 40
0.7812500000000033
 40
0.7812500000000033
 40
0.7812500000000033
 40
0.7812500000000033
 40
0.8125000000000029
 40
0.8125000000000029
 40
0.8125000000000029
 40
0.8125000000000029
 10
66.39036921514534
 20
6.67403606068161
 30
0.0
 10
66.68335654071353
 20
6.713122888013949
 30
0.0
 10
66.97133606294669
 20
6.770999145119597
 30
0.0
 10
67.24178675407333
 20
6.839869961970418
 30
0.0
  0
SPLINE
  5
1AE
330
1F
100
AcDbEntity
  8
SK3
  6
SLD-Dashed
370
    18
100
AcDbSpline
210
0.0
220
0.0
230
1.0
 70
     8
 71
     3
 72
     8
 73
     4
 74
     0
 42
0.000000001
 43
0.00000001
 40
0.8125000000000029
 40
0.8125000000000029
 40
0.8125000000000029
 40
0.8125000000000029
 40
0.8437500000000024
 40
0.8437500000000024
 40
0.8437500000000024
 40
0.8437500000000024
 10
67.24178675407333
 20
6.839869961970418
 30
0.0
 10
67.51223744519991
 20
6.90874077882124
 30
0.0
 10
67.77074161530808
 20
6.989673126553277
 30
0.0
 10
68.01168378033944
 20
7.075207093253173
 30
0.0
  0
SPLINE
  5
1AF
330
1F
100
AcDbEntity
  8
SK3
  6
SLD-Dashed
370
    18
100
AcDbSpline
210
0.0
220
0.0
230
1.0
 70
     8
 71
     3
 72
     8
 73
     4
 74
     0
 42
0.000000001
 43
0.00000001
 40
0.8437500000000024
 40
0.8437500000000024
 40
0.8437500000000024
 40
0.8437500000000024
 40
0.8750000000000019
 40
0.8750000000000019
 40
0.8750000000000019
 40
0.8750000000000019
 10
68.01168378033944
 20
7.075207093253173
 30
0.0
 10
68.25262594537077
 20
7.160741059953065
 30
0.0
 10
68.47439725571286
 20
7.250048342873554
 30
0.0
 10
68.6784853756522
 20
7.338444609263924
 30
0.0
  0
SPLINE
  5
1B0
330
1F
100
AcDbEntity
  8
SK3
  6
SLD-Dashed
370
    18
100
AcDbSpline
210
0.0
220
0.0
230
1.0
 70
     8
 71
     3
 72
     8
 73
     4
 74
     0
 42
0.000000001
 43
0.00000001
 40
0.8750000000000019
 40
0.8750000000000019
 40
0.8750000000000019
 40
0.8750000000000019
 40
0.9062500000000014
 40
0.9062500000000014
 40
0.9062500000000014
 40
0.9062500000000014
 10
68.6784853756522
 20
7.338444609263924
 30
0.0
 10
68.88257349559154
 20
7.426840875654293
 30
0.0
 10
69.0694762623205
 20
7.514738465825965
 30
0.0
 10
69.23130566180828
 20
7.594250584609535
 30
0.0
  0
SPLINE
  5
1B1
330
1F
100
AcDbEntity
  8
SK3
  6
SLD-Dashed
370
    18
100
AcDbSpline
210
0.0
220
0.0
230
1.0
 70
     8
 71
     3
 72
     8
 73
     4
 74
     0
 42
0.000000001
 43
0.00000001
 40
0.9062500000000014
 40
0.9062500000000014
 40
0.9062500000000014
 40
0.9062500000000014
 40
0.937500000000001
 40
0.937500000000001
 40
0.937500000000001
 40
0.937500000000001
 10
69.23130566180828
 20
7.594250584609535
 30
0.0
 10
69.39313506129605
 20
7.673762703393101
 30
0.0
 10
69.53206163155369
 20
7.745840814320449
 30
0.0
 10
69.64692641080896
 20
7.806855875233297
 30
0.0
  0
SPLINE
  5
1B2
330
1F
100
AcDbEntity
  8
SK3
  6
SLD-Dashed
370
    18
100
AcDbSpline
210
0.0
220
0.0
230
1.0
 70
     8
 71
     3
 72
     8
 73
     4
 74
     0
 42
0.000000001
 43
0.00000001
 40
0.937500000000001
 40
0.937500000000001
 40
0.937500000000001
 40
0.937500000000001
 40
0.9531250000000007
 40
0.9531250000000007
 40
0.9531250000000007
 40
0.9531250000000007
 10
69.64692641080894
 20
7.80685587523329
 30
0.0
 10
69.70435880043654
 20
7.837363405689711
 30
0.0
 10
69.75591528186426
 20
7.865205352799268
 30
0.0
 10
69.7998952934356
 20
7.889176099854121
 30
0.0
  0
SPLINE
  5
1B3
330
1F
100
AcDbEntity
  8
SK3
  6
SLD-Dashed
370
    18
100
AcDbSpline
210
0.0
220
0.0
230
1.0
 70
     8
 71
     3
 72
     8
 73
     4
 74
     0
 42
0.000000001
 43
0.00000001
 40
0.9531250000000007
 40
0.9531250000000007
 40
0.9531250000000007
 40
0.9531250000000007
 40
0.9687500000000003
 40
0.9687500000000003
 40
0.9687500000000003
 40
0.9687500000000003
 10
69.7998952934356
 20
7.889176099854121
 30
0.0
 10
69.84387530500693
 20
7.913146846908976
 30
0.0
 10
69.88061687514717
 20
7.933422906770028
 30
0.0
 10
69.91018434340617
 20
7.949825529080804
 30
0.0
  0
SPLINE
  5
1B4
330
1F
100
AcDbEntity
  8
SK3
  6
SLD-Dashed
370
    18
100
AcDbSpline
210
0.0
220
0.0
230
1.0
 70
     8
 71
     2
 72
     6
 73
     3
 74
     0
 42
0.000000001
 43
0.00000001
 40
0.9687500000000003
 40
0.9687500000000003
 40
0.9687500000000003
 40
1.0
 40
1.0
 40
1.0
 10
69.91018434340617
 20
7.949825529080804
 30
0.0
 10
69.96931927992424
 20
7.98263077370235
 30
0.0
 10
69.99999999999999
 20
7.999999999999989
 30
0.0
  0
SPLINE
  5
1B5
330
1F
100
AcDbEntity
  8
SK3
  6
SLD-Dashed
370
    18
100
AcDbSpline
210
0.0
220
0.0
230
1.0
 70
    24
 71
     3
 72
     8
 73
     4
 74
     0
 42
0.000000001
 43
0.00000001
 40
0.0
 40
0.0
 40
0.0
 40
0.0
 40
0.0624992248703141
 40
0.0624992248703141
 40
0.0624992248703141
 40
0.0624992248703141
 10
2.290989260508781
 20
16.15
 30
0.0
 10
2.290486041040367
 20
16.15
 30
0.0
 10
2.289982821571987
 20
16.15
 30
0.0
 10
2.288661319703379
 20
16.15
 30
0.0
  0
SPLINE
  5
1B6
330
1F
100
AcDbEntity
  8
SK3
  6
SLD-Dashed
370
    18
100
AcDbSpline
210
0.0
220
0.0
230
1.0
 70
    24
 71
     3
 72
     8
 73
     4
 74
     0
 42
0.000000001
 43
0.00000001
 40
0.0624992248703141
 40
0.0624992248703141
 40
0.0624992248703141
 40
0.0624992248703141
 40
0.1249981207091081
 40
0.1249981207091081
 40
0.1249981207091081
 40
0.1249981207091081
 10
2.288661319703379
 20
16.15
 30
0.0
 10
2.287339824791915
 20
16.15
 30
0.0
 10
2.285200056096073
 20
16.15
 30
0.0
 10
2.282807380208696
 20
16.15
 30
0.0
  0
SPLINE
  5
1B7
330
1F
100
AcDbEntity
  8
SK3
  6
SLD-Dashed
370
    18
100
AcDbSpline
210
0.0
220
0.0
230
1.0
 70
    24
 71
     3
 72
     8
 73
     4
 74
     0
 42
0.000000001
 43
0.00000001
 40
0.1249981207091081
 40
0.1249981207091081
 40
0.1249981207091081
 40
0.1249981207091081
 40
0.1874998698098565
 40
0.1874998698098565
 40
0.1874998698098565
 40
0.1874998698098565
 10
2.282807380208696
 20
16.15
 30
0.0
 10
2.280414595088494
 20
16.15
 30
0.0
 10
2.277768879684276
 20
16.15
 30
0.0
 10
2.275007817365282
 20
16.15
 30
0.0
  0
SPLINE
  5
1B8
330
1F
100
AcDbEntity
  8
SK3
  6
SLD-Dashed
370
    18
100
AcDbSpline
210
0.0
220
0.0
230
1.0
 70
    24
 71
     3
 72
     8
 73
     4
 74
     0
 42
0.000000001
 43
0.00000001
 40
0.1874998698098565
 40
0.1874998698098565
 40
0.1874998698098565
 40
0.1874998698098565
 40
0.2187516530833252
 40
0.2187516530833252
 40
0.2187516530833252
 40
0.2187516530833252
 10
2.275007817365282
 20
16.15
 30
0.0
 10
2.273627246062234
 20
16.15
 30
0.0
 10
2.272217836353438
 20
16.15
 30
0.0
 10
2.270811202430382
 20
16.15
 30
0.0
  0
SPLINE
  5
1B9
330
1F
100
AcDbEntity
  8
SK3
  6
SLD-Dashed
370
    18
100
AcDbSpline
210
0.0
220
0.0
230
1.0
 70
    24
 71
     3
 72
     8
 73
     4
 74
     0
 42
0.000000001
 43
0.00000001
 40
0.2187516530833252
 40
0.2187516530833252
 40
0.2187516530833252
 40
0.2187516530833252
 40
0.2500034075466029
 40
0.2500034075466029
 40
0.2500034075466029
 40
0.2500034075466029
 10
2.270811202430382
 20
16.15
 30
0.0
 10
2.269404569804068
 20
16.15
 30
0.0
 10
2.268000712958358
 20
16.15
 30
0.0
 10
2.266622136182353
 20
16.15
 30
0.0
  0
SPLINE
  5
1BA
330
1F
100
AcDbEntity
  8
SK3
  6
SLD-Dashed
370
    18
100
AcDbSpline
210
0.0
220
0.0
230
1.0
 70
    24
 71
     3
 72
     8
 73
     4
 74
     0
 42
0.000000001
 43
0.00000001
 40
0.2500034075466029
 40
0.2500034075466029
 40
0.2500034075466029
 40
0.2500034075466029
 40
0.3125051618071285
 40
0.3125051618071285
 40
0.3125051618071285
 40
0.3125051618071285
 10
2.266622136182353
 20
16.15
 30
0.0
 10
2.263865060032136
 20
16.15
 30
0.0
 10
2.26120909848318
 20
16.15
 30
0.0
 10
2.258813873393058
 20
16.15
 30
0.0
  0
SPLINE
  5
1BB
330
1F
100
AcDbEntity
  8
SK3
  6
SLD-Dashed
370
    18
100
AcDbSpline
210
0.0
220
0.0
230
1.0
 70
    24
 71
     3
 72
     8
 73
     4
 74
     0
 42
0.000000001
 43
0.00000001
 40
0.3125051618071285
 40
0.3125051618071285
 40
0.3125051618071285
 40
0.3125051618071285
 40
0.3750028594466697
 40
0.3750028594466697
 40
0.3750028594466697
 40
0.3750028594466697
 10
2.258813873393058
 20
16.15
 30
0.0
 10
2.256418803762927
 20
16.15
 30
0.0
 10
2.254284436747016
 20
16.15
 30
0.0
 10
2.25252818839914
 20
16.15
 30
0.0
  0
SPLINE
  5
1BC
330
1F
100
AcDbEntity
  8
SK3
  6
SLD-Dashed
370
    18
100
AcDbSpline
210
0.0
220
0.0
230
1.0
 70
    24
 71
     3
 72
     8
 73
     4
 74
     0
 42
0.000000001
 43
0.00000001
 40
0.3750028594466697
 40
0.3750028594466697
 40
0.3750028594466697
 40
0.3750028594466697
 40
0.4374963150544327
 40
0.4374963150544327
 40
0.4374963150544327
 40
0.4374963150544327
 10
2.25252818839914
 20
16.15
 30
0.0
 10
2.250772059256667
 20
16.15
 30
0.0
 10
2.249393997454392
 20
16.15
 30
0.0
 10
2.248467010054343
 20
16.15
 30
0.0
  0
SPLINE
  5
1BD
330
1F
100
AcDbEntity
  8
SK3
  6
SLD-Dashed
370
    18
100
AcDbSpline
210
0.0
220
0.0
230
1.0
 70
    24
 71
     3
 72
     8
 73
     4
 74
     0
 42
0.000000001
 43
0.00000001
 40
0.5624788537194504
 40
0.5624788537194504
 40
0.5624788537194504
 40
0.5624788537194504
 40
0.6249738090629542
 40
0.6249738090629542
 40
0.6249738090629542
 40
0.6249738090629542
 10
2.248467010054343
 20
16.15
 30
0.0
 10
2.249393861206185
 20
16.15
 30
0.0
 10
2.250771923870846
 20
16.15
 30
0.0
 10
2.25252818839914
 20
16.15
 30
0.0
  0
SPLINE
  5
1BE
330
1F
100
AcDbEntity
  8
SK3
  6
SLD-Dashed
370
    18
100
AcDbSpline
210
0.0
220
0.0
230
1.0
 70
    24
 71
     3
 72
     8
 73
     4
 74
     0
 42
0.000000001
 43
0.00000001
 40
0.6249738090629542
 40
0.6249738090629542
 40
0.6249738090629542
 40
0.6249738090629542
 40
0.68747382895931
 40
0.68747382895931
 40
0.68747382895931
 40
0.68747382895931
 10
2.25252818839914
 20
16.15
 30
0.0
 10
2.254284347676612
 20
16.15
 30
0.0
 10
2.256418716799914
 20
16.15
 30
0.0
 10
2.258813873393058
 20
16.15
 30
0.0
  0
SPLINE
  5
1BF
330
1F
100
AcDbEntity
  8
SK3
  6
SLD-Dashed
370
    18
100
AcDbSpline
210
0.0
220
0.0
230
1.0
 70
    24
 71
     3
 72
     8
 73
     4
 74
     0
 42
0.000000001
 43
0.00000001
 40
0.68747382895931
 40
0.68747382895931
 40
0.68747382895931
 40
0.68747382895931
 40
0.7499784693677922
 40
0.7499784693677922
 40
0.7499784693677922
 40
0.7499784693677922
 10
2.258813873393064
 20
16.14999999999999
 30
0.0
 10
2.261209031220547
 20
16.15
 30
0.0
 10
2.2638649959318
 20
16.15
 30
0.0
 10
2.26662213618236
 20
16.15
 30
0.0
  0
SPLINE
  5
1C0
330
1F
100
AcDbEntity
  8
SK3
  6
SLD-Dashed
370
    18
100
AcDbSpline
210
0.0
220
0.0
230
1.0
 70
    24
 71
     3
 72
     8
 73
     4
 74
     0
 42
0.000000001
 43
0.00000001
 40
0.7499784693677922
 40
0.7499784693677922
 40
0.7499784693677922
 40
0.7499784693677922
 40
0.781231780634634
 40
0.781231780634634
 40
0.781231780634634
 40
0.781231780634634
 10
2.266622136182353
 20
16.15
 30
0.0
 10
2.268000698986743
 20
16.15
 30
0.0
 10
2.269404556343745
 20
16.15
 30
0.0
 10
2.270811202430382
 20
16.15
 30
0.0
  0
SPLINE
  5
1C1
330
1F
100
AcDbEntity
  8
SK3
  6
SLD-Dashed
370
    18
100
AcDbSpline
210
0.0
220
0.0
230
1.0
 70
    24
 71
     3
 72
     8
 73
     4
 74
     0
 42
0.000000001
 43
0.00000001
 40
0.781231780634634
 40
0.781231780634634
 40
0.781231780634634
 40
0.781231780634634
 40
0.8124851079714858
 40
0.8124851079714858
 40
0.8124851079714858
 40
0.8124851079714858
 10
2.270811202430382
 20
16.15
 30
0.0
 10
2.272217824030698
 20
16.15
 30
0.0
 10
2.273627234313555
 20
16.15
 30
0.0
 10
2.275007817365282
 20
16.15
 30
0.0
  0
SPLINE
  5
1C2
330
1F
100
AcDbEntity
  8
SK3
  6
SLD-Dashed
370
    18
100
AcDbSpline
210
0.0
220
0.0
230
1.0
 70
    24
 71
     3
 72
     8
 73
     4
 74
     0
 42
0.000000001
 43
0.00000001
 40
0.8124851079714858
 40
0.8124851079714858
 40
0.8124851079714858
 40
0.8124851079714858
 40
0.8749905351124113
 40
0.8749905351124113
 40
0.8749905351124113
 40
0.8749905351124113
 10
2.275007817365282
 20
16.15
 30
0.0
 10
2.277768834367623
 20
16.15
 30
0.0
 10
2.280414550936402
 20
16.15
 30
0.0
 10
2.282807380208696
 20
16.15
 30
0.0
  0
SPLINE
  5
1C3
330
1F
100
AcDbEntity
  8
SK3
  6
SLD-Dashed
370
    18
100
AcDbSpline
210
0.0
220
0.0
230
1.0
 70
    24
 71
     3
 72
     8
 73
     4
 74
     0
 42
0.000000001
 43
0.00000001
 40
0.8749905351124113
 40
0.8749905351124113
 40
0.8749905351124113
 40
0.8749905351124113
 40
0.937494540917328
 40
0.937494540917328
 40
0.937494540917328
 40
0.937494540917328
 10
2.282807380208696
 20
16.15
 30
0.0
 10
2.285200023589076
 20
16.15
 30
0.0
 10
2.287339805069129
 20
16.15
 30
0.0
 10
2.288661319703379
 20
16.15
 30
0.0
  0
SPLINE
  5
1C4
330
1F
100
AcDbEntity
  8
SK3
  6
SLD-Dashed
370
    18
100
AcDbSpline
210
0.0
220
0.0
230
1.0
 70
    24
 71
     3
 72
     8
 73
     4
 74
     0
 42
0.000000001
 43
0.00000001
 40
0.937494540917328
 40
0.937494540917328
 40
0.937494540917328
 40
0.937494540917328
 40
1.0
 40
1.0
 40
1.0
 40
1.0
 10
2.288661319703379
 20
16.15
 30
0.0
 10
2.289982816538513
 20
16.15
 30
0.0
 10
2.290486038523651
 20
16.15
 30
0.0
 10
2.290989260508781
 20
16.15
 30
0.0
  0
SPLINE
  5
1C5
330
1F
100
AcDbEntity
  8
SK3
  6
SLD-Dashed
370
    18
100
AcDbSpline
210
0.0
220
0.0
230
1.0
 70
    24
 71
     3
 72
     8
 73
     4
 74
     0
 42
0.000000001
 43
0.00000001
 40
0.0
 40
0.0
 40
0.0
 40
0.0
 40
0.0624992248703156
 40
0.0624992248703156
 40
0.0624992248703156
 40
0.0624992248703156
 10
2.290989260508781
 20
-16.15
 30
0.0
 10
2.290486041040367
 20
-16.15
 30
0.0
 10
2.289982821571959
 20
-16.15
 30
0.0
 10
2.288661319703365
 20
-16.15
 30
0.0
  0
SPLINE
  5
1C6
330
1F
100
AcDbEntity
  8
SK3
  6
SLD-Dashed
370
    18
100
AcDbSpline
210
0.0
220
0.0
230
1.0
 70
    24
 71
     3
 72
     8
 73
     4
 74
     0
 42
0.000000001
 43
0.00000001
 40
0.0624992248703156
 40
0.0624992248703156
 40
0.0624992248703156
 40
0.0624992248703156
 40
0.124998120709109
 40
0.124998120709109
 40
0.124998120709109
 40
0.124998120709109
 10
2.288661319703365
 20
-16.15
 30
0.0
 10
2.287339824791915
 20
-16.15
 30
0.0
 10
2.285200056096073
 20
-16.15000000000001
 30
0.0
 10
2.282807380208709
 20
-16.15000000000001
 30
0.0
  0
SPLINE
  5
1C7
330
1F
100
AcDbEntity
  8
SK3
  6
SLD-Dashed
370
    18
100
AcDbSpline
210
0.0
220
0.0
230
1.0
 70
    24
 71
     3
 72
     8
 73
     4
 74
     0
 42
0.000000001
 43
0.00000001
 40
0.124998120709109
 40
0.124998120709109
 40
0.124998120709109
 40
0.124998120709109
 40
0.1874998698098564
 40
0.1874998698098564
 40
0.1874998698098564
 40
0.1874998698098564
 10
2.282807380208709
 20
-16.15000000000001
 30
0.0
 10
2.280414595088473
 20
-16.15000000000001
 30
0.0
 10
2.277768879684262
 20
-16.15000000000001
 30
0.0
 10
2.275007817365268
 20
-16.15
 30
0.0
  0
SPLINE
  5
1C8
330
1F
100
AcDbEntity
  8
SK3
  6
SLD-Dashed
370
    18
100
AcDbSpline
210
0.0
220
0.0
230
1.0
 70
    24
 71
     3
 72
     8
 73
     4
 74
     0
 42
0.000000001
 43
0.00000001
 40
0.1874998698098564
 40
0.1874998698098564
 40
0.1874998698098564
 40
0.1874998698098564
 40
0.2187516530833249
 40
0.2187516530833249
 40
0.2187516530833249
 40
0.2187516530833249
 10
2.275007817365268
 20
-16.15
 30
0.0
 10
2.273627246062261
 20
-16.15000000000001
 30
0.0
 10
2.272217836353452
 20
-16.15
 30
0.0
 10
2.270811202430382
 20
-16.15
 30
0.0
  0
SPLINE
  5
1C9
330
1F
100
AcDbEntity
  8
SK3
  6
SLD-Dashed
370
    18
100
AcDbSpline
210
0.0
220
0.0
230
1.0
 70
    24
 71
     3
 72
     8
 73
     4
 74
     0
 42
0.000000001
 43
0.00000001
 40
0.2187516530833249
 40
0.2187516530833249
 40
0.2187516530833249
 40
0.2187516530833249
 40
0.2500034075466027
 40
0.2500034075466027
 40
0.2500034075466027
 40
0.2500034075466027
 10
2.270811202430382
 20
-16.15
 30
0.0
 10
2.269404569804068
 20
-16.15
 30
0.0
 10
2.268000712958386
 20
-16.15
 30
0.0
 10
2.266622136182353
 20
-16.15
 30
0.0
  0
SPLINE
  5
1CA
330
1F
100
AcDbEntity
  8
SK3
  6
SLD-Dashed
370
    18
100
AcDbSpline
210
0.0
220
0.0
230
1.0
 70
    24
 71
     3
 72
     8
 73
     4
 74
     0
 42
0.000000001
 43
0.00000001
 40
0.2500034075466027
 40
0.2500034075466027
 40
0.2500034075466027
 40
0.2500034075466027
 40
0.3125051618071285
 40
0.3125051618071285
 40
0.3125051618071285
 40
0.3125051618071285
 10
2.266622136182353
 20
-16.15
 30
0.0
 10
2.263865060032122
 20
-16.15
 30
0.0
 10
2.261209098483166
 20
-16.15000000000001
 30
0.0
 10
2.258813873393072
 20
-16.15
 30
0.0
  0
SPLINE
  5
1CB
330
1F
100
AcDbEntity
  8
SK3
  6
SLD-Dashed
370
    18
100
AcDbSpline
210
0.0
220
0.0
230
1.0
 70
    24
 71
     3
 72
     8
 73
     4
 74
     0
 42
0.000000001
 43
0.00000001
 40
0.3125051618071285
 40
0.3125051618071285
 40
0.3125051618071285
 40
0.3125051618071285
 40
0.3750028594466696
 40
0.3750028594466696
 40
0.3750028594466696
 40
0.3750028594466696
 10
2.258813873393072
 20
-16.15
 30
0.0
 10
2.256418803762927
 20
-16.15
 30
0.0
 10
2.254284436747016
 20
-16.15
 30
0.0
 10
2.252528188399154
 20
-16.15
 30
0.0
  0
SPLINE
  5
1CC
330
1F
100
AcDbEntity
  8
SK3
  6
SLD-Dashed
370
    18
100
AcDbSpline
210
0.0
220
0.0
230
1.0
 70
    24
 71
     3
 72
     8
 73
     4
 74
     0
 42
0.000000001
 43
0.00000001
 40
0.3750028594466696
 40
0.3750028594466696
 40
0.3750028594466696
 40
0.3750028594466696
 40
0.4374963150544334
 40
0.4374963150544334
 40
0.4374963150544334
 40
0.4374963150544334
 10
2.252528188399154
 20
-16.15
 30
0.0
 10
2.250772059256695
 20
-16.15
 30
0.0
 10
2.249393997454406
 20
-16.15000000000001
 30
0.0
 10
2.248467010054357
 20
-16.15000000000001
 30
0.0
  0
SPLINE
  5
1CD
330
1F
100
AcDbEntity
  8
SK3
  6
SLD-Dashed
370
    18
100
AcDbSpline
210
0.0
220
0.0
230
1.0
 70
    24
 71
     3
 72
     8
 73
     4
 74
     0
 42
0.000000001
 43
0.00000001
 40
0.562478853719451
 40
0.562478853719451
 40
0.562478853719451
 40
0.562478853719451
 40
0.6249738090629542
 40
0.6249738090629542
 40
0.6249738090629542
 40
0.6249738090629542
 10
2.248467010054357
 20
-16.15000000000001
 30
0.0
 10
2.249393861206199
 20
-16.15000000000001
 30
0.0
 10
2.25077192387084
 20
-16.15000000000001
 30
0.0
 10
2.252528188399154
 20
-16.15
 30
0.0
  0
SPLINE
  5
1CE
330
1F
100
AcDbEntity
  8
SK3
  6
SLD-Dashed
370
    18
100
AcDbSpline
210
0.0
220
0.0
230
1.0
 70
    24
 71
     3
 72
     8
 73
     4
 74
     0
 42
0.000000001
 43
0.00000001
 40
0.6249738090629542
 40
0.6249738090629542
 40
0.6249738090629542
 40
0.6249738090629542
 40
0.68747382895931
 40
0.68747382895931
 40
0.68747382895931
 40
0.68747382895931
 10
2.252528188399154
 20
-16.15
 30
0.0
 10
2.254284347676591
 20
-16.15
 30
0.0
 10
2.256418716799914
 20
-16.15
 30
0.0
 10
2.258813873393072
 20
-16.15
 30
0.0
  0
SPLINE
  5
1CF
330
1F
100
AcDbEntity
  8
SK3
  6
SLD-Dashed
370
    18
100
AcDbSpline
210
0.0
220
0.0
230
1.0
 70
    24
 71
     3
 72
     8
 73
     4
 74
     0
 42
0.000000001
 43
0.00000001
 40
0.68747382895931
 40
0.68747382895931
 40
0.68747382895931
 40
0.68747382895931
 40
0.7499784693677924
 40
0.7499784693677924
 40
0.7499784693677924
 40
0.7499784693677924
 10
2.258813873393072
 20
-16.15
 30
0.0
 10
2.261209031220561
 20
-16.15000000000001
 30
0.0
 10
2.263864995931793
 20
-16.15000000000001
 30
0.0
 10
2.266622136182353
 20
-16.15
 30
0.0
  0
SPLINE
  5
1D0
330
1F
100
AcDbEntity
  8
SK3
  6
SLD-Dashed
370
    18
100
AcDbSpline
210
0.0
220
0.0
230
1.0
 70
    24
 71
     3
 72
     8
 73
     4
 74
     0
 42
0.000000001
 43
0.00000001
 40
0.7499784693677924
 40
0.7499784693677924
 40
0.7499784693677924
 40
0.7499784693677924
 40
0.7812317806346342
 40
0.7812317806346342
 40
0.7812317806346342
 40
0.7812317806346342
 10
2.266622136182353
 20
-16.15
 30
0.0
 10
2.268000698986729
 20
-16.15
 30
0.0
 10
2.269404556343731
 20
-16.15000000000001
 30
0.0
 10
2.270811202430382
 20
-16.15
 30
0.0
  0
SPLINE
  5
1D1
330
1F
100
AcDbEntity
  8
SK3
  6
SLD-Dashed
370
    18
100
AcDbSpline
210
0.0
220
0.0
230
1.0
 70
    24
 71
     3
 72
     8
 73
     4
 74
     0
 42
0.000000001
 43
0.00000001
 40
0.7812317806346342
 40
0.7812317806346342
 40
0.7812317806346342
 40
0.7812317806346342
 40
0.8124851079714859
 40
0.8124851079714859
 40
0.8124851079714859
 40
0.8124851079714859
 10
2.270811202430382
 20
-16.15
 30
0.0
 10
2.272217824030691
 20
-16.15000000000001
 30
0.0
 10
2.273627234313541
 20
-16.15000000000001
 30
0.0
 10
2.275007817365268
 20
-16.15
 30
0.0
  0
SPLINE
  5
1D2
330
1F
100
AcDbEntity
  8
SK3
  6
SLD-Dashed
370
    18
100
AcDbSpline
210
0.0
220
0.0
230
1.0
 70
    24
 71
     3
 72
     8
 73
     4
 74
     0
 42
0.000000001
 43
0.00000001
 40
0.8124851079714859
 40
0.8124851079714859
 40
0.8124851079714859
 40
0.8124851079714859
 40
0.8749905351124113
 40
0.8749905351124113
 40
0.8749905351124113
 40
0.8749905351124113
 10
2.275007817365268
 20
-16.15
 30
0.0
 10
2.277768834367609
 20
-16.15000000000001
 30
0.0
 10
2.280414550936409
 20
-16.15000000000001
 30
0.0
 10
2.282807380208709
 20
-16.15000000000001
 30
0.0
  0
SPLINE
  5
1D3
330
1F
100
AcDbEntity
  8
SK3
  6
SLD-Dashed
370
    18
100
AcDbSpline
210
0.0
220
0.0
230
1.0
 70
    24
 71
     3
 72
     8
 73
     4
 74
     0
 42
0.000000001
 43
0.00000001
 40
0.8749905351124113
 40
0.8749905351124113
 40
0.8749905351124113
 40
0.8749905351124113
 40
0.9374945409173279
 40
0.9374945409173279
 40
0.9374945409173279
 40
0.9374945409173279
 10
2.282807380208709
 20
-16.15000000000001
 30
0.0
 10
2.285200023589111
 20
-16.15000000000001
 30
0.0
 10
2.287339805069129
 20
-16.15000000000001
 30
0.0
 10
2.288661319703365
 20
-16.15
 30
0.0
  0
SPLINE
  5
1D4
330
1F
100
AcDbEntity
  8
SK3
  6
SLD-Dashed
370
    18
100
AcDbSpline
210
0.0
220
0.0
230
1.0
 70
    24
 71
     3
 72
     8
 73
     4
 74
     0
 42
0.000000001
 43
0.00000001
 40
0.9374945409173279
 40
0.9374945409173279
 40
0.9374945409173279
 40
0.9374945409173279
 40
1.0
 40
1.0
 40
1.0
 40
1.0
 10
2.288661319703365
 20
-16.15
 30
0.0
 10
2.289982816538499
 20
-16.15000000000001
 30
0.0
 10
2.290486038523644
 20
-16.15000000000001
 30
0.0
 10
2.290989260508781
 20
-16.15
 30
0.0
  0
SPLINE
  5
1D5
330
1F
100
AcDbEntity
  8
1
  6
SLD-Dashed
370
    18
100
AcDbSpline
210
0.0
220
0.0
230
1.0
 70
     8
 71
     3
 72
    17
 73
    13
 74
     0
 42
0.000000001
 43
0.00000001
 40
0.0
 40
0.0
 40
0.0
 40
0.0
 40
0.0613488470016816
 40
0.1223253382462704
 40
0.2450967875158296
 40
0.3681383697595539
 40
0.492639628641733
 40
0.6175052534901467
 40
0.7442543766880781
 40
0.8710622258720722
 40
0.9356139525067838
 40
0.9999999999999999
 40
0.9999999999999999
 40
0.9999999999999999
 40
0.9999999999999999
 10
1.999999999999998
 20
20.64718815236391
 30
0.0
 10
2.000652577571257
 20
20.67137191979632
 30
0.0
 10
2.001953771905565
 20
20.71959267170643
 30
0.0
 10
2.015846111277313
 20
20.81537188441617
 30
0.0
 10
2.049151241517241
 20
20.93242490820833
 30
0.0
 10
2.115511813221975
 20
21.06373906860122
 30
0.0
 10
2.2062810470959
 20
21.18095338744395
 30
0.0
 10
2.319482277407122
 20
21.27942722865228
 30
0.0
 10
2.451051637745158
 20
21.35417272184127
 30
0.0
 10
2.572366209420029
 20
21.39302135242622
 30
0.0
 10
2.673025993679877
 20
21.40948782147315
 30
0.0
 10
2.724363986884214
 20
21.41104622563266
 30
0.0
 10
2.750000000000003
 20
21.41182442647339
 30
0.0
  0
SPLINE
  5
1D6
330
1F
100
AcDbEntity
  8
SK3
  6
SLD-Dashed
370
    18
100
AcDbSpline
210
0.0
220
0.0
230
1.0
 70
     8
 71
     3
 72
   191
 73
   187
 74
     0
 42
0.000000001
 43
0.00000001
 40
0.0
 40
0.0
 40
0.0
 40
0.0
 40
0.0019742420740884
 40
0.0039479922276316
 40
0.0059212714467132
 40
0.0078941007040059
 40
0.0118384872819223
 40
0.0157813253233384
 40
0.0197227820601586
 40
0.0236630244465596
 40
0.0276022191381227
 40
0.0315405324710791
 40
0.0354781304416082
 40
0.0394151786853244
 40
0.0433518424568463
 40
0.0472882866095261
 40
0.0512246755753471
 40
0.0551611733449825
 40
0.059097943448044
 40
0.0630351489335019
 40
0.0669736762619789
 40
0.0709141238465934
 40
0.0748562212666756
 40
0.0787996974950319
 40
0.0827442810030822
 40
0.086689699865461
 40
0.0906356818642003
 40
0.0945819545925987
 40
0.0985254487576815
 40
0.102463538504069
 40
0.1063966156675706
 40
0.1103250708094204
 40
0.1142492931331255
 40
0.1181696704022027
 40
0.1220865888588851
 40
0.126000433143906
 40
0.1299112990627307
 40
0.1338191517134679
 40
0.1377241776760825
 40
0.141626562570034
 40
0.1455264910285139
 40
0.1494241466730709
 40
0.1533197120886197
 40
0.1572133687988801
 40
0.1611052968530454
 40
0.1649956743459201
 40
0.1688846785915828
 40
0.1727724862698941
 40
0.1766592734028595
 40
0.1805452153312462
 40
0.1844304866914704
 40
0.1883152613927797
 40
0.1921997976683602
 40
0.1960843302837329
 40
0.1999689972457253
 40
0.2038539363513943
 40
0.2077392851744118
 40
0.2116251810514573
 40
0.2155117610687773
 40
0.219399162048785
 40
0.223287520536795
 40
0.2271769727878656
 40
0.2310676547537429
 40
0.2349597020699461
 40
0.2388532500429867
 40
0.2427484336376943
 40
0.2466453874647445
 40
0.250544245768254
 40
0.2544459158890764
 40
0.2583511058524372
 40
0.2622596499199059
 40
0.2661713819337605
 40
0.2700861353839775
 40
0.2740037434748083
 40
0.277924039190965
 40
0.2818468553634785
 40
0.2857745621101878
 40
0.2897085090826462
 40
0.2936469965098319
 40
0.2975883233590307
 40
0.3015307878042333
 40
0.3054726876893584
 40
0.309412320989455
 40
0.3133479862727245
 40
0.3172789728816679
 40
0.3212058332701318
 40
0.3251287610544137
 40
0.3290479486196831
 40
0.3329635870934125
 40
0.3368758663192501
 40
0.340784974831479
 40
0.3446910998299419
 40
0.3485944073900937
 40
0.3524950517629895
 40
0.3563932006146076
 40
0.3602890205073726
 40
0.3641826768802131
 40
0.3680743340290973
 40
0.3719641550879452
 40
0.3758523020100106
 40
0.3797389362357838
 40
0.3836242164891334
 40
0.3875082994032809
 40
0.3913913410562633
 40
0.3952734969525371
 40
0.3991549220047547
 40
0.4030357705157925
 40
0.4069161961609871
 40
0.410796351970591
 40
0.4146763903125127
 40
0.4185564628752752
 40
0.4224367206512286
 40
0.4301983547518594
 40
0.4379625237574628
 40
0.4457306562427279
 40
0.4535040471775696
 40
0.4612836775311821
 40
0.4690705249355405
 40
0.476865563345664
 40
0.4846697627059858
 40
0.4924840886235227
 40
0.500309502048318
 40
0.5081502212877215
 40
0.5160075496081845
 40
0.5238780615890478
 40
0.5317583265158683
 40
0.5396319842361968
 40
0.5474870796135349
 40
0.5553267730571488
 40
0.5631542029687716
 40
0.57097090409712
 40
0.578777116191845
 40
0.5865740051383703
 40
0.5943627206209323
 40
0.602144393102601
 40
0.6099201304572124
 40
0.6176910273428794
 40
0.6254581665125268
 40
0.6332226189832415
 40
0.6409854401655699
 40
0.6487476771336458
 40
0.6565103720023573
 40
0.6642745615161859
 40
0.6720412766453683
 40
0.6798115421900288
 40
0.6875863763932717
 40
0.6953667982635499
 40
0.703153835792801
 40
0.710948515294654
 40
0.7187518629759314
 40
0.7265651575709895
 40
0.7343893573034208
 40
0.7422250076016998
 40
0.7500726547298113
 40
0.7579357966610987
 40
0.7658094926356122
 40
0.7736816179420618
 40
0.7815400416714383
 40
0.7893833116910918
 40
0.7972172229272079
 40
0.8050405135702653
 40
0.8128519151135793
 40
0.8206537243260789
 40
0.8284494446911599
 40
0.8362396116964779
 40
0.8440247556106358
 40
0.8518054014504344
 40
0.8595820689516737
 40
0.8673552725433121
 40
0.8751255213252069
 40
0.8828944366419261
 40
0.8906638947229936
 40
0.8984347884444492
 40
0.9062080151077987
 40
0.9139844761343727
 40
0.9217650767555335
 40
0.9295507256989677
 40
0.9373423348718851
 40
0.9451408190413697
 40
0.9529470955127648
 40
0.9607620838064049
 40
0.9685867053333493
 40
0.9764218830707657
 40
0.9842685412374222
 40
0.9921276049698645
 40
1.0
 40
1.0
 40
1.0
 40
1.0
 10
2.750000000000003
 20
21.14081046579471
 30
0.0
 10
2.749507406853966
 20
21.14080995974699
 30
0.0
 10
2.748522343301009
 20
21.14080894777764
 30
0.0
 10
2.74704494467861
 20
21.14080096699026
 30
0.0
 10
2.745567933700205
 20
21.14078825670513
 30
0.0
 10
2.743599318296791
 20
21.1407643946998
 30
0.0
 10
2.74113948350501
 20
21.1407218883888
 30
0.0
 10
2.738188950820293
 20
21.14065051231699
 30
0.0
 10
2.735240013704058
 20
21.14055881453967
 30
0.0
 10
2.732292688048921
 20
21.14044680629576
 30
0.0
 10
2.72934698857738
 20
21.14031450688826
 30
0.0
 10
2.72640293032507
 20
21.14016193346218
 30
0.0
 10
2.723460528244091
 20
21.1399891037367
 30
0.0
 10
2.72051979730701
 20
21.13979603529393
 30
0.0
 10
2.717580752487299
 20
21.13958274569279
 30
0.0
 10
2.714643408733466
 20
21.13934925272454
 30
0.0
 10
2.711707781092191
 20
21.13909557327673
 30
0.0
 10
2.708773884241428
 20
21.13882172762184
 30
0.0
 10
2.705841734234784
 20
21.13852772339795
 30
0.0
 10
2.702911162394559
 20
21.1382135961532
 30
0.0
 10
2.699981911647754
 20
21.13787918748201
 30
0.0
 10
2.697053833875577
 20
21.13752436579233
 30
0.0
 10
2.694127048453766
 20
21.13714919947288
 30
0.0
 10
2.691201895302149
 20
21.13675373427309
 30
0.0
 10
2.688278712891491
 20
21.13633802871377
 30
0.0
 10
2.685357840151815
 20
21.13590213746506
 30
0.0
 10
2.682439615627335
 20
21.13544611781916
 30
0.0
 10
2.679525067658721
 20
21.13497013290437
 30
0.0
 10
2.676615795941264
 20
21.13447448965936
 30
0.0
 10
2.673713231539927
 20
21.13395949320639
 30
0.0
 10
2.670817952881904
 20
21.13342530847187
 30
0.0
 10
2.667929794756121
 20
21.13287198028032
 30
0.0
 10
2.665048592258662
 20
21.13229955166975
 30
0.0
 10
2.662174180340489
 20
21.13170806644326
 30
0.0
 10
2.65930639422051
 20
21.13109756714023
 30
0.0
 10
2.656445138160851
 20
21.13046811599015
 30
0.0
 10
2.653590420641755
 20
21.12981978445482
 30
0.0
 10
2.650742304834537
 20
21.12915262277407
 30
0.0
 10
2.647900827454877
 20
21.12846669374964
 30
0.0
 10
2.645065972041109
 20
21.12776204364768
 30
0.0
 10
2.642237721882268
 20
21.12703871986052
 30
0.0
 10
2.63941606032337
 20
21.12629676951864
 30
0.0
 10
2.636600970731991
 20
21.12553623967794
 30
0.0
 10
2.633792436420868
 20
21.12475717798179
 30
0.0
 10
2.630990441566311
 20
21.1239596299935
 30
0.0
 10
2.628194976046633
 20
21.12314362268563
 30
0.0
 10
2.62540602953152
 20
21.12230918530452
 30
0.0
 10
2.622623591887294
 20
21.12145634652386
 30
0.0
 10
2.619847652934028
 20
21.12058513518601
 30
0.0
 10
2.617078202519211
 20
21.11969558004497
 30
0.0
 10
2.614315230424983
 20
21.11878771004179
 30
0.0
 10
2.611558706543893
 20
21.11786154669937
 30
0.0
 10
2.608808585388492
 20
21.11691710832822
 30
0.0
 10
2.606064836528664
 20
21.1159543954946
 30
0.0
 10
2.603327458985637
 20
21.1149734151639
 30
0.0
 10
2.600596474333798
 20
21.11397418278156
 30
0.0
 10
2.597871904210125
 20
21.11295671361785
 30
0.0
 10
2.595153770234552
 20
21.11192102299042
 30
0.0
 10
2.592442094031429
 20
21.1108671262042
 30
0.0
 10
2.589736897223409
 20
21.10979503856871
 30
0.0
 10
2.587038201434654
 20
21.10870477538943
 30
0.0
 10
2.584346028283578
 20
21.10759635198452
 30
0.0
 10
2.581660399409248
 20
21.10646978362687
 30
0.0
 10
2.578981336372507
 20
21.10532508575891
 30
0.0
 10
2.576308861025257
 20
21.10416227319122
 30
0.0
 10
2.57364299413175
 20
21.10298136309448
 30
0.0
 10
2.570983760516857
 20
21.10178236382689
 30
0.0
 10
2.5683309944299
 20
21.1005652361784
 30
0.0
 10
2.565684459270974
 20
21.09932975217251
 30
0.0
 10
2.563043984193346
 20
21.09807572537864
 30
0.0
 10
2.560409587132939
 20
21.09680319761709
 30
0.0
 10
2.55778149864503
 20
21.09551227023078
 30
0.0
 10
2.555159945690978
 20
21.0942030524139
 30
0.0
 10
2.552545154408239
 20
21.09287565464561
 30
0.0
 10
2.549937357837865
 20
21.09153017438836
 30
0.0
 10
2.547336201488719
 20
21.0901664659665
 30
0.0
 10
2.544741106058936
 20
21.08878399863784
 30
0.0
 10
2.542151788352883
 20
21.0873825069336
 30
0.0
 10
2.539568773069226
 20
21.08596236648476
 30
0.0
 10
2.536993283356596
 20
21.08452425919703
 30
0.0
 10
2.534426534521843
 20
21.08306888160535
 30
0.0
 10
2.531869745841804
 20
21.08159692318162
 30
0.0
 10
2.529324128524267
 20
21.08010908708891
 30
0.0
 10
2.526790709621425
 20
21.07860590292116
 30
0.0
 10
2.524269934034755
 20
21.07708778053878
 30
0.0
 10
2.521761783107299
 20
21.07555497627982
 30
0.0
 10
2.519266150418635
 20
21.07400745280987
 30
0.0
 10
2.516782977791926
 20
21.07244526589446
 30
0.0
 10
2.514312214559597
 20
21.070868458759
 30
0.0
 10
2.511853808171184
 20
21.06927707779499
 30
0.0
 10
2.509407706105991
 20
21.06767116925322
 30
0.0
 10
2.506973861704155
 20
21.06605077952301
 30
0.0
 10
2.504552227425051
 20
21.06441596983736
 30
0.0
 10
2.502142765763895
 20
21.06276679313803
 30
0.0
 10
2.499745445506463
 20
21.06110329138921
 30
0.0
 10
2.49736023054932
 20
21.05942550733229
 30
0.0
 10
2.494987085232686
 20
21.05773348304184
 30
0.0
 10
2.492625974008282
 20
21.05602726046229
 30
0.0
 10
2.490276860436583
 20
21.05430688272446
 30
0.0
 10
2.487939711388963
 20
21.05257238824542
 30
0.0
 10
2.485614481004449
 20
21.05082383281172
 30
0.0
 10
2.483301140120277
 20
21.04906125032099
 30
0.0
 10
2.480999673297679
 20
21.04728465800794
 30
0.0
 10
2.478710061935292
 20
21.04549407795024
 30
0.0
 10
2.47643228836094
 20
21.04368953099062
 30
0.0
 10
2.4741663346547
 20
21.04187103830468
 30
0.0
 10
2.471912182956802
 20
21.04003862097214
 30
0.0
 10
2.469669815412475
 20
21.03819230012435
 30
0.0
 10
2.46743921408489
 20
21.03633209678285
 30
0.0
 10
2.465220361358225
 20
21.03445803235766
 30
0.0
 10
2.46301323841256
 20
21.03257012681541
 30
0.0
 10
2.460085890192407
 20
21.03003437866599
 30
0.0
 10
2.456455715976108
 20
21.02682998216413
 30
0.0
 10
2.452146323788075
 20
21.02292986060419
 30
0.0
 10
2.44788337302123
 20
21.01897470936258
 30
0.0
 10
2.443666902776205
 20
21.01496444566108
 30
0.0
 10
2.439496941059209
 20
21.01089915116445
 30
0.0
 10
2.435373597710629
 20
21.00677893586839
 30
0.0
 10
2.431296978576657
 20
21.00260391388993
 30
0.0
 10
2.427267180415471
 20
20.99837420738261
 30
0.0
 10
2.423284340333752
 20
20.99408990218781
 30
0.0
 10
2.419347895841313
 20
20.98975061875381
 30
0.0
 10
2.415457831050793
 20
20.98535536695593
 30
0.0
 10
2.41161473849455
 20
20.98090410933671
 30
0.0
 10
2.40781995642135
 20
20.97639868834056
 30
0.0
 10
2.404077826728669
 20
20.97184416646215
 30
0.0
 10
2.400393765171586
 20
20.96724747772035
 30
0.0
 10
2.396771944772246
 20
20.96261443369981
 30
0.0
 10
2.39321335947007
 20
20.95794714259255
 30
0.0
 10
2.389716842063252
 20
20.95324510892655
 30
0.0
 10
2.38628168361122
 20
20.94850838059445
 30
0.0
 10
2.382907652128071
 20
20.94373724953025
 30
0.0
 10
2.379594503490012
 20
20.93893212185418
 30
0.0
 10
2.376341868189788
 20
20.93409320480425
 30
0.0
 10
2.373149380887674
 20
20.92922070501233
 30
0.0
 10
2.370016787747592
 20
20.92431475932662
 30
0.0
 10
2.366943824356142
 20
20.91937551571477
 30
0.0
 10
2.363930246716994
 20
20.91440311009352
 30
0.0
 10
2.360975742481529
 20
20.90939771962445
 30
0.0
 10
2.358080157722014
 20
20.90435942655268
 30
0.0
 10
2.355243408899484
 20
20.89928827644792
 30
0.0
 10
2.352465394523169
 20
20.89418432643897
 30
0.0
 10
2.34974601840296
 20
20.88904763059223
 30
0.0
 10
2.347085181485131
 20
20.88387824449449
 30
0.0
 10
2.344482790783503
 20
20.87867622071828
 30
0.0
 10
2.341938730960481
 20
20.87344162065381
 30
0.0
 10
2.339452964176564
 20
20.86817446102848
 30
0.0
 10
2.337025608218968
 20
20.86287468229976
 30
0.0
 10
2.33465670513356
 20
20.85754225997098
 30
0.0
 10
2.33234627582593
 20
20.85217710927171
 30
0.0
 10
2.330094411291943
 20
20.8467791338835
 30
0.0
 10
2.327901274690292
 20
20.84134833905791
 30
0.0
 10
2.325767081942473
 20
20.83588490880965
 30
0.0
 10
2.323691697962232
 20
20.83038848125426
 30
0.0
 10
2.321676040861663
 20
20.82485976441995
 30
0.0
 10
2.319721556665002
 20
20.8193026541618
 30
0.0
 10
2.317830549569737
 20
20.81372486773681
 30
0.0
 10
2.31600542245565
 20
20.80813316293778
 30
0.0
 10
2.314246719891264
 20
20.80253020717291
 30
0.0
 10
2.312553623230899
 20
20.79691623587793
 30
0.0
 10
2.310925959702906
 20
20.79129122218568
 30
0.0
 10
2.309363795508807
 20
20.78565597957519
 30
0.0
 10
2.307866558803815
 20
20.78001025823812
 30
0.0
 10
2.306433492544502
 20
20.77435337440884
 30
0.0
 10
2.305064415271903
 20
20.76868494185638
 30
0.0
 10
2.303759222379416
 20
20.76300531925246
 30
0.0
 10
2.302517837385415
 20
20.7573148575095
 30
0.0
 10
2.301340183816384
 20
20.75161390825842
 30
0.0
 10
2.300226157073912
 20
20.74590282798923
 30
0.0
 10
2.299175714605799
 20
20.7401816787635
 30
0.0
 10
2.298188347763179
 20
20.73445025714376
 30
0.0
 10
2.297263752477463
 20
20.72870821184751
 30
0.0
 10
2.296402091945274
 20
20.72295529754867
 30
0.0
 10
2.295603458132789
 20
20.71719153147075
 30
0.0
 10
2.294867973288476
 20
20.71141692559347
 30
0.0
 10
2.294195751579652
 20
20.70563149330754
 30
0.0
 10
2.293586909147098
 20
20.69983524763004
 30
0.0
 10
2.29304156226303
 20
20.69402820168209
 30
0.0
 10
2.292559824634568
 20
20.68821036856059
 30
0.0
 10
2.292141820049269
 20
20.68238176136999
 30
0.0
 10
2.291787634418743
 20
20.67654239322007
 30
0.0
 10
2.291497495246521
 20
20.67069227719943
 30
0.0
 10
2.291271100526619
 20
20.66483142648093
 30
0.0
 10
2.291110128522178
 20
20.65895985392176
 30
0.0
 10
2.291008850134148
 20
20.65307757355761
 30
0.0
 10
2.290995794071937
 20
20.64915240153028
 30
0.0
 10
2.290989260508781
 20
20.64718815236391
 30
0.0
  0
SPLINE
  5
1D7
330
1F
100
AcDbEntity
  8
SK3
  6
SLD-Dashed
370
    18
100
AcDbSpline
210
0.0
220
0.0
230
1.0
 70
     8
 71
     3
 72
   186
 73
   182
 74
     0
 42
0.000000001
 43
0.00000001
 40
0.0
 40
0.0
 40
0.0
 40
0.0
 40
0.0078651424713142
 40
0.0157195030103791
 40
0.0235640628627677
 40
0.0313997997900606
 40
0.0392276877045216
 40
0.0470486963065593
 40
0.0548637907256024
 40
0.0626739311650242
 40
0.0704800713969663
 40
0.0782831549459566
 40
0.0860841251470013
 40
0.0938839281445311
 40
0.1016835125519202
 40
0.109483829107758
 40
0.1172858303294224
 40
0.1250904701647553
 40
0.1328982149453237
 40
0.1407098240344078
 40
0.1485267007509695
 40
0.1563502594083818
 40
0.1641819246479109
 40
0.1720231307564596
 40
0.1798753209701709
 40
0.1877399467659487
 40
0.1956056866076329
 40
0.20346054942336
 40
0.2113049855060218
 40
0.2191394426307837
 40
0.2269643660949739
 40
0.2347801987596983
 40
0.2425873810930136
 40
0.2503863512147736
 40
0.2581784613180963
 40
0.2659654162820769
 40
0.2737481858834032
 40
0.2815277448778699
 40
0.2893050726474842
 40
0.2970811528409734
 40
0.3048569730083618
 40
0.3126335242303832
 40
0.3204123123341791
 40
0.3281946028036459
 40
0.335981034752384
 40
0.3437722563860984
 40
0.3515689249160501
 40
0.3593717064652713
 40
0.3671812759676052
 40
0.3749983170594166
 40
0.3828289870642456
 40
0.3906754490821149
 40
0.3985323913764628
 40
0.4063945004451662
 40
0.4142564659588925
 40
0.4221129857045576
 40
0.4299587705842017
 40
0.4377885497198341
 40
0.4456048661603818
 40
0.453414194441882
 40
0.4612171896265533
 40
0.4690145141358057
 40
0.4768068376922872
 40
0.4845948372553963
 40
0.4923791969504245
 40
0.5001606079911389
 40
0.507940442121122
 40
0.5157203752458126
 40
0.523501568811548
 40
0.5312851948071808
 40
0.5390724362807436
 40
0.5468644933442142
 40
0.5546625828435728
 40
0.5585642929902366
 40
0.5624679744247014
 40
0.5681824966285325
 40
0.5724717852668323
 40
0.5767641367431336
 40
0.5821340948173157
 40
0.5875093438381176
 40
0.5928901697001588
 40
0.5982780497843251
 40
0.6050224490132203
 40
0.6117702617617797
 40
0.6185136631323003
 40
0.6252448344420252
 40
0.6291650279416952
 40
0.6330827208470645
 40
0.636997914339611
 40
0.6409106097627629
 40
0.6448208086416516
 40
0.6487285127029555
 40
0.6526337238947362
 40
0.6565364444064486
 40
0.6604369169947705
 40
0.6643354899391999
 40
0.6682323241947293
 40
0.672127580976723
 40
0.6760214217413244
 40
0.6799140081657652
 40
0.68380550212849
 40
0.6876960656892286
 40
0.6915859115318881
 40
0.6954752384826904
 40
0.6993641885282444
 40
0.703252904374796
 40
0.7071415294339857
 40
0.7110302078083457
 40
0.7149190842765779
 40
0.7188083042785297
 40
0.7226980138999455
 40
0.7265883598570032
 40
0.7304794894806003
 40
0.7343715507004208
 40
0.7382646920288223
 40
0.7421590625444531
 40
0.7460548118757636
 40
0.7499520901842667
 40
0.7538515586596525
 40
0.757753731422376
 40
0.7616585386863572
 40
0.7655659114010711
 40
0.7694757812926525
 40
0.7733880809049558
 40
0.7773027436406463
 40
0.7812197038023106
 40
0.7851409665801679
 40
0.7890677796299184
 40
0.7929989411707173
 40
0.7969332496542372
 40
0.8008695041132399
 40
0.8048065045105118
 40
0.8087430520898252
 40
0.812677949730402
 40
0.8166091974626565
 40
0.8205358207720638
 40
0.824458162418141
 40
0.8283765648496908
 40
0.8322913701358287
 40
0.8362029198969644
 40
0.8401115552358905
 40
0.8440176166689979
 40
0.8479212073753799
 40
0.851822323526316
 40
0.8557211445281724
 40
0.859617849628188
 40
0.8635126178897873
 40
0.8674056281679099
 40
0.8712970590843733
 40
0.8751870890033012
 40
0.8790758967432496
 40
0.8829636595304019
 40
0.8868505535459386
 40
0.8907367553984019
 40
0.8946224421001109
 40
0.8985077910434079
 40
0.9023929799767166
 40
0.9062781869804002
 40
0.9101635904424905
 40
0.9140493690342618
 40
0.9179357016856834
 40
0.9218227675607744
 40
0.9257107460328432
 40
0.9295998166596969
 40
0.9334901591587342
 40
0.937381953382067
 40
0.9412753800757752
 40
0.9451706227412555
 40
0.9490678662502715
 40
0.952967296538299
 40
0.9568691005789933
 40
0.960773466358235
 40
0.9646805828477957
 40
0.9685906399785581
 40
0.9725038286134322
 40
0.976420340519871
 40
0.9803403683420784
 40
0.9842641055728912
 40
0.9881917465253895
 40
0.9921234863042171
 40
1.0
 40
1.0
 40
1.0
 40
1.0
 10
2.290989260508796
 20
-20.64718815236393
 30
0.0
 10
2.290995545023879
 20
-20.64915059247178
 30
0.0
 10
2.291008105438906
 20
-20.65307278247603
 30
0.0
 10
2.291109149629109
 20
-20.65895156029066
 30
0.0
 10
2.291270199519206
 20
-20.66482157166387
 30
0.0
 10
2.291496985553727
 20
-20.67068283783055
 30
0.0
 10
2.291787772999829
 20
-20.67653538015804
 30
0.0
 10
2.292142824239238
 20
-20.68237921993776
 30
0.0
 10
2.292561865922313
 20
-20.68821437864927
 30
0.0
 10
2.293044773380931
 20
-20.69404087682952
 30
0.0
 10
2.29359136195339
 20
-20.69985873603676
 30
0.0
 10
2.294201663035214
 20
-20.70566795691614
 30
0.0
 10
2.294875726526377
 20
-20.71146853328086
 30
0.0
 10
2.295613597284322
 20
-20.71726045878917
 30
0.0
 10
2.296415321154205
 20
-20.72304372697852
 30
0.0
 10
2.297280944923771
 20
-20.72881833118951
 30
0.0
 10
2.298210510552707
 20
-20.73458426566829
 30
0.0
 10
2.299204057571239
 20
-20.74034140107463
 30
0.0
 10
2.30026154216817
 20
-20.74608957374501
 30
0.0
 10
2.301383201495138
 20
-20.75182868116786
 30
0.0
 10
2.302569372207214
 20
-20.75755883341757
 30
0.0
 10
2.303820400927942
 20
-20.7632802993411
 30
0.0
 10
2.305136639928187
 20
-20.76899334662681
 30
0.0
 10
2.306518437325191
 20
-20.77469824395943
 30
0.0
 10
2.307966152062289
 20
-20.7803952571718
 30
0.0
 10
2.309479283656172
 20
-20.78608158082305
 30
0.0
 10
2.311056422918207
 20
-20.79175117806492
 30
0.0
 10
2.312695994638772
 20
-20.79739779149753
 30
0.0
 10
2.314396880982881
 20
-20.80301808463786
 30
0.0
 10
2.316158835551357
 20
-20.80861170165001
 30
0.0
 10
2.317981601033734
 20
-20.81417828971444
 30
0.0
 10
2.319864924521097
 20
-20.81971749465181
 30
0.0
 10
2.321808546398498
 20
-20.8252289647145
 30
0.0
 10
2.323812307919963
 20
-20.83071255456677
 30
0.0
 10
2.325876090709397
 20
-20.83616844244505
 30
0.0
 10
2.327999980779893
 20
-20.84159687388097
 30
0.0
 10
2.330184121837797
 20
-20.84699796740961
 30
0.0
 10
2.332428569925113
 20
-20.85237167728974
 30
0.0
 10
2.334733387710425
 20
-20.85771795518045
 30
0.0
 10
2.337098633560472
 20
-20.86303675462327
 30
0.0
 10
2.33952437634711
 20
-20.86832802423234
 30
0.0
 10
2.342010701661277
 20
-20.87359184588012
 30
0.0
 10
2.344557870977066
 20
-20.878828292412
 30
0.0
 10
2.347166225805463
 20
-20.88403729012752
 30
0.0
 10
2.349835880980687
 20
-20.88921862918285
 30
0.0
 10
2.352566918055966
 20
-20.89437193995724
 30
0.0
 10
2.355359414015664
 20
-20.89949685438081
 30
0.0
 10
2.358213427949432
 20
-20.90459301535912
 30
0.0
 10
2.361129095151648
 20
-20.90966002026821
 30
0.0
 10
2.364106957367212
 20
-20.91469881177103
 30
0.0
 10
2.367148882442244
 20
-20.91970996646635
 30
0.0
 10
2.370255532793985
 20
-20.92469299007871
 30
0.0
 10
2.373425133052235
 20
-20.92964552567303
 30
0.0
 10
2.376655229541468
 20
-20.9345634483083
 30
0.0
 10
2.379943286039147
 20
-20.93944268371695
 30
0.0
 10
2.383286806667371
 20
-20.94427913080455
 30
0.0
 10
2.386683216514051
 20
-20.94906874543617
 30
0.0
 10
2.390131358957208
 20
-20.95380885548553
 30
0.0
 10
2.393630889709946
 20
-20.95849980589463
 30
0.0
 10
2.397181960181488
 20
-20.96314345141857
 30
0.0
 10
2.400785518494091
 20
-20.96774046708073
 30
0.0
 10
2.404441372552385
 20
-20.97229056289492
 30
0.0
 10
2.408149402368623
 20
-20.97679339558814
 30
0.0
 10
2.41190947001245
 20
-20.98124863492406
 30
0.0
 10
2.415721437258101
 20
-20.9856559517304
 30
0.0
 10
2.419585296405333
 20
-20.99001512531645
 30
0.0
 10
2.423501133542519
 20
-20.99432617616503
 30
0.0
 10
2.4274691772763
 20
-20.99858915007233
 30
0.0
 10
2.431489698532533
 20
-21.0028039762298
 30
0.0
 10
2.435562860946692
 20
-21.00697050350214
 30
0.0
 10
2.439688831280013
 20
-21.01108858442212
 30
0.0
 10
2.443867865865916
 20
-21.01515797513348
 30
0.0
 10
2.447394054793683
 20
-21.01850761176429
 30
0.0
 10
2.450241599796164
 20
-21.02116257460666
 30
0.0
 10
2.452723163181493
 20
-21.02344763036072
 30
0.0
 10
2.45529385799171
 20
-21.02577854942558
 30
0.0
 10
2.457955465589468
 20
-21.02815336614915
 30
0.0
 10
2.46056878974784
 20
-21.03045304153572
 30
0.0
 10
2.463404657812648
 20
-21.03290983930462
 30
0.0
 10
2.46646841025229
 20
-21.03551813443643
 30
0.0
 10
2.469558001425177
 20
-21.03810274805203
 30
0.0
 10
2.472933855583393
 20
-21.04087732509871
 30
0.0
 10
2.4766025236913
 20
-21.04383251139037
 30
0.0
 10
2.480568836169303
 20
-21.04695686874492
 30
0.0
 10
2.484566373973173
 20
-21.05003576678
 30
0.0
 10
2.488033818804824
 20
-21.05264626037573
 30
0.0
 10
2.490956911088035
 20
-21.05480723403904
 30
0.0
 10
2.493326073791311
 20
-21.05653546915539
 30
0.0
 10
2.495704716614985
 20
-21.05824743101202
 30
0.0
 10
2.498092733485981
 20
-21.05994306528305
 30
0.0
 10
2.500490026680041
 20
-21.06162230407877
 30
0.0
 10
2.502896496540473
 20
-21.06328508268951
 30
0.0
 10
2.505312042800912
 20
-21.064931337235
 30
0.0
 10
2.507736619323312
 20
-21.06656103079343
 30
0.0
 10
2.510170235958176
 20
-21.06817419774296
 30
0.0
 10
2.512612935615153
 20
-21.0697708949294
 30
0.0
 10
2.515064761685553
 20
-21.07135114135853
 30
0.0
 10
2.51752571405902
 20
-21.0729149369168
 30
0.0
 10
2.519995793788075
 20
-21.07446227974907
 30
0.0
 10
2.522475001754573
 20
-21.07599316822949
 30
0.0
 10
2.524963338359263
 20
-21.07750760155682
 30
0.0
 10
2.52746081689334
 20
-21.0790055818817
 30
0.0
 10
2.529967450778402
 20
-21.08048712894107
 30
0.0
 10
2.532483260960013
 20
-21.08195223996917
 30
0.0
 10
2.53500826100029
 20
-21.0834008892663
 30
0.0
 10
2.537542449992152
 20
-21.08483304738976
 30
0.0
 10
2.540085827591458
 20
-21.08624868394162
 30
0.0
 10
2.542638393302828
 20
-21.08764776878008
 30
0.0
 10
2.545200146671041
 20
-21.08903027169475
 30
0.0
 10
2.547771087229513
 20
-21.09039616249441
 30
0.0
 10
2.550351214515266
 20
-21.09174541098083
 30
0.0
 10
2.552940528060308
 20
-21.09307798696575
 30
0.0
 10
2.555539027411347
 20
-21.09439386022903
 30
0.0
 10
2.558146712059659
 20
-21.0956930006694
 30
0.0
 10
2.56076358170175
 20
-21.09697537774308
 30
0.0
 10
2.563389635266735
 20
-21.09824096255939
 30
0.0
 10
2.566024874547726
 20
-21.09948972005627
 30
0.0
 10
2.568669406106256
 20
-21.1007216920072
 30
0.0
 10
2.571323460367897
 20
-21.10193686839407
 30
0.0
 10
2.573987217135171
 20
-21.10313521250714
 30
0.0
 10
2.576660652819078
 20
-21.10431669267614
 30
0.0
 10
2.579343621745736
 20
-21.10548119359327
 30
0.0
 10
2.582035975696118
 20
-21.10662860539243
 30
0.0
 10
2.584737566081686
 20
-21.10775881937785
 30
0.0
 10
2.587448248343748
 20
-21.10887171671365
 30
0.0
 10
2.590168341229819
 20
-21.10996741096211
 30
0.0
 10
2.592898532657151
 20
-21.1110459737822
 30
0.0
 10
2.595639219935227
 20
-21.11210743131204
 30
0.0
 10
2.598390006638474
 20
-21.11315164155294
 30
0.0
 10
2.601149943717275
 20
-21.11417819806207
 30
0.0
 10
2.603918077643021
 20
-21.11518670583085
 30
0.0
 10
2.606693456995046
 20
-21.1161767641273
 30
0.0
 10
2.60947512639443
 20
-21.11714798370857
 30
0.0
 10
2.612261954137482
 20
-21.11809987025183
 30
0.0
 10
2.615052807361469
 20
-21.11903210159066
 30
0.0
 10
2.617846891379061
 20
-21.11994456223536
 30
0.0
 10
2.620644011814
 20
-21.12083718578386
 30
0.0
 10
2.623444272646984
 20
-21.12171004994262
 30
0.0
 10
2.626247781460068
 20
-21.12256322171133
 30
0.0
 10
2.629054644849069
 20
-21.12339677103167
 30
0.0
 10
2.631864969755926
 20
-21.12421076677784
 30
0.0
 10
2.634678805888128
 20
-21.12500526311712
 30
0.0
 10
2.637496121220169
 20
-21.12578028896248
 30
0.0
 10
2.640316851602126
 20
-21.12653583959472
 30
0.0
 10
2.643140949654045
 20
-21.12727192105678
 30
0.0
 10
2.645968412444403
 20
-21.12798855035694
 30
0.0
 10
2.648799236922732
 20
-21.12868574494967
 30
0.0
 10
2.651633420179537
 20
-21.12936352167699
 30
0.0
 10
2.654470958859734
 20
-21.13002189938664
 30
0.0
 10
2.65731185142784
 20
-21.13066088956284
 30
0.0
 10
2.660156090102408
 20
-21.13128053125542
 30
0.0
 10
2.663003673306512
 20
-21.13188083527267
 30
0.0
 10
2.665854604605007
 20
-21.13246178459015
 30
0.0
 10
2.668708885589059
 20
-21.13302336950393
 30
0.0
 10
2.671566518280502
 20
-21.13356557832851
 30
0.0
 10
2.674427504585526
 20
-21.13408839990974
 30
0.0
 10
2.677291846440999
 20
-21.13459182295172
 30
0.0
 10
2.680159545775329
 20
-21.13507583619711
 30
0.0
 10
2.683030604518952
 20
-21.13554042837875
 30
0.0
 10
2.685905024601483
 20
-21.1359855882331
 30
0.0
 10
2.688782807952768
 20
-21.13641130449477
 30
0.0
 10
2.691663956501646
 20
-21.13681756590502
 30
0.0
 10
2.694548472179751
 20
-21.13720436118327
 30
0.0
 10
2.697436356907973
 20
-21.13757167913257
 30
0.0
 10
2.70032761264679
 20
-21.13791950824621
 30
0.0
 10
2.703222241402826
 20
-21.13824783819847
 30
0.0
 10
2.706120246593898
 20
-21.13855665442375
 30
0.0
 10
2.709021636487237
 20
-21.13884590482477
 30
0.0
 10
2.71192641928994
 20
-21.1391155416847
 30
0.0
 10
2.714834603422381
 20
-21.13936551614065
 30
0.0
 10
2.717746197266085
 20
-21.13959577961978
 30
0.0
 10
2.720661209212397
 20
-21.13980628354619
 30
0.0
 10
2.72357964765034
 20
-21.13999697906885
 30
0.0
 10
2.726501520966471
 20
-21.14016781844463
 30
0.0
 10
2.729426837557697
 20
-21.14031874977265
 30
0.0
 10
2.732355605780342
 20
-21.14044973669612
 30
0.0
 10
2.735287834141377
 20
-21.14056068477239
 30
0.0
 10
2.738223530583617
 20
-21.14065171664049
 30
0.0
 10
2.741162705157167
 20
-21.14072214360455
 30
0.0
 10
2.745088408974472
 20
-21.14079173654373
 30
0.0
 10
2.748034713154303
 20
-21.14080297161403
 30
0.0
 10
2.750000000000003
 20
-21.14081046579471
 30
0.0
  0
SPLINE
  5
1D8
330
1F
100
AcDbEntity
  8
1
  6
SLD-Dashed
370
    18
100
AcDbSpline
210
0.0
220
0.0
230
1.0
 70
     8
 71
     3
 72
     8
 73
     4
 74
     0
 42
0.000000001
 43
0.00000001
 40
0.0
 40
0.0
 40
0.0
 40
0.0
 40
1.0
 40
1.0
 40
1.0
 40
1.0
 10
11.39999999999999
 20
18.09532860177314
 30
0.0
 10
10.86366106423099
 20
19.11311791441609
 30
0.0
 10
10.32145356533588
 20
20.12794068153303
 30
0.0
 10
9.775382581768174
 20
21.14081046579471
 30
0.0
  0
SPLINE
  5
1D9
330
1F
100
AcDbEntity
  8
1
  6
SLD-Dashed
370
    18
100
AcDbSpline
210
0.0
220
0.0
230
1.0
 70
     8
 71
     3
 72
     8
 73
     4
 74
     0
 42
0.000000001
 43
0.00000001
 40
0.0
 40
0.0
 40
0.0
 40
0.0
 40
1.0
 40
1.0
 40
1.0
 40
1.0
 10
11.39999999999999
 20
-18.09532860177312
 30
0.0
 10
10.86359498497195
 20
-19.11324331042811
 30
0.0
 10
10.32137804067493
 20
-20.12808076707018
 30
0.0
 10
9.775382581768188
 20
-21.14081046579471
 30
0.0
  0
SPLINE
  5
1DA
330
1F
100
AcDbEntity
  8
1
  6
SLD-Dashed
370
    18
100
AcDbSpline
210
0.0
220
0.0
230
1.0
 70
     8
 71
     3
 72
     8
 73
     4
 74
     0
 42
0.000000001
 43
0.00000001
 40
0.0
 40
0.0
 40
0.0
 40
0.0
 40
0.0004334318642155
 40
0.0004334318642155
 40
0.0004334318642155
 40
0.0004334318642155
 10
9.572981872402318
 20
21.41182442647342
 30
0.0
 10
9.640527281418795
 20
21.32151577658486
 30
0.0
 10
9.707995478480552
 20
21.23117822851763
 30
0.0
 10
9.775382581768174
 20
21.14081046579471
 30
0.0
  0
INSERT
  5
1DB
330
1F
100
AcDbEntity
  8
81
100
AcDbBlockReference
  2
Block11
 10
-11.6264826505
 20
-130.2676275275
 30
0.0
  0
INSERT
  5
1DC
330
1F
100
AcDbEntity
  8
80
100
AcDbBlockReference
  2
Block12
 10
-61.7273641656
 20
-130.3356800267
 30
0.0
  0
DIMENSION
  5
1DD
330
1F
100
AcDbEntity
  8
SK2
100
AcDbDimension
  2
_D
 10
22.1
 20
34.1295396314
 30
0.0
 11
11.1342242881
 21
34.1295396314
 31
0.0
 70
   160
  1
<>
 71
     2
 42
-1.0
  3
SLDDIMSTYLE0
100
AcDbAlignedDimension
 13
0.0
 23
15.875
 33
0.0
 14
22.1
 24
22.24
 34
0.0
100
AcDbRotatedDimension
  0
DIMENSION
  5
1E9
330
1F
100
AcDbEntity
  8
SK2
100
AcDbDimension
  2
_D_1
 10
80.0
 20
34.1295396314
 30
0.0
 11
51.7791041125
 21
34.1295396314
 31
0.0
 70
   160
  1
<>
 71
     2
 42
-1.0
  3
SLDDIMSTYLE0
100
AcDbAlignedDimension
 13
22.1
 23
22.24
 33
0.0
 14
80.0
 24
16.0
 34
0.0
100
AcDbRotatedDimension
  0
DIMENSION
  5
1F3
330
1F
100
AcDbEntity
  8
SK2
100
AcDbDimension
  2
_D_2
 10
65.5
 20
25.7309226117
 30
0.0
 11
71.6699771522
 21
25.7309226117
 31
0.0
 70
   160
  1
<>
 71
     2
 42
-1.0
  3
SLDDIMSTYLE0
100
AcDbAlignedDimension
 13
80.0
 23
16.0
 33
0.0
 14
65.5
 24
18.45
 34
0.0
100
AcDbRotatedDimension
  0
DIMENSION
  5
1FD
330
1F
100
AcDbEntity
  8
SK2
100
AcDbDimension
  2
_D_3
 10
44.5
 20
25.7309226117
 30
0.0
 11
55.3950412025
 21
25.7309226117
 31
0.0
 70
   160
  1
<>
 71
     2
 42
-1.0
  3
SLDDIMSTYLE0
100
AcDbAlignedDimension
 13
65.5
 23
18.45
 33
0.0
 14
44.5
 24
18.45
 34
0.0
 50
0.0
100
AcDbRotatedDimension
  0
DIMENSION
  5
207
330
1F
100
AcDbEntity
  8
2
100
AcDbDimension
  2
_D_4
 10
80.0
 20
42.4127122223
 30
0.0
 11
42.3283885177
 21
42.4127122223
 31
0.0
 70
   160
  1
<>
 71
     2
 42
-1.0
  3
SLDDIMSTYLE0
100
AcDbAlignedDimension
 13
0.0
 23
15.875
 33
0.0
 14
80.0
 24
16.0
 34
0.0
100
AcDbRotatedDimension
  0
DIMENSION
  5
211
330
1F
100
AcDbEntity
  8
SK2
100
AcDbDimension
  2
_D_5
 10
117.343447679
 20
18.0
 30
0.0
 11
117.343447679
 21
-0.5093491895
 31
0.0
 70
   160
  1
%%c<>
 71
     2
 42
-1.0
  3
SLDDIMSTYLE0
100
AcDbAlignedDimension
 13
78.0
 23
-18.0
 33
0.0
 14
78.0
 24
18.0
 34
0.0
 50
90.0
100
AcDbRotatedDimension
  0
DIMENSION
  5
21C
330
1F
100
AcDbEntity
  8
SK2
100
AcDbDimension
  2
_D_6
 10
106.755972102
 20
16.0
 30
0.0
 11
106.755972102
 21
-0.5093491895
 31
0.0
 70
   160
  1
%%c<>
 71
     2
 42
-1.0
  3
SLDDIMSTYLE0
100
AcDbAlignedDimension
 13
80.0
 23
-16.0
 33
0.0
 14
80.0
 24
16.0
 34
0.0
 50
90.0
100
AcDbRotatedDimension
  0
DIMENSION
  5
227
330
1F
100
AcDbEntity
  8
SK2
100
AcDbDimension
  2
_D_7
 10
95.5154050101
 20
-8.0
 30
0.0
 11
95.5154050101
 21
-0.5093491895
 31
0.0
 70
   160
  1
%%c<>
 71
     2
 42
-1.0
  3
SLDDIMSTYLE0
100
AcDbAlignedDimension
 13
78.2679491924
 23
8.0
 33
0.0
 14
78.2679491924
 24
-8.0
 34
0.0
 50
90.0
100
AcDbRotatedDimension
  0
DIMENSION
  5
232
330
1F
100
AcDbEntity
  8
SK2
100
AcDbDimension
  2
_D_8
 10
33.5
 20
-28.1083547322
 30
0.0
 11
55.3950412025
 21
-28.1083547322
 31
0.0
 70
   160
  1
<>
 71
     2
 42
-1.0
  3
SLDDIMSTYLE0
100
AcDbAlignedDimension
 13
80.0
 23
-16.0
 33
0.0
 14
33.5
 24
-8.25
 34
0.0
100
AcDbRotatedDimension
  0
DIMENSION
  5
23C
330
1F
100
AcDbEntity
  8
SK2
100
AcDbDimension
  2
_D_9
 10
-54.4134261189
 20
6.0
 30
0.0
 11
-54.4134261189
 21
-0.150816406
 31
0.0
 70
   160
  1
M<>
 71
     2
 42
-1.0
  3
SLDDIMSTYLE1
100
AcDbAlignedDimension
 13
-40.7891560818
 23
-6.0
 33
0.0
 14
-40.7891560818
 24
6.0
 34
0.0
 50
90.0
100
AcDbRotatedDimension
  0
DIMENSION
  5
24A
330
1F
100
AcDbEntity
  8
SK2
100
AcDbDimension
  2
_D_10
 10
-63.9833483662
 20
15.875
 30
0.0
 11
-63.9833483662
 21
-0.8968520405
 31
0.0
 70
   160
  1
%%c<>
 71
     2
 42
-1.0
  3
SLDDIMSTYLE0
100
AcDbAlignedDimension
 13
0.0
 23
-15.875
 33
0.0
 14
0.0
 24
15.875
 34
0.0
 50
90.0
100
AcDbRotatedDimension
  0
DIMENSION
  5
255
330
1F
100
AcDbEntity
  8
SK2
100
AcDbDimension
  2
_D_11
 10
-73.9304901594
 20
-22.99
 30
0.0
 11
-73.9304901594
 21
-0.8968520405
 31
0.0
 70
   160
  1
%%c<>
 71
     2
 42
-1.0
  3
SLDDIMSTYLE0
100
AcDbAlignedDimension
 13
21.35
 23
22.99
 33
0.0
 14
19.8746494219
 24
-22.99
 34
0.0
 50
90.0
100
AcDbRotatedDimension
  0
MTEXT
  5
260
330
1F
100
AcDbEntity
  8
SK6
 62
     5
100
AcDbMText
 10
-47.5749733635
 20
-24.6223120655
 30
0.0
 40
3.5
 41
0.0
 71
     1
 72
     1
  1
A227-30 16 080
  7
SLDTEXTSTYLE0
 73
     1
 44
1.0
  0
MTEXT
  5
261
330
1F
100
AcDbEntity
  8
SK6
 62
     5
100
AcDbMText
 10
-32.3121435826
 20
21.2064387978
 30
0.0
 40
3.5
 41
0.0
 71
     1
 72
     1
  1
MAS-403 BT30
  7
SLDTEXTSTYLE0
 73
     1
 44
1.0
  0
ENDSEC
  0
SECTION
  2
OBJECTS
  0
DICTIONARY
  5
C
330
0
100
AcDbDictionary
281
     1
  3
ACAD_GROUP
350
D
  3
ACAD_LAYOUT
350
1A
  3
ACAD_MLINESTYLE
350
17
  3
ACAD_PLOTSETTINGS
350
19
  3
ACAD_PLOTSTYLENAME
350
E
  3
ACAD_SCALELIST
350
47
  0
DICTIONARY
  5
D
102
{ACAD_REACTORS
330
C
102
}
330
C
100
AcDbDictionary
281
     1
  0
DICTIONARY
  5
1A
102
{ACAD_REACTORS
330
C
102
}
330
C
100
AcDbDictionary
281
     1
  3
Layout1
350
1E
  3
Layout2
350
26
  3
Model
350
22
  0
DICTIONARY
  5
17
102
{ACAD_REACTORS
330
C
102
}
330
C
100
AcDbDictionary
281
     1
  3
Standard
350
18
  0
DICTIONARY
  5
19
102
{ACAD_REACTORS
330
C
102
}
330
C
100
AcDbDictionary
281
     1
  0
ACDBDICTIONARYWDFLT
  5
E
102
{ACAD_REACTORS
330
C
102
}
330
C
100
AcDbDictionary
281
     1
  3
Normal
350
F
100
AcDbDictionaryWithDefault
340
F
  0
DICTIONARY
  5
47
102
{ACAD_REACTORS
330
C
102
}
330
C
100
AcDbDictionary
281
     1
  3
A0
350
48
  3
A1
350
49
  3
A2
350
4A
  3
A3
350
4B
  3
A4
350
4C
  3
A5
350
4D
  3
A6
350
4E
  3
A7
350
4F
  3
A8
350
50
  3
A9
350
51
  3
B0
350
52
  3
B1
350
53
  3
B2
350
54
  3
B3
350
55
  3
B4
350
56
  3
B5
350
57
  3
B6
350
58
  3
B7
350
59
  3
B8
350
5A
  3
B9
350
5B
  3
C0
350
5C
  3
C1
350
5D
  3
C2
350
5E
  3
C3
350
5F
  3
C4
350
60
  3
C5
350
61
  3
C6
350
62
  3
C7
350
63
  3
C8
350
64
  3
C9
350
65
  3
D0
350
66
  3
D1
350
67
  3
D2
350
68
  0
LAYOUT
  5
1E
102
{ACAD_REACTORS
330
1A
102
}
330
1A
100
AcDbPlotSettings
  1

  2
none_device
  4

  6

 40
0.0
 41
0.0
 42
0.0
 43
0.0
 44
0.0
 45
0.0
 46
0.0
 47
0.0
 48
0.0
 49
0.0
140
0.0
141
0.0
142
1.0
143
1.0
 70
   688
 72
     1
 73
     0
 74
     5
  7

 75
    16
147
1.0
148
0.0
149
0.0
100
AcDbLayout
  1
Layout1
 70
     1
 71
     1
 10
0.0
 20
0.0
 11
420.0
 21
297.0
 12
0.0
 22
0.0
 32
0.0
 14
1.0000000000E+20
 24
1.0000000000E+20
 34
1.0000000000E+20
 15
-1.0000000000E+20
 25
-1.0000000000E+20
 35
-1.0000000000E+20
146
0.0
 13
0.0
 23
0.0
 33
0.0
 16
1.0
 26
0.0
 36
0.0
 17
0.0
 27
1.0
 37
0.0
 76
     0
330
1B
  0
LAYOUT
  5
26
102
{ACAD_REACTORS
330
1A
102
}
330
1A
100
AcDbPlotSettings
  1

  2
none_device
  4

  6

 40
0.0
 41
0.0
 42
0.0
 43
0.0
 44
0.0
 45
0.0
 46
0.0
 47
0.0
 48
0.0
 49
0.0
140
0.0
141
0.0
142
1.0
143
1.0
 70
   688
 72
     1
 73
     0
 74
     5
  7

 75
    16
147
1.0
148
0.0
149
0.0
100
AcDbLayout
  1
Layout2
 70
     1
 71
     2
 10
0.0
 20
0.0
 11
0.0
 21
0.0
 12
0.0
 22
0.0
 32
0.0
 14
0.0
 24
0.0
 34
0.0
 15
0.0
 25
0.0
 35
0.0
146
0.0
 13
0.0
 23
0.0
 33
0.0
 16
1.0
 26
0.0
 36
0.0
 17
0.0
 27
1.0
 37
0.0
 76
     0
330
23
  0
LAYOUT
  5
22
102
{ACAD_REACTORS
330
1A
102
}
330
1A
100
AcDbPlotSettings
  1

  2
none_device
  4
Letter_(8.50_x_11.00_Inches)
  6

 40
6.35
 41
6.35
 42
6.35000508
 43
6.35000508
 44
215.9
 45
279.4
 46
0.0
 47
0.0
 48
0.0
 49
0.0
140
0.0
141
0.0
142
1.0
143
1.0
 70
  1712
 72
     1
 73
     0
 74
     0
  7

 75
     0
147
1.0
148
0.0
149
0.0
100
AcDbLayout
  1
Model
 70
     1
 71
     0
 10
0.0
 20
0.0
 11
297.0
 21
210.0
 12
0.0
 22
0.0
 32
0.0
 14
0.0
 24
0.0
 34
0.0
 15
297.0
 25
210.0
 35
0.0
146
0.0
 13
0.0
 23
0.0
 33
0.0
 16
1.0
 26
0.0
 36
0.0
 17
0.0
 27
1.0
 37
0.0
 76
     0
330
1F
331
29
  0
MLINESTYLE
  5
18
102
{ACAD_REACTORS
330
17
102
}
330
17
100
AcDbMlineStyle
  2
Standard
 70
     0
  3

 62
   256
 51
90.0
 52
90.0
 71
     2
 49
0.5
 62
   256
  6
BYLAYER
 49
-0.5
 62
   256
  6
BYLAYER
  0
ACDBPLACEHOLDER
  5
F
102
{ACAD_REACTORS
330
E
102
}
330
E
  0
SCALE
  5
48
102
{ACAD_REACTORS
330
47
102
}
330
47
100
AcDbScale
 70
     0
300
1:1
140
1.0
141
1.0
290
     1
  0
SCALE
  5
49
102
{ACAD_REACTORS
330
47
102
}
330
47
100
AcDbScale
 70
     0
300
1:2
140
1.0
141
2.0
290
     0
  0
SCALE
  5
4A
102
{ACAD_REACTORS
330
47
102
}
330
47
100
AcDbScale
 70
     0
300
1:4
140
1.0
141
4.0
290
     0
  0
SCALE
  5
4B
102
{ACAD_REACTORS
330
47
102
}
330
47
100
AcDbScale
 70
     0
300
1:5
140
1.0
141
5.0
290
     0
  0
SCALE
  5
4C
102
{ACAD_REACTORS
330
47
102
}
330
47
100
AcDbScale
 70
     0
300
1:8
140
1.0
141
8.0
290
     0
  0
SCALE
  5
4D
102
{ACAD_REACTORS
330
47
102
}
330
47
100
AcDbScale
 70
     0
300
1:10
140
1.0
141
10.0
290
     0
  0
SCALE
  5
4E
102
{ACAD_REACTORS
330
47
102
}
330
47
100
AcDbScale
 70
     0
300
1:16
140
1.0
141
16.0
290
     0
  0
SCALE
  5
4F
102
{ACAD_REACTORS
330
47
102
}
330
47
100
AcDbScale
 70
     0
300
1:20
140
1.0
141
20.0
290
     0
  0
SCALE
  5
50
102
{ACAD_REACTORS
330
47
102
}
330
47
100
AcDbScale
 70
     0
300
1:30
140
1.0
141
30.0
290
     0
  0
SCALE
  5
51
102
{ACAD_REACTORS
330
47
102
}
330
47
100
AcDbScale
 70
     0
300
1:40
140
1.0
141
40.0
290
     0
  0
SCALE
  5
52
102
{ACAD_REACTORS
330
47
102
}
330
47
100
AcDbScale
 70
     0
300
1:50
140
1.0
141
50.0
290
     0
  0
SCALE
  5
53
102
{ACAD_REACTORS
330
47
102
}
330
47
100
AcDbScale
 70
     0
300
1:100
140
1.0
141
100.0
290
     0
  0
SCALE
  5
54
102
{ACAD_REACTORS
330
47
102
}
330
47
100
AcDbScale
 70
     0
300
2:1
140
2.0
141
1.0
290
     0
  0
SCALE
  5
55
102
{ACAD_REACTORS
330
47
102
}
330
47
100
AcDbScale
 70
     0
300
4:1
140
4.0
141
1.0
290
     0
  0
SCALE
  5
56
102
{ACAD_REACTORS
330
47
102
}
330
47
100
AcDbScale
 70
     0
300
8:1
140
8.0
141
1.0
290
     0
  0
SCALE
  5
57
102
{ACAD_REACTORS
330
47
102
}
330
47
100
AcDbScale
 70
     0
300
10:1
140
10.0
141
1.0
290
     0
  0
SCALE
  5
58
102
{ACAD_REACTORS
330
47
102
}
330
47
100
AcDbScale
 70
     0
300
100:1
140
100.0
141
1.0
290
     0
  0
SCALE
  5
59
102
{ACAD_REACTORS
330
47
102
}
330
47
100
AcDbScale
 70
     0
300
1/128" = 1'-0"
140
0.0078125
141
12.0
290
     0
  0
SCALE
  5
5A
102
{ACAD_REACTORS
330
47
102
}
330
47
100
AcDbScale
 70
     0
300
1/64" = 1'-0"
140
0.015625
141
12.0
290
     0
  0
SCALE
  5
5B
102
{ACAD_REACTORS
330
47
102
}
330
47
100
AcDbScale
 70
     0
300
1/32" = 1'-0"
140
0.03125
141
12.0
290
     0
  0
SCALE
  5
5C
102
{ACAD_REACTORS
330
47
102
}
330
47
100
AcDbScale
 70
     0
300
1/16" = 1'-0"
140
0.0625
141
12.0
290
     0
  0
SCALE
  5
5D
102
{ACAD_REACTORS
330
47
102
}
330
47
100
AcDbScale
 70
     0
300
3/32" = 1'-0"
140
0.09375
141
12.0
290
     0
  0
SCALE
  5
5E
102
{ACAD_REACTORS
330
47
102
}
330
47
100
AcDbScale
 70
     0
300
1/8" = 1'-0"
140
0.125
141
12.0
290
     0
  0
SCALE
  5
5F
102
{ACAD_REACTORS
330
47
102
}
330
47
100
AcDbScale
 70
     0
300
3/16" = 1'-0"
140
0.1875
141
12.0
290
     0
  0
SCALE
  5
60
102
{ACAD_REACTORS
330
47
102
}
330
47
100
AcDbScale
 70
     0
300
1/4" = 1'-0"
140
0.25
141
12.0
290
     0
  0
SCALE
  5
61
102
{ACAD_REACTORS
330
47
102
}
330
47
100
AcDbScale
 70
     0
300
3/8" = 1'-0"
140
0.375
141
12.0
290
     0
  0
SCALE
  5
62
102
{ACAD_REACTORS
330
47
102
}
330
47
100
AcDbScale
 70
     0
300
1/2" = 1'-0"
140
0.5
141
12.0
290
     0
  0
SCALE
  5
63
102
{ACAD_REACTORS
330
47
102
}
330
47
100
AcDbScale
 70
     0
300
3/4" = 1'-0"
140
0.75
141
12.0
290
     0
  0
SCALE
  5
64
102
{ACAD_REACTORS
330
47
102
}
330
47
100
AcDbScale
 70
     0
300
1" = 1'-0"
140
1.0
141
12.0
290
     0
  0
SCALE
  5
65
102
{ACAD_REACTORS
330
47
102
}
330
47
100
AcDbScale
 70
     0
300
1-1/2" = 1'-0"
140
1.5
141
12.0
290
     0
  0
SCALE
  5
66
102
{ACAD_REACTORS
330
47
102
}
330
47
100
AcDbScale
 70
     0
300
3" = 1'-0"
140
3.0
141
12.0
290
     0
  0
SCALE
  5
67
102
{ACAD_REACTORS
330
47
102
}
330
47
100
AcDbScale
 70
     0
300
6" = 1'-0"
140
6.0
141
12.0
290
     0
  0
SCALE
  5
68
102
{ACAD_REACTORS
330
47
102
}
330
47
100
AcDbScale
 70
     0
300
1'-0" = 1'-0"
140
12.0
141
12.0
290
     0
  0
ENDSEC
  0
EOF
