  0
SECTION
  2
HEADER
  9
$ACADVER
  1
AC1015
  9
$ACADMAINTVER
 70
     6
  9
$DWGCODEPAGE
  3
ANSI_1250
  9
$INSBASE
 10
0.0
 20
0.0
 30
0.0
  9
$EXTMIN
 10
0.0
 20
0.0
 30
0.0
  9
$EXTMAX
 10
297.0
 20
210.0
 30
0.0
  9
$LIMMIN
 10
0.0
 20
0.0
  9
$LIMMAX
 10
297.0
 20
210.0
  9
$ORTHOMODE
 70
     0
  9
$REGENMODE
 70
     1
  9
$FILLMODE
 70
     1
  9
$QTEXTMODE
 70
     0
  9
$MIRRTEXT
 70
     1
  9
$LTSCALE
 40
1.0
  9
$ATTMODE
 70
     1
  9
$TEXTSIZE
 40
3.5
  9
$TRACEWID
 40
1.0
  9
$TEXTSTYLE
  7
Standard
  9
$CLAYER
  8
0
  9
$CELTYPE
  6
ByLayer
  9
$CECOLOR
 62
   256
  9
$CELTSCALE
 40
1.0
  9
$DISPSILH
 70
     0
  9
$DIMSCALE
 40
1.0
  9
$DIMASZ
 40
3.302
  9
$DIMEXO
 40
1.0
  9
$DIMDLI
 40
3.75
  9
$DIMRND
 40
0.0
  9
$DIMDLE
 40
0.0
  9
$DIMEXE
 40
1.0
  9
$DIMTP
 40
0.0
  9
$DIMTM
 40
0.0
  9
$DIMTXT
 40
3.5
  9
$DIMCEN
 40
2.5
  9
$DIMTSZ
 40
0.0
  9
$DIMTOL
 70
     0
  9
$DIMLIM
 70
     0
  9
$DIMTIH
 70
     1
  9
$DIMTOH
 70
     1
  9
$DIMSE1
 70
     0
  9
$DIMSE2
 70
     0
  9
$DIMTAD
 70
     1
  9
$DIMZIN
 70
     0
  9
$DIMBLK
  1

  9
$DIMASO
 70
     1
  9
$DIMSHO
 70
     1
  9
$DIMPOST
  1

  9
$DIMAPOST
  1

  9
$DIMALT
 70
     0
  9
$DIMALTD
 70
     3
  9
$DIMALTF
 40
0.0393700787
  9
$DIMLFAC
 40
1.0
  9
$DIMTOFL
 70
     1
  9
$DIMTVP
 40
0.0
  9
$DIMTIX
 70
     0
  9
$DIMSOXD
 70
     0
  9
$DIMSAH
 70
     0
  9
$DIMBLK1
  1

  9
$DIMBLK2
  1

  9
$DIMSTYLE
  2
ISO-25
  9
$DIMCLRD
 70
     0
  9
$DIMCLRE
 70
     0
  9
$DIMCLRT
 70
     0
  9
$DIMTFAC
 40
1.0
  9
$DIMGAP
 40
1.524
  9
$DIMJUST
 70
     0
  9
$DIMSD1
 70
     0
  9
$DIMSD2
 70
     0
  9
$DIMTOLJ
 70
     0
  9
$DIMTZIN
 70
     0
  9
$DIMALTZ
 70
     0
  9
$DIMALTTZ
 70
     0
  9
$DIMUPT
 70
     0
  9
$DIMDEC
 70
     2
  9
$DIMTDEC
 70
     2
  9
$DIMALTU
 70
     2
  9
$DIMALTTD
 70
     3
  9
$DIMTXSTY
  7
Standard
  9
$DIMAUNIT
 70
     0
  9
$DIMADEC
 70
     2
  9
$DIMALTRND
 40
0.0
  9
$DIMAZIN
 70
     0
  9
$DIMDSEP
 70
    44
  9
$DIMATFIT
 70
     3
  9
$DIMFRAC
 70
     0
  9
$DIMLDRBLK
  1

  9
$DIMLUNIT
 70
     2
  9
$DIMLWD
 70
    -2
  9
$DIMLWE
 70
    -2
  9
$DIMTMOVE
 70
     0
  9
$LUNITS
 70
     2
  9
$LUPREC
 70
     2
  9
$SKETCHINC
 40
1.0
  9
$FILLETRAD
 40
10.0
  9
$AUNITS
 70
     0
  9
$AUPREC
 70
     2
  9
$MENU
  1
.
  9
$ELEVATION
 40
0.0
  9
$PELEVATION
 40
0.0
  9
$THICKNESS
 40
0.0
  9
$LIMCHECK
 70
     0
  9
$CHAMFERA
 40
0.0
  9
$CHAMFERB
 40
0.0
  9
$CHAMFERC
 40
0.0
  9
$CHAMFERD
 40
0.0
  9
$SKPOLY
 70
     0
  9
$TDCREATE
 40
2459290.527364792
  9
$TDUCREATE
 40
2459290.485698125
  9
$TDUPDATE
 40
2459290.527366505
  9
$TDUUPDATE
 40
2459290.485699838
  9
$TDINDWG
 40
0.0000000116
  9
$TDUSRTIMER
 40
0.0000000116
  9
$USRTIMER
 70
     1
  9
$ANGBASE
 50
0.0
  9
$ANGDIR
 70
     0
  9
$PDMODE
 70
     0
  9
$PDSIZE
 40
-1.0
  9
$PLINEWID
 40
0.0
  9
$SPLFRAME
 70
     0
  9
$SPLINETYPE
 70
     6
  9
$SPLINESEGS
 70
     8
  9
$HANDSEED
  5
372
  9
$SURFTAB1
 70
     6
  9
$SURFTAB2
 70
     6
  9
$SURFTYPE
 70
     6
  9
$SURFU
 70
     6
  9
$SURFV
 70
     6
  9
$UCSBASE
  2

  9
$UCSNAME
  2

  9
$UCSORG
 10
0.0
 20
0.0
 30
0.0
  9
$UCSXDIR
 10
1.0
 20
0.0
 30
0.0
  9
$UCSYDIR
 10
0.0
 20
1.0
 30
0.0
  9
$UCSORTHOREF
  2

  9
$UCSORTHOVIEW
 70
     0
  9
$UCSORGTOP
 10
0.0
 20
0.0
 30
0.0
  9
$UCSORGBOTTOM
 10
0.0
 20
0.0
 30
0.0
  9
$UCSORGLEFT
 10
0.0
 20
0.0
 30
0.0
  9
$UCSORGRIGHT
 10
0.0
 20
0.0
 30
0.0
  9
$UCSORGFRONT
 10
0.0
 20
0.0
 30
0.0
  9
$UCSORGBACK
 10
0.0
 20
0.0
 30
0.0
  9
$PUCSBASE
  2

  9
$PUCSNAME
  2

  9
$PUCSORG
 10
0.0
 20
0.0
 30
0.0
  9
$PUCSXDIR
 10
1.0
 20
0.0
 30
0.0
  9
$PUCSYDIR
 10
0.0
 20
1.0
 30
0.0
  9
$PUCSORTHOREF
  2

  9
$PUCSORTHOVIEW
 70
     0
  9
$PUCSORGTOP
 10
0.0
 20
0.0
 30
0.0
  9
$PUCSORGBOTTOM
 10
0.0
 20
0.0
 30
0.0
  9
$PUCSORGLEFT
 10
0.0
 20
0.0
 30
0.0
  9
$PUCSORGRIGHT
 10
0.0
 20
0.0
 30
0.0
  9
$PUCSORGFRONT
 10
0.0
 20
0.0
 30
0.0
  9
$PUCSORGBACK
 10
0.0
 20
0.0
 30
0.0
  9
$USERI1
 70
     0
  9
$USERI2
 70
     0
  9
$USERI3
 70
     0
  9
$USERI4
 70
     0
  9
$USERI5
 70
     0
  9
$USERR1
 40
0.0
  9
$USERR2
 40
0.0
  9
$USERR3
 40
0.0
  9
$USERR4
 40
0.0
  9
$USERR5
 40
0.0
  9
$WORLDVIEW
 70
     1
  9
$SHADEDGE
 70
     3
  9
$SHADEDIF
 70
    70
  9
$TILEMODE
 70
     1
  9
$MAXACTVP
 70
    64
  9
$PINSBASE
 10
0.0
 20
0.0
 30
0.0
  9
$PLIMCHECK
 70
     0
  9
$PEXTMIN
 10
1.0000000000E+20
 20
1.0000000000E+20
 30
1.0000000000E+20
  9
$PEXTMAX
 10
-1.0000000000E+20
 20
-1.0000000000E+20
 30
-1.0000000000E+20
  9
$PLIMMIN
 10
0.0
 20
0.0
  9
$PLIMMAX
 10
420.0
 20
297.0
  9
$UNITMODE
 70
     0
  9
$VISRETAIN
 70
     1
  9
$PLINEGEN
 70
     0
  9
$PSLTSCALE
 70
     1
  9
$TREEDEPTH
 70
  3020
  9
$CMLSTYLE
  2
Standard
  9
$CMLJUST
 70
     0
  9
$CMLSCALE
 40
20.0
  9
$PROXYGRAPHICS
 70
     1
  9
$MEASUREMENT
 70
     1
  9
$CELWEIGHT
370
    -1
  9
$ENDCAPS
280
     0
  9
$JOINSTYLE
280
     0
  9
$LWDISPLAY
290
     1
  9
$INSUNITS
 70
     4
  9
$HYPERLINKBASE
  1

  9
$STYLESHEET
  1

  9
$XEDIT
290
     1
  9
$CEPSNTYPE
380
     0
  9
$PSTYLEMODE
290
     1
  9
$FINGERPRINTGUID
  2
{BF9697D9-122A-4ACE-B653-7823507CB65B}
  9
$VERSIONGUID
  2
{FAEB1C32-E019-11D5-929B-00C0DF256EC4}
  9
$EXTNAMES
290
     1
  9
$PSVPSCALE
 40
0.0
  9
$OLESTARTUP
290
     0
  0
ENDSEC
  0
SECTION
  2
CLASSES
  0
CLASS
  1
ACDBDICTIONARYWDFLT
  2
AcDbDictionaryWithDefault
  3
ObjectDBX Classes
 90
        0
280
     0
281
     0
  0
CLASS
  1
VISUALSTYLE
  2
AcDbVisualStyle
  3
ObjectDBX Classes
 90
     4095
280
     0
281
     0
  0
CLASS
  1
MATERIAL
  2
AcDbMaterial
  3
ObjectDBX Classes
 90
     1153
280
     0
281
     0
  0
CLASS
  1
SCALE
  2
AcDbScale
  3
ObjectDBX Classes
 90
     1153
280
     0
281
     0
  0
CLASS
  1
TABLESTYLE
  2
AcDbTableStyle
  3
ObjectDBX Classes
 90
     4095
280
     0
281
     0
  0
CLASS
  1
MLEADERSTYLE
  2
AcDbMLeaderStyle
  3
ACDB_MLEADERSTYLE_CLASS
 90
     4095
280
     0
281
     0
  0
CLASS
  1
SUN
  2
AcDbSun
  3
SCENEOE
 90
     1153
280
     0
281
     0
  0
CLASS
  1
ACDBPLACEHOLDER
  2
AcDbPlaceHolder
  3
ObjectDBX Classes
 90
        0
280
     0
281
     0
  0
CLASS
  1
LAYOUT
  2
AcDbLayout
  3
ObjectDBX Classes
 90
        0
280
     0
281
     0
  0
ENDSEC
  0
SECTION
  2
TABLES
  0
TABLE
  2
VPORT
  5
8
330
0
100
AcDbSymbolTable
 70
     1
  0
VPORT
  5
29
330
8
100
AcDbSymbolTableRecord
100
AcDbViewportTableRecord
  2
*Active
 70
     0
 10
0.0
 20
0.0
 11
1.0
 21
1.0
 12
148.5
 22
105.0
 13
0.0
 23
0.0
 14
10.0
 24
10.0
 15
10.0
 25
10.0
 16
0.0
 26
0.0
 36
1.0
 17
0.0
 27
0.0
 37
0.0
 40
210.0
 41
1.4142857143
 42
50.0
 43
0.0
 44
0.0
 50
0.0
 51
0.0
 71
     0
 72
  2000
 73
     1
 74
     3
 75
     0
 76
     0
 77
     0
 78
     0
281
     0
 65
     1
110
0.0
120
0.0
130
0.0
111
1.0
121
0.0
131
0.0
112
0.0
122
1.0
132
0.0
 79
     0
146
0.0
  0
ENDTAB
  0
TABLE
  2
LTYPE
  5
5
330
0
100
AcDbSymbolTable
 70
     8
  0
LTYPE
  5
14
330
5
100
AcDbSymbolTableRecord
100
AcDbLinetypeTableRecord
  2
ByBlock
 70
     0
  3

 72
    65
 73
     0
 40
0.0
  0
LTYPE
  5
15
330
5
100
AcDbSymbolTableRecord
100
AcDbLinetypeTableRecord
  2
ByLayer
 70
     0
  3

 72
    65
 73
     0
 40
0.0
  0
LTYPE
  5
16
330
5
100
AcDbSymbolTableRecord
100
AcDbLinetypeTableRecord
  2
Continuous
 70
     0
  3
Solid line
 72
    65
 73
     0
 40
0.0
  0
LTYPE
  5
6E
330
5
100
AcDbSymbolTableRecord
100
AcDbLinetypeTableRecord
  2
SLD-Solid
 70
     0
  3
SolidWorks Line Style
 72
    65
 73
     0
 40
0.0
  0
LTYPE
  5
6F
330
5
100
AcDbSymbolTableRecord
100
AcDbLinetypeTableRecord
  2
SLD-Dashed
 70
     0
  3
SolidWorks Line Style
 72
    65
 73
     2
 40
1.905
 49
1.27
 74
     0
 49
-0.635
 74
     0
  0
LTYPE
  5
70
330
5
100
AcDbSymbolTableRecord
100
AcDbLinetypeTableRecord
  2
SLD-Phantom
 70
     0
  3
SolidWorks Line Style
 72
    65
 73
     6
 40
12.7
 49
6.35
 74
     0
 49
-1.27
 74
     0
 49
1.27
 74
     0
 49
-1.27
 74
     0
 49
1.27
 74
     0
 49
-1.27
 74
     0
  0
LTYPE
  5
71
330
5
100
AcDbSymbolTableRecord
100
AcDbLinetypeTableRecord
  2
SLD-Chain
 70
     0
  3
SolidWorks Line Style
 72
    65
 73
     4
 40
10.16
 49
6.35
 74
     0
 49
-1.27
 74
     0
 49
1.27
 74
     0
 49
-1.27
 74
     0
  0
LTYPE
  5
72
330
5
100
AcDbSymbolTableRecord
100
AcDbLinetypeTableRecord
  2
SLD-Center
 70
     0
  3
SolidWorks Line Style
 72
    65
 73
     4
 40
19.05
 49
15.24
 74
     0
 49
-1.27
 74
     0
 49
1.27
 74
     0
 49
-1.27
 74
     0
  0
LTYPE
  5
73
330
5
100
AcDbSymbolTableRecord
100
AcDbLinetypeTableRecord
  2
SLD-Stitch
 70
     0
  3
SolidWorks Line Style
 72
    65
 73
     2
 40
0.635
 49
0.0
 74
     0
 49
-0.635
 74
     0
  0
LTYPE
  5
74
330
5
100
AcDbSymbolTableRecord
100
AcDbLinetypeTableRecord
  2
SLD-Thin-Thick-Chain
 70
     0
  3
SolidWorks Line Style
 72
    65
 73
     4
 40
10.16
 49
6.35
 74
     0
 49
-1.27
 74
     0
 49
1.27
 74
     0
 49
-1.27
 74
     0
  0
ENDTAB
  0
TABLE
  2
LAYER
  5
2
330
0
100
AcDbSymbolTable
 70
    12
  0
LAYER
  5
10
330
2
100
AcDbSymbolTableRecord
100
AcDbLayerTableRecord
  2
0
 70
     0
 62
     7
  6
Continuous
370
    -3
390
F
  0
LAYER
  5
75
330
2
100
AcDbSymbolTableRecord
100
AcDbLayerTableRecord
  2
SLD-0
 70
     0
 62
   179
  6
SLD-Solid
370
    -3
390
F
  0
LAYER
  5
76
330
2
100
AcDbSymbolTableRecord
100
AcDbLayerTableRecord
  2
80
 70
     0
 62
    -6
  6
SLD-Solid
290
     0
370
    -3
390
F
  0
LAYER
  5
77
330
2
100
AcDbSymbolTableRecord
100
AcDbLayerTableRecord
  2
81
 70
     0
 62
    -3
  6
SLD-Solid
290
     0
370
    -3
390
F
  0
LAYER
  5
78
330
2
100
AcDbSymbolTableRecord
100
AcDbLayerTableRecord
  2
1
 70
     0
 62
     4
  6
SLD-Solid
290
     0
370
    -3
390
F
  0
LAYER
  5
79
330
2
100
AcDbSymbolTableRecord
100
AcDbLayerTableRecord
  2
4
 70
     0
 62
    -2
  6
SLD-Chain
290
     0
370
    -3
390
F
  0
LAYER
  5
7A
330
2
100
AcDbSymbolTableRecord
100
AcDbLayerTableRecord
  2
2
 70
     0
 62
     7
  6
SLD-Solid
290
     0
370
    -3
390
F
  0
LAYER
  5
7B
330
2
100
AcDbSymbolTableRecord
100
AcDbLayerTableRecord
  2
SK3
 70
     0
 62
     1
  6
SLD-Dashed
290
     0
370
    -3
390
F
  0
LAYER
  5
7C
330
2
100
AcDbSymbolTableRecord
100
AcDbLayerTableRecord
  2
SK4
 70
     0
 62
     2
  6
SLD-Chain
290
     0
370
    -3
390
F
  0
LAYER
  5
7D
330
2
100
AcDbSymbolTableRecord
100
AcDbLayerTableRecord
  2
SK2
 70
     0
 62
     7
  6
SLD-Solid
290
     0
370
    -3
390
F
  0
LAYER
  5
7E
330
2
100
AcDbSymbolTableRecord
100
AcDbLayerTableRecord
  2
SK6
 70
     0
 62
     5
  6
SLD-Solid
290
     0
370
    -3
390
F
  0
LAYER
  5
7F
330
2
100
AcDbSymbolTableRecord
100
AcDbLayerTableRecord
  2
SK1
 70
     0
 62
     4
  6
SLD-Solid
370
    -3
390
F
  0
ENDTAB
  0
TABLE
  2
STYLE
  5
3
330
0
100
AcDbSymbolTable
 70
     2
  0
STYLE
  5
11
330
3
100
AcDbSymbolTableRecord
100
AcDbTextStyleTableRecord
  2
Standard
 70
     0
 40
0.0
 41
1.0
 50
0.0
 71
     0
 42
3.5
  3
txt
  4

  0
STYLE
  5
2EC
330
3
100
AcDbSymbolTableRecord
100
AcDbTextStyleTableRecord
  2
SLDTEXTSTYLE0
 70
     0
 40
0.0
 41
0.75
 50
0.0
 71
     0
 42
3.5
  3
TXT
  4

  0
ENDTAB
  0
TABLE
  2
VIEW
  5
6
330
0
100
AcDbSymbolTable
 70
     0
  0
ENDTAB
  0
TABLE
  2
UCS
  5
7
330
0
100
AcDbSymbolTable
 70
     0
  0
ENDTAB
  0
TABLE
  2
APPID
  5
9
330
0
100
AcDbSymbolTable
 70
     1
  0
APPID
  5
12
330
9
100
AcDbSymbolTableRecord
100
AcDbRegAppTableRecord
  2
ACAD
 70
     0
  0
ENDTAB
  0
TABLE
  2
DIMSTYLE
  5
A
330
0
100
AcDbSymbolTable
 70
     2
100
AcDbDimStyleTable
  0
DIMSTYLE
105
27
330
A
100
AcDbSymbolTableRecord
100
AcDbDimStyleTableRecord
  2
ISO-25
 70
     0
 41
2.5
 42
0.625
 43
3.75
 44
1.25
 73
     0
 74
     0
 77
     1
 78
     8
140
2.5
141
2.5
143
0.0393700787
147
0.625
171
     3
172
     1
178
     0
271
     2
272
     2
274
     3
278
    44
283
     0
284
     8
340
11
  0
DIMSTYLE
105
2ED
102
{ACAD_REACTORS
330
2EB
330
2F7
330
301
330
30B
330
315
330
31F
330
32A
330
335
330
340
330
34A
330
355
330
360
102
}
330
A
100
AcDbSymbolTableRecord
100
AcDbDimStyleTableRecord
  2
SLDDIMSTYLE0
 70
     0
 41
3.302
 44
0.0
 45
0.000000001
 73
     0
 74
     0
 77
     1
 78
    12
 79
     3
140
3.5
147
0.875
173
     1
178
     0
271
     2
272
     2
276
     2
284
    12
340
2EC
  0
ENDTAB
  0
TABLE
  2
BLOCK_RECORD
  5
1
330
0
100
AcDbSymbolTable
 70
    16
  0
BLOCK_RECORD
  5
1F
330
1
100
AcDbSymbolTableRecord
100
AcDbBlockTableRecord
  2
*Model_Space
340
22
  0
BLOCK_RECORD
  5
1B
330
1
100
AcDbSymbolTableRecord
100
AcDbBlockTableRecord
  2
*Paper_Space
340
1E
  0
BLOCK_RECORD
  5
23
330
1
100
AcDbSymbolTableRecord
100
AcDbBlockTableRecord
  2
*Paper_Space0
340
26
  0
BLOCK_RECORD
  5
80
330
1
100
AcDbSymbolTableRecord
100
AcDbBlockTableRecord
  2
Block11
340
0
102
{BLKREFS
331
2EA
102
}
  0
BLOCK_RECORD
  5
89
330
1
100
AcDbSymbolTableRecord
100
AcDbBlockTableRecord
  2
Block12
340
0
102
{BLKREFS
331
2E9
102
}
  0
BLOCK_RECORD
  5
2EE
330
1
100
AcDbSymbolTableRecord
100
AcDbBlockTableRecord
  2
_D
340
0
  0
BLOCK_RECORD
  5
2F8
330
1
100
AcDbSymbolTableRecord
100
AcDbBlockTableRecord
  2
_D_1
340
0
  0
BLOCK_RECORD
  5
302
330
1
100
AcDbSymbolTableRecord
100
AcDbBlockTableRecord
  2
_D_2
340
0
  0
BLOCK_RECORD
  5
30C
330
1
100
AcDbSymbolTableRecord
100
AcDbBlockTableRecord
  2
_D_3
340
0
  0
BLOCK_RECORD
  5
316
330
1
100
AcDbSymbolTableRecord
100
AcDbBlockTableRecord
  2
_D_4
340
0
  0
BLOCK_RECORD
  5
320
330
1
100
AcDbSymbolTableRecord
100
AcDbBlockTableRecord
  2
_D_5
340
0
  0
BLOCK_RECORD
  5
32B
330
1
100
AcDbSymbolTableRecord
100
AcDbBlockTableRecord
  2
_D_6
340
0
  0
BLOCK_RECORD
  5
336
330
1
100
AcDbSymbolTableRecord
100
AcDbBlockTableRecord
  2
_D_7
340
0
  0
BLOCK_RECORD
  5
341
330
1
100
AcDbSymbolTableRecord
100
AcDbBlockTableRecord
  2
_D_8
340
0
  0
BLOCK_RECORD
  5
34B
330
1
100
AcDbSymbolTableRecord
100
AcDbBlockTableRecord
  2
_D_9
340
0
  0
BLOCK_RECORD
  5
356
330
1
100
AcDbSymbolTableRecord
100
AcDbBlockTableRecord
  2
_D_10
340
0
  0
BLOCK_RECORD
  5
361
330
1
100
AcDbSymbolTableRecord
100
AcDbBlockTableRecord
  2
_D_11
340
0
  0
BLOCK_RECORD
  5
36C
330
1
100
AcDbSymbolTableRecord
100
AcDbBlockTableRecord
  2
SW_NOTE_0
340
0
102
{BLKREFS
331
371
102
}
  0
ENDTAB
  0
ENDSEC
  0
SECTION
  2
BLOCKS
  0
BLOCK
  5
20
330
1F
100
AcDbEntity
  8
0
100
AcDbBlockBegin
  2
*Model_Space
 70
     0
 10
0.0
 20
0.0
 30
0.0
  3
*Model_Space
  1

  0
ENDBLK
  5
21
330
1F
100
AcDbEntity
  8
0
100
AcDbBlockEnd
  0
BLOCK
  5
1C
330
1B
100
AcDbEntity
 67
     1
  8
0
100
AcDbBlockBegin
  2
*Paper_Space
 70
     0
 10
0.0
 20
0.0
 30
0.0
  3
*Paper_Space
  1

  0
ENDBLK
  5
1D
330
1B
100
AcDbEntity
 67
     1
  8
0
100
AcDbBlockEnd
  0
BLOCK
  5
24
330
23
100
AcDbEntity
  8
0
100
AcDbBlockBegin
  2
*Paper_Space0
 70
     0
 10
0.0
 20
0.0
 30
0.0
  3
*Paper_Space0
  1

  0
ENDBLK
  5
25
330
23
100
AcDbEntity
  8
0
100
AcDbBlockEnd
  0
BLOCK
  5
81
330
80
100
AcDbEntity
  8
0
100
AcDbBlockBegin
  2
Block11
 70
     0
 10
0.0
 20
0.0
 30
0.0
  3
Block11
  1

  0
CIRCLE
  5
83
330
80
100
AcDbEntity
  8
81
370
    18
100
AcDbCircle
 10
91.6264826505
 20
130.2676275275
 30
0.0
 40
2.499999999999981
  0
LINE
  5
84
330
80
100
AcDbEntity
  8
81
370
    18
100
AcDbLine
 10
91.6264826505
 20
130.2676275275
 30
0.0
 11
95.1620165565
 21
133.8031614334
 31
0.0
  0
LINE
  5
85
330
80
100
AcDbEntity
  8
81
370
    18
100
AcDbLine
 10
91.6264826505
 20
130.2676275275
 30
0.0
 11
88.0909487446
 21
126.7320936216
 31
0.0
  0
LINE
  5
86
330
80
100
AcDbEntity
  8
81
370
    18
100
AcDbLine
 10
91.6264826505
 20
130.2676275275
 30
0.0
 11
88.0909487446
 21
133.8031614334
 31
0.0
  0
LINE
  5
87
330
80
100
AcDbEntity
  8
81
100
AcDbLine
 10
91.6264826505
 20
130.2676275275
 30
0.0
 11
101.6264826505
 21
130.2676275275
 31
0.0
  0
LINE
  5
88
330
80
100
AcDbEntity
  8
81
370
    18
100
AcDbLine
 10
91.6264826505
 20
130.2676275275
 30
0.0
 11
95.1620165565
 21
126.7320936216
 31
0.0
  0
ENDBLK
  5
82
330
80
100
AcDbEntity
  8
0
100
AcDbBlockEnd
  0
BLOCK
  5
8A
330
89
100
AcDbEntity
  8
0
100
AcDbBlockBegin
  2
Block12
 70
     0
 10
0.0
 20
0.0
 30
0.0
  3
Block12
  1

  0
CIRCLE
  5
8C
330
89
100
AcDbEntity
  8
80
370
    18
100
AcDbCircle
 10
61.7273641656
 20
130.3356800267
 30
0.0
 40
2.500000000000004
  0
LINE
  5
8D
330
89
100
AcDbEntity
  8
80
370
    18
100
AcDbLine
 10
61.7273641656
 20
130.3356800267
 30
0.0
 11
65.2628980715
 21
133.8712139326
 31
0.0
  0
LINE
  5
8E
330
89
100
AcDbEntity
  8
80
370
    18
100
AcDbLine
 10
61.7273641656
 20
130.3356800267
 30
0.0
 11
58.1918302597
 21
126.8001461208
 31
0.0
  0
LINE
  5
8F
330
89
100
AcDbEntity
  8
80
370
    18
100
AcDbLine
 10
61.7273641656
 20
130.3356800267
 30
0.0
 11
58.1918302597
 21
133.8712139326
 31
0.0
  0
LINE
  5
90
330
89
100
AcDbEntity
  8
80
370
    18
100
AcDbLine
 10
61.7273641656
 20
130.3356800267
 30
0.0
 11
51.7273641656
 21
130.3356800267
 31
0.0
  0
LINE
  5
91
330
89
100
AcDbEntity
  8
80
370
    18
100
AcDbLine
 10
61.7273641656
 20
130.3356800267
 30
0.0
 11
65.2628980715
 21
126.8001461208
 31
0.0
  0
ENDBLK
  5
8B
330
89
100
AcDbEntity
  8
0
100
AcDbBlockEnd
  0
BLOCK
  5
2EF
330
2EE
100
AcDbEntity
  8
0
100
AcDbBlockBegin
  2
_D
 70
     0
 10
0.0
 20
0.0
 30
0.0
  3
_D
  1

  0
SOLID
  5
2F1
330
2EE
100
AcDbEntity
  8
SK2
100
AcDbTrace
 10
19.05
 20
54.6309521542
 30
0.0
 11
15.748
 21
55.1389521542
 31
0.0
 12
15.748
 22
54.1229521542
 32
0.0
 13
15.748
 23
54.1229521542
 33
0.0
  0
SOLID
  5
2F2
330
2EE
100
AcDbEntity
  8
SK2
100
AcDbTrace
 10
0.0
 20
54.6309521542
 30
0.0
 11
3.302
 21
54.1229521542
 31
0.0
 12
3.302
 22
55.1389521542
 32
0.0
 13
3.302
 23
55.1389521542
 33
0.0
  0
LINE
  5
2F3
330
2EE
100
AcDbEntity
  8
SK2
100
AcDbLine
 10
19.05
 20
31.35
 30
0.0
 11
19.05
 21
55.6309521542
 31
0.0
  0
LINE
  5
2F4
330
2EE
100
AcDbEntity
  8
SK2
100
AcDbLine
 10
0.0
 20
35.925
 30
0.0
 11
0.0
 21
55.6309521542
 31
0.0
  0
LINE
  5
2F5
330
2EE
100
AcDbEntity
  8
SK2
100
AcDbLine
 10
19.05
 20
54.6309521542
 30
0.0
 11
0.0
 21
54.6309521542
 31
0.0
  0
MTEXT
  5
2F6
330
2EE
100
AcDbEntity
  8
SK2
100
AcDbMText
 10
4.337181496
 20
59.1426890688
 30
0.0
 40
3.5
 41
0.0
 71
     1
 72
     1
  1
19,05
  7
SLDTEXTSTYLE0
 73
     1
 44
1.0
  0
ENDBLK
  5
2F0
330
2EE
100
AcDbEntity
  8
0
100
AcDbBlockEnd
  0
BLOCK
  5
2F9
330
2F8
100
AcDbEntity
  8
0
100
AcDbBlockBegin
  2
_D_1
 70
     0
 10
0.0
 20
0.0
 30
0.0
  3
_D_1
  1

  0
SOLID
  5
2FB
330
2F8
100
AcDbEntity
  8
SK2
100
AcDbTrace
 10
19.05
 20
54.6309521542
 30
0.0
 11
22.352
 21
54.1229521542
 31
0.0
 12
22.352
 22
55.1389521542
 32
0.0
 13
22.352
 23
55.1389521542
 33
0.0
  0
SOLID
  5
2FC
330
2F8
100
AcDbEntity
  8
SK2
100
AcDbTrace
 10
100.0
 20
54.6309521542
 30
0.0
 11
96.698
 21
55.1389521542
 31
0.0
 12
96.698
 22
54.1229521542
 32
0.0
 13
96.698
 23
54.1229521542
 33
0.0
  0
LINE
  5
2FD
330
2F8
100
AcDbEntity
  8
SK2
100
AcDbLine
 10
19.05
 20
47.1116909097
 30
0.0
 11
19.05
 21
55.6309521542
 31
0.0
  0
LINE
  5
2FE
330
2F8
100
AcDbEntity
  8
SK2
100
AcDbLine
 10
100.0
 20
36.5
 30
0.0
 11
100.0
 21
55.6309521542
 31
0.0
  0
LINE
  5
2FF
330
2F8
100
AcDbEntity
  8
SK2
100
AcDbLine
 10
19.05
 20
54.6309521542
 30
0.0
 11
100.0
 21
54.6309521542
 31
0.0
  0
MTEXT
  5
300
330
2F8
100
AcDbEntity
  8
SK2
100
AcDbMText
 10
51.0272292406
 20
59.1426890688
 30
0.0
 40
3.5
 41
0.0
 71
     1
 72
     1
  1
80,95
  7
SLDTEXTSTYLE0
 73
     1
 44
1.0
  0
ENDBLK
  5
2FA
330
2F8
100
AcDbEntity
  8
0
100
AcDbBlockEnd
  0
BLOCK
  5
303
330
302
100
AcDbEntity
  8
0
100
AcDbBlockBegin
  2
_D_2
 70
     0
 10
0.0
 20
0.0
 30
0.0
  3
_D_2
  1

  0
SOLID
  5
305
330
302
100
AcDbEntity
  8
SK2
100
AcDbTrace
 10
100.0
 20
45.5474430602
 30
0.0
 11
96.698
 21
46.0554430602
 31
0.0
 12
96.698
 22
45.0394430602
 32
0.0
 13
96.698
 23
45.0394430602
 33
0.0
  0
SOLID
  5
306
330
302
100
AcDbEntity
  8
SK2
100
AcDbTrace
 10
81.0
 20
45.5474430602
 30
0.0
 11
84.302
 21
45.0394430602
 31
0.0
 12
84.302
 22
46.0554430602
 32
0.0
 13
84.302
 23
46.0554430602
 33
0.0
  0
LINE
  5
307
330
302
100
AcDbEntity
  8
SK2
100
AcDbLine
 10
100.0
 20
36.5
 30
0.0
 11
100.0
 21
46.5474430602
 31
0.0
  0
LINE
  5
308
330
302
100
AcDbEntity
  8
SK2
100
AcDbLine
 10
81.0
 20
38.25
 30
0.0
 11
81.0
 21
46.5474430602
 31
0.0
  0
LINE
  5
309
330
302
100
AcDbEntity
  8
SK2
100
AcDbLine
 10
100.0
 20
45.5474430602
 30
0.0
 11
81.0
 21
45.5474430602
 31
0.0
  0
MTEXT
  5
30A
330
302
100
AcDbEntity
  8
SK2
100
AcDbMText
 10
87.4879212857
 20
50.0591799748
 30
0.0
 40
3.5
 41
0.0
 71
     1
 72
     1
  1
19
  7
SLDTEXTSTYLE0
 73
     1
 44
1.0
  0
ENDBLK
  5
304
330
302
100
AcDbEntity
  8
0
100
AcDbBlockEnd
  0
BLOCK
  5
30D
330
30C
100
AcDbEntity
  8
0
100
AcDbBlockBegin
  2
_D_3
 70
     0
 10
0.0
 20
0.0
 30
0.0
  3
_D_3
  1

  0
SOLID
  5
30F
330
30C
100
AcDbEntity
  8
SK2
100
AcDbTrace
 10
81.0
 20
45.5474430602
 30
0.0
 11
77.698
 21
46.0554430602
 31
0.0
 12
77.698
 22
45.0394430602
 32
0.0
 13
77.698
 23
45.0394430602
 33
0.0
  0
SOLID
  5
310
330
30C
100
AcDbEntity
  8
SK2
100
AcDbTrace
 10
37.5
 20
45.5474430602
 30
0.0
 11
40.802
 21
45.0394430602
 31
0.0
 12
40.802
 22
46.0554430602
 32
0.0
 13
40.802
 23
46.0554430602
 33
0.0
  0
LINE
  5
311
330
30C
100
AcDbEntity
  8
SK2
100
AcDbLine
 10
81.0
 20
38.25
 30
0.0
 11
81.0
 21
46.5474430602
 31
0.0
  0
LINE
  5
312
330
30C
100
AcDbEntity
  8
SK2
100
AcDbLine
 10
37.5
 20
38.25
 30
0.0
 11
37.5
 21
46.5474430602
 31
0.0
  0
LINE
  5
313
330
30C
100
AcDbEntity
  8
SK2
100
AcDbLine
 10
81.0
 20
45.5474430602
 30
0.0
 11
37.5
 21
45.5474430602
 31
0.0
  0
MTEXT
  5
314
330
30C
100
AcDbEntity
  8
SK2
100
AcDbMText
 10
54.2429860537
 20
50.0591799748
 30
0.0
 40
3.5
 41
0.0
 71
     1
 72
     1
  1
43,5
  7
SLDTEXTSTYLE0
 73
     1
 44
1.0
  0
ENDBLK
  5
30E
330
30C
100
AcDbEntity
  8
0
100
AcDbBlockEnd
  0
BLOCK
  5
317
330
316
100
AcDbEntity
  8
0
100
AcDbBlockBegin
  2
_D_4
 70
     0
 10
0.0
 20
0.0
 30
0.0
  3
_D_4
  1

  0
SOLID
  5
319
330
316
100
AcDbEntity
  8
2
100
AcDbTrace
 10
100.0
 20
63.9473233577
 30
0.0
 11
96.698
 21
64.4553233577
 31
0.0
 12
96.698
 22
63.4393233577
 32
0.0
 13
96.698
 23
63.4393233577
 33
0.0
  0
SOLID
  5
31A
330
316
100
AcDbEntity
  8
2
100
AcDbTrace
 10
0.0
 20
63.9473233577
 30
0.0
 11
3.302
 21
63.4393233577
 31
0.0
 12
3.302
 22
64.4553233577
 32
0.0
 13
3.302
 23
64.4553233577
 33
0.0
  0
LINE
  5
31B
330
316
100
AcDbEntity
  8
2
100
AcDbLine
 10
100.0
 20
36.5
 30
0.0
 11
100.0
 21
64.9473233577
 31
0.0
  0
LINE
  5
31C
330
316
100
AcDbEntity
  8
2
100
AcDbLine
 10
0.0
 20
35.925
 30
0.0
 11
0.0
 21
64.9473233577
 31
0.0
  0
LINE
  5
31D
330
316
100
AcDbEntity
  8
2
100
AcDbLine
 10
100.0
 20
63.9473233577
 30
0.0
 11
0.0
 21
63.9473233577
 31
0.0
  0
MTEXT
  5
31E
330
316
100
AcDbEntity
  8
2
100
AcDbMText
 10
43.4069441469
 20
68.4590602723
 30
0.0
 40
3.5
 41
0.0
 71
     1
 72
     1
  1
100
  7
SLDTEXTSTYLE0
 73
     1
 44
1.0
  0
ENDBLK
  5
318
330
316
100
AcDbEntity
  8
0
100
AcDbBlockEnd
  0
BLOCK
  5
321
330
320
100
AcDbEntity
  8
0
100
AcDbBlockBegin
  2
_D_5
 70
     0
 10
0.0
 20
0.0
 30
0.0
  3
_D_5
  1

  0
SOLID
  5
323
330
320
100
AcDbEntity
  8
SK2
100
AcDbTrace
 10
140.1444614766
 20
37.5
 30
0.0
 11
139.6364614766
 21
34.198
 31
0.0
 12
140.6524614766
 22
34.198
 32
0.0
 13
140.6524614766
 23
34.198
 33
0.0
  0
SOLID
  5
324
330
320
100
AcDbEntity
  8
SK2
100
AcDbTrace
 10
140.1444614766
 20
-37.5
 30
0.0
 11
140.6524614766
 21
-34.198
 31
0.0
 12
139.6364614766
 22
-34.198
 32
0.0
 13
139.6364614766
 23
-34.198
 33
0.0
  0
LINE
  5
325
330
320
100
AcDbEntity
  8
SK2
100
AcDbLine
 10
99.0
 20
37.5
 30
0.0
 11
141.1444614766
 21
37.5
 31
0.0
  0
LINE
  5
326
330
320
100
AcDbEntity
  8
SK2
100
AcDbLine
 10
99.0
 20
-37.5
 30
0.0
 11
141.1444614766
 21
-37.5
 31
0.0
  0
LINE
  5
327
330
320
100
AcDbEntity
  8
SK2
100
AcDbLine
 10
140.1444614766
 20
37.5
 30
0.0
 11
140.1444614766
 21
-37.5
 31
0.0
  0
MTEXT
  5
328
330
320
100
AcDbEntity
  8
SK2
100
AcDbMText
 10
135.6327243874
 20
-5.0272461446
 30
0.0
 40
3.5
 41
0.0
 71
     1
 72
     1
  1
%%c
  7
SLDTEXTSTYLE0
 11
-7.044195017643634E-15
 21
1.0
 31
0.0
 73
     1
 44
1.0
  0
MTEXT
  5
329
330
320
100
AcDbEntity
  8
SK2
100
AcDbMText
 10
135.5792522107
 20
0.2511912538
 30
0.0
 40
3.5
 41
0.0
 71
     1
 72
     1
  1
75
  7
SLDTEXTSTYLE0
 11
-7.044195017643634E-15
 21
1.0
 31
0.0
 73
     1
 44
1.0
  0
ENDBLK
  5
322
330
320
100
AcDbEntity
  8
0
100
AcDbBlockEnd
  0
BLOCK
  5
32C
330
32B
100
AcDbEntity
  8
0
100
AcDbBlockBegin
  2
_D_6
 70
     0
 10
0.0
 20
0.0
 30
0.0
  3
_D_6
  1

  0
SOLID
  5
32E
330
32B
100
AcDbEntity
  8
SK2
100
AcDbTrace
 10
129.2969114857
 20
35.5
 30
0.0
 11
128.7889114857
 21
32.198
 31
0.0
 12
129.8049114857
 22
32.198
 32
0.0
 13
129.8049114857
 23
32.198
 33
0.0
  0
SOLID
  5
32F
330
32B
100
AcDbEntity
  8
SK2
100
AcDbTrace
 10
129.2969114857
 20
-35.5
 30
0.0
 11
129.8049114857
 21
-32.198
 31
0.0
 12
128.7889114857
 22
-32.198
 32
0.0
 13
128.7889114857
 23
-32.198
 33
0.0
  0
LINE
  5
330
330
32B
100
AcDbEntity
  8
SK2
100
AcDbLine
 10
101.0
 20
35.5
 30
0.0
 11
130.2969114857
 21
35.5
 31
0.0
  0
LINE
  5
331
330
32B
100
AcDbEntity
  8
SK2
100
AcDbLine
 10
101.0
 20
-35.5
 30
0.0
 11
130.2969114857
 21
-35.5
 31
0.0
  0
LINE
  5
332
330
32B
100
AcDbEntity
  8
SK2
100
AcDbLine
 10
129.2969114857
 20
35.5
 30
0.0
 11
129.2969114857
 21
-35.5
 31
0.0
  0
MTEXT
  5
333
330
32B
100
AcDbEntity
  8
SK2
100
AcDbMText
 10
124.7851743965
 20
-5.0272461446
 30
0.0
 40
3.5
 41
0.0
 71
     1
 72
     1
  1
%%c
  7
SLDTEXTSTYLE0
 11
-7.044195017643634E-15
 21
1.0
 31
0.0
 73
     1
 44
1.0
  0
MTEXT
  5
334
330
32B
100
AcDbEntity
  8
SK2
100
AcDbMText
 10
124.7317022198
 20
0.2511912538
 30
0.0
 40
3.5
 41
0.0
 71
     1
 72
     1
  1
71
  7
SLDTEXTSTYLE0
 11
-7.044195017643634E-15
 21
1.0
 31
0.0
 73
     1
 44
1.0
  0
ENDBLK
  5
32D
330
32B
100
AcDbEntity
  8
0
100
AcDbBlockEnd
  0
BLOCK
  5
337
330
336
100
AcDbEntity
  8
0
100
AcDbBlockBegin
  2
_D_7
 70
     0
 10
0.0
 20
0.0
 30
0.0
  3
_D_7
  1

  0
SOLID
  5
339
330
336
100
AcDbEntity
  8
SK2
100
AcDbTrace
 10
119.3303096579
 20
25.0
 30
0.0
 11
118.8223096579
 21
21.698
 31
0.0
 12
119.8383096579
 22
21.698
 32
0.0
 13
119.8383096579
 23
21.698
 33
0.0
  0
SOLID
  5
33A
330
336
100
AcDbEntity
  8
SK2
100
AcDbTrace
 10
119.3303096579
 20
-25.0
 30
0.0
 11
119.8383096579
 21
-21.698
 31
0.0
 12
118.8223096579
 22
-21.698
 32
0.0
 13
118.8223096579
 23
-21.698
 33
0.0
  0
LINE
  5
33B
330
336
100
AcDbEntity
  8
SK2
100
AcDbLine
 10
99.2679491924
 20
25.0
 30
0.0
 11
120.3303096579
 21
25.0
 31
0.0
  0
LINE
  5
33C
330
336
100
AcDbEntity
  8
SK2
100
AcDbLine
 10
99.2679491924
 20
-25.0
 30
0.0
 11
120.3303096579
 21
-25.0
 31
0.0
  0
LINE
  5
33D
330
336
100
AcDbEntity
  8
SK2
100
AcDbLine
 10
119.3303096579
 20
25.0
 30
0.0
 11
119.3303096579
 21
-25.0
 31
0.0
  0
MTEXT
  5
33E
330
336
100
AcDbEntity
  8
SK2
100
AcDbMText
 10
114.8185725687
 20
-5.0272461446
 30
0.0
 40
3.5
 41
0.0
 71
     1
 72
     1
  1
%%c
  7
SLDTEXTSTYLE0
 11
-8.820551857043885E-15
 21
1.0
 31
0.0
 73
     1
 44
1.0
  0
MTEXT
  5
33F
330
336
100
AcDbEntity
  8
SK2
100
AcDbMText
 10
114.765100392
 20
0.2511912538
 30
0.0
 40
3.5
 41
0.0
 71
     1
 72
     1
  1
50
  7
SLDTEXTSTYLE0
 11
-8.820551857043885E-15
 21
1.0
 31
0.0
 73
     1
 44
1.0
  0
ENDBLK
  5
338
330
336
100
AcDbEntity
  8
0
100
AcDbBlockEnd
  0
BLOCK
  5
342
330
341
100
AcDbEntity
  8
0
100
AcDbBlockBegin
  2
_D_8
 70
     0
 10
0.0
 20
0.0
 30
0.0
  3
_D_8
  1

  0
SOLID
  5
344
330
341
100
AcDbEntity
  8
SK2
100
AcDbTrace
 10
100.0
 20
-46.5097487326
 30
0.0
 11
96.698
 21
-46.0017487326
 31
0.0
 12
96.698
 22
-47.0177487326
 32
0.0
 13
96.698
 23
-47.0177487326
 33
0.0
  0
SOLID
  5
345
330
341
100
AcDbEntity
  8
SK2
100
AcDbTrace
 10
21.5
 20
-46.5097487326
 30
0.0
 11
24.802
 21
-47.0177487326
 31
0.0
 12
24.802
 22
-46.0017487326
 32
0.0
 13
24.802
 23
-46.0017487326
 33
0.0
  0
LINE
  5
346
330
341
100
AcDbEntity
  8
SK2
100
AcDbLine
 10
100.0
 20
-36.5
 30
0.0
 11
100.0
 21
-47.5097487326
 31
0.0
  0
LINE
  5
347
330
341
100
AcDbEntity
  8
SK2
100
AcDbLine
 10
21.5
 20
-26.25
 30
0.0
 11
21.5
 21
-47.5097487326
 31
0.0
  0
LINE
  5
348
330
341
100
AcDbEntity
  8
SK2
100
AcDbLine
 10
100.0
 20
-46.5097487326
 30
0.0
 11
21.5
 21
-46.5097487326
 31
0.0
  0
MTEXT
  5
349
330
341
100
AcDbEntity
  8
SK2
100
AcDbMText
 10
54.2429860537
 20
-41.998011818
 30
0.0
 40
3.5
 41
0.0
 71
     1
 72
     1
  1
78,5
  7
SLDTEXTSTYLE0
 73
     1
 44
1.0
  0
ENDBLK
  5
343
330
341
100
AcDbEntity
  8
0
100
AcDbBlockEnd
  0
BLOCK
  5
34C
330
34B
100
AcDbEntity
  8
0
100
AcDbBlockBegin
  2
_D_9
 70
     0
 10
0.0
 20
0.0
 30
0.0
  3
_D_9
  1

  0
SOLID
  5
34E
330
34B
100
AcDbEntity
  8
SK2
100
AcDbTrace
 10
-128.6099641274
 20
46.8062276079
 30
0.0
 11
-129.1179641274
 21
43.5042276079
 31
0.0
 12
-128.1019641274
 22
43.5042276079
 32
0.0
 13
-128.1019641274
 23
43.5042276079
 33
0.0
  0
SOLID
  5
34F
330
34B
100
AcDbEntity
  8
SK2
100
AcDbTrace
 10
-128.6099641274
 20
-46.8399994947
 30
0.0
 11
-128.1019641274
 21
-43.5379994947
 31
0.0
 12
-129.1179641274
 22
-43.5379994947
 32
0.0
 13
-129.1179641274
 23
-43.5379994947
 33
0.0
  0
LINE
  5
350
330
34B
100
AcDbEntity
  8
SK2
100
AcDbLine
 10
2.95
 20
46.8062276079
 30
0.0
 11
-129.6099641274
 21
46.8062276079
 31
0.0
  0
LINE
  5
351
330
34B
100
AcDbEntity
  8
SK2
100
AcDbLine
 10
2.95
 20
-46.8399994947
 30
0.0
 11
-129.6099641274
 21
-46.8399994947
 31
0.0
  0
LINE
  5
352
330
34B
100
AcDbEntity
  8
SK2
100
AcDbLine
 10
-128.6099641274
 20
46.8062276079
 30
0.0
 11
-128.6099641274
 21
-46.8399994947
 31
0.0
  0
MTEXT
  5
353
330
34B
100
AcDbEntity
  8
SK2
100
AcDbMText
 10
-133.1217012166
 20
-8.9604229498
 30
0.0
 40
3.5
 41
0.0
 71
     1
 72
     1
  1
%%c
  7
SLDTEXTSTYLE0
 11
-3.491481338843133E-15
 21
1.0
 31
0.0
 73
     1
 44
1.0
  0
MTEXT
  5
354
330
34B
100
AcDbEntity
  8
SK2
100
AcDbMText
 10
-133.1751733932
 20
-3.6819855515
 30
0.0
 40
3.5
 41
0.0
 71
     1
 72
     1
  1
97,45
  7
SLDTEXTSTYLE0
 11
-3.491481338843133E-15
 21
1.0
 31
0.0
 73
     1
 44
1.0
  0
ENDBLK
  5
34D
330
34B
100
AcDbEntity
  8
0
100
AcDbBlockEnd
  0
BLOCK
  5
357
330
356
100
AcDbEntity
  8
0
100
AcDbBlockBegin
  2
_D_10
 70
     0
 10
0.0
 20
0.0
 30
0.0
  3
_D_10
  1

  0
SOLID
  5
359
330
356
100
AcDbEntity
  8
SK2
100
AcDbTrace
 10
-118.3852315777
 20
34.925
 30
0.0
 11
-118.8932315777
 21
31.623
 31
0.0
 12
-117.8772315777
 22
31.623
 32
0.0
 13
-117.8772315777
 23
31.623
 33
0.0
  0
SOLID
  5
35A
330
356
100
AcDbEntity
  8
SK2
100
AcDbTrace
 10
-118.3852315777
 20
-34.925
 30
0.0
 11
-117.8772315777
 21
-31.623
 31
0.0
 12
-118.8932315777
 22
-31.623
 32
0.0
 13
-118.8932315777
 23
-31.623
 33
0.0
  0
LINE
  5
35B
330
356
100
AcDbEntity
  8
SK2
100
AcDbLine
 10
-1.0
 20
34.925
 30
0.0
 11
-119.3852315777
 21
34.925
 31
0.0
  0
LINE
  5
35C
330
356
100
AcDbEntity
  8
SK2
100
AcDbLine
 10
-1.0
 20
-34.925
 30
0.0
 11
-119.3852315777
 21
-34.925
 31
0.0
  0
LINE
  5
35D
330
356
100
AcDbEntity
  8
SK2
100
AcDbLine
 10
-118.3852315777
 20
34.925
 30
0.0
 11
-118.3852315777
 21
-34.925
 31
0.0
  0
MTEXT
  5
35E
330
356
100
AcDbEntity
  8
SK2
100
AcDbMText
 10
-122.8969686669
 20
-8.9604229498
 30
0.0
 40
3.5
 41
0.0
 71
     1
 72
     1
  1
%%c
  7
SLDTEXTSTYLE0
 11
-7.044195017643634E-15
 21
1.0
 31
0.0
 73
     1
 44
1.0
  0
MTEXT
  5
35F
330
356
100
AcDbEntity
  8
SK2
100
AcDbMText
 10
-122.9504408436
 20
-3.6819855515
 30
0.0
 40
3.5
 41
0.0
 71
     1
 72
     1
  1
69,85
  7
SLDTEXTSTYLE0
 11
-7.044195017643634E-15
 21
1.0
 31
0.0
 73
     1
 44
1.0
  0
ENDBLK
  5
358
330
356
100
AcDbEntity
  8
0
100
AcDbBlockEnd
  0
BLOCK
  5
362
330
361
100
AcDbEntity
  8
0
100
AcDbBlockBegin
  2
_D_11
 70
     0
 10
0.0
 20
0.0
 30
0.0
  3
_D_11
  1

  0
SOLID
  5
364
330
361
100
AcDbEntity
  8
SK2
100
AcDbTrace
 10
-109.5137629698
 20
-12.0
 30
0.0
 11
-109.0057629698
 21
-8.698
 31
0.0
 12
-110.0217629698
 22
-8.698
 32
0.0
 13
-110.0217629698
 23
-8.698
 33
0.0
  0
SOLID
  5
365
330
361
100
AcDbEntity
  8
SK2
100
AcDbTrace
 10
-109.5137629698
 20
12.0
 30
0.0
 11
-110.0217629698
 21
8.698
 31
0.0
 12
-109.0057629698
 22
8.698
 32
0.0
 13
-109.0057629698
 23
8.698
 33
0.0
  0
LINE
  5
366
330
361
100
AcDbEntity
  8
SK2
100
AcDbLine
 10
-90.3448185145
 20
-12.0
 30
0.0
 11
-110.5137629698
 21
-12.0
 31
0.0
  0
LINE
  5
367
330
361
100
AcDbEntity
  8
SK2
100
AcDbLine
 10
-90.3448185145
 20
12.0
 30
0.0
 11
-110.5137629698
 21
12.0
 31
0.0
  0
LINE
  5
368
330
361
100
AcDbEntity
  8
SK2
100
AcDbLine
 10
-109.5137629698
 20
-12.0
 30
0.0
 11
-109.5137629698
 21
12.0
 31
0.0
  0
MTEXT
  5
369
330
361
100
AcDbEntity
  8
SK2
100
AcDbMText
 10
-114.0254998844
 20
-4.5317774126
 30
0.0
 40
3.5
 41
0.0
 71
     1
 72
     1
  1
M
  7
SLDTEXTSTYLE0
 11
6.123233995736766E-17
 21
1.0
 31
0.0
 73
     1
 44
1.0
  0
MTEXT
  5
36A
330
361
100
AcDbEntity
  8
SK2
100
AcDbMText
 10
-114.0254998844
 20
-0.2442774782
 30
0.0
 40
3.5
 41
0.0
 71
     1
 72
     1
  1
24
  7
SLDTEXTSTYLE0
 11
6.123233995736766E-17
 21
1.0
 31
0.0
 73
     1
 44
1.0
  0
ENDBLK
  5
363
330
361
100
AcDbEntity
  8
0
100
AcDbBlockEnd
  0
BLOCK
  5
36D
330
36C
100
AcDbEntity
  8
0
100
AcDbBlockBegin
  2
SW_NOTE_0
 70
     0
 10
0.0
 20
0.0
 30
0.0
  3
SW_NOTE_0
  1

  0
MTEXT
  5
36F
330
36C
100
AcDbEntity
  8
SK6
 62
     0
100
AcDbMText
 10
0.0
 20
4.5117370892
 30
0.0
 40
3.5
 41
0.0
 71
     1
 72
     1
  1
TAPER ISO 50
  7
SLDTEXTSTYLE0
 73
     1
 44
1.0
  0
MTEXT
  5
370
330
36C
100
AcDbEntity
  8
SK6
 62
     0
100
AcDbMText
 10
0.0
 20
-0.0139574413
 30
0.0
 40
3.5
 41
0.0
 71
     1
 72
     1
  1
DIN 69871-AD/B
  7
SLDTEXTSTYLE0
 73
     1
 44
1.0
  0
ENDBLK
  5
36E
330
36C
100
AcDbEntity
  8
0
100
AcDbBlockEnd
  0
ENDSEC
  0
SECTION
  2
ENTITIES
  0
LINE
  5
92
330
1F
100
AcDbEntity
  8
1
  6
SLD-Solid
370
    25
100
AcDbLine
 10
27.7637417191
 20
37.5
 30
0.0
 11
20.05
 21
37.5
 31
0.0
  0
LINE
  5
93
330
1F
100
AcDbEntity
  8
1
  6
SLD-Solid
370
    25
100
AcDbLine
 10
71.2637417191
 20
37.5
 30
0.0
 11
47.2298786783
 21
37.5
 31
0.0
  0
LINE
  5
94
330
1F
100
AcDbEntity
  8
1
  6
SLD-Solid
370
    25
100
AcDbLine
 10
98.0
 20
37.5
 30
0.0
 11
90.7298786783
 21
37.5
 31
0.0
  0
LINE
  5
95
330
1F
100
AcDbEntity
  8
1
  6
SLD-Solid
370
    25
100
AcDbLine
 10
91.7958218687
 20
-37.5
 30
0.0
 11
98.0
 21
-37.5
 31
0.0
  0
LINE
  5
96
330
1F
100
AcDbEntity
  8
1
  6
SLD-Solid
370
    25
100
AcDbLine
 10
58.2958218687
 20
-37.5
 30
0.0
 11
70.2278473723
 21
-37.5
 31
0.0
  0
LINE
  5
97
330
1F
100
AcDbEntity
  8
1
  6
SLD-Solid
370
    25
100
AcDbLine
 10
33.1757349425
 20
-37.5
 30
0.0
 11
36.7278473723
 21
-37.5
 31
0.0
  0
LINE
  5
98
330
1F
100
AcDbEntity
  8
1
  6
SLD-Solid
370
    25
100
AcDbLine
 10
98.0
 20
-37.5
 30
0.0
 11
100.0
 21
-35.5
 31
0.0
  0
LINE
  5
99
330
1F
100
AcDbEntity
  8
1
  6
SLD-Solid
370
    25
100
AcDbLine
 10
100.0
 20
35.5
 30
0.0
 11
98.0
 21
37.5
 31
0.0
  0
LINE
  5
9A
330
1F
100
AcDbEntity
  8
1
  6
SLD-Solid
370
    25
100
AcDbLine
 10
1.7476022729
 20
34.925
 30
0.0
 11
0.0
 21
34.925
 31
0.0
  0
LINE
  5
9B
330
1F
100
AcDbEntity
  8
1
  6
SLD-Solid
370
    25
100
AcDbLine
 10
0.0
 20
-34.925
 30
0.0
 11
1.7476022729
 21
-34.925
 31
0.0
  0
LINE
  5
9C
330
1F
100
AcDbEntity
  8
SK1
  6
SLD-Solid
370
    25
100
AcDbLine
 10
0.0
 20
34.925
 30
0.0
 11
-99.6746935114
 21
20.3889699458
 31
0.0
  0
LINE
  5
9D
330
1F
100
AcDbEntity
  8
SK1
  6
SLD-Solid
370
    25
100
AcDbLine
 10
-99.6746935114
 20
-20.3889699458
 30
0.0
 11
0.0
 21
-34.925
 31
0.0
  0
LINE
  5
9E
330
1F
100
AcDbEntity
  8
1
  6
SLD-Solid
370
    25
100
AcDbLine
 10
1.7476022729
 20
-34.925
 30
0.0
 11
2.1330363037
 21
-34.7452691597
 31
0.0
  0
LINE
  5
9F
330
1F
100
AcDbEntity
  8
1
  6
SLD-Solid
370
    25
100
AcDbLine
 10
2.1330363037
 20
34.7452691597
 30
0.0
 11
1.7476022729
 21
34.925
 31
0.0
  0
LINE
  5
A0
330
1F
100
AcDbEntity
  8
1
  6
SLD-Solid
370
    25
100
AcDbLine
 10
19.05
 20
29.85
 30
0.0
 11
19.05
 21
-46.0865437781
 31
0.0
  0
LINE
  5
A1
330
1F
100
AcDbEntity
  8
1
  6
SLD-Solid
370
    25
100
AcDbLine
 10
7.8668384925
 20
29.85
 30
0.0
 11
3.95
 21
29.85
 31
0.0
  0
LINE
  5
A2
330
1F
100
AcDbEntity
  8
1
  6
SLD-Solid
370
    25
100
AcDbLine
 10
7.8668384925
 20
29.85
 30
0.0
 11
7.8668384925
 21
-46.8399994947
 31
0.0
  0
LINE
  5
A3
330
1F
100
AcDbEntity
  8
1
  6
SLD-Solid
370
    25
100
AcDbLine
 10
3.95
 20
-46.8399994947
 30
0.0
 11
7.8668384925
 21
-46.8399994947
 31
0.0
  0
LINE
  5
A4
330
1F
100
AcDbEntity
  8
1
  6
SLD-Solid
370
    25
100
AcDbLine
 10
18.3
 20
29.85
 30
0.0
 11
14.3331615075
 21
29.85
 31
0.0
  0
LINE
  5
A5
330
1F
100
AcDbEntity
  8
1
  6
SLD-Solid
370
    25
100
AcDbLine
 10
14.3331615075
 20
-46.8399836917
 30
0.0
 11
18.3
 21
-46.8399836917
 31
0.0
  0
LINE
  5
A6
330
1F
100
AcDbEntity
  8
1
  6
SLD-Solid
370
    25
100
AcDbLine
 10
14.3331615075
 20
29.85
 30
0.0
 11
14.3331615075
 21
-46.8399836917
 31
0.0
  0
LINE
  5
A7
330
1F
100
AcDbEntity
  8
1
  6
SLD-Solid
370
    25
100
AcDbLine
 10
3.2
 20
-46.0865531391
 30
0.0
 11
3.2
 21
29.85
 31
0.0
  0
LINE
  5
A8
330
1F
100
AcDbEntity
  8
1
  6
SLD-Solid
370
    25
100
AcDbLine
 10
13.015
 20
29.85
 30
0.0
 11
13.015
 21
-44.6143246819
 31
0.0
  0
LINE
  5
A9
330
1F
100
AcDbEntity
  8
1
  6
SLD-Solid
370
    25
100
AcDbLine
 10
9.185
 20
29.85
 30
0.0
 11
9.185
 21
-44.6143246819
 31
0.0
  0
LINE
  5
AA
330
1F
100
AcDbEntity
  8
1
  6
SLD-Solid
370
    25
100
AcDbLine
 10
9.935
 20
-43.633015023
 30
0.0
 11
12.265
 21
-43.633015023
 31
0.0
  0
LINE
  5
AB
330
1F
100
AcDbEntity
  8
1
  6
SLD-Solid
370
    25
100
AcDbLine
 10
12.265
 20
29.85
 30
0.0
 11
9.935
 21
29.85
 31
0.0
  0
LINE
  5
AC
330
1F
100
AcDbEntity
  8
1
  6
SLD-Solid
370
    25
100
AcDbLine
 10
98.0
 20
37.5
 30
0.0
 11
98.0
 21
-37.5
 31
0.0
  0
LINE
  5
AD
330
1F
100
AcDbEntity
  8
1
  6
SLD-Solid
370
    25
100
AcDbLine
 10
20.2289022853
 20
-35.3301533035
 30
0.0
 11
23.1947767529
 21
-35.3301533035
 31
0.0
  0
LINE
  5
AE
330
1F
100
AcDbEntity
  8
1
  6
SLD-Solid
370
    25
100
AcDbLine
 10
100.0
 20
35.5
 30
0.0
 11
100.0
 21
-35.5
 31
0.0
  0
LINE
  5
AF
330
1F
100
AcDbEntity
  8
1
  6
SLD-Solid
370
    25
100
AcDbLine
 10
0.0
 20
34.925
 30
0.0
 11
0.0
 21
-34.925
 31
0.0
  0
LINE
  5
B0
330
1F
100
AcDbEntity
  8
1
  6
SLD-Solid
370
    25
100
AcDbLine
 10
1.7476022729
 20
34.925
 30
0.0
 11
1.7476022729
 21
-34.925
 31
0.0
  0
LINE
  5
B1
330
1F
100
AcDbEntity
  8
1
  6
SLD-Solid
370
    25
100
AcDbLine
 10
19.05
 20
30.35
 30
0.0
 11
19.05
 21
29.85
 31
0.0
  0
LINE
  5
B2
330
1F
100
AcDbEntity
  8
1
  6
SLD-Solid
370
    25
100
AcDbLine
 10
3.2
 20
29.85
 30
0.0
 11
3.2
 21
30.35
 31
0.0
  0
LINE
  5
B3
330
1F
100
AcDbEntity
  8
1
  6
SLD-Solid
370
    25
100
AcDbLine
 10
3.2
 20
37.5576639982
 30
0.0
 11
3.2
 21
46.0656121744
 31
0.0
  0
LINE
  5
B4
330
1F
100
AcDbEntity
  8
1
  6
SLD-Solid
370
    25
100
AcDbLine
 10
7.8668384925
 20
38.5110779517
 30
0.0
 11
3.95
 21
38.5110779517
 31
0.0
  0
LINE
  5
B5
330
1F
100
AcDbEntity
  8
1
  6
SLD-Solid
370
    25
100
AcDbLine
 10
7.8668384925
 20
46.8062276079
 30
0.0
 11
3.95
 21
46.8062276079
 31
0.0
  0
LINE
  5
B6
330
1F
100
AcDbEntity
  8
1
  6
SLD-Solid
370
    25
100
AcDbLine
 10
7.8668384925
 20
46.8062276079
 30
0.0
 11
7.8668384925
 21
38.5110779517
 31
0.0
  0
LINE
  5
B7
330
1F
100
AcDbEntity
  8
1
  6
SLD-Solid
370
    25
100
AcDbLine
 10
19.05
 20
46.1116909097
 30
0.0
 11
19.05
 21
37.5576639982
 31
0.0
  0
LINE
  5
B8
330
1F
100
AcDbEntity
  8
1
  6
SLD-Solid
370
    25
100
AcDbLine
 10
18.3
 20
38.5110779517
 30
0.0
 11
14.3331615075
 21
38.5110779517
 31
0.0
  0
LINE
  5
B9
330
1F
100
AcDbEntity
  8
1
  6
SLD-Solid
370
    25
100
AcDbLine
 10
14.3331615075
 20
46.8582302434
 30
0.0
 11
14.3331615075
 21
38.5110779517
 31
0.0
  0
LINE
  5
BA
330
1F
100
AcDbEntity
  8
1
  6
SLD-Solid
370
    25
100
AcDbLine
 10
18.3
 20
46.8582302434
 30
0.0
 11
14.3331615075
 21
46.8582302434
 31
0.0
  0
LINE
  5
BB
330
1F
100
AcDbEntity
  8
1
  6
SLD-Solid
370
    25
100
AcDbLine
 10
9.935
 20
43.633015023
 30
0.0
 11
12.265
 21
43.633015023
 31
0.0
  0
LINE
  5
BC
330
1F
100
AcDbEntity
  8
1
  6
SLD-Solid
370
    25
100
AcDbLine
 10
12.265
 20
34.3398820615
 30
0.0
 11
9.935
 21
34.3398820615
 31
0.0
  0
LINE
  5
BD
330
1F
100
AcDbEntity
  8
1
  6
SLD-Solid
370
    25
100
AcDbLine
 10
9.185
 20
35.3276095993
 30
0.0
 11
9.185
 21
35.5784410398
 31
0.0
  0
LINE
  5
BE
330
1F
100
AcDbEntity
  8
1
  6
SLD-Solid
370
    25
100
AcDbLine
 10
13.015
 20
35.5784410398
 30
0.0
 11
13.015
 21
35.3276095993
 31
0.0
  0
LINE
  5
BF
330
1F
100
AcDbEntity
  8
1
  6
SLD-Solid
370
    25
100
AcDbLine
 10
19.05
 20
30.35
 30
0.0
 11
19.05
 21
37.5576639982
 31
0.0
  0
LINE
  5
C0
330
1F
100
AcDbEntity
  8
1
  6
SLD-Solid
370
    25
100
AcDbLine
 10
3.2
 20
37.5576639982
 30
0.0
 11
3.2
 21
30.35
 31
0.0
  0
LINE
  5
C1
330
1F
100
AcDbEntity
  8
1
  6
SLD-Solid
370
    25
100
AcDbLine
 10
9.185
 20
44.6143246819
 30
0.0
 11
9.185
 21
35.5784410398
 31
0.0
  0
LINE
  5
C2
330
1F
100
AcDbEntity
  8
1
  6
SLD-Solid
370
    25
100
AcDbLine
 10
13.015
 20
44.6143246819
 30
0.0
 11
13.015
 21
35.5784410398
 31
0.0
  0
LINE
  5
C3
330
1F
100
AcDbEntity
  8
SK1
  6
SLD-Solid
370
    25
100
AcDbLine
 10
-101.6
 20
-18.1625211762
 30
0.0
 11
-101.6
 21
18.1625211762
 31
0.0
  0
LINE
  5
C4
330
1F
100
AcDbEntity
  8
1
  6
SLD-Solid
370
    25
100
AcDbLine
 10
19.1170679903
 20
-35.7340583939
 30
0.0
 11
19.05
 21
-36.1195044035
 31
0.0
  0
LINE
  5
C5
330
1F
100
AcDbEntity
  8
SK3
  6
SLD-Dashed
370
    18
100
AcDbLine
 10
6.4723069743
 20
-13.9015950424
 30
0.0
 11
6.3056572614
 21
-13.2437532254
 31
0.0
  0
LINE
  5
C6
330
1F
100
AcDbEntity
  8
SK3
  6
SLD-Dashed
370
    18
100
AcDbLine
 10
6.3056572614
 20
-13.2437532254
 30
0.0
 11
6.0455057258
 21
-12.630742241
 31
0.0
  0
LINE
  5
C7
330
1F
100
AcDbEntity
  8
SK3
  6
SLD-Dashed
370
    18
100
AcDbLine
 10
6.0455057258
 20
-12.630742241
 30
0.0
 11
5.7095812647
 21
-12.1043377749
 31
0.0
  0
LINE
  5
C8
330
1F
100
AcDbEntity
  8
SK3
  6
SLD-Dashed
370
    18
100
AcDbLine
 10
5.7095812647
 20
-12.1043377749
 30
0.0
 11
5.3207765751
 21
-11.7004134215
 31
0.0
  0
LINE
  5
C9
330
1F
100
AcDbEntity
  8
SK3
  6
SLD-Dashed
370
    18
100
AcDbLine
 10
5.3207765751
 20
-11.7004134215
 30
0.0
 11
4.905588054
 21
-11.4464959579
 31
0.0
  0
LINE
  5
CA
330
1F
100
AcDbEntity
  8
SK3
  6
SLD-Dashed
370
    18
100
AcDbLine
 10
4.905588054
 20
-11.4464959579
 30
0.0
 11
4.492310113
 21
-11.3598894396
 31
0.0
  0
LINE
  5
CB
330
1F
100
AcDbEntity
  8
SK3
  6
SLD-Dashed
370
    18
100
AcDbLine
 10
4.492310113
 20
-11.3598894396
 30
0.0
 11
4.1091069607
 21
-11.4464959579
 31
0.0
  0
LINE
  5
CC
330
1F
100
AcDbEntity
  8
SK3
  6
SLD-Dashed
370
    18
100
AcDbLine
 10
4.1091069607
 20
-11.4464959579
 30
0.0
 11
3.7820932588
 21
-11.7004134215
 31
0.0
  0
LINE
  5
CD
330
1F
100
AcDbEntity
  8
SK3
  6
SLD-Dashed
370
    18
100
AcDbLine
 10
3.7820932588
 20
-11.7004134215
 30
0.0
 11
3.5335544506
 21
-12.1043377749
 31
0.0
  0
LINE
  5
CE
330
1F
100
AcDbEntity
  8
SK3
  6
SLD-Dashed
370
    18
100
AcDbLine
 10
3.5335544506
 20
-12.1043377749
 30
0.0
 11
3.3804280451
 21
-12.630742241
 31
0.0
  0
LINE
  5
CF
330
1F
100
AcDbEntity
  8
SK3
  6
SLD-Dashed
370
    18
100
AcDbLine
 10
3.3804280451
 20
-12.630742241
 30
0.0
 11
3.3331493539
 21
-13.2437532254
 31
0.0
  0
LINE
  5
D0
330
1F
100
AcDbEntity
  8
SK3
  6
SLD-Dashed
370
    18
100
AcDbLine
 10
3.3331493539
 20
-13.2437532254
 30
0.0
 11
3.3949403416
 21
-13.9015950424
 31
0.0
  0
LINE
  5
D1
330
1F
100
AcDbEntity
  8
SK3
  6
SLD-Dashed
370
    18
100
AcDbLine
 10
3.3949403416
 20
-13.9015950424
 30
0.0
 11
3.5615900545
 21
-14.5594368595
 31
0.0
  0
LINE
  5
D2
330
1F
100
AcDbEntity
  8
SK3
  6
SLD-Dashed
370
    18
100
AcDbLine
 10
3.5615900545
 20
-14.5594368595
 30
0.0
 11
3.8217415901
 21
-15.1724478438
 31
0.0
  0
LINE
  5
D3
330
1F
100
AcDbEntity
  8
SK3
  6
SLD-Dashed
370
    18
100
AcDbLine
 10
3.8217415901
 20
-15.1724478438
 30
0.0
 11
4.1576660511
 21
-15.6988523099
 31
0.0
  0
LINE
  5
D4
330
1F
100
AcDbEntity
  8
SK3
  6
SLD-Dashed
370
    18
100
AcDbLine
 10
4.1576660511
 20
-15.6988523099
 30
0.0
 11
4.5464707407
 21
-16.1027766634
 31
0.0
  0
LINE
  5
D5
330
1F
100
AcDbEntity
  8
SK3
  6
SLD-Dashed
370
    18
100
AcDbLine
 10
4.5464707407
 20
-16.1027766634
 30
0.0
 11
4.9616592619
 21
-16.356694127
 31
0.0
  0
LINE
  5
D6
330
1F
100
AcDbEntity
  8
SK3
  6
SLD-Dashed
370
    18
100
AcDbLine
 10
4.9616592619
 20
-16.356694127
 30
0.0
 11
5.3749372029
 21
-16.4433006452
 31
0.0
  0
LINE
  5
D7
330
1F
100
AcDbEntity
  8
SK3
  6
SLD-Dashed
370
    18
100
AcDbLine
 10
5.3749372029
 20
-16.4433006452
 30
0.0
 11
5.7581403551
 21
-16.356694127
 31
0.0
  0
LINE
  5
D8
330
1F
100
AcDbEntity
  8
SK3
  6
SLD-Dashed
370
    18
100
AcDbLine
 10
5.7581403551
 20
-16.356694127
 30
0.0
 11
6.0851540571
 21
-16.1027766634
 31
0.0
  0
LINE
  5
D9
330
1F
100
AcDbEntity
  8
SK3
  6
SLD-Dashed
370
    18
100
AcDbLine
 10
6.0851540571
 20
-16.1027766634
 30
0.0
 11
6.3336928653
 21
-15.6988523099
 31
0.0
  0
LINE
  5
DA
330
1F
100
AcDbEntity
  8
SK3
  6
SLD-Dashed
370
    18
100
AcDbLine
 10
6.3336928653
 20
-15.6988523099
 30
0.0
 11
6.4868192707
 21
-15.1724478438
 31
0.0
  0
LINE
  5
DB
330
1F
100
AcDbEntity
  8
SK3
  6
SLD-Dashed
370
    18
100
AcDbLine
 10
6.4868192707
 20
-15.1724478438
 30
0.0
 11
6.5340979619
 21
-14.5594368595
 31
0.0
  0
LINE
  5
DC
330
1F
100
AcDbEntity
  8
SK3
  6
SLD-Dashed
370
    18
100
AcDbLine
 10
6.5340979619
 20
-14.5594368595
 30
0.0
 11
6.4723069743
 21
-13.9015950424
 31
0.0
  0
LINE
  5
DD
330
1F
100
AcDbEntity
  8
SK3
  6
SLD-Dashed
370
    18
100
AcDbLine
 10
3.2
 20
-11.6748484571
 30
0.0
 11
3.2
 21
-17.0506447969
 31
0.0
  0
LINE
  5
DE
330
1F
100
AcDbEntity
  8
SK3
  6
SLD-Dashed
370
    18
100
AcDbLine
 10
3.2
 20
-15.0483796974
 30
0.0
 11
3.2
 21
-15.9034435425
 31
0.0
  0
LINE
  5
DF
330
1F
100
AcDbEntity
  8
SK3
  6
SLD-Dashed
370
    18
100
AcDbLine
 10
6.3835367829
 20
-13.9015950424
 30
0.0
 11
6.2175742345
 21
-13.2554132294
 31
0.0
  0
LINE
  5
E0
330
1F
100
AcDbEntity
  8
SK3
  6
SLD-Dashed
370
    18
100
AcDbLine
 10
6.2175742345
 20
-13.2554132294
 30
0.0
 11
5.9563869455
 21
-12.6571557653
 31
0.0
  0
LINE
  5
E1
330
1F
100
AcDbEntity
  8
SK3
  6
SLD-Dashed
370
    18
100
AcDbLine
 10
5.9563869455
 20
-12.6571557653
 30
0.0
 11
5.6193459823
 21
-12.1511926695
 31
0.0
  0
LINE
  5
E2
330
1F
100
AcDbEntity
  8
SK3
  6
SLD-Dashed
370
    18
100
AcDbLine
 10
5.6193459823
 20
-12.1511926695
 30
0.0
 11
5.2314481312
 21
-11.7750489101
 31
0.0
  0
LINE
  5
E3
330
1F
100
AcDbEntity
  8
SK3
  6
SLD-Dashed
370
    18
100
AcDbLine
 10
5.2314481312
 20
-11.7750489101
 30
0.0
 11
4.8214620015
 21
-11.5566213491
 31
0.0
  0
LINE
  5
E4
330
1F
100
AcDbEntity
  8
SK3
  6
SLD-Dashed
370
    18
100
AcDbLine
 10
4.8214620015
 20
-11.5566213491
 30
0.0
 11
4.4197943887
 21
-11.5121097594
 31
0.0
  0
LINE
  5
E5
330
1F
100
AcDbEntity
  8
SK3
  6
SLD-Dashed
370
    18
100
AcDbLine
 10
4.4197943887
 20
-11.5121097594
 30
0.0
 11
4.0562351421
 21
-11.6448153619
 31
0.0
  0
LINE
  5
E6
330
1F
100
AcDbEntity
  8
SK3
  6
SLD-Dashed
370
    18
100
AcDbLine
 10
4.0562351421
 20
-11.6448153619
 30
0.0
 11
3.757747788
 21
-11.9448959893
 31
0.0
  0
LINE
  5
E7
330
1F
100
AcDbEntity
  8
SK3
  6
SLD-Dashed
370
    18
100
AcDbLine
 10
3.757747788
 20
-11.9448959893
 30
0.0
 11
3.5464697679
 21
-12.3900960341
 31
0.0
  0
LINE
  5
E8
330
1F
100
AcDbEntity
  8
SK3
  6
SLD-Dashed
370
    18
100
AcDbLine
 10
3.5464697679
 20
-12.3900960341
 30
0.0
 11
3.4380706061
 21
-12.9473970457
 31
0.0
  0
LINE
  5
E9
330
1F
100
AcDbEntity
  8
SK3
  6
SLD-Dashed
370
    18
100
AcDbLine
 10
3.4380706061
 20
-12.9473970457
 30
0.0
 11
3.4405897723
 21
-13.5754665576
 31
0.0
  0
LINE
  5
EA
330
1F
100
AcDbEntity
  8
SK3
  6
SLD-Dashed
370
    18
100
AcDbLine
 10
3.4405897723
 20
-13.5754665576
 30
0.0
 11
3.5538404317
 21
-14.2277235272
 31
0.0
  0
LINE
  5
EB
330
1F
100
AcDbEntity
  8
SK3
  6
SLD-Dashed
370
    18
100
AcDbLine
 10
3.5538404317
 20
-14.2277235272
 30
0.0
 11
3.7694233009
 21
-14.8557930391
 31
0.0
  0
LINE
  5
EC
330
1F
100
AcDbEntity
  8
SK3
  6
SLD-Dashed
370
    18
100
AcDbLine
 10
3.7694233009
 20
-14.8557930391
 30
0.0
 11
4.0713495847
 21
-15.4130940507
 31
0.0
  0
LINE
  5
ED
330
1F
100
AcDbEntity
  8
SK3
  6
SLD-Dashed
370
    18
100
AcDbLine
 10
4.0713495847
 20
-15.4130940507
 30
0.0
 11
4.4372267919
 21
-15.8582940956
 31
0.0
  0
LINE
  5
EE
330
1F
100
AcDbEntity
  8
SK3
  6
SLD-Dashed
370
    18
100
AcDbLine
 10
4.4372267919
 20
-15.8582940956
 30
0.0
 11
4.8399194838
 21
-16.1583747229
 31
0.0
  0
LINE
  5
EF
330
1F
100
AcDbEntity
  8
SK3
  6
SLD-Dashed
370
    18
100
AcDbLine
 10
4.8399194838
 20
-16.1583747229
 30
0.0
 11
5.2495617856
 21
-16.2910803255
 31
0.0
  0
LINE
  5
F0
330
1F
100
AcDbEntity
  8
SK3
  6
SLD-Dashed
370
    18
100
AcDbLine
 10
5.2495617856
 20
-16.2910803255
 30
0.0
 11
5.6357724018
 21
-16.2465687357
 31
0.0
  0
LINE
  5
F1
330
1F
100
AcDbEntity
  8
SK3
  6
SLD-Dashed
370
    18
100
AcDbLine
 10
5.6357724018
 20
-16.2465687357
 30
0.0
 11
5.9699078577
 21
-16.0281411747
 31
0.0
  0
LINE
  5
F2
330
1F
100
AcDbEntity
  8
SK3
  6
SLD-Dashed
370
    18
100
AcDbLine
 10
5.9699078577
 20
-16.0281411747
 30
0.0
 11
6.2271868553
 21
-15.6519974153
 31
0.0
  0
LINE
  5
F3
330
1F
100
AcDbEntity
  8
SK3
  6
SLD-Dashed
370
    18
100
AcDbLine
 10
6.2271868553
 20
-15.6519974153
 30
0.0
 11
6.3885281882
 21
-15.1460343195
 31
0.0
  0
LINE
  5
F4
330
1F
100
AcDbEntity
  8
SK3
  6
SLD-Dashed
370
    18
100
AcDbLine
 10
6.3885281882
 20
-15.1460343195
 30
0.0
 11
6.4419659078
 21
-14.5477768555
 31
0.0
  0
LINE
  5
F5
330
1F
100
AcDbEntity
  8
SK3
  6
SLD-Dashed
370
    18
100
AcDbLine
 10
6.4419659078
 20
-14.5477768555
 30
0.0
 11
6.3835367829
 21
-13.9015950424
 31
0.0
  0
LINE
  5
F6
330
1F
100
AcDbEntity
  8
SK3
  6
SLD-Dashed
370
    18
100
AcDbLine
 10
17.1792841073
 20
-11.0168048658
 30
0.0
 11
17.0133215589
 21
-10.3706230527
 31
0.0
  0
LINE
  5
F7
330
1F
100
AcDbEntity
  8
SK3
  6
SLD-Dashed
370
    18
100
AcDbLine
 10
17.0133215589
 20
-10.3706230527
 30
0.0
 11
16.7521342699
 21
-9.7723655887
 31
0.0
  0
LINE
  5
F8
330
1F
100
AcDbEntity
  8
SK3
  6
SLD-Dashed
370
    18
100
AcDbLine
 10
16.7521342699
 20
-9.7723655887
 30
0.0
 11
16.4150933067
 21
-9.2664024929
 31
0.0
  0
LINE
  5
F9
330
1F
100
AcDbEntity
  8
SK3
  6
SLD-Dashed
370
    18
100
AcDbLine
 10
16.4150933067
 20
-9.2664024929
 30
0.0
 11
16.0271954557
 21
-8.8902587335
 31
0.0
  0
LINE
  5
FA
330
1F
100
AcDbEntity
  8
SK3
  6
SLD-Dashed
370
    18
100
AcDbLine
 10
16.0271954557
 20
-8.8902587335
 30
0.0
 11
15.6172093259
 21
-8.6718311725
 31
0.0
  0
LINE
  5
FB
330
1F
100
AcDbEntity
  8
SK3
  6
SLD-Dashed
370
    18
100
AcDbLine
 10
15.6172093259
 20
-8.6718311725
 30
0.0
 11
15.2155417131
 21
-8.6273195827
 31
0.0
  0
LINE
  5
FC
330
1F
100
AcDbEntity
  8
SK3
  6
SLD-Dashed
370
    18
100
AcDbLine
 10
15.2155417131
 20
-8.6273195827
 30
0.0
 11
14.8519824665
 21
-8.7600251853
 31
0.0
  0
LINE
  5
FD
330
1F
100
AcDbEntity
  8
SK3
  6
SLD-Dashed
370
    18
100
AcDbLine
 10
14.8519824665
 20
-8.7600251853
 30
0.0
 11
14.5534951125
 21
-9.0601058126
 31
0.0
  0
LINE
  5
FE
330
1F
100
AcDbEntity
  8
SK3
  6
SLD-Dashed
370
    18
100
AcDbLine
 10
14.5534951125
 20
-9.0601058126
 30
0.0
 11
14.3422170924
 21
-9.5053058575
 31
0.0
  0
LINE
  5
FF
330
1F
100
AcDbEntity
  8
SK3
  6
SLD-Dashed
370
    18
100
AcDbLine
 10
14.3422170924
 20
-9.5053058575
 30
0.0
 11
14.2338179305
 21
-10.0626068691
 31
0.0
  0
LINE
  5
100
330
1F
100
AcDbEntity
  8
SK3
  6
SLD-Dashed
370
    18
100
AcDbLine
 10
14.2338179305
 20
-10.0626068691
 30
0.0
 11
14.2363370967
 21
-10.690676381
 31
0.0
  0
LINE
  5
101
330
1F
100
AcDbEntity
  8
SK3
  6
SLD-Dashed
370
    18
100
AcDbLine
 10
14.2363370967
 20
-10.690676381
 30
0.0
 11
14.3495877561
 21
-11.3429333506
 31
0.0
  0
LINE
  5
102
330
1F
100
AcDbEntity
  8
SK3
  6
SLD-Dashed
370
    18
100
AcDbLine
 10
14.3495877561
 20
-11.3429333506
 30
0.0
 11
14.5651706253
 21
-11.9710028625
 31
0.0
  0
LINE
  5
103
330
1F
100
AcDbEntity
  8
SK3
  6
SLD-Dashed
370
    18
100
AcDbLine
 10
14.5651706253
 20
-11.9710028625
 30
0.0
 11
14.8670969091
 21
-12.5283038741
 31
0.0
  0
LINE
  5
104
330
1F
100
AcDbEntity
  8
SK3
  6
SLD-Dashed
370
    18
100
AcDbLine
 10
14.8670969091
 20
-12.5283038741
 30
0.0
 11
15.2329741163
 21
-12.9735039189
 31
0.0
  0
LINE
  5
105
330
1F
100
AcDbEntity
  8
SK3
  6
SLD-Dashed
370
    18
100
AcDbLine
 10
15.2329741163
 20
-12.9735039189
 30
0.0
 11
15.6356668082
 21
-13.2735845463
 31
0.0
  0
LINE
  5
106
330
1F
100
AcDbEntity
  8
SK3
  6
SLD-Dashed
370
    18
100
AcDbLine
 10
15.6356668082
 20
-13.2735845463
 30
0.0
 11
16.04530911
 21
-13.4062901488
 31
0.0
  0
LINE
  5
107
330
1F
100
AcDbEntity
  8
SK3
  6
SLD-Dashed
370
    18
100
AcDbLine
 10
16.04530911
 20
-13.4062901488
 30
0.0
 11
16.4315197262
 21
-13.3617785591
 31
0.0
  0
LINE
  5
108
330
1F
100
AcDbEntity
  8
SK3
  6
SLD-Dashed
370
    18
100
AcDbLine
 10
16.4315197262
 20
-13.3617785591
 30
0.0
 11
16.7656551822
 21
-13.1433509981
 31
0.0
  0
LINE
  5
109
330
1F
100
AcDbEntity
  8
SK3
  6
SLD-Dashed
370
    18
100
AcDbLine
 10
16.7656551822
 20
-13.1433509981
 30
0.0
 11
17.0229341797
 21
-12.7672072387
 31
0.0
  0
LINE
  5
10A
330
1F
100
AcDbEntity
  8
SK3
  6
SLD-Dashed
370
    18
100
AcDbLine
 10
17.0229341797
 20
-12.7672072387
 30
0.0
 11
17.1842755126
 21
-12.2612441429
 31
0.0
  0
LINE
  5
10B
330
1F
100
AcDbEntity
  8
SK3
  6
SLD-Dashed
370
    18
100
AcDbLine
 10
17.1842755126
 20
-12.2612441429
 30
0.0
 11
17.2377132322
 21
-11.6629866788
 31
0.0
  0
LINE
  5
10C
330
1F
100
AcDbEntity
  8
SK3
  6
SLD-Dashed
370
    18
100
AcDbLine
 10
17.2377132322
 20
-11.6629866788
 30
0.0
 11
17.1792841073
 21
-11.0168048658
 31
0.0
  0
LINE
  5
10D
330
1F
100
AcDbEntity
  8
SK3
  6
SLD-Dashed
370
    18
100
AcDbLine
 10
11.125
 20
-15.6673742401
 30
0.0
 11
10.5892458758
 21
-15.5833642621
 31
0.0
  0
LINE
  5
10E
330
1F
100
AcDbEntity
  8
SK3
  6
SLD-Dashed
370
    18
100
AcDbLine
 10
10.5892458758
 20
-15.5833642621
 30
0.0
 11
10.1115490241
 21
-15.3404381129
 31
0.0
  0
LINE
  5
10F
330
1F
100
AcDbEntity
  8
SK3
  6
SLD-Dashed
370
    18
100
AcDbLine
 10
10.1115490241
 20
-15.3404381129
 30
0.0
 11
9.7436753109
 21
-14.9649206102
 31
0.0
  0
LINE
  5
110
330
1F
100
AcDbEntity
  8
SK3
  6
SLD-Dashed
370
    18
100
AcDbLine
 10
9.7436753109
 20
-14.9649206102
 30
0.0
 11
9.5254895612
 21
-14.497504902
 31
0.0
  0
LINE
  5
111
330
1F
100
AcDbEntity
  8
SK3
  6
SLD-Dashed
370
    18
100
AcDbLine
 10
9.5254895612
 20
-14.497504902
 30
0.0
 11
9.4806355865
 21
-13.9888427332
 31
0.0
  0
LINE
  5
112
330
1F
100
AcDbEntity
  8
SK3
  6
SLD-Dashed
370
    18
100
AcDbLine
 10
9.4806355865
 20
-13.9888427332
 30
0.0
 11
9.613974011
 21
-13.4940555423
 31
0.0
  0
LINE
  5
113
330
1F
100
AcDbEntity
  8
SK3
  6
SLD-Dashed
370
    18
100
AcDbLine
 10
9.613974011
 20
-13.4940555423
 30
0.0
 11
9.9110555474
 21
-13.0667611989
 31
0.0
  0
LINE
  5
114
330
1F
100
AcDbEntity
  8
SK3
  6
SLD-Dashed
370
    18
100
AcDbLine
 10
9.9110555474
 20
-13.0667611989
 30
0.0
 11
10.3396868015
 21
-12.7532636754
 31
0.0
  0
LINE
  5
115
330
1F
100
AcDbEntity
  8
SK3
  6
SLD-Dashed
370
    18
100
AcDbLine
 10
10.3396868015
 20
-12.7532636754
 30
0.0
 11
10.853418926
 21
-12.5875352927
 31
0.0
  0
LINE
  5
116
330
1F
100
AcDbEntity
  8
SK3
  6
SLD-Dashed
370
    18
100
AcDbLine
 10
10.853418926
 20
-12.5875352927
 30
0.0
 11
11.396581074
 21
-12.5875352927
 31
0.0
  0
LINE
  5
117
330
1F
100
AcDbEntity
  8
SK3
  6
SLD-Dashed
370
    18
100
AcDbLine
 10
11.396581074
 20
-12.5875352927
 30
0.0
 11
11.9103131985
 21
-12.7532636754
 31
0.0
  0
LINE
  5
118
330
1F
100
AcDbEntity
  8
SK3
  6
SLD-Dashed
370
    18
100
AcDbLine
 10
11.9103131985
 20
-12.7532636754
 30
0.0
 11
12.3389444526
 21
-13.0667611989
 31
0.0
  0
LINE
  5
119
330
1F
100
AcDbEntity
  8
SK3
  6
SLD-Dashed
370
    18
100
AcDbLine
 10
12.3389444526
 20
-13.0667611989
 30
0.0
 11
12.636025989
 21
-13.4940555423
 31
0.0
  0
LINE
  5
11A
330
1F
100
AcDbEntity
  8
SK3
  6
SLD-Dashed
370
    18
100
AcDbLine
 10
12.636025989
 20
-13.4940555423
 30
0.0
 11
12.7693644135
 21
-13.9888427332
 31
0.0
  0
LINE
  5
11B
330
1F
100
AcDbEntity
  8
SK3
  6
SLD-Dashed
370
    18
100
AcDbLine
 10
12.7693644135
 20
-13.9888427332
 30
0.0
 11
12.7245104388
 21
-14.497504902
 31
0.0
  0
LINE
  5
11C
330
1F
100
AcDbEntity
  8
SK3
  6
SLD-Dashed
370
    18
100
AcDbLine
 10
12.7245104388
 20
-14.497504902
 30
0.0
 11
12.5063246891
 21
-14.9649206102
 31
0.0
  0
LINE
  5
11D
330
1F
100
AcDbEntity
  8
SK3
  6
SLD-Dashed
370
    18
100
AcDbLine
 10
12.5063246891
 20
-14.9649206102
 30
0.0
 11
12.1384509759
 21
-15.3404381129
 31
0.0
  0
LINE
  5
11E
330
1F
100
AcDbEntity
  8
SK3
  6
SLD-Dashed
370
    18
100
AcDbLine
 10
12.1384509759
 20
-15.3404381129
 30
0.0
 11
11.6607541242
 21
-15.5833642621
 31
0.0
  0
LINE
  5
11F
330
1F
100
AcDbEntity
  8
SK3
  6
SLD-Dashed
370
    18
100
AcDbLine
 10
11.6607541242
 20
-15.5833642621
 30
0.0
 11
11.125
 21
-15.6673742401
 31
0.0
  0
LINE
  5
120
330
1F
100
AcDbEntity
  8
SK3
  6
SLD-Dashed
370
    18
100
AcDbLine
 10
19.05
 20
37.5
 30
0.0
 11
19.2493563616
 21
37.5
 31
0.0
  0
LINE
  5
121
330
1F
100
AcDbEntity
  8
SK3
  6
SLD-Dashed
370
    18
100
AcDbLine
 10
3.2
 20
-35.3
 30
0.0
 11
3.2
 21
-35.425
 31
0.0
  0
LINE
  5
122
330
1F
100
AcDbEntity
  8
SK3
  6
SLD-Dashed
370
    18
100
AcDbLine
 10
98.2679491924
 20
-25.0
 30
0.0
 11
98.2679491924
 21
25.0
 31
0.0
  0
LINE
  5
123
330
1F
100
AcDbEntity
  8
SK3
  6
SLD-Dashed
370
    18
100
AcDbLine
 10
100.0
 20
-26.0
 30
0.0
 11
100.0
 21
26.0
 31
0.0
  0
LINE
  5
124
330
1F
100
AcDbEntity
  8
SK3
  6
SLD-Dashed
370
    18
100
AcDbLine
 10
18.5
 20
-25.25
 30
0.0
 11
18.5
 21
25.25
 31
0.0
  0
LINE
  5
125
330
1F
100
AcDbEntity
  8
SK3
  6
SLD-Dashed
370
    18
100
AcDbLine
 10
21.5
 20
-25.25
 30
0.0
 11
21.5
 21
25.25
 31
0.0
  0
LINE
  5
126
330
1F
100
AcDbEntity
  8
SK3
  6
SLD-Dashed
370
    18
100
AcDbLine
 10
21.5
 20
-24.9774741551
 30
0.0
 11
21.5
 21
24.9774741551
 31
0.0
  0
LINE
  5
127
330
1F
100
AcDbEntity
  8
SK3
  6
SLD-Dashed
370
    18
100
AcDbLine
 10
12.6952665953
 20
3.110868379
 30
0.0
 11
12.6952665953
 21
-10.5
 31
0.0
  0
LINE
  5
128
330
1F
100
AcDbEntity
  8
SK3
  6
SLD-Dashed
370
    18
100
AcDbLine
 10
12.6952665953
 20
-3.110868379
 30
0.0
 11
12.6952665953
 21
10.5
 31
0.0
  0
LINE
  5
129
330
1F
100
AcDbEntity
  8
SK3
  6
SLD-Dashed
370
    18
100
AcDbLine
 10
16.0
 20
-16.0
 30
0.0
 11
16.0
 21
16.0
 31
0.0
  0
LINE
  5
12A
330
1F
100
AcDbEntity
  8
SK3
  6
SLD-Dashed
370
    18
100
AcDbLine
 10
18.5
 20
-15.994329778
 30
0.0
 11
18.5
 21
15.994329778
 31
0.0
  0
LINE
  5
12B
330
1F
100
AcDbEntity
  8
SK3
  6
SLD-Dashed
370
    18
100
AcDbLine
 10
-99.85
 20
-12.505
 30
0.0
 11
-99.85
 21
12.505
 31
0.0
  0
LINE
  5
12C
330
1F
100
AcDbEntity
  8
SK3
  6
SLD-Dashed
370
    18
100
AcDbLine
 10
-101.6
 20
-13.492497116
 30
0.0
 11
-101.6
 21
13.492497116
 31
0.0
  0
LINE
  5
12D
330
1F
100
AcDbEntity
  8
SK3
  6
SLD-Dashed
370
    18
100
AcDbLine
 10
18.6222236797
 20
46.1116909097
 30
0.0
 11
18.6222236797
 21
38.0
 31
0.0
  0
LINE
  5
12E
330
1F
100
AcDbEntity
  8
SK3
  6
SLD-Dashed
370
    18
100
AcDbLine
 10
14.032922622
 20
46.4468430436
 30
0.0
 11
18.3
 21
46.4468430436
 31
0.0
  0
LINE
  5
12F
330
1F
100
AcDbEntity
  8
SK3
  6
SLD-Dashed
370
    18
100
AcDbLine
 10
3.7
 20
38.0
 30
0.0
 11
3.7
 21
46.0656121744
 31
0.0
  0
LINE
  5
130
330
1F
100
AcDbEntity
  8
SK3
  6
SLD-Dashed
370
    18
100
AcDbLine
 10
3.95
 20
46.3259174221
 30
0.0
 11
8.234341192
 21
46.3259174221
 31
0.0
  0
LINE
  5
131
330
1F
100
AcDbEntity
  8
1
  6
SLD-Dashed
370
    18
100
AcDbLine
 10
13.015
 20
44.4145527952
 30
0.0
 11
13.015
 21
44.6143246819
 31
0.0
  0
LINE
  5
132
330
1F
100
AcDbEntity
  8
1
  6
SLD-Dashed
370
    18
100
AcDbLine
 10
9.185
 20
44.6143246819
 30
0.0
 11
9.185
 21
44.4145527952
 31
0.0
  0
LINE
  5
133
330
1F
100
AcDbEntity
  8
SK3
  6
SLD-Dashed
370
    18
100
AcDbLine
 10
23.8566838488
 20
-35.3
 30
0.0
 11
3.540624663
 21
-35.3
 31
0.0
  0
LINE
  5
134
330
1F
100
AcDbEntity
  8
SK3
  6
SLD-Dashed
370
    18
100
AcDbLine
 10
3.540624663
 20
-35.7999999885
 30
0.0
 11
18.7431959764
 21
-35.7999999885
 31
0.0
  0
LINE
  5
135
330
1F
100
AcDbEntity
  8
SK3
  6
SLD-Dashed
370
    18
100
AcDbLine
 10
3.540624663
 20
-46.0865531391
 30
0.0
 11
3.540624663
 21
-35.7999999885
 31
0.0
  0
LINE
  5
136
330
1F
100
AcDbEntity
  8
SK3
  6
SLD-Dashed
370
    18
100
AcDbLine
 10
18.7092940355
 20
-36.119508474
 30
0.0
 11
18.7092940355
 21
-46.0865437781
 31
0.0
  0
LINE
  5
137
330
1F
100
AcDbEntity
  8
SK3
  6
SLD-Dashed
370
    18
100
AcDbLine
 10
8.1305218536
 20
-46.5125524132
 30
0.0
 11
3.95
 21
-46.5125524132
 31
0.0
  0
LINE
  5
138
330
1F
100
AcDbEntity
  8
SK3
  6
SLD-Dashed
370
    18
100
AcDbLine
 10
18.3
 20
-46.5124585645
 30
0.0
 11
14.0694259337
 21
-46.5124585645
 31
0.0
  0
LINE
  5
139
330
1F
100
AcDbEntity
  8
1
  6
SLD-Dashed
370
    18
100
AcDbLine
 10
13.015
 20
-44.4145527952
 30
0.0
 11
13.015
 21
-44.6143246819
 31
0.0
  0
LINE
  5
13A
330
1F
100
AcDbEntity
  8
1
  6
SLD-Dashed
370
    18
100
AcDbLine
 10
9.185
 20
-44.6143246819
 30
0.0
 11
9.185
 21
-44.4145527952
 31
0.0
  0
LINE
  5
13B
330
1F
100
AcDbEntity
  8
SK3
  6
SLD-Dashed
370
    18
100
AcDbLine
 10
23.8566838488
 20
-35.3
 30
0.0
 11
33.2
 21
-35.3
 31
0.0
  0
LINE
  5
13C
330
1F
100
AcDbEntity
  8
SK3
  6
SLD-Dashed
370
    18
100
AcDbLine
 10
3.7
 20
37.5
 30
0.0
 11
18.6222236797
 21
37.5
 31
0.0
  0
LINE
  5
13D
330
1F
100
AcDbEntity
  8
SK3
  6
SLD-Dashed
370
    18
100
AcDbLine
 10
18.6222236797
 20
38.0
 30
0.0
 11
3.7
 21
38.0
 31
0.0
  0
LINE
  5
13E
330
1F
100
AcDbEntity
  8
SK3
  6
SLD-Dashed
370
    18
100
AcDbLine
 10
-89.85
 20
-12.875
 30
0.0
 11
-89.85
 21
12.875
 31
0.0
  0
LINE
  5
13F
330
1F
100
AcDbEntity
  8
SK3
  6
SLD-Dashed
370
    18
100
AcDbLine
 10
-88.4787931107
 20
-10.5
 30
0.0
 11
-88.4787931107
 21
10.5
 31
0.0
  0
LINE
  5
140
330
1F
100
AcDbEntity
  8
SK3
  6
SLD-Dashed
370
    18
100
AcDbLine
 10
-92.85
 20
-12.875
 30
0.0
 11
-92.85
 21
12.875
 31
0.0
  0
LINE
  5
141
330
1F
100
AcDbEntity
  8
SK3
  6
SLD-Dashed
370
    18
100
AcDbLine
 10
-93.4908587988
 20
-12.505
 30
0.0
 11
-93.4908587988
 21
12.505
 31
0.0
  0
LINE
  5
142
330
1F
100
AcDbEntity
  8
SK3
  6
SLD-Dashed
370
    18
100
AcDbLine
 10
45.0
 20
35.25
 30
0.0
 11
30.0
 21
35.25
 31
0.0
  0
LINE
  5
143
330
1F
100
AcDbEntity
  8
SK3
  6
SLD-Dashed
370
    18
100
AcDbLine
 10
88.5
 20
35.25
 30
0.0
 11
73.5
 21
35.25
 31
0.0
  0
LINE
  5
144
330
1F
100
AcDbEntity
  8
SK3
  6
SLD-Dashed
370
    18
100
AcDbLine
 10
6.4
 20
32.8
 30
0.0
 11
15.8
 21
32.8
 31
0.0
  0
LINE
  5
145
330
1F
100
AcDbEntity
  8
SK3
  6
SLD-Dashed
370
    18
100
AcDbLine
 10
16.1
 20
33.1
 30
0.0
 11
6.1226403871
 21
33.1
 31
0.0
  0
LINE
  5
146
330
1F
100
AcDbEntity
  8
SK3
  6
SLD-Dashed
370
    18
100
AcDbLine
 10
6.1
 20
37.5
 30
0.0
 11
16.0773596129
 21
37.5
 31
0.0
  0
LINE
  5
147
330
1F
100
AcDbEntity
  8
SK3
  6
SLD-Dashed
370
    18
100
AcDbLine
 10
18.7431666713
 20
-35.7999999885
 30
0.0
 11
3.5407342411
 21
-35.7999999885
 31
0.0
  0
LINE
  5
148
330
1F
100
AcDbEntity
  8
SK3
  6
SLD-Dashed
370
    18
100
AcDbLine
 10
3.5407342411
 20
-35.3
 30
0.0
 11
23.8566838488
 21
-35.3
 31
0.0
  0
LINE
  5
149
330
1F
100
AcDbEntity
  8
SK3
  6
SLD-Dashed
370
    18
100
AcDbLine
 10
3.7
 20
38.0
 30
0.0
 11
18.6221892861
 21
38.0
 31
0.0
  0
LINE
  5
14A
330
1F
100
AcDbEntity
  8
SK3
  6
SLD-Dashed
370
    18
100
AcDbLine
 10
18.6221892861
 20
37.5
 30
0.0
 11
3.7
 21
37.5
 31
0.0
  0
LINE
  5
14B
330
1F
100
AcDbEntity
  8
SK3
  6
SLD-Dashed
370
    18
100
AcDbLine
 10
18.6221892861
 20
38.0
 30
0.0
 11
18.6221892861
 21
46.1116661022
 31
0.0
  0
LINE
  5
14C
330
1F
100
AcDbEntity
  8
1
  6
SLD-Dashed
370
    18
100
AcDbLine
 10
12.265
 20
43.633015023
 30
0.0
 11
9.935
 21
43.633015023
 31
0.0
  0
LINE
  5
14D
330
1F
100
AcDbEntity
  8
SK3
  6
SLD-Dashed
370
    18
100
AcDbLine
 10
18.3
 20
46.4467826513
 30
0.0
 11
14.0328890261
 21
46.4467826513
 31
0.0
  0
LINE
  5
14E
330
1F
100
AcDbEntity
  8
SK3
  6
SLD-Dashed
370
    18
100
AcDbLine
 10
3.5407342411
 20
-35.7999999885
 30
0.0
 11
3.5407342411
 21
-46.0865405219
 31
0.0
  0
LINE
  5
14F
330
1F
100
AcDbEntity
  8
SK3
  6
SLD-Dashed
370
    18
100
AcDbLine
 10
14.0694081417
 20
-46.5124265845
 30
0.0
 11
18.3
 21
-46.5124265845
 31
0.0
  0
LINE
  5
150
330
1F
100
AcDbEntity
  8
1
  6
SLD-Dashed
370
    18
100
AcDbLine
 10
12.265
 20
-43.633015023
 30
0.0
 11
9.935
 21
-43.633015023
 31
0.0
  0
LINE
  5
151
330
1F
100
AcDbEntity
  8
SK3
  6
SLD-Dashed
370
    18
100
AcDbLine
 10
3.95
 20
-46.5124259237
 30
0.0
 11
8.130592226
 21
-46.5124259237
 31
0.0
  0
LINE
  5
152
330
1F
100
AcDbEntity
  8
SK3
  6
SLD-Dashed
370
    18
100
AcDbLine
 10
18.7092663314
 20
-46.0865405879
 30
0.0
 11
18.7092663314
 21
-36.1195044035
 31
0.0
  0
LINE
  5
153
330
1F
100
AcDbEntity
  8
SK3
  6
SLD-Dashed
370
    18
100
AcDbLine
 10
3.4837105329
 20
13.9015950424
 30
0.0
 11
3.6496730814
 21
14.5477768555
 31
0.0
  0
LINE
  5
154
330
1F
100
AcDbEntity
  8
SK3
  6
SLD-Dashed
370
    18
100
AcDbLine
 10
3.6496730814
 20
14.5477768555
 30
0.0
 11
3.9108603704
 21
15.1460343195
 31
0.0
  0
LINE
  5
155
330
1F
100
AcDbEntity
  8
SK3
  6
SLD-Dashed
370
    18
100
AcDbLine
 10
3.9108603704
 20
15.1460343195
 30
0.0
 11
4.2479013336
 21
15.6519974153
 31
0.0
  0
LINE
  5
156
330
1F
100
AcDbEntity
  8
SK3
  6
SLD-Dashed
370
    18
100
AcDbLine
 10
4.2479013336
 20
15.6519974153
 30
0.0
 11
4.6357991846
 21
16.0281411747
 31
0.0
  0
LINE
  5
157
330
1F
100
AcDbEntity
  8
SK3
  6
SLD-Dashed
370
    18
100
AcDbLine
 10
4.6357991846
 20
16.0281411747
 30
0.0
 11
5.0457853144
 21
16.2465687357
 31
0.0
  0
LINE
  5
158
330
1F
100
AcDbEntity
  8
SK3
  6
SLD-Dashed
370
    18
100
AcDbLine
 10
5.0457853144
 20
16.2465687357
 30
0.0
 11
5.4474529272
 21
16.2910803255
 31
0.0
  0
LINE
  5
159
330
1F
100
AcDbEntity
  8
SK3
  6
SLD-Dashed
370
    18
100
AcDbLine
 10
5.4474529272
 20
16.2910803255
 30
0.0
 11
5.8110121737
 21
16.1583747229
 31
0.0
  0
LINE
  5
15A
330
1F
100
AcDbEntity
  8
SK3
  6
SLD-Dashed
370
    18
100
AcDbLine
 10
5.8110121737
 20
16.1583747229
 30
0.0
 11
6.1094995278
 21
15.8582940956
 31
0.0
  0
LINE
  5
15B
330
1F
100
AcDbEntity
  8
SK3
  6
SLD-Dashed
370
    18
100
AcDbLine
 10
6.1094995278
 20
15.8582940956
 30
0.0
 11
6.3207775479
 21
15.4130940507
 31
0.0
  0
LINE
  5
15C
330
1F
100
AcDbEntity
  8
SK3
  6
SLD-Dashed
370
    18
100
AcDbLine
 10
6.3207775479
 20
15.4130940507
 30
0.0
 11
6.4291767098
 21
14.8557930391
 31
0.0
  0
LINE
  5
15D
330
1F
100
AcDbEntity
  8
SK3
  6
SLD-Dashed
370
    18
100
AcDbLine
 10
6.4291767098
 20
14.8557930391
 30
0.0
 11
6.4266575435
 21
14.2277235272
 31
0.0
  0
LINE
  5
15E
330
1F
100
AcDbEntity
  8
SK3
  6
SLD-Dashed
370
    18
100
AcDbLine
 10
6.4266575435
 20
14.2277235272
 30
0.0
 11
6.3134068841
 21
13.5754665576
 31
0.0
  0
LINE
  5
15F
330
1F
100
AcDbEntity
  8
SK3
  6
SLD-Dashed
370
    18
100
AcDbLine
 10
6.3134068841
 20
13.5754665576
 30
0.0
 11
6.0978240149
 21
12.9473970457
 31
0.0
  0
LINE
  5
160
330
1F
100
AcDbEntity
  8
SK3
  6
SLD-Dashed
370
    18
100
AcDbLine
 10
6.0978240149
 20
12.9473970457
 30
0.0
 11
5.7958977311
 21
12.3900960341
 31
0.0
  0
LINE
  5
161
330
1F
100
AcDbEntity
  8
SK3
  6
SLD-Dashed
370
    18
100
AcDbLine
 10
5.7958977311
 20
12.3900960341
 30
0.0
 11
5.430020524
 21
11.9448959893
 31
0.0
  0
LINE
  5
162
330
1F
100
AcDbEntity
  8
SK3
  6
SLD-Dashed
370
    18
100
AcDbLine
 10
5.430020524
 20
11.9448959893
 30
0.0
 11
5.0273278321
 21
11.6448153619
 31
0.0
  0
LINE
  5
163
330
1F
100
AcDbEntity
  8
SK3
  6
SLD-Dashed
370
    18
100
AcDbLine
 10
5.0273278321
 20
11.6448153619
 30
0.0
 11
4.6176855303
 21
11.5121097594
 31
0.0
  0
LINE
  5
164
330
1F
100
AcDbEntity
  8
SK3
  6
SLD-Dashed
370
    18
100
AcDbLine
 10
4.6176855303
 20
11.5121097594
 30
0.0
 11
4.2314749141
 21
11.5566213491
 31
0.0
  0
LINE
  5
165
330
1F
100
AcDbEntity
  8
SK3
  6
SLD-Dashed
370
    18
100
AcDbLine
 10
4.2314749141
 20
11.5566213491
 30
0.0
 11
3.8973394581
 21
11.7750489101
 31
0.0
  0
LINE
  5
166
330
1F
100
AcDbEntity
  8
SK3
  6
SLD-Dashed
370
    18
100
AcDbLine
 10
3.8973394581
 20
11.7750489101
 30
0.0
 11
3.6400604606
 21
12.1511926695
 31
0.0
  0
LINE
  5
167
330
1F
100
AcDbEntity
  8
SK3
  6
SLD-Dashed
370
    18
100
AcDbLine
 10
3.6400604606
 20
12.1511926695
 30
0.0
 11
3.4787191277
 21
12.6571557653
 31
0.0
  0
LINE
  5
168
330
1F
100
AcDbEntity
  8
SK3
  6
SLD-Dashed
370
    18
100
AcDbLine
 10
3.4787191277
 20
12.6571557653
 30
0.0
 11
3.4252814081
 21
13.2554132294
 31
0.0
  0
LINE
  5
169
330
1F
100
AcDbEntity
  8
SK3
  6
SLD-Dashed
370
    18
100
AcDbLine
 10
3.4252814081
 20
13.2554132294
 30
0.0
 11
3.4837105329
 21
13.9015950424
 31
0.0
  0
LINE
  5
16A
330
1F
100
AcDbEntity
  8
SK3
  6
SLD-Dashed
370
    18
100
AcDbLine
 10
14.2794578574
 20
11.0168048658
 30
0.0
 11
14.4454204058
 21
11.6629866788
 31
0.0
  0
LINE
  5
16B
330
1F
100
AcDbEntity
  8
SK3
  6
SLD-Dashed
370
    18
100
AcDbLine
 10
14.4454204058
 20
11.6629866788
 30
0.0
 11
14.7066076948
 21
12.2612441429
 31
0.0
  0
LINE
  5
16C
330
1F
100
AcDbEntity
  8
SK3
  6
SLD-Dashed
370
    18
100
AcDbLine
 10
14.7066076948
 20
12.2612441429
 30
0.0
 11
15.043648658
 21
12.7672072387
 31
0.0
  0
LINE
  5
16D
330
1F
100
AcDbEntity
  8
SK3
  6
SLD-Dashed
370
    18
100
AcDbLine
 10
15.043648658
 20
12.7672072387
 30
0.0
 11
15.431546509
 21
13.1433509981
 31
0.0
  0
LINE
  5
16E
330
1F
100
AcDbEntity
  8
SK3
  6
SLD-Dashed
370
    18
100
AcDbLine
 10
15.431546509
 20
13.1433509981
 30
0.0
 11
15.8415326388
 21
13.3617785591
 31
0.0
  0
LINE
  5
16F
330
1F
100
AcDbEntity
  8
SK3
  6
SLD-Dashed
370
    18
100
AcDbLine
 10
15.8415326388
 20
13.3617785591
 30
0.0
 11
16.2432002516
 21
13.4062901488
 31
0.0
  0
LINE
  5
170
330
1F
100
AcDbEntity
  8
SK3
  6
SLD-Dashed
370
    18
100
AcDbLine
 10
16.2432002516
 20
13.4062901488
 30
0.0
 11
16.6067594981
 21
13.2735845463
 31
0.0
  0
LINE
  5
171
330
1F
100
AcDbEntity
  8
SK3
  6
SLD-Dashed
370
    18
100
AcDbLine
 10
16.6067594981
 20
13.2735845463
 30
0.0
 11
16.9052468522
 21
12.9735039189
 31
0.0
  0
LINE
  5
172
330
1F
100
AcDbEntity
  8
SK3
  6
SLD-Dashed
370
    18
100
AcDbLine
 10
16.9052468522
 20
12.9735039189
 30
0.0
 11
17.1165248723
 21
12.5283038741
 31
0.0
  0
LINE
  5
173
330
1F
100
AcDbEntity
  8
SK3
  6
SLD-Dashed
370
    18
100
AcDbLine
 10
17.1165248723
 20
12.5283038741
 30
0.0
 11
17.2249240342
 21
11.9710028625
 31
0.0
  0
LINE
  5
174
330
1F
100
AcDbEntity
  8
SK3
  6
SLD-Dashed
370
    18
100
AcDbLine
 10
17.2249240342
 20
11.9710028625
 30
0.0
 11
17.2224048679
 21
11.3429333506
 31
0.0
  0
LINE
  5
175
330
1F
100
AcDbEntity
  8
SK3
  6
SLD-Dashed
370
    18
100
AcDbLine
 10
17.2224048679
 20
11.3429333506
 30
0.0
 11
17.1091542086
 21
10.690676381
 31
0.0
  0
LINE
  5
176
330
1F
100
AcDbEntity
  8
SK3
  6
SLD-Dashed
370
    18
100
AcDbLine
 10
17.1091542086
 20
10.690676381
 30
0.0
 11
16.8935713394
 21
10.0626068691
 31
0.0
  0
LINE
  5
177
330
1F
100
AcDbEntity
  8
SK3
  6
SLD-Dashed
370
    18
100
AcDbLine
 10
16.8935713394
 20
10.0626068691
 30
0.0
 11
16.5916450556
 21
9.5053058575
 31
0.0
  0
LINE
  5
178
330
1F
100
AcDbEntity
  8
SK3
  6
SLD-Dashed
370
    18
100
AcDbLine
 10
16.5916450556
 20
9.5053058575
 30
0.0
 11
16.2257678484
 21
9.0601058126
 31
0.0
  0
LINE
  5
179
330
1F
100
AcDbEntity
  8
SK3
  6
SLD-Dashed
370
    18
100
AcDbLine
 10
16.2257678484
 20
9.0601058126
 30
0.0
 11
15.8230751565
 21
8.7600251853
 31
0.0
  0
LINE
  5
17A
330
1F
100
AcDbEntity
  8
SK3
  6
SLD-Dashed
370
    18
100
AcDbLine
 10
15.8230751565
 20
8.7600251853
 30
0.0
 11
15.4134328547
 21
8.6273195827
 31
0.0
  0
LINE
  5
17B
330
1F
100
AcDbEntity
  8
SK3
  6
SLD-Dashed
370
    18
100
AcDbLine
 10
15.4134328547
 20
8.6273195827
 30
0.0
 11
15.0272222385
 21
8.6718311725
 31
0.0
  0
LINE
  5
17C
330
1F
100
AcDbEntity
  8
SK3
  6
SLD-Dashed
370
    18
100
AcDbLine
 10
15.0272222385
 20
8.6718311725
 30
0.0
 11
14.6930867825
 21
8.8902587335
 31
0.0
  0
LINE
  5
17D
330
1F
100
AcDbEntity
  8
SK3
  6
SLD-Dashed
370
    18
100
AcDbLine
 10
14.6930867825
 20
8.8902587335
 30
0.0
 11
14.435807785
 21
9.2664024929
 31
0.0
  0
LINE
  5
17E
330
1F
100
AcDbEntity
  8
SK3
  6
SLD-Dashed
370
    18
100
AcDbLine
 10
14.435807785
 20
9.2664024929
 30
0.0
 11
14.2744664521
 21
9.7723655887
 31
0.0
  0
LINE
  5
17F
330
1F
100
AcDbEntity
  8
SK3
  6
SLD-Dashed
370
    18
100
AcDbLine
 10
14.2744664521
 20
9.7723655887
 30
0.0
 11
14.2210287325
 21
10.3706230527
 31
0.0
  0
LINE
  5
180
330
1F
100
AcDbEntity
  8
SK3
  6
SLD-Dashed
370
    18
100
AcDbLine
 10
14.2210287325
 20
10.3706230527
 30
0.0
 11
14.2794578574
 21
11.0168048658
 31
0.0
  0
LINE
  5
181
330
1F
100
AcDbEntity
  8
SK3
  6
SLD-Dashed
370
    18
100
AcDbLine
 10
11.125
 20
12.5246373053
 30
0.0
 11
10.5892458758
 21
12.6086472832
 31
0.0
  0
LINE
  5
182
330
1F
100
AcDbEntity
  8
SK3
  6
SLD-Dashed
370
    18
100
AcDbLine
 10
10.5892458758
 20
12.6086472832
 30
0.0
 11
10.1115490241
 21
12.8515734324
 31
0.0
  0
LINE
  5
183
330
1F
100
AcDbEntity
  8
SK3
  6
SLD-Dashed
370
    18
100
AcDbLine
 10
10.1115490241
 20
12.8515734324
 30
0.0
 11
9.7436753109
 21
13.2270909352
 31
0.0
  0
LINE
  5
184
330
1F
100
AcDbEntity
  8
SK3
  6
SLD-Dashed
370
    18
100
AcDbLine
 10
9.7436753109
 20
13.2270909352
 30
0.0
 11
9.5254895612
 21
13.6945066433
 31
0.0
  0
LINE
  5
185
330
1F
100
AcDbEntity
  8
SK3
  6
SLD-Dashed
370
    18
100
AcDbLine
 10
9.5254895612
 20
13.6945066433
 30
0.0
 11
9.4806355865
 21
14.2031688122
 31
0.0
  0
LINE
  5
186
330
1F
100
AcDbEntity
  8
SK3
  6
SLD-Dashed
370
    18
100
AcDbLine
 10
9.4806355865
 20
14.2031688122
 30
0.0
 11
9.613974011
 21
14.6979560031
 31
0.0
  0
LINE
  5
187
330
1F
100
AcDbEntity
  8
SK3
  6
SLD-Dashed
370
    18
100
AcDbLine
 10
9.613974011
 20
14.6979560031
 30
0.0
 11
9.9110555474
 21
15.1252503464
 31
0.0
  0
LINE
  5
188
330
1F
100
AcDbEntity
  8
SK3
  6
SLD-Dashed
370
    18
100
AcDbLine
 10
9.9110555474
 20
15.1252503464
 30
0.0
 11
10.3396868015
 21
15.43874787
 31
0.0
  0
LINE
  5
189
330
1F
100
AcDbEntity
  8
SK3
  6
SLD-Dashed
370
    18
100
AcDbLine
 10
10.3396868015
 20
15.43874787
 30
0.0
 11
10.853418926
 21
15.6044762527
 31
0.0
  0
LINE
  5
18A
330
1F
100
AcDbEntity
  8
SK3
  6
SLD-Dashed
370
    18
100
AcDbLine
 10
10.853418926
 20
15.6044762527
 30
0.0
 11
11.396581074
 21
15.6044762527
 31
0.0
  0
LINE
  5
18B
330
1F
100
AcDbEntity
  8
SK3
  6
SLD-Dashed
370
    18
100
AcDbLine
 10
11.396581074
 20
15.6044762527
 30
0.0
 11
11.9103131985
 21
15.43874787
 31
0.0
  0
LINE
  5
18C
330
1F
100
AcDbEntity
  8
SK3
  6
SLD-Dashed
370
    18
100
AcDbLine
 10
11.9103131985
 20
15.43874787
 30
0.0
 11
12.3389444526
 21
15.1252503464
 31
0.0
  0
LINE
  5
18D
330
1F
100
AcDbEntity
  8
SK3
  6
SLD-Dashed
370
    18
100
AcDbLine
 10
12.3389444526
 20
15.1252503464
 30
0.0
 11
12.636025989
 21
14.6979560031
 31
0.0
  0
LINE
  5
18E
330
1F
100
AcDbEntity
  8
SK3
  6
SLD-Dashed
370
    18
100
AcDbLine
 10
12.636025989
 20
14.6979560031
 30
0.0
 11
12.7693644135
 21
14.2031688122
 31
0.0
  0
LINE
  5
18F
330
1F
100
AcDbEntity
  8
SK3
  6
SLD-Dashed
370
    18
100
AcDbLine
 10
12.7693644135
 20
14.2031688122
 30
0.0
 11
12.7245104388
 21
13.6945066433
 31
0.0
  0
LINE
  5
190
330
1F
100
AcDbEntity
  8
SK3
  6
SLD-Dashed
370
    18
100
AcDbLine
 10
12.7245104388
 20
13.6945066433
 30
0.0
 11
12.5063246891
 21
13.2270909352
 31
0.0
  0
LINE
  5
191
330
1F
100
AcDbEntity
  8
SK3
  6
SLD-Dashed
370
    18
100
AcDbLine
 10
12.5063246891
 20
13.2270909352
 30
0.0
 11
12.1384509759
 21
12.8515734324
 31
0.0
  0
LINE
  5
192
330
1F
100
AcDbEntity
  8
SK3
  6
SLD-Dashed
370
    18
100
AcDbLine
 10
12.1384509759
 20
12.8515734324
 30
0.0
 11
11.6607541242
 21
12.6086472832
 31
0.0
  0
LINE
  5
193
330
1F
100
AcDbEntity
  8
SK3
  6
SLD-Dashed
370
    18
100
AcDbLine
 10
11.6607541242
 20
12.6086472832
 30
0.0
 11
11.125
 21
12.5246373053
 31
0.0
  0
LINE
  5
194
330
1F
100
AcDbEntity
  8
SK3
  6
SLD-Dashed
370
    18
100
AcDbLine
 10
3.3949403416
 20
13.9015950424
 30
0.0
 11
3.5615900545
 21
14.5594368595
 31
0.0
  0
LINE
  5
195
330
1F
100
AcDbEntity
  8
SK3
  6
SLD-Dashed
370
    18
100
AcDbLine
 10
3.5615900545
 20
14.5594368595
 30
0.0
 11
3.8217415901
 21
15.1724478438
 31
0.0
  0
LINE
  5
196
330
1F
100
AcDbEntity
  8
SK3
  6
SLD-Dashed
370
    18
100
AcDbLine
 10
3.8217415901
 20
15.1724478438
 30
0.0
 11
4.1576660511
 21
15.6988523099
 31
0.0
  0
LINE
  5
197
330
1F
100
AcDbEntity
  8
SK3
  6
SLD-Dashed
370
    18
100
AcDbLine
 10
4.1576660511
 20
15.6988523099
 30
0.0
 11
4.5464707407
 21
16.1027766634
 31
0.0
  0
LINE
  5
198
330
1F
100
AcDbEntity
  8
SK3
  6
SLD-Dashed
370
    18
100
AcDbLine
 10
4.5464707407
 20
16.1027766634
 30
0.0
 11
4.9616592619
 21
16.356694127
 31
0.0
  0
LINE
  5
199
330
1F
100
AcDbEntity
  8
SK3
  6
SLD-Dashed
370
    18
100
AcDbLine
 10
4.9616592619
 20
16.356694127
 30
0.0
 11
5.3749372029
 21
16.4433006452
 31
0.0
  0
LINE
  5
19A
330
1F
100
AcDbEntity
  8
SK3
  6
SLD-Dashed
370
    18
100
AcDbLine
 10
5.3749372029
 20
16.4433006452
 30
0.0
 11
5.7581403551
 21
16.356694127
 31
0.0
  0
LINE
  5
19B
330
1F
100
AcDbEntity
  8
SK3
  6
SLD-Dashed
370
    18
100
AcDbLine
 10
5.7581403551
 20
16.356694127
 30
0.0
 11
6.0851540571
 21
16.1027766634
 31
0.0
  0
LINE
  5
19C
330
1F
100
AcDbEntity
  8
SK3
  6
SLD-Dashed
370
    18
100
AcDbLine
 10
6.0851540571
 20
16.1027766634
 30
0.0
 11
6.3336928653
 21
15.6988523099
 31
0.0
  0
LINE
  5
19D
330
1F
100
AcDbEntity
  8
SK3
  6
SLD-Dashed
370
    18
100
AcDbLine
 10
6.3336928653
 20
15.6988523099
 30
0.0
 11
6.4868192707
 21
15.1724478438
 31
0.0
  0
LINE
  5
19E
330
1F
100
AcDbEntity
  8
SK3
  6
SLD-Dashed
370
    18
100
AcDbLine
 10
6.4868192707
 20
15.1724478438
 30
0.0
 11
6.5340979619
 21
14.5594368595
 31
0.0
  0
LINE
  5
19F
330
1F
100
AcDbEntity
  8
SK3
  6
SLD-Dashed
370
    18
100
AcDbLine
 10
6.5340979619
 20
14.5594368595
 30
0.0
 11
6.4723069743
 21
13.9015950424
 31
0.0
  0
LINE
  5
1A0
330
1F
100
AcDbEntity
  8
SK3
  6
SLD-Dashed
370
    18
100
AcDbLine
 10
6.4723069743
 20
13.9015950424
 30
0.0
 11
6.3056572614
 21
13.2437532254
 31
0.0
  0
LINE
  5
1A1
330
1F
100
AcDbEntity
  8
SK3
  6
SLD-Dashed
370
    18
100
AcDbLine
 10
6.3056572614
 20
13.2437532254
 30
0.0
 11
6.0455057258
 21
12.630742241
 31
0.0
  0
LINE
  5
1A2
330
1F
100
AcDbEntity
  8
SK3
  6
SLD-Dashed
370
    18
100
AcDbLine
 10
6.0455057258
 20
12.630742241
 30
0.0
 11
5.7095812647
 21
12.1043377749
 31
0.0
  0
LINE
  5
1A3
330
1F
100
AcDbEntity
  8
SK3
  6
SLD-Dashed
370
    18
100
AcDbLine
 10
5.7095812647
 20
12.1043377749
 30
0.0
 11
5.3207765751
 21
11.7004134215
 31
0.0
  0
LINE
  5
1A4
330
1F
100
AcDbEntity
  8
SK3
  6
SLD-Dashed
370
    18
100
AcDbLine
 10
5.3207765751
 20
11.7004134215
 30
0.0
 11
4.905588054
 21
11.4464959579
 31
0.0
  0
LINE
  5
1A5
330
1F
100
AcDbEntity
  8
SK3
  6
SLD-Dashed
370
    18
100
AcDbLine
 10
4.905588054
 20
11.4464959579
 30
0.0
 11
4.492310113
 21
11.3598894396
 31
0.0
  0
LINE
  5
1A6
330
1F
100
AcDbEntity
  8
SK3
  6
SLD-Dashed
370
    18
100
AcDbLine
 10
4.492310113
 20
11.3598894396
 30
0.0
 11
4.1091069607
 21
11.4464959579
 31
0.0
  0
LINE
  5
1A7
330
1F
100
AcDbEntity
  8
SK3
  6
SLD-Dashed
370
    18
100
AcDbLine
 10
4.1091069607
 20
11.4464959579
 30
0.0
 11
3.7820932588
 21
11.7004134215
 31
0.0
  0
LINE
  5
1A8
330
1F
100
AcDbEntity
  8
SK3
  6
SLD-Dashed
370
    18
100
AcDbLine
 10
3.7820932588
 20
11.7004134215
 30
0.0
 11
3.5335544506
 21
12.1043377749
 31
0.0
  0
LINE
  5
1A9
330
1F
100
AcDbEntity
  8
SK3
  6
SLD-Dashed
370
    18
100
AcDbLine
 10
3.5335544506
 20
12.1043377749
 30
0.0
 11
3.3804280451
 21
12.630742241
 31
0.0
  0
LINE
  5
1AA
330
1F
100
AcDbEntity
  8
SK3
  6
SLD-Dashed
370
    18
100
AcDbLine
 10
3.3804280451
 20
12.630742241
 30
0.0
 11
3.3331493539
 21
13.2437532254
 31
0.0
  0
LINE
  5
1AB
330
1F
100
AcDbEntity
  8
SK3
  6
SLD-Dashed
370
    18
100
AcDbLine
 10
3.3331493539
 20
13.2437532254
 30
0.0
 11
3.3949403416
 21
13.9015950424
 31
0.0
  0
LINE
  5
1AC
330
1F
100
AcDbEntity
  8
SK3
  6
SLD-Dashed
370
    18
100
AcDbLine
 10
3.2
 20
11.6748484571
 30
0.0
 11
3.2
 21
17.0506447969
 31
0.0
  0
LINE
  5
1AD
330
1F
100
AcDbEntity
  8
SK3
  6
SLD-Dashed
370
    18
100
AcDbLine
 10
3.2
 20
15.0483796974
 30
0.0
 11
3.2
 21
15.9034435425
 31
0.0
  0
LINE
  5
1AE
330
1F
100
AcDbEntity
  8
SK3
  6
SLD-Dashed
370
    18
100
AcDbLine
 10
3.2
 20
-17.0560709439
 30
0.0
 11
5.6048333499
 21
-16.4134623855
 31
0.0
  0
LINE
  5
1AF
330
1F
100
AcDbEntity
  8
SK3
  6
SLD-Dashed
370
    18
100
AcDbLine
 10
4.2624139659
 20
-11.3897276993
 30
0.0
 11
3.2
 21
-11.6736210955
 31
0.0
  0
LINE
  5
1B0
330
1F
100
AcDbEntity
  8
SK3
  6
SLD-Dashed
370
    18
100
AcDbLine
 10
5.5661097138
 20
-16.2685469619
 30
0.0
 11
16.3618570383
 21
-13.3837567853
 31
0.0
  0
LINE
  5
1B1
330
1F
100
AcDbEntity
  8
SK3
  6
SLD-Dashed
370
    18
100
AcDbLine
 10
15.0968849264
 20
-8.6498529463
 30
0.0
 11
4.301137602
 21
-11.5346431229
 31
0.0
  0
LINE
  5
1B2
330
1F
100
AcDbEntity
  8
SK3
  6
SLD-Dashed
370
    18
100
AcDbLine
 10
9.475
 20
-13.7489030277
 30
0.0
 11
9.475
 21
-14.1168814158
 31
0.0
  0
LINE
  5
1B3
330
1F
100
AcDbEntity
  8
SK3
  6
SLD-Dashed
370
    18
100
AcDbLine
 10
12.775
 20
-14.1168814158
 30
0.0
 11
12.775
 21
-12.869174843
 31
0.0
  0
LINE
  5
1B4
330
1F
100
AcDbEntity
  8
SK3
  6
SLD-Dashed
370
    18
100
AcDbLine
 10
9.475
 20
-3.5910923016
 30
0.0
 11
9.475
 21
-11.6251587266
 31
0.0
  0
LINE
  5
1B5
330
1F
100
AcDbEntity
  8
SK3
  6
SLD-Dashed
370
    18
100
AcDbLine
 10
12.775
 20
-10.7474202897
 30
0.0
 11
12.775
 21
-3.6324973835
 31
0.0
  0
LINE
  5
1B6
330
1F
100
AcDbEntity
  8
SK3
  6
SLD-Dashed
370
    18
100
AcDbLine
 10
100.0
 20
26.0
 30
0.0
 11
98.2679491924
 21
25.0
 31
0.0
  0
LINE
  5
1B7
330
1F
100
AcDbEntity
  8
SK3
  6
SLD-Dashed
370
    18
100
AcDbLine
 10
98.2679491924
 20
-25.0
 30
0.0
 11
100.0
 21
-26.0
 31
0.0
  0
LINE
  5
1B8
330
1F
100
AcDbEntity
  8
SK3
  6
SLD-Dashed
370
    18
100
AcDbLine
 10
21.5
 20
25.25
 30
0.0
 11
18.5
 21
25.25
 31
0.0
  0
LINE
  5
1B9
330
1F
100
AcDbEntity
  8
SK3
  6
SLD-Dashed
370
    18
100
AcDbLine
 10
18.5
 20
-25.25
 30
0.0
 11
21.5
 21
-25.25
 31
0.0
  0
LINE
  5
1BA
330
1F
100
AcDbEntity
  8
SK3
  6
SLD-Dashed
370
    18
100
AcDbLine
 10
30.0
 20
25.0
 30
0.0
 11
21.5
 21
25.0
 31
0.0
  0
LINE
  5
1BB
330
1F
100
AcDbEntity
  8
SK3
  6
SLD-Dashed
370
    18
100
AcDbLine
 10
73.5
 20
25.0
 30
0.0
 11
44.9751594313
 21
25.0
 31
0.0
  0
LINE
  5
1BC
330
1F
100
AcDbEntity
  8
SK3
  6
SLD-Dashed
370
    18
100
AcDbLine
 10
98.2679491924
 20
25.0
 30
0.0
 11
88.4921719017
 21
25.0
 31
0.0
  0
LINE
  5
1BD
330
1F
100
AcDbEntity
  8
SK3
  6
SLD-Dashed
370
    18
100
AcDbLine
 10
21.5
 20
-25.0
 30
0.0
 11
98.2679491924
 21
-25.0
 31
0.0
  0
LINE
  5
1BE
330
1F
100
AcDbEntity
  8
SK3
  6
SLD-Dashed
370
    18
100
AcDbLine
 10
16.0
 20
16.0
 30
0.0
 11
12.6952665953
 21
10.5
 31
0.0
  0
LINE
  5
1BF
330
1F
100
AcDbEntity
  8
SK3
  6
SLD-Dashed
370
    18
100
AcDbLine
 10
12.6952665953
 20
-10.5
 30
0.0
 11
16.0
 21
-16.0
 31
0.0
  0
LINE
  5
1C0
330
1F
100
AcDbEntity
  8
SK3
  6
SLD-Dashed
370
    18
100
AcDbLine
 10
18.5
 20
16.0
 30
0.0
 11
16.0
 21
16.0
 31
0.0
  0
LINE
  5
1C1
330
1F
100
AcDbEntity
  8
SK3
  6
SLD-Dashed
370
    18
100
AcDbLine
 10
16.0
 20
-16.0
 30
0.0
 11
18.5
 21
-16.0
 31
0.0
  0
LINE
  5
1C2
330
1F
100
AcDbEntity
  8
SK3
  6
SLD-Dashed
370
    18
100
AcDbLine
 10
-101.6
 20
-13.5153629711
 30
0.0
 11
-99.85
 21
-12.505
 31
0.0
  0
LINE
  5
1C3
330
1F
100
AcDbEntity
  8
SK3
  6
SLD-Dashed
370
    18
100
AcDbLine
 10
-99.85
 20
12.505
 30
0.0
 11
-101.6
 21
13.5153629711
 31
0.0
  0
LINE
  5
1C4
330
1F
100
AcDbEntity
  8
SK3
  6
SLD-Dashed
370
    18
100
AcDbLine
 10
33.2
 20
-37.5
 30
0.0
 11
33.2
 21
-35.3
 31
0.0
  0
LINE
  5
1C5
330
1F
100
AcDbEntity
  8
SK3
  6
SLD-Dashed
370
    18
100
AcDbLine
 10
-89.85
 20
-12.875
 30
0.0
 11
-88.4787931107
 21
-10.5
 31
0.0
  0
LINE
  5
1C6
330
1F
100
AcDbEntity
  8
SK3
  6
SLD-Dashed
370
    18
100
AcDbLine
 10
-88.4787931107
 20
10.5
 30
0.0
 11
-89.85
 21
12.875
 31
0.0
  0
LINE
  5
1C7
330
1F
100
AcDbEntity
  8
SK3
  6
SLD-Dashed
370
    18
100
AcDbLine
 10
-92.85
 20
-12.875
 30
0.0
 11
-89.85
 21
-12.875
 31
0.0
  0
LINE
  5
1C8
330
1F
100
AcDbEntity
  8
SK3
  6
SLD-Dashed
370
    18
100
AcDbLine
 10
-89.85
 20
12.875
 30
0.0
 11
-92.85
 21
12.875
 31
0.0
  0
LINE
  5
1C9
330
1F
100
AcDbEntity
  8
SK3
  6
SLD-Dashed
370
    18
100
AcDbLine
 10
-92.85
 20
12.875
 30
0.0
 11
-93.4908587988
 21
12.505
 31
0.0
  0
LINE
  5
1CA
330
1F
100
AcDbEntity
  8
SK3
  6
SLD-Dashed
370
    18
100
AcDbLine
 10
-93.4908587988
 20
-12.505
 30
0.0
 11
-92.85
 21
-12.875
 31
0.0
  0
LINE
  5
1CB
330
1F
100
AcDbEntity
  8
SK3
  6
SLD-Dashed
370
    18
100
AcDbLine
 10
-99.85
 20
-12.505
 30
0.0
 11
-93.4908587988
 21
-12.505
 31
0.0
  0
LINE
  5
1CC
330
1F
100
AcDbEntity
  8
SK3
  6
SLD-Dashed
370
    18
100
AcDbLine
 10
-93.4908587988
 20
12.505
 30
0.0
 11
-99.85
 21
12.505
 31
0.0
  0
LINE
  5
1CD
330
1F
100
AcDbEntity
  8
SK3
  6
SLD-Dashed
370
    18
100
AcDbLine
 10
-88.4787931107
 20
-10.5
 30
0.0
 11
12.6952665953
 21
-10.5
 31
0.0
  0
LINE
  5
1CE
330
1F
100
AcDbEntity
  8
SK3
  6
SLD-Dashed
370
    18
100
AcDbLine
 10
12.6952665953
 20
10.5
 30
0.0
 11
-88.4787931107
 21
10.5
 31
0.0
  0
LINE
  5
1CF
330
1F
100
AcDbEntity
  8
SK3
  6
SLD-Dashed
370
    18
100
AcDbLine
 10
27.75
 20
37.5
 30
0.0
 11
30.0
 21
35.25
 31
0.0
  0
LINE
  5
1D0
330
1F
100
AcDbEntity
  8
SK3
  6
SLD-Dashed
370
    18
100
AcDbLine
 10
45.0
 20
35.25
 30
0.0
 11
47.25
 21
37.5
 31
0.0
  0
LINE
  5
1D1
330
1F
100
AcDbEntity
  8
SK3
  6
SLD-Dashed
370
    18
100
AcDbLine
 10
71.25
 20
37.5
 30
0.0
 11
73.5
 21
35.25
 31
0.0
  0
LINE
  5
1D2
330
1F
100
AcDbEntity
  8
SK3
  6
SLD-Dashed
370
    18
100
AcDbLine
 10
88.5
 20
35.25
 30
0.0
 11
90.75
 21
37.5
 31
0.0
  0
LINE
  5
1D3
330
1F
100
AcDbEntity
  8
SK3
  6
SLD-Dashed
370
    18
100
AcDbLine
 10
30.0
 20
35.25
 30
0.0
 11
30.0
 21
25.0
 31
0.0
  0
LINE
  5
1D4
330
1F
100
AcDbEntity
  8
SK3
  6
SLD-Dashed
370
    18
100
AcDbLine
 10
45.0
 20
24.9925620772
 30
0.0
 11
45.0
 21
35.25
 31
0.0
  0
LINE
  5
1D5
330
1F
100
AcDbEntity
  8
SK3
  6
SLD-Dashed
370
    18
100
AcDbLine
 10
73.5
 20
35.25
 30
0.0
 11
73.5
 21
25.0
 31
0.0
  0
LINE
  5
1D6
330
1F
100
AcDbEntity
  8
SK3
  6
SLD-Dashed
370
    18
100
AcDbLine
 10
88.5
 20
24.9976721128
 30
0.0
 11
88.5
 21
35.25
 31
0.0
  0
LINE
  5
1D7
330
1F
100
AcDbEntity
  8
SK3
  6
SLD-Dashed
370
    18
100
AcDbLine
 10
6.1
 20
37.5
 30
0.0
 11
6.1
 21
33.1
 31
0.0
  0
LINE
  5
1D8
330
1F
100
AcDbEntity
  8
SK3
  6
SLD-Dashed
370
    18
100
AcDbLine
 10
16.1
 20
33.1
 30
0.0
 11
16.1
 21
37.5
 31
0.0
  0
LINE
  5
1D9
330
1F
100
AcDbEntity
  8
SK3
  6
SLD-Dashed
370
    18
100
AcDbLine
 10
9.475
 20
11.6248275727
 30
0.0
 11
9.475
 21
3.5901214152
 31
0.0
  0
LINE
  5
1DA
330
1F
100
AcDbEntity
  8
SK3
  6
SLD-Dashed
370
    18
100
AcDbLine
 10
12.775
 20
3.6325805645
 30
0.0
 11
12.775
 21
10.7436836418
 31
0.0
  0
LINE
  5
1DB
330
1F
100
AcDbEntity
  8
SK3
  6
SLD-Dashed
370
    18
100
AcDbLine
 10
4.301137602
 20
11.5346431229
 30
0.0
 11
15.0968849264
 21
8.6498529463
 31
0.0
  0
LINE
  5
1DC
330
1F
100
AcDbEntity
  8
SK3
  6
SLD-Dashed
370
    18
100
AcDbLine
 10
16.3618570383
 20
13.3837567853
 30
0.0
 11
5.5661097138
 21
16.2685469619
 31
0.0
  0
LINE
  5
1DD
330
1F
100
AcDbEntity
  8
SK3
  6
SLD-Dashed
370
    18
100
AcDbLine
 10
9.475
 20
14.0751301296
 30
0.0
 11
9.475
 21
13.7505293184
 31
0.0
  0
LINE
  5
1DE
330
1F
100
AcDbEntity
  8
SK3
  6
SLD-Dashed
370
    18
100
AcDbLine
 10
12.775
 20
12.869488756
 30
0.0
 11
12.775
 21
14.0751301296
 31
0.0
  0
LINE
  5
1DF
330
1F
100
AcDbEntity
  8
SK3
  6
SLD-Dashed
370
    18
100
AcDbLine
 10
3.2
 20
11.6736210955
 30
0.0
 11
4.2624139659
 21
11.3897276993
 31
0.0
  0
LINE
  5
1E0
330
1F
100
AcDbEntity
  8
SK3
  6
SLD-Dashed
370
    18
100
AcDbLine
 10
5.6048333499
 20
16.4134623855
 30
0.0
 11
3.2
 21
17.0560709439
 31
0.0
  0
LINE
  5
1E1
330
1F
100
AcDbEntity
  8
SK3
  6
SLD-Solid
370
    18
100
AcDbLine
 10
-52.6
 20
12.0
 30
0.0
 11
-89.3448185145
 21
12.0
 31
0.0
  0
LINE
  5
1E2
330
1F
100
AcDbEntity
  8
SK3
  6
SLD-Solid
370
    18
100
AcDbLine
 10
-89.3448185145
 20
-12.0
 30
0.0
 11
-52.6
 21
-12.0
 31
0.0
  0
LINE
  5
1E3
330
1F
100
AcDbEntity
  8
SK3
  6
SLD-Solid
370
    18
100
AcDbLine
 10
-52.6
 20
0.0
 30
0.0
 11
-52.6
 21
-1.7077780593
 31
0.0
  0
LINE
  5
1E4
330
1F
100
AcDbEntity
  8
SK3
  6
SLD-Solid
370
    18
100
AcDbLine
 10
-52.6
 20
-1.7077780593
 30
0.0
 11
-52.6
 21
-3.3807906821
 31
0.0
  0
LINE
  5
1E5
330
1F
100
AcDbEntity
  8
SK3
  6
SLD-Solid
370
    18
100
AcDbLine
 10
-52.6
 20
-3.3807906821
 30
0.0
 11
-52.6
 21
-4.984980156
 31
0.0
  0
LINE
  5
1E6
330
1F
100
AcDbEntity
  8
SK3
  6
SLD-Solid
370
    18
100
AcDbLine
 10
-52.6
 20
-4.984980156
 30
0.0
 11
-52.6
 21
-6.4876898095
 31
0.0
  0
LINE
  5
1E7
330
1F
100
AcDbEntity
  8
SK3
  6
SLD-Solid
370
    18
100
AcDbLine
 10
-52.6
 20
-6.4876898095
 30
0.0
 11
-52.6
 21
-7.8583288073
 31
0.0
  0
LINE
  5
1E8
330
1F
100
AcDbEntity
  8
SK3
  6
SLD-Solid
370
    18
100
AcDbLine
 10
-52.6
 20
-7.8583288073
 30
0.0
 11
-52.6
 21
-9.0689948923
 31
0.0
  0
LINE
  5
1E9
330
1F
100
AcDbEntity
  8
SK3
  6
SLD-Solid
370
    18
100
AcDbLine
 10
-52.6
 20
-9.0689948923
 30
0.0
 11
-52.6
 21
-10.095042394
 31
0.0
  0
LINE
  5
1EA
330
1F
100
AcDbEntity
  8
SK3
  6
SLD-Solid
370
    18
100
AcDbLine
 10
-52.6
 20
-10.095042394
 30
0.0
 11
-52.6
 21
-10.9155839443
 31
0.0
  0
LINE
  5
1EB
330
1F
100
AcDbEntity
  8
SK3
  6
SLD-Solid
370
    18
100
AcDbLine
 10
-52.6
 20
-10.9155839443
 30
0.0
 11
-52.6
 21
-11.5139156834
 31
0.0
  0
LINE
  5
1EC
330
1F
100
AcDbEntity
  8
SK3
  6
SLD-Solid
370
    18
100
AcDbLine
 10
-52.6
 20
-11.5139156834
 30
0.0
 11
-52.6
 21
-11.8778573026
 31
0.0
  0
LINE
  5
1ED
330
1F
100
AcDbEntity
  8
SK3
  6
SLD-Solid
370
    18
100
AcDbLine
 10
-52.6
 20
-11.8778573026
 30
0.0
 11
-52.6
 21
-12.0
 31
0.0
  0
LINE
  5
1EE
330
1F
100
AcDbEntity
  8
SK3
  6
SLD-Solid
370
    18
100
AcDbLine
 10
-52.6
 20
12.0
 30
0.0
 11
-52.6
 21
11.8778573026
 31
0.0
  0
LINE
  5
1EF
330
1F
100
AcDbEntity
  8
SK3
  6
SLD-Solid
370
    18
100
AcDbLine
 10
-52.6
 20
11.8778573026
 30
0.0
 11
-52.6
 21
11.5139156834
 31
0.0
  0
LINE
  5
1F0
330
1F
100
AcDbEntity
  8
SK3
  6
SLD-Solid
370
    18
100
AcDbLine
 10
-52.6
 20
11.5139156834
 30
0.0
 11
-52.6
 21
10.9155839443
 31
0.0
  0
LINE
  5
1F1
330
1F
100
AcDbEntity
  8
SK3
  6
SLD-Solid
370
    18
100
AcDbLine
 10
-52.6
 20
10.9155839443
 30
0.0
 11
-52.6
 21
10.095042394
 31
0.0
  0
LINE
  5
1F2
330
1F
100
AcDbEntity
  8
SK3
  6
SLD-Solid
370
    18
100
AcDbLine
 10
-52.6
 20
10.095042394
 30
0.0
 11
-52.6
 21
9.0689948923
 31
0.0
  0
LINE
  5
1F3
330
1F
100
AcDbEntity
  8
SK3
  6
SLD-Solid
370
    18
100
AcDbLine
 10
-52.6
 20
9.0689948923
 30
0.0
 11
-52.6
 21
7.8583288073
 31
0.0
  0
LINE
  5
1F4
330
1F
100
AcDbEntity
  8
SK3
  6
SLD-Solid
370
    18
100
AcDbLine
 10
-52.6
 20
7.8583288073
 30
0.0
 11
-52.6
 21
6.4876898095
 31
0.0
  0
LINE
  5
1F5
330
1F
100
AcDbEntity
  8
SK3
  6
SLD-Solid
370
    18
100
AcDbLine
 10
-52.6
 20
6.4876898095
 30
0.0
 11
-52.6
 21
4.984980156
 31
0.0
  0
LINE
  5
1F6
330
1F
100
AcDbEntity
  8
SK3
  6
SLD-Solid
370
    18
100
AcDbLine
 10
-52.6
 20
4.984980156
 30
0.0
 11
-52.6
 21
3.3807906821
 31
0.0
  0
LINE
  5
1F7
330
1F
100
AcDbEntity
  8
SK3
  6
SLD-Solid
370
    18
100
AcDbLine
 10
-52.6
 20
3.3807906821
 30
0.0
 11
-52.6
 21
1.7077780593
 31
0.0
  0
LINE
  5
1F8
330
1F
100
AcDbEntity
  8
SK3
  6
SLD-Solid
370
    18
100
AcDbLine
 10
-52.6
 20
1.7077780593
 30
0.0
 11
-52.6
 21
0.0
 31
0.0
  0
LINE
  5
1F9
330
1F
100
AcDbEntity
  8
SK3
  6
SLD-Solid
370
    18
100
AcDbLine
 10
45.5
 20
24.9660685709
 30
0.0
 11
45.5
 21
35.75
 31
0.0
  0
LINE
  5
1FA
330
1F
100
AcDbEntity
  8
SK3
  6
SLD-Solid
370
    18
100
AcDbLine
 10
29.5
 20
35.75
 30
0.0
 11
29.5
 21
24.9660685709
 31
0.0
  0
LINE
  5
1FB
330
1F
100
AcDbEntity
  8
SK3
  6
SLD-Solid
370
    18
100
AcDbLine
 10
45.393243715
 20
24.9660685709
 30
0.0
 11
45.4248749899
 21
24.976061411
 31
0.0
  0
LINE
  5
1FC
330
1F
100
AcDbEntity
  8
SK3
  6
SLD-Solid
370
    18
100
AcDbLine
 10
34.7161178186
 20
23.8484800354
 30
0.0
 11
33.5058927254
 21
24.0198437322
 31
0.0
  0
LINE
  5
1FD
330
1F
100
AcDbEntity
  8
SK3
  6
SLD-Solid
370
    18
100
AcDbLine
 10
40.2838774567
 20
23.8484800354
 30
0.0
 11
34.7161178186
 21
23.8484800354
 31
0.0
  0
LINE
  5
1FE
330
1F
100
AcDbEntity
  8
SK3
  6
SLD-Solid
370
    18
100
AcDbLine
 10
89.0
 20
24.9660685709
 30
0.0
 11
89.0
 21
35.75
 31
0.0
  0
LINE
  5
1FF
330
1F
100
AcDbEntity
  8
SK3
  6
SLD-Solid
370
    18
100
AcDbLine
 10
73.0
 20
35.75
 30
0.0
 11
73.0
 21
24.9660685709
 31
0.0
  0
LINE
  5
200
330
1F
100
AcDbEntity
  8
SK3
  6
SLD-Solid
370
    18
100
AcDbLine
 10
88.893243715
 20
24.9660685709
 30
0.0
 11
88.9248749899
 21
24.976061411
 31
0.0
  0
LINE
  5
201
330
1F
100
AcDbEntity
  8
SK3
  6
SLD-Solid
370
    18
100
AcDbLine
 10
78.2161178186
 20
23.8484800354
 30
0.0
 11
77.0058927254
 21
24.0198437322
 31
0.0
  0
LINE
  5
202
330
1F
100
AcDbEntity
  8
SK3
  6
SLD-Solid
370
    18
100
AcDbLine
 10
83.7838240509
 20
23.8484800354
 30
0.0
 11
78.2161178186
 21
23.8484800354
 31
0.0
  0
LINE
  5
203
330
1F
100
AcDbEntity
  8
4
  6
SLD-Center
370
    18
100
AcDbLine
 10
102.0
 20
0.0
 30
0.0
 11
0.6679391306
 21
0.0
 31
0.0
  0
LINE
  5
204
330
1F
100
AcDbEntity
  8
4
  6
SLD-Center
370
    18
100
AcDbLine
 10
37.5
 20
23.0
 30
0.0
 11
37.5
 21
37.25
 31
0.0
  0
LINE
  5
205
330
1F
100
AcDbEntity
  8
4
  6
SLD-Center
370
    18
100
AcDbLine
 10
81.0
 20
23.0
 30
0.0
 11
81.0
 21
37.25
 31
0.0
  0
LINE
  5
206
330
1F
100
AcDbEntity
  8
SK4
  6
SLD-Center
370
    18
100
AcDbLine
 10
102.233299405
 20
0.0
 30
0.0
 11
-105.4475492842
 21
0.0
 31
0.0
  0
ARC
  5
207
330
1F
100
AcDbEntity
  8
1
  6
SLD-Solid
370
    25
100
AcDbCircle
 10
2.45
 20
35.425
 30
0.0
 40
0.7500000000000009
100
AcDbArc
 50
245.0
 51
0.0
  0
ARC
  5
208
330
1F
100
AcDbEntity
  8
1
  6
SLD-Solid
370
    25
100
AcDbCircle
 10
2.45
 20
-35.425
 30
0.0
 40
0.750000000000007
100
AcDbArc
 50
0.0
 51
115.0
  0
ARC
  5
209
330
1F
100
AcDbEntity
  8
SK1
  6
SLD-Solid
370
    25
100
AcDbCircle
 10
-99.35
 20
18.1625211762
 30
0.0
 40
2.25
100
AcDbArc
 50
98.2972222222
 51
180.0
  0
ARC
  5
20A
330
1F
100
AcDbEntity
  8
SK1
  6
SLD-Solid
370
    25
100
AcDbCircle
 10
-99.35
 20
-18.1625211762
 30
0.0
 40
2.250000000000005
100
AcDbArc
 50
180.0
 51
261.7027777778
  0
ARC
  5
20B
330
1F
100
AcDbEntity
  8
SK3
  6
SLD-Dashed
370
    18
100
AcDbCircle
 10
-0.4832596518
 20
-15.47591162
 30
0.0
 40
3.707989375299645
100
AcDbArc
 50
353.3790594847
 51
6.6209405153
  0
ARC
  5
20C
330
1F
100
AcDbEntity
  8
SK3
  6
SLD-Dashed
370
    18
100
AcDbCircle
 10
-0.4832596518
 20
15.47591162
 30
0.0
 40
3.707989375299394
100
AcDbArc
 50
353.3790594847
 51
6.6209405153
  0
ARC
  5
20D
330
1F
100
AcDbEntity
  8
SK3
  6
SLD-Dashed
370
    18
100
AcDbCircle
 10
47.5
 20
-43.8
 30
0.0
 40
12.50000000000003
100
AcDbArc
 50
30.2615042866
 51
149.6487271159
  0
ARC
  5
20E
330
1F
100
AcDbEntity
  8
SK3
  6
SLD-Dashed
370
    18
100
AcDbCircle
 10
81.0
 20
-43.8
 30
0.0
 40
12.50000000000003
100
AcDbArc
 50
30.2615042866
 51
149.6487271159
  0
ARC
  5
20F
330
1F
100
AcDbEntity
  8
1
370
    25
100
AcDbCircle
 10
21.0873776543
 20
-69.064215228
 30
0.0
 40
33.79982344457596
100
AcDbArc
 50
69.0443270607
 51
86.4253232509
  0
ARC
  5
210
330
1F
100
AcDbEntity
  8
1
370
    25
100
AcDbCircle
 10
47.4709951286
 20
-82.3267929477
 30
0.0
 40
46.11538403050053
100
AcDbArc
 50
76.4240843743
 51
103.4902496208
  0
ARC
  5
211
330
1F
100
AcDbEntity
  8
1
370
    25
100
AcDbCircle
 10
80.9718122886
 20
-80.9214011496
 30
0.0
 40
44.75016492912052
100
AcDbArc
 50
76.0026854516
 51
103.9110323813
  0
ARC
  5
212
330
1F
100
AcDbEntity
  8
1
370
    25
100
AcDbCircle
 10
37.5
 20
89.325854432
 30
0.0
 40
52.73501386754801
100
AcDbArc
 50
259.3454761377
 51
280.6545238623
  0
ARC
  5
213
330
1F
100
AcDbEntity
  8
1
370
    25
100
AcDbCircle
 10
80.9968101987
 20
85.3989735743
 30
0.0
 40
48.87785072499437
100
AcDbArc
 50
258.5138851871
 51
281.4861148129
  0
SPLINE
  5
214
330
1F
100
AcDbEntity
  8
1
  6
SLD-Solid
370
    25
100
AcDbSpline
210
0.0
220
0.0
230
1.0
 70
    24
 71
     3
 72
     8
 73
     4
 74
     0
 42
0.000000001
 43
0.00000001
 40
0.0
 40
0.0
 40
0.0
 40
0.0
 40
0.25
 40
0.25
 40
0.25
 40
0.25
 10
18.30000000000001
 20
29.84999999999999
 30
0.0
 10
18.41247317381035
 20
29.84999999999999
 30
0.0
 10
18.52309590071284
 20
29.85000000000001
 30
0.0
 10
18.6193717889197
 20
29.85000000000001
 30
0.0
  0
SPLINE
  5
215
330
1F
100
AcDbEntity
  8
1
  6
SLD-Solid
370
    25
100
AcDbSpline
210
0.0
220
0.0
230
1.0
 70
    24
 71
     3
 72
     8
 73
     4
 74
     0
 42
0.000000001
 43
0.00000001
 40
0.25
 40
0.25
 40
0.25
 40
0.25
 40
0.5
 40
0.5
 40
0.5
 40
0.5
 10
18.6193717889197
 20
29.85000000000001
 30
0.0
 10
18.71564767712657
 20
29.84999999999999
 30
0.0
 10
18.79771216328977
 20
29.84999999999999
 30
0.0
 10
18.86163687579916
 20
29.84999999999999
 30
0.0
  0
SPLINE
  5
216
330
1F
100
AcDbEntity
  8
1
  6
SLD-Solid
370
    25
100
AcDbSpline
210
0.0
220
0.0
230
1.0
 70
    24
 71
     2
 72
     6
 73
     3
 74
     0
 42
0.000000001
 43
0.00000001
 40
0.5
 40
0.5
 40
0.5
 40
1.0
 40
1.0
 40
1.0
 10
18.86163687579916
 20
29.84999999999999
 30
0.0
 10
18.98948630081794
 20
29.84999999999999
 30
0.0
 10
19.05000000000004
 20
29.84999999999999
 30
0.0
  0
SPLINE
  5
217
330
1F
100
AcDbEntity
  8
1
  6
SLD-Solid
370
    25
100
AcDbSpline
210
0.0
220
0.0
230
1.0
 70
     8
 71
     3
 72
    18
 73
    14
 74
     0
 42
0.000000001
 43
0.00000001
 40
0.0
 40
0.0
 40
0.0
 40
0.0
 40
0.0626983258492625
 40
0.1258165051847916
 40
0.1893695477193543
 40
0.2533721018638449
 40
0.3759968912843907
 40
0.5042620932989594
 40
0.6288006984026461
 40
0.7525291943939613
 40
0.8763092484220619
 40
0.929519238942835
 40
1.0
 40
1.0
 40
1.0
 40
1.0
 10
18.30000000000001
 20
-46.83998369172546
 30
0.0
 10
18.32475586842643
 20
-46.8392712351408
 30
0.0
 10
18.37443338064117
 20
-46.83784155107244
 30
0.0
 10
18.44845011787391
 20
-46.82626550406228
 30
0.0
 10
18.52146090862539
 20
-46.8077376896437
 30
0.0
 10
18.61423623257469
 20
-46.7737416417533
 30
0.0
 10
18.72393529201959
 20
-46.71402271116255
 30
0.0
 10
18.83799186754576
 20
-46.61859333288463
 30
0.0
 10
18.93104818342121
 20
-46.50242428542084
 30
0.0
 10
18.99910820097194
 20
-46.37228117456016
 30
0.0
 10
19.03260113522136
 20
-46.25853666729892
 30
0.0
 10
19.04762892081986
 20
-46.16262651321791
 30
0.0
 10
19.04913934097299
 20
-46.1141604402796
 30
0.0
 10
19.05000000000003
 20
-46.08654377805897
 30
0.0
  0
SPLINE
  5
218
330
1F
100
AcDbEntity
  8
1
  6
SLD-Solid
370
    25
100
AcDbSpline
210
0.0
220
0.0
230
1.0
 70
    24
 71
     2
 72
     6
 73
     3
 74
     0
 42
0.000000001
 43
0.00000001
 40
0.0
 40
0.0
 40
0.0
 40
0.25
 40
0.25
 40
0.25
 10
3.200000000000022
 20
29.84999999999999
 30
0.0
 10
3.215211600272688
 20
29.85000000000001
 30
0.0
 10
3.246168525324153
 20
29.84999999999999
 30
0.0
  0
SPLINE
  5
219
330
1F
100
AcDbEntity
  8
1
  6
SLD-Solid
370
    25
100
AcDbSpline
210
0.0
220
0.0
230
1.0
 70
    24
 71
     3
 72
     8
 73
     4
 74
     0
 42
0.000000001
 43
0.00000001
 40
0.25
 40
0.25
 40
0.25
 40
0.25
 40
0.5
 40
0.5
 40
0.5
 40
0.5
 10
3.246168525324153
 20
29.84999999999999
 30
0.0
 10
3.277125450375631
 20
29.84999999999999
 30
0.0
 10
3.324391360501555
 20
29.84999999999999
 30
0.0
 10
3.388322433028418
 20
29.84999999999999
 30
0.0
  0
SPLINE
  5
21A
330
1F
100
AcDbEntity
  8
1
  6
SLD-Solid
370
    25
100
AcDbSpline
210
0.0
220
0.0
230
1.0
 70
    24
 71
     3
 72
     8
 73
     4
 74
     0
 42
0.000000001
 43
0.00000001
 40
0.5
 40
0.5
 40
0.5
 40
0.5
 40
0.75
 40
0.75
 40
0.75
 40
0.75
 10
3.388322433028418
 20
29.84999999999999
 30
0.0
 10
3.452253505555294
 20
29.84999999999999
 30
0.0
 10
3.533292784974246
 20
29.84999999999999
 30
0.0
 10
3.63054215365663
 20
29.84999999999999
 30
0.0
  0
SPLINE
  5
21B
330
1F
100
AcDbEntity
  8
1
  6
SLD-Solid
370
    25
100
AcDbSpline
210
0.0
220
0.0
230
1.0
 70
    24
 71
     3
 72
     8
 73
     4
 74
     0
 42
0.000000001
 43
0.00000001
 40
0.75
 40
0.75
 40
0.75
 40
0.75
 40
0.875
 40
0.875
 40
0.875
 40
0.875
 10
3.63054215365663
 20
29.84999999999999
 30
0.0
 10
3.679166837997836
 20
29.84999999999999
 30
0.0
 10
3.730166761843803
 20
29.84999999999999
 30
0.0
 10
3.783693176329344
 20
29.84999999999999
 30
0.0
  0
SPLINE
  5
21C
330
1F
100
AcDbEntity
  8
1
  6
SLD-Solid
370
    25
100
AcDbSpline
210
0.0
220
0.0
230
1.0
 70
    24
 71
     3
 72
     8
 73
     4
 74
     0
 42
0.000000001
 43
0.00000001
 40
0.875
 40
0.875
 40
0.875
 40
0.875
 40
1.0
 40
1.0
 40
1.0
 40
1.0
 10
3.783693176329344
 20
29.84999999999999
 30
0.0
 10
3.837219590814844
 20
29.84999999999999
 30
0.0
 10
3.8941244681997
 20
29.85000000000001
 30
0.0
 10
3.950000000000023
 20
29.84999999999999
 30
0.0
  0
SPLINE
  5
21D
330
1F
100
AcDbEntity
  8
1
  6
SLD-Solid
370
    25
100
AcDbSpline
210
0.0
220
0.0
230
1.0
 70
     8
 71
     3
 72
    16
 73
    12
 74
     0
 42
0.000000001
 43
0.00000001
 40
0.0
 40
0.0
 40
0.0
 40
0.0
 40
0.0702655834500339
 40
0.1233158853764726
 40
0.2470095128755299
 40
0.3705804022389961
 40
0.4954459633505522
 40
0.6237167738882113
 40
0.7463408569452532
 40
0.8740317336711644
 40
1.0
 40
1.0
 40
1.0
 40
1.0
 10
3.200000000000034
 20
-46.08655313910527
 30
0.0
 10
3.200854846599515
 20
-46.11407658737028
 30
0.0
 10
3.202355099783231
 20
-46.16238015541548
 30
0.0
 10
3.217299603974819
 20
-46.25808782523598
 30
0.0
 10
3.250651885062356
 20
-46.37166478936916
 30
0.0
 10
3.318573453323733
 20
-46.50186807386828
 30
0.0
 10
3.411530055818551
 20
-46.61811229051907
 30
0.0
 10
3.525601915061396
 20
-46.7138022098406
 30
0.0
 10
3.657301012418258
 20
-46.78523407699995
 30
0.0
 10
3.79997031315421
 20
-46.83129392638254
 30
0.0
 10
3.900217031008082
 20
-46.83711080614266
 30
0.0
 10
3.950000000000023
 20
-46.8399994946796
 30
0.0
  0
SPLINE
  5
21E
330
1F
100
AcDbEntity
  8
1
  6
SLD-Solid
370
    25
100
AcDbSpline
210
0.0
220
0.0
230
1.0
 70
    24
 71
     3
 72
     8
 73
     4
 74
     0
 42
0.000000001
 43
0.00000001
 40
0.0
 40
0.0
 40
0.0
 40
0.0
 40
1.0
 40
1.0
 40
1.0
 40
1.0
 10
14.33316150746194
 20
29.84999999999999
 30
0.0
 10
13.88822424534007
 20
29.84999999999999
 30
0.0
 10
13.44831765806796
 20
29.84999999999999
 30
0.0
 10
13.01500000000003
 20
29.84999999999999
 30
0.0
  0
SPLINE
  5
21F
330
1F
100
AcDbEntity
  8
1
  6
SLD-Solid
370
    25
100
AcDbSpline
210
0.0
220
0.0
230
1.0
 70
     8
 71
     3
 72
     8
 73
     4
 74
     0
 42
0.000000001
 43
0.00000001
 40
0.0
 40
0.0
 40
0.0
 40
0.0
 40
0.0006700607936505
 40
0.0006700607936505
 40
0.0006700607936505
 40
0.0006700607936505
 10
14.06942593373976
 20
-46.51245856453758
 30
0.0
 10
14.15704985947906
 20
-46.6216990307186
 30
0.0
 10
14.24496492723694
 20
-46.73087359359234
 30
0.0
 10
14.33316150746194
 20
-46.83998369172546
 30
0.0
  0
SPLINE
  5
220
330
1F
100
AcDbEntity
  8
1
  6
SLD-Solid
370
    25
100
AcDbSpline
210
0.0
220
0.0
230
1.0
 70
     8
 71
     3
 72
     8
 73
     4
 74
     0
 42
0.000000001
 43
0.00000001
 40
0.0
 40
0.0
 40
0.0
 40
0.0
 40
1.0
 40
1.0
 40
1.0
 40
1.0
 10
13.01500000000003
 20
-44.61432468190731
 30
0.0
 10
13.36604900858748
 20
-45.24726654541841
 30
0.0
 10
13.71754074288914
 20
-45.87996895708406
 30
0.0
 10
14.06942593373976
 20
-46.51245856453758
 30
0.0
  0
SPLINE
  5
221
330
1F
100
AcDbEntity
  8
1
  6
SLD-Solid
370
    25
100
AcDbSpline
210
0.0
220
0.0
230
1.0
 70
    24
 71
     3
 72
     8
 73
     4
 74
     0
 42
0.000000001
 43
0.00000001
 40
0.0
 40
0.0
 40
0.0
 40
0.0
 40
1.0
 40
1.0
 40
1.0
 40
1.0
 10
9.185000000000013
 20
29.84999999999999
 30
0.0
 10
8.751488371242914
 20
29.84999999999999
 30
0.0
 10
8.31171608151468
 20
29.84999999999999
 30
0.0
 10
7.866838492538081
 20
29.84999999999999
 30
0.0
  0
SPLINE
  5
222
330
1F
100
AcDbEntity
  8
1
  6
SLD-Solid
370
    25
100
AcDbSpline
210
0.0
220
0.0
230
1.0
 70
     8
 71
     3
 72
     8
 73
     4
 74
     0
 42
0.000000001
 43
0.00000001
 40
0.0
 40
0.0
 40
0.0
 40
0.0
 40
1.0
 40
1.0
 40
1.0
 40
1.0
 10
8.130521853602483
 20
-46.51255241321947
 30
0.0
 10
8.4824244876556
 20
-45.88003154395724
 30
0.0
 10
8.833933628551241
 20
-45.24729785068291
 30
0.0
 10
9.184999999999263
 20
-44.61432468190947
 30
0.0
  0
SPLINE
  5
223
330
1F
100
AcDbEntity
  8
1
  6
SLD-Solid
370
    25
100
AcDbSpline
210
0.0
220
0.0
230
1.0
 70
     8
 71
     3
 72
     8
 73
     4
 74
     0
 42
0.000000001
 43
0.00000001
 40
0.0
 40
0.0
 40
0.0
 40
0.0
 40
0.000669959157332
 40
0.000669959157332
 40
0.000669959157332
 40
0.000669959157332
 10
7.866838492538081
 20
-46.8399994946796
 30
0.0
 10
7.955017629963415
 20
-46.73091539326168
 30
0.0
 10
8.042915292502935
 20
-46.62176684535434
 30
0.0
 10
8.130521853602499
 20
-46.51255241321945
 30
0.0
  0
SPLINE
  5
224
330
1F
100
AcDbEntity
  8
1
  6
SLD-Solid
370
    25
100
AcDbSpline
210
0.0
220
0.0
230
1.0
 70
     8
 71
     3
 72
    12
 73
     8
 74
     0
 42
0.000000001
 43
0.00000001
 40
0.0
 40
0.0
 40
0.0
 40
0.0
 40
0.2500000000000039
 40
0.2500000000000039
 40
0.5000000000000078
 40
0.5000000000000078
 40
1.0
 40
1.0
 40
1.0
 40
1.0
 10
12.26500000000003
 20
-43.63301502303044
 30
0.0
 10
12.36488078742804
 20
-43.63301502303044
 30
0.0
 10
12.46496899267104
 20
-43.65414350767925
 30
0.0
 10
12.64924433697573
 20
-43.73539237501939
 30
0.0
 10
12.73213615703768
 20
-43.79468442323345
 30
0.0
 10
12.9385782027224
 20
-44.01450213782636
 30
0.0
 10
13.01500000000003
 20
-44.21514437565124
 30
0.0
 10
13.01500000000003
 20
-44.41455279522694
 30
0.0
  0
SPLINE
  5
225
330
1F
100
AcDbEntity
  8
1
  6
SLD-Solid
370
    25
100
AcDbSpline
210
0.0
220
0.0
230
1.0
 70
    24
 71
     2
 72
     6
 73
     3
 74
     0
 42
0.000000001
 43
0.00000001
 40
0.0
 40
0.0
 40
0.0
 40
0.25
 40
0.25
 40
0.25
 10
13.01500000000003
 20
29.84999999999999
 30
0.0
 10
12.99976712842463
 20
29.85000000000001
 30
0.0
 10
12.96940924111181
 20
29.84999999999999
 30
0.0
  0
SPLINE
  5
226
330
1F
100
AcDbEntity
  8
1
  6
SLD-Solid
370
    25
100
AcDbSpline
210
0.0
220
0.0
230
1.0
 70
    24
 71
     3
 72
     8
 73
     4
 74
     0
 42
0.000000001
 43
0.00000001
 40
0.25
 40
0.25
 40
0.25
 40
0.25
 40
0.5
 40
0.5
 40
0.5
 40
0.5
 10
12.96940924111181
 20
29.84999999999999
 30
0.0
 10
12.939051353799
 20
29.84999999999999
 30
0.0
 10
12.89250680873125
 20
29.84999999999999
 30
0.0
 10
12.82963809767021
 20
29.84999999999999
 30
0.0
  0
SPLINE
  5
227
330
1F
100
AcDbEntity
  8
1
  6
SLD-Solid
370
    25
100
AcDbSpline
210
0.0
220
0.0
230
1.0
 70
    24
 71
     3
 72
     8
 73
     4
 74
     0
 42
0.000000001
 43
0.00000001
 40
0.5
 40
0.5
 40
0.5
 40
0.5
 40
0.75
 40
0.75
 40
0.75
 40
0.75
 10
12.82963809767021
 20
29.84999999999999
 30
0.0
 10
12.76676938660919
 20
29.84999999999999
 30
0.0
 10
12.68590636195695
 20
29.84999999999999
 30
0.0
 10
12.58961969903434
 20
29.84999999999999
 30
0.0
  0
SPLINE
  5
228
330
1F
100
AcDbEntity
  8
1
  6
SLD-Solid
370
    25
100
AcDbSpline
210
0.0
220
0.0
230
1.0
 70
    24
 71
     3
 72
     8
 73
     4
 74
     0
 42
0.000000001
 43
0.00000001
 40
0.75
 40
0.75
 40
0.75
 40
0.75
 40
1.0
 40
1.0
 40
1.0
 40
1.0
 10
12.58961969903434
 20
29.84999999999999
 30
0.0
 10
12.49333303611176
 20
29.84999999999999
 30
0.0
 10
12.37892259690217
 20
29.84999999999999
 30
0.0
 10
12.26500000000003
 20
29.84999999999999
 30
0.0
  0
SPLINE
  5
229
330
1F
100
AcDbEntity
  8
1
  6
SLD-Solid
370
    25
100
AcDbSpline
210
0.0
220
0.0
230
1.0
 70
     8
 71
     3
 72
    12
 73
     8
 74
     0
 42
0.000000001
 43
0.00000001
 40
0.0
 40
0.0
 40
0.0
 40
0.0
 40
0.4999999999999984
 40
0.4999999999999984
 40
0.7499999999999992
 40
0.7499999999999992
 40
1.0
 40
1.0
 40
1.0
 40
1.0
 10
9.185000000000013
 20
-44.41455279522694
 30
0.0
 10
9.185000000000013
 20
-44.21464324025514
 30
0.0
 10
9.262577750173625
 20
-44.01319670577868
 30
0.0
 10
9.467487862287765
 20
-43.79512211107158
 30
0.0
 10
9.5511693134894
 20
-43.73525024845278
 30
0.0
 10
9.734123389872313
 20
-43.65450353783464
 30
0.0
 10
9.834260986428436
 20
-43.63301502303044
 30
0.0
 10
9.935000000000013
 20
-43.63301502303044
 30
0.0
  0
SPLINE
  5
22A
330
1F
100
AcDbEntity
  8
1
  6
SLD-Solid
370
    25
100
AcDbSpline
210
0.0
220
0.0
230
1.0
 70
    24
 71
     3
 72
     8
 73
     4
 74
     0
 42
0.000000001
 43
0.00000001
 40
0.0
 40
0.0
 40
0.0
 40
0.0
 40
0.25
 40
0.25
 40
0.25
 40
0.25
 10
9.934999999999958
 20
29.84999999999999
 30
0.0
 10
9.820633557571345
 20
29.84999999999999
 30
0.0
 10
9.70571369493678
 20
29.85000000000001
 30
0.0
 10
9.609616781792466
 20
29.84999999999999
 30
0.0
  0
SPLINE
  5
22B
330
1F
100
AcDbEntity
  8
1
  6
SLD-Solid
370
    25
100
AcDbSpline
210
0.0
220
0.0
230
1.0
 70
    24
 71
     3
 72
     8
 73
     4
 74
     0
 42
0.000000001
 43
0.00000001
 40
0.25
 40
0.25
 40
0.25
 40
0.25
 40
0.5
 40
0.5
 40
0.5
 40
0.5
 10
9.609616781792466
 20
29.84999999999999
 30
0.0
 10
9.513519868648137
 20
29.84999999999999
 30
0.0
 10
9.432800300690825
 20
29.84999999999999
 30
0.0
 10
9.370104098752288
 20
29.84999999999999
 30
0.0
  0
SPLINE
  5
22C
330
1F
100
AcDbEntity
  8
1
  6
SLD-Solid
370
    25
100
AcDbSpline
210
0.0
220
0.0
230
1.0
 70
    24
 71
     3
 72
     8
 73
     4
 74
     0
 42
0.000000001
 43
0.00000001
 40
0.5
 40
0.5
 40
0.5
 40
0.5
 40
0.75
 40
0.75
 40
0.75
 40
0.75
 10
9.370104098752288
 20
29.84999999999999
 30
0.0
 10
9.307407896813725
 20
29.84999999999999
 30
0.0
 10
9.260917188589055
 20
29.84999999999999
 30
0.0
 10
9.230556730383977
 20
29.84999999999999
 30
0.0
  0
SPLINE
  5
22D
330
1F
100
AcDbEntity
  8
1
  6
SLD-Solid
370
    25
100
AcDbSpline
210
0.0
220
0.0
230
1.0
 70
    24
 71
     2
 72
     6
 73
     3
 74
     0
 42
0.000000001
 43
0.00000001
 40
0.75
 40
0.75
 40
0.75
 40
1.0
 40
1.0
 40
1.0
 10
9.230556730383977
 20
29.84999999999999
 30
0.0
 10
9.200196272178884
 20
29.84999999999999
 30
0.0
 10
9.185000000000013
 20
29.84999999999999
 30
0.0
  0
SPLINE
  5
22E
330
1F
100
AcDbEntity
  8
1
  6
SLD-Solid
370
    25
100
AcDbSpline
210
0.0
220
0.0
230
1.0
 70
    24
 71
     3
 72
    11
 73
     7
 74
     0
 42
0.000000001
 43
0.00000001
 40
0.0
 40
0.0
 40
0.0
 40
0.0
 40
0.0538187504590144
 40
0.6575147524151188
 40
0.993184719589074
 40
1.0
 40
1.0
 40
1.0
 40
1.0
 10
19.24935636163266
 20
37.49999999999999
 30
0.0
 10
19.25558674242073
 20
37.49999999999999
 30
0.0
 10
19.33170458697066
 20
37.49999999999996
 30
0.0
 10
19.66784922738098
 20
37.49999999999989
 30
0.0
 10
19.94333012312131
 20
37.50000000000012
 30
0.0
 10
20.04791874027077
 20
37.49999999999999
 30
0.0
 10
20.05000000000003
 20
37.49999999999999
 30
0.0
  0
SPLINE
  5
22F
330
1F
100
AcDbEntity
  8
1
  6
SLD-Solid
370
    25
100
AcDbSpline
210
0.0
220
0.0
230
1.0
 70
     8
 71
     3
 72
    26
 73
    22
 74
     0
 42
0.000000001
 43
0.00000001
 40
0.0
 40
0.0
 40
0.0
 40
0.0
 40
0.0417038224905843
 40
0.083140819150976
 40
0.1247505119513147
 40
0.1847478709432927
 40
0.2473291977957812
 40
0.3090376137662258
 40
0.3711276309919455
 40
0.4334660966523849
 40
0.4965412927315212
 40
0.5604055218209516
 40
0.6241637548818646
 40
0.6560239597698356
 40
0.687885210285097
 40
0.751663690535591
 40
0.8148617541455532
 40
0.8770818472219748
 40
0.938963930258892
 40
0.969697116221521
 40
1.0
 40
1.0
 40
1.0
 40
1.0
 10
19.07528251565417
 20
-35.8713503156529
 30
0.0
 10
19.07956339790288
 20
-35.8521584951623
 30
0.0
 10
19.08809777282557
 20
-35.81389764564553
 30
0.0
 10
19.10533009997787
 20
-35.75739920468897
 30
0.0
 10
19.1289208511494
 20
-35.69462061890932
 30
0.0
 10
19.16172711832421
 20
-35.62658892630981
 30
0.0
 10
19.20531004767338
 20
-35.55759169908509
 30
0.0
 10
19.25520097446765
 20
-35.49622773998953
 30
0.0
 10
19.30973810088209
 20
-35.44330586930673
 30
0.0
 10
19.36860213915122
 20
-35.39797787627369
 30
0.0
 10
19.43143168597856
 20
-35.35963497123996
 30
0.0
 10
19.49786570644651
 20
-35.32779229954092
 30
0.0
 10
19.55597053770251
 20
-35.30624577567544
 30
0.0
 10
19.60397696204075
 20
-35.29173179510023
 30
0.0
 10
19.65307876746084
 20
-35.27891929933492
 30
0.0
 10
19.71640137438865
 20
-35.265944934769
 30
0.0
 10
19.79557856245442
 20
-35.2546950307492
 30
0.0
 10
19.87793331895162
 20
-35.2471849251
 30
0.0
 10
19.9491658318277
 20
-35.24365913494856
 30
0.0
 10
20.00683471360339
 20
-35.24223032040418
 30
0.0
 10
20.03567657721366
 20
-35.24210051583665
 30
0.0
 10
20.04999584194752
 20
-35.24203607111173
 30
0.0
  0
SPLINE
  5
230
330
1F
100
AcDbEntity
  8
1
  6
SLD-Solid
370
    25
100
AcDbSpline
210
0.0
220
0.0
230
1.0
 70
     8
 71
     3
 72
    45
 73
    41
 74
     0
 42
0.000000001
 43
0.00000001
 40
0.0
 40
0.0
 40
0.0
 40
0.0
 40
0.000123705002142
 40
0.0002493058869022
 40
0.0004984727953684
 40
0.0007475092283819
 40
0.0009964173270289
 40
0.0019908041829532
 40
0.0039740302579707
 40
0.0049631657332457
 40
0.0054571694295471
 40
0.0057040370963335
 40
0.0058109939343559
 40
0.005950834663553
 40
0.0060765532538549
 40
0.0061975308081067
 40
0.0063230965302207
 40
0.0064441439818569
 40
0.0065695640435281
 40
0.0066906761612496
 40
0.0068159577740962
 40
0.0069371293215169
 40
0.0070622795086725
 40
0.0071835054267182
 40
0.0073085309732187
 40
0.0074298064394473
 40
0.0075547138011129
 40
0.0076760343055703
 40
0.0078008296298654
 40
0.0079221909689933
 40
0.0157704463736632
 40
0.0314678728364166
 40
0.0629058849720993
 40
0.1255162245899684
 40
0.2501970772369169
 40
0.3751412607257055
 40
0.500086556690718
 40
0.6250639700042135
 40
0.750043098418791
 40
1.0
 40
1.0
 40
1.0
 40
1.0
 10
20.04999584194752
 20
-35.24203607111173
 30
0.0
 10
20.05000911137971
 20
-35.24203612941704
 30
0.0
 10
20.05003585360925
 20
-35.24203624692126
 30
0.0
 10
20.05008932488552
 20
-35.24203602230762
 30
0.0
 10
20.05015624092265
 20
-35.24203624976207
 30
0.0
 10
20.05023638262906
 20
-35.2420364023864
 30
0.0
 10
20.05039645940181
 20
-35.24203696068456
 30
0.0
 10
20.05074253212823
 20
-35.2420389183798
 30
0.0
 10
20.05116783868215
 20
-35.24204386516929
 30
0.0
 10
20.05153925275762
 20
-35.2420500629926
 30
0.0
 10
20.05172447640052
 20
-35.2420539650607
 30
0.0
 10
20.05181530678645
 20
-35.24205561118256
 30
0.0
 10
20.05186806180825
 20
-35.24205722334975
 30
0.0
 10
20.05190800029024
 20
-35.24205777133694
 30
0.0
 10
20.05194936053858
 20
-35.24205878206106
 30
0.0
 10
20.05198919640063
 20
-35.24205973173866
 30
0.0
 10
20.05202853897466
 20
-35.24206063986536
 30
0.0
 10
20.05206833830671
 20
-35.24206164853361
 30
0.0
 10
20.05210767320628
 20
-35.24206258847764
 30
0.0
 10
20.05214744088479
 20
-35.24206363374007
 30
0.0
 10
20.0521867663364
 20
-35.24206461145464
 30
0.0
 10
20.05222650335058
 20
-35.24206569172966
 30
0.0
 10
20.05226581863405
 20
-35.24206670750447
 30
0.0
 10
20.05230552567002
 20
-35.24206782269686
 30
0.0
 10
20.05234483015785
 20
-35.24206887643458
 30
0.0
 10
20.05238450785762
 20
-35.24207002650821
 30
0.0
 10
20.05242380090635
 20
-35.24207111827315
 30
0.0
 10
20.05246345005861
 20
-35.24207230247173
 30
0.0
 10
20.05250273037586
 20
-35.24207343504241
 30
0.0
 10
20.05336759665729
 20
-35.24209979277966
 30
0.0
 10
20.05588779723055
 20
-35.24221301420729
 30
0.0
 10
20.06161763991054
 20
-35.24272753236117
 30
0.0
 10
20.07220207508573
 20
-35.24458333282067
 30
0.0
 10
20.08963382941422
 20
-35.25007281516803
 30
0.0
 10
20.10918780337381
 20
-35.25939575546349
 30
0.0
 10
20.13010256713347
 20
-35.27105919356847
 30
0.0
 10
20.14993805098435
 20
-35.28292714561589
 30
0.0
 10
20.16944984401731
 20
-35.29482263557643
 30
0.0
 10
20.19542950765008
 20
-35.31065563376215
 30
0.0
 10
20.2155131887876
 20
-35.32235424406417
 30
0.0
 10
20.22890228534773
 20
-35.33015330350355
 30
0.0
  0
SPLINE
  5
231
330
1F
100
AcDbEntity
  8
1
  6
SLD-Solid
370
    25
100
AcDbSpline
210
0.0
220
0.0
230
1.0
 70
     8
 71
     3
 72
    14
 73
    10
 74
     0
 42
0.000000001
 43
0.00000001
 40
0.0
 40
0.0
 40
0.0
 40
0.0
 40
0.25
 40
0.25
 40
0.5
 40
0.5
 40
0.75
 40
0.75
 40
1.0
 40
1.0
 40
1.0
 40
1.0
 10
3.200000000000033
 20
37.55766399817754
 30
0.0
 10
3.20000000000003
 20
37.67012918224766
 30
0.0
 10
3.215021356358628
 20
37.78022583506724
 30
0.0
 10
3.277170561977379
 20
37.99535666632222
 30
0.0
 10
3.324005286895485
 20
38.09816590731321
 30
0.0
 10
3.452289036616787
 20
38.28230235340511
 30
0.0
 10
3.533762741077246
 20
38.36291800445689
 30
0.0
 10
3.726977015320938
 20
38.47818354595604
 30
0.0
 10
3.838206150636728
 20
38.51107795167556
 30
0.0
 10
3.950000000001597
 20
38.51107795167527
 30
0.0
  0
SPLINE
  5
232
330
1F
100
AcDbEntity
  8
1
  6
SLD-Solid
370
    25
100
AcDbSpline
210
0.0
220
0.0
230
1.0
 70
     8
 71
     3
 72
    17
 73
    13
 74
     0
 42
0.000000001
 43
0.00000001
 40
0.0
 40
0.0
 40
0.0
 40
0.0
 40
0.0630163681694046
 40
0.1264519899970225
 40
0.1903126369388606
 40
0.2546039445535121
 40
0.3775853330238601
 40
0.5061488482118667
 40
0.7531392792713959
 40
0.8766496105726514
 40
0.9291561068275646
 40
1.0
 40
1.0
 40
1.0
 40
1.0
 10
3.950000000000023
 20
46.80622760792592
 30
0.0
 10
3.925242401009776
 20
46.80552726664008
 30
0.0
 10
3.87556248845991
 20
46.80412192463375
 30
0.0
 10
3.801536451757306
 20
46.79274067105432
 30
0.0
 10
3.728508102145214
 20
46.7745182665568
 30
0.0
 10
3.635766611647939
 20
46.74110940442314
 30
0.0
 10
3.526074773445978
 20
46.68237373723911
 30
0.0
 10
3.375030708850438
 20
46.55835269374784
 30
0.0
 10
3.264485389795971
 20
46.3922654500167
 30
0.0
 10
3.217471749571113
 20
46.23487661058868
 30
0.0
 10
3.202390461956445
 20
46.14059738750223
 30
0.0
 10
3.200872062911461
 20
46.09296748245761
 30
0.0
 10
3.200000000000008
 20
46.06561217437581
 30
0.0
  0
SPLINE
  5
233
330
1F
100
AcDbEntity
  8
1
  6
SLD-Solid
370
    25
100
AcDbSpline
210
0.0
220
0.0
230
1.0
 70
     8
 71
     3
 72
    12
 73
     8
 74
     0
 42
0.000000001
 43
0.00000001
 40
0.0
 40
0.0
 40
0.0
 40
0.0
 40
0.2500000000000032
 40
0.2500000000000032
 40
0.5000000000000063
 40
0.5000000000000063
 40
1.0
 40
1.0
 40
1.0
 40
1.0
 10
18.30000000000004
 20
38.51107795167515
 30
0.0
 10
18.41289482414818
 20
38.51107795167515
 30
0.0
 10
18.52359129640865
 20
38.47784171459016
 30
0.0
 10
18.71564346709775
 20
38.36327503607399
 30
0.0
 10
18.79756672136534
 20
38.28247143446089
 30
0.0
 10
18.99012152039931
 20
38.00619514557206
 30
0.0
 10
19.05000000000001
 20
37.78188509263181
 30
0.0
 10
19.05000000000001
 20
37.55766399817754
 30
0.0
  0
SPLINE
  5
234
330
1F
100
AcDbEntity
  8
1
  6
SLD-Solid
370
    25
100
AcDbSpline
210
0.0
220
0.0
230
1.0
 70
     8
 71
     3
 72
    16
 73
    12
 74
     0
 42
0.000000001
 43
0.00000001
 40
0.0
 40
0.0
 40
0.0
 40
0.0
 40
0.0704235324917237
 40
0.1230642824258228
 40
0.2465410154952414
 40
0.3699620981847407
 40
0.4947701282137383
 40
0.6231117705492392
 40
0.7458528211405459
 40
0.8737751255143994
 40
1.0
 40
1.0
 40
1.0
 40
1.0
 10
19.05000000000003
 20
46.11169090971543
 30
0.0
 10
19.04913774168576
 20
46.13908679102221
 30
0.0
 10
19.04763095557378
 20
46.1869607665976
 30
0.0
 10
19.03265477540782
 20
46.28181611695537
 30
0.0
 10
18.999307286224
 20
46.39428270771894
 30
0.0
 10
18.93134576905024
 20
46.52330985766294
 30
0.0
 10
18.83834936054402
 20
46.63848896043992
 30
0.0
 10
18.72426575179416
 20
46.73327046240359
 30
0.0
 10
18.59258107831699
 20
46.80400948842772
 30
0.0
 10
18.44996489220708
 20
46.84961269359086
 30
0.0
 10
18.34976522204944
 20
46.85537054556151
 30
0.0
 10
18.30000000000014
 20
46.85823024341678
 30
0.0
  0
SPLINE
  5
235
330
1F
100
AcDbEntity
  8
1
  6
SLD-Solid
370
    25
100
AcDbSpline
210
0.0
220
0.0
230
1.0
 70
     8
 71
     3
 72
    14
 73
    10
 74
     0
 42
0.000000001
 43
0.00000001
 40
0.0
 40
0.0
 40
0.0
 40
0.0
 40
0.25
 40
0.25
 40
0.5
 40
0.5
 40
0.75
 40
0.75
 40
1.0
 40
1.0
 40
1.0
 40
1.0
 10
9.185000000000013
 20
44.41455279522693
 30
0.0
 10
9.185000000000013
 20
44.31359684058481
 30
0.0
 10
9.203601876582242
 20
44.21433752079795
 30
0.0
 10
9.276534764576253
 20
44.02713873906653
 30
0.0
 10
9.330551489252576
 20
43.94089204401603
 30
0.0
 10
9.46755818463635
 20
43.79501127808647
 30
0.0
 10
9.550563536448758
 20
43.73552784744923
 30
0.0
 10
9.734604172775205
 20
43.65428111190433
 30
0.0
 10
9.83406043603223
 20
43.63301502303045
 30
0.0
 10
9.935000000000013
 20
43.63301502303045
 30
0.0
  0
SPLINE
  5
236
330
1F
100
AcDbEntity
  8
1
  6
SLD-Solid
370
    25
100
AcDbSpline
210
0.0
220
0.0
230
1.0
 70
     8
 71
     3
 72
    12
 73
     8
 74
     0
 42
0.000000001
 43
0.00000001
 40
0.0
 40
0.0
 40
0.0
 40
0.0
 40
0.2500000000000032
 40
0.2500000000000032
 40
0.5000000000000064
 40
0.5000000000000064
 40
1.0
 40
1.0
 40
1.0
 40
1.0
 10
9.934999999999995
 20
34.33988206153305
 30
0.0
 10
9.820340523350676
 20
34.33988206153307
 30
0.0
 10
9.705538166582313
 20
34.37709050155936
 30
0.0
 10
9.513695677358266
 20
34.49933758638673
 30
0.0
 10
9.433027612081837
 20
34.5841477544216
 30
0.0
 10
9.244146091268801
 20
34.86954808682447
 30
0.0
 10
9.184999999999993
 20
35.10067185598795
 30
0.0
 10
9.18499999999998
 20
35.32760959929216
 30
0.0
  0
SPLINE
  5
237
330
1F
100
AcDbEntity
  8
1
  6
SLD-Solid
370
    25
100
AcDbSpline
210
0.0
220
0.0
230
1.0
 70
     8
 71
     3
 72
     8
 73
     4
 74
     0
 42
0.000000001
 43
0.00000001
 40
0.0
 40
0.0
 40
0.0
 40
0.0
 40
1.0
 40
1.0
 40
1.0
 40
1.0
 10
9.184999999999985
 20
35.57844103980172
 30
0.0
 10
8.751438636104378
 20
36.55868472544873
 30
0.0
 10
8.311697968222468
 20
37.53620135240671
 30
0.0
 10
7.866838492538081
 20
38.51107795167526
 30
0.0
  0
SPLINE
  5
238
330
1F
100
AcDbEntity
  8
1
  6
SLD-Solid
370
    25
100
AcDbSpline
210
0.0
220
0.0
230
1.0
 70
     8
 71
     3
 72
    14
 73
    10
 74
     0
 42
0.000000001
 43
0.00000001
 40
0.0
 40
0.0
 40
0.0
 40
0.0
 40
0.25
 40
0.25
 40
0.5
 40
0.5
 40
0.75
 40
0.75
 40
1.0
 40
1.0
 40
1.0
 40
1.0
 10
13.01500000000001
 20
35.32760959929215
 30
0.0
 10
13.01500000000001
 20
35.21322856537279
 30
0.0
 10
13.00020717297601
 20
35.10084302755593
 30
0.0
 10
12.93903926534706
 20
34.88033227781025
 30
0.0
 10
12.89333758405231
 20
34.77519549750904
 30
0.0
 10
12.76709112923276
 20
34.58421796605325
 30
0.0
 10
12.6868579609392
 20
34.49954708636008
 30
0.0
 10
12.49267738404916
 20
34.37609760771406
 30
0.0
 10
12.37895818171271
 20
34.33988206153305
 30
0.0
 10
12.26500000000003
 20
34.33988206153305
 30
0.0
  0
SPLINE
  5
239
330
1F
100
AcDbEntity
  8
1
  6
SLD-Solid
370
    25
100
AcDbSpline
210
0.0
220
0.0
230
1.0
 70
     8
 71
     3
 72
     8
 73
     4
 74
     0
 42
0.000000001
 43
0.00000001
 40
0.0
 40
0.0
 40
0.0
 40
0.0
 40
1.0
 40
1.0
 40
1.0
 40
1.0
 10
14.33316150746194
 20
38.51107795167515
 30
0.0
 10
13.8882803360334
 20
37.53615380778989
 30
0.0
 10
13.44843124794118
 20
36.55839054484731
 30
0.0
 10
13.01500000000001
 20
35.57844103980166
 30
0.0
  0
SPLINE
  5
23A
330
1F
100
AcDbEntity
  8
1
  6
SLD-Solid
370
    25
100
AcDbSpline
210
0.0
220
0.0
230
1.0
 70
     8
 71
     3
 72
     8
 73
     4
 74
     0
 42
0.000000001
 43
0.00000001
 40
0.000000000000008
 40
0.000000000000008
 40
0.000000000000008
 40
0.000000000000008
 40
0.000879767198343
 40
0.000879767198343
 40
0.000879767198343
 40
0.000879767198343
 10
8.234341192004196
 20
46.3259174221083
 30
0.0
 10
8.112226806391758
 20
46.48612739423238
 30
0.0
 10
7.989720100472858
 20
46.64622958751816
 30
0.0
 10
7.866838492538081
 20
46.80622760792592
 30
0.0
  0
SPLINE
  5
23B
330
1F
100
AcDbEntity
  8
1
  6
SLD-Solid
370
    25
100
AcDbSpline
210
0.0
220
0.0
230
1.0
 70
     8
 71
     3
 72
     8
 73
     4
 74
     0
 42
0.000000001
 43
0.00000001
 40
0.0
 40
0.0
 40
0.0
 40
0.0
 40
1.0
 40
1.0
 40
1.0
 40
1.0
 10
8.234341191998917
 20
46.3259174221178
 30
0.0
 10
8.551560425575751
 20
45.75557320880691
 30
0.0
 10
8.86845935748731
 20
45.18504791213849
 30
0.0
 10
9.185000000000013
 20
44.6143246819073
 30
0.0
  0
SPLINE
  5
23C
330
1F
100
AcDbEntity
  8
1
  6
SLD-Solid
370
    25
100
AcDbSpline
210
0.0
220
0.0
230
1.0
 70
     8
 71
     3
 72
    12
 73
     8
 74
     0
 42
0.000000001
 43
0.00000001
 40
0.0
 40
0.0
 40
0.0
 40
0.0
 40
0.2500000000000008
 40
0.2500000000000008
 40
0.5000000000000016
 40
0.5000000000000016
 40
1.0
 40
1.0
 40
1.0
 40
1.0
 10
12.26500000000003
 20
43.63301502303045
 30
0.0
 10
12.36479485240281
 20
43.63301502303045
 30
0.0
 10
12.4667593077671
 20
43.65476370384825
 30
0.0
 10
12.64954501029553
 20
43.73569606259787
 30
0.0
 10
12.73294761845942
 20
43.79547861362951
 30
0.0
 10
12.93771265810281
 20
44.01372059499526
 30
0.0
 10
13.01500000000003
 20
44.21436013461167
 30
0.0
 10
13.01500000000003
 20
44.41455279522695
 30
0.0
  0
SPLINE
  5
23D
330
1F
100
AcDbEntity
  8
1
  6
SLD-Solid
370
    25
100
AcDbSpline
210
0.0
220
0.0
230
1.0
 70
     8
 71
     3
 72
     8
 73
     4
 74
     0
 42
0.000000001
 43
0.00000001
 40
0.0
 40
0.0
 40
0.0
 40
0.0
 40
1.0
 40
1.0
 40
1.0
 40
1.0
 10
13.01500000000003
 20
44.6143246819073
 30
0.0
 10
13.35391235301213
 20
45.22538413809416
 30
0.0
 10
13.69323527086252
 20
45.83621657161471
 30
0.0
 10
14.03292262199263
 20
46.44684304364807
 30
0.0
  0
SPLINE
  5
23E
330
1F
100
AcDbEntity
  8
1
  6
SLD-Solid
370
    25
100
AcDbSpline
210
0.0
220
0.0
230
1.0
 70
     8
 71
     3
 72
     8
 73
     4
 74
     0
 42
0.000000001
 43
0.00000001
 40
0.0
 40
0.0
 40
0.0
 40
0.0
 40
0.0006848358022666
 40
0.0006848358022666
 40
0.0006848358022666
 40
0.0006848358022666
 10
14.33316150746196
 20
46.85823024341678
 30
0.0
 10
14.23290901445187
 20
46.72115759420265
 30
0.0
 10
14.13282730426266
 20
46.58402908432189
 30
0.0
 10
14.03292262199263
 20
46.44684304364807
 30
0.0
  0
SPLINE
  5
23F
330
1F
100
AcDbEntity
  8
1
  6
SLD-Solid
370
    25
100
AcDbSpline
210
0.0
220
0.0
230
1.0
 70
     8
 71
     3
 72
    10
 73
     6
 74
     0
 42
0.000000001
 43
0.00000001
 40
0.0
 40
0.0
 40
0.0
 40
0.0
 40
0.4849928774650435
 40
0.9301847625922026
 40
1.0
 40
1.0
 40
1.0
 40
1.0
 10
20.22890228534773
 20
-35.33015330350355
 30
0.0
 10
20.06189660329528
 20
-35.33105139913145
 30
0.0
 10
19.74159057834192
 20
-35.33277388807353
 30
0.0
 10
19.40136001373477
 20
-35.35561992376933
 30
0.0
 10
19.24872776028004
 20
-35.42555746217932
 30
0.0
 10
19.22803667360427
 20
-35.43503831328632
 30
0.0
  0
SPLINE
  5
240
330
1F
100
AcDbEntity
  8
SK3
  6
SLD-Dashed
370
    18
100
AcDbSpline
210
0.0
220
0.0
230
1.0
 70
     8
 71
     3
 72
    26
 73
    22
 74
     0
 42
0.000000001
 43
0.00000001
 40
0.4999999999999964
 40
0.4999999999999964
 40
0.4999999999999964
 40
0.4999999999999964
 40
0.5624999999999969
 40
0.5624999999999969
 40
0.6249999999999974
 40
0.6249999999999974
 40
0.6562499999999978
 40
0.6562499999999978
 40
0.6874999999999981
 40
0.6874999999999981
 40
0.7187499999999984
 40
0.7187499999999984
 40
0.7499999999999988
 40
0.7499999999999988
 40
0.8124999999999991
 40
0.8124999999999991
 40
0.8749999999999993
 40
0.8749999999999993
 40
0.9374999999999997
 40
0.9374999999999997
 40
1.0
 40
1.0
 40
1.0
 40
1.0
 10
11.63869831779578
 20
-9.819390371339185
 30
0.0
 10
11.80317915771358
 20
-9.806594466981553
 30
0.0
 10
11.95081782962325
 20
-9.812432081454672
 30
0.0
 10
12.22616299685263
 20
-9.86883930159902
 30
0.0
 10
12.3523651546993
 20
-9.918953620877996
 30
0.0
 10
12.51874661426351
 20
-10.0483728906065
 30
0.0
 10
12.57051953396265
 20
-10.10115000339713
 30
0.0
 10
12.66070184098397
 20
-10.23071744026829
 30
0.0
 10
12.70001796005858
 20
-10.30921538460804
 30
0.0
 10
12.75624339139556
 20
-10.49493258066082
 30
0.0
 10
12.77323165300576
 20
-10.60488156995193
 30
0.0
 10
12.7764946288975
 20
-10.84110300053609
 30
0.0
 10
12.76278670669286
 20
-10.96977043023369
 30
0.0
 10
12.68516730486985
 20
-11.34647137591055
 30
0.0
 10
12.58996305158951
 20
-11.58088814423533
 30
0.0
 10
12.37315603453723
 20
-11.98947715399235
 30
0.0
 10
12.24747178673938
 20
-12.17132846963922
 30
0.0
 10
11.97676737519447
 20
-12.48981349043057
 30
0.0
 10
11.83102686354767
 20
-12.62828009284712
 30
0.0
 10
11.50508373269933
 20
-12.86276351579466
 30
0.0
 10
11.32747339457478
 20
-12.95749122616793
 30
0.0
 10
11.12500000000001
 20
-13.01159523973412
 30
0.0
  0
SPLINE
  5
241
330
1F
100
AcDbEntity
  8
SK3
  6
SLD-Dashed
370
    18
100
AcDbSpline
210
0.0
220
0.0
230
1.0
 70
     8
 71
     3
 72
    34
 73
    30
 74
     0
 42
0.000000001
 43
0.00000001
 40
0.0
 40
0.0
 40
0.0
 40
0.0
 40
0.0312499999999997
 40
0.0312499999999997
 40
0.0624999999999994
 40
0.0624999999999994
 40
0.0937499999999991
 40
0.0937499999999991
 40
0.1249999999999988
 40
0.1249999999999988
 40
0.1562499999999984
 40
0.1562499999999984
 40
0.1874999999999981
 40
0.1874999999999981
 40
0.2187499999999978
 40
0.2187499999999978
 40
0.2499999999999975
 40
0.2499999999999975
 40
0.2812499999999972
 40
0.2812499999999972
 40
0.3124999999999969
 40
0.3124999999999969
 40
0.374999999999996
 40
0.374999999999996
 40
0.4062499999999959
 40
0.4062499999999959
 40
0.4374999999999959
 40
0.4374999999999959
 40
0.4999999999999964
 40
0.4999999999999964
 40
0.4999999999999964
 40
0.4999999999999964
 10
11.12500000000001
 20
-13.01159523973412
 30
0.0
 10
11.02376330271261
 20
-13.03864724651721
 30
0.0
 10
10.91875434041334
 20
-13.0544176858549
 30
0.0
 10
10.69982193729477
 20
-13.05649587060895
 30
0.0
 10
10.58565504429783
 20
-13.04203538439416
 30
0.0
 10
10.36433306908847
 20
-12.9795877952765
 30
0.0
 10
10.25386240054303
 20
-12.93066318687901
 30
0.0
 10
10.04998753866611
 20
-12.80335962284319
 30
0.0
 10
9.955887873020943
 20
-12.72514830576772
 30
0.0
 10
9.789076352163542
 20
-12.54575166602615
 30
0.0
 10
9.718022202672053
 20
-12.44674722204867
 30
0.0
 10
9.60053600143318
 20
-12.23250861951099
 30
0.0
 10
9.555159683901207
 20
-12.11851015366419
 30
0.0
 10
9.49353895391432
 20
-11.88585378314767
 30
0.0
 10
9.476799814585949
 20
-11.76451266100639
 30
0.0
 10
9.4734808887547
 20
-11.52533259241784
 30
0.0
 10
9.486354225371835
 20
-11.40705029377197
 30
0.0
 10
9.541906609790498
 20
-11.17282024047874
 30
0.0
 10
9.583939125903843
 20
-11.06025657731943
 30
0.0
 10
9.694361385739633
 20
-10.84625731946295
 30
0.0
 10
9.764046986917407
 20
-10.74326010657124
 30
0.0
 10
10.00399120049185
 20
-10.4615657541396
 30
0.0
 10
10.21277179464272
 20
-10.30327029353929
 30
0.0
 10
10.54446991129018
 20
-10.12219171688672
 30
0.0
 10
10.65925898590067
 20
-10.07012567259626
 30
0.0
 10
10.87934718809663
 20
-9.984066675225806
 30
0.0
 10
10.9876441860786
 20
-9.948726825148073
 30
0.0
 10
11.29210738731391
 20
-9.863765363482615
 30
0.0
 10
11.47421747787798
 20
-9.832186275696813
 30
0.0
 10
11.63869831779578
 20
-9.819390371339185
 30
0.0
  0
SPLINE
  5
242
330
1F
100
AcDbEntity
  8
SK3
  6
SLD-Dashed
370
    18
100
AcDbSpline
210
0.0
220
0.0
230
1.0
 70
     8
 71
     3
 72
    30
 73
    26
 74
     0
 42
0.000000001
 43
0.00000001
 40
0.5000000000000012
 40
0.5000000000000012
 40
0.5000000000000012
 40
0.5000000000000012
 40
0.5625000000000016
 40
0.5625000000000016
 40
0.6250000000000019
 40
0.6250000000000019
 40
0.6875000000000022
 40
0.6875000000000022
 40
0.7500000000000026
 40
0.7500000000000026
 40
0.7812500000000023
 40
0.7812500000000023
 40
0.812500000000002
 40
0.812500000000002
 40
0.8437500000000017
 40
0.8437500000000017
 40
0.8750000000000013
 40
0.8750000000000013
 40
0.906250000000001
 40
0.906250000000001
 40
0.9375000000000007
 40
0.9375000000000007
 40
0.9687500000000003
 40
0.9687500000000003
 40
1.0
 40
1.0
 40
1.0
 40
1.0
 10
9.602846279599994
 20
-14.27915034605748
 30
0.0
 10
9.686456538694058
 20
-14.42125418637673
 30
0.0
 10
9.797407143448094
 20
-14.5113173376824
 30
0.0
 10
10.04010223607234
 20
-14.63242374926591
 30
0.0
 10
10.1757110634756
 20
-14.66434400040097
 30
0.0
 10
10.46843928875987
 20
-14.68785090664326
 30
0.0
 10
10.62555865364928
 20
-14.68003033605995
 30
0.0
 10
10.98145473780869
 20
-14.62436653420474
 30
0.0
 10
11.18157682258698
 20
-14.57632221838458
 30
0.0
 10
11.50801002825796
 20
-14.4586089343653
 30
0.0
 10
11.61873162334234
 20
-14.41242944660488
 30
0.0
 10
11.84220113938147
 20
-14.3006325621551
 30
0.0
 10
11.95412269444732
 20
-14.23490090158638
 30
0.0
 10
12.16107863552191
 20
-14.08747705033153
 30
0.0
 10
12.2590162518677
 20
-14.00366784802331
 30
0.0
 10
12.43052677631548
 20
-13.82249974419361
 30
0.0
 10
12.50593330594195
 20
-13.72350506925842
 30
0.0
 10
12.63000303324981
 20
-13.51367430078371
 30
0.0
 10
12.67841410243631
 20
-13.40398486856725
 30
0.0
 10
12.74789370637357
 20
-13.17359881812328
 30
0.0
 10
12.76810124630635
 20
-13.05468203931791
 30
0.0
 10
12.77891027826542
 20
-12.81644825424515
 30
0.0
 10
12.76940813581846
 20
-12.69449512908346
 30
0.0
 10
12.72129905847902
 20
-12.45817259633861
 30
0.0
 10
12.68301625646419
 20
-12.34304803310304
 30
0.0
 10
12.63040931107552
 20
-12.23233436389448
 30
0.0
  0
SPLINE
  5
243
330
1F
100
AcDbEntity
  8
SK3
  6
SLD-Dashed
370
    18
100
AcDbSpline
210
0.0
220
0.0
230
1.0
 70
     8
 71
     3
 72
    30
 73
    26
 74
     0
 42
0.000000001
 43
0.00000001
 40
0.0
 40
0.0
 40
0.0
 40
0.0
 40
0.0312499999999998
 40
0.0312499999999998
 40
0.0624999999999996
 40
0.0624999999999996
 40
0.0937499999999994
 40
0.0937499999999994
 40
0.1249999999999991
 40
0.1249999999999991
 40
0.1874999999999995
 40
0.1874999999999995
 40
0.2499999999999999
 40
0.2499999999999999
 40
0.3125000000000003
 40
0.3125000000000003
 40
0.3750000000000007
 40
0.3750000000000007
 40
0.4062500000000009
 40
0.4062500000000009
 40
0.437500000000001
 40
0.437500000000001
 40
0.4687500000000011
 40
0.4687500000000011
 40
0.5000000000000012
 40
0.5000000000000012
 40
0.5000000000000012
 40
0.5000000000000012
 10
12.63040931107552
 20
-12.23233436389448
 30
0.0
 10
12.57780236568684
 20
-12.1216206946859
 30
0.0
 10
12.51267206459283
 20
-12.01896209858488
 30
0.0
 10
12.35821503903316
 20
-11.83123217673016
 30
0.0
 10
12.26800655859486
 20
-11.74609765066661
 30
0.0
 10
12.07343499093588
 20
-11.606057943291
 30
0.0
 10
11.96643370486029
 20
-11.54920121804528
 30
0.0
 10
11.74573264298176
 20
-11.46981719393708
 30
0.0
 10
11.63406552497723
 20
-11.44748668283044
 30
0.0
 10
11.29951801742656
 20
-11.42770686560558
 30
0.0
 10
11.09198428069923
 20
-11.47806879673303
 30
0.0
 10
10.7221784409162
 20
-11.64236243808911
 30
0.0
 10
10.55844908096569
 20
-11.75496051093685
 30
0.0
 10
10.25324958882681
 20
-12.02428585488772
 30
0.0
 10
10.11576882260283
 20
-12.17795893248258
 30
0.0
 10
9.862525619365083
 20
-12.52988094776039
 30
0.0
 10
9.746260896401765
 20
-12.72918710194076
 30
0.0
 10
9.60569266085029
 20
-13.06645756895108
 30
0.0
 10
9.565421636405919
 20
-13.18319961587498
 30
0.0
 10
9.503286004234502
 20
-13.42936776111945
 30
0.0
 10
9.482363995141242
 20
-13.55752069830106
 30
0.0
 10
9.47090841224378
 20
-13.80546799718861
 30
0.0
 10
9.480664817462763
 20
-13.9208395761372
 30
0.0
 10
9.525951505689855
 20
-14.12239475073319
 30
0.0
 10
9.561041150052976
 20
-14.20809842589785
 30
0.0
 10
9.602846279599994
 20
-14.27915034605748
 30
0.0
  0
SPLINE
  5
244
330
1F
100
AcDbEntity
  8
SK3
  6
SLD-Dashed
370
    18
100
AcDbSpline
210
0.0
220
0.0
230
1.0
 70
     8
 71
     3
 72
    14
 73
    10
 74
     0
 42
0.000000001
 43
0.00000001
 40
0.0
 40
0.0
 40
0.0
 40
0.0
 40
0.25
 40
0.25
 40
0.5
 40
0.5
 40
0.75
 40
0.75
 40
1.0
 40
1.0
 40
1.0
 40
1.0
 10
12.69526659534847
 20
-3.110868378972599
 30
0.0
 10
12.71944404025778
 20
-3.196289745020044
 30
0.0
 10
12.73963202338059
 20
-3.285260657274018
 30
0.0
 10
12.76728062670336
 20
-3.461656394061256
 30
0.0
 10
12.77497731845671
 20
-3.551989892802816
 30
0.0
 10
12.77502257631238
 20
-3.720421165415134
 30
0.0
 10
12.76751112282808
 20
-3.800491274878026
 30
0.0
 10
12.73966613630666
 20
-3.944006657993083
 30
0.0
 10
12.71945289925409
 20
-4.007777189070416
 30
0.0
 10
12.69526659534847
 20
-4.06318613123325
 30
0.0
  0
SPLINE
  5
245
330
1F
100
AcDbEntity
  8
SK3
  6
SLD-Dashed
370
    18
100
AcDbSpline
210
0.0
220
0.0
230
1.0
 70
     8
 71
     3
 72
    50
 73
    46
 74
     0
 42
0.000000001
 43
0.00000001
 40
0.0
 40
0.0
 40
0.0
 40
0.0
 40
0.0625000000000003
 40
0.0625000000000003
 40
0.0937500000000002
 40
0.0937500000000002
 40
0.1250000000000002
 40
0.1250000000000002
 40
0.1562500000000002
 40
0.1562500000000002
 40
0.1875000000000002
 40
0.1875000000000002
 40
0.2187500000000001
 40
0.2187500000000001
 40
0.2500000000000001
 40
0.2500000000000001
 40
0.2812500000000001
 40
0.2812500000000001
 40
0.3125000000000001
 40
0.3125000000000001
 40
0.375
 40
0.375
 40
0.4374999999999999
 40
0.4374999999999999
 40
0.4999999999999999
 40
0.4999999999999999
 40
0.5624999999999998
 40
0.5624999999999998
 40
0.6249999999999998
 40
0.6249999999999998
 40
0.6562499999999998
 40
0.6562499999999998
 40
0.6874999999999998
 40
0.6874999999999998
 40
0.7499999999999999
 40
0.7499999999999999
 40
0.8124999999999999
 40
0.8124999999999999
 40
0.875
 40
0.875
 40
0.9375
 40
0.9375
 40
0.9687500000000001
 40
0.9687500000000001
 40
1.0
 40
1.0
 40
1.0
 40
1.0
 10
12.69526659534847
 20
-3.110868378972599
 30
0.0
 10
12.63573595558525
 20
-2.934465974605498
 30
0.0
 10
12.54239747177903
 20
-2.765005738623871
 30
0.0
 10
12.36299842255566
 20
-2.542667964608746
 30
0.0
 10
12.2955009751944
 20
-2.472418818965115
 30
0.0
 10
12.15044487974823
 20
-2.345680678697982
 30
0.0
 10
12.07289891162447
 20
-2.288900949476168
 30
0.0
 10
11.90779488593717
 20
-2.188640544066124
 30
0.0
 10
11.81937698423034
 20
-2.144932101408224
 30
0.0
 10
11.63853849730492
 20
-2.074495926644403
 30
0.0
 10
11.54566244593643
 20
-2.047321489182151
 30
0.0
 10
11.35496610264332
 20
-2.009238670040894
 30
0.0
 10
11.2564988121539
 20
-1.998466199607654
 30
0.0
 10
11.0621568067069
 20
-1.994445940030343
 30
0.0
 10
10.96542661501153
 20
-2.000920757092531
 30
0.0
 10
10.77285451624102
 20
-2.030949544115562
 30
0.0
 10
10.67695697258188
 20
-2.0547486635481
 30
0.0
 10
10.49365872761138
 20
-2.117625040533929
 30
0.0
 10
10.40524854321907
 20
-2.1568013282992
 30
0.0
 10
10.14985621068118
 20
-2.297668224350964
 30
0.0
 10
9.998490027361903
 20
-2.419526020780105
 30
0.0
 10
9.744414335416716
 20
-2.708907386967191
 30
0.0
 10
9.645643682070757
 20
-2.871431614612993
 30
0.0
 10
9.509478634107726
 20
-3.224063387294411
 30
0.0
 10
9.475057592940942
 20
-3.406168779558912
 30
0.0
 10
9.474942548550787
 20
-3.775346144561882
 30
0.0
 10
9.509479865155962
 20
-3.954267218783759
 30
0.0
 10
9.64503870947389
 20
-4.292200317810559
 30
0.0
 10
9.74442334322223
 20
-4.446233246099385
 30
0.0
 10
9.93423141381758
 20
-4.647024253004354
 30
0.0
 10
10.0033234741662
 20
-4.707947519245366
 30
0.0
 10
10.15300205320858
 20
-4.818251852546592
 30
0.0
 10
10.23448524665015
 20
-4.868012210889436
 30
0.0
 10
10.48904287177879
 20
-4.995107050536997
 30
0.0
 10
10.67527954065926
 20
-5.052359535603228
 30
0.0
 10
11.06127465395165
 20
-5.106222833175682
 30
0.0
 10
11.26024547732129
 20
-5.102280040274063
 30
0.0
 10
11.64041965452885
 20
-5.034508206984735
 30
0.0
 10
11.82550242742693
 20
-4.969808302780494
 30
0.0
 10
12.15532912644864
 20
-4.788261361964169
 30
0.0
 10
12.30319955750413
 20
-4.669826173193441
 30
0.0
 10
12.48268946348723
 20
-4.462596841531115
 30
0.0
 10
12.53657990203852
 20
-4.387284330139525
 30
0.0
 10
12.62772182870041
 20
-4.230402266589481
 30
0.0
 10
12.66542748410945
 20
-4.148549961003243
 30
0.0
 10
12.69526659534847
 20
-4.06318613123325
 30
0.0
  0
SPLINE
  5
246
330
1F
100
AcDbEntity
  8
SK3
  6
SLD-Dashed
370
    18
100
AcDbSpline
210
0.0
220
0.0
230
1.0
 70
     8
 71
     2
 72
     6
 73
     3
 74
     0
 42
0.000000001
 43
0.00000001
 40
0.0
 40
0.0
 40
0.0
 40
0.03125
 40
0.03125
 40
0.03125
 10
30.00000000000007
 20
24.99999999999999
 30
0.0
 10
30.0492152067227
 20
24.98511058580079
 30
0.0
 10
30.14537144083369
 20
24.95677385487365
 30
0.0
  0
SPLINE
  5
247
330
1F
100
AcDbEntity
  8
SK3
  6
SLD-Dashed
370
    18
100
AcDbSpline
210
0.0
220
0.0
230
1.0
 70
     8
 71
     3
 72
     8
 73
     4
 74
     0
 42
0.000000001
 43
0.00000001
 40
0.03125
 40
0.03125
 40
0.03125
 40
0.03125
 40
0.0468749999999999
 40
0.0468749999999999
 40
0.0468749999999999
 40
0.0468749999999999
 10
30.14537144083369
 20
24.95677385487365
 30
0.0
 10
30.1934495578892
 20
24.94260548941007
 30
0.0
 10
30.25335259001587
 20
24.92507067665397
 30
0.0
 10
30.3253275706739
 20
24.90433545526024
 30
0.0
  0
SPLINE
  5
248
330
1F
100
AcDbEntity
  8
SK3
  6
SLD-Dashed
370
    18
100
AcDbSpline
210
0.0
220
0.0
230
1.0
 70
     8
 71
     3
 72
     8
 73
     4
 74
     0
 42
0.000000001
 43
0.00000001
 40
0.0468749999999999
 40
0.0468749999999999
 40
0.0468749999999999
 40
0.0468749999999999
 40
0.0624999999999999
 40
0.0624999999999999
 40
0.0624999999999999
 40
0.0624999999999999
 10
30.3253275706739
 20
24.90433545526024
 30
0.0
 10
30.39730255133195
 20
24.88360023386651
 30
0.0
 10
30.48152503774294
 20
24.85962136355865
 30
0.0
 10
30.57591288346763
 20
24.83330389612565
 30
0.0
  0
SPLINE
  5
249
330
1F
100
AcDbEntity
  8
SK3
  6
SLD-Dashed
370
    18
100
AcDbSpline
210
0.0
220
0.0
230
1.0
 70
     8
 71
     3
 72
     8
 73
     4
 74
     0
 42
0.000000001
 43
0.00000001
 40
0.0624999999999999
 40
0.0624999999999999
 40
0.0624999999999999
 40
0.0624999999999999
 40
0.0937499999999998
 40
0.0937499999999998
 40
0.0937499999999998
 40
0.0937499999999998
 10
30.57591288346763
 20
24.83330389612565
 30
0.0
 10
30.76468857491706
 20
24.7806689612597
 30
0.0
 10
30.99530509180724
 20
24.7182468866108
 30
0.0
 10
31.26744770727381
 20
24.64943626295674
 30
0.0
  0
SPLINE
  5
24A
330
1F
100
AcDbEntity
  8
SK3
  6
SLD-Dashed
370
    18
100
AcDbSpline
210
0.0
220
0.0
230
1.0
 70
     8
 71
     3
 72
     8
 73
     4
 74
     0
 42
0.000000001
 43
0.00000001
 40
0.0937499999999998
 40
0.0937499999999998
 40
0.0937499999999998
 40
0.0937499999999998
 40
0.1093749999999997
 40
0.1093749999999997
 40
0.1093749999999997
 40
0.1093749999999997
 10
31.26744770727381
 20
24.64943626295674
 30
0.0
 10
31.40351901500708
 20
24.61503095112973
 30
0.0
 10
31.55092834718241
 20
24.57882340637057
 30
0.0
 10
31.70663473631373
 20
24.5420675795355
 30
0.0
  0
SPLINE
  5
24B
330
1F
100
AcDbEntity
  8
SK3
  6
SLD-Dashed
370
    18
100
AcDbSpline
210
0.0
220
0.0
230
1.0
 70
     8
 71
     3
 72
     8
 73
     4
 74
     0
 42
0.000000001
 43
0.00000001
 40
0.1093749999999997
 40
0.1093749999999997
 40
0.1093749999999997
 40
0.1093749999999997
 40
0.1249999999999995
 40
0.1249999999999995
 40
0.1249999999999995
 40
0.1249999999999995
 10
31.70663473631373
 20
24.5420675795355
 30
0.0
 10
31.8623411254451
 20
24.50531175270044
 30
0.0
 10
32.02623338442608
 20
24.46801905450339
 30
0.0
 10
32.19815341525555
 20
24.4307097156052
 30
0.0
  0
SPLINE
  5
24C
330
1F
100
AcDbEntity
  8
SK3
  6
SLD-Dashed
370
    18
100
AcDbSpline
210
0.0
220
0.0
230
1.0
 70
     8
 71
     3
 72
     8
 73
     4
 74
     0
 42
0.000000001
 43
0.00000001
 40
0.1249999999999995
 40
0.1249999999999995
 40
0.1249999999999995
 40
0.1249999999999995
 40
0.156249999999999
 40
0.156249999999999
 40
0.156249999999999
 40
0.156249999999999
 10
32.19815341525555
 20
24.4307097156052
 30
0.0
 10
32.54199347691454
 20
24.35609103780886
 30
0.0
 10
32.9176869370197
 20
24.28137163335748
 30
0.0
 10
33.32703096705485
 20
24.21081722185187
 30
0.0
  0
SPLINE
  5
24D
330
1F
100
AcDbEntity
  8
SK3
  6
SLD-Dashed
370
    18
100
AcDbSpline
210
0.0
220
0.0
230
1.0
 70
     8
 71
     3
 72
     8
 73
     4
 74
     0
 42
0.000000001
 43
0.00000001
 40
0.156249999999999
 40
0.156249999999999
 40
0.156249999999999
 40
0.156249999999999
 40
0.1874999999999984
 40
0.1874999999999984
 40
0.1874999999999984
 40
0.1874999999999984
 10
33.32703096705485
 20
24.21081722185187
 30
0.0
 10
33.73637499708997
 20
24.14026281034626
 30
0.0
 10
34.16805219215312
 20
24.0759592844406
 30
0.0
 10
34.61858653095652
 20
24.02191798295017
 30
0.0
  0
SPLINE
  5
24E
330
1F
100
AcDbEntity
  8
SK3
  6
SLD-Dashed
370
    18
100
AcDbSpline
210
0.0
220
0.0
230
1.0
 70
     8
 71
     3
 72
     8
 73
     4
 74
     0
 42
0.000000001
 43
0.00000001
 40
0.1874999999999984
 40
0.1874999999999984
 40
0.1874999999999984
 40
0.1874999999999984
 40
0.2031249999999983
 40
0.2031249999999983
 40
0.2031249999999983
 40
0.2031249999999983
 10
34.61858653095652
 20
24.02191798295017
 30
0.0
 10
34.84385370035821
 20
23.99489733220498
 30
0.0
 10
35.07412625330904
 20
23.97039608434917
 30
0.0
 10
35.30958062189608
 20
23.94886087169854
 30
0.0
  0
SPLINE
  5
24F
330
1F
100
AcDbEntity
  8
SK3
  6
SLD-Dashed
370
    18
100
AcDbSpline
210
0.0
220
0.0
230
1.0
 70
     8
 71
     3
 72
     8
 73
     4
 74
     0
 42
0.000000001
 43
0.00000001
 40
0.2031249999999983
 40
0.2031249999999983
 40
0.2031249999999983
 40
0.2031249999999983
 40
0.2187499999999983
 40
0.2187499999999983
 40
0.2187499999999983
 40
0.2187499999999983
 10
35.30958062189608
 20
23.94886087169854
 30
0.0
 10
35.54503499048313
 20
23.92732565904792
 30
0.0
 10
35.78706579632888
 20
23.90869366667457
 30
0.0
 10
36.02941517417612
 20
23.89377784549659
 30
0.0
  0
SPLINE
  5
250
330
1F
100
AcDbEntity
  8
SK3
  6
SLD-Dashed
370
    18
100
AcDbSpline
210
0.0
220
0.0
230
1.0
 70
     8
 71
     3
 72
     8
 73
     4
 74
     0
 42
0.000000001
 43
0.00000001
 40
0.2187499999999983
 40
0.2187499999999983
 40
0.2187499999999983
 40
0.2187499999999983
 40
0.2499999999999981
 40
0.2499999999999981
 40
0.2499999999999981
 40
0.2499999999999981
 10
36.02941517417612
 20
23.89377784549659
 30
0.0
 10
36.51411392987057
 20
23.86394620314062
 30
0.0
 10
37.00263917478482
 20
23.84858447490176
 30
0.0
 10
37.49496665190829
 20
23.84848056658102
 30
0.0
  0
SPLINE
  5
251
330
1F
100
AcDbEntity
  8
SK3
  6
SLD-Dashed
370
    18
100
AcDbSpline
210
0.0
220
0.0
230
1.0
 70
     8
 71
     3
 72
     8
 73
     4
 74
     0
 42
0.000000001
 43
0.00000001
 40
0.2499999999999981
 40
0.2499999999999981
 40
0.2499999999999981
 40
0.2499999999999981
 40
0.2812499999999978
 40
0.2812499999999978
 40
0.2812499999999978
 40
0.2812499999999978
 10
37.49496665190829
 20
23.84848056658102
 30
0.0
 10
37.98729412903172
 20
23.8483766582603
 30
0.0
 10
38.4875295304188
 20
23.86406565724566
 30
0.0
 10
38.96967512178485
 20
23.89372187340418
 30
0.0
  0
SPLINE
  5
252
330
1F
100
AcDbEntity
  8
SK3
  6
SLD-Dashed
370
    18
100
AcDbSpline
210
0.0
220
0.0
230
1.0
 70
     8
 71
     3
 72
     8
 73
     4
 74
     0
 42
0.000000001
 43
0.00000001
 40
0.2812499999999978
 40
0.2812499999999978
 40
0.2812499999999978
 40
0.2812499999999978
 40
0.3124999999999977
 40
0.3124999999999977
 40
0.3124999999999977
 40
0.3124999999999977
 10
38.96967512178485
 20
23.89372187340418
 30
0.0
 10
39.45182071315094
 20
23.92337808956269
 30
0.0
 10
39.92077730658135
 20
23.96675571302969
 30
0.0
 10
40.37658730757572
 20
24.02133956585489
 30
0.0
  0
SPLINE
  5
253
330
1F
100
AcDbEntity
  8
SK3
  6
SLD-Dashed
370
    18
100
AcDbSpline
210
0.0
220
0.0
230
1.0
 70
     8
 71
     3
 72
     8
 73
     4
 74
     0
 42
0.000000001
 43
0.00000001
 40
0.3124999999999977
 40
0.3124999999999977
 40
0.3124999999999977
 40
0.3124999999999977
 40
0.3281249999999978
 40
0.3281249999999978
 40
0.3281249999999978
 40
0.3281249999999978
 10
40.37658730757572
 20
24.02133956585489
 30
0.0
 10
40.60449230807291
 20
24.04863149226747
 30
0.0
 10
40.82823603533723
 20
24.07865460458902
 30
0.0
 10
41.04399836665353
 20
24.11036964508929
 30
0.0
  0
SPLINE
  5
254
330
1F
100
AcDbEntity
  8
SK3
  6
SLD-Dashed
370
    18
100
AcDbSpline
210
0.0
220
0.0
230
1.0
 70
     8
 71
     3
 72
     8
 73
     4
 74
     0
 42
0.000000001
 43
0.00000001
 40
0.3281249999999978
 40
0.3281249999999978
 40
0.3281249999999978
 40
0.3281249999999978
 40
0.343749999999998
 40
0.343749999999998
 40
0.343749999999998
 40
0.343749999999998
 10
41.04399836665353
 20
24.11036964508929
 30
0.0
 10
41.25976069796981
 20
24.14208468558953
 30
0.0
 10
41.4687218204461
 20
24.17562884415248
 30
0.0
 10
41.67105316824667
 20
24.21048707755257
 30
0.0
  0
SPLINE
  5
255
330
1F
100
AcDbEntity
  8
SK3
  6
SLD-Dashed
370
    18
100
AcDbSpline
210
0.0
220
0.0
230
1.0
 70
     8
 71
     3
 72
     8
 73
     4
 74
     0
 42
0.000000001
 43
0.00000001
 40
0.343749999999998
 40
0.343749999999998
 40
0.343749999999998
 40
0.343749999999998
 40
0.3593749999999981
 40
0.3593749999999981
 40
0.3593749999999981
 40
0.3593749999999981
 10
41.67105316824667
 20
24.21048707755257
 30
0.0
 10
41.8733845160472
 20
24.24534531095266
 30
0.0
 10
42.06908586370196
 20
24.2815192634726
 30
0.0
 10
42.25812538692646
 20
24.31850647547488
 30
0.0
  0
SPLINE
  5
256
330
1F
100
AcDbEntity
  8
SK3
  6
SLD-Dashed
370
    18
100
AcDbSpline
210
0.0
220
0.0
230
1.0
 70
     8
 71
     3
 72
     8
 73
     4
 74
     0
 42
0.000000001
 43
0.00000001
 40
0.3593749999999981
 40
0.3593749999999981
 40
0.3593749999999981
 40
0.3593749999999981
 40
0.3749999999999983
 40
0.3749999999999983
 40
0.3749999999999983
 40
0.3749999999999983
 10
42.25812538692646
 20
24.31850647547488
 30
0.0
 10
42.44716491015098
 20
24.35549368747717
 30
0.0
 10
42.63032697125098
 20
24.39347708768062
 30
0.0
 10
42.80336246389415
 20
24.43103872993207
 30
0.0
  0
SPLINE
  5
257
330
1F
100
AcDbEntity
  8
SK3
  6
SLD-Dashed
370
    18
100
AcDbSpline
210
0.0
220
0.0
230
1.0
 70
     8
 71
     3
 72
     8
 73
     4
 74
     0
 42
0.000000001
 43
0.00000001
 40
0.3749999999999983
 40
0.3749999999999983
 40
0.3749999999999983
 40
0.3749999999999983
 40
0.4062499999999982
 40
0.4062499999999982
 40
0.4062499999999982
 40
0.4062499999999982
 10
42.80336246389415
 20
24.43103872993207
 30
0.0
 10
43.14943344918047
 20
24.50616201443498
 30
0.0
 10
43.45788303216523
 20
24.58001871898306
 30
0.0
 10
43.72947343113391
 20
24.64865796000267
 30
0.0
  0
SPLINE
  5
258
330
1F
100
AcDbEntity
  8
SK3
  6
SLD-Dashed
370
    18
100
AcDbSpline
210
0.0
220
0.0
230
1.0
 70
     8
 71
     3
 72
     8
 73
     4
 74
     0
 42
0.000000001
 43
0.00000001
 40
0.4062499999999982
 40
0.4062499999999982
 40
0.4062499999999982
 40
0.4062499999999982
 40
0.4374999999999982
 40
0.4374999999999982
 40
0.4374999999999982
 40
0.4374999999999982
 10
43.72947343113391
 20
24.64865796000267
 30
0.0
 10
44.00106383010254
 20
24.71729720102226
 30
0.0
 10
44.23686012694731
 20
24.78109548018071
 30
0.0
 10
44.42484698720876
 20
24.83351577598818
 30
0.0
  0
SPLINE
  5
259
330
1F
100
AcDbEntity
  8
SK3
  6
SLD-Dashed
370
    18
100
AcDbSpline
210
0.0
220
0.0
230
1.0
 70
     8
 71
     3
 72
     8
 73
     4
 74
     0
 42
0.000000001
 43
0.00000001
 40
0.4374999999999982
 40
0.4374999999999982
 40
0.4374999999999982
 40
0.4374999999999982
 40
0.4687499999999982
 40
0.4687499999999982
 40
0.4687499999999982
 40
0.4687499999999982
 10
44.42484698720876
 20
24.83351577598818
 30
0.0
 10
44.61283384747023
 20
24.88593607179564
 30
0.0
 10
44.75602755824239
 20
24.92772158268083
 30
0.0
 10
44.85325571881508
 20
24.95636932060203
 30
0.0
  0
SPLINE
  5
25A
330
1F
100
AcDbEntity
  8
SK3
  6
SLD-Dashed
370
    18
100
AcDbSpline
210
0.0
220
0.0
230
1.0
 70
     8
 71
     3
 72
     8
 73
     4
 74
     0
 42
0.000000001
 43
0.00000001
 40
0.4687499999999982
 40
0.4687499999999982
 40
0.4687499999999982
 40
0.4687499999999982
 40
0.4843749999999981
 40
0.4843749999999981
 40
0.4843749999999981
 40
0.4843749999999981
 10
44.85325571881508
 20
24.95636932060203
 30
0.0
 10
44.90186979910145
 20
24.97069318956262
 30
0.0
 10
44.93890761311968
 20
24.98172938771064
 30
0.0
 10
44.96333059757145
 20
24.98902366257324
 30
0.0
  0
SPLINE
  5
25B
330
1F
100
AcDbEntity
  8
SK3
  6
SLD-Dashed
370
    18
100
AcDbSpline
210
0.0
220
0.0
230
1.0
 70
     8
 71
     3
 72
     8
 73
     4
 74
     0
 42
0.000000001
 43
0.00000001
 40
0.4843749999999981
 40
0.4843749999999981
 40
0.4843749999999981
 40
0.4843749999999981
 40
0.4999999999999981
 40
0.4999999999999981
 40
0.4999999999999981
 40
0.4999999999999981
 10
44.96333059757145
 20
24.98902366257324
 30
0.0
 10
44.98775358202319
 20
24.99631793743582
 30
0.0
 10
44.99989535419767
 20
24.99996860626185
 30
0.0
 10
44.99999932812494
 20
24.99999979843749
 30
0.0
  0
SPLINE
  5
25C
330
1F
100
AcDbEntity
  8
SK3
  6
SLD-Dashed
370
    18
100
AcDbSpline
210
0.0
220
0.0
230
1.0
 70
     8
 71
     3
 72
     8
 73
     4
 74
     0
 42
0.000000001
 43
0.00000001
 40
0.4999999999999981
 40
0.4999999999999981
 40
0.4999999999999981
 40
0.4999999999999981
 40
0.5312499999999981
 40
0.5312499999999981
 40
0.5312499999999981
 40
0.5312499999999981
 10
44.99999932812494
 20
24.99999979843749
 30
0.0
 10
45.00020727597955
 20
25.00006218278877
 30
0.0
 10
44.95214985937125
 20
24.98551410949064
 30
0.0
 10
44.85497837088263
 20
24.95687694476516
 30
0.0
  0
SPLINE
  5
25D
330
1F
100
AcDbEntity
  8
SK3
  6
SLD-Dashed
370
    18
100
AcDbSpline
210
0.0
220
0.0
230
1.0
 70
     8
 71
     3
 72
     8
 73
     4
 74
     0
 42
0.000000001
 43
0.00000001
 40
0.5312499999999981
 40
0.5312499999999981
 40
0.5312499999999981
 40
0.5312499999999981
 40
0.562499999999998
 40
0.562499999999998
 40
0.562499999999998
 40
0.562499999999998
 10
44.85497837088263
 20
24.95687694476516
 30
0.0
 10
44.75780688239399
 20
24.9282397800397
 30
0.0
 10
44.61442227267538
 20
24.88639175222283
 30
0.0
 10
44.42666631847826
 20
24.83402315951929
 30
0.0
  0
SPLINE
  5
25E
330
1F
100
AcDbEntity
  8
SK3
  6
SLD-Dashed
370
    18
100
AcDbSpline
210
0.0
220
0.0
230
1.0
 70
     8
 71
     3
 72
     8
 73
     4
 74
     0
 42
0.000000001
 43
0.00000001
 40
0.562499999999998
 40
0.562499999999998
 40
0.562499999999998
 40
0.562499999999998
 40
0.593749999999998
 40
0.593749999999998
 40
0.593749999999998
 40
0.593749999999998
 10
44.42666631847826
 20
24.83402315951929
 30
0.0
 10
44.23891036428114
 20
24.78165456681577
 30
0.0
 10
44.00357257863595
 20
24.71795530620913
 30
0.0
 10
43.73179529863565
 20
24.64924486965263
 30
0.0
  0
SPLINE
  5
25F
330
1F
100
AcDbEntity
  8
SK3
  6
SLD-Dashed
370
    18
100
AcDbSpline
210
0.0
220
0.0
230
1.0
 70
     8
 71
     3
 72
     8
 73
     4
 74
     0
 42
0.000000001
 43
0.00000001
 40
0.593749999999998
 40
0.593749999999998
 40
0.593749999999998
 40
0.593749999999998
 40
0.624999999999998
 40
0.624999999999998
 40
0.624999999999998
 40
0.624999999999998
 10
43.73179529863565
 20
24.64924486965263
 30
0.0
 10
43.46001801863535
 20
24.58053443309614
 30
0.0
 10
43.15147573849128
 20
24.50663544232432
 30
0.0
 10
42.80558643554054
 20
24.43152159455058
 30
0.0
  0
SPLINE
  5
260
330
1F
100
AcDbEntity
  8
SK3
  6
SLD-Dashed
370
    18
100
AcDbSpline
210
0.0
220
0.0
230
1.0
 70
     8
 71
     3
 72
     8
 73
     4
 74
     0
 42
0.000000001
 43
0.00000001
 40
0.624999999999998
 40
0.624999999999998
 40
0.624999999999998
 40
0.624999999999998
 40
0.6406249999999979
 40
0.6406249999999979
 40
0.6406249999999979
 40
0.6406249999999979
 10
42.80558643554054
 20
24.43152159455058
 30
0.0
 10
42.63264178406516
 20
24.3939646706637
 30
0.0
 10
42.44951612340335
 20
24.35597187742557
 30
0.0
 10
42.26053929187397
 20
24.31897889199864
 30
0.0
  0
SPLINE
  5
261
330
1F
100
AcDbEntity
  8
SK3
  6
SLD-Dashed
370
    18
100
AcDbSpline
210
0.0
220
0.0
230
1.0
 70
     8
 71
     3
 72
     8
 73
     4
 74
     0
 42
0.000000001
 43
0.00000001
 40
0.6406249999999979
 40
0.6406249999999979
 40
0.6406249999999979
 40
0.6406249999999979
 40
0.6562499999999979
 40
0.6562499999999979
 40
0.6562499999999979
 40
0.6562499999999979
 10
42.26053929187397
 20
24.31897889199864
 30
0.0
 10
42.07156246034456
 20
24.28198590657171
 30
0.0
 10
41.87602265431979
 20
24.24582362481194
 30
0.0
 10
41.67397217277173
 20
24.21099014288908
 30
0.0
  0
SPLINE
  5
262
330
1F
100
AcDbEntity
  8
SK3
  6
SLD-Dashed
370
    18
100
AcDbSpline
210
0.0
220
0.0
230
1.0
 70
     8
 71
     3
 72
     8
 73
     4
 74
     0
 42
0.000000001
 43
0.00000001
 40
0.6562499999999979
 40
0.6562499999999979
 40
0.6562499999999979
 40
0.6562499999999979
 40
0.6874999999999977
 40
0.6874999999999977
 40
0.6874999999999977
 40
0.6874999999999977
 10
41.67397217277173
 20
24.21099014288908
 30
0.0
 10
41.26987120967559
 20
24.14132317904338
 30
0.0
 10
40.8392301641363
 20
24.07684733551827
 30
0.0
 10
40.38218803761202
 20
24.02201090425516
 30
0.0
  0
SPLINE
  5
263
330
1F
100
AcDbEntity
  8
SK3
  6
SLD-Dashed
370
    18
100
AcDbSpline
210
0.0
220
0.0
230
1.0
 70
     8
 71
     3
 72
     8
 73
     4
 74
     0
 42
0.000000001
 43
0.00000001
 40
0.6874999999999977
 40
0.6874999999999977
 40
0.6874999999999977
 40
0.6874999999999977
 40
0.7187499999999973
 40
0.7187499999999973
 40
0.7187499999999973
 40
0.7187499999999973
 10
40.38218803761202
 20
24.02201090425516
 30
0.0
 10
39.92514591108774
 20
23.96717447299203
 30
0.0
 10
39.45622462147015
 20
23.92376839096475
 30
0.0
 10
38.97559822355635
 20
23.89408692788578
 30
0.0
  0
SPLINE
  5
264
330
1F
100
AcDbEntity
  8
SK3
  6
SLD-Dashed
370
    18
100
AcDbSpline
210
0.0
220
0.0
230
1.0
 70
     8
 71
     3
 72
     8
 73
     4
 74
     0
 42
0.000000001
 43
0.00000001
 40
0.7187499999999973
 40
0.7187499999999973
 40
0.7187499999999973
 40
0.7187499999999973
 40
0.7343749999999974
 40
0.7343749999999974
 40
0.7343749999999974
 40
0.7343749999999974
 10
38.97559822355635
 20
23.89408692788578
 30
0.0
 10
38.73528502459943
 20
23.8792461963463
 30
0.0
 10
38.49202554495072
 20
23.86783415003087
 30
0.0
 10
38.2457189722419
 20
23.86013614348337
 30
0.0
  0
SPLINE
  5
265
330
1F
100
AcDbEntity
  8
SK3
  6
SLD-Dashed
370
    18
100
AcDbSpline
210
0.0
220
0.0
230
1.0
 70
     8
 71
     3
 72
     8
 73
     4
 74
     0
 42
0.000000001
 43
0.00000001
 40
0.7343749999999974
 40
0.7343749999999974
 40
0.7343749999999974
 40
0.7343749999999974
 40
0.7499999999999976
 40
0.7499999999999976
 40
0.7499999999999976
 40
0.7499999999999976
 10
38.2457189722419
 20
23.86013614348337
 30
0.0
 10
37.99941239953307
 20
23.85243813693588
 30
0.0
 10
37.7493745062001
 20
23.84850263890458
 30
0.0
 10
37.50217109398569
 20
23.84848013424858
 30
0.0
  0
SPLINE
  5
266
330
1F
100
AcDbEntity
  8
SK3
  6
SLD-Dashed
370
    18
100
AcDbSpline
210
0.0
220
0.0
230
1.0
 70
     8
 71
     3
 72
     8
 73
     4
 74
     0
 42
0.000000001
 43
0.00000001
 40
0.7499999999999976
 40
0.7499999999999976
 40
0.7499999999999976
 40
0.7499999999999976
 40
0.7812499999999982
 40
0.7812499999999982
 40
0.7812499999999982
 40
0.7812499999999982
 10
37.50217109398569
 20
23.84848013424858
 30
0.0
 10
37.00776426955684
 20
23.84843512493658
 30
0.0
 10
36.51897280627676
 20
23.86377480941359
 30
0.0
 10
36.03570959105566
 20
23.8933912704272
 30
0.0
  0
SPLINE
  5
267
330
1F
100
AcDbEntity
  8
SK3
  6
SLD-Dashed
370
    18
100
AcDbSpline
210
0.0
220
0.0
230
1.0
 70
     8
 71
     3
 72
     8
 73
     4
 74
     0
 42
0.000000001
 43
0.00000001
 40
0.7812499999999982
 40
0.7812499999999982
 40
0.7812499999999982
 40
0.7812499999999982
 40
0.7968749999999982
 40
0.7968749999999982
 40
0.7968749999999982
 40
0.7968749999999982
 10
36.03570959105566
 20
23.8933912704272
 30
0.0
 10
35.7940779834451
 20
23.908199500934
 30
0.0
 10
35.55252988649512
 20
23.92670318560044
 30
0.0
 10
35.31592870867014
 20
23.94828109500997
 30
0.0
  0
SPLINE
  5
268
330
1F
100
AcDbEntity
  8
SK3
  6
SLD-Dashed
370
    18
100
AcDbSpline
210
0.0
220
0.0
230
1.0
 70
     8
 71
     3
 72
     8
 73
     4
 74
     0
 42
0.000000001
 43
0.00000001
 40
0.7968749999999982
 40
0.7968749999999982
 40
0.7968749999999982
 40
0.7968749999999982
 40
0.8124999999999983
 40
0.8124999999999983
 40
0.8124999999999983
 40
0.8124999999999983
 10
35.31592870867014
 20
23.94828109500997
 30
0.0
 10
35.07932753084513
 20
23.9698590044195
 30
0.0
 10
34.8481843624177
 20
23.99441240603674
 30
0.0
 10
34.62228206494826
 20
24.0214749862226
 30
0.0
  0
SPLINE
  5
269
330
1F
100
AcDbEntity
  8
SK3
  6
SLD-Dashed
370
    18
100
AcDbSpline
210
0.0
220
0.0
230
1.0
 70
     8
 71
     3
 72
     8
 73
     4
 74
     0
 42
0.000000001
 43
0.00000001
 40
0.8124999999999983
 40
0.8124999999999983
 40
0.8124999999999983
 40
0.8124999999999983
 40
0.8437499999999986
 40
0.8437499999999986
 40
0.8437499999999986
 40
0.8437499999999986
 10
34.62228206494826
 20
24.0214749862226
 30
0.0
 10
34.17047747000935
 20
24.07560014659434
 30
0.0
 10
33.73948608431466
 20
24.13976633219097
 30
0.0
 10
33.32944256328869
 20
24.21040167640571
 30
0.0
  0
SPLINE
  5
26A
330
1F
100
AcDbEntity
  8
SK3
  6
SLD-Dashed
370
    18
100
AcDbSpline
210
0.0
220
0.0
230
1.0
 70
     8
 71
     3
 72
     8
 73
     4
 74
     0
 42
0.000000001
 43
0.00000001
 40
0.8437499999999986
 40
0.8437499999999986
 40
0.8437499999999986
 40
0.8437499999999986
 40
0.8749999999999988
 40
0.8749999999999988
 40
0.8749999999999988
 40
0.8749999999999988
 10
33.32944256328869
 20
24.21040167640571
 30
0.0
 10
32.91939904226273
 20
24.28103702062046
 30
0.0
 10
32.54333463198374
 20
24.35581615016471
 30
0.0
 10
32.19935606457254
 20
24.43044875007793
 30
0.0
  0
SPLINE
  5
26B
330
1F
100
AcDbEntity
  8
SK3
  6
SLD-Dashed
370
    18
100
AcDbSpline
210
0.0
220
0.0
230
1.0
 70
     8
 71
     3
 72
     8
 73
     4
 74
     0
 42
0.000000001
 43
0.00000001
 40
0.8749999999999988
 40
0.8749999999999988
 40
0.8749999999999988
 40
0.8749999999999988
 40
0.8906249999999988
 40
0.8906249999999988
 40
0.8906249999999988
 40
0.8906249999999988
 10
32.19935606457254
 20
24.43044875007793
 30
0.0
 10
32.02736678086691
 20
24.46776505003454
 30
0.0
 10
31.86346058447896
 20
24.50505438688934
 30
0.0
 10
31.70778111447591
 20
24.54179699243359
 30
0.0
  0
SPLINE
  5
26C
330
1F
100
AcDbEntity
  8
SK3
  6
SLD-Dashed
370
    18
100
AcDbSpline
210
0.0
220
0.0
230
1.0
 70
     8
 71
     3
 72
     8
 73
     4
 74
     0
 42
0.000000001
 43
0.00000001
 40
0.8906249999999988
 40
0.8906249999999988
 40
0.8906249999999988
 40
0.8906249999999988
 40
0.9062499999999989
 40
0.9062499999999989
 40
0.9062499999999989
 40
0.9062499999999989
 10
31.70778111447591
 20
24.54179699243359
 30
0.0
 10
31.55210164447282
 20
24.57853959797784
 30
0.0
 10
31.40450985790645
 20
24.61478514129955
 30
0.0
 10
31.26835801992241
 20
24.6492061082678
 30
0.0
  0
SPLINE
  5
26D
330
1F
100
AcDbEntity
  8
SK3
  6
SLD-Dashed
370
    18
100
AcDbSpline
210
0.0
220
0.0
230
1.0
 70
     8
 71
     3
 72
     8
 73
     4
 74
     0
 42
0.000000001
 43
0.00000001
 40
0.9062499999999989
 40
0.9062499999999989
 40
0.9062499999999989
 40
0.9062499999999989
 40
0.9374999999999993
 40
0.9374999999999993
 40
0.9374999999999993
 40
0.9374999999999993
 10
31.26835801992241
 20
24.6492061082678
 30
0.0
 10
30.99605434395432
 20
24.71804804220428
 30
0.0
 10
30.7656593049536
 20
24.78040700528563
 30
0.0
 10
30.57715229431392
 20
24.83295834885813
 30
0.0
  0
SPLINE
  5
26E
330
1F
100
AcDbEntity
  8
SK3
  6
SLD-Dashed
370
    18
100
AcDbSpline
210
0.0
220
0.0
230
1.0
 70
     8
 71
     3
 72
     8
 73
     4
 74
     0
 42
0.000000001
 43
0.00000001
 40
0.9374999999999993
 40
0.9374999999999993
 40
0.9374999999999993
 40
0.9374999999999993
 40
0.9687499999999997
 40
0.9687499999999997
 40
0.9687499999999997
 40
0.9687499999999997
 10
30.57715229431392
 20
24.83295834885813
 30
0.0
 10
30.38864528367428
 20
24.88550969243065
 30
0.0
 10
30.24229621337372
 20
24.92821204262494
 30
0.0
 10
30.14576782067173
 20
24.95665704671738
 30
0.0
  0
SPLINE
  5
26F
330
1F
100
AcDbEntity
  8
SK3
  6
SLD-Dashed
370
    18
100
AcDbSpline
210
0.0
220
0.0
230
1.0
 70
     8
 71
     2
 72
     6
 73
     3
 74
     0
 42
0.000000001
 43
0.00000001
 40
0.9687499999999997
 40
0.9687499999999997
 40
0.9687499999999997
 40
1.0
 40
1.0
 40
1.0
 10
30.14576782067173
 20
24.95665704671738
 30
0.0
 10
30.04923942796976
 20
24.98510205080982
 30
0.0
 10
30.00000000000007
 20
24.99999999999999
 30
0.0
  0
SPLINE
  5
270
330
1F
100
AcDbEntity
  8
SK3
  6
SLD-Dashed
370
    18
100
AcDbSpline
210
0.0
220
0.0
230
1.0
 70
     8
 71
     2
 72
     6
 73
     3
 74
     0
 42
0.000000001
 43
0.00000001
 40
0.0
 40
0.0
 40
0.0
 40
0.03125
 40
0.03125
 40
0.03125
 10
30.00000000000007
 20
24.99999999999999
 30
0.0
 10
30.0492152067227
 20
24.98511058580079
 30
0.0
 10
30.14537144083369
 20
24.95677385487365
 30
0.0
  0
SPLINE
  5
271
330
1F
100
AcDbEntity
  8
SK3
  6
SLD-Dashed
370
    18
100
AcDbSpline
210
0.0
220
0.0
230
1.0
 70
     8
 71
     3
 72
     8
 73
     4
 74
     0
 42
0.000000001
 43
0.00000001
 40
0.03125
 40
0.03125
 40
0.03125
 40
0.03125
 40
0.0468749999999999
 40
0.0468749999999999
 40
0.0468749999999999
 40
0.0468749999999999
 10
30.14537144083369
 20
24.95677385487365
 30
0.0
 10
30.1934495578892
 20
24.94260548941007
 30
0.0
 10
30.25335259001587
 20
24.92507067665397
 30
0.0
 10
30.3253275706739
 20
24.90433545526024
 30
0.0
  0
SPLINE
  5
272
330
1F
100
AcDbEntity
  8
SK3
  6
SLD-Dashed
370
    18
100
AcDbSpline
210
0.0
220
0.0
230
1.0
 70
     8
 71
     3
 72
     8
 73
     4
 74
     0
 42
0.000000001
 43
0.00000001
 40
0.0468749999999999
 40
0.0468749999999999
 40
0.0468749999999999
 40
0.0468749999999999
 40
0.0624999999999999
 40
0.0624999999999999
 40
0.0624999999999999
 40
0.0624999999999999
 10
30.3253275706739
 20
24.90433545526024
 30
0.0
 10
30.39730255133195
 20
24.88360023386651
 30
0.0
 10
30.48152503774294
 20
24.85962136355865
 30
0.0
 10
30.57591288346763
 20
24.83330389612565
 30
0.0
  0
SPLINE
  5
273
330
1F
100
AcDbEntity
  8
SK3
  6
SLD-Dashed
370
    18
100
AcDbSpline
210
0.0
220
0.0
230
1.0
 70
     8
 71
     3
 72
     8
 73
     4
 74
     0
 42
0.000000001
 43
0.00000001
 40
0.0624999999999999
 40
0.0624999999999999
 40
0.0624999999999999
 40
0.0624999999999999
 40
0.0937499999999998
 40
0.0937499999999998
 40
0.0937499999999998
 40
0.0937499999999998
 10
30.57591288346763
 20
24.83330389612565
 30
0.0
 10
30.76468857491706
 20
24.7806689612597
 30
0.0
 10
30.99530509180724
 20
24.7182468866108
 30
0.0
 10
31.26744770727381
 20
24.64943626295674
 30
0.0
  0
SPLINE
  5
274
330
1F
100
AcDbEntity
  8
SK3
  6
SLD-Dashed
370
    18
100
AcDbSpline
210
0.0
220
0.0
230
1.0
 70
     8
 71
     3
 72
     8
 73
     4
 74
     0
 42
0.000000001
 43
0.00000001
 40
0.0937499999999998
 40
0.0937499999999998
 40
0.0937499999999998
 40
0.0937499999999998
 40
0.1093749999999997
 40
0.1093749999999997
 40
0.1093749999999997
 40
0.1093749999999997
 10
31.26744770727381
 20
24.64943626295674
 30
0.0
 10
31.40351901500708
 20
24.61503095112973
 30
0.0
 10
31.55092834718241
 20
24.57882340637057
 30
0.0
 10
31.70663473631373
 20
24.5420675795355
 30
0.0
  0
SPLINE
  5
275
330
1F
100
AcDbEntity
  8
SK3
  6
SLD-Dashed
370
    18
100
AcDbSpline
210
0.0
220
0.0
230
1.0
 70
     8
 71
     3
 72
     8
 73
     4
 74
     0
 42
0.000000001
 43
0.00000001
 40
0.1093749999999997
 40
0.1093749999999997
 40
0.1093749999999997
 40
0.1093749999999997
 40
0.1249999999999995
 40
0.1249999999999995
 40
0.1249999999999995
 40
0.1249999999999995
 10
31.70663473631373
 20
24.5420675795355
 30
0.0
 10
31.8623411254451
 20
24.50531175270044
 30
0.0
 10
32.02623338442608
 20
24.46801905450339
 30
0.0
 10
32.19815341525555
 20
24.4307097156052
 30
0.0
  0
SPLINE
  5
276
330
1F
100
AcDbEntity
  8
SK3
  6
SLD-Dashed
370
    18
100
AcDbSpline
210
0.0
220
0.0
230
1.0
 70
     8
 71
     3
 72
     8
 73
     4
 74
     0
 42
0.000000001
 43
0.00000001
 40
0.1249999999999995
 40
0.1249999999999995
 40
0.1249999999999995
 40
0.1249999999999995
 40
0.156249999999999
 40
0.156249999999999
 40
0.156249999999999
 40
0.156249999999999
 10
32.19815341525555
 20
24.4307097156052
 30
0.0
 10
32.54199347691454
 20
24.35609103780886
 30
0.0
 10
32.9176869370197
 20
24.28137163335748
 30
0.0
 10
33.32703096705485
 20
24.21081722185187
 30
0.0
  0
SPLINE
  5
277
330
1F
100
AcDbEntity
  8
SK3
  6
SLD-Dashed
370
    18
100
AcDbSpline
210
0.0
220
0.0
230
1.0
 70
     8
 71
     3
 72
     8
 73
     4
 74
     0
 42
0.000000001
 43
0.00000001
 40
0.156249999999999
 40
0.156249999999999
 40
0.156249999999999
 40
0.156249999999999
 40
0.1874999999999984
 40
0.1874999999999984
 40
0.1874999999999984
 40
0.1874999999999984
 10
33.32703096705485
 20
24.21081722185187
 30
0.0
 10
33.73637499708997
 20
24.14026281034626
 30
0.0
 10
34.16805219215312
 20
24.0759592844406
 30
0.0
 10
34.61858653095652
 20
24.02191798295017
 30
0.0
  0
SPLINE
  5
278
330
1F
100
AcDbEntity
  8
SK3
  6
SLD-Dashed
370
    18
100
AcDbSpline
210
0.0
220
0.0
230
1.0
 70
     8
 71
     3
 72
     8
 73
     4
 74
     0
 42
0.000000001
 43
0.00000001
 40
0.1874999999999984
 40
0.1874999999999984
 40
0.1874999999999984
 40
0.1874999999999984
 40
0.2031249999999983
 40
0.2031249999999983
 40
0.2031249999999983
 40
0.2031249999999983
 10
34.61858653095652
 20
24.02191798295017
 30
0.0
 10
34.84385370035821
 20
23.99489733220498
 30
0.0
 10
35.07412625330904
 20
23.97039608434917
 30
0.0
 10
35.30958062189608
 20
23.94886087169854
 30
0.0
  0
SPLINE
  5
279
330
1F
100
AcDbEntity
  8
SK3
  6
SLD-Dashed
370
    18
100
AcDbSpline
210
0.0
220
0.0
230
1.0
 70
     8
 71
     3
 72
     8
 73
     4
 74
     0
 42
0.000000001
 43
0.00000001
 40
0.2031249999999983
 40
0.2031249999999983
 40
0.2031249999999983
 40
0.2031249999999983
 40
0.2187499999999983
 40
0.2187499999999983
 40
0.2187499999999983
 40
0.2187499999999983
 10
35.30958062189608
 20
23.94886087169854
 30
0.0
 10
35.54503499048313
 20
23.92732565904792
 30
0.0
 10
35.78706579632888
 20
23.90869366667457
 30
0.0
 10
36.02941517417612
 20
23.89377784549659
 30
0.0
  0
SPLINE
  5
27A
330
1F
100
AcDbEntity
  8
SK3
  6
SLD-Dashed
370
    18
100
AcDbSpline
210
0.0
220
0.0
230
1.0
 70
     8
 71
     3
 72
     8
 73
     4
 74
     0
 42
0.000000001
 43
0.00000001
 40
0.2187499999999983
 40
0.2187499999999983
 40
0.2187499999999983
 40
0.2187499999999983
 40
0.2499999999999981
 40
0.2499999999999981
 40
0.2499999999999981
 40
0.2499999999999981
 10
36.02941517417612
 20
23.89377784549659
 30
0.0
 10
36.51411392987057
 20
23.86394620314062
 30
0.0
 10
37.00263917478482
 20
23.84858447490176
 30
0.0
 10
37.49496665190829
 20
23.84848056658102
 30
0.0
  0
SPLINE
  5
27B
330
1F
100
AcDbEntity
  8
SK3
  6
SLD-Dashed
370
    18
100
AcDbSpline
210
0.0
220
0.0
230
1.0
 70
     8
 71
     3
 72
     8
 73
     4
 74
     0
 42
0.000000001
 43
0.00000001
 40
0.2499999999999981
 40
0.2499999999999981
 40
0.2499999999999981
 40
0.2499999999999981
 40
0.2812499999999978
 40
0.2812499999999978
 40
0.2812499999999978
 40
0.2812499999999978
 10
37.49496665190829
 20
23.84848056658102
 30
0.0
 10
37.98729412903172
 20
23.8483766582603
 30
0.0
 10
38.4875295304188
 20
23.86406565724566
 30
0.0
 10
38.96967512178485
 20
23.89372187340418
 30
0.0
  0
SPLINE
  5
27C
330
1F
100
AcDbEntity
  8
SK3
  6
SLD-Dashed
370
    18
100
AcDbSpline
210
0.0
220
0.0
230
1.0
 70
     8
 71
     3
 72
     8
 73
     4
 74
     0
 42
0.000000001
 43
0.00000001
 40
0.2812499999999978
 40
0.2812499999999978
 40
0.2812499999999978
 40
0.2812499999999978
 40
0.3124999999999977
 40
0.3124999999999977
 40
0.3124999999999977
 40
0.3124999999999977
 10
38.96967512178485
 20
23.89372187340418
 30
0.0
 10
39.45182071315094
 20
23.92337808956269
 30
0.0
 10
39.92077730658135
 20
23.96675571302969
 30
0.0
 10
40.37658730757572
 20
24.02133956585489
 30
0.0
  0
SPLINE
  5
27D
330
1F
100
AcDbEntity
  8
SK3
  6
SLD-Dashed
370
    18
100
AcDbSpline
210
0.0
220
0.0
230
1.0
 70
     8
 71
     3
 72
     8
 73
     4
 74
     0
 42
0.000000001
 43
0.00000001
 40
0.3124999999999977
 40
0.3124999999999977
 40
0.3124999999999977
 40
0.3124999999999977
 40
0.3281249999999978
 40
0.3281249999999978
 40
0.3281249999999978
 40
0.3281249999999978
 10
40.37658730757572
 20
24.02133956585489
 30
0.0
 10
40.60449230807291
 20
24.04863149226747
 30
0.0
 10
40.82823603533723
 20
24.07865460458902
 30
0.0
 10
41.04399836665353
 20
24.11036964508929
 30
0.0
  0
SPLINE
  5
27E
330
1F
100
AcDbEntity
  8
SK3
  6
SLD-Dashed
370
    18
100
AcDbSpline
210
0.0
220
0.0
230
1.0
 70
     8
 71
     3
 72
     8
 73
     4
 74
     0
 42
0.000000001
 43
0.00000001
 40
0.3281249999999978
 40
0.3281249999999978
 40
0.3281249999999978
 40
0.3281249999999978
 40
0.343749999999998
 40
0.343749999999998
 40
0.343749999999998
 40
0.343749999999998
 10
41.04399836665353
 20
24.11036964508929
 30
0.0
 10
41.25976069796981
 20
24.14208468558953
 30
0.0
 10
41.4687218204461
 20
24.17562884415248
 30
0.0
 10
41.67105316824667
 20
24.21048707755257
 30
0.0
  0
SPLINE
  5
27F
330
1F
100
AcDbEntity
  8
SK3
  6
SLD-Dashed
370
    18
100
AcDbSpline
210
0.0
220
0.0
230
1.0
 70
     8
 71
     3
 72
     8
 73
     4
 74
     0
 42
0.000000001
 43
0.00000001
 40
0.343749999999998
 40
0.343749999999998
 40
0.343749999999998
 40
0.343749999999998
 40
0.3593749999999981
 40
0.3593749999999981
 40
0.3593749999999981
 40
0.3593749999999981
 10
41.67105316824667
 20
24.21048707755257
 30
0.0
 10
41.8733845160472
 20
24.24534531095266
 30
0.0
 10
42.06908586370196
 20
24.2815192634726
 30
0.0
 10
42.25812538692646
 20
24.31850647547488
 30
0.0
  0
SPLINE
  5
280
330
1F
100
AcDbEntity
  8
SK3
  6
SLD-Dashed
370
    18
100
AcDbSpline
210
0.0
220
0.0
230
1.0
 70
     8
 71
     3
 72
     8
 73
     4
 74
     0
 42
0.000000001
 43
0.00000001
 40
0.3593749999999981
 40
0.3593749999999981
 40
0.3593749999999981
 40
0.3593749999999981
 40
0.3749999999999983
 40
0.3749999999999983
 40
0.3749999999999983
 40
0.3749999999999983
 10
42.25812538692646
 20
24.31850647547488
 30
0.0
 10
42.44716491015098
 20
24.35549368747717
 30
0.0
 10
42.63032697125098
 20
24.39347708768062
 30
0.0
 10
42.80336246389415
 20
24.43103872993207
 30
0.0
  0
SPLINE
  5
281
330
1F
100
AcDbEntity
  8
SK3
  6
SLD-Dashed
370
    18
100
AcDbSpline
210
0.0
220
0.0
230
1.0
 70
     8
 71
     3
 72
     8
 73
     4
 74
     0
 42
0.000000001
 43
0.00000001
 40
0.3749999999999983
 40
0.3749999999999983
 40
0.3749999999999983
 40
0.3749999999999983
 40
0.4062499999999982
 40
0.4062499999999982
 40
0.4062499999999982
 40
0.4062499999999982
 10
42.80336246389415
 20
24.43103872993207
 30
0.0
 10
43.14943344918047
 20
24.50616201443498
 30
0.0
 10
43.45788303216523
 20
24.58001871898306
 30
0.0
 10
43.72947343113391
 20
24.64865796000267
 30
0.0
  0
SPLINE
  5
282
330
1F
100
AcDbEntity
  8
SK3
  6
SLD-Dashed
370
    18
100
AcDbSpline
210
0.0
220
0.0
230
1.0
 70
     8
 71
     3
 72
     8
 73
     4
 74
     0
 42
0.000000001
 43
0.00000001
 40
0.4062499999999982
 40
0.4062499999999982
 40
0.4062499999999982
 40
0.4062499999999982
 40
0.4374999999999982
 40
0.4374999999999982
 40
0.4374999999999982
 40
0.4374999999999982
 10
43.72947343113391
 20
24.64865796000267
 30
0.0
 10
44.00106383010254
 20
24.71729720102226
 30
0.0
 10
44.23686012694731
 20
24.78109548018071
 30
0.0
 10
44.42484698720876
 20
24.83351577598818
 30
0.0
  0
SPLINE
  5
283
330
1F
100
AcDbEntity
  8
SK3
  6
SLD-Dashed
370
    18
100
AcDbSpline
210
0.0
220
0.0
230
1.0
 70
     8
 71
     3
 72
     8
 73
     4
 74
     0
 42
0.000000001
 43
0.00000001
 40
0.4374999999999982
 40
0.4374999999999982
 40
0.4374999999999982
 40
0.4374999999999982
 40
0.4687499999999982
 40
0.4687499999999982
 40
0.4687499999999982
 40
0.4687499999999982
 10
44.42484698720876
 20
24.83351577598818
 30
0.0
 10
44.61283384747023
 20
24.88593607179564
 30
0.0
 10
44.75602755824239
 20
24.92772158268083
 30
0.0
 10
44.85325571881508
 20
24.95636932060203
 30
0.0
  0
SPLINE
  5
284
330
1F
100
AcDbEntity
  8
SK3
  6
SLD-Dashed
370
    18
100
AcDbSpline
210
0.0
220
0.0
230
1.0
 70
     8
 71
     3
 72
     8
 73
     4
 74
     0
 42
0.000000001
 43
0.00000001
 40
0.4687499999999982
 40
0.4687499999999982
 40
0.4687499999999982
 40
0.4687499999999982
 40
0.4843749999999981
 40
0.4843749999999981
 40
0.4843749999999981
 40
0.4843749999999981
 10
44.85325571881508
 20
24.95636932060203
 30
0.0
 10
44.90186979910145
 20
24.97069318956262
 30
0.0
 10
44.93890761311968
 20
24.98172938771064
 30
0.0
 10
44.96333059757145
 20
24.98902366257324
 30
0.0
  0
SPLINE
  5
285
330
1F
100
AcDbEntity
  8
SK3
  6
SLD-Dashed
370
    18
100
AcDbSpline
210
0.0
220
0.0
230
1.0
 70
     8
 71
     3
 72
     8
 73
     4
 74
     0
 42
0.000000001
 43
0.00000001
 40
0.4843749999999981
 40
0.4843749999999981
 40
0.4843749999999981
 40
0.4843749999999981
 40
0.4999999999999981
 40
0.4999999999999981
 40
0.4999999999999981
 40
0.4999999999999981
 10
44.96333059757145
 20
24.98902366257324
 30
0.0
 10
44.98775358202319
 20
24.99631793743582
 30
0.0
 10
44.99989535419767
 20
24.99996860626185
 30
0.0
 10
44.99999932812494
 20
24.99999979843749
 30
0.0
  0
SPLINE
  5
286
330
1F
100
AcDbEntity
  8
SK3
  6
SLD-Dashed
370
    18
100
AcDbSpline
210
0.0
220
0.0
230
1.0
 70
     8
 71
     3
 72
     8
 73
     4
 74
     0
 42
0.000000001
 43
0.00000001
 40
0.4999999999999981
 40
0.4999999999999981
 40
0.4999999999999981
 40
0.4999999999999981
 40
0.5312499999999981
 40
0.5312499999999981
 40
0.5312499999999981
 40
0.5312499999999981
 10
44.99999932812494
 20
24.99999979843749
 30
0.0
 10
45.00020727597955
 20
25.00006218278877
 30
0.0
 10
44.95214985937125
 20
24.98551410949064
 30
0.0
 10
44.85497837088263
 20
24.95687694476516
 30
0.0
  0
SPLINE
  5
287
330
1F
100
AcDbEntity
  8
SK3
  6
SLD-Dashed
370
    18
100
AcDbSpline
210
0.0
220
0.0
230
1.0
 70
     8
 71
     3
 72
     8
 73
     4
 74
     0
 42
0.000000001
 43
0.00000001
 40
0.5312499999999981
 40
0.5312499999999981
 40
0.5312499999999981
 40
0.5312499999999981
 40
0.562499999999998
 40
0.562499999999998
 40
0.562499999999998
 40
0.562499999999998
 10
44.85497837088263
 20
24.95687694476516
 30
0.0
 10
44.75780688239399
 20
24.9282397800397
 30
0.0
 10
44.61442227267538
 20
24.88639175222283
 30
0.0
 10
44.42666631847826
 20
24.83402315951929
 30
0.0
  0
SPLINE
  5
288
330
1F
100
AcDbEntity
  8
SK3
  6
SLD-Dashed
370
    18
100
AcDbSpline
210
0.0
220
0.0
230
1.0
 70
     8
 71
     3
 72
     8
 73
     4
 74
     0
 42
0.000000001
 43
0.00000001
 40
0.562499999999998
 40
0.562499999999998
 40
0.562499999999998
 40
0.562499999999998
 40
0.593749999999998
 40
0.593749999999998
 40
0.593749999999998
 40
0.593749999999998
 10
44.42666631847826
 20
24.83402315951929
 30
0.0
 10
44.23891036428114
 20
24.78165456681577
 30
0.0
 10
44.00357257863595
 20
24.71795530620913
 30
0.0
 10
43.73179529863565
 20
24.64924486965263
 30
0.0
  0
SPLINE
  5
289
330
1F
100
AcDbEntity
  8
SK3
  6
SLD-Dashed
370
    18
100
AcDbSpline
210
0.0
220
0.0
230
1.0
 70
     8
 71
     3
 72
     8
 73
     4
 74
     0
 42
0.000000001
 43
0.00000001
 40
0.593749999999998
 40
0.593749999999998
 40
0.593749999999998
 40
0.593749999999998
 40
0.624999999999998
 40
0.624999999999998
 40
0.624999999999998
 40
0.624999999999998
 10
43.73179529863565
 20
24.64924486965263
 30
0.0
 10
43.46001801863535
 20
24.58053443309614
 30
0.0
 10
43.15147573849128
 20
24.50663544232432
 30
0.0
 10
42.80558643554054
 20
24.43152159455058
 30
0.0
  0
SPLINE
  5
28A
330
1F
100
AcDbEntity
  8
SK3
  6
SLD-Dashed
370
    18
100
AcDbSpline
210
0.0
220
0.0
230
1.0
 70
     8
 71
     3
 72
     8
 73
     4
 74
     0
 42
0.000000001
 43
0.00000001
 40
0.624999999999998
 40
0.624999999999998
 40
0.624999999999998
 40
0.624999999999998
 40
0.6406249999999979
 40
0.6406249999999979
 40
0.6406249999999979
 40
0.6406249999999979
 10
42.80558643554054
 20
24.43152159455058
 30
0.0
 10
42.63264178406516
 20
24.3939646706637
 30
0.0
 10
42.44951612340335
 20
24.35597187742557
 30
0.0
 10
42.26053929187397
 20
24.31897889199864
 30
0.0
  0
SPLINE
  5
28B
330
1F
100
AcDbEntity
  8
SK3
  6
SLD-Dashed
370
    18
100
AcDbSpline
210
0.0
220
0.0
230
1.0
 70
     8
 71
     3
 72
     8
 73
     4
 74
     0
 42
0.000000001
 43
0.00000001
 40
0.6406249999999979
 40
0.6406249999999979
 40
0.6406249999999979
 40
0.6406249999999979
 40
0.6562499999999979
 40
0.6562499999999979
 40
0.6562499999999979
 40
0.6562499999999979
 10
42.26053929187397
 20
24.31897889199864
 30
0.0
 10
42.07156246034456
 20
24.28198590657171
 30
0.0
 10
41.87602265431979
 20
24.24582362481194
 30
0.0
 10
41.67397217277173
 20
24.21099014288908
 30
0.0
  0
SPLINE
  5
28C
330
1F
100
AcDbEntity
  8
SK3
  6
SLD-Dashed
370
    18
100
AcDbSpline
210
0.0
220
0.0
230
1.0
 70
     8
 71
     3
 72
     8
 73
     4
 74
     0
 42
0.000000001
 43
0.00000001
 40
0.6562499999999979
 40
0.6562499999999979
 40
0.6562499999999979
 40
0.6562499999999979
 40
0.6874999999999977
 40
0.6874999999999977
 40
0.6874999999999977
 40
0.6874999999999977
 10
41.67397217277173
 20
24.21099014288908
 30
0.0
 10
41.26987120967559
 20
24.14132317904338
 30
0.0
 10
40.8392301641363
 20
24.07684733551827
 30
0.0
 10
40.38218803761202
 20
24.02201090425516
 30
0.0
  0
SPLINE
  5
28D
330
1F
100
AcDbEntity
  8
SK3
  6
SLD-Dashed
370
    18
100
AcDbSpline
210
0.0
220
0.0
230
1.0
 70
     8
 71
     3
 72
     8
 73
     4
 74
     0
 42
0.000000001
 43
0.00000001
 40
0.6874999999999977
 40
0.6874999999999977
 40
0.6874999999999977
 40
0.6874999999999977
 40
0.7187499999999973
 40
0.7187499999999973
 40
0.7187499999999973
 40
0.7187499999999973
 10
40.38218803761202
 20
24.02201090425516
 30
0.0
 10
39.92514591108774
 20
23.96717447299203
 30
0.0
 10
39.45622462147015
 20
23.92376839096475
 30
0.0
 10
38.97559822355635
 20
23.89408692788578
 30
0.0
  0
SPLINE
  5
28E
330
1F
100
AcDbEntity
  8
SK3
  6
SLD-Dashed
370
    18
100
AcDbSpline
210
0.0
220
0.0
230
1.0
 70
     8
 71
     3
 72
     8
 73
     4
 74
     0
 42
0.000000001
 43
0.00000001
 40
0.7187499999999973
 40
0.7187499999999973
 40
0.7187499999999973
 40
0.7187499999999973
 40
0.7343749999999974
 40
0.7343749999999974
 40
0.7343749999999974
 40
0.7343749999999974
 10
38.97559822355635
 20
23.89408692788578
 30
0.0
 10
38.73528502459943
 20
23.8792461963463
 30
0.0
 10
38.49202554495072
 20
23.86783415003087
 30
0.0
 10
38.2457189722419
 20
23.86013614348337
 30
0.0
  0
SPLINE
  5
28F
330
1F
100
AcDbEntity
  8
SK3
  6
SLD-Dashed
370
    18
100
AcDbSpline
210
0.0
220
0.0
230
1.0
 70
     8
 71
     3
 72
     8
 73
     4
 74
     0
 42
0.000000001
 43
0.00000001
 40
0.7343749999999974
 40
0.7343749999999974
 40
0.7343749999999974
 40
0.7343749999999974
 40
0.7499999999999976
 40
0.7499999999999976
 40
0.7499999999999976
 40
0.7499999999999976
 10
38.2457189722419
 20
23.86013614348337
 30
0.0
 10
37.99941239953307
 20
23.85243813693588
 30
0.0
 10
37.7493745062001
 20
23.84850263890458
 30
0.0
 10
37.50217109398569
 20
23.84848013424858
 30
0.0
  0
SPLINE
  5
290
330
1F
100
AcDbEntity
  8
SK3
  6
SLD-Dashed
370
    18
100
AcDbSpline
210
0.0
220
0.0
230
1.0
 70
     8
 71
     3
 72
     8
 73
     4
 74
     0
 42
0.000000001
 43
0.00000001
 40
0.7499999999999976
 40
0.7499999999999976
 40
0.7499999999999976
 40
0.7499999999999976
 40
0.7812499999999982
 40
0.7812499999999982
 40
0.7812499999999982
 40
0.7812499999999982
 10
37.50217109398569
 20
23.84848013424858
 30
0.0
 10
37.00776426955684
 20
23.84843512493658
 30
0.0
 10
36.51897280627676
 20
23.86377480941359
 30
0.0
 10
36.03570959105566
 20
23.8933912704272
 30
0.0
  0
SPLINE
  5
291
330
1F
100
AcDbEntity
  8
SK3
  6
SLD-Dashed
370
    18
100
AcDbSpline
210
0.0
220
0.0
230
1.0
 70
     8
 71
     3
 72
     8
 73
     4
 74
     0
 42
0.000000001
 43
0.00000001
 40
0.7812499999999982
 40
0.7812499999999982
 40
0.7812499999999982
 40
0.7812499999999982
 40
0.7968749999999982
 40
0.7968749999999982
 40
0.7968749999999982
 40
0.7968749999999982
 10
36.03570959105566
 20
23.8933912704272
 30
0.0
 10
35.7940779834451
 20
23.908199500934
 30
0.0
 10
35.55252988649512
 20
23.92670318560044
 30
0.0
 10
35.31592870867014
 20
23.94828109500997
 30
0.0
  0
SPLINE
  5
292
330
1F
100
AcDbEntity
  8
SK3
  6
SLD-Dashed
370
    18
100
AcDbSpline
210
0.0
220
0.0
230
1.0
 70
     8
 71
     3
 72
     8
 73
     4
 74
     0
 42
0.000000001
 43
0.00000001
 40
0.7968749999999982
 40
0.7968749999999982
 40
0.7968749999999982
 40
0.7968749999999982
 40
0.8124999999999983
 40
0.8124999999999983
 40
0.8124999999999983
 40
0.8124999999999983
 10
35.31592870867014
 20
23.94828109500997
 30
0.0
 10
35.07932753084513
 20
23.9698590044195
 30
0.0
 10
34.8481843624177
 20
23.99441240603674
 30
0.0
 10
34.62228206494826
 20
24.0214749862226
 30
0.0
  0
SPLINE
  5
293
330
1F
100
AcDbEntity
  8
SK3
  6
SLD-Dashed
370
    18
100
AcDbSpline
210
0.0
220
0.0
230
1.0
 70
     8
 71
     3
 72
     8
 73
     4
 74
     0
 42
0.000000001
 43
0.00000001
 40
0.8124999999999983
 40
0.8124999999999983
 40
0.8124999999999983
 40
0.8124999999999983
 40
0.8437499999999986
 40
0.8437499999999986
 40
0.8437499999999986
 40
0.8437499999999986
 10
34.62228206494826
 20
24.0214749862226
 30
0.0
 10
34.17047747000935
 20
24.07560014659434
 30
0.0
 10
33.73948608431466
 20
24.13976633219097
 30
0.0
 10
33.32944256328869
 20
24.21040167640571
 30
0.0
  0
SPLINE
  5
294
330
1F
100
AcDbEntity
  8
SK3
  6
SLD-Dashed
370
    18
100
AcDbSpline
210
0.0
220
0.0
230
1.0
 70
     8
 71
     3
 72
     8
 73
     4
 74
     0
 42
0.000000001
 43
0.00000001
 40
0.8437499999999986
 40
0.8437499999999986
 40
0.8437499999999986
 40
0.8437499999999986
 40
0.8749999999999988
 40
0.8749999999999988
 40
0.8749999999999988
 40
0.8749999999999988
 10
33.32944256328869
 20
24.21040167640571
 30
0.0
 10
32.91939904226273
 20
24.28103702062046
 30
0.0
 10
32.54333463198374
 20
24.35581615016471
 30
0.0
 10
32.19935606457254
 20
24.43044875007793
 30
0.0
  0
SPLINE
  5
295
330
1F
100
AcDbEntity
  8
SK3
  6
SLD-Dashed
370
    18
100
AcDbSpline
210
0.0
220
0.0
230
1.0
 70
     8
 71
     3
 72
     8
 73
     4
 74
     0
 42
0.000000001
 43
0.00000001
 40
0.8749999999999988
 40
0.8749999999999988
 40
0.8749999999999988
 40
0.8749999999999988
 40
0.8906249999999988
 40
0.8906249999999988
 40
0.8906249999999988
 40
0.8906249999999988
 10
32.19935606457254
 20
24.43044875007793
 30
0.0
 10
32.02736678086691
 20
24.46776505003454
 30
0.0
 10
31.86346058447896
 20
24.50505438688934
 30
0.0
 10
31.70778111447591
 20
24.54179699243359
 30
0.0
  0
SPLINE
  5
296
330
1F
100
AcDbEntity
  8
SK3
  6
SLD-Dashed
370
    18
100
AcDbSpline
210
0.0
220
0.0
230
1.0
 70
     8
 71
     3
 72
     8
 73
     4
 74
     0
 42
0.000000001
 43
0.00000001
 40
0.8906249999999988
 40
0.8906249999999988
 40
0.8906249999999988
 40
0.8906249999999988
 40
0.9062499999999989
 40
0.9062499999999989
 40
0.9062499999999989
 40
0.9062499999999989
 10
31.70778111447591
 20
24.54179699243359
 30
0.0
 10
31.55210164447282
 20
24.57853959797784
 30
0.0
 10
31.40450985790645
 20
24.61478514129955
 30
0.0
 10
31.26835801992241
 20
24.6492061082678
 30
0.0
  0
SPLINE
  5
297
330
1F
100
AcDbEntity
  8
SK3
  6
SLD-Dashed
370
    18
100
AcDbSpline
210
0.0
220
0.0
230
1.0
 70
     8
 71
     3
 72
     8
 73
     4
 74
     0
 42
0.000000001
 43
0.00000001
 40
0.9062499999999989
 40
0.9062499999999989
 40
0.9062499999999989
 40
0.9062499999999989
 40
0.9374999999999993
 40
0.9374999999999993
 40
0.9374999999999993
 40
0.9374999999999993
 10
31.26835801992241
 20
24.6492061082678
 30
0.0
 10
30.99605434395432
 20
24.71804804220428
 30
0.0
 10
30.7656593049536
 20
24.78040700528563
 30
0.0
 10
30.57715229431392
 20
24.83295834885813
 30
0.0
  0
SPLINE
  5
298
330
1F
100
AcDbEntity
  8
SK3
  6
SLD-Dashed
370
    18
100
AcDbSpline
210
0.0
220
0.0
230
1.0
 70
     8
 71
     3
 72
     8
 73
     4
 74
     0
 42
0.000000001
 43
0.00000001
 40
0.9374999999999993
 40
0.9374999999999993
 40
0.9374999999999993
 40
0.9374999999999993
 40
0.9687499999999997
 40
0.9687499999999997
 40
0.9687499999999997
 40
0.9687499999999997
 10
30.57715229431392
 20
24.83295834885813
 30
0.0
 10
30.38864528367428
 20
24.88550969243065
 30
0.0
 10
30.24229621337372
 20
24.92821204262494
 30
0.0
 10
30.14576782067173
 20
24.95665704671738
 30
0.0
  0
SPLINE
  5
299
330
1F
100
AcDbEntity
  8
SK3
  6
SLD-Dashed
370
    18
100
AcDbSpline
210
0.0
220
0.0
230
1.0
 70
     8
 71
     2
 72
     6
 73
     3
 74
     0
 42
0.000000001
 43
0.00000001
 40
0.9687499999999997
 40
0.9687499999999997
 40
0.9687499999999997
 40
1.0
 40
1.0
 40
1.0
 10
30.14576782067173
 20
24.95665704671738
 30
0.0
 10
30.04923942796976
 20
24.98510205080982
 30
0.0
 10
30.00000000000007
 20
24.99999999999999
 30
0.0
  0
SPLINE
  5
29A
330
1F
100
AcDbEntity
  8
SK3
  6
SLD-Dashed
370
    18
100
AcDbSpline
210
0.0
220
0.0
230
1.0
 70
     8
 71
     2
 72
     6
 73
     3
 74
     0
 42
0.000000001
 43
0.00000001
 40
0.0
 40
0.0
 40
0.0
 40
0.0312499999999988
 40
0.0312499999999988
 40
0.0312499999999988
 10
73.50000000000003
 20
24.99999999999999
 30
0.0
 10
73.5492152067227
 20
24.98511058580078
 30
0.0
 10
73.64537144083373
 20
24.95677385487365
 30
0.0
  0
SPLINE
  5
29B
330
1F
100
AcDbEntity
  8
SK3
  6
SLD-Dashed
370
    18
100
AcDbSpline
210
0.0
220
0.0
230
1.0
 70
     8
 71
     3
 72
     8
 73
     4
 74
     0
 42
0.000000001
 43
0.00000001
 40
0.0312499999999988
 40
0.0312499999999988
 40
0.0312499999999988
 40
0.0312499999999988
 40
0.0468749999999981
 40
0.0468749999999981
 40
0.0468749999999981
 40
0.0468749999999981
 10
73.64537144083373
 20
24.95677385487365
 30
0.0
 10
73.69344955788921
 20
24.94260548941007
 30
0.0
 10
73.75335259001585
 20
24.92507067665398
 30
0.0
 10
73.8253275706739
 20
24.90433545526024
 30
0.0
  0
SPLINE
  5
29C
330
1F
100
AcDbEntity
  8
SK3
  6
SLD-Dashed
370
    18
100
AcDbSpline
210
0.0
220
0.0
230
1.0
 70
     8
 71
     3
 72
     8
 73
     4
 74
     0
 42
0.000000001
 43
0.00000001
 40
0.0468749999999981
 40
0.0468749999999981
 40
0.0468749999999981
 40
0.0468749999999981
 40
0.0624999999999975
 40
0.0624999999999975
 40
0.0624999999999975
 40
0.0624999999999975
 10
73.8253275706739
 20
24.90433545526024
 30
0.0
 10
73.89730255133193
 20
24.8836002338665
 30
0.0
 10
73.9815250377429
 20
24.85962136355865
 30
0.0
 10
74.07591288346761
 20
24.83330389612565
 30
0.0
  0
SPLINE
  5
29D
330
1F
100
AcDbEntity
  8
SK3
  6
SLD-Dashed
370
    18
100
AcDbSpline
210
0.0
220
0.0
230
1.0
 70
     8
 71
     3
 72
     8
 73
     4
 74
     0
 42
0.000000001
 43
0.00000001
 40
0.0624999999999975
 40
0.0624999999999975
 40
0.0624999999999975
 40
0.0624999999999975
 40
0.0937499999999959
 40
0.0937499999999959
 40
0.0937499999999959
 40
0.0937499999999959
 10
74.07591288346761
 20
24.83330389612565
 30
0.0
 10
74.26468857491705
 20
24.78066896125968
 30
0.0
 10
74.4953050918072
 20
24.7182468866108
 30
0.0
 10
74.7674477072738
 20
24.64943626295674
 30
0.0
  0
SPLINE
  5
29E
330
1F
100
AcDbEntity
  8
SK3
  6
SLD-Dashed
370
    18
100
AcDbSpline
210
0.0
220
0.0
230
1.0
 70
     8
 71
     3
 72
     8
 73
     4
 74
     0
 42
0.000000001
 43
0.00000001
 40
0.0937499999999959
 40
0.0937499999999959
 40
0.0937499999999959
 40
0.0937499999999959
 40
0.1093749999999954
 40
0.1093749999999954
 40
0.1093749999999954
 40
0.1093749999999954
 10
74.7674477072738
 20
24.64943626295674
 30
0.0
 10
74.90351901500712
 20
24.61503095112971
 30
0.0
 10
75.05092834718242
 20
24.57882340637056
 30
0.0
 10
75.20663473631375
 20
24.54206757953548
 30
0.0
  0
SPLINE
  5
29F
330
1F
100
AcDbEntity
  8
SK3
  6
SLD-Dashed
370
    18
100
AcDbSpline
210
0.0
220
0.0
230
1.0
 70
     8
 71
     3
 72
     8
 73
     4
 74
     0
 42
0.000000001
 43
0.00000001
 40
0.1093749999999954
 40
0.1093749999999954
 40
0.1093749999999954
 40
0.1093749999999954
 40
0.1249999999999948
 40
0.1249999999999948
 40
0.1249999999999948
 40
0.1249999999999948
 10
75.20663473631375
 20
24.54206757953548
 30
0.0
 10
75.36234112544508
 20
24.50531175270043
 30
0.0
 10
75.52623338442604
 20
24.46801905450339
 30
0.0
 10
75.69815341525553
 20
24.4307097156052
 30
0.0
  0
SPLINE
  5
2A0
330
1F
100
AcDbEntity
  8
SK3
  6
SLD-Dashed
370
    18
100
AcDbSpline
210
0.0
220
0.0
230
1.0
 70
     8
 71
     3
 72
     8
 73
     4
 74
     0
 42
0.000000001
 43
0.00000001
 40
0.1249999999999948
 40
0.1249999999999948
 40
0.1249999999999948
 40
0.1249999999999948
 40
0.1562499999999938
 40
0.1562499999999938
 40
0.1562499999999938
 40
0.1562499999999938
 10
75.69815341525553
 20
24.4307097156052
 30
0.0
 10
76.04199347691458
 20
24.35609103780884
 30
0.0
 10
76.41768693701965
 20
24.28137163335749
 30
0.0
 10
76.82703096705482
 20
24.21081722185189
 30
0.0
  0
SPLINE
  5
2A1
330
1F
100
AcDbEntity
  8
SK3
  6
SLD-Dashed
370
    18
100
AcDbSpline
210
0.0
220
0.0
230
1.0
 70
     8
 71
     3
 72
     8
 73
     4
 74
     0
 42
0.000000001
 43
0.00000001
 40
0.1562499999999938
 40
0.1562499999999938
 40
0.1562499999999938
 40
0.1562499999999938
 40
0.1874999999999927
 40
0.1874999999999927
 40
0.1874999999999927
 40
0.1874999999999927
 10
76.82703096705482
 20
24.21081722185189
 30
0.0
 10
77.23637499708998
 20
24.14026281034626
 30
0.0
 10
77.66805219215313
 20
24.0759592844406
 30
0.0
 10
78.11858653095653
 20
24.02191798295019
 30
0.0
  0
SPLINE
  5
2A2
330
1F
100
AcDbEntity
  8
SK3
  6
SLD-Dashed
370
    18
100
AcDbSpline
210
0.0
220
0.0
230
1.0
 70
     8
 71
     3
 72
     8
 73
     4
 74
     0
 42
0.000000001
 43
0.00000001
 40
0.1874999999999927
 40
0.1874999999999927
 40
0.1874999999999927
 40
0.1874999999999927
 40
0.2031249999999926
 40
0.2031249999999926
 40
0.2031249999999926
 40
0.2031249999999926
 10
78.11858653095653
 20
24.02191798295019
 30
0.0
 10
78.34385370035825
 20
23.99489733220498
 30
0.0
 10
78.57412625330902
 20
23.97039608434917
 30
0.0
 10
78.80958062189603
 20
23.94886087169853
 30
0.0
  0
SPLINE
  5
2A3
330
1F
100
AcDbEntity
  8
SK3
  6
SLD-Dashed
370
    18
100
AcDbSpline
210
0.0
220
0.0
230
1.0
 70
     8
 71
     3
 72
     8
 73
     4
 74
     0
 42
0.000000001
 43
0.00000001
 40
0.2031249999999926
 40
0.2031249999999926
 40
0.2031249999999926
 40
0.2031249999999926
 40
0.2187499999999925
 40
0.2187499999999925
 40
0.2187499999999925
 40
0.2187499999999925
 10
78.80958062189603
 20
23.94886087169853
 30
0.0
 10
79.04503499048309
 20
23.92732565904791
 30
0.0
 10
79.28706579632895
 20
23.90869366667457
 30
0.0
 10
79.52941517417615
 20
23.89377784549659
 30
0.0
  0
SPLINE
  5
2A4
330
1F
100
AcDbEntity
  8
SK3
  6
SLD-Dashed
370
    18
100
AcDbSpline
210
0.0
220
0.0
230
1.0
 70
     8
 71
     3
 72
     8
 73
     4
 74
     0
 42
0.000000001
 43
0.00000001
 40
0.2187499999999925
 40
0.2187499999999925
 40
0.2187499999999925
 40
0.2187499999999925
 40
0.2499999999999931
 40
0.2499999999999931
 40
0.2499999999999931
 40
0.2499999999999931
 10
79.52941517417615
 20
23.89377784549659
 30
0.0
 10
80.01411392987053
 20
23.86394620314047
 30
0.0
 10
80.50263917478469
 20
23.84858447490146
 30
0.0
 10
80.99496665190819
 20
23.84848056658057
 30
0.0
  0
SPLINE
  5
2A5
330
1F
100
AcDbEntity
  8
SK3
  6
SLD-Dashed
370
    18
100
AcDbSpline
210
0.0
220
0.0
230
1.0
 70
     8
 71
     3
 72
     8
 73
     4
 74
     0
 42
0.000000001
 43
0.00000001
 40
0.2499999999999931
 40
0.2499999999999931
 40
0.2499999999999931
 40
0.2499999999999931
 40
0.2812499999999938
 40
0.2812499999999938
 40
0.2812499999999938
 40
0.2812499999999938
 10
80.99496665190819
 20
23.84848056658057
 30
0.0
 10
81.48729412903168
 20
23.84837665826001
 30
0.0
 10
81.98752953041878
 20
23.8640656572455
 30
0.0
 10
82.46967512178482
 20
23.89372187340418
 30
0.0
  0
SPLINE
  5
2A6
330
1F
100
AcDbEntity
  8
SK3
  6
SLD-Dashed
370
    18
100
AcDbSpline
210
0.0
220
0.0
230
1.0
 70
     8
 71
     3
 72
     8
 73
     4
 74
     0
 42
0.000000001
 43
0.00000001
 40
0.2812499999999938
 40
0.2812499999999938
 40
0.2812499999999938
 40
0.2812499999999938
 40
0.3124999999999944
 40
0.3124999999999944
 40
0.3124999999999944
 40
0.3124999999999944
 10
82.46967512178482
 20
23.89372187340418
 30
0.0
 10
82.9518207131509
 20
23.92337808956268
 30
0.0
 10
83.4207773065813
 20
23.96675571302968
 30
0.0
 10
83.87658730757565
 20
24.02133956585488
 30
0.0
  0
SPLINE
  5
2A7
330
1F
100
AcDbEntity
  8
SK3
  6
SLD-Dashed
370
    18
100
AcDbSpline
210
0.0
220
0.0
230
1.0
 70
     8
 71
     3
 72
     8
 73
     4
 74
     0
 42
0.000000001
 43
0.00000001
 40
0.3124999999999944
 40
0.3124999999999944
 40
0.3124999999999944
 40
0.3124999999999944
 40
0.3281249999999947
 40
0.3281249999999947
 40
0.3281249999999947
 40
0.3281249999999947
 10
83.87658730757565
 20
24.02133956585488
 30
0.0
 10
84.10449230807286
 20
24.04863149226746
 30
0.0
 10
84.32823603533717
 20
24.078654604589
 30
0.0
 10
84.54399836665345
 20
24.11036964508928
 30
0.0
  0
SPLINE
  5
2A8
330
1F
100
AcDbEntity
  8
SK3
  6
SLD-Dashed
370
    18
100
AcDbSpline
210
0.0
220
0.0
230
1.0
 70
     8
 71
     3
 72
     8
 73
     4
 74
     0
 42
0.000000001
 43
0.00000001
 40
0.3281249999999947
 40
0.3281249999999947
 40
0.3281249999999947
 40
0.3281249999999947
 40
0.3437499999999951
 40
0.3437499999999951
 40
0.3437499999999951
 40
0.3437499999999951
 10
84.54399836665351
 20
24.11036964508929
 30
0.0
 10
84.75976069796982
 20
24.14208468558954
 30
0.0
 10
84.96872182044613
 20
24.17562884415248
 30
0.0
 10
85.17105316824667
 20
24.21048707755257
 30
0.0
  0
SPLINE
  5
2A9
330
1F
100
AcDbEntity
  8
SK3
  6
SLD-Dashed
370
    18
100
AcDbSpline
210
0.0
220
0.0
230
1.0
 70
     8
 71
     3
 72
     8
 73
     4
 74
     0
 42
0.000000001
 43
0.00000001
 40
0.3437499999999951
 40
0.3437499999999951
 40
0.3437499999999951
 40
0.3437499999999951
 40
0.3593749999999954
 40
0.3593749999999954
 40
0.3593749999999954
 40
0.3593749999999954
 10
85.17105316824667
 20
24.21048707755257
 30
0.0
 10
85.37338451604724
 20
24.24534531095266
 30
0.0
 10
85.56908586370197
 20
24.28151926347261
 30
0.0
 10
85.75812538692647
 20
24.31850647547488
 30
0.0
  0
SPLINE
  5
2AA
330
1F
100
AcDbEntity
  8
SK3
  6
SLD-Dashed
370
    18
100
AcDbSpline
210
0.0
220
0.0
230
1.0
 70
     8
 71
     3
 72
     8
 73
     4
 74
     0
 42
0.000000001
 43
0.00000001
 40
0.3593749999999954
 40
0.3593749999999954
 40
0.3593749999999954
 40
0.3593749999999954
 40
0.3749999999999957
 40
0.3749999999999957
 40
0.3749999999999957
 40
0.3749999999999957
 10
85.75812538692641
 20
24.31850647547487
 30
0.0
 10
85.94716491015093
 20
24.35549368747715
 30
0.0
 10
86.13032697125094
 20
24.39347708768063
 30
0.0
 10
86.3033624638941
 20
24.43103872993207
 30
0.0
  0
SPLINE
  5
2AB
330
1F
100
AcDbEntity
  8
SK3
  6
SLD-Dashed
370
    18
100
AcDbSpline
210
0.0
220
0.0
230
1.0
 70
     8
 71
     3
 72
     8
 73
     4
 74
     0
 42
0.000000001
 43
0.00000001
 40
0.3749999999999957
 40
0.3749999999999957
 40
0.3749999999999957
 40
0.3749999999999957
 40
0.4062499999999964
 40
0.4062499999999964
 40
0.4062499999999964
 40
0.4062499999999964
 10
86.3033624638941
 20
24.43103872993207
 30
0.0
 10
86.64943344918048
 20
24.506162014435
 30
0.0
 10
86.95788303216518
 20
24.58001871898306
 30
0.0
 10
87.22947343113387
 20
24.64865796000267
 30
0.0
  0
SPLINE
  5
2AC
330
1F
100
AcDbEntity
  8
SK3
  6
SLD-Dashed
370
    18
100
AcDbSpline
210
0.0
220
0.0
230
1.0
 70
     8
 71
     3
 72
     8
 73
     4
 74
     0
 42
0.000000001
 43
0.00000001
 40
0.4062499999999964
 40
0.4062499999999964
 40
0.4062499999999964
 40
0.4062499999999964
 40
0.4374999999999971
 40
0.4374999999999971
 40
0.4374999999999971
 40
0.4374999999999971
 10
87.2294734311339
 20
24.64865796000267
 30
0.0
 10
87.50106383010258
 20
24.71729720102227
 30
0.0
 10
87.73686012694728
 20
24.78109548018072
 30
0.0
 10
87.92484698720875
 20
24.8335157759882
 30
0.0
  0
SPLINE
  5
2AD
330
1F
100
AcDbEntity
  8
SK3
  6
SLD-Dashed
370
    18
100
AcDbSpline
210
0.0
220
0.0
230
1.0
 70
     8
 71
     3
 72
     8
 73
     4
 74
     0
 42
0.000000001
 43
0.00000001
 40
0.4374999999999971
 40
0.4374999999999971
 40
0.4374999999999971
 40
0.4374999999999971
 40
0.4687499999999978
 40
0.4687499999999978
 40
0.4687499999999978
 40
0.4687499999999978
 10
87.92484698720875
 20
24.8335157759882
 30
0.0
 10
88.11283384747027
 20
24.88593607179564
 30
0.0
 10
88.25602755824237
 20
24.92772158268081
 30
0.0
 10
88.35325571881503
 20
24.95636932060201
 30
0.0
  0
SPLINE
  5
2AE
330
1F
100
AcDbEntity
  8
SK3
  6
SLD-Dashed
370
    18
100
AcDbSpline
210
0.0
220
0.0
230
1.0
 70
     8
 71
     3
 72
     8
 73
     4
 74
     0
 42
0.000000001
 43
0.00000001
 40
0.4687499999999978
 40
0.4687499999999978
 40
0.4687499999999978
 40
0.4687499999999978
 40
0.4843749999999982
 40
0.4843749999999982
 40
0.4843749999999982
 40
0.4843749999999982
 10
88.35325571881503
 20
24.95636932060201
 30
0.0
 10
88.40186979910138
 20
24.97069318956261
 30
0.0
 10
88.43890761311975
 20
24.98172938771064
 30
0.0
 10
88.46333059757143
 20
24.98902366257324
 30
0.0
  0
SPLINE
  5
2AF
330
1F
100
AcDbEntity
  8
SK3
  6
SLD-Dashed
370
    18
100
AcDbSpline
210
0.0
220
0.0
230
1.0
 70
     8
 71
     3
 72
     8
 73
     4
 74
     0
 42
0.000000001
 43
0.00000001
 40
0.4843749999999982
 40
0.4843749999999982
 40
0.4843749999999982
 40
0.4843749999999982
 40
0.4999999999999986
 40
0.4999999999999986
 40
0.4999999999999986
 40
0.4999999999999986
 10
88.4633305975714
 20
24.98902366257323
 30
0.0
 10
88.48775358202312
 20
24.99631793743581
 30
0.0
 10
88.4998953541977
 20
24.99996860626184
 30
0.0
 10
88.49999932812496
 20
24.99999979843748
 30
0.0
  0
SPLINE
  5
2B0
330
1F
100
AcDbEntity
  8
SK3
  6
SLD-Dashed
370
    18
100
AcDbSpline
210
0.0
220
0.0
230
1.0
 70
     8
 71
     3
 72
     8
 73
     4
 74
     0
 42
0.000000001
 43
0.00000001
 40
0.4999999999999986
 40
0.4999999999999986
 40
0.4999999999999986
 40
0.4999999999999986
 40
0.5312499999999993
 40
0.5312499999999993
 40
0.5312499999999993
 40
0.5312499999999993
 10
88.49999932812496
 20
24.99999979843748
 30
0.0
 10
88.50020727597948
 20
25.00006218278876
 30
0.0
 10
88.45214985937126
 20
24.98551410949061
 30
0.0
 10
88.35497837088262
 20
24.95687694476515
 30
0.0
  0
SPLINE
  5
2B1
330
1F
100
AcDbEntity
  8
SK3
  6
SLD-Dashed
370
    18
100
AcDbSpline
210
0.0
220
0.0
230
1.0
 70
     8
 71
     3
 72
     8
 73
     4
 74
     0
 42
0.000000001
 43
0.00000001
 40
0.5312499999999993
 40
0.5312499999999993
 40
0.5312499999999993
 40
0.5312499999999993
 40
0.5625
 40
0.5625
 40
0.5625
 40
0.5625
 10
88.35497837088262
 20
24.95687694476515
 30
0.0
 10
88.25780688239395
 20
24.92823978003968
 30
0.0
 10
88.11442227267537
 20
24.88639175222282
 30
0.0
 10
87.92666631847827
 20
24.8340231595193
 30
0.0
  0
SPLINE
  5
2B2
330
1F
100
AcDbEntity
  8
SK3
  6
SLD-Dashed
370
    18
100
AcDbSpline
210
0.0
220
0.0
230
1.0
 70
     8
 71
     3
 72
     8
 73
     4
 74
     0
 42
0.000000001
 43
0.00000001
 40
0.5625
 40
0.5625
 40
0.5625
 40
0.5625
 40
0.5937500000000006
 40
0.5937500000000006
 40
0.5937500000000006
 40
0.5937500000000006
 10
87.9266663184783
 20
24.8340231595193
 30
0.0
 10
87.73891036428118
 20
24.78165456681577
 30
0.0
 10
87.50357257863598
 20
24.71795530620913
 30
0.0
 10
87.23179529863569
 20
24.64924486965263
 30
0.0
  0
SPLINE
  5
2B3
330
1F
100
AcDbEntity
  8
SK3
  6
SLD-Dashed
370
    18
100
AcDbSpline
210
0.0
220
0.0
230
1.0
 70
     8
 71
     3
 72
     8
 73
     4
 74
     0
 42
0.000000001
 43
0.00000001
 40
0.5937500000000006
 40
0.5937500000000006
 40
0.5937500000000006
 40
0.5937500000000006
 40
0.6250000000000012
 40
0.6250000000000012
 40
0.6250000000000012
 40
0.6250000000000012
 10
87.23179529863569
 20
24.64924486965263
 30
0.0
 10
86.96001801863535
 20
24.58053443309612
 30
0.0
 10
86.6514757384912
 20
24.50663544232431
 30
0.0
 10
86.30558643554055
 20
24.43152159455058
 30
0.0
  0
SPLINE
  5
2B4
330
1F
100
AcDbEntity
  8
SK3
  6
SLD-Dashed
370
    18
100
AcDbSpline
210
0.0
220
0.0
230
1.0
 70
     8
 71
     3
 72
     8
 73
     4
 74
     0
 42
0.000000001
 43
0.00000001
 40
0.6250000000000012
 40
0.6250000000000012
 40
0.6250000000000012
 40
0.6250000000000012
 40
0.6406250000000019
 40
0.6406250000000019
 40
0.6406250000000019
 40
0.6406250000000019
 10
86.30558643554052
 20
24.43152159455057
 30
0.0
 10
86.13264178406514
 20
24.3939646706637
 30
0.0
 10
85.94951612340327
 20
24.35597187742554
 30
0.0
 10
85.76053929187393
 20
24.31897889199862
 30
0.0
  0
SPLINE
  5
2B5
330
1F
100
AcDbEntity
  8
SK3
  6
SLD-Dashed
370
    18
100
AcDbSpline
210
0.0
220
0.0
230
1.0
 70
     8
 71
     3
 72
     8
 73
     4
 74
     0
 42
0.000000001
 43
0.00000001
 40
0.6406250000000019
 40
0.6406250000000019
 40
0.6406250000000019
 40
0.6406250000000019
 40
0.6562500000000024
 40
0.6562500000000024
 40
0.6562500000000024
 40
0.6562500000000024
 10
85.76053929187395
 20
24.31897889199863
 30
0.0
 10
85.5715624603446
 20
24.28198590657171
 30
0.0
 10
85.3760226543198
 20
24.24582362481193
 30
0.0
 10
85.17397217277174
 20
24.21099014288908
 30
0.0
  0
SPLINE
  5
2B6
330
1F
100
AcDbEntity
  8
SK3
  6
SLD-Dashed
370
    18
100
AcDbSpline
210
0.0
220
0.0
230
1.0
 70
     8
 71
     3
 72
     8
 73
     4
 74
     0
 42
0.000000001
 43
0.00000001
 40
0.6562500000000024
 40
0.6562500000000024
 40
0.6562500000000024
 40
0.6562500000000024
 40
0.6875000000000031
 40
0.6875000000000031
 40
0.6875000000000031
 40
0.6875000000000031
 10
85.17397217277174
 20
24.21099014288908
 30
0.0
 10
84.7698712096756
 20
24.14132317904338
 30
0.0
 10
84.33923016413631
 20
24.07684733551828
 30
0.0
 10
83.88218803761204
 20
24.02201090425516
 30
0.0
  0
SPLINE
  5
2B7
330
1F
100
AcDbEntity
  8
SK3
  6
SLD-Dashed
370
    18
100
AcDbSpline
210
0.0
220
0.0
230
1.0
 70
     8
 71
     3
 72
     8
 73
     4
 74
     0
 42
0.000000001
 43
0.00000001
 40
0.6875000000000031
 40
0.6875000000000031
 40
0.6875000000000031
 40
0.6875000000000031
 40
0.7187500000000038
 40
0.7187500000000038
 40
0.7187500000000038
 40
0.7187500000000038
 10
83.88218803761201
 20
24.02201090425516
 30
0.0
 10
83.4251459110877
 20
23.96717447299203
 30
0.0
 10
82.95622462147008
 20
23.92376839096475
 30
0.0
 10
82.47559822355633
 20
23.89408692788578
 30
0.0
  0
SPLINE
  5
2B8
330
1F
100
AcDbEntity
  8
SK3
  6
SLD-Dashed
370
    18
100
AcDbSpline
210
0.0
220
0.0
230
1.0
 70
     8
 71
     3
 72
     8
 73
     4
 74
     0
 42
0.000000001
 43
0.00000001
 40
0.7187500000000038
 40
0.7187500000000038
 40
0.7187500000000038
 40
0.7187500000000038
 40
0.734375000000004
 40
0.734375000000004
 40
0.734375000000004
 40
0.734375000000004
 10
82.47559822355636
 20
23.89408692788578
 30
0.0
 10
82.23528502459949
 20
23.8792461963463
 30
0.0
 10
81.99202554495068
 20
23.86783415003086
 30
0.0
 10
81.74571897224187
 20
23.86013614348336
 30
0.0
  0
SPLINE
  5
2B9
330
1F
100
AcDbEntity
  8
SK3
  6
SLD-Dashed
370
    18
100
AcDbSpline
210
0.0
220
0.0
230
1.0
 70
     8
 71
     3
 72
     8
 73
     4
 74
     0
 42
0.000000001
 43
0.00000001
 40
0.734375000000004
 40
0.734375000000004
 40
0.734375000000004
 40
0.734375000000004
 40
0.7500000000000042
 40
0.7500000000000042
 40
0.7500000000000042
 40
0.7500000000000042
 10
81.74571897224187
 20
23.86013614348336
 30
0.0
 10
81.49941239953306
 20
23.85243813693586
 30
0.0
 10
81.24937450620014
 20
23.84850263890458
 30
0.0
 10
81.00217109398565
 20
23.84848013424858
 30
0.0
  0
SPLINE
  5
2BA
330
1F
100
AcDbEntity
  8
SK3
  6
SLD-Dashed
370
    18
100
AcDbSpline
210
0.0
220
0.0
230
1.0
 70
     8
 71
     3
 72
     8
 73
     4
 74
     0
 42
0.000000001
 43
0.00000001
 40
0.7500000000000042
 40
0.7500000000000042
 40
0.7500000000000042
 40
0.7500000000000042
 40
0.781250000000004
 40
0.781250000000004
 40
0.781250000000004
 40
0.781250000000004
 10
81.00217109398562
 20
23.84848013424858
 30
0.0
 10
80.50776426955679
 20
23.84843512493658
 30
0.0
 10
80.01897280627675
 20
23.86377480941358
 30
0.0
 10
79.53570959105559
 20
23.89339127042719
 30
0.0
  0
SPLINE
  5
2BB
330
1F
100
AcDbEntity
  8
SK3
  6
SLD-Dashed
370
    18
100
AcDbSpline
210
0.0
220
0.0
230
1.0
 70
     8
 71
     3
 72
     8
 73
     4
 74
     0
 42
0.000000001
 43
0.00000001
 40
0.781250000000004
 40
0.781250000000004
 40
0.781250000000004
 40
0.781250000000004
 40
0.7968750000000034
 40
0.7968750000000034
 40
0.7968750000000034
 40
0.7968750000000034
 10
79.53570959105562
 20
23.89339127042719
 30
0.0
 10
79.29407798344505
 20
23.908199500934
 30
0.0
 10
79.0525298864951
 20
23.92670318560044
 30
0.0
 10
78.81592870867009
 20
23.94828109500997
 30
0.0
  0
SPLINE
  5
2BC
330
1F
100
AcDbEntity
  8
SK3
  6
SLD-Dashed
370
    18
100
AcDbSpline
210
0.0
220
0.0
230
1.0
 70
     8
 71
     3
 72
     8
 73
     4
 74
     0
 42
0.000000001
 43
0.00000001
 40
0.7968750000000034
 40
0.7968750000000034
 40
0.7968750000000034
 40
0.7968750000000034
 40
0.8125000000000028
 40
0.8125000000000028
 40
0.8125000000000028
 40
0.8125000000000028
 10
78.81592870867009
 20
23.94828109500997
 30
0.0
 10
78.5793275308451
 20
23.9698590044195
 30
0.0
 10
78.34818436241771
 20
23.99441240603674
 30
0.0
 10
78.12228206494827
 20
24.0214749862226
 30
0.0
  0
SPLINE
  5
2BD
330
1F
100
AcDbEntity
  8
SK3
  6
SLD-Dashed
370
    18
100
AcDbSpline
210
0.0
220
0.0
230
1.0
 70
     8
 71
     3
 72
     8
 73
     4
 74
     0
 42
0.000000001
 43
0.00000001
 40
0.8125000000000028
 40
0.8125000000000028
 40
0.8125000000000028
 40
0.8125000000000028
 40
0.8437500000000017
 40
0.8437500000000017
 40
0.8437500000000017
 40
0.8437500000000017
 10
78.12228206494824
 20
24.0214749862226
 30
0.0
 10
77.67047747000935
 20
24.07560014659433
 30
0.0
 10
77.23948608431462
 20
24.13976633219097
 30
0.0
 10
76.82944256328868
 20
24.21040167640572
 30
0.0
  0
SPLINE
  5
2BE
330
1F
100
AcDbEntity
  8
SK3
  6
SLD-Dashed
370
    18
100
AcDbSpline
210
0.0
220
0.0
230
1.0
 70
     8
 71
     3
 72
     8
 73
     4
 74
     0
 42
0.000000001
 43
0.00000001
 40
0.8437500000000017
 40
0.8437500000000017
 40
0.8437500000000017
 40
0.8437500000000017
 40
0.8750000000000006
 40
0.8750000000000006
 40
0.8750000000000006
 40
0.8750000000000006
 10
76.82944256328868
 20
24.21040167640572
 30
0.0
 10
76.41939904226271
 20
24.28103702062047
 30
0.0
 10
76.04333463198367
 20
24.3558161501647
 30
0.0
 10
75.69935606457247
 20
24.43044875007793
 30
0.0
  0
SPLINE
  5
2BF
330
1F
100
AcDbEntity
  8
SK3
  6
SLD-Dashed
370
    18
100
AcDbSpline
210
0.0
220
0.0
230
1.0
 70
     8
 71
     3
 72
     8
 73
     4
 74
     0
 42
0.000000001
 43
0.00000001
 40
0.8750000000000006
 40
0.8750000000000006
 40
0.8750000000000006
 40
0.8750000000000006
 40
0.8906250000000002
 40
0.8906250000000002
 40
0.8906250000000002
 40
0.8906250000000002
 10
75.69935606457247
 20
24.43044875007793
 30
0.0
 10
75.5273667808669
 20
24.46776505003453
 30
0.0
 10
75.36346058447894
 20
24.50505438688936
 30
0.0
 10
75.20778111447586
 20
24.54179699243361
 30
0.0
  0
SPLINE
  5
2C0
330
1F
100
AcDbEntity
  8
SK3
  6
SLD-Dashed
370
    18
100
AcDbSpline
210
0.0
220
0.0
230
1.0
 70
     8
 71
     3
 72
     8
 73
     4
 74
     0
 42
0.000000001
 43
0.00000001
 40
0.8906250000000002
 40
0.8906250000000002
 40
0.8906250000000002
 40
0.8906250000000002
 40
0.90625
 40
0.90625
 40
0.90625
 40
0.90625
 10
75.20778111447589
 20
24.5417969924336
 30
0.0
 10
75.05210164447283
 20
24.57853959797785
 30
0.0
 10
74.90450985790643
 20
24.61478514129955
 30
0.0
 10
74.76835801992242
 20
24.6492061082678
 30
0.0
  0
SPLINE
  5
2C1
330
1F
100
AcDbEntity
  8
SK3
  6
SLD-Dashed
370
    18
100
AcDbSpline
210
0.0
220
0.0
230
1.0
 70
     8
 71
     3
 72
     8
 73
     4
 74
     0
 42
0.000000001
 43
0.00000001
 40
0.90625
 40
0.90625
 40
0.90625
 40
0.90625
 40
0.9374999999999999
 40
0.9374999999999999
 40
0.9374999999999999
 40
0.9374999999999999
 10
74.76835801992239
 20
24.6492061082678
 30
0.0
 10
74.4960543439543
 20
24.71804804220431
 30
0.0
 10
74.26565930495353
 20
24.78040700528565
 30
0.0
 10
74.07715229431385
 20
24.83295834885817
 30
0.0
  0
SPLINE
  5
2C2
330
1F
100
AcDbEntity
  8
SK3
  6
SLD-Dashed
370
    18
100
AcDbSpline
210
0.0
220
0.0
230
1.0
 70
     8
 71
     3
 72
     8
 73
     4
 74
     0
 42
0.000000001
 43
0.00000001
 40
0.9374999999999999
 40
0.9374999999999999
 40
0.9374999999999999
 40
0.9374999999999999
 40
0.9687499999999999
 40
0.9687499999999999
 40
0.9687499999999999
 40
0.9687499999999999
 10
74.07715229431385
 20
24.83295834885817
 30
0.0
 10
73.88864528367418
 20
24.88550969243066
 30
0.0
 10
73.74229621337365
 20
24.92821204262494
 30
0.0
 10
73.64576782067168
 20
24.95665704671737
 30
0.0
  0
SPLINE
  5
2C3
330
1F
100
AcDbEntity
  8
SK3
  6
SLD-Dashed
370
    18
100
AcDbSpline
210
0.0
220
0.0
230
1.0
 70
     8
 71
     2
 72
     6
 73
     3
 74
     0
 42
0.000000001
 43
0.00000001
 40
0.9687499999999999
 40
0.9687499999999999
 40
0.9687499999999999
 40
1.0
 40
1.0
 40
1.0
 10
73.64576782067168
 20
24.95665704671737
 30
0.0
 10
73.5492394279697
 20
24.9851020508098
 30
0.0
 10
73.50000000000003
 20
24.99999999999999
 30
0.0
  0
SPLINE
  5
2C4
330
1F
100
AcDbEntity
  8
SK3
  6
SLD-Dashed
370
    18
100
AcDbSpline
210
0.0
220
0.0
230
1.0
 70
     8
 71
     3
 72
    14
 73
    10
 74
     0
 42
0.000000001
 43
0.00000001
 40
0.0
 40
0.0
 40
0.0
 40
0.0
 40
0.2499999999999998
 40
0.2499999999999998
 40
0.4999999999999996
 40
0.4999999999999996
 40
0.7499999999999993
 40
0.7499999999999993
 40
1.0
 40
1.0
 40
1.0
 40
1.0
 10
12.69526659534847
 20
3.110868378972613
 30
0.0
 10
12.719438110927
 20
3.196268796092805
 30
0.0
 10
12.73963817667716
 20
3.285291447488556
 30
0.0
 10
12.76728346153255
 20
3.461682950077587
 30
0.0
 10
12.77497827914434
 20
3.551980923603808
 30
0.0
 10
12.77502162439115
 20
3.720463468592255
 30
0.0
 10
12.76751270335777
 20
3.80048479307115
 30
0.0
 10
12.73966281755566
 20
3.944022098633426
 30
0.0
 10
12.71945755384781
 20
4.007766525758017
 30
0.0
 10
12.69526659534847
 20
4.063186131233257
 30
0.0
  0
SPLINE
  5
2C5
330
1F
100
AcDbEntity
  8
SK3
  6
SLD-Dashed
370
    18
100
AcDbSpline
210
0.0
220
0.0
230
1.0
 70
    24
 71
     2
 72
     6
 73
     3
 74
     0
 42
0.000000001
 43
0.00000001
 40
0.0
 40
0.0
 40
0.0
 40
0.5
 40
0.5
 40
0.5
 10
3.540624663026875
 20
-35.3
 30
0.0
 10
3.487241834976604
 20
-35.3
 30
0.0
 10
3.422396832222063
 20
-35.3
 30
0.0
  0
SPLINE
  5
2C6
330
1F
100
AcDbEntity
  8
SK3
  6
SLD-Dashed
370
    18
100
AcDbSpline
210
0.0
220
0.0
230
1.0
 70
    24
 71
     3
 72
     8
 73
     4
 74
     0
 42
0.000000001
 43
0.00000001
 40
0.5
 40
0.5
 40
0.5
 40
0.5
 40
1.0
 40
1.0
 40
1.0
 40
1.0
 10
3.422396832222063
 20
-35.3
 30
0.0
 10
3.357551829467536
 20
-35.3
 30
0.0
 10
3.280201683490733
 20
-35.3
 30
0.0
 10
3.200000000000022
 20
-35.3
 30
0.0
  0
SPLINE
  5
2C7
330
1F
100
AcDbEntity
  8
SK3
  6
SLD-Dashed
370
    18
100
AcDbSpline
210
0.0
220
0.0
230
1.0
 70
    24
 71
     2
 72
     6
 73
     3
 74
     0
 42
0.000000001
 43
0.00000001
 40
0.0
 40
0.0
 40
0.0
 40
0.2500000000000019
 40
0.2500000000000019
 40
0.2500000000000019
 10
18.62222367971214
 20
37.49999999999999
 30
0.0
 10
18.64097731433379
 20
37.49999999999999
 30
0.0
 10
18.66959647142324
 20
37.49999999999999
 30
0.0
  0
SPLINE
  5
2C8
330
1F
100
AcDbEntity
  8
SK3
  6
SLD-Dashed
370
    18
100
AcDbSpline
210
0.0
220
0.0
230
1.0
 70
    24
 71
     3
 72
     8
 73
     4
 74
     0
 42
0.000000001
 43
0.00000001
 40
0.2500000000000019
 40
0.2500000000000019
 40
0.2500000000000019
 40
0.2500000000000019
 40
0.5000000000000038
 40
0.5000000000000038
 40
0.5000000000000038
 40
0.5000000000000038
 10
18.66959647142324
 20
37.49999999999999
 30
0.0
 10
18.69821562851272
 20
37.49999999999999
 30
0.0
 10
18.73559488734
 20
37.49999999999999
 30
0.0
 10
18.77661910105054
 20
37.5
 30
0.0
  0
SPLINE
  5
2C9
330
1F
100
AcDbEntity
  8
SK3
  6
SLD-Dashed
370
    18
100
AcDbSpline
210
0.0
220
0.0
230
1.0
 70
    24
 71
     3
 72
     8
 73
     4
 74
     0
 42
0.000000001
 43
0.00000001
 40
0.5000000000000038
 40
0.5000000000000038
 40
0.5000000000000038
 40
0.5000000000000038
 40
1.0
 40
1.0
 40
1.0
 40
1.0
 10
18.77661910105054
 20
37.5
 30
0.0
 10
18.8586675284716
 20
37.50000000000001
 30
0.0
 10
18.95296977678693
 20
37.5
 30
0.0
 10
19.05000000000001
 20
37.49999999999999
 30
0.0
  0
SPLINE
  5
2CA
330
1F
100
AcDbEntity
  8
SK3
  6
SLD-Dashed
370
    18
100
AcDbSpline
210
0.0
220
0.0
230
1.0
 70
     8
 71
     3
 72
    32
 73
    28
 74
     0
 42
0.000000001
 43
0.00000001
 40
0.0
 40
0.0
 40
0.0
 40
0.0
 40
0.0252082910543527
 40
0.0503596748384706
 40
0.10065753548817
 40
0.1352126321409537
 40
0.1865986884561373
 40
0.2121867652739196
 40
0.2505532496795906
 40
0.27903906311898
 40
0.3220421589077401
 40
0.3758172202617183
 40
0.4042944428242283
 40
0.446906849935723
 40
0.5002460581053237
 40
0.5288597283328373
 40
0.5719927667399867
 40
0.625493849002335
 40
0.6539151420849565
 40
0.6965347981009881
 40
0.750035425816829
 40
0.7787873480767089
 40
0.8217747058557168
 40
0.8751561925759194
 40
0.9373529249286032
 40
0.9685880351929856
 40
1.0
 40
1.0
 40
1.0
 40
1.0
 10
18.30000000000001
 20
46.44684304364807
 30
0.0
 10
18.30433836925359
 20
46.44679025014927
 30
0.0
 10
18.31300531396914
 20
46.44668478233208
 30
0.0
 10
18.33029662669326
 20
46.44555734639309
 30
0.0
 10
18.34910316585329
 20
46.44319653140832
 30
0.0
 10
18.37210736557514
 20
46.43861892527963
 30
0.0
 10
18.39064401177347
 20
46.43354032188034
 30
0.0
 10
18.4094193179873
 20
46.42708997652401
 30
0.0
 10
18.42418244717775
 20
46.42113260451887
 30
0.0
 10
18.44130637518458
 20
46.41310933954966
 30
0.0
 10
18.46027541809497
 20
46.40283343797221
 30
0.0
 10
18.47839247044139
 20
46.39109977580377
 30
0.0
 10
18.49562107331178
 20
46.37824931728605
 30
0.0
 10
18.51204706142606
 20
46.36448769379363
 30
0.0
 10
18.5274048386972
 20
46.34949280980886
 30
0.0
 10
18.5418130470676
 20
46.3334930378624
 30
0.0
 10
18.55532844520198
 20
46.31668284172596
 30
0.0
 10
18.56753715431799
 20
46.29892794055857
 30
0.0
 10
18.57855133917671
 20
46.2805365950498
 30
0.0
 10
18.58855677956032
 20
46.26156659319913
 30
0.0
 10
18.59718165888907
 20
46.24185620614271
 30
0.0
 10
18.60458542020546
 20
46.2216102765479
 30
0.0
 10
18.6108849160521
 20
46.20100480977814
 30
0.0
 10
18.6169810814177
 20
46.17437782793347
 30
0.0
 10
18.62045903264763
 20
46.14931676988314
 30
0.0
 10
18.62200588207884
 20
46.12787883793683
 30
0.0
 10
18.6221509439964
 20
46.11709703157511
 30
0.0
 10
18.6222236797122
 20
46.11169090971538
 30
0.0
  0
SPLINE
  5
2CB
330
1F
100
AcDbEntity
  8
SK3
  6
SLD-Dashed
370
    18
100
AcDbSpline
210
0.0
220
0.0
230
1.0
 70
     8
 71
     3
 72
    18
 73
    14
 74
     0
 42
0.000000001
 43
0.00000001
 40
0.0
 40
0.0
 40
0.0
 40
0.0
 40
0.050261089681494
 40
0.1003329321215929
 40
0.1864224498897437
 40
0.2507015730540805
 40
0.3753972972171234
 40
0.5003113203901964
 40
0.6254300726311536
 40
0.7499589499091073
 40
0.8750961506297784
 40
0.9373336758005051
 40
0.9999999999999999
 40
0.9999999999999999
 40
0.9999999999999999
 40
0.9999999999999999
 10
3.700000000000029
 20
46.06561217437581
 30
0.0
 10
3.700144078456542
 20
46.07232154051987
 30
0.0
 10
3.700431692873409
 20
46.08571501014369
 30
0.0
 10
3.703293867223936
 20
46.11045882575348
 30
0.0
 10
3.708902726806305
 20
46.13669203614842
 30
0.0
 10
3.720620908021953
 20
46.17152848407942
 30
0.0
 10
3.739565664994181
 20
46.20919314473766
 30
0.0
 10
3.770318840089463
 20
46.2490193923825
 30
0.0
 10
3.808242102291677
 20
46.28208728089935
 30
0.0
 10
3.852016595508795
 20
46.30699396333063
 30
0.0
 10
3.891943318244703
 20
46.31977879118215
 30
0.0
 10
3.924954928601787
 20
46.32515794666906
 30
0.0
 10
3.941632557917019
 20
46.32566368488989
 30
0.0
 10
3.950000000000023
 20
46.3259174221083
 30
0.0
  0
SPLINE
  5
2CC
330
1F
100
AcDbEntity
  8
SK3
  6
SLD-Dashed
370
    18
100
AcDbSpline
210
0.0
220
0.0
230
1.0
 70
     8
 71
     3
 72
    11
 73
     7
 74
     0
 42
0.000000001
 43
0.00000001
 40
0.0
 40
0.0
 40
0.0
 40
0.0
 40
0.2486822357455426
 40
0.4983719848159723
 40
0.7487410678759477
 40
0.9999999999999999
 40
0.9999999999999999
 40
0.9999999999999999
 40
0.9999999999999999
 10
18.74319597640607
 20
-35.79999998854243
 30
0.0
 10
18.73798739700522
 20
-35.82617443697947
 30
0.0
 10
18.7275491361206
 20
-35.87862937723656
 30
0.0
 10
18.71723168574999
 20
-35.9583438435774
 30
0.0
 10
18.71050745623008
 20
-36.03871998425424
 30
0.0
 10
18.70969898711096
 20
-36.09254714905063
 30
0.0
 10
18.70929403547073
 20
-36.11950847404968
 30
0.0
  0
SPLINE
  5
2CD
330
1F
100
AcDbEntity
  8
SK3
  6
SLD-Dashed
370
    18
100
AcDbSpline
210
0.0
220
0.0
230
1.0
 70
     8
 71
     3
 72
    41
 73
    37
 74
     0
 42
0.000000001
 43
0.00000001
 40
0.0
 40
0.0
 40
0.0
 40
0.0
 40
0.0157633675970147
 40
0.0314990224856953
 40
0.062921399247048
 40
0.0880715293551422
 40
0.1258724852349553
 40
0.1545373464664311
 40
0.1716556504184346
 40
0.1972674629356937
 40
0.218580565753165
 40
0.250553614255775
 40
0.27903768438853
 40
0.3220404194866058
 40
0.3436278439355497
 40
0.3758194428220551
 40
0.4042923975680548
 40
0.4468999492783287
 40
0.4682119344241838
 40
0.5002468981436254
 40
0.528859451038901
 40
0.5719881174743906
 40
0.5934450420178494
 40
0.6254929612258051
 40
0.653910993304754
 40
0.6965265373552767
 40
0.7178831644931977
 40
0.7500336381150795
 40
0.7787834922557196
 40
0.8217656930061131
 40
0.8431488480037065
 40
0.8751518076539703
 40
0.9000180006497549
 40
0.9373587344622656
 40
0.9685910076474759
 40
1.0
 40
1.0
 40
1.0
 40
1.0
 10
3.949999999999272
 20
-46.51255241321945
 30
0.0
 10
3.9465523644034
 20
-46.51252613338652
 30
0.0
 10
3.939663154309948
 20
-46.51247361992175
 30
0.0
 10
3.925911404360728
 20
-46.51191298574206
 30
0.0
 10
3.910137911437793
 20
-46.51067766605462
 30
0.0
 10
3.889656244752888
 20
-46.50808464042164
 30
0.0
 10
3.869922275361827
 20
-46.50453178496208
 30
0.0
 10
3.85213061294319
 20
-46.50030405796698
 30
0.0
 10
3.837085331182112
 20
-46.49612043902949
 30
0.0
 10
3.823727235772496
 20
-46.49189243637847
 30
0.0
 10
3.807486678462588
 20
-46.4860535644275
 30
0.0
 10
3.790930862409958
 20
-46.47926717866914
 30
0.0
 10
3.770437533719832
 20
-46.46965924674334
 30
0.0
 10
3.752524907784186
 20
-46.45994884321693
 30
0.0
 10
3.734466578545034
 20
-46.44890154541823
 30
0.0
 10
3.719534855686376
 20
-46.43885278190212
 30
0.0
 10
3.701429636317654
 20
-46.42533920403353
 30
0.0
 10
3.685930414200286
 20
-46.41234610195713
 30
0.0
 10
3.670552124823725
 20
-46.39806259976343
 30
0.0
 10
3.657934332865511
 20
-46.38531876508808
 30
0.0
 10
3.642748407604752
 20
-46.36844300077154
 30
0.0
 10
3.629971273470307
 20
-46.35253894325509
 30
0.0
 10
3.617572092933266
 20
-46.33542102208931
 30
0.0
 10
3.607665319430778
 20
-46.32048214913923
 30
0.0
 10
3.596085186951864
 20
-46.3011324971536
 30
0.0
 10
3.586656553419478
 20
-46.28324211302566
 30
0.0
 10
3.577766627581199
 20
-46.26418915531212
 30
0.0
 10
3.570821709864037
 20
-46.24758499146632
 30
0.0
 10
3.563022144170154
 20
-46.22624003556046
 30
0.0
 10
3.557066796628434
 20
-46.20674824240276
 30
0.0
 10
3.551882028926276
 20
-46.18631725041318
 30
0.0
 10
3.548334567726968
 20
-46.16956734771227
 30
0.0
 10
3.544915449864063
 20
-46.14924447934332
 30
0.0
 10
3.54247765870618
 20
-46.12894518106501
 30
0.0
 10
3.540900422917635
 20
-46.10712431110583
 30
0.0
 10
3.540716755706348
 20
-46.09342308075568
 30
0.0
 10
3.540624663026144
 20
-46.08655313910311
 30
0.0
  0
SPLINE
  5
2CE
330
1F
100
AcDbEntity
  8
SK3
  6
SLD-Dashed
370
    18
100
AcDbSpline
210
0.0
220
0.0
230
1.0
 70
     8
 71
     3
 72
    41
 73
    37
 74
     0
 42
0.000000001
 43
0.00000001
 40
0.0
 40
0.0
 40
0.0
 40
0.0
 40
0.0125872535342696
 40
0.0314228812143052
 40
0.0627299162080721
 40
0.0877396404974403
 40
0.1252707865947014
 40
0.1539475319487161
 40
0.1970376121070339
 40
0.2184721920278648
 40
0.2505163813291434
 40
0.2789486892562606
 40
0.3216178740378247
 40
0.3430092675282271
 40
0.3752545160846409
 40
0.4040075601288379
 40
0.4468636571273615
 40
0.4682153834278338
 40
0.500209511259279
 40
0.5286749473692556
 40
0.571535425925226
 40
0.5930955303010891
 40
0.6253853865992955
 40
0.653918612678895
 40
0.6965921507819104
 40
0.7179244320751502
 40
0.7499744878135047
 40
0.7785960199604594
 40
0.7958518824807477
 40
0.8217151668917635
 40
0.8431553291695478
 40
0.8751891354494825
 40
0.9000585620358887
 40
0.9373796874783126
 40
0.9685930903278103
 40
1.0
 40
1.0
 40
1.0
 40
1.0
 10
18.70929403547073
 20
-46.08654377805897
 30
0.0
 10
18.70927844277134
 20
-46.08929615489252
 30
0.0
 10
18.70923951708042
 20
-46.09616720186575
 30
0.0
 10
18.70877781799146
 20
-46.10987811943767
 30
0.0
 10
18.7076424551207
 20
-46.12627796872949
 30
0.0
 10
18.70535835278134
 20
-46.14667539080227
 30
0.0
 10
18.70222472112611
 20
-46.16638525839195
 30
0.0
 10
18.69731388050423
 20
-46.18978030190907
 30
0.0
 10
18.6920633262001
 20
-46.20948905442619
 30
0.0
 10
18.68564978326351
 20
-46.22960988005415
 30
0.0
 10
18.67952755691911
 20
-46.24645025699282
 30
0.0
 10
18.67086447163799
 20
-46.26728011164682
 30
0.0
 10
18.66209824903801
 20
-46.28552458600615
 30
0.0
 10
18.65206570859057
 20
-46.30404233069743
 30
0.0
 10
18.64283742626008
 20
-46.31952446224755
 30
0.0
 10
18.63030940903899
 20
-46.33847213801121
 30
0.0
 10
18.61816939253914
 20
-46.35479755028779
 30
0.0
 10
18.60479037694682
 20
-46.3710335667166
 30
0.0
 10
18.59284397513962
 20
-46.38436043097145
 30
0.0
 10
18.5769791908915
 20
-46.4004533783601
 30
0.0
 10
18.56191799298201
 20
-46.41410729354575
 30
0.0
 10
18.54553968112965
 20
-46.42748848412067
 30
0.0
 10
18.53110856275704
 20
-46.43828561215442
 30
0.0
 10
18.51234032841802
 20
-46.45094234699104
 30
0.0
 10
18.49492763582983
 20
-46.46128676882828
 30
0.0
 10
18.47633355487369
 20
-46.47106114424099
 30
0.0
 10
18.46010639151216
 20
-46.47871116956284
 30
0.0
 10
18.44434566607547
 20
-46.48520510064662
 30
0.0
 10
18.42962535532028
 20
-46.49063134985503
 30
0.0
 10
18.41621030920806
 20
-46.4950417138889
 30
0.0
 10
18.39952858675653
 20
-46.4998143096768
 30
0.0
 10
18.38285721256254
 20
-46.50379289541413
 30
0.0
 10
18.36260918499452
 20
-46.50763160262819
 30
0.0
 10
18.34235795820414
 20
-46.510372183014
 30
0.0
 10
18.32056257215437
 20
-46.51214785280219
 30
0.0
 10
18.30686829655512
 20
-46.5123547808122
 30
0.0
 10
18.30000000000001
 20
-46.51245856453758
 30
0.0
  0
SPLINE
  5
2CF
330
1F
100
AcDbEntity
  8
SK3
  6
SLD-Dashed
370
    18
100
AcDbSpline
210
0.0
220
0.0
230
1.0
 70
     8
 71
     3
 72
    44
 73
    40
 74
     0
 42
0.000000001
 43
0.00000001
 40
0.0
 40
0.0
 40
0.0
 40
0.0
 40
0.0624999999999999
 40
0.0624999999999999
 40
0.1249999999999998
 40
0.1249999999999998
 40
0.1874999999999997
 40
0.1874999999999997
 40
0.2499999999999996
 40
0.2499999999999996
 40
0.3124999999999995
 40
0.3124999999999995
 40
0.3749999999999994
 40
0.3749999999999994
 40
0.4374999999999993
 40
0.4374999999999993
 40
0.4999999999999992
 40
0.4999999999999992
 40
0.5312499999999991
 40
0.5312499999999991
 40
0.5624999999999989
 40
0.5624999999999989
 40
0.5937499999999988
 40
0.5937499999999988
 40
0.6249999999999986
 40
0.6249999999999986
 40
0.6562499999999984
 40
0.6562499999999984
 40
0.6874999999999982
 40
0.6874999999999982
 40
0.7499999999999987
 40
0.7499999999999987
 40
0.812499999999999
 40
0.812499999999999
 40
0.8749999999999993
 40
0.8749999999999993
 40
0.9374999999999997
 40
0.9374999999999997
 40
1.0
 40
1.0
 40
1.0
 40
1.0
 10
12.69526659534847
 20
3.110868378972613
 30
0.0
 10
12.63506259649243
 20
2.932470663225599
 30
0.0
 10
12.54354641939015
 20
2.766361534377579
 30
0.0
 10
12.30158941258441
 20
2.466629137384546
 30
0.0
 10
12.15624685523668
 20
2.339430709631225
 30
0.0
 10
11.82339104763222
 20
2.137469851763711
 30
0.0
 10
11.64151903361893
 20
2.066368394110535
 30
0.0
 10
11.25753637772045
 20
1.989877997622132
 30
0.0
 10
11.0583513389723
 20
1.986166009164507
 30
0.0
 10
10.67547425898067
 20
2.046402162664149
 30
0.0
 10
10.48723580197301
 20
2.111329681322341
 30
0.0
 10
10.14965492716952
 20
2.298031621293689
 30
0.0
 10
9.996034124433242
 20
2.422054961838533
 30
0.0
 10
9.74483503673694
 20
2.708698634461895
 30
0.0
 10
9.644239065927943
 20
2.874676198218546
 30
0.0
 10
9.510025346356185
 20
3.223043067444732
 30
0.0
 10
9.474955252778875
 20
3.409101007585138
 30
0.0
 10
9.475022439454458
 20
3.682803220662723
 30
0.0
 10
9.483794657002221
 20
3.774954167618319
 30
0.0
 10
9.51825842455603
 20
3.953300064312229
 30
0.0
 10
9.543753499391503
 20
4.039791735675598
 30
0.0
 10
9.611132608846454
 20
4.207591560714839
 30
0.0
 10
9.653509755168447
 20
4.289439467996065
 30
0.0
 10
9.751885012087042
 20
4.442067350090319
 30
0.0
 10
9.808030415183286
 20
4.513547302352983
 30
0.0
 10
9.934304940789104
 20
4.647075483971634
 30
0.0
 10
10.00482271767802
 20
4.7091927883623
 30
0.0
 10
10.15466293332873
 20
4.819332414713238
 30
0.0
 10
10.23455396040555
 20
4.868059107376629
 30
0.0
 10
10.48944540194026
 20
4.99528280611549
 30
0.0
 10
10.67513985466428
 20
5.052332639564283
 30
0.0
 10
11.06127689049337
 20
5.106230546334821
 30
0.0
 10
11.25737277870784
 20
5.102700425861452
 30
0.0
 10
11.64162501818102
 20
5.03438465209672
 30
0.0
 10
11.82300713919361
 20
4.97112412350096
 30
0.0
 10
12.15704935254139
 20
4.787372026058473
 30
0.0
 10
12.3020479612668
 20
4.671128755219772
 30
0.0
 10
12.54348372166078
 20
4.392434048893986
 30
0.0
 10
12.63525073455551
 20
4.234879707599906
 30
0.0
 10
12.69526659534847
 20
4.063186131233257
 30
0.0
  0
SPLINE
  5
2D0
330
1F
100
AcDbEntity
  8
1
  6
SLD-Dashed
370
    18
100
AcDbSpline
210
0.0
220
0.0
230
1.0
 70
    24
 71
     3
 72
     8
 73
     4
 74
     0
 42
0.000000001
 43
0.00000001
 40
0.0
 40
0.0
 40
0.0
 40
0.0
 40
0.5
 40
0.5
 40
0.5
 40
0.5
 10
20.05000000000003
 20
37.49999999999999
 30
0.0
 10
19.81373257004397
 20
37.49999999999999
 30
0.0
 10
19.57634367142876
 20
37.49999999999999
 30
0.0
 10
19.38745793474544
 20
37.49999999999999
 30
0.0
  0
SPLINE
  5
2D1
330
1F
100
AcDbEntity
  8
SK3
  6
SLD-Dashed
370
    18
100
AcDbSpline
210
0.0
220
0.0
230
1.0
 70
    24
 71
     3
 72
     8
 73
     4
 74
     0
 42
0.000000001
 43
0.00000001
 40
0.5
 40
0.5
 40
0.5
 40
0.5
 40
0.75
 40
0.75
 40
0.75
 40
0.75
 10
19.38745793474544
 20
37.49999999999999
 30
0.0
 10
19.29301506640384
 20
37.49999999999999
 30
0.0
 10
19.21075712269556
 20
37.49999999999999
 30
0.0
 10
19.1502032274591
 20
37.49999999999999
 30
0.0
  0
SPLINE
  5
2D2
330
1F
100
AcDbEntity
  8
SK3
  6
SLD-Dashed
370
    18
100
AcDbSpline
210
0.0
220
0.0
230
1.0
 70
    24
 71
     2
 72
     6
 73
     3
 74
     0
 42
0.000000001
 43
0.00000001
 40
0.75
 40
0.75
 40
0.75
 40
1.0
 40
1.0
 40
1.0
 10
19.1502032274591
 20
37.49999999999999
 30
0.0
 10
19.08964933222265
 20
37.49999999999999
 30
0.0
 10
19.05000000000004
 20
37.49999999999999
 30
0.0
  0
SPLINE
  5
2D3
330
1F
100
AcDbEntity
  8
SK3
  6
SLD-Dashed
370
    18
100
AcDbSpline
210
0.0
220
0.0
230
1.0
 70
     8
 71
     3
 72
    34
 73
    30
 74
     0
 42
0.000000001
 43
0.00000001
 40
0.4999999999999981
 40
0.4999999999999981
 40
0.4999999999999981
 40
0.4999999999999981
 40
0.5312499999999982
 40
0.5312499999999982
 40
0.5624999999999984
 40
0.5624999999999984
 40
0.5937499999999986
 40
0.5937499999999986
 40
0.6249999999999988
 40
0.6249999999999988
 40
0.6562499999999989
 40
0.6562499999999989
 40
0.6874999999999991
 40
0.6874999999999991
 40
0.7500000000000003
 40
0.7500000000000003
 40
0.8125000000000009
 40
0.8125000000000009
 40
0.8437500000000007
 40
0.8437500000000007
 40
0.8750000000000006
 40
0.8750000000000006
 40
0.9062500000000003
 40
0.9062500000000003
 40
0.9375000000000002
 40
0.9375000000000002
 40
0.96875
 40
0.96875
 40
1.0
 40
1.0
 40
1.0
 40
1.0
 10
9.638805742161846
 20
10.95392502366155
 30
0.0
 10
9.693881160736453
 20
10.84705887039514
 30
0.0
 10
9.763179283156814
 20
10.74439645836092
 30
0.0
 10
9.923515798150165
 20
10.55592715127707
 30
0.0
 10
10.01390276352473
 20
10.47020735344792
 30
0.0
 10
10.21445694949234
 20
10.3129655272888
 30
0.0
 10
10.32267837600233
 20
10.24333508542234
 30
0.0
 10
10.54307526498148
 20
10.12288935951398
 30
0.0
 10
10.65791658596849
 20
10.0707037473173
 30
0.0
 10
10.87819871141012
 20
9.984463182040972
 30
0.0
 10
10.9860809461116
 20
9.949205279737958
 30
0.0
 10
11.18968749579617
 20
9.892304259469139
 30
0.0
 10
11.28527842069105
 20
9.87058004861397
 30
0.0
 10
11.55898297450242
 20
9.820769890310139
 30
0.0
 10
11.72337034356713
 20
9.808096789548914
 30
0.0
 10
12.02194861504779
 20
9.821477532699955
 30
0.0
 10
12.15920875119779
 20
9.847310188176937
 30
0.0
 10
12.34760730605769
 20
9.927824692744641
 30
0.0
 10
12.40688352391468
 20
9.961503747003594
 30
0.0
 10
12.51780294837562
 20
10.04749808647203
 30
0.0
 10
12.56969006353055
 20
10.10021829085855
 30
0.0
 10
12.65991931900849
 20
10.22933776798955
 30
0.0
 10
12.69929072119655
 20
10.30748393412844
 30
0.0
 10
12.75586568636482
 20
10.4930273204106
 30
0.0
 10
12.77303399215496
 20
10.60290348381533
 30
0.0
 10
12.77663319740259
 20
10.83901366027946
 30
0.0
 10
12.76306993948378
 20
10.96766771108162
 30
0.0
 10
12.71170841969946
 20
11.21837738140183
 30
0.0
 10
12.67469993892516
 20
11.34057418425363
 30
0.0
 10
12.63040931107552
 20
11.45745606890591
 30
0.0
  0
SPLINE
  5
2D4
330
1F
100
AcDbEntity
  8
SK3
  6
SLD-Dashed
370
    18
100
AcDbSpline
210
0.0
220
0.0
230
1.0
 70
     8
 71
     3
 72
    26
 73
    22
 74
     0
 42
0.000000001
 43
0.00000001
 40
0.0
 40
0.0
 40
0.0
 40
0.0
 40
0.0624999999999994
 40
0.0624999999999994
 40
0.1249999999999989
 40
0.1249999999999989
 40
0.1874999999999983
 40
0.1874999999999983
 40
0.2499999999999978
 40
0.2499999999999978
 40
0.2812499999999979
 40
0.2812499999999979
 40
0.312499999999998
 40
0.312499999999998
 40
0.3749999999999979
 40
0.3749999999999979
 40
0.4374999999999978
 40
0.4374999999999978
 40
0.4687499999999979
 40
0.4687499999999979
 40
0.4999999999999981
 40
0.4999999999999981
 40
0.4999999999999981
 40
0.4999999999999981
 10
12.63040931107552
 20
11.45745606890591
 30
0.0
 10
12.54182805537622
 20
11.69121983821047
 30
0.0
 10
12.43200682775367
 20
11.89056157115204
 30
0.0
 10
12.18419932759148
 20
12.25514411813773
 30
0.0
 10
12.04834522926905
 20
12.41463399152648
 30
0.0
 10
11.75314013646113
 20
12.69173524411824
 30
0.0
 10
11.59091385222408
 20
12.81202758601149
 30
0.0
 10
11.2300472901949
 20
12.9924143079326
 30
0.0
 10
11.02728334192529
 20
13.05343833574658
 30
0.0
 10
10.69987000905165
 20
13.05646994226843
 30
0.0
 10
10.58531472788921
 20
13.04197607005521
 30
0.0
 10
10.36396153134607
 20
12.97944613660276
 30
0.0
 10
10.2544996195266
 20
12.93102694430322
 30
0.0
 10
9.947578697971124
 20
12.7394816191428
 30
0.0
 10
9.77664657830707
 20
12.55346040827487
 30
0.0
 10
9.542451961566126
 20
12.1267803099924
 30
0.0
 10
9.47861205537788
 20
11.88580640702569
 30
0.0
 10
9.473421112414323
 20
11.52565520755315
 30
0.0
 10
9.4863458986527
 20
11.40749361566869
 30
0.0
 10
9.54139061562112
 20
11.17459151908681
 30
0.0
 10
9.583730323587226
 20
11.06079117692796
 30
0.0
 10
9.638805742161846
 20
10.95392502366155
 30
0.0
  0
SPLINE
  5
2D5
330
1F
100
AcDbEntity
  8
SK3
  6
SLD-Dashed
370
    18
100
AcDbSpline
210
0.0
220
0.0
230
1.0
 70
    24
 71
     3
 72
     8
 73
     4
 74
     0
 42
0.000000001
 43
0.00000001
 40
0.0
 40
0.0
 40
0.0
 40
0.0
 40
0.5
 40
0.5
 40
0.5
 40
0.5
 10
3.200000000000022
 20
-35.3
 30
0.0
 10
3.280283515398261
 20
-35.30000000000001
 30
0.0
 10
3.357808972364096
 20
-35.30000000000001
 30
0.0
 10
3.42292565559768
 20
-35.3
 30
0.0
  0
SPLINE
  5
2D6
330
1F
100
AcDbEntity
  8
SK3
  6
SLD-Dashed
370
    18
100
AcDbSpline
210
0.0
220
0.0
230
1.0
 70
    24
 71
     2
 72
     6
 73
     3
 74
     0
 42
0.000000001
 43
0.00000001
 40
0.5
 40
0.5
 40
0.5
 40
1.0
 40
1.0
 40
1.0
 10
3.42292565559768
 20
-35.3
 30
0.0
 10
3.488042338831238
 20
-35.3
 30
0.0
 10
3.540734241122126
 20
-35.3
 30
0.0
  0
SPLINE
  5
2D7
330
1F
100
AcDbEntity
  8
SK3
  6
SLD-Dashed
370
    18
100
AcDbSpline
210
0.0
220
0.0
230
1.0
 70
    24
 71
     3
 72
     8
 73
     4
 74
     0
 42
0.000000001
 43
0.00000001
 40
0.0
 40
0.0
 40
0.0
 40
0.0
 40
0.5000000000000038
 40
0.5000000000000038
 40
0.5000000000000038
 40
0.5000000000000038
 10
19.05000000000001
 20
37.49999999999999
 30
0.0
 10
18.95300153904331
 20
37.49999999999999
 30
0.0
 10
18.85835029351498
 20
37.49999999999999
 30
0.0
 10
18.77660746748924
 20
37.5
 30
0.0
  0
SPLINE
  5
2D8
330
1F
100
AcDbEntity
  8
SK3
  6
SLD-Dashed
370
    18
100
AcDbSpline
210
0.0
220
0.0
230
1.0
 70
    24
 71
     3
 72
     8
 73
     4
 74
     0
 42
0.000000001
 43
0.00000001
 40
0.5000000000000038
 40
0.5000000000000038
 40
0.5000000000000038
 40
0.5000000000000038
 40
0.7500000000000019
 40
0.7500000000000019
 40
0.7500000000000019
 40
0.7500000000000019
 10
18.77660746748924
 20
37.5
 30
0.0
 10
18.73573605447641
 20
37.5
 30
0.0
 10
18.69841486655384
 20
37.49999999999999
 30
0.0
 10
18.66965771128296
 20
37.5
 30
0.0
  0
SPLINE
  5
2D9
330
1F
100
AcDbEntity
  8
SK3
  6
SLD-Dashed
370
    18
100
AcDbSpline
210
0.0
220
0.0
230
1.0
 70
    24
 71
     2
 72
     6
 73
     3
 74
     0
 42
0.000000001
 43
0.00000001
 40
0.7500000000000019
 40
0.7500000000000019
 40
0.7500000000000019
 40
1.0
 40
1.0
 40
1.0
 10
18.66965771128296
 20
37.5
 30
0.0
 10
18.64090055601207
 20
37.49999999999999
 30
0.0
 10
18.62218928607419
 20
37.49999999999999
 30
0.0
  0
SPLINE
  5
2DA
330
1F
100
AcDbEntity
  8
SK3
  6
SLD-Dashed
370
    18
100
AcDbSpline
210
0.0
220
0.0
230
1.0
 70
     8
 71
     3
 72
    11
 73
     7
 74
     0
 42
0.000000001
 43
0.00000001
 40
0.0
 40
0.0
 40
0.0
 40
0.0
 40
0.2504168660224538
 40
0.5016257008357723
 40
0.7504780074741899
 40
1.0
 40
1.0
 40
1.0
 40
1.0
 10
18.70926633135092
 20
-36.11950440351671
 30
0.0
 10
18.70967586969134
 20
-36.09263404595901
 30
0.0
 10
18.71049624157883
 20
-36.03880835060683
 30
0.0
 10
18.71718458728851
 20
-35.95852125621005
 30
0.0
 10
18.72748533070093
 20
-35.87871405823199
 30
0.0
 10
18.73793487723988
 20
-35.82626150598081
 30
0.0
 10
18.74316667125048
 20
-35.79999998853752
 30
0.0
  0
SPLINE
  5
2DB
330
1F
100
AcDbEntity
  8
SK3
  6
SLD-Dashed
370
    18
100
AcDbSpline
210
0.0
220
0.0
230
1.0
 70
     8
 71
     3
 72
    18
 73
    14
 74
     0
 42
0.000000001
 43
0.00000001
 40
0.0
 40
0.0
 40
0.0
 40
0.0
 40
0.0504004858225458
 40
0.1007665221174997
 40
0.1867126465292665
 40
0.2507066467676068
 40
0.3759062713831572
 40
0.5002764008996339
 40
0.6254714139541746
 40
0.749972488319216
 40
0.875052772410172
 40
0.937299738345279
 40
1.0
 40
1.0
 40
1.0
 40
1.0
 10
3.950000000000482
 20
46.32591742210879
 30
0.0
 10
3.943271386980128
 20
46.32575349006543
 30
0.0
 10
3.929818760052607
 20
46.32542573802885
 30
0.0
 10
3.905073415705646
 20
46.32218172191389
 30
0.0
 10
3.879001527012011
 20
46.31586322584128
 30
0.0
 10
3.844627595846127
 20
46.30279161325065
 30
0.0
 10
3.807993140099289
 20
46.28191973811036
 30
0.0
 10
3.770105343280789
 20
46.24878263737193
 30
0.0
 10
3.739444161382847
 20
46.20898824825936
 30
0.0
 10
3.716845852189288
 20
46.16402922411027
 30
0.0
 10
3.705447888691025
 20
46.12375195953563
 30
0.0
 10
3.700671769855932
 20
46.09066570075008
 30
0.0
 10
3.700224464211643
 20
46.0739835235762
 30
0.0
 10
3.700000000000023
 20
46.06561217437581
 30
0.0
  0
SPLINE
  5
2DC
330
1F
100
AcDbEntity
  8
1
  6
SLD-Dashed
370
    18
100
AcDbSpline
210
0.0
220
0.0
230
1.0
 70
     8
 71
     3
 72
     8
 73
     4
 74
     0
 42
0.000000001
 43
0.00000001
 40
0.0
 40
0.0
 40
0.0
 40
0.0
 40
1.0
 40
1.0
 40
1.0
 40
1.0
 10
9.185000000001711
 20
44.61432468190424
 30
0.0
 10
8.868459357490181
 20
45.18504791213329
 30
0.0
 10
8.551560425579831
 20
45.75557320879956
 30
0.0
 10
8.234341192004196
 20
46.3259174221083
 30
0.0
  0
SPLINE
  5
2DD
330
1F
100
AcDbEntity
  8
1
  6
SLD-Dashed
370
    18
100
AcDbSpline
210
0.0
220
0.0
230
1.0
 70
     8
 71
     3
 72
    12
 73
     8
 74
     0
 42
0.000000001
 43
0.00000001
 40
0.0
 40
0.0
 40
0.0
 40
0.0
 40
0.2499999999999992
 40
0.2499999999999992
 40
0.4999999999999984
 40
0.4999999999999984
 40
1.0
 40
1.0
 40
1.0
 40
1.0
 10
9.935000000000013
 20
43.63301502303045
 30
0.0
 10
9.83520514759724
 20
43.63301502303046
 30
0.0
 10
9.733240692232956
 20
43.65476370384824
 30
0.0
 10
9.550454989704527
 20
43.73569606259785
 30
0.0
 10
9.467052381540622
 20
43.7954786136295
 30
0.0
 10
9.262287341897213
 20
44.01372059499529
 30
0.0
 10
9.185000000000013
 20
44.21436013461166
 30
0.0
 10
9.185000000000013
 20
44.41455279522693
 30
0.0
  0
SPLINE
  5
2DE
330
1F
100
AcDbEntity
  8
1
  6
SLD-Dashed
370
    18
100
AcDbSpline
210
0.0
220
0.0
230
1.0
 70
     8
 71
     3
 72
    14
 73
    10
 74
     0
 42
0.000000001
 43
0.00000001
 40
0.0
 40
0.0
 40
0.0
 40
0.0
 40
0.25
 40
0.25
 40
0.5
 40
0.5
 40
0.75
 40
0.75
 40
1.0
 40
1.0
 40
1.0
 40
1.0
 10
13.01500000000003
 20
44.41455279522695
 30
0.0
 10
13.01500000000003
 20
44.31359684058483
 30
0.0
 10
12.99639812341778
 20
44.21433752079796
 30
0.0
 10
12.92346523542381
 20
44.02713873906653
 30
0.0
 10
12.86944851074745
 20
43.94089204401605
 30
0.0
 10
12.7324418153637
 20
43.79501127808648
 30
0.0
 10
12.64943646355131
 20
43.73552784744924
 30
0.0
 10
12.46539582722484
 20
43.65428111190433
 30
0.0
 10
12.36593956396781
 20
43.63301502303045
 30
0.0
 10
12.26500000000003
 20
43.63301502303045
 30
0.0
  0
SPLINE
  5
2DF
330
1F
100
AcDbEntity
  8
1
  6
SLD-Dashed
370
    18
100
AcDbSpline
210
0.0
220
0.0
230
1.0
 70
     8
 71
     3
 72
     8
 73
     4
 74
     0
 42
0.000000001
 43
0.00000001
 40
0.0
 40
0.0
 40
0.0
 40
0.0
 40
1.0
 40
1.0
 40
1.0
 40
1.0
 10
14.03288902614304
 20
46.44678265130199
 30
0.0
 10
13.69321289773573
 20
45.83617629652652
 30
0.0
 10
13.35390117994488
 20
45.22536399303799
 30
0.0
 10
13.01500000000003
 20
44.6143246819073
 30
0.0
  0
SPLINE
  5
2E0
330
1F
100
AcDbEntity
  8
SK3
  6
SLD-Dashed
370
    18
100
AcDbSpline
210
0.0
220
0.0
230
1.0
 70
     8
 71
     3
 72
    32
 73
    28
 74
     0
 42
0.000000001
 43
0.00000001
 40
0.0
 40
0.0
 40
0.0
 40
0.0
 40
0.0314240600189745
 40
0.062734398378341
 40
0.1252671195991895
 40
0.1539479798762275
 40
0.1970410606558825
 40
0.2505123763887034
 40
0.2789469272819378
 40
0.3216205192492424
 40
0.3752542707031759
 40
0.4039950529482431
 40
0.4468668296625108
 40
0.5002061031474543
 40
0.5286743402053793
 40
0.5715404837496577
 40
0.6253829155263885
 40
0.6539178144984554
 40
0.696594872331744
 40
0.749970484446759
 40
0.7785952793370768
 40
0.8217116205659645
 40
0.8751774006865103
 40
0.9000490867714404
 40
0.9373737627497141
 40
0.9685901628600515
 40
1.0
 40
1.0
 40
1.0
 40
1.0
 10
18.62218928607419
 20
46.11166610221764
 30
0.0
 10
18.62211624027865
 20
46.11707374988724
 30
0.0
 10
18.62197041303561
 20
46.12786947529602
 30
0.0
 10
18.62041915519291
 20
46.14937746219463
 30
0.0
 10
18.6175079491248
 20
46.17029200001401
 30
0.0
 10
18.61275238859267
 20
46.19291280164115
 30
0.0
 10
18.60719803469735
 20
46.21375075976783
 30
0.0
 10
18.60016285588052
 20
46.23410320713971
 30
0.0
 10
18.59192353304431
 20
46.2538982223784
 30
0.0
 10
18.58261636913407
 20
46.27325596063736
 30
0.0
 10
18.57188583497524
 20
46.29193707658347
 30
0.0
 10
18.55999017850073
 20
46.30991405935838
 30
0.0
 10
18.54714614870623
 20
46.32717567592832
 30
0.0
 10
18.53307210809922
 20
46.34340385785899
 30
0.0
 10
18.51800245656523
 20
46.35867967211448
 30
0.0
 10
18.50202722630448
 20
46.37315110267238
 30
0.0
 10
18.48496808972175
 20
46.38636805939147
 30
0.0
 10
18.4671195072946
 20
46.39839721854263
 30
0.0
 10
18.44867118385438
 20
46.40934951709379
 30
0.0
 10
18.42939906430602
 20
46.41884244661145
 30
0.0
 10
18.40948636726697
 20
46.42704191413303
 30
0.0
 10
18.38909981339126
 20
46.43406447150136
 30
0.0
 10
18.36883159732025
 20
46.43928104451225
 30
0.0
 10
18.34927318427816
 20
46.44298612094715
 30
0.0
 10
18.33333531275558
 20
46.44514176527449
 30
0.0
 10
18.31618254253602
 20
46.44653827094996
 30
0.0
 10
18.3054052769521
 20
46.44670102361701
 30
0.0
 10
18.30000000000001
 20
46.44678265130199
 30
0.0
  0
SPLINE
  5
2E1
330
1F
100
AcDbEntity
  8
SK3
  6
SLD-Dashed
370
    18
100
AcDbSpline
210
0.0
220
0.0
230
1.0
 70
     8
 71
     3
 72
    41
 73
    37
 74
     0
 42
0.000000001
 43
0.00000001
 40
0.0
 40
0.0
 40
0.0
 40
0.0
 40
0.015763367828879
 40
0.0314990230220033
 40
0.0629214004486996
 40
0.0880715314027462
 40
0.1258724876834421
 40
0.1545373471801051
 40
0.1716556505526658
 40
0.197267462438131
 40
0.2185805650008313
 40
0.2505536137402363
 40
0.2790376845353497
 40
0.3220404224008296
 40
0.3436278462057005
 40
0.375819443416851
 40
0.4042923969959308
 40
0.4468999480943489
 40
0.468211933421824
 40
0.5002468979892883
 40
0.5288594519453671
 40
0.5719881181874477
 40
0.5934450419903455
 40
0.6254929607039703
 40
0.6539109925287949
 40
0.6965265367153771
 40
0.7178831640921479
 40
0.7500336383417275
 40
0.7787834929456724
 40
0.821765692998236
 40
0.8431488478212974
 40
0.8751518073687297
 40
0.9000180003771362
 40
0.9373587342939169
 40
0.9685910075823156
 40
1.0
 40
1.0
 40
1.0
 40
1.0
 10
18.30000000000753
 20
-46.51242658449428
 30
0.0
 10
18.30344671826295
 20
-46.51240031163593
 30
0.0
 10
18.31033409530426
 20
-46.51234781210799
 30
0.0
 10
18.32408218626066
 20
-46.51178732672589
 30
0.0
 10
18.33985148231388
 20
-46.51055233493226
 30
0.0
 10
18.36032769918294
 20
-46.50795999755812
 30
0.0
 10
18.38005641701604
 20
-46.504408085273
 30
0.0
 10
18.39784334418589
 20
-46.50018148076111
 30
0.0
 10
18.41288462121285
 20
-46.49599897280812
 30
0.0
 10
18.42623916107352
 20
-46.49177209291327
 30
0.0
 10
18.44247539561264
 20
-46.48593477151222
 30
0.0
 10
18.45902680495733
 20
-46.47915018794431
 30
0.0
 10
18.47951467901619
 20
-46.46954480751414
 30
0.0
 10
18.49742253658011
 20
-46.45983698295186
 30
0.0
 10
18.5154760577388
 20
-46.4487926198518
 30
0.0
 10
18.53040380397079
 20
-46.43874652654725
 30
0.0
 10
18.54850420128106
 20
-46.42523653992757
 30
0.0
 10
18.56399929524408
 20
-46.41224689108934
 30
0.0
 10
18.57937348864088
 20
-46.39796718527241
 30
0.0
 10
18.59198791987158
 20
-46.38522673780773
 30
0.0
 10
18.60716979990534
 20
-46.36835545958508
 30
0.0
 10
18.61994352995004
 20
-46.35245563063668
 30
0.0
 10
18.63233940666789
 20
-46.33534226156677
 30
0.0
 10
18.64224354032499
 20
-46.32040736167234
 30
0.0
 10
18.65382058703296
 20
-46.30106285603023
 30
0.0
 10
18.6632467080481
 20
-46.28317723048011
 30
0.0
 10
18.67213426492757
 20
-46.26412934079065
 30
0.0
 10
18.67907733196669
 20
-46.24752959376322
 30
0.0
 10
18.68687481909451
 20
-46.22619031635801
 30
0.0
 10
18.69282857948623
 20
-46.20670370918114
 30
0.0
 10
18.69801196539568
 20
-46.18627815340636
 30
0.0
 10
18.70155848119551
 20
-46.16953270749499
 30
0.0
 10
18.70497668789663
 20
-46.14921524666856
 30
0.0
 10
18.70741382943096
 20
-46.12892134973519
 30
0.0
 10
18.70899064493655
 20
-46.10710628606029
 30
0.0
 10
18.70917426320913
 20
-46.09340870147416
 30
0.0
 10
18.70926633135092
 20
-46.08654058785038
 30
0.0
  0
SPLINE
  5
2E2
330
1F
100
AcDbEntity
  8
1
  6
SLD-Dashed
370
    18
100
AcDbSpline
210
0.0
220
0.0
230
1.0
 70
     8
 71
     3
 72
     8
 73
     4
 74
     0
 42
0.000000001
 43
0.00000001
 40
0.0
 40
0.0
 40
0.0
 40
0.0
 40
1.0
 40
1.0
 40
1.0
 40
1.0
 10
14.06940814166345
 20
-46.51242658449428
 30
0.0
 10
13.7175288947886
 20
-45.87994762987059
 30
0.0
 10
13.36604309198834
 20
-45.2472558777817
 30
0.0
 10
13.01500000000003
 20
-44.61432468190731
 30
0.0
  0
SPLINE
  5
2E3
330
1F
100
AcDbEntity
  8
1
  6
SLD-Dashed
370
    18
100
AcDbSpline
210
0.0
220
0.0
230
1.0
 70
     8
 71
     3
 72
    12
 73
     8
 74
     0
 42
0.000000001
 43
0.00000001
 40
0.0
 40
0.0
 40
0.0
 40
0.0
 40
0.5000000000000063
 40
0.5000000000000063
 40
0.7500000000000031
 40
0.7500000000000031
 40
1.0
 40
1.0
 40
1.0
 40
1.0
 10
13.01500000000089
 20
-44.41455279522783
 30
0.0
 10
13.01500000000108
 20
-44.21464324025574
 30
0.0
 10
12.93742224982744
 20
-44.01319670577892
 30
0.0
 10
12.73251213771302
 20
-43.79512211107152
 30
0.0
 10
12.64883068651125
 20
-43.73525024845268
 30
0.0
 10
12.46587661012806
 20
-43.65450353783447
 30
0.0
 10
12.36573901357175
 20
-43.63301502303032
 30
0.0
 10
12.26500000000003
 20
-43.63301502303044
 30
0.0
  0
SPLINE
  5
2E4
330
1F
100
AcDbEntity
  8
1
  6
SLD-Dashed
370
    18
100
AcDbSpline
210
0.0
220
0.0
230
1.0
 70
     8
 71
     3
 72
    12
 73
     8
 74
     0
 42
0.000000001
 43
0.00000001
 40
0.0
 40
0.0
 40
0.0
 40
0.0
 40
0.2500000000000007
 40
0.2500000000000007
 40
0.5000000000000014
 40
0.5000000000000014
 40
1.0
 40
1.0
 40
1.0
 40
1.0
 10
9.934999999999482
 20
-43.63301502303099
 30
0.0
 10
9.835119212571543
 20
-43.63301502303108
 30
0.0
 10
9.735031007328681
 20
-43.65414350767991
 30
0.0
 10
9.550755663024141
 20
-43.73539237502013
 30
0.0
 10
9.467863842962288
 20
-43.7946844232341
 30
0.0
 10
9.261421797277817
 20
-44.01450213782678
 30
0.0
 10
9.185000000000166
 20
-44.21514437565141
 30
0.0
 10
9.185000000000013
 20
-44.41455279522694
 30
0.0
  0
SPLINE
  5
2E5
330
1F
100
AcDbEntity
  8
1
  6
SLD-Dashed
370
    18
100
AcDbSpline
210
0.0
220
0.0
230
1.0
 70
     8
 71
     3
 72
     8
 73
     4
 74
     0
 42
0.000000001
 43
0.00000001
 40
0.0
 40
0.0
 40
0.0
 40
0.0
 40
1.0
 40
1.0
 40
1.0
 40
1.0
 10
9.184999999999263
 20
-44.61432468190947
 30
0.0
 10
8.833957030268458
 20
-45.24725565735336
 30
0.0
 10
8.482471350033673
 20
-45.87994718917829
 30
0.0
 10
8.130592225982031
 20
-46.51242592367743
 30
0.0
  0
SPLINE
  5
2E6
330
1F
100
AcDbEntity
  8
SK3
  6
SLD-Dashed
370
    18
100
AcDbSpline
210
0.0
220
0.0
230
1.0
 70
     8
 71
     3
 72
    41
 73
    37
 74
     0
 42
0.000000001
 43
0.00000001
 40
0.0
 40
0.0
 40
0.0
 40
0.0
 40
0.0125872535165518
 40
0.0314228811658762
 40
0.0627299160761198
 40
0.0877396402445494
 40
0.1252707860180521
 40
0.1539475310863342
 40
0.1970376114413535
 40
0.218472191580968
 40
0.2505163810630188
 40
0.2789486890571635
 40
0.3216178737058085
 40
0.3430092670283698
 40
0.3752545151150564
 40
0.4040075593230467
 40
0.4468636567685119
 40
0.4682153832035276
 40
0.5002095111372521
 40
0.5286749472234052
 40
0.5715354253984807
 40
0.593095529694743
 40
0.6253853862300829
 40
0.6539186125542218
 40
0.696592150787572
 40
0.7179244320796832
 40
0.7499744877497604
 40
0.7785960197655638
 40
0.7958518822083908
 40
0.8217151667720851
 40
0.8431553291442532
 40
0.8751891354698759
 40
0.9000585620688416
 40
0.9373796874925158
 40
0.968593090322145
 40
1.0
 40
1.0
 40
1.0
 40
1.0
 10
3.540734241121367
 20
-46.08654052193388
 30
0.0
 10
3.540749832742806
 20
-46.08929270874084
 30
0.0
 10
3.540788755742727
 20
-46.09616328132976
 30
0.0
 10
3.541250422912026
 20
-46.10987325227907
 30
0.0
 10
3.542385707281776
 20
-46.12627196928853
 30
0.0
 10
3.544669651677246
 20
-46.14666798304436
 30
0.0
 10
3.547803066621717
 20
-46.16637648976822
 30
0.0
 10
3.552713567643841
 20
-46.18976991812664
 30
0.0
 10
3.557963758879187
 20
-46.20947731013947
 30
0.0
 10
3.564376858369044
 20
-46.22959674698208
 30
0.0
 10
3.570498661419766
 20
-46.24643596160109
 30
0.0
 10
3.579161147702495
 20
-46.26726437857378
 30
0.0
 10
3.587926764157196
 20
-46.28550759372988
 30
0.0
 10
3.597958610874498
 20
-46.30402406036281
 30
0.0
 10
3.607186255118559
 20
-46.31950512349001
 30
0.0
 10
3.619713406232776
 20
-46.33845149193096
 30
0.0
 10
3.631852583599073
 20
-46.35477577804844
 30
0.0
 10
3.645230674484728
 20
-46.37101067458969
 30
0.0
 10
3.657176250599855
 20
-46.38433661964959
 30
0.0
 10
3.673039938342237
 20
-46.40042845708759
 30
0.0
 10
3.688100095342745
 20
-46.41408143065876
 30
0.0
 10
3.704477275417074
 20
-46.42746169858368
 30
0.0
 10
3.718907396751082
 20
-46.43825808230088
 30
0.0
 10
3.737674334547926
 20
-46.45091394473882
 30
0.0
 10
3.755085824339143
 20
-46.46125765363328
 30
0.0
 10
3.773678620949613
 20
-46.47103135543622
 30
0.0
 10
3.789904663491313
 20
-46.47868085357528
 30
0.0
 10
3.80566430039439
 20
-46.48517433718751
 30
0.0
 10
3.820383594571513
 20
-46.49060021253666
 30
0.0
 10
3.833797714339559
 20
-46.49501027273951
 30
0.0
 10
3.850478284950609
 20
-46.49978253976447
 30
0.0
 10
3.867148508050602
 20
-46.50376085144065
 30
0.0
 10
3.887395137600433
 20
-46.50759929423864
 30
0.0
 10
3.907644966194681
 20
-46.51033968585604
 30
0.0
 10
3.929438847475722
 20
-46.51211523334231
 30
0.0
 10
3.943132177626429
 20
-46.51232214710011
 30
0.0
 10
3.949999999999274
 20
-46.51242592367741
 30
0.0
  0
SPLINE
  5
2E7
330
1F
100
AcDbEntity
  8
SK3
  6
SLD-Dashed
370
    18
100
AcDbSpline
210
0.0
220
0.0
230
1.0
 70
     8
 71
     3
 72
    34
 73
    30
 74
     0
 42
0.000000001
 43
0.00000001
 40
0.5000000000000033
 40
0.5000000000000033
 40
0.5000000000000033
 40
0.5000000000000033
 40
0.5625000000000039
 40
0.5625000000000039
 40
0.5937500000000036
 40
0.5937500000000036
 40
0.6250000000000033
 40
0.6250000000000033
 40
0.6562500000000031
 40
0.6562500000000031
 40
0.6875000000000028
 40
0.6875000000000028
 40
0.7187500000000026
 40
0.7187500000000026
 40
0.7500000000000023
 40
0.7500000000000023
 40
0.7812500000000021
 40
0.7812500000000021
 40
0.8125000000000018
 40
0.8125000000000018
 40
0.8437500000000016
 40
0.8437500000000016
 40
0.8750000000000013
 40
0.8750000000000013
 40
0.9062500000000011
 40
0.9062500000000011
 40
0.9375000000000008
 40
0.9375000000000008
 40
1.0
 40
1.0
 40
1.0
 40
1.0
 10
10.60808274902048
 20
14.67518531385683
 30
0.0
 10
10.77143994352722
 20
14.66271400222923
 30
0.0
 10
10.95396076821073
 20
14.63137977172298
 30
0.0
 10
11.25812245907616
 20
14.54691770596581
 30
0.0
 10
11.36641585866906
 20
14.51171888144407
 30
0.0
 10
11.58574352105282
 20
14.42634662926325
 30
0.0
 10
11.69715944869879
 20
14.37625545607624
 30
0.0
 10
11.9211718066789
 20
14.25483711630838
 30
0.0
 10
12.02893523597723
 20
14.18587333985302
 30
0.0
 10
12.22961030853029
 20
14.02983333564765
 30
0.0
 10
12.32267742835867
 20
13.94226901556113
 30
0.0
 10
12.48372543018653
 20
13.75415019217129
 30
0.0
 10
12.553660539161
 20
13.65130323099279
 30
0.0
 10
12.66489321927146
 20
13.43691773984462
 30
0.0
 10
12.7071773018843
 20
13.32435113894589
 30
0.0
 10
12.76326417564931
 20
13.08988167819468
 30
0.0
 10
12.77635511926062
 20
12.97149039057763
 30
0.0
 10
12.77342672652905
 20
12.73211084337585
 30
0.0
 10
12.7568497945824
 20
12.61060743991063
 30
0.0
 10
12.69552150102997
 20
12.37773497196929
 30
0.0
 10
12.65033349294087
 20
12.26373909474839
 30
0.0
 10
12.53298957942557
 20
12.04909612932819
 30
0.0
 10
12.4621453620085
 20
11.95022400081674
 30
0.0
 10
12.29651277322143
 20
11.77143410287192
 30
0.0
 10
12.20150676240368
 20
11.69219588739512
 30
0.0
 10
11.99926684334575
 20
11.56533020093853
 30
0.0
 10
11.88885801145316
 20
11.5158749716929
 30
0.0
 10
11.55399205333035
 20
11.42069275726636
 30
0.0
 10
11.32716468948121
 20
11.42871083881333
 30
0.0
 10
11.12500000000001
 20
11.48273236161768
 30
0.0
  0
SPLINE
  5
2E8
330
1F
100
AcDbEntity
  8
SK3
  6
SLD-Dashed
370
    18
100
AcDbSpline
210
0.0
220
0.0
230
1.0
 70
     8
 71
     3
 72
    30
 73
    26
 74
     0
 42
0.000000001
 43
0.00000001
 40
0.0
 40
0.0
 40
0.0
 40
0.0
 40
0.0625000000000004
 40
0.0625000000000004
 40
0.1250000000000008
 40
0.1250000000000008
 40
0.156250000000001
 40
0.156250000000001
 40
0.1875000000000012
 40
0.1875000000000012
 40
0.2187500000000014
 40
0.2187500000000014
 40
0.2500000000000016
 40
0.2500000000000016
 40
0.2812500000000018
 40
0.2812500000000018
 40
0.3125000000000019
 40
0.3125000000000019
 40
0.3437500000000021
 40
0.3437500000000021
 40
0.3750000000000023
 40
0.3750000000000023
 40
0.4375000000000028
 40
0.4375000000000028
 40
0.5000000000000033
 40
0.5000000000000033
 40
0.5000000000000033
 40
0.5000000000000033
 10
11.12500000000001
 20
11.48273236161768
 30
0.0
 10
10.92283531051882
 20
11.53675388442203
 30
0.0
 10
10.74714710048241
 20
11.63024516394937
 30
0.0
 10
10.42066988662177
 20
11.86454434722242
 30
0.0
 10
10.2737573747644
 20
12.00407384287219
 30
0.0
 10
10.0714894326849
 20
12.24177839203641
 30
0.0
 10
10.00699015299677
 20
12.32609339770691
 30
0.0
 10
9.883509956371231
 20
12.50701007175141
 30
0.0
 10
9.8242685730979
 20
12.60415729348412
 30
0.0
 10
9.715154706090384
 20
12.80934651131561
 30
0.0
 10
9.664396735733508
 20
12.91903622889816
 30
0.0
 10
9.57698186349916
 20
13.14891853741644
 30
0.0
 10
9.540303532497518
 20
13.26831266228059
 30
0.0
 10
9.487704529938052
 20
13.52080982106202
 30
0.0
 10
9.473745253198024
 20
13.64846695671313
 30
0.0
 10
9.47643808956057
 20
13.8870025785682
 30
0.0
 10
9.49319789642801
 20
13.99682053671483
 30
0.0
 10
9.549353346861217
 20
14.18374939795281
 30
0.0
 10
9.58858947784802
 20
14.26231510462451
 30
0.0
 10
9.678480018824306
 20
14.39201189392021
 30
0.0
 10
9.730204466999167
 20
14.44496665500988
 30
0.0
 10
9.89634859518447
 20
14.57471258814579
 30
0.0
 10
10.02083275682618
 20
14.6245520934731
 30
0.0
 10
10.29708420272973
 20
14.68178062150183
 30
0.0
 10
10.44472555451373
 20
14.68765662548442
 30
0.0
 10
10.60808274902048
 20
14.67518531385683
 30
0.0
  0
INSERT
  5
2E9
330
1F
100
AcDbEntity
  8
80
100
AcDbBlockReference
  2
Block12
 10
-61.7273641656
 20
-130.3356800267
 30
0.0
  0
INSERT
  5
2EA
330
1F
100
AcDbEntity
  8
81
100
AcDbBlockReference
  2
Block11
 10
8.3735173495
 20
-130.2676275275
 30
0.0
  0
DIMENSION
  5
2EB
330
1F
100
AcDbEntity
  8
SK2
100
AcDbDimension
  2
_D
 10
0.0
 20
54.6309521542
 30
0.0
 11
10.1559317397
 21
54.6309521542
 31
0.0
 70
   160
  1
<>
 71
     2
 42
-1.0
  3
SLDDIMSTYLE0
100
AcDbAlignedDimension
 13
19.05
 23
30.35
 33
0.0
 14
0.0
 24
34.925
 34
0.0
100
AcDbRotatedDimension
  0
DIMENSION
  5
2F7
330
1F
100
AcDbEntity
  8
SK2
100
AcDbDimension
  2
_D_1
 10
100.0
 20
54.6309521542
 30
0.0
 11
56.8459794842
 21
54.6309521542
 31
0.0
 70
   160
  1
<>
 71
     2
 42
-1.0
  3
SLDDIMSTYLE0
100
AcDbAlignedDimension
 13
19.05
 23
46.1116909097
 33
0.0
 14
100.0
 24
35.5
 34
0.0
 50
0.0
100
AcDbRotatedDimension
  0
DIMENSION
  5
301
330
1F
100
AcDbEntity
  8
SK2
100
AcDbDimension
  2
_D_2
 10
81.0
 20
45.5474430602
 30
0.0
 11
90.0740324793
 21
45.5474430602
 31
0.0
 70
   160
  1
<>
 71
     2
 42
-1.0
  3
SLDDIMSTYLE0
100
AcDbAlignedDimension
 13
100.0
 23
35.5
 33
0.0
 14
81.0
 24
37.25
 34
0.0
100
AcDbRotatedDimension
  0
DIMENSION
  5
30B
330
1F
100
AcDbEntity
  8
SK2
100
AcDbDimension
  2
_D_3
 10
37.5
 20
45.5474430602
 30
0.0
 11
58.7686805842
 21
45.5474430602
 31
0.0
 70
   160
  1
<>
 71
     2
 42
-1.0
  3
SLDDIMSTYLE0
100
AcDbAlignedDimension
 13
81.0
 23
37.25
 33
0.0
 14
37.5
 24
37.25
 34
0.0
100
AcDbRotatedDimension
  0
DIMENSION
  5
315
330
1F
100
AcDbEntity
  8
2
100
AcDbDimension
  2
_D_4
 10
0.0
 20
63.9473233577
 30
0.0
 11
47.2861108207
 21
63.9473233577
 31
0.0
 70
   160
  1
<>
 71
     2
 42
-1.0
  3
SLDDIMSTYLE0
100
AcDbAlignedDimension
 13
100.0
 23
35.5
 33
0.0
 14
0.0
 24
34.925
 34
0.0
100
AcDbRotatedDimension
  0
DIMENSION
  5
31F
330
1F
100
AcDbEntity
  8
SK2
100
AcDbDimension
  2
_D_5
 10
140.1444614766
 20
-37.5
 30
0.0
 11
140.1444614766
 21
0.1980839809
 31
0.0
 70
   160
  1
%%c<>
 71
     2
 42
-1.0
  3
SLDDIMSTYLE0
100
AcDbAlignedDimension
 13
98.0
 23
37.5
 33
0.0
 14
98.0
 24
-37.5
 34
0.0
 50
90.0
100
AcDbRotatedDimension
  0
DIMENSION
  5
32A
330
1F
100
AcDbEntity
  8
SK2
100
AcDbDimension
  2
_D_6
 10
129.2969114857
 20
-35.5
 30
0.0
 11
129.2969114857
 21
0.1980839809
 31
0.0
 70
   160
  1
%%c<>
 71
     2
 42
-1.0
  3
SLDDIMSTYLE0
100
AcDbAlignedDimension
 13
100.0
 23
35.5
 33
0.0
 14
100.0
 24
-35.5
 34
0.0
 50
90.0
100
AcDbRotatedDimension
  0
DIMENSION
  5
335
330
1F
100
AcDbEntity
  8
SK2
100
AcDbDimension
  2
_D_7
 10
119.3303096579
 20
-25.0
 30
0.0
 11
119.3303096579
 21
0.1980839809
 31
0.0
 70
   160
  1
%%c<>
 71
     2
 42
-1.0
  3
SLDDIMSTYLE0
100
AcDbAlignedDimension
 13
98.2679491924
 23
25.0
 33
0.0
 14
98.2679491924
 24
-25.0
 34
0.0
 50
90.0
100
AcDbRotatedDimension
  0
DIMENSION
  5
340
330
1F
100
AcDbEntity
  8
SK2
100
AcDbDimension
  2
_D_8
 10
21.5
 20
-46.5097487326
 30
0.0
 11
58.7686805842
 21
-46.5097487326
 31
0.0
 70
   160
  1
<>
 71
     2
 42
-1.0
  3
SLDDIMSTYLE0
100
AcDbAlignedDimension
 13
100.0
 23
-35.5
 33
0.0
 14
21.5
 24
-25.25
 34
0.0
 50
0.0
100
AcDbRotatedDimension
  0
DIMENSION
  5
34A
330
1F
100
AcDbEntity
  8
SK2
100
AcDbDimension
  2
_D_9
 10
-128.6099641274
 20
-46.8399994947
 30
0.0
 11
-128.6099641274
 21
-0.502454007
 31
0.0
 70
   160
  1
%%c<>
 71
     2
 42
-1.0
  3
SLDDIMSTYLE0
100
AcDbAlignedDimension
 13
3.95
 23
46.8062276079
 33
0.0
 14
3.95
 24
-46.8399994947
 34
0.0
 50
90.0
100
AcDbRotatedDimension
  0
DIMENSION
  5
355
330
1F
100
AcDbEntity
  8
SK2
100
AcDbDimension
  2
_D_10
 10
-118.3852315777
 20
-34.925
 30
0.0
 11
-118.3852315777
 21
-0.502454007
 31
0.0
 70
   160
  1
%%c<>
 71
     2
 42
-1.0
  3
SLDDIMSTYLE0
100
AcDbAlignedDimension
 13
0.0
 23
34.925
 33
0.0
 14
0.0
 24
-34.925
 34
0.0
 50
90.0
100
AcDbRotatedDimension
  0
DIMENSION
  5
360
330
1F
100
AcDbEntity
  8
SK2
100
AcDbDimension
  2
_D_11
 10
-109.5137629698
 20
12.0
 30
0.0
 11
-109.5137629698
 21
0.1980839809
 31
0.0
 70
   160
  1
M<>
 71
     2
 42
-1.0
  3
SLDDIMSTYLE0
100
AcDbAlignedDimension
 13
-89.3448185145
 23
-12.0
 33
0.0
 14
-89.3448185145
 24
12.0
 34
0.0
 50
90.0
100
AcDbRotatedDimension
  0
MTEXT
  5
36B
330
1F
100
AcDbEntity
  8
SK6
 62
     5
100
AcDbMText
 10
-101.8182021325
 20
-49.4765397478
 30
0.0
 40
3.5
 41
0.0
 71
     1
 72
     1
  1
A1B27-50 50 100
  7
SLDTEXTSTYLE0
 73
     1
 44
1.0
  0
INSERT
  5
371
330
1F
100
AcDbEntity
  8
SK6
 62
     5
100
AcDbBlockReference
  2
SW_NOTE_0
 10
-37.2422637478
 20
40.6558282549
 30
0.0
  0
ENDSEC
  0
SECTION
  2
OBJECTS
  0
DICTIONARY
  5
C
330
0
100
AcDbDictionary
281
     1
  3
ACAD_GROUP
350
D
  3
ACAD_LAYOUT
350
1A
  3
ACAD_MLINESTYLE
350
17
  3
ACAD_PLOTSETTINGS
350
19
  3
ACAD_PLOTSTYLENAME
350
E
  3
ACAD_SCALELIST
350
47
  0
DICTIONARY
  5
D
102
{ACAD_REACTORS
330
C
102
}
330
C
100
AcDbDictionary
281
     1
  0
DICTIONARY
  5
1A
102
{ACAD_REACTORS
330
C
102
}
330
C
100
AcDbDictionary
281
     1
  3
Layout1
350
1E
  3
Layout2
350
26
  3
Model
350
22
  0
DICTIONARY
  5
17
102
{ACAD_REACTORS
330
C
102
}
330
C
100
AcDbDictionary
281
     1
  3
Standard
350
18
  0
DICTIONARY
  5
19
102
{ACAD_REACTORS
330
C
102
}
330
C
100
AcDbDictionary
281
     1
  0
ACDBDICTIONARYWDFLT
  5
E
102
{ACAD_REACTORS
330
C
102
}
330
C
100
AcDbDictionary
281
     1
  3
Normal
350
F
100
AcDbDictionaryWithDefault
340
F
  0
DICTIONARY
  5
47
102
{ACAD_REACTORS
330
C
102
}
330
C
100
AcDbDictionary
281
     1
  3
A0
350
48
  3
A1
350
49
  3
A2
350
4A
  3
A3
350
4B
  3
A4
350
4C
  3
A5
350
4D
  3
A6
350
4E
  3
A7
350
4F
  3
A8
350
50
  3
A9
350
51
  3
B0
350
52
  3
B1
350
53
  3
B2
350
54
  3
B3
350
55
  3
B4
350
56
  3
B5
350
57
  3
B6
350
58
  3
B7
350
59
  3
B8
350
5A
  3
B9
350
5B
  3
C0
350
5C
  3
C1
350
5D
  3
C2
350
5E
  3
C3
350
5F
  3
C4
350
60
  3
C5
350
61
  3
C6
350
62
  3
C7
350
63
  3
C8
350
64
  3
C9
350
65
  3
D0
350
66
  3
D1
350
67
  3
D2
350
68
  0
LAYOUT
  5
1E
102
{ACAD_REACTORS
330
1A
102
}
330
1A
100
AcDbPlotSettings
  1

  2
none_device
  4

  6

 40
0.0
 41
0.0
 42
0.0
 43
0.0
 44
0.0
 45
0.0
 46
0.0
 47
0.0
 48
0.0
 49
0.0
140
0.0
141
0.0
142
1.0
143
1.0
 70
   688
 72
     1
 73
     0
 74
     5
  7

 75
    16
147
1.0
148
0.0
149
0.0
100
AcDbLayout
  1
Layout1
 70
     1
 71
     1
 10
0.0
 20
0.0
 11
420.0
 21
297.0
 12
0.0
 22
0.0
 32
0.0
 14
1.0000000000E+20
 24
1.0000000000E+20
 34
1.0000000000E+20
 15
-1.0000000000E+20
 25
-1.0000000000E+20
 35
-1.0000000000E+20
146
0.0
 13
0.0
 23
0.0
 33
0.0
 16
1.0
 26
0.0
 36
0.0
 17
0.0
 27
1.0
 37
0.0
 76
     0
330
1B
  0
LAYOUT
  5
26
102
{ACAD_REACTORS
330
1A
102
}
330
1A
100
AcDbPlotSettings
  1

  2
none_device
  4

  6

 40
0.0
 41
0.0
 42
0.0
 43
0.0
 44
0.0
 45
0.0
 46
0.0
 47
0.0
 48
0.0
 49
0.0
140
0.0
141
0.0
142
1.0
143
1.0
 70
   688
 72
     1
 73
     0
 74
     5
  7

 75
    16
147
1.0
148
0.0
149
0.0
100
AcDbLayout
  1
Layout2
 70
     1
 71
     2
 10
0.0
 20
0.0
 11
0.0
 21
0.0
 12
0.0
 22
0.0
 32
0.0
 14
0.0
 24
0.0
 34
0.0
 15
0.0
 25
0.0
 35
0.0
146
0.0
 13
0.0
 23
0.0
 33
0.0
 16
1.0
 26
0.0
 36
0.0
 17
0.0
 27
1.0
 37
0.0
 76
     0
330
23
  0
LAYOUT
  5
22
102
{ACAD_REACTORS
330
1A
102
}
330
1A
100
AcDbPlotSettings
  1

  2
none_device
  4
Letter_(8.50_x_11.00_Inches)
  6

 40
6.35
 41
6.35
 42
6.35000508
 43
6.35000508
 44
215.9
 45
279.4
 46
0.0
 47
0.0
 48
0.0
 49
0.0
140
0.0
141
0.0
142
1.0
143
1.0
 70
  1712
 72
     1
 73
     0
 74
     0
  7

 75
     0
147
1.0
148
0.0
149
0.0
100
AcDbLayout
  1
Model
 70
     1
 71
     0
 10
0.0
 20
0.0
 11
297.0
 21
210.0
 12
0.0
 22
0.0
 32
0.0
 14
0.0
 24
0.0
 34
0.0
 15
297.0
 25
210.0
 35
0.0
146
0.0
 13
0.0
 23
0.0
 33
0.0
 16
1.0
 26
0.0
 36
0.0
 17
0.0
 27
1.0
 37
0.0
 76
     0
330
1F
331
29
  0
MLINESTYLE
  5
18
102
{ACAD_REACTORS
330
17
102
}
330
17
100
AcDbMlineStyle
  2
Standard
 70
     0
  3

 62
   256
 51
90.0
 52
90.0
 71
     2
 49
0.5
 62
   256
  6
BYLAYER
 49
-0.5
 62
   256
  6
BYLAYER
  0
ACDBPLACEHOLDER
  5
F
102
{ACAD_REACTORS
330
E
102
}
330
E
  0
SCALE
  5
48
102
{ACAD_REACTORS
330
47
102
}
330
47
100
AcDbScale
 70
     0
300
1:1
140
1.0
141
1.0
290
     1
  0
SCALE
  5
49
102
{ACAD_REACTORS
330
47
102
}
330
47
100
AcDbScale
 70
     0
300
1:2
140
1.0
141
2.0
290
     0
  0
SCALE
  5
4A
102
{ACAD_REACTORS
330
47
102
}
330
47
100
AcDbScale
 70
     0
300
1:4
140
1.0
141
4.0
290
     0
  0
SCALE
  5
4B
102
{ACAD_REACTORS
330
47
102
}
330
47
100
AcDbScale
 70
     0
300
1:5
140
1.0
141
5.0
290
     0
  0
SCALE
  5
4C
102
{ACAD_REACTORS
330
47
102
}
330
47
100
AcDbScale
 70
     0
300
1:8
140
1.0
141
8.0
290
     0
  0
SCALE
  5
4D
102
{ACAD_REACTORS
330
47
102
}
330
47
100
AcDbScale
 70
     0
300
1:10
140
1.0
141
10.0
290
     0
  0
SCALE
  5
4E
102
{ACAD_REACTORS
330
47
102
}
330
47
100
AcDbScale
 70
     0
300
1:16
140
1.0
141
16.0
290
     0
  0
SCALE
  5
4F
102
{ACAD_REACTORS
330
47
102
}
330
47
100
AcDbScale
 70
     0
300
1:20
140
1.0
141
20.0
290
     0
  0
SCALE
  5
50
102
{ACAD_REACTORS
330
47
102
}
330
47
100
AcDbScale
 70
     0
300
1:30
140
1.0
141
30.0
290
     0
  0
SCALE
  5
51
102
{ACAD_REACTORS
330
47
102
}
330
47
100
AcDbScale
 70
     0
300
1:40
140
1.0
141
40.0
290
     0
  0
SCALE
  5
52
102
{ACAD_REACTORS
330
47
102
}
330
47
100
AcDbScale
 70
     0
300
1:50
140
1.0
141
50.0
290
     0
  0
SCALE
  5
53
102
{ACAD_REACTORS
330
47
102
}
330
47
100
AcDbScale
 70
     0
300
1:100
140
1.0
141
100.0
290
     0
  0
SCALE
  5
54
102
{ACAD_REACTORS
330
47
102
}
330
47
100
AcDbScale
 70
     0
300
2:1
140
2.0
141
1.0
290
     0
  0
SCALE
  5
55
102
{ACAD_REACTORS
330
47
102
}
330
47
100
AcDbScale
 70
     0
300
4:1
140
4.0
141
1.0
290
     0
  0
SCALE
  5
56
102
{ACAD_REACTORS
330
47
102
}
330
47
100
AcDbScale
 70
     0
300
8:1
140
8.0
141
1.0
290
     0
  0
SCALE
  5
57
102
{ACAD_REACTORS
330
47
102
}
330
47
100
AcDbScale
 70
     0
300
10:1
140
10.0
141
1.0
290
     0
  0
SCALE
  5
58
102
{ACAD_REACTORS
330
47
102
}
330
47
100
AcDbScale
 70
     0
300
100:1
140
100.0
141
1.0
290
     0
  0
SCALE
  5
59
102
{ACAD_REACTORS
330
47
102
}
330
47
100
AcDbScale
 70
     0
300
1/128" = 1'-0"
140
0.0078125
141
12.0
290
     0
  0
SCALE
  5
5A
102
{ACAD_REACTORS
330
47
102
}
330
47
100
AcDbScale
 70
     0
300
1/64" = 1'-0"
140
0.015625
141
12.0
290
     0
  0
SCALE
  5
5B
102
{ACAD_REACTORS
330
47
102
}
330
47
100
AcDbScale
 70
     0
300
1/32" = 1'-0"
140
0.03125
141
12.0
290
     0
  0
SCALE
  5
5C
102
{ACAD_REACTORS
330
47
102
}
330
47
100
AcDbScale
 70
     0
300
1/16" = 1'-0"
140
0.0625
141
12.0
290
     0
  0
SCALE
  5
5D
102
{ACAD_REACTORS
330
47
102
}
330
47
100
AcDbScale
 70
     0
300
3/32" = 1'-0"
140
0.09375
141
12.0
290
     0
  0
SCALE
  5
5E
102
{ACAD_REACTORS
330
47
102
}
330
47
100
AcDbScale
 70
     0
300
1/8" = 1'-0"
140
0.125
141
12.0
290
     0
  0
SCALE
  5
5F
102
{ACAD_REACTORS
330
47
102
}
330
47
100
AcDbScale
 70
     0
300
3/16" = 1'-0"
140
0.1875
141
12.0
290
     0
  0
SCALE
  5
60
102
{ACAD_REACTORS
330
47
102
}
330
47
100
AcDbScale
 70
     0
300
1/4" = 1'-0"
140
0.25
141
12.0
290
     0
  0
SCALE
  5
61
102
{ACAD_REACTORS
330
47
102
}
330
47
100
AcDbScale
 70
     0
300
3/8" = 1'-0"
140
0.375
141
12.0
290
     0
  0
SCALE
  5
62
102
{ACAD_REACTORS
330
47
102
}
330
47
100
AcDbScale
 70
     0
300
1/2" = 1'-0"
140
0.5
141
12.0
290
     0
  0
SCALE
  5
63
102
{ACAD_REACTORS
330
47
102
}
330
47
100
AcDbScale
 70
     0
300
3/4" = 1'-0"
140
0.75
141
12.0
290
     0
  0
SCALE
  5
64
102
{ACAD_REACTORS
330
47
102
}
330
47
100
AcDbScale
 70
     0
300
1" = 1'-0"
140
1.0
141
12.0
290
     0
  0
SCALE
  5
65
102
{ACAD_REACTORS
330
47
102
}
330
47
100
AcDbScale
 70
     0
300
1-1/2" = 1'-0"
140
1.5
141
12.0
290
     0
  0
SCALE
  5
66
102
{ACAD_REACTORS
330
47
102
}
330
47
100
AcDbScale
 70
     0
300
3" = 1'-0"
140
3.0
141
12.0
290
     0
  0
SCALE
  5
67
102
{ACAD_REACTORS
330
47
102
}
330
47
100
AcDbScale
 70
     0
300
6" = 1'-0"
140
6.0
141
12.0
290
     0
  0
SCALE
  5
68
102
{ACAD_REACTORS
330
47
102
}
330
47
100
AcDbScale
 70
     0
300
1'-0" = 1'-0"
140
12.0
141
12.0
290
     0
  0
ENDSEC
  0
EOF
