  0
SECTION
  2
HEADER
  9
$ACADVER
  1
AC1015
  9
$ACADMAINTVER
 70
     6
  9
$DWGCODEPAGE
  3
ANSI_1250
  9
$INSBASE
 10
0.0
 20
0.0
 30
0.0
  9
$EXTMIN
 10
0.0
 20
0.0
 30
0.0
  9
$EXTMAX
 10
297.0
 20
210.0
 30
0.0
  9
$LIMMIN
 10
0.0
 20
0.0
  9
$LIMMAX
 10
297.0
 20
210.0
  9
$ORTHOMODE
 70
     0
  9
$REGENMODE
 70
     1
  9
$FILLMODE
 70
     1
  9
$QTEXTMODE
 70
     0
  9
$MIRRTEXT
 70
     1
  9
$LTSCALE
 40
1.0
  9
$ATTMODE
 70
     1
  9
$TEXTSIZE
 40
3.5
  9
$TRACEWID
 40
1.0
  9
$TEXTSTYLE
  7
Standard
  9
$CLAYER
  8
0
  9
$CELTYPE
  6
ByLayer
  9
$CECOLOR
 62
   256
  9
$CELTSCALE
 40
1.0
  9
$DISPSILH
 70
     0
  9
$DIMSCALE
 40
1.0
  9
$DIMASZ
 40
3.302
  9
$DIMEXO
 40
1.0
  9
$DIMDLI
 40
3.75
  9
$DIMRND
 40
0.0
  9
$DIMDLE
 40
0.0
  9
$DIMEXE
 40
1.0
  9
$DIMTP
 40
0.0
  9
$DIMTM
 40
0.0
  9
$DIMTXT
 40
3.5
  9
$DIMCEN
 40
2.5
  9
$DIMTSZ
 40
0.0
  9
$DIMTOL
 70
     0
  9
$DIMLIM
 70
     0
  9
$DIMTIH
 70
     1
  9
$DIMTOH
 70
     1
  9
$DIMSE1
 70
     0
  9
$DIMSE2
 70
     0
  9
$DIMTAD
 70
     1
  9
$DIMZIN
 70
     0
  9
$DIMBLK
  1

  9
$DIMASO
 70
     1
  9
$DIMSHO
 70
     1
  9
$DIMPOST
  1

  9
$DIMAPOST
  1

  9
$DIMALT
 70
     0
  9
$DIMALTD
 70
     3
  9
$DIMALTF
 40
0.0393700787
  9
$DIMLFAC
 40
1.0
  9
$DIMTOFL
 70
     1
  9
$DIMTVP
 40
0.0
  9
$DIMTIX
 70
     0
  9
$DIMSOXD
 70
     0
  9
$DIMSAH
 70
     0
  9
$DIMBLK1
  1

  9
$DIMBLK2
  1

  9
$DIMSTYLE
  2
ISO-25
  9
$DIMCLRD
 70
     0
  9
$DIMCLRE
 70
     0
  9
$DIMCLRT
 70
     0
  9
$DIMTFAC
 40
1.0
  9
$DIMGAP
 40
1.524
  9
$DIMJUST
 70
     0
  9
$DIMSD1
 70
     0
  9
$DIMSD2
 70
     0
  9
$DIMTOLJ
 70
     0
  9
$DIMTZIN
 70
     0
  9
$DIMALTZ
 70
     0
  9
$DIMALTTZ
 70
     0
  9
$DIMUPT
 70
     0
  9
$DIMDEC
 70
     2
  9
$DIMTDEC
 70
     2
  9
$DIMALTU
 70
     2
  9
$DIMALTTD
 70
     3
  9
$DIMTXSTY
  7
Standard
  9
$DIMAUNIT
 70
     0
  9
$DIMADEC
 70
     2
  9
$DIMALTRND
 40
0.0
  9
$DIMAZIN
 70
     0
  9
$DIMDSEP
 70
    44
  9
$DIMATFIT
 70
     3
  9
$DIMFRAC
 70
     0
  9
$DIMLDRBLK
  1

  9
$DIMLUNIT
 70
     2
  9
$DIMLWD
 70
    -2
  9
$DIMLWE
 70
    -2
  9
$DIMTMOVE
 70
     0
  9
$LUNITS
 70
     2
  9
$LUPREC
 70
     2
  9
$SKETCHINC
 40
1.0
  9
$FILLETRAD
 40
10.0
  9
$AUNITS
 70
     0
  9
$AUPREC
 70
     2
  9
$MENU
  1
.
  9
$ELEVATION
 40
0.0
  9
$PELEVATION
 40
0.0
  9
$THICKNESS
 40
0.0
  9
$LIMCHECK
 70
     0
  9
$CHAMFERA
 40
0.0
  9
$CHAMFERB
 40
0.0
  9
$CHAMFERC
 40
0.0
  9
$CHAMFERD
 40
0.0
  9
$SKPOLY
 70
     0
  9
$TDCREATE
 40
2459290.498313241
  9
$TDUCREATE
 40
2459290.456646574
  9
$TDUPDATE
 40
2459290.49831463
  9
$TDUUPDATE
 40
2459290.456647963
  9
$TDINDWG
 40
0.0000000116
  9
$TDUSRTIMER
 40
0.0000000116
  9
$USRTIMER
 70
     1
  9
$ANGBASE
 50
0.0
  9
$ANGDIR
 70
     0
  9
$PDMODE
 70
     0
  9
$PDSIZE
 40
-1.0
  9
$PLINEWID
 40
0.0
  9
$SPLFRAME
 70
     0
  9
$SPLINETYPE
 70
     6
  9
$SPLINESEGS
 70
     8
  9
$HANDSEED
  5
377
  9
$SURFTAB1
 70
     6
  9
$SURFTAB2
 70
     6
  9
$SURFTYPE
 70
     6
  9
$SURFU
 70
     6
  9
$SURFV
 70
     6
  9
$UCSBASE
  2

  9
$UCSNAME
  2

  9
$UCSORG
 10
0.0
 20
0.0
 30
0.0
  9
$UCSXDIR
 10
1.0
 20
0.0
 30
0.0
  9
$UCSYDIR
 10
0.0
 20
1.0
 30
0.0
  9
$UCSORTHOREF
  2

  9
$UCSORTHOVIEW
 70
     0
  9
$UCSORGTOP
 10
0.0
 20
0.0
 30
0.0
  9
$UCSORGBOTTOM
 10
0.0
 20
0.0
 30
0.0
  9
$UCSORGLEFT
 10
0.0
 20
0.0
 30
0.0
  9
$UCSORGRIGHT
 10
0.0
 20
0.0
 30
0.0
  9
$UCSORGFRONT
 10
0.0
 20
0.0
 30
0.0
  9
$UCSORGBACK
 10
0.0
 20
0.0
 30
0.0
  9
$PUCSBASE
  2

  9
$PUCSNAME
  2

  9
$PUCSORG
 10
0.0
 20
0.0
 30
0.0
  9
$PUCSXDIR
 10
1.0
 20
0.0
 30
0.0
  9
$PUCSYDIR
 10
0.0
 20
1.0
 30
0.0
  9
$PUCSORTHOREF
  2

  9
$PUCSORTHOVIEW
 70
     0
  9
$PUCSORGTOP
 10
0.0
 20
0.0
 30
0.0
  9
$PUCSORGBOTTOM
 10
0.0
 20
0.0
 30
0.0
  9
$PUCSORGLEFT
 10
0.0
 20
0.0
 30
0.0
  9
$PUCSORGRIGHT
 10
0.0
 20
0.0
 30
0.0
  9
$PUCSORGFRONT
 10
0.0
 20
0.0
 30
0.0
  9
$PUCSORGBACK
 10
0.0
 20
0.0
 30
0.0
  9
$USERI1
 70
     0
  9
$USERI2
 70
     0
  9
$USERI3
 70
     0
  9
$USERI4
 70
     0
  9
$USERI5
 70
     0
  9
$USERR1
 40
0.0
  9
$USERR2
 40
0.0
  9
$USERR3
 40
0.0
  9
$USERR4
 40
0.0
  9
$USERR5
 40
0.0
  9
$WORLDVIEW
 70
     1
  9
$SHADEDGE
 70
     3
  9
$SHADEDIF
 70
    70
  9
$TILEMODE
 70
     1
  9
$MAXACTVP
 70
    64
  9
$PINSBASE
 10
0.0
 20
0.0
 30
0.0
  9
$PLIMCHECK
 70
     0
  9
$PEXTMIN
 10
1.0000000000E+20
 20
1.0000000000E+20
 30
1.0000000000E+20
  9
$PEXTMAX
 10
-1.0000000000E+20
 20
-1.0000000000E+20
 30
-1.0000000000E+20
  9
$PLIMMIN
 10
0.0
 20
0.0
  9
$PLIMMAX
 10
420.0
 20
297.0
  9
$UNITMODE
 70
     0
  9
$VISRETAIN
 70
     1
  9
$PLINEGEN
 70
     0
  9
$PSLTSCALE
 70
     1
  9
$TREEDEPTH
 70
  3020
  9
$CMLSTYLE
  2
Standard
  9
$CMLJUST
 70
     0
  9
$CMLSCALE
 40
20.0
  9
$PROXYGRAPHICS
 70
     1
  9
$MEASUREMENT
 70
     1
  9
$CELWEIGHT
370
    -1
  9
$ENDCAPS
280
     0
  9
$JOINSTYLE
280
     0
  9
$LWDISPLAY
290
     1
  9
$INSUNITS
 70
     4
  9
$HYPERLINKBASE
  1

  9
$STYLESHEET
  1

  9
$XEDIT
290
     1
  9
$CEPSNTYPE
380
     0
  9
$PSTYLEMODE
290
     1
  9
$FINGERPRINTGUID
  2
{BD8D8448-F890-43CB-AB29-1560CDE108EA}
  9
$VERSIONGUID
  2
{FAEB1C32-E019-11D5-929B-00C0DF256EC4}
  9
$EXTNAMES
290
     1
  9
$PSVPSCALE
 40
0.0
  9
$OLESTARTUP
290
     0
  0
ENDSEC
  0
SECTION
  2
CLASSES
  0
CLASS
  1
ACDBDICTIONARYWDFLT
  2
AcDbDictionaryWithDefault
  3
ObjectDBX Classes
 90
        0
280
     0
281
     0
  0
CLASS
  1
VISUALSTYLE
  2
AcDbVisualStyle
  3
ObjectDBX Classes
 90
     4095
280
     0
281
     0
  0
CLASS
  1
MATERIAL
  2
AcDbMaterial
  3
ObjectDBX Classes
 90
     1153
280
     0
281
     0
  0
CLASS
  1
SCALE
  2
AcDbScale
  3
ObjectDBX Classes
 90
     1153
280
     0
281
     0
  0
CLASS
  1
TABLESTYLE
  2
AcDbTableStyle
  3
ObjectDBX Classes
 90
     4095
280
     0
281
     0
  0
CLASS
  1
MLEADERSTYLE
  2
AcDbMLeaderStyle
  3
ACDB_MLEADERSTYLE_CLASS
 90
     4095
280
     0
281
     0
  0
CLASS
  1
SUN
  2
AcDbSun
  3
SCENEOE
 90
     1153
280
     0
281
     0
  0
CLASS
  1
ACDBPLACEHOLDER
  2
AcDbPlaceHolder
  3
ObjectDBX Classes
 90
        0
280
     0
281
     0
  0
CLASS
  1
LAYOUT
  2
AcDbLayout
  3
ObjectDBX Classes
 90
        0
280
     0
281
     0
  0
ENDSEC
  0
SECTION
  2
TABLES
  0
TABLE
  2
VPORT
  5
8
330
0
100
AcDbSymbolTable
 70
     1
  0
VPORT
  5
29
330
8
100
AcDbSymbolTableRecord
100
AcDbViewportTableRecord
  2
*Active
 70
     0
 10
0.0
 20
0.0
 11
1.0
 21
1.0
 12
148.5
 22
105.0
 13
0.0
 23
0.0
 14
10.0
 24
10.0
 15
10.0
 25
10.0
 16
0.0
 26
0.0
 36
1.0
 17
0.0
 27
0.0
 37
0.0
 40
210.0
 41
1.4142857143
 42
50.0
 43
0.0
 44
0.0
 50
0.0
 51
0.0
 71
     0
 72
  2000
 73
     1
 74
     3
 75
     0
 76
     0
 77
     0
 78
     0
281
     0
 65
     1
110
0.0
120
0.0
130
0.0
111
1.0
121
0.0
131
0.0
112
0.0
122
1.0
132
0.0
 79
     0
146
0.0
  0
ENDTAB
  0
TABLE
  2
LTYPE
  5
5
330
0
100
AcDbSymbolTable
 70
     8
  0
LTYPE
  5
14
330
5
100
AcDbSymbolTableRecord
100
AcDbLinetypeTableRecord
  2
ByBlock
 70
     0
  3

 72
    65
 73
     0
 40
0.0
  0
LTYPE
  5
15
330
5
100
AcDbSymbolTableRecord
100
AcDbLinetypeTableRecord
  2
ByLayer
 70
     0
  3

 72
    65
 73
     0
 40
0.0
  0
LTYPE
  5
16
330
5
100
AcDbSymbolTableRecord
100
AcDbLinetypeTableRecord
  2
Continuous
 70
     0
  3
Solid line
 72
    65
 73
     0
 40
0.0
  0
LTYPE
  5
6E
330
5
100
AcDbSymbolTableRecord
100
AcDbLinetypeTableRecord
  2
SLD-Solid
 70
     0
  3
SolidWorks Line Style
 72
    65
 73
     0
 40
0.0
  0
LTYPE
  5
6F
330
5
100
AcDbSymbolTableRecord
100
AcDbLinetypeTableRecord
  2
SLD-Dashed
 70
     0
  3
SolidWorks Line Style
 72
    65
 73
     2
 40
1.905
 49
1.27
 74
     0
 49
-0.635
 74
     0
  0
LTYPE
  5
70
330
5
100
AcDbSymbolTableRecord
100
AcDbLinetypeTableRecord
  2
SLD-Phantom
 70
     0
  3
SolidWorks Line Style
 72
    65
 73
     6
 40
12.7
 49
6.35
 74
     0
 49
-1.27
 74
     0
 49
1.27
 74
     0
 49
-1.27
 74
     0
 49
1.27
 74
     0
 49
-1.27
 74
     0
  0
LTYPE
  5
71
330
5
100
AcDbSymbolTableRecord
100
AcDbLinetypeTableRecord
  2
SLD-Chain
 70
     0
  3
SolidWorks Line Style
 72
    65
 73
     4
 40
10.16
 49
6.35
 74
     0
 49
-1.27
 74
     0
 49
1.27
 74
     0
 49
-1.27
 74
     0
  0
LTYPE
  5
72
330
5
100
AcDbSymbolTableRecord
100
AcDbLinetypeTableRecord
  2
SLD-Center
 70
     0
  3
SolidWorks Line Style
 72
    65
 73
     4
 40
19.05
 49
15.24
 74
     0
 49
-1.27
 74
     0
 49
1.27
 74
     0
 49
-1.27
 74
     0
  0
LTYPE
  5
73
330
5
100
AcDbSymbolTableRecord
100
AcDbLinetypeTableRecord
  2
SLD-Stitch
 70
     0
  3
SolidWorks Line Style
 72
    65
 73
     2
 40
0.635
 49
0.0
 74
     0
 49
-0.635
 74
     0
  0
LTYPE
  5
74
330
5
100
AcDbSymbolTableRecord
100
AcDbLinetypeTableRecord
  2
SLD-Thin-Thick-Chain
 70
     0
  3
SolidWorks Line Style
 72
    65
 73
     4
 40
10.16
 49
6.35
 74
     0
 49
-1.27
 74
     0
 49
1.27
 74
     0
 49
-1.27
 74
     0
  0
ENDTAB
  0
TABLE
  2
LAYER
  5
2
330
0
100
AcDbSymbolTable
 70
    12
  0
LAYER
  5
10
330
2
100
AcDbSymbolTableRecord
100
AcDbLayerTableRecord
  2
0
 70
     0
 62
     7
  6
Continuous
370
    -3
390
F
  0
LAYER
  5
75
330
2
100
AcDbSymbolTableRecord
100
AcDbLayerTableRecord
  2
SLD-0
 70
     0
 62
   179
  6
SLD-Solid
370
    -3
390
F
  0
LAYER
  5
76
330
2
100
AcDbSymbolTableRecord
100
AcDbLayerTableRecord
  2
80
 70
     0
 62
    -6
  6
SLD-Solid
290
     0
370
    -3
390
F
  0
LAYER
  5
77
330
2
100
AcDbSymbolTableRecord
100
AcDbLayerTableRecord
  2
81
 70
     0
 62
    -3
  6
SLD-Solid
290
     0
370
    -3
390
F
  0
LAYER
  5
78
330
2
100
AcDbSymbolTableRecord
100
AcDbLayerTableRecord
  2
1
 70
     0
 62
     4
  6
SLD-Solid
290
     0
370
    -3
390
F
  0
LAYER
  5
79
330
2
100
AcDbSymbolTableRecord
100
AcDbLayerTableRecord
  2
4
 70
     0
 62
    -2
  6
SLD-Chain
290
     0
370
    -3
390
F
  0
LAYER
  5
7A
330
2
100
AcDbSymbolTableRecord
100
AcDbLayerTableRecord
  2
2
 70
     0
 62
     7
  6
SLD-Solid
290
     0
370
    -3
390
F
  0
LAYER
  5
7B
330
2
100
AcDbSymbolTableRecord
100
AcDbLayerTableRecord
  2
SK3
 70
     0
 62
     1
  6
SLD-Dashed
290
     0
370
    -3
390
F
  0
LAYER
  5
7C
330
2
100
AcDbSymbolTableRecord
100
AcDbLayerTableRecord
  2
SK4
 70
     0
 62
     2
  6
SLD-Chain
290
     0
370
    -3
390
F
  0
LAYER
  5
7D
330
2
100
AcDbSymbolTableRecord
100
AcDbLayerTableRecord
  2
SK2
 70
     0
 62
     7
  6
SLD-Solid
290
     0
370
    -3
390
F
  0
LAYER
  5
7E
330
2
100
AcDbSymbolTableRecord
100
AcDbLayerTableRecord
  2
SK6
 70
     0
 62
     5
  6
SLD-Solid
290
     0
370
    -3
390
F
  0
LAYER
  5
7F
330
2
100
AcDbSymbolTableRecord
100
AcDbLayerTableRecord
  2
SK1
 70
     0
 62
     4
  6
SLD-Solid
370
    -3
390
F
  0
ENDTAB
  0
TABLE
  2
STYLE
  5
3
330
0
100
AcDbSymbolTable
 70
     2
  0
STYLE
  5
11
330
3
100
AcDbSymbolTableRecord
100
AcDbTextStyleTableRecord
  2
Standard
 70
     0
 40
0.0
 41
1.0
 50
0.0
 71
     0
 42
3.5
  3
txt
  4

  0
STYLE
  5
2EE
330
3
100
AcDbSymbolTableRecord
100
AcDbTextStyleTableRecord
  2
SLDTEXTSTYLE0
 70
     0
 40
0.0
 41
0.75
 50
0.0
 71
     0
 42
3.5
  3
TXT
  4

  0
ENDTAB
  0
TABLE
  2
VIEW
  5
6
330
0
100
AcDbSymbolTable
 70
     0
  0
ENDTAB
  0
TABLE
  2
UCS
  5
7
330
0
100
AcDbSymbolTable
 70
     0
  0
ENDTAB
  0
TABLE
  2
APPID
  5
9
330
0
100
AcDbSymbolTable
 70
     1
  0
APPID
  5
12
330
9
100
AcDbSymbolTableRecord
100
AcDbRegAppTableRecord
  2
ACAD
 70
     0
  0
ENDTAB
  0
TABLE
  2
DIMSTYLE
  5
A
330
0
100
AcDbSymbolTable
 70
     3
100
AcDbDimStyleTable
  0
DIMSTYLE
105
27
330
A
100
AcDbSymbolTableRecord
100
AcDbDimStyleTableRecord
  2
ISO-25
 70
     0
 41
2.5
 42
0.625
 43
3.75
 44
1.25
 73
     0
 74
     0
 77
     1
 78
     8
140
2.5
141
2.5
143
0.0393700787
147
0.625
171
     3
172
     1
178
     0
271
     2
272
     2
274
     3
278
    44
283
     0
284
     8
340
11
  0
DIMSTYLE
105
2EF
102
{ACAD_REACTORS
330
2ED
330
2F9
330
303
330
30D
330
317
330
322
330
32D
330
338
330
342
330
34C
330
365
102
}
330
A
100
AcDbSymbolTableRecord
100
AcDbDimStyleTableRecord
  2
SLDDIMSTYLE0
 70
     0
 41
3.302
 44
0.0
 45
0.000000001
 73
     0
 74
     0
 77
     1
 78
    12
 79
     3
140
3.5
147
0.875
173
     1
178
     0
271
     2
272
     2
276
     2
284
    12
340
2EE
  0
DIMSTYLE
105
358
102
{ACAD_REACTORS
330
357
102
}
330
A
100
AcDbSymbolTableRecord
100
AcDbDimStyleTableRecord
  2
SLDDIMSTYLE1
 70
     0
 41
3.302
 44
0.0
 45
0.000000001
 73
     0
 74
     0
 77
     1
 78
    12
 79
     3
140
3.5
147
0.875
172
     1
173
     1
178
     0
271
     2
272
     2
276
     2
284
    12
289
     0
340
2EE
  0
ENDTAB
  0
TABLE
  2
BLOCK_RECORD
  5
1
330
0
100
AcDbSymbolTable
 70
    16
  0
BLOCK_RECORD
  5
1F
330
1
100
AcDbSymbolTableRecord
100
AcDbBlockTableRecord
  2
*Model_Space
340
22
  0
BLOCK_RECORD
  5
1B
330
1
100
AcDbSymbolTableRecord
100
AcDbBlockTableRecord
  2
*Paper_Space
340
1E
  0
BLOCK_RECORD
  5
23
330
1
100
AcDbSymbolTableRecord
100
AcDbBlockTableRecord
  2
*Paper_Space0
340
26
  0
BLOCK_RECORD
  5
80
330
1
100
AcDbSymbolTableRecord
100
AcDbBlockTableRecord
  2
Block11
340
0
102
{BLKREFS
331
2EB
102
}
  0
BLOCK_RECORD
  5
89
330
1
100
AcDbSymbolTableRecord
100
AcDbBlockTableRecord
  2
Block12
340
0
102
{BLKREFS
331
2EC
102
}
  0
BLOCK_RECORD
  5
2F0
330
1
100
AcDbSymbolTableRecord
100
AcDbBlockTableRecord
  2
_D
340
0
  0
BLOCK_RECORD
  5
2FA
330
1
100
AcDbSymbolTableRecord
100
AcDbBlockTableRecord
  2
_D_1
340
0
  0
BLOCK_RECORD
  5
304
330
1
100
AcDbSymbolTableRecord
100
AcDbBlockTableRecord
  2
_D_2
340
0
  0
BLOCK_RECORD
  5
30E
330
1
100
AcDbSymbolTableRecord
100
AcDbBlockTableRecord
  2
_D_3
340
0
  0
BLOCK_RECORD
  5
318
330
1
100
AcDbSymbolTableRecord
100
AcDbBlockTableRecord
  2
_D_4
340
0
  0
BLOCK_RECORD
  5
323
330
1
100
AcDbSymbolTableRecord
100
AcDbBlockTableRecord
  2
_D_5
340
0
  0
BLOCK_RECORD
  5
32E
330
1
100
AcDbSymbolTableRecord
100
AcDbBlockTableRecord
  2
_D_6
340
0
  0
BLOCK_RECORD
  5
339
330
1
100
AcDbSymbolTableRecord
100
AcDbBlockTableRecord
  2
_D_7
340
0
  0
BLOCK_RECORD
  5
343
330
1
100
AcDbSymbolTableRecord
100
AcDbBlockTableRecord
  2
_D_8
340
0
  0
BLOCK_RECORD
  5
34D
330
1
100
AcDbSymbolTableRecord
100
AcDbBlockTableRecord
  2
_D_9
340
0
  0
BLOCK_RECORD
  5
359
330
1
100
AcDbSymbolTableRecord
100
AcDbBlockTableRecord
  2
_D_10
340
0
  0
BLOCK_RECORD
  5
366
330
1
100
AcDbSymbolTableRecord
100
AcDbBlockTableRecord
  2
_D_11
340
0
  0
BLOCK_RECORD
  5
371
330
1
100
AcDbSymbolTableRecord
100
AcDbBlockTableRecord
  2
SW_NOTE_0
340
0
102
{BLKREFS
331
376
102
}
  0
ENDTAB
  0
ENDSEC
  0
SECTION
  2
BLOCKS
  0
BLOCK
  5
20
330
1F
100
AcDbEntity
  8
0
100
AcDbBlockBegin
  2
*Model_Space
 70
     0
 10
0.0
 20
0.0
 30
0.0
  3
*Model_Space
  1

  0
ENDBLK
  5
21
330
1F
100
AcDbEntity
  8
0
100
AcDbBlockEnd
  0
BLOCK
  5
1C
330
1B
100
AcDbEntity
 67
     1
  8
0
100
AcDbBlockBegin
  2
*Paper_Space
 70
     0
 10
0.0
 20
0.0
 30
0.0
  3
*Paper_Space
  1

  0
ENDBLK
  5
1D
330
1B
100
AcDbEntity
 67
     1
  8
0
100
AcDbBlockEnd
  0
BLOCK
  5
24
330
23
100
AcDbEntity
  8
0
100
AcDbBlockBegin
  2
*Paper_Space0
 70
     0
 10
0.0
 20
0.0
 30
0.0
  3
*Paper_Space0
  1

  0
ENDBLK
  5
25
330
23
100
AcDbEntity
  8
0
100
AcDbBlockEnd
  0
BLOCK
  5
81
330
80
100
AcDbEntity
  8
0
100
AcDbBlockBegin
  2
Block11
 70
     0
 10
0.0
 20
0.0
 30
0.0
  3
Block11
  1

  0
CIRCLE
  5
83
330
80
100
AcDbEntity
  8
81
370
    18
100
AcDbCircle
 10
91.6264826505
 20
130.2676275275
 30
0.0
 40
2.499999999999981
  0
LINE
  5
84
330
80
100
AcDbEntity
  8
81
370
    18
100
AcDbLine
 10
91.6264826505
 20
130.2676275275
 30
0.0
 11
95.1620165565
 21
133.8031614334
 31
0.0
  0
LINE
  5
85
330
80
100
AcDbEntity
  8
81
370
    18
100
AcDbLine
 10
91.6264826505
 20
130.2676275275
 30
0.0
 11
88.0909487446
 21
126.7320936216
 31
0.0
  0
LINE
  5
86
330
80
100
AcDbEntity
  8
81
370
    18
100
AcDbLine
 10
91.6264826505
 20
130.2676275275
 30
0.0
 11
88.0909487446
 21
133.8031614334
 31
0.0
  0
LINE
  5
87
330
80
100
AcDbEntity
  8
81
100
AcDbLine
 10
91.6264826505
 20
130.2676275275
 30
0.0
 11
101.6264826505
 21
130.2676275275
 31
0.0
  0
LINE
  5
88
330
80
100
AcDbEntity
  8
81
370
    18
100
AcDbLine
 10
91.6264826505
 20
130.2676275275
 30
0.0
 11
95.1620165565
 21
126.7320936216
 31
0.0
  0
ENDBLK
  5
82
330
80
100
AcDbEntity
  8
0
100
AcDbBlockEnd
  0
BLOCK
  5
8A
330
89
100
AcDbEntity
  8
0
100
AcDbBlockBegin
  2
Block12
 70
     0
 10
0.0
 20
0.0
 30
0.0
  3
Block12
  1

  0
CIRCLE
  5
8C
330
89
100
AcDbEntity
  8
80
370
    18
100
AcDbCircle
 10
61.7273641656
 20
130.3356800267
 30
0.0
 40
2.500000000000004
  0
LINE
  5
8D
330
89
100
AcDbEntity
  8
80
370
    18
100
AcDbLine
 10
61.7273641656
 20
130.3356800267
 30
0.0
 11
65.2628980715
 21
133.8712139326
 31
0.0
  0
LINE
  5
8E
330
89
100
AcDbEntity
  8
80
370
    18
100
AcDbLine
 10
61.7273641656
 20
130.3356800267
 30
0.0
 11
58.1918302597
 21
126.8001461208
 31
0.0
  0
LINE
  5
8F
330
89
100
AcDbEntity
  8
80
370
    18
100
AcDbLine
 10
61.7273641656
 20
130.3356800267
 30
0.0
 11
58.1918302597
 21
133.8712139326
 31
0.0
  0
LINE
  5
90
330
89
100
AcDbEntity
  8
80
370
    18
100
AcDbLine
 10
61.7273641656
 20
130.3356800267
 30
0.0
 11
51.7273641656
 21
130.3356800267
 31
0.0
  0
LINE
  5
91
330
89
100
AcDbEntity
  8
80
370
    18
100
AcDbLine
 10
61.7273641656
 20
130.3356800267
 30
0.0
 11
65.2628980715
 21
126.8001461208
 31
0.0
  0
ENDBLK
  5
8B
330
89
100
AcDbEntity
  8
0
100
AcDbBlockEnd
  0
BLOCK
  5
2F1
330
2F0
100
AcDbEntity
  8
0
100
AcDbBlockBegin
  2
_D
 70
     0
 10
0.0
 20
0.0
 30
0.0
  3
_D
  1

  0
SOLID
  5
2F3
330
2F0
100
AcDbEntity
  8
SK2
100
AcDbTrace
 10
0.0
 20
38.8518727343
 30
0.0
 11
3.302
 21
38.3438727343
 31
0.0
 12
3.302
 22
39.3598727343
 32
0.0
 13
3.302
 23
39.3598727343
 33
0.0
  0
SOLID
  5
2F4
330
2F0
100
AcDbEntity
  8
SK2
100
AcDbTrace
 10
19.05
 20
38.8518727343
 30
0.0
 11
15.748
 21
39.3598727343
 31
0.0
 12
15.748
 22
38.3438727343
 32
0.0
 13
15.748
 23
38.3438727343
 33
0.0
  0
LINE
  5
2F5
330
2F0
100
AcDbEntity
  8
SK2
100
AcDbLine
 10
0.0
 20
23.225
 30
0.0
 11
0.0
 21
39.8518727343
 31
0.0
  0
LINE
  5
2F6
330
2F0
100
AcDbEntity
  8
SK2
100
AcDbLine
 10
19.05
 20
32.0
 30
0.0
 11
19.05
 21
39.8518727343
 31
0.0
  0
LINE
  5
2F7
330
2F0
100
AcDbEntity
  8
SK2
100
AcDbLine
 10
0.0
 20
38.8518727343
 30
0.0
 11
19.05
 21
38.8518727343
 31
0.0
  0
MTEXT
  5
2F8
330
2F0
100
AcDbEntity
  8
SK2
100
AcDbMText
 10
3.5898478126
 20
43.3636096489
 30
0.0
 40
3.5
 41
0.0
 71
     1
 72
     1
  1
19,05
  7
SLDTEXTSTYLE0
 73
     1
 44
1.0
  0
ENDBLK
  5
2F2
330
2F0
100
AcDbEntity
  8
0
100
AcDbBlockEnd
  0
BLOCK
  5
2FB
330
2FA
100
AcDbEntity
  8
0
100
AcDbBlockBegin
  2
_D_1
 70
     0
 10
0.0
 20
0.0
 30
0.0
  3
_D_1
  1

  0
SOLID
  5
2FD
330
2FA
100
AcDbEntity
  8
SK2
100
AcDbTrace
 10
63.0
 20
38.8518727343
 30
0.0
 11
59.698
 21
39.3598727343
 31
0.0
 12
59.698
 22
38.3438727343
 32
0.0
 13
59.698
 23
38.3438727343
 33
0.0
  0
SOLID
  5
2FE
330
2FA
100
AcDbEntity
  8
SK2
100
AcDbTrace
 10
19.05
 20
38.8518727343
 30
0.0
 11
22.352
 21
38.3438727343
 31
0.0
 12
22.352
 22
39.3598727343
 32
0.0
 13
22.352
 23
39.3598727343
 33
0.0
  0
LINE
  5
2FF
330
2FA
100
AcDbEntity
  8
SK2
100
AcDbLine
 10
63.0
 20
17.4944465005
 30
0.0
 11
63.0
 21
39.8518727343
 31
0.0
  0
LINE
  5
300
330
2FA
100
AcDbEntity
  8
SK2
100
AcDbLine
 10
19.05
 20
32.0
 30
0.0
 11
19.05
 21
39.8518727343
 31
0.0
  0
LINE
  5
301
330
2FA
100
AcDbEntity
  8
SK2
100
AcDbLine
 10
63.0
 20
38.8518727343
 30
0.0
 11
19.05
 21
38.8518727343
 31
0.0
  0
MTEXT
  5
302
330
2FA
100
AcDbEntity
  8
SK2
100
AcDbMText
 10
34.7328875236
 20
43.3636096489
 30
0.0
 40
3.5
 41
0.0
 71
     1
 72
     1
  1
43,95
  7
SLDTEXTSTYLE0
 73
     1
 44
1.0
  0
ENDBLK
  5
2FC
330
2FA
100
AcDbEntity
  8
0
100
AcDbBlockEnd
  0
BLOCK
  5
305
330
304
100
AcDbEntity
  8
0
100
AcDbBlockBegin
  2
_D_2
 70
     0
 10
0.0
 20
0.0
 30
0.0
  3
_D_2
  1

  0
SOLID
  5
307
330
304
100
AcDbEntity
  8
2
100
AcDbTrace
 10
0.0
 20
47.7949753541
 30
0.0
 11
3.302
 21
47.2869753541
 31
0.0
 12
3.302
 22
48.3029753541
 32
0.0
 13
3.302
 23
48.3029753541
 33
0.0
  0
SOLID
  5
308
330
304
100
AcDbEntity
  8
2
100
AcDbTrace
 10
63.0
 20
47.7949753541
 30
0.0
 11
59.698
 21
48.3029753541
 31
0.0
 12
59.698
 22
47.2869753541
 32
0.0
 13
59.698
 23
47.2869753541
 33
0.0
  0
LINE
  5
309
330
304
100
AcDbEntity
  8
2
100
AcDbLine
 10
0.0
 20
23.225
 30
0.0
 11
0.0
 21
48.7949753541
 31
0.0
  0
LINE
  5
30A
330
304
100
AcDbEntity
  8
2
100
AcDbLine
 10
63.0
 20
17.4944465005
 30
0.0
 11
63.0
 21
48.7949753541
 31
0.0
  0
LINE
  5
30B
330
304
100
AcDbEntity
  8
2
100
AcDbLine
 10
0.0
 20
47.7949753541
 30
0.0
 11
63.0
 21
47.7949753541
 31
0.0
  0
MTEXT
  5
30C
330
304
100
AcDbEntity
  8
2
100
AcDbMText
 10
30.7058315059
 20
52.3067122686
 30
0.0
 40
3.5
 41
0.0
 71
     1
 72
     1
  1
63
  7
SLDTEXTSTYLE0
 73
     1
 44
1.0
  0
ENDBLK
  5
306
330
304
100
AcDbEntity
  8
0
100
AcDbBlockEnd
  0
BLOCK
  5
30F
330
30E
100
AcDbEntity
  8
0
100
AcDbBlockBegin
  2
_D_3
 70
     0
 10
0.0
 20
0.0
 30
0.0
  3
_D_3
  1

  0
SOLID
  5
311
330
30E
100
AcDbEntity
  8
SK2
100
AcDbTrace
 10
63.0
 20
30.1191960586
 30
0.0
 11
59.698
 21
30.6271960586
 31
0.0
 12
59.698
 22
29.6111960586
 32
0.0
 13
59.698
 23
29.6111960586
 33
0.0
  0
SOLID
  5
312
330
30E
100
AcDbEntity
  8
SK2
100
AcDbTrace
 10
50.0
 20
30.1191960586
 30
0.0
 11
53.302
 21
29.6111960586
 31
0.0
 12
53.302
 22
30.6271960586
 32
0.0
 13
53.302
 23
30.6271960586
 33
0.0
  0
LINE
  5
313
330
30E
100
AcDbEntity
  8
SK2
100
AcDbLine
 10
63.0
 20
17.4944465005
 30
0.0
 11
63.0
 21
31.1191960586
 31
0.0
  0
LINE
  5
314
330
30E
100
AcDbEntity
  8
SK2
100
AcDbLine
 10
50.0
 20
25.0
 30
0.0
 11
50.0
 21
31.1191960586
 31
0.0
  0
LINE
  5
315
330
30E
100
AcDbEntity
  8
SK2
100
AcDbLine
 10
63.0
 20
30.1191960586
 30
0.0
 11
50.0
 21
30.1191960586
 31
0.0
  0
MTEXT
  5
316
330
30E
100
AcDbEntity
  8
SK2
100
AcDbMText
 10
53.4318334572
 20
34.6309329732
 30
0.0
 40
3.5
 41
0.0
 71
     1
 72
     1
  1
13
  7
SLDTEXTSTYLE0
 73
     1
 44
1.0
  0
ENDBLK
  5
310
330
30E
100
AcDbEntity
  8
0
100
AcDbBlockEnd
  0
BLOCK
  5
319
330
318
100
AcDbEntity
  8
0
100
AcDbBlockBegin
  2
_D_4
 70
     0
 10
0.0
 20
0.0
 30
0.0
  3
_D_4
  1

  0
SOLID
  5
31B
330
318
100
AcDbEntity
  8
SK2
100
AcDbTrace
 10
100.7882554261
 20
-24.0
 30
0.0
 11
101.2962554261
 21
-20.698
 31
0.0
 12
100.2802554261
 22
-20.698
 32
0.0
 13
100.2802554261
 23
-20.698
 33
0.0
  0
SOLID
  5
31C
330
318
100
AcDbEntity
  8
SK2
100
AcDbTrace
 10
100.7882554261
 20
24.0
 30
0.0
 11
100.2802554261
 21
20.698
 31
0.0
 12
101.2962554261
 22
20.698
 32
0.0
 13
101.2962554261
 23
20.698
 33
0.0
  0
LINE
  5
31D
330
318
100
AcDbEntity
  8
SK2
100
AcDbLine
 10
51.0
 20
-24.0
 30
0.0
 11
101.7882554261
 21
-24.0
 31
0.0
  0
LINE
  5
31E
330
318
100
AcDbEntity
  8
SK2
100
AcDbLine
 10
51.0
 20
24.0
 30
0.0
 11
101.7882554261
 21
24.0
 31
0.0
  0
LINE
  5
31F
330
318
100
AcDbEntity
  8
SK2
100
AcDbLine
 10
100.7882554261
 20
-24.0
 30
0.0
 11
100.7882554261
 21
24.0
 31
0.0
  0
MTEXT
  5
320
330
318
100
AcDbEntity
  8
SK2
100
AcDbMText
 10
96.2765183369
 20
-5.7231089179
 30
0.0
 40
3.5
 41
0.0
 71
     1
 72
     1
  1
%%c
  7
SLDTEXTSTYLE0
 11
6.123233995736766E-17
 21
1.0
 31
0.0
 73
     1
 44
1.0
  0
MTEXT
  5
321
330
318
100
AcDbEntity
  8
SK2
100
AcDbMText
 10
96.2230461602
 20
-0.4446715196
 30
0.0
 40
3.5
 41
0.0
 71
     1
 72
     1
  1
48
  7
SLDTEXTSTYLE0
 11
6.123233995736766E-17
 21
1.0
 31
0.0
 73
     1
 44
1.0
  0
ENDBLK
  5
31A
330
318
100
AcDbEntity
  8
0
100
AcDbBlockEnd
  0
BLOCK
  5
324
330
323
100
AcDbEntity
  8
0
100
AcDbBlockBegin
  2
_D_5
 70
     0
 10
0.0
 20
0.0
 30
0.0
  3
_D_5
  1

  0
SOLID
  5
326
330
323
100
AcDbEntity
  8
SK2
100
AcDbTrace
 10
90.3646860385
 20
-16.4944465005
 30
0.0
 11
90.8726860385
 21
-13.1924465005
 31
0.0
 12
89.8566860385
 22
-13.1924465005
 32
0.0
 13
89.8566860385
 23
-13.1924465005
 33
0.0
  0
SOLID
  5
327
330
323
100
AcDbEntity
  8
SK2
100
AcDbTrace
 10
90.3646860385
 20
16.4944465005
 30
0.0
 11
89.8566860385
 21
13.1924465005
 31
0.0
 12
90.8726860385
 22
13.1924465005
 32
0.0
 13
90.8726860385
 23
13.1924465005
 33
0.0
  0
LINE
  5
328
330
323
100
AcDbEntity
  8
SK2
100
AcDbLine
 10
64.0
 20
-16.4944465005
 30
0.0
 11
91.3646860385
 21
-16.4944465005
 31
0.0
  0
LINE
  5
329
330
323
100
AcDbEntity
  8
SK2
100
AcDbLine
 10
64.0
 20
16.4944465005
 30
0.0
 11
91.3646860385
 21
16.4944465005
 31
0.0
  0
LINE
  5
32A
330
323
100
AcDbEntity
  8
SK2
100
AcDbLine
 10
90.3646860385
 20
-16.4944465005
 30
0.0
 11
90.3646860385
 21
16.4944465005
 31
0.0
  0
MTEXT
  5
32B
330
323
100
AcDbEntity
  8
SK2
100
AcDbMText
 10
85.8529489492
 20
-5.7231089179
 30
0.0
 40
3.5
 41
0.0
 71
     1
 72
     1
  1
%%c
  7
SLDTEXTSTYLE0
 11
6.123233995736766E-17
 21
1.0
 31
0.0
 73
     1
 44
1.0
  0
MTEXT
  5
32C
330
323
100
AcDbEntity
  8
SK2
100
AcDbMText
 10
85.7994767726
 20
-0.4446715196
 30
0.0
 40
3.5
 41
0.0
 71
     1
 72
     1
  1
33
  7
SLDTEXTSTYLE0
 11
6.123233995736766E-17
 21
1.0
 31
0.0
 73
     1
 44
1.0
  0
ENDBLK
  5
325
330
323
100
AcDbEntity
  8
0
100
AcDbBlockEnd
  0
BLOCK
  5
32F
330
32E
100
AcDbEntity
  8
0
100
AcDbBlockBegin
  2
_D_6
 70
     0
 10
0.0
 20
0.0
 30
0.0
  3
_D_6
  1

  0
SOLID
  5
331
330
32E
100
AcDbEntity
  8
SK2
100
AcDbTrace
 10
81.4943139495
 20
-8.0
 30
0.0
 11
82.0023139495
 21
-4.698
 31
0.0
 12
80.9863139495
 22
-4.698
 32
0.0
 13
80.9863139495
 23
-4.698
 33
0.0
  0
SOLID
  5
332
330
32E
100
AcDbEntity
  8
SK2
100
AcDbTrace
 10
81.4943139495
 20
8.0
 30
0.0
 11
80.9863139495
 21
4.698
 31
0.0
 12
82.0023139495
 22
4.698
 32
0.0
 13
82.0023139495
 23
4.698
 33
0.0
  0
LINE
  5
333
330
32E
100
AcDbEntity
  8
SK2
100
AcDbLine
 10
63.0
 20
-8.0
 30
0.0
 11
82.4943139495
 21
-8.0
 31
0.0
  0
LINE
  5
334
330
32E
100
AcDbEntity
  8
SK2
100
AcDbLine
 10
63.0
 20
8.0
 30
0.0
 11
82.4943139495
 21
8.0
 31
0.0
  0
LINE
  5
335
330
32E
100
AcDbEntity
  8
SK2
100
AcDbLine
 10
81.4943139495
 20
-8.0
 30
0.0
 11
81.4943139495
 21
8.0
 31
0.0
  0
MTEXT
  5
336
330
32E
100
AcDbEntity
  8
SK2
100
AcDbMText
 10
76.9825768603
 20
-5.7231089179
 30
0.0
 40
3.5
 41
0.0
 71
     1
 72
     1
  1
%%c
  7
SLDTEXTSTYLE0
 11
7.273661547324616E-16
 21
1.0
 31
0.0
 73
     1
 44
1.0
  0
MTEXT
  5
337
330
32E
100
AcDbEntity
  8
SK2
100
AcDbMText
 10
76.9291046837
 20
-0.4446715196
 30
0.0
 40
3.5
 41
0.0
 71
     1
 72
     1
  1
16
  7
SLDTEXTSTYLE0
 11
7.273661547324616E-16
 21
1.0
 31
0.0
 73
     1
 44
1.0
  0
ENDBLK
  5
330
330
32E
100
AcDbEntity
  8
0
100
AcDbBlockEnd
  0
BLOCK
  5
33A
330
339
100
AcDbEntity
  8
0
100
AcDbBlockBegin
  2
_D_7
 70
     0
 10
0.0
 20
0.0
 30
0.0
  3
_D_7
  1

  0
SOLID
  5
33C
330
339
100
AcDbEntity
  8
SK2
100
AcDbTrace
 10
63.0
 20
-32.7834383606
 30
0.0
 11
59.698
 21
-32.2754383606
 31
0.0
 12
59.698
 22
-33.2914383606
 32
0.0
 13
59.698
 23
-33.2914383606
 33
0.0
  0
SOLID
  5
33D
330
339
100
AcDbEntity
  8
SK2
100
AcDbTrace
 10
39.0
 20
-32.7834383606
 30
0.0
 11
42.302
 21
-33.2914383606
 31
0.0
 12
42.302
 22
-32.2754383606
 32
0.0
 13
42.302
 23
-32.2754383606
 33
0.0
  0
LINE
  5
33E
330
339
100
AcDbEntity
  8
SK2
100
AcDbLine
 10
63.0
 20
-17.4944465005
 30
0.0
 11
63.0
 21
-33.7834383606
 31
0.0
  0
LINE
  5
33F
330
339
100
AcDbEntity
  8
SK2
100
AcDbLine
 10
39.0
 20
-25.5472080632
 30
0.0
 11
39.0
 21
-33.7834383606
 31
0.0
  0
LINE
  5
340
330
339
100
AcDbEntity
  8
SK2
100
AcDbLine
 10
63.0
 20
-32.7834383606
 30
0.0
 11
39.0
 21
-32.7834383606
 31
0.0
  0
MTEXT
  5
341
330
339
100
AcDbEntity
  8
SK2
100
AcDbMText
 10
48.5090469447
 20
-28.271701446
 30
0.0
 40
3.5
 41
0.0
 71
     1
 72
     1
  1
24
  7
SLDTEXTSTYLE0
 73
     1
 44
1.0
  0
ENDBLK
  5
33B
330
339
100
AcDbEntity
  8
0
100
AcDbBlockEnd
  0
BLOCK
  5
344
330
343
100
AcDbEntity
  8
0
100
AcDbBlockBegin
  2
_D_8
 70
     0
 10
0.0
 20
0.0
 30
0.0
  3
_D_8
  1

  0
SOLID
  5
346
330
343
100
AcDbEntity
  8
SK2
100
AcDbTrace
 10
17.0
 20
-42.5642137478
 30
0.0
 11
20.302
 21
-43.0722137478
 31
0.0
 12
20.302
 22
-42.0562137478
 32
0.0
 13
20.302
 23
-42.0562137478
 33
0.0
  0
SOLID
  5
347
330
343
100
AcDbEntity
  8
SK2
100
AcDbTrace
 10
63.0
 20
-42.5642137478
 30
0.0
 11
59.698
 21
-42.0562137478
 31
0.0
 12
59.698
 22
-43.0722137478
 32
0.0
 13
59.698
 23
-43.0722137478
 33
0.0
  0
LINE
  5
348
330
343
100
AcDbEntity
  8
SK2
100
AcDbLine
 10
17.0
 20
-9.0
 30
0.0
 11
17.0
 21
-43.5642137478
 31
0.0
  0
LINE
  5
349
330
343
100
AcDbEntity
  8
SK2
100
AcDbLine
 10
63.0
 20
-17.4944465005
 30
0.0
 11
63.0
 21
-43.5642137478
 31
0.0
  0
LINE
  5
34A
330
343
100
AcDbEntity
  8
SK2
100
AcDbLine
 10
17.0
 20
-42.5642137478
 30
0.0
 11
63.0
 21
-42.5642137478
 31
0.0
  0
MTEXT
  5
34B
330
343
100
AcDbEntity
  8
SK2
100
AcDbMText
 10
37.9655265737
 20
-38.0524768332
 30
0.0
 40
3.5
 41
0.0
 71
     1
 72
     1
  1
46
  7
SLDTEXTSTYLE0
 73
     1
 44
1.0
  0
ENDBLK
  5
345
330
343
100
AcDbEntity
  8
0
100
AcDbBlockEnd
  0
BLOCK
  5
34E
330
34D
100
AcDbEntity
  8
0
100
AcDbBlockBegin
  2
_D_9
 70
     0
 10
0.0
 20
0.0
 30
0.0
  3
_D_9
  1

  0
SOLID
  5
350
330
34D
100
AcDbEntity
  8
SK2
100
AcDbTrace
 10
-85.1206094866
 20
-22.225
 30
0.0
 11
-84.6126094866
 21
-18.923
 31
0.0
 12
-85.6286094866
 22
-18.923
 32
0.0
 13
-85.6286094866
 23
-18.923
 33
0.0
  0
SOLID
  5
351
330
34D
100
AcDbEntity
  8
SK2
100
AcDbTrace
 10
-85.1206094866
 20
22.225
 30
0.0
 11
-85.6286094866
 21
18.923
 31
0.0
 12
-84.6126094866
 22
18.923
 32
0.0
 13
-84.6126094866
 23
18.923
 33
0.0
  0
LINE
  5
352
330
34D
100
AcDbEntity
  8
SK2
100
AcDbLine
 10
-1.0
 20
-22.225
 30
0.0
 11
-86.1206094866
 21
-22.225
 31
0.0
  0
LINE
  5
353
330
34D
100
AcDbEntity
  8
SK2
100
AcDbLine
 10
-1.0
 20
22.225
 30
0.0
 11
-86.1206094866
 21
22.225
 31
0.0
  0
LINE
  5
354
330
34D
100
AcDbEntity
  8
SK2
100
AcDbLine
 10
-85.1206094866
 20
-22.225
 30
0.0
 11
-85.1206094866
 21
22.225
 31
0.0
  0
MTEXT
  5
355
330
34D
100
AcDbEntity
  8
SK2
100
AcDbMText
 10
-89.6323465758
 20
-8.0614285433
 30
0.0
 40
3.5
 41
0.0
 71
     1
 72
     1
  1
%%c
  7
SLDTEXTSTYLE0
 11
6.123233995736766E-17
 21
1.0
 31
0.0
 73
     1
 44
1.0
  0
MTEXT
  5
356
330
34D
100
AcDbEntity
  8
SK2
100
AcDbMText
 10
-89.6858187524
 20
-2.7829911449
 30
0.0
 40
3.5
 41
0.0
 71
     1
 72
     1
  1
44,45
  7
SLDTEXTSTYLE0
 11
6.123233995736766E-17
 21
1.0
 31
0.0
 73
     1
 44
1.0
  0
ENDBLK
  5
34F
330
34D
100
AcDbEntity
  8
0
100
AcDbBlockEnd
  0
BLOCK
  5
35A
330
359
100
AcDbEntity
  8
0
100
AcDbBlockBegin
  2
_D_10
 70
     0
 10
0.0
 20
0.0
 30
0.0
  3
_D_10
  1

  0
SOLID
  5
35C
330
359
100
AcDbEntity
  8
SK2
100
AcDbTrace
 10
-76.0753814539
 20
-8.00000038
 30
0.0
 11
-76.5833814539
 21
-11.30200038
 31
0.0
 12
-75.5673814539
 22
-11.30200038
 32
0.0
 13
-75.5673814539
 23
-11.30200038
 33
0.0
  0
SOLID
  5
35D
330
359
100
AcDbEntity
  8
SK2
100
AcDbTrace
 10
-76.0753814539
 20
8.00000038
 30
0.0
 11
-75.5673814539
 21
11.30200038
 31
0.0
 12
-76.5833814539
 22
11.30200038
 32
0.0
 13
-76.5833814539
 23
11.30200038
 33
0.0
  0
LINE
  5
35E
330
359
100
AcDbEntity
  8
SK2
100
AcDbLine
 10
-58.2881214321
 20
-8.00000038
 30
0.0
 11
-77.0753814539
 21
-8.00000038
 31
0.0
  0
LINE
  5
35F
330
359
100
AcDbEntity
  8
SK2
100
AcDbLine
 10
-58.2881214321
 20
8.00000038
 30
0.0
 11
-77.0753814539
 21
8.00000038
 31
0.0
  0
LINE
  5
360
330
359
100
AcDbEntity
  8
SK2
100
AcDbLine
 10
-76.0753814539
 20
-8.00000038
 30
0.0
 11
-76.0753814539
 21
-14.35000038
 31
0.0
  0
LINE
  5
361
330
359
100
AcDbEntity
  8
SK2
100
AcDbLine
 10
-76.0753814539
 20
-8.00000038
 30
0.0
 11
-76.0753814539
 21
8.00000038
 31
0.0
  0
LINE
  5
362
330
359
100
AcDbEntity
  8
SK2
100
AcDbLine
 10
-76.0753814539
 20
8.00000038
 30
0.0
 11
-76.0753814539
 21
14.35000038
 31
0.0
  0
MTEXT
  5
363
330
359
100
AcDbEntity
  8
SK2
100
AcDbMText
 10
-80.5871183684
 20
-4.333320994
 30
0.0
 40
3.5
 41
0.0
 71
     1
 72
     1
  1
M
  7
SLDTEXTSTYLE0
 11
3.835990623682900E-15
 21
1.0
 31
0.0
 73
     1
 44
1.0
  0
MTEXT
  5
364
330
359
100
AcDbEntity
  8
SK2
100
AcDbMText
 10
-80.5871183684
 20
-0.0458210596
 30
0.0
 40
3.5
 41
0.0
 71
     1
 72
     1
  1
16
  7
SLDTEXTSTYLE0
 11
3.835990623682900E-15
 21
1.0
 31
0.0
 73
     1
 44
1.0
  0
ENDBLK
  5
35B
330
359
100
AcDbEntity
  8
0
100
AcDbBlockEnd
  0
BLOCK
  5
367
330
366
100
AcDbEntity
  8
0
100
AcDbBlockBegin
  2
_D_11
 70
     0
 10
0.0
 20
0.0
 30
0.0
  3
_D_11
  1

  0
SOLID
  5
369
330
366
100
AcDbEntity
  8
SK2
100
AcDbTrace
 10
-95.7049356935
 20
31.75
 30
0.0
 11
-96.2129356935
 21
28.448
 31
0.0
 12
-95.1969356935
 22
28.448
 32
0.0
 13
-95.1969356935
 23
28.448
 33
0.0
  0
SOLID
  5
36A
330
366
100
AcDbEntity
  8
SK2
100
AcDbTrace
 10
-95.7049356935
 20
-31.75
 30
0.0
 11
-95.1969356935
 21
-28.448
 31
0.0
 12
-96.2129356935
 22
-28.448
 32
0.0
 13
-96.2129356935
 23
-28.448
 33
0.0
  0
LINE
  5
36B
330
366
100
AcDbEntity
  8
SK2
100
AcDbLine
 10
2.95
 20
31.75
 30
0.0
 11
-96.7049356935
 21
31.75
 31
0.0
  0
LINE
  5
36C
330
366
100
AcDbEntity
  8
SK2
100
AcDbLine
 10
2.95
 20
-31.75
 30
0.0
 11
-96.7049356935
 21
-31.75
 31
0.0
  0
LINE
  5
36D
330
366
100
AcDbEntity
  8
SK2
100
AcDbLine
 10
-95.7049356935
 20
31.75
 30
0.0
 11
-95.7049356935
 21
-31.75
 31
0.0
  0
MTEXT
  5
36E
330
366
100
AcDbEntity
  8
SK2
100
AcDbMText
 10
-100.2166727827
 20
-6.7683732957
 30
0.0
 40
3.5
 41
0.0
 71
     1
 72
     1
  1
%%c
  7
SLDTEXTSTYLE0
 11
-7.044195017643634E-15
 21
1.0
 31
0.0
 73
     1
 44
1.0
  0
MTEXT
  5
36F
330
366
100
AcDbEntity
  8
SK2
100
AcDbMText
 10
-100.2701449593
 20
-1.4899358974
 30
0.0
 40
3.5
 41
0.0
 71
     1
 72
     1
  1
63,5
  7
SLDTEXTSTYLE0
 11
-7.044195017643634E-15
 21
1.0
 31
0.0
 73
     1
 44
1.0
  0
ENDBLK
  5
368
330
366
100
AcDbEntity
  8
0
100
AcDbBlockEnd
  0
BLOCK
  5
372
330
371
100
AcDbEntity
  8
0
100
AcDbBlockBegin
  2
SW_NOTE_0
 70
     0
 10
0.0
 20
0.0
 30
0.0
  3
SW_NOTE_0
  1

  0
MTEXT
  5
374
330
371
100
AcDbEntity
  8
SK6
 62
     0
100
AcDbMText
 10
0.0
 20
4.5117370892
 30
0.0
 40
3.5
 41
0.0
 71
     1
 72
     1
  1
TAPER ISO 40
  7
SLDTEXTSTYLE0
 73
     1
 44
1.0
  0
MTEXT
  5
375
330
371
100
AcDbEntity
  8
SK6
 62
     0
100
AcDbMText
 10
0.0
 20
-0.0139574413
 30
0.0
 40
3.5
 41
0.0
 71
     1
 72
     1
  1
DIN 69871-AD/B
  7
SLDTEXTSTYLE0
 73
     1
 44
1.0
  0
ENDBLK
  5
373
330
371
100
AcDbEntity
  8
0
100
AcDbBlockEnd
  0
ENDSEC
  0
SECTION
  2
ENTITIES
  0
LINE
  5
92
330
1F
100
AcDbEntity
  8
1
  6
SLD-Solid
370
    25
100
AcDbLine
 10
7.5931633579
 20
31.75
 30
0.0
 11
3.95
 21
31.75
 31
0.0
  0
LINE
  5
93
330
1F
100
AcDbEntity
  8
1
  6
SLD-Solid
370
    25
100
AcDbLine
 10
18.3
 20
31.75
 30
0.0
 11
14.6368366421
 21
31.75
 31
0.0
  0
LINE
  5
94
330
1F
100
AcDbEntity
  8
1
  6
SLD-Solid
370
    25
100
AcDbLine
 10
14.6368366421
 20
31.75
 30
0.0
 11
13.03
 21
28.9668772965
 31
0.0
  0
LINE
  5
95
330
1F
100
AcDbEntity
  8
1
  6
SLD-Solid
370
    25
100
AcDbLine
 10
9.2
 20
28.9668772965
 30
0.0
 11
7.5931633579
 21
31.75
 31
0.0
  0
LINE
  5
96
330
1F
100
AcDbEntity
  8
1
  6
SLD-Solid
370
    25
100
AcDbLine
 10
47.125
 20
-24.0
 30
0.0
 11
50.0
 21
-24.0
 31
0.0
  0
LINE
  5
97
330
1F
100
AcDbEntity
  8
1
  6
SLD-Solid
370
    25
100
AcDbLine
 10
21.05
 20
-24.0
 30
0.0
 11
30.87593899
 21
-24.0
 31
0.0
  0
LINE
  5
98
330
1F
100
AcDbEntity
  8
1
  6
SLD-Solid
370
    25
100
AcDbLine
 10
32.6010485643
 20
24.0
 30
0.0
 11
21.05
 21
24.0
 31
0.0
  0
LINE
  5
99
330
1F
100
AcDbEntity
  8
1
  6
SLD-Solid
370
    25
100
AcDbLine
 10
50.0
 20
24.0
 30
0.0
 11
45.3936939265
 21
24.0
 31
0.0
  0
LINE
  5
9A
330
1F
100
AcDbEntity
  8
1
  6
SLD-Solid
370
    25
100
AcDbLine
 10
50.0
 20
-24.0
 30
0.0
 11
63.0
 21
-16.4944465005
 31
0.0
  0
LINE
  5
9B
330
1F
100
AcDbEntity
  8
1
  6
SLD-Solid
370
    25
100
AcDbLine
 10
63.0
 20
16.4944465005
 30
0.0
 11
50.0
 21
24.0
 31
0.0
  0
LINE
  5
9C
330
1F
100
AcDbEntity
  8
SK1
  6
SLD-Solid
370
    25
100
AcDbLine
 10
0.0
 20
22.225
 30
0.0
 11
-67.3943082273
 21
12.3965705827
 31
0.0
  0
LINE
  5
9D
330
1F
100
AcDbEntity
  8
SK1
  6
SLD-Solid
370
    25
100
AcDbLine
 10
-67.3943082273
 20
-12.3965705827
 30
0.0
 11
0.0
 21
-22.225
 31
0.0
  0
LINE
  5
9E
330
1F
100
AcDbEntity
  8
1
  6
SLD-Solid
370
    25
100
AcDbLine
 10
1.8869952227
 20
-22.225
 30
0.0
 11
2.1330363037
 21
-22.1102691597
 31
0.0
  0
LINE
  5
9F
330
1F
100
AcDbEntity
  8
1
  6
SLD-Solid
370
    25
100
AcDbLine
 10
2.1330363037
 20
22.1102691597
 30
0.0
 11
1.8869952227
 21
22.225
 31
0.0
  0
LINE
  5
A0
330
1F
100
AcDbEntity
  8
1
  6
SLD-Solid
370
    25
100
AcDbLine
 10
0.0
 20
-22.225
 30
0.0
 11
1.8869952227
 21
-22.225
 31
0.0
  0
LINE
  5
A1
330
1F
100
AcDbEntity
  8
1
  6
SLD-Solid
370
    25
100
AcDbLine
 10
1.8869952227
 20
22.225
 30
0.0
 11
0.0
 21
22.225
 31
0.0
  0
LINE
  5
A2
330
1F
100
AcDbEntity
  8
1
  6
SLD-Solid
370
    25
100
AcDbLine
 10
3.95
 20
-31.75
 30
0.0
 11
7.5931633579
 21
-31.75
 31
0.0
  0
LINE
  5
A3
330
1F
100
AcDbEntity
  8
1
  6
SLD-Solid
370
    25
100
AcDbLine
 10
14.6368366421
 20
-31.75
 30
0.0
 11
18.3
 21
-31.75
 31
0.0
  0
LINE
  5
A4
330
1F
100
AcDbEntity
  8
1
  6
SLD-Solid
370
    25
100
AcDbLine
 10
7.5931633579
 20
-31.75
 30
0.0
 11
9.2
 21
-28.9668772965
 31
0.0
  0
LINE
  5
A5
330
1F
100
AcDbEntity
  8
1
  6
SLD-Solid
370
    25
100
AcDbLine
 10
13.03
 20
-28.9668772965
 30
0.0
 11
14.6368366421
 21
-31.75
 31
0.0
  0
LINE
  5
A6
330
1F
100
AcDbEntity
  8
1
  6
SLD-Solid
370
    25
100
AcDbLine
 10
9.95
 20
-28.0
 30
0.0
 11
12.28
 21
-28.0
 31
0.0
  0
LINE
  5
A7
330
1F
100
AcDbEntity
  8
1
  6
SLD-Solid
370
    25
100
AcDbLine
 10
12.28
 20
28.0
 30
0.0
 11
9.95
 21
28.0
 31
0.0
  0
LINE
  5
A8
330
1F
100
AcDbEntity
  8
1
  6
SLD-Solid
370
    25
100
AcDbLine
 10
14.2709083079
 20
-8.095
 30
0.0
 11
18.3
 21
-8.095
 31
0.0
  0
LINE
  5
A9
330
1F
100
AcDbEntity
  8
1
  6
SLD-Solid
370
    25
100
AcDbLine
 10
18.3
 20
-8.73252
 30
0.0
 11
14.6368366421
 21
-8.73252
 31
0.0
  0
LINE
  5
AA
330
1F
100
AcDbEntity
  8
1
  6
SLD-Solid
370
    25
100
AcDbLine
 10
18.55
 20
-8.095
 30
0.0
 11
19.05
 21
-8.595
 31
0.0
  0
LINE
  5
AB
330
1F
100
AcDbEntity
  8
1
  6
SLD-Solid
370
    25
100
AcDbLine
 10
3.2
 20
8.595
 30
0.0
 11
3.7
 21
8.095
 31
0.0
  0
LINE
  5
AC
330
1F
100
AcDbEntity
  8
1
  6
SLD-Solid
370
    25
100
AcDbLine
 10
3.95
 20
8.73252
 30
0.0
 11
7.5931633579
 21
8.73252
 31
0.0
  0
LINE
  5
AD
330
1F
100
AcDbEntity
  8
1
  6
SLD-Solid
370
    25
100
AcDbLine
 10
7.9590916921
 20
8.095
 30
0.0
 11
3.95
 21
8.095
 31
0.0
  0
LINE
  5
AE
330
1F
100
AcDbEntity
  8
1
  6
SLD-Solid
370
    25
100
AcDbLine
 10
7.5931633579
 20
8.73252
 30
0.0
 11
7.5931633579
 21
31.75
 31
0.0
  0
LINE
  5
AF
330
1F
100
AcDbEntity
  8
1
  6
SLD-Solid
370
    25
100
AcDbLine
 10
3.2
 20
8.595
 30
0.0
 11
3.2
 21
31.0
 31
0.0
  0
LINE
  5
B0
330
1F
100
AcDbEntity
  8
1
  6
SLD-Solid
370
    25
100
AcDbLine
 10
19.05
 20
-18.35
 30
0.0
 11
19.05
 21
-8.595
 31
0.0
  0
LINE
  5
B1
330
1F
100
AcDbEntity
  8
1
  6
SLD-Solid
370
    25
100
AcDbLine
 10
14.6368366421
 20
-18.35
 30
0.0
 11
18.3
 21
-18.35
 31
0.0
  0
LINE
  5
B2
330
1F
100
AcDbEntity
  8
1
  6
SLD-Solid
370
    25
100
AcDbLine
 10
14.6368366421
 20
-18.35
 30
0.0
 11
14.6368366421
 21
-8.73252
 31
0.0
  0
LINE
  5
B3
330
1F
100
AcDbEntity
  8
1
  6
SLD-Solid
370
    25
100
AcDbLine
 10
18.55
 20
8.095
 30
0.0
 11
19.05
 21
8.595
 31
0.0
  0
LINE
  5
B4
330
1F
100
AcDbEntity
  8
1
  6
SLD-Solid
370
    25
100
AcDbLine
 10
19.05
 20
8.595
 30
0.0
 11
19.05
 21
31.0
 31
0.0
  0
LINE
  5
B5
330
1F
100
AcDbEntity
  8
1
  6
SLD-Solid
370
    25
100
AcDbLine
 10
14.6368366421
 20
8.73252
 30
0.0
 11
18.3
 21
8.73252
 31
0.0
  0
LINE
  5
B6
330
1F
100
AcDbEntity
  8
1
  6
SLD-Solid
370
    25
100
AcDbLine
 10
14.6368366421
 20
8.73252
 30
0.0
 11
14.6368366421
 21
31.75
 31
0.0
  0
LINE
  5
B7
330
1F
100
AcDbEntity
  8
1
  6
SLD-Solid
370
    25
100
AcDbLine
 10
18.3
 20
8.095
 30
0.0
 11
14.2709083079
 21
8.095
 31
0.0
  0
LINE
  5
B8
330
1F
100
AcDbEntity
  8
1
  6
SLD-Solid
370
    25
100
AcDbLine
 10
3.2
 20
-18.35
 30
0.0
 11
3.2
 21
-8.595
 31
0.0
  0
LINE
  5
B9
330
1F
100
AcDbEntity
  8
1
  6
SLD-Solid
370
    25
100
AcDbLine
 10
3.95
 20
-18.35
 30
0.0
 11
7.5931633579
 21
-18.35
 31
0.0
  0
LINE
  5
BA
330
1F
100
AcDbEntity
  8
1
  6
SLD-Solid
370
    25
100
AcDbLine
 10
7.5931633579
 20
-8.73252
 30
0.0
 11
3.95
 21
-8.73252
 31
0.0
  0
LINE
  5
BB
330
1F
100
AcDbEntity
  8
1
  6
SLD-Solid
370
    25
100
AcDbLine
 10
7.5931633579
 20
-18.35
 30
0.0
 11
7.5931633579
 21
-8.73252
 31
0.0
  0
LINE
  5
BC
330
1F
100
AcDbEntity
  8
1
  6
SLD-Solid
370
    25
100
AcDbLine
 10
3.95
 20
-8.095
 30
0.0
 11
7.9590916921
 21
-8.095
 31
0.0
  0
LINE
  5
BD
330
1F
100
AcDbEntity
  8
1
  6
SLD-Solid
370
    25
100
AcDbLine
 10
3.2
 20
-8.595
 30
0.0
 11
3.7
 21
-8.095
 31
0.0
  0
LINE
  5
BE
330
1F
100
AcDbEntity
  8
1
  6
SLD-Solid
370
    25
100
AcDbLine
 10
13.03
 20
8.095
 30
0.0
 11
13.03
 21
27.0172626808
 31
0.0
  0
LINE
  5
BF
330
1F
100
AcDbEntity
  8
1
  6
SLD-Solid
370
    25
100
AcDbLine
 10
13.03
 20
27.4118626313
 30
0.0
 11
13.03
 21
28.9668772965
 31
0.0
  0
LINE
  5
C0
330
1F
100
AcDbEntity
  8
1
  6
SLD-Solid
370
    25
100
AcDbLine
 10
13.03
 20
-18.35
 30
0.0
 11
13.03
 21
-8.095
 31
0.0
  0
LINE
  5
C1
330
1F
100
AcDbEntity
  8
1
  6
SLD-Solid
370
    25
100
AcDbLine
 10
9.2
 20
27.4118626313
 30
0.0
 11
9.2
 21
28.9668772965
 31
0.0
  0
LINE
  5
C2
330
1F
100
AcDbEntity
  8
1
  6
SLD-Solid
370
    25
100
AcDbLine
 10
9.2
 20
8.095
 30
0.0
 11
9.2
 21
27.0172626808
 31
0.0
  0
LINE
  5
C3
330
1F
100
AcDbEntity
  8
1
  6
SLD-Solid
370
    25
100
AcDbLine
 10
9.2
 20
-18.35
 30
0.0
 11
9.2
 21
-8.095
 31
0.0
  0
LINE
  5
C4
330
1F
100
AcDbEntity
  8
1
  6
SLD-Solid
370
    25
100
AcDbLine
 10
9.95
 20
8.095
 30
0.0
 11
12.28
 21
8.095
 31
0.0
  0
LINE
  5
C5
330
1F
100
AcDbEntity
  8
1
  6
SLD-Solid
370
    25
100
AcDbLine
 10
9.95
 20
-18.35
 30
0.0
 11
12.28
 21
-18.35
 31
0.0
  0
LINE
  5
C6
330
1F
100
AcDbEntity
  8
1
  6
SLD-Solid
370
    25
100
AcDbLine
 10
12.28
 20
-8.095
 30
0.0
 11
9.95
 21
-8.095
 31
0.0
  0
LINE
  5
C7
330
1F
100
AcDbEntity
  8
1
  6
SLD-Solid
370
    25
100
AcDbLine
 10
19.05
 20
-8.3352720352
 30
0.0
 11
19.05
 21
-8.595
 31
0.0
  0
LINE
  5
C8
330
1F
100
AcDbEntity
  8
1
  6
SLD-Solid
370
    25
100
AcDbLine
 10
19.05
 20
8.595
 30
0.0
 11
19.05
 21
8.3352720352
 31
0.0
  0
LINE
  5
C9
330
1F
100
AcDbEntity
  8
1
  6
SLD-Solid
370
    25
100
AcDbLine
 10
3.2
 20
-8.595
 30
0.0
 11
3.2
 21
-7.595
 31
0.0
  0
LINE
  5
CA
330
1F
100
AcDbEntity
  8
1
  6
SLD-Solid
370
    25
100
AcDbLine
 10
3.2
 20
7.595
 30
0.0
 11
3.2
 21
8.595
 31
0.0
  0
LINE
  5
CB
330
1F
100
AcDbEntity
  8
1
  6
SLD-Solid
370
    25
100
AcDbLine
 10
3.2
 20
-7.595
 30
0.0
 11
3.2
 21
7.595
 31
0.0
  0
LINE
  5
CC
330
1F
100
AcDbEntity
  8
1
  6
SLD-Solid
370
    25
100
AcDbLine
 10
50.0
 20
-24.0
 30
0.0
 11
50.0
 21
24.0
 31
0.0
  0
LINE
  5
CD
330
1F
100
AcDbEntity
  8
1
  6
SLD-Solid
370
    25
100
AcDbLine
 10
63.0
 20
-16.4944465005
 30
0.0
 11
63.0
 21
16.4944465005
 31
0.0
  0
LINE
  5
CE
330
1F
100
AcDbEntity
  8
1
  6
SLD-Solid
370
    25
100
AcDbLine
 10
0.0
 20
-22.225
 30
0.0
 11
0.0
 21
22.225
 31
0.0
  0
LINE
  5
CF
330
1F
100
AcDbEntity
  8
1
  6
SLD-Solid
370
    25
100
AcDbLine
 10
3.2
 20
-18.85
 30
0.0
 11
3.2
 21
-18.35
 31
0.0
  0
LINE
  5
D0
330
1F
100
AcDbEntity
  8
1
  6
SLD-Solid
370
    25
100
AcDbLine
 10
19.05
 20
-18.35
 30
0.0
 11
19.05
 21
-18.85
 31
0.0
  0
LINE
  5
D1
330
1F
100
AcDbEntity
  8
1
  6
SLD-Solid
370
    25
100
AcDbLine
 10
7.5931633579
 20
-25.91022964
 30
0.0
 11
3.95
 21
-25.91022964
 31
0.0
  0
LINE
  5
D2
330
1F
100
AcDbEntity
  8
1
  6
SLD-Solid
370
    25
100
AcDbLine
 10
7.5931633579
 20
-31.75
 30
0.0
 11
7.5931633579
 21
-25.91022964
 31
0.0
  0
LINE
  5
D3
330
1F
100
AcDbEntity
  8
1
  6
SLD-Solid
370
    25
100
AcDbLine
 10
3.2
 20
-31.0
 30
0.0
 11
3.2
 21
-24.9855458216
 31
0.0
  0
LINE
  5
D4
330
1F
100
AcDbEntity
  8
1
  6
SLD-Solid
370
    25
100
AcDbLine
 10
18.3
 20
-25.91022964
 30
0.0
 11
14.6368366421
 21
-25.91022964
 31
0.0
  0
LINE
  5
D5
330
1F
100
AcDbEntity
  8
1
  6
SLD-Solid
370
    25
100
AcDbLine
 10
14.6368366421
 20
-31.75
 30
0.0
 11
14.6368366421
 21
-25.91022964
 31
0.0
  0
LINE
  5
D6
330
1F
100
AcDbEntity
  8
1
  6
SLD-Solid
370
    25
100
AcDbLine
 10
19.05
 20
-31.0
 30
0.0
 11
19.05
 21
-24.9855458215
 31
0.0
  0
LINE
  5
D7
330
1F
100
AcDbEntity
  8
1
  6
SLD-Solid
370
    25
100
AcDbLine
 10
9.2
 20
-28.9668772965
 30
0.0
 11
9.2
 21
-22.4133326462
 31
0.0
  0
LINE
  5
D8
330
1F
100
AcDbEntity
  8
1
  6
SLD-Solid
370
    25
100
AcDbLine
 10
13.03
 20
-28.9668772965
 30
0.0
 11
13.03
 21
-22.4133326462
 31
0.0
  0
LINE
  5
D9
330
1F
100
AcDbEntity
  8
1
  6
SLD-Solid
370
    25
100
AcDbLine
 10
12.28
 20
-21.1489361435
 30
0.0
 11
9.95
 21
-21.1489361435
 31
0.0
  0
LINE
  5
DA
330
1F
100
AcDbEntity
  8
1
  6
SLD-Solid
370
    25
100
AcDbLine
 10
13.03
 20
-22.4133326462
 30
0.0
 11
13.03
 21
-22.1323292945
 31
0.0
  0
LINE
  5
DB
330
1F
100
AcDbEntity
  8
1
  6
SLD-Solid
370
    25
100
AcDbLine
 10
9.2
 20
-22.1323292945
 30
0.0
 11
9.2
 21
-22.4133326462
 31
0.0
  0
LINE
  5
DC
330
1F
100
AcDbEntity
  8
1
  6
SLD-Solid
370
    25
100
AcDbLine
 10
3.2
 20
-18.85
 30
0.0
 11
3.2
 21
-24.9855458216
 31
0.0
  0
LINE
  5
DD
330
1F
100
AcDbEntity
  8
1
  6
SLD-Solid
370
    25
100
AcDbLine
 10
19.05
 20
-18.85
 30
0.0
 11
19.05
 21
-24.9855458215
 31
0.0
  0
LINE
  5
DE
330
1F
100
AcDbEntity
  8
SK1
  6
SLD-Solid
370
    25
100
AcDbLine
 10
-68.25
 20
-11.4070377962
 30
0.0
 11
-68.25
 21
11.4070377962
 31
0.0
  0
LINE
  5
DF
330
1F
100
AcDbEntity
  8
1
  6
SLD-Solid
370
    25
100
AcDbLine
 10
9.2
 20
27.2080239064
 30
0.0
 11
9.2
 21
27.4118626313
 31
0.0
  0
LINE
  5
E0
330
1F
100
AcDbEntity
  8
1
  6
SLD-Solid
370
    25
100
AcDbLine
 10
13.03
 20
27.4118626313
 30
0.0
 11
13.03
 21
27.2080239064
 31
0.0
  0
LINE
  5
E1
330
1F
100
AcDbEntity
  8
1
  6
SLD-Dashed
370
    18
100
AcDbLine
 10
13.1081088715
 20
27.3467456154
 30
0.0
 11
13.1123837663
 21
27.3888561012
 31
0.0
  0
LINE
  5
E2
330
1F
100
AcDbEntity
  8
1
  6
SLD-Dashed
370
    18
100
AcDbLine
 10
9.1331830483
 20
27.4195712955
 30
0.0
 11
9.1218911285
 21
27.3465480095
 31
0.0
  0
LINE
  5
E3
330
1F
100
AcDbEntity
  8
SK3
  6
SLD-Dashed
370
    18
100
AcDbLine
 10
9.1285767029
 20
23.1308393474
 30
0.0
 11
9.2422118013
 21
22.9703436114
 31
0.0
  0
LINE
  5
E4
330
1F
100
AcDbEntity
  8
SK3
  6
SLD-Dashed
370
    18
100
AcDbLine
 10
9.2422118013
 20
22.9703436114
 30
0.0
 11
9.4649911871
 21
22.8238385806
 31
0.0
  0
LINE
  5
E5
330
1F
100
AcDbEntity
  8
SK3
  6
SLD-Dashed
370
    18
100
AcDbLine
 10
9.4649911871
 20
22.8238385806
 30
0.0
 11
9.7839314929
 21
22.6998624266
 31
0.0
  0
LINE
  5
E6
330
1F
100
AcDbEntity
  8
SK3
  6
SLD-Dashed
370
    18
100
AcDbLine
 10
9.7839314929
 20
22.6998624266
 30
0.0
 11
10.1804451857
 21
22.60564036
 31
0.0
  0
LINE
  5
E7
330
1F
100
AcDbEntity
  8
SK3
  6
SLD-Dashed
370
    18
100
AcDbLine
 10
10.1804451857
 20
22.60564036
 30
0.0
 11
10.6314238305
 21
22.5466635519
 31
0.0
  0
LINE
  5
E8
330
1F
100
AcDbEntity
  8
SK3
  6
SLD-Dashed
370
    18
100
AcDbLine
 10
10.6314238305
 20
22.5466635519
 30
0.0
 11
11.1105848275
 21
22.5263691136
 31
0.0
  0
LINE
  5
E9
330
1F
100
AcDbEntity
  8
SK3
  6
SLD-Dashed
370
    18
100
AcDbLine
 10
11.1105848275
 20
22.5263691136
 30
0.0
 11
11.5900031364
 21
22.5459397854
 31
0.0
  0
LINE
  5
EA
330
1F
100
AcDbEntity
  8
SK3
  6
SLD-Dashed
370
    18
100
AcDbLine
 10
11.5900031364
 20
22.5459397854
 30
0.0
 11
12.0417387213
 21
22.6042350074
 31
0.0
  0
LINE
  5
EB
330
1F
100
AcDbEntity
  8
SK3
  6
SLD-Dashed
370
    18
100
AcDbLine
 10
12.0417387213
 20
22.6042350074
 30
0.0
 11
12.4394648686
 21
22.6978573905
 31
0.0
  0
LINE
  5
EC
330
1F
100
AcDbEntity
  8
SK3
  6
SLD-Dashed
370
    18
100
AcDbLine
 10
12.4394648686
 20
22.6978573905
 30
0.0
 11
12.7600024825
 21
22.8213507126
 31
0.0
  0
LINE
  5
ED
330
1F
100
AcDbEntity
  8
SK3
  6
SLD-Dashed
370
    18
100
AcDbLine
 10
12.7600024825
 20
22.8213507126
 30
0.0
 11
12.9846709405
 21
22.967517902
 31
0.0
  0
LINE
  5
EE
330
1F
100
AcDbEntity
  8
SK3
  6
SLD-Dashed
370
    18
100
AcDbLine
 10
12.9846709405
 20
22.967517902
 30
0.0
 11
13.1003767818
 21
23.1278404763
 31
0.0
  0
LINE
  5
EF
330
1F
100
AcDbEntity
  8
SK3
  6
SLD-Dashed
370
    18
100
AcDbLine
 10
13.1003767818
 20
23.1278404763
 30
0.0
 11
13.1003767818
 21
23.2929749905
 31
0.0
  0
LINE
  5
F0
330
1F
100
AcDbEntity
  8
SK3
  6
SLD-Dashed
370
    18
100
AcDbLine
 10
13.1003767818
 20
23.2929749905
 30
0.0
 11
12.9846709405
 21
23.4532975648
 31
0.0
  0
LINE
  5
F1
330
1F
100
AcDbEntity
  8
SK3
  6
SLD-Dashed
370
    18
100
AcDbLine
 10
12.9846709405
 20
23.4532975648
 30
0.0
 11
12.7600024825
 21
23.5994647542
 31
0.0
  0
LINE
  5
F2
330
1F
100
AcDbEntity
  8
SK3
  6
SLD-Dashed
370
    18
100
AcDbLine
 10
12.7600024825
 20
23.5994647542
 30
0.0
 11
12.4394648686
 21
23.7229580763
 31
0.0
  0
LINE
  5
F3
330
1F
100
AcDbEntity
  8
SK3
  6
SLD-Dashed
370
    18
100
AcDbLine
 10
12.4394648686
 20
23.7229580763
 30
0.0
 11
12.0417387213
 21
23.8165804594
 31
0.0
  0
LINE
  5
F4
330
1F
100
AcDbEntity
  8
SK3
  6
SLD-Dashed
370
    18
100
AcDbLine
 10
12.0417387213
 20
23.8165804594
 30
0.0
 11
11.5900031364
 21
23.8748756814
 31
0.0
  0
LINE
  5
F5
330
1F
100
AcDbEntity
  8
SK3
  6
SLD-Dashed
370
    18
100
AcDbLine
 10
11.5900031364
 20
23.8748756814
 30
0.0
 11
11.1105848275
 21
23.8944463532
 31
0.0
  0
LINE
  5
F6
330
1F
100
AcDbEntity
  8
SK3
  6
SLD-Dashed
370
    18
100
AcDbLine
 10
11.1105848275
 20
23.8944463532
 30
0.0
 11
10.6314238305
 21
23.8741519149
 31
0.0
  0
LINE
  5
F7
330
1F
100
AcDbEntity
  8
SK3
  6
SLD-Dashed
370
    18
100
AcDbLine
 10
10.6314238305
 20
23.8741519149
 30
0.0
 11
10.1804451857
 21
23.8151751068
 31
0.0
  0
LINE
  5
F8
330
1F
100
AcDbEntity
  8
SK3
  6
SLD-Dashed
370
    18
100
AcDbLine
 10
10.1804451857
 20
23.8151751068
 30
0.0
 11
9.7839314929
 21
23.7209530402
 31
0.0
  0
LINE
  5
F9
330
1F
100
AcDbEntity
  8
SK3
  6
SLD-Dashed
370
    18
100
AcDbLine
 10
9.7839314929
 20
23.7209530402
 30
0.0
 11
9.4649911871
 21
23.5969768862
 31
0.0
  0
LINE
  5
FA
330
1F
100
AcDbEntity
  8
SK3
  6
SLD-Dashed
370
    18
100
AcDbLine
 10
9.4649911871
 20
23.5969768862
 30
0.0
 11
9.2422118013
 21
23.4504718554
 31
0.0
  0
LINE
  5
FB
330
1F
100
AcDbEntity
  8
SK3
  6
SLD-Dashed
370
    18
100
AcDbLine
 10
9.2422118013
 20
23.4504718554
 30
0.0
 11
9.1285767029
 21
23.2899761194
 31
0.0
  0
LINE
  5
FC
330
1F
100
AcDbEntity
  8
1
  6
SLD-Dashed
370
    18
100
AcDbLine
 10
13.03
 20
26.813423956
 30
0.0
 11
13.03
 21
27.0172626808
 31
0.0
  0
LINE
  5
FD
330
1F
100
AcDbEntity
  8
1
  6
SLD-Dashed
370
    18
100
AcDbLine
 10
9.2
 20
27.0172626808
 30
0.0
 11
9.2
 21
26.813423956
 31
0.0
  0
LINE
  5
FE
330
1F
100
AcDbEntity
  8
SK3
  6
SLD-Dashed
370
    18
100
AcDbLine
 10
3.3100253255
 20
22.7838057852
 30
0.0
 11
3.4272021018
 21
22.7676693301
 31
0.0
  0
LINE
  5
FF
330
1F
100
AcDbEntity
  8
SK3
  6
SLD-Dashed
370
    18
100
AcDbLine
 10
3.4272021018
 20
22.7676693301
 30
0.0
 11
3.6079550452
 21
22.8449685093
 31
0.0
  0
LINE
  5
100
330
1F
100
AcDbEntity
  8
SK3
  6
SLD-Dashed
370
    18
100
AcDbLine
 10
3.6079550452
 20
22.8449685093
 30
0.0
 11
3.8417794516
 21
23.0112109753
 31
0.0
  0
LINE
  5
101
330
1F
100
AcDbEntity
  8
SK3
  6
SLD-Dashed
370
    18
100
AcDbLine
 10
3.8417794516
 20
23.0112109753
 30
0.0
 11
4.1150862965
 21
23.2567353205
 31
0.0
  0
LINE
  5
102
330
1F
100
AcDbEntity
  8
SK3
  6
SLD-Dashed
370
    18
100
AcDbLine
 10
4.1150862965
 20
23.2567353205
 30
0.0
 11
4.4119919794
 21
23.5672725622
 31
0.0
  0
LINE
  5
103
330
1F
100
AcDbEntity
  8
SK3
  6
SLD-Dashed
370
    18
100
AcDbLine
 10
4.4119919794
 20
23.5672725622
 30
0.0
 11
4.7152414213
 21
23.9247754047
 31
0.0
  0
LINE
  5
104
330
1F
100
AcDbEntity
  8
SK3
  6
SLD-Dashed
370
    18
100
AcDbLine
 10
4.7152414213
 20
23.9247754047
 30
0.0
 11
5.0072108668
 21
24.3084670823
 31
0.0
  0
LINE
  5
105
330
1F
100
AcDbEntity
  8
SK3
  6
SLD-Dashed
370
    18
100
AcDbLine
 10
5.0072108668
 20
24.3084670823
 30
0.0
 11
5.2709321131
 21
24.6960488293
 31
0.0
  0
LINE
  5
106
330
1F
100
AcDbEntity
  8
SK3
  6
SLD-Dashed
370
    18
100
AcDbLine
 10
5.2709321131
 20
24.6960488293
 30
0.0
 11
5.4910786399
 21
25.0649958035
 31
0.0
  0
LINE
  5
107
330
1F
100
AcDbEntity
  8
SK3
  6
SLD-Dashed
370
    18
100
AcDbLine
 10
5.4910786399
 20
25.0649958035
 30
0.0
 11
5.6548563313
 21
25.3938661477
 31
0.0
  0
LINE
  5
108
330
1F
100
AcDbEntity
  8
SK3
  6
SLD-Dashed
370
    18
100
AcDbLine
 10
5.6548563313
 20
25.3938661477
 30
0.0
 11
5.7527470232
 21
25.6635471129
 31
0.0
  0
LINE
  5
109
330
1F
100
AcDbEntity
  8
SK3
  6
SLD-Dashed
370
    18
100
AcDbLine
 10
5.7527470232
 20
25.6635471129
 30
0.0
 11
5.7790616643
 21
25.8583658217
 31
0.0
  0
LINE
  5
10A
330
1F
100
AcDbEntity
  8
SK3
  6
SLD-Dashed
370
    18
100
AcDbLine
 10
5.7790616643
 20
25.8583658217
 30
0.0
 11
5.7322709434
 21
25.9670001189
 31
0.0
  0
LINE
  5
10B
330
1F
100
AcDbEntity
  8
SK3
  6
SLD-Dashed
370
    18
100
AcDbLine
 10
5.7322709434
 20
25.9670001189
 30
0.0
 11
5.6150941671
 21
25.983136574
 31
0.0
  0
LINE
  5
10C
330
1F
100
AcDbEntity
  8
SK3
  6
SLD-Dashed
370
    18
100
AcDbLine
 10
5.6150941671
 20
25.983136574
 30
0.0
 11
5.4343412237
 21
25.9058373948
 31
0.0
  0
LINE
  5
10D
330
1F
100
AcDbEntity
  8
SK3
  6
SLD-Dashed
370
    18
100
AcDbLine
 10
5.4343412237
 20
25.9058373948
 30
0.0
 11
5.2005168173
 21
25.7395949287
 31
0.0
  0
LINE
  5
10E
330
1F
100
AcDbEntity
  8
SK3
  6
SLD-Dashed
370
    18
100
AcDbLine
 10
5.2005168173
 20
25.7395949287
 30
0.0
 11
4.9272099725
 21
25.4940705836
 31
0.0
  0
LINE
  5
10F
330
1F
100
AcDbEntity
  8
SK3
  6
SLD-Dashed
370
    18
100
AcDbLine
 10
4.9272099725
 20
25.4940705836
 30
0.0
 11
4.6303042896
 21
25.1835333419
 31
0.0
  0
LINE
  5
110
330
1F
100
AcDbEntity
  8
SK3
  6
SLD-Dashed
370
    18
100
AcDbLine
 10
4.6303042896
 20
25.1835333419
 30
0.0
 11
4.3270548477
 21
24.8260304994
 31
0.0
  0
LINE
  5
111
330
1F
100
AcDbEntity
  8
SK3
  6
SLD-Dashed
370
    18
100
AcDbLine
 10
4.3270548477
 20
24.8260304994
 30
0.0
 11
4.0350854021
 21
24.4423388218
 31
0.0
  0
LINE
  5
112
330
1F
100
AcDbEntity
  8
SK3
  6
SLD-Dashed
370
    18
100
AcDbLine
 10
4.0350854021
 20
24.4423388218
 30
0.0
 11
3.7713641558
 21
24.0547570748
 31
0.0
  0
LINE
  5
113
330
1F
100
AcDbEntity
  8
SK3
  6
SLD-Dashed
370
    18
100
AcDbLine
 10
3.7713641558
 20
24.0547570748
 30
0.0
 11
3.551217629
 21
23.6858101006
 31
0.0
  0
LINE
  5
114
330
1F
100
AcDbEntity
  8
SK3
  6
SLD-Dashed
370
    18
100
AcDbLine
 10
3.551217629
 20
23.6858101006
 30
0.0
 11
3.3874399376
 21
23.3569397564
 31
0.0
  0
LINE
  5
115
330
1F
100
AcDbEntity
  8
SK3
  6
SLD-Dashed
370
    18
100
AcDbLine
 10
3.3874399376
 20
23.3569397564
 30
0.0
 11
3.2895492458
 21
23.0872587912
 31
0.0
  0
LINE
  5
116
330
1F
100
AcDbEntity
  8
SK3
  6
SLD-Dashed
370
    18
100
AcDbLine
 10
3.2895492458
 20
23.0872587912
 30
0.0
 11
3.2632346046
 21
22.8924400823
 31
0.0
  0
LINE
  5
117
330
1F
100
AcDbEntity
  8
SK3
  6
SLD-Dashed
370
    18
100
AcDbLine
 10
3.2632346046
 20
22.8924400823
 30
0.0
 11
3.3100253255
 21
22.7838057852
 31
0.0
  0
LINE
  5
118
330
1F
100
AcDbEntity
  8
SK3
  6
SLD-Dashed
370
    18
100
AcDbLine
 10
3.2
 20
22.8742979511
 30
0.0
 11
3.2
 21
27.8871582268
 31
0.0
  0
LINE
  5
119
330
1F
100
AcDbEntity
  8
SK3
  6
SLD-Dashed
370
    18
100
AcDbLine
 10
3.3403033958
 20
22.8235957143
 30
0.0
 11
3.4545507526
 21
22.8078626706
 31
0.0
  0
LINE
  5
11A
330
1F
100
AcDbEntity
  8
SK3
  6
SLD-Dashed
370
    18
100
AcDbLine
 10
3.4545507526
 20
22.8078626706
 30
0.0
 11
3.6307848724
 21
22.8832293703
 31
0.0
  0
LINE
  5
11B
330
1F
100
AcDbEntity
  8
SK3
  6
SLD-Dashed
370
    18
100
AcDbLine
 10
3.6307848724
 20
22.8832293703
 30
0.0
 11
3.8587636687
 21
23.0453157748
 31
0.0
  0
LINE
  5
11C
330
1F
100
AcDbEntity
  8
SK3
  6
SLD-Dashed
370
    18
100
AcDbLine
 10
3.8587636687
 20
23.0453157748
 30
0.0
 11
4.1252378424
 21
23.2847020113
 31
0.0
  0
LINE
  5
11D
330
1F
100
AcDbEntity
  8
SK3
  6
SLD-Dashed
370
    18
100
AcDbLine
 10
4.1252378424
 20
23.2847020113
 30
0.0
 11
4.4147208833
 21
23.5874758219
 31
0.0
  0
LINE
  5
11E
330
1F
100
AcDbEntity
  8
SK3
  6
SLD-Dashed
370
    18
100
AcDbLine
 10
4.4147208833
 20
23.5874758219
 30
0.0
 11
4.7103890891
 21
23.9360410934
 31
0.0
  0
LINE
  5
11F
330
1F
100
AcDbEntity
  8
SK3
  6
SLD-Dashed
370
    18
100
AcDbLine
 10
4.7103890891
 20
23.9360410934
 30
0.0
 11
4.9950592985
 21
24.310140479
 31
0.0
  0
LINE
  5
120
330
1F
100
AcDbEntity
  8
SK3
  6
SLD-Dashed
370
    18
100
AcDbLine
 10
4.9950592985
 20
24.310140479
 30
0.0
 11
5.2521875137
 21
24.6880326824
 31
0.0
  0
LINE
  5
121
330
1F
100
AcDbEntity
  8
SK3
  6
SLD-Dashed
370
    18
100
AcDbLine
 10
5.2521875137
 20
24.6880326824
 30
0.0
 11
5.4668303773
 21
25.0477559822
 31
0.0
  0
LINE
  5
122
330
1F
100
AcDbEntity
  8
SK3
  6
SLD-Dashed
370
    18
100
AcDbLine
 10
5.4668303773
 20
25.0477559822
 30
0.0
 11
5.6265136264
 21
25.3684045678
 31
0.0
  0
LINE
  5
123
330
1F
100
AcDbEntity
  8
SK3
  6
SLD-Dashed
370
    18
100
AcDbLine
 10
5.6265136264
 20
25.3684045678
 30
0.0
 11
5.721957051
 21
25.6313435089
 31
0.0
  0
LINE
  5
124
330
1F
100
AcDbEntity
  8
SK3
  6
SLD-Dashed
370
    18
100
AcDbLine
 10
5.721957051
 20
25.6313435089
 30
0.0
 11
5.7476138261
 21
25.82129175
 31
0.0
  0
LINE
  5
125
330
1F
100
AcDbEntity
  8
SK3
  6
SLD-Dashed
370
    18
100
AcDbLine
 10
5.7476138261
 20
25.82129175
 30
0.0
 11
5.7019928732
 21
25.9272101898
 31
0.0
  0
LINE
  5
126
330
1F
100
AcDbEntity
  8
SK3
  6
SLD-Dashed
370
    18
100
AcDbLine
 10
5.7019928732
 20
25.9272101898
 30
0.0
 11
5.5877455163
 21
25.9429432334
 31
0.0
  0
LINE
  5
127
330
1F
100
AcDbEntity
  8
SK3
  6
SLD-Dashed
370
    18
100
AcDbLine
 10
5.5877455163
 20
25.9429432334
 30
0.0
 11
5.4115113965
 21
25.8675765338
 31
0.0
  0
LINE
  5
128
330
1F
100
AcDbEntity
  8
SK3
  6
SLD-Dashed
370
    18
100
AcDbLine
 10
5.4115113965
 20
25.8675765338
 30
0.0
 11
5.1835326003
 21
25.7054901293
 31
0.0
  0
LINE
  5
129
330
1F
100
AcDbEntity
  8
SK3
  6
SLD-Dashed
370
    18
100
AcDbLine
 10
5.1835326003
 20
25.7054901293
 30
0.0
 11
4.9170584265
 21
25.4661038928
 31
0.0
  0
LINE
  5
12A
330
1F
100
AcDbEntity
  8
SK3
  6
SLD-Dashed
370
    18
100
AcDbLine
 10
4.9170584265
 20
25.4661038928
 30
0.0
 11
4.6275753857
 21
25.1633300822
 31
0.0
  0
LINE
  5
12B
330
1F
100
AcDbEntity
  8
SK3
  6
SLD-Dashed
370
    18
100
AcDbLine
 10
4.6275753857
 20
25.1633300822
 30
0.0
 11
4.3319071799
 21
24.8147648107
 31
0.0
  0
LINE
  5
12C
330
1F
100
AcDbEntity
  8
SK3
  6
SLD-Dashed
370
    18
100
AcDbLine
 10
4.3319071799
 20
24.8147648107
 30
0.0
 11
4.0472369705
 21
24.4406654251
 31
0.0
  0
LINE
  5
12D
330
1F
100
AcDbEntity
  8
SK3
  6
SLD-Dashed
370
    18
100
AcDbLine
 10
4.0472369705
 20
24.4406654251
 30
0.0
 11
3.7901087553
 21
24.0627732217
 31
0.0
  0
LINE
  5
12E
330
1F
100
AcDbEntity
  8
SK3
  6
SLD-Dashed
370
    18
100
AcDbLine
 10
3.7901087553
 20
24.0627732217
 30
0.0
 11
3.5754658917
 21
23.7030499219
 31
0.0
  0
LINE
  5
12F
330
1F
100
AcDbEntity
  8
SK3
  6
SLD-Dashed
370
    18
100
AcDbLine
 10
3.5754658917
 20
23.7030499219
 30
0.0
 11
3.4157826425
 21
23.3824013363
 31
0.0
  0
LINE
  5
130
330
1F
100
AcDbEntity
  8
SK3
  6
SLD-Dashed
370
    18
100
AcDbLine
 10
3.4157826425
 20
23.3824013363
 30
0.0
 11
3.320339218
 21
23.1194623952
 31
0.0
  0
LINE
  5
131
330
1F
100
AcDbEntity
  8
SK3
  6
SLD-Dashed
370
    18
100
AcDbLine
 10
3.320339218
 20
23.1194623952
 30
0.0
 11
3.2946824429
 21
22.9295141541
 31
0.0
  0
LINE
  5
132
330
1F
100
AcDbEntity
  8
SK3
  6
SLD-Dashed
370
    18
100
AcDbLine
 10
3.2946824429
 20
22.9295141541
 30
0.0
 11
3.3403033958
 21
22.8235957143
 31
0.0
  0
LINE
  5
133
330
1F
100
AcDbEntity
  8
SK3
  6
SLD-Dashed
370
    18
100
AcDbLine
 10
13.9872030677
 20
14.7218578465
 30
0.0
 11
14.1014504246
 21
14.7061248028
 31
0.0
  0
LINE
  5
134
330
1F
100
AcDbEntity
  8
SK3
  6
SLD-Dashed
370
    18
100
AcDbLine
 10
14.1014504246
 20
14.7061248028
 30
0.0
 11
14.2776845444
 21
14.7814915025
 31
0.0
  0
LINE
  5
135
330
1F
100
AcDbEntity
  8
SK3
  6
SLD-Dashed
370
    18
100
AcDbLine
 10
14.2776845444
 20
14.7814915025
 30
0.0
 11
14.5056633407
 21
14.9435779069
 31
0.0
  0
LINE
  5
136
330
1F
100
AcDbEntity
  8
SK3
  6
SLD-Dashed
370
    18
100
AcDbLine
 10
14.5056633407
 20
14.9435779069
 30
0.0
 11
14.7721375144
 21
15.1829641434
 31
0.0
  0
LINE
  5
137
330
1F
100
AcDbEntity
  8
SK3
  6
SLD-Dashed
370
    18
100
AcDbLine
 10
14.7721375144
 20
15.1829641434
 30
0.0
 11
15.0616205552
 21
15.4857379541
 31
0.0
  0
LINE
  5
138
330
1F
100
AcDbEntity
  8
SK3
  6
SLD-Dashed
370
    18
100
AcDbLine
 10
15.0616205552
 20
15.4857379541
 30
0.0
 11
15.3572887611
 21
15.8343032255
 31
0.0
  0
LINE
  5
139
330
1F
100
AcDbEntity
  8
SK3
  6
SLD-Dashed
370
    18
100
AcDbLine
 10
15.3572887611
 20
15.8343032255
 30
0.0
 11
15.6419589705
 21
16.2084026112
 31
0.0
  0
LINE
  5
13A
330
1F
100
AcDbEntity
  8
SK3
  6
SLD-Dashed
370
    18
100
AcDbLine
 10
15.6419589705
 20
16.2084026112
 30
0.0
 11
15.8990871856
 21
16.5862948145
 31
0.0
  0
LINE
  5
13B
330
1F
100
AcDbEntity
  8
SK3
  6
SLD-Dashed
370
    18
100
AcDbLine
 10
15.8990871856
 20
16.5862948145
 30
0.0
 11
16.1137300493
 21
16.9460181144
 31
0.0
  0
LINE
  5
13C
330
1F
100
AcDbEntity
  8
SK3
  6
SLD-Dashed
370
    18
100
AcDbLine
 10
16.1137300493
 20
16.9460181144
 30
0.0
 11
16.2734132984
 21
17.2666667
 31
0.0
  0
LINE
  5
13D
330
1F
100
AcDbEntity
  8
SK3
  6
SLD-Dashed
370
    18
100
AcDbLine
 10
16.2734132984
 20
17.2666667
 30
0.0
 11
16.3688567229
 21
17.5296056411
 31
0.0
  0
LINE
  5
13E
330
1F
100
AcDbEntity
  8
SK3
  6
SLD-Dashed
370
    18
100
AcDbLine
 10
16.3688567229
 20
17.5296056411
 30
0.0
 11
16.394513498
 21
17.7195538822
 31
0.0
  0
LINE
  5
13F
330
1F
100
AcDbEntity
  8
SK3
  6
SLD-Dashed
370
    18
100
AcDbLine
 10
16.394513498
 20
17.7195538822
 30
0.0
 11
16.3488925452
 21
17.8254723219
 31
0.0
  0
LINE
  5
140
330
1F
100
AcDbEntity
  8
SK3
  6
SLD-Dashed
370
    18
100
AcDbLine
 10
16.3488925452
 20
17.8254723219
 30
0.0
 11
16.2346451883
 21
17.8412053656
 31
0.0
  0
LINE
  5
141
330
1F
100
AcDbEntity
  8
SK3
  6
SLD-Dashed
370
    18
100
AcDbLine
 10
16.2346451883
 20
17.8412053656
 30
0.0
 11
16.0584110685
 21
17.7658386659
 31
0.0
  0
LINE
  5
142
330
1F
100
AcDbEntity
  8
SK3
  6
SLD-Dashed
370
    18
100
AcDbLine
 10
16.0584110685
 20
17.7658386659
 30
0.0
 11
15.8304322722
 21
17.6037522615
 31
0.0
  0
LINE
  5
143
330
1F
100
AcDbEntity
  8
SK3
  6
SLD-Dashed
370
    18
100
AcDbLine
 10
15.8304322722
 20
17.6037522615
 30
0.0
 11
15.5639580985
 21
17.364366025
 31
0.0
  0
LINE
  5
144
330
1F
100
AcDbEntity
  8
SK3
  6
SLD-Dashed
370
    18
100
AcDbLine
 10
15.5639580985
 20
17.364366025
 30
0.0
 11
15.2744750576
 21
17.0615922143
 31
0.0
  0
LINE
  5
145
330
1F
100
AcDbEntity
  8
SK3
  6
SLD-Dashed
370
    18
100
AcDbLine
 10
15.2744750576
 20
17.0615922143
 30
0.0
 11
14.9788068518
 21
16.7130269429
 31
0.0
  0
LINE
  5
146
330
1F
100
AcDbEntity
  8
SK3
  6
SLD-Dashed
370
    18
100
AcDbLine
 10
14.9788068518
 20
16.7130269429
 30
0.0
 11
14.6941366424
 21
16.3389275572
 31
0.0
  0
LINE
  5
147
330
1F
100
AcDbEntity
  8
SK3
  6
SLD-Dashed
370
    18
100
AcDbLine
 10
14.6941366424
 20
16.3389275572
 30
0.0
 11
14.4370084273
 21
15.9610353539
 31
0.0
  0
LINE
  5
148
330
1F
100
AcDbEntity
  8
SK3
  6
SLD-Dashed
370
    18
100
AcDbLine
 10
14.4370084273
 20
15.9610353539
 30
0.0
 11
14.2223655636
 21
15.601312054
 31
0.0
  0
LINE
  5
149
330
1F
100
AcDbEntity
  8
SK3
  6
SLD-Dashed
370
    18
100
AcDbLine
 10
14.2223655636
 20
15.601312054
 30
0.0
 11
14.0626823145
 21
15.2806634684
 31
0.0
  0
LINE
  5
14A
330
1F
100
AcDbEntity
  8
SK3
  6
SLD-Dashed
370
    18
100
AcDbLine
 10
14.0626823145
 20
15.2806634684
 30
0.0
 11
13.9672388899
 21
15.0177245273
 31
0.0
  0
LINE
  5
14B
330
1F
100
AcDbEntity
  8
SK3
  6
SLD-Dashed
370
    18
100
AcDbLine
 10
13.9672388899
 20
15.0177245273
 30
0.0
 11
13.9415821148
 21
14.8277762862
 31
0.0
  0
LINE
  5
14C
330
1F
100
AcDbEntity
  8
SK3
  6
SLD-Dashed
370
    18
100
AcDbLine
 10
13.9415821148
 20
14.8277762862
 30
0.0
 11
13.9872030677
 21
14.7218578465
 31
0.0
  0
LINE
  5
14D
330
1F
100
AcDbEntity
  8
SK3
  6
SLD-Dashed
370
    18
100
AcDbLine
 10
11.115
 20
22.6460744969
 30
0.0
 11
11.5420514244
 21
22.6653036857
 31
0.0
  0
LINE
  5
14E
330
1F
100
AcDbEntity
  8
SK3
  6
SLD-Dashed
370
    18
100
AcDbLine
 10
11.5420514244
 20
22.6653036857
 30
0.0
 11
11.94
 21
22.7216808144
 31
0.0
  0
LINE
  5
14F
330
1F
100
AcDbEntity
  8
SK3
  6
SLD-Dashed
370
    18
100
AcDbLine
 10
11.94
 20
22.7216808144
 30
0.0
 11
12.281726189
 21
22.811363875
 31
0.0
  0
LINE
  5
150
330
1F
100
AcDbEntity
  8
SK3
  6
SLD-Dashed
370
    18
100
AcDbLine
 10
12.281726189
 20
22.811363875
 30
0.0
 11
12.5439419162
 21
22.9282411152
 31
0.0
  0
LINE
  5
151
330
1F
100
AcDbEntity
  8
SK3
  6
SLD-Dashed
370
    18
100
AcDbLine
 10
12.5439419162
 20
22.9282411152
 30
0.0
 11
12.7087776134
 21
23.064347544
 31
0.0
  0
LINE
  5
152
330
1F
100
AcDbEntity
  8
SK3
  6
SLD-Dashed
370
    18
100
AcDbLine
 10
12.7087776134
 20
23.064347544
 30
0.0
 11
12.765
 21
23.2104077334
 31
0.0
  0
LINE
  5
153
330
1F
100
AcDbEntity
  8
SK3
  6
SLD-Dashed
370
    18
100
AcDbLine
 10
12.765
 20
23.2104077334
 30
0.0
 11
12.7087776134
 21
23.3564679228
 31
0.0
  0
LINE
  5
154
330
1F
100
AcDbEntity
  8
SK3
  6
SLD-Dashed
370
    18
100
AcDbLine
 10
12.7087776134
 20
23.3564679228
 30
0.0
 11
12.5439419162
 21
23.4925743517
 31
0.0
  0
LINE
  5
155
330
1F
100
AcDbEntity
  8
SK3
  6
SLD-Dashed
370
    18
100
AcDbLine
 10
12.5439419162
 20
23.4925743517
 30
0.0
 11
12.281726189
 21
23.6094515918
 31
0.0
  0
LINE
  5
156
330
1F
100
AcDbEntity
  8
SK3
  6
SLD-Dashed
370
    18
100
AcDbLine
 10
12.281726189
 20
23.6094515918
 30
0.0
 11
11.94
 21
23.6991346524
 31
0.0
  0
LINE
  5
157
330
1F
100
AcDbEntity
  8
SK3
  6
SLD-Dashed
370
    18
100
AcDbLine
 10
11.94
 20
23.6991346524
 30
0.0
 11
11.5420514244
 21
23.7555117812
 31
0.0
  0
LINE
  5
158
330
1F
100
AcDbEntity
  8
SK3
  6
SLD-Dashed
370
    18
100
AcDbLine
 10
11.5420514244
 20
23.7555117812
 30
0.0
 11
11.115
 21
23.7747409699
 31
0.0
  0
LINE
  5
159
330
1F
100
AcDbEntity
  8
SK3
  6
SLD-Dashed
370
    18
100
AcDbLine
 10
11.115
 20
23.7747409699
 30
0.0
 11
10.6879485756
 21
23.7555117812
 31
0.0
  0
LINE
  5
15A
330
1F
100
AcDbEntity
  8
SK3
  6
SLD-Dashed
370
    18
100
AcDbLine
 10
10.6879485756
 20
23.7555117812
 30
0.0
 11
10.29
 21
23.6991346524
 31
0.0
  0
LINE
  5
15B
330
1F
100
AcDbEntity
  8
SK3
  6
SLD-Dashed
370
    18
100
AcDbLine
 10
10.29
 20
23.6991346524
 30
0.0
 11
9.948273811
 21
23.6094515918
 31
0.0
  0
LINE
  5
15C
330
1F
100
AcDbEntity
  8
SK3
  6
SLD-Dashed
370
    18
100
AcDbLine
 10
9.948273811
 20
23.6094515918
 30
0.0
 11
9.6860580838
 21
23.4925743517
 31
0.0
  0
LINE
  5
15D
330
1F
100
AcDbEntity
  8
SK3
  6
SLD-Dashed
370
    18
100
AcDbLine
 10
9.6860580838
 20
23.4925743517
 30
0.0
 11
9.5212223866
 21
23.3564679228
 31
0.0
  0
LINE
  5
15E
330
1F
100
AcDbEntity
  8
SK3
  6
SLD-Dashed
370
    18
100
AcDbLine
 10
9.5212223866
 20
23.3564679228
 30
0.0
 11
9.465
 21
23.2104077334
 31
0.0
  0
LINE
  5
15F
330
1F
100
AcDbEntity
  8
SK3
  6
SLD-Dashed
370
    18
100
AcDbLine
 10
9.465
 20
23.2104077334
 30
0.0
 11
9.5212223866
 21
23.064347544
 31
0.0
  0
LINE
  5
160
330
1F
100
AcDbEntity
  8
SK3
  6
SLD-Dashed
370
    18
100
AcDbLine
 10
9.5212223866
 20
23.064347544
 30
0.0
 11
9.6860580838
 21
22.9282411152
 31
0.0
  0
LINE
  5
161
330
1F
100
AcDbEntity
  8
SK3
  6
SLD-Dashed
370
    18
100
AcDbLine
 10
9.6860580838
 20
22.9282411152
 30
0.0
 11
9.948273811
 21
22.811363875
 31
0.0
  0
LINE
  5
162
330
1F
100
AcDbEntity
  8
SK3
  6
SLD-Dashed
370
    18
100
AcDbLine
 10
9.948273811
 20
22.811363875
 30
0.0
 11
10.29
 21
22.7216808144
 31
0.0
  0
LINE
  5
163
330
1F
100
AcDbEntity
  8
SK3
  6
SLD-Dashed
370
    18
100
AcDbLine
 10
10.29
 20
22.7216808144
 30
0.0
 11
10.6879485756
 21
22.6653036857
 31
0.0
  0
LINE
  5
164
330
1F
100
AcDbEntity
  8
SK3
  6
SLD-Dashed
370
    18
100
AcDbLine
 10
10.6879485756
 20
22.6653036857
 30
0.0
 11
11.115
 21
22.6460744969
 31
0.0
  0
LINE
  5
165
330
1F
100
AcDbEntity
  8
SK3
  6
SLD-Dashed
370
    18
100
AcDbLine
 10
-66.9509618943
 20
-8.5
 30
0.0
 11
-66.9509618943
 21
8.5
 31
0.0
  0
LINE
  5
166
330
1F
100
AcDbEntity
  8
SK3
  6
SLD-Dashed
370
    18
100
AcDbLine
 10
-68.25
 20
9.2364340781
 30
0.0
 11
-68.25
 21
-9.2364340781
 31
0.0
  0
LINE
  5
167
330
1F
100
AcDbEntity
  8
SK3
  6
SLD-Dashed
370
    18
100
AcDbLine
 10
-57.75
 20
-8.8
 30
0.0
 11
-57.75
 21
8.8
 31
0.0
  0
LINE
  5
168
330
1F
100
AcDbEntity
  8
SK3
  6
SLD-Dashed
370
    18
100
AcDbLine
 10
-59.75
 20
-8.8
 30
0.0
 11
-59.75
 21
8.8
 31
0.0
  0
LINE
  5
169
330
1F
100
AcDbEntity
  8
SK3
  6
SLD-Dashed
370
    18
100
AcDbLine
 10
-60.2696152423
 20
-8.5
 30
0.0
 11
-60.2696152423
 21
8.5
 31
0.0
  0
LINE
  5
16A
330
1F
100
AcDbEntity
  8
SK3
  6
SLD-Dashed
370
    18
100
AcDbLine
 10
-56.7107695155
 20
7.0
 30
0.0
 11
-56.7107695155
 21
-7.0
 31
0.0
  0
LINE
  5
16B
330
1F
100
AcDbEntity
  8
SK3
  6
SLD-Dashed
370
    18
100
AcDbLine
 10
62.0
 20
8.0
 30
0.0
 11
62.0
 21
-8.0
 31
0.0
  0
LINE
  5
16C
330
1F
100
AcDbEntity
  8
1
  6
SLD-Dashed
370
    18
100
AcDbLine
 10
63.0
 20
8.5738523642
 30
0.0
 11
63.0
 21
-8.5738523642
 31
0.0
  0
LINE
  5
16D
330
1F
100
AcDbEntity
  8
SK3
  6
SLD-Dashed
370
    18
100
AcDbLine
 10
16.75
 20
-8.25
 30
0.0
 11
16.75
 21
8.25
 31
0.0
  0
LINE
  5
16E
330
1F
100
AcDbEntity
  8
SK3
  6
SLD-Dashed
370
    18
100
AcDbLine
 10
14.25
 20
-8.25
 30
0.0
 11
14.25
 21
8.25
 31
0.0
  0
LINE
  5
16F
330
1F
100
AcDbEntity
  8
SK3
  6
SLD-Dashed
370
    18
100
AcDbLine
 10
14.0
 20
8.0
 30
0.0
 11
14.0
 21
-8.0
 31
0.0
  0
LINE
  5
170
330
1F
100
AcDbEntity
  8
SK3
  6
SLD-Dashed
370
    18
100
AcDbLine
 10
17.0
 20
8.0
 30
0.0
 11
17.0
 21
-8.0
 31
0.0
  0
LINE
  5
171
330
1F
100
AcDbEntity
  8
SK3
  6
SLD-Dashed
370
    18
100
AcDbLine
 10
30.875
 20
-22.3
 30
0.0
 11
47.125
 21
-22.3
 31
0.0
  0
LINE
  5
172
330
1F
100
AcDbEntity
  8
SK3
  6
SLD-Dashed
370
    18
100
AcDbLine
 10
14.0
 20
6.99995
 30
0.0
 11
14.0
 21
-6.99995
 31
0.0
  0
LINE
  5
173
330
1F
100
AcDbEntity
  8
SK3
  6
SLD-Dashed
370
    18
100
AcDbLine
 10
33.0
 20
-22.3
 30
0.0
 11
45.0
 21
-22.3
 31
0.0
  0
LINE
  5
174
330
1F
100
AcDbEntity
  8
SK3
  6
SLD-Dashed
370
    18
100
AcDbLine
 10
5.7019928732
 20
-25.9272101898
 30
0.0
 11
5.5877455163
 21
-25.9429432334
 31
0.0
  0
LINE
  5
175
330
1F
100
AcDbEntity
  8
SK3
  6
SLD-Dashed
370
    18
100
AcDbLine
 10
5.5877455163
 20
-25.9429432334
 30
0.0
 11
5.4115113965
 21
-25.8675765338
 31
0.0
  0
LINE
  5
176
330
1F
100
AcDbEntity
  8
SK3
  6
SLD-Dashed
370
    18
100
AcDbLine
 10
5.4115113965
 20
-25.8675765338
 30
0.0
 11
5.1835326003
 21
-25.7054901293
 31
0.0
  0
LINE
  5
177
330
1F
100
AcDbEntity
  8
SK3
  6
SLD-Dashed
370
    18
100
AcDbLine
 10
5.1835326003
 20
-25.7054901293
 30
0.0
 11
4.9170584265
 21
-25.4661038928
 31
0.0
  0
LINE
  5
178
330
1F
100
AcDbEntity
  8
SK3
  6
SLD-Dashed
370
    18
100
AcDbLine
 10
4.9170584265
 20
-25.4661038928
 30
0.0
 11
4.6275753857
 21
-25.1633300822
 31
0.0
  0
LINE
  5
179
330
1F
100
AcDbEntity
  8
SK3
  6
SLD-Dashed
370
    18
100
AcDbLine
 10
4.6275753857
 20
-25.1633300822
 30
0.0
 11
4.3319071799
 21
-24.8147648107
 31
0.0
  0
LINE
  5
17A
330
1F
100
AcDbEntity
  8
SK3
  6
SLD-Dashed
370
    18
100
AcDbLine
 10
4.3319071799
 20
-24.8147648107
 30
0.0
 11
4.0472369705
 21
-24.4406654251
 31
0.0
  0
LINE
  5
17B
330
1F
100
AcDbEntity
  8
SK3
  6
SLD-Dashed
370
    18
100
AcDbLine
 10
4.0472369705
 20
-24.4406654251
 30
0.0
 11
3.7901087553
 21
-24.0627732217
 31
0.0
  0
LINE
  5
17C
330
1F
100
AcDbEntity
  8
SK3
  6
SLD-Dashed
370
    18
100
AcDbLine
 10
3.7901087553
 20
-24.0627732217
 30
0.0
 11
3.5754658917
 21
-23.7030499219
 31
0.0
  0
LINE
  5
17D
330
1F
100
AcDbEntity
  8
SK3
  6
SLD-Dashed
370
    18
100
AcDbLine
 10
3.5754658917
 20
-23.7030499219
 30
0.0
 11
3.4157826425
 21
-23.3824013363
 31
0.0
  0
LINE
  5
17E
330
1F
100
AcDbEntity
  8
SK3
  6
SLD-Dashed
370
    18
100
AcDbLine
 10
3.4157826425
 20
-23.3824013363
 30
0.0
 11
3.320339218
 21
-23.1194623952
 31
0.0
  0
LINE
  5
17F
330
1F
100
AcDbEntity
  8
SK3
  6
SLD-Dashed
370
    18
100
AcDbLine
 10
3.320339218
 20
-23.1194623952
 30
0.0
 11
3.2946824429
 21
-22.9295141541
 31
0.0
  0
LINE
  5
180
330
1F
100
AcDbEntity
  8
SK3
  6
SLD-Dashed
370
    18
100
AcDbLine
 10
3.2946824429
 20
-22.9295141541
 30
0.0
 11
3.3403033958
 21
-22.8235957143
 31
0.0
  0
LINE
  5
181
330
1F
100
AcDbEntity
  8
SK3
  6
SLD-Dashed
370
    18
100
AcDbLine
 10
3.3403033958
 20
-22.8235957143
 30
0.0
 11
3.4545507526
 21
-22.8078626706
 31
0.0
  0
LINE
  5
182
330
1F
100
AcDbEntity
  8
SK3
  6
SLD-Dashed
370
    18
100
AcDbLine
 10
3.4545507526
 20
-22.8078626706
 30
0.0
 11
3.6307848724
 21
-22.8832293703
 31
0.0
  0
LINE
  5
183
330
1F
100
AcDbEntity
  8
SK3
  6
SLD-Dashed
370
    18
100
AcDbLine
 10
3.6307848724
 20
-22.8832293703
 30
0.0
 11
3.8587636687
 21
-23.0453157748
 31
0.0
  0
LINE
  5
184
330
1F
100
AcDbEntity
  8
SK3
  6
SLD-Dashed
370
    18
100
AcDbLine
 10
3.8587636687
 20
-23.0453157748
 30
0.0
 11
4.1252378424
 21
-23.2847020113
 31
0.0
  0
LINE
  5
185
330
1F
100
AcDbEntity
  8
SK3
  6
SLD-Dashed
370
    18
100
AcDbLine
 10
4.1252378424
 20
-23.2847020113
 30
0.0
 11
4.4147208833
 21
-23.5874758219
 31
0.0
  0
LINE
  5
186
330
1F
100
AcDbEntity
  8
SK3
  6
SLD-Dashed
370
    18
100
AcDbLine
 10
4.4147208833
 20
-23.5874758219
 30
0.0
 11
4.7103890891
 21
-23.9360410934
 31
0.0
  0
LINE
  5
187
330
1F
100
AcDbEntity
  8
SK3
  6
SLD-Dashed
370
    18
100
AcDbLine
 10
4.7103890891
 20
-23.9360410934
 30
0.0
 11
4.9950592985
 21
-24.310140479
 31
0.0
  0
LINE
  5
188
330
1F
100
AcDbEntity
  8
SK3
  6
SLD-Dashed
370
    18
100
AcDbLine
 10
4.9950592985
 20
-24.310140479
 30
0.0
 11
5.2521875137
 21
-24.6880326824
 31
0.0
  0
LINE
  5
189
330
1F
100
AcDbEntity
  8
SK3
  6
SLD-Dashed
370
    18
100
AcDbLine
 10
5.2521875137
 20
-24.6880326824
 30
0.0
 11
5.4668303773
 21
-25.0477559822
 31
0.0
  0
LINE
  5
18A
330
1F
100
AcDbEntity
  8
SK3
  6
SLD-Dashed
370
    18
100
AcDbLine
 10
5.4668303773
 20
-25.0477559822
 30
0.0
 11
5.6265136264
 21
-25.3684045678
 31
0.0
  0
LINE
  5
18B
330
1F
100
AcDbEntity
  8
SK3
  6
SLD-Dashed
370
    18
100
AcDbLine
 10
5.6265136264
 20
-25.3684045678
 30
0.0
 11
5.721957051
 21
-25.6313435089
 31
0.0
  0
LINE
  5
18C
330
1F
100
AcDbEntity
  8
SK3
  6
SLD-Dashed
370
    18
100
AcDbLine
 10
5.721957051
 20
-25.6313435089
 30
0.0
 11
5.7476138261
 21
-25.82129175
 31
0.0
  0
LINE
  5
18D
330
1F
100
AcDbEntity
  8
SK3
  6
SLD-Dashed
370
    18
100
AcDbLine
 10
5.7476138261
 20
-25.82129175
 30
0.0
 11
5.7019928732
 21
-25.9272101898
 31
0.0
  0
LINE
  5
18E
330
1F
100
AcDbEntity
  8
SK3
  6
SLD-Dashed
370
    18
100
AcDbLine
 10
16.3488925452
 20
-17.8254723219
 30
0.0
 11
16.2346451883
 21
-17.8412053656
 31
0.0
  0
LINE
  5
18F
330
1F
100
AcDbEntity
  8
SK3
  6
SLD-Dashed
370
    18
100
AcDbLine
 10
16.2346451883
 20
-17.8412053656
 30
0.0
 11
16.0584110685
 21
-17.7658386659
 31
0.0
  0
LINE
  5
190
330
1F
100
AcDbEntity
  8
SK3
  6
SLD-Dashed
370
    18
100
AcDbLine
 10
16.0584110685
 20
-17.7658386659
 30
0.0
 11
15.8304322722
 21
-17.6037522615
 31
0.0
  0
LINE
  5
191
330
1F
100
AcDbEntity
  8
SK3
  6
SLD-Dashed
370
    18
100
AcDbLine
 10
15.8304322722
 20
-17.6037522615
 30
0.0
 11
15.5639580985
 21
-17.364366025
 31
0.0
  0
LINE
  5
192
330
1F
100
AcDbEntity
  8
SK3
  6
SLD-Dashed
370
    18
100
AcDbLine
 10
15.5639580985
 20
-17.364366025
 30
0.0
 11
15.2744750576
 21
-17.0615922143
 31
0.0
  0
LINE
  5
193
330
1F
100
AcDbEntity
  8
SK3
  6
SLD-Dashed
370
    18
100
AcDbLine
 10
15.2744750576
 20
-17.0615922143
 30
0.0
 11
14.9788068518
 21
-16.7130269429
 31
0.0
  0
LINE
  5
194
330
1F
100
AcDbEntity
  8
SK3
  6
SLD-Dashed
370
    18
100
AcDbLine
 10
14.9788068518
 20
-16.7130269429
 30
0.0
 11
14.6941366424
 21
-16.3389275572
 31
0.0
  0
LINE
  5
195
330
1F
100
AcDbEntity
  8
SK3
  6
SLD-Dashed
370
    18
100
AcDbLine
 10
14.6941366424
 20
-16.3389275572
 30
0.0
 11
14.4370084273
 21
-15.9610353539
 31
0.0
  0
LINE
  5
196
330
1F
100
AcDbEntity
  8
SK3
  6
SLD-Dashed
370
    18
100
AcDbLine
 10
14.4370084273
 20
-15.9610353539
 30
0.0
 11
14.2223655636
 21
-15.601312054
 31
0.0
  0
LINE
  5
197
330
1F
100
AcDbEntity
  8
SK3
  6
SLD-Dashed
370
    18
100
AcDbLine
 10
14.2223655636
 20
-15.601312054
 30
0.0
 11
14.0626823145
 21
-15.2806634684
 31
0.0
  0
LINE
  5
198
330
1F
100
AcDbEntity
  8
SK3
  6
SLD-Dashed
370
    18
100
AcDbLine
 10
14.0626823145
 20
-15.2806634684
 30
0.0
 11
13.9672388899
 21
-15.0177245273
 31
0.0
  0
LINE
  5
199
330
1F
100
AcDbEntity
  8
SK3
  6
SLD-Dashed
370
    18
100
AcDbLine
 10
13.9672388899
 20
-15.0177245273
 30
0.0
 11
13.9415821148
 21
-14.8277762862
 31
0.0
  0
LINE
  5
19A
330
1F
100
AcDbEntity
  8
SK3
  6
SLD-Dashed
370
    18
100
AcDbLine
 10
13.9415821148
 20
-14.8277762862
 30
0.0
 11
13.9872030677
 21
-14.7218578465
 31
0.0
  0
LINE
  5
19B
330
1F
100
AcDbEntity
  8
SK3
  6
SLD-Dashed
370
    18
100
AcDbLine
 10
13.9872030677
 20
-14.7218578465
 30
0.0
 11
14.1014504246
 21
-14.7061248028
 31
0.0
  0
LINE
  5
19C
330
1F
100
AcDbEntity
  8
SK3
  6
SLD-Dashed
370
    18
100
AcDbLine
 10
14.1014504246
 20
-14.7061248028
 30
0.0
 11
14.2776845444
 21
-14.7814915025
 31
0.0
  0
LINE
  5
19D
330
1F
100
AcDbEntity
  8
SK3
  6
SLD-Dashed
370
    18
100
AcDbLine
 10
14.2776845444
 20
-14.7814915025
 30
0.0
 11
14.5056633407
 21
-14.9435779069
 31
0.0
  0
LINE
  5
19E
330
1F
100
AcDbEntity
  8
SK3
  6
SLD-Dashed
370
    18
100
AcDbLine
 10
14.5056633407
 20
-14.9435779069
 30
0.0
 11
14.7721375144
 21
-15.1829641434
 31
0.0
  0
LINE
  5
19F
330
1F
100
AcDbEntity
  8
SK3
  6
SLD-Dashed
370
    18
100
AcDbLine
 10
14.7721375144
 20
-15.1829641434
 30
0.0
 11
15.0616205552
 21
-15.4857379541
 31
0.0
  0
LINE
  5
1A0
330
1F
100
AcDbEntity
  8
SK3
  6
SLD-Dashed
370
    18
100
AcDbLine
 10
15.0616205552
 20
-15.4857379541
 30
0.0
 11
15.3572887611
 21
-15.8343032255
 31
0.0
  0
LINE
  5
1A1
330
1F
100
AcDbEntity
  8
SK3
  6
SLD-Dashed
370
    18
100
AcDbLine
 10
15.3572887611
 20
-15.8343032255
 30
0.0
 11
15.6419589705
 21
-16.2084026112
 31
0.0
  0
LINE
  5
1A2
330
1F
100
AcDbEntity
  8
SK3
  6
SLD-Dashed
370
    18
100
AcDbLine
 10
15.6419589705
 20
-16.2084026112
 30
0.0
 11
15.8990871856
 21
-16.5862948145
 31
0.0
  0
LINE
  5
1A3
330
1F
100
AcDbEntity
  8
SK3
  6
SLD-Dashed
370
    18
100
AcDbLine
 10
15.8990871856
 20
-16.5862948145
 30
0.0
 11
16.1137300493
 21
-16.9460181144
 31
0.0
  0
LINE
  5
1A4
330
1F
100
AcDbEntity
  8
SK3
  6
SLD-Dashed
370
    18
100
AcDbLine
 10
16.1137300493
 20
-16.9460181144
 30
0.0
 11
16.2734132984
 21
-17.2666667
 31
0.0
  0
LINE
  5
1A5
330
1F
100
AcDbEntity
  8
SK3
  6
SLD-Dashed
370
    18
100
AcDbLine
 10
16.2734132984
 20
-17.2666667
 30
0.0
 11
16.3688567229
 21
-17.5296056411
 31
0.0
  0
LINE
  5
1A6
330
1F
100
AcDbEntity
  8
SK3
  6
SLD-Dashed
370
    18
100
AcDbLine
 10
16.3688567229
 20
-17.5296056411
 30
0.0
 11
16.394513498
 21
-17.7195538822
 31
0.0
  0
LINE
  5
1A7
330
1F
100
AcDbEntity
  8
SK3
  6
SLD-Dashed
370
    18
100
AcDbLine
 10
16.394513498
 20
-17.7195538822
 30
0.0
 11
16.3488925452
 21
-17.8254723219
 31
0.0
  0
LINE
  5
1A8
330
1F
100
AcDbEntity
  8
SK3
  6
SLD-Dashed
370
    18
100
AcDbLine
 10
11.115
 20
-22.9279822832
 30
0.0
 11
10.6879485756
 21
-22.9472114719
 31
0.0
  0
LINE
  5
1A9
330
1F
100
AcDbEntity
  8
SK3
  6
SLD-Dashed
370
    18
100
AcDbLine
 10
10.6879485756
 20
-22.9472114719
 30
0.0
 11
10.29
 21
-23.0035886006
 31
0.0
  0
LINE
  5
1AA
330
1F
100
AcDbEntity
  8
SK3
  6
SLD-Dashed
370
    18
100
AcDbLine
 10
10.29
 20
-23.0035886006
 30
0.0
 11
9.948273811
 21
-23.0932716613
 31
0.0
  0
LINE
  5
1AB
330
1F
100
AcDbEntity
  8
SK3
  6
SLD-Dashed
370
    18
100
AcDbLine
 10
9.948273811
 20
-23.0932716613
 30
0.0
 11
9.6860580838
 21
-23.2101489014
 31
0.0
  0
LINE
  5
1AC
330
1F
100
AcDbEntity
  8
SK3
  6
SLD-Dashed
370
    18
100
AcDbLine
 10
9.6860580838
 20
-23.2101489014
 30
0.0
 11
9.5212223866
 21
-23.3462553303
 31
0.0
  0
LINE
  5
1AD
330
1F
100
AcDbEntity
  8
SK3
  6
SLD-Dashed
370
    18
100
AcDbLine
 10
9.5212223866
 20
-23.3462553303
 30
0.0
 11
9.465
 21
-23.4923155196
 31
0.0
  0
LINE
  5
1AE
330
1F
100
AcDbEntity
  8
SK3
  6
SLD-Dashed
370
    18
100
AcDbLine
 10
9.465
 20
-23.4923155196
 30
0.0
 11
9.5212223866
 21
-23.638375709
 31
0.0
  0
LINE
  5
1AF
330
1F
100
AcDbEntity
  8
SK3
  6
SLD-Dashed
370
    18
100
AcDbLine
 10
9.5212223866
 20
-23.638375709
 30
0.0
 11
9.6860580838
 21
-23.7744821379
 31
0.0
  0
LINE
  5
1B0
330
1F
100
AcDbEntity
  8
SK3
  6
SLD-Dashed
370
    18
100
AcDbLine
 10
9.6860580838
 20
-23.7744821379
 30
0.0
 11
9.948273811
 21
-23.891359378
 31
0.0
  0
LINE
  5
1B1
330
1F
100
AcDbEntity
  8
SK3
  6
SLD-Dashed
370
    18
100
AcDbLine
 10
9.948273811
 20
-23.891359378
 30
0.0
 11
10.29
 21
-23.9810424386
 31
0.0
  0
LINE
  5
1B2
330
1F
100
AcDbEntity
  8
SK3
  6
SLD-Dashed
370
    18
100
AcDbLine
 10
10.29
 20
-23.9810424386
 30
0.0
 11
10.6879485756
 21
-24.0374195674
 31
0.0
  0
LINE
  5
1B3
330
1F
100
AcDbEntity
  8
SK3
  6
SLD-Dashed
370
    18
100
AcDbLine
 10
10.6879485756
 20
-24.0374195674
 30
0.0
 11
11.115
 21
-24.0566487561
 31
0.0
  0
LINE
  5
1B4
330
1F
100
AcDbEntity
  8
SK3
  6
SLD-Dashed
370
    18
100
AcDbLine
 10
11.115
 20
-24.0566487561
 30
0.0
 11
11.5420514244
 21
-24.0374195674
 31
0.0
  0
LINE
  5
1B5
330
1F
100
AcDbEntity
  8
SK3
  6
SLD-Dashed
370
    18
100
AcDbLine
 10
11.5420514244
 20
-24.0374195674
 30
0.0
 11
11.94
 21
-23.9810424386
 31
0.0
  0
LINE
  5
1B6
330
1F
100
AcDbEntity
  8
SK3
  6
SLD-Dashed
370
    18
100
AcDbLine
 10
11.94
 20
-23.9810424386
 30
0.0
 11
12.281726189
 21
-23.891359378
 31
0.0
  0
LINE
  5
1B7
330
1F
100
AcDbEntity
  8
SK3
  6
SLD-Dashed
370
    18
100
AcDbLine
 10
12.281726189
 20
-23.891359378
 30
0.0
 11
12.5439419162
 21
-23.7744821379
 31
0.0
  0
LINE
  5
1B8
330
1F
100
AcDbEntity
  8
SK3
  6
SLD-Dashed
370
    18
100
AcDbLine
 10
12.5439419162
 20
-23.7744821379
 30
0.0
 11
12.7087776134
 21
-23.638375709
 31
0.0
  0
LINE
  5
1B9
330
1F
100
AcDbEntity
  8
SK3
  6
SLD-Dashed
370
    18
100
AcDbLine
 10
12.7087776134
 20
-23.638375709
 30
0.0
 11
12.765
 21
-23.4923155196
 31
0.0
  0
LINE
  5
1BA
330
1F
100
AcDbEntity
  8
SK3
  6
SLD-Dashed
370
    18
100
AcDbLine
 10
12.765
 20
-23.4923155196
 30
0.0
 11
12.7087776134
 21
-23.3462553303
 31
0.0
  0
LINE
  5
1BB
330
1F
100
AcDbEntity
  8
SK3
  6
SLD-Dashed
370
    18
100
AcDbLine
 10
12.7087776134
 20
-23.3462553303
 30
0.0
 11
12.5439419162
 21
-23.2101489014
 31
0.0
  0
LINE
  5
1BC
330
1F
100
AcDbEntity
  8
SK3
  6
SLD-Dashed
370
    18
100
AcDbLine
 10
12.5439419162
 20
-23.2101489014
 30
0.0
 11
12.281726189
 21
-23.0932716613
 31
0.0
  0
LINE
  5
1BD
330
1F
100
AcDbEntity
  8
SK3
  6
SLD-Dashed
370
    18
100
AcDbLine
 10
12.281726189
 20
-23.0932716613
 30
0.0
 11
11.94
 21
-23.0035886006
 31
0.0
  0
LINE
  5
1BE
330
1F
100
AcDbEntity
  8
SK3
  6
SLD-Dashed
370
    18
100
AcDbLine
 10
11.94
 20
-23.0035886006
 30
0.0
 11
11.5420514244
 21
-22.9472114719
 31
0.0
  0
LINE
  5
1BF
330
1F
100
AcDbEntity
  8
SK3
  6
SLD-Dashed
370
    18
100
AcDbLine
 10
11.5420514244
 20
-22.9472114719
 30
0.0
 11
11.115
 21
-22.9279822832
 31
0.0
  0
LINE
  5
1C0
330
1F
100
AcDbEntity
  8
SK3
  6
SLD-Dashed
370
    18
100
AcDbLine
 10
5.7322709434
 20
-25.9670001189
 30
0.0
 11
5.6150941671
 21
-25.983136574
 31
0.0
  0
LINE
  5
1C1
330
1F
100
AcDbEntity
  8
SK3
  6
SLD-Dashed
370
    18
100
AcDbLine
 10
5.6150941671
 20
-25.983136574
 30
0.0
 11
5.4343412237
 21
-25.9058373948
 31
0.0
  0
LINE
  5
1C2
330
1F
100
AcDbEntity
  8
SK3
  6
SLD-Dashed
370
    18
100
AcDbLine
 10
5.4343412237
 20
-25.9058373948
 30
0.0
 11
5.2005168173
 21
-25.7395949287
 31
0.0
  0
LINE
  5
1C3
330
1F
100
AcDbEntity
  8
SK3
  6
SLD-Dashed
370
    18
100
AcDbLine
 10
5.2005168173
 20
-25.7395949287
 30
0.0
 11
4.9272099725
 21
-25.4940705836
 31
0.0
  0
LINE
  5
1C4
330
1F
100
AcDbEntity
  8
SK3
  6
SLD-Dashed
370
    18
100
AcDbLine
 10
4.9272099725
 20
-25.4940705836
 30
0.0
 11
4.6303042896
 21
-25.1835333419
 31
0.0
  0
LINE
  5
1C5
330
1F
100
AcDbEntity
  8
SK3
  6
SLD-Dashed
370
    18
100
AcDbLine
 10
4.6303042896
 20
-25.1835333419
 30
0.0
 11
4.3270548477
 21
-24.8260304994
 31
0.0
  0
LINE
  5
1C6
330
1F
100
AcDbEntity
  8
SK3
  6
SLD-Dashed
370
    18
100
AcDbLine
 10
4.3270548477
 20
-24.8260304994
 30
0.0
 11
4.0350854021
 21
-24.4423388218
 31
0.0
  0
LINE
  5
1C7
330
1F
100
AcDbEntity
  8
SK3
  6
SLD-Dashed
370
    18
100
AcDbLine
 10
4.0350854021
 20
-24.4423388218
 30
0.0
 11
3.7713641558
 21
-24.0547570748
 31
0.0
  0
LINE
  5
1C8
330
1F
100
AcDbEntity
  8
SK3
  6
SLD-Dashed
370
    18
100
AcDbLine
 10
3.7713641558
 20
-24.0547570748
 30
0.0
 11
3.551217629
 21
-23.6858101006
 31
0.0
  0
LINE
  5
1C9
330
1F
100
AcDbEntity
  8
SK3
  6
SLD-Dashed
370
    18
100
AcDbLine
 10
3.551217629
 20
-23.6858101006
 30
0.0
 11
3.3874399376
 21
-23.3569397564
 31
0.0
  0
LINE
  5
1CA
330
1F
100
AcDbEntity
  8
SK3
  6
SLD-Dashed
370
    18
100
AcDbLine
 10
3.3874399376
 20
-23.3569397564
 30
0.0
 11
3.2895492458
 21
-23.0872587912
 31
0.0
  0
LINE
  5
1CB
330
1F
100
AcDbEntity
  8
SK3
  6
SLD-Dashed
370
    18
100
AcDbLine
 10
3.2895492458
 20
-23.0872587912
 30
0.0
 11
3.2632346046
 21
-22.8924400823
 31
0.0
  0
LINE
  5
1CC
330
1F
100
AcDbEntity
  8
SK3
  6
SLD-Dashed
370
    18
100
AcDbLine
 10
3.2632346046
 20
-22.8924400823
 30
0.0
 11
3.3100253255
 21
-22.7838057852
 31
0.0
  0
LINE
  5
1CD
330
1F
100
AcDbEntity
  8
SK3
  6
SLD-Dashed
370
    18
100
AcDbLine
 10
3.3100253255
 20
-22.7838057852
 30
0.0
 11
3.4272021018
 21
-22.7676693301
 31
0.0
  0
LINE
  5
1CE
330
1F
100
AcDbEntity
  8
SK3
  6
SLD-Dashed
370
    18
100
AcDbLine
 10
3.4272021018
 20
-22.7676693301
 30
0.0
 11
3.6079550452
 21
-22.8449685093
 31
0.0
  0
LINE
  5
1CF
330
1F
100
AcDbEntity
  8
SK3
  6
SLD-Dashed
370
    18
100
AcDbLine
 10
3.6079550452
 20
-22.8449685093
 30
0.0
 11
3.8417794516
 21
-23.0112109753
 31
0.0
  0
LINE
  5
1D0
330
1F
100
AcDbEntity
  8
SK3
  6
SLD-Dashed
370
    18
100
AcDbLine
 10
3.8417794516
 20
-23.0112109753
 30
0.0
 11
4.1150862965
 21
-23.2567353205
 31
0.0
  0
LINE
  5
1D1
330
1F
100
AcDbEntity
  8
SK3
  6
SLD-Dashed
370
    18
100
AcDbLine
 10
4.1150862965
 20
-23.2567353205
 30
0.0
 11
4.4119919794
 21
-23.5672725622
 31
0.0
  0
LINE
  5
1D2
330
1F
100
AcDbEntity
  8
SK3
  6
SLD-Dashed
370
    18
100
AcDbLine
 10
4.4119919794
 20
-23.5672725622
 30
0.0
 11
4.7152414213
 21
-23.9247754047
 31
0.0
  0
LINE
  5
1D3
330
1F
100
AcDbEntity
  8
SK3
  6
SLD-Dashed
370
    18
100
AcDbLine
 10
4.7152414213
 20
-23.9247754047
 30
0.0
 11
5.0072108668
 21
-24.3084670823
 31
0.0
  0
LINE
  5
1D4
330
1F
100
AcDbEntity
  8
SK3
  6
SLD-Dashed
370
    18
100
AcDbLine
 10
5.0072108668
 20
-24.3084670823
 30
0.0
 11
5.2709321131
 21
-24.6960488293
 31
0.0
  0
LINE
  5
1D5
330
1F
100
AcDbEntity
  8
SK3
  6
SLD-Dashed
370
    18
100
AcDbLine
 10
5.2709321131
 20
-24.6960488293
 30
0.0
 11
5.4910786399
 21
-25.0649958035
 31
0.0
  0
LINE
  5
1D6
330
1F
100
AcDbEntity
  8
SK3
  6
SLD-Dashed
370
    18
100
AcDbLine
 10
5.4910786399
 20
-25.0649958035
 30
0.0
 11
5.6548563313
 21
-25.3938661477
 31
0.0
  0
LINE
  5
1D7
330
1F
100
AcDbEntity
  8
SK3
  6
SLD-Dashed
370
    18
100
AcDbLine
 10
5.6548563313
 20
-25.3938661477
 30
0.0
 11
5.7527470232
 21
-25.6635471129
 31
0.0
  0
LINE
  5
1D8
330
1F
100
AcDbEntity
  8
SK3
  6
SLD-Dashed
370
    18
100
AcDbLine
 10
5.7527470232
 20
-25.6635471129
 30
0.0
 11
5.7790616643
 21
-25.8583658217
 31
0.0
  0
LINE
  5
1D9
330
1F
100
AcDbEntity
  8
SK3
  6
SLD-Dashed
370
    18
100
AcDbLine
 10
5.7790616643
 20
-25.8583658217
 30
0.0
 11
5.7322709434
 21
-25.9670001189
 31
0.0
  0
LINE
  5
1DA
330
1F
100
AcDbEntity
  8
SK3
  6
SLD-Dashed
370
    18
100
AcDbLine
 10
3.2
 20
-22.8742979511
 30
0.0
 11
3.2
 21
-27.8871582268
 31
0.0
  0
LINE
  5
1DB
330
1F
100
AcDbEntity
  8
SK3
  6
SLD-Dashed
370
    18
100
AcDbLine
 10
9.115
 20
27.3466468125
 30
0.0
 11
9.115
 21
23.230614392
 31
0.0
  0
LINE
  5
1DC
330
1F
100
AcDbEntity
  8
SK3
  6
SLD-Dashed
370
    18
100
AcDbLine
 10
13.115
 20
23.2104077334
 30
0.0
 11
13.115
 21
27.3466468125
 31
0.0
  0
LINE
  5
1DD
330
1F
100
AcDbEntity
  8
SK3
  6
SLD-Dashed
370
    18
100
AcDbLine
 10
3.2
 20
22.8675293454
 30
0.0
 11
3.3100253255
 21
22.7838057852
 31
0.0
  0
LINE
  5
1DE
330
1F
100
AcDbEntity
  8
SK3
  6
SLD-Dashed
370
    18
100
AcDbLine
 10
5.7322709434
 20
25.9670001189
 30
0.0
 11
3.2
 21
27.8939268324
 31
0.0
  0
LINE
  5
1DF
330
1F
100
AcDbEntity
  8
SK3
  6
SLD-Dashed
370
    18
100
AcDbLine
 10
12.6773076344
 20
15.718620262
 30
0.0
 11
13.9872030677
 21
14.7218578465
 31
0.0
  0
LINE
  5
1E0
330
1F
100
AcDbEntity
  8
SK3
  6
SLD-Dashed
370
    18
100
AcDbLine
 10
3.3403033958
 20
22.8235957143
 30
0.0
 11
9.5636972046
 21
18.0879161418
 31
0.0
  0
LINE
  5
1E1
330
1F
100
AcDbEntity
  8
SK3
  6
SLD-Dashed
370
    18
100
AcDbLine
 10
9.5541511667
 20
22.9959177308
 30
0.0
 11
5.7019928732
 21
25.9272101898
 31
0.0
  0
LINE
  5
1E2
330
1F
100
AcDbEntity
  8
SK3
  6
SLD-Dashed
370
    18
100
AcDbLine
 10
16.3488925452
 20
17.8254723219
 30
0.0
 11
12.6670873806
 21
20.6271348944
 31
0.0
  0
LINE
  5
1E3
330
1F
100
AcDbEntity
  8
SK3
  6
SLD-Dashed
370
    18
100
AcDbLine
 10
9.465
 20
23.2104077334
 30
0.0
 11
9.465
 21
22.9667378435
 31
0.0
  0
LINE
  5
1E4
330
1F
100
AcDbEntity
  8
SK3
  6
SLD-Dashed
370
    18
100
AcDbLine
 10
12.765
 20
20.454307559
 30
0.0
 11
12.765
 21
23.2104077334
 31
0.0
  0
LINE
  5
1E5
330
1F
100
AcDbEntity
  8
SK3
  6
SLD-Dashed
370
    18
100
AcDbLine
 10
-68.25
 20
-9.25
 30
0.0
 11
-66.9509618943
 21
-8.5
 31
0.0
  0
LINE
  5
1E6
330
1F
100
AcDbEntity
  8
SK3
  6
SLD-Dashed
370
    18
100
AcDbLine
 10
-66.9509618943
 20
8.5
 30
0.0
 11
-68.25
 21
9.25
 31
0.0
  0
LINE
  5
1E7
330
1F
100
AcDbEntity
  8
SK3
  6
SLD-Dashed
370
    18
100
AcDbLine
 10
-57.75
 20
8.8
 30
0.0
 11
-59.75
 21
8.8
 31
0.0
  0
LINE
  5
1E8
330
1F
100
AcDbEntity
  8
SK3
  6
SLD-Dashed
370
    18
100
AcDbLine
 10
-59.75
 20
-8.8
 30
0.0
 11
-57.75
 21
-8.8
 31
0.0
  0
LINE
  5
1E9
330
1F
100
AcDbEntity
  8
SK3
  6
SLD-Dashed
370
    18
100
AcDbLine
 10
-59.75
 20
8.8
 30
0.0
 11
-60.2696152423
 21
8.5
 31
0.0
  0
LINE
  5
1EA
330
1F
100
AcDbEntity
  8
SK3
  6
SLD-Dashed
370
    18
100
AcDbLine
 10
-60.2696152423
 20
-8.5
 30
0.0
 11
-59.75
 21
-8.8
 31
0.0
  0
LINE
  5
1EB
330
1F
100
AcDbEntity
  8
SK3
  6
SLD-Dashed
370
    18
100
AcDbLine
 10
-57.75
 20
-8.8
 30
0.0
 11
-56.7107695155
 21
-7.0
 31
0.0
  0
LINE
  5
1EC
330
1F
100
AcDbEntity
  8
SK3
  6
SLD-Dashed
370
    18
100
AcDbLine
 10
-56.7107695155
 20
7.0
 30
0.0
 11
-57.75
 21
8.8
 31
0.0
  0
LINE
  5
1ED
330
1F
100
AcDbEntity
  8
SK3
  6
SLD-Dashed
370
    18
100
AcDbLine
 10
63.0
 20
8.5773502692
 30
0.0
 11
62.0
 21
8.0
 31
0.0
  0
LINE
  5
1EE
330
1F
100
AcDbEntity
  8
SK3
  6
SLD-Dashed
370
    18
100
AcDbLine
 10
62.0
 20
-8.0
 30
0.0
 11
63.0
 21
-8.5773502692
 31
0.0
  0
LINE
  5
1EF
330
1F
100
AcDbEntity
  8
SK3
  6
SLD-Dashed
370
    18
100
AcDbLine
 10
-66.9509618943
 20
-8.5
 30
0.0
 11
-60.2696152423
 21
-8.5
 31
0.0
  0
LINE
  5
1F0
330
1F
100
AcDbEntity
  8
SK3
  6
SLD-Dashed
370
    18
100
AcDbLine
 10
-60.2696152423
 20
8.5
 30
0.0
 11
-66.9509618943
 21
8.5
 31
0.0
  0
LINE
  5
1F1
330
1F
100
AcDbEntity
  8
SK3
  6
SLD-Dashed
370
    18
100
AcDbLine
 10
9.465
 20
18.2613425767
 30
0.0
 11
9.465
 21
6.5760827024
 31
0.0
  0
LINE
  5
1F2
330
1F
100
AcDbEntity
  8
SK3
  6
SLD-Dashed
370
    18
100
AcDbLine
 10
12.765
 20
6.5734926391
 30
0.0
 11
12.765
 21
15.7500776376
 31
0.0
  0
LINE
  5
1F3
330
1F
100
AcDbEntity
  8
SK3
  6
SLD-Dashed
370
    18
100
AcDbLine
 10
14.25
 20
-8.25
 30
0.0
 11
16.75
 21
-8.25
 31
0.0
  0
LINE
  5
1F4
330
1F
100
AcDbEntity
  8
SK3
  6
SLD-Dashed
370
    18
100
AcDbLine
 10
16.75
 20
8.25
 30
0.0
 11
14.25
 21
8.25
 31
0.0
  0
LINE
  5
1F5
330
1F
100
AcDbEntity
  8
SK3
  6
SLD-Dashed
370
    18
100
AcDbLine
 10
47.125
 20
-24.0
 30
0.0
 11
47.125
 21
-22.3
 31
0.0
  0
LINE
  5
1F6
330
1F
100
AcDbEntity
  8
SK3
  6
SLD-Dashed
370
    18
100
AcDbLine
 10
30.875
 20
-22.3
 30
0.0
 11
30.875
 21
-24.0
 31
0.0
  0
LINE
  5
1F7
330
1F
100
AcDbEntity
  8
SK3
  6
SLD-Dashed
370
    18
100
AcDbLine
 10
62.0
 20
8.0
 30
0.0
 11
17.0
 21
8.0
 31
0.0
  0
LINE
  5
1F8
330
1F
100
AcDbEntity
  8
SK3
  6
SLD-Dashed
370
    18
100
AcDbLine
 10
45.0
 20
-8.0
 30
0.0
 11
62.0
 21
-8.0
 31
0.0
  0
LINE
  5
1F9
330
1F
100
AcDbEntity
  8
SK3
  6
SLD-Dashed
370
    18
100
AcDbLine
 10
17.0
 20
-8.0
 30
0.0
 11
33.0179164371
 21
-8.0
 31
0.0
  0
LINE
  5
1FA
330
1F
100
AcDbEntity
  8
SK3
  6
SLD-Dashed
370
    18
100
AcDbLine
 10
14.1920377033
 20
14.7367975886
 30
0.0
 11
16.0786127932
 21
15.5807724054
 31
0.0
  0
LINE
  5
1FB
330
1F
100
AcDbEntity
  8
SK3
  6
SLD-Dashed
370
    18
100
AcDbLine
 10
16.0786127932
 20
15.5807724054
 30
0.0
 11
16.3891004984
 21
17.6240678921
 31
0.0
  0
LINE
  5
1FC
330
1F
100
AcDbEntity
  8
SK3
  6
SLD-Dashed
370
    18
100
AcDbLine
 10
-56.7107695155
 20
-7.0
 30
0.0
 11
-11.25
 21
-7.0
 31
0.0
  0
LINE
  5
1FD
330
1F
100
AcDbEntity
  8
SK3
  6
SLD-Dashed
370
    18
100
AcDbLine
 10
-11.25
 20
7.0
 30
0.0
 11
-56.7107695155
 21
7.0
 31
0.0
  0
LINE
  5
1FE
330
1F
100
AcDbEntity
  8
SK3
  6
SLD-Dashed
370
    18
100
AcDbLine
 10
-11.249969957
 20
-6.99995
 30
0.0
 11
14.0
 21
-6.99995
 31
0.0
  0
LINE
  5
1FF
330
1F
100
AcDbEntity
  8
SK3
  6
SLD-Dashed
370
    18
100
AcDbLine
 10
14.0
 20
6.99995
 30
0.0
 11
-11.249969957
 21
6.99995
 31
0.0
  0
LINE
  5
200
330
1F
100
AcDbEntity
  8
SK3
  6
SLD-Dashed
370
    18
100
AcDbLine
 10
45.0
 20
-22.3
 30
0.0
 11
45.0
 21
-8.0
 31
0.0
  0
LINE
  5
201
330
1F
100
AcDbEntity
  8
SK3
  6
SLD-Dashed
370
    18
100
AcDbLine
 10
33.0
 20
-7.986571509
 30
0.0
 11
33.0
 21
-22.3
 31
0.0
  0
LINE
  5
202
330
1F
100
AcDbEntity
  8
SK3
  6
SLD-Dashed
370
    18
100
AcDbLine
 10
9.465
 20
-6.5734926391
 30
0.0
 11
9.465
 21
-18.259206264
 31
0.0
  0
LINE
  5
203
330
1F
100
AcDbEntity
  8
SK3
  6
SLD-Dashed
370
    18
100
AcDbLine
 10
12.765
 20
-15.7542792276
 30
0.0
 11
12.765
 21
-6.5760827024
 31
0.0
  0
LINE
  5
204
330
1F
100
AcDbEntity
  8
SK3
  6
SLD-Dashed
370
    18
100
AcDbLine
 10
12.6773076344
 20
-20.6193578118
 30
0.0
 11
16.3488925452
 21
-17.8254723219
 31
0.0
  0
LINE
  5
205
330
1F
100
AcDbEntity
  8
SK3
  6
SLD-Dashed
370
    18
100
AcDbLine
 10
5.7019928732
 20
-25.9272101898
 30
0.0
 11
9.5594085835
 21
-22.9919171096
 31
0.0
  0
LINE
  5
206
330
1F
100
AcDbEntity
  8
SK3
  6
SLD-Dashed
370
    18
100
AcDbLine
 10
9.5588677739
 20
-18.0915910878
 30
0.0
 11
3.3403033958
 21
-22.8235957143
 31
0.0
  0
LINE
  5
207
330
1F
100
AcDbEntity
  8
SK3
  6
SLD-Dashed
370
    18
100
AcDbLine
 10
13.9872030677
 20
-14.7218578465
 30
0.0
 11
12.6651816959
 21
-15.7278474716
 31
0.0
  0
LINE
  5
208
330
1F
100
AcDbEntity
  8
SK3
  6
SLD-Dashed
370
    18
100
AcDbLine
 10
16.3891004984
 20
-17.6240678921
 30
0.0
 11
16.0786127932
 21
-15.5807724054
 31
0.0
  0
LINE
  5
209
330
1F
100
AcDbEntity
  8
SK3
  6
SLD-Dashed
370
    18
100
AcDbLine
 10
16.0786127932
 20
-15.5807724054
 30
0.0
 11
14.1920377033
 21
-14.7367975886
 31
0.0
  0
LINE
  5
20A
330
1F
100
AcDbEntity
  8
SK3
  6
SLD-Dashed
370
    18
100
AcDbLine
 10
9.465
 20
-22.9638453577
 30
0.0
 11
9.465
 21
-23.4923155196
 31
0.0
  0
LINE
  5
20B
330
1F
100
AcDbEntity
  8
SK3
  6
SLD-Dashed
370
    18
100
AcDbLine
 10
12.765
 20
-23.4923155196
 30
0.0
 11
12.765
 21
-20.4547737958
 31
0.0
  0
LINE
  5
20C
330
1F
100
AcDbEntity
  8
SK3
  6
SLD-Dashed
370
    18
100
AcDbLine
 10
3.2
 20
-27.8939268324
 30
0.0
 11
5.7322709434
 21
-25.9670001189
 31
0.0
  0
LINE
  5
20D
330
1F
100
AcDbEntity
  8
SK3
  6
SLD-Dashed
370
    18
100
AcDbLine
 10
3.3100253255
 20
-22.7838057852
 30
0.0
 11
3.2
 21
-22.8675293454
 31
0.0
  0
LINE
  5
20E
330
1F
100
AcDbEntity
  8
SK3
  6
SLD-Dashed
370
    18
100
AcDbLine
 10
9.8021669195
 20
-23.8341593579
 30
0.0
 11
11.115
 21
-24.4239455979
 31
0.0
  0
LINE
  5
20F
330
1F
100
AcDbEntity
  8
SK3
  6
SLD-Dashed
370
    18
100
AcDbLine
 10
11.115
 20
-24.4239455979
 30
0.0
 11
12.4278330805
 21
-23.8341593579
 31
0.0
  0
LINE
  5
210
330
1F
100
AcDbEntity
  8
SK3
  6
SLD-Solid
370
    18
100
AcDbLine
 10
-35.2500006557
 20
8.00000038
 30
0.0
 11
-57.2881214321
 21
8.00000038
 31
0.0
  0
LINE
  5
211
330
1F
100
AcDbEntity
  8
SK3
  6
SLD-Solid
370
    18
100
AcDbLine
 10
-57.2881214321
 20
-8.00000038
 30
0.0
 11
-35.2500006557
 21
-8.00000038
 31
0.0
  0
LINE
  5
212
330
1F
100
AcDbEntity
  8
SK3
  6
SLD-Solid
370
    18
100
AcDbLine
 10
-35.2500006557
 20
8.00000038
 30
0.0
 11
-35.2500006557
 21
7.918571122
 31
0.0
  0
LINE
  5
213
330
1F
100
AcDbEntity
  8
SK3
  6
SLD-Solid
370
    18
100
AcDbLine
 10
-35.2500134849
 20
7.918571122
 30
0.0
 11
-35.2500006557
 21
7.6759438962
 31
0.0
  0
LINE
  5
214
330
1F
100
AcDbEntity
  8
SK3
  6
SLD-Solid
370
    18
100
AcDbLine
 10
-35.2500006557
 20
7.6759438962
 30
0.0
 11
-35.2500006557
 21
7.2770561092
 31
0.0
  0
LINE
  5
215
330
1F
100
AcDbEntity
  8
SK3
  6
SLD-Solid
370
    18
100
AcDbLine
 10
-35.2500006557
 20
7.2770561092
 30
0.0
 11
-35.2500006557
 21
6.7300284281
 31
0.0
  0
LINE
  5
216
330
1F
100
AcDbEntity
  8
SK3
  6
SLD-Solid
370
    18
100
AcDbLine
 10
-35.2500006557
 20
6.7300284281
 30
0.0
 11
-35.2500006557
 21
6.0459966771
 31
0.0
  0
LINE
  5
217
330
1F
100
AcDbEntity
  8
SK3
  6
SLD-Solid
370
    18
100
AcDbLine
 10
-35.2500006557
 20
6.0459966771
 30
0.0
 11
-35.2500006557
 21
5.2388859913
 31
0.0
  0
LINE
  5
218
330
1F
100
AcDbEntity
  8
SK3
  6
SLD-Solid
370
    18
100
AcDbLine
 10
-35.2500006557
 20
5.2388859913
 30
0.0
 11
-35.2500006557
 21
4.3251267634
 31
0.0
  0
LINE
  5
219
330
1F
100
AcDbEntity
  8
SK3
  6
SLD-Solid
370
    18
100
AcDbLine
 10
-35.2500006557
 20
4.3251267634
 30
0.0
 11
-35.2500006557
 21
3.3233200666
 31
0.0
  0
LINE
  5
21A
330
1F
100
AcDbEntity
  8
SK3
  6
SLD-Solid
370
    18
100
AcDbLine
 10
-35.2500006557
 20
3.3233200666
 30
0.0
 11
-35.2500006557
 21
2.253860468
 31
0.0
  0
LINE
  5
21B
330
1F
100
AcDbEntity
  8
SK3
  6
SLD-Solid
370
    18
100
AcDbLine
 10
-35.2500006557
 20
2.253860468
 30
0.0
 11
-35.2500006557
 21
1.1385186808
 31
0.0
  0
LINE
  5
21C
330
1F
100
AcDbEntity
  8
SK3
  6
SLD-Solid
370
    18
100
AcDbLine
 10
-35.2500006557
 20
1.1385186808
 30
0.0
 11
-35.2500006557
 21
0.0
 31
0.0
  0
LINE
  5
21D
330
1F
100
AcDbEntity
  8
SK3
  6
SLD-Solid
370
    18
100
AcDbLine
 10
-35.2500006557
 20
0.0
 30
0.0
 11
-35.2500006557
 21
-1.1385186808
 31
0.0
  0
LINE
  5
21E
330
1F
100
AcDbEntity
  8
SK3
  6
SLD-Solid
370
    18
100
AcDbLine
 10
-35.2500006557
 20
-1.1385186808
 30
0.0
 11
-35.2500006557
 21
-2.253860468
 31
0.0
  0
LINE
  5
21F
330
1F
100
AcDbEntity
  8
SK3
  6
SLD-Solid
370
    18
100
AcDbLine
 10
-35.2500006557
 20
-2.253860468
 30
0.0
 11
-35.2500006557
 21
-3.3233200666
 31
0.0
  0
LINE
  5
220
330
1F
100
AcDbEntity
  8
SK3
  6
SLD-Solid
370
    18
100
AcDbLine
 10
-35.2500006557
 20
-3.3233200666
 30
0.0
 11
-35.2500006557
 21
-4.3251267634
 31
0.0
  0
LINE
  5
221
330
1F
100
AcDbEntity
  8
SK3
  6
SLD-Solid
370
    18
100
AcDbLine
 10
-35.2500006557
 20
-4.3251267634
 30
0.0
 11
-35.2500006557
 21
-5.2388859913
 31
0.0
  0
LINE
  5
222
330
1F
100
AcDbEntity
  8
SK3
  6
SLD-Solid
370
    18
100
AcDbLine
 10
-35.2500006557
 20
-5.2388859913
 30
0.0
 11
-35.2500006557
 21
-6.0459966771
 31
0.0
  0
LINE
  5
223
330
1F
100
AcDbEntity
  8
SK3
  6
SLD-Solid
370
    18
100
AcDbLine
 10
-35.2500006557
 20
-6.0459966771
 30
0.0
 11
-35.2500006557
 21
-6.7300284281
 31
0.0
  0
LINE
  5
224
330
1F
100
AcDbEntity
  8
SK3
  6
SLD-Solid
370
    18
100
AcDbLine
 10
-35.2500006557
 20
-6.7300284281
 30
0.0
 11
-35.2500006557
 21
-7.2770561092
 31
0.0
  0
LINE
  5
225
330
1F
100
AcDbEntity
  8
SK3
  6
SLD-Solid
370
    18
100
AcDbLine
 10
-35.2500006557
 20
-7.2770561092
 30
0.0
 11
-35.2500006557
 21
-7.6759438962
 31
0.0
  0
LINE
  5
226
330
1F
100
AcDbEntity
  8
SK3
  6
SLD-Solid
370
    18
100
AcDbLine
 10
-35.2500006557
 20
-7.6759438962
 30
0.0
 11
-35.2500006557
 21
-7.918571122
 31
0.0
  0
LINE
  5
227
330
1F
100
AcDbEntity
  8
SK3
  6
SLD-Solid
370
    18
100
AcDbLine
 10
-35.2500006557
 20
-7.918571122
 30
0.0
 11
-35.2500006557
 21
-8.00000038
 31
0.0
  0
LINE
  5
228
330
1F
100
AcDbEntity
  8
SK3
  6
SLD-Solid
370
    18
100
AcDbLine
 10
32.0000015199
 20
-7.9900445417
 30
0.0
 11
32.0000015199
 21
-22.2999993712
 31
0.0
  0
LINE
  5
229
330
1F
100
AcDbEntity
  8
SK3
  6
SLD-Solid
370
    18
100
AcDbLine
 10
46.0000000894
 20
-22.2999993712
 30
0.0
 11
46.0000000894
 21
-7.9900445417
 31
0.0
  0
LINE
  5
22A
330
1F
100
AcDbEntity
  8
SK3
  6
SLD-Solid
370
    18
100
AcDbLine
 10
42.6055528224
 20
-5.2915024571
 30
0.0
 11
43.6170883477
 21
-6.0264002532
 31
0.0
  0
LINE
  5
22B
330
1F
100
AcDbEntity
  8
SK3
  6
SLD-Solid
370
    18
100
AcDbLine
 10
32.0113822818
 20
-7.9900445417
 30
0.0
 11
32.0036485791
 21
-7.9968078062
 31
0.0
  0
LINE
  5
22C
330
1F
100
AcDbEntity
  8
SK3
  6
SLD-Solid
370
    18
100
AcDbLine
 10
35.3944247819
 20
-5.2915024571
 30
0.0
 11
42.6055528224
 21
-5.2915024571
 31
0.0
  0
LINE
  5
22D
330
1F
100
AcDbEntity
  8
4
  6
SLD-Center
370
    18
100
AcDbLine
 10
39.0
 20
-5.4749501088
 30
0.0
 11
39.0
 21
-24.5472080632
 31
0.0
  0
LINE
  5
22E
330
1F
100
AcDbEntity
  8
SK4
  6
SLD-Center
370
    18
100
AcDbLine
 10
65.2827575522
 20
0.0
 30
0.0
 11
-70.8007459443
 21
0.0
 31
0.0
  0
ARC
  5
22F
330
1F
100
AcDbEntity
  8
1
  6
SLD-Solid
370
    25
100
AcDbCircle
 10
3.95
 20
31.0
 30
0.0
 40
0.7500000000000009
100
AcDbArc
 50
90.0
 51
180.0
  0
ARC
  5
230
330
1F
100
AcDbEntity
  8
1
  6
SLD-Solid
370
    25
100
AcDbCircle
 10
18.3
 20
31.0
 30
0.0
 40
0.75
100
AcDbArc
 50
0.0
 51
90.0
  0
ARC
  5
231
330
1F
100
AcDbEntity
  8
1
  6
SLD-Solid
370
    25
100
AcDbCircle
 10
21.05
 20
26.0
 30
0.0
 40
2.000000000000011
100
AcDbArc
 50
180.0
 51
270.0
  0
ARC
  5
232
330
1F
100
AcDbEntity
  8
1
  6
SLD-Solid
370
    25
100
AcDbCircle
 10
21.05
 20
-26.0
 30
0.0
 40
2.000000000000004
100
AcDbArc
 50
90.0
 51
180.0
  0
ARC
  5
233
330
1F
100
AcDbEntity
  8
1
  6
SLD-Solid
370
    25
100
AcDbCircle
 10
2.45
 20
-22.79
 30
0.0
 40
0.7500000000000012
100
AcDbArc
 50
0.0
 51
115.0
  0
ARC
  5
234
330
1F
100
AcDbEntity
  8
1
  6
SLD-Solid
370
    25
100
AcDbCircle
 10
2.45
 20
22.79
 30
0.0
 40
0.7500000000000009
100
AcDbArc
 50
245.0
 51
0.0
  0
ARC
  5
235
330
1F
100
AcDbEntity
  8
1
  6
SLD-Solid
370
    25
100
AcDbCircle
 10
3.95
 20
-31.0
 30
0.0
 40
0.7500000000000009
100
AcDbArc
 50
180.0
 51
270.0
  0
ARC
  5
236
330
1F
100
AcDbEntity
  8
1
  6
SLD-Solid
370
    25
100
AcDbCircle
 10
18.3
 20
-31.0
 30
0.0
 40
0.75
100
AcDbArc
 50
270.0
 51
0.0
  0
ARC
  5
237
330
1F
100
AcDbEntity
  8
1
  6
SLD-Solid
370
    25
100
AcDbCircle
 10
12.28
 20
-28.75
 30
0.0
 40
0.7500000000000018
100
AcDbArc
 50
0.0
 51
90.0
  0
ARC
  5
238
330
1F
100
AcDbEntity
  8
1
  6
SLD-Solid
370
    25
100
AcDbCircle
 10
9.95
 20
-28.75
 30
0.0
 40
0.7500000000000284
100
AcDbArc
 50
90.0
 51
180.0
  0
ARC
  5
239
330
1F
100
AcDbEntity
  8
SK1
  6
SLD-Solid
370
    25
100
AcDbCircle
 10
-67.25
 20
-11.4070377962
 30
0.0
 40
1.000000000000014
100
AcDbArc
 50
180.0
 51
261.7027777778
  0
ARC
  5
23A
330
1F
100
AcDbEntity
  8
SK1
  6
SLD-Solid
370
    25
100
AcDbCircle
 10
-67.25
 20
11.4070377962
 30
0.0
 40
1.000000000000014
100
AcDbArc
 50
98.2972222222
 51
180.0
  0
ARC
  5
23B
330
1F
100
AcDbEntity
  8
1
  6
SLD-Solid
370
    25
100
AcDbCircle
 10
12.28
 20
28.75
 30
0.0
 40
0.7500000000000018
100
AcDbArc
 50
270.0
 51
0.0
  0
ARC
  5
23C
330
1F
100
AcDbEntity
  8
1
  6
SLD-Solid
370
    25
100
AcDbCircle
 10
9.95
 20
28.75
 30
0.0
 40
0.7500000000000284
100
AcDbArc
 50
180.0
 51
270.0
  0
CIRCLE
  5
23D
330
1F
100
AcDbEntity
  8
1
  6
SLD-Solid
370
    25
100
AcDbCircle
 10
11.1
 20
0.0
 30
0.0
 40
5.000000000000004
  0
ARC
  5
23E
330
1F
100
AcDbEntity
  8
SK3
  6
SLD-Dashed
370
    18
100
AcDbCircle
 10
39.0
 20
31.1065836853
 30
0.0
 40
12.50000000000002
100
AcDbArc
 50
222.8342273526
 51
317.1458940085
  0
ARC
  5
23F
330
1F
100
AcDbEntity
  8
SK3
  6
SLD-Dashed
370
    18
100
AcDbCircle
 10
14.25
 20
-8.0
 30
0.0
 40
0.2500000000000018
100
AcDbArc
 50
180.0
 51
270.0
  0
ARC
  5
240
330
1F
100
AcDbEntity
  8
SK3
  6
SLD-Dashed
370
    18
100
AcDbCircle
 10
14.25
 20
8.0
 30
0.0
 40
0.2500000000000018
100
AcDbArc
 50
90.0
 51
180.0
  0
ARC
  5
241
330
1F
100
AcDbEntity
  8
SK3
  6
SLD-Dashed
370
    18
100
AcDbCircle
 10
16.75
 20
-8.0
 30
0.0
 40
0.25
100
AcDbArc
 50
270.0
 51
0.0
  0
ARC
  5
242
330
1F
100
AcDbEntity
  8
SK3
  6
SLD-Dashed
370
    18
100
AcDbCircle
 10
16.75
 20
8.0
 30
0.0
 40
0.25
100
AcDbArc
 50
360.0
 51
90.0
  0
SPLINE
  5
243
330
1F
100
AcDbEntity
  8
1
  6
SLD-Solid
370
    25
100
AcDbSpline
210
0.0
220
0.0
230
1.0
 70
     8
 71
     3
 72
     8
 73
     4
 74
     0
 42
0.000000001
 43
0.00000001
 40
0.0
 40
0.0
 40
0.0
 40
0.0
 40
0.0008783072046589
 40
0.0008783072046589
 40
0.0008783072046589
 40
0.0008783072046589
 10
14.63683664205673
 20
-8.732520000000008
 30
0.0
 10
14.51427081432997
 20
-8.52022975910549
 30
0.0
 10
14.39228083356649
 20
-8.307726875209413
 30
0.0
 10
14.27090830787683
 20
-8.094999999999999
 30
0.0
  0
SPLINE
  5
244
330
1F
100
AcDbEntity
  8
1
  6
SLD-Solid
370
    25
100
AcDbSpline
210
0.0
220
0.0
230
1.0
 70
    24
 71
     3
 72
    18
 73
    14
 74
     0
 42
0.000000001
 43
0.00000001
 40
0.0
 40
0.0
 40
0.0
 40
0.0
 40
0.0503985907721767
 40
0.1007611985112129
 40
0.1867133625924686
 40
0.250707802088887
 40
0.3759053866292146
 40
0.5002769903873882
 40
0.6254727404757954
 40
0.7499722576385894
 40
0.8750533663912197
 40
0.9372999447731115
 40
1.0
 40
1.0
 40
1.0
 40
1.0
 10
18.29999999999997
 20
-8.094999999999999
 30
0.0
 10
18.30672586936912
 20
-8.094999999999999
 30
0.0
 10
18.32017280604497
 20
-8.095
 30
0.0
 10
18.34490953258422
 20
-8.095000000000008
 30
0.0
 10
18.37097379942354
 20
-8.095000000000011
 30
0.0
 10
18.40534068018858
 20
-8.095000000000017
 30
0.0
 10
18.44197202237656
 20
-8.095000000000027
 30
0.0
 10
18.47986487117874
 20
-8.095000000000034
 30
0.0
 10
18.51053614991202
 20
-8.095000000000041
 30
0.0
 10
18.53314513148844
 20
-8.095000000000045
 30
0.0
 10
18.54454926815957
 20
-8.095000000000049
 30
0.0
 10
18.54932787138485
 20
-8.095000000000049
 30
0.0
 10
18.54977541569447
 20
-8.095000000000049
 30
0.0
 10
18.54999999999994
 20
-8.095000000000049
 30
0.0
  0
SPLINE
  5
245
330
1F
100
AcDbEntity
  8
1
  6
SLD-Solid
370
    25
100
AcDbSpline
210
0.0
220
0.0
230
1.0
 70
     8
 71
     3
 72
    15
 73
    11
 74
     0
 42
0.000000001
 43
0.00000001
 40
0.0
 40
0.0
 40
0.0
 40
0.0
 40
0.0701435325383619
 40
0.1230076382658076
 40
0.2464580449108382
 40
0.4936501266417946
 40
0.6221640882791771
 40
0.7451781028260629
 40
0.8734188463590339
 40
1.0
 40
1.0
 40
1.0
 40
1.0
 10
19.04999999999992
 20
-8.595000000000017
 30
0.0
 10
19.0491446477149
 20
-8.60006893133667
 30
0.0
 10
19.04764465390714
 20
-8.608958094024802
 30
0.0
 10
19.03267384616034
 20
-8.626522361201271
 30
0.0
 10
18.98572299610639
 20
-8.655890547791124
 30
0.0
 10
18.87530842138217
 20
-8.686676393428936
 30
0.0
 10
18.72430920317451
 20
-8.709663478514939
 30
0.0
 10
18.59259636522152
 20
-8.722605848112554
 30
0.0
 10
18.44997512465266
 20
-8.730953584814666
 30
0.0
 10
18.34977418050383
 20
-8.732000133573093
 30
0.0
 10
18.3
 20
-8.732520000000008
 30
0.0
  0
SPLINE
  5
246
330
1F
100
AcDbEntity
  8
1
  6
SLD-Solid
370
    25
100
AcDbSpline
210
0.0
220
0.0
230
1.0
 70
     8
 71
     3
 72
    15
 73
    11
 74
     0
 42
0.000000001
 43
0.00000001
 40
0.0
 40
0.0
 40
0.0
 40
0.0
 40
0.070143531794924
 40
0.1230076382662239
 40
0.2464580449112004
 40
0.4936501266420342
 40
0.6221640882725309
 40
0.7451781028261851
 40
0.8734188463588567
 40
1.0
 40
1.0
 40
1.0
 40
1.0
 10
3.199999999999981
 20
8.595000000000013
 30
0.0
 10
3.200855352268217
 20
8.600068931283253
 30
0.0
 10
3.202355346062502
 20
8.608958093971948
 30
0.0
 10
3.217326153757027
 20
8.626522361149199
 30
0.0
 10
3.264277003893534
 20
8.655890547791458
 30
0.0
 10
3.374691578616265
 20
8.686676393428543
 30
0.0
 10
3.525690796823078
 20
8.709663478514477
 30
0.0
 10
3.657403634775735
 20
8.722605848112428
 30
0.0
 10
3.800024875347141
 20
8.730953584814586
 30
0.0
 10
3.90022581949595
 20
8.732000133573045
 30
0.0
 10
3.949999999999898
 20
8.73251999999998
 30
0.0
  0
SPLINE
  5
247
330
1F
100
AcDbEntity
  8
1
  6
SLD-Solid
370
    25
100
AcDbSpline
210
0.0
220
0.0
230
1.0
 70
    24
 71
     3
 72
    18
 73
    14
 74
     0
 42
0.000000001
 43
0.00000001
 40
0.0
 40
0.0
 40
0.0
 40
0.0
 40
0.0503985907721776
 40
0.1007611985112122
 40
0.1867133625924729
 40
0.250707802088889
 40
0.3759053866292136
 40
0.5002769903873886
 40
0.6254727404758041
 40
0.7499722576385879
 40
0.8750533663912278
 40
0.9372999447731191
 40
0.9999999999999999
 40
0.9999999999999999
 40
0.9999999999999999
 40
0.9999999999999999
 10
3.949999999999954
 20
8.09499999999997
 30
0.0
 10
3.943274130630808
 20
8.09499999999997
 30
0.0
 10
3.929827193954988
 20
8.09499999999997
 30
0.0
 10
3.90509046741569
 20
8.094999999999978
 30
0.0
 10
3.879026200576396
 20
8.094999999999978
 30
0.0
 10
3.844659319811317
 20
8.094999999999978
 30
0.0
 10
3.80802797762339
 20
8.094999999999985
 30
0.0
 10
3.770135128821184
 20
8.094999999999985
 30
0.0
 10
3.739463850087901
 20
8.094999999999992
 30
0.0
 10
3.71685486851149
 20
8.094999999999992
 30
0.0
 10
3.705450731840365
 20
8.094999999999992
 30
0.0
 10
3.700672128615079
 20
8.094999999999992
 30
0.0
 10
3.700224584305467
 20
8.094999999999992
 30
0.0
 10
3.700000000000009
 20
8.094999999999992
 30
0.0
  0
SPLINE
  5
248
330
1F
100
AcDbEntity
  8
1
  6
SLD-Solid
370
    25
100
AcDbSpline
210
0.0
220
0.0
230
1.0
 70
     8
 71
     3
 72
     8
 73
     4
 74
     0
 42
0.000000001
 43
0.00000001
 40
0.0
 40
0.0
 40
0.0
 40
0.0
 40
0.0008783072046589
 40
0.0008783072046589
 40
0.0008783072046589
 40
0.0008783072046589
 10
7.593163357943217
 20
8.73251999999998
 30
0.0
 10
7.715729185669984
 20
8.520229759105463
 30
0.0
 10
7.837719166433499
 20
8.307726875209392
 30
0.0
 10
7.959091692123138
 20
8.09499999999997
 30
0.0
  0
SPLINE
  5
249
330
1F
100
AcDbEntity
  8
1
  6
SLD-Solid
370
    25
100
AcDbSpline
210
0.0
220
0.0
230
1.0
 70
    24
 71
     3
 72
     8
 73
     4
 74
     0
 42
0.000000001
 43
0.00000001
 40
0.0
 40
0.0
 40
0.0
 40
0.0
 40
0.2499999999999996
 40
0.2499999999999996
 40
0.2499999999999996
 40
0.2499999999999996
 10
18.3
 20
-18.34999999999999
 30
0.0
 10
18.41009345940822
 20
-18.34999999999999
 30
0.0
 10
18.51914645498258
 20
-18.34999999999999
 30
0.0
 10
18.61478964588864
 20
-18.34999999999999
 30
0.0
  0
SPLINE
  5
24A
330
1F
100
AcDbEntity
  8
1
  6
SLD-Solid
370
    25
100
AcDbSpline
210
0.0
220
0.0
230
1.0
 70
    24
 71
     3
 72
     8
 73
     4
 74
     0
 42
0.000000001
 43
0.00000001
 40
0.2499999999999996
 40
0.2499999999999996
 40
0.2499999999999996
 40
0.2499999999999996
 40
0.4999999999999991
 40
0.4999999999999991
 40
0.4999999999999991
 40
0.4999999999999991
 10
18.61478964588864
 20
-18.34999999999999
 30
0.0
 10
18.7104328367947
 20
-18.34999999999999
 30
0.0
 10
18.79290518035345
 20
-18.34999999999999
 30
0.0
 10
18.85782919697514
 20
-18.34999999999999
 30
0.0
  0
SPLINE
  5
24B
330
1F
100
AcDbEntity
  8
1
  6
SLD-Solid
370
    25
100
AcDbSpline
210
0.0
220
0.0
230
1.0
 70
    24
 71
     2
 72
     6
 73
     3
 74
     0
 42
0.000000001
 43
0.00000001
 40
0.4999999999999991
 40
0.4999999999999991
 40
0.4999999999999991
 40
1.0
 40
1.0
 40
1.0
 10
18.85782919697514
 20
-18.34999999999999
 30
0.0
 10
18.98767723021846
 20
-18.34999999999999
 30
0.0
 10
19.05000000000003
 20
-18.34999999999999
 30
0.0
  0
SPLINE
  5
24C
330
1F
100
AcDbEntity
  8
1
  6
SLD-Solid
370
    25
100
AcDbSpline
210
0.0
220
0.0
230
1.0
 70
    24
 71
     3
 72
    18
 73
    14
 74
     0
 42
0.000000001
 43
0.00000001
 40
0.0
 40
0.0
 40
0.0
 40
0.0
 40
0.0502617221452385
 40
0.1003354213518343
 40
0.1864287239590559
 40
0.2507033761673368
 40
0.3754040368259516
 40
0.5003115117971194
 40
0.6254321409840755
 40
0.7499589778058467
 40
0.8750959321922386
 40
0.9373335260982067
 40
1.0
 40
1.0
 40
1.0
 40
1.0
 10
18.54999999999683
 20
8.094999999992934
 30
0.0
 10
18.54985585338119
 20
8.094999999992934
 30
0.0
 10
18.54956809938468
 20
8.094999999992934
 30
0.0
 10
18.54670424338883
 20
8.094999999992934
 30
0.0
 10
18.54109212158883
 20
8.094999999992934
 30
0.0
 10
18.52936746843664
 20
8.094999999992934
 30
0.0
 10
18.51041383753511
 20
8.094999999992934
 30
0.0
 10
18.47965032418071
 20
8.094999999992934
 30
0.0
 10
18.44172270347644
 20
8.094999999992934
 30
0.0
 10
18.39795184457216
 20
8.094999999992934
 30
0.0
 10
18.35803612823034
 20
8.094999999992934
 30
0.0
 10
18.32503585238106
 20
8.094999999992934
 30
0.0
 10
18.30836436561495
 20
8.094999999992934
 30
0.0
 10
18.29999999999683
 20
8.094999999992934
 30
0.0
  0
SPLINE
  5
24D
330
1F
100
AcDbEntity
  8
1
  6
SLD-Solid
370
    25
100
AcDbSpline
210
0.0
220
0.0
230
1.0
 70
     8
 71
     3
 72
    17
 73
    13
 74
     0
 42
0.000000001
 43
0.00000001
 40
0.0
 40
0.0
 40
0.0
 40
0.0
 40
0.0630096892532792
 40
0.1264306799664213
 40
0.1902686728771463
 40
0.2545292253591724
 40
0.3775638368193145
 40
0.5060541142148836
 40
0.7530801336068137
 40
0.8766168954597358
 40
0.9296269325062025
 40
1.0
 40
1.0
 40
1.0
 40
1.0
 10
18.29999999999684
 20
8.732519999992935
 30
0.0
 10
18.32475416474069
 20
8.732391978119985
 30
0.0
 10
18.37442407928334
 20
8.732135098699674
 30
0.0
 10
18.44843090931136
 20
8.730043004151884
 30
0.0
 10
18.52143218660491
 20
8.726684778834722
 30
0.0
 10
18.61417448602586
 20
8.720522494880935
 30
0.0
 10
18.72385267704537
 20
8.70970476950651
 30
0.0
 10
18.8749122645711
 20
8.686766754249778
 30
0.0
 10
18.98548148832259
 20
8.655981996491716
 30
0.0
 10
19.0325725893928
 20
8.626607912865895
 30
0.0
 10
19.04762809452212
 20
8.609006381148754
 30
0.0
 10
19.04913851381907
 20
8.600087177325536
 30
0.0
 10
19.04999999999684
 20
8.594999999992934
 30
0.0
  0
SPLINE
  5
24E
330
1F
100
AcDbEntity
  8
1
  6
SLD-Solid
370
    25
100
AcDbSpline
210
0.0
220
0.0
230
1.0
 70
     8
 71
     3
 72
     8
 73
     4
 74
     0
 42
0.000000001
 43
0.00000001
 40
0.0
 40
0.0
 40
0.0
 40
0.0
 40
0.0008783072046589
 40
0.0008783072046589
 40
0.0008783072046589
 40
0.0008783072046589
 10
14.27090830787367
 20
8.094999999992934
 30
0.0
 10
14.39228083356332
 20
8.307726875202356
 30
0.0
 10
14.51427081432681
 20
8.520229759098427
 30
0.0
 10
14.63683664205356
 20
8.732519999992936
 30
0.0
  0
SPLINE
  5
24F
330
1F
100
AcDbEntity
  8
1
  6
SLD-Solid
370
    25
100
AcDbSpline
210
0.0
220
0.0
230
1.0
 70
    24
 71
     2
 72
     6
 73
     3
 74
     0
 42
0.000000001
 43
0.00000001
 40
0.0
 40
0.0
 40
0.0
 40
0.5000000000000032
 40
0.5000000000000032
 40
0.5000000000000032
 10
3.199999999999981
 20
-18.34999999999999
 30
0.0
 10
3.262453391497278
 20
-18.34999999999999
 30
0.0
 10
3.391824966518506
 20
-18.34999999999999
 30
0.0
  0
SPLINE
  5
250
330
1F
100
AcDbEntity
  8
1
  6
SLD-Solid
370
    25
100
AcDbSpline
210
0.0
220
0.0
230
1.0
 70
    24
 71
     3
 72
     8
 73
     4
 74
     0
 42
0.000000001
 43
0.00000001
 40
0.5000000000000032
 40
0.5000000000000032
 40
0.5000000000000032
 40
0.5000000000000032
 40
0.7500000000000016
 40
0.7500000000000016
 40
0.7500000000000016
 40
0.7500000000000016
 10
3.391824966518506
 20
-18.34999999999999
 30
0.0
 10
3.456510754029127
 20
-18.34999999999999
 30
0.0
 10
3.538937009729431
 20
-18.34999999999999
 30
0.0
 10
3.634408833236944
 20
-18.34999999999999
 30
0.0
  0
SPLINE
  5
251
330
1F
100
AcDbEntity
  8
1
  6
SLD-Solid
370
    25
100
AcDbSpline
210
0.0
220
0.0
230
1.0
 70
    24
 71
     3
 72
     8
 73
     4
 74
     0
 42
0.000000001
 43
0.00000001
 40
0.7500000000000016
 40
0.7500000000000016
 40
0.7500000000000016
 40
0.7500000000000016
 40
1.0
 40
1.0
 40
1.0
 40
1.0
 10
3.634408833236944
 20
-18.34999999999999
 30
0.0
 10
3.729880656744442
 20
-18.34999999999999
 30
0.0
 10
3.838711986975802
 20
-18.34999999999999
 30
0.0
 10
3.949999999999982
 20
-18.34999999999999
 30
0.0
  0
SPLINE
  5
252
330
1F
100
AcDbEntity
  8
1
  6
SLD-Solid
370
    25
100
AcDbSpline
210
0.0
220
0.0
230
1.0
 70
     8
 71
     3
 72
    17
 73
    13
 74
     0
 42
0.000000001
 43
0.00000001
 40
0.0
 40
0.0
 40
0.0
 40
0.0
 40
0.0630096893448915
 40
0.1264306800885594
 40
0.1902686729687489
 40
0.2545292253591998
 40
0.3775638371034538
 40
0.5060541142149917
 40
0.7530801336068986
 40
0.876616895459794
 40
0.9296269324393096
 40
1.0
 40
1.0
 40
1.0
 40
1.0
 10
3.949999999999982
 20
-8.732520000000022
 30
0.0
 10
3.925245835220081
 20
-8.73239197812643
 30
0.0
 10
3.875575920629398
 20
-8.732135098704983
 30
0.0
 10
3.801569090567475
 20
-8.73004300415182
 30
0.0
 10
3.728567813312017
 20
-8.726684778832873
 30
0.0
 10
3.635825513834512
 20
-8.720522494880194
 30
0.0
 10
3.526147322855777
 20
-8.709704769500185
 30
0.0
 10
3.375087735364005
 20
-8.68676675424037
 30
0.0
 10
3.264518511674031
 20
-8.655981996498596
 30
0.0
 10
3.217427410611457
 20
-8.626607912877647
 30
0.0
 10
3.202371905477452
 20
-8.60900638116057
 30
0.0
 10
3.200861486179263
 20
-8.6000871773374
 30
0.0
 10
3.199999999999981
 20
-8.595000000000013
 30
0.0
  0
SPLINE
  5
253
330
1F
100
AcDbEntity
  8
1
  6
SLD-Solid
370
    25
100
AcDbSpline
210
0.0
220
0.0
230
1.0
 70
     8
 71
     3
 72
     8
 73
     4
 74
     0
 42
0.000000001
 43
0.00000001
 40
0.0
 40
0.0
 40
0.0
 40
0.0
 40
0.0008783072046589
 40
0.0008783072046589
 40
0.0008783072046589
 40
0.0008783072046589
 10
7.959091692123124
 20
-8.095000000000011
 30
0.0
 10
7.837719166433499
 20
-8.307726875209442
 30
0.0
 10
7.715729185669984
 20
-8.520229759105518
 30
0.0
 10
7.593163357943217
 20
-8.732520000000022
 30
0.0
  0
SPLINE
  5
254
330
1F
100
AcDbEntity
  8
1
  6
SLD-Solid
370
    25
100
AcDbSpline
210
0.0
220
0.0
230
1.0
 70
    24
 71
     3
 72
    18
 73
    14
 74
     0
 42
0.000000001
 43
0.00000001
 40
0.0
 40
0.0
 40
0.0
 40
0.0
 40
0.0502617221452651
 40
0.1003354213518358
 40
0.1864287239590548
 40
0.2507033761673301
 40
0.375404036825936
 40
0.5003115117971219
 40
0.6254321409840791
 40
0.7499589778058473
 40
0.8750959321922366
 40
0.9373335260982129
 40
1.0
 40
1.0
 40
1.0
 40
1.0
 10
3.699999999999995
 20
-8.094999999999999
 30
0.0
 10
3.700144146615639
 20
-8.094999999999999
 30
0.0
 10
3.700431900612116
 20
-8.094999999999999
 30
0.0
 10
3.70329575660798
 20
-8.094999999999999
 30
0.0
 10
3.708907878407955
 20
-8.094999999999999
 30
0.0
 10
3.720632531560186
 20
-8.094999999999985
 30
0.0
 10
3.739586162461686
 20
-8.095
 30
0.0
 10
3.770349675816118
 20
-8.095
 30
0.0
 10
3.808277296520349
 20
-8.094999999999992
 30
0.0
 10
3.85204815542467
 20
-8.095000000000004
 30
0.0
 10
3.891963871766449
 20
-8.095000000000008
 30
0.0
 10
3.924964147615742
 20
-8.094999999999999
 30
0.0
 10
3.941635634381865
 20
-8.095000000000011
 30
0.0
 10
3.949999999999967
 20
-8.095000000000011
 30
0.0
  0
SPLINE
  5
255
330
1F
100
AcDbEntity
  8
1
  6
SLD-Solid
370
    25
100
AcDbSpline
210
0.0
220
0.0
230
1.0
 70
    24
 71
     3
 72
     8
 73
     4
 74
     0
 42
0.000000001
 43
0.00000001
 40
0.0
 40
0.0
 40
0.0
 40
0.0
 40
1.0
 40
1.0
 40
1.0
 40
1.0
 10
13.02999999999679
 20
8.094999999992934
 30
0.0
 10
13.44271800981457
 20
8.094999999992934
 30
0.0
 10
13.85641888623397
 20
8.094999999992934
 30
0.0
 10
14.27090830787367
 20
8.094999999992934
 30
0.0
  0
SPLINE
  5
256
330
1F
100
AcDbEntity
  8
1
  6
SLD-Solid
370
    25
100
AcDbSpline
210
0.0
220
0.0
230
1.0
 70
     8
 71
     3
 72
     9
 73
     5
 74
     0
 42
0.000000001
 43
0.00000001
 40
0.0
 40
0.0
 40
0.0
 40
0.0
 40
0.5549482632672378
 40
1.0
 40
1.0
 40
1.0
 40
1.0
 10
13.0299999999968
 20
27.01726268082102
 30
0.0
 10
13.05715000916624
 20
27.09737051094022
 30
0.0
 10
13.10607350522261
 20
27.24172239997503
 30
0.0
 10
13.10748201276946
 20
27.31440022370288
 30
0.0
 10
13.10810887149938
 20
27.34674561537491
 30
0.0
  0
SPLINE
  5
257
330
1F
100
AcDbEntity
  8
1
  6
SLD-Solid
370
    25
100
AcDbSpline
210
0.0
220
0.0
230
1.0
 70
     8
 71
     3
 72
     8
 73
     4
 74
     0
 42
0.000000001
 43
0.00000001
 40
0.0
 40
0.0
 40
0.0
 40
0.0
 40
1.0
 40
1.0
 40
1.0
 40
1.0
 10
13.11238376628522
 20
27.38885610116811
 30
0.0
 10
13.10369243773719
 20
27.43220912960294
 30
0.0
 10
13.07354924829487
 20
27.4360178081872
 30
0.0
 10
13.02999999999672
 20
27.41186263126708
 30
0.0
  0
SPLINE
  5
258
330
1F
100
AcDbEntity
  8
1
  6
SLD-Solid
370
    25
100
AcDbSpline
210
0.0
220
0.0
230
1.0
 70
    24
 71
     3
 72
     8
 73
     4
 74
     0
 42
0.000000001
 43
0.00000001
 40
0.0
 40
0.0
 40
0.0
 40
0.0
 40
1.0
 40
1.0
 40
1.0
 40
1.0
 10
13.02999999999999
 20
-18.34999999999999
 30
0.0
 10
13.55326815339428
 20
-18.34999999999999
 30
0.0
 10
14.09021285193388
 20
-18.34999999999999
 30
0.0
 10
14.63683664205673
 20
-18.34999999999999
 30
0.0
  0
SPLINE
  5
259
330
1F
100
AcDbEntity
  8
1
  6
SLD-Solid
370
    25
100
AcDbSpline
210
0.0
220
0.0
230
1.0
 70
    24
 71
     3
 72
     8
 73
     4
 74
     0
 42
0.000000001
 43
0.00000001
 40
0.0
 40
0.0
 40
0.0
 40
0.0
 40
1.0
 40
1.0
 40
1.0
 40
1.0
 10
14.27090830787683
 20
-8.094999999999999
 30
0.0
 10
13.85641888623716
 20
-8.094999999999999
 30
0.0
 10
13.44271800981776
 20
-8.094999999999999
 30
0.0
 10
13.02999999999999
 20
-8.094999999999999
 30
0.0
  0
SPLINE
  5
25A
330
1F
100
AcDbEntity
  8
1
  6
SLD-Solid
370
    25
100
AcDbSpline
210
0.0
220
0.0
230
1.0
 70
     8
 71
     3
 72
     8
 73
     4
 74
     0
 42
0.000000001
 43
0.00000001
 40
0.0
 40
0.0
 40
0.0
 40
0.0
 40
1.0
 40
1.0
 40
1.0
 40
1.0
 10
9.2
 20
27.41186263126166
 30
0.0
 10
9.171016811579461
 20
27.42793854695173
 30
0.0
 10
9.14806768531086
 20
27.43188644554218
 30
0.0
 10
9.133183048274486
 20
27.41957129554514
 30
0.0
  0
SPLINE
  5
25B
330
1F
100
AcDbEntity
  8
1
  6
SLD-Solid
370
    25
100
AcDbSpline
210
0.0
220
0.0
230
1.0
 70
     8
 71
     3
 72
    10
 73
     6
 74
     0
 42
0.000000001
 43
0.00000001
 40
0.0
 40
0.0
 40
0.0
 40
0.0
 40
0.1680288744547075
 40
0.7148701403564326
 40
1.0
 40
1.0
 40
1.0
 40
1.0
 10
9.121891128497401
 20
27.34654800952586
 30
0.0
 10
9.119836714035989
 20
27.33839028304316
 30
0.0
 10
9.111096314154466
 20
27.30368365839545
 30
0.0
 10
9.146682262280256
 20
27.17482051366005
 30
0.0
 10
9.18639113269605
 20
27.05747788371194
 30
0.0
 10
9.200000000000014
 20
27.0172626808281
 30
0.0
  0
SPLINE
  5
25C
330
1F
100
AcDbEntity
  8
1
  6
SLD-Solid
370
    25
100
AcDbSpline
210
0.0
220
0.0
230
1.0
 70
    24
 71
     3
 72
     8
 73
     4
 74
     0
 42
0.000000001
 43
0.00000001
 40
0.0
 40
0.0
 40
0.0
 40
0.0
 40
1.0
 40
1.0
 40
1.0
 40
1.0
 10
7.959091692123138
 20
8.09499999999997
 30
0.0
 10
8.37358111376281
 20
8.094999999999978
 30
0.0
 10
8.787281990182235
 20
8.094999999999992
 30
0.0
 10
9.200000000000014
 20
8.094999999999999
 30
0.0
  0
SPLINE
  5
25D
330
1F
100
AcDbEntity
  8
1
  6
SLD-Solid
370
    25
100
AcDbSpline
210
0.0
220
0.0
230
1.0
 70
    24
 71
     3
 72
     8
 73
     4
 74
     0
 42
0.000000001
 43
0.00000001
 40
0.0
 40
0.0
 40
0.0
 40
0.0
 40
1.0
 40
1.0
 40
1.0
 40
1.0
 10
7.593163357943217
 20
-18.34999999999999
 30
0.0
 10
8.139818051543331
 20
-18.34999999999999
 30
0.0
 10
8.676973665110735
 20
-18.34999999999999
 30
0.0
 10
9.2
 20
-18.34999999999999
 30
0.0
  0
SPLINE
  5
25E
330
1F
100
AcDbEntity
  8
1
  6
SLD-Solid
370
    25
100
AcDbSpline
210
0.0
220
0.0
230
1.0
 70
    24
 71
     3
 72
     8
 73
     4
 74
     0
 42
0.000000001
 43
0.00000001
 40
0.0
 40
0.0
 40
0.0
 40
0.0
 40
1.0
 40
1.0
 40
1.0
 40
1.0
 10
9.2
 20
-8.094999999999999
 30
0.0
 10
8.787281990182223
 20
-8.095000000000002
 30
0.0
 10
8.373581113762823
 20
-8.095000000000008
 30
0.0
 10
7.959091692123124
 20
-8.095000000000011
 30
0.0
  0
SPLINE
  5
25F
330
1F
100
AcDbEntity
  8
1
  6
SLD-Solid
370
    25
100
AcDbSpline
210
0.0
220
0.0
230
1.0
 70
    24
 71
     3
 72
     8
 73
     4
 74
     0
 42
0.000000001
 43
0.00000001
 40
0.0
 40
0.0
 40
0.0
 40
0.0
 40
0.25
 40
0.25
 40
0.25
 40
0.25
 10
12.27999999999999
 20
-18.34999999999999
 30
0.0
 10
12.39351868075163
 20
-18.34999999999999
 30
0.0
 10
12.5071520895262
 20
-18.34999999999999
 30
0.0
 10
12.60448354500662
 20
-18.34999999999999
 30
0.0
  0
SPLINE
  5
260
330
1F
100
AcDbEntity
  8
1
  6
SLD-Solid
370
    25
100
AcDbSpline
210
0.0
220
0.0
230
1.0
 70
    24
 71
     3
 72
     8
 73
     4
 74
     0
 42
0.000000001
 43
0.00000001
 40
0.25
 40
0.25
 40
0.25
 40
0.25
 40
0.5
 40
0.5
 40
0.5
 40
0.5
 10
12.60448354500662
 20
-18.34999999999999
 30
0.0
 10
12.70181500048703
 20
-18.34999999999999
 30
0.0
 10
12.78100032850089
 20
-18.34999999999999
 30
0.0
 10
12.84409901342838
 20
-18.34999999999999
 30
0.0
  0
SPLINE
  5
261
330
1F
100
AcDbEntity
  8
1
  6
SLD-Solid
370
    25
100
AcDbSpline
210
0.0
220
0.0
230
1.0
 70
    24
 71
     2
 72
     6
 73
     3
 74
     0
 42
0.000000001
 43
0.00000001
 40
0.5
 40
0.5
 40
0.5
 40
1.0
 40
1.0
 40
1.0
 10
12.84409901342838
 20
-18.34999999999999
 30
0.0
 10
12.97029638328344
 20
-18.34999999999999
 30
0.0
 10
13.02999999999999
 20
-18.34999999999999
 30
0.0
  0
SPLINE
  5
262
330
1F
100
AcDbEntity
  8
1
  6
SLD-Solid
370
    25
100
AcDbSpline
210
0.0
220
0.0
230
1.0
 70
    24
 71
     2
 72
     6
 73
     3
 74
     0
 42
0.000000001
 43
0.00000001
 40
0.0
 40
0.0
 40
0.0
 40
0.5000000000000047
 40
0.5000000000000047
 40
0.5000000000000047
 10
13.02999999999999
 20
-8.094999999999999
 30
0.0
 10
12.95349719051726
 20
-8.094999999999999
 30
0.0
 10
12.81634843037009
 20
-8.094999999999999
 30
0.0
  0
SPLINE
  5
263
330
1F
100
AcDbEntity
  8
1
  6
SLD-Solid
370
    25
100
AcDbSpline
210
0.0
220
0.0
230
1.0
 70
    24
 71
     3
 72
     8
 73
     4
 74
     0
 42
0.000000001
 43
0.00000001
 40
0.5000000000000047
 40
0.5000000000000047
 40
0.5000000000000047
 40
0.5000000000000047
 40
0.7500000000000023
 40
0.7500000000000023
 40
0.7500000000000023
 40
0.7500000000000023
 10
12.81634843037009
 20
-8.094999999999999
 30
0.0
 10
12.74777405029648
 20
-8.094999999999999
 30
0.0
 10
12.66546509018093
 20
-8.094999999999999
 30
0.0
 10
12.57309648684345
 20
-8.094999999999999
 30
0.0
  0
SPLINE
  5
264
330
1F
100
AcDbEntity
  8
1
  6
SLD-Solid
370
    25
100
AcDbSpline
210
0.0
220
0.0
230
1.0
 70
    24
 71
     3
 72
     8
 73
     4
 74
     0
 42
0.000000001
 43
0.00000001
 40
0.7500000000000023
 40
0.7500000000000023
 40
0.7500000000000023
 40
0.7500000000000023
 40
1.0
 40
1.0
 40
1.0
 40
1.0
 10
12.57309648684345
 20
-8.094999999999999
 30
0.0
 10
12.48072788350596
 20
-8.094999999999999
 30
0.0
 10
12.37983045260058
 20
-8.094999999999999
 30
0.0
 10
12.27999999999999
 20
-8.094999999999999
 30
0.0
  0
SPLINE
  5
265
330
1F
100
AcDbEntity
  8
1
  6
SLD-Solid
370
    25
100
AcDbSpline
210
0.0
220
0.0
230
1.0
 70
     8
 71
     3
 72
    16
 73
    12
 74
     0
 42
0.000000001
 43
0.00000001
 40
0.0
 40
0.0
 40
0.0
 40
0.0
 40
0.1249999999999985
 40
0.1249999999999985
 40
0.249999999999997
 40
0.249999999999997
 40
0.499999999999998
 40
0.499999999999998
 40
0.749999999999999
 40
0.749999999999999
 40
1.0
 40
1.0
 40
1.0
 40
1.0
 10
9.200000000000014
 20
26.81342395599224
 30
0.0
 10
9.200000000000012
 20
26.7500821987389
 30
0.0
 10
9.20956382790143
 20
26.67853228546582
 30
0.0
 10
9.236165608094938
 20
26.55137620786217
 30
0.0
 10
9.253606986679316
 20
26.49121349319728
 30
0.0
 10
9.313827278242394
 20
26.32086774534962
 30
0.0
 10
9.364947089709304
 20
26.21821216600435
 30
0.0
 10
9.492010964480693
 20
26.02727557642675
 30
0.0
 10
9.56611591343238
 20
25.94241156889361
 30
0.0
 10
9.739483002625732
 20
25.79997779741086
 30
0.0
 10
9.839659725882848
 20
25.74236666909597
 30
0.0
 10
9.949999999996843
 20
25.71100064078867
 30
0.0
  0
SPLINE
  5
266
330
1F
100
AcDbEntity
  8
1
  6
SLD-Solid
370
    25
100
AcDbSpline
210
0.0
220
0.0
230
1.0
 70
    24
 71
     2
 72
     6
 73
     3
 74
     0
 42
0.000000001
 43
0.00000001
 40
0.0
 40
0.0
 40
0.0
 40
0.25
 40
0.25
 40
0.25
 10
9.2
 20
8.094999999999999
 30
0.0
 10
9.218706918939418
 20
8.094999999999999
 30
0.0
 10
9.25498491668962
 20
8.094999999999999
 30
0.0
  0
SPLINE
  5
267
330
1F
100
AcDbEntity
  8
1
  6
SLD-Solid
370
    25
100
AcDbSpline
210
0.0
220
0.0
230
1.0
 70
    24
 71
     3
 72
     8
 73
     4
 74
     0
 42
0.000000001
 43
0.00000001
 40
0.25
 40
0.25
 40
0.25
 40
0.25
 40
0.5
 40
0.5
 40
0.5
 40
0.5
 10
9.25498491668962
 20
8.094999999999999
 30
0.0
 10
9.291262914439852
 20
8.094999999999999
 30
0.0
 10
9.34550394142529
 20
8.094999999999999
 30
0.0
 10
9.413757757814874
 20
8.094999999999999
 30
0.0
  0
SPLINE
  5
268
330
1F
100
AcDbEntity
  8
1
  6
SLD-Solid
370
    25
100
AcDbSpline
210
0.0
220
0.0
230
1.0
 70
    24
 71
     3
 72
     8
 73
     4
 74
     0
 42
0.000000001
 43
0.00000001
 40
0.5
 40
0.5
 40
0.5
 40
0.5
 40
0.75
 40
0.75
 40
0.75
 40
0.75
 10
9.413757757814874
 20
8.094999999999999
 30
0.0
 10
9.482011574204488
 20
8.094999999999999
 30
0.0
 10
9.565219805752214
 20
8.094999999999999
 30
0.0
 10
9.6573543129454
 20
8.094999999999999
 30
0.0
  0
SPLINE
  5
269
330
1F
100
AcDbEntity
  8
1
  6
SLD-Solid
370
    25
100
AcDbSpline
210
0.0
220
0.0
230
1.0
 70
    24
 71
     3
 72
     8
 73
     4
 74
     0
 42
0.000000001
 43
0.00000001
 40
0.75
 40
0.75
 40
0.75
 40
0.75
 40
1.0
 40
1.0
 40
1.0
 40
1.0
 10
9.6573543129454
 20
8.094999999999999
 30
0.0
 10
9.749488820138568
 20
8.094999999999999
 30
0.0
 10
9.849028188255533
 20
8.094999999999999
 30
0.0
 10
9.950000000000028
 20
8.094999999999999
 30
0.0
  0
SPLINE
  5
26A
330
1F
100
AcDbEntity
  8
1
  6
SLD-Solid
370
    25
100
AcDbSpline
210
0.0
220
0.0
230
1.0
 70
     8
 71
     3
 72
    16
 73
    12
 74
     0
 42
0.000000001
 43
0.00000001
 40
0.0
 40
0.0
 40
0.0
 40
0.0
 40
0.2500000000000017
 40
0.2500000000000017
 40
0.5000000000000034
 40
0.5000000000000034
 40
0.7500000000000051
 40
0.7500000000000051
 40
0.8750000000000026
 40
0.8750000000000026
 40
1.0
 40
1.0
 40
1.0
 40
1.0
 10
12.2799999999968
 20
25.71100064078868
 30
0.0
 10
12.39043372689842
 20
25.74239323457943
 30
0.0
 10
12.48882901746021
 20
25.7987325018882
 30
0.0
 10
12.66410334854886
 20
25.94245138604112
 30
0.0
 10
12.73788841341346
 20
26.0272574559526
 30
0.0
 10
12.86422126911939
 20
26.2168303701315
 30
0.0
 10
12.91628240591206
 20
26.32104193278873
 30
0.0
 10
12.97661386675237
 20
26.49190672933527
 30
0.0
 10
12.99395951695425
 20
26.55178250641628
 30
0.0
 10
13.02063019805649
 20
26.67965382866437
 30
0.0
 10
13.0299999999968
 20
26.74911867245211
 30
0.0
 10
13.0299999999968
 20
26.81342395598517
 30
0.0
  0
SPLINE
  5
26B
330
1F
100
AcDbEntity
  8
1
  6
SLD-Solid
370
    25
100
AcDbSpline
210
0.0
220
0.0
230
1.0
 70
    24
 71
     3
 72
     8
 73
     4
 74
     0
 42
0.000000001
 43
0.00000001
 40
0.0
 40
0.0
 40
0.0
 40
0.0
 40
0.5
 40
0.5
 40
0.5
 40
0.5
 10
12.27999999999679
 20
8.094999999999999
 30
0.0
 10
12.48222477372496
 20
8.094999999997334
 30
0.0
 10
12.67833084460926
 20
8.094999999994744
 30
0.0
 10
12.8159632522663
 20
8.094999999992934
 30
0.0
  0
SPLINE
  5
26C
330
1F
100
AcDbEntity
  8
1
  6
SLD-Solid
370
    25
100
AcDbSpline
210
0.0
220
0.0
230
1.0
 70
    24
 71
     2
 72
     6
 73
     3
 74
     0
 42
0.000000001
 43
0.00000001
 40
0.5
 40
0.5
 40
0.5
 40
1.0
 40
1.0
 40
1.0
 10
12.8159632522663
 20
8.094999999992934
 30
0.0
 10
12.95359565992334
 20
8.094999999992934
 30
0.0
 10
13.02999999999679
 20
8.094999999992934
 30
0.0
  0
SPLINE
  5
26D
330
1F
100
AcDbEntity
  8
1
  6
SLD-Solid
370
    25
100
AcDbSpline
210
0.0
220
0.0
230
1.0
 70
    24
 71
     2
 72
     6
 73
     3
 74
     0
 42
0.000000001
 43
0.00000001
 40
0.0
 40
0.0
 40
0.0
 40
0.25
 40
0.25
 40
0.25
 10
9.2
 20
-18.34999999999999
 30
0.0
 10
9.215049552321553
 20
-18.34999999999999
 30
0.0
 10
9.245719510034473
 20
-18.34999999999999
 30
0.0
  0
SPLINE
  5
26E
330
1F
100
AcDbEntity
  8
1
  6
SLD-Solid
370
    25
100
AcDbSpline
210
0.0
220
0.0
230
1.0
 70
    24
 71
     3
 72
     8
 73
     4
 74
     0
 42
0.000000001
 43
0.00000001
 40
0.25
 40
0.25
 40
0.25
 40
0.25
 40
0.5
 40
0.5
 40
0.5
 40
0.5
 10
9.245719510034473
 20
-18.34999999999999
 30
0.0
 10
9.276389467747393
 20
-18.34999999999999
 30
0.0
 10
9.322582428042987
 20
-18.34999999999999
 30
0.0
 10
9.385647257598107
 20
-18.34999999999999
 30
0.0
  0
SPLINE
  5
26F
330
1F
100
AcDbEntity
  8
1
  6
SLD-Solid
370
    25
100
AcDbSpline
210
0.0
220
0.0
230
1.0
 70
    24
 71
     3
 72
     8
 73
     4
 74
     0
 42
0.000000001
 43
0.00000001
 40
0.5
 40
0.5
 40
0.5
 40
0.5
 40
0.75
 40
0.75
 40
0.75
 40
0.75
 10
9.385647257598107
 20
-18.34999999999999
 30
0.0
 10
9.448712087153227
 20
-18.34999999999999
 30
0.0
 10
9.52889880759597
 20
-18.34999999999999
 30
0.0
 10
9.625947673409977
 20
-18.34999999999999
 30
0.0
  0
SPLINE
  5
270
330
1F
100
AcDbEntity
  8
1
  6
SLD-Solid
370
    25
100
AcDbSpline
210
0.0
220
0.0
230
1.0
 70
    24
 71
     3
 72
     8
 73
     4
 74
     0
 42
0.000000001
 43
0.00000001
 40
0.75
 40
0.75
 40
0.75
 40
0.75
 40
1.0
 40
1.0
 40
1.0
 40
1.0
 10
9.625947673409977
 20
-18.34999999999999
 30
0.0
 10
9.722996539223955
 20
-18.34999999999999
 30
0.0
 10
9.836191071280641
 20
-18.34999999999999
 30
0.0
 10
9.950000000000028
 20
-18.34999999999999
 30
0.0
  0
SPLINE
  5
271
330
1F
100
AcDbEntity
  8
1
  6
SLD-Solid
370
    25
100
AcDbSpline
210
0.0
220
0.0
230
1.0
 70
    24
 71
     3
 72
     8
 73
     4
 74
     0
 42
0.000000001
 43
0.00000001
 40
0.0
 40
0.0
 40
0.0
 40
0.0
 40
0.2500000000000009
 40
0.2500000000000009
 40
0.2500000000000009
 40
0.2500000000000009
 10
9.950000000000028
 20
-8.094999999999999
 30
0.0
 10
9.850219275687646
 20
-8.095000000000011
 30
0.0
 10
9.748489574720228
 20
-8.094999999999999
 30
0.0
 10
9.65677020842734
 20
-8.094999999999999
 30
0.0
  0
SPLINE
  5
272
330
1F
100
AcDbEntity
  8
1
  6
SLD-Solid
370
    25
100
AcDbSpline
210
0.0
220
0.0
230
1.0
 70
    24
 71
     3
 72
     8
 73
     4
 74
     0
 42
0.000000001
 43
0.00000001
 40
0.2500000000000009
 40
0.2500000000000009
 40
0.2500000000000009
 40
0.2500000000000009
 40
0.5000000000000018
 40
0.5000000000000018
 40
0.5000000000000018
 40
0.5000000000000018
 10
9.65677020842734
 20
-8.094999999999999
 30
0.0
 10
9.565050842134479
 20
-8.094999999999999
 30
0.0
 10
9.481946114451494
 20
-8.094999999999999
 30
0.0
 10
9.413655347818725
 20
-8.094999999999999
 30
0.0
  0
SPLINE
  5
273
330
1F
100
AcDbEntity
  8
1
  6
SLD-Solid
370
    25
100
AcDbSpline
210
0.0
220
0.0
230
1.0
 70
    24
 71
     2
 72
     6
 73
     3
 74
     0
 42
0.000000001
 43
0.00000001
 40
0.5000000000000018
 40
0.5000000000000018
 40
0.5000000000000018
 40
1.0
 40
1.0
 40
1.0
 10
9.413655347819017
 20
-8.094999999999999
 30
0.0
 10
9.27707381455345
 20
-8.095
 30
0.0
 10
9.2
 20
-8.094999999999999
 30
0.0
  0
SPLINE
  5
274
330
1F
100
AcDbEntity
  8
1
  6
SLD-Solid
370
    25
100
AcDbSpline
210
0.0
220
0.0
230
1.0
 70
     8
 71
     3
 72
    12
 73
     8
 74
     0
 42
0.000000001
 43
0.00000001
 40
0.0
 40
0.0
 40
0.0
 40
0.0
 40
0.25
 40
0.25
 40
0.5
 40
0.5
 40
1.0
 40
1.0
 40
1.0
 40
1.0
 10
9.949999999996843
 20
25.71100064078867
 30
0.0
 10
10.11987070991414
 20
25.66271211206651
 30
0.0
 10
10.30396582361798
 20
25.62527590633428
 30
0.0
 10
10.70032541250133
 20
25.57346530882963
 30
0.0
 10
10.90572162653103
 20
25.56022125844616
 30
0.0
 10
11.5282885487502
 20
25.55999751387887
 30
0.0
 10
11.9402557662163
 20
25.61442278343421
 30
0.0
 10
12.2799999999968
 20
25.71100064078868
 30
0.0
  0
SPLINE
  5
275
330
1F
100
AcDbEntity
  8
1
  6
SLD-Solid
370
    25
100
AcDbSpline
210
0.0
220
0.0
230
1.0
 70
     8
 71
     3
 72
    14
 73
    10
 74
     0
 42
0.000000001
 43
0.00000001
 40
0.0
 40
0.0
 40
0.0
 40
0.0
 40
0.1334895394492291
 40
0.2653983188181343
 40
0.5215450124841329
 40
0.6447840171528428
 40
0.7652317225523237
 40
0.8838949015738505
 40
0.9999999999999999
 40
0.9999999999999999
 40
0.9999999999999999
 40
0.9999999999999999
 10
19.09734396468467
 20
-7.627262558040734
 30
0.0
 10
19.0953720569463
 20
-7.661201940499559
 30
0.0
 10
19.09145159246063
 20
-7.728678801109459
 30
0.0
 10
19.08160668015765
 20
-7.860949653750015
 30
0.0
 10
19.07068750348677
 20
-7.988854788777606
 30
0.0
 10
19.06094310325117
 20
-8.108082965065114
 30
0.0
 10
19.05507785345617
 20
-8.190685279539212
 30
0.0
 10
19.05088715093917
 20
-8.267461370769922
 30
0.0
 10
19.05029356102279
 20
-8.312833274096294
 30
0.0
 10
19.04999999999992
 20
-8.335272035238816
 30
0.0
  0
SPLINE
  5
276
330
1F
100
AcDbEntity
  8
1
  6
SLD-Solid
370
    25
100
AcDbSpline
210
0.0
220
0.0
230
1.0
 70
     8
 71
     3
 72
    23
 73
    19
 74
     0
 42
0.000000001
 43
0.00000001
 40
0.0
 40
0.0
 40
0.0
 40
0.0
 40
0.0307353922161882
 40
0.0616654172179519
 40
0.1236166688661287
 40
0.1858469968534193
 40
0.2483341913451911
 40
0.3739453976179693
 40
0.4369083951387454
 40
0.4999089442400879
 40
0.562938441176399
 40
0.6259845861012516
 40
0.7516408427766409
 40
0.8141358981876768
 40
0.8763743616278333
 40
0.9383318019365041
 40
0.9692614053649969
 40
0.9999999999999999
 40
0.9999999999999999
 40
0.9999999999999999
 40
0.9999999999999999
 10
19.09734396468467
 20
7.627262558040727
 30
0.0
 10
19.10624252708934
 20
7.471035878099566
 30
0.0
 10
19.12409600230983
 20
7.157593208118797
 30
0.0
 10
19.16771795144567
 20
6.529607777205119
 30
0.0
 10
19.2306761399562
 20
5.742050642286486
 30
0.0
 10
19.31370153781629
 20
4.794581152622011
 30
0.0
 10
19.42477342075617
 20
3.523654423845689
 30
0.0
 10
19.52089307459304
 20
2.246991355592601
 30
0.0
 10
19.57423681857286
 20
0.9650881668528954
 30
0.0
 10
19.58822882989987
 20
0.0012458448471753
 30
0.0
 10
19.57430394936467
 20
-0.9630218523348846
 30
0.0
 10
19.52098207495168
 20
-2.245728825773553
 30
0.0
 10
19.42482152213035
 20
-3.523085187377716
 30
0.0
 10
19.31372561451972
 20
-4.794322090125959
 30
0.0
 10
19.23068799060296
 20
-5.741904152197847
 30
0.0
 10
19.16772368027285
 20
-6.529531820731109
 30
0.0
 10
19.1240980186253
 20
-7.157562778162798
 30
0.0
 10
19.1062435487402
 20
-7.471019594594026
 30
0.0
 10
19.09734396468467
 20
-7.627262558040742
 30
0.0
  0
SPLINE
  5
277
330
1F
100
AcDbEntity
  8
1
  6
SLD-Solid
370
    25
100
AcDbSpline
210
0.0
220
0.0
230
1.0
 70
     8
 71
     3
 72
    15
 73
    11
 74
     0
 42
0.000000001
 43
0.00000001
 40
0.0
 40
0.0
 40
0.0
 40
0.0
 40
0.076537678808643
 40
0.1540040287018841
 40
0.2328571877475731
 40
0.3538283651645215
 40
0.477731519244101
 40
0.7326330333489504
 40
0.8654631645418129
 40
1.0
 40
1.0
 40
1.0
 40
1.0
 10
19.05
 20
8.335272035238823
 30
0.0
 10
19.05012723115497
 20
8.320642644603776
 30
0.0
 10
19.05038323722602
 20
8.291206357400917
 30
0.0
 10
19.05228807173681
 20
8.242988846014148
 30
0.0
 10
19.05560212726762
 20
8.182920106270593
 30
0.0
 10
19.06087864054068
 20
8.109033973736878
 30
0.0
 10
19.07059282827624
 20
7.989894420613298
 30
0.0
 10
19.08152707235164
 20
7.861909156602128
 30
0.0
 10
19.0914037766763
 20
7.729455848915046
 30
0.0
 10
19.09535549358166
 20
7.661471644611034
 30
0.0
 10
19.09734396468467
 20
7.627262558040727
 30
0.0
  0
SPLINE
  5
278
330
1F
100
AcDbEntity
  8
1
  6
SLD-Solid
370
    25
100
AcDbSpline
210
0.0
220
0.0
230
1.0
 70
     8
 71
     3
 72
    46
 73
    42
 74
     0
 42
0.000000001
 43
0.00000001
 40
0.4999999999999967
 40
0.4999999999999967
 40
0.4999999999999967
 40
0.4999999999999967
 40
0.5312499999999969
 40
0.5312499999999969
 40
0.5624999999999971
 40
0.5624999999999971
 40
0.5937499999999973
 40
0.5937499999999973
 40
0.6249999999999974
 40
0.6249999999999974
 40
0.6562499999999977
 40
0.6562499999999977
 40
0.6718749999999978
 40
0.6718749999999978
 40
0.6874999999999979
 40
0.6874999999999979
 40
0.7187499999999981
 40
0.7187499999999981
 40
0.7343749999999982
 40
0.7343749999999982
 40
0.7499999999999983
 40
0.7499999999999983
 40
0.7656249999999984
 40
0.7656249999999984
 40
0.7812499999999986
 40
0.7812499999999986
 40
0.8124999999999988
 40
0.8124999999999988
 40
0.843749999999999
 40
0.843749999999999
 40
0.8749999999999991
 40
0.8749999999999991
 40
0.9062499999999993
 40
0.9062499999999993
 40
0.9218749999999994
 40
0.9218749999999994
 40
0.9374999999999996
 40
0.9374999999999996
 40
0.9687499999999998
 40
0.9687499999999998
 40
1.0
 40
1.0
 40
1.0
 40
1.0
 10
40.90297210540022
 20
23.91638196375593
 30
0.0
 10
41.47374373256012
 20
23.92491919138211
 30
0.0
 10
42.04288131856905
 20
23.93695831824754
 30
0.0
 10
43.13104794258503
 20
23.96214314212865
 30
0.0
 10
43.65541369658769
 20
23.97537423085164
 30
0.0
 10
44.66248469780849
 20
23.99527641443377
 30
0.0
 10
45.14902009482541
 20
24.00187441549658
 30
0.0
 10
46.03398367873744
 20
23.99716037711315
 30
0.0
 10
46.43735509766593
 20
23.98608418998506
 30
0.0
 10
47.15944973172221
 20
23.93401175713854
 30
0.0
 10
47.47978577735094
 20
23.89206434483042
 30
0.0
 10
47.86362659047771
 20
23.79938053266586
 30
0.0
 10
47.97660896212248
 20
23.76351292408079
 30
0.0
 10
48.1715003594236
 20
23.68042550270232
 30
0.0
 10
48.25382018991287
 20
23.63283270891235
 30
0.0
 10
48.44741335548785
 20
23.47333789737325
 30
0.0
 10
48.50573932016128
 20
23.34616315625577
 30
0.0
 10
48.48703231458505
 20
23.12241738063397
 30
0.0
 10
48.46249930228252
 20
23.04168322746499
 30
0.0
 10
48.37828236946445
 20
22.87326260034954
 30
0.0
 10
48.31886343503668
 20
22.78543320877732
 30
0.0
 10
48.16668978476958
 20
22.60334155701717
 30
0.0
 10
48.07393010339715
 20
22.50907750174529
 30
0.0
 10
47.85509543511453
 20
22.31494133978391
 30
0.0
 10
47.72926101403927
 20
22.21545076482314
 30
0.0
 10
47.31252473468636
 20
21.91757432887076
 30
0.0
 10
46.97967404027899
 20
21.71710551404189
 30
0.0
 10
46.21310150396102
 20
21.32393042174435
 30
0.0
 10
45.79025556770544
 20
21.13676871762409
 30
0.0
 10
44.87322993345891
 20
20.78858048339065
 30
0.0
 10
44.37552059347497
 20
20.62698580760392
 30
0.0
 10
43.34527385708797
 20
20.3475908279448
 30
0.0
 10
42.80935063188299
 20
20.22819590748561
 30
0.0
 10
41.97528419507632
 20
20.08318113825998
 30
0.0
 10
41.69188044312467
 20
20.04056489008635
 30
0.0
 10
41.12456724801028
 20
19.96854380199602
 30
0.0
 10
40.8394828605724
 20
19.93891131760228
 30
0.0
 10
39.98006352234506
 20
19.86919201780807
 30
0.0
 10
39.40159606166419
 20
19.84820638505462
 30
0.0
 10
38.23340921215129
 20
19.85927436468547
 30
0.0
 10
37.64782171808058
 20
19.89165549790906
 30
0.0
 10
37.07282055352085
 20
19.94974084534289
 30
0.0
  0
SPLINE
  5
279
330
1F
100
AcDbEntity
  8
1
  6
SLD-Solid
370
    25
100
AcDbSpline
210
0.0
220
0.0
230
1.0
 70
     8
 71
     3
 72
    52
 73
    48
 74
     0
 42
0.000000001
 43
0.00000001
 40
0.0
 40
0.0
 40
0.0
 40
0.0
 40
0.0312499999999995
 40
0.0312499999999995
 40
0.0468749999999993
 40
0.0468749999999993
 40
0.0624999999999991
 40
0.0624999999999991
 40
0.0937499999999989
 40
0.0937499999999989
 40
0.1093749999999989
 40
0.1093749999999989
 40
0.1249999999999989
 40
0.1249999999999989
 40
0.1562499999999986
 40
0.1562499999999986
 40
0.1718749999999985
 40
0.1718749999999985
 40
0.1874999999999984
 40
0.1874999999999984
 40
0.2031249999999983
 40
0.2031249999999983
 40
0.2187499999999982
 40
0.2187499999999982
 40
0.2499999999999981
 40
0.2499999999999981
 40
0.2656249999999979
 40
0.2656249999999979
 40
0.2812499999999978
 40
0.2812499999999978
 40
0.3124999999999976
 40
0.3124999999999976
 40
0.3281249999999975
 40
0.3281249999999975
 40
0.3437499999999974
 40
0.3437499999999974
 40
0.3749999999999972
 40
0.3749999999999972
 40
0.4062499999999969
 40
0.4062499999999969
 40
0.4374999999999967
 40
0.4374999999999967
 40
0.4531249999999966
 40
0.4531249999999966
 40
0.4687499999999964
 40
0.4687499999999964
 40
0.4999999999999967
 40
0.4999999999999967
 40
0.4999999999999967
 40
0.4999999999999967
 10
37.07282055352086
 20
19.9497408453429
 30
0.0
 10
36.49781938896114
 20
20.00782619277672
 30
0.0
 10
35.93867064541229
 20
20.09070563752632
 30
0.0
 10
35.12364384495423
 20
20.24886273394576
 30
0.0
 10
34.85594159532953
 20
20.30724035691177
 30
0.0
 10
34.32877953675101
 20
20.4349650179458
 30
0.0
 10
34.06813977030473
 20
20.50466843444661
 30
0.0
 10
33.30850143616125
 20
20.72718367310951
 30
0.0
 10
32.83449817029792
 20
20.89217763918078
 30
0.0
 10
32.17388073730321
 20
21.15898580481426
 30
0.0
 10
31.96212647422304
 20
21.25115673032493
 30
0.0
 10
31.55659718486198
 20
21.44117514451927
 30
0.0
 10
31.36193332835223
 20
21.53956460879063
 30
0.0
 10
30.81944162093209
 20
21.83535629556448
 30
0.0
 10
30.50911207939655
 20
22.03471232811928
 30
0.0
 10
30.12657200885134
 20
22.33009334382589
 30
0.0
 10
30.01258279545699
 20
22.42849151748971
 30
0.0
 10
29.81979137745027
 20
22.6178814137406
 30
0.0
 10
29.74017161184635
 20
22.70938815490248
 30
0.0
 10
29.61449036633369
 20
22.88531118331048
 30
0.0
 10
29.56842421439612
 20
22.96972904451453
 30
0.0
 10
29.51110678996405
 20
23.13077699492833
 30
0.0
 10
29.50009254673948
 20
23.20780330598452
 30
0.0
 10
29.52154893588316
 20
23.42014633374295
 30
0.0
 10
29.60634472528075
 20
23.53882130350194
 30
0.0
 10
29.83781952377375
 20
23.68539520198226
 30
0.0
 10
29.93232442867927
 20
23.72866178926393
 30
0.0
 10
30.15062552535444
 20
23.80360005479679
 30
0.0
 10
30.27487269437211
 20
23.83557808948579
 30
0.0
 10
30.69132155198294
 20
23.91721064052119
 30
0.0
 10
31.03005822189332
 20
23.95241913118453
 30
0.0
 10
31.59911574951787
 20
23.98352837430122
 30
0.0
 10
31.79966973044686
 20
23.99043183920562
 30
0.0
 10
32.22179976112083
 20
23.998866379323
 30
0.0
 10
32.44444035499022
 20
24.00038842073005
 30
0.0
 10
33.13541319853096
 20
23.99897425335102
 30
0.0
 10
33.62412654342746
 20
23.99030576060483
 30
0.0
 10
34.6531798289725
 20
23.96796332869548
 30
0.0
 10
35.19739105648337
 20
23.9541607141307
 30
0.0
 10
36.30189009977892
 20
23.92965898630653
 30
0.0
 10
36.8654584229388
 20
23.9188574200257
 30
0.0
 10
37.72740493378183
 20
23.90806734012932
 30
0.0
 10
38.01872111551055
 20
23.90534737567692
 30
0.0
 10
38.60055304883174
 20
23.90201757202078
 30
0.0
 10
38.89052963595527
 20
23.90140073143196
 30
0.0
 10
39.75771466761774
 20
23.90270095737296
 30
0.0
 10
40.33220047824032
 20
23.90784473612976
 30
0.0
 10
40.90297210540022
 20
23.91638196375593
 30
0.0
  0
SPLINE
  5
27A
330
1F
100
AcDbEntity
  8
1
  6
SLD-Solid
370
    25
100
AcDbSpline
210
0.0
220
0.0
230
1.0
 70
     8
 71
     3
 72
    26
 73
    22
 74
     0
 42
0.000000001
 43
0.00000001
 40
0.0
 40
0.0
 40
0.0
 40
0.0
 40
0.0509029080994777
 40
0.1033315136369832
 40
0.1542214049587143
 40
0.2065019923217859
 40
0.2590364135476368
 40
0.3130055078573272
 40
0.3670069768834483
 40
0.4226807265448562
 40
0.4747709402417792
 40
0.5285256745917108
 40
0.5782376823917774
 40
0.6293510215231335
 40
0.6799430727603983
 40
0.7318586204957377
 40
0.7851347339059083
 40
0.8399191295856272
 40
0.8936597120318888
 40
0.9491017068334593
 40
1.0
 40
1.0
 40
1.0
 40
1.0
 10
47.12499999999999
 20
-24.0
 30
0.0
 10
47.10460130087095
 20
-23.9930550959449
 30
0.0
 10
47.06319249858581
 20
-23.97895713033014
 30
0.0
 10
46.73112901793869
 20
-23.86839859086575
 30
0.0
 10
46.2090239804985
 20
-23.70322256010443
 30
0.0
 10
45.49606909747202
 20
-23.49433627422741
 30
0.0
 10
44.59740823703036
 20
-23.25969329049345
 30
0.0
 10
43.53355249669379
 20
-23.02431934306273
 30
0.0
 10
42.31510470432119
 20
-22.81311765412796
 30
0.0
 10
41.00669057782591
 20
-22.65856413880361
 30
0.0
 10
39.63743374123261
 20
-22.57811254920974
 30
0.0
 10
38.29800487949124
 20
-22.58067269508618
 30
0.0
 10
36.98979531121649
 20
-22.66058004918156
 30
0.0
 10
35.76415735767018
 20
-22.80326958656366
 30
0.0
 10
34.60992413769194
 20
-22.99711961545906
 30
0.0
 10
33.5568923045822
 20
-23.22281711120698
 30
0.0
 10
32.62437492122841
 20
-23.46071205510284
 30
0.0
 10
31.85788820315617
 20
-23.68251642567209
 30
0.0
 10
31.28992868660366
 20
-23.86138370620972
 30
0.0
 10
30.93797463912791
 20
-23.97856244892682
 30
0.0
 10
30.89601999451476
 20
-23.99284687793059
 30
0.0
 10
30.87593899001477
 20
-23.99968392030694
 30
0.0
  0
SPLINE
  5
27B
330
1F
100
AcDbEntity
  8
1
  6
SLD-Solid
370
    25
100
AcDbSpline
210
0.0
220
0.0
230
1.0
 70
     8
 71
     3
 72
    12
 73
     8
 74
     0
 42
0.000000001
 43
0.00000001
 40
0.0
 40
0.0
 40
0.0
 40
0.0
 40
0.25
 40
0.25
 40
0.5
 40
0.5
 40
1.0
 40
1.0
 40
1.0
 40
1.0
 10
3.949999999999982
 20
-25.91022964004758
 30
0.0
 10
3.840647431218675
 20
-25.91022964004758
 30
0.0
 10
3.73141179931244
 20
-25.87992796563979
 30
0.0
 10
3.538605968889025
 20
-25.7704701494163
 30
0.0
 10
3.456827742745999
 20
-25.69343095107759
 30
0.0
 10
3.262709090922661
 20
-25.42763934306024
 30
0.0
 10
3.200000000003672
 20
-25.20425093593309
 30
0.0
 10
3.199999999999981
 20
-24.98554582155403
 30
0.0
  0
SPLINE
  5
27C
330
1F
100
AcDbEntity
  8
1
  6
SLD-Solid
370
    25
100
AcDbSpline
210
0.0
220
0.0
230
1.0
 70
     8
 71
     3
 72
    12
 73
     8
 74
     0
 42
0.000000001
 43
0.00000001
 40
0.0
 40
0.0
 40
0.0
 40
0.0
 40
0.5000000000000023
 40
0.5000000000000023
 40
0.7500000000000011
 40
0.7500000000000011
 40
1.0
 40
1.0
 40
1.0
 40
1.0
 10
19.04999999999999
 20
-24.98554582153449
 30
0.0
 10
19.04999999999999
 20
-25.20557810036768
 30
0.0
 10
18.98853102466326
 20
-25.42532674379459
 30
0.0
 10
18.7938312180084
 20
-25.69283297454337
 30
0.0
 10
18.71149076980413
 20
-25.77032859015184
 30
0.0
 10
18.51931186109923
 20
-25.87960340703118
 30
0.0
 10
18.40982431419733
 20
-25.91022964004757
 30
0.0
 10
18.3
 20
-25.91022964004757
 30
0.0
  0
SPLINE
  5
27D
330
1F
100
AcDbEntity
  8
1
  6
SLD-Solid
370
    25
100
AcDbSpline
210
0.0
220
0.0
230
1.0
 70
     8
 71
     3
 72
    14
 73
    10
 74
     0
 42
0.000000001
 43
0.00000001
 40
0.0
 40
0.0
 40
0.0
 40
0.0
 40
0.25
 40
0.25
 40
0.5
 40
0.5
 40
0.75
 40
0.75
 40
1.0
 40
1.0
 40
1.0
 40
1.0
 10
13.02999999999997
 20
-22.13232929449585
 30
0.0
 10
13.02999999999997
 20
-22.01777408914434
 30
0.0
 10
13.01492864850329
 20
-21.9056388303092
 30
0.0
 10
12.95345971831167
 20
-21.68639823941067
 30
0.0
 10
12.90719806346138
 20
-21.58103168145695
 30
0.0
 10
12.78074687769254
 20
-21.39134178492625
 30
0.0
 10
12.699601719705
 20
-21.30659206818005
 30
0.0
 10
12.5067230651998
 20
-21.18490042323584
 30
0.0
 10
12.39370933272003
 20
-21.14893614345653
 30
0.0
 10
12.28000000000026
 20
-21.14893614345647
 30
0.0
  0
SPLINE
  5
27E
330
1F
100
AcDbEntity
  8
1
  6
SLD-Solid
370
    25
100
AcDbSpline
210
0.0
220
0.0
230
1.0
 70
     8
 71
     3
 72
     8
 73
     4
 74
     0
 42
0.000000001
 43
0.00000001
 40
0.0
 40
0.0
 40
0.0
 40
0.0
 40
1.0
 40
1.0
 40
1.0
 40
1.0
 10
9.2
 20
-22.41333264622108
 30
0.0
 10
8.676967883160344
 20
-23.58413672808592
 30
0.0
 10
8.1398315289352
 20
-24.74996546403979
 30
0.0
 10
7.593163357943217
 20
-25.91022964004758
 30
0.0
  0
SPLINE
  5
27F
330
1F
100
AcDbEntity
  8
1
  6
SLD-Solid
370
    25
100
AcDbSpline
210
0.0
220
0.0
230
1.0
 70
     8
 71
     3
 72
     8
 73
     4
 74
     0
 42
0.000000001
 43
0.00000001
 40
0.0
 40
0.0
 40
0.0
 40
0.0
 40
1.0
 40
1.0
 40
1.0
 40
1.0
 10
14.63683664205673
 20
-25.91022964004757
 30
0.0
 10
14.09016847106477
 20
-24.74996546403979
 30
0.0
 10
13.55303211683962
 20
-23.58413672808592
 30
0.0
 10
13.02999999999997
 20
-22.41333264622106
 30
0.0
  0
SPLINE
  5
280
330
1F
100
AcDbEntity
  8
1
  6
SLD-Solid
370
    25
100
AcDbSpline
210
0.0
220
0.0
230
1.0
 70
     8
 71
     3
 72
    14
 73
    10
 74
     0
 42
0.000000001
 43
0.00000001
 40
0.0
 40
0.0
 40
0.0
 40
0.0
 40
0.1249999999999982
 40
0.1249999999999982
 40
0.2499999999999964
 40
0.2499999999999964
 40
0.4999999999999969
 40
0.4999999999999969
 40
1.0
 40
1.0
 40
1.0
 40
1.0
 10
9.950000000000028
 20
-21.14893614345647
 30
0.0
 10
9.893223661227275
 20
-21.14893614345648
 30
0.0
 10
9.835184734431277
 20
-21.15782630300204
 30
0.0
 10
9.725709414661402
 20
-21.19144609061742
 30
0.0
 10
9.67452622739967
 20
-21.21560556432989
 30
0.0
 10
9.530077159662323
 20
-21.30690106897558
 30
0.0
 10
9.44899319015509
 20
-21.39170378208912
 30
0.0
 10
9.259877421569918
 20
-21.67548088616529
 30
0.0
 10
9.2
 20
-21.90492065088522
 30
0.0
 10
9.2
 20
-22.13232929449588
 30
0.0
  0
SPLINE
  5
281
330
1F
100
AcDbEntity
  8
1
  6
SLD-Solid
370
    25
100
AcDbSpline
210
0.0
220
0.0
230
1.0
 70
     8
 71
     3
 72
    16
 73
    12
 74
     0
 42
0.000000001
 43
0.00000001
 40
0.0
 40
0.0
 40
0.0
 40
0.0
 40
0.2500000000000011
 40
0.2500000000000011
 40
0.5000000000000021
 40
0.5000000000000021
 40
0.7500000000000031
 40
0.7500000000000031
 40
0.8750000000000016
 40
0.8750000000000016
 40
1.0
 40
1.0
 40
1.0
 40
1.0
 10
9.949999999999944
 20
26.82301853349018
 30
0.0
 10
9.839566273098315
 20
26.80027599034485
 30
0.0
 10
9.741170982536518
 20
26.79683942016773
 30
0.0
 10
9.565896651447886
 20
26.81222120094813
 30
0.0
 10
9.492111586583253
 20
26.83083008839229
 30
0.0
 10
9.365778730877365
 20
26.88495833898958
 30
0.0
 10
9.313717594084684
 20
26.91972746121535
 30
0.0
 10
9.253386133244417
 20
26.99319708569396
 30
0.0
 10
9.236040483042496
 20
27.02133912772178
 30
0.0
 10
9.209369801940259
 20
27.09589126404211
 30
0.0
 10
9.199999999999985
 20
27.14371862289294
 30
0.0
 10
9.2
 20
27.20802390642598
 30
0.0
  0
SPLINE
  5
282
330
1F
100
AcDbEntity
  8
1
  6
SLD-Solid
370
    25
100
AcDbSpline
210
0.0
220
0.0
230
1.0
 70
     8
 71
     3
 72
    12
 73
     8
 74
     0
 42
0.000000001
 43
0.00000001
 40
0.0
 40
0.0
 40
0.0
 40
0.0
 40
0.25
 40
0.25
 40
0.5
 40
0.5
 40
1.0
 40
1.0
 40
1.0
 40
1.0
 10
12.2799999999999
 20
26.82301853349013
 30
0.0
 10
12.11012929008258
 20
26.85800143280736
 30
0.0
 10
11.92603417637876
 20
26.88390423639617
 30
0.0
 10
11.52967458749539
 20
26.91937262947672
 30
0.0
 10
11.3242783734657
 20
26.92817666438654
 30
0.0
 10
10.70171145124653
 20
26.92832683986094
 30
0.0
 10
10.2897442337804
 20
26.89298491162408
 30
0.0
 10
9.949999999999944
 20
26.82301853349018
 30
0.0
  0
SPLINE
  5
283
330
1F
100
AcDbEntity
  8
1
  6
SLD-Solid
370
    25
100
AcDbSpline
210
0.0
220
0.0
230
1.0
 70
     8
 71
     3
 72
    16
 73
    12
 74
     0
 42
0.000000001
 43
0.00000001
 40
0.0
 40
0.0
 40
0.0
 40
0.0
 40
0.1250000000000009
 40
0.1250000000000009
 40
0.2500000000000018
 40
0.2500000000000018
 40
0.5000000000000012
 40
0.5000000000000012
 40
0.7500000000000007
 40
0.7500000000000007
 40
1.0
 40
1.0
 40
1.0
 40
1.0
 10
13.02999999999672
 20
27.20802390643123
 30
0.0
 10
13.02999999999672
 20
27.14468214917791
 30
0.0
 10
13.0204361720953
 20
27.09517885573593
 30
0.0
 10
12.99383439190178
 20
27.02116147442297
 30
0.0
 10
12.97639301331738
 20
26.99288151408817
 30
0.0
 10
12.91617272175434
 20
26.9196877827192
 30
0.0
 10
12.86505291028739
 20
26.88538311519772
 30
0.0
 10
12.73798903551607
 20
26.8308052475017
 30
0.0
 10
12.66388408656435
 20
26.81227314493875
 30
0.0
 10
12.49051699737103
 20
26.79691696881303
 30
0.0
 10
12.39034027411391
 20
26.80029523586117
 30
0.0
 10
12.2799999999999
 20
26.82301853349013
 30
0.0
  0
SPLINE
  5
284
330
1F
100
AcDbEntity
  8
1
  6
SLD-Dashed
370
    18
100
AcDbSpline
210
0.0
220
0.0
230
1.0
 70
     8
 71
     3
 72
    27
 73
    23
 74
     0
 42
0.000000001
 43
0.00000001
 40
0.0
 40
0.0
 40
0.0
 40
0.0
 40
0.0004546161626355
 40
0.0533922725492815
 40
0.1032802707192639
 40
0.1545457003018805
 40
0.2058077608289838
 40
0.2584279256669278
 40
0.3120396421675569
 40
0.3672046263870808
 40
0.4206407379528894
 40
0.4757990585046571
 40
0.5264404722951357
 40
0.578616196522312
 40
0.6283265877387786
 40
0.6793628965403412
 40
0.7313093404549624
 40
0.7846459673523517
 40
0.8386157620411323
 40
0.894215569477086
 40
0.9462983484669766
 40
1.0
 40
1.0
 40
1.0
 40
1.0
 10
30.87593899001477
 20
-23.99968392030694
 30
0.0
 10
30.87562628915905
 20
-23.999789179096
 30
0.0
 10
30.83890122153736
 20
-24.01215126917498
 30
0.0
 10
30.96684833912833
 20
-23.96877582582046
 30
0.0
 10
31.2709754359043
 20
-23.86786707411136
 30
0.0
 10
31.79155970676224
 20
-23.70299773338432
 30
0.0
 10
32.49881600400302
 20
-23.49588650728349
 30
0.0
 10
33.38886938421776
 20
-23.26304432577021
 30
0.0
 10
34.45619131499511
 20
-23.02625452934703
 30
0.0
 10
35.66358528023375
 20
-22.81643549760266
 30
0.0
 10
36.98585173725426
 20
-22.65908929285742
 30
0.0
 10
38.33650424866936
 20
-22.57885302552341
 30
0.0
 10
39.6956145386785
 20
-22.58062506670773
 30
0.0
 10
40.98797442085281
 20
-22.65838410296504
 30
0.0
 10
42.22580934080941
 20
-22.80200527915831
 30
0.0
 10
43.37485189690012
 20
-22.99411539527622
 30
0.0
 10
44.43291452010034
 20
-23.22039755935124
 30
0.0
 10
45.36282725960213
 20
-23.45728986585598
 30
0.0
 10
46.13754939198385
 20
-23.68103073086168
 30
0.0
 10
46.69914361939502
 20
-23.85791636042748
 30
0.0
 10
47.05775635841702
 20
-23.97708678850441
 30
0.0
 10
47.10235793267004
 20
-23.99228473554948
 30
0.0
 10
47.12499999999999
 20
-24.0
 30
0.0
  0
SPLINE
  5
285
330
1F
100
AcDbEntity
  8
SK3
  6
SLD-Dashed
370
    18
100
AcDbSpline
210
0.0
220
0.0
230
1.0
 70
     8
 71
     3
 72
     8
 73
     4
 74
     0
 42
0.000000001
 43
0.00000001
 40
0.0
 40
0.0
 40
0.0
 40
0.0
 40
1.0
 40
1.0
 40
1.0
 40
1.0
 10
9.128576702935355
 20
23.28997611937698
 30
0.0
 10
9.110727234552353
 20
23.27357610829826
 30
0.0
 10
9.110717684123331
 20
23.21873966459206
 30
0.0
 10
9.128576702935952
 20
23.13083934744693
 30
0.0
  0
SPLINE
  5
286
330
1F
100
AcDbEntity
  8
SK3
  6
SLD-Dashed
370
    18
100
AcDbSpline
210
0.0
220
0.0
230
1.0
 70
     8
 71
     3
 72
    34
 73
    30
 74
     0
 42
0.000000001
 43
0.00000001
 40
0.4999999999999976
 40
0.4999999999999976
 40
0.4999999999999976
 40
0.4999999999999976
 40
0.562499999999998
 40
0.562499999999998
 40
0.5937499999999983
 40
0.5937499999999983
 40
0.6249999999999987
 40
0.6249999999999987
 40
0.656249999999999
 40
0.656249999999999
 40
0.6874999999999993
 40
0.6874999999999993
 40
0.7499999999999998
 40
0.7499999999999998
 40
0.7812499999999998
 40
0.7812499999999998
 40
0.8124999999999998
 40
0.8124999999999998
 40
0.8437499999999999
 40
0.8437499999999999
 40
0.8749999999999999
 40
0.8749999999999999
 40
0.9062499999999999
 40
0.9062499999999999
 40
0.9374999999999999
 40
0.9374999999999999
 40
0.96875
 40
0.96875
 40
1.0
 40
1.0
 40
1.0
 40
1.0
 10
10.4498945734645
 20
20.83939046133178
 30
0.0
 10
10.59263203931582
 20
20.61623535383182
 30
0.0
 10
10.74572898252596
 20
20.40034020612855
 30
0.0
 10
11.02346457422351
 20
20.11974774983988
 30
0.0
 10
11.12372720463399
 20
20.03506133841345
 30
0.0
 10
11.34651412887491
 20
19.90202523848854
 30
0.0
 10
11.46788474947187
 20
19.85636932238475
 30
0.0
 10
11.71475803299393
 20
19.81834705508891
 30
0.0
 10
11.83869929941912
 20
19.82541361136527
 30
0.0
 10
12.06754486308012
 20
19.87113904737418
 30
0.0
 10
12.173351379452
 20
19.90901688262058
 30
0.0
 10
12.45826053814743
 20
20.0433870630456
 30
0.0
 10
12.60079742123003
 20
20.15748101913772
 30
0.0
 10
12.72395241472729
 20
20.31637956905152
 30
0.0
 10
12.75035560308826
 20
20.3686983002106
 30
0.0
 10
12.77026974501036
 20
20.46407068698104
 30
0.0
 10
12.76437513382363
 20
20.50809579026946
 30
0.0
 10
12.72033810945411
 20
20.58670273274055
 30
0.0
 10
12.68302095968714
 20
20.62036391382856
 30
0.0
 10
12.57844952904384
 20
20.67880303965009
 30
0.0
 10
12.51125932456626
 20
20.70315217179685
 30
0.0
 10
12.35309446794179
 20
20.74506697422294
 30
0.0
 10
12.25993473983122
 20
20.76306355348386
 30
0.0
 10
12.05554915126636
 20
20.80054797821103
 30
0.0
 10
11.94432147845087
 20
20.81988880904709
 30
0.0
 10
11.70236550523704
 20
20.87856381245235
 30
0.0
 10
11.57681201416268
 20
20.91779460819587
 30
0.0
 10
11.33321027169289
 20
21.02911527108175
 30
0.0
 10
11.21910590689121
 20
21.09953242026531
 30
0.0
 10
11.11499999999999
 20
21.17875161027494
 30
0.0
  0
SPLINE
  5
287
330
1F
100
AcDbEntity
  8
SK3
  6
SLD-Dashed
370
    18
100
AcDbSpline
210
0.0
220
0.0
230
1.0
 70
     8
 71
     3
 72
    32
 73
    28
 74
     0
 42
0.000000001
 43
0.00000001
 40
0.0
 40
0.0
 40
0.0
 40
0.0
 40
0.0312499999999999
 40
0.0312499999999999
 40
0.0624999999999998
 40
0.0624999999999998
 40
0.1249999999999991
 40
0.1249999999999991
 40
0.1874999999999984
 40
0.1874999999999984
 40
0.2187499999999981
 40
0.2187499999999981
 40
0.2499999999999978
 40
0.2499999999999978
 40
0.2812499999999978
 40
0.2812499999999978
 40
0.3124999999999977
 40
0.3124999999999977
 40
0.3437499999999976
 40
0.3437499999999976
 40
0.3749999999999975
 40
0.3749999999999975
 40
0.4062499999999974
 40
0.4062499999999974
 40
0.4374999999999973
 40
0.4374999999999973
 40
0.4999999999999976
 40
0.4999999999999976
 40
0.4999999999999976
 40
0.4999999999999976
 10
11.11499999999999
 20
21.17875161027494
 30
0.0
 10
11.01089409310876
 20
21.25797080028458
 30
0.0
 10
10.91907857642197
 20
21.34285059862824
 30
0.0
 10
10.74762137377526
 20
21.51739232411443
 30
0.0
 10
10.66818813797006
 20
21.60711674781947
 30
0.0
 10
10.44047236553633
 20
21.87810823988764
 30
0.0
 10
10.30542057236912
 20
22.05723493175803
 30
0.0
 10
10.05258703563627
 20
22.39465868829964
 30
0.0
 10
9.934813607757983
 20
22.55444913615409
 30
0.0
 10
9.770188160048127
 20
22.76413869711339
 30
0.0
 10
9.717965925809105
 20
22.82813217252616
 30
0.0
 10
9.623196888300559
 20
22.93456489587037
 30
0.0
 10
9.579891013149572
 20
22.97806553251084
 30
0.0
 10
9.508588627253497
 20
23.02840087322286
 30
0.0
 10
9.481892276768475
 20
23.03332613058726
 30
0.0
 10
9.459811777617274
 20
22.98326804514635
 30
0.0
 10
9.465063840888188
 20
22.92678738490278
 30
0.0
 10
9.505124926315833
 20
22.76846886513447
 30
0.0
 10
9.538244242074127
 20
22.67034415658175
 30
0.0
 10
9.619247903804599
 20
22.45687868614511
 30
0.0
 10
9.665743567469104
 20
22.34495490160376
 30
0.0
 10
9.766569607309552
 20
22.11524263911088
 30
0.0
 10
9.82124416078453
 20
21.99690704152573
 30
0.0
 10
9.93429173158783
 20
21.76239601491104
 30
0.0
 10
9.993038231873253
 20
21.64535767447227
 30
0.0
 10
10.17595206270193
 20
21.29563855276318
 30
0.0
 10
10.30715710761318
 20
21.06254556883174
 30
0.0
 10
10.4498945734645
 20
20.83939046133178
 30
0.0
  0
SPLINE
  5
288
330
1F
100
AcDbEntity
  8
SK3
  6
SLD-Dashed
370
    18
100
AcDbSpline
210
0.0
220
0.0
230
1.0
 70
     8
 71
     3
 72
    34
 73
    30
 74
     0
 42
0.000000001
 43
0.00000001
 40
0.4999999999999976
 40
0.4999999999999976
 40
0.4999999999999976
 40
0.4999999999999976
 40
0.562499999999998
 40
0.562499999999998
 40
0.5937499999999983
 40
0.5937499999999983
 40
0.6249999999999987
 40
0.6249999999999987
 40
0.656249999999999
 40
0.656249999999999
 40
0.6874999999999993
 40
0.6874999999999993
 40
0.7499999999999998
 40
0.7499999999999998
 40
0.7812499999999998
 40
0.7812499999999998
 40
0.8124999999999998
 40
0.8124999999999998
 40
0.8437499999999999
 40
0.8437499999999999
 40
0.8749999999999999
 40
0.8749999999999999
 40
0.9062499999999999
 40
0.9062499999999999
 40
0.9374999999999999
 40
0.9374999999999999
 40
0.96875
 40
0.96875
 40
1.0
 40
1.0
 40
1.0
 40
1.0
 10
10.4498945734645
 20
20.83939046133178
 30
0.0
 10
10.59263203931582
 20
20.61623535383182
 30
0.0
 10
10.74572898252596
 20
20.40034020612855
 30
0.0
 10
11.02346457422351
 20
20.11974774983988
 30
0.0
 10
11.12372720463399
 20
20.03506133841345
 30
0.0
 10
11.34651412887491
 20
19.90202523848854
 30
0.0
 10
11.46788474947187
 20
19.85636932238475
 30
0.0
 10
11.71475803299393
 20
19.81834705508891
 30
0.0
 10
11.83869929941912
 20
19.82541361136527
 30
0.0
 10
12.06754486308012
 20
19.87113904737418
 30
0.0
 10
12.173351379452
 20
19.90901688262058
 30
0.0
 10
12.45826053814743
 20
20.0433870630456
 30
0.0
 10
12.60079742123003
 20
20.15748101913772
 30
0.0
 10
12.72395241472729
 20
20.31637956905152
 30
0.0
 10
12.75035560308826
 20
20.3686983002106
 30
0.0
 10
12.77026974501036
 20
20.46407068698104
 30
0.0
 10
12.76437513382363
 20
20.50809579026946
 30
0.0
 10
12.72033810945411
 20
20.58670273274055
 30
0.0
 10
12.68302095968714
 20
20.62036391382856
 30
0.0
 10
12.57844952904384
 20
20.67880303965009
 30
0.0
 10
12.51125932456626
 20
20.70315217179685
 30
0.0
 10
12.35309446794179
 20
20.74506697422294
 30
0.0
 10
12.25993473983122
 20
20.76306355348386
 30
0.0
 10
12.05554915126636
 20
20.80054797821103
 30
0.0
 10
11.94432147845087
 20
20.81988880904709
 30
0.0
 10
11.70236550523704
 20
20.87856381245235
 30
0.0
 10
11.57681201416268
 20
20.91779460819587
 30
0.0
 10
11.33321027169289
 20
21.02911527108175
 30
0.0
 10
11.21910590689121
 20
21.09953242026531
 30
0.0
 10
11.11499999999999
 20
21.17875161027494
 30
0.0
  0
SPLINE
  5
289
330
1F
100
AcDbEntity
  8
SK3
  6
SLD-Dashed
370
    18
100
AcDbSpline
210
0.0
220
0.0
230
1.0
 70
     8
 71
     3
 72
    32
 73
    28
 74
     0
 42
0.000000001
 43
0.00000001
 40
0.0
 40
0.0
 40
0.0
 40
0.0
 40
0.0312499999999999
 40
0.0312499999999999
 40
0.0624999999999998
 40
0.0624999999999998
 40
0.1249999999999991
 40
0.1249999999999991
 40
0.1874999999999984
 40
0.1874999999999984
 40
0.2187499999999981
 40
0.2187499999999981
 40
0.2499999999999978
 40
0.2499999999999978
 40
0.2812499999999978
 40
0.2812499999999978
 40
0.3124999999999977
 40
0.3124999999999977
 40
0.3437499999999976
 40
0.3437499999999976
 40
0.3749999999999975
 40
0.3749999999999975
 40
0.4062499999999974
 40
0.4062499999999974
 40
0.4374999999999973
 40
0.4374999999999973
 40
0.4999999999999976
 40
0.4999999999999976
 40
0.4999999999999976
 40
0.4999999999999976
 10
11.11499999999999
 20
21.17875161027494
 30
0.0
 10
11.01089409310876
 20
21.25797080028458
 30
0.0
 10
10.91907857642197
 20
21.34285059862824
 30
0.0
 10
10.74762137377526
 20
21.51739232411443
 30
0.0
 10
10.66818813797006
 20
21.60711674781947
 30
0.0
 10
10.44047236553633
 20
21.87810823988764
 30
0.0
 10
10.30542057236912
 20
22.05723493175803
 30
0.0
 10
10.05258703563627
 20
22.39465868829964
 30
0.0
 10
9.934813607757983
 20
22.55444913615409
 30
0.0
 10
9.770188160048127
 20
22.76413869711339
 30
0.0
 10
9.717965925809105
 20
22.82813217252616
 30
0.0
 10
9.623196888300559
 20
22.93456489587037
 30
0.0
 10
9.579891013149572
 20
22.97806553251084
 30
0.0
 10
9.508588627253497
 20
23.02840087322286
 30
0.0
 10
9.481892276768475
 20
23.03332613058726
 30
0.0
 10
9.459811777617274
 20
22.98326804514635
 30
0.0
 10
9.465063840888188
 20
22.92678738490278
 30
0.0
 10
9.505124926315833
 20
22.76846886513447
 30
0.0
 10
9.538244242074127
 20
22.67034415658175
 30
0.0
 10
9.619247903804599
 20
22.45687868614511
 30
0.0
 10
9.665743567469104
 20
22.34495490160376
 30
0.0
 10
9.766569607309552
 20
22.11524263911088
 30
0.0
 10
9.82124416078453
 20
21.99690704152573
 30
0.0
 10
9.93429173158783
 20
21.76239601491104
 30
0.0
 10
9.993038231873253
 20
21.64535767447227
 30
0.0
 10
10.17595206270193
 20
21.29563855276318
 30
0.0
 10
10.30715710761318
 20
21.06254556883174
 30
0.0
 10
10.4498945734645
 20
20.83939046133178
 30
0.0
  0
SPLINE
  5
28A
330
1F
100
AcDbEntity
  8
SK3
  6
SLD-Dashed
370
    18
100
AcDbSpline
210
0.0
220
0.0
230
1.0
 70
     8
 71
     3
 72
    38
 73
    34
 74
     0
 42
0.000000001
 43
0.00000001
 40
0.5000000000000008
 40
0.5000000000000008
 40
0.5000000000000008
 40
0.5000000000000008
 40
0.5312500000000011
 40
0.5312500000000011
 40
0.5625000000000014
 40
0.5625000000000014
 40
0.5937500000000017
 40
0.5937500000000017
 40
0.625000000000002
 40
0.625000000000002
 40
0.6562500000000023
 40
0.6562500000000023
 40
0.6875000000000027
 40
0.6875000000000027
 40
0.718750000000003
 40
0.718750000000003
 40
0.7500000000000032
 40
0.7500000000000032
 40
0.812500000000003
 40
0.812500000000003
 40
0.8437500000000026
 40
0.8437500000000026
 40
0.8750000000000021
 40
0.8750000000000021
 40
0.9062500000000017
 40
0.9062500000000017
 40
0.9375000000000011
 40
0.9375000000000011
 40
0.9687500000000007
 40
0.9687500000000007
 40
0.9843750000000003
 40
0.9843750000000003
 40
1.0
 40
1.0
 40
1.0
 40
1.0
 10
9.562165917302204
 20
18.47093598961304
 30
0.0
 10
9.606669608828792
 20
18.52416098688806
 30
0.0
 10
9.66691221033697
 20
18.57938849438463
 30
0.0
 10
9.811812632231534
 20
18.68375239917333
 30
0.0
 10
9.897567425050518
 20
18.73401424472705
 30
0.0
 10
10.09207138823537
 20
18.8199322275476
 30
0.0
 10
10.19846038260038
 20
18.85489400372537
 30
0.0
 10
10.42991716747882
 20
18.89353738847553
 30
0.0
 10
10.55509168137392
 20
18.89577731622843
 30
0.0
 10
10.80142802631483
 20
18.8468537935059
 30
0.0
 10
10.92088750473037
 20
18.79569165197122
 30
0.0
 10
11.13971660654367
 20
18.65451476066453
 30
0.0
 10
11.23726506040235
 20
18.56770093185931
 30
0.0
 10
11.41790338683531
 20
18.37844427042388
 30
0.0
 10
11.50153843453278
 20
18.27510513220281
 30
0.0
 10
11.65792087602183
 20
18.06321384263407
 30
0.0
 10
11.7312096569178
 20
17.95392511395891
 30
0.0
 10
11.94219226675069
 20
17.61974155296102
 30
0.0
 10
12.07203185085184
 20
17.3873463276272
 30
0.0
 10
12.2544726636621
 20
17.03574839840396
 30
0.0
 10
12.3128811159902
 20
16.91845212228917
 30
0.0
 10
12.42478986086722
 20
16.68436964494053
 30
0.0
 10
12.47864510461583
 20
16.56677083259166
 30
0.0
 10
12.57771343290433
 20
16.33866118066524
 30
0.0
 10
12.62343468736298
 20
16.2271168770621
 30
0.0
 10
12.70112312343487
 20
16.0182798016189
 30
0.0
 10
12.7325049221496
 20
15.92212850952398
 30
0.0
 10
12.76725985948267
 20
15.77300891717615
 30
0.0
 10
12.76963724396987
 20
15.72182794413952
 30
0.0
 10
12.74922628849652
 20
15.69153457680419
 30
0.0
 10
12.73857436485566
 20
15.6887534416084
 30
0.0
 10
12.71187670664381
 20
15.69536171497652
 30
0.0
 10
12.69586259956379
 20
15.70450089689617
 30
0.0
 10
12.67730763443385
 20
15.71862026199412
 30
0.0
  0
SPLINE
  5
28B
330
1F
100
AcDbEntity
  8
SK3
  6
SLD-Dashed
370
    18
100
AcDbSpline
210
0.0
220
0.0
230
1.0
 70
     8
 71
     3
 72
    32
 73
    28
 74
     0
 42
0.000000001
 43
0.00000001
 40
0.0
 40
0.0
 40
0.0
 40
0.0
 40
0.03125
 40
0.03125
 40
0.0625
 40
0.0625
 40
0.1249999999999999
 40
0.1249999999999999
 40
0.1874999999999999
 40
0.1874999999999999
 40
0.2187499999999998
 40
0.2187499999999998
 40
0.2499999999999998
 40
0.2499999999999998
 40
0.2812499999999998
 40
0.2812499999999998
 40
0.3124999999999997
 40
0.3124999999999997
 40
0.3437499999999997
 40
0.3437499999999997
 40
0.3749999999999997
 40
0.3749999999999997
 40
0.4375000000000002
 40
0.4375000000000002
 40
0.4687500000000004
 40
0.4687500000000004
 40
0.5000000000000008
 40
0.5000000000000008
 40
0.5000000000000008
 40
0.5000000000000008
 10
12.67730763443385
 20
15.71862026199412
 30
0.0
 10
12.64019770417397
 20
15.74685899219002
 30
0.0
 10
12.59620302127296
 20
15.79224259566823
 30
0.0
 10
12.49971880657837
 20
15.9022963991526
 30
0.0
 10
12.44665882244549
 20
15.96790322450679
 30
0.0
 10
12.28056941339609
 20
16.18069042781309
 30
0.0
 10
12.16116169070404
 20
16.34294467859647
 30
0.0
 10
11.90308945990524
 20
16.68678550781622
 30
0.0
 10
11.76485718622872
 20
16.8691349791612
 30
0.0
 10
11.5344414119258
 20
17.13967173638347
 30
0.0
 10
11.45348400885536
 20
17.22963068267214
 30
0.0
 10
11.27594996715918
 20
17.40558287635433
 30
0.0
 10
11.1804181803696
 20
17.49045861876101
 30
0.0
 10
10.9680284447128
 20
17.64380301353633
 30
0.0
 10
10.85203519791081
 20
17.71043612197694
 30
0.0
 10
10.60633681320565
 20
17.8142110669719
 30
0.0
 10
10.48187270231063
 20
17.84965901655796
 30
0.0
 10
10.24397755356146
 20
17.90370925451105
 30
0.0
 10
10.1345938444909
 20
17.92220535972609
 30
0.0
 10
9.934042005980887
 20
17.95947433583486
 30
0.0
 10
9.84502701568056
 20
17.97770297449698
 30
0.0
 10
9.616531880722881
 20
18.0431335092885
 30
0.0
 10
9.51624357324074
 20
18.10241425150425
 30
0.0
 10
9.462270080515326
 20
18.22319269411325
 30
0.0
 10
9.460111331805908
 20
18.26770507956404
 30
0.0
 10
9.487789440891737
 20
18.3654332474002
 30
0.0
 10
9.517662225775616
 20
18.41771099233802
 30
0.0
 10
9.562165917302204
 20
18.47093598961304
 30
0.0
  0
SPLINE
  5
28C
330
1F
100
AcDbEntity
  8
SK3
  6
SLD-Dashed
370
    18
100
AcDbSpline
210
0.0
220
0.0
230
1.0
 70
     8
 71
     3
 72
    30
 73
    26
 74
     0
 42
0.000000001
 43
0.00000001
 40
0.5000000000000012
 40
0.5000000000000012
 40
0.5000000000000012
 40
0.5000000000000012
 40
0.5625000000000009
 40
0.5625000000000009
 40
0.5937500000000008
 40
0.5937500000000008
 40
0.6250000000000007
 40
0.6250000000000007
 40
0.6562500000000004
 40
0.6562500000000004
 40
0.6875000000000003
 40
0.6875000000000003
 40
0.7500000000000002
 40
0.7500000000000002
 40
0.7812500000000002
 40
0.7812500000000002
 40
0.8125000000000002
 40
0.8125000000000002
 40
0.8750000000000001
 40
0.8750000000000001
 40
0.9375000000000001
 40
0.9375000000000001
 40
0.96875
 40
0.96875
 40
1.0
 40
1.0
 40
1.0
 40
1.0
 10
11.11569631694152
 20
5.828118860750131
 30
0.0
 10
10.89990872469668
 20
5.828066959117244
 30
0.0
 10
10.68204869439908
 20
5.853178352513262
 30
0.0
 10
10.3839468029417
 20
5.921330855601322
 30
0.0
 10
10.28746604323366
 20
5.949419321585638
 30
0.0
 10
10.10820323788685
 20
6.012924687184118
 30
0.0
 10
10.02537901245283
 20
6.048179240353377
 30
0.0
 10
9.873121289792078
 20
6.124333354423854
 30
0.0
 10
9.803681933968287
 20
6.165418181912442
 30
0.0
 10
9.68427994129327
 20
6.24857328567291
 30
0.0
 10
9.633412105938572
 20
6.291049151618509
 30
0.0
 10
9.508205589629462
 20
6.41964710443755
 30
0.0
 10
9.465125329029156
 20
6.502975949383434
 30
0.0
 10
9.464937743673019
 20
6.614727810660213
 30
0.0
 10
9.475546983123973
 20
6.649079505291762
 30
0.0
 10
9.517585039394053
 20
6.71238175406598
 30
0.0
 10
9.549548798404944
 20
6.741521134481815
 30
0.0
 10
9.673420656055962
 20
6.818244166438434
 30
0.0
 10
9.79613206530866
 20
6.856913129969285
 30
0.0
 10
10.09893117027435
 20
6.912480095519862
 30
0.0
 10
10.28218197203777
 20
6.930192911438406
 30
0.0
 10
10.57995008226187
 20
6.946625347922487
 30
0.0
 10
10.68494779564641
 20
6.950524619014957
 30
0.0
 10
10.89769528898828
 20
6.955579984062175
 30
0.0
 10
11.00557868551759
 20
6.956785249985102
 30
0.0
 10
11.11499999999999
 20
6.956785249985102
 30
0.0
  0
SPLINE
  5
28D
330
1F
100
AcDbEntity
  8
SK3
  6
SLD-Dashed
370
    18
100
AcDbSpline
210
0.0
220
0.0
230
1.0
 70
     8
 71
     3
 72
    32
 73
    28
 74
     0
 42
0.000000001
 43
0.00000001
 40
0.0
 40
0.0
 40
0.0
 40
0.0
 40
0.0312500000000001
 40
0.0312500000000001
 40
0.0625000000000002
 40
0.0625000000000002
 40
0.0937500000000002
 40
0.0937500000000002
 40
0.1250000000000003
 40
0.1250000000000003
 40
0.1875000000000004
 40
0.1875000000000004
 40
0.2500000000000004
 40
0.2500000000000004
 40
0.2812500000000004
 40
0.2812500000000004
 40
0.3125000000000005
 40
0.3125000000000005
 40
0.3750000000000007
 40
0.3750000000000007
 40
0.4062500000000009
 40
0.4062500000000009
 40
0.437500000000001
 40
0.437500000000001
 40
0.4687500000000012
 40
0.4687500000000012
 40
0.5000000000000012
 40
0.5000000000000012
 40
0.5000000000000012
 40
0.5000000000000012
 10
11.11499999999999
 20
6.956785249985102
 30
0.0
 10
11.22442131448242
 20
6.956785249985102
 30
0.0
 10
11.33193414152724
 20
6.955579635659611
 30
0.0
 10
11.54332444319614
 20
6.950574738100422
 30
0.0
 10
11.64832098289327
 20
6.946705728820869
 30
0.0
 10
11.84793306468809
 20
6.935719952199603
 30
0.0
 10
11.94254519042091
 20
6.928648943863719
 30
0.0
 10
12.12160221727664
 20
6.910183829536301
 30
0.0
 10
12.20606745345289
 20
6.898696105629814
 30
0.0
 10
12.43345668439873
 20
6.857030184983508
 30
0.0
 10
12.55627007785232
 20
6.818300476594021
 30
0.0
 10
12.72112945459308
 20
6.716460560978667
 30
0.0
 10
12.76486706317449
 20
6.65201944778087
 30
0.0
 10
12.76506600217921
 20
6.541211798441054
 30
0.0
 10
12.75426006613774
 20
6.501252463902047
 30
0.0
 10
12.71198911749946
 20
6.419578813744935
 30
0.0
 10
12.68071768111606
 20
6.37759840789643
 30
0.0
 10
12.5561817957864
 20
6.249271679382572
 30
0.0
 10
12.43480936785253
 20
6.163428739056988
 30
0.0
 10
12.20531421017584
 20
6.048468009215206
 30
0.0
 10
12.12243739559385
 20
6.013200883306931
 30
0.0
 10
11.94410844556078
 20
5.949928459094083
 30
0.0
 10
11.84749233556794
 20
5.921708122695699
 30
0.0
 10
11.64829058947946
 20
5.876070401958478
 30
0.0
 10
11.54544425868788
 20
5.858412277425431
 30
0.0
 10
11.33312782578498
 20
5.834356571066262
 30
0.0
 10
11.22359011306395
 20
5.828144811566578
 30
0.0
 10
11.11569631694152
 20
5.828118860750131
 30
0.0
  0
SPLINE
  5
28E
330
1F
100
AcDbEntity
  8
SK3
  6
SLD-Dashed
370
    18
100
AcDbSpline
210
0.0
220
0.0
230
1.0
 70
     8
 71
     2
 72
     6
 73
     3
 74
     0
 42
0.000000001
 43
0.00000001
 40
0.0
 40
0.0
 40
0.0
 40
0.0312500000000009
 40
0.0312500000000009
 40
0.0312500000000009
 10
44.99999999999999
 20
-7.999999999999987
 30
0.0
 10
44.95727725981974
 20
-7.967817419960995
 30
0.0
 10
44.87492042297786
 20
-7.906623171514041
 30
0.0
  0
SPLINE
  5
28F
330
1F
100
AcDbEntity
  8
SK3
  6
SLD-Dashed
370
    18
100
AcDbSpline
210
0.0
220
0.0
230
1.0
 70
     8
 71
     3
 72
     8
 73
     4
 74
     0
 42
0.000000001
 43
0.00000001
 40
0.0312500000000009
 40
0.0312500000000009
 40
0.0312500000000009
 40
0.0312500000000009
 40
0.0625000000000018
 40
0.0625000000000018
 40
0.0625000000000018
 40
0.0625000000000018
 10
44.87492042297786
 20
-7.906623171514041
 30
0.0
 10
44.792563586136
 20
-7.845428923067075
 30
0.0
 10
44.66862464037065
 20
-7.753816496304026
 30
0.0
 10
44.51285589581287
 20
-7.641438354655406
 30
0.0
  0
SPLINE
  5
290
330
1F
100
AcDbEntity
  8
SK3
  6
SLD-Dashed
370
    18
100
AcDbSpline
210
0.0
220
0.0
230
1.0
 70
     8
 71
     3
 72
     8
 73
     4
 74
     0
 42
0.000000001
 43
0.00000001
 40
0.0625000000000018
 40
0.0625000000000018
 40
0.0625000000000018
 40
0.0625000000000018
 40
0.0937500000000027
 40
0.0937500000000027
 40
0.0937500000000027
 40
0.0937500000000027
 10
44.51285589581287
 20
-7.641438354655406
 30
0.0
 10
44.35708715125512
 20
-7.5290602130068
 30
0.0
 10
44.16732944414836
 20
-7.39432072743574
 30
0.0
 10
43.94947092846585
 20
-7.245499463234325
 30
0.0
  0
SPLINE
  5
291
330
1F
100
AcDbEntity
  8
SK3
  6
SLD-Dashed
370
    18
100
AcDbSpline
210
0.0
220
0.0
230
1.0
 70
     8
 71
     3
 72
     8
 73
     4
 74
     0
 42
0.000000001
 43
0.00000001
 40
0.0937500000000027
 40
0.0937500000000027
 40
0.0937500000000027
 40
0.0937500000000027
 40
0.1250000000000036
 40
0.1250000000000036
 40
0.1250000000000036
 40
0.1250000000000036
 10
43.94947092846585
 20
-7.245499463234325
 30
0.0
 10
43.73161241278338
 20
-7.096678199032906
 30
0.0
 10
43.48886564352729
 20
-6.935866919903305
 30
0.0
 10
43.22155174298332
 20
-6.769157932762796
 30
0.0
  0
SPLINE
  5
292
330
1F
100
AcDbEntity
  8
SK3
  6
SLD-Dashed
370
    18
100
AcDbSpline
210
0.0
220
0.0
230
1.0
 70
     8
 71
     3
 72
     8
 73
     4
 74
     0
 42
0.000000001
 43
0.00000001
 40
0.1250000000000036
 40
0.1250000000000036
 40
0.1250000000000036
 40
0.1250000000000036
 40
0.1562500000000045
 40
0.1562500000000045
 40
0.1562500000000045
 40
0.1562500000000045
 10
43.22155174298332
 20
-6.769157932762796
 30
0.0
 10
42.95423784243935
 20
-6.602448945622272
 30
0.0
 10
42.66104004253385
 20
-6.42918170910204
 30
0.0
 10
42.35050019480541
 20
-6.263054490852769
 30
0.0
  0
SPLINE
  5
293
330
1F
100
AcDbEntity
  8
SK3
  6
SLD-Dashed
370
    18
100
AcDbSpline
210
0.0
220
0.0
230
1.0
 70
     8
 71
     3
 72
     8
 73
     4
 74
     0
 42
0.000000001
 43
0.00000001
 40
0.1562500000000045
 40
0.1562500000000045
 40
0.1562500000000045
 40
0.1562500000000045
 40
0.1875000000000054
 40
0.1875000000000054
 40
0.1875000000000054
 40
0.1875000000000054
 10
42.35050019480541
 20
-6.263054490852769
 30
0.0
 10
42.03996034707692
 20
-6.096927272603494
 30
0.0
 10
41.71010437628636
 20
-5.936294325370156
 30
0.0
 10
41.3552902359235
 20
-5.792011057951841
 30
0.0
  0
SPLINE
  5
294
330
1F
100
AcDbEntity
  8
SK3
  6
SLD-Dashed
370
    18
100
AcDbSpline
210
0.0
220
0.0
230
1.0
 70
     8
 71
     3
 72
     8
 73
     4
 74
     0
 42
0.000000001
 43
0.00000001
 40
0.1875000000000054
 40
0.1875000000000054
 40
0.1875000000000054
 40
0.1875000000000054
 40
0.2031250000000056
 40
0.2031250000000056
 40
0.2031250000000056
 40
0.2031250000000056
 10
41.3552902359235
 20
-5.792011057951841
 30
0.0
 10
41.17788316574202
 20
-5.719869424242675
 30
0.0
 10
40.99308152386852
 20
-5.651609508037096
 30
0.0
 10
40.80501065222851
 20
-5.59089111454145
 30
0.0
  0
SPLINE
  5
295
330
1F
100
AcDbEntity
  8
SK3
  6
SLD-Dashed
370
    18
100
AcDbSpline
210
0.0
220
0.0
230
1.0
 70
     8
 71
     3
 72
     8
 73
     4
 74
     0
 42
0.000000001
 43
0.00000001
 40
0.2031250000000056
 40
0.2031250000000056
 40
0.2031250000000056
 40
0.2031250000000056
 40
0.2187500000000057
 40
0.2187500000000057
 40
0.2187500000000057
 40
0.2187500000000057
 10
40.80501065222851
 20
-5.59089111454145
 30
0.0
 10
40.61693978058853
 20
-5.530172721045785
 30
0.0
 10
40.42500533924154
 20
-5.476683502734788
 30
0.0
 10
40.22866348377034
 20
-5.432275209923617
 30
0.0
  0
SPLINE
  5
296
330
1F
100
AcDbEntity
  8
SK3
  6
SLD-Dashed
370
    18
100
AcDbSpline
210
0.0
220
0.0
230
1.0
 70
     8
 71
     3
 72
     8
 73
     4
 74
     0
 42
0.000000001
 43
0.00000001
 40
0.2187500000000057
 40
0.2187500000000057
 40
0.2187500000000057
 40
0.2187500000000057
 40
0.2500000000000057
 40
0.2500000000000057
 40
0.2500000000000057
 40
0.2500000000000057
 10
40.22866348377034
 20
-5.432275209923617
 30
0.0
 10
39.83597977282796
 20
-5.343458624301262
 30
0.0
 10
39.41968325852844
 20
-5.29231469956791
 30
0.0
 10
39.01036699778945
 20
-5.291512777518649
 30
0.0
  0
SPLINE
  5
297
330
1F
100
AcDbEntity
  8
SK3
  6
SLD-Dashed
370
    18
100
AcDbSpline
210
0.0
220
0.0
230
1.0
 70
     8
 71
     3
 72
     8
 73
     4
 74
     0
 42
0.000000001
 43
0.00000001
 40
0.2500000000000057
 40
0.2500000000000057
 40
0.2500000000000057
 40
0.2500000000000057
 40
0.2656250000000056
 40
0.2656250000000056
 40
0.2656250000000056
 40
0.2656250000000056
 10
39.01036699778945
 20
-5.291512777518649
 30
0.0
 10
38.80570886741997
 20
-5.291111816494023
 30
0.0
 10
38.60150798942298
 20
-5.302623134606818
 30
0.0
 10
38.39775653058847
 20
-5.325664014604072
 30
0.0
  0
SPLINE
  5
298
330
1F
100
AcDbEntity
  8
SK3
  6
SLD-Dashed
370
    18
100
AcDbSpline
210
0.0
220
0.0
230
1.0
 70
     8
 71
     3
 72
     8
 73
     4
 74
     0
 42
0.000000001
 43
0.00000001
 40
0.2656250000000056
 40
0.2656250000000056
 40
0.2656250000000056
 40
0.2656250000000056
 40
0.2812500000000056
 40
0.2812500000000056
 40
0.2812500000000056
 40
0.2812500000000056
 10
38.39775653058847
 20
-5.325664014604072
 30
0.0
 10
38.19400507175391
 20
-5.348704894601326
 30
0.0
 10
37.98992475299045
 20
-5.383599735880551
 30
0.0
 10
37.79234281378528
 20
-5.427562609442292
 30
0.0
  0
SPLINE
  5
299
330
1F
100
AcDbEntity
  8
SK3
  6
SLD-Dashed
370
    18
100
AcDbSpline
210
0.0
220
0.0
230
1.0
 70
     8
 71
     3
 72
     8
 73
     4
 74
     0
 42
0.000000001
 43
0.00000001
 40
0.2812500000000056
 40
0.2812500000000056
 40
0.2812500000000056
 40
0.2812500000000056
 40
0.2968750000000055
 40
0.2968750000000055
 40
0.2968750000000055
 40
0.2968750000000055
 10
37.79234281378528
 20
-5.427562609442292
 30
0.0
 10
37.59476087458007
 20
-5.47152548300403
 30
0.0
 10
37.40209684233137
 20
-5.524620126063824
 30
0.0
 10
37.21368621301153
 20
-5.584882894527424
 30
0.0
  0
SPLINE
  5
29A
330
1F
100
AcDbEntity
  8
SK3
  6
SLD-Dashed
370
    18
100
AcDbSpline
210
0.0
220
0.0
230
1.0
 70
     8
 71
     3
 72
     8
 73
     4
 74
     0
 42
0.000000001
 43
0.00000001
 40
0.2968750000000055
 40
0.2968750000000055
 40
0.2968750000000055
 40
0.2968750000000055
 40
0.3125000000000054
 40
0.3125000000000054
 40
0.3125000000000054
 40
0.3125000000000054
 10
37.21368621301153
 20
-5.584882894527424
 30
0.0
 10
37.0252755836917
 20
-5.645145662991014
 30
0.0
 10
36.84020000666355
 20
-5.712980088480493
 30
0.0
 10
36.66191154759213
 20
-5.785037390655559
 30
0.0
  0
SPLINE
  5
29B
330
1F
100
AcDbEntity
  8
SK3
  6
SLD-Dashed
370
    18
100
AcDbSpline
210
0.0
220
0.0
230
1.0
 70
     8
 71
     3
 72
     8
 73
     4
 74
     0
 42
0.000000001
 43
0.00000001
 40
0.3125000000000054
 40
0.3125000000000054
 40
0.3125000000000054
 40
0.3125000000000054
 40
0.3437500000000054
 40
0.3437500000000054
 40
0.3437500000000054
 40
0.3437500000000054
 10
36.66191154759213
 20
-5.785037390655559
 30
0.0
 10
36.30533462944929
 20
-5.929151995005682
 30
0.0
 10
35.97420227834923
 20
-6.089827851813907
 30
0.0
 10
35.66263485579939
 20
-6.256037572275687
 30
0.0
  0
SPLINE
  5
29C
330
1F
100
AcDbEntity
  8
SK3
  6
SLD-Dashed
370
    18
100
AcDbSpline
210
0.0
220
0.0
230
1.0
 70
     8
 71
     3
 72
     8
 73
     4
 74
     0
 42
0.000000001
 43
0.00000001
 40
0.3437500000000054
 40
0.3437500000000054
 40
0.3437500000000054
 40
0.3437500000000054
 40
0.3750000000000053
 40
0.3750000000000053
 40
0.3750000000000053
 40
0.3750000000000053
 10
35.66263485579939
 20
-6.256037572275687
 30
0.0
 10
35.35106743324952
 20
-6.422247292737469
 30
0.0
 10
35.05693071922757
 20
-6.595750306785816
 30
0.0
 10
34.78924599411094
 20
-6.762429245331221
 30
0.0
  0
SPLINE
  5
29D
330
1F
100
AcDbEntity
  8
SK3
  6
SLD-Dashed
370
    18
100
AcDbSpline
210
0.0
220
0.0
230
1.0
 70
     8
 71
     3
 72
     8
 73
     4
 74
     0
 42
0.000000001
 43
0.00000001
 40
0.3750000000000053
 40
0.3750000000000053
 40
0.3750000000000053
 40
0.3750000000000053
 40
0.4062500000000052
 40
0.4062500000000052
 40
0.4062500000000052
 40
0.4062500000000052
 10
34.78924599411094
 20
-6.762429245331221
 30
0.0
 10
34.52156126899429
 20
-6.929108183876622
 30
0.0
 10
34.27902047189983
 20
-7.089596513321396
 30
0.0
 10
34.06158492691578
 20
-7.237951604844098
 30
0.0
  0
SPLINE
  5
29E
330
1F
100
AcDbEntity
  8
SK3
  6
SLD-Dashed
370
    18
100
AcDbSpline
210
0.0
220
0.0
230
1.0
 70
     8
 71
     3
 72
     8
 73
     4
 74
     0
 42
0.000000001
 43
0.00000001
 40
0.4062500000000052
 40
0.4062500000000052
 40
0.4062500000000052
 40
0.4062500000000052
 40
0.4375000000000051
 40
0.4375000000000051
 40
0.4375000000000051
 40
0.4375000000000051
 10
34.06158492691578
 20
-7.237951604844098
 30
0.0
 10
33.84414938193173
 20
-7.386306696366804
 30
0.0
 10
33.6511525409514
 20
-7.523187897730922
 30
0.0
 10
33.49430324678006
 20
-7.636275056492964
 30
0.0
  0
SPLINE
  5
29F
330
1F
100
AcDbEntity
  8
SK3
  6
SLD-Dashed
370
    18
100
AcDbSpline
210
0.0
220
0.0
230
1.0
 70
     8
 71
     3
 72
     8
 73
     4
 74
     0
 42
0.000000001
 43
0.00000001
 40
0.4375000000000051
 40
0.4375000000000051
 40
0.4375000000000051
 40
0.4375000000000051
 40
0.4531250000000051
 40
0.4531250000000051
 40
0.4531250000000051
 40
0.4531250000000051
 10
33.49430324678006
 20
-7.636275056492964
 30
0.0
 10
33.41587859969437
 20
-7.692818635873976
 30
0.0
 10
33.34593158405677
 20
-7.743821281871917
 30
0.0
 10
33.2848585750675
 20
-7.788635407244271
 30
0.0
  0
SPLINE
  5
2A0
330
1F
100
AcDbEntity
  8
SK3
  6
SLD-Dashed
370
    18
100
AcDbSpline
210
0.0
220
0.0
230
1.0
 70
     8
 71
     3
 72
     8
 73
     4
 74
     0
 42
0.000000001
 43
0.00000001
 40
0.4531250000000051
 40
0.4531250000000051
 40
0.4531250000000051
 40
0.4531250000000051
 40
0.468750000000005
 40
0.468750000000005
 40
0.468750000000005
 40
0.468750000000005
 10
33.2848585750675
 20
-7.788635407244271
 30
0.0
 10
33.22378556607826
 20
-7.833449532616641
 30
0.0
 10
33.17136541761015
 20
-7.872241085419205
 30
0.0
 10
33.12908199805121
 20
-7.903649675030294
 30
0.0
  0
SPLINE
  5
2A1
330
1F
100
AcDbEntity
  8
SK3
  6
SLD-Dashed
370
    18
100
AcDbSpline
210
0.0
220
0.0
230
1.0
 70
     8
 71
     3
 72
     8
 73
     4
 74
     0
 42
0.000000001
 43
0.00000001
 40
0.468750000000005
 40
0.468750000000005
 40
0.468750000000005
 40
0.468750000000005
 40
0.5000000000000049
 40
0.5000000000000049
 40
0.5000000000000049
 40
0.5000000000000049
 10
33.12908199805121
 20
-7.903649675030294
 30
0.0
 10
33.04451515893324
 20
-7.966466854252459
 30
0.0
 10
33.00144742331086
 20
-7.998914435292648
 30
0.0
 10
33.00003550287137
 20
-7.999973372880945
 30
0.0
  0
SPLINE
  5
2A2
330
1F
100
AcDbEntity
  8
SK3
  6
SLD-Dashed
370
    18
100
AcDbSpline
210
0.0
220
0.0
230
1.0
 70
     8
 71
     3
 72
     8
 73
     4
 74
     0
 42
0.000000001
 43
0.00000001
 40
0.5156250000000049
 40
0.5156250000000049
 40
0.5156250000000049
 40
0.5156250000000049
 40
0.5312500000000049
 40
0.5312500000000049
 40
0.5312500000000049
 40
0.5312500000000049
 10
33.02987953430757
 20
-7.977614829940052
 30
0.0
 10
33.05049000690077
 20
-7.962190795706832
 30
0.0
 10
33.08145989885595
 20
-7.939041005602717
 30
0.0
 10
33.12225040061826
 20
-7.908725583368793
 30
0.0
  0
SPLINE
  5
2A3
330
1F
100
AcDbEntity
  8
SK3
  6
SLD-Dashed
370
    18
100
AcDbSpline
210
0.0
220
0.0
230
1.0
 70
     8
 71
     3
 72
     8
 73
     4
 74
     0
 42
0.000000001
 43
0.00000001
 40
0.5312500000000049
 40
0.5312500000000049
 40
0.5312500000000049
 40
0.5312500000000049
 40
0.5468750000000049
 40
0.5468750000000049
 40
0.5468750000000049
 40
0.5468750000000049
 10
33.12225040061826
 20
-7.908725583368793
 30
0.0
 10
33.16304090238055
 20
-7.878410161134865
 30
0.0
 10
33.21365551129234
 20
-7.840925369026336
 30
0.0
 10
33.27390254417245
 20
-7.796678271779229
 30
0.0
  0
SPLINE
  5
2A4
330
1F
100
AcDbEntity
  8
SK3
  6
SLD-Dashed
370
    18
100
AcDbSpline
210
0.0
220
0.0
230
1.0
 70
     8
 71
     3
 72
     8
 73
     4
 74
     0
 42
0.000000001
 43
0.00000001
 40
0.5468750000000049
 40
0.5468750000000049
 40
0.5468750000000049
 40
0.5468750000000049
 40
0.5625000000000049
 40
0.5625000000000049
 40
0.5625000000000049
 40
0.5625000000000049
 10
33.27390254417245
 20
-7.796678271779229
 30
0.0
 10
33.33414957705254
 20
-7.752431174532136
 30
0.0
 10
33.40438892657185
 20
-7.701165245618598
 30
0.0
 10
33.4824202146343
 20
-7.644847067657764
 30
0.0
  0
SPLINE
  5
2A5
330
1F
100
AcDbEntity
  8
SK3
  6
SLD-Dashed
370
    18
100
AcDbSpline
210
0.0
220
0.0
230
1.0
 70
     8
 71
     3
 72
     8
 73
     4
 74
     0
 42
0.000000001
 43
0.00000001
 40
0.5625000000000049
 40
0.5625000000000049
 40
0.5625000000000049
 40
0.5625000000000049
 40
0.5937500000000049
 40
0.5937500000000049
 40
0.5937500000000049
 40
0.5937500000000049
 10
33.4824202146343
 20
-7.644847067657764
 30
0.0
 10
33.63848279075925
 20
-7.532210711736139
 30
0.0
 10
33.82644864810943
 20
-7.398670096656814
 30
0.0
 10
34.04443170029922
 20
-7.24966600423764
 30
0.0
  0
SPLINE
  5
2A6
330
1F
100
AcDbEntity
  8
SK3
  6
SLD-Dashed
370
    18
100
AcDbSpline
210
0.0
220
0.0
230
1.0
 70
     8
 71
     3
 72
     8
 73
     4
 74
     0
 42
0.000000001
 43
0.00000001
 40
0.5937500000000049
 40
0.5937500000000049
 40
0.5937500000000049
 40
0.5937500000000049
 40
0.6250000000000049
 40
0.6250000000000049
 40
0.6250000000000049
 40
0.6250000000000049
 10
34.04443170029922
 20
-7.24966600423764
 30
0.0
 10
34.26241475248899
 20
-7.100661911818462
 30
0.0
 10
34.50682006257867
 20
-6.938674455841491
 30
0.0
 10
34.77363301106846
 20
-6.772161983084116
 30
0.0
  0
SPLINE
  5
2A7
330
1F
100
AcDbEntity
  8
SK3
  6
SLD-Dashed
370
    18
100
AcDbSpline
210
0.0
220
0.0
230
1.0
 70
     8
 71
     3
 72
     8
 73
     4
 74
     0
 42
0.000000001
 43
0.00000001
 40
0.6250000000000049
 40
0.6250000000000049
 40
0.6250000000000049
 40
0.6250000000000049
 40
0.640625000000005
 40
0.640625000000005
 40
0.640625000000005
 40
0.640625000000005
 10
34.77363301106846
 20
-6.772161983084116
 30
0.0
 10
34.90703948531338
 20
-6.688905746705428
 30
0.0
 10
35.04636282060779
 20
-6.604338633519974
 30
0.0
 10
35.19192113568884
 20
-6.519314736750558
 30
0.0
  0
SPLINE
  5
2A8
330
1F
100
AcDbEntity
  8
SK3
  6
SLD-Dashed
370
    18
100
AcDbSpline
210
0.0
220
0.0
230
1.0
 70
     8
 71
     3
 72
     8
 73
     4
 74
     0
 42
0.000000001
 43
0.00000001
 40
0.640625000000005
 40
0.640625000000005
 40
0.640625000000005
 40
0.640625000000005
 40
0.656250000000005
 40
0.656250000000005
 40
0.656250000000005
 40
0.656250000000005
 10
35.19192113568884
 20
-6.519314736750558
 30
0.0
 10
35.33747945076988
 20
-6.434290839981146
 30
0.0
 10
35.48959258449842
 20
-6.348667948164091
 30
0.0
 10
35.64566218115267
 20
-6.26510831534054
 30
0.0
  0
SPLINE
  5
2A9
330
1F
100
AcDbEntity
  8
SK3
  6
SLD-Dashed
370
    18
100
AcDbSpline
210
0.0
220
0.0
230
1.0
 70
     8
 71
     3
 72
     8
 73
     4
 74
     0
 42
0.000000001
 43
0.00000001
 40
0.656250000000005
 40
0.656250000000005
 40
0.656250000000005
 40
0.656250000000005
 40
0.687500000000005
 40
0.687500000000005
 40
0.687500000000005
 40
0.687500000000005
 10
35.64566218115267
 20
-6.26510831534054
 30
0.0
 10
35.95780137446117
 20
-6.097989049693452
 30
0.0
 10
36.287886570624
 20
-5.937326002973379
 30
0.0
 10
36.64050753376169
 20
-5.793721144328159
 30
0.0
  0
SPLINE
  5
2AA
330
1F
100
AcDbEntity
  8
SK3
  6
SLD-Dashed
370
    18
100
AcDbSpline
210
0.0
220
0.0
230
1.0
 70
     8
 71
     3
 72
     8
 73
     4
 74
     0
 42
0.000000001
 43
0.00000001
 40
0.687500000000005
 40
0.687500000000005
 40
0.687500000000005
 40
0.687500000000005
 40
0.7031250000000048
 40
0.7031250000000048
 40
0.7031250000000048
 40
0.7031250000000048
 10
36.64050753376169
 20
-5.793721144328159
 30
0.0
 10
36.81681801533054
 20
-5.721918715005544
 30
0.0
 10
36.9988293309715
 20
-5.654446090144917
 30
0.0
 10
37.18768949405376
 20
-5.5932521282312
 30
0.0
  0
SPLINE
  5
2AB
330
1F
100
AcDbEntity
  8
SK3
  6
SLD-Dashed
370
    18
100
AcDbSpline
210
0.0
220
0.0
230
1.0
 70
     8
 71
     3
 72
     8
 73
     4
 74
     0
 42
0.000000001
 43
0.00000001
 40
0.7031250000000048
 40
0.7031250000000048
 40
0.7031250000000048
 40
0.7031250000000048
 40
0.7187500000000046
 40
0.7187500000000046
 40
0.7187500000000046
 40
0.7187500000000046
 10
37.18768949405376
 20
-5.5932521282312
 30
0.0
 10
37.37654965713603
 20
-5.532058166317498
 30
0.0
 10
37.57148645299061
 20
-5.477574192364557
 30
0.0
 10
37.76853158312898
 20
-5.432910312323457
 30
0.0
  0
SPLINE
  5
2AC
330
1F
100
AcDbEntity
  8
SK3
  6
SLD-Dashed
370
    18
100
AcDbSpline
210
0.0
220
0.0
230
1.0
 70
     8
 71
     3
 72
     8
 73
     4
 74
     0
 42
0.000000001
 43
0.00000001
 40
0.7187500000000046
 40
0.7187500000000046
 40
0.7187500000000046
 40
0.7187500000000046
 40
0.7343750000000043
 40
0.7343750000000043
 40
0.7343750000000043
 40
0.7343750000000043
 10
37.76853158312898
 20
-5.432910312323457
 30
0.0
 10
37.96557671326736
 20
-5.388246432282359
 30
0.0
 10
38.16594114582311
 20
-5.352997883579888
 30
0.0
 10
38.3700242716918
 20
-5.328871308096794
 30
0.0
  0
SPLINE
  5
2AD
330
1F
100
AcDbEntity
  8
SK3
  6
SLD-Dashed
370
    18
100
AcDbSpline
210
0.0
220
0.0
230
1.0
 70
     8
 71
     3
 72
     8
 73
     4
 74
     0
 42
0.000000001
 43
0.00000001
 40
0.7343750000000043
 40
0.7343750000000043
 40
0.7343750000000043
 40
0.7343750000000043
 40
0.7500000000000041
 40
0.7500000000000041
 40
0.7500000000000041
 40
0.7500000000000041
 10
38.3700242716918
 20
-5.328871308096794
 30
0.0
 10
38.57410739756047
 20
-5.304744732613699
 30
0.0
 10
38.78363980147275
 20
-5.291886571335384
 30
0.0
 10
38.99039664519988
 20
-5.291511336510895
 30
0.0
  0
SPLINE
  5
2AE
330
1F
100
AcDbEntity
  8
SK3
  6
SLD-Dashed
370
    18
100
AcDbSpline
210
0.0
220
0.0
230
1.0
 70
     8
 71
     3
 72
     8
 73
     4
 74
     0
 42
0.000000001
 43
0.00000001
 40
0.7500000000000041
 40
0.7500000000000041
 40
0.7500000000000041
 40
0.7500000000000041
 40
0.7812500000000036
 40
0.7812500000000036
 40
0.7812500000000036
 40
0.7812500000000036
 10
38.99039664519988
 20
-5.291511336510895
 30
0.0
 10
39.40391033265417
 20
-5.290760866861904
 30
0.0
 10
39.81251041818309
 20
-5.339430306508221
 30
0.0
 10
40.21068610091895
 20
-5.428237359858003
 30
0.0
  0
SPLINE
  5
2AF
330
1F
100
AcDbEntity
  8
SK3
  6
SLD-Dashed
370
    18
100
AcDbSpline
210
0.0
220
0.0
230
1.0
 70
     8
 71
     3
 72
     8
 73
     4
 74
     0
 42
0.000000001
 43
0.00000001
 40
0.7812500000000036
 40
0.7812500000000036
 40
0.7812500000000036
 40
0.7812500000000036
 40
0.812500000000003
 40
0.812500000000003
 40
0.812500000000003
 40
0.812500000000003
 10
40.21068610091895
 20
-5.428237359858003
 30
0.0
 10
40.6088617836548
 20
-5.517044413207772
 30
0.0
 10
40.9824880404618
 20
-5.641303064090834
 30
0.0
 10
41.33836812419359
 20
-5.785150428834554
 30
0.0
  0
SPLINE
  5
2B0
330
1F
100
AcDbEntity
  8
SK3
  6
SLD-Dashed
370
    18
100
AcDbSpline
210
0.0
220
0.0
230
1.0
 70
     8
 71
     3
 72
     8
 73
     4
 74
     0
 42
0.000000001
 43
0.00000001
 40
0.812500000000003
 40
0.812500000000003
 40
0.812500000000003
 40
0.812500000000003
 40
0.8437500000000024
 40
0.8437500000000024
 40
0.8437500000000024
 40
0.8437500000000024
 10
41.33836812419359
 20
-5.785150428834554
 30
0.0
 10
41.6942482079254
 20
-5.928997793578261
 30
0.0
 10
42.03225484608317
 20
-6.093045069057425
 30
0.0
 10
42.343820234566
 20
-6.259483505936629
 30
0.0
  0
SPLINE
  5
2B1
330
1F
100
AcDbEntity
  8
SK3
  6
SLD-Dashed
370
    18
100
AcDbSpline
210
0.0
220
0.0
230
1.0
 70
     8
 71
     3
 72
     8
 73
     4
 74
     0
 42
0.000000001
 43
0.00000001
 40
0.8437500000000024
 40
0.8437500000000024
 40
0.8437500000000024
 40
0.8437500000000024
 40
0.8750000000000019
 40
0.8750000000000019
 40
0.8750000000000019
 40
0.8750000000000019
 10
42.343820234566
 20
-6.259483505936629
 30
0.0
 10
42.65538562304879
 20
-6.42592194281582
 30
0.0
 10
42.94432822424172
 20
-6.596482999053806
 30
0.0
 10
43.2128692343263
 20
-6.763746534690144
 30
0.0
  0
SPLINE
  5
2B2
330
1F
100
AcDbEntity
  8
SK3
  6
SLD-Dashed
370
    18
100
AcDbSpline
210
0.0
220
0.0
230
1.0
 70
     8
 71
     3
 72
     8
 73
     4
 74
     0
 42
0.000000001
 43
0.00000001
 40
0.8750000000000019
 40
0.8750000000000019
 40
0.8750000000000019
 40
0.8750000000000019
 40
0.8906250000000018
 40
0.8906250000000018
 40
0.8906250000000018
 40
0.8906250000000018
 10
43.2128692343263
 20
-6.763746534690144
 30
0.0
 10
43.34713973936859
 20
-6.847378302508318
 30
0.0
 10
43.47683223082659
 20
-6.930621726636176
 30
0.0
 10
43.59905028900787
 20
-7.010796214469737
 30
0.0
  0
SPLINE
  5
2B3
330
1F
100
AcDbEntity
  8
SK3
  6
SLD-Dashed
370
    18
100
AcDbSpline
210
0.0
220
0.0
230
1.0
 70
     8
 71
     3
 72
     8
 73
     4
 74
     0
 42
0.000000001
 43
0.00000001
 40
0.8906250000000018
 40
0.8906250000000018
 40
0.8906250000000018
 40
0.8906250000000018
 40
0.9062500000000016
 40
0.9062500000000016
 40
0.9062500000000016
 40
0.9062500000000016
 10
43.59905028900787
 20
-7.010796214469737
 30
0.0
 10
43.72126834718913
 20
-7.090970702303294
 30
0.0
 10
43.83636594000689
 20
-7.16827741075747
 30
0.0
 10
43.94443033671809
 20
-7.242057121747806
 30
0.0
  0
SPLINE
  5
2B4
330
1F
100
AcDbEntity
  8
SK3
  6
SLD-Dashed
370
    18
100
AcDbSpline
210
0.0
220
0.0
230
1.0
 70
     8
 71
     3
 72
     8
 73
     4
 74
     0
 42
0.000000001
 43
0.00000001
 40
0.9062500000000016
 40
0.9062500000000016
 40
0.9062500000000016
 40
0.9062500000000016
 40
0.937500000000001
 40
0.937500000000001
 40
0.937500000000001
 40
0.937500000000001
 10
43.94443033671809
 20
-7.242057121747806
 30
0.0
 10
44.1605591301405
 20
-7.38961654372848
 30
0.0
 10
44.34886459461562
 20
-7.523191973428565
 30
0.0
 10
44.50653412582685
 20
-7.636878817874192
 30
0.0
  0
SPLINE
  5
2B5
330
1F
100
AcDbEntity
  8
SK3
  6
SLD-Dashed
370
    18
100
AcDbSpline
210
0.0
220
0.0
230
1.0
 70
     8
 71
     3
 72
     8
 73
     4
 74
     0
 42
0.000000001
 43
0.00000001
 40
0.937500000000001
 40
0.937500000000001
 40
0.937500000000001
 40
0.937500000000001
 40
0.9531250000000008
 40
0.9531250000000008
 40
0.9531250000000008
 40
0.9531250000000008
 10
44.50653412582685
 20
-7.636878817874192
 30
0.0
 10
44.58536889143245
 20
-7.693722240096988
 30
0.0
 10
44.65668323768467
 20
-7.745730365720904
 30
0.0
 10
44.71785602008715
 20
-7.790627539964092
 30
0.0
  0
SPLINE
  5
2B6
330
1F
100
AcDbEntity
  8
SK3
  6
SLD-Dashed
370
    18
100
AcDbSpline
210
0.0
220
0.0
230
1.0
 70
     8
 71
     3
 72
     8
 73
     4
 74
     0
 42
0.000000001
 43
0.00000001
 40
0.9531250000000008
 40
0.9531250000000008
 40
0.9531250000000008
 40
0.9531250000000008
 40
0.9687500000000006
 40
0.9687500000000006
 40
0.9687500000000006
 40
0.9687500000000006
 10
44.71785602008715
 20
-7.790627539964092
 30
0.0
 10
44.77902880248963
 20
-7.83552471420728
 30
0.0
 10
44.83058574804907
 20
-7.873687172499459
 30
0.0
 10
44.87231930023829
 20
-7.904690630502302
 30
0.0
  0
SPLINE
  5
2B7
330
1F
100
AcDbEntity
  8
SK3
  6
SLD-Dashed
370
    18
100
AcDbSpline
210
0.0
220
0.0
230
1.0
 70
     8
 71
     3
 72
     8
 73
     4
 74
     0
 42
0.000000001
 43
0.00000001
 40
0.9687500000000006
 40
0.9687500000000006
 40
0.9687500000000006
 40
0.9687500000000006
 40
0.9843750000000003
 40
0.9843750000000003
 40
0.9843750000000003
 40
0.9843750000000003
 10
44.87231930023829
 20
-7.904690630502302
 30
0.0
 10
44.9140528524275
 20
-7.935694088505144
 30
0.0
 10
44.94596672182693
 20
-7.959542456398849
 30
0.0
 10
44.96750214481555
 20
-7.975655574833866
 30
0.0
  0
SPLINE
  5
2B8
330
1F
100
AcDbEntity
  8
SK3
  6
SLD-Dashed
370
    18
100
AcDbSpline
210
0.0
220
0.0
230
1.0
 70
     8
 71
     2
 72
     6
 73
     3
 74
     0
 42
0.000000001
 43
0.00000001
 40
0.9843750000000003
 40
0.9843750000000003
 40
0.9843750000000003
 40
1.0
 40
1.0
 40
1.0
 10
44.96750214481554
 20
-7.975655574833856
 30
0.0
 10
44.9890375678042
 20
-7.991768693268868
 30
0.0
 10
44.99999999999999
 20
-7.999999999999987
 30
0.0
  0
SPLINE
  5
2B9
330
1F
100
AcDbEntity
  8
SK3
  6
SLD-Dashed
370
    18
100
AcDbSpline
210
0.0
220
0.0
230
1.0
 70
     8
 71
     2
 72
     6
 73
     3
 74
     0
 42
0.000000001
 43
0.00000001
 40
0.0
 40
0.0
 40
0.0
 40
0.0312500000000009
 40
0.0312500000000009
 40
0.0312500000000009
 10
44.99999999999999
 20
-7.999999999999987
 30
0.0
 10
44.95727725981974
 20
-7.967817419960995
 30
0.0
 10
44.87492042297786
 20
-7.906623171514041
 30
0.0
  0
SPLINE
  5
2BA
330
1F
100
AcDbEntity
  8
SK3
  6
SLD-Dashed
370
    18
100
AcDbSpline
210
0.0
220
0.0
230
1.0
 70
     8
 71
     3
 72
     8
 73
     4
 74
     0
 42
0.000000001
 43
0.00000001
 40
0.0312500000000009
 40
0.0312500000000009
 40
0.0312500000000009
 40
0.0312500000000009
 40
0.0625000000000018
 40
0.0625000000000018
 40
0.0625000000000018
 40
0.0625000000000018
 10
44.87492042297786
 20
-7.906623171514041
 30
0.0
 10
44.792563586136
 20
-7.845428923067075
 30
0.0
 10
44.66862464037065
 20
-7.753816496304026
 30
0.0
 10
44.51285589581287
 20
-7.641438354655406
 30
0.0
  0
SPLINE
  5
2BB
330
1F
100
AcDbEntity
  8
SK3
  6
SLD-Dashed
370
    18
100
AcDbSpline
210
0.0
220
0.0
230
1.0
 70
     8
 71
     3
 72
     8
 73
     4
 74
     0
 42
0.000000001
 43
0.00000001
 40
0.0625000000000018
 40
0.0625000000000018
 40
0.0625000000000018
 40
0.0625000000000018
 40
0.0937500000000027
 40
0.0937500000000027
 40
0.0937500000000027
 40
0.0937500000000027
 10
44.51285589581287
 20
-7.641438354655406
 30
0.0
 10
44.35708715125512
 20
-7.5290602130068
 30
0.0
 10
44.16732944414836
 20
-7.39432072743574
 30
0.0
 10
43.94947092846585
 20
-7.245499463234325
 30
0.0
  0
SPLINE
  5
2BC
330
1F
100
AcDbEntity
  8
SK3
  6
SLD-Dashed
370
    18
100
AcDbSpline
210
0.0
220
0.0
230
1.0
 70
     8
 71
     3
 72
     8
 73
     4
 74
     0
 42
0.000000001
 43
0.00000001
 40
0.0937500000000027
 40
0.0937500000000027
 40
0.0937500000000027
 40
0.0937500000000027
 40
0.1250000000000036
 40
0.1250000000000036
 40
0.1250000000000036
 40
0.1250000000000036
 10
43.94947092846585
 20
-7.245499463234325
 30
0.0
 10
43.73161241278338
 20
-7.096678199032906
 30
0.0
 10
43.48886564352729
 20
-6.935866919903305
 30
0.0
 10
43.22155174298332
 20
-6.769157932762796
 30
0.0
  0
SPLINE
  5
2BD
330
1F
100
AcDbEntity
  8
SK3
  6
SLD-Dashed
370
    18
100
AcDbSpline
210
0.0
220
0.0
230
1.0
 70
     8
 71
     3
 72
     8
 73
     4
 74
     0
 42
0.000000001
 43
0.00000001
 40
0.1250000000000036
 40
0.1250000000000036
 40
0.1250000000000036
 40
0.1250000000000036
 40
0.1562500000000045
 40
0.1562500000000045
 40
0.1562500000000045
 40
0.1562500000000045
 10
43.22155174298332
 20
-6.769157932762796
 30
0.0
 10
42.95423784243935
 20
-6.602448945622272
 30
0.0
 10
42.66104004253385
 20
-6.42918170910204
 30
0.0
 10
42.35050019480541
 20
-6.263054490852769
 30
0.0
  0
SPLINE
  5
2BE
330
1F
100
AcDbEntity
  8
SK3
  6
SLD-Dashed
370
    18
100
AcDbSpline
210
0.0
220
0.0
230
1.0
 70
     8
 71
     3
 72
     8
 73
     4
 74
     0
 42
0.000000001
 43
0.00000001
 40
0.1562500000000045
 40
0.1562500000000045
 40
0.1562500000000045
 40
0.1562500000000045
 40
0.1875000000000054
 40
0.1875000000000054
 40
0.1875000000000054
 40
0.1875000000000054
 10
42.35050019480541
 20
-6.263054490852769
 30
0.0
 10
42.03996034707692
 20
-6.096927272603494
 30
0.0
 10
41.71010437628636
 20
-5.936294325370156
 30
0.0
 10
41.3552902359235
 20
-5.792011057951841
 30
0.0
  0
SPLINE
  5
2BF
330
1F
100
AcDbEntity
  8
SK3
  6
SLD-Dashed
370
    18
100
AcDbSpline
210
0.0
220
0.0
230
1.0
 70
     8
 71
     3
 72
     8
 73
     4
 74
     0
 42
0.000000001
 43
0.00000001
 40
0.1875000000000054
 40
0.1875000000000054
 40
0.1875000000000054
 40
0.1875000000000054
 40
0.2031250000000056
 40
0.2031250000000056
 40
0.2031250000000056
 40
0.2031250000000056
 10
41.3552902359235
 20
-5.792011057951841
 30
0.0
 10
41.17788316574202
 20
-5.719869424242675
 30
0.0
 10
40.99308152386852
 20
-5.651609508037096
 30
0.0
 10
40.80501065222851
 20
-5.59089111454145
 30
0.0
  0
SPLINE
  5
2C0
330
1F
100
AcDbEntity
  8
SK3
  6
SLD-Dashed
370
    18
100
AcDbSpline
210
0.0
220
0.0
230
1.0
 70
     8
 71
     3
 72
     8
 73
     4
 74
     0
 42
0.000000001
 43
0.00000001
 40
0.2031250000000056
 40
0.2031250000000056
 40
0.2031250000000056
 40
0.2031250000000056
 40
0.2187500000000057
 40
0.2187500000000057
 40
0.2187500000000057
 40
0.2187500000000057
 10
40.80501065222851
 20
-5.59089111454145
 30
0.0
 10
40.61693978058853
 20
-5.530172721045785
 30
0.0
 10
40.42500533924154
 20
-5.476683502734788
 30
0.0
 10
40.22866348377034
 20
-5.432275209923617
 30
0.0
  0
SPLINE
  5
2C1
330
1F
100
AcDbEntity
  8
SK3
  6
SLD-Dashed
370
    18
100
AcDbSpline
210
0.0
220
0.0
230
1.0
 70
     8
 71
     3
 72
     8
 73
     4
 74
     0
 42
0.000000001
 43
0.00000001
 40
0.2187500000000057
 40
0.2187500000000057
 40
0.2187500000000057
 40
0.2187500000000057
 40
0.2500000000000057
 40
0.2500000000000057
 40
0.2500000000000057
 40
0.2500000000000057
 10
40.22866348377034
 20
-5.432275209923617
 30
0.0
 10
39.83597977282796
 20
-5.343458624301262
 30
0.0
 10
39.41968325852844
 20
-5.29231469956791
 30
0.0
 10
39.01036699778945
 20
-5.291512777518649
 30
0.0
  0
SPLINE
  5
2C2
330
1F
100
AcDbEntity
  8
SK3
  6
SLD-Dashed
370
    18
100
AcDbSpline
210
0.0
220
0.0
230
1.0
 70
     8
 71
     3
 72
     8
 73
     4
 74
     0
 42
0.000000001
 43
0.00000001
 40
0.2500000000000057
 40
0.2500000000000057
 40
0.2500000000000057
 40
0.2500000000000057
 40
0.2656250000000056
 40
0.2656250000000056
 40
0.2656250000000056
 40
0.2656250000000056
 10
39.01036699778945
 20
-5.291512777518649
 30
0.0
 10
38.80570886741997
 20
-5.291111816494023
 30
0.0
 10
38.60150798942298
 20
-5.302623134606818
 30
0.0
 10
38.39775653058847
 20
-5.325664014604072
 30
0.0
  0
SPLINE
  5
2C3
330
1F
100
AcDbEntity
  8
SK3
  6
SLD-Dashed
370
    18
100
AcDbSpline
210
0.0
220
0.0
230
1.0
 70
     8
 71
     3
 72
     8
 73
     4
 74
     0
 42
0.000000001
 43
0.00000001
 40
0.2656250000000056
 40
0.2656250000000056
 40
0.2656250000000056
 40
0.2656250000000056
 40
0.2812500000000056
 40
0.2812500000000056
 40
0.2812500000000056
 40
0.2812500000000056
 10
38.39775653058847
 20
-5.325664014604072
 30
0.0
 10
38.19400507175391
 20
-5.348704894601326
 30
0.0
 10
37.98992475299045
 20
-5.383599735880551
 30
0.0
 10
37.79234281378528
 20
-5.427562609442292
 30
0.0
  0
SPLINE
  5
2C4
330
1F
100
AcDbEntity
  8
SK3
  6
SLD-Dashed
370
    18
100
AcDbSpline
210
0.0
220
0.0
230
1.0
 70
     8
 71
     3
 72
     8
 73
     4
 74
     0
 42
0.000000001
 43
0.00000001
 40
0.2812500000000056
 40
0.2812500000000056
 40
0.2812500000000056
 40
0.2812500000000056
 40
0.2968750000000055
 40
0.2968750000000055
 40
0.2968750000000055
 40
0.2968750000000055
 10
37.79234281378528
 20
-5.427562609442292
 30
0.0
 10
37.59476087458007
 20
-5.47152548300403
 30
0.0
 10
37.40209684233137
 20
-5.524620126063824
 30
0.0
 10
37.21368621301153
 20
-5.584882894527424
 30
0.0
  0
SPLINE
  5
2C5
330
1F
100
AcDbEntity
  8
SK3
  6
SLD-Dashed
370
    18
100
AcDbSpline
210
0.0
220
0.0
230
1.0
 70
     8
 71
     3
 72
     8
 73
     4
 74
     0
 42
0.000000001
 43
0.00000001
 40
0.2968750000000055
 40
0.2968750000000055
 40
0.2968750000000055
 40
0.2968750000000055
 40
0.3125000000000054
 40
0.3125000000000054
 40
0.3125000000000054
 40
0.3125000000000054
 10
37.21368621301153
 20
-5.584882894527424
 30
0.0
 10
37.0252755836917
 20
-5.645145662991014
 30
0.0
 10
36.84020000666355
 20
-5.712980088480493
 30
0.0
 10
36.66191154759213
 20
-5.785037390655559
 30
0.0
  0
SPLINE
  5
2C6
330
1F
100
AcDbEntity
  8
SK3
  6
SLD-Dashed
370
    18
100
AcDbSpline
210
0.0
220
0.0
230
1.0
 70
     8
 71
     3
 72
     8
 73
     4
 74
     0
 42
0.000000001
 43
0.00000001
 40
0.3125000000000054
 40
0.3125000000000054
 40
0.3125000000000054
 40
0.3125000000000054
 40
0.3437500000000054
 40
0.3437500000000054
 40
0.3437500000000054
 40
0.3437500000000054
 10
36.66191154759213
 20
-5.785037390655559
 30
0.0
 10
36.30533462944929
 20
-5.929151995005682
 30
0.0
 10
35.97420227834923
 20
-6.089827851813907
 30
0.0
 10
35.66263485579939
 20
-6.256037572275687
 30
0.0
  0
SPLINE
  5
2C7
330
1F
100
AcDbEntity
  8
SK3
  6
SLD-Dashed
370
    18
100
AcDbSpline
210
0.0
220
0.0
230
1.0
 70
     8
 71
     3
 72
     8
 73
     4
 74
     0
 42
0.000000001
 43
0.00000001
 40
0.3437500000000054
 40
0.3437500000000054
 40
0.3437500000000054
 40
0.3437500000000054
 40
0.3750000000000053
 40
0.3750000000000053
 40
0.3750000000000053
 40
0.3750000000000053
 10
35.66263485579939
 20
-6.256037572275687
 30
0.0
 10
35.35106743324952
 20
-6.422247292737469
 30
0.0
 10
35.05693071922757
 20
-6.595750306785816
 30
0.0
 10
34.78924599411094
 20
-6.762429245331221
 30
0.0
  0
SPLINE
  5
2C8
330
1F
100
AcDbEntity
  8
SK3
  6
SLD-Dashed
370
    18
100
AcDbSpline
210
0.0
220
0.0
230
1.0
 70
     8
 71
     3
 72
     8
 73
     4
 74
     0
 42
0.000000001
 43
0.00000001
 40
0.3750000000000053
 40
0.3750000000000053
 40
0.3750000000000053
 40
0.3750000000000053
 40
0.4062500000000052
 40
0.4062500000000052
 40
0.4062500000000052
 40
0.4062500000000052
 10
34.78924599411094
 20
-6.762429245331221
 30
0.0
 10
34.52156126899429
 20
-6.929108183876622
 30
0.0
 10
34.27902047189983
 20
-7.089596513321396
 30
0.0
 10
34.06158492691578
 20
-7.237951604844098
 30
0.0
  0
SPLINE
  5
2C9
330
1F
100
AcDbEntity
  8
SK3
  6
SLD-Dashed
370
    18
100
AcDbSpline
210
0.0
220
0.0
230
1.0
 70
     8
 71
     3
 72
     8
 73
     4
 74
     0
 42
0.000000001
 43
0.00000001
 40
0.4062500000000052
 40
0.4062500000000052
 40
0.4062500000000052
 40
0.4062500000000052
 40
0.4375000000000051
 40
0.4375000000000051
 40
0.4375000000000051
 40
0.4375000000000051
 10
34.06158492691578
 20
-7.237951604844098
 30
0.0
 10
33.84414938193173
 20
-7.386306696366804
 30
0.0
 10
33.6511525409514
 20
-7.523187897730922
 30
0.0
 10
33.49430324678006
 20
-7.636275056492964
 30
0.0
  0
SPLINE
  5
2CA
330
1F
100
AcDbEntity
  8
SK3
  6
SLD-Dashed
370
    18
100
AcDbSpline
210
0.0
220
0.0
230
1.0
 70
     8
 71
     3
 72
     8
 73
     4
 74
     0
 42
0.000000001
 43
0.00000001
 40
0.4375000000000051
 40
0.4375000000000051
 40
0.4375000000000051
 40
0.4375000000000051
 40
0.4531250000000051
 40
0.4531250000000051
 40
0.4531250000000051
 40
0.4531250000000051
 10
33.49430324678006
 20
-7.636275056492964
 30
0.0
 10
33.41587859969437
 20
-7.692818635873976
 30
0.0
 10
33.34593158405677
 20
-7.743821281871917
 30
0.0
 10
33.2848585750675
 20
-7.788635407244271
 30
0.0
  0
SPLINE
  5
2CB
330
1F
100
AcDbEntity
  8
SK3
  6
SLD-Dashed
370
    18
100
AcDbSpline
210
0.0
220
0.0
230
1.0
 70
     8
 71
     3
 72
     8
 73
     4
 74
     0
 42
0.000000001
 43
0.00000001
 40
0.4531250000000051
 40
0.4531250000000051
 40
0.4531250000000051
 40
0.4531250000000051
 40
0.468750000000005
 40
0.468750000000005
 40
0.468750000000005
 40
0.468750000000005
 10
33.2848585750675
 20
-7.788635407244271
 30
0.0
 10
33.22378556607826
 20
-7.833449532616641
 30
0.0
 10
33.17136541761015
 20
-7.872241085419205
 30
0.0
 10
33.12908199805121
 20
-7.903649675030294
 30
0.0
  0
SPLINE
  5
2CC
330
1F
100
AcDbEntity
  8
SK3
  6
SLD-Dashed
370
    18
100
AcDbSpline
210
0.0
220
0.0
230
1.0
 70
     8
 71
     3
 72
     8
 73
     4
 74
     0
 42
0.000000001
 43
0.00000001
 40
0.468750000000005
 40
0.468750000000005
 40
0.468750000000005
 40
0.468750000000005
 40
0.5000000000000049
 40
0.5000000000000049
 40
0.5000000000000049
 40
0.5000000000000049
 10
33.12908199805121
 20
-7.903649675030294
 30
0.0
 10
33.04451515893324
 20
-7.966466854252459
 30
0.0
 10
33.00144742331086
 20
-7.998914435292648
 30
0.0
 10
33.00003550287137
 20
-7.999973372880945
 30
0.0
  0
SPLINE
  5
2CD
330
1F
100
AcDbEntity
  8
SK3
  6
SLD-Dashed
370
    18
100
AcDbSpline
210
0.0
220
0.0
230
1.0
 70
     8
 71
     3
 72
     8
 73
     4
 74
     0
 42
0.000000001
 43
0.00000001
 40
0.5156250000000049
 40
0.5156250000000049
 40
0.5156250000000049
 40
0.5156250000000049
 40
0.5312500000000049
 40
0.5312500000000049
 40
0.5312500000000049
 40
0.5312500000000049
 10
33.02987953430757
 20
-7.977614829940052
 30
0.0
 10
33.05049000690077
 20
-7.962190795706832
 30
0.0
 10
33.08145989885595
 20
-7.939041005602717
 30
0.0
 10
33.12225040061826
 20
-7.908725583368793
 30
0.0
  0
SPLINE
  5
2CE
330
1F
100
AcDbEntity
  8
SK3
  6
SLD-Dashed
370
    18
100
AcDbSpline
210
0.0
220
0.0
230
1.0
 70
     8
 71
     3
 72
     8
 73
     4
 74
     0
 42
0.000000001
 43
0.00000001
 40
0.5312500000000049
 40
0.5312500000000049
 40
0.5312500000000049
 40
0.5312500000000049
 40
0.5468750000000049
 40
0.5468750000000049
 40
0.5468750000000049
 40
0.5468750000000049
 10
33.12225040061826
 20
-7.908725583368793
 30
0.0
 10
33.16304090238055
 20
-7.878410161134865
 30
0.0
 10
33.21365551129234
 20
-7.840925369026336
 30
0.0
 10
33.27390254417245
 20
-7.796678271779229
 30
0.0
  0
SPLINE
  5
2CF
330
1F
100
AcDbEntity
  8
SK3
  6
SLD-Dashed
370
    18
100
AcDbSpline
210
0.0
220
0.0
230
1.0
 70
     8
 71
     3
 72
     8
 73
     4
 74
     0
 42
0.000000001
 43
0.00000001
 40
0.5468750000000049
 40
0.5468750000000049
 40
0.5468750000000049
 40
0.5468750000000049
 40
0.5625000000000049
 40
0.5625000000000049
 40
0.5625000000000049
 40
0.5625000000000049
 10
33.27390254417245
 20
-7.796678271779229
 30
0.0
 10
33.33414957705254
 20
-7.752431174532136
 30
0.0
 10
33.40438892657185
 20
-7.701165245618598
 30
0.0
 10
33.4824202146343
 20
-7.644847067657764
 30
0.0
  0
SPLINE
  5
2D0
330
1F
100
AcDbEntity
  8
SK3
  6
SLD-Dashed
370
    18
100
AcDbSpline
210
0.0
220
0.0
230
1.0
 70
     8
 71
     3
 72
     8
 73
     4
 74
     0
 42
0.000000001
 43
0.00000001
 40
0.5625000000000049
 40
0.5625000000000049
 40
0.5625000000000049
 40
0.5625000000000049
 40
0.5937500000000049
 40
0.5937500000000049
 40
0.5937500000000049
 40
0.5937500000000049
 10
33.4824202146343
 20
-7.644847067657764
 30
0.0
 10
33.63848279075925
 20
-7.532210711736139
 30
0.0
 10
33.82644864810943
 20
-7.398670096656814
 30
0.0
 10
34.04443170029922
 20
-7.24966600423764
 30
0.0
  0
SPLINE
  5
2D1
330
1F
100
AcDbEntity
  8
SK3
  6
SLD-Dashed
370
    18
100
AcDbSpline
210
0.0
220
0.0
230
1.0
 70
     8
 71
     3
 72
     8
 73
     4
 74
     0
 42
0.000000001
 43
0.00000001
 40
0.5937500000000049
 40
0.5937500000000049
 40
0.5937500000000049
 40
0.5937500000000049
 40
0.6250000000000049
 40
0.6250000000000049
 40
0.6250000000000049
 40
0.6250000000000049
 10
34.04443170029922
 20
-7.24966600423764
 30
0.0
 10
34.26241475248899
 20
-7.100661911818462
 30
0.0
 10
34.50682006257867
 20
-6.938674455841491
 30
0.0
 10
34.77363301106846
 20
-6.772161983084116
 30
0.0
  0
SPLINE
  5
2D2
330
1F
100
AcDbEntity
  8
SK3
  6
SLD-Dashed
370
    18
100
AcDbSpline
210
0.0
220
0.0
230
1.0
 70
     8
 71
     3
 72
     8
 73
     4
 74
     0
 42
0.000000001
 43
0.00000001
 40
0.6250000000000049
 40
0.6250000000000049
 40
0.6250000000000049
 40
0.6250000000000049
 40
0.640625000000005
 40
0.640625000000005
 40
0.640625000000005
 40
0.640625000000005
 10
34.77363301106846
 20
-6.772161983084116
 30
0.0
 10
34.90703948531338
 20
-6.688905746705428
 30
0.0
 10
35.04636282060779
 20
-6.604338633519974
 30
0.0
 10
35.19192113568884
 20
-6.519314736750558
 30
0.0
  0
SPLINE
  5
2D3
330
1F
100
AcDbEntity
  8
SK3
  6
SLD-Dashed
370
    18
100
AcDbSpline
210
0.0
220
0.0
230
1.0
 70
     8
 71
     3
 72
     8
 73
     4
 74
     0
 42
0.000000001
 43
0.00000001
 40
0.640625000000005
 40
0.640625000000005
 40
0.640625000000005
 40
0.640625000000005
 40
0.656250000000005
 40
0.656250000000005
 40
0.656250000000005
 40
0.656250000000005
 10
35.19192113568884
 20
-6.519314736750558
 30
0.0
 10
35.33747945076988
 20
-6.434290839981146
 30
0.0
 10
35.48959258449842
 20
-6.348667948164091
 30
0.0
 10
35.64566218115267
 20
-6.26510831534054
 30
0.0
  0
SPLINE
  5
2D4
330
1F
100
AcDbEntity
  8
SK3
  6
SLD-Dashed
370
    18
100
AcDbSpline
210
0.0
220
0.0
230
1.0
 70
     8
 71
     3
 72
     8
 73
     4
 74
     0
 42
0.000000001
 43
0.00000001
 40
0.656250000000005
 40
0.656250000000005
 40
0.656250000000005
 40
0.656250000000005
 40
0.687500000000005
 40
0.687500000000005
 40
0.687500000000005
 40
0.687500000000005
 10
35.64566218115267
 20
-6.26510831534054
 30
0.0
 10
35.95780137446117
 20
-6.097989049693452
 30
0.0
 10
36.287886570624
 20
-5.937326002973379
 30
0.0
 10
36.64050753376169
 20
-5.793721144328159
 30
0.0
  0
SPLINE
  5
2D5
330
1F
100
AcDbEntity
  8
SK3
  6
SLD-Dashed
370
    18
100
AcDbSpline
210
0.0
220
0.0
230
1.0
 70
     8
 71
     3
 72
     8
 73
     4
 74
     0
 42
0.000000001
 43
0.00000001
 40
0.687500000000005
 40
0.687500000000005
 40
0.687500000000005
 40
0.687500000000005
 40
0.7031250000000048
 40
0.7031250000000048
 40
0.7031250000000048
 40
0.7031250000000048
 10
36.64050753376169
 20
-5.793721144328159
 30
0.0
 10
36.81681801533054
 20
-5.721918715005544
 30
0.0
 10
36.9988293309715
 20
-5.654446090144917
 30
0.0
 10
37.18768949405376
 20
-5.5932521282312
 30
0.0
  0
SPLINE
  5
2D6
330
1F
100
AcDbEntity
  8
SK3
  6
SLD-Dashed
370
    18
100
AcDbSpline
210
0.0
220
0.0
230
1.0
 70
     8
 71
     3
 72
     8
 73
     4
 74
     0
 42
0.000000001
 43
0.00000001
 40
0.7031250000000048
 40
0.7031250000000048
 40
0.7031250000000048
 40
0.7031250000000048
 40
0.7187500000000046
 40
0.7187500000000046
 40
0.7187500000000046
 40
0.7187500000000046
 10
37.18768949405376
 20
-5.5932521282312
 30
0.0
 10
37.37654965713603
 20
-5.532058166317498
 30
0.0
 10
37.57148645299061
 20
-5.477574192364557
 30
0.0
 10
37.76853158312898
 20
-5.432910312323457
 30
0.0
  0
SPLINE
  5
2D7
330
1F
100
AcDbEntity
  8
SK3
  6
SLD-Dashed
370
    18
100
AcDbSpline
210
0.0
220
0.0
230
1.0
 70
     8
 71
     3
 72
     8
 73
     4
 74
     0
 42
0.000000001
 43
0.00000001
 40
0.7187500000000046
 40
0.7187500000000046
 40
0.7187500000000046
 40
0.7187500000000046
 40
0.7343750000000043
 40
0.7343750000000043
 40
0.7343750000000043
 40
0.7343750000000043
 10
37.76853158312898
 20
-5.432910312323457
 30
0.0
 10
37.96557671326736
 20
-5.388246432282359
 30
0.0
 10
38.16594114582311
 20
-5.352997883579888
 30
0.0
 10
38.3700242716918
 20
-5.328871308096794
 30
0.0
  0
SPLINE
  5
2D8
330
1F
100
AcDbEntity
  8
SK3
  6
SLD-Dashed
370
    18
100
AcDbSpline
210
0.0
220
0.0
230
1.0
 70
     8
 71
     3
 72
     8
 73
     4
 74
     0
 42
0.000000001
 43
0.00000001
 40
0.7343750000000043
 40
0.7343750000000043
 40
0.7343750000000043
 40
0.7343750000000043
 40
0.7500000000000041
 40
0.7500000000000041
 40
0.7500000000000041
 40
0.7500000000000041
 10
38.3700242716918
 20
-5.328871308096794
 30
0.0
 10
38.57410739756047
 20
-5.304744732613699
 30
0.0
 10
38.78363980147275
 20
-5.291886571335384
 30
0.0
 10
38.99039664519988
 20
-5.291511336510895
 30
0.0
  0
SPLINE
  5
2D9
330
1F
100
AcDbEntity
  8
SK3
  6
SLD-Dashed
370
    18
100
AcDbSpline
210
0.0
220
0.0
230
1.0
 70
     8
 71
     3
 72
     8
 73
     4
 74
     0
 42
0.000000001
 43
0.00000001
 40
0.7500000000000041
 40
0.7500000000000041
 40
0.7500000000000041
 40
0.7500000000000041
 40
0.7812500000000036
 40
0.7812500000000036
 40
0.7812500000000036
 40
0.7812500000000036
 10
38.99039664519988
 20
-5.291511336510895
 30
0.0
 10
39.40391033265417
 20
-5.290760866861904
 30
0.0
 10
39.81251041818309
 20
-5.339430306508221
 30
0.0
 10
40.21068610091895
 20
-5.428237359858003
 30
0.0
  0
SPLINE
  5
2DA
330
1F
100
AcDbEntity
  8
SK3
  6
SLD-Dashed
370
    18
100
AcDbSpline
210
0.0
220
0.0
230
1.0
 70
     8
 71
     3
 72
     8
 73
     4
 74
     0
 42
0.000000001
 43
0.00000001
 40
0.7812500000000036
 40
0.7812500000000036
 40
0.7812500000000036
 40
0.7812500000000036
 40
0.812500000000003
 40
0.812500000000003
 40
0.812500000000003
 40
0.812500000000003
 10
40.21068610091895
 20
-5.428237359858003
 30
0.0
 10
40.6088617836548
 20
-5.517044413207772
 30
0.0
 10
40.9824880404618
 20
-5.641303064090834
 30
0.0
 10
41.33836812419359
 20
-5.785150428834554
 30
0.0
  0
SPLINE
  5
2DB
330
1F
100
AcDbEntity
  8
SK3
  6
SLD-Dashed
370
    18
100
AcDbSpline
210
0.0
220
0.0
230
1.0
 70
     8
 71
     3
 72
     8
 73
     4
 74
     0
 42
0.000000001
 43
0.00000001
 40
0.812500000000003
 40
0.812500000000003
 40
0.812500000000003
 40
0.812500000000003
 40
0.8437500000000024
 40
0.8437500000000024
 40
0.8437500000000024
 40
0.8437500000000024
 10
41.33836812419359
 20
-5.785150428834554
 30
0.0
 10
41.6942482079254
 20
-5.928997793578261
 30
0.0
 10
42.03225484608317
 20
-6.093045069057425
 30
0.0
 10
42.343820234566
 20
-6.259483505936629
 30
0.0
  0
SPLINE
  5
2DC
330
1F
100
AcDbEntity
  8
SK3
  6
SLD-Dashed
370
    18
100
AcDbSpline
210
0.0
220
0.0
230
1.0
 70
     8
 71
     3
 72
     8
 73
     4
 74
     0
 42
0.000000001
 43
0.00000001
 40
0.8437500000000024
 40
0.8437500000000024
 40
0.8437500000000024
 40
0.8437500000000024
 40
0.8750000000000019
 40
0.8750000000000019
 40
0.8750000000000019
 40
0.8750000000000019
 10
42.343820234566
 20
-6.259483505936629
 30
0.0
 10
42.65538562304879
 20
-6.42592194281582
 30
0.0
 10
42.94432822424172
 20
-6.596482999053806
 30
0.0
 10
43.2128692343263
 20
-6.763746534690144
 30
0.0
  0
SPLINE
  5
2DD
330
1F
100
AcDbEntity
  8
SK3
  6
SLD-Dashed
370
    18
100
AcDbSpline
210
0.0
220
0.0
230
1.0
 70
     8
 71
     3
 72
     8
 73
     4
 74
     0
 42
0.000000001
 43
0.00000001
 40
0.8750000000000019
 40
0.8750000000000019
 40
0.8750000000000019
 40
0.8750000000000019
 40
0.8906250000000018
 40
0.8906250000000018
 40
0.8906250000000018
 40
0.8906250000000018
 10
43.2128692343263
 20
-6.763746534690144
 30
0.0
 10
43.34713973936859
 20
-6.847378302508318
 30
0.0
 10
43.47683223082659
 20
-6.930621726636176
 30
0.0
 10
43.59905028900787
 20
-7.010796214469737
 30
0.0
  0
SPLINE
  5
2DE
330
1F
100
AcDbEntity
  8
SK3
  6
SLD-Dashed
370
    18
100
AcDbSpline
210
0.0
220
0.0
230
1.0
 70
     8
 71
     3
 72
     8
 73
     4
 74
     0
 42
0.000000001
 43
0.00000001
 40
0.8906250000000018
 40
0.8906250000000018
 40
0.8906250000000018
 40
0.8906250000000018
 40
0.9062500000000016
 40
0.9062500000000016
 40
0.9062500000000016
 40
0.9062500000000016
 10
43.59905028900787
 20
-7.010796214469737
 30
0.0
 10
43.72126834718913
 20
-7.090970702303294
 30
0.0
 10
43.83636594000689
 20
-7.16827741075747
 30
0.0
 10
43.94443033671809
 20
-7.242057121747806
 30
0.0
  0
SPLINE
  5
2DF
330
1F
100
AcDbEntity
  8
SK3
  6
SLD-Dashed
370
    18
100
AcDbSpline
210
0.0
220
0.0
230
1.0
 70
     8
 71
     3
 72
     8
 73
     4
 74
     0
 42
0.000000001
 43
0.00000001
 40
0.9062500000000016
 40
0.9062500000000016
 40
0.9062500000000016
 40
0.9062500000000016
 40
0.937500000000001
 40
0.937500000000001
 40
0.937500000000001
 40
0.937500000000001
 10
43.94443033671809
 20
-7.242057121747806
 30
0.0
 10
44.1605591301405
 20
-7.38961654372848
 30
0.0
 10
44.34886459461562
 20
-7.523191973428565
 30
0.0
 10
44.50653412582685
 20
-7.636878817874192
 30
0.0
  0
SPLINE
  5
2E0
330
1F
100
AcDbEntity
  8
SK3
  6
SLD-Dashed
370
    18
100
AcDbSpline
210
0.0
220
0.0
230
1.0
 70
     8
 71
     3
 72
     8
 73
     4
 74
     0
 42
0.000000001
 43
0.00000001
 40
0.937500000000001
 40
0.937500000000001
 40
0.937500000000001
 40
0.937500000000001
 40
0.9531250000000008
 40
0.9531250000000008
 40
0.9531250000000008
 40
0.9531250000000008
 10
44.50653412582685
 20
-7.636878817874192
 30
0.0
 10
44.58536889143245
 20
-7.693722240096988
 30
0.0
 10
44.65668323768467
 20
-7.745730365720904
 30
0.0
 10
44.71785602008715
 20
-7.790627539964092
 30
0.0
  0
SPLINE
  5
2E1
330
1F
100
AcDbEntity
  8
SK3
  6
SLD-Dashed
370
    18
100
AcDbSpline
210
0.0
220
0.0
230
1.0
 70
     8
 71
     3
 72
     8
 73
     4
 74
     0
 42
0.000000001
 43
0.00000001
 40
0.9531250000000008
 40
0.9531250000000008
 40
0.9531250000000008
 40
0.9531250000000008
 40
0.9687500000000006
 40
0.9687500000000006
 40
0.9687500000000006
 40
0.9687500000000006
 10
44.71785602008715
 20
-7.790627539964092
 30
0.0
 10
44.77902880248963
 20
-7.83552471420728
 30
0.0
 10
44.83058574804907
 20
-7.873687172499459
 30
0.0
 10
44.87231930023829
 20
-7.904690630502302
 30
0.0
  0
SPLINE
  5
2E2
330
1F
100
AcDbEntity
  8
SK3
  6
SLD-Dashed
370
    18
100
AcDbSpline
210
0.0
220
0.0
230
1.0
 70
     8
 71
     3
 72
     8
 73
     4
 74
     0
 42
0.000000001
 43
0.00000001
 40
0.9687500000000006
 40
0.9687500000000006
 40
0.9687500000000006
 40
0.9687500000000006
 40
0.9843750000000003
 40
0.9843750000000003
 40
0.9843750000000003
 40
0.9843750000000003
 10
44.87231930023829
 20
-7.904690630502302
 30
0.0
 10
44.9140528524275
 20
-7.935694088505144
 30
0.0
 10
44.94596672182693
 20
-7.959542456398849
 30
0.0
 10
44.96750214481555
 20
-7.975655574833866
 30
0.0
  0
SPLINE
  5
2E3
330
1F
100
AcDbEntity
  8
SK3
  6
SLD-Dashed
370
    18
100
AcDbSpline
210
0.0
220
0.0
230
1.0
 70
     8
 71
     2
 72
     6
 73
     3
 74
     0
 42
0.000000001
 43
0.00000001
 40
0.9843750000000003
 40
0.9843750000000003
 40
0.9843750000000003
 40
1.0
 40
1.0
 40
1.0
 10
44.96750214481554
 20
-7.975655574833856
 30
0.0
 10
44.9890375678042
 20
-7.991768693268868
 30
0.0
 10
44.99999999999999
 20
-7.999999999999987
 30
0.0
  0
SPLINE
  5
2E4
330
1F
100
AcDbEntity
  8
SK3
  6
SLD-Dashed
370
    18
100
AcDbSpline
210
0.0
220
0.0
230
1.0
 70
     8
 71
     3
 72
    30
 73
    26
 74
     0
 42
0.000000001
 43
0.00000001
 40
0.5000000000000016
 40
0.5000000000000016
 40
0.5000000000000016
 40
0.5000000000000016
 40
0.5625000000000014
 40
0.5625000000000014
 40
0.5937500000000013
 40
0.5937500000000013
 40
0.6250000000000013
 40
0.6250000000000013
 40
0.6562500000000012
 40
0.6562500000000012
 40
0.6875000000000012
 40
0.6875000000000012
 40
0.7500000000000008
 40
0.7500000000000008
 40
0.7812500000000007
 40
0.7812500000000007
 40
0.8125000000000004
 40
0.8125000000000004
 40
0.8750000000000003
 40
0.8750000000000003
 40
0.9375000000000002
 40
0.9375000000000002
 40
0.9687500000000002
 40
0.9687500000000002
 40
1.0
 40
1.0
 40
1.0
 40
1.0
 10
11.11430368305843
 20
-6.956785233221206
 30
0.0
 10
11.33009127530327
 20
-6.956795623434958
 30
0.0
 10
11.54795130560086
 20
-6.95219321718072
 30
0.0
 10
11.84605319705828
 20
-6.935841424474249
 30
0.0
 10
11.94253395676632
 20
-6.928651961099122
 30
0.0
 10
12.1217967621131
 20
-6.910161906578553
 30
0.0
 10
12.20462098754716
 20
-6.89892241680019
 30
0.0
 10
12.35687871020791
 20
-6.87110020653384
 30
0.0
 10
12.4263180660317
 20
-6.854385757486227
 30
0.0
 10
12.54572005870672
 20
-6.815565320931596
 30
0.0
 10
12.59658789406141
 20
-6.793338880874102
 30
0.0
 10
12.72179441037048
 20
-6.716160531564954
 30
0.0
 10
12.76487467097084
 20
-6.652571251466285
 30
0.0
 10
12.76506225632697
 20
-6.540902490698299
 30
0.0
 10
12.75445301687598
 20
-6.501808848192767
 30
0.0
 10
12.71241496060592
 20
-6.420220705647808
 30
0.0
 10
12.68045120159503
 20
-6.377316705302418
 30
0.0
 10
12.55657934394402
 20
-6.249695563478583
 30
0.0
 10
12.43386793469131
 20
-6.16302870586722
 30
0.0
 10
12.13106882972563
 20
-6.011205112641506
 30
0.0
 10
11.94781802796224
 20
-5.944805669355204
 30
0.0
 10
11.65004991773812
 20
-5.876417755056651
 30
0.0
 10
11.54505220435358
 20
-5.858344814756934
 30
0.0
 10
11.33230471101169
 20
-5.834286485611698
 30
0.0
 10
11.22442131448242
 20
-5.828118777010418
 30
0.0
 10
11.11499999999999
 20
-5.828118777010418
 30
0.0
  0
SPLINE
  5
2E5
330
1F
100
AcDbEntity
  8
SK3
  6
SLD-Dashed
370
    18
100
AcDbSpline
210
0.0
220
0.0
230
1.0
 70
     8
 71
     3
 72
    32
 73
    28
 74
     0
 42
0.000000001
 43
0.00000001
 40
0.0
 40
0.0
 40
0.0
 40
0.0
 40
0.03125
 40
0.03125
 40
0.0625000000000001
 40
0.0625000000000001
 40
0.0937500000000001
 40
0.0937500000000001
 40
0.1250000000000002
 40
0.1250000000000002
 40
0.1875000000000004
 40
0.1875000000000004
 40
0.2500000000000006
 40
0.2500000000000006
 40
0.2812500000000008
 40
0.2812500000000008
 40
0.3125000000000009
 40
0.3125000000000009
 40
0.3750000000000009
 40
0.3750000000000009
 40
0.4062500000000011
 40
0.4062500000000011
 40
0.4375000000000012
 40
0.4375000000000012
 40
0.4687500000000014
 40
0.4687500000000014
 40
0.5000000000000016
 40
0.5000000000000016
 40
0.5000000000000016
 40
0.5000000000000016
 10
11.11499999999999
 20
-5.828118777010418
 30
0.0
 10
11.00557868551756
 20
-5.828118777010418
 30
0.0
 10
10.89806585847278
 20
-5.834284418330171
 30
0.0
 10
10.68667555680384
 20
-5.858109988008068
 30
0.0
 10
10.58167901710673
 20
-5.876067982477976
 30
0.0
 10
10.38206693531189
 20
-5.921818499940116
 30
0.0
 10
10.28745480957907
 20
-5.949427367456892
 30
0.0
 10
10.10839778272331
 20
-6.012851705936427
 30
0.0
 10
10.0239325465471
 20
-6.048842538536846
 30
0.0
 10
9.796543315601216
 20
-6.162756727646993
 30
0.0
 10
9.67372992214767
 20
-6.249521956188317
 30
0.0
 10
9.508870545406904
 20
-6.419081974581034
 30
0.0
 10
9.465132936825494
 20
-6.503524382808393
 30
0.0
 10
9.46493399782078
 20
-6.614420162333261
 30
0.0
 10
9.475739933862206
 20
-6.649550307798465
 30
0.0
 10
9.51801088250051
 20
-6.71284008650622
 30
0.0
 10
9.549282318883925
 20
-6.741349407769732
 30
0.0
 10
9.673818204213577
 20
-6.818503738973192
 30
0.0
 10
9.79519063214744
 20
-6.856785886595787
 30
0.0
 10
10.02468578982411
 20
-6.898832345070032
 30
0.0
 10
10.10756260440614
 20
-6.910073301990265
 30
0.0
 10
10.28589155443917
 20
-6.928511809027596
 30
0.0
 10
10.38250766443205
 20
-6.935747180365937
 30
0.0
 10
10.58170941052053
 20
-6.946704422141268
 30
0.0
 10
10.68455574131211
 20
-6.950509985122834
 30
0.0
 10
10.89687217421501
 20
-6.955565712422583
 30
0.0
 10
11.00640988693602
 20
-6.956780038114331
 30
0.0
 10
11.11430368305843
 20
-6.956785233221206
 30
0.0
  0
SPLINE
  5
2E6
330
1F
100
AcDbEntity
  8
SK3
  6
SLD-Dashed
370
    18
100
AcDbSpline
210
0.0
220
0.0
230
1.0
 70
     8
 71
     3
 72
    30
 73
    26
 74
     0
 42
0.000000001
 43
0.00000001
 40
0.4999999999999997
 40
0.4999999999999997
 40
0.4999999999999997
 40
0.4999999999999997
 40
0.5624999999999999
 40
0.5624999999999999
 40
0.625
 40
0.625
 40
0.65625
 40
0.65625
 40
0.6875
 40
0.6875
 40
0.71875
 40
0.71875
 40
0.7499999999999999
 40
0.7499999999999999
 40
0.7812500000000001
 40
0.7812500000000001
 40
0.8125000000000003
 40
0.8125000000000003
 40
0.8750000000000002
 40
0.8750000000000002
 40
0.9375
 40
0.9375
 40
0.96875
 40
0.96875
 40
1.0
 40
1.0
 40
1.0
 40
1.0
 10
11.76979658556572
 20
-17.89232296268975
 30
0.0
 10
11.91246294966129
 20
-17.67070440556975
 30
0.0
 10
12.04384136644408
 20
-17.43839527667697
 30
0.0
 10
12.28743240561785
 20
-16.9748303196765
 30
0.0
 10
12.40074037094358
 20
-16.74140211064308
 30
0.0
 10
12.55447570845297
 20
-16.39375558576602
 30
0.0
 10
12.60138543677659
 20
-16.28170289315486
 30
0.0
 10
12.68295201157339
 20
-16.0698977888558
 30
0.0
 10
12.71817196931758
 20
-15.96819079433431
 30
0.0
 10
12.76213654526592
 20
-15.80428414547201
 30
0.0
 10
12.77026091463634
 20
-15.74311791179766
 30
0.0
 10
12.75239776164137
 20
-15.6835350762214
 30
0.0
 10
12.72724833739214
 20
-15.6852383443289
 30
0.0
 10
12.65908666407786
 20
-15.72953787216991
 30
0.0
 10
12.61568164729128
 20
-15.7718799393592
 30
0.0
 10
12.52100924552239
 20
-15.87679896563816
 30
0.0
 10
12.46941331137413
 20
-15.93961580200764
 30
0.0
 10
12.30490621332257
 20
-16.14822680602848
 30
0.0
 10
12.18517846713213
 20
-16.31053867976722
 30
0.0
 10
11.92983731616862
 20
-16.65147882946562
 30
0.0
 10
11.79267665531761
 20
-16.83353639743864
 30
0.0
 10
11.56451158979957
 20
-17.10544293868931
 30
0.0
 10
11.48485276967109
 20
-17.19558760882548
 30
0.0
 10
11.31258630900465
 20
-17.37124855765229
 30
0.0
 10
11.2190626905103
 20
-17.45771014988547
 30
0.0
 10
11.11499999999996
 20
-17.53689645447304
 30
0.0
  0
SPLINE
  5
2E7
330
1F
100
AcDbEntity
  8
SK3
  6
SLD-Dashed
370
    18
100
AcDbSpline
210
0.0
220
0.0
230
1.0
 70
     8
 71
     3
 72
    34
 73
    30
 74
     0
 42
0.000000001
 43
0.00000001
 40
0.0
 40
0.0
 40
0.0
 40
0.0
 40
0.03125
 40
0.03125
 40
0.0625
 40
0.0625
 40
0.0937499999999999
 40
0.0937499999999999
 40
0.1249999999999999
 40
0.1249999999999999
 40
0.1562499999999999
 40
0.1562499999999999
 40
0.1874999999999999
 40
0.1874999999999999
 40
0.2499999999999998
 40
0.2499999999999998
 40
0.3124999999999998
 40
0.3124999999999998
 40
0.3437499999999998
 40
0.3437499999999998
 40
0.3749999999999998
 40
0.3749999999999998
 40
0.4062499999999997
 40
0.4062499999999997
 40
0.4374999999999997
 40
0.4374999999999997
 40
0.4687499999999997
 40
0.4687499999999997
 40
0.4999999999999997
 40
0.4999999999999997
 40
0.4999999999999997
 40
0.4999999999999997
 10
11.11499999999999
 20
-17.53689645447306
 30
0.0
 10
11.01093730948961
 20
-17.6160827590606
 30
0.0
 10
10.8982724014305
 20
-17.68568655045025
 30
0.0
 10
10.65524603173766
 20
-17.79707922957896
 30
0.0
 10
10.53100003630449
 20
-17.83608132712158
 30
0.0
 10
10.29040472633827
 20
-17.89479374448356
 30
0.0
 10
10.17852991293555
 20
-17.91436206658049
 30
0.0
 10
9.971641719228304
 20
-17.9522855825237
 30
0.0
 10
9.880140211756078
 20
-17.96985838929497
 30
0.0
 10
9.72047963292878
 20
-18.01190468167741
 30
0.0
 10
9.65364023184223
 20
-18.03603027826311
 30
0.0
 10
9.549145986449401
 20
-18.0937342151621
 30
0.0
 10
9.510668589618186
 20
-18.12800625055013
 30
0.0
 10
9.444144226770032
 20
-18.24422870024201
 30
0.0
 10
9.46357093464271
 20
-18.34292442278656
 30
0.0
 10
9.625438460184705
 20
-18.55480157919672
 30
0.0
 10
9.767910053168164
 20
-18.66930111395116
 30
0.0
 10
10.04867356462018
 20
-18.80341694907242
 30
0.0
 10
10.15222938652331
 20
-18.84139332547922
 30
0.0
 10
10.38092358660667
 20
-18.88914098662086
 30
0.0
 10
10.50285945052919
 20
-18.89754920765958
 30
0.0
 10
10.75142302172965
 20
-18.86243703960249
 30
0.0
 10
10.87148365715398
 20
-18.81899219989532
 30
0.0
 10
11.09561189675422
 20
-18.6885774051725
 30
0.0
 10
11.19522385975343
 20
-18.60587995809752
 30
0.0
 10
11.38076798793607
 20
-18.42116017956385
 30
0.0
 10
11.4655569433985
 20
-18.32003566241222
 30
0.0
 10
11.6241609189693
 20
-18.11140665073931
 30
0.0
 10
11.69846340351795
 20
-18.00313224124975
 30
0.0
 10
11.76979658556572
 20
-17.89232296268975
 30
0.0
  0
SPLINE
  5
2E8
330
1F
100
AcDbEntity
  8
SK3
  6
SLD-Dashed
370
    18
100
AcDbSpline
210
0.0
220
0.0
230
1.0
 70
     8
 71
     3
 72
    30
 73
    26
 74
     0
 42
0.000000001
 43
0.00000001
 40
0.4999999999999977
 40
0.4999999999999977
 40
0.4999999999999977
 40
0.4999999999999977
 40
0.5312499999999976
 40
0.5312499999999976
 40
0.5624999999999974
 40
0.5624999999999974
 40
0.6249999999999978
 40
0.6249999999999978
 40
0.6874999999999982
 40
0.6874999999999982
 40
0.7187499999999984
 40
0.7187499999999984
 40
0.7499999999999987
 40
0.7499999999999987
 40
0.7812499999999989
 40
0.7812499999999989
 40
0.8124999999999991
 40
0.8124999999999991
 40
0.8437499999999993
 40
0.8437499999999993
 40
0.8749999999999994
 40
0.8749999999999994
 40
0.9374999999999996
 40
0.9374999999999996
 40
1.0
 40
1.0
 40
1.0
 40
1.0
 10
9.543420299935407
 20
-22.65998997114813
 30
0.0
 10
9.578561233735378
 20
-22.56022716883099
 30
0.0
 10
9.622627266506992
 20
-22.44904839944532
 30
0.0
 10
9.718027024244986
 20
-22.2236780839706
 30
0.0
 10
9.770165859587745
 20
-22.10744453751686
 30
0.0
 10
9.9357271809314
 20
-21.75463004044462
 30
0.0
 10
10.05462982796809
 20
-21.52064448601665
 30
0.0
 10
10.31081948707684
 20
-21.0588380163739
 30
0.0
 10
10.44840974433157
 20
-20.82955805298788
 30
0.0
 10
10.67777322328789
 20
-20.50643317375554
 30
0.0
 10
10.7587109791655
 20
-20.40152870512313
 30
0.0
 10
10.93364535127567
 20
-20.20556086715295
 30
0.0
 10
11.02698337642651
 20
-20.11488201047908
 30
0.0
 10
11.23604536410173
 20
-19.96052893895906
 30
0.0
 10
11.35057343779472
 20
-19.89926443941835
 30
0.0
 10
11.59480302461462
 20
-19.828076337675
 30
0.0
 10
11.71945599477355
 20
-19.81958662546977
 30
0.0
 10
11.95950363931199
 20
-19.84303817835688
 30
0.0
 10
12.07031700587895
 20
-19.87318242107357
 30
0.0
 10
12.27422745067751
 20
-19.9520634975628
 30
0.0
 10
12.36502701179837
 20
-20.00025605676591
 30
0.0
 10
12.59959907667484
 20
-20.15399503516338
 30
0.0
 10
12.70444177032676
 20
-20.26792332503298
 30
0.0
 10
12.78609851062194
 20
-20.46801773808177
 30
0.0
 10
12.7632053424574
 20
-20.55399411581357
 30
0.0
 10
12.67730763443394
 20
-20.61935781184683
 30
0.0
  0
SPLINE
  5
2E9
330
1F
100
AcDbEntity
  8
SK3
  6
SLD-Dashed
370
    18
100
AcDbSpline
210
0.0
220
0.0
230
1.0
 70
     8
 71
     3
 72
    34
 73
    30
 74
     0
 42
0.000000001
 43
0.00000001
 40
0.0
 40
0.0
 40
0.0
 40
0.0
 40
0.0312499999999997
 40
0.0312499999999997
 40
0.0624999999999993
 40
0.0624999999999993
 40
0.093749999999999
 40
0.093749999999999
 40
0.1249999999999986
 40
0.1249999999999986
 40
0.1562499999999983
 40
0.1562499999999983
 40
0.1874999999999979
 40
0.1874999999999979
 40
0.2499999999999978
 40
0.2499999999999978
 40
0.3124999999999976
 40
0.3124999999999976
 40
0.3437499999999977
 40
0.3437499999999977
 40
0.3749999999999978
 40
0.3749999999999978
 40
0.4062499999999979
 40
0.4062499999999979
 40
0.4374999999999978
 40
0.4374999999999978
 40
0.4687499999999978
 40
0.4687499999999978
 40
0.4999999999999977
 40
0.4999999999999977
 40
0.4999999999999977
 40
0.4999999999999977
 10
12.67730763443392
 20
-20.61935781184684
 30
0.0
 10
12.63435878042221
 20
-20.65203965986347
 30
0.0
 10
12.57729529856069
 20
-20.67893166493472
 30
0.0
 10
12.43603808962702
 20
-20.72541543980046
 30
0.0
 10
12.35095491427451
 20
-20.74490836916305
 30
0.0
 10
12.16118186397776
 20
-20.78180696819735
 30
0.0
 10
12.05422579636496
 20
-20.79954830523241
 30
0.0
 10
11.82324491388442
 20
-20.84734178875047
 30
0.0
 10
11.69889439480559
 20
-20.87807405413512
 30
0.0
 10
11.45304455248944
 20
-20.9690841785975
 30
0.0
 10
11.33231684279028
 20
-21.03008950406161
 30
0.0
 10
11.1124542635167
 20
-21.17497279059741
 30
0.0
 10
11.01315393168728
 20
-21.25735513703286
 30
0.0
 10
10.73767466537662
 20
-21.5168703042206
 30
0.0
 10
10.58689176004735
 20
-21.69912075795286
 30
0.0
 10
10.30357248622245
 20
-22.0572557390756
 30
0.0
 10
10.1728647649037
 20
-22.23420714395774
 30
0.0
 10
9.991005005593607
 20
-22.47743384821165
 30
0.0
 10
9.932635222666256
 20
-22.55514665472535
 30
0.0
 10
9.82040480561043
 20
-22.70089934625716
 30
0.0
 10
9.76606035310057
 20
-22.7695737764045
 30
0.0
 10
9.665448853514322
 20
-22.88873427842826
 30
0.0
 10
9.619326797725689
 20
-22.93921098612149
 30
0.0
 10
9.539388536729351
 20
-23.01052916562901
 30
0.0
 10
9.505665766297286
 20
-23.03089302097996
 30
0.0
 10
9.465224495380092
 20
-23.01585114589004
 30
0.0
 10
9.459739461343569
 20
-22.97888962661065
 30
0.0
 10
9.48158525523378
 20
-22.84998128766082
 30
0.0
 10
9.508279366135422
 20
-22.75975277346527
 30
0.0
 10
9.543420299935407
 20
-22.65998997114813
 30
0.0
  0
ELLIPSE
  5
2EA
330
1F
100
AcDbEntity
  8
SK3
  6
SLD-Dashed
370
    18
100
AcDbEllipse
 10
6.0521267237
 20
23.2104077334
 30
0.0
 11
3.098580671678202
 21
0.0
 31
0.0
210
0.0
220
0.0
230
1.0
 40
0.2152402503
 41
6.163596669273421
 42
6.402773945087426
  0
INSERT
  5
2EB
330
1F
100
AcDbEntity
  8
81
100
AcDbBlockReference
  2
Block11
 10
-28.6264826505
 20
-130.2676275275
 30
0.0
  0
INSERT
  5
2EC
330
1F
100
AcDbEntity
  8
80
100
AcDbBlockReference
  2
Block12
 10
-61.7273641656
 20
-130.3356800267
 30
0.0
  0
DIMENSION
  5
2ED
330
1F
100
AcDbEntity
  8
SK2
100
AcDbDimension
  2
_D
 10
19.05
 20
38.8518727343
 30
0.0
 11
9.4085980562
 21
38.8518727343
 31
0.0
 70
   160
  1
<>
 71
     2
 42
-1.0
  3
SLDDIMSTYLE0
100
AcDbAlignedDimension
 13
0.0
 23
22.225
 33
0.0
 14
19.05
 24
31.0
 34
0.0
100
AcDbRotatedDimension
  0
DIMENSION
  5
2F9
330
1F
100
AcDbEntity
  8
SK2
100
AcDbDimension
  2
_D_1
 10
19.05
 20
38.8518727343
 30
0.0
 11
40.5516377672
 21
38.8518727343
 31
0.0
 70
   160
  1
<>
 71
     2
 42
-1.0
  3
SLDDIMSTYLE0
100
AcDbAlignedDimension
 13
63.0
 23
16.4944465005
 33
0.0
 14
19.05
 24
31.0
 34
0.0
100
AcDbRotatedDimension
  0
DIMENSION
  5
303
330
1F
100
AcDbEntity
  8
2
100
AcDbDimension
  2
_D_2
 10
63.0
 20
47.7949753541
 30
0.0
 11
33.2919426994
 21
47.7949753541
 31
0.0
 70
   160
  1
<>
 71
     2
 42
-1.0
  3
SLDDIMSTYLE0
100
AcDbAlignedDimension
 13
0.0
 23
22.225
 33
0.0
 14
63.0
 24
16.4944465005
 34
0.0
100
AcDbRotatedDimension
  0
DIMENSION
  5
30D
330
1F
100
AcDbEntity
  8
SK2
100
AcDbDimension
  2
_D_3
 10
50.0
 20
30.1191960586
 30
0.0
 11
56.0179446507
 21
30.1191960586
 31
0.0
 70
   160
  1
<>
 71
     2
 42
-1.0
  3
SLDDIMSTYLE0
100
AcDbAlignedDimension
 13
63.0
 23
16.4944465005
 33
0.0
 14
50.0
 24
24.0
 34
0.0
100
AcDbRotatedDimension
  0
DIMENSION
  5
317
330
1F
100
AcDbEntity
  8
SK2
100
AcDbDimension
  2
_D_4
 10
100.7882554261
 20
24.0
 30
0.0
 11
100.7882554261
 21
-0.4977787924
 31
0.0
 70
   160
  1
%%c<>
 71
     2
 42
-1.0
  3
SLDDIMSTYLE0
100
AcDbAlignedDimension
 13
50.0
 23
-24.0
 33
0.0
 14
50.0
 24
24.0
 34
0.0
 50
90.0
100
AcDbRotatedDimension
  0
DIMENSION
  5
322
330
1F
100
AcDbEntity
  8
SK2
100
AcDbDimension
  2
_D_5
 10
90.3646860385
 20
16.4944465005
 30
0.0
 11
90.3646860385
 21
-0.4977787924
 31
0.0
 70
   160
  1
%%c<>
 71
     2
 42
-1.0
  3
SLDDIMSTYLE0
100
AcDbAlignedDimension
 13
63.0
 23
-16.4944465005
 33
0.0
 14
63.0
 24
16.4944465005
 34
0.0
 50
90.0
100
AcDbRotatedDimension
  0
DIMENSION
  5
32D
330
1F
100
AcDbEntity
  8
SK2
100
AcDbDimension
  2
_D_6
 10
81.4943139495
 20
8.0
 30
0.0
 11
81.4943139495
 21
-0.4977787924
 31
0.0
 70
   160
  1
%%c<>
 71
     2
 42
-1.0
  3
SLDDIMSTYLE0
100
AcDbAlignedDimension
 13
62.0
 23
-8.0
 33
0.0
 14
62.0
 24
8.0
 34
0.0
 50
90.0
100
AcDbRotatedDimension
  0
DIMENSION
  5
338
330
1F
100
AcDbEntity
  8
SK2
100
AcDbDimension
  2
_D_7
 10
39.0
 20
-32.7834383606
 30
0.0
 11
51.0951581382
 21
-32.7834383606
 31
0.0
 70
   160
  1
<>
 71
     2
 42
-1.0
  3
SLDDIMSTYLE0
100
AcDbAlignedDimension
 13
63.0
 23
-16.4944465005
 33
0.0
 14
39.0
 24
-24.5472080632
 34
0.0
100
AcDbRotatedDimension
  0
DIMENSION
  5
342
330
1F
100
AcDbEntity
  8
SK2
100
AcDbDimension
  2
_D_8
 10
63.0
 20
-42.5642137478
 30
0.0
 11
40.5516377672
 21
-42.5642137478
 31
0.0
 70
   160
  1
<>
 71
     2
 42
-1.0
  3
SLDDIMSTYLE0
100
AcDbAlignedDimension
 13
17.0
 23
-8.0
 33
0.0
 14
63.0
 24
-16.4944465005
 34
0.0
100
AcDbRotatedDimension
  0
DIMENSION
  5
34C
330
1F
100
AcDbEntity
  8
SK2
100
AcDbDimension
  2
_D_9
 10
-85.1206094866
 20
22.225
 30
0.0
 11
-85.1206094866
 21
0.3965403996
 31
0.0
 70
   160
  1
%%c<>
 71
     2
 42
-1.0
  3
SLDDIMSTYLE0
100
AcDbAlignedDimension
 13
0.0
 23
-22.225
 33
0.0
 14
0.0
 24
22.225
 34
0.0
 50
90.0
100
AcDbRotatedDimension
  0
DIMENSION
  5
357
330
1F
100
AcDbEntity
  8
SK2
100
AcDbDimension
  2
_D_10
 10
-76.0753814539
 20
8.00000038
 30
0.0
 11
-76.0753814539
 21
0.3965403996
 31
0.0
 70
   160
  1
M<>
 71
     2
 42
-1.0
  3
SLDDIMSTYLE1
100
AcDbAlignedDimension
 13
-57.2881214321
 23
-8.00000038
 33
0.0
 14
-57.2881214321
 24
8.00000038
 34
0.0
 50
90.0
100
AcDbRotatedDimension
  0
DIMENSION
  5
365
330
1F
100
AcDbEntity
  8
SK2
100
AcDbDimension
  2
_D_11
 10
-95.7049356935
 20
-31.75
 30
0.0
 11
-95.7049356935
 21
0.3965403996
 31
0.0
 70
   160
  1
%%c<>
 71
     2
 42
-1.0
  3
SLDDIMSTYLE0
100
AcDbAlignedDimension
 13
3.95
 23
31.75
 33
0.0
 14
3.95
 24
-31.75
 34
0.0
 50
90.0
100
AcDbRotatedDimension
  0
MTEXT
  5
370
330
1F
100
AcDbEntity
  8
SK6
 62
     5
100
AcDbMText
 10
-67.3227636094
 20
-39.078171081
 30
0.0
 40
3.5
 41
0.0
 71
     1
 72
     1
  1
A1B20-40 16 063
  7
SLDTEXTSTYLE0
 73
     1
 44
1.0
  0
INSERT
  5
376
330
1F
100
AcDbEntity
  8
SK6
 62
     5
100
AcDbBlockReference
  2
SW_NOTE_0
 10
-36.1204587414
 20
26.6614733685
 30
0.0
  0
ENDSEC
  0
SECTION
  2
OBJECTS
  0
DICTIONARY
  5
C
330
0
100
AcDbDictionary
281
     1
  3
ACAD_GROUP
350
D
  3
ACAD_LAYOUT
350
1A
  3
ACAD_MLINESTYLE
350
17
  3
ACAD_PLOTSETTINGS
350
19
  3
ACAD_PLOTSTYLENAME
350
E
  3
ACAD_SCALELIST
350
47
  0
DICTIONARY
  5
D
102
{ACAD_REACTORS
330
C
102
}
330
C
100
AcDbDictionary
281
     1
  0
DICTIONARY
  5
1A
102
{ACAD_REACTORS
330
C
102
}
330
C
100
AcDbDictionary
281
     1
  3
Layout1
350
1E
  3
Layout2
350
26
  3
Model
350
22
  0
DICTIONARY
  5
17
102
{ACAD_REACTORS
330
C
102
}
330
C
100
AcDbDictionary
281
     1
  3
Standard
350
18
  0
DICTIONARY
  5
19
102
{ACAD_REACTORS
330
C
102
}
330
C
100
AcDbDictionary
281
     1
  0
ACDBDICTIONARYWDFLT
  5
E
102
{ACAD_REACTORS
330
C
102
}
330
C
100
AcDbDictionary
281
     1
  3
Normal
350
F
100
AcDbDictionaryWithDefault
340
F
  0
DICTIONARY
  5
47
102
{ACAD_REACTORS
330
C
102
}
330
C
100
AcDbDictionary
281
     1
  3
A0
350
48
  3
A1
350
49
  3
A2
350
4A
  3
A3
350
4B
  3
A4
350
4C
  3
A5
350
4D
  3
A6
350
4E
  3
A7
350
4F
  3
A8
350
50
  3
A9
350
51
  3
B0
350
52
  3
B1
350
53
  3
B2
350
54
  3
B3
350
55
  3
B4
350
56
  3
B5
350
57
  3
B6
350
58
  3
B7
350
59
  3
B8
350
5A
  3
B9
350
5B
  3
C0
350
5C
  3
C1
350
5D
  3
C2
350
5E
  3
C3
350
5F
  3
C4
350
60
  3
C5
350
61
  3
C6
350
62
  3
C7
350
63
  3
C8
350
64
  3
C9
350
65
  3
D0
350
66
  3
D1
350
67
  3
D2
350
68
  0
LAYOUT
  5
1E
102
{ACAD_REACTORS
330
1A
102
}
330
1A
100
AcDbPlotSettings
  1

  2
none_device
  4

  6

 40
0.0
 41
0.0
 42
0.0
 43
0.0
 44
0.0
 45
0.0
 46
0.0
 47
0.0
 48
0.0
 49
0.0
140
0.0
141
0.0
142
1.0
143
1.0
 70
   688
 72
     1
 73
     0
 74
     5
  7

 75
    16
147
1.0
148
0.0
149
0.0
100
AcDbLayout
  1
Layout1
 70
     1
 71
     1
 10
0.0
 20
0.0
 11
420.0
 21
297.0
 12
0.0
 22
0.0
 32
0.0
 14
1.0000000000E+20
 24
1.0000000000E+20
 34
1.0000000000E+20
 15
-1.0000000000E+20
 25
-1.0000000000E+20
 35
-1.0000000000E+20
146
0.0
 13
0.0
 23
0.0
 33
0.0
 16
1.0
 26
0.0
 36
0.0
 17
0.0
 27
1.0
 37
0.0
 76
     0
330
1B
  0
LAYOUT
  5
26
102
{ACAD_REACTORS
330
1A
102
}
330
1A
100
AcDbPlotSettings
  1

  2
none_device
  4

  6

 40
0.0
 41
0.0
 42
0.0
 43
0.0
 44
0.0
 45
0.0
 46
0.0
 47
0.0
 48
0.0
 49
0.0
140
0.0
141
0.0
142
1.0
143
1.0
 70
   688
 72
     1
 73
     0
 74
     5
  7

 75
    16
147
1.0
148
0.0
149
0.0
100
AcDbLayout
  1
Layout2
 70
     1
 71
     2
 10
0.0
 20
0.0
 11
0.0
 21
0.0
 12
0.0
 22
0.0
 32
0.0
 14
0.0
 24
0.0
 34
0.0
 15
0.0
 25
0.0
 35
0.0
146
0.0
 13
0.0
 23
0.0
 33
0.0
 16
1.0
 26
0.0
 36
0.0
 17
0.0
 27
1.0
 37
0.0
 76
     0
330
23
  0
LAYOUT
  5
22
102
{ACAD_REACTORS
330
1A
102
}
330
1A
100
AcDbPlotSettings
  1

  2
none_device
  4
Letter_(8.50_x_11.00_Inches)
  6

 40
6.35
 41
6.35
 42
6.35000508
 43
6.35000508
 44
215.9
 45
279.4
 46
0.0
 47
0.0
 48
0.0
 49
0.0
140
0.0
141
0.0
142
1.0
143
1.0
 70
  1712
 72
     1
 73
     0
 74
     0
  7

 75
     0
147
1.0
148
0.0
149
0.0
100
AcDbLayout
  1
Model
 70
     1
 71
     0
 10
0.0
 20
0.0
 11
297.0
 21
210.0
 12
0.0
 22
0.0
 32
0.0
 14
0.0
 24
0.0
 34
0.0
 15
297.0
 25
210.0
 35
0.0
146
0.0
 13
0.0
 23
0.0
 33
0.0
 16
1.0
 26
0.0
 36
0.0
 17
0.0
 27
1.0
 37
0.0
 76
     0
330
1F
331
29
  0
MLINESTYLE
  5
18
102
{ACAD_REACTORS
330
17
102
}
330
17
100
AcDbMlineStyle
  2
Standard
 70
     0
  3

 62
   256
 51
90.0
 52
90.0
 71
     2
 49
0.5
 62
   256
  6
BYLAYER
 49
-0.5
 62
   256
  6
BYLAYER
  0
ACDBPLACEHOLDER
  5
F
102
{ACAD_REACTORS
330
E
102
}
330
E
  0
SCALE
  5
48
102
{ACAD_REACTORS
330
47
102
}
330
47
100
AcDbScale
 70
     0
300
1:1
140
1.0
141
1.0
290
     1
  0
SCALE
  5
49
102
{ACAD_REACTORS
330
47
102
}
330
47
100
AcDbScale
 70
     0
300
1:2
140
1.0
141
2.0
290
     0
  0
SCALE
  5
4A
102
{ACAD_REACTORS
330
47
102
}
330
47
100
AcDbScale
 70
     0
300
1:4
140
1.0
141
4.0
290
     0
  0
SCALE
  5
4B
102
{ACAD_REACTORS
330
47
102
}
330
47
100
AcDbScale
 70
     0
300
1:5
140
1.0
141
5.0
290
     0
  0
SCALE
  5
4C
102
{ACAD_REACTORS
330
47
102
}
330
47
100
AcDbScale
 70
     0
300
1:8
140
1.0
141
8.0
290
     0
  0
SCALE
  5
4D
102
{ACAD_REACTORS
330
47
102
}
330
47
100
AcDbScale
 70
     0
300
1:10
140
1.0
141
10.0
290
     0
  0
SCALE
  5
4E
102
{ACAD_REACTORS
330
47
102
}
330
47
100
AcDbScale
 70
     0
300
1:16
140
1.0
141
16.0
290
     0
  0
SCALE
  5
4F
102
{ACAD_REACTORS
330
47
102
}
330
47
100
AcDbScale
 70
     0
300
1:20
140
1.0
141
20.0
290
     0
  0
SCALE
  5
50
102
{ACAD_REACTORS
330
47
102
}
330
47
100
AcDbScale
 70
     0
300
1:30
140
1.0
141
30.0
290
     0
  0
SCALE
  5
51
102
{ACAD_REACTORS
330
47
102
}
330
47
100
AcDbScale
 70
     0
300
1:40
140
1.0
141
40.0
290
     0
  0
SCALE
  5
52
102
{ACAD_REACTORS
330
47
102
}
330
47
100
AcDbScale
 70
     0
300
1:50
140
1.0
141
50.0
290
     0
  0
SCALE
  5
53
102
{ACAD_REACTORS
330
47
102
}
330
47
100
AcDbScale
 70
     0
300
1:100
140
1.0
141
100.0
290
     0
  0
SCALE
  5
54
102
{ACAD_REACTORS
330
47
102
}
330
47
100
AcDbScale
 70
     0
300
2:1
140
2.0
141
1.0
290
     0
  0
SCALE
  5
55
102
{ACAD_REACTORS
330
47
102
}
330
47
100
AcDbScale
 70
     0
300
4:1
140
4.0
141
1.0
290
     0
  0
SCALE
  5
56
102
{ACAD_REACTORS
330
47
102
}
330
47
100
AcDbScale
 70
     0
300
8:1
140
8.0
141
1.0
290
     0
  0
SCALE
  5
57
102
{ACAD_REACTORS
330
47
102
}
330
47
100
AcDbScale
 70
     0
300
10:1
140
10.0
141
1.0
290
     0
  0
SCALE
  5
58
102
{ACAD_REACTORS
330
47
102
}
330
47
100
AcDbScale
 70
     0
300
100:1
140
100.0
141
1.0
290
     0
  0
SCALE
  5
59
102
{ACAD_REACTORS
330
47
102
}
330
47
100
AcDbScale
 70
     0
300
1/128" = 1'-0"
140
0.0078125
141
12.0
290
     0
  0
SCALE
  5
5A
102
{ACAD_REACTORS
330
47
102
}
330
47
100
AcDbScale
 70
     0
300
1/64" = 1'-0"
140
0.015625
141
12.0
290
     0
  0
SCALE
  5
5B
102
{ACAD_REACTORS
330
47
102
}
330
47
100
AcDbScale
 70
     0
300
1/32" = 1'-0"
140
0.03125
141
12.0
290
     0
  0
SCALE
  5
5C
102
{ACAD_REACTORS
330
47
102
}
330
47
100
AcDbScale
 70
     0
300
1/16" = 1'-0"
140
0.0625
141
12.0
290
     0
  0
SCALE
  5
5D
102
{ACAD_REACTORS
330
47
102
}
330
47
100
AcDbScale
 70
     0
300
3/32" = 1'-0"
140
0.09375
141
12.0
290
     0
  0
SCALE
  5
5E
102
{ACAD_REACTORS
330
47
102
}
330
47
100
AcDbScale
 70
     0
300
1/8" = 1'-0"
140
0.125
141
12.0
290
     0
  0
SCALE
  5
5F
102
{ACAD_REACTORS
330
47
102
}
330
47
100
AcDbScale
 70
     0
300
3/16" = 1'-0"
140
0.1875
141
12.0
290
     0
  0
SCALE
  5
60
102
{ACAD_REACTORS
330
47
102
}
330
47
100
AcDbScale
 70
     0
300
1/4" = 1'-0"
140
0.25
141
12.0
290
     0
  0
SCALE
  5
61
102
{ACAD_REACTORS
330
47
102
}
330
47
100
AcDbScale
 70
     0
300
3/8" = 1'-0"
140
0.375
141
12.0
290
     0
  0
SCALE
  5
62
102
{ACAD_REACTORS
330
47
102
}
330
47
100
AcDbScale
 70
     0
300
1/2" = 1'-0"
140
0.5
141
12.0
290
     0
  0
SCALE
  5
63
102
{ACAD_REACTORS
330
47
102
}
330
47
100
AcDbScale
 70
     0
300
3/4" = 1'-0"
140
0.75
141
12.0
290
     0
  0
SCALE
  5
64
102
{ACAD_REACTORS
330
47
102
}
330
47
100
AcDbScale
 70
     0
300
1" = 1'-0"
140
1.0
141
12.0
290
     0
  0
SCALE
  5
65
102
{ACAD_REACTORS
330
47
102
}
330
47
100
AcDbScale
 70
     0
300
1-1/2" = 1'-0"
140
1.5
141
12.0
290
     0
  0
SCALE
  5
66
102
{ACAD_REACTORS
330
47
102
}
330
47
100
AcDbScale
 70
     0
300
3" = 1'-0"
140
3.0
141
12.0
290
     0
  0
SCALE
  5
67
102
{ACAD_REACTORS
330
47
102
}
330
47
100
AcDbScale
 70
     0
300
6" = 1'-0"
140
6.0
141
12.0
290
     0
  0
SCALE
  5
68
102
{ACAD_REACTORS
330
47
102
}
330
47
100
AcDbScale
 70
     0
300
1'-0" = 1'-0"
140
12.0
141
12.0
290
     0
  0
ENDSEC
  0
EOF
