  0
SECTION
  2
HEADER
  9
$ACADVER
  1
AC1015
  9
$ACADMAINTVER
 70
     6
  9
$DWGCODEPAGE
  3
ANSI_1250
  9
$INSBASE
 10
0.0
 20
0.0
 30
0.0
  9
$EXTMIN
 10
0.0
 20
0.0
 30
0.0
  9
$EXTMAX
 10
297.0
 20
210.0
 30
0.0
  9
$LIMMIN
 10
0.0
 20
0.0
  9
$LIMMAX
 10
297.0
 20
210.0
  9
$ORTHOMODE
 70
     0
  9
$REGENMODE
 70
     1
  9
$FILLMODE
 70
     1
  9
$QTEXTMODE
 70
     0
  9
$MIRRTEXT
 70
     1
  9
$LTSCALE
 40
1.0
  9
$ATTMODE
 70
     1
  9
$TEXTSIZE
 40
3.5
  9
$TRACEWID
 40
1.0
  9
$TEXTSTYLE
  7
Standard
  9
$CLAYER
  8
0
  9
$CELTYPE
  6
ByLayer
  9
$CECOLOR
 62
   256
  9
$CELTSCALE
 40
1.0
  9
$DISPSILH
 70
     0
  9
$DIMSCALE
 40
1.0
  9
$DIMASZ
 40
3.302
  9
$DIMEXO
 40
1.0
  9
$DIMDLI
 40
3.75
  9
$DIMRND
 40
0.0
  9
$DIMDLE
 40
0.0
  9
$DIMEXE
 40
1.0
  9
$DIMTP
 40
0.0
  9
$DIMTM
 40
0.0
  9
$DIMTXT
 40
3.5
  9
$DIMCEN
 40
2.5
  9
$DIMTSZ
 40
0.0
  9
$DIMTOL
 70
     0
  9
$DIMLIM
 70
     0
  9
$DIMTIH
 70
     1
  9
$DIMTOH
 70
     1
  9
$DIMSE1
 70
     0
  9
$DIMSE2
 70
     0
  9
$DIMTAD
 70
     1
  9
$DIMZIN
 70
     0
  9
$DIMBLK
  1

  9
$DIMASO
 70
     1
  9
$DIMSHO
 70
     1
  9
$DIMPOST
  1

  9
$DIMAPOST
  1

  9
$DIMALT
 70
     0
  9
$DIMALTD
 70
     3
  9
$DIMALTF
 40
0.0393700787
  9
$DIMLFAC
 40
1.0
  9
$DIMTOFL
 70
     1
  9
$DIMTVP
 40
0.0
  9
$DIMTIX
 70
     0
  9
$DIMSOXD
 70
     0
  9
$DIMSAH
 70
     0
  9
$DIMBLK1
  1

  9
$DIMBLK2
  1

  9
$DIMSTYLE
  2
ISO-25
  9
$DIMCLRD
 70
     0
  9
$DIMCLRE
 70
     0
  9
$DIMCLRT
 70
     0
  9
$DIMTFAC
 40
1.0
  9
$DIMGAP
 40
1.524
  9
$DIMJUST
 70
     0
  9
$DIMSD1
 70
     0
  9
$DIMSD2
 70
     0
  9
$DIMTOLJ
 70
     0
  9
$DIMTZIN
 70
     0
  9
$DIMALTZ
 70
     0
  9
$DIMALTTZ
 70
     0
  9
$DIMUPT
 70
     0
  9
$DIMDEC
 70
     2
  9
$DIMTDEC
 70
     2
  9
$DIMALTU
 70
     2
  9
$DIMALTTD
 70
     3
  9
$DIMTXSTY
  7
Standard
  9
$DIMAUNIT
 70
     0
  9
$DIMADEC
 70
     2
  9
$DIMALTRND
 40
0.0
  9
$DIMAZIN
 70
     0
  9
$DIMDSEP
 70
    44
  9
$DIMATFIT
 70
     3
  9
$DIMFRAC
 70
     0
  9
$DIMLDRBLK
  1

  9
$DIMLUNIT
 70
     2
  9
$DIMLWD
 70
    -2
  9
$DIMLWE
 70
    -2
  9
$DIMTMOVE
 70
     0
  9
$LUNITS
 70
     2
  9
$LUPREC
 70
     2
  9
$SKETCHINC
 40
1.0
  9
$FILLETRAD
 40
10.0
  9
$AUNITS
 70
     0
  9
$AUPREC
 70
     2
  9
$MENU
  1
.
  9
$ELEVATION
 40
0.0
  9
$PELEVATION
 40
0.0
  9
$THICKNESS
 40
0.0
  9
$LIMCHECK
 70
     0
  9
$CHAMFERA
 40
0.0
  9
$CHAMFERB
 40
0.0
  9
$CHAMFERC
 40
0.0
  9
$CHAMFERD
 40
0.0
  9
$SKPOLY
 70
     0
  9
$TDCREATE
 40
2459290.497213831
  9
$TDUCREATE
 40
2459290.455547164
  9
$TDUPDATE
 40
2459290.497215162
  9
$TDUUPDATE
 40
2459290.455548496
  9
$TDINDWG
 40
0.0000000116
  9
$TDUSRTIMER
 40
0.0000000116
  9
$USRTIMER
 70
     1
  9
$ANGBASE
 50
0.0
  9
$ANGDIR
 70
     0
  9
$PDMODE
 70
     0
  9
$PDSIZE
 40
-1.0
  9
$PLINEWID
 40
0.0
  9
$SPLFRAME
 70
     0
  9
$SPLINETYPE
 70
     6
  9
$SPLINESEGS
 70
     8
  9
$HANDSEED
  5
350
  9
$SURFTAB1
 70
     6
  9
$SURFTAB2
 70
     6
  9
$SURFTYPE
 70
     6
  9
$SURFU
 70
     6
  9
$SURFV
 70
     6
  9
$UCSBASE
  2

  9
$UCSNAME
  2

  9
$UCSORG
 10
0.0
 20
0.0
 30
0.0
  9
$UCSXDIR
 10
1.0
 20
0.0
 30
0.0
  9
$UCSYDIR
 10
0.0
 20
1.0
 30
0.0
  9
$UCSORTHOREF
  2

  9
$UCSORTHOVIEW
 70
     0
  9
$UCSORGTOP
 10
0.0
 20
0.0
 30
0.0
  9
$UCSORGBOTTOM
 10
0.0
 20
0.0
 30
0.0
  9
$UCSORGLEFT
 10
0.0
 20
0.0
 30
0.0
  9
$UCSORGRIGHT
 10
0.0
 20
0.0
 30
0.0
  9
$UCSORGFRONT
 10
0.0
 20
0.0
 30
0.0
  9
$UCSORGBACK
 10
0.0
 20
0.0
 30
0.0
  9
$PUCSBASE
  2

  9
$PUCSNAME
  2

  9
$PUCSORG
 10
0.0
 20
0.0
 30
0.0
  9
$PUCSXDIR
 10
1.0
 20
0.0
 30
0.0
  9
$PUCSYDIR
 10
0.0
 20
1.0
 30
0.0
  9
$PUCSORTHOREF
  2

  9
$PUCSORTHOVIEW
 70
     0
  9
$PUCSORGTOP
 10
0.0
 20
0.0
 30
0.0
  9
$PUCSORGBOTTOM
 10
0.0
 20
0.0
 30
0.0
  9
$PUCSORGLEFT
 10
0.0
 20
0.0
 30
0.0
  9
$PUCSORGRIGHT
 10
0.0
 20
0.0
 30
0.0
  9
$PUCSORGFRONT
 10
0.0
 20
0.0
 30
0.0
  9
$PUCSORGBACK
 10
0.0
 20
0.0
 30
0.0
  9
$USERI1
 70
     0
  9
$USERI2
 70
     0
  9
$USERI3
 70
     0
  9
$USERI4
 70
     0
  9
$USERI5
 70
     0
  9
$USERR1
 40
0.0
  9
$USERR2
 40
0.0
  9
$USERR3
 40
0.0
  9
$USERR4
 40
0.0
  9
$USERR5
 40
0.0
  9
$WORLDVIEW
 70
     1
  9
$SHADEDGE
 70
     3
  9
$SHADEDIF
 70
    70
  9
$TILEMODE
 70
     1
  9
$MAXACTVP
 70
    64
  9
$PINSBASE
 10
0.0
 20
0.0
 30
0.0
  9
$PLIMCHECK
 70
     0
  9
$PEXTMIN
 10
1.0000000000E+20
 20
1.0000000000E+20
 30
1.0000000000E+20
  9
$PEXTMAX
 10
-1.0000000000E+20
 20
-1.0000000000E+20
 30
-1.0000000000E+20
  9
$PLIMMIN
 10
0.0
 20
0.0
  9
$PLIMMAX
 10
420.0
 20
297.0
  9
$UNITMODE
 70
     0
  9
$VISRETAIN
 70
     1
  9
$PLINEGEN
 70
     0
  9
$PSLTSCALE
 70
     1
  9
$TREEDEPTH
 70
  3020
  9
$CMLSTYLE
  2
Standard
  9
$CMLJUST
 70
     0
  9
$CMLSCALE
 40
20.0
  9
$PROXYGRAPHICS
 70
     1
  9
$MEASUREMENT
 70
     1
  9
$CELWEIGHT
370
    -1
  9
$ENDCAPS
280
     0
  9
$JOINSTYLE
280
     0
  9
$LWDISPLAY
290
     1
  9
$INSUNITS
 70
     4
  9
$HYPERLINKBASE
  1

  9
$STYLESHEET
  1

  9
$XEDIT
290
     1
  9
$CEPSNTYPE
380
     0
  9
$PSTYLEMODE
290
     1
  9
$FINGERPRINTGUID
  2
{C77A88D3-0285-4948-8CB6-9B9DC5DE3613}
  9
$VERSIONGUID
  2
{FAEB1C32-E019-11D5-929B-00C0DF256EC4}
  9
$EXTNAMES
290
     1
  9
$PSVPSCALE
 40
0.0
  9
$OLESTARTUP
290
     0
  0
ENDSEC
  0
SECTION
  2
CLASSES
  0
CLASS
  1
ACDBDICTIONARYWDFLT
  2
AcDbDictionaryWithDefault
  3
ObjectDBX Classes
 90
        0
280
     0
281
     0
  0
CLASS
  1
VISUALSTYLE
  2
AcDbVisualStyle
  3
ObjectDBX Classes
 90
     4095
280
     0
281
     0
  0
CLASS
  1
MATERIAL
  2
AcDbMaterial
  3
ObjectDBX Classes
 90
     1153
280
     0
281
     0
  0
CLASS
  1
SCALE
  2
AcDbScale
  3
ObjectDBX Classes
 90
     1153
280
     0
281
     0
  0
CLASS
  1
TABLESTYLE
  2
AcDbTableStyle
  3
ObjectDBX Classes
 90
     4095
280
     0
281
     0
  0
CLASS
  1
MLEADERSTYLE
  2
AcDbMLeaderStyle
  3
ACDB_MLEADERSTYLE_CLASS
 90
     4095
280
     0
281
     0
  0
CLASS
  1
SUN
  2
AcDbSun
  3
SCENEOE
 90
     1153
280
     0
281
     0
  0
CLASS
  1
ACDBPLACEHOLDER
  2
AcDbPlaceHolder
  3
ObjectDBX Classes
 90
        0
280
     0
281
     0
  0
CLASS
  1
LAYOUT
  2
AcDbLayout
  3
ObjectDBX Classes
 90
        0
280
     0
281
     0
  0
ENDSEC
  0
SECTION
  2
TABLES
  0
TABLE
  2
VPORT
  5
8
330
0
100
AcDbSymbolTable
 70
     1
  0
VPORT
  5
29
330
8
100
AcDbSymbolTableRecord
100
AcDbViewportTableRecord
  2
*Active
 70
     0
 10
0.0
 20
0.0
 11
1.0
 21
1.0
 12
148.5
 22
105.0
 13
0.0
 23
0.0
 14
10.0
 24
10.0
 15
10.0
 25
10.0
 16
0.0
 26
0.0
 36
1.0
 17
0.0
 27
0.0
 37
0.0
 40
210.0
 41
1.4142857143
 42
50.0
 43
0.0
 44
0.0
 50
0.0
 51
0.0
 71
     0
 72
  2000
 73
     1
 74
     3
 75
     0
 76
     0
 77
     0
 78
     0
281
     0
 65
     1
110
0.0
120
0.0
130
0.0
111
1.0
121
0.0
131
0.0
112
0.0
122
1.0
132
0.0
 79
     0
146
0.0
  0
ENDTAB
  0
TABLE
  2
LTYPE
  5
5
330
0
100
AcDbSymbolTable
 70
     8
  0
LTYPE
  5
14
330
5
100
AcDbSymbolTableRecord
100
AcDbLinetypeTableRecord
  2
ByBlock
 70
     0
  3

 72
    65
 73
     0
 40
0.0
  0
LTYPE
  5
15
330
5
100
AcDbSymbolTableRecord
100
AcDbLinetypeTableRecord
  2
ByLayer
 70
     0
  3

 72
    65
 73
     0
 40
0.0
  0
LTYPE
  5
16
330
5
100
AcDbSymbolTableRecord
100
AcDbLinetypeTableRecord
  2
Continuous
 70
     0
  3
Solid line
 72
    65
 73
     0
 40
0.0
  0
LTYPE
  5
6E
330
5
100
AcDbSymbolTableRecord
100
AcDbLinetypeTableRecord
  2
SLD-Solid
 70
     0
  3
SolidWorks Line Style
 72
    65
 73
     0
 40
0.0
  0
LTYPE
  5
6F
330
5
100
AcDbSymbolTableRecord
100
AcDbLinetypeTableRecord
  2
SLD-Dashed
 70
     0
  3
SolidWorks Line Style
 72
    65
 73
     2
 40
1.905
 49
1.27
 74
     0
 49
-0.635
 74
     0
  0
LTYPE
  5
70
330
5
100
AcDbSymbolTableRecord
100
AcDbLinetypeTableRecord
  2
SLD-Phantom
 70
     0
  3
SolidWorks Line Style
 72
    65
 73
     6
 40
12.7
 49
6.35
 74
     0
 49
-1.27
 74
     0
 49
1.27
 74
     0
 49
-1.27
 74
     0
 49
1.27
 74
     0
 49
-1.27
 74
     0
  0
LTYPE
  5
71
330
5
100
AcDbSymbolTableRecord
100
AcDbLinetypeTableRecord
  2
SLD-Chain
 70
     0
  3
SolidWorks Line Style
 72
    65
 73
     4
 40
10.16
 49
6.35
 74
     0
 49
-1.27
 74
     0
 49
1.27
 74
     0
 49
-1.27
 74
     0
  0
LTYPE
  5
72
330
5
100
AcDbSymbolTableRecord
100
AcDbLinetypeTableRecord
  2
SLD-Center
 70
     0
  3
SolidWorks Line Style
 72
    65
 73
     4
 40
19.05
 49
15.24
 74
     0
 49
-1.27
 74
     0
 49
1.27
 74
     0
 49
-1.27
 74
     0
  0
LTYPE
  5
73
330
5
100
AcDbSymbolTableRecord
100
AcDbLinetypeTableRecord
  2
SLD-Stitch
 70
     0
  3
SolidWorks Line Style
 72
    65
 73
     2
 40
0.635
 49
0.0
 74
     0
 49
-0.635
 74
     0
  0
LTYPE
  5
74
330
5
100
AcDbSymbolTableRecord
100
AcDbLinetypeTableRecord
  2
SLD-Thin-Thick-Chain
 70
     0
  3
SolidWorks Line Style
 72
    65
 73
     4
 40
10.16
 49
6.35
 74
     0
 49
-1.27
 74
     0
 49
1.27
 74
     0
 49
-1.27
 74
     0
  0
ENDTAB
  0
TABLE
  2
LAYER
  5
2
330
0
100
AcDbSymbolTable
 70
    12
  0
LAYER
  5
10
330
2
100
AcDbSymbolTableRecord
100
AcDbLayerTableRecord
  2
0
 70
     0
 62
     7
  6
Continuous
370
    -3
390
F
  0
LAYER
  5
75
330
2
100
AcDbSymbolTableRecord
100
AcDbLayerTableRecord
  2
SLD-0
 70
     0
 62
   179
  6
SLD-Solid
370
    -3
390
F
  0
LAYER
  5
76
330
2
100
AcDbSymbolTableRecord
100
AcDbLayerTableRecord
  2
80
 70
     0
 62
    -6
  6
SLD-Solid
290
     0
370
    -3
390
F
  0
LAYER
  5
77
330
2
100
AcDbSymbolTableRecord
100
AcDbLayerTableRecord
  2
81
 70
     0
 62
    -3
  6
SLD-Solid
290
     0
370
    -3
390
F
  0
LAYER
  5
78
330
2
100
AcDbSymbolTableRecord
100
AcDbLayerTableRecord
  2
1
 70
     0
 62
     4
  6
SLD-Solid
290
     0
370
    -3
390
F
  0
LAYER
  5
79
330
2
100
AcDbSymbolTableRecord
100
AcDbLayerTableRecord
  2
4
 70
     0
 62
    -2
  6
SLD-Chain
290
     0
370
    -3
390
F
  0
LAYER
  5
7A
330
2
100
AcDbSymbolTableRecord
100
AcDbLayerTableRecord
  2
2
 70
     0
 62
     7
  6
SLD-Solid
290
     0
370
    -3
390
F
  0
LAYER
  5
7B
330
2
100
AcDbSymbolTableRecord
100
AcDbLayerTableRecord
  2
SK3
 70
     0
 62
     1
  6
SLD-Dashed
290
     0
370
    -3
390
F
  0
LAYER
  5
7C
330
2
100
AcDbSymbolTableRecord
100
AcDbLayerTableRecord
  2
SK4
 70
     0
 62
     2
  6
SLD-Chain
290
     0
370
    -3
390
F
  0
LAYER
  5
7D
330
2
100
AcDbSymbolTableRecord
100
AcDbLayerTableRecord
  2
SK2
 70
     0
 62
     7
  6
SLD-Solid
290
     0
370
    -3
390
F
  0
LAYER
  5
7E
330
2
100
AcDbSymbolTableRecord
100
AcDbLayerTableRecord
  2
SK6
 70
     0
 62
     5
  6
SLD-Solid
290
     0
370
    -3
390
F
  0
LAYER
  5
7F
330
2
100
AcDbSymbolTableRecord
100
AcDbLayerTableRecord
  2
SK1
 70
     0
 62
     4
  6
SLD-Solid
370
    -3
390
F
  0
ENDTAB
  0
TABLE
  2
STYLE
  5
3
330
0
100
AcDbSymbolTable
 70
     2
  0
STYLE
  5
11
330
3
100
AcDbSymbolTableRecord
100
AcDbTextStyleTableRecord
  2
Standard
 70
     0
 40
0.0
 41
1.0
 50
0.0
 71
     0
 42
3.5
  3
txt
  4

  0
STYLE
  5
2CA
330
3
100
AcDbSymbolTableRecord
100
AcDbTextStyleTableRecord
  2
SLDTEXTSTYLE0
 70
     0
 40
0.0
 41
0.75
 50
0.0
 71
     0
 42
3.5
  3
TXT
  4

  0
ENDTAB
  0
TABLE
  2
VIEW
  5
6
330
0
100
AcDbSymbolTable
 70
     0
  0
ENDTAB
  0
TABLE
  2
UCS
  5
7
330
0
100
AcDbSymbolTable
 70
     0
  0
ENDTAB
  0
TABLE
  2
APPID
  5
9
330
0
100
AcDbSymbolTable
 70
     1
  0
APPID
  5
12
330
9
100
AcDbSymbolTableRecord
100
AcDbRegAppTableRecord
  2
ACAD
 70
     0
  0
ENDTAB
  0
TABLE
  2
DIMSTYLE
  5
A
330
0
100
AcDbSymbolTable
 70
     2
100
AcDbDimStyleTable
  0
DIMSTYLE
105
27
330
A
100
AcDbSymbolTableRecord
100
AcDbDimStyleTableRecord
  2
ISO-25
 70
     0
 41
2.5
 42
0.625
 43
3.75
 44
1.25
 73
     0
 74
     0
 77
     1
 78
     8
140
2.5
141
2.5
143
0.0393700787
147
0.625
171
     3
172
     1
178
     0
271
     2
272
     2
274
     3
278
    44
283
     0
284
     8
340
11
  0
DIMSTYLE
105
2CB
102
{ACAD_REACTORS
330
2C9
330
2D5
330
2DF
330
2E9
330
2F3
330
2FE
330
309
330
314
330
31E
330
328
330
333
330
33E
102
}
330
A
100
AcDbSymbolTableRecord
100
AcDbDimStyleTableRecord
  2
SLDDIMSTYLE0
 70
     0
 41
3.302
 44
0.0
 45
0.000000001
 73
     0
 74
     0
 77
     1
 78
    12
 79
     3
140
3.5
147
0.875
173
     1
178
     0
271
     2
272
     2
276
     2
284
    12
340
2CA
  0
ENDTAB
  0
TABLE
  2
BLOCK_RECORD
  5
1
330
0
100
AcDbSymbolTable
 70
    16
  0
BLOCK_RECORD
  5
1F
330
1
100
AcDbSymbolTableRecord
100
AcDbBlockTableRecord
  2
*Model_Space
340
22
  0
BLOCK_RECORD
  5
1B
330
1
100
AcDbSymbolTableRecord
100
AcDbBlockTableRecord
  2
*Paper_Space
340
1E
  0
BLOCK_RECORD
  5
23
330
1
100
AcDbSymbolTableRecord
100
AcDbBlockTableRecord
  2
*Paper_Space0
340
26
  0
BLOCK_RECORD
  5
80
330
1
100
AcDbSymbolTableRecord
100
AcDbBlockTableRecord
  2
Block11
340
0
102
{BLKREFS
331
2C7
102
}
  0
BLOCK_RECORD
  5
89
330
1
100
AcDbSymbolTableRecord
100
AcDbBlockTableRecord
  2
Block12
340
0
102
{BLKREFS
331
2C8
102
}
  0
BLOCK_RECORD
  5
2CC
330
1
100
AcDbSymbolTableRecord
100
AcDbBlockTableRecord
  2
_D
340
0
  0
BLOCK_RECORD
  5
2D6
330
1
100
AcDbSymbolTableRecord
100
AcDbBlockTableRecord
  2
_D_1
340
0
  0
BLOCK_RECORD
  5
2E0
330
1
100
AcDbSymbolTableRecord
100
AcDbBlockTableRecord
  2
_D_2
340
0
  0
BLOCK_RECORD
  5
2EA
330
1
100
AcDbSymbolTableRecord
100
AcDbBlockTableRecord
  2
_D_3
340
0
  0
BLOCK_RECORD
  5
2F4
330
1
100
AcDbSymbolTableRecord
100
AcDbBlockTableRecord
  2
_D_4
340
0
  0
BLOCK_RECORD
  5
2FF
330
1
100
AcDbSymbolTableRecord
100
AcDbBlockTableRecord
  2
_D_5
340
0
  0
BLOCK_RECORD
  5
30A
330
1
100
AcDbSymbolTableRecord
100
AcDbBlockTableRecord
  2
_D_6
340
0
  0
BLOCK_RECORD
  5
315
330
1
100
AcDbSymbolTableRecord
100
AcDbBlockTableRecord
  2
_D_7
340
0
  0
BLOCK_RECORD
  5
31F
330
1
100
AcDbSymbolTableRecord
100
AcDbBlockTableRecord
  2
_D_8
340
0
  0
BLOCK_RECORD
  5
329
330
1
100
AcDbSymbolTableRecord
100
AcDbBlockTableRecord
  2
_D_9
340
0
  0
BLOCK_RECORD
  5
334
330
1
100
AcDbSymbolTableRecord
100
AcDbBlockTableRecord
  2
_D_10
340
0
  0
BLOCK_RECORD
  5
33F
330
1
100
AcDbSymbolTableRecord
100
AcDbBlockTableRecord
  2
_D_11
340
0
  0
BLOCK_RECORD
  5
34A
330
1
100
AcDbSymbolTableRecord
100
AcDbBlockTableRecord
  2
SW_NOTE_0
340
0
102
{BLKREFS
331
34F
102
}
  0
ENDTAB
  0
ENDSEC
  0
SECTION
  2
BLOCKS
  0
BLOCK
  5
20
330
1F
100
AcDbEntity
  8
0
100
AcDbBlockBegin
  2
*Model_Space
 70
     0
 10
0.0
 20
0.0
 30
0.0
  3
*Model_Space
  1

  0
ENDBLK
  5
21
330
1F
100
AcDbEntity
  8
0
100
AcDbBlockEnd
  0
BLOCK
  5
1C
330
1B
100
AcDbEntity
 67
     1
  8
0
100
AcDbBlockBegin
  2
*Paper_Space
 70
     0
 10
0.0
 20
0.0
 30
0.0
  3
*Paper_Space
  1

  0
ENDBLK
  5
1D
330
1B
100
AcDbEntity
 67
     1
  8
0
100
AcDbBlockEnd
  0
BLOCK
  5
24
330
23
100
AcDbEntity
  8
0
100
AcDbBlockBegin
  2
*Paper_Space0
 70
     0
 10
0.0
 20
0.0
 30
0.0
  3
*Paper_Space0
  1

  0
ENDBLK
  5
25
330
23
100
AcDbEntity
  8
0
100
AcDbBlockEnd
  0
BLOCK
  5
81
330
80
100
AcDbEntity
  8
0
100
AcDbBlockBegin
  2
Block11
 70
     0
 10
0.0
 20
0.0
 30
0.0
  3
Block11
  1

  0
CIRCLE
  5
83
330
80
100
AcDbEntity
  8
81
370
    18
100
AcDbCircle
 10
91.6264826505
 20
130.2676275275
 30
0.0
 40
2.499999999999981
  0
LINE
  5
84
330
80
100
AcDbEntity
  8
81
370
    18
100
AcDbLine
 10
91.6264826505
 20
130.2676275275
 30
0.0
 11
95.1620165565
 21
133.8031614334
 31
0.0
  0
LINE
  5
85
330
80
100
AcDbEntity
  8
81
370
    18
100
AcDbLine
 10
91.6264826505
 20
130.2676275275
 30
0.0
 11
88.0909487446
 21
126.7320936216
 31
0.0
  0
LINE
  5
86
330
80
100
AcDbEntity
  8
81
370
    18
100
AcDbLine
 10
91.6264826505
 20
130.2676275275
 30
0.0
 11
88.0909487446
 21
133.8031614334
 31
0.0
  0
LINE
  5
87
330
80
100
AcDbEntity
  8
81
100
AcDbLine
 10
91.6264826505
 20
130.2676275275
 30
0.0
 11
101.6264826505
 21
130.2676275275
 31
0.0
  0
LINE
  5
88
330
80
100
AcDbEntity
  8
81
370
    18
100
AcDbLine
 10
91.6264826505
 20
130.2676275275
 30
0.0
 11
95.1620165565
 21
126.7320936216
 31
0.0
  0
ENDBLK
  5
82
330
80
100
AcDbEntity
  8
0
100
AcDbBlockEnd
  0
BLOCK
  5
8A
330
89
100
AcDbEntity
  8
0
100
AcDbBlockBegin
  2
Block12
 70
     0
 10
0.0
 20
0.0
 30
0.0
  3
Block12
  1

  0
CIRCLE
  5
8C
330
89
100
AcDbEntity
  8
80
370
    18
100
AcDbCircle
 10
61.7273641656
 20
130.3356800267
 30
0.0
 40
2.500000000000004
  0
LINE
  5
8D
330
89
100
AcDbEntity
  8
80
370
    18
100
AcDbLine
 10
61.7273641656
 20
130.3356800267
 30
0.0
 11
65.2628980715
 21
133.8712139326
 31
0.0
  0
LINE
  5
8E
330
89
100
AcDbEntity
  8
80
370
    18
100
AcDbLine
 10
61.7273641656
 20
130.3356800267
 30
0.0
 11
58.1918302597
 21
126.8001461208
 31
0.0
  0
LINE
  5
8F
330
89
100
AcDbEntity
  8
80
370
    18
100
AcDbLine
 10
61.7273641656
 20
130.3356800267
 30
0.0
 11
58.1918302597
 21
133.8712139326
 31
0.0
  0
LINE
  5
90
330
89
100
AcDbEntity
  8
80
370
    18
100
AcDbLine
 10
61.7273641656
 20
130.3356800267
 30
0.0
 11
51.7273641656
 21
130.3356800267
 31
0.0
  0
LINE
  5
91
330
89
100
AcDbEntity
  8
80
370
    18
100
AcDbLine
 10
61.7273641656
 20
130.3356800267
 30
0.0
 11
65.2628980715
 21
126.8001461208
 31
0.0
  0
ENDBLK
  5
8B
330
89
100
AcDbEntity
  8
0
100
AcDbBlockEnd
  0
BLOCK
  5
2CD
330
2CC
100
AcDbEntity
  8
0
100
AcDbBlockBegin
  2
_D
 70
     0
 10
0.0
 20
0.0
 30
0.0
  3
_D
  1

  0
SOLID
  5
2CF
330
2CC
100
AcDbEntity
  8
SK2
100
AcDbTrace
 10
0.0
 20
39.3561530278
 30
0.0
 11
3.302
 21
38.8481530278
 31
0.0
 12
3.302
 22
39.8641530278
 32
0.0
 13
3.302
 23
39.8641530278
 33
0.0
  0
SOLID
  5
2D0
330
2CC
100
AcDbEntity
  8
SK2
100
AcDbTrace
 10
19.05
 20
39.3561530278
 30
0.0
 11
15.748
 21
39.8641530278
 31
0.0
 12
15.748
 22
38.8481530278
 32
0.0
 13
15.748
 23
38.8481530278
 33
0.0
  0
LINE
  5
2D1
330
2CC
100
AcDbEntity
  8
SK2
100
AcDbLine
 10
0.0
 20
23.225
 30
0.0
 11
0.0
 21
40.3561530278
 31
0.0
  0
LINE
  5
2D2
330
2CC
100
AcDbEntity
  8
SK2
100
AcDbLine
 10
19.05
 20
32.0
 30
0.0
 11
19.05
 21
40.3561530278
 31
0.0
  0
LINE
  5
2D3
330
2CC
100
AcDbEntity
  8
SK2
100
AcDbLine
 10
0.0
 20
39.3561530278
 30
0.0
 11
19.05
 21
39.3561530278
 31
0.0
  0
MTEXT
  5
2D4
330
2CC
100
AcDbEntity
  8
SK2
100
AcDbMText
 10
2.9064942986
 20
43.8678899424
 30
0.0
 40
3.5
 41
0.0
 71
     1
 72
     1
  1
19,05
  7
SLDTEXTSTYLE0
 73
     1
 44
1.0
  0
ENDBLK
  5
2CE
330
2CC
100
AcDbEntity
  8
0
100
AcDbBlockEnd
  0
BLOCK
  5
2D7
330
2D6
100
AcDbEntity
  8
0
100
AcDbBlockBegin
  2
_D_1
 70
     0
 10
0.0
 20
0.0
 30
0.0
  3
_D_1
  1

  0
SOLID
  5
2D9
330
2D6
100
AcDbEntity
  8
SK2
100
AcDbTrace
 10
19.05
 20
39.3561530278
 30
0.0
 11
22.352
 21
38.8481530278
 31
0.0
 12
22.352
 22
39.8641530278
 32
0.0
 13
22.352
 23
39.8641530278
 33
0.0
  0
SOLID
  5
2DA
330
2D6
100
AcDbEntity
  8
SK2
100
AcDbTrace
 10
50.0
 20
39.3561530278
 30
0.0
 11
46.698
 21
39.8641530278
 31
0.0
 12
46.698
 22
38.8481530278
 32
0.0
 13
46.698
 23
38.8481530278
 33
0.0
  0
LINE
  5
2DB
330
2D6
100
AcDbEntity
  8
SK2
100
AcDbLine
 10
19.05
 20
32.0
 30
0.0
 11
19.05
 21
40.3561530278
 31
0.0
  0
LINE
  5
2DC
330
2D6
100
AcDbEntity
  8
SK2
100
AcDbLine
 10
50.0
 20
8.6491470389
 30
0.0
 11
50.0
 21
40.3561530278
 31
0.0
  0
LINE
  5
2DD
330
2D6
100
AcDbEntity
  8
SK2
100
AcDbLine
 10
19.05
 20
39.3561530278
 30
0.0
 11
50.0
 21
39.3561530278
 31
0.0
  0
MTEXT
  5
2DE
330
2D6
100
AcDbEntity
  8
SK2
100
AcDbMText
 10
27.8091313744
 20
43.8678899424
 30
0.0
 40
3.5
 41
0.0
 71
     1
 72
     1
  1
30,95
  7
SLDTEXTSTYLE0
 73
     1
 44
1.0
  0
ENDBLK
  5
2D8
330
2D6
100
AcDbEntity
  8
0
100
AcDbBlockEnd
  0
BLOCK
  5
2E1
330
2E0
100
AcDbEntity
  8
0
100
AcDbBlockBegin
  2
_D_2
 70
     0
 10
0.0
 20
0.0
 30
0.0
  3
_D_2
  1

  0
SOLID
  5
2E3
330
2E0
100
AcDbEntity
  8
2
100
AcDbTrace
 10
50.0
 20
48.315458718
 30
0.0
 11
46.698
 21
48.823458718
 31
0.0
 12
46.698
 22
47.807458718
 32
0.0
 13
46.698
 23
47.807458718
 33
0.0
  0
SOLID
  5
2E4
330
2E0
100
AcDbEntity
  8
2
100
AcDbTrace
 10
0.0
 20
48.315458718
 30
0.0
 11
3.302
 21
47.807458718
 31
0.0
 12
3.302
 22
48.823458718
 32
0.0
 13
3.302
 23
48.823458718
 33
0.0
  0
LINE
  5
2E5
330
2E0
100
AcDbEntity
  8
2
100
AcDbLine
 10
50.0
 20
8.6491470389
 30
0.0
 11
50.0
 21
49.315458718
 31
0.0
  0
LINE
  5
2E6
330
2E0
100
AcDbEntity
  8
2
100
AcDbLine
 10
0.0
 20
23.225
 30
0.0
 11
0.0
 21
49.315458718
 31
0.0
  0
LINE
  5
2E7
330
2E0
100
AcDbEntity
  8
2
100
AcDbLine
 10
50.0
 20
48.315458718
 30
0.0
 11
0.0
 21
48.315458718
 31
0.0
  0
MTEXT
  5
2E8
330
2E0
100
AcDbEntity
  8
2
100
AcDbMText
 10
21.9413733061
 20
52.8271956325
 30
0.0
 40
3.5
 41
0.0
 71
     1
 72
     1
  1
50
  7
SLDTEXTSTYLE0
 73
     1
 44
1.0
  0
ENDBLK
  5
2E2
330
2E0
100
AcDbEntity
  8
0
100
AcDbBlockEnd
  0
BLOCK
  5
2EB
330
2EA
100
AcDbEntity
  8
0
100
AcDbBlockBegin
  2
_D_3
 70
     0
 10
0.0
 20
0.0
 30
0.0
  3
_D_3
  1

  0
SOLID
  5
2ED
330
2EA
100
AcDbEntity
  8
SK2
100
AcDbTrace
 10
50.0
 20
29.8324816249
 30
0.0
 11
46.698
 21
30.3404816249
 31
0.0
 12
46.698
 22
29.3244816249
 32
0.0
 13
46.698
 23
29.3244816249
 33
0.0
  0
SOLID
  5
2EE
330
2EA
100
AcDbEntity
  8
SK2
100
AcDbTrace
 10
39.0
 20
29.8324816249
 30
0.0
 11
42.302
 21
29.3244816249
 31
0.0
 12
42.302
 22
30.3404816249
 32
0.0
 13
42.302
 23
30.3404816249
 33
0.0
  0
LINE
  5
2EF
330
2EA
100
AcDbEntity
  8
SK2
100
AcDbLine
 10
50.0
 20
8.6491470389
 30
0.0
 11
50.0
 21
30.8324816249
 31
0.0
  0
LINE
  5
2F0
330
2EA
100
AcDbEntity
  8
SK2
100
AcDbLine
 10
39.0
 20
15.0
 30
0.0
 11
39.0
 21
30.8324816249
 31
0.0
  0
LINE
  5
2F1
330
2EA
100
AcDbEntity
  8
SK2
100
AcDbLine
 10
50.0
 20
29.8324816249
 30
0.0
 11
39.0
 21
29.8324816249
 31
0.0
  0
MTEXT
  5
2F2
330
2EA
100
AcDbEntity
  8
SK2
100
AcDbMText
 10
41.2708989683
 20
34.3442185395
 30
0.0
 40
3.5
 41
0.0
 71
     1
 72
     1
  1
11
  7
SLDTEXTSTYLE0
 73
     1
 44
1.0
  0
ENDBLK
  5
2EC
330
2EA
100
AcDbEntity
  8
0
100
AcDbBlockEnd
  0
BLOCK
  5
2F5
330
2F4
100
AcDbEntity
  8
0
100
AcDbBlockBegin
  2
_D_4
 70
     0
 10
0.0
 20
0.0
 30
0.0
  3
_D_4
  1

  0
SOLID
  5
2F7
330
2F4
100
AcDbEntity
  8
SK2
100
AcDbTrace
 10
84.7902785093
 20
-14.0
 30
0.0
 11
85.2982785093
 21
-10.698
 31
0.0
 12
84.2822785093
 22
-10.698
 32
0.0
 13
84.2822785093
 23
-10.698
 33
0.0
  0
SOLID
  5
2F8
330
2F4
100
AcDbEntity
  8
SK2
100
AcDbTrace
 10
84.7902785093
 20
14.0
 30
0.0
 11
84.2822785093
 21
10.698
 31
0.0
 12
85.2982785093
 22
10.698
 32
0.0
 13
85.2982785093
 23
10.698
 33
0.0
  0
LINE
  5
2F9
330
2F4
100
AcDbEntity
  8
SK2
100
AcDbLine
 10
40.0
 20
-14.0
 30
0.0
 11
85.7902785093
 21
-14.0
 31
0.0
  0
LINE
  5
2FA
330
2F4
100
AcDbEntity
  8
SK2
100
AcDbLine
 10
40.0
 20
14.0
 30
0.0
 11
85.7902785093
 21
14.0
 31
0.0
  0
LINE
  5
2FB
330
2F4
100
AcDbEntity
  8
SK2
100
AcDbLine
 10
84.7902785093
 20
-14.0
 30
0.0
 11
84.7902785093
 21
14.0
 31
0.0
  0
MTEXT
  5
2FC
330
2F4
100
AcDbEntity
  8
SK2
100
AcDbMText
 10
80.2785414201
 20
-6.0557229371
 30
0.0
 40
3.5
 41
0.0
 71
     1
 72
     1
  1
%%c
  7
SLDTEXTSTYLE0
 11
6.123233995736766E-17
 21
1.0
 31
0.0
 73
     1
 44
1.0
  0
MTEXT
  5
2FD
330
2F4
100
AcDbEntity
  8
SK2
100
AcDbMText
 10
80.2250692435
 20
-0.7772855387
 30
0.0
 40
3.5
 41
0.0
 71
     1
 72
     1
  1
28
  7
SLDTEXTSTYLE0
 11
6.123233995736766E-17
 21
1.0
 31
0.0
 73
     1
 44
1.0
  0
ENDBLK
  5
2F6
330
2F4
100
AcDbEntity
  8
0
100
AcDbBlockEnd
  0
BLOCK
  5
300
330
2FF
100
AcDbEntity
  8
0
100
AcDbBlockBegin
  2
_D_5
 70
     0
 10
0.0
 20
0.0
 30
0.0
  3
_D_5
  1

  0
SOLID
  5
302
330
2FF
100
AcDbEntity
  8
SK2
100
AcDbTrace
 10
74.1704830019
 20
-7.6491470389
 30
0.0
 11
74.6784830019
 21
-4.3471470389
 31
0.0
 12
73.6624830019
 22
-4.3471470389
 32
0.0
 13
73.6624830019
 23
-4.3471470389
 33
0.0
  0
SOLID
  5
303
330
2FF
100
AcDbEntity
  8
SK2
100
AcDbTrace
 10
74.1704830019
 20
7.6491470389
 30
0.0
 11
73.6624830019
 21
4.3471470389
 31
0.0
 12
74.6784830019
 22
4.3471470389
 32
0.0
 13
74.6784830019
 23
4.3471470389
 33
0.0
  0
LINE
  5
304
330
2FF
100
AcDbEntity
  8
SK2
100
AcDbLine
 10
51.0
 20
-7.6491470389
 30
0.0
 11
75.1704830019
 21
-7.6491470389
 31
0.0
  0
LINE
  5
305
330
2FF
100
AcDbEntity
  8
SK2
100
AcDbLine
 10
51.0
 20
7.6491470389
 30
0.0
 11
75.1704830019
 21
7.6491470389
 31
0.0
  0
LINE
  5
306
330
2FF
100
AcDbEntity
  8
SK2
100
AcDbLine
 10
74.1704830019
 20
-7.6491470389
 30
0.0
 11
74.1704830019
 21
7.6491470389
 31
0.0
  0
MTEXT
  5
307
330
2FF
100
AcDbEntity
  8
SK2
100
AcDbMText
 10
69.6587459127
 20
-7.9953065068
 30
0.0
 40
3.5
 41
0.0
 71
     1
 72
     1
  1
%%c
  7
SLDTEXTSTYLE0
 11
6.123233995736766E-17
 21
1.0
 31
0.0
 73
     1
 44
1.0
  0
MTEXT
  5
308
330
2FF
100
AcDbEntity
  8
SK2
100
AcDbMText
 10
69.6052737361
 20
-2.7168691085
 30
0.0
 40
3.5
 41
0.0
 71
     1
 72
     1
  1
15,3
  7
SLDTEXTSTYLE0
 11
6.123233995736766E-17
 21
1.0
 31
0.0
 73
     1
 44
1.0
  0
ENDBLK
  5
301
330
2FF
100
AcDbEntity
  8
0
100
AcDbBlockEnd
  0
BLOCK
  5
30B
330
30A
100
AcDbEntity
  8
0
100
AcDbBlockBegin
  2
_D_6
 70
     0
 10
0.0
 20
0.0
 30
0.0
  3
_D_6
  1

  0
SOLID
  5
30D
330
30A
100
AcDbEntity
  8
SK2
100
AcDbTrace
 10
64.4867413835
 20
-4.0
 30
0.0
 11
64.9947413835
 21
-0.698
 31
0.0
 12
63.9787413835
 22
-0.698
 32
0.0
 13
63.9787413835
 23
-0.698
 33
0.0
  0
SOLID
  5
30E
330
30A
100
AcDbEntity
  8
SK2
100
AcDbTrace
 10
64.4867413835
 20
4.0
 30
0.0
 11
63.9787413835
 21
0.698
 31
0.0
 12
64.9947413835
 22
0.698
 32
0.0
 13
64.9947413835
 23
0.698
 33
0.0
  0
LINE
  5
30F
330
30A
100
AcDbEntity
  8
SK2
100
AcDbLine
 10
50.0
 20
-4.0
 30
0.0
 11
65.4867413835
 21
-4.0
 31
0.0
  0
LINE
  5
310
330
30A
100
AcDbEntity
  8
SK2
100
AcDbLine
 10
50.0
 20
4.0
 30
0.0
 11
65.4867413835
 21
4.0
 31
0.0
  0
LINE
  5
311
330
30A
100
AcDbEntity
  8
SK2
100
AcDbLine
 10
64.4867413835
 20
-4.0
 30
0.0
 11
64.4867413835
 21
4.0
 31
0.0
  0
MTEXT
  5
312
330
30A
100
AcDbEntity
  8
SK2
100
AcDbMText
 10
59.9750042943
 20
-4.4468628641
 30
0.0
 40
3.5
 41
0.0
 71
     1
 72
     1
  1
%%c
  7
SLDTEXTSTYLE0
 11
5.053215498074303E-16
 21
1.0
 31
0.0
 73
     1
 44
1.0
  0
MTEXT
  5
313
330
30A
100
AcDbEntity
  8
SK2
100
AcDbMText
 10
59.9215321177
 20
0.8315745342
 30
0.0
 40
3.5
 41
0.0
 71
     1
 72
     1
  1
8
  7
SLDTEXTSTYLE0
 11
5.053215498074303E-16
 21
1.0
 31
0.0
 73
     1
 44
1.0
  0
ENDBLK
  5
30C
330
30A
100
AcDbEntity
  8
0
100
AcDbBlockEnd
  0
BLOCK
  5
316
330
315
100
AcDbEntity
  8
0
100
AcDbBlockBegin
  2
_D_7
 70
     0
 10
0.0
 20
0.0
 30
0.0
  3
_D_7
  1

  0
SOLID
  5
318
330
315
100
AcDbEntity
  8
SK2
100
AcDbTrace
 10
50.0
 20
-23.2586876719
 30
0.0
 11
46.698
 21
-22.7506876719
 31
0.0
 12
46.698
 22
-23.7666876719
 32
0.0
 13
46.698
 23
-23.7666876719
 33
0.0
  0
SOLID
  5
319
330
315
100
AcDbEntity
  8
SK2
100
AcDbTrace
 10
32.0
 20
-23.2586876719
 30
0.0
 11
35.302
 21
-23.7666876719
 31
0.0
 12
35.302
 22
-22.7506876719
 32
0.0
 13
35.302
 23
-22.7506876719
 33
0.0
  0
LINE
  5
31A
330
315
100
AcDbEntity
  8
SK2
100
AcDbLine
 10
50.0
 20
-8.6491470389
 30
0.0
 11
50.0
 21
-24.2586876719
 31
0.0
  0
LINE
  5
31B
330
315
100
AcDbEntity
  8
SK2
100
AcDbLine
 10
32.0
 20
-15.7
 30
0.0
 11
32.0
 21
-24.2586876719
 31
0.0
  0
LINE
  5
31C
330
315
100
AcDbEntity
  8
SK2
100
AcDbLine
 10
50.0
 20
-23.2586876719
 30
0.0
 11
32.0
 21
-23.2586876719
 31
0.0
  0
MTEXT
  5
31D
330
315
100
AcDbEntity
  8
SK2
100
AcDbMText
 10
38.2923270177
 20
-18.7469507573
 30
0.0
 40
3.5
 41
0.0
 71
     1
 72
     1
  1
18
  7
SLDTEXTSTYLE0
 73
     1
 44
1.0
  0
ENDBLK
  5
317
330
315
100
AcDbEntity
  8
0
100
AcDbBlockEnd
  0
BLOCK
  5
320
330
31F
100
AcDbEntity
  8
0
100
AcDbBlockBegin
  2
_D_8
 70
     0
 10
0.0
 20
0.0
 30
0.0
  3
_D_8
  1

  0
SOLID
  5
322
330
31F
100
AcDbEntity
  8
SK2
100
AcDbTrace
 10
50.0
 20
-39.2834136342
 30
0.0
 11
46.698
 21
-38.7754136342
 31
0.0
 12
46.698
 22
-39.7914136342
 32
0.0
 13
46.698
 23
-39.7914136342
 33
0.0
  0
SOLID
  5
323
330
31F
100
AcDbEntity
  8
SK2
100
AcDbTrace
 10
15.5525818571
 20
-39.2834136342
 30
0.0
 11
18.8545818571
 21
-39.7914136342
 31
0.0
 12
18.8545818571
 22
-38.7754136342
 32
0.0
 13
18.8545818571
 23
-38.7754136342
 33
0.0
  0
LINE
  5
324
330
31F
100
AcDbEntity
  8
SK2
100
AcDbLine
 10
50.0
 20
-8.6491470389
 30
0.0
 11
50.0
 21
-40.2834136342
 31
0.0
  0
LINE
  5
325
330
31F
100
AcDbEntity
  8
SK2
100
AcDbLine
 10
15.5525818571
 20
-5.0
 30
0.0
 11
15.5525818571
 21
-40.2834136342
 31
0.0
  0
LINE
  5
326
330
31F
100
AcDbEntity
  8
SK2
100
AcDbLine
 10
50.0
 20
-39.2834136342
 30
0.0
 11
15.5525818571
 21
-39.2834136342
 31
0.0
  0
MTEXT
  5
327
330
31F
100
AcDbEntity
  8
SK2
100
AcDbMText
 10
27.8091313744
 20
-34.7716767196
 30
0.0
 40
3.5
 41
0.0
 71
     1
 72
     1
  1
34,45
  7
SLDTEXTSTYLE0
 73
     1
 44
1.0
  0
ENDBLK
  5
321
330
31F
100
AcDbEntity
  8
0
100
AcDbBlockEnd
  0
BLOCK
  5
32A
330
329
100
AcDbEntity
  8
0
100
AcDbBlockBegin
  2
_D_9
 70
     0
 10
0.0
 20
0.0
 30
0.0
  3
_D_9
  1

  0
SOLID
  5
32C
330
329
100
AcDbEntity
  8
SK2
100
AcDbTrace
 10
-95.6567456709
 20
31.75
 30
0.0
 11
-96.1647456709
 21
28.448
 31
0.0
 12
-95.1487456709
 22
28.448
 32
0.0
 13
-95.1487456709
 23
28.448
 33
0.0
  0
SOLID
  5
32D
330
329
100
AcDbEntity
  8
SK2
100
AcDbTrace
 10
-95.6567456709
 20
-31.75
 30
0.0
 11
-95.1487456709
 21
-28.448
 31
0.0
 12
-96.1647456709
 22
-28.448
 32
0.0
 13
-96.1647456709
 23
-28.448
 33
0.0
  0
LINE
  5
32E
330
329
100
AcDbEntity
  8
SK2
100
AcDbLine
 10
2.95
 20
31.75
 30
0.0
 11
-96.6567456709
 21
31.75
 31
0.0
  0
LINE
  5
32F
330
329
100
AcDbEntity
  8
SK2
100
AcDbLine
 10
2.95
 20
-31.75
 30
0.0
 11
-96.6567456709
 21
-31.75
 31
0.0
  0
LINE
  5
330
330
329
100
AcDbEntity
  8
SK2
100
AcDbLine
 10
-95.6567456709
 20
31.75
 30
0.0
 11
-95.6567456709
 21
-31.75
 31
0.0
  0
MTEXT
  5
331
330
329
100
AcDbEntity
  8
SK2
100
AcDbMText
 10
-100.1684827601
 20
-7.6795021471
 30
0.0
 40
3.5
 41
0.0
 71
     1
 72
     1
  1
%%c
  7
SLDTEXTSTYLE0
 11
-7.044195017643634E-15
 21
1.0
 31
0.0
 73
     1
 44
1.0
  0
MTEXT
  5
332
330
329
100
AcDbEntity
  8
SK2
100
AcDbMText
 10
-100.2219549368
 20
-2.4010647487
 30
0.0
 40
3.5
 41
0.0
 71
     1
 72
     1
  1
63,5
  7
SLDTEXTSTYLE0
 11
-7.044195017643634E-15
 21
1.0
 31
0.0
 73
     1
 44
1.0
  0
ENDBLK
  5
32B
330
329
100
AcDbEntity
  8
0
100
AcDbBlockEnd
  0
BLOCK
  5
335
330
334
100
AcDbEntity
  8
0
100
AcDbBlockBegin
  2
_D_10
 70
     0
 10
0.0
 20
0.0
 30
0.0
  3
_D_10
  1

  0
SOLID
  5
337
330
334
100
AcDbEntity
  8
SK2
100
AcDbTrace
 10
-85.232929376
 20
-22.225
 30
0.0
 11
-84.724929376
 21
-18.923
 31
0.0
 12
-85.740929376
 22
-18.923
 32
0.0
 13
-85.740929376
 23
-18.923
 33
0.0
  0
SOLID
  5
338
330
334
100
AcDbEntity
  8
SK2
100
AcDbTrace
 10
-85.232929376
 20
22.225
 30
0.0
 11
-85.740929376
 21
18.923
 31
0.0
 12
-84.724929376
 22
18.923
 32
0.0
 13
-84.724929376
 23
18.923
 33
0.0
  0
LINE
  5
339
330
334
100
AcDbEntity
  8
SK2
100
AcDbLine
 10
-1.0
 20
-22.225
 30
0.0
 11
-86.232929376
 21
-22.225
 31
0.0
  0
LINE
  5
33A
330
334
100
AcDbEntity
  8
SK2
100
AcDbLine
 10
-1.0
 20
22.225
 30
0.0
 11
-86.232929376
 21
22.225
 31
0.0
  0
LINE
  5
33B
330
334
100
AcDbEntity
  8
SK2
100
AcDbLine
 10
-85.232929376
 20
-22.225
 30
0.0
 11
-85.232929376
 21
22.225
 31
0.0
  0
MTEXT
  5
33C
330
334
100
AcDbEntity
  8
SK2
100
AcDbMText
 10
-89.7446664652
 20
-8.9725573946
 30
0.0
 40
3.5
 41
0.0
 71
     1
 72
     1
  1
%%c
  7
SLDTEXTSTYLE0
 11
6.123233995736766E-17
 21
1.0
 31
0.0
 73
     1
 44
1.0
  0
MTEXT
  5
33D
330
334
100
AcDbEntity
  8
SK2
100
AcDbMText
 10
-89.7981386419
 20
-3.6941199962
 30
0.0
 40
3.5
 41
0.0
 71
     1
 72
     1
  1
44,45
  7
SLDTEXTSTYLE0
 11
6.123233995736766E-17
 21
1.0
 31
0.0
 73
     1
 44
1.0
  0
ENDBLK
  5
336
330
334
100
AcDbEntity
  8
0
100
AcDbBlockEnd
  0
BLOCK
  5
340
330
33F
100
AcDbEntity
  8
0
100
AcDbBlockBegin
  2
_D_11
 70
     0
 10
0.0
 20
0.0
 30
0.0
  3
_D_11
  1

  0
SOLID
  5
342
330
33F
100
AcDbEntity
  8
SK2
100
AcDbTrace
 10
-75.4298756959
 20
-8.00000038
 30
0.0
 11
-74.9218756959
 21
-4.69800038
 31
0.0
 12
-75.9378756959
 22
-4.69800038
 32
0.0
 13
-75.9378756959
 23
-4.69800038
 33
0.0
  0
SOLID
  5
343
330
33F
100
AcDbEntity
  8
SK2
100
AcDbTrace
 10
-75.4298756959
 20
8.00000038
 30
0.0
 11
-75.9378756959
 21
4.69800038
 31
0.0
 12
-74.9218756959
 22
4.69800038
 32
0.0
 13
-74.9218756959
 23
4.69800038
 33
0.0
  0
LINE
  5
344
330
33F
100
AcDbEntity
  8
SK2
100
AcDbLine
 10
-58.2881214321
 20
-8.00000038
 30
0.0
 11
-76.4298756959
 21
-8.00000038
 31
0.0
  0
LINE
  5
345
330
33F
100
AcDbEntity
  8
SK2
100
AcDbLine
 10
-58.2881214321
 20
8.00000038
 30
0.0
 11
-76.4298756959
 21
8.00000038
 31
0.0
  0
LINE
  5
346
330
33F
100
AcDbEntity
  8
SK2
100
AcDbLine
 10
-75.4298756959
 20
-8.00000038
 30
0.0
 11
-75.4298756959
 21
8.00000038
 31
0.0
  0
MTEXT
  5
347
330
33F
100
AcDbEntity
  8
SK2
100
AcDbMText
 10
-79.9416126104
 20
-4.1968762634
 30
0.0
 40
3.5
 41
0.0
 71
     1
 72
     1
  1
M
  7
SLDTEXTSTYLE0
 11
3.391901413832837E-15
 21
1.0
 31
0.0
 73
     1
 44
1.0
  0
MTEXT
  5
348
330
33F
100
AcDbEntity
  8
SK2
100
AcDbMText
 10
-79.9416126104
 20
0.090623671
 30
0.0
 40
3.5
 41
0.0
 71
     1
 72
     1
  1
16
  7
SLDTEXTSTYLE0
 11
3.391901413832837E-15
 21
1.0
 31
0.0
 73
     1
 44
1.0
  0
ENDBLK
  5
341
330
33F
100
AcDbEntity
  8
0
100
AcDbBlockEnd
  0
BLOCK
  5
34B
330
34A
100
AcDbEntity
  8
0
100
AcDbBlockBegin
  2
SW_NOTE_0
 70
     0
 10
0.0
 20
0.0
 30
0.0
  3
SW_NOTE_0
  1

  0
MTEXT
  5
34D
330
34A
100
AcDbEntity
  8
SK6
 62
     0
100
AcDbMText
 10
0.0
 20
4.5117370892
 30
0.0
 40
3.5
 41
0.0
 71
     1
 72
     1
  1
TAPER ISO 40
  7
SLDTEXTSTYLE0
 73
     1
 44
1.0
  0
MTEXT
  5
34E
330
34A
100
AcDbEntity
  8
SK6
 62
     0
100
AcDbMText
 10
0.0
 20
-0.0139574413
 30
0.0
 40
3.5
 41
0.0
 71
     1
 72
     1
  1
DIN 69871-AD/B
  7
SLDTEXTSTYLE0
 73
     1
 44
1.0
  0
ENDBLK
  5
34C
330
34A
100
AcDbEntity
  8
0
100
AcDbBlockEnd
  0
ENDSEC
  0
SECTION
  2
ENTITIES
  0
LINE
  5
92
330
1F
100
AcDbEntity
  8
1
  6
SLD-Solid
370
    25
100
AcDbLine
 10
7.5931633579
 20
31.75
 30
0.0
 11
3.95
 21
31.75
 31
0.0
  0
LINE
  5
93
330
1F
100
AcDbEntity
  8
1
  6
SLD-Solid
370
    25
100
AcDbLine
 10
18.3
 20
31.75
 30
0.0
 11
14.6368366421
 21
31.75
 31
0.0
  0
LINE
  5
94
330
1F
100
AcDbEntity
  8
1
  6
SLD-Solid
370
    25
100
AcDbLine
 10
14.6368366421
 20
31.75
 30
0.0
 11
13.03
 21
28.9668772965
 31
0.0
  0
LINE
  5
95
330
1F
100
AcDbEntity
  8
1
  6
SLD-Solid
370
    25
100
AcDbLine
 10
9.2
 20
28.9668772965
 30
0.0
 11
7.5931633579
 21
31.75
 31
0.0
  0
LINE
  5
96
330
1F
100
AcDbEntity
  8
1
  6
SLD-Solid
370
    25
100
AcDbLine
 10
1.8869952227
 20
-22.225
 30
0.0
 11
2.1330363037
 21
-22.1102691597
 31
0.0
  0
LINE
  5
97
330
1F
100
AcDbEntity
  8
1
  6
SLD-Solid
370
    25
100
AcDbLine
 10
2.1330363037
 20
22.1102691597
 30
0.0
 11
1.8869952227
 21
22.225
 31
0.0
  0
LINE
  5
98
330
1F
100
AcDbEntity
  8
1
  6
SLD-Solid
370
    25
100
AcDbLine
 10
0.0
 20
-22.225
 30
0.0
 11
1.8869952227
 21
-22.225
 31
0.0
  0
LINE
  5
99
330
1F
100
AcDbEntity
  8
1
  6
SLD-Solid
370
    25
100
AcDbLine
 10
1.8869952227
 20
22.225
 30
0.0
 11
0.0
 21
22.225
 31
0.0
  0
LINE
  5
9A
330
1F
100
AcDbEntity
  8
SK1
  6
SLD-Solid
370
    25
100
AcDbLine
 10
0.0
 20
22.225
 30
0.0
 11
-67.3943082273
 21
12.3965705827
 31
0.0
  0
LINE
  5
9B
330
1F
100
AcDbEntity
  8
SK1
  6
SLD-Solid
370
    25
100
AcDbLine
 10
-67.3943082273
 20
-12.3965705827
 30
0.0
 11
0.0
 21
-22.225
 31
0.0
  0
LINE
  5
9C
330
1F
100
AcDbEntity
  8
1
  6
SLD-Solid
370
    25
100
AcDbLine
 10
3.95
 20
-31.75
 30
0.0
 11
7.5931633579
 21
-31.75
 31
0.0
  0
LINE
  5
9D
330
1F
100
AcDbEntity
  8
1
  6
SLD-Solid
370
    25
100
AcDbLine
 10
14.6368366421
 20
-31.75
 30
0.0
 11
18.3
 21
-31.75
 31
0.0
  0
LINE
  5
9E
330
1F
100
AcDbEntity
  8
1
  6
SLD-Solid
370
    25
100
AcDbLine
 10
9.95
 20
-28.0
 30
0.0
 11
12.28
 21
-28.0
 31
0.0
  0
LINE
  5
9F
330
1F
100
AcDbEntity
  8
1
  6
SLD-Solid
370
    25
100
AcDbLine
 10
13.03
 20
-28.9668772965
 30
0.0
 11
14.6368366421
 21
-31.75
 31
0.0
  0
LINE
  5
A0
330
1F
100
AcDbEntity
  8
1
  6
SLD-Solid
370
    25
100
AcDbLine
 10
7.5931633579
 20
-31.75
 30
0.0
 11
9.2
 21
-28.9668772965
 31
0.0
  0
LINE
  5
A1
330
1F
100
AcDbEntity
  8
1
  6
SLD-Solid
370
    25
100
AcDbLine
 10
37.1
 20
-14.0
 30
0.0
 11
39.0
 21
-14.0
 31
0.0
  0
LINE
  5
A2
330
1F
100
AcDbEntity
  8
1
  6
SLD-Solid
370
    25
100
AcDbLine
 10
21.05
 20
-14.0
 30
0.0
 11
26.9031514844
 21
-14.0
 31
0.0
  0
LINE
  5
A3
330
1F
100
AcDbEntity
  8
1
  6
SLD-Solid
370
    25
100
AcDbLine
 10
25.7550020016
 20
14.0
 30
0.0
 11
21.05
 21
14.0
 31
0.0
  0
LINE
  5
A4
330
1F
100
AcDbEntity
  8
1
  6
SLD-Solid
370
    25
100
AcDbLine
 10
39.0
 20
14.0
 30
0.0
 11
38.2429792971
 21
14.0
 31
0.0
  0
LINE
  5
A5
330
1F
100
AcDbEntity
  8
1
  6
SLD-Solid
370
    25
100
AcDbLine
 10
39.0
 20
-14.0
 30
0.0
 11
50.0
 21
-7.6491470389
 31
0.0
  0
LINE
  5
A6
330
1F
100
AcDbEntity
  8
1
  6
SLD-Solid
370
    25
100
AcDbLine
 10
50.0
 20
7.6491470389
 30
0.0
 11
39.0
 21
14.0
 31
0.0
  0
LINE
  5
A7
330
1F
100
AcDbEntity
  8
1
  6
SLD-Solid
370
    25
100
AcDbLine
 10
12.28
 20
28.0
 30
0.0
 11
9.95
 21
28.0
 31
0.0
  0
LINE
  5
A8
330
1F
100
AcDbEntity
  8
1
  6
SLD-Solid
370
    25
100
AcDbLine
 10
14.2709083079
 20
-8.095
 30
0.0
 11
18.3
 21
-8.095
 31
0.0
  0
LINE
  5
A9
330
1F
100
AcDbEntity
  8
1
  6
SLD-Solid
370
    25
100
AcDbLine
 10
18.3
 20
-8.73252
 30
0.0
 11
14.6368366421
 21
-8.73252
 31
0.0
  0
LINE
  5
AA
330
1F
100
AcDbEntity
  8
1
  6
SLD-Solid
370
    25
100
AcDbLine
 10
18.55
 20
-8.095
 30
0.0
 11
19.05
 21
-8.595
 31
0.0
  0
LINE
  5
AB
330
1F
100
AcDbEntity
  8
1
  6
SLD-Solid
370
    25
100
AcDbLine
 10
19.05
 20
-18.35
 30
0.0
 11
19.05
 21
-8.595
 31
0.0
  0
LINE
  5
AC
330
1F
100
AcDbEntity
  8
1
  6
SLD-Solid
370
    25
100
AcDbLine
 10
3.95
 20
8.73252
 30
0.0
 11
7.5931633579
 21
8.73252
 31
0.0
  0
LINE
  5
AD
330
1F
100
AcDbEntity
  8
1
  6
SLD-Solid
370
    25
100
AcDbLine
 10
7.9590916921
 20
8.095
 30
0.0
 11
3.95
 21
8.095
 31
0.0
  0
LINE
  5
AE
330
1F
100
AcDbEntity
  8
1
  6
SLD-Solid
370
    25
100
AcDbLine
 10
7.5931633579
 20
8.73252
 30
0.0
 11
7.5931633579
 21
31.75
 31
0.0
  0
LINE
  5
AF
330
1F
100
AcDbEntity
  8
1
  6
SLD-Solid
370
    25
100
AcDbLine
 10
3.2
 20
8.595
 30
0.0
 11
3.7
 21
8.095
 31
0.0
  0
LINE
  5
B0
330
1F
100
AcDbEntity
  8
1
  6
SLD-Solid
370
    25
100
AcDbLine
 10
3.2
 20
8.595
 30
0.0
 11
3.2
 21
31.0
 31
0.0
  0
LINE
  5
B1
330
1F
100
AcDbEntity
  8
1
  6
SLD-Solid
370
    25
100
AcDbLine
 10
14.6368366421
 20
-18.35
 30
0.0
 11
18.3
 21
-18.35
 31
0.0
  0
LINE
  5
B2
330
1F
100
AcDbEntity
  8
1
  6
SLD-Solid
370
    25
100
AcDbLine
 10
14.6368366421
 20
-18.35
 30
0.0
 11
14.6368366421
 21
-8.73252
 31
0.0
  0
LINE
  5
B3
330
1F
100
AcDbEntity
  8
1
  6
SLD-Solid
370
    25
100
AcDbLine
 10
19.05
 20
8.595
 30
0.0
 11
19.05
 21
31.0
 31
0.0
  0
LINE
  5
B4
330
1F
100
AcDbEntity
  8
1
  6
SLD-Solid
370
    25
100
AcDbLine
 10
14.6368366421
 20
8.73252
 30
0.0
 11
18.3
 21
8.73252
 31
0.0
  0
LINE
  5
B5
330
1F
100
AcDbEntity
  8
1
  6
SLD-Solid
370
    25
100
AcDbLine
 10
14.6368366421
 20
8.73252
 30
0.0
 11
14.6368366421
 21
31.75
 31
0.0
  0
LINE
  5
B6
330
1F
100
AcDbEntity
  8
1
  6
SLD-Solid
370
    25
100
AcDbLine
 10
18.3
 20
8.095
 30
0.0
 11
14.2709083079
 21
8.095
 31
0.0
  0
LINE
  5
B7
330
1F
100
AcDbEntity
  8
1
  6
SLD-Solid
370
    25
100
AcDbLine
 10
18.55
 20
8.095
 30
0.0
 11
19.05
 21
8.595
 31
0.0
  0
LINE
  5
B8
330
1F
100
AcDbEntity
  8
1
  6
SLD-Solid
370
    25
100
AcDbLine
 10
3.2
 20
-18.35
 30
0.0
 11
3.2
 21
-8.595
 31
0.0
  0
LINE
  5
B9
330
1F
100
AcDbEntity
  8
1
  6
SLD-Solid
370
    25
100
AcDbLine
 10
7.5931633579
 20
-8.73252
 30
0.0
 11
3.95
 21
-8.73252
 31
0.0
  0
LINE
  5
BA
330
1F
100
AcDbEntity
  8
1
  6
SLD-Solid
370
    25
100
AcDbLine
 10
3.95
 20
-8.095
 30
0.0
 11
7.9590916921
 21
-8.095
 31
0.0
  0
LINE
  5
BB
330
1F
100
AcDbEntity
  8
1
  6
SLD-Solid
370
    25
100
AcDbLine
 10
3.2
 20
-8.595
 30
0.0
 11
3.7
 21
-8.095
 31
0.0
  0
LINE
  5
BC
330
1F
100
AcDbEntity
  8
1
  6
SLD-Solid
370
    25
100
AcDbLine
 10
3.95
 20
-18.35
 30
0.0
 11
7.5931633579
 21
-18.35
 31
0.0
  0
LINE
  5
BD
330
1F
100
AcDbEntity
  8
1
  6
SLD-Solid
370
    25
100
AcDbLine
 10
7.5931633579
 20
-18.35
 30
0.0
 11
7.5931633579
 21
-8.73252
 31
0.0
  0
LINE
  5
BE
330
1F
100
AcDbEntity
  8
1
  6
SLD-Solid
370
    25
100
AcDbLine
 10
13.03
 20
8.095
 30
0.0
 11
13.03
 21
27.0172626808
 31
0.0
  0
LINE
  5
BF
330
1F
100
AcDbEntity
  8
1
  6
SLD-Solid
370
    25
100
AcDbLine
 10
13.03
 20
27.4118626313
 30
0.0
 11
13.03
 21
28.9668772965
 31
0.0
  0
LINE
  5
C0
330
1F
100
AcDbEntity
  8
1
  6
SLD-Solid
370
    25
100
AcDbLine
 10
13.03
 20
-18.35
 30
0.0
 11
13.03
 21
-8.095
 31
0.0
  0
LINE
  5
C1
330
1F
100
AcDbEntity
  8
1
  6
SLD-Solid
370
    25
100
AcDbLine
 10
9.2
 20
27.4118626313
 30
0.0
 11
9.2
 21
28.9668772965
 31
0.0
  0
LINE
  5
C2
330
1F
100
AcDbEntity
  8
1
  6
SLD-Solid
370
    25
100
AcDbLine
 10
9.2
 20
8.095
 30
0.0
 11
9.2
 21
27.0172626808
 31
0.0
  0
LINE
  5
C3
330
1F
100
AcDbEntity
  8
1
  6
SLD-Solid
370
    25
100
AcDbLine
 10
9.2
 20
-18.35
 30
0.0
 11
9.2
 21
-8.095
 31
0.0
  0
LINE
  5
C4
330
1F
100
AcDbEntity
  8
1
  6
SLD-Solid
370
    25
100
AcDbLine
 10
9.95
 20
8.095
 30
0.0
 11
12.28
 21
8.095
 31
0.0
  0
LINE
  5
C5
330
1F
100
AcDbEntity
  8
1
  6
SLD-Solid
370
    25
100
AcDbLine
 10
9.95
 20
-18.35
 30
0.0
 11
12.28
 21
-18.35
 31
0.0
  0
LINE
  5
C6
330
1F
100
AcDbEntity
  8
1
  6
SLD-Solid
370
    25
100
AcDbLine
 10
12.28
 20
-8.095
 30
0.0
 11
9.95
 21
-8.095
 31
0.0
  0
LINE
  5
C7
330
1F
100
AcDbEntity
  8
1
  6
SLD-Solid
370
    25
100
AcDbLine
 10
18.55
 20
7.595
 30
0.0
 11
18.55
 21
8.095
 31
0.0
  0
LINE
  5
C8
330
1F
100
AcDbEntity
  8
1
  6
SLD-Solid
370
    25
100
AcDbLine
 10
19.05
 20
8.595
 30
0.0
 11
19.05
 21
7.595
 31
0.0
  0
LINE
  5
C9
330
1F
100
AcDbEntity
  8
1
  6
SLD-Solid
370
    25
100
AcDbLine
 10
3.7
 20
-7.595
 30
0.0
 11
3.7
 21
-8.095
 31
0.0
  0
LINE
  5
CA
330
1F
100
AcDbEntity
  8
1
  6
SLD-Solid
370
    25
100
AcDbLine
 10
18.55
 20
-8.095
 30
0.0
 11
18.55
 21
-7.595
 31
0.0
  0
LINE
  5
CB
330
1F
100
AcDbEntity
  8
1
  6
SLD-Solid
370
    25
100
AcDbLine
 10
19.05
 20
-7.595
 30
0.0
 11
19.05
 21
-8.595
 31
0.0
  0
LINE
  5
CC
330
1F
100
AcDbEntity
  8
1
  6
SLD-Solid
370
    25
100
AcDbLine
 10
3.2
 20
-8.595
 30
0.0
 11
3.2
 21
-7.595
 31
0.0
  0
LINE
  5
CD
330
1F
100
AcDbEntity
  8
1
  6
SLD-Solid
370
    25
100
AcDbLine
 10
3.7
 20
8.095
 30
0.0
 11
3.7
 21
7.595
 31
0.0
  0
LINE
  5
CE
330
1F
100
AcDbEntity
  8
1
  6
SLD-Solid
370
    25
100
AcDbLine
 10
3.2
 20
7.595
 30
0.0
 11
3.2
 21
8.595
 31
0.0
  0
LINE
  5
CF
330
1F
100
AcDbEntity
  8
1
  6
SLD-Solid
370
    25
100
AcDbLine
 10
18.55
 20
-7.595
 30
0.0
 11
18.55
 21
7.595
 31
0.0
  0
LINE
  5
D0
330
1F
100
AcDbEntity
  8
1
  6
SLD-Solid
370
    25
100
AcDbLine
 10
19.05
 20
7.595
 30
0.0
 11
19.05
 21
-7.595
 31
0.0
  0
LINE
  5
D1
330
1F
100
AcDbEntity
  8
1
  6
SLD-Solid
370
    25
100
AcDbLine
 10
3.7
 20
7.595
 30
0.0
 11
3.7
 21
-7.595
 31
0.0
  0
LINE
  5
D2
330
1F
100
AcDbEntity
  8
1
  6
SLD-Solid
370
    25
100
AcDbLine
 10
3.2
 20
-7.595
 30
0.0
 11
3.2
 21
7.595
 31
0.0
  0
LINE
  5
D3
330
1F
100
AcDbEntity
  8
1
  6
SLD-Solid
370
    25
100
AcDbLine
 10
0.0
 20
-22.225
 30
0.0
 11
0.0
 21
22.225
 31
0.0
  0
LINE
  5
D4
330
1F
100
AcDbEntity
  8
1
  6
SLD-Solid
370
    25
100
AcDbLine
 10
3.2
 20
-18.85
 30
0.0
 11
3.2
 21
-18.35
 31
0.0
  0
LINE
  5
D5
330
1F
100
AcDbEntity
  8
1
  6
SLD-Solid
370
    25
100
AcDbLine
 10
19.05
 20
-18.35
 30
0.0
 11
19.05
 21
-18.85
 31
0.0
  0
LINE
  5
D6
330
1F
100
AcDbEntity
  8
1
  6
SLD-Solid
370
    25
100
AcDbLine
 10
7.5931633579
 20
-25.91022964
 30
0.0
 11
3.95
 21
-25.91022964
 31
0.0
  0
LINE
  5
D7
330
1F
100
AcDbEntity
  8
1
  6
SLD-Solid
370
    25
100
AcDbLine
 10
7.5931633579
 20
-31.75
 30
0.0
 11
7.5931633579
 21
-25.91022964
 31
0.0
  0
LINE
  5
D8
330
1F
100
AcDbEntity
  8
1
  6
SLD-Solid
370
    25
100
AcDbLine
 10
3.2
 20
-31.0
 30
0.0
 11
3.2
 21
-24.9855458216
 31
0.0
  0
LINE
  5
D9
330
1F
100
AcDbEntity
  8
1
  6
SLD-Solid
370
    25
100
AcDbLine
 10
19.05
 20
-31.0
 30
0.0
 11
19.05
 21
-24.9855458215
 31
0.0
  0
LINE
  5
DA
330
1F
100
AcDbEntity
  8
1
  6
SLD-Solid
370
    25
100
AcDbLine
 10
18.3
 20
-25.91022964
 30
0.0
 11
14.6368366421
 21
-25.91022964
 31
0.0
  0
LINE
  5
DB
330
1F
100
AcDbEntity
  8
1
  6
SLD-Solid
370
    25
100
AcDbLine
 10
14.6368366421
 20
-31.75
 30
0.0
 11
14.6368366421
 21
-25.91022964
 31
0.0
  0
LINE
  5
DC
330
1F
100
AcDbEntity
  8
1
  6
SLD-Solid
370
    25
100
AcDbLine
 10
13.03
 20
-22.4133326462
 30
0.0
 11
13.03
 21
-22.1323292945
 31
0.0
  0
LINE
  5
DD
330
1F
100
AcDbEntity
  8
1
  6
SLD-Solid
370
    25
100
AcDbLine
 10
12.28
 20
-21.1489361435
 30
0.0
 11
9.95
 21
-21.1489361435
 31
0.0
  0
LINE
  5
DE
330
1F
100
AcDbEntity
  8
1
  6
SLD-Solid
370
    25
100
AcDbLine
 10
9.2
 20
-22.1323292945
 30
0.0
 11
9.2
 21
-22.4133326462
 31
0.0
  0
LINE
  5
DF
330
1F
100
AcDbEntity
  8
1
  6
SLD-Solid
370
    25
100
AcDbLine
 10
3.2
 20
-18.85
 30
0.0
 11
3.2
 21
-24.9855458216
 31
0.0
  0
LINE
  5
E0
330
1F
100
AcDbEntity
  8
1
  6
SLD-Solid
370
    25
100
AcDbLine
 10
19.05
 20
-18.85
 30
0.0
 11
19.05
 21
-24.9855458215
 31
0.0
  0
LINE
  5
E1
330
1F
100
AcDbEntity
  8
1
  6
SLD-Solid
370
    25
100
AcDbLine
 10
13.03
 20
-28.9668772965
 30
0.0
 11
13.03
 21
-22.4133326462
 31
0.0
  0
LINE
  5
E2
330
1F
100
AcDbEntity
  8
1
  6
SLD-Solid
370
    25
100
AcDbLine
 10
9.2
 20
-28.9668772965
 30
0.0
 11
9.2
 21
-22.4133326462
 31
0.0
  0
LINE
  5
E3
330
1F
100
AcDbEntity
  8
1
  6
SLD-Solid
370
    25
100
AcDbLine
 10
39.0
 20
-14.0
 30
0.0
 11
39.0
 21
14.0
 31
0.0
  0
LINE
  5
E4
330
1F
100
AcDbEntity
  8
1
  6
SLD-Solid
370
    25
100
AcDbLine
 10
50.0
 20
-7.6491470389
 30
0.0
 11
50.0
 21
7.6491470389
 31
0.0
  0
LINE
  5
E5
330
1F
100
AcDbEntity
  8
SK1
  6
SLD-Solid
370
    25
100
AcDbLine
 10
-68.25
 20
-11.4070377962
 30
0.0
 11
-68.25
 21
11.4070377962
 31
0.0
  0
LINE
  5
E6
330
1F
100
AcDbEntity
  8
1
  6
SLD-Solid
370
    25
100
AcDbLine
 10
9.2
 20
27.2080239064
 30
0.0
 11
9.2
 21
27.4118626313
 31
0.0
  0
LINE
  5
E7
330
1F
100
AcDbEntity
  8
1
  6
SLD-Solid
370
    25
100
AcDbLine
 10
13.03
 20
27.4118626313
 30
0.0
 11
13.03
 21
27.2080239064
 31
0.0
  0
LINE
  5
E8
330
1F
100
AcDbEntity
  8
SK3
  6
SLD-Dashed
370
    18
100
AcDbLine
 10
13.1081088715
 20
27.3467456154
 30
0.0
 11
13.1123837663
 21
27.3888561012
 31
0.0
  0
LINE
  5
E9
330
1F
100
AcDbEntity
  8
SK3
  6
SLD-Dashed
370
    18
100
AcDbLine
 10
9.1285767029
 20
23.1308393474
 30
0.0
 11
9.2357599277
 21
22.9763158071
 31
0.0
  0
LINE
  5
EA
330
1F
100
AcDbEntity
  8
SK3
  6
SLD-Dashed
370
    18
100
AcDbLine
 10
9.2357599277
 20
22.9763158071
 30
0.0
 11
9.4442381472
 21
22.8344103142
 31
0.0
  0
LINE
  5
EB
330
1F
100
AcDbEntity
  8
SK3
  6
SLD-Dashed
370
    18
100
AcDbLine
 10
9.4442381472
 20
22.8344103142
 30
0.0
 11
9.7427739468
 21
22.7127718734
 31
0.0
  0
LINE
  5
EC
330
1F
100
AcDbEntity
  8
SK3
  6
SLD-Dashed
370
    18
100
AcDbLine
 10
9.7427739468
 20
22.7127718734
 30
0.0
 11
10.1152756184
 21
22.6179570528
 31
0.0
  0
LINE
  5
ED
330
1F
100
AcDbEntity
  8
SK3
  6
SLD-Dashed
370
    18
100
AcDbLine
 10
10.1152756184
 20
22.6179570528
 30
0.0
 11
10.5416645382
 21
22.5550765708
 31
0.0
  0
LINE
  5
EE
330
1F
100
AcDbEntity
  8
SK3
  6
SLD-Dashed
370
    18
100
AcDbLine
 10
10.5416645382
 20
22.5550765708
 30
0.0
 11
10.998957446
 21
22.5275198175
 31
0.0
  0
LINE
  5
EF
330
1F
100
AcDbEntity
  8
SK3
  6
SLD-Dashed
370
    18
100
AcDbLine
 10
10.998957446
 20
22.5275198175
 30
0.0
 11
11.4625052916
 21
22.5367721601
 31
0.0
  0
LINE
  5
F0
330
1F
100
AcDbEntity
  8
SK3
  6
SLD-Dashed
370
    18
100
AcDbLine
 10
11.4625052916
 20
22.5367721601
 30
0.0
 11
11.9073218707
 21
22.5823348777
 31
0.0
  0
LINE
  5
F1
330
1F
100
AcDbEntity
  8
SK3
  6
SLD-Dashed
370
    18
100
AcDbLine
 10
11.9073218707
 20
22.5823348777
 30
0.0
 11
12.3094306335
 21
22.661752044
 31
0.0
  0
LINE
  5
F2
330
1F
100
AcDbEntity
  8
SK3
  6
SLD-Dashed
370
    18
100
AcDbLine
 10
12.3094306335
 20
22.661752044
 30
0.0
 11
12.6471570715
 21
22.7707429067
 31
0.0
  0
LINE
  5
F3
330
1F
100
AcDbEntity
  8
SK3
  6
SLD-Dashed
370
    18
100
AcDbLine
 10
12.6471570715
 20
22.7707429067
 30
0.0
 11
12.9022970188
 21
22.9034326288
 31
0.0
  0
LINE
  5
F4
330
1F
100
AcDbEntity
  8
SK3
  6
SLD-Dashed
370
    18
100
AcDbLine
 10
12.9022970188
 20
22.9034326288
 30
0.0
 11
13.0610978955
 21
23.052668955
 31
0.0
  0
LINE
  5
F5
330
1F
100
AcDbEntity
  8
SK3
  6
SLD-Dashed
370
    18
100
AcDbLine
 10
13.0610978955
 20
23.052668955
 30
0.0
 11
13.115
 21
23.2104077334
 31
0.0
  0
LINE
  5
F6
330
1F
100
AcDbEntity
  8
SK3
  6
SLD-Dashed
370
    18
100
AcDbLine
 10
13.115
 20
23.2104077334
 30
0.0
 11
13.0610978955
 21
23.3681465118
 31
0.0
  0
LINE
  5
F7
330
1F
100
AcDbEntity
  8
SK3
  6
SLD-Dashed
370
    18
100
AcDbLine
 10
13.0610978955
 20
23.3681465118
 30
0.0
 11
12.9022970188
 21
23.5173828381
 31
0.0
  0
LINE
  5
F8
330
1F
100
AcDbEntity
  8
SK3
  6
SLD-Dashed
370
    18
100
AcDbLine
 10
12.9022970188
 20
23.5173828381
 30
0.0
 11
12.6471570715
 21
23.6500725602
 31
0.0
  0
LINE
  5
F9
330
1F
100
AcDbEntity
  8
SK3
  6
SLD-Dashed
370
    18
100
AcDbLine
 10
12.6471570715
 20
23.6500725602
 30
0.0
 11
12.3094306335
 21
23.7590634228
 31
0.0
  0
LINE
  5
FA
330
1F
100
AcDbEntity
  8
SK3
  6
SLD-Dashed
370
    18
100
AcDbLine
 10
12.3094306335
 20
23.7590634228
 30
0.0
 11
11.9073218707
 21
23.8384805891
 31
0.0
  0
LINE
  5
FB
330
1F
100
AcDbEntity
  8
SK3
  6
SLD-Dashed
370
    18
100
AcDbLine
 10
11.9073218707
 20
23.8384805891
 30
0.0
 11
11.4625052916
 21
23.8840433068
 31
0.0
  0
LINE
  5
FC
330
1F
100
AcDbEntity
  8
SK3
  6
SLD-Dashed
370
    18
100
AcDbLine
 10
11.4625052916
 20
23.8840433068
 30
0.0
 11
10.998957446
 21
23.8932956493
 31
0.0
  0
LINE
  5
FD
330
1F
100
AcDbEntity
  8
SK3
  6
SLD-Dashed
370
    18
100
AcDbLine
 10
10.998957446
 20
23.8932956493
 30
0.0
 11
10.5416645382
 21
23.8657388961
 31
0.0
  0
LINE
  5
FE
330
1F
100
AcDbEntity
  8
SK3
  6
SLD-Dashed
370
    18
100
AcDbLine
 10
10.5416645382
 20
23.8657388961
 30
0.0
 11
10.1152756184
 21
23.802858414
 31
0.0
  0
LINE
  5
FF
330
1F
100
AcDbEntity
  8
SK3
  6
SLD-Dashed
370
    18
100
AcDbLine
 10
10.1152756184
 20
23.802858414
 30
0.0
 11
9.7427739468
 21
23.7080435934
 31
0.0
  0
LINE
  5
100
330
1F
100
AcDbEntity
  8
SK3
  6
SLD-Dashed
370
    18
100
AcDbLine
 10
9.7427739468
 20
23.7080435934
 30
0.0
 11
9.4442381472
 21
23.5864051527
 31
0.0
  0
LINE
  5
101
330
1F
100
AcDbEntity
  8
SK3
  6
SLD-Dashed
370
    18
100
AcDbLine
 10
9.4442381472
 20
23.5864051527
 30
0.0
 11
9.2357599277
 21
23.4444996598
 31
0.0
  0
LINE
  5
102
330
1F
100
AcDbEntity
  8
SK3
  6
SLD-Dashed
370
    18
100
AcDbLine
 10
9.2357599277
 20
23.4444996598
 30
0.0
 11
9.1285767029
 21
23.2899761194
 31
0.0
  0
LINE
  5
103
330
1F
100
AcDbEntity
  8
1
  6
SLD-Dashed
370
    18
100
AcDbLine
 10
13.03
 20
26.813423956
 30
0.0
 11
13.03
 21
27.0172626808
 31
0.0
  0
LINE
  5
104
330
1F
100
AcDbEntity
  8
1
  6
SLD-Dashed
370
    18
100
AcDbLine
 10
9.2
 20
27.0172626808
 30
0.0
 11
9.2
 21
26.813423956
 31
0.0
  0
LINE
  5
105
330
1F
100
AcDbEntity
  8
SK3
  6
SLD-Dashed
370
    18
100
AcDbLine
 10
3.3100253255
 20
22.7838057852
 30
0.0
 11
3.4216747077
 21
22.7665899995
 31
0.0
  0
LINE
  5
106
330
1F
100
AcDbEntity
  8
SK3
  6
SLD-Dashed
370
    18
100
AcDbLine
 10
3.4216747077
 20
22.7665899995
 30
0.0
 11
3.5925969869
 21
22.8361057366
 31
0.0
  0
LINE
  5
107
330
1F
100
AcDbEntity
  8
SK3
  6
SLD-Dashed
370
    18
100
AcDbLine
 10
3.5925969869
 20
22.8361057366
 30
0.0
 11
3.8135776988
 21
22.9886053849
 31
0.0
  0
LINE
  5
108
330
1F
100
AcDbEntity
  8
SK3
  6
SLD-Dashed
370
    18
100
AcDbLine
 10
3.8135776988
 20
22.9886053849
 30
0.0
 11
4.072703716
 21
23.2158676491
 31
0.0
  0
LINE
  5
109
330
1F
100
AcDbEntity
  8
SK3
  6
SLD-Dashed
370
    18
100
AcDbLine
 10
4.072703716
 20
23.2158676491
 30
0.0
 11
4.3560054879
 21
23.5056407616
 31
0.0
  0
LINE
  5
10A
330
1F
100
AcDbEntity
  8
SK3
  6
SLD-Dashed
370
    18
100
AcDbLine
 10
4.3560054879
 20
23.5056407616
 30
0.0
 11
4.6482101427
 21
23.8423029789
 31
0.0
  0
LINE
  5
10B
330
1F
100
AcDbEntity
  8
SK3
  6
SLD-Dashed
370
    18
100
AcDbLine
 10
4.6482101427
 20
23.8423029789
 30
0.0
 11
4.9335648517
 21
24.2077047537
 31
0.0
  0
LINE
  5
10C
330
1F
100
AcDbEntity
  8
SK3
  6
SLD-Dashed
370
    18
100
AcDbLine
 10
4.9335648517
 20
24.2077047537
 30
0.0
 11
5.1966860687
 21
24.5821471819
 31
0.0
  0
LINE
  5
10D
330
1F
100
AcDbEntity
  8
SK3
  6
SLD-Dashed
370
    18
100
AcDbLine
 10
5.1966860687
 20
24.5821471819
 30
0.0
 11
5.4233888608
 21
24.945443975
 31
0.0
  0
LINE
  5
10E
330
1F
100
AcDbEntity
  8
SK3
  6
SLD-Dashed
370
    18
100
AcDbLine
 10
5.4233888608
 20
24.945443975
 30
0.0
 11
5.6014516218
 21
25.2780097091
 31
0.0
  0
LINE
  5
10F
330
1F
100
AcDbEntity
  8
SK3
  6
SLD-Dashed
370
    18
100
AcDbLine
 10
5.6014516218
 20
25.2780097091
 30
0.0
 11
5.7212749422
 21
25.5619156793
 31
0.0
  0
LINE
  5
110
330
1F
100
AcDbEntity
  8
SK3
  6
SLD-Dashed
370
    18
100
AcDbLine
 10
5.7212749422
 20
25.5619156793
 30
0.0
 11
5.7763991158
 21
25.7818564412
 31
0.0
  0
LINE
  5
111
330
1F
100
AcDbEntity
  8
SK3
  6
SLD-Dashed
370
    18
100
AcDbLine
 10
5.7763991158
 20
25.7818564412
 30
0.0
 11
5.763852384
 21
25.9259749315
 31
0.0
  0
LINE
  5
112
330
1F
100
AcDbEntity
  8
SK3
  6
SLD-Dashed
370
    18
100
AcDbLine
 10
5.763852384
 20
25.9259749315
 30
0.0
 11
5.6843111445
 21
25.986501685
 31
0.0
  0
LINE
  5
113
330
1F
100
AcDbEntity
  8
SK3
  6
SLD-Dashed
370
    18
100
AcDbLine
 10
5.6843111445
 20
25.986501685
 30
0.0
 11
5.5420634861
 21
25.9601736888
 31
0.0
  0
LINE
  5
114
330
1F
100
AcDbEntity
  8
SK3
  6
SLD-Dashed
370
    18
100
AcDbLine
 10
5.5420634861
 20
25.9601736888
 30
0.0
 11
5.3447780167
 21
25.848410292
 31
0.0
  0
LINE
  5
115
330
1F
100
AcDbEntity
  8
SK3
  6
SLD-Dashed
370
    18
100
AcDbLine
 10
5.3447780167
 20
25.848410292
 30
0.0
 11
5.1030904473
 21
25.6572366882
 31
0.0
  0
LINE
  5
116
330
1F
100
AcDbEntity
  8
SK3
  6
SLD-Dashed
370
    18
100
AcDbLine
 10
5.1030904473
 20
25.6572366882
 30
0.0
 11
4.8300302171
 21
25.3969590959
 31
0.0
  0
LINE
  5
117
330
1F
100
AcDbEntity
  8
SK3
  6
SLD-Dashed
370
    18
100
AcDbLine
 10
4.8300302171
 20
25.3969590959
 30
0.0
 11
4.5403180739
 21
25.0816091475
 31
0.0
  0
LINE
  5
118
330
1F
100
AcDbEntity
  8
SK3
  6
SLD-Dashed
370
    18
100
AcDbLine
 10
4.5403180739
 20
25.0816091475
 30
0.0
 11
4.2495724743
 21
24.7281874403
 31
0.0
  0
LINE
  5
119
330
1F
100
AcDbEntity
  8
SK3
  6
SLD-Dashed
370
    18
100
AcDbLine
 10
4.2495724743
 20
24.7281874403
 30
0.0
 11
3.9734675889
 21
24.35574703
 31
0.0
  0
LINE
  5
11A
330
1F
100
AcDbEntity
  8
SK3
  6
SLD-Dashed
370
    18
100
AcDbLine
 10
3.9734675889
 20
24.35574703
 30
0.0
 11
3.7268883034
 21
23.9843662755
 31
0.0
  0
LINE
  5
11B
330
1F
100
AcDbEntity
  8
SK3
  6
SLD-Dashed
370
    18
100
AcDbLine
 10
3.7268883034
 20
23.9843662755
 30
0.0
 11
3.523127771
 21
23.6340664095
 31
0.0
  0
LINE
  5
11C
330
1F
100
AcDbEntity
  8
SK3
  6
SLD-Dashed
370
    18
100
AcDbLine
 10
3.523127771
 20
23.6340664095
 30
0.0
 11
3.3731707747
 21
23.3237321884
 31
0.0
  0
LINE
  5
11D
330
1F
100
AcDbEntity
  8
SK3
  6
SLD-Dashed
370
    18
100
AcDbLine
 10
3.3731707747
 20
23.3237321884
 30
0.0
 11
3.285101535
 21
23.0700938104
 31
0.0
  0
LINE
  5
11E
330
1F
100
AcDbEntity
  8
SK3
  6
SLD-Dashed
370
    18
100
AcDbLine
 10
3.285101535
 20
23.0700938104
 30
0.0
 11
3.2636678875
 21
22.886824986
 31
0.0
  0
LINE
  5
11F
330
1F
100
AcDbEntity
  8
SK3
  6
SLD-Dashed
370
    18
100
AcDbLine
 10
3.2636678875
 20
22.886824986
 30
0.0
 11
3.3100253255
 21
22.7838057852
 31
0.0
  0
LINE
  5
120
330
1F
100
AcDbEntity
  8
SK3
  6
SLD-Dashed
370
    18
100
AcDbLine
 10
3.2
 20
22.8742979511
 30
0.0
 11
3.2
 21
27.8871582268
 31
0.0
  0
LINE
  5
121
330
1F
100
AcDbEntity
  8
SK3
  6
SLD-Dashed
370
    18
100
AcDbLine
 10
3.3403033958
 20
22.8235957143
 30
0.0
 11
3.4491615434
 21
22.8068103233
 31
0.0
  0
LINE
  5
122
330
1F
100
AcDbEntity
  8
SK3
  6
SLD-Dashed
370
    18
100
AcDbLine
 10
3.4491615434
 20
22.8068103233
 30
0.0
 11
3.6158107656
 21
22.8745881669
 31
0.0
  0
LINE
  5
123
330
1F
100
AcDbEntity
  8
SK3
  6
SLD-Dashed
370
    18
100
AcDbLine
 10
3.6158107656
 20
22.8745881669
 30
0.0
 11
3.8312669597
 21
23.0232753241
 31
0.0
  0
LINE
  5
124
330
1F
100
AcDbEntity
  8
SK3
  6
SLD-Dashed
370
    18
100
AcDbLine
 10
3.8312669597
 20
23.0232753241
 30
0.0
 11
4.0839148265
 21
23.2448560317
 31
0.0
  0
LINE
  5
125
330
1F
100
AcDbEntity
  8
SK3
  6
SLD-Dashed
370
    18
100
AcDbLine
 10
4.0839148265
 20
23.2448560317
 30
0.0
 11
4.3601340541
 21
23.5273848163
 31
0.0
  0
LINE
  5
126
330
1F
100
AcDbEntity
  8
SK3
  6
SLD-Dashed
370
    18
100
AcDbLine
 10
4.3601340541
 20
23.5273848163
 30
0.0
 11
4.6450335925
 21
23.8556304782
 31
0.0
  0
LINE
  5
127
330
1F
100
AcDbEntity
  8
SK3
  6
SLD-Dashed
370
    18
100
AcDbLine
 10
4.6450335925
 20
23.8556304782
 30
0.0
 11
4.9232544337
 21
24.2118972087
 31
0.0
  0
LINE
  5
128
330
1F
100
AcDbEntity
  8
SK3
  6
SLD-Dashed
370
    18
100
AcDbLine
 10
4.9232544337
 20
24.2118972087
 30
0.0
 11
5.1797976203
 21
24.5769785761
 31
0.0
  0
LINE
  5
129
330
1F
100
AcDbEntity
  8
SK3
  6
SLD-Dashed
370
    18
100
AcDbLine
 10
5.1797976203
 20
24.5769785761
 30
0.0
 11
5.4008328426
 21
24.9311929495
 31
0.0
  0
LINE
  5
12A
330
1F
100
AcDbEntity
  8
SK3
  6
SLD-Dashed
370
    18
100
AcDbLine
 10
5.4008328426
 20
24.9311929495
 30
0.0
 11
5.5744440346
 21
25.2554445402
 31
0.0
  0
LINE
  5
12B
330
1F
100
AcDbEntity
  8
SK3
  6
SLD-Dashed
370
    18
100
AcDbLine
 10
5.5744440346
 20
25.2554445402
 30
0.0
 11
5.691271772
 21
25.5322528611
 31
0.0
  0
LINE
  5
12C
330
1F
100
AcDbEntity
  8
SK3
  6
SLD-Dashed
370
    18
100
AcDbLine
 10
5.691271772
 20
25.5322528611
 30
0.0
 11
5.7450178412
 21
25.746695104
 31
0.0
  0
LINE
  5
12D
330
1F
100
AcDbEntity
  8
SK3
  6
SLD-Dashed
370
    18
100
AcDbLine
 10
5.7450178412
 20
25.746695104
 30
0.0
 11
5.7327847778
 21
25.887210632
 31
0.0
  0
LINE
  5
12E
330
1F
100
AcDbEntity
  8
SK3
  6
SLD-Dashed
370
    18
100
AcDbLine
 10
5.7327847778
 20
25.887210632
 30
0.0
 11
5.6552320693
 21
25.9462242167
 31
0.0
  0
LINE
  5
12F
330
1F
100
AcDbEntity
  8
SK3
  6
SLD-Dashed
370
    18
100
AcDbLine
 10
5.6552320693
 20
25.9462242167
 30
0.0
 11
5.5165406023
 21
25.9205544204
 31
0.0
  0
LINE
  5
130
330
1F
100
AcDbEntity
  8
SK3
  6
SLD-Dashed
370
    18
100
AcDbLine
 10
5.5165406023
 20
25.9205544204
 30
0.0
 11
5.3241872697
 21
25.8115851085
 31
0.0
  0
LINE
  5
131
330
1F
100
AcDbEntity
  8
SK3
  6
SLD-Dashed
370
    18
100
AcDbLine
 10
5.3241872697
 20
25.8115851085
 30
0.0
 11
5.0885418895
 21
25.6251908448
 31
0.0
  0
LINE
  5
132
330
1F
100
AcDbEntity
  8
SK3
  6
SLD-Dashed
370
    18
100
AcDbLine
 10
5.0885418895
 20
25.6251908448
 30
0.0
 11
4.8223081651
 21
25.3714201923
 31
0.0
  0
LINE
  5
133
330
1F
100
AcDbEntity
  8
SK3
  6
SLD-Dashed
370
    18
100
AcDbLine
 10
4.8223081651
 20
25.3714201923
 30
0.0
 11
4.5398388254
 21
25.0639539926
 31
0.0
  0
LINE
  5
134
330
1F
100
AcDbEntity
  8
SK3
  6
SLD-Dashed
370
    18
100
AcDbLine
 10
4.5398388254
 20
25.0639539926
 30
0.0
 11
4.2563618658
 21
24.7193678281
 31
0.0
  0
LINE
  5
135
330
1F
100
AcDbEntity
  8
SK3
  6
SLD-Dashed
370
    18
100
AcDbLine
 10
4.2563618658
 20
24.7193678281
 30
0.0
 11
3.9871596025
 21
24.356238428
 31
0.0
  0
LINE
  5
136
330
1F
100
AcDbEntity
  8
SK3
  6
SLD-Dashed
370
    18
100
AcDbLine
 10
3.9871596025
 20
24.356238428
 30
0.0
 11
3.7467447992
 21
23.9941421924
 31
0.0
  0
LINE
  5
137
330
1F
100
AcDbEntity
  8
SK3
  6
SLD-Dashed
370
    18
100
AcDbLine
 10
3.7467447992
 20
23.9941421924
 30
0.0
 11
3.5480782801
 21
23.6525998231
 31
0.0
  0
LINE
  5
138
330
1F
100
AcDbEntity
  8
SK3
  6
SLD-Dashed
370
    18
100
AcDbLine
 10
3.5480782801
 20
23.6525998231
 30
0.0
 11
3.4018702087
 21
23.3500239575
 31
0.0
  0
LINE
  5
139
330
1F
100
AcDbEntity
  8
SK3
  6
SLD-Dashed
370
    18
100
AcDbLine
 10
3.4018702087
 20
23.3500239575
 30
0.0
 11
3.3160027
 21
23.1027265389
 31
0.0
  0
LINE
  5
13A
330
1F
100
AcDbEntity
  8
SK3
  6
SLD-Dashed
370
    18
100
AcDbLine
 10
3.3160027
 20
23.1027265389
 30
0.0
 11
3.2951048937
 21
22.9240394352
 31
0.0
  0
LINE
  5
13B
330
1F
100
AcDbEntity
  8
SK3
  6
SLD-Dashed
370
    18
100
AcDbLine
 10
3.2951048937
 20
22.9240394352
 30
0.0
 11
3.3403033958
 21
22.8235957143
 31
0.0
  0
LINE
  5
13C
330
1F
100
AcDbEntity
  8
SK3
  6
SLD-Dashed
370
    18
100
AcDbLine
 10
13.9872030677
 20
14.7218578465
 30
0.0
 11
14.0960612153
 21
14.7050724555
 31
0.0
  0
LINE
  5
13D
330
1F
100
AcDbEntity
  8
SK3
  6
SLD-Dashed
370
    18
100
AcDbLine
 10
14.0960612153
 20
14.7050724555
 30
0.0
 11
14.2627104375
 21
14.7728502991
 31
0.0
  0
LINE
  5
13E
330
1F
100
AcDbEntity
  8
SK3
  6
SLD-Dashed
370
    18
100
AcDbLine
 10
14.2627104375
 20
14.7728502991
 30
0.0
 11
14.4781666316
 21
14.9215374563
 31
0.0
  0
LINE
  5
13F
330
1F
100
AcDbEntity
  8
SK3
  6
SLD-Dashed
370
    18
100
AcDbLine
 10
14.4781666316
 20
14.9215374563
 30
0.0
 11
14.7308144984
 21
15.1431181638
 31
0.0
  0
LINE
  5
140
330
1F
100
AcDbEntity
  8
SK3
  6
SLD-Dashed
370
    18
100
AcDbLine
 10
14.7308144984
 20
15.1431181638
 30
0.0
 11
15.0070337261
 21
15.4256469485
 31
0.0
  0
LINE
  5
141
330
1F
100
AcDbEntity
  8
SK3
  6
SLD-Dashed
370
    18
100
AcDbLine
 10
15.0070337261
 20
15.4256469485
 30
0.0
 11
15.2919332644
 21
15.7538926104
 31
0.0
  0
LINE
  5
142
330
1F
100
AcDbEntity
  8
SK3
  6
SLD-Dashed
370
    18
100
AcDbLine
 10
15.2919332644
 20
15.7538926104
 30
0.0
 11
15.5701541057
 21
16.1101593408
 31
0.0
  0
LINE
  5
143
330
1F
100
AcDbEntity
  8
SK3
  6
SLD-Dashed
370
    18
100
AcDbLine
 10
15.5701541057
 20
16.1101593408
 30
0.0
 11
15.8266972923
 21
16.4752407083
 31
0.0
  0
LINE
  5
144
330
1F
100
AcDbEntity
  8
SK3
  6
SLD-Dashed
370
    18
100
AcDbLine
 10
15.8266972923
 20
16.4752407083
 30
0.0
 11
16.0477325146
 21
16.8294550816
 31
0.0
  0
LINE
  5
145
330
1F
100
AcDbEntity
  8
SK3
  6
SLD-Dashed
370
    18
100
AcDbLine
 10
16.0477325146
 20
16.8294550816
 30
0.0
 11
16.2213437066
 21
17.1537066723
 31
0.0
  0
LINE
  5
146
330
1F
100
AcDbEntity
  8
SK3
  6
SLD-Dashed
370
    18
100
AcDbLine
 10
16.2213437066
 20
17.1537066723
 30
0.0
 11
16.338171444
 21
17.4305149933
 31
0.0
  0
LINE
  5
147
330
1F
100
AcDbEntity
  8
SK3
  6
SLD-Dashed
370
    18
100
AcDbLine
 10
16.338171444
 20
17.4305149933
 30
0.0
 11
16.3919175132
 21
17.6449572362
 31
0.0
  0
LINE
  5
148
330
1F
100
AcDbEntity
  8
SK3
  6
SLD-Dashed
370
    18
100
AcDbLine
 10
16.3919175132
 20
17.6449572362
 30
0.0
 11
16.3796844497
 21
17.7854727642
 31
0.0
  0
LINE
  5
149
330
1F
100
AcDbEntity
  8
SK3
  6
SLD-Dashed
370
    18
100
AcDbLine
 10
16.3796844497
 20
17.7854727642
 30
0.0
 11
16.3021317412
 21
17.8444863489
 31
0.0
  0
LINE
  5
14A
330
1F
100
AcDbEntity
  8
SK3
  6
SLD-Dashed
370
    18
100
AcDbLine
 10
16.3021317412
 20
17.8444863489
 30
0.0
 11
16.1634402742
 21
17.8188165526
 31
0.0
  0
LINE
  5
14B
330
1F
100
AcDbEntity
  8
SK3
  6
SLD-Dashed
370
    18
100
AcDbLine
 10
16.1634402742
 20
17.8188165526
 30
0.0
 11
15.9710869416
 21
17.7098472407
 31
0.0
  0
LINE
  5
14C
330
1F
100
AcDbEntity
  8
SK3
  6
SLD-Dashed
370
    18
100
AcDbLine
 10
15.9710869416
 20
17.7098472407
 30
0.0
 11
15.7354415614
 21
17.523452977
 31
0.0
  0
LINE
  5
14D
330
1F
100
AcDbEntity
  8
SK3
  6
SLD-Dashed
370
    18
100
AcDbLine
 10
15.7354415614
 20
17.523452977
 30
0.0
 11
15.469207837
 21
17.2696823245
 31
0.0
  0
LINE
  5
14E
330
1F
100
AcDbEntity
  8
SK3
  6
SLD-Dashed
370
    18
100
AcDbLine
 10
15.469207837
 20
17.2696823245
 30
0.0
 11
15.1867384974
 21
16.9622161248
 31
0.0
  0
LINE
  5
14F
330
1F
100
AcDbEntity
  8
SK3
  6
SLD-Dashed
370
    18
100
AcDbLine
 10
15.1867384974
 20
16.9622161248
 30
0.0
 11
14.9032615378
 21
16.6176299602
 31
0.0
  0
LINE
  5
150
330
1F
100
AcDbEntity
  8
SK3
  6
SLD-Dashed
370
    18
100
AcDbLine
 10
14.9032615378
 20
16.6176299602
 30
0.0
 11
14.6340592745
 21
16.2545005602
 31
0.0
  0
LINE
  5
151
330
1F
100
AcDbEntity
  8
SK3
  6
SLD-Dashed
370
    18
100
AcDbLine
 10
14.6340592745
 20
16.2545005602
 30
0.0
 11
14.3936444711
 21
15.8924043246
 31
0.0
  0
LINE
  5
152
330
1F
100
AcDbEntity
  8
SK3
  6
SLD-Dashed
370
    18
100
AcDbLine
 10
14.3936444711
 20
15.8924043246
 30
0.0
 11
14.194977952
 21
15.5508619552
 31
0.0
  0
LINE
  5
153
330
1F
100
AcDbEntity
  8
SK3
  6
SLD-Dashed
370
    18
100
AcDbLine
 10
14.194977952
 20
15.5508619552
 30
0.0
 11
14.0487698807
 21
15.2482860897
 31
0.0
  0
LINE
  5
154
330
1F
100
AcDbEntity
  8
SK3
  6
SLD-Dashed
370
    18
100
AcDbLine
 10
14.0487698807
 20
15.2482860897
 30
0.0
 11
13.962902372
 21
15.0009886711
 31
0.0
  0
LINE
  5
155
330
1F
100
AcDbEntity
  8
SK3
  6
SLD-Dashed
370
    18
100
AcDbLine
 10
13.962902372
 20
15.0009886711
 30
0.0
 11
13.9420045656
 21
14.8223015673
 31
0.0
  0
LINE
  5
156
330
1F
100
AcDbEntity
  8
SK3
  6
SLD-Dashed
370
    18
100
AcDbLine
 10
13.9420045656
 20
14.8223015673
 30
0.0
 11
13.9872030677
 21
14.7218578465
 31
0.0
  0
LINE
  5
157
330
1F
100
AcDbEntity
  8
SK3
  6
SLD-Dashed
370
    18
100
AcDbLine
 10
11.115
 20
22.6460744969
 30
0.0
 11
11.5253383138
 21
22.6638040633
 31
0.0
  0
LINE
  5
158
330
1F
100
AcDbEntity
  8
SK3
  6
SLD-Dashed
370
    18
100
AcDbLine
 10
11.5253383138
 20
22.6638040633
 30
0.0
 11
11.9098935623
 21
22.7158787485
 31
0.0
  0
LINE
  5
159
330
1F
100
AcDbEntity
  8
SK3
  6
SLD-Dashed
370
    18
100
AcDbLine
 10
11.9098935623
 20
22.7158787485
 30
0.0
 11
12.2445027248
 21
22.7990265086
 31
0.0
  0
LINE
  5
15A
330
1F
100
AcDbEntity
  8
SK3
  6
SLD-Dashed
370
    18
100
AcDbLine
 10
12.2445027248
 20
22.7990265086
 30
0.0
 11
12.5081410771
 21
22.908022864
 31
0.0
  0
LINE
  5
15B
330
1F
100
AcDbEntity
  8
SK3
  6
SLD-Dashed
370
    18
100
AcDbLine
 10
12.5081410771
 20
22.908022864
 30
0.0
 11
12.6842432519
 21
23.0360191728
 31
0.0
  0
LINE
  5
15C
330
1F
100
AcDbEntity
  8
SK3
  6
SLD-Dashed
370
    18
100
AcDbLine
 10
12.6842432519
 20
23.0360191728
 30
0.0
 11
12.7617441019
 21
23.1749729563
 31
0.0
  0
LINE
  5
15D
330
1F
100
AcDbEntity
  8
SK3
  6
SLD-Dashed
370
    18
100
AcDbLine
 10
12.7617441019
 20
23.1749729563
 30
0.0
 11
12.7357739637
 21
23.3161532371
 31
0.0
  0
LINE
  5
15E
330
1F
100
AcDbEntity
  8
SK3
  6
SLD-Dashed
370
    18
100
AcDbLine
 10
12.7357739637
 20
23.3161532371
 30
0.0
 11
12.6079646366
 21
23.4506891391
 31
0.0
  0
LINE
  5
15F
330
1F
100
AcDbEntity
  8
SK3
  6
SLD-Dashed
370
    18
100
AcDbLine
 10
12.6079646366
 20
23.4506891391
 30
0.0
 11
12.3863468506
 21
23.5701272766
 31
0.0
  0
LINE
  5
160
330
1F
100
AcDbEntity
  8
SK3
  6
SLD-Dashed
370
    18
100
AcDbLine
 10
12.3863468506
 20
23.5701272766
 30
0.0
 11
12.0848456663
 21
23.6669629122
 31
0.0
  0
LINE
  5
161
330
1F
100
AcDbEntity
  8
SK3
  6
SLD-Dashed
370
    18
100
AcDbLine
 10
12.0848456663
 20
23.6669629122
 30
0.0
 11
11.7224055119
 21
23.7351115069
 31
0.0
  0
LINE
  5
162
330
1F
100
AcDbEntity
  8
SK3
  6
SLD-Dashed
370
    18
100
AcDbLine
 10
11.7224055119
 20
23.7351115069
 30
0.0
 11
11.3217998354
 21
23.7702910338
 31
0.0
  0
LINE
  5
163
330
1F
100
AcDbEntity
  8
SK3
  6
SLD-Dashed
370
    18
100
AcDbLine
 10
11.3217998354
 20
23.7702910338
 30
0.0
 11
10.9082001646
 21
23.7702910338
 31
0.0
  0
LINE
  5
164
330
1F
100
AcDbEntity
  8
SK3
  6
SLD-Dashed
370
    18
100
AcDbLine
 10
10.9082001646
 20
23.7702910338
 30
0.0
 11
10.5075944881
 21
23.7351115069
 31
0.0
  0
LINE
  5
165
330
1F
100
AcDbEntity
  8
SK3
  6
SLD-Dashed
370
    18
100
AcDbLine
 10
10.5075944881
 20
23.7351115069
 30
0.0
 11
10.1451543337
 21
23.6669629122
 31
0.0
  0
LINE
  5
166
330
1F
100
AcDbEntity
  8
SK3
  6
SLD-Dashed
370
    18
100
AcDbLine
 10
10.1451543337
 20
23.6669629122
 30
0.0
 11
9.8436531494
 21
23.5701272766
 31
0.0
  0
LINE
  5
167
330
1F
100
AcDbEntity
  8
SK3
  6
SLD-Dashed
370
    18
100
AcDbLine
 10
9.8436531494
 20
23.5701272766
 30
0.0
 11
9.6220353634
 21
23.4506891391
 31
0.0
  0
LINE
  5
168
330
1F
100
AcDbEntity
  8
SK3
  6
SLD-Dashed
370
    18
100
AcDbLine
 10
9.6220353634
 20
23.4506891391
 30
0.0
 11
9.4942260363
 21
23.3161532371
 31
0.0
  0
LINE
  5
169
330
1F
100
AcDbEntity
  8
SK3
  6
SLD-Dashed
370
    18
100
AcDbLine
 10
9.4942260363
 20
23.3161532371
 30
0.0
 11
9.4682558981
 21
23.1749729563
 31
0.0
  0
LINE
  5
16A
330
1F
100
AcDbEntity
  8
SK3
  6
SLD-Dashed
370
    18
100
AcDbLine
 10
9.4682558981
 20
23.1749729563
 30
0.0
 11
9.5457567481
 21
23.0360191728
 31
0.0
  0
LINE
  5
16B
330
1F
100
AcDbEntity
  8
SK3
  6
SLD-Dashed
370
    18
100
AcDbLine
 10
9.5457567481
 20
23.0360191728
 30
0.0
 11
9.7218589229
 21
22.908022864
 31
0.0
  0
LINE
  5
16C
330
1F
100
AcDbEntity
  8
SK3
  6
SLD-Dashed
370
    18
100
AcDbLine
 10
9.7218589229
 20
22.908022864
 30
0.0
 11
9.9854972752
 21
22.7990265086
 31
0.0
  0
LINE
  5
16D
330
1F
100
AcDbEntity
  8
SK3
  6
SLD-Dashed
370
    18
100
AcDbLine
 10
9.9854972752
 20
22.7990265086
 30
0.0
 11
10.3201064377
 21
22.7158787485
 31
0.0
  0
LINE
  5
16E
330
1F
100
AcDbEntity
  8
SK3
  6
SLD-Dashed
370
    18
100
AcDbLine
 10
10.3201064377
 20
22.7158787485
 30
0.0
 11
10.7046616862
 21
22.6638040633
 31
0.0
  0
LINE
  5
16F
330
1F
100
AcDbEntity
  8
SK3
  6
SLD-Dashed
370
    18
100
AcDbLine
 10
10.7046616862
 20
22.6638040633
 30
0.0
 11
11.115
 21
22.6460744969
 31
0.0
  0
LINE
  5
170
330
1F
100
AcDbEntity
  8
SK3
  6
SLD-Dashed
370
    18
100
AcDbLine
 10
-66.9509618943
 20
-8.5
 30
0.0
 11
-66.9509618943
 21
8.5
 31
0.0
  0
LINE
  5
171
330
1F
100
AcDbEntity
  8
SK3
  6
SLD-Dashed
370
    18
100
AcDbLine
 10
-68.25
 20
9.25
 30
0.0
 11
-68.25
 21
-9.25
 31
0.0
  0
LINE
  5
172
330
1F
100
AcDbEntity
  8
SK3
  6
SLD-Dashed
370
    18
100
AcDbLine
 10
-60.2696152423
 20
-8.5
 30
0.0
 11
-60.2696152423
 21
8.5
 31
0.0
  0
LINE
  5
173
330
1F
100
AcDbEntity
  8
SK3
  6
SLD-Dashed
370
    18
100
AcDbLine
 10
-59.75
 20
-8.8
 30
0.0
 11
-59.75
 21
8.8
 31
0.0
  0
LINE
  5
174
330
1F
100
AcDbEntity
  8
SK3
  6
SLD-Dashed
370
    18
100
AcDbLine
 10
-57.75
 20
-8.8
 30
0.0
 11
-57.75
 21
8.8
 31
0.0
  0
LINE
  5
175
330
1F
100
AcDbEntity
  8
SK3
  6
SLD-Dashed
370
    18
100
AcDbLine
 10
-56.7107695155
 20
7.0
 30
0.0
 11
-56.7107695155
 21
-7.0
 31
0.0
  0
LINE
  5
176
330
1F
100
AcDbEntity
  8
SK3
  6
SLD-Dashed
370
    18
100
AcDbLine
 10
13.75
 20
7.0
 30
0.0
 11
13.75
 21
-7.0
 31
0.0
  0
LINE
  5
177
330
1F
100
AcDbEntity
  8
SK3
  6
SLD-Dashed
370
    18
100
AcDbLine
 10
15.5525818571
 20
4.0
 30
0.0
 11
15.5525818571
 21
-4.0
 31
0.0
  0
LINE
  5
178
330
1F
100
AcDbEntity
  8
SK3
  6
SLD-Dashed
370
    18
100
AcDbLine
 10
26.9
 20
-12.7
 30
0.0
 11
37.1
 21
-12.7
 31
0.0
  0
LINE
  5
179
330
1F
100
AcDbEntity
  8
SK3
  6
SLD-Dashed
370
    18
100
AcDbLine
 10
49.0
 20
4.0
 30
0.0
 11
49.0
 21
-4.0
 31
0.0
  0
LINE
  5
17A
330
1F
100
AcDbEntity
  8
SK3
  6
SLD-Dashed
370
    18
100
AcDbLine
 10
50.0
 20
4.5645510695
 30
0.0
 11
50.0
 21
-4.5645510695
 31
0.0
  0
LINE
  5
17B
330
1F
100
AcDbEntity
  8
SK3
  6
SLD-Dashed
370
    18
100
AcDbLine
 10
28.6
 20
-12.7
 30
0.0
 11
35.4
 21
-12.7
 31
0.0
  0
LINE
  5
17C
330
1F
100
AcDbEntity
  8
SK3
  6
SLD-Dashed
370
    18
100
AcDbLine
 10
5.7019928732
 20
-25.9272101898
 30
0.0
 11
5.5931347256
 21
-25.9439955808
 31
0.0
  0
LINE
  5
17D
330
1F
100
AcDbEntity
  8
SK3
  6
SLD-Dashed
370
    18
100
AcDbLine
 10
5.5931347256
 20
-25.9439955808
 30
0.0
 11
5.4264855034
 21
-25.8762177371
 31
0.0
  0
LINE
  5
17E
330
1F
100
AcDbEntity
  8
SK3
  6
SLD-Dashed
370
    18
100
AcDbLine
 10
5.4264855034
 20
-25.8762177371
 30
0.0
 11
5.2110293093
 21
-25.72753058
 31
0.0
  0
LINE
  5
17F
330
1F
100
AcDbEntity
  8
SK3
  6
SLD-Dashed
370
    18
100
AcDbLine
 10
5.2110293093
 20
-25.72753058
 30
0.0
 11
4.9583814425
 21
-25.5059498724
 31
0.0
  0
LINE
  5
180
330
1F
100
AcDbEntity
  8
SK3
  6
SLD-Dashed
370
    18
100
AcDbLine
 10
4.9583814425
 20
-25.5059498724
 30
0.0
 11
4.6821622149
 21
-25.2234210877
 31
0.0
  0
LINE
  5
181
330
1F
100
AcDbEntity
  8
SK3
  6
SLD-Dashed
370
    18
100
AcDbLine
 10
4.6821622149
 20
-25.2234210877
 30
0.0
 11
4.3972626765
 21
-24.8951754259
 31
0.0
  0
LINE
  5
182
330
1F
100
AcDbEntity
  8
SK3
  6
SLD-Dashed
370
    18
100
AcDbLine
 10
4.3972626765
 20
-24.8951754259
 30
0.0
 11
4.1190418352
 21
-24.5389086954
 31
0.0
  0
LINE
  5
183
330
1F
100
AcDbEntity
  8
SK3
  6
SLD-Dashed
370
    18
100
AcDbLine
 10
4.1190418352
 20
-24.5389086954
 30
0.0
 11
3.8624986486
 21
-24.173827328
 31
0.0
  0
LINE
  5
184
330
1F
100
AcDbEntity
  8
SK3
  6
SLD-Dashed
370
    18
100
AcDbLine
 10
3.8624986486
 20
-24.173827328
 30
0.0
 11
3.6414634263
 21
-23.8196129546
 31
0.0
  0
LINE
  5
185
330
1F
100
AcDbEntity
  8
SK3
  6
SLD-Dashed
370
    18
100
AcDbLine
 10
3.6414634263
 20
-23.8196129546
 30
0.0
 11
3.4678522343
 21
-23.4953613639
 31
0.0
  0
LINE
  5
186
330
1F
100
AcDbEntity
  8
SK3
  6
SLD-Dashed
370
    18
100
AcDbLine
 10
3.4678522343
 20
-23.4953613639
 30
0.0
 11
3.3510244969
 21
-23.218553043
 31
0.0
  0
LINE
  5
187
330
1F
100
AcDbEntity
  8
SK3
  6
SLD-Dashed
370
    18
100
AcDbLine
 10
3.3510244969
 20
-23.218553043
 30
0.0
 11
3.2972784277
 21
-23.0041108001
 31
0.0
  0
LINE
  5
188
330
1F
100
AcDbEntity
  8
SK3
  6
SLD-Dashed
370
    18
100
AcDbLine
 10
3.2972784277
 20
-23.0041108001
 30
0.0
 11
3.3095114912
 21
-22.8635952721
 31
0.0
  0
LINE
  5
189
330
1F
100
AcDbEntity
  8
SK3
  6
SLD-Dashed
370
    18
100
AcDbLine
 10
3.3095114912
 20
-22.8635952721
 30
0.0
 11
3.3870641997
 21
-22.8045816874
 31
0.0
  0
LINE
  5
18A
330
1F
100
AcDbEntity
  8
SK3
  6
SLD-Dashed
370
    18
100
AcDbLine
 10
3.3870641997
 20
-22.8045816874
 30
0.0
 11
3.5257556667
 21
-22.8302514837
 31
0.0
  0
LINE
  5
18B
330
1F
100
AcDbEntity
  8
SK3
  6
SLD-Dashed
370
    18
100
AcDbLine
 10
3.5257556667
 20
-22.8302514837
 30
0.0
 11
3.7181089993
 21
-22.9392207956
 31
0.0
  0
LINE
  5
18C
330
1F
100
AcDbEntity
  8
SK3
  6
SLD-Dashed
370
    18
100
AcDbLine
 10
3.7181089993
 20
-22.9392207956
 30
0.0
 11
3.9537543795
 21
-23.1256150593
 31
0.0
  0
LINE
  5
18D
330
1F
100
AcDbEntity
  8
SK3
  6
SLD-Dashed
370
    18
100
AcDbLine
 10
3.9537543795
 20
-23.1256150593
 30
0.0
 11
4.2199881039
 21
-23.3793857117
 31
0.0
  0
LINE
  5
18E
330
1F
100
AcDbEntity
  8
SK3
  6
SLD-Dashed
370
    18
100
AcDbLine
 10
4.2199881039
 20
-23.3793857117
 30
0.0
 11
4.5024574435
 21
-23.6868519115
 31
0.0
  0
LINE
  5
18F
330
1F
100
AcDbEntity
  8
SK3
  6
SLD-Dashed
370
    18
100
AcDbLine
 10
4.5024574435
 20
-23.6868519115
 30
0.0
 11
4.7859344031
 21
-24.031438076
 31
0.0
  0
LINE
  5
190
330
1F
100
AcDbEntity
  8
SK3
  6
SLD-Dashed
370
    18
100
AcDbLine
 10
4.7859344031
 20
-24.031438076
 30
0.0
 11
5.0551366664
 21
-24.3945674761
 31
0.0
  0
LINE
  5
191
330
1F
100
AcDbEntity
  8
SK3
  6
SLD-Dashed
370
    18
100
AcDbLine
 10
5.0551366664
 20
-24.3945674761
 30
0.0
 11
5.2955514698
 21
-24.7566637116
 31
0.0
  0
LINE
  5
192
330
1F
100
AcDbEntity
  8
SK3
  6
SLD-Dashed
370
    18
100
AcDbLine
 10
5.2955514698
 20
-24.7566637116
 30
0.0
 11
5.4942179889
 21
-25.098206081
 31
0.0
  0
LINE
  5
193
330
1F
100
AcDbEntity
  8
SK3
  6
SLD-Dashed
370
    18
100
AcDbLine
 10
5.4942179889
 20
-25.098206081
 30
0.0
 11
5.6404260603
 21
-25.4007819466
 31
0.0
  0
LINE
  5
194
330
1F
100
AcDbEntity
  8
SK3
  6
SLD-Dashed
370
    18
100
AcDbLine
 10
5.6404260603
 20
-25.4007819466
 30
0.0
 11
5.7262935689
 21
-25.6480793652
 31
0.0
  0
LINE
  5
195
330
1F
100
AcDbEntity
  8
SK3
  6
SLD-Dashed
370
    18
100
AcDbLine
 10
5.7262935689
 20
-25.6480793652
 30
0.0
 11
5.7471913753
 21
-25.8267664689
 31
0.0
  0
LINE
  5
196
330
1F
100
AcDbEntity
  8
SK3
  6
SLD-Dashed
370
    18
100
AcDbLine
 10
5.7471913753
 20
-25.8267664689
 30
0.0
 11
5.7019928732
 21
-25.9272101898
 31
0.0
  0
LINE
  5
197
330
1F
100
AcDbEntity
  8
SK3
  6
SLD-Dashed
370
    18
100
AcDbLine
 10
16.3488925452
 20
-17.8254723219
 30
0.0
 11
16.2400343976
 21
-17.8422577129
 31
0.0
  0
LINE
  5
198
330
1F
100
AcDbEntity
  8
SK3
  6
SLD-Dashed
370
    18
100
AcDbLine
 10
16.2400343976
 20
-17.8422577129
 30
0.0
 11
16.0733851753
 21
-17.7744798693
 31
0.0
  0
LINE
  5
199
330
1F
100
AcDbEntity
  8
SK3
  6
SLD-Dashed
370
    18
100
AcDbLine
 10
16.0733851753
 20
-17.7744798693
 30
0.0
 11
15.8579289812
 21
-17.6257927121
 31
0.0
  0
LINE
  5
19A
330
1F
100
AcDbEntity
  8
SK3
  6
SLD-Dashed
370
    18
100
AcDbLine
 10
15.8579289812
 20
-17.6257927121
 30
0.0
 11
15.6052811144
 21
-17.4042120046
 31
0.0
  0
LINE
  5
19B
330
1F
100
AcDbEntity
  8
SK3
  6
SLD-Dashed
370
    18
100
AcDbLine
 10
15.6052811144
 20
-17.4042120046
 30
0.0
 11
15.3290618868
 21
-17.1216832199
 31
0.0
  0
LINE
  5
19C
330
1F
100
AcDbEntity
  8
SK3
  6
SLD-Dashed
370
    18
100
AcDbLine
 10
15.3290618868
 20
-17.1216832199
 30
0.0
 11
15.0441623484
 21
-16.793437558
 31
0.0
  0
LINE
  5
19D
330
1F
100
AcDbEntity
  8
SK3
  6
SLD-Dashed
370
    18
100
AcDbLine
 10
15.0441623484
 20
-16.793437558
 30
0.0
 11
14.7659415072
 21
-16.4371708276
 31
0.0
  0
LINE
  5
19E
330
1F
100
AcDbEntity
  8
SK3
  6
SLD-Dashed
370
    18
100
AcDbLine
 10
14.7659415072
 20
-16.4371708276
 30
0.0
 11
14.5093983206
 21
-16.0720894601
 31
0.0
  0
LINE
  5
19F
330
1F
100
AcDbEntity
  8
SK3
  6
SLD-Dashed
370
    18
100
AcDbLine
 10
14.5093983206
 20
-16.0720894601
 30
0.0
 11
14.2883630983
 21
-15.7178750868
 31
0.0
  0
LINE
  5
1A0
330
1F
100
AcDbEntity
  8
SK3
  6
SLD-Dashed
370
    18
100
AcDbLine
 10
14.2883630983
 20
-15.7178750868
 30
0.0
 11
14.1147519063
 21
-15.3936234961
 31
0.0
  0
LINE
  5
1A1
330
1F
100
AcDbEntity
  8
SK3
  6
SLD-Dashed
370
    18
100
AcDbLine
 10
14.1147519063
 20
-15.3936234961
 30
0.0
 11
13.9979241689
 21
-15.1168151751
 31
0.0
  0
LINE
  5
1A2
330
1F
100
AcDbEntity
  8
SK3
  6
SLD-Dashed
370
    18
100
AcDbLine
 10
13.9979241689
 20
-15.1168151751
 30
0.0
 11
13.9441780997
 21
-14.9023729322
 31
0.0
  0
LINE
  5
1A3
330
1F
100
AcDbEntity
  8
SK3
  6
SLD-Dashed
370
    18
100
AcDbLine
 10
13.9441780997
 20
-14.9023729322
 30
0.0
 11
13.9564111631
 21
-14.7618574042
 31
0.0
  0
LINE
  5
1A4
330
1F
100
AcDbEntity
  8
SK3
  6
SLD-Dashed
370
    18
100
AcDbLine
 10
13.9564111631
 20
-14.7618574042
 30
0.0
 11
14.0339638717
 21
-14.7028438195
 31
0.0
  0
LINE
  5
1A5
330
1F
100
AcDbEntity
  8
SK3
  6
SLD-Dashed
370
    18
100
AcDbLine
 10
14.0339638717
 20
-14.7028438195
 30
0.0
 11
14.1726553387
 21
-14.7285136158
 31
0.0
  0
LINE
  5
1A6
330
1F
100
AcDbEntity
  8
SK3
  6
SLD-Dashed
370
    18
100
AcDbLine
 10
14.1726553387
 20
-14.7285136158
 30
0.0
 11
14.3650086712
 21
-14.8374829277
 31
0.0
  0
LINE
  5
1A7
330
1F
100
AcDbEntity
  8
SK3
  6
SLD-Dashed
370
    18
100
AcDbLine
 10
14.3650086712
 20
-14.8374829277
 30
0.0
 11
14.6006540514
 21
-15.0238771914
 31
0.0
  0
LINE
  5
1A8
330
1F
100
AcDbEntity
  8
SK3
  6
SLD-Dashed
370
    18
100
AcDbLine
 10
14.6006540514
 20
-15.0238771914
 30
0.0
 11
14.8668877759
 21
-15.2776478439
 31
0.0
  0
LINE
  5
1A9
330
1F
100
AcDbEntity
  8
SK3
  6
SLD-Dashed
370
    18
100
AcDbLine
 10
14.8668877759
 20
-15.2776478439
 30
0.0
 11
15.1493571155
 21
-15.5851140436
 31
0.0
  0
LINE
  5
1AA
330
1F
100
AcDbEntity
  8
SK3
  6
SLD-Dashed
370
    18
100
AcDbLine
 10
15.1493571155
 20
-15.5851140436
 30
0.0
 11
15.4328340751
 21
-15.9297002082
 31
0.0
  0
LINE
  5
1AB
330
1F
100
AcDbEntity
  8
SK3
  6
SLD-Dashed
370
    18
100
AcDbLine
 10
15.4328340751
 20
-15.9297002082
 30
0.0
 11
15.7020363384
 21
-16.2928296082
 31
0.0
  0
LINE
  5
1AC
330
1F
100
AcDbEntity
  8
SK3
  6
SLD-Dashed
370
    18
100
AcDbLine
 10
15.7020363384
 20
-16.2928296082
 30
0.0
 11
15.9424511417
 21
-16.6549258438
 31
0.0
  0
LINE
  5
1AD
330
1F
100
AcDbEntity
  8
SK3
  6
SLD-Dashed
370
    18
100
AcDbLine
 10
15.9424511417
 20
-16.6549258438
 30
0.0
 11
16.1411176608
 21
-16.9964682132
 31
0.0
  0
LINE
  5
1AE
330
1F
100
AcDbEntity
  8
SK3
  6
SLD-Dashed
370
    18
100
AcDbLine
 10
16.1411176608
 20
-16.9964682132
 30
0.0
 11
16.2873257322
 21
-17.2990440787
 31
0.0
  0
LINE
  5
1AF
330
1F
100
AcDbEntity
  8
SK3
  6
SLD-Dashed
370
    18
100
AcDbLine
 10
16.2873257322
 20
-17.2990440787
 30
0.0
 11
16.3731932409
 21
-17.5463414973
 31
0.0
  0
LINE
  5
1B0
330
1F
100
AcDbEntity
  8
SK3
  6
SLD-Dashed
370
    18
100
AcDbLine
 10
16.3731932409
 20
-17.5463414973
 30
0.0
 11
16.3940910473
 21
-17.7250286011
 31
0.0
  0
LINE
  5
1B1
330
1F
100
AcDbEntity
  8
SK3
  6
SLD-Dashed
370
    18
100
AcDbLine
 10
16.3940910473
 20
-17.7250286011
 30
0.0
 11
16.3488925452
 21
-17.8254723219
 31
0.0
  0
LINE
  5
1B2
330
1F
100
AcDbEntity
  8
SK3
  6
SLD-Dashed
370
    18
100
AcDbLine
 10
11.115
 20
-22.9279822832
 30
0.0
 11
10.7046616862
 21
-22.9457118495
 31
0.0
  0
LINE
  5
1B3
330
1F
100
AcDbEntity
  8
SK3
  6
SLD-Dashed
370
    18
100
AcDbLine
 10
10.7046616862
 20
-22.9457118495
 30
0.0
 11
10.3201064377
 21
-22.9977865347
 31
0.0
  0
LINE
  5
1B4
330
1F
100
AcDbEntity
  8
SK3
  6
SLD-Dashed
370
    18
100
AcDbLine
 10
10.3201064377
 20
-22.9977865347
 30
0.0
 11
9.9854972752
 21
-23.0809342948
 31
0.0
  0
LINE
  5
1B5
330
1F
100
AcDbEntity
  8
SK3
  6
SLD-Dashed
370
    18
100
AcDbLine
 10
9.9854972752
 20
-23.0809342948
 30
0.0
 11
9.7218589229
 21
-23.1899306502
 31
0.0
  0
LINE
  5
1B6
330
1F
100
AcDbEntity
  8
SK3
  6
SLD-Dashed
370
    18
100
AcDbLine
 10
9.7218589229
 20
-23.1899306502
 30
0.0
 11
9.5457567481
 21
-23.3179269591
 31
0.0
  0
LINE
  5
1B7
330
1F
100
AcDbEntity
  8
SK3
  6
SLD-Dashed
370
    18
100
AcDbLine
 10
9.5457567481
 20
-23.3179269591
 30
0.0
 11
9.4682558981
 21
-23.4568807425
 31
0.0
  0
LINE
  5
1B8
330
1F
100
AcDbEntity
  8
SK3
  6
SLD-Dashed
370
    18
100
AcDbLine
 10
9.4682558981
 20
-23.4568807425
 30
0.0
 11
9.4942260363
 21
-23.5980610234
 31
0.0
  0
LINE
  5
1B9
330
1F
100
AcDbEntity
  8
SK3
  6
SLD-Dashed
370
    18
100
AcDbLine
 10
9.4942260363
 20
-23.5980610234
 30
0.0
 11
9.6220353634
 21
-23.7325969253
 31
0.0
  0
LINE
  5
1BA
330
1F
100
AcDbEntity
  8
SK3
  6
SLD-Dashed
370
    18
100
AcDbLine
 10
9.6220353634
 20
-23.7325969253
 30
0.0
 11
9.8436531494
 21
-23.8520350628
 31
0.0
  0
LINE
  5
1BB
330
1F
100
AcDbEntity
  8
SK3
  6
SLD-Dashed
370
    18
100
AcDbLine
 10
9.8436531494
 20
-23.8520350628
 30
0.0
 11
10.1451543337
 21
-23.9488706985
 31
0.0
  0
LINE
  5
1BC
330
1F
100
AcDbEntity
  8
SK3
  6
SLD-Dashed
370
    18
100
AcDbLine
 10
10.1451543337
 20
-23.9488706985
 30
0.0
 11
10.5075944881
 21
-24.0170192931
 31
0.0
  0
LINE
  5
1BD
330
1F
100
AcDbEntity
  8
SK3
  6
SLD-Dashed
370
    18
100
AcDbLine
 10
10.5075944881
 20
-24.0170192931
 30
0.0
 11
10.9082001646
 21
-24.05219882
 31
0.0
  0
LINE
  5
1BE
330
1F
100
AcDbEntity
  8
SK3
  6
SLD-Dashed
370
    18
100
AcDbLine
 10
10.9082001646
 20
-24.05219882
 30
0.0
 11
11.3217998354
 21
-24.05219882
 31
0.0
  0
LINE
  5
1BF
330
1F
100
AcDbEntity
  8
SK3
  6
SLD-Dashed
370
    18
100
AcDbLine
 10
11.3217998354
 20
-24.05219882
 30
0.0
 11
11.7224055119
 21
-24.0170192931
 31
0.0
  0
LINE
  5
1C0
330
1F
100
AcDbEntity
  8
SK3
  6
SLD-Dashed
370
    18
100
AcDbLine
 10
11.7224055119
 20
-24.0170192931
 30
0.0
 11
12.0848456663
 21
-23.9488706985
 31
0.0
  0
LINE
  5
1C1
330
1F
100
AcDbEntity
  8
SK3
  6
SLD-Dashed
370
    18
100
AcDbLine
 10
12.0848456663
 20
-23.9488706985
 30
0.0
 11
12.3863468506
 21
-23.8520350628
 31
0.0
  0
LINE
  5
1C2
330
1F
100
AcDbEntity
  8
SK3
  6
SLD-Dashed
370
    18
100
AcDbLine
 10
12.3863468506
 20
-23.8520350628
 30
0.0
 11
12.6079646366
 21
-23.7325969253
 31
0.0
  0
LINE
  5
1C3
330
1F
100
AcDbEntity
  8
SK3
  6
SLD-Dashed
370
    18
100
AcDbLine
 10
12.6079646366
 20
-23.7325969253
 30
0.0
 11
12.7357739637
 21
-23.5980610234
 31
0.0
  0
LINE
  5
1C4
330
1F
100
AcDbEntity
  8
SK3
  6
SLD-Dashed
370
    18
100
AcDbLine
 10
12.7357739637
 20
-23.5980610234
 30
0.0
 11
12.7617441019
 21
-23.4568807425
 31
0.0
  0
LINE
  5
1C5
330
1F
100
AcDbEntity
  8
SK3
  6
SLD-Dashed
370
    18
100
AcDbLine
 10
12.7617441019
 20
-23.4568807425
 30
0.0
 11
12.6842432519
 21
-23.3179269591
 31
0.0
  0
LINE
  5
1C6
330
1F
100
AcDbEntity
  8
SK3
  6
SLD-Dashed
370
    18
100
AcDbLine
 10
12.6842432519
 20
-23.3179269591
 30
0.0
 11
12.5081410771
 21
-23.1899306502
 31
0.0
  0
LINE
  5
1C7
330
1F
100
AcDbEntity
  8
SK3
  6
SLD-Dashed
370
    18
100
AcDbLine
 10
12.5081410771
 20
-23.1899306502
 30
0.0
 11
12.2445027248
 21
-23.0809342948
 31
0.0
  0
LINE
  5
1C8
330
1F
100
AcDbEntity
  8
SK3
  6
SLD-Dashed
370
    18
100
AcDbLine
 10
12.2445027248
 20
-23.0809342948
 30
0.0
 11
11.9098935623
 21
-22.9977865347
 31
0.0
  0
LINE
  5
1C9
330
1F
100
AcDbEntity
  8
SK3
  6
SLD-Dashed
370
    18
100
AcDbLine
 10
11.9098935623
 20
-22.9977865347
 30
0.0
 11
11.5253383138
 21
-22.9457118495
 31
0.0
  0
LINE
  5
1CA
330
1F
100
AcDbEntity
  8
SK3
  6
SLD-Dashed
370
    18
100
AcDbLine
 10
11.5253383138
 20
-22.9457118495
 30
0.0
 11
11.115
 21
-22.9279822832
 31
0.0
  0
LINE
  5
1CB
330
1F
100
AcDbEntity
  8
SK3
  6
SLD-Dashed
370
    18
100
AcDbLine
 10
5.7322709434
 20
-25.9670001189
 30
0.0
 11
5.6206215613
 21
-25.9842159046
 31
0.0
  0
LINE
  5
1CC
330
1F
100
AcDbEntity
  8
SK3
  6
SLD-Dashed
370
    18
100
AcDbLine
 10
5.6206215613
 20
-25.9842159046
 30
0.0
 11
5.4496992821
 21
-25.9147001675
 31
0.0
  0
LINE
  5
1CD
330
1F
100
AcDbEntity
  8
SK3
  6
SLD-Dashed
370
    18
100
AcDbLine
 10
5.4496992821
 20
-25.9147001675
 30
0.0
 11
5.2287185702
 21
-25.7622005192
 31
0.0
  0
LINE
  5
1CE
330
1F
100
AcDbEntity
  8
SK3
  6
SLD-Dashed
370
    18
100
AcDbLine
 10
5.2287185702
 20
-25.7622005192
 30
0.0
 11
4.9695925529
 21
-25.534938255
 31
0.0
  0
LINE
  5
1CF
330
1F
100
AcDbEntity
  8
SK3
  6
SLD-Dashed
370
    18
100
AcDbLine
 10
4.9695925529
 20
-25.534938255
 30
0.0
 11
4.686290781
 21
-25.2451651425
 31
0.0
  0
LINE
  5
1D0
330
1F
100
AcDbEntity
  8
SK3
  6
SLD-Dashed
370
    18
100
AcDbLine
 10
4.686290781
 20
-25.2451651425
 30
0.0
 11
4.3940861263
 21
-24.9085029252
 31
0.0
  0
LINE
  5
1D1
330
1F
100
AcDbEntity
  8
SK3
  6
SLD-Dashed
370
    18
100
AcDbLine
 10
4.3940861263
 20
-24.9085029252
 30
0.0
 11
4.1087314173
 21
-24.5431011504
 31
0.0
  0
LINE
  5
1D2
330
1F
100
AcDbEntity
  8
SK3
  6
SLD-Dashed
370
    18
100
AcDbLine
 10
4.1087314173
 20
-24.5431011504
 30
0.0
 11
3.8456102003
 21
-24.1686587222
 31
0.0
  0
LINE
  5
1D3
330
1F
100
AcDbEntity
  8
SK3
  6
SLD-Dashed
370
    18
100
AcDbLine
 10
3.8456102003
 20
-24.1686587222
 30
0.0
 11
3.6189074082
 21
-23.805361929
 31
0.0
  0
LINE
  5
1D4
330
1F
100
AcDbEntity
  8
SK3
  6
SLD-Dashed
370
    18
100
AcDbLine
 10
3.6189074082
 20
-23.805361929
 30
0.0
 11
3.4408446471
 21
-23.472796195
 31
0.0
  0
LINE
  5
1D5
330
1F
100
AcDbEntity
  8
SK3
  6
SLD-Dashed
370
    18
100
AcDbLine
 10
3.4408446471
 20
-23.472796195
 30
0.0
 11
3.3210213267
 21
-23.1888902248
 31
0.0
  0
LINE
  5
1D6
330
1F
100
AcDbEntity
  8
SK3
  6
SLD-Dashed
370
    18
100
AcDbLine
 10
3.3210213267
 20
-23.1888902248
 30
0.0
 11
3.2658971532
 21
-22.9689494629
 31
0.0
  0
LINE
  5
1D7
330
1F
100
AcDbEntity
  8
SK3
  6
SLD-Dashed
370
    18
100
AcDbLine
 10
3.2658971532
 20
-22.9689494629
 30
0.0
 11
3.2784438849
 21
-22.8248309726
 31
0.0
  0
LINE
  5
1D8
330
1F
100
AcDbEntity
  8
SK3
  6
SLD-Dashed
370
    18
100
AcDbLine
 10
3.2784438849
 20
-22.8248309726
 30
0.0
 11
3.3579851244
 21
-22.7643042191
 31
0.0
  0
LINE
  5
1D9
330
1F
100
AcDbEntity
  8
SK3
  6
SLD-Dashed
370
    18
100
AcDbLine
 10
3.3579851244
 20
-22.7643042191
 30
0.0
 11
3.5002327829
 21
-22.7906322152
 31
0.0
  0
LINE
  5
1DA
330
1F
100
AcDbEntity
  8
SK3
  6
SLD-Dashed
370
    18
100
AcDbLine
 10
3.5002327829
 20
-22.7906322152
 30
0.0
 11
3.6975182522
 21
-22.9023956121
 31
0.0
  0
LINE
  5
1DB
330
1F
100
AcDbEntity
  8
SK3
  6
SLD-Dashed
370
    18
100
AcDbLine
 10
3.6975182522
 20
-22.9023956121
 30
0.0
 11
3.9392058217
 21
-23.0935692159
 31
0.0
  0
LINE
  5
1DC
330
1F
100
AcDbEntity
  8
SK3
  6
SLD-Dashed
370
    18
100
AcDbLine
 10
3.9392058217
 20
-23.0935692159
 30
0.0
 11
4.2122660518
 21
-23.3538468081
 31
0.0
  0
LINE
  5
1DD
330
1F
100
AcDbEntity
  8
SK3
  6
SLD-Dashed
370
    18
100
AcDbLine
 10
4.2122660518
 20
-23.3538468081
 30
0.0
 11
4.501978195
 21
-23.6691967566
 31
0.0
  0
LINE
  5
1DE
330
1F
100
AcDbEntity
  8
SK3
  6
SLD-Dashed
370
    18
100
AcDbLine
 10
4.501978195
 20
-23.6691967566
 30
0.0
 11
4.7927237946
 21
-24.0226184638
 31
0.0
  0
LINE
  5
1DF
330
1F
100
AcDbEntity
  8
SK3
  6
SLD-Dashed
370
    18
100
AcDbLine
 10
4.7927237946
 20
-24.0226184638
 30
0.0
 11
5.0688286801
 21
-24.3950588741
 31
0.0
  0
LINE
  5
1E0
330
1F
100
AcDbEntity
  8
SK3
  6
SLD-Dashed
370
    18
100
AcDbLine
 10
5.0688286801
 20
-24.3950588741
 30
0.0
 11
5.3154079656
 21
-24.7664396286
 31
0.0
  0
LINE
  5
1E1
330
1F
100
AcDbEntity
  8
SK3
  6
SLD-Dashed
370
    18
100
AcDbLine
 10
5.3154079656
 20
-24.7664396286
 30
0.0
 11
5.519168498
 21
-25.1167394946
 31
0.0
  0
LINE
  5
1E2
330
1F
100
AcDbEntity
  8
SK3
  6
SLD-Dashed
370
    18
100
AcDbLine
 10
5.519168498
 20
-25.1167394946
 30
0.0
 11
5.6691254942
 21
-25.4270737157
 31
0.0
  0
LINE
  5
1E3
330
1F
100
AcDbEntity
  8
SK3
  6
SLD-Dashed
370
    18
100
AcDbLine
 10
5.6691254942
 20
-25.4270737157
 30
0.0
 11
5.7571947339
 21
-25.6807120937
 31
0.0
  0
LINE
  5
1E4
330
1F
100
AcDbEntity
  8
SK3
  6
SLD-Dashed
370
    18
100
AcDbLine
 10
5.7571947339
 20
-25.6807120937
 30
0.0
 11
5.7786283815
 21
-25.863980918
 31
0.0
  0
LINE
  5
1E5
330
1F
100
AcDbEntity
  8
SK3
  6
SLD-Dashed
370
    18
100
AcDbLine
 10
5.7786283815
 20
-25.863980918
 30
0.0
 11
5.7322709434
 21
-25.9670001189
 31
0.0
  0
LINE
  5
1E6
330
1F
100
AcDbEntity
  8
SK3
  6
SLD-Dashed
370
    18
100
AcDbLine
 10
3.2
 20
-22.8742979511
 30
0.0
 11
3.2
 21
-27.8871582268
 31
0.0
  0
LINE
  5
1E7
330
1F
100
AcDbEntity
  8
SK3
  6
SLD-Dashed
370
    18
100
AcDbLine
 10
9.115
 20
27.3466468125
 30
0.0
 11
9.115
 21
23.230614392
 31
0.0
  0
LINE
  5
1E8
330
1F
100
AcDbEntity
  8
SK3
  6
SLD-Dashed
370
    18
100
AcDbLine
 10
13.115
 20
23.2104077334
 30
0.0
 11
13.115
 21
27.3466468125
 31
0.0
  0
LINE
  5
1E9
330
1F
100
AcDbEntity
  8
SK3
  6
SLD-Dashed
370
    18
100
AcDbLine
 10
3.2
 20
22.8675293454
 30
0.0
 11
3.3100253255
 21
22.7838057852
 31
0.0
  0
LINE
  5
1EA
330
1F
100
AcDbEntity
  8
SK3
  6
SLD-Dashed
370
    18
100
AcDbLine
 10
5.7322709434
 20
25.9670001189
 30
0.0
 11
3.2
 21
27.8939268324
 31
0.0
  0
LINE
  5
1EB
330
1F
100
AcDbEntity
  8
SK3
  6
SLD-Dashed
370
    18
100
AcDbLine
 10
12.6773076344
 20
15.718620262
 30
0.0
 11
13.9872030677
 21
14.7218578465
 31
0.0
  0
LINE
  5
1EC
330
1F
100
AcDbEntity
  8
SK3
  6
SLD-Dashed
370
    18
100
AcDbLine
 10
3.3403033958
 20
22.8235957143
 30
0.0
 11
9.5636972046
 21
18.0879161418
 31
0.0
  0
LINE
  5
1ED
330
1F
100
AcDbEntity
  8
SK3
  6
SLD-Dashed
370
    18
100
AcDbLine
 10
9.5541511667
 20
22.9959177308
 30
0.0
 11
5.7019928732
 21
25.9272101898
 31
0.0
  0
LINE
  5
1EE
330
1F
100
AcDbEntity
  8
SK3
  6
SLD-Dashed
370
    18
100
AcDbLine
 10
16.3488925452
 20
17.8254723219
 30
0.0
 11
12.6670873806
 21
20.6271348944
 31
0.0
  0
LINE
  5
1EF
330
1F
100
AcDbEntity
  8
SK3
  6
SLD-Dashed
370
    18
100
AcDbLine
 10
9.465
 20
23.2104077334
 30
0.0
 11
9.465
 21
22.9667378435
 31
0.0
  0
LINE
  5
1F0
330
1F
100
AcDbEntity
  8
SK3
  6
SLD-Dashed
370
    18
100
AcDbLine
 10
12.765
 20
20.454307559
 30
0.0
 11
12.765
 21
23.2104077334
 31
0.0
  0
LINE
  5
1F1
330
1F
100
AcDbEntity
  8
SK3
  6
SLD-Dashed
370
    18
100
AcDbLine
 10
-68.25
 20
-9.25
 30
0.0
 11
-66.9509618943
 21
-8.5
 31
0.0
  0
LINE
  5
1F2
330
1F
100
AcDbEntity
  8
SK3
  6
SLD-Dashed
370
    18
100
AcDbLine
 10
-66.9509618943
 20
8.5
 30
0.0
 11
-68.25
 21
9.25
 31
0.0
  0
LINE
  5
1F3
330
1F
100
AcDbEntity
  8
SK3
  6
SLD-Dashed
370
    18
100
AcDbLine
 10
-59.75
 20
8.8
 30
0.0
 11
-60.2696152423
 21
8.5
 31
0.0
  0
LINE
  5
1F4
330
1F
100
AcDbEntity
  8
SK3
  6
SLD-Dashed
370
    18
100
AcDbLine
 10
-60.2696152423
 20
-8.5
 30
0.0
 11
-59.75
 21
-8.8
 31
0.0
  0
LINE
  5
1F5
330
1F
100
AcDbEntity
  8
SK3
  6
SLD-Dashed
370
    18
100
AcDbLine
 10
-57.75
 20
8.8
 30
0.0
 11
-59.75
 21
8.8
 31
0.0
  0
LINE
  5
1F6
330
1F
100
AcDbEntity
  8
SK3
  6
SLD-Dashed
370
    18
100
AcDbLine
 10
-59.75
 20
-8.8
 30
0.0
 11
-57.75
 21
-8.8
 31
0.0
  0
LINE
  5
1F7
330
1F
100
AcDbEntity
  8
SK3
  6
SLD-Dashed
370
    18
100
AcDbLine
 10
-57.75
 20
-8.8
 30
0.0
 11
-56.7107695155
 21
-7.0
 31
0.0
  0
LINE
  5
1F8
330
1F
100
AcDbEntity
  8
SK3
  6
SLD-Dashed
370
    18
100
AcDbLine
 10
-56.7107695155
 20
7.0
 30
0.0
 11
-57.75
 21
8.8
 31
0.0
  0
LINE
  5
1F9
330
1F
100
AcDbEntity
  8
SK3
  6
SLD-Dashed
370
    18
100
AcDbLine
 10
-66.9509618943
 20
-8.5
 30
0.0
 11
-60.2696152423
 21
-8.5
 31
0.0
  0
LINE
  5
1FA
330
1F
100
AcDbEntity
  8
SK3
  6
SLD-Dashed
370
    18
100
AcDbLine
 10
-60.2696152423
 20
8.5
 30
0.0
 11
-66.9509618943
 21
8.5
 31
0.0
  0
LINE
  5
1FB
330
1F
100
AcDbEntity
  8
SK3
  6
SLD-Dashed
370
    18
100
AcDbLine
 10
9.465
 20
18.2613425767
 30
0.0
 11
9.465
 21
6.5735396497
 31
0.0
  0
LINE
  5
1FC
330
1F
100
AcDbEntity
  8
SK3
  6
SLD-Dashed
370
    18
100
AcDbLine
 10
12.765
 20
6.5761297281
 30
0.0
 11
12.765
 21
15.7500776376
 31
0.0
  0
LINE
  5
1FD
330
1F
100
AcDbEntity
  8
SK3
  6
SLD-Dashed
370
    18
100
AcDbLine
 10
14.1920377033
 20
14.7367975886
 30
0.0
 11
16.0786127932
 21
15.5807724054
 31
0.0
  0
LINE
  5
1FE
330
1F
100
AcDbEntity
  8
SK3
  6
SLD-Dashed
370
    18
100
AcDbLine
 10
16.0786127932
 20
15.5807724054
 30
0.0
 11
16.3891004984
 21
17.6240678921
 31
0.0
  0
LINE
  5
1FF
330
1F
100
AcDbEntity
  8
SK3
  6
SLD-Dashed
370
    18
100
AcDbLine
 10
-56.7107695155
 20
-7.0
 30
0.0
 11
13.75
 21
-7.0
 31
0.0
  0
LINE
  5
200
330
1F
100
AcDbEntity
  8
SK3
  6
SLD-Dashed
370
    18
100
AcDbLine
 10
13.75
 20
7.0
 30
0.0
 11
-56.7107695155
 21
7.0
 31
0.0
  0
LINE
  5
201
330
1F
100
AcDbEntity
  8
SK3
  6
SLD-Dashed
370
    18
100
AcDbLine
 10
13.75
 20
-7.0
 30
0.0
 11
15.5525818571
 21
-4.0
 31
0.0
  0
LINE
  5
202
330
1F
100
AcDbEntity
  8
SK3
  6
SLD-Dashed
370
    18
100
AcDbLine
 10
15.5525818571
 20
4.0
 30
0.0
 11
13.75
 21
7.0
 31
0.0
  0
LINE
  5
203
330
1F
100
AcDbEntity
  8
SK3
  6
SLD-Dashed
370
    18
100
AcDbLine
 10
37.1
 20
-14.0
 30
0.0
 11
37.1
 21
-12.7
 31
0.0
  0
LINE
  5
204
330
1F
100
AcDbEntity
  8
SK3
  6
SLD-Dashed
370
    18
100
AcDbLine
 10
26.9
 20
-12.7
 30
0.0
 11
26.9
 21
-14.0
 31
0.0
  0
LINE
  5
205
330
1F
100
AcDbEntity
  8
SK3
  6
SLD-Dashed
370
    18
100
AcDbLine
 10
50.0
 20
4.5773502692
 30
0.0
 11
49.0
 21
4.0
 31
0.0
  0
LINE
  5
206
330
1F
100
AcDbEntity
  8
SK3
  6
SLD-Dashed
370
    18
100
AcDbLine
 10
49.0
 20
-4.0
 30
0.0
 11
50.0
 21
-4.5773502692
 31
0.0
  0
LINE
  5
207
330
1F
100
AcDbEntity
  8
SK3
  6
SLD-Dashed
370
    18
100
AcDbLine
 10
49.0
 20
4.0
 30
0.0
 11
15.5525818571
 21
4.0
 31
0.0
  0
LINE
  5
208
330
1F
100
AcDbEntity
  8
SK3
  6
SLD-Dashed
370
    18
100
AcDbLine
 10
35.4
 20
-4.0
 30
0.0
 11
49.0
 21
-4.0
 31
0.0
  0
LINE
  5
209
330
1F
100
AcDbEntity
  8
SK3
  6
SLD-Dashed
370
    18
100
AcDbLine
 10
15.5525818571
 20
-4.0
 30
0.0
 11
28.6041104832
 21
-4.0
 31
0.0
  0
LINE
  5
20A
330
1F
100
AcDbEntity
  8
SK3
  6
SLD-Dashed
370
    18
100
AcDbLine
 10
35.4
 20
-12.7
 30
0.0
 11
35.4
 21
-4.0
 31
0.0
  0
LINE
  5
20B
330
1F
100
AcDbEntity
  8
SK3
  6
SLD-Dashed
370
    18
100
AcDbLine
 10
28.6
 20
-3.996510892
 30
0.0
 11
28.6
 21
-12.7
 31
0.0
  0
LINE
  5
20C
330
1F
100
AcDbEntity
  8
SK3
  6
SLD-Dashed
370
    18
100
AcDbLine
 10
9.465
 20
-6.5761297281
 30
0.0
 11
9.465
 21
-18.259206264
 31
0.0
  0
LINE
  5
20D
330
1F
100
AcDbEntity
  8
SK3
  6
SLD-Dashed
370
    18
100
AcDbLine
 10
12.765
 20
-15.7542792276
 30
0.0
 11
12.765
 21
-6.5735396497
 31
0.0
  0
LINE
  5
20E
330
1F
100
AcDbEntity
  8
SK3
  6
SLD-Dashed
370
    18
100
AcDbLine
 10
12.6773076344
 20
-20.6193578118
 30
0.0
 11
16.3488925452
 21
-17.8254723219
 31
0.0
  0
LINE
  5
20F
330
1F
100
AcDbEntity
  8
SK3
  6
SLD-Dashed
370
    18
100
AcDbLine
 10
5.7019928732
 20
-25.9272101898
 30
0.0
 11
9.5594085835
 21
-22.9919171096
 31
0.0
  0
LINE
  5
210
330
1F
100
AcDbEntity
  8
SK3
  6
SLD-Dashed
370
    18
100
AcDbLine
 10
9.5588677739
 20
-18.0915910878
 30
0.0
 11
3.3403033958
 21
-22.8235957143
 31
0.0
  0
LINE
  5
211
330
1F
100
AcDbEntity
  8
SK3
  6
SLD-Dashed
370
    18
100
AcDbLine
 10
13.9872030677
 20
-14.7218578465
 30
0.0
 11
12.6651816959
 21
-15.7278474716
 31
0.0
  0
LINE
  5
212
330
1F
100
AcDbEntity
  8
SK3
  6
SLD-Dashed
370
    18
100
AcDbLine
 10
16.3891004984
 20
-17.6240678921
 30
0.0
 11
16.0786127932
 21
-15.5807724054
 31
0.0
  0
LINE
  5
213
330
1F
100
AcDbEntity
  8
SK3
  6
SLD-Dashed
370
    18
100
AcDbLine
 10
16.0786127932
 20
-15.5807724054
 30
0.0
 11
14.1920377033
 21
-14.7367975886
 31
0.0
  0
LINE
  5
214
330
1F
100
AcDbEntity
  8
SK3
  6
SLD-Dashed
370
    18
100
AcDbLine
 10
9.465
 20
-22.9638453577
 30
0.0
 11
9.465
 21
-23.4923155196
 31
0.0
  0
LINE
  5
215
330
1F
100
AcDbEntity
  8
SK3
  6
SLD-Dashed
370
    18
100
AcDbLine
 10
12.765
 20
-23.4923155196
 30
0.0
 11
12.765
 21
-20.4547737958
 31
0.0
  0
LINE
  5
216
330
1F
100
AcDbEntity
  8
SK3
  6
SLD-Dashed
370
    18
100
AcDbLine
 10
3.2
 20
-27.8939268324
 30
0.0
 11
5.7322709434
 21
-25.9670001189
 31
0.0
  0
LINE
  5
217
330
1F
100
AcDbEntity
  8
SK3
  6
SLD-Dashed
370
    18
100
AcDbLine
 10
3.3100253255
 20
-22.7838057852
 30
0.0
 11
3.2
 21
-22.8675293454
 31
0.0
  0
LINE
  5
218
330
1F
100
AcDbEntity
  8
SK3
  6
SLD-Dashed
370
    18
100
AcDbLine
 10
9.8021669195
 20
-23.8341593579
 30
0.0
 11
11.115
 21
-24.4239455979
 31
0.0
  0
LINE
  5
219
330
1F
100
AcDbEntity
  8
SK3
  6
SLD-Dashed
370
    18
100
AcDbLine
 10
11.115
 20
-24.4239455979
 30
0.0
 11
12.4278330805
 21
-23.8341593579
 31
0.0
  0
LINE
  5
21A
330
1F
100
AcDbEntity
  8
SK3
  6
SLD-Solid
370
    18
100
AcDbLine
 10
-35.2500006557
 20
8.00000038
 30
0.0
 11
-57.2881214321
 21
8.00000038
 31
0.0
  0
LINE
  5
21B
330
1F
100
AcDbEntity
  8
SK3
  6
SLD-Solid
370
    18
100
AcDbLine
 10
-57.2881214321
 20
-8.00000038
 30
0.0
 11
-35.2500006557
 21
-8.00000038
 31
0.0
  0
LINE
  5
21C
330
1F
100
AcDbEntity
  8
SK3
  6
SLD-Solid
370
    18
100
AcDbLine
 10
-35.2500006557
 20
8.00000038
 30
0.0
 11
-35.2500006557
 21
7.9254871234
 31
0.0
  0
LINE
  5
21D
330
1F
100
AcDbEntity
  8
SK3
  6
SLD-Solid
370
    18
100
AcDbLine
 10
-35.2500262866
 20
7.9254871234
 30
0.0
 11
-35.2500006557
 21
7.703338284
 31
0.0
  0
LINE
  5
21E
330
1F
100
AcDbEntity
  8
SK3
  6
SLD-Solid
370
    18
100
AcDbLine
 10
-35.2500006557
 20
7.703338284
 30
0.0
 11
-35.2500006557
 21
7.337690331
 31
0.0
  0
LINE
  5
21F
330
1F
100
AcDbEntity
  8
SK3
  6
SLD-Solid
370
    18
100
AcDbLine
 10
-35.2500006557
 20
7.337690331
 30
0.0
 11
-35.2500006557
 21
6.8353554234
 31
0.0
  0
LINE
  5
220
330
1F
100
AcDbEntity
  8
SK3
  6
SLD-Solid
370
    18
100
AcDbLine
 10
-35.2500006557
 20
6.8353554234
 30
0.0
 11
-35.2500006557
 21
6.2056900933
 31
0.0
  0
LINE
  5
221
330
1F
100
AcDbEntity
  8
SK3
  6
SLD-Solid
370
    18
100
AcDbLine
 10
-35.2500006557
 20
6.2056900933
 30
0.0
 11
-35.2500006557
 21
5.46042528
 31
0.0
  0
LINE
  5
222
330
1F
100
AcDbEntity
  8
SK3
  6
SLD-Solid
370
    18
100
AcDbLine
 10
-35.2500006557
 20
5.46042528
 30
0.0
 11
-35.2500006557
 21
4.6134423465
 31
0.0
  0
LINE
  5
223
330
1F
100
AcDbEntity
  8
SK3
  6
SLD-Solid
370
    18
100
AcDbLine
 10
-35.2500006557
 20
4.6134423465
 30
0.0
 11
-35.2500006557
 21
3.6805202253
 31
0.0
  0
LINE
  5
224
330
1F
100
AcDbEntity
  8
SK3
  6
SLD-Solid
370
    18
100
AcDbLine
 10
-35.2500006557
 20
3.6805202253
 30
0.0
 11
-35.2500006557
 21
2.6790369302
 31
0.0
  0
LINE
  5
225
330
1F
100
AcDbEntity
  8
SK3
  6
SLD-Solid
370
    18
100
AcDbLine
 10
-35.2500006557
 20
2.6790369302
 30
0.0
 11
-35.2500006557
 21
1.6276481329
 31
0.0
  0
LINE
  5
226
330
1F
100
AcDbEntity
  8
SK3
  6
SLD-Solid
370
    18
100
AcDbLine
 10
-35.2500006557
 20
1.6276481329
 30
0.0
 11
-35.2500006557
 21
0.5459393142
 31
0.0
  0
LINE
  5
227
330
1F
100
AcDbEntity
  8
SK3
  6
SLD-Solid
370
    18
100
AcDbLine
 10
-35.2500006557
 20
0.5459393142
 30
0.0
 11
-35.2500006557
 21
-0.5459393142
 31
0.0
  0
LINE
  5
228
330
1F
100
AcDbEntity
  8
SK3
  6
SLD-Solid
370
    18
100
AcDbLine
 10
-35.2500006557
 20
-0.5459393142
 30
0.0
 11
-35.2500006557
 21
-1.6276481329
 31
0.0
  0
LINE
  5
229
330
1F
100
AcDbEntity
  8
SK3
  6
SLD-Solid
370
    18
100
AcDbLine
 10
-35.2500006557
 20
-1.6276481329
 30
0.0
 11
-35.2500006557
 21
-2.6790369302
 31
0.0
  0
LINE
  5
22A
330
1F
100
AcDbEntity
  8
SK3
  6
SLD-Solid
370
    18
100
AcDbLine
 10
-35.2500006557
 20
-2.6790369302
 30
0.0
 11
-35.2500006557
 21
-3.6805202253
 31
0.0
  0
LINE
  5
22B
330
1F
100
AcDbEntity
  8
SK3
  6
SLD-Solid
370
    18
100
AcDbLine
 10
-35.2500006557
 20
-3.6805202253
 30
0.0
 11
-35.2500006557
 21
-4.6134423465
 31
0.0
  0
LINE
  5
22C
330
1F
100
AcDbEntity
  8
SK3
  6
SLD-Solid
370
    18
100
AcDbLine
 10
-35.2500006557
 20
-4.6134423465
 30
0.0
 11
-35.2500006557
 21
-5.46042528
 31
0.0
  0
LINE
  5
22D
330
1F
100
AcDbEntity
  8
SK3
  6
SLD-Solid
370
    18
100
AcDbLine
 10
-35.2500006557
 20
-5.46042528
 30
0.0
 11
-35.2500006557
 21
-6.2056900933
 31
0.0
  0
LINE
  5
22E
330
1F
100
AcDbEntity
  8
SK3
  6
SLD-Solid
370
    18
100
AcDbLine
 10
-35.2500006557
 20
-6.2056900933
 30
0.0
 11
-35.2500006557
 21
-6.8353554234
 31
0.0
  0
LINE
  5
22F
330
1F
100
AcDbEntity
  8
SK3
  6
SLD-Solid
370
    18
100
AcDbLine
 10
-35.2500006557
 20
-6.8353554234
 30
0.0
 11
-35.2500006557
 21
-7.337690331
 31
0.0
  0
LINE
  5
230
330
1F
100
AcDbEntity
  8
SK3
  6
SLD-Solid
370
    18
100
AcDbLine
 10
-35.2500006557
 20
-7.337690331
 30
0.0
 11
-35.2500006557
 21
-7.703338284
 31
0.0
  0
LINE
  5
231
330
1F
100
AcDbEntity
  8
SK3
  6
SLD-Solid
370
    18
100
AcDbLine
 10
-35.2500006557
 20
-7.703338284
 30
0.0
 11
-35.2500006557
 21
-7.9254871234
 31
0.0
  0
LINE
  5
232
330
1F
100
AcDbEntity
  8
SK3
  6
SLD-Solid
370
    18
100
AcDbLine
 10
-35.2500006557
 20
-7.9254871234
 30
0.0
 11
-35.2500006557
 21
-8.00000038
 31
0.0
  0
LINE
  5
233
330
1F
100
AcDbEntity
  8
SK3
  6
SLD-Solid
370
    18
100
AcDbLine
 10
28.0000008643
 20
-4.00000019
 30
0.0
 11
28.0000008643
 21
-12.6999998465
 31
0.0
  0
LINE
  5
234
330
1F
100
AcDbEntity
  8
SK3
  6
SLD-Solid
370
    18
100
AcDbLine
 10
35.9999984503
 20
-12.6999998465
 30
0.0
 11
35.9999984503
 21
-4.00000019
 31
0.0
  0
LINE
  5
235
330
1F
100
AcDbEntity
  8
SK3
  6
SLD-Solid
370
    18
100
AcDbLine
 10
28.0000008643
 20
-4.00000019
 30
0.0
 11
28.0545465648
 21
-3.9454540238
 31
0.0
  0
LINE
  5
236
330
1F
100
AcDbEntity
  8
SK3
  6
SLD-Solid
370
    18
100
AcDbLine
 10
33.6071290076
 20
-1.6071307473
 30
0.0
 11
34.1880656779
 21
-2.1880662534
 31
0.0
  0
LINE
  5
237
330
1F
100
AcDbEntity
  8
SK3
  6
SLD-Solid
370
    18
100
AcDbLine
 10
30.3928670278
 20
-1.6071307473
 30
0.0
 11
33.6071290076
 21
-1.6071307473
 31
0.0
  0
LINE
  5
238
330
1F
100
AcDbEntity
  8
SK3
  6
SLD-Solid
370
    18
100
AcDbLine
 10
28.054457604
 20
-3.9454540238
 30
0.0
 11
28.216695413
 21
-3.7833042443
 31
0.0
  0
LINE
  5
239
330
1F
100
AcDbEntity
  8
SK3
  6
SLD-Solid
370
    18
100
AcDbLine
 10
28.216695413
 20
-3.7833042443
 30
0.0
 11
28.4820273519
 21
-3.5179727711
 31
0.0
  0
LINE
  5
23A
330
1F
100
AcDbEntity
  8
SK3
  6
SLD-Solid
370
    18
100
AcDbLine
 10
28.4820273519
 20
-3.5179727711
 30
0.0
 11
28.8433041424
 21
-3.1566957477
 31
0.0
  0
LINE
  5
23B
330
1F
100
AcDbEntity
  8
SK3
  6
SLD-Solid
370
    18
100
AcDbLine
 10
28.8433041424
 20
-3.1566957477
 30
0.0
 11
29.2906742543
 21
-2.7093265671
 31
0.0
  0
LINE
  5
23C
330
1F
100
AcDbEntity
  8
SK3
  6
SLD-Solid
370
    18
100
AcDbLine
 10
29.2906742543
 20
-2.7093265671
 30
0.0
 11
29.8119336367
 21
-2.1880662534
 31
0.0
  0
LINE
  5
23D
330
1F
100
AcDbEntity
  8
SK3
  6
SLD-Solid
370
    18
100
AcDbLine
 10
29.8119336367
 20
-2.1880662534
 30
0.0
 11
30.3928670278
 21
-1.6071307473
 31
0.0
  0
LINE
  5
23E
330
1F
100
AcDbEntity
  8
SK3
  6
SLD-Solid
370
    18
100
AcDbLine
 10
34.1880139699
 20
-2.1880662534
 30
0.0
 11
34.7093269229
 21
-2.7093265671
 31
0.0
  0
LINE
  5
23F
330
1F
100
AcDbEntity
  8
SK3
  6
SLD-Solid
370
    18
100
AcDbLine
 10
34.7093269229
 20
-2.7093265671
 30
0.0
 11
35.1566970348
 21
-3.1566957477
 31
0.0
  0
LINE
  5
240
330
1F
100
AcDbEntity
  8
SK3
  6
SLD-Solid
370
    18
100
AcDbLine
 10
35.1566970348
 20
-3.1566957477
 30
0.0
 11
35.5179719627
 21
-3.5179727711
 31
0.0
  0
LINE
  5
241
330
1F
100
AcDbEntity
  8
SK3
  6
SLD-Solid
370
    18
100
AcDbLine
 10
35.5179719627
 20
-3.5179727711
 30
0.0
 11
35.7833057642
 21
-3.7833042443
 31
0.0
  0
LINE
  5
242
330
1F
100
AcDbEntity
  8
SK3
  6
SLD-Solid
370
    18
100
AcDbLine
 10
35.7833057642
 20
-3.7833042443
 30
0.0
 11
35.9454527497
 21
-3.9454540238
 31
0.0
  0
LINE
  5
243
330
1F
100
AcDbEntity
  8
SK3
  6
SLD-Solid
370
    18
100
AcDbLine
 10
35.9454527497
 20
-3.9454540238
 30
0.0
 11
35.9999984503
 21
-4.00000019
 31
0.0
  0
LINE
  5
244
330
1F
100
AcDbEntity
  8
4
  6
SLD-Center
370
    18
100
AcDbLine
 10
52.0
 20
0.0
 30
0.0
 11
0.3782966016
 21
0.0
 31
0.0
  0
LINE
  5
245
330
1F
100
AcDbEntity
  8
4
  6
SLD-Center
370
    18
100
AcDbLine
 10
32.0
 20
-2.0
 30
0.0
 11
32.0
 21
-14.7
 31
0.0
  0
LINE
  5
246
330
1F
100
AcDbEntity
  8
SK4
  6
SLD-Center
370
    18
100
AcDbLine
 10
51.8308212569
 20
0.0
 30
0.0
 11
-70.5665122664
 21
0.0
 31
0.0
  0
ARC
  5
247
330
1F
100
AcDbEntity
  8
1
  6
SLD-Solid
370
    25
100
AcDbCircle
 10
3.95
 20
31.0
 30
0.0
 40
0.7500000000000004
100
AcDbArc
 50
90.0
 51
180.0
  0
ARC
  5
248
330
1F
100
AcDbEntity
  8
1
  6
SLD-Solid
370
    25
100
AcDbCircle
 10
18.3
 20
31.0
 30
0.0
 40
0.75
100
AcDbArc
 50
360.0
 51
90.0
  0
ARC
  5
249
330
1F
100
AcDbEntity
  8
1
  6
SLD-Solid
370
    25
100
AcDbCircle
 10
2.45
 20
-22.79
 30
0.0
 40
0.7500000000000012
100
AcDbArc
 50
0.0
 51
115.0
  0
ARC
  5
24A
330
1F
100
AcDbEntity
  8
1
  6
SLD-Solid
370
    25
100
AcDbCircle
 10
2.45
 20
22.79
 30
0.0
 40
0.7500000000000108
100
AcDbArc
 50
245.0
 51
0.0
  0
ARC
  5
24B
330
1F
100
AcDbEntity
  8
1
  6
SLD-Solid
370
    25
100
AcDbCircle
 10
3.95
 20
-31.0
 30
0.0
 40
0.7500000000000004
100
AcDbArc
 50
180.0
 51
270.0
  0
ARC
  5
24C
330
1F
100
AcDbEntity
  8
1
  6
SLD-Solid
370
    25
100
AcDbCircle
 10
18.3
 20
-31.0
 30
0.0
 40
0.75
100
AcDbArc
 50
270.0
 51
0.0
  0
ARC
  5
24D
330
1F
100
AcDbEntity
  8
1
  6
SLD-Solid
370
    25
100
AcDbCircle
 10
12.28
 20
-28.75
 30
0.0
 40
0.75
100
AcDbArc
 50
0.0
 51
90.0
  0
ARC
  5
24E
330
1F
100
AcDbEntity
  8
1
  6
SLD-Solid
370
    25
100
AcDbCircle
 10
9.95
 20
-28.75
 30
0.0
 40
0.7500000000000142
100
AcDbArc
 50
90.0
 51
180.0
  0
ARC
  5
24F
330
1F
100
AcDbEntity
  8
1
  6
SLD-Solid
370
    25
100
AcDbCircle
 10
21.05
 20
16.0
 30
0.0
 40
2.000000000000009
100
AcDbArc
 50
180.0
 51
270.0
  0
ARC
  5
250
330
1F
100
AcDbEntity
  8
1
  6
SLD-Solid
370
    25
100
AcDbCircle
 10
21.05
 20
-16.0
 30
0.0
 40
2.000000000000002
100
AcDbArc
 50
90.0
 51
180.0
  0
ARC
  5
251
330
1F
100
AcDbEntity
  8
SK1
  6
SLD-Solid
370
    25
100
AcDbCircle
 10
-67.25
 20
-11.4070377962
 30
0.0
 40
1.0
100
AcDbArc
 50
180.0
 51
261.7027777778
  0
ARC
  5
252
330
1F
100
AcDbEntity
  8
SK1
  6
SLD-Solid
370
    25
100
AcDbCircle
 10
-67.25
 20
11.4070377962
 30
0.0
 40
1.000000000000003
100
AcDbArc
 50
98.2972222222
 51
180.0
  0
ARC
  5
253
330
1F
100
AcDbEntity
  8
1
  6
SLD-Solid
370
    25
100
AcDbCircle
 10
12.28
 20
28.75
 30
0.0
 40
0.75
100
AcDbArc
 50
270.0
 51
0.0
  0
ARC
  5
254
330
1F
100
AcDbEntity
  8
1
  6
SLD-Solid
370
    25
100
AcDbCircle
 10
9.95
 20
28.75
 30
0.0
 40
0.75
100
AcDbArc
 50
180.0
 51
270.0
  0
CIRCLE
  5
255
330
1F
100
AcDbEntity
  8
1
  6
SLD-Solid
370
    25
100
AcDbCircle
 10
11.1
 20
0.0
 30
0.0
 40
4.999999999999979
  0
ARC
  5
256
330
1F
100
AcDbEntity
  8
SK3
  6
SLD-Dashed
370
    18
100
AcDbCircle
 10
32.0
 20
19.0
 30
0.0
 40
8.000000000000016
100
AcDbArc
 50
218.6820771873
 51
321.3047674891
  0
ARC
  5
257
330
1F
100
AcDbEntity
  8
1
370
    25
100
AcDbCircle
 10
32.0000686855
 20
-27.4558126084
 30
0.0
 40
14.38986422330351
100
AcDbArc
 50
69.242627835
 51
110.7445384071
  0
SPLINE
  5
258
330
1F
100
AcDbEntity
  8
1
  6
SLD-Solid
370
    25
100
AcDbSpline
210
0.0
220
0.0
230
1.0
 70
     8
 71
     3
 72
     8
 73
     4
 74
     0
 42
0.000000001
 43
0.00000001
 40
0.0
 40
0.0
 40
0.0
 40
0.0
 40
0.0008783072046589
 40
0.0008783072046589
 40
0.0008783072046589
 40
0.0008783072046589
 10
14.63683664205678
 20
-8.732520000000015
 30
0.0
 10
14.51427081432999
 20
-8.520229759105504
 30
0.0
 10
14.3922808335665
 20
-8.307726875209427
 30
0.0
 10
14.27090830787685
 20
-8.094999999999999
 30
0.0
  0
SPLINE
  5
259
330
1F
100
AcDbEntity
  8
1
  6
SLD-Solid
370
    25
100
AcDbSpline
210
0.0
220
0.0
230
1.0
 70
    24
 71
     3
 72
    18
 73
    14
 74
     0
 42
0.000000001
 43
0.00000001
 40
0.0
 40
0.0
 40
0.0
 40
0.0
 40
0.0503985907721767
 40
0.1007611985112129
 40
0.1867133625924686
 40
0.250707802088887
 40
0.3759053866292146
 40
0.5002769903873882
 40
0.6254727404757954
 40
0.7499722576385894
 40
0.8750533663912197
 40
0.9372999447731115
 40
1.0
 40
1.0
 40
1.0
 40
1.0
 10
18.29999999999999
 20
-8.094999999999999
 30
0.0
 10
18.30672586936913
 20
-8.094999999999999
 30
0.0
 10
18.32017280604498
 20
-8.095
 30
0.0
 10
18.34490953258425
 20
-8.095000000000008
 30
0.0
 10
18.37097379942358
 20
-8.095000000000011
 30
0.0
 10
18.40534068018863
 20
-8.095000000000018
 30
0.0
 10
18.44197202237658
 20
-8.095000000000029
 30
0.0
 10
18.47986487117879
 20
-8.095000000000036
 30
0.0
 10
18.51053614991205
 20
-8.095000000000043
 30
0.0
 10
18.53314513148846
 20
-8.095000000000047
 30
0.0
 10
18.54454926815961
 20
-8.09500000000005
 30
0.0
 10
18.54932787138486
 20
-8.09500000000005
 30
0.0
 10
18.54977541569451
 20
-8.09500000000005
 30
0.0
 10
18.54999999999996
 20
-8.09500000000005
 30
0.0
  0
SPLINE
  5
25A
330
1F
100
AcDbEntity
  8
1
  6
SLD-Solid
370
    25
100
AcDbSpline
210
0.0
220
0.0
230
1.0
 70
     8
 71
     3
 72
    15
 73
    11
 74
     0
 42
0.000000001
 43
0.00000001
 40
0.0
 40
0.0
 40
0.0
 40
0.0
 40
0.0701435325383619
 40
0.1230076382658076
 40
0.2464580449108382
 40
0.4936501266417946
 40
0.6221640882791771
 40
0.7451781028260629
 40
0.8734188463590339
 40
1.0
 40
1.0
 40
1.0
 40
1.0
 10
19.04999999999993
 20
-8.59500000000002
 30
0.0
 10
19.04914464771494
 20
-8.600068931336681
 30
0.0
 10
19.04764465390715
 20
-8.608958094024798
 30
0.0
 10
19.03267384616035
 20
-8.626522361201275
 30
0.0
 10
18.98572299610643
 20
-8.655890547791138
 30
0.0
 10
18.87530842138219
 20
-8.686676393428943
 30
0.0
 10
18.72430920317453
 20
-8.709663478514942
 30
0.0
 10
18.59259636522154
 20
-8.722605848112565
 30
0.0
 10
18.4499751246527
 20
-8.730953584814666
 30
0.0
 10
18.34977418050389
 20
-8.7320001335731
 30
0.0
 10
18.30000000000001
 20
-8.732520000000015
 30
0.0
  0
SPLINE
  5
25B
330
1F
100
AcDbEntity
  8
1
  6
SLD-Solid
370
    25
100
AcDbSpline
210
0.0
220
0.0
230
1.0
 70
    24
 71
     3
 72
     8
 73
     4
 74
     0
 42
0.000000001
 43
0.00000001
 40
0.0
 40
0.0
 40
0.0
 40
0.0
 40
0.2499999999999996
 40
0.2499999999999996
 40
0.2499999999999996
 40
0.2499999999999996
 10
18.30000000000001
 20
-18.34999999999999
 30
0.0
 10
18.41009345940825
 20
-18.34999999999999
 30
0.0
 10
18.51914645498266
 20
-18.34999999999999
 30
0.0
 10
18.6147896458887
 20
-18.34999999999999
 30
0.0
  0
SPLINE
  5
25C
330
1F
100
AcDbEntity
  8
1
  6
SLD-Solid
370
    25
100
AcDbSpline
210
0.0
220
0.0
230
1.0
 70
    24
 71
     3
 72
     8
 73
     4
 74
     0
 42
0.000000001
 43
0.00000001
 40
0.2499999999999996
 40
0.2499999999999996
 40
0.2499999999999996
 40
0.2499999999999996
 40
0.4999999999999991
 40
0.4999999999999991
 40
0.4999999999999991
 40
0.4999999999999991
 10
18.6147896458887
 20
-18.34999999999999
 30
0.0
 10
18.71043283679476
 20
-18.34999999999999
 30
0.0
 10
18.79290518035347
 20
-18.34999999999999
 30
0.0
 10
18.85782919697517
 20
-18.34999999999999
 30
0.0
  0
SPLINE
  5
25D
330
1F
100
AcDbEntity
  8
1
  6
SLD-Solid
370
    25
100
AcDbSpline
210
0.0
220
0.0
230
1.0
 70
    24
 71
     2
 72
     6
 73
     3
 74
     0
 42
0.000000001
 43
0.00000001
 40
0.4999999999999991
 40
0.4999999999999991
 40
0.4999999999999991
 40
1.0
 40
1.0
 40
1.0
 10
18.85782919697517
 20
-18.34999999999999
 30
0.0
 10
18.98767723021851
 20
-18.34999999999999
 30
0.0
 10
19.05000000000001
 20
-18.34999999999999
 30
0.0
  0
SPLINE
  5
25E
330
1F
100
AcDbEntity
  8
1
  6
SLD-Solid
370
    25
100
AcDbSpline
210
0.0
220
0.0
230
1.0
 70
     8
 71
     3
 72
     8
 73
     4
 74
     0
 42
0.000000001
 43
0.00000001
 40
0.0
 40
0.0
 40
0.0
 40
0.0
 40
0.0008783072046589
 40
0.0008783072046589
 40
0.0008783072046589
 40
0.0008783072046589
 10
7.593163357943244
 20
8.732520000000001
 30
0.0
 10
7.715729185670026
 20
8.520229759105485
 30
0.0
 10
7.837719166433513
 20
8.307726875209406
 30
0.0
 10
7.95909169212318
 20
8.09499999999997
 30
0.0
  0
SPLINE
  5
25F
330
1F
100
AcDbEntity
  8
1
  6
SLD-Solid
370
    25
100
AcDbSpline
210
0.0
220
0.0
230
1.0
 70
     8
 71
     3
 72
    15
 73
    11
 74
     0
 42
0.000000001
 43
0.00000001
 40
0.0
 40
0.0
 40
0.0
 40
0.0
 40
0.0701435317584967
 40
0.1230076382662367
 40
0.2464580449112068
 40
0.4936501266420016
 40
0.6221640881379922
 40
0.7451781028261539
 40
0.8734188462348811
 40
1.0
 40
1.0
 40
1.0
 40
1.0
 10
3.200000000000022
 20
8.59500000000002
 30
0.0
 10
3.20085535226744
 20
8.600068931280646
 30
0.0
 10
3.202355346061073
 20
8.608958093969388
 30
0.0
 10
3.217326153752989
 20
8.62652236114663
 30
0.0
 10
3.264277003893507
 20
8.65589054779184
 30
0.0
 10
3.374691578586983
 20
8.686676393418129
 30
0.0
 10
3.525690796778003
 20
8.709663478512708
 30
0.0
 10
3.657403634682366
 20
8.72260584810526
 30
0.0
 10
3.800024875297542
 20
8.730953584808631
 30
0.0
 10
3.900225819446976
 20
8.732000133570741
 30
0.0
 10
3.949999999999967
 20
8.732520000000001
 30
0.0
  0
SPLINE
  5
260
330
1F
100
AcDbEntity
  8
1
  6
SLD-Solid
370
    25
100
AcDbSpline
210
0.0
220
0.0
230
1.0
 70
    24
 71
     3
 72
    18
 73
    14
 74
     0
 42
0.000000001
 43
0.00000001
 40
0.0
 40
0.0
 40
0.0
 40
0.0
 40
0.0503985907721798
 40
0.1007611985112149
 40
0.1867133625924612
 40
0.2507078020888837
 40
0.3759053866292191
 40
0.5002769903873768
 40
0.6254727404758004
 40
0.7499722576385829
 40
0.8750533663912293
 40
0.9372999447731251
 40
1.0
 40
1.0
 40
1.0
 40
1.0
 10
3.949999999999995
 20
8.09499999999997
 30
0.0
 10
3.943274130630836
 20
8.09499999999997
 30
0.0
 10
3.929827193955016
 20
8.09499999999997
 30
0.0
 10
3.905090467415731
 20
8.094999999999969
 30
0.0
 10
3.879026200576424
 20
8.094999999999976
 30
0.0
 10
3.844659319811345
 20
8.094999999999976
 30
0.0
 10
3.808027977623432
 20
8.094999999999981
 30
0.0
 10
3.770135128821211
 20
8.094999999999986
 30
0.0
 10
3.739463850087957
 20
8.094999999999986
 30
0.0
 10
3.716854868511546
 20
8.094999999999985
 30
0.0
 10
3.705450731840393
 20
8.094999999999992
 30
0.0
 10
3.700672128615135
 20
8.094999999999992
 30
0.0
 10
3.700224584305523
 20
8.094999999999992
 30
0.0
 10
3.70000000000005
 20
8.094999999999992
 30
0.0
  0
SPLINE
  5
261
330
1F
100
AcDbEntity
  8
1
  6
SLD-Solid
370
    25
100
AcDbSpline
210
0.0
220
0.0
230
1.0
 70
     8
 71
     3
 72
    17
 73
    13
 74
     0
 42
0.000000001
 43
0.00000001
 40
0.0
 40
0.0
 40
0.0
 40
0.0
 40
0.0630096892532792
 40
0.1264306799664213
 40
0.1902686728771463
 40
0.2545292253591724
 40
0.3775638368193145
 40
0.5060541142148836
 40
0.7530801336068137
 40
0.8766168954597358
 40
0.9296269325062025
 40
1.0
 40
1.0
 40
1.0
 40
1.0
 10
18.29999999999686
 20
8.732519999992943
 30
0.0
 10
18.32475416474075
 20
8.732391978119987
 30
0.0
 10
18.37442407928336
 20
8.732135098699676
 30
0.0
 10
18.44843090931142
 20
8.730043004151893
 30
0.0
 10
18.52143218660496
 20
8.726684778834723
 30
0.0
 10
18.61417448602592
 20
8.720522494880937
 30
0.0
 10
18.72385267704539
 20
8.709704769506512
 30
0.0
 10
18.87491226457112
 20
8.68676675424978
 30
0.0
 10
18.98548148832263
 20
8.655981996491716
 30
0.0
 10
19.03257258939287
 20
8.626607912865895
 30
0.0
 10
19.04762809452215
 20
8.609006381148754
 30
0.0
 10
19.04913851381912
 20
8.600087177325536
 30
0.0
 10
19.04999999999686
 20
8.594999999992941
 30
0.0
  0
SPLINE
  5
262
330
1F
100
AcDbEntity
  8
1
  6
SLD-Solid
370
    25
100
AcDbSpline
210
0.0
220
0.0
230
1.0
 70
     8
 71
     3
 72
     8
 73
     4
 74
     0
 42
0.000000001
 43
0.00000001
 40
0.0
 40
0.0
 40
0.0
 40
0.0
 40
0.0008783072046589
 40
0.0008783072046589
 40
0.0008783072046589
 40
0.0008783072046589
 10
14.2709083078737
 20
8.094999999992934
 30
0.0
 10
14.39228083356335
 20
8.307726875202356
 30
0.0
 10
14.51427081432684
 20
8.520229759098434
 30
0.0
 10
14.63683664205363
 20
8.732519999992943
 30
0.0
  0
SPLINE
  5
263
330
1F
100
AcDbEntity
  8
1
  6
SLD-Solid
370
    25
100
AcDbSpline
210
0.0
220
0.0
230
1.0
 70
    24
 71
     3
 72
    18
 73
    14
 74
     0
 42
0.000000001
 43
0.00000001
 40
0.0
 40
0.0
 40
0.0
 40
0.0
 40
0.0502617221452385
 40
0.1003354213518343
 40
0.1864287239590559
 40
0.2507033761673368
 40
0.3754040368259516
 40
0.5003115117971194
 40
0.6254321409840755
 40
0.7499589778058467
 40
0.8750959321922386
 40
0.9373335260982067
 40
1.0
 40
1.0
 40
1.0
 40
1.0
 10
18.54999999999996
 20
8.094999999999992
 30
0.0
 10
18.54985585338431
 20
8.094999999999985
 30
0.0
 10
18.54956809938785
 20
8.094999999999978
 30
0.0
 10
18.54670424339199
 20
8.094999999999901
 30
0.0
 10
18.54109212159197
 20
8.094999999999741
 30
0.0
 10
18.52936746843978
 20
8.09499999999941
 30
0.0
 10
18.51041383753824
 20
8.094999999998874
 30
0.0
 10
18.47965032418383
 20
8.094999999998006
 30
0.0
 10
18.44172270347957
 20
8.094999999996931
 30
0.0
 10
18.39795184457527
 20
8.094999999995697
 30
0.0
 10
18.35803612823347
 20
8.094999999994572
 30
0.0
 10
18.32503585238422
 20
8.094999999993641
 30
0.0
 10
18.30836436561804
 20
8.09499999999317
 30
0.0
 10
18.29999999999996
 20
8.094999999992934
 30
0.0
  0
SPLINE
  5
264
330
1F
100
AcDbEntity
  8
1
  6
SLD-Solid
370
    25
100
AcDbSpline
210
0.0
220
0.0
230
1.0
 70
    24
 71
     2
 72
     6
 73
     3
 74
     0
 42
0.000000001
 43
0.00000001
 40
0.0
 40
0.0
 40
0.0
 40
0.5000000000000032
 40
0.5000000000000032
 40
0.5000000000000032
 10
3.200000000000022
 20
-18.34999999999999
 30
0.0
 10
3.262453391497306
 20
-18.34999999999999
 30
0.0
 10
3.391824966518561
 20
-18.34999999999999
 30
0.0
  0
SPLINE
  5
265
330
1F
100
AcDbEntity
  8
1
  6
SLD-Solid
370
    25
100
AcDbSpline
210
0.0
220
0.0
230
1.0
 70
    24
 71
     3
 72
     8
 73
     4
 74
     0
 42
0.000000001
 43
0.00000001
 40
0.5000000000000032
 40
0.5000000000000032
 40
0.5000000000000032
 40
0.5000000000000032
 40
0.7500000000000016
 40
0.7500000000000016
 40
0.7500000000000016
 40
0.7500000000000016
 10
3.391824966518561
 20
-18.34999999999999
 30
0.0
 10
3.456510754029154
 20
-18.34999999999999
 30
0.0
 10
3.538937009729473
 20
-18.34999999999999
 30
0.0
 10
3.634408833236957
 20
-18.34999999999999
 30
0.0
  0
SPLINE
  5
266
330
1F
100
AcDbEntity
  8
1
  6
SLD-Solid
370
    25
100
AcDbSpline
210
0.0
220
0.0
230
1.0
 70
    24
 71
     3
 72
     8
 73
     4
 74
     0
 42
0.000000001
 43
0.00000001
 40
0.7500000000000016
 40
0.7500000000000016
 40
0.7500000000000016
 40
0.7500000000000016
 40
1.0
 40
1.0
 40
1.0
 40
1.0
 10
3.634408833236957
 20
-18.34999999999999
 30
0.0
 10
3.729880656744455
 20
-18.34999999999999
 30
0.0
 10
3.838711986975829
 20
-18.34999999999999
 30
0.0
 10
3.950000000000023
 20
-18.34999999999999
 30
0.0
  0
SPLINE
  5
267
330
1F
100
AcDbEntity
  8
1
  6
SLD-Solid
370
    25
100
AcDbSpline
210
0.0
220
0.0
230
1.0
 70
     8
 71
     3
 72
    17
 73
    13
 74
     0
 42
0.000000001
 43
0.00000001
 40
0.0
 40
0.0
 40
0.0
 40
0.0
 40
0.0630096892551791
 40
0.1264306799689548
 40
0.1902686728790542
 40
0.25452922535919
 40
0.3775638368184449
 40
0.5060541142149001
 40
0.7530801336068497
 40
0.876616895459772
 40
0.9296269324372894
 40
1.0
 40
1.0
 40
1.0
 40
1.0
 10
3.950000000000023
 20
-8.732520000000035
 30
0.0
 10
3.9252458352554
 20
-8.732391978127081
 30
0.0
 10
3.875575920711777
 20
-8.73213509870677
 30
0.0
 10
3.801569090683021
 20
-8.73004300415887
 30
0.0
 10
3.728567813390302
 20
-8.72668477884166
 30
0.0
 10
3.635825513970639
 20
-8.720522494888007
 30
0.0
 10
3.526147322951798
 20
-8.709704769513813
 30
0.0
 10
3.375087735425955
 20
-8.686766754256857
 30
0.0
 10
3.264518511674253
 20
-8.655981996498811
 30
0.0
 10
3.21742741061172
 20
-8.626607912877816
 30
0.0
 10
3.202371905477577
 20
-8.609006381160755
 30
0.0
 10
3.200861486179318
 20
-8.600087177337585
 30
0.0
 10
3.200000000000022
 20
-8.595000000000033
 30
0.0
  0
SPLINE
  5
268
330
1F
100
AcDbEntity
  8
1
  6
SLD-Solid
370
    25
100
AcDbSpline
210
0.0
220
0.0
230
1.0
 70
     8
 71
     3
 72
     8
 73
     4
 74
     0
 42
0.000000001
 43
0.00000001
 40
0.0
 40
0.0
 40
0.0
 40
0.0
 40
0.0008783072046589
 40
0.0008783072046589
 40
0.0008783072046589
 40
0.0008783072046589
 10
7.959091692123169
 20
-8.095
 30
0.0
 10
7.837719166433517
 20
-8.307726875209436
 30
0.0
 10
7.715729185670027
 20
-8.520229759105511
 30
0.0
 10
7.593163357943244
 20
-8.732520000000035
 30
0.0
  0
SPLINE
  5
269
330
1F
100
AcDbEntity
  8
1
  6
SLD-Solid
370
    25
100
AcDbSpline
210
0.0
220
0.0
230
1.0
 70
    24
 71
     3
 72
    18
 73
    14
 74
     0
 42
0.000000001
 43
0.00000001
 40
0.0
 40
0.0
 40
0.0
 40
0.0
 40
0.0502617221452593
 40
0.1003354213518503
 40
0.1864287239590571
 40
0.2507033761673361
 40
0.3754040368259496
 40
0.5003115117971217
 40
0.6254321409840763
 40
0.7499589778058474
 40
0.8750959321922346
 40
0.9373335260982119
 40
1.0
 40
1.0
 40
1.0
 40
1.0
 10
3.70000000000005
 20
-8.095000000000004
 30
0.0
 10
3.70014414661568
 20
-8.095000000000004
 30
0.0
 10
3.700431900612158
 20
-8.095000000000004
 30
0.0
 10
3.703295756608049
 20
-8.095000000000004
 30
0.0
 10
3.70890787840801
 20
-8.094999999999999
 30
0.0
 10
3.720632531560228
 20
-8.095000000000004
 30
0.0
 10
3.739586162461769
 20
-8.095000000000004
 30
0.0
 10
3.770349675816159
 20
-8.095
 30
0.0
 10
3.808277296520432
 20
-8.095
 30
0.0
 10
3.852048155424712
 20
-8.095
 30
0.0
 10
3.891963871766532
 20
-8.094999999999999
 30
0.0
 10
3.924964147615784
 20
-8.094999999999999
 30
0.0
 10
3.941635634381893
 20
-8.094999999999999
 30
0.0
 10
3.950000000000023
 20
-8.094999999999999
 30
0.0
  0
SPLINE
  5
26A
330
1F
100
AcDbEntity
  8
1
  6
SLD-Solid
370
    25
100
AcDbSpline
210
0.0
220
0.0
230
1.0
 70
    24
 71
     3
 72
     8
 73
     4
 74
     0
 42
0.000000001
 43
0.00000001
 40
0.0
 40
0.0
 40
0.0
 40
0.0
 40
1.0
 40
1.0
 40
1.0
 40
1.0
 10
13.02999999999688
 20
8.094999999992934
 30
0.0
 10
13.44271800981463
 20
8.094999999992934
 30
0.0
 10
13.85641888623403
 20
8.094999999992934
 30
0.0
 10
14.2709083078737
 20
8.094999999992934
 30
0.0
  0
SPLINE
  5
26B
330
1F
100
AcDbEntity
  8
1
  6
SLD-Solid
370
    25
100
AcDbSpline
210
0.0
220
0.0
230
1.0
 70
     8
 71
     3
 72
     9
 73
     5
 74
     0
 42
0.000000001
 43
0.00000001
 40
0.0
 40
0.0
 40
0.0
 40
0.0
 40
0.5549482632672378
 40
1.0
 40
1.0
 40
1.0
 40
1.0
 10
13.02999999999688
 20
27.01726268082102
 30
0.0
 10
13.05715000916632
 20
27.09737051094023
 30
0.0
 10
13.10607350522265
 20
27.24172239997503
 30
0.0
 10
13.10748201276954
 20
27.31440022370288
 30
0.0
 10
13.10810887149945
 20
27.34674561537491
 30
0.0
  0
SPLINE
  5
26C
330
1F
100
AcDbEntity
  8
1
  6
SLD-Solid
370
    25
100
AcDbSpline
210
0.0
220
0.0
230
1.0
 70
     8
 71
     3
 72
     8
 73
     4
 74
     0
 42
0.000000001
 43
0.00000001
 40
0.0
 40
0.0
 40
0.0
 40
0.0
 40
1.0
 40
1.0
 40
1.0
 40
1.0
 10
13.11238376628521
 20
27.38885610116812
 30
0.0
 10
13.1036924377372
 20
27.43220912960295
 30
0.0
 10
13.07354924829489
 20
27.43601780818721
 30
0.0
 10
13.02999999999677
 20
27.41186263126708
 30
0.0
  0
SPLINE
  5
26D
330
1F
100
AcDbEntity
  8
1
  6
SLD-Solid
370
    25
100
AcDbSpline
210
0.0
220
0.0
230
1.0
 70
    24
 71
     3
 72
     8
 73
     4
 74
     0
 42
0.000000001
 43
0.00000001
 40
0.0
 40
0.0
 40
0.0
 40
0.0
 40
1.0
 40
1.0
 40
1.0
 40
1.0
 10
13.03000000000003
 20
-18.34999999999999
 30
0.0
 10
13.5532681533943
 20
-18.34999999999999
 30
0.0
 10
14.0902128519339
 20
-18.34999999999999
 30
0.0
 10
14.63683664205678
 20
-18.34999999999999
 30
0.0
  0
SPLINE
  5
26E
330
1F
100
AcDbEntity
  8
1
  6
SLD-Solid
370
    25
100
AcDbSpline
210
0.0
220
0.0
230
1.0
 70
    24
 71
     3
 72
     8
 73
     4
 74
     0
 42
0.000000001
 43
0.00000001
 40
0.0
 40
0.0
 40
0.0
 40
0.0
 40
1.0
 40
1.0
 40
1.0
 40
1.0
 10
14.27090830787685
 20
-8.094999999999999
 30
0.0
 10
13.85641888623718
 20
-8.094999999999999
 30
0.0
 10
13.44271800981778
 20
-8.094999999999999
 30
0.0
 10
13.03000000000003
 20
-8.094999999999999
 30
0.0
  0
SPLINE
  5
26F
330
1F
100
AcDbEntity
  8
1
  6
SLD-Solid
370
    25
100
AcDbSpline
210
0.0
220
0.0
230
1.0
 70
     8
 71
     3
 72
    14
 73
    10
 74
     0
 42
0.000000001
 43
0.00000001
 40
0.0
 40
0.0
 40
0.0
 40
0.0
 40
0.25
 40
0.25
 40
0.5
 40
0.5
 40
0.75
 40
0.75
 40
1.0
 40
1.0
 40
1.0
 40
1.0
 10
9.199999999999996
 20
27.41186263126166
 30
0.0
 10
9.173850986626844
 20
27.42636653360208
 30
0.0
 10
9.152634041267007
 20
27.43095735096775
 30
0.0
 10
9.122930435167984
 20
27.41447268826339
 30
0.0
 10
9.115069084731363
 20
27.39329444381265
 30
0.0
 10
9.114931833421007
 20
27.32424384477567
 30
0.0
 10
9.12287089105571
 20
27.27570924655765
 30
0.0
 10
9.152219475897612
 20
27.15977821327368
 30
0.0
 10
9.173774255136419
 20
27.09136204738278
 30
0.0
 10
9.200000000000028
 20
27.01726268082809
 30
0.0
  0
SPLINE
  5
270
330
1F
100
AcDbEntity
  8
1
  6
SLD-Solid
370
    25
100
AcDbSpline
210
0.0
220
0.0
230
1.0
 70
    24
 71
     3
 72
     8
 73
     4
 74
     0
 42
0.000000001
 43
0.00000001
 40
0.0
 40
0.0
 40
0.0
 40
0.0
 40
1.0
 40
1.0
 40
1.0
 40
1.0
 10
7.95909169212318
 20
8.09499999999997
 30
0.0
 10
8.37358111376288
 20
8.094999999999978
 30
0.0
 10
8.787281990182278
 20
8.094999999999985
 30
0.0
 10
9.200000000000028
 20
8.094999999999992
 30
0.0
  0
SPLINE
  5
271
330
1F
100
AcDbEntity
  8
1
  6
SLD-Solid
370
    25
100
AcDbSpline
210
0.0
220
0.0
230
1.0
 70
    24
 71
     3
 72
     8
 73
     4
 74
     0
 42
0.000000001
 43
0.00000001
 40
0.0
 40
0.0
 40
0.0
 40
0.0
 40
1.0
 40
1.0
 40
1.0
 40
1.0
 10
7.593163357943244
 20
-18.34999999999999
 30
0.0
 10
8.13981805154336
 20
-18.34999999999999
 30
0.0
 10
8.67697366511072
 20
-18.34999999999999
 30
0.0
 10
9.200000000000014
 20
-18.34999999999999
 30
0.0
  0
SPLINE
  5
272
330
1F
100
AcDbEntity
  8
1
  6
SLD-Solid
370
    25
100
AcDbSpline
210
0.0
220
0.0
230
1.0
 70
    24
 71
     3
 72
     8
 73
     4
 74
     0
 42
0.000000001
 43
0.00000001
 40
0.0
 40
0.0
 40
0.0
 40
0.0
 40
1.0
 40
1.0
 40
1.0
 40
1.0
 10
9.200000000000045
 20
-8.095000000000004
 30
0.0
 10
8.787281990182263
 20
-8.095
 30
0.0
 10
8.373581113762866
 20
-8.094999999999999
 30
0.0
 10
7.959091692123169
 20
-8.095
 30
0.0
  0
SPLINE
  5
273
330
1F
100
AcDbEntity
  8
1
  6
SLD-Solid
370
    25
100
AcDbSpline
210
0.0
220
0.0
230
1.0
 70
    24
 71
     3
 72
     8
 73
     4
 74
     0
 42
0.000000001
 43
0.00000001
 40
0.0
 40
0.0
 40
0.0
 40
0.0
 40
0.25
 40
0.25
 40
0.25
 40
0.25
 10
12.28000000000003
 20
-18.34999999999999
 30
0.0
 10
12.39351868075164
 20
-18.34999999999999
 30
0.0
 10
12.50715208952624
 20
-18.34999999999999
 30
0.0
 10
12.60448354500668
 20
-18.34999999999999
 30
0.0
  0
SPLINE
  5
274
330
1F
100
AcDbEntity
  8
1
  6
SLD-Solid
370
    25
100
AcDbSpline
210
0.0
220
0.0
230
1.0
 70
    24
 71
     3
 72
     8
 73
     4
 74
     0
 42
0.000000001
 43
0.00000001
 40
0.25
 40
0.25
 40
0.25
 40
0.25
 40
0.5
 40
0.5
 40
0.5
 40
0.5
 10
12.60448354500668
 20
-18.34999999999999
 30
0.0
 10
12.70181500048707
 20
-18.34999999999999
 30
0.0
 10
12.78100032850091
 20
-18.34999999999999
 30
0.0
 10
12.84409901342841
 20
-18.34999999999999
 30
0.0
  0
SPLINE
  5
275
330
1F
100
AcDbEntity
  8
1
  6
SLD-Solid
370
    25
100
AcDbSpline
210
0.0
220
0.0
230
1.0
 70
    24
 71
     2
 72
     6
 73
     3
 74
     0
 42
0.000000001
 43
0.00000001
 40
0.5
 40
0.5
 40
0.5
 40
1.0
 40
1.0
 40
1.0
 10
12.84409901342841
 20
-18.34999999999999
 30
0.0
 10
12.97029638328345
 20
-18.34999999999999
 30
0.0
 10
13.03000000000003
 20
-18.34999999999999
 30
0.0
  0
SPLINE
  5
276
330
1F
100
AcDbEntity
  8
1
  6
SLD-Solid
370
    25
100
AcDbSpline
210
0.0
220
0.0
230
1.0
 70
    24
 71
     2
 72
     6
 73
     3
 74
     0
 42
0.000000001
 43
0.00000001
 40
0.0
 40
0.0
 40
0.0
 40
0.5000000000000047
 40
0.5000000000000047
 40
0.5000000000000047
 10
13.03000000000003
 20
-8.094999999999999
 30
0.0
 10
12.95349719051728
 20
-8.094999999999999
 30
0.0
 10
12.81634843037005
 20
-8.095000000000004
 30
0.0
  0
SPLINE
  5
277
330
1F
100
AcDbEntity
  8
1
  6
SLD-Solid
370
    25
100
AcDbSpline
210
0.0
220
0.0
230
1.0
 70
    24
 71
     3
 72
     8
 73
     4
 74
     0
 42
0.000000001
 43
0.00000001
 40
0.5000000000000047
 40
0.5000000000000047
 40
0.5000000000000047
 40
0.5000000000000047
 40
0.7500000000000023
 40
0.7500000000000023
 40
0.7500000000000023
 40
0.7500000000000023
 10
12.81634843037005
 20
-8.095000000000004
 30
0.0
 10
12.74777405029651
 20
-8.095000000000004
 30
0.0
 10
12.66546509018096
 20
-8.094999999999999
 30
0.0
 10
12.57309648684345
 20
-8.094999999999999
 30
0.0
  0
SPLINE
  5
278
330
1F
100
AcDbEntity
  8
1
  6
SLD-Solid
370
    25
100
AcDbSpline
210
0.0
220
0.0
230
1.0
 70
    24
 71
     3
 72
     8
 73
     4
 74
     0
 42
0.000000001
 43
0.00000001
 40
0.7500000000000023
 40
0.7500000000000023
 40
0.7500000000000023
 40
0.7500000000000023
 40
1.0
 40
1.0
 40
1.0
 40
1.0
 10
12.57309648684345
 20
-8.094999999999999
 30
0.0
 10
12.48072788350592
 20
-8.094999999999999
 30
0.0
 10
12.37983045260058
 20
-8.095
 30
0.0
 10
12.28
 20
-8.095000000000004
 30
0.0
  0
SPLINE
  5
279
330
1F
100
AcDbEntity
  8
1
  6
SLD-Solid
370
    25
100
AcDbSpline
210
0.0
220
0.0
230
1.0
 70
     8
 71
     3
 72
    16
 73
    12
 74
     0
 42
0.000000001
 43
0.00000001
 40
0.0
 40
0.0
 40
0.0
 40
0.0
 40
0.1249999999999979
 40
0.1249999999999979
 40
0.2499999999999958
 40
0.2499999999999958
 40
0.4999999999999972
 40
0.4999999999999972
 40
0.7499999999999986
 40
0.7499999999999986
 40
1.0
 40
1.0
 40
1.0
 40
1.0
 10
9.200000000000028
 20
26.81342395599223
 30
0.0
 10
9.200000000000028
 20
26.75008219873891
 30
0.0
 10
9.209563827901471
 20
26.67853228546582
 30
0.0
 10
9.236165608094966
 20
26.55137620786218
 30
0.0
 10
9.253606986679399
 20
26.49121349319728
 30
0.0
 10
9.313827278242407
 20
26.32086774534962
 30
0.0
 10
9.364947089709359
 20
26.21821216600435
 30
0.0
 10
9.492010964480734
 20
26.02727557642674
 30
0.0
 10
9.56611591343242
 20
25.94241156889361
 30
0.0
 10
9.739483002625718
 20
25.79997779741085
 30
0.0
 10
9.839659725882859
 20
25.74236666909598
 30
0.0
 10
9.94999999999687
 20
25.71100064078867
 30
0.0
  0
SPLINE
  5
27A
330
1F
100
AcDbEntity
  8
1
  6
SLD-Solid
370
    25
100
AcDbSpline
210
0.0
220
0.0
230
1.0
 70
    24
 71
     2
 72
     6
 73
     3
 74
     0
 42
0.000000001
 43
0.00000001
 40
0.0
 40
0.0
 40
0.0
 40
0.25
 40
0.25
 40
0.25
 10
9.200000000000028
 20
8.094999999999992
 30
0.0
 10
9.218706918939459
 20
8.094999999999992
 30
0.0
 10
9.254984916689676
 20
8.094999999999992
 30
0.0
  0
SPLINE
  5
27B
330
1F
100
AcDbEntity
  8
1
  6
SLD-Solid
370
    25
100
AcDbSpline
210
0.0
220
0.0
230
1.0
 70
    24
 71
     3
 72
     8
 73
     4
 74
     0
 42
0.000000001
 43
0.00000001
 40
0.25
 40
0.25
 40
0.25
 40
0.25
 40
0.5
 40
0.5
 40
0.5
 40
0.5
 10
9.254984916689676
 20
8.094999999999992
 30
0.0
 10
9.291262914439866
 20
8.094999999999992
 30
0.0
 10
9.345503941425303
 20
8.094999999999992
 30
0.0
 10
9.413757757814931
 20
8.094999999999992
 30
0.0
  0
SPLINE
  5
27C
330
1F
100
AcDbEntity
  8
1
  6
SLD-Solid
370
    25
100
AcDbSpline
210
0.0
220
0.0
230
1.0
 70
    24
 71
     3
 72
     8
 73
     4
 74
     0
 42
0.000000001
 43
0.00000001
 40
0.5
 40
0.5
 40
0.5
 40
0.5
 40
0.75
 40
0.75
 40
0.75
 40
0.75
 10
9.413757757814931
 20
8.094999999999992
 30
0.0
 10
9.48201157420453
 20
8.094999999999992
 30
0.0
 10
9.565219805752271
 20
8.094999999999992
 30
0.0
 10
9.657354312945454
 20
8.094999999999992
 30
0.0
  0
SPLINE
  5
27D
330
1F
100
AcDbEntity
  8
1
  6
SLD-Solid
370
    25
100
AcDbSpline
210
0.0
220
0.0
230
1.0
 70
    24
 71
     3
 72
     8
 73
     4
 74
     0
 42
0.000000001
 43
0.00000001
 40
0.75
 40
0.75
 40
0.75
 40
0.75
 40
1.0
 40
1.0
 40
1.0
 40
1.0
 10
9.657354312945454
 20
8.094999999999992
 30
0.0
 10
9.749488820138597
 20
8.094999999999992
 30
0.0
 10
9.849028188255573
 20
8.094999999999992
 30
0.0
 10
9.950000000000028
 20
8.094999999999992
 30
0.0
  0
SPLINE
  5
27E
330
1F
100
AcDbEntity
  8
1
  6
SLD-Solid
370
    25
100
AcDbSpline
210
0.0
220
0.0
230
1.0
 70
     8
 71
     3
 72
    16
 73
    12
 74
     0
 42
0.000000001
 43
0.00000001
 40
0.0
 40
0.0
 40
0.0
 40
0.0
 40
0.2500000000000017
 40
0.2500000000000017
 40
0.5000000000000034
 40
0.5000000000000034
 40
0.7500000000000051
 40
0.7500000000000051
 40
0.8750000000000026
 40
0.8750000000000026
 40
1.0
 40
1.0
 40
1.0
 40
1.0
 10
12.27999999999688
 20
25.71100064078868
 30
0.0
 10
12.39043372689847
 20
25.74239323457945
 30
0.0
 10
12.48882901746027
 20
25.7987325018882
 30
0.0
 10
12.66410334854891
 20
25.94245138604112
 30
0.0
 10
12.73788841341352
 20
26.02725745595261
 30
0.0
 10
12.86422126911942
 20
26.2168303701315
 30
0.0
 10
12.91628240591213
 20
26.32104193278872
 30
0.0
 10
12.97661386675242
 20
26.49190672933528
 30
0.0
 10
12.99395951695434
 20
26.55178250641628
 30
0.0
 10
13.02063019805657
 20
26.67965382866437
 30
0.0
 10
13.02999999999688
 20
26.74911867245211
 30
0.0
 10
13.02999999999688
 20
26.81342395598518
 30
0.0
  0
SPLINE
  5
27F
330
1F
100
AcDbEntity
  8
1
  6
SLD-Solid
370
    25
100
AcDbSpline
210
0.0
220
0.0
230
1.0
 70
    24
 71
     3
 72
     8
 73
     4
 74
     0
 42
0.000000001
 43
0.00000001
 40
0.0
 40
0.0
 40
0.0
 40
0.0
 40
0.5
 40
0.5
 40
0.5
 40
0.5
 10
12.27999999999688
 20
8.094999999999992
 30
0.0
 10
12.48222477372503
 20
8.094999999997329
 30
0.0
 10
12.6783308446093
 20
8.094999999994744
 30
0.0
 10
12.81596325226633
 20
8.094999999992934
 30
0.0
  0
SPLINE
  5
280
330
1F
100
AcDbEntity
  8
1
  6
SLD-Solid
370
    25
100
AcDbSpline
210
0.0
220
0.0
230
1.0
 70
    24
 71
     2
 72
     6
 73
     3
 74
     0
 42
0.000000001
 43
0.00000001
 40
0.5
 40
0.5
 40
0.5
 40
1.0
 40
1.0
 40
1.0
 10
12.81596325226633
 20
8.094999999992934
 30
0.0
 10
12.95359565992341
 20
8.094999999992934
 30
0.0
 10
13.02999999999688
 20
8.094999999992934
 30
0.0
  0
SPLINE
  5
281
330
1F
100
AcDbEntity
  8
1
  6
SLD-Solid
370
    25
100
AcDbSpline
210
0.0
220
0.0
230
1.0
 70
    24
 71
     2
 72
     6
 73
     3
 74
     0
 42
0.000000001
 43
0.00000001
 40
0.0
 40
0.0
 40
0.0
 40
0.25
 40
0.25
 40
0.25
 10
9.200000000000014
 20
-18.34999999999999
 30
0.0
 10
9.215049552321581
 20
-18.34999999999999
 30
0.0
 10
9.245719510034487
 20
-18.34999999999999
 30
0.0
  0
SPLINE
  5
282
330
1F
100
AcDbEntity
  8
1
  6
SLD-Solid
370
    25
100
AcDbSpline
210
0.0
220
0.0
230
1.0
 70
    24
 71
     3
 72
     8
 73
     4
 74
     0
 42
0.000000001
 43
0.00000001
 40
0.25
 40
0.25
 40
0.25
 40
0.25
 40
0.5
 40
0.5
 40
0.5
 40
0.5
 10
9.245719510034487
 20
-18.34999999999999
 30
0.0
 10
9.276389467747407
 20
-18.34999999999999
 30
0.0
 10
9.322582428043013
 20
-18.34999999999999
 30
0.0
 10
9.385647257598148
 20
-18.34999999999999
 30
0.0
  0
SPLINE
  5
283
330
1F
100
AcDbEntity
  8
1
  6
SLD-Solid
370
    25
100
AcDbSpline
210
0.0
220
0.0
230
1.0
 70
    24
 71
     3
 72
     8
 73
     4
 74
     0
 42
0.000000001
 43
0.00000001
 40
0.5
 40
0.5
 40
0.5
 40
0.5
 40
0.75
 40
0.75
 40
0.75
 40
0.75
 10
9.385647257598148
 20
-18.34999999999999
 30
0.0
 10
9.448712087153268
 20
-18.34999999999999
 30
0.0
 10
9.528898807595997
 20
-18.34999999999999
 30
0.0
 10
9.625947673409991
 20
-18.34999999999999
 30
0.0
  0
SPLINE
  5
284
330
1F
100
AcDbEntity
  8
1
  6
SLD-Solid
370
    25
100
AcDbSpline
210
0.0
220
0.0
230
1.0
 70
    24
 71
     3
 72
     8
 73
     4
 74
     0
 42
0.000000001
 43
0.00000001
 40
0.75
 40
0.75
 40
0.75
 40
0.75
 40
1.0
 40
1.0
 40
1.0
 40
1.0
 10
9.625947673409991
 20
-18.34999999999999
 30
0.0
 10
9.722996539223997
 20
-18.34999999999999
 30
0.0
 10
9.83619107128067
 20
-18.34999999999999
 30
0.0
 10
9.950000000000014
 20
-18.34999999999999
 30
0.0
  0
SPLINE
  5
285
330
1F
100
AcDbEntity
  8
1
  6
SLD-Solid
370
    25
100
AcDbSpline
210
0.0
220
0.0
230
1.0
 70
    24
 71
     3
 72
     8
 73
     4
 74
     0
 42
0.000000001
 43
0.00000001
 40
0.0
 40
0.0
 40
0.0
 40
0.0
 40
0.2500000000000009
 40
0.2500000000000009
 40
0.2500000000000009
 40
0.2500000000000009
 10
9.950000000000323
 20
-8.095000000000004
 30
0.0
 10
9.85021927568766
 20
-8.095000000000004
 30
0.0
 10
9.748489574720312
 20
-8.095000000000004
 30
0.0
 10
9.656770208427703
 20
-8.094999999999999
 30
0.0
  0
SPLINE
  5
286
330
1F
100
AcDbEntity
  8
1
  6
SLD-Solid
370
    25
100
AcDbSpline
210
0.0
220
0.0
230
1.0
 70
    24
 71
     3
 72
     8
 73
     4
 74
     0
 42
0.000000001
 43
0.00000001
 40
0.2500000000000009
 40
0.2500000000000009
 40
0.2500000000000009
 40
0.2500000000000009
 40
0.5000000000000018
 40
0.5000000000000018
 40
0.5000000000000018
 40
0.5000000000000018
 10
9.656770208427703
 20
-8.094999999999999
 30
0.0
 10
9.565050842134493
 20
-8.094999999999999
 30
0.0
 10
9.481946114451523
 20
-8.094999999999999
 30
0.0
 10
9.413655347819034
 20
-8.094999999999999
 30
0.0
  0
SPLINE
  5
287
330
1F
100
AcDbEntity
  8
1
  6
SLD-Solid
370
    25
100
AcDbSpline
210
0.0
220
0.0
230
1.0
 70
    24
 71
     2
 72
     6
 73
     3
 74
     0
 42
0.000000001
 43
0.00000001
 40
0.5000000000000018
 40
0.5000000000000018
 40
0.5000000000000018
 40
1.0
 40
1.0
 40
1.0
 10
9.413655347819034
 20
-8.094999999999999
 30
0.0
 10
9.277073814553171
 20
-8.095000000000004
 30
0.0
 10
9.200000000000045
 20
-8.095000000000004
 30
0.0
  0
SPLINE
  5
288
330
1F
100
AcDbEntity
  8
1
  6
SLD-Solid
370
    25
100
AcDbSpline
210
0.0
220
0.0
230
1.0
 70
     8
 71
     3
 72
    12
 73
     8
 74
     0
 42
0.000000001
 43
0.00000001
 40
0.0
 40
0.0
 40
0.0
 40
0.0
 40
0.25
 40
0.25
 40
0.5
 40
0.5
 40
1.0
 40
1.0
 40
1.0
 40
1.0
 10
9.94999999999687
 20
25.71100064078867
 30
0.0
 10
10.11987070991425
 20
25.66271211206651
 30
0.0
 10
10.30396582361807
 20
25.62527590633429
 30
0.0
 10
10.70032541250141
 20
25.57346530882964
 30
0.0
 10
10.9057216265311
 20
25.56022125844616
 30
0.0
 10
11.52828854875024
 20
25.55999751387887
 30
0.0
 10
11.94025576621637
 20
25.61442278343421
 30
0.0
 10
12.27999999999688
 20
25.71100064078868
 30
0.0
  0
SPLINE
  5
289
330
1F
100
AcDbEntity
  8
1
  6
SLD-Solid
370
    25
100
AcDbSpline
210
0.0
220
0.0
230
1.0
 70
     8
 71
     3
 72
    12
 73
     8
 74
     0
 42
0.000000001
 43
0.00000001
 40
0.0
 40
0.0
 40
0.0
 40
0.0
 40
0.25
 40
0.25
 40
0.5
 40
0.5
 40
1.0
 40
1.0
 40
1.0
 40
1.0
 10
3.950000000000023
 20
-25.91022964004758
 30
0.0
 10
3.840647431218716
 20
-25.91022964004758
 30
0.0
 10
3.731411799312467
 20
-25.87992796563979
 30
0.0
 10
3.538605968889039
 20
-25.7704701494163
 30
0.0
 10
3.456827742746041
 20
-25.69343095107759
 30
0.0
 10
3.262709090922702
 20
-25.42763934306025
 30
0.0
 10
3.200000000003714
 20
-25.20425093593309
 30
0.0
 10
3.200000000000022
 20
-24.98554582155403
 30
0.0
  0
SPLINE
  5
28A
330
1F
100
AcDbEntity
  8
1
  6
SLD-Solid
370
    25
100
AcDbSpline
210
0.0
220
0.0
230
1.0
 70
     8
 71
     3
 72
    12
 73
     8
 74
     0
 42
0.000000001
 43
0.00000001
 40
0.0
 40
0.0
 40
0.0
 40
0.0
 40
0.5000000000000023
 40
0.5000000000000023
 40
0.7500000000000011
 40
0.7500000000000011
 40
1.0
 40
1.0
 40
1.0
 40
1.0
 10
19.05000000000001
 20
-24.9855458215345
 30
0.0
 10
19.05000000000001
 20
-25.20557810036768
 30
0.0
 10
18.98853102466325
 20
-25.4253267437946
 30
0.0
 10
18.79383121800842
 20
-25.69283297454338
 30
0.0
 10
18.71149076980416
 20
-25.77032859015184
 30
0.0
 10
18.51931186109926
 20
-25.87960340703118
 30
0.0
 10
18.40982431419735
 20
-25.91022964004757
 30
0.0
 10
18.30000000000001
 20
-25.91022964004757
 30
0.0
  0
SPLINE
  5
28B
330
1F
100
AcDbEntity
  8
1
  6
SLD-Solid
370
    25
100
AcDbSpline
210
0.0
220
0.0
230
1.0
 70
     8
 71
     3
 72
     8
 73
     4
 74
     0
 42
0.000000001
 43
0.00000001
 40
0.0
 40
0.0
 40
0.0
 40
0.0
 40
1.0
 40
1.0
 40
1.0
 40
1.0
 10
14.63683664205678
 20
-25.91022964004757
 30
0.0
 10
14.09016847106482
 20
-24.74996546403978
 30
0.0
 10
13.55303211683965
 20
-23.58413672808592
 30
0.0
 10
13.03
 20
-22.41333264622106
 30
0.0
  0
SPLINE
  5
28C
330
1F
100
AcDbEntity
  8
1
  6
SLD-Solid
370
    25
100
AcDbSpline
210
0.0
220
0.0
230
1.0
 70
     8
 71
     3
 72
    14
 73
    10
 74
     0
 42
0.000000001
 43
0.00000001
 40
0.0
 40
0.0
 40
0.0
 40
0.0
 40
0.25
 40
0.25
 40
0.5
 40
0.5
 40
0.75
 40
0.75
 40
1.0
 40
1.0
 40
1.0
 40
1.0
 10
13.03
 20
-22.13232929449584
 30
0.0
 10
13.03000000000001
 20
-22.01777408914434
 30
0.0
 10
13.0149286485033
 20
-21.90563883030921
 30
0.0
 10
12.95345971831169
 20
-21.68639823941066
 30
0.0
 10
12.9071980634614
 20
-21.58103168145696
 30
0.0
 10
12.78074687769255
 20
-21.39134178492625
 30
0.0
 10
12.69960171970501
 20
-21.30659206818004
 30
0.0
 10
12.50672306519983
 20
-21.18490042323583
 30
0.0
 10
12.39370933272005
 20
-21.14893614345652
 30
0.0
 10
12.28000000000029
 20
-21.14893614345647
 30
0.0
  0
SPLINE
  5
28D
330
1F
100
AcDbEntity
  8
1
  6
SLD-Solid
370
    25
100
AcDbSpline
210
0.0
220
0.0
230
1.0
 70
     8
 71
     3
 72
    14
 73
    10
 74
     0
 42
0.000000001
 43
0.00000001
 40
0.0
 40
0.0
 40
0.0
 40
0.0
 40
0.1249999999999982
 40
0.1249999999999982
 40
0.2499999999999964
 40
0.2499999999999964
 40
0.4999999999999969
 40
0.4999999999999969
 40
1.0
 40
1.0
 40
1.0
 40
1.0
 10
9.950000000000014
 20
-21.14893614345647
 30
0.0
 10
9.893223661227301
 20
-21.14893614345648
 30
0.0
 10
9.83518473443129
 20
-21.15782630300204
 30
0.0
 10
9.725709414661457
 20
-21.19144609061743
 30
0.0
 10
9.6745262273997
 20
-21.21560556432989
 30
0.0
 10
9.530077159662337
 20
-21.30690106897559
 30
0.0
 10
9.448993190155102
 20
-21.39170378208912
 30
0.0
 10
9.259877421569973
 20
-21.67548088616529
 30
0.0
 10
9.200000000000014
 20
-21.90492065088523
 30
0.0
 10
9.200000000000014
 20
-22.13232929449588
 30
0.0
  0
SPLINE
  5
28E
330
1F
100
AcDbEntity
  8
1
  6
SLD-Solid
370
    25
100
AcDbSpline
210
0.0
220
0.0
230
1.0
 70
     8
 71
     3
 72
     8
 73
     4
 74
     0
 42
0.000000001
 43
0.00000001
 40
0.0
 40
0.0
 40
0.0
 40
0.0
 40
1.0
 40
1.0
 40
1.0
 40
1.0
 10
9.200000000000014
 20
-22.41333264622108
 30
0.0
 10
8.676967883160358
 20
-23.58413672808592
 30
0.0
 10
8.139831528935215
 20
-24.74996546403979
 30
0.0
 10
7.593163357943244
 20
-25.91022964004758
 30
0.0
  0
SPLINE
  5
28F
330
1F
100
AcDbEntity
  8
1
  6
SLD-Solid
370
    25
100
AcDbSpline
210
0.0
220
0.0
230
1.0
 70
     8
 71
     3
 72
    34
 73
    30
 74
     0
 42
0.000000001
 43
0.00000001
 40
0.0
 40
0.0
 40
0.0
 40
0.0
 40
0.0426774983035133
 40
0.0825839126697983
 40
0.123551812952493
 40
0.1654537197436257
 40
0.2083210123861225
 40
0.2555884056256038
 40
0.3038923389018265
 40
0.3584520818192745
 40
0.4142680918685289
 40
0.4448328363382746
 40
0.4755905227791514
 40
0.5069476636138742
 40
0.5385094010709521
 40
0.5707094847098401
 40
0.6031362699999949
 40
0.636298976301483
 40
0.6697276467086103
 40
0.7010588679462346
 40
0.7326436870099383
 40
0.7650972742755112
 40
0.7978871974681646
 40
0.84372557632729
 40
0.8908166944816981
 40
0.9367022274025115
 40
0.9603878928368911
 40
0.9843025571852564
 40
1.0
 40
1.0
 40
1.0
 40
1.0
 10
38.24297929713004
 20
13.99933988931735
 30
0.0
 10
38.23106407964269
 20
13.99539919305469
 30
0.0
 10
38.20800730922429
 20
13.98777367307457
 30
0.0
 10
38.01515673339537
 20
13.92534926139952
 30
0.0
 10
37.72379119437523
 20
13.83479623449386
 30
0.0
 10
37.32042019537078
 20
13.71679640856139
 30
0.0
 10
36.80319344941387
 20
13.57794652910562
 30
0.0
 10
36.17278617237585
 20
13.42768759487299
 30
0.0
 10
35.40905714263801
 20
13.27363643630822
 30
0.0
 10
34.53189659869316
 20
13.13453229079094
 30
0.0
 10
33.70661634465768
 20
13.04492649078791
 30
0.0
 10
33.00389841383507
 20
12.99750121452951
 30
0.0
 10
32.44150287358906
 20
12.97598909430604
 30
0.0
 10
31.87025101699936
 20
12.97121982747059
 30
0.0
 10
31.29103481961115
 20
12.98395271590053
 30
0.0
 10
30.71003361730555
 20
13.01450503595122
 30
0.0
 10
30.12838996384844
 20
13.06292327868138
 30
0.0
 10
29.55313331199827
 20
13.12837358144341
 30
0.0
 10
29.00274804199415
 20
13.20758378315459
 30
0.0
 10
28.48387081731235
 20
13.29687323169605
 30
0.0
 10
27.99669044811276
 20
13.3934490143324
 30
0.0
 10
27.53465031570616
 20
13.49664349997357
 30
0.0
 10
27.04966161930641
 20
13.61643385040778
 30
0.0
 10
26.57180207312436
 20
13.74710305389409
 30
0.0
 10
26.15721463332471
 20
13.87099954565115
 30
0.0
 10
25.91982251773317
 20
13.94634838151999
 30
0.0
 10
25.80525517868776
 20
13.98350864998165
 30
0.0
 10
25.76125375822613
 20
13.99794443380749
 30
0.0
 10
25.75677631710616
 20
13.9994166082933
 30
0.0
 10
25.75500200160084
 20
13.99999999999999
 30
0.0
  0
SPLINE
  5
290
330
1F
100
AcDbEntity
  8
1
  6
SLD-Solid
370
    25
100
AcDbSpline
210
0.0
220
0.0
230
1.0
 70
     8
 71
     3
 72
    16
 73
    12
 74
     0
 42
0.000000001
 43
0.00000001
 40
0.0
 40
0.0
 40
0.0
 40
0.0
 40
0.2500000000000011
 40
0.2500000000000011
 40
0.5000000000000021
 40
0.5000000000000021
 40
0.7500000000000031
 40
0.7500000000000031
 40
0.8750000000000016
 40
0.8750000000000016
 40
1.0
 40
1.0
 40
1.0
 40
1.0
 10
9.94999999999992
 20
26.82301853349019
 30
0.0
 10
9.839566273098331
 20
26.80027599034486
 30
0.0
 10
9.741170982536534
 20
26.79683942016773
 30
0.0
 10
9.565896651447915
 20
26.81222120094813
 30
0.0
 10
9.49211158658328
 20
26.83083008839228
 30
0.0
 10
9.365778730877365
 20
26.88495833898958
 30
0.0
 10
9.31371759408471
 20
26.91972746121534
 30
0.0
 10
9.25338613324439
 20
26.99319708569396
 30
0.0
 10
9.236040483042508
 20
27.02133912772177
 30
0.0
 10
9.209369801940271
 20
27.0958912640421
 30
0.0
 10
9.199999999999985
 20
27.14371862289292
 30
0.0
 10
9.199999999999996
 20
27.20802390642598
 30
0.0
  0
SPLINE
  5
291
330
1F
100
AcDbEntity
  8
1
  6
SLD-Solid
370
    25
100
AcDbSpline
210
0.0
220
0.0
230
1.0
 70
     8
 71
     3
 72
    12
 73
     8
 74
     0
 42
0.000000001
 43
0.00000001
 40
0.0
 40
0.0
 40
0.0
 40
0.0
 40
0.25
 40
0.25
 40
0.5
 40
0.5
 40
1.0
 40
1.0
 40
1.0
 40
1.0
 10
12.27999999999993
 20
26.82301853349013
 30
0.0
 10
12.11012929008258
 20
26.85800143280735
 30
0.0
 10
11.92603417637876
 20
26.88390423639618
 30
0.0
 10
11.5296745874954
 20
26.91937262947672
 30
0.0
 10
11.32427837346572
 20
26.92817666438654
 30
0.0
 10
10.70171145124658
 20
26.92832683986094
 30
0.0
 10
10.28974423378046
 20
26.89298491162409
 30
0.0
 10
9.949999999999918
 20
26.82301853349019
 30
0.0
  0
SPLINE
  5
292
330
1F
100
AcDbEntity
  8
1
  6
SLD-Solid
370
    25
100
AcDbSpline
210
0.0
220
0.0
230
1.0
 70
     8
 71
     3
 72
    16
 73
    12
 74
     0
 42
0.000000001
 43
0.00000001
 40
0.0
 40
0.0
 40
0.0
 40
0.0
 40
0.1250000000000009
 40
0.1250000000000009
 40
0.2500000000000018
 40
0.2500000000000018
 40
0.5000000000000012
 40
0.5000000000000012
 40
0.7500000000000007
 40
0.7500000000000007
 40
1.0
 40
1.0
 40
1.0
 40
1.0
 10
13.02999999999677
 20
27.20802390643122
 30
0.0
 10
13.02999999999677
 20
27.1446821491779
 30
0.0
 10
13.02043617209532
 20
27.09517885573592
 30
0.0
 10
12.99383439190181
 20
27.02116147442295
 30
0.0
 10
12.97639301331743
 20
26.99288151408816
 30
0.0
 10
12.91617272175435
 20
26.91968778271919
 30
0.0
 10
12.86505291028744
 20
26.8853831151977
 30
0.0
 10
12.73798903551605
 20
26.8308052475017
 30
0.0
 10
12.66388408656437
 20
26.81227314493874
 30
0.0
 10
12.49051699737104
 20
26.79691696881304
 30
0.0
 10
12.3903402741139
 20
26.80029523586117
 30
0.0
 10
12.27999999999993
 20
26.82301853349013
 30
0.0
  0
SPLINE
  5
293
330
1F
100
AcDbEntity
  8
SK3
  6
SLD-Dashed
370
    18
100
AcDbSpline
210
0.0
220
0.0
230
1.0
 70
     8
 71
     3
 72
     8
 73
     4
 74
     0
 42
0.000000001
 43
0.00000001
 40
0.0
 40
0.0
 40
0.0
 40
0.0
 40
1.0
 40
1.0
 40
1.0
 40
1.0
 10
9.128576702935348
 20
23.28997611937698
 30
0.0
 10
9.110727234552362
 20
23.27357610829827
 30
0.0
 10
9.110717684123317
 20
23.21873966459206
 30
0.0
 10
9.128576702935945
 20
23.13083934744692
 30
0.0
  0
SPLINE
  5
294
330
1F
100
AcDbEntity
  8
SK3
  6
SLD-Dashed
370
    18
100
AcDbSpline
210
0.0
220
0.0
230
1.0
 70
     8
 71
     3
 72
    34
 73
    30
 74
     0
 42
0.000000001
 43
0.00000001
 40
0.5000000000000022
 40
0.5000000000000022
 40
0.5000000000000022
 40
0.5000000000000022
 40
0.5625000000000021
 40
0.5625000000000021
 40
0.5937500000000018
 40
0.5937500000000018
 40
0.6250000000000014
 40
0.6250000000000014
 40
0.6562500000000012
 40
0.6562500000000012
 40
0.6875000000000009
 40
0.6875000000000009
 40
0.7500000000000007
 40
0.7500000000000007
 40
0.7812500000000006
 40
0.7812500000000006
 40
0.8125000000000006
 40
0.8125000000000006
 40
0.8437500000000004
 40
0.8437500000000004
 40
0.8750000000000003
 40
0.8750000000000003
 40
0.9062500000000003
 40
0.9062500000000003
 40
0.9375000000000002
 40
0.9375000000000002
 40
0.9687500000000002
 40
0.9687500000000002
 40
1.0
 40
1.0
 40
1.0
 40
1.0
 10
10.44989457346454
 20
20.83939046133177
 30
0.0
 10
10.59263203931585
 20
20.61623535383182
 30
0.0
 10
10.74572898252597
 20
20.40034020612857
 30
0.0
 10
11.02346457422354
 20
20.11974774983988
 30
0.0
 10
11.123727204634
 20
20.03506133841344
 30
0.0
 10
11.34651412887493
 20
19.90202523848852
 30
0.0
 10
11.46788474947193
 20
19.85636932238473
 30
0.0
 10
11.71475803299396
 20
19.81834705508891
 30
0.0
 10
11.83869929941918
 20
19.82541361136527
 30
0.0
 10
12.06754486308015
 20
19.87113904737418
 30
0.0
 10
12.17335137945201
 20
19.90901688262058
 30
0.0
 10
12.45826053814747
 20
20.0433870630456
 30
0.0
 10
12.60079742123006
 20
20.15748101913769
 30
0.0
 10
12.72395241472733
 20
20.3163795690515
 30
0.0
 10
12.75035560308831
 20
20.3686983002106
 30
0.0
 10
12.77026974501039
 20
20.46407068698104
 30
0.0
 10
12.76437513382366
 20
20.50809579026947
 30
0.0
 10
12.72033810945414
 20
20.58670273274055
 30
0.0
 10
12.68302095968715
 20
20.62036391382856
 30
0.0
 10
12.5784495290439
 20
20.67880303965011
 30
0.0
 10
12.51125932456629
 20
20.70315217179684
 30
0.0
 10
12.35309446794185
 20
20.74506697422294
 30
0.0
 10
12.25993473983129
 20
20.76306355348387
 30
0.0
 10
12.05554915126637
 20
20.80054797821101
 30
0.0
 10
11.94432147845091
 20
20.81988880904708
 30
0.0
 10
11.70236550523708
 20
20.87856381245233
 30
0.0
 10
11.57681201416271
 20
20.91779460819586
 30
0.0
 10
11.33321027169287
 20
21.02911527108172
 30
0.0
 10
11.21910590689124
 20
21.09953242026532
 30
0.0
 10
11.11500000000001
 20
21.17875161027494
 30
0.0
  0
SPLINE
  5
295
330
1F
100
AcDbEntity
  8
SK3
  6
SLD-Dashed
370
    18
100
AcDbSpline
210
0.0
220
0.0
230
1.0
 70
     8
 71
     3
 72
    32
 73
    28
 74
     0
 42
0.000000001
 43
0.00000001
 40
0.0
 40
0.0
 40
0.0
 40
0.0
 40
0.0312500000000004
 40
0.0312500000000004
 40
0.0625000000000007
 40
0.0625000000000007
 40
0.1250000000000009
 40
0.1250000000000009
 40
0.1875000000000011
 40
0.1875000000000011
 40
0.2187500000000011
 40
0.2187500000000011
 40
0.2500000000000012
 40
0.2500000000000012
 40
0.2812500000000014
 40
0.2812500000000014
 40
0.3125000000000016
 40
0.3125000000000016
 40
0.3437500000000018
 40
0.3437500000000018
 40
0.375000000000002
 40
0.375000000000002
 40
0.4062500000000022
 40
0.4062500000000022
 40
0.4375000000000024
 40
0.4375000000000024
 40
0.5000000000000022
 40
0.5000000000000022
 40
0.5000000000000022
 40
0.5000000000000022
 10
11.11500000000001
 20
21.17875161027494
 30
0.0
 10
11.01089409310879
 20
21.25797080028457
 30
0.0
 10
10.91907857642198
 20
21.34285059862821
 30
0.0
 10
10.74762137377527
 20
21.51739232411443
 30
0.0
 10
10.66818813797005
 20
21.60711674781945
 30
0.0
 10
10.44047236553636
 20
21.87810823988762
 30
0.0
 10
10.30542057236918
 20
22.05723493175804
 30
0.0
 10
10.05258703563629
 20
22.39465868829962
 30
0.0
 10
9.934813607757997
 20
22.55444913615407
 30
0.0
 10
9.770188160048153
 20
22.76413869711338
 30
0.0
 10
9.71796592580912
 20
22.82813217252615
 30
0.0
 10
9.623196888300614
 20
22.93456489587036
 30
0.0
 10
9.579891013149586
 20
22.97806553251083
 30
0.0
 10
9.508588627253511
 20
23.02840087322287
 30
0.0
 10
9.48189227676849
 20
23.03332613058727
 30
0.0
 10
9.459811777617288
 20
22.98326804514633
 30
0.0
 10
9.465063840888229
 20
22.92678738490278
 30
0.0
 10
9.505124926315862
 20
22.76846886513447
 30
0.0
 10
9.53824424207414
 20
22.67034415658176
 30
0.0
 10
9.619247903804654
 20
22.45687868614512
 30
0.0
 10
9.665743567469118
 20
22.34495490160375
 30
0.0
 10
9.766569607309608
 20
22.11524263911087
 30
0.0
 10
9.821244160784573
 20
21.99690704152572
 30
0.0
 10
9.934291731587845
 20
21.76239601491103
 30
0.0
 10
9.993038231873266
 20
21.64535767447227
 30
0.0
 10
10.17595206270198
 20
21.29563855276317
 30
0.0
 10
10.30715710761322
 20
21.06254556883173
 30
0.0
 10
10.44989457346454
 20
20.83939046133177
 30
0.0
  0
SPLINE
  5
296
330
1F
100
AcDbEntity
  8
SK3
  6
SLD-Dashed
370
    18
100
AcDbSpline
210
0.0
220
0.0
230
1.0
 70
     8
 71
     3
 72
    34
 73
    30
 74
     0
 42
0.000000001
 43
0.00000001
 40
0.5000000000000022
 40
0.5000000000000022
 40
0.5000000000000022
 40
0.5000000000000022
 40
0.5625000000000021
 40
0.5625000000000021
 40
0.5937500000000018
 40
0.5937500000000018
 40
0.6250000000000014
 40
0.6250000000000014
 40
0.6562500000000012
 40
0.6562500000000012
 40
0.6875000000000009
 40
0.6875000000000009
 40
0.7500000000000007
 40
0.7500000000000007
 40
0.7812500000000006
 40
0.7812500000000006
 40
0.8125000000000006
 40
0.8125000000000006
 40
0.8437500000000004
 40
0.8437500000000004
 40
0.8750000000000003
 40
0.8750000000000003
 40
0.9062500000000003
 40
0.9062500000000003
 40
0.9375000000000002
 40
0.9375000000000002
 40
0.9687500000000002
 40
0.9687500000000002
 40
1.0
 40
1.0
 40
1.0
 40
1.0
 10
10.44989457346454
 20
20.83939046133177
 30
0.0
 10
10.59263203931585
 20
20.61623535383182
 30
0.0
 10
10.74572898252597
 20
20.40034020612857
 30
0.0
 10
11.02346457422354
 20
20.11974774983988
 30
0.0
 10
11.123727204634
 20
20.03506133841344
 30
0.0
 10
11.34651412887493
 20
19.90202523848852
 30
0.0
 10
11.46788474947193
 20
19.85636932238473
 30
0.0
 10
11.71475803299396
 20
19.81834705508891
 30
0.0
 10
11.83869929941918
 20
19.82541361136527
 30
0.0
 10
12.06754486308015
 20
19.87113904737418
 30
0.0
 10
12.17335137945201
 20
19.90901688262058
 30
0.0
 10
12.45826053814747
 20
20.0433870630456
 30
0.0
 10
12.60079742123006
 20
20.15748101913769
 30
0.0
 10
12.72395241472733
 20
20.3163795690515
 30
0.0
 10
12.75035560308831
 20
20.3686983002106
 30
0.0
 10
12.77026974501039
 20
20.46407068698104
 30
0.0
 10
12.76437513382366
 20
20.50809579026947
 30
0.0
 10
12.72033810945414
 20
20.58670273274055
 30
0.0
 10
12.68302095968715
 20
20.62036391382856
 30
0.0
 10
12.5784495290439
 20
20.67880303965011
 30
0.0
 10
12.51125932456629
 20
20.70315217179684
 30
0.0
 10
12.35309446794185
 20
20.74506697422294
 30
0.0
 10
12.25993473983129
 20
20.76306355348387
 30
0.0
 10
12.05554915126637
 20
20.80054797821101
 30
0.0
 10
11.94432147845091
 20
20.81988880904708
 30
0.0
 10
11.70236550523708
 20
20.87856381245233
 30
0.0
 10
11.57681201416271
 20
20.91779460819586
 30
0.0
 10
11.33321027169287
 20
21.02911527108172
 30
0.0
 10
11.21910590689124
 20
21.09953242026532
 30
0.0
 10
11.11500000000001
 20
21.17875161027494
 30
0.0
  0
SPLINE
  5
297
330
1F
100
AcDbEntity
  8
SK3
  6
SLD-Dashed
370
    18
100
AcDbSpline
210
0.0
220
0.0
230
1.0
 70
     8
 71
     3
 72
    32
 73
    28
 74
     0
 42
0.000000001
 43
0.00000001
 40
0.0
 40
0.0
 40
0.0
 40
0.0
 40
0.0312500000000004
 40
0.0312500000000004
 40
0.0625000000000007
 40
0.0625000000000007
 40
0.1250000000000009
 40
0.1250000000000009
 40
0.1875000000000011
 40
0.1875000000000011
 40
0.2187500000000011
 40
0.2187500000000011
 40
0.2500000000000012
 40
0.2500000000000012
 40
0.2812500000000014
 40
0.2812500000000014
 40
0.3125000000000016
 40
0.3125000000000016
 40
0.3437500000000018
 40
0.3437500000000018
 40
0.375000000000002
 40
0.375000000000002
 40
0.4062500000000022
 40
0.4062500000000022
 40
0.4375000000000024
 40
0.4375000000000024
 40
0.5000000000000022
 40
0.5000000000000022
 40
0.5000000000000022
 40
0.5000000000000022
 10
11.11500000000001
 20
21.17875161027494
 30
0.0
 10
11.01089409310879
 20
21.25797080028457
 30
0.0
 10
10.91907857642198
 20
21.34285059862821
 30
0.0
 10
10.74762137377527
 20
21.51739232411443
 30
0.0
 10
10.66818813797005
 20
21.60711674781945
 30
0.0
 10
10.44047236553636
 20
21.87810823988762
 30
0.0
 10
10.30542057236918
 20
22.05723493175804
 30
0.0
 10
10.05258703563629
 20
22.39465868829962
 30
0.0
 10
9.934813607757997
 20
22.55444913615407
 30
0.0
 10
9.770188160048153
 20
22.76413869711338
 30
0.0
 10
9.71796592580912
 20
22.82813217252615
 30
0.0
 10
9.623196888300614
 20
22.93456489587036
 30
0.0
 10
9.579891013149586
 20
22.97806553251083
 30
0.0
 10
9.508588627253511
 20
23.02840087322287
 30
0.0
 10
9.48189227676849
 20
23.03332613058727
 30
0.0
 10
9.459811777617288
 20
22.98326804514633
 30
0.0
 10
9.465063840888229
 20
22.92678738490278
 30
0.0
 10
9.505124926315862
 20
22.76846886513447
 30
0.0
 10
9.53824424207414
 20
22.67034415658176
 30
0.0
 10
9.619247903804654
 20
22.45687868614512
 30
0.0
 10
9.665743567469118
 20
22.34495490160375
 30
0.0
 10
9.766569607309608
 20
22.11524263911087
 30
0.0
 10
9.821244160784573
 20
21.99690704152572
 30
0.0
 10
9.934291731587845
 20
21.76239601491103
 30
0.0
 10
9.993038231873266
 20
21.64535767447227
 30
0.0
 10
10.17595206270198
 20
21.29563855276317
 30
0.0
 10
10.30715710761322
 20
21.06254556883173
 30
0.0
 10
10.44989457346454
 20
20.83939046133177
 30
0.0
  0
SPLINE
  5
298
330
1F
100
AcDbEntity
  8
SK3
  6
SLD-Dashed
370
    18
100
AcDbSpline
210
0.0
220
0.0
230
1.0
 70
     8
 71
     3
 72
    38
 73
    34
 74
     0
 42
0.000000001
 43
0.00000001
 40
0.4999999999999983
 40
0.4999999999999983
 40
0.4999999999999983
 40
0.4999999999999983
 40
0.5312499999999981
 40
0.5312499999999981
 40
0.5624999999999979
 40
0.5624999999999979
 40
0.5937499999999978
 40
0.5937499999999978
 40
0.6249999999999976
 40
0.6249999999999976
 40
0.6562499999999973
 40
0.6562499999999973
 40
0.6874999999999971
 40
0.6874999999999971
 40
0.7187499999999969
 40
0.7187499999999969
 40
0.7499999999999967
 40
0.7499999999999967
 40
0.8124999999999972
 40
0.8124999999999972
 40
0.8437499999999977
 40
0.8437499999999977
 40
0.8749999999999981
 40
0.8749999999999981
 40
0.9062499999999986
 40
0.9062499999999986
 40
0.9374999999999991
 40
0.9374999999999991
 40
0.9687499999999996
 40
0.9687499999999996
 40
0.9843749999999998
 40
0.9843749999999998
 40
1.0
 40
1.0
 40
1.0
 40
1.0
 10
9.562165917302218
 20
18.47093598961304
 30
0.0
 10
9.606669608828804
 20
18.52416098688805
 30
0.0
 10
9.666912210336983
 20
18.57938849438463
 30
0.0
 10
9.811812632231575
 20
18.68375239917333
 30
0.0
 10
9.897567425050546
 20
18.73401424472705
 30
0.0
 10
10.09207138823541
 20
18.8199322275476
 30
0.0
 10
10.19846038260039
 20
18.85489400372537
 30
0.0
 10
10.42991716747886
 20
18.89353738847551
 30
0.0
 10
10.55509168137393
 20
18.89577731622842
 30
0.0
 10
10.80142802631486
 20
18.84685379350589
 30
0.0
 10
10.92088750473039
 20
18.7956916519712
 30
0.0
 10
11.13971660654371
 20
18.65451476066452
 30
0.0
 10
11.23726506040233
 20
18.56770093185929
 30
0.0
 10
11.41790338683532
 20
18.37844427042388
 30
0.0
 10
11.50153843453282
 20
18.2751051322028
 30
0.0
 10
11.65792087602185
 20
18.06321384263405
 30
0.0
 10
11.73120965691786
 20
17.95392511395889
 30
0.0
 10
11.94219226675074
 20
17.619741552961
 30
0.0
 10
12.07203185085189
 20
17.38734632762718
 30
0.0
 10
12.25447266366211
 20
17.03574839840394
 30
0.0
 10
12.31288111599023
 20
16.91845212228915
 30
0.0
 10
12.42478986086723
 20
16.68436964494052
 30
0.0
 10
12.47864510461585
 20
16.56677083259166
 30
0.0
 10
12.57771343290434
 20
16.33866118066523
 30
0.0
 10
12.62343468736299
 20
16.22711687706208
 30
0.0
 10
12.70112312343488
 20
16.01827980161889
 30
0.0
 10
12.73250492214961
 20
15.92212850952397
 30
0.0
 10
12.76725985948272
 20
15.77300891717612
 30
0.0
 10
12.7696372439699
 20
15.72182794413953
 30
0.0
 10
12.74922628849658
 20
15.69153457680418
 30
0.0
 10
12.73857436485568
 20
15.68875344160837
 30
0.0
 10
12.71187670664381
 20
15.69536171497652
 30
0.0
 10
12.69586259956385
 20
15.70450089689616
 30
0.0
 10
12.67730763443391
 20
15.71862026199411
 30
0.0
  0
SPLINE
  5
299
330
1F
100
AcDbEntity
  8
SK3
  6
SLD-Dashed
370
    18
100
AcDbSpline
210
0.0
220
0.0
230
1.0
 70
     8
 71
     3
 72
    32
 73
    28
 74
     0
 42
0.000000001
 43
0.00000001
 40
0.0
 40
0.0
 40
0.0
 40
0.0
 40
0.03125
 40
0.03125
 40
0.0625
 40
0.0625
 40
0.1250000000000001
 40
0.1250000000000001
 40
0.1875000000000001
 40
0.1875000000000001
 40
0.2187499999999999
 40
0.2187499999999999
 40
0.2499999999999997
 40
0.2499999999999997
 40
0.2812499999999995
 40
0.2812499999999995
 40
0.3124999999999993
 40
0.3124999999999993
 40
0.3437499999999991
 40
0.3437499999999991
 40
0.3749999999999989
 40
0.3749999999999989
 40
0.4374999999999987
 40
0.4374999999999987
 40
0.4687499999999986
 40
0.4687499999999986
 40
0.4999999999999983
 40
0.4999999999999983
 40
0.4999999999999983
 40
0.4999999999999983
 10
12.67730763443391
 20
15.71862026199411
 30
0.0
 10
12.64019770417403
 20
15.74685899219002
 30
0.0
 10
12.596203021273
 20
15.79224259566823
 30
0.0
 10
12.49971880657838
 20
15.9022963991526
 30
0.0
 10
12.44665882244547
 20
15.96790322450678
 30
0.0
 10
12.28056941339611
 20
16.18069042781309
 30
0.0
 10
12.16116169070409
 20
16.34294467859647
 30
0.0
 10
11.90308945990526
 20
16.68678550781622
 30
0.0
 10
11.76485718622874
 20
16.86913497916117
 30
0.0
 10
11.53444141192583
 20
17.13967173638346
 30
0.0
 10
11.45348400885544
 20
17.22963068267213
 30
0.0
 10
11.27594996715919
 20
17.40558287635432
 30
0.0
 10
11.18041818036963
 20
17.49045861876101
 30
0.0
 10
10.96802844471279
 20
17.64380301353632
 30
0.0
 10
10.85203519791085
 20
17.71043612197693
 30
0.0
 10
10.6063368132057
 20
17.8142110669719
 30
0.0
 10
10.48187270231066
 20
17.84965901655795
 30
0.0
 10
10.24397755356147
 20
17.90370925451104
 30
0.0
 10
10.13459384449092
 20
17.92220535972609
 30
0.0
 10
9.934042005980928
 20
17.95947433583486
 30
0.0
 10
9.845027015680616
 20
17.97770297449699
 30
0.0
 10
9.616531880722937
 20
18.0431335092885
 30
0.0
 10
9.516243573240754
 20
18.10241425150425
 30
0.0
 10
9.462270080515312
 20
18.22319269411326
 30
0.0
 10
9.460111331805908
 20
18.26770507956404
 30
0.0
 10
9.487789440891763
 20
18.36543324740019
 30
0.0
 10
9.517662225775645
 20
18.41771099233802
 30
0.0
 10
9.562165917302218
 20
18.47093598961304
 30
0.0
  0
SPLINE
  5
29A
330
1F
100
AcDbEntity
  8
SK3
  6
SLD-Dashed
370
    18
100
AcDbSpline
210
0.0
220
0.0
230
1.0
 70
     8
 71
     3
 72
    30
 73
    26
 74
     0
 42
0.000000001
 43
0.00000001
 40
0.4999999999999996
 40
0.4999999999999996
 40
0.4999999999999996
 40
0.4999999999999996
 40
0.5624999999999996
 40
0.5624999999999996
 40
0.5937499999999996
 40
0.5937499999999996
 40
0.6249999999999996
 40
0.6249999999999996
 40
0.6562499999999996
 40
0.6562499999999996
 40
0.6874999999999996
 40
0.6874999999999996
 40
0.7499999999999997
 40
0.7499999999999997
 40
0.7812499999999999
 40
0.7812499999999999
 40
0.8125
 40
0.8125
 40
0.8749999999999999
 40
0.8749999999999999
 40
0.9374999999999998
 40
0.9374999999999998
 40
0.9687499999999999
 40
0.9687499999999999
 40
1.0
 40
1.0
 40
1.0
 40
1.0
 10
11.11430368410714
 20
5.828167207691373
 30
0.0
 10
11.33009126887199
 20
5.828115306295421
 30
0.0
 10
11.54795128911974
 20
5.853226619630836
 30
0.0
 10
11.84605317565862
 20
5.921378925030779
 30
0.0
 10
11.94253393061905
 20
5.949467310097247
 30
0.0
 10
12.12179675468218
 20
6.012972513647401
 30
0.0
 10
12.20462098377893
 20
6.04822697981685
 30
0.0
 10
12.35687870501917
 20
6.124380915133059
 30
0.0
 10
12.4263180694021
 20
6.165465658268573
 30
0.0
 10
12.54572006888069
 20
6.248620606736373
 30
0.0
 10
12.59658790169314
 20
6.291096399247333
 30
0.0
 10
12.72179440427303
 20
6.419694154251538
 30
0.0
 10
12.76487466953582
 20
6.503022927757736
 30
0.0
 10
12.76506225703519
 20
6.614774792879481
 30
0.0
 10
12.75445301760238
 20
6.649126503457128
 30
0.0
 10
12.71241496733705
 20
6.712428813018215
 30
0.0
 10
12.6804512122969
 20
6.741568242513707
 30
0.0
 10
12.55657935443363
 20
6.818291462563137
 30
0.0
 10
12.43386794715662
 20
6.856960600828361
 30
0.0
 10
12.13106882835609
 20
6.912527923266403
 30
0.0
 10
11.94781800952535
 20
6.93024092104777
 30
0.0
 10
11.65004990845557
 20
6.946673551337837
 30
0.0
 10
11.54505220944867
 20
6.950572875357726
 30
0.0
 10
11.33230470473273
 20
6.955628312362946
 30
0.0
 10
11.22442130839528
 20
6.956833596926851
 30
0.0
 10
11.11500000000004
 20
6.956833596926851
 30
0.0
  0
SPLINE
  5
29B
330
1F
100
AcDbEntity
  8
SK3
  6
SLD-Dashed
370
    18
100
AcDbSpline
210
0.0
220
0.0
230
1.0
 70
     8
 71
     3
 72
    32
 73
    28
 74
     0
 42
0.000000001
 43
0.00000001
 40
0.0
 40
0.0
 40
0.0
 40
0.0
 40
0.0312499999999999
 40
0.0312499999999999
 40
0.0624999999999998
 40
0.0624999999999998
 40
0.0937499999999997
 40
0.0937499999999997
 40
0.1249999999999996
 40
0.1249999999999996
 40
0.1874999999999996
 40
0.1874999999999996
 40
0.2499999999999996
 40
0.2499999999999996
 40
0.2812499999999996
 40
0.2812499999999996
 40
0.3124999999999996
 40
0.3124999999999996
 40
0.3749999999999995
 40
0.3749999999999995
 40
0.4062499999999996
 40
0.4062499999999996
 40
0.4374999999999996
 40
0.4374999999999996
 40
0.4687499999999996
 40
0.4687499999999996
 40
0.4999999999999996
 40
0.4999999999999996
 40
0.4999999999999996
 40
0.4999999999999996
 10
11.11500000000004
 20
6.956833596926844
 30
0.0
 10
11.00557869160478
 20
6.956833596926851
 30
0.0
 10
10.89806586933309
 20
6.955627963956649
 30
0.0
 10
10.68667557509281
 20
6.950622995814955
 30
0.0
 10
10.5816790382855
 20
6.946753933808891
 30
0.0
 10
10.38206695335694
 20
6.935768027176644
 30
0.0
 10
10.28745482523746
 20
6.928696942217407
 30
0.0
 10
10.10839779389291
 20
6.910231660990446
 30
0.0
 10
10.02393255072599
 20
6.898743845893986
 30
0.0
 10
9.796543306819478
 20
6.857077657457404
 30
0.0
 10
9.673729911511039
 20
6.818347772389079
 30
0.0
 10
9.508870539297956
 20
6.716507610830869
 30
0.0
 10
9.465132936589752
 20
6.652066427653508
 30
0.0
 10
9.46493399793709
 20
6.541258784564026
 30
0.0
 10
9.475739932554891
 20
6.501299469794858
 30
0.0
 10
9.51801087833258
 20
6.419625887741816
 30
0.0
 10
9.54928231265674
 20
6.377645531664935
 30
0.0
 10
9.673818187818428
 20
6.249318993315302
 30
0.0
 10
9.795190608826665
 20
6.163476224018312
 30
0.0
 10
10.02468579114231
 20
6.048515748545015
 30
0.0
 10
10.1075626121138
 20
6.013248709296814
 30
0.0
 10
10.28589156588293
 20
5.949976451112296
 30
0.0
 10
10.38250767519577
 20
5.921756193648105
 30
0.0
 10
10.58170943134511
 20
5.876118601883036
 30
0.0
 10
10.68455576173694
 20
5.85846053088216
 30
0.0
 10
10.89687217954249
 20
5.834404898897278
 30
0.0
 10
11.0064098917247
 20
5.828193158389346
 30
0.0
 10
11.11430368410714
 20
5.828167207691373
 30
0.0
  0
SPLINE
  5
29C
330
1F
100
AcDbEntity
  8
SK3
  6
SLD-Dashed
370
    18
100
AcDbSpline
210
0.0
220
0.0
230
1.0
 70
     8
 71
     3
 72
    30
 73
    26
 74
     0
 42
0.000000001
 43
0.00000001
 40
0.4999999999999994
 40
0.4999999999999994
 40
0.4999999999999994
 40
0.4999999999999994
 40
0.5624999999999993
 40
0.5624999999999993
 40
0.5937499999999993
 40
0.5937499999999993
 40
0.6249999999999993
 40
0.6249999999999993
 40
0.6562499999999992
 40
0.6562499999999992
 40
0.6874999999999992
 40
0.6874999999999992
 40
0.7499999999999993
 40
0.7499999999999993
 40
0.7812499999999994
 40
0.7812499999999994
 40
0.8124999999999996
 40
0.8124999999999996
 40
0.8749999999999998
 40
0.8749999999999998
 40
0.9375000000000001
 40
0.9375000000000001
 40
0.96875
 40
0.96875
 40
1.0
 40
1.0
 40
1.0
 40
1.0
 10
11.1156963158929
 20
-6.956833580162754
 30
0.0
 10
10.89990873112802
 20
-6.956843970517483
 30
0.0
 10
10.68204871088031
 20
-6.952241486905365
 30
0.0
 10
10.38394682434142
 20
-6.935889501002449
 30
0.0
 10
10.28746606938097
 20
-6.928699960484528
 30
0.0
 10
10.10820324531787
 20
-6.910209737526842
 30
0.0
 10
10.02537901622108
 20
-6.898970158438191
 30
0.0
 10
9.873121294980844
 20
-6.871147771185214
 30
0.0
 10
9.803681930597941
 20
-6.854433231372477
 30
0.0
 10
9.684279931119338
 20
-6.815612630628729
 30
0.0
 10
9.633412098306913
 20
-6.793386116891995
 30
0.0
 10
9.508205595727043
 20
-6.716207589536723
 30
0.0
 10
9.465125330464245
 20
-6.652618242114931
 30
0.0
 10
9.46493774296485
 20
-6.540949477857872
 30
0.0
 10
9.47554698239768
 20
-6.501855853266021
 30
0.0
 10
9.517585032662993
 20
-6.420267783395401
 30
0.0
 10
9.549548787703117
 20
-6.377363834226806
 30
0.0
 10
9.673420645566408
 20
-6.249742870430844
 30
0.0
 10
9.79613205284341
 20
-6.163076186250692
 30
0.0
 10
10.09893117164393
 20
-6.011252938463243
 30
0.0
 10
10.28218199047468
 20
-5.944853672422524
 30
0.0
 10
10.57995009154447
 20
-5.876465956472954
 30
0.0
 10
10.68494779055135
 20
-5.858393071769257
 30
0.0
 10
10.89769529526731
 20
-5.834334813080909
 30
0.0
 10
11.00557869160478
 20
-5.828167123952157
 30
0.0
 10
11.11500000000004
 20
-5.828167123952157
 30
0.0
  0
SPLINE
  5
29D
330
1F
100
AcDbEntity
  8
SK3
  6
SLD-Dashed
370
    18
100
AcDbSpline
210
0.0
220
0.0
230
1.0
 70
     8
 71
     3
 72
    32
 73
    28
 74
     0
 42
0.000000001
 43
0.00000001
 40
0.0
 40
0.0
 40
0.0
 40
0.0
 40
0.03125
 40
0.03125
 40
0.0624999999999999
 40
0.0624999999999999
 40
0.0937499999999999
 40
0.0937499999999999
 40
0.1249999999999999
 40
0.1249999999999999
 40
0.1874999999999997
 40
0.1874999999999997
 40
0.2499999999999995
 40
0.2499999999999995
 40
0.2812499999999995
 40
0.2812499999999995
 40
0.3124999999999996
 40
0.3124999999999996
 40
0.3749999999999996
 40
0.3749999999999996
 40
0.4062499999999995
 40
0.4062499999999995
 40
0.4374999999999994
 40
0.4374999999999994
 40
0.4687499999999994
 40
0.4687499999999994
 40
0.4999999999999994
 40
0.4999999999999994
 40
0.4999999999999994
 40
0.4999999999999994
 10
11.11500000000004
 20
-5.828167123952157
 30
0.0
 10
11.22442130839528
 20
-5.828167123952157
 30
0.0
 10
11.33193413066695
 20
-5.834332745823127
 30
0.0
 10
11.54332442490721
 20
-5.858158242551183
 30
0.0
 10
11.64832096171454
 20
-5.876116182476763
 30
0.0
 10
11.84793304664308
 20
-5.921866568757716
 30
0.0
 10
11.94254517476256
 20
-5.949475359516027
 30
0.0
 10
12.12160220610713
 20
-6.012899531415698
 30
0.0
 10
12.20606744927406
 20
-6.048890275929267
 30
0.0
 10
12.43345669318055
 20
-6.162804206154525
 30
0.0
 10
12.55627008848902
 20
-6.24956926442936
 30
0.0
 10
12.72112946070209
 20
-6.41912903955481
 30
0.0
 10
12.76486706341029
 20
-6.503571372722953
 30
0.0
 10
12.76506600206292
 20
-6.614467145212012
 30
0.0
 10
12.75426006744516
 20
-6.649597306002924
 30
0.0
 10
12.71198912166748
 20
-6.712887149414398
 30
0.0
 10
12.68071768734327
 20
-6.741396518317125
 30
0.0
 10
12.5561818121816
 20
-6.818551031747177
 30
0.0
 10
12.43480939117336
 20
-6.856833354365131
 30
0.0
 10
12.20531420885774
 20
-6.898880085920239
 30
0.0
 10
12.12243738788621
 20
-6.910121132129021
 30
0.0
 10
11.94410843411708
 20
-6.928559805672165
 30
0.0
 10
11.84749232480428
 20
-6.935795255204404
 30
0.0
 10
11.64829056865495
 20
-6.946752627154259
 30
0.0
 10
11.54544423826309
 20
-6.950558241981257
 30
0.0
 10
11.33312782045755
 20
-6.955614040382883
 30
0.0
 10
11.22359010827535
 20
-6.956828384985393
 30
0.0
 10
11.1156963158929
 20
-6.956833580162754
 30
0.0
  0
SPLINE
  5
29E
330
1F
100
AcDbEntity
  8
SK3
  6
SLD-Dashed
370
    18
100
AcDbSpline
210
0.0
220
0.0
230
1.0
 70
     8
 71
     2
 72
     6
 73
     3
 74
     0
 42
0.000000001
 43
0.00000001
 40
0.0
 40
0.0
 40
0.0
 40
0.0312500000000002
 40
0.0312500000000002
 40
0.0312500000000002
 10
35.4
 20
-3.999999999999993
 30
0.0
 10
35.37458375674035
 20
-3.978333065146649
 30
0.0
 10
35.32580416730631
 20
-3.937127551816397
 30
0.0
  0
SPLINE
  5
29F
330
1F
100
AcDbEntity
  8
SK3
  6
SLD-Dashed
370
    18
100
AcDbSpline
210
0.0
220
0.0
230
1.0
 70
     8
 71
     3
 72
     8
 73
     4
 74
     0
 42
0.000000001
 43
0.00000001
 40
0.0312500000000002
 40
0.0312500000000002
 40
0.0312500000000002
 40
0.0312500000000002
 40
0.0625000000000004
 40
0.0625000000000004
 40
0.0625000000000004
 40
0.0625000000000004
 10
35.32580416730631
 20
-3.937127551816397
 30
0.0
 10
35.27702457787228
 20
-3.895922038486141
 30
0.0
 10
35.20403680385456
 20
-3.834482764960987
 30
0.0
 10
35.11317660583413
 20
-3.75923776570631
 30
0.0
  0
SPLINE
  5
2A0
330
1F
100
AcDbEntity
  8
SK3
  6
SLD-Dashed
370
    18
100
AcDbSpline
210
0.0
220
0.0
230
1.0
 70
     8
 71
     3
 72
     8
 73
     4
 74
     0
 42
0.000000001
 43
0.00000001
 40
0.0625000000000004
 40
0.0625000000000004
 40
0.0625000000000004
 40
0.0625000000000004
 40
0.0937500000000006
 40
0.0937500000000006
 40
0.0937500000000006
 40
0.0937500000000006
 10
35.11317660583413
 20
-3.75923776570631
 30
0.0
 10
35.02231640781367
 20
-3.683992766451632
 30
0.0
 10
34.91154711023376
 20
-3.593255458380355
 30
0.0
 10
34.78721647101273
 20
-3.494077225289153
 30
0.0
  0
SPLINE
  5
2A1
330
1F
100
AcDbEntity
  8
SK3
  6
SLD-Dashed
370
    18
100
AcDbSpline
210
0.0
220
0.0
230
1.0
 70
     8
 71
     3
 72
     8
 73
     4
 74
     0
 42
0.000000001
 43
0.00000001
 40
0.0937500000000006
 40
0.0937500000000006
 40
0.0937500000000006
 40
0.0937500000000006
 40
0.1250000000000008
 40
0.1250000000000008
 40
0.1250000000000008
 40
0.1250000000000008
 10
34.78721647101273
 20
-3.494077225289153
 30
0.0
 10
34.6628858317917
 20
-3.394898992197953
 30
0.0
 10
34.52544586419614
 20
-3.287546186962226
 30
0.0
 10
34.37538107606341
 20
-3.175285066969551
 30
0.0
  0
SPLINE
  5
2A2
330
1F
100
AcDbEntity
  8
SK3
  6
SLD-Dashed
370
    18
100
AcDbSpline
210
0.0
220
0.0
230
1.0
 70
     8
 71
     3
 72
     8
 73
     4
 74
     0
 42
0.000000001
 43
0.00000001
 40
0.1250000000000008
 40
0.1250000000000008
 40
0.1250000000000008
 40
0.1250000000000008
 40
0.1562500000000009
 40
0.1562500000000009
 40
0.1562500000000009
 40
0.1562500000000009
 10
34.37538107606341
 20
-3.175285066969551
 30
0.0
 10
34.22531628793065
 20
-3.063023946976877
 30
0.0
 10
34.06132392144163
 20
-2.944897906494531
 30
0.0
 10
33.88815377623953
 20
-2.829332904189151
 30
0.0
  0
SPLINE
  5
2A3
330
1F
100
AcDbEntity
  8
SK3
  6
SLD-Dashed
370
    18
100
AcDbSpline
210
0.0
220
0.0
230
1.0
 70
     8
 71
     3
 72
     8
 73
     4
 74
     0
 42
0.000000001
 43
0.00000001
 40
0.1562500000000009
 40
0.1562500000000009
 40
0.1562500000000009
 40
0.1562500000000009
 40
0.1875000000000011
 40
0.1875000000000011
 40
0.1875000000000011
 40
0.1875000000000011
 10
33.88815377623953
 20
-2.829332904189151
 30
0.0
 10
33.71498363103743
 20
-2.713767901883771
 30
0.0
 10
33.53203695490706
 20
-2.599913098416545
 30
0.0
 10
33.33539028354048
 20
-2.494647712478495
 30
0.0
  0
SPLINE
  5
2A4
330
1F
100
AcDbEntity
  8
SK3
  6
SLD-Dashed
370
    18
100
AcDbSpline
210
0.0
220
0.0
230
1.0
 70
     8
 71
     3
 72
     8
 73
     4
 74
     0
 42
0.000000001
 43
0.00000001
 40
0.1875000000000011
 40
0.1875000000000011
 40
0.1875000000000011
 40
0.1875000000000011
 40
0.2187500000000013
 40
0.2187500000000013
 40
0.2187500000000013
 40
0.2187500000000013
 10
33.33539028354048
 20
-2.494647712478499
 30
0.0
 10
33.13874096660359
 20
-2.389387268889775
 30
0.0
 10
32.9266891394548
 20
-2.292147185813935
 30
0.0
 10
32.70337056200935
 20
-2.221443310033201
 30
0.0
  0
SPLINE
  5
2A5
330
1F
100
AcDbEntity
  8
SK3
  6
SLD-Dashed
370
    18
100
AcDbSpline
210
0.0
220
0.0
230
1.0
 70
     8
 71
     3
 72
     8
 73
     4
 74
     0
 42
0.000000001
 43
0.00000001
 40
0.2187500000000013
 40
0.2187500000000013
 40
0.2187500000000013
 40
0.2187500000000013
 40
0.2500000000000015
 40
0.2500000000000015
 40
0.2500000000000015
 40
0.2500000000000015
 10
32.70337056200935
 20
-2.221443310033197
 30
0.0
 10
32.48005529177797
 20
-2.150728989247682
 30
0.0
 10
32.24032490624565
 20
-2.107471645763956
 30
0.0
 10
32.00295122624661
 20
-2.107133551408465
 30
0.0
  0
SPLINE
  5
2A6
330
1F
100
AcDbEntity
  8
SK3
  6
SLD-Dashed
370
    18
100
AcDbSpline
210
0.0
220
0.0
230
1.0
 70
     8
 71
     3
 72
     8
 73
     4
 74
     0
 42
0.000000001
 43
0.00000001
 40
0.2500000000000015
 40
0.2500000000000015
 40
0.2500000000000015
 40
0.2500000000000015
 40
0.2656250000000011
 40
0.2656250000000011
 40
0.2656250000000011
 40
0.2656250000000011
 10
32.00295122624661
 20
-2.107133551408465
 30
0.0
 10
31.88426438261685
 20
-2.106967072511762
 30
0.0
 10
31.76423112782294
 20
-2.117069428439925
 30
0.0
 10
31.64595566233973
 20
-2.13666735666301
 30
0.0
  0
SPLINE
  5
2A7
330
1F
100
AcDbEntity
  8
SK3
  6
SLD-Dashed
370
    18
100
AcDbSpline
210
0.0
220
0.0
230
1.0
 70
     8
 71
     3
 72
     8
 73
     4
 74
     0
 42
0.000000001
 43
0.00000001
 40
0.2656250000000011
 40
0.2656250000000011
 40
0.2656250000000011
 40
0.2656250000000011
 40
0.2812500000000007
 40
0.2812500000000007
 40
0.2812500000000007
 40
0.2812500000000007
 10
31.64595566233973
 20
-2.13666735666301
 30
0.0
 10
31.52767878490322
 20
-2.156256761701817
 30
0.0
 10
31.41284914083409
 20
-2.184800170007943
 30
0.0
 10
31.30077151537968
 20
-2.220089797053295
 30
0.0
  0
SPLINE
  5
2A8
330
1F
100
AcDbEntity
  8
SK3
  6
SLD-Dashed
370
    18
100
AcDbSpline
210
0.0
220
0.0
230
1.0
 70
     8
 71
     3
 72
     8
 73
     4
 74
     0
 42
0.000000001
 43
0.00000001
 40
0.2812500000000007
 40
0.2812500000000007
 40
0.2812500000000007
 40
0.2812500000000007
 40
0.3125000000000008
 40
0.3125000000000008
 40
0.3125000000000008
 40
0.3125000000000008
 10
31.30077151537968
 20
-2.220089797053295
 30
0.0
 10
31.07662404691048
 20
-2.290693762925549
 30
0.0
 10
30.86495029413546
 20
-2.387611333569409
 30
0.0
 10
30.66841125514307
 20
-2.492614808876355
 30
0.0
  0
SPLINE
  5
2A9
330
1F
100
AcDbEntity
  8
SK3
  6
SLD-Dashed
370
    18
100
AcDbSpline
210
0.0
220
0.0
230
1.0
 70
     8
 71
     3
 72
     8
 73
     4
 74
     0
 42
0.000000001
 43
0.00000001
 40
0.3125000000000008
 40
0.3125000000000008
 40
0.3125000000000008
 40
0.3125000000000008
 40
0.3437500000000009
 40
0.3437500000000009
 40
0.3437500000000009
 40
0.3437500000000009
 10
30.66841125514307
 20
-2.492614808876355
 30
0.0
 10
30.47186820681609
 20
-2.597610779413045
 30
0.0
 10
30.28674112990569
 20
-2.712633827619278
 30
0.0
 10
30.11234104361665
 20
-2.829002710428737
 30
0.0
  0
SPLINE
  5
2AA
330
1F
100
AcDbEntity
  8
SK3
  6
SLD-Dashed
370
    18
100
AcDbSpline
210
0.0
220
0.0
230
1.0
 70
     8
 71
     3
 72
     8
 73
     4
 74
     0
 42
0.000000001
 43
0.00000001
 40
0.3437500000000009
 40
0.3437500000000009
 40
0.3437500000000009
 40
0.3437500000000009
 40
0.375000000000001
 40
0.375000000000001
 40
0.375000000000001
 40
0.375000000000001
 10
30.11234104361665
 20
-2.829002710428737
 30
0.0
 10
29.93794095732762
 20
-2.945371593238193
 30
0.0
 10
29.77634338922613
 20
-3.061809943922015
 30
0.0
 10
29.62593450500171
 20
-3.174301021412668
 30
0.0
  0
SPLINE
  5
2AB
330
1F
100
AcDbEntity
  8
SK3
  6
SLD-Dashed
370
    18
100
AcDbSpline
210
0.0
220
0.0
230
1.0
 70
     8
 71
     3
 72
     8
 73
     4
 74
     0
 42
0.000000001
 43
0.00000001
 40
0.375000000000001
 40
0.375000000000001
 40
0.375000000000001
 40
0.375000000000001
 40
0.4062500000000011
 40
0.4062500000000011
 40
0.4062500000000011
 40
0.4062500000000011
 10
29.62593450500171
 20
-3.174301021412668
 30
0.0
 10
29.47552562077729
 20
-3.28679209890332
 30
0.0
 10
29.33531433257386
 20
-3.396314564562318
 30
0.0
 10
29.21121264264488
 20
-3.495330445686649
 30
0.0
  0
SPLINE
  5
2AC
330
1F
100
AcDbEntity
  8
SK3
  6
SLD-Dashed
370
    18
100
AcDbSpline
210
0.0
220
0.0
230
1.0
 70
     8
 71
     3
 72
     8
 73
     4
 74
     0
 42
0.000000001
 43
0.00000001
 40
0.4062500000000011
 40
0.4062500000000011
 40
0.4062500000000011
 40
0.4062500000000011
 40
0.4375000000000012
 40
0.4375000000000012
 40
0.4375000000000012
 40
0.4375000000000012
 10
29.21121264264488
 20
-3.495330445686649
 30
0.0
 10
29.08711095271588
 20
-3.594346326810986
 30
0.0
 10
28.97831634806841
 20
-3.683468701966661
 30
0.0
 10
28.88681636048424
 20
-3.759243590584261
 30
0.0
  0
SPLINE
  5
2AD
330
1F
100
AcDbEntity
  8
SK3
  6
SLD-Dashed
370
    18
100
AcDbSpline
210
0.0
220
0.0
230
1.0
 70
     8
 71
     3
 72
     8
 73
     4
 74
     0
 42
0.000000001
 43
0.00000001
 40
0.4375000000000012
 40
0.4375000000000012
 40
0.4375000000000012
 40
0.4375000000000012
 40
0.4687500000000013
 40
0.4687500000000013
 40
0.4687500000000013
 40
0.4687500000000013
 10
28.88681636048424
 20
-3.759243590584261
 30
0.0
 10
28.79531637290006
 20
-3.835018479201858
 30
0.0
 10
28.72312933963056
 20
-3.895792466012203
 30
0.0
 10
28.67432128023023
 20
-3.937021583269456
 30
0.0
  0
SPLINE
  5
2AE
330
1F
100
AcDbEntity
  8
SK3
  6
SLD-Dashed
370
    18
100
AcDbSpline
210
0.0
220
0.0
230
1.0
 70
     8
 71
     3
 72
     8
 73
     4
 74
     0
 42
0.000000001
 43
0.00000001
 40
0.4687500000000013
 40
0.4687500000000013
 40
0.4687500000000013
 40
0.4687500000000013
 40
0.5000000000000013
 40
0.5000000000000013
 40
0.5000000000000013
 40
0.5000000000000013
 10
28.67432128023023
 20
-3.937021583269456
 30
0.0
 10
28.6255132208299
 20
-3.978250700526716
 30
0.0
 10
28.59984441663383
 20
-4.000132245853337
 30
0.0
 10
28.60000073492165
 20
-3.99999937531666
 30
0.0
  0
SPLINE
  5
2AF
330
1F
100
AcDbEntity
  8
SK3
  6
SLD-Dashed
370
    18
100
AcDbSpline
210
0.0
220
0.0
230
1.0
 70
     8
 71
     3
 72
     8
 73
     4
 74
     0
 42
0.000000001
 43
0.00000001
 40
0.5000000000000013
 40
0.5000000000000013
 40
0.5000000000000013
 40
0.5000000000000013
 40
0.5156250000000014
 40
0.5156250000000014
 40
0.5156250000000014
 40
0.5156250000000014
 10
28.60000073492165
 20
-3.99999937531666
 30
0.0
 10
28.60007889406554
 20
-3.999932940048318
 30
0.0
 10
28.60637392426329
 20
-3.994578071448294
 30
0.0
 10
28.61891151876679
 20
-3.98393766491496
 30
0.0
  0
SPLINE
  5
2B0
330
1F
100
AcDbEntity
  8
SK3
  6
SLD-Dashed
370
    18
100
AcDbSpline
210
0.0
220
0.0
230
1.0
 70
     8
 71
     3
 72
     8
 73
     4
 74
     0
 42
0.000000001
 43
0.00000001
 40
0.5156250000000014
 40
0.5156250000000014
 40
0.5156250000000014
 40
0.5156250000000014
 40
0.5312500000000016
 40
0.5312500000000016
 40
0.5312500000000016
 40
0.5312500000000016
 10
28.61891151876679
 20
-3.98393766491496
 30
0.0
 10
28.6314491132703
 20
-3.973297258381629
 30
0.0
 10
28.65044533487449
 20
-3.957188680494751
 30
0.0
 10
28.67510173607625
 20
-3.936362339196357
 30
0.0
  0
SPLINE
  5
2B1
330
1F
100
AcDbEntity
  8
SK3
  6
SLD-Dashed
370
    18
100
AcDbSpline
210
0.0
220
0.0
230
1.0
 70
     8
 71
     3
 72
     8
 73
     4
 74
     0
 42
0.000000001
 43
0.00000001
 40
0.5312500000000016
 40
0.5312500000000016
 40
0.5312500000000016
 40
0.5312500000000016
 40
0.5625000000000017
 40
0.5625000000000017
 40
0.5625000000000017
 40
0.5625000000000017
 10
28.67510173607625
 20
-3.936362339196357
 30
0.0
 10
28.7244145384797
 20
-3.894709656599573
 30
0.0
 10
28.79622515675052
 20
-3.834253857531479
 30
0.0
 10
28.88838952792219
 20
-3.75794088962884
 30
0.0
  0
SPLINE
  5
2B2
330
1F
100
AcDbEntity
  8
SK3
  6
SLD-Dashed
370
    18
100
AcDbSpline
210
0.0
220
0.0
230
1.0
 70
     8
 71
     3
 72
     8
 73
     4
 74
     0
 42
0.000000001
 43
0.00000001
 40
0.5625000000000017
 40
0.5625000000000017
 40
0.5625000000000017
 40
0.5625000000000017
 40
0.5937500000000018
 40
0.5937500000000018
 40
0.5937500000000018
 40
0.5937500000000018
 10
28.88838952792219
 20
-3.75794088962884
 30
0.0
 10
28.98055389909385
 20
-3.681627921726202
 30
0.0
 10
29.08975564706558
 20
-3.592204163111033
 30
0.0
 10
29.21372370405814
 20
-3.493327296049963
 30
0.0
  0
SPLINE
  5
2B3
330
1F
100
AcDbEntity
  8
SK3
  6
SLD-Dashed
370
    18
100
AcDbSpline
210
0.0
220
0.0
230
1.0
 70
     8
 71
     3
 72
     8
 73
     4
 74
     0
 42
0.000000001
 43
0.00000001
 40
0.5937500000000018
 40
0.5937500000000018
 40
0.5937500000000018
 40
0.5937500000000018
 40
0.6250000000000018
 40
0.6250000000000018
 40
0.6250000000000018
 40
0.6250000000000018
 10
29.21372370405814
 20
-3.493327296049963
 30
0.0
 10
29.33769176105068
 20
-3.39445042898889
 30
0.0
 10
29.47797544119922
 20
-3.284904080539091
 30
0.0
 10
29.62862392063559
 20
-3.172290104921344
 30
0.0
  0
SPLINE
  5
2B4
330
1F
100
AcDbEntity
  8
SK3
  6
SLD-Dashed
370
    18
100
AcDbSpline
210
0.0
220
0.0
230
1.0
 70
     8
 71
     3
 72
     8
 73
     4
 74
     0
 42
0.000000001
 43
0.00000001
 40
0.6250000000000018
 40
0.6250000000000018
 40
0.6250000000000018
 40
0.6250000000000018
 40
0.6562500000000019
 40
0.6562500000000019
 40
0.6562500000000019
 40
0.6562500000000019
 10
29.62862392063559
 20
-3.172290104921344
 30
0.0
 10
29.77927240007196
 20
-3.059676129303596
 30
0.0
 10
29.94034257503464
 20
-2.943743065094692
 30
0.0
 10
30.11311122273898
 20
-2.828488864703858
 30
0.0
  0
SPLINE
  5
2B5
330
1F
100
AcDbEntity
  8
SK3
  6
SLD-Dashed
370
    18
100
AcDbSpline
210
0.0
220
0.0
230
1.0
 70
     8
 71
     3
 72
     8
 73
     4
 74
     0
 42
0.000000001
 43
0.00000001
 40
0.6562500000000019
 40
0.6562500000000019
 40
0.6562500000000019
 40
0.6562500000000019
 40
0.687500000000002
 40
0.687500000000002
 40
0.687500000000002
 40
0.687500000000002
 10
30.11311122273898
 20
-2.828488864703858
 30
0.0
 10
30.2858798704433
 20
-2.713234664313013
 30
0.0
 10
30.47202827117695
 20
-2.597459223572008
 30
0.0
 10
30.66958042974827
 20
-2.491990415894256
 30
0.0
  0
SPLINE
  5
2B6
330
1F
100
AcDbEntity
  8
SK3
  6
SLD-Dashed
370
    18
100
AcDbSpline
210
0.0
220
0.0
230
1.0
 70
     8
 71
     3
 72
     8
 73
     4
 74
     0
 42
0.000000001
 43
0.00000001
 40
0.687500000000002
 40
0.687500000000002
 40
0.687500000000002
 40
0.687500000000002
 40
0.7187500000000021
 40
0.7187500000000021
 40
0.7187500000000021
 40
0.7187500000000021
 10
30.66958042974827
 20
-2.491990415894256
 30
0.0
 10
30.86713258831958
 20
-2.386521608216504
 30
0.0
 10
31.07670201165842
 20
-2.290599642300287
 30
0.0
 10
31.30174294288451
 20
-2.219811459969405
 30
0.0
  0
SPLINE
  5
2B7
330
1F
100
AcDbEntity
  8
SK3
  6
SLD-Dashed
370
    18
100
AcDbSpline
210
0.0
220
0.0
230
1.0
 70
     8
 71
     3
 72
     8
 73
     4
 74
     0
 42
0.000000001
 43
0.00000001
 40
0.7187500000000021
 40
0.7187500000000021
 40
0.7187500000000021
 40
0.7187500000000021
 40
0.734375000000002
 40
0.734375000000002
 40
0.734375000000002
 40
0.734375000000002
 10
31.30174294288451
 20
-2.219811459969405
 30
0.0
 10
31.41426340849759
 20
-2.184417368803978
 30
0.0
 10
31.52886154816886
 20
-2.156069772282946
 30
0.0
 10
31.64595566233973
 20
-2.13666735666301
 30
0.0
  0
SPLINE
  5
2B8
330
1F
100
AcDbEntity
  8
SK3
  6
SLD-Dashed
370
    18
100
AcDbSpline
210
0.0
220
0.0
230
1.0
 70
     8
 71
     3
 72
     8
 73
     4
 74
     0
 42
0.000000001
 43
0.00000001
 40
0.734375000000002
 40
0.734375000000002
 40
0.734375000000002
 40
0.734375000000002
 40
0.7500000000000019
 40
0.7500000000000019
 40
0.7500000000000019
 40
0.7500000000000019
 10
31.64595566233973
 20
-2.13666735666301
 30
0.0
 10
31.76304977651057
 20
-2.117264941043067
 30
0.0
 10
31.88409638466158
 20
-2.10690670225594
 30
0.0
 10
32.00400404894657
 20
-2.107134554889155
 30
0.0
  0
SPLINE
  5
2B9
330
1F
100
AcDbEntity
  8
SK3
  6
SLD-Dashed
370
    18
100
AcDbSpline
210
0.0
220
0.0
230
1.0
 70
     8
 71
     3
 72
     8
 73
     4
 74
     0
 42
0.000000001
 43
0.00000001
 40
0.7500000000000019
 40
0.7500000000000019
 40
0.7500000000000019
 40
0.7500000000000019
 40
0.7656250000000018
 40
0.7656250000000018
 40
0.7656250000000018
 40
0.7656250000000018
 10
32.00400404894657
 20
-2.107134554889155
 30
0.0
 10
32.12391171323156
 20
-2.107362407522364
 30
0.0
 10
32.24231653631589
 20
-2.117877579639823
 30
0.0
 10
32.35935944446672
 20
-2.137554492949213
 30
0.0
  0
SPLINE
  5
2BA
330
1F
100
AcDbEntity
  8
SK3
  6
SLD-Dashed
370
    18
100
AcDbSpline
210
0.0
220
0.0
230
1.0
 70
     8
 71
     3
 72
     8
 73
     4
 74
     0
 42
0.000000001
 43
0.00000001
 40
0.7656250000000018
 40
0.7656250000000018
 40
0.7656250000000018
 40
0.7656250000000018
 40
0.7812500000000017
 40
0.7812500000000017
 40
0.7812500000000017
 40
0.7812500000000017
 10
32.35935944446672
 20
-2.137554492949213
 30
0.0
 10
32.47640235261756
 20
-2.157231406258602
 30
0.0
 10
32.59296157356738
 20
-2.186404716597829
 30
0.0
 10
32.70474223479295
 20
-2.221859945518809
 30
0.0
  0
SPLINE
  5
2BB
330
1F
100
AcDbEntity
  8
SK3
  6
SLD-Dashed
370
    18
100
AcDbSpline
210
0.0
220
0.0
230
1.0
 70
     8
 71
     3
 72
     8
 73
     4
 74
     0
 42
0.000000001
 43
0.00000001
 40
0.7812500000000017
 40
0.7812500000000017
 40
0.7812500000000017
 40
0.7812500000000017
 40
0.8125000000000014
 40
0.8125000000000014
 40
0.8125000000000014
 40
0.8125000000000014
 10
32.70474223479295
 20
-2.221859945518809
 30
0.0
 10
32.92830355724408
 20
-2.292770403360785
 30
0.0
 10
33.13618955385255
 20
-2.388065411738992
 30
0.0
 10
33.33450603533726
 20
-2.494174484343772
 30
0.0
  0
SPLINE
  5
2BC
330
1F
100
AcDbEntity
  8
SK3
  6
SLD-Dashed
370
    18
100
AcDbSpline
210
0.0
220
0.0
230
1.0
 70
     8
 71
     3
 72
     8
 73
     4
 74
     0
 42
0.000000001
 43
0.00000001
 40
0.8125000000000014
 40
0.8125000000000014
 40
0.8125000000000014
 40
0.8125000000000014
 40
0.8437500000000012
 40
0.8437500000000012
 40
0.8437500000000012
 40
0.8437500000000012
 10
33.33450603533726
 20
-2.494174484343772
 30
0.0
 10
33.53282251682197
 20
-2.600283556948548
 30
0.0
 10
33.71615800814604
 20
-2.714539983762792
 30
0.0
 10
33.8884986414046
 20
-2.829563061426066
 30
0.0
  0
SPLINE
  5
2BD
330
1F
100
AcDbEntity
  8
SK3
  6
SLD-Dashed
370
    18
100
AcDbSpline
210
0.0
220
0.0
230
1.0
 70
     8
 71
     3
 72
     8
 73
     4
 74
     0
 42
0.000000001
 43
0.00000001
 40
0.8437500000000012
 40
0.8437500000000012
 40
0.8437500000000012
 40
0.8437500000000012
 40
0.8750000000000009
 40
0.8750000000000009
 40
0.8750000000000009
 40
0.8750000000000009
 10
33.8884986414046
 20
-2.829563061426066
 30
0.0
 10
34.06083927466315
 20
-2.94458613908934
 30
0.0
 10
34.22224352217797
 20
-3.060759810998605
 30
0.0
 10
34.37374640490688
 20
-3.174062380421644
 30
0.0
  0
SPLINE
  5
2BE
330
1F
100
AcDbEntity
  8
SK3
  6
SLD-Dashed
370
    18
100
AcDbSpline
210
0.0
220
0.0
230
1.0
 70
     8
 71
     3
 72
     8
 73
     4
 74
     0
 42
0.000000001
 43
0.00000001
 40
0.8750000000000009
 40
0.8750000000000009
 40
0.8750000000000009
 40
0.8750000000000009
 40
0.9062500000000007
 40
0.9062500000000007
 40
0.9062500000000007
 40
0.9062500000000007
 10
34.37374640490688
 20
-3.174062380421644
 30
0.0
 10
34.52524928763577
 20
-3.287364949844687
 30
0.0
 10
34.66314030193868
 20
-3.395107469858223
 30
0.0
 10
34.78679089135773
 20
-3.493737750912943
 30
0.0
  0
SPLINE
  5
2BF
330
1F
100
AcDbEntity
  8
SK3
  6
SLD-Dashed
370
    18
100
AcDbSpline
210
0.0
220
0.0
230
1.0
 70
     8
 71
     3
 72
     8
 73
     4
 74
     0
 42
0.000000001
 43
0.00000001
 40
0.9062500000000007
 40
0.9062500000000007
 40
0.9062500000000007
 40
0.9062500000000007
 40
0.9375000000000004
 40
0.9375000000000004
 40
0.9375000000000004
 40
0.9375000000000004
 10
34.78679089135773
 20
-3.493737750912943
 30
0.0
 10
34.91044148077677
 20
-3.59236803196766
 30
0.0
 10
35.02113679815491
 20
-3.683021894358922
 30
0.0
 10
35.11239213033161
 20
-3.758588135583565
 30
0.0
  0
SPLINE
  5
2C0
330
1F
100
AcDbEntity
  8
SK3
  6
SLD-Dashed
370
    18
100
AcDbSpline
210
0.0
220
0.0
230
1.0
 70
     8
 71
     3
 72
     8
 73
     4
 74
     0
 42
0.000000001
 43
0.00000001
 40
0.9375000000000004
 40
0.9375000000000004
 40
0.9375000000000004
 40
0.9375000000000004
 40
0.9687500000000002
 40
0.9687500000000002
 40
0.9687500000000002
 40
0.9687500000000002
 10
35.11239213033161
 20
-3.758588135583565
 30
0.0
 10
35.20364746250831
 20
-3.834154376808216
 30
0.0
 10
35.27530134564726
 20
-3.894470090071152
 30
0.0
 10
35.32478303851079
 20
-3.936265013076322
 30
0.0
  0
SPLINE
  5
2C1
330
1F
100
AcDbEntity
  8
SK3
  6
SLD-Dashed
370
    18
100
AcDbSpline
210
0.0
220
0.0
230
1.0
 70
     8
 71
     2
 72
     6
 73
     3
 74
     0
 42
0.000000001
 43
0.00000001
 40
0.9687500000000002
 40
0.9687500000000002
 40
0.9687500000000002
 40
1.0
 40
1.0
 40
1.0
 10
35.32478303851079
 20
-3.936265013076322
 30
0.0
 10
35.37426473137435
 20
-3.978059936081493
 30
0.0
 10
35.4
 20
-3.999999999999993
 30
0.0
  0
SPLINE
  5
2C2
330
1F
100
AcDbEntity
  8
SK3
  6
SLD-Dashed
370
    18
100
AcDbSpline
210
0.0
220
0.0
230
1.0
 70
     8
 71
     3
 72
    30
 73
    26
 74
     0
 42
0.000000001
 43
0.00000001
 40
0.5000000000000013
 40
0.5000000000000013
 40
0.5000000000000013
 40
0.5000000000000013
 40
0.5625000000000014
 40
0.5625000000000014
 40
0.6250000000000014
 40
0.6250000000000014
 40
0.6562500000000014
 40
0.6562500000000014
 40
0.6875000000000013
 40
0.6875000000000013
 40
0.7187500000000013
 40
0.7187500000000013
 40
0.7500000000000012
 40
0.7500000000000012
 40
0.7812500000000012
 40
0.7812500000000012
 40
0.8125000000000012
 40
0.8125000000000012
 40
0.8750000000000008
 40
0.8750000000000008
 40
0.9375000000000003
 40
0.9375000000000003
 40
0.9687500000000001
 40
0.9687500000000001
 40
1.0
 40
1.0
 40
1.0
 40
1.0
 10
11.76979658556575
 20
-17.89232296268974
 30
0.0
 10
11.91246294966135
 20
-17.67070440556974
 30
0.0
 10
12.0438413664441
 20
-17.43839527667697
 30
0.0
 10
12.28743240561786
 20
-16.9748303196765
 30
0.0
 10
12.4007403709436
 20
-16.74140211064307
 30
0.0
 10
12.55447570845303
 20
-16.393755585766
 30
0.0
 10
12.60138543677661
 20
-16.28170289315484
 30
0.0
 10
12.68295201157343
 20
-16.06989778885581
 30
0.0
 10
12.71817196931764
 20
-15.9681907943343
 30
0.0
 10
12.76213654526595
 20
-15.80428414547201
 30
0.0
 10
12.77026091463637
 20
-15.74311791179767
 30
0.0
 10
12.75239776164139
 20
-15.68353507622142
 30
0.0
 10
12.72724833739218
 20
-15.68523834432891
 30
0.0
 10
12.6590866640779
 20
-15.72953787216991
 30
0.0
 10
12.61568164729127
 20
-15.77187993935919
 30
0.0
 10
12.52100924552241
 20
-15.87679896563816
 30
0.0
 10
12.46941331137416
 20
-15.93961580200765
 30
0.0
 10
12.3049062133226
 20
-16.14822680602849
 30
0.0
 10
12.18517846713217
 20
-16.31053867976722
 30
0.0
 10
11.92983731616866
 20
-16.65147882946563
 30
0.0
 10
11.79267665531765
 20
-16.83353639743864
 30
0.0
 10
11.5645115897996
 20
-17.10544293868932
 30
0.0
 10
11.48485276967114
 20
-17.19558760882549
 30
0.0
 10
11.3125863090047
 20
-17.37124855765231
 30
0.0
 10
11.21906269051039
 20
-17.45771014988549
 30
0.0
 10
11.11500000000004
 20
-17.53689645447305
 30
0.0
  0
SPLINE
  5
2C3
330
1F
100
AcDbEntity
  8
SK3
  6
SLD-Dashed
370
    18
100
AcDbSpline
210
0.0
220
0.0
230
1.0
 70
     8
 71
     3
 72
    34
 73
    30
 74
     0
 42
0.000000001
 43
0.00000001
 40
0.0
 40
0.0
 40
0.0
 40
0.0
 40
0.0312500000000002
 40
0.0312500000000002
 40
0.0625000000000003
 40
0.0625000000000003
 40
0.0937500000000005
 40
0.0937500000000005
 40
0.1250000000000007
 40
0.1250000000000007
 40
0.1562500000000009
 40
0.1562500000000009
 40
0.1875000000000011
 40
0.1875000000000011
 40
0.2500000000000012
 40
0.2500000000000012
 40
0.3125000000000013
 40
0.3125000000000013
 40
0.3437500000000013
 40
0.3437500000000013
 40
0.3750000000000013
 40
0.3750000000000013
 40
0.4062500000000014
 40
0.4062500000000014
 40
0.4375000000000014
 40
0.4375000000000014
 40
0.4687500000000014
 40
0.4687500000000014
 40
0.5000000000000013
 40
0.5000000000000013
 40
0.5000000000000013
 40
0.5000000000000013
 10
11.11500000000005
 20
-17.53689645447306
 30
0.0
 10
11.01093730948968
 20
-17.61608275906061
 30
0.0
 10
10.89827240143053
 20
-17.68568655045026
 30
0.0
 10
10.65524603173768
 20
-17.79707922957897
 30
0.0
 10
10.53100003630447
 20
-17.83608132712159
 30
0.0
 10
10.2904047263383
 20
-17.8947937444836
 30
0.0
 10
10.17852991293558
 20
-17.91436206658054
 30
0.0
 10
9.97164171922836
 20
-17.95228558252373
 30
0.0
 10
9.880140211756096
 20
-17.969858389295
 30
0.0
 10
9.72047963292877
 20
-18.01190468167743
 30
0.0
 10
9.653640231842274
 20
-18.03603027826314
 30
0.0
 10
9.549145986449446
 20
-18.09373421516213
 30
0.0
 10
9.510668589618176
 20
-18.12800625055015
 30
0.0
 10
9.44414422677008
 20
-18.24422870024206
 30
0.0
 10
9.463570934642748
 20
-18.34292442278661
 30
0.0
 10
9.625438460184773
 20
-18.55480157919675
 30
0.0
 10
9.767910053168203
 20
-18.66930111395115
 30
0.0
 10
10.04867356462026
 20
-18.80341694907243
 30
0.0
 10
10.15222938652333
 20
-18.84139332547925
 30
0.0
 10
10.3809235866067
 20
-18.88914098662086
 30
0.0
 10
10.50285945052922
 20
-18.89754920765958
 30
0.0
 10
10.75142302172972
 20
-18.86243703960251
 30
0.0
 10
10.87148365715398
 20
-18.81899219989531
 30
0.0
 10
11.09561189675425
 20
-18.68857740517247
 30
0.0
 10
11.19522385975346
 20
-18.60587995809753
 30
0.0
 10
11.38076798793611
 20
-18.42116017956387
 30
0.0
 10
11.46555694339856
 20
-18.32003566241222
 30
0.0
 10
11.62416091896936
 20
-18.11140665073929
 30
0.0
 10
11.69846340351796
 20
-18.00313224124974
 30
0.0
 10
11.76979658556575
 20
-17.89232296268974
 30
0.0
  0
SPLINE
  5
2C4
330
1F
100
AcDbEntity
  8
SK3
  6
SLD-Dashed
370
    18
100
AcDbSpline
210
0.0
220
0.0
230
1.0
 70
     8
 71
     3
 72
    30
 73
    26
 74
     0
 42
0.000000001
 43
0.00000001
 40
0.4999999999999938
 40
0.4999999999999938
 40
0.4999999999999938
 40
0.4999999999999938
 40
0.5312499999999936
 40
0.5312499999999936
 40
0.5624999999999933
 40
0.5624999999999933
 40
0.6249999999999937
 40
0.6249999999999937
 40
0.687499999999994
 40
0.687499999999994
 40
0.7187499999999947
 40
0.7187499999999947
 40
0.7499999999999952
 40
0.7499999999999952
 40
0.7812499999999959
 40
0.7812499999999959
 40
0.8124999999999966
 40
0.8124999999999966
 40
0.8437499999999972
 40
0.8437499999999972
 40
0.8749999999999979
 40
0.8749999999999979
 40
0.9374999999999989
 40
0.9374999999999989
 40
1.0
 40
1.0
 40
1.0
 40
1.0
 10
9.54342029993542
 20
-22.65998997114812
 30
0.0
 10
9.578561233735405
 20
-22.56022716883099
 30
0.0
 10
9.622627266507006
 20
-22.4490483994453
 30
0.0
 10
9.718027024244998
 20
-22.2236780839706
 30
0.0
 10
9.770165859587788
 20
-22.10744453751687
 30
0.0
 10
9.935727180931456
 20
-21.75463004044461
 30
0.0
 10
10.05462982796812
 20
-21.52064448601665
 30
0.0
 10
10.31081948707685
 20
-21.0588380163739
 30
0.0
 10
10.44840974433163
 20
-20.82955805298788
 30
0.0
 10
10.67777322328789
 20
-20.50643317375554
 30
0.0
 10
10.75871097916553
 20
-20.40152870512313
 30
0.0
 10
10.93364535127568
 20
-20.20556086715294
 30
0.0
 10
11.02698337642656
 20
-20.11488201047909
 30
0.0
 10
11.23604536410176
 20
-19.96052893895906
 30
0.0
 10
11.35057343779476
 20
-19.89926443941833
 30
0.0
 10
11.59480302461463
 20
-19.82807633767501
 30
0.0
 10
11.7194559947736
 20
-19.81958662546977
 30
0.0
 10
11.959503639312
 20
-19.84303817835689
 30
0.0
 10
12.07031700587896
 20
-19.87318242107355
 30
0.0
 10
12.27422745067754
 20
-19.95206349756281
 30
0.0
 10
12.3650270117984
 20
-20.00025605676592
 30
0.0
 10
12.59959907667485
 20
-20.15399503516338
 30
0.0
 10
12.70444177032681
 20
-20.26792332503301
 30
0.0
 10
12.786098510622
 20
-20.46801773808178
 30
0.0
 10
12.76320534245744
 20
-20.55399411581359
 30
0.0
 10
12.67730763443396
 20
-20.61935781184684
 30
0.0
  0
SPLINE
  5
2C5
330
1F
100
AcDbEntity
  8
SK3
  6
SLD-Dashed
370
    18
100
AcDbSpline
210
0.0
220
0.0
230
1.0
 70
     8
 71
     3
 72
    34
 73
    30
 74
     0
 42
0.000000001
 43
0.00000001
 40
0.0
 40
0.0
 40
0.0
 40
0.0
 40
0.0312499999999995
 40
0.0312499999999995
 40
0.0624999999999991
 40
0.0624999999999991
 40
0.0937499999999986
 40
0.0937499999999986
 40
0.1249999999999982
 40
0.1249999999999982
 40
0.1562499999999978
 40
0.1562499999999978
 40
0.1874999999999973
 40
0.1874999999999973
 40
0.2499999999999964
 40
0.2499999999999964
 40
0.3124999999999955
 40
0.3124999999999955
 40
0.3437499999999952
 40
0.3437499999999952
 40
0.3749999999999949
 40
0.3749999999999949
 40
0.4062499999999946
 40
0.4062499999999946
 40
0.4374999999999943
 40
0.4374999999999943
 40
0.4687499999999941
 40
0.4687499999999941
 40
0.4999999999999938
 40
0.4999999999999938
 40
0.4999999999999938
 40
0.4999999999999938
 10
12.67730763443398
 20
-20.61935781184684
 30
0.0
 10
12.63435878042224
 20
-20.65203965986345
 30
0.0
 10
12.57729529856072
 20
-20.6789316649347
 30
0.0
 10
12.43603808962705
 20
-20.72541543980048
 30
0.0
 10
12.35095491427457
 20
-20.74490836916305
 30
0.0
 10
12.16118186397777
 20
-20.78180696819737
 30
0.0
 10
12.054225796365
 20
-20.7995483052324
 30
0.0
 10
11.82324491388444
 20
-20.84734178875049
 30
0.0
 10
11.69889439480561
 20
-20.87807405413513
 30
0.0
 10
11.45304455248943
 20
-20.96908417859751
 30
0.0
 10
11.33231684279031
 20
-21.03008950406163
 30
0.0
 10
11.11245426351673
 20
-21.17497279059742
 30
0.0
 10
11.0131539316873
 20
-21.25735513703286
 30
0.0
 10
10.73767466537666
 20
-21.51687030422062
 30
0.0
 10
10.58689176004736
 20
-21.69912075795287
 30
0.0
 10
10.30357248622246
 20
-22.05725573907562
 30
0.0
 10
10.17286476490373
 20
-22.23420714395773
 30
0.0
 10
9.991005005593648
 20
-22.47743384821167
 30
0.0
 10
9.932635222666311
 20
-22.55514665472535
 30
0.0
 10
9.820404805610458
 20
-22.70089934625719
 30
0.0
 10
9.766060353100611
 20
-22.76957377640454
 30
0.0
 10
9.665448853514336
 20
-22.88873427842829
 30
0.0
 10
9.619326797725702
 20
-22.93921098612152
 30
0.0
 10
9.539388536729406
 20
-23.01052916562901
 30
0.0
 10
9.50566576629734
 20
-23.03089302097996
 30
0.0
 10
9.46522449538012
 20
-23.01585114589004
 30
0.0
 10
9.459739461343583
 20
-22.97888962661066
 30
0.0
 10
9.481585255233792
 20
-22.84998128766082
 30
0.0
 10
9.508279366135437
 20
-22.75975277346525
 30
0.0
 10
9.54342029993542
 20
-22.65998997114812
 30
0.0
  0
ELLIPSE
  5
2C6
330
1F
100
AcDbEntity
  8
SK3
  6
SLD-Dashed
370
    18
100
AcDbEllipse
 10
6.0521267237
 20
23.2104077334
 30
0.0
 11
3.098580671678175
 21
7.105427357601002E-15
 31
0.0
210
0.0
220
0.0
230
1.0
 40
0.2152402503
 41
6.163596669273415
 42
6.402773945087448
  0
INSERT
  5
2C7
330
1F
100
AcDbEntity
  8
81
100
AcDbBlockReference
  2
Block11
 10
-41.6264826505
 20
-130.2676275275
 30
0.0
  0
INSERT
  5
2C8
330
1F
100
AcDbEntity
  8
80
100
AcDbBlockReference
  2
Block12
 10
-61.7273641656
 20
-130.3356800267
 30
0.0
  0
DIMENSION
  5
2C9
330
1F
100
AcDbEntity
  8
SK2
100
AcDbDimension
  2
_D
 10
19.05
 20
39.3561530278
 30
0.0
 11
8.7252445422
 21
39.3561530278
 31
0.0
 70
   160
  1
<>
 71
     2
 42
-1.0
  3
SLDDIMSTYLE0
100
AcDbAlignedDimension
 13
0.0
 23
22.225
 33
0.0
 14
19.05
 24
31.0
 34
0.0
100
AcDbRotatedDimension
  0
DIMENSION
  5
2D5
330
1F
100
AcDbEntity
  8
SK2
100
AcDbDimension
  2
_D_1
 10
50.0
 20
39.3561530278
 30
0.0
 11
33.627881618
 21
39.3561530278
 31
0.0
 70
   160
  1
<>
 71
     2
 42
-1.0
  3
SLDDIMSTYLE0
100
AcDbAlignedDimension
 13
19.05
 23
31.0
 33
0.0
 14
50.0
 24
7.6491470389
 34
0.0
100
AcDbRotatedDimension
  0
DIMENSION
  5
2DF
330
1F
100
AcDbEntity
  8
2
100
AcDbDimension
  2
_D_2
 10
0.0
 20
48.315458718
 30
0.0
 11
24.5274844997
 21
48.315458718
 31
0.0
 70
   160
  1
<>
 71
     2
 42
-1.0
  3
SLDDIMSTYLE0
100
AcDbAlignedDimension
 13
50.0
 23
7.6491470389
 33
0.0
 14
0.0
 24
22.225
 34
0.0
100
AcDbRotatedDimension
  0
DIMENSION
  5
2E9
330
1F
100
AcDbEntity
  8
SK2
100
AcDbDimension
  2
_D_3
 10
39.0
 20
29.8324816249
 30
0.0
 11
43.8570101619
 21
29.8324816249
 31
0.0
 70
   160
  1
<>
 71
     2
 42
-1.0
  3
SLDDIMSTYLE0
100
AcDbAlignedDimension
 13
50.0
 23
7.6491470389
 33
0.0
 14
39.0
 24
14.0
 34
0.0
100
AcDbRotatedDimension
  0
DIMENSION
  5
2F3
330
1F
100
AcDbEntity
  8
SK2
100
AcDbDimension
  2
_D_4
 10
84.7902785093
 20
14.0
 30
0.0
 11
84.7902785093
 21
-0.8303928115
 31
0.0
 70
   160
  1
%%c<>
 71
     2
 42
-1.0
  3
SLDDIMSTYLE0
100
AcDbAlignedDimension
 13
39.0
 23
-14.0
 33
0.0
 14
39.0
 24
14.0
 34
0.0
 50
90.0
100
AcDbRotatedDimension
  0
DIMENSION
  5
2FE
330
1F
100
AcDbEntity
  8
SK2
100
AcDbDimension
  2
_D_5
 10
74.1704830019
 20
7.6491470389
 30
0.0
 11
74.1704830019
 21
-0.8303928115
 31
0.0
 70
   160
  1
%%c<>
 71
     2
 42
-1.0
  3
SLDDIMSTYLE0
100
AcDbAlignedDimension
 13
50.0
 23
-7.6491470389
 33
0.0
 14
50.0
 24
7.6491470389
 34
0.0
 50
90.0
100
AcDbRotatedDimension
  0
DIMENSION
  5
309
330
1F
100
AcDbEntity
  8
SK2
100
AcDbDimension
  2
_D_6
 10
64.4867413835
 20
4.0
 30
0.0
 11
64.4867413835
 21
-0.5145884518
 31
0.0
 70
   160
  1
%%c<>
 71
     2
 42
-1.0
  3
SLDDIMSTYLE0
100
AcDbAlignedDimension
 13
49.0
 23
-4.0
 33
0.0
 14
49.0
 24
4.0
 34
0.0
 50
90.0
100
AcDbRotatedDimension
  0
DIMENSION
  5
314
330
1F
100
AcDbEntity
  8
SK2
100
AcDbDimension
  2
_D_7
 10
32.0
 20
-23.2586876719
 30
0.0
 11
40.8784382113
 21
-23.2586876719
 31
0.0
 70
   160
  1
<>
 71
     2
 42
-1.0
  3
SLDDIMSTYLE0
100
AcDbAlignedDimension
 13
50.0
 23
-7.6491470389
 33
0.0
 14
32.0
 24
-14.7
 34
0.0
100
AcDbRotatedDimension
  0
DIMENSION
  5
31E
330
1F
100
AcDbEntity
  8
SK2
100
AcDbDimension
  2
_D_8
 10
15.5525818571
 20
-39.2834136342
 30
0.0
 11
33.627881618
 21
-39.2834136342
 31
0.0
 70
   160
  1
<>
 71
     2
 42
-1.0
  3
SLDDIMSTYLE0
100
AcDbAlignedDimension
 13
50.0
 23
-7.6491470389
 33
0.0
 14
15.5525818571
 24
-4.0
 34
0.0
100
AcDbRotatedDimension
  0
DIMENSION
  5
328
330
1F
100
AcDbEntity
  8
SK2
100
AcDbDimension
  2
_D_9
 10
-95.6567456709
 20
-31.75
 30
0.0
 11
-95.6567456709
 21
-0.5145884518
 31
0.0
 70
   160
  1
%%c<>
 71
     2
 42
-1.0
  3
SLDDIMSTYLE0
100
AcDbAlignedDimension
 13
3.95
 23
31.75
 33
0.0
 14
3.95
 24
-31.75
 34
0.0
 50
90.0
100
AcDbRotatedDimension
  0
DIMENSION
  5
333
330
1F
100
AcDbEntity
  8
SK2
100
AcDbDimension
  2
_D_10
 10
-85.232929376
 20
22.225
 30
0.0
 11
-85.232929376
 21
-0.5145884518
 31
0.0
 70
   160
  1
%%c<>
 71
     2
 42
-1.0
  3
SLDDIMSTYLE0
100
AcDbAlignedDimension
 13
0.0
 23
-22.225
 33
0.0
 14
0.0
 24
22.225
 34
0.0
 50
90.0
100
AcDbRotatedDimension
  0
DIMENSION
  5
33E
330
1F
100
AcDbEntity
  8
SK2
100
AcDbDimension
  2
_D_11
 10
-75.4298756959
 20
8.00000038
 30
0.0
 11
-75.4298756959
 21
0.5329851302
 31
0.0
 70
   160
  1
M<>
 71
     2
 42
-1.0
  3
SLDDIMSTYLE0
100
AcDbAlignedDimension
 13
-57.2881214321
 23
-8.00000038
 33
0.0
 14
-57.2881214321
 24
8.00000038
 34
0.0
 50
90.0
100
AcDbRotatedDimension
  0
MTEXT
  5
349
330
1F
100
AcDbEntity
  8
SK6
 62
     5
100
AcDbMText
 10
-68.0125173642
 20
-35.7973709674
 30
0.0
 40
3.5
 41
0.0
 71
     1
 72
     1
  1
A1B20-40 08 050
  7
SLDTEXTSTYLE0
 73
     1
 44
1.0
  0
INSERT
  5
34F
330
1F
100
AcDbEntity
  8
SK6
 62
     5
100
AcDbBlockReference
  2
SW_NOTE_0
 10
-36.2503888772
 20
26.6907952345
 30
0.0
  0
ENDSEC
  0
SECTION
  2
OBJECTS
  0
DICTIONARY
  5
C
330
0
100
AcDbDictionary
281
     1
  3
ACAD_GROUP
350
D
  3
ACAD_LAYOUT
350
1A
  3
ACAD_MLINESTYLE
350
17
  3
ACAD_PLOTSETTINGS
350
19
  3
ACAD_PLOTSTYLENAME
350
E
  3
ACAD_SCALELIST
350
47
  0
DICTIONARY
  5
D
102
{ACAD_REACTORS
330
C
102
}
330
C
100
AcDbDictionary
281
     1
  0
DICTIONARY
  5
1A
102
{ACAD_REACTORS
330
C
102
}
330
C
100
AcDbDictionary
281
     1
  3
Layout1
350
1E
  3
Layout2
350
26
  3
Model
350
22
  0
DICTIONARY
  5
17
102
{ACAD_REACTORS
330
C
102
}
330
C
100
AcDbDictionary
281
     1
  3
Standard
350
18
  0
DICTIONARY
  5
19
102
{ACAD_REACTORS
330
C
102
}
330
C
100
AcDbDictionary
281
     1
  0
ACDBDICTIONARYWDFLT
  5
E
102
{ACAD_REACTORS
330
C
102
}
330
C
100
AcDbDictionary
281
     1
  3
Normal
350
F
100
AcDbDictionaryWithDefault
340
F
  0
DICTIONARY
  5
47
102
{ACAD_REACTORS
330
C
102
}
330
C
100
AcDbDictionary
281
     1
  3
A0
350
48
  3
A1
350
49
  3
A2
350
4A
  3
A3
350
4B
  3
A4
350
4C
  3
A5
350
4D
  3
A6
350
4E
  3
A7
350
4F
  3
A8
350
50
  3
A9
350
51
  3
B0
350
52
  3
B1
350
53
  3
B2
350
54
  3
B3
350
55
  3
B4
350
56
  3
B5
350
57
  3
B6
350
58
  3
B7
350
59
  3
B8
350
5A
  3
B9
350
5B
  3
C0
350
5C
  3
C1
350
5D
  3
C2
350
5E
  3
C3
350
5F
  3
C4
350
60
  3
C5
350
61
  3
C6
350
62
  3
C7
350
63
  3
C8
350
64
  3
C9
350
65
  3
D0
350
66
  3
D1
350
67
  3
D2
350
68
  0
LAYOUT
  5
1E
102
{ACAD_REACTORS
330
1A
102
}
330
1A
100
AcDbPlotSettings
  1

  2
none_device
  4

  6

 40
0.0
 41
0.0
 42
0.0
 43
0.0
 44
0.0
 45
0.0
 46
0.0
 47
0.0
 48
0.0
 49
0.0
140
0.0
141
0.0
142
1.0
143
1.0
 70
   688
 72
     1
 73
     0
 74
     5
  7

 75
    16
147
1.0
148
0.0
149
0.0
100
AcDbLayout
  1
Layout1
 70
     1
 71
     1
 10
0.0
 20
0.0
 11
420.0
 21
297.0
 12
0.0
 22
0.0
 32
0.0
 14
1.0000000000E+20
 24
1.0000000000E+20
 34
1.0000000000E+20
 15
-1.0000000000E+20
 25
-1.0000000000E+20
 35
-1.0000000000E+20
146
0.0
 13
0.0
 23
0.0
 33
0.0
 16
1.0
 26
0.0
 36
0.0
 17
0.0
 27
1.0
 37
0.0
 76
     0
330
1B
  0
LAYOUT
  5
26
102
{ACAD_REACTORS
330
1A
102
}
330
1A
100
AcDbPlotSettings
  1

  2
none_device
  4

  6

 40
0.0
 41
0.0
 42
0.0
 43
0.0
 44
0.0
 45
0.0
 46
0.0
 47
0.0
 48
0.0
 49
0.0
140
0.0
141
0.0
142
1.0
143
1.0
 70
   688
 72
     1
 73
     0
 74
     5
  7

 75
    16
147
1.0
148
0.0
149
0.0
100
AcDbLayout
  1
Layout2
 70
     1
 71
     2
 10
0.0
 20
0.0
 11
0.0
 21
0.0
 12
0.0
 22
0.0
 32
0.0
 14
0.0
 24
0.0
 34
0.0
 15
0.0
 25
0.0
 35
0.0
146
0.0
 13
0.0
 23
0.0
 33
0.0
 16
1.0
 26
0.0
 36
0.0
 17
0.0
 27
1.0
 37
0.0
 76
     0
330
23
  0
LAYOUT
  5
22
102
{ACAD_REACTORS
330
1A
102
}
330
1A
100
AcDbPlotSettings
  1

  2
none_device
  4
Letter_(8.50_x_11.00_Inches)
  6

 40
6.35
 41
6.35
 42
6.35000508
 43
6.35000508
 44
215.9
 45
279.4
 46
0.0
 47
0.0
 48
0.0
 49
0.0
140
0.0
141
0.0
142
1.0
143
1.0
 70
  1712
 72
     1
 73
     0
 74
     0
  7

 75
     0
147
1.0
148
0.0
149
0.0
100
AcDbLayout
  1
Model
 70
     1
 71
     0
 10
0.0
 20
0.0
 11
297.0
 21
210.0
 12
0.0
 22
0.0
 32
0.0
 14
0.0
 24
0.0
 34
0.0
 15
297.0
 25
210.0
 35
0.0
146
0.0
 13
0.0
 23
0.0
 33
0.0
 16
1.0
 26
0.0
 36
0.0
 17
0.0
 27
1.0
 37
0.0
 76
     0
330
1F
331
29
  0
MLINESTYLE
  5
18
102
{ACAD_REACTORS
330
17
102
}
330
17
100
AcDbMlineStyle
  2
Standard
 70
     0
  3

 62
   256
 51
90.0
 52
90.0
 71
     2
 49
0.5
 62
   256
  6
BYLAYER
 49
-0.5
 62
   256
  6
BYLAYER
  0
ACDBPLACEHOLDER
  5
F
102
{ACAD_REACTORS
330
E
102
}
330
E
  0
SCALE
  5
48
102
{ACAD_REACTORS
330
47
102
}
330
47
100
AcDbScale
 70
     0
300
1:1
140
1.0
141
1.0
290
     1
  0
SCALE
  5
49
102
{ACAD_REACTORS
330
47
102
}
330
47
100
AcDbScale
 70
     0
300
1:2
140
1.0
141
2.0
290
     0
  0
SCALE
  5
4A
102
{ACAD_REACTORS
330
47
102
}
330
47
100
AcDbScale
 70
     0
300
1:4
140
1.0
141
4.0
290
     0
  0
SCALE
  5
4B
102
{ACAD_REACTORS
330
47
102
}
330
47
100
AcDbScale
 70
     0
300
1:5
140
1.0
141
5.0
290
     0
  0
SCALE
  5
4C
102
{ACAD_REACTORS
330
47
102
}
330
47
100
AcDbScale
 70
     0
300
1:8
140
1.0
141
8.0
290
     0
  0
SCALE
  5
4D
102
{ACAD_REACTORS
330
47
102
}
330
47
100
AcDbScale
 70
     0
300
1:10
140
1.0
141
10.0
290
     0
  0
SCALE
  5
4E
102
{ACAD_REACTORS
330
47
102
}
330
47
100
AcDbScale
 70
     0
300
1:16
140
1.0
141
16.0
290
     0
  0
SCALE
  5
4F
102
{ACAD_REACTORS
330
47
102
}
330
47
100
AcDbScale
 70
     0
300
1:20
140
1.0
141
20.0
290
     0
  0
SCALE
  5
50
102
{ACAD_REACTORS
330
47
102
}
330
47
100
AcDbScale
 70
     0
300
1:30
140
1.0
141
30.0
290
     0
  0
SCALE
  5
51
102
{ACAD_REACTORS
330
47
102
}
330
47
100
AcDbScale
 70
     0
300
1:40
140
1.0
141
40.0
290
     0
  0
SCALE
  5
52
102
{ACAD_REACTORS
330
47
102
}
330
47
100
AcDbScale
 70
     0
300
1:50
140
1.0
141
50.0
290
     0
  0
SCALE
  5
53
102
{ACAD_REACTORS
330
47
102
}
330
47
100
AcDbScale
 70
     0
300
1:100
140
1.0
141
100.0
290
     0
  0
SCALE
  5
54
102
{ACAD_REACTORS
330
47
102
}
330
47
100
AcDbScale
 70
     0
300
2:1
140
2.0
141
1.0
290
     0
  0
SCALE
  5
55
102
{ACAD_REACTORS
330
47
102
}
330
47
100
AcDbScale
 70
     0
300
4:1
140
4.0
141
1.0
290
     0
  0
SCALE
  5
56
102
{ACAD_REACTORS
330
47
102
}
330
47
100
AcDbScale
 70
     0
300
8:1
140
8.0
141
1.0
290
     0
  0
SCALE
  5
57
102
{ACAD_REACTORS
330
47
102
}
330
47
100
AcDbScale
 70
     0
300
10:1
140
10.0
141
1.0
290
     0
  0
SCALE
  5
58
102
{ACAD_REACTORS
330
47
102
}
330
47
100
AcDbScale
 70
     0
300
100:1
140
100.0
141
1.0
290
     0
  0
SCALE
  5
59
102
{ACAD_REACTORS
330
47
102
}
330
47
100
AcDbScale
 70
     0
300
1/128" = 1'-0"
140
0.0078125
141
12.0
290
     0
  0
SCALE
  5
5A
102
{ACAD_REACTORS
330
47
102
}
330
47
100
AcDbScale
 70
     0
300
1/64" = 1'-0"
140
0.015625
141
12.0
290
     0
  0
SCALE
  5
5B
102
{ACAD_REACTORS
330
47
102
}
330
47
100
AcDbScale
 70
     0
300
1/32" = 1'-0"
140
0.03125
141
12.0
290
     0
  0
SCALE
  5
5C
102
{ACAD_REACTORS
330
47
102
}
330
47
100
AcDbScale
 70
     0
300
1/16" = 1'-0"
140
0.0625
141
12.0
290
     0
  0
SCALE
  5
5D
102
{ACAD_REACTORS
330
47
102
}
330
47
100
AcDbScale
 70
     0
300
3/32" = 1'-0"
140
0.09375
141
12.0
290
     0
  0
SCALE
  5
5E
102
{ACAD_REACTORS
330
47
102
}
330
47
100
AcDbScale
 70
     0
300
1/8" = 1'-0"
140
0.125
141
12.0
290
     0
  0
SCALE
  5
5F
102
{ACAD_REACTORS
330
47
102
}
330
47
100
AcDbScale
 70
     0
300
3/16" = 1'-0"
140
0.1875
141
12.0
290
     0
  0
SCALE
  5
60
102
{ACAD_REACTORS
330
47
102
}
330
47
100
AcDbScale
 70
     0
300
1/4" = 1'-0"
140
0.25
141
12.0
290
     0
  0
SCALE
  5
61
102
{ACAD_REACTORS
330
47
102
}
330
47
100
AcDbScale
 70
     0
300
3/8" = 1'-0"
140
0.375
141
12.0
290
     0
  0
SCALE
  5
62
102
{ACAD_REACTORS
330
47
102
}
330
47
100
AcDbScale
 70
     0
300
1/2" = 1'-0"
140
0.5
141
12.0
290
     0
  0
SCALE
  5
63
102
{ACAD_REACTORS
330
47
102
}
330
47
100
AcDbScale
 70
     0
300
3/4" = 1'-0"
140
0.75
141
12.0
290
     0
  0
SCALE
  5
64
102
{ACAD_REACTORS
330
47
102
}
330
47
100
AcDbScale
 70
     0
300
1" = 1'-0"
140
1.0
141
12.0
290
     0
  0
SCALE
  5
65
102
{ACAD_REACTORS
330
47
102
}
330
47
100
AcDbScale
 70
     0
300
1-1/2" = 1'-0"
140
1.5
141
12.0
290
     0
  0
SCALE
  5
66
102
{ACAD_REACTORS
330
47
102
}
330
47
100
AcDbScale
 70
     0
300
3" = 1'-0"
140
3.0
141
12.0
290
     0
  0
SCALE
  5
67
102
{ACAD_REACTORS
330
47
102
}
330
47
100
AcDbScale
 70
     0
300
6" = 1'-0"
140
6.0
141
12.0
290
     0
  0
SCALE
  5
68
102
{ACAD_REACTORS
330
47
102
}
330
47
100
AcDbScale
 70
     0
300
1'-0" = 1'-0"
140
12.0
141
12.0
290
     0
  0
ENDSEC
  0
EOF
