  0
SECTION
  2
HEADER
  9
$ACADVER
  1
AC1015
  9
$ACADMAINTVER
 70
     6
  9
$DWGCODEPAGE
  3
ANSI_1250
  9
$INSBASE
 10
0.0
 20
0.0
 30
0.0
  9
$EXTMIN
 10
0.0
 20
0.0
 30
0.0
  9
$EXTMAX
 10
297.0
 20
210.0
 30
0.0
  9
$LIMMIN
 10
0.0
 20
0.0
  9
$LIMMAX
 10
297.0
 20
210.0
  9
$ORTHOMODE
 70
     0
  9
$REGENMODE
 70
     1
  9
$FILLMODE
 70
     1
  9
$QTEXTMODE
 70
     0
  9
$MIRRTEXT
 70
     1
  9
$LTSCALE
 40
1.0
  9
$ATTMODE
 70
     1
  9
$TEXTSIZE
 40
3.5
  9
$TRACEWID
 40
1.0
  9
$TEXTSTYLE
  7
Standard
  9
$CLAYER
  8
0
  9
$CELTYPE
  6
ByLayer
  9
$CECOLOR
 62
   256
  9
$CELTSCALE
 40
1.0
  9
$DISPSILH
 70
     0
  9
$DIMSCALE
 40
1.0
  9
$DIMASZ
 40
3.302
  9
$DIMEXO
 40
1.0
  9
$DIMDLI
 40
3.75
  9
$DIMRND
 40
0.0
  9
$DIMDLE
 40
0.0
  9
$DIMEXE
 40
1.0
  9
$DIMTP
 40
0.0
  9
$DIMTM
 40
0.0
  9
$DIMTXT
 40
3.5
  9
$DIMCEN
 40
2.5
  9
$DIMTSZ
 40
0.0
  9
$DIMTOL
 70
     0
  9
$DIMLIM
 70
     0
  9
$DIMTIH
 70
     1
  9
$DIMTOH
 70
     1
  9
$DIMSE1
 70
     0
  9
$DIMSE2
 70
     0
  9
$DIMTAD
 70
     1
  9
$DIMZIN
 70
     0
  9
$DIMBLK
  1

  9
$DIMASO
 70
     1
  9
$DIMSHO
 70
     1
  9
$DIMPOST
  1

  9
$DIMAPOST
  1

  9
$DIMALT
 70
     0
  9
$DIMALTD
 70
     3
  9
$DIMALTF
 40
0.0393700787
  9
$DIMLFAC
 40
1.0
  9
$DIMTOFL
 70
     1
  9
$DIMTVP
 40
0.0
  9
$DIMTIX
 70
     0
  9
$DIMSOXD
 70
     0
  9
$DIMSAH
 70
     0
  9
$DIMBLK1
  1

  9
$DIMBLK2
  1

  9
$DIMSTYLE
  2
ISO-25
  9
$DIMCLRD
 70
     0
  9
$DIMCLRE
 70
     0
  9
$DIMCLRT
 70
     0
  9
$DIMTFAC
 40
1.0
  9
$DIMGAP
 40
1.524
  9
$DIMJUST
 70
     0
  9
$DIMSD1
 70
     0
  9
$DIMSD2
 70
     0
  9
$DIMTOLJ
 70
     0
  9
$DIMTZIN
 70
     0
  9
$DIMALTZ
 70
     0
  9
$DIMALTTZ
 70
     0
  9
$DIMUPT
 70
     0
  9
$DIMDEC
 70
     2
  9
$DIMTDEC
 70
     2
  9
$DIMALTU
 70
     2
  9
$DIMALTTD
 70
     3
  9
$DIMTXSTY
  7
Standard
  9
$DIMAUNIT
 70
     0
  9
$DIMADEC
 70
     2
  9
$DIMALTRND
 40
0.0
  9
$DIMAZIN
 70
     0
  9
$DIMDSEP
 70
    44
  9
$DIMATFIT
 70
     3
  9
$DIMFRAC
 70
     0
  9
$DIMLDRBLK
  1

  9
$DIMLUNIT
 70
     2
  9
$DIMLWD
 70
    -2
  9
$DIMLWE
 70
    -2
  9
$DIMTMOVE
 70
     0
  9
$LUNITS
 70
     2
  9
$LUPREC
 70
     2
  9
$SKETCHINC
 40
1.0
  9
$FILLETRAD
 40
10.0
  9
$AUNITS
 70
     0
  9
$AUPREC
 70
     2
  9
$MENU
  1
.
  9
$ELEVATION
 40
0.0
  9
$PELEVATION
 40
0.0
  9
$THICKNESS
 40
0.0
  9
$LIMCHECK
 70
     0
  9
$CHAMFERA
 40
0.0
  9
$CHAMFERB
 40
0.0
  9
$CHAMFERC
 40
0.0
  9
$CHAMFERD
 40
0.0
  9
$SKPOLY
 70
     0
  9
$TDCREATE
 40
2459290.515604201
  9
$TDUCREATE
 40
2459290.473937535
  9
$TDUPDATE
 40
2459290.515605312
  9
$TDUUPDATE
 40
2459290.473938646
  9
$TDINDWG
 40
0.0000000116
  9
$TDUSRTIMER
 40
0.0000000116
  9
$USRTIMER
 70
     1
  9
$ANGBASE
 50
0.0
  9
$ANGDIR
 70
     0
  9
$PDMODE
 70
     0
  9
$PDSIZE
 40
-1.0
  9
$PLINEWID
 40
0.0
  9
$SPLFRAME
 70
     0
  9
$SPLINETYPE
 70
     6
  9
$SPLINESEGS
 70
     8
  9
$HANDSEED
  5
374
  9
$SURFTAB1
 70
     6
  9
$SURFTAB2
 70
     6
  9
$SURFTYPE
 70
     6
  9
$SURFU
 70
     6
  9
$SURFV
 70
     6
  9
$UCSBASE
  2

  9
$UCSNAME
  2

  9
$UCSORG
 10
0.0
 20
0.0
 30
0.0
  9
$UCSXDIR
 10
1.0
 20
0.0
 30
0.0
  9
$UCSYDIR
 10
0.0
 20
1.0
 30
0.0
  9
$UCSORTHOREF
  2

  9
$UCSORTHOVIEW
 70
     0
  9
$UCSORGTOP
 10
0.0
 20
0.0
 30
0.0
  9
$UCSORGBOTTOM
 10
0.0
 20
0.0
 30
0.0
  9
$UCSORGLEFT
 10
0.0
 20
0.0
 30
0.0
  9
$UCSORGRIGHT
 10
0.0
 20
0.0
 30
0.0
  9
$UCSORGFRONT
 10
0.0
 20
0.0
 30
0.0
  9
$UCSORGBACK
 10
0.0
 20
0.0
 30
0.0
  9
$PUCSBASE
  2

  9
$PUCSNAME
  2

  9
$PUCSORG
 10
0.0
 20
0.0
 30
0.0
  9
$PUCSXDIR
 10
1.0
 20
0.0
 30
0.0
  9
$PUCSYDIR
 10
0.0
 20
1.0
 30
0.0
  9
$PUCSORTHOREF
  2

  9
$PUCSORTHOVIEW
 70
     0
  9
$PUCSORGTOP
 10
0.0
 20
0.0
 30
0.0
  9
$PUCSORGBOTTOM
 10
0.0
 20
0.0
 30
0.0
  9
$PUCSORGLEFT
 10
0.0
 20
0.0
 30
0.0
  9
$PUCSORGRIGHT
 10
0.0
 20
0.0
 30
0.0
  9
$PUCSORGFRONT
 10
0.0
 20
0.0
 30
0.0
  9
$PUCSORGBACK
 10
0.0
 20
0.0
 30
0.0
  9
$USERI1
 70
     0
  9
$USERI2
 70
     0
  9
$USERI3
 70
     0
  9
$USERI4
 70
     0
  9
$USERI5
 70
     0
  9
$USERR1
 40
0.0
  9
$USERR2
 40
0.0
  9
$USERR3
 40
0.0
  9
$USERR4
 40
0.0
  9
$USERR5
 40
0.0
  9
$WORLDVIEW
 70
     1
  9
$SHADEDGE
 70
     3
  9
$SHADEDIF
 70
    70
  9
$TILEMODE
 70
     1
  9
$MAXACTVP
 70
    64
  9
$PINSBASE
 10
0.0
 20
0.0
 30
0.0
  9
$PLIMCHECK
 70
     0
  9
$PEXTMIN
 10
1.0000000000E+20
 20
1.0000000000E+20
 30
1.0000000000E+20
  9
$PEXTMAX
 10
-1.0000000000E+20
 20
-1.0000000000E+20
 30
-1.0000000000E+20
  9
$PLIMMIN
 10
0.0
 20
0.0
  9
$PLIMMAX
 10
420.0
 20
297.0
  9
$UNITMODE
 70
     0
  9
$VISRETAIN
 70
     1
  9
$PLINEGEN
 70
     0
  9
$PSLTSCALE
 70
     1
  9
$TREEDEPTH
 70
  3020
  9
$CMLSTYLE
  2
Standard
  9
$CMLJUST
 70
     0
  9
$CMLSCALE
 40
20.0
  9
$PROXYGRAPHICS
 70
     1
  9
$MEASUREMENT
 70
     1
  9
$CELWEIGHT
370
    -1
  9
$ENDCAPS
280
     0
  9
$JOINSTYLE
280
     0
  9
$LWDISPLAY
290
     1
  9
$INSUNITS
 70
     4
  9
$HYPERLINKBASE
  1

  9
$STYLESHEET
  1

  9
$XEDIT
290
     1
  9
$CEPSNTYPE
380
     0
  9
$PSTYLEMODE
290
     1
  9
$FINGERPRINTGUID
  2
{3F20C4AF-EEBE-4A2A-BAE8-3213759C4262}
  9
$VERSIONGUID
  2
{FAEB1C32-E019-11D5-929B-00C0DF256EC4}
  9
$EXTNAMES
290
     1
  9
$PSVPSCALE
 40
0.0
  9
$OLESTARTUP
290
     0
  0
ENDSEC
  0
SECTION
  2
CLASSES
  0
CLASS
  1
ACDBDICTIONARYWDFLT
  2
AcDbDictionaryWithDefault
  3
ObjectDBX Classes
 90
        0
280
     0
281
     0
  0
CLASS
  1
VISUALSTYLE
  2
AcDbVisualStyle
  3
ObjectDBX Classes
 90
     4095
280
     0
281
     0
  0
CLASS
  1
MATERIAL
  2
AcDbMaterial
  3
ObjectDBX Classes
 90
     1153
280
     0
281
     0
  0
CLASS
  1
SCALE
  2
AcDbScale
  3
ObjectDBX Classes
 90
     1153
280
     0
281
     0
  0
CLASS
  1
TABLESTYLE
  2
AcDbTableStyle
  3
ObjectDBX Classes
 90
     4095
280
     0
281
     0
  0
CLASS
  1
MLEADERSTYLE
  2
AcDbMLeaderStyle
  3
ACDB_MLEADERSTYLE_CLASS
 90
     4095
280
     0
281
     0
  0
CLASS
  1
SUN
  2
AcDbSun
  3
SCENEOE
 90
     1153
280
     0
281
     0
  0
CLASS
  1
ACDBPLACEHOLDER
  2
AcDbPlaceHolder
  3
ObjectDBX Classes
 90
        0
280
     0
281
     0
  0
CLASS
  1
LAYOUT
  2
AcDbLayout
  3
ObjectDBX Classes
 90
        0
280
     0
281
     0
  0
ENDSEC
  0
SECTION
  2
TABLES
  0
TABLE
  2
VPORT
  5
8
330
0
100
AcDbSymbolTable
 70
     1
  0
VPORT
  5
29
330
8
100
AcDbSymbolTableRecord
100
AcDbViewportTableRecord
  2
*Active
 70
     0
 10
0.0
 20
0.0
 11
1.0
 21
1.0
 12
148.5
 22
105.0
 13
0.0
 23
0.0
 14
10.0
 24
10.0
 15
10.0
 25
10.0
 16
0.0
 26
0.0
 36
1.0
 17
0.0
 27
0.0
 37
0.0
 40
210.0
 41
1.4142857143
 42
50.0
 43
0.0
 44
0.0
 50
0.0
 51
0.0
 71
     0
 72
  2000
 73
     1
 74
     3
 75
     0
 76
     0
 77
     0
 78
     0
281
     0
 65
     1
110
0.0
120
0.0
130
0.0
111
1.0
121
0.0
131
0.0
112
0.0
122
1.0
132
0.0
 79
     0
146
0.0
  0
ENDTAB
  0
TABLE
  2
LTYPE
  5
5
330
0
100
AcDbSymbolTable
 70
     8
  0
LTYPE
  5
14
330
5
100
AcDbSymbolTableRecord
100
AcDbLinetypeTableRecord
  2
ByBlock
 70
     0
  3

 72
    65
 73
     0
 40
0.0
  0
LTYPE
  5
15
330
5
100
AcDbSymbolTableRecord
100
AcDbLinetypeTableRecord
  2
ByLayer
 70
     0
  3

 72
    65
 73
     0
 40
0.0
  0
LTYPE
  5
16
330
5
100
AcDbSymbolTableRecord
100
AcDbLinetypeTableRecord
  2
Continuous
 70
     0
  3
Solid line
 72
    65
 73
     0
 40
0.0
  0
LTYPE
  5
6E
330
5
100
AcDbSymbolTableRecord
100
AcDbLinetypeTableRecord
  2
SLD-Solid
 70
     0
  3
SolidWorks Line Style
 72
    65
 73
     0
 40
0.0
  0
LTYPE
  5
6F
330
5
100
AcDbSymbolTableRecord
100
AcDbLinetypeTableRecord
  2
SLD-Dashed
 70
     0
  3
SolidWorks Line Style
 72
    65
 73
     2
 40
1.905
 49
1.27
 74
     0
 49
-0.635
 74
     0
  0
LTYPE
  5
70
330
5
100
AcDbSymbolTableRecord
100
AcDbLinetypeTableRecord
  2
SLD-Phantom
 70
     0
  3
SolidWorks Line Style
 72
    65
 73
     6
 40
12.7
 49
6.35
 74
     0
 49
-1.27
 74
     0
 49
1.27
 74
     0
 49
-1.27
 74
     0
 49
1.27
 74
     0
 49
-1.27
 74
     0
  0
LTYPE
  5
71
330
5
100
AcDbSymbolTableRecord
100
AcDbLinetypeTableRecord
  2
SLD-Chain
 70
     0
  3
SolidWorks Line Style
 72
    65
 73
     4
 40
10.16
 49
6.35
 74
     0
 49
-1.27
 74
     0
 49
1.27
 74
     0
 49
-1.27
 74
     0
  0
LTYPE
  5
72
330
5
100
AcDbSymbolTableRecord
100
AcDbLinetypeTableRecord
  2
SLD-Center
 70
     0
  3
SolidWorks Line Style
 72
    65
 73
     4
 40
19.05
 49
15.24
 74
     0
 49
-1.27
 74
     0
 49
1.27
 74
     0
 49
-1.27
 74
     0
  0
LTYPE
  5
73
330
5
100
AcDbSymbolTableRecord
100
AcDbLinetypeTableRecord
  2
SLD-Stitch
 70
     0
  3
SolidWorks Line Style
 72
    65
 73
     2
 40
0.635
 49
0.0
 74
     0
 49
-0.635
 74
     0
  0
LTYPE
  5
74
330
5
100
AcDbSymbolTableRecord
100
AcDbLinetypeTableRecord
  2
SLD-Thin-Thick-Chain
 70
     0
  3
SolidWorks Line Style
 72
    65
 73
     4
 40
10.16
 49
6.35
 74
     0
 49
-1.27
 74
     0
 49
1.27
 74
     0
 49
-1.27
 74
     0
  0
ENDTAB
  0
TABLE
  2
LAYER
  5
2
330
0
100
AcDbSymbolTable
 70
    12
  0
LAYER
  5
10
330
2
100
AcDbSymbolTableRecord
100
AcDbLayerTableRecord
  2
0
 70
     0
 62
     7
  6
Continuous
370
    -3
390
F
  0
LAYER
  5
75
330
2
100
AcDbSymbolTableRecord
100
AcDbLayerTableRecord
  2
SLD-0
 70
     0
 62
   179
  6
SLD-Solid
370
    -3
390
F
  0
LAYER
  5
76
330
2
100
AcDbSymbolTableRecord
100
AcDbLayerTableRecord
  2
80
 70
     0
 62
    -6
  6
SLD-Solid
290
     0
370
    -3
390
F
  0
LAYER
  5
77
330
2
100
AcDbSymbolTableRecord
100
AcDbLayerTableRecord
  2
81
 70
     0
 62
    -3
  6
SLD-Solid
290
     0
370
    -3
390
F
  0
LAYER
  5
78
330
2
100
AcDbSymbolTableRecord
100
AcDbLayerTableRecord
  2
1
 70
     0
 62
     4
  6
SLD-Solid
290
     0
370
    -3
390
F
  0
LAYER
  5
79
330
2
100
AcDbSymbolTableRecord
100
AcDbLayerTableRecord
  2
4
 70
     0
 62
    -2
  6
SLD-Chain
290
     0
370
    -3
390
F
  0
LAYER
  5
7A
330
2
100
AcDbSymbolTableRecord
100
AcDbLayerTableRecord
  2
2
 70
     0
 62
     7
  6
SLD-Solid
290
     0
370
    -3
390
F
  0
LAYER
  5
7B
330
2
100
AcDbSymbolTableRecord
100
AcDbLayerTableRecord
  2
SK3
 70
     0
 62
     1
  6
SLD-Dashed
290
     0
370
    -3
390
F
  0
LAYER
  5
7C
330
2
100
AcDbSymbolTableRecord
100
AcDbLayerTableRecord
  2
SK4
 70
     0
 62
     2
  6
SLD-Chain
290
     0
370
    -3
390
F
  0
LAYER
  5
7D
330
2
100
AcDbSymbolTableRecord
100
AcDbLayerTableRecord
  2
SK2
 70
     0
 62
     7
  6
SLD-Solid
290
     0
370
    -3
390
F
  0
LAYER
  5
7E
330
2
100
AcDbSymbolTableRecord
100
AcDbLayerTableRecord
  2
SK6
 70
     0
 62
     5
  6
SLD-Solid
290
     0
370
    -3
390
F
  0
LAYER
  5
7F
330
2
100
AcDbSymbolTableRecord
100
AcDbLayerTableRecord
  2
SK1
 70
     0
 62
     4
  6
SLD-Solid
370
    -3
390
F
  0
ENDTAB
  0
TABLE
  2
STYLE
  5
3
330
0
100
AcDbSymbolTable
 70
     2
  0
STYLE
  5
11
330
3
100
AcDbSymbolTableRecord
100
AcDbTextStyleTableRecord
  2
Standard
 70
     0
 40
0.0
 41
1.0
 50
0.0
 71
     0
 42
3.5
  3
txt
  4

  0
STYLE
  5
303
330
3
100
AcDbSymbolTableRecord
100
AcDbTextStyleTableRecord
  2
SLDTEXTSTYLE0
 70
     0
 40
0.0
 41
0.75
 50
0.0
 71
     0
 42
3.5
  3
TXT
  4

  0
ENDTAB
  0
TABLE
  2
VIEW
  5
6
330
0
100
AcDbSymbolTable
 70
     0
  0
ENDTAB
  0
TABLE
  2
UCS
  5
7
330
0
100
AcDbSymbolTable
 70
     0
  0
ENDTAB
  0
TABLE
  2
APPID
  5
9
330
0
100
AcDbSymbolTable
 70
     1
  0
APPID
  5
12
330
9
100
AcDbSymbolTableRecord
100
AcDbRegAppTableRecord
  2
ACAD
 70
     0
  0
ENDTAB
  0
TABLE
  2
DIMSTYLE
  5
A
330
0
100
AcDbSymbolTable
 70
     2
100
AcDbDimStyleTable
  0
DIMSTYLE
105
27
330
A
100
AcDbSymbolTableRecord
100
AcDbDimStyleTableRecord
  2
ISO-25
 70
     0
 41
2.5
 42
0.625
 43
3.75
 44
1.25
 73
     0
 74
     0
 77
     1
 78
     8
140
2.5
141
2.5
143
0.0393700787
147
0.625
171
     3
172
     1
178
     0
271
     2
272
     2
274
     3
278
    44
283
     0
284
     8
340
11
  0
DIMSTYLE
105
304
102
{ACAD_REACTORS
330
302
330
30E
330
318
330
322
330
32C
330
337
330
342
330
34C
330
357
330
362
102
}
330
A
100
AcDbSymbolTableRecord
100
AcDbDimStyleTableRecord
  2
SLDDIMSTYLE0
 70
     0
 41
3.302
 44
0.0
 45
0.000000001
 73
     0
 74
     0
 77
     1
 78
    12
 79
     3
140
3.5
147
0.875
173
     1
178
     0
271
     2
272
     2
276
     2
284
    12
340
303
  0
ENDTAB
  0
TABLE
  2
BLOCK_RECORD
  5
1
330
0
100
AcDbSymbolTable
 70
    14
  0
BLOCK_RECORD
  5
1F
330
1
100
AcDbSymbolTableRecord
100
AcDbBlockTableRecord
  2
*Model_Space
340
22
  0
BLOCK_RECORD
  5
1B
330
1
100
AcDbSymbolTableRecord
100
AcDbBlockTableRecord
  2
*Paper_Space
340
1E
  0
BLOCK_RECORD
  5
23
330
1
100
AcDbSymbolTableRecord
100
AcDbBlockTableRecord
  2
*Paper_Space0
340
26
  0
BLOCK_RECORD
  5
80
330
1
100
AcDbSymbolTableRecord
100
AcDbBlockTableRecord
  2
Block11
340
0
102
{BLKREFS
331
300
102
}
  0
BLOCK_RECORD
  5
89
330
1
100
AcDbSymbolTableRecord
100
AcDbBlockTableRecord
  2
Block12
340
0
102
{BLKREFS
331
301
102
}
  0
BLOCK_RECORD
  5
305
330
1
100
AcDbSymbolTableRecord
100
AcDbBlockTableRecord
  2
_D
340
0
  0
BLOCK_RECORD
  5
30F
330
1
100
AcDbSymbolTableRecord
100
AcDbBlockTableRecord
  2
_D_1
340
0
  0
BLOCK_RECORD
  5
319
330
1
100
AcDbSymbolTableRecord
100
AcDbBlockTableRecord
  2
_D_2
340
0
  0
BLOCK_RECORD
  5
323
330
1
100
AcDbSymbolTableRecord
100
AcDbBlockTableRecord
  2
_D_3
340
0
  0
BLOCK_RECORD
  5
32D
330
1
100
AcDbSymbolTableRecord
100
AcDbBlockTableRecord
  2
_D_4
340
0
  0
BLOCK_RECORD
  5
338
330
1
100
AcDbSymbolTableRecord
100
AcDbBlockTableRecord
  2
_D_5
340
0
  0
BLOCK_RECORD
  5
343
330
1
100
AcDbSymbolTableRecord
100
AcDbBlockTableRecord
  2
_D_6
340
0
  0
BLOCK_RECORD
  5
34D
330
1
100
AcDbSymbolTableRecord
100
AcDbBlockTableRecord
  2
_D_7
340
0
  0
BLOCK_RECORD
  5
358
330
1
100
AcDbSymbolTableRecord
100
AcDbBlockTableRecord
  2
_D_8
340
0
  0
BLOCK_RECORD
  5
363
330
1
100
AcDbSymbolTableRecord
100
AcDbBlockTableRecord
  2
_D_9
340
0
  0
BLOCK_RECORD
  5
36E
330
1
100
AcDbSymbolTableRecord
100
AcDbBlockTableRecord
  2
SW_NOTE_0
340
0
102
{BLKREFS
331
373
102
}
  0
ENDTAB
  0
ENDSEC
  0
SECTION
  2
BLOCKS
  0
BLOCK
  5
20
330
1F
100
AcDbEntity
  8
0
100
AcDbBlockBegin
  2
*Model_Space
 70
     0
 10
0.0
 20
0.0
 30
0.0
  3
*Model_Space
  1

  0
ENDBLK
  5
21
330
1F
100
AcDbEntity
  8
0
100
AcDbBlockEnd
  0
BLOCK
  5
1C
330
1B
100
AcDbEntity
 67
     1
  8
0
100
AcDbBlockBegin
  2
*Paper_Space
 70
     0
 10
0.0
 20
0.0
 30
0.0
  3
*Paper_Space
  1

  0
ENDBLK
  5
1D
330
1B
100
AcDbEntity
 67
     1
  8
0
100
AcDbBlockEnd
  0
BLOCK
  5
24
330
23
100
AcDbEntity
  8
0
100
AcDbBlockBegin
  2
*Paper_Space0
 70
     0
 10
0.0
 20
0.0
 30
0.0
  3
*Paper_Space0
  1

  0
ENDBLK
  5
25
330
23
100
AcDbEntity
  8
0
100
AcDbBlockEnd
  0
BLOCK
  5
81
330
80
100
AcDbEntity
  8
0
100
AcDbBlockBegin
  2
Block11
 70
     0
 10
0.0
 20
0.0
 30
0.0
  3
Block11
  1

  0
CIRCLE
  5
83
330
80
100
AcDbEntity
  8
81
370
    18
100
AcDbCircle
 10
91.6264826505
 20
130.2676275275
 30
0.0
 40
2.499999999999981
  0
LINE
  5
84
330
80
100
AcDbEntity
  8
81
370
    18
100
AcDbLine
 10
91.6264826505
 20
130.2676275275
 30
0.0
 11
95.1620165565
 21
133.8031614334
 31
0.0
  0
LINE
  5
85
330
80
100
AcDbEntity
  8
81
370
    18
100
AcDbLine
 10
91.6264826505
 20
130.2676275275
 30
0.0
 11
88.0909487446
 21
126.7320936216
 31
0.0
  0
LINE
  5
86
330
80
100
AcDbEntity
  8
81
370
    18
100
AcDbLine
 10
91.6264826505
 20
130.2676275275
 30
0.0
 11
88.0909487446
 21
133.8031614334
 31
0.0
  0
LINE
  5
87
330
80
100
AcDbEntity
  8
81
100
AcDbLine
 10
91.6264826505
 20
130.2676275275
 30
0.0
 11
101.6264826505
 21
130.2676275275
 31
0.0
  0
LINE
  5
88
330
80
100
AcDbEntity
  8
81
370
    18
100
AcDbLine
 10
91.6264826505
 20
130.2676275275
 30
0.0
 11
95.1620165565
 21
126.7320936216
 31
0.0
  0
ENDBLK
  5
82
330
80
100
AcDbEntity
  8
0
100
AcDbBlockEnd
  0
BLOCK
  5
8A
330
89
100
AcDbEntity
  8
0
100
AcDbBlockBegin
  2
Block12
 70
     0
 10
0.0
 20
0.0
 30
0.0
  3
Block12
  1

  0
CIRCLE
  5
8C
330
89
100
AcDbEntity
  8
80
370
    18
100
AcDbCircle
 10
61.7273641656
 20
130.3356800267
 30
0.0
 40
2.500000000000004
  0
LINE
  5
8D
330
89
100
AcDbEntity
  8
80
370
    18
100
AcDbLine
 10
61.7273641656
 20
130.3356800267
 30
0.0
 11
65.2628980715
 21
133.8712139326
 31
0.0
  0
LINE
  5
8E
330
89
100
AcDbEntity
  8
80
370
    18
100
AcDbLine
 10
61.7273641656
 20
130.3356800267
 30
0.0
 11
58.1918302597
 21
126.8001461208
 31
0.0
  0
LINE
  5
8F
330
89
100
AcDbEntity
  8
80
370
    18
100
AcDbLine
 10
61.7273641656
 20
130.3356800267
 30
0.0
 11
58.1918302597
 21
133.8712139326
 31
0.0
  0
LINE
  5
90
330
89
100
AcDbEntity
  8
80
370
    18
100
AcDbLine
 10
61.7273641656
 20
130.3356800267
 30
0.0
 11
51.7273641656
 21
130.3356800267
 31
0.0
  0
LINE
  5
91
330
89
100
AcDbEntity
  8
80
370
    18
100
AcDbLine
 10
61.7273641656
 20
130.3356800267
 30
0.0
 11
65.2628980715
 21
126.8001461208
 31
0.0
  0
ENDBLK
  5
8B
330
89
100
AcDbEntity
  8
0
100
AcDbBlockEnd
  0
BLOCK
  5
306
330
305
100
AcDbEntity
  8
0
100
AcDbBlockBegin
  2
_D
 70
     0
 10
0.0
 20
0.0
 30
0.0
  3
_D
  1

  0
SOLID
  5
308
330
305
100
AcDbEntity
  8
2
100
AcDbTrace
 10
0.0971750445
 20
49.1464820629
 30
0.0
 11
3.3991750445
 21
48.6384820629
 31
0.0
 12
3.3991750445
 22
49.6544820629
 32
0.0
 13
3.3991750445
 23
49.6544820629
 33
0.0
  0
SOLID
  5
309
330
305
100
AcDbEntity
  8
2
100
AcDbTrace
 10
70.0971750445
 20
49.1464820629
 30
0.0
 11
66.7951750445
 21
49.6544820629
 31
0.0
 12
66.7951750445
 22
48.6384820629
 32
0.0
 13
66.7951750445
 23
48.6384820629
 33
0.0
  0
LINE
  5
30A
330
305
100
AcDbEntity
  8
2
100
AcDbLine
 10
0.0971750445
 20
23.225
 30
0.0
 11
0.0971750445
 21
50.1464820629
 31
0.0
  0
LINE
  5
30B
330
305
100
AcDbEntity
  8
2
100
AcDbLine
 10
70.0971750445
 20
21.0
 30
0.0
 11
70.0971750445
 21
50.1464820629
 31
0.0
  0
LINE
  5
30C
330
305
100
AcDbEntity
  8
2
100
AcDbLine
 10
0.0971750445
 20
49.1464820629
 30
0.0
 11
70.0971750445
 21
49.1464820629
 31
0.0
  0
MTEXT
  5
30D
330
305
100
AcDbEntity
  8
2
100
AcDbMText
 10
32.100378633
 20
53.6582189775
 30
0.0
 40
3.5
 41
0.0
 71
     1
 72
     1
  1
70
  7
SLDTEXTSTYLE0
 73
     1
 44
1.0
  0
ENDBLK
  5
307
330
305
100
AcDbEntity
  8
0
100
AcDbBlockEnd
  0
BLOCK
  5
310
330
30F
100
AcDbEntity
  8
0
100
AcDbBlockBegin
  2
_D_1
 70
     0
 10
0.0
 20
0.0
 30
0.0
  3
_D_1
  1

  0
SOLID
  5
312
330
30F
100
AcDbEntity
  8
SK2
100
AcDbTrace
 10
0.0971750445
 20
40.7492648759
 30
0.0
 11
3.3991750445
 21
40.2412648759
 31
0.0
 12
3.3991750445
 22
41.2572648759
 32
0.0
 13
3.3991750445
 23
41.2572648759
 33
0.0
  0
SOLID
  5
313
330
30F
100
AcDbEntity
  8
SK2
100
AcDbTrace
 10
19.1471750445
 20
40.7492648759
 30
0.0
 11
15.8451750445
 21
41.2572648759
 31
0.0
 12
15.8451750445
 22
40.2412648759
 32
0.0
 13
15.8451750445
 23
40.2412648759
 33
0.0
  0
LINE
  5
314
330
30F
100
AcDbEntity
  8
SK2
100
AcDbLine
 10
0.0971750445
 20
23.225
 30
0.0
 11
0.0971750445
 21
41.7492648759
 31
0.0
  0
LINE
  5
315
330
30F
100
AcDbEntity
  8
SK2
100
AcDbLine
 10
19.1471750445
 20
32.0
 30
0.0
 11
19.1471750445
 21
41.7492648759
 31
0.0
  0
LINE
  5
316
330
30F
100
AcDbEntity
  8
SK2
100
AcDbLine
 10
0.0971750445
 20
40.7492648759
 30
0.0
 11
19.1471750445
 21
40.7492648759
 31
0.0
  0
MTEXT
  5
317
330
30F
100
AcDbEntity
  8
SK2
100
AcDbMText
 10
3.515871978
 20
45.2610017904
 30
0.0
 40
3.5
 41
0.0
 71
     1
 72
     1
  1
19,05
  7
SLDTEXTSTYLE0
 73
     1
 44
1.0
  0
ENDBLK
  5
311
330
30F
100
AcDbEntity
  8
0
100
AcDbBlockEnd
  0
BLOCK
  5
31A
330
319
100
AcDbEntity
  8
0
100
AcDbBlockBegin
  2
_D_2
 70
     0
 10
0.0
 20
0.0
 30
0.0
  3
_D_2
  1

  0
SOLID
  5
31C
330
319
100
AcDbEntity
  8
SK2
100
AcDbTrace
 10
19.1471750445
 20
40.7492648759
 30
0.0
 11
22.4491750445
 21
40.2412648759
 31
0.0
 12
22.4491750445
 22
41.2572648759
 32
0.0
 13
22.4491750445
 23
41.2572648759
 33
0.0
  0
SOLID
  5
31D
330
319
100
AcDbEntity
  8
SK2
100
AcDbTrace
 10
70.0971750445
 20
40.7492648759
 30
0.0
 11
66.7951750445
 21
41.2572648759
 31
0.0
 12
66.7951750445
 22
40.2412648759
 32
0.0
 13
66.7951750445
 23
40.2412648759
 33
0.0
  0
LINE
  5
31E
330
319
100
AcDbEntity
  8
SK2
100
AcDbLine
 10
19.1471750445
 20
32.0
 30
0.0
 11
19.1471750445
 21
41.7492648759
 31
0.0
  0
LINE
  5
31F
330
319
100
AcDbEntity
  8
SK2
100
AcDbLine
 10
70.0971750445
 20
21.0
 30
0.0
 11
70.0971750445
 21
41.7492648759
 31
0.0
  0
LINE
  5
320
330
319
100
AcDbEntity
  8
SK2
100
AcDbLine
 10
19.1471750445
 20
40.7492648759
 30
0.0
 11
70.0971750445
 21
40.7492648759
 31
0.0
  0
MTEXT
  5
321
330
319
100
AcDbEntity
  8
SK2
100
AcDbMText
 10
38.7537549855
 20
45.2610017904
 30
0.0
 40
3.5
 41
0.0
 71
     1
 72
     1
  1
50,95
  7
SLDTEXTSTYLE0
 73
     1
 44
1.0
  0
ENDBLK
  5
31B
330
319
100
AcDbEntity
  8
0
100
AcDbBlockEnd
  0
BLOCK
  5
324
330
323
100
AcDbEntity
  8
0
100
AcDbBlockBegin
  2
_D_3
 70
     0
 10
0.0
 20
0.0
 30
0.0
  3
_D_3
  1

  0
SOLID
  5
326
330
323
100
AcDbEntity
  8
SK2
100
AcDbTrace
 10
47.5971750445
 20
32.7369307837
 30
0.0
 11
50.8991750445
 21
32.2289307837
 31
0.0
 12
50.8991750445
 22
33.2449307837
 32
0.0
 13
50.8991750445
 23
33.2449307837
 33
0.0
  0
SOLID
  5
327
330
323
100
AcDbEntity
  8
SK2
100
AcDbTrace
 10
70.0971750445
 20
32.7369307837
 30
0.0
 11
66.7951750445
 21
33.2449307837
 31
0.0
 12
66.7951750445
 22
32.2289307837
 32
0.0
 13
66.7951750445
 23
32.2289307837
 33
0.0
  0
LINE
  5
328
330
323
100
AcDbEntity
  8
SK2
100
AcDbLine
 10
47.5971750445
 20
25.2
 30
0.0
 11
47.5971750445
 21
33.7369307837
 31
0.0
  0
LINE
  5
329
330
323
100
AcDbEntity
  8
SK2
100
AcDbLine
 10
70.0971750445
 20
21.0
 30
0.0
 11
70.0971750445
 21
33.7369307837
 31
0.0
  0
LINE
  5
32A
330
323
100
AcDbEntity
  8
SK2
100
AcDbLine
 10
47.5971750445
 20
32.7369307837
 30
0.0
 11
70.0971750445
 21
32.7369307837
 31
0.0
  0
MTEXT
  5
32B
330
323
100
AcDbEntity
  8
SK2
100
AcDbMText
 10
54.5431294756
 20
37.2486676982
 30
0.0
 40
3.5
 41
0.0
 71
     1
 72
     1
  1
22,5
  7
SLDTEXTSTYLE0
 73
     1
 44
1.0
  0
ENDBLK
  5
325
330
323
100
AcDbEntity
  8
0
100
AcDbBlockEnd
  0
BLOCK
  5
32E
330
32D
100
AcDbEntity
  8
0
100
AcDbBlockBegin
  2
_D_4
 70
     0
 10
0.0
 20
0.0
 30
0.0
  3
_D_4
  1

  0
SOLID
  5
330
330
32D
100
AcDbEntity
  8
SK2
100
AcDbTrace
 10
90.8130894152
 20
25.0
 30
0.0
 11
90.3050894152
 21
21.698
 31
0.0
 12
91.3210894152
 22
21.698
 32
0.0
 13
91.3210894152
 23
21.698
 33
0.0
  0
SOLID
  5
331
330
32D
100
AcDbEntity
  8
SK2
100
AcDbTrace
 10
90.8130894152
 20
-25.0
 30
0.0
 11
91.3210894152
 21
-21.698
 31
0.0
 12
90.3050894152
 22
-21.698
 32
0.0
 13
90.3050894152
 23
-21.698
 33
0.0
  0
LINE
  5
332
330
32D
100
AcDbEntity
  8
SK2
100
AcDbLine
 10
68.2104236986
 20
25.0
 30
0.0
 11
91.8130894152
 21
25.0
 31
0.0
  0
LINE
  5
333
330
32D
100
AcDbEntity
  8
SK2
100
AcDbLine
 10
68.2104236986
 20
-25.0
 30
0.0
 11
91.8130894152
 21
-25.0
 31
0.0
  0
LINE
  5
334
330
32D
100
AcDbEntity
  8
SK2
100
AcDbLine
 10
90.8130894152
 20
25.0
 30
0.0
 11
90.8130894152
 21
-25.0
 31
0.0
  0
MTEXT
  5
335
330
32D
100
AcDbEntity
  8
SK2
100
AcDbMText
 10
86.301352326
 20
-5.8522450696
 30
0.0
 40
3.5
 41
0.0
 71
     1
 72
     1
  1
%%c
  7
SLDTEXTSTYLE0
 11
-7.044195017643634E-15
 21
1.0
 31
0.0
 73
     1
 44
1.0
  0
MTEXT
  5
336
330
32D
100
AcDbEntity
  8
SK2
100
AcDbMText
 10
86.2478801494
 20
-0.5738076712
 30
0.0
 40
3.5
 41
0.0
 71
     1
 72
     1
  1
50
  7
SLDTEXTSTYLE0
 11
-7.044195017643634E-15
 21
1.0
 31
0.0
 73
     1
 44
1.0
  0
ENDBLK
  5
32F
330
32D
100
AcDbEntity
  8
0
100
AcDbBlockEnd
  0
BLOCK
  5
339
330
338
100
AcDbEntity
  8
0
100
AcDbBlockBegin
  2
_D_5
 70
     0
 10
0.0
 20
0.0
 30
0.0
  3
_D_5
  1

  0
SOLID
  5
33B
330
338
100
AcDbEntity
  8
SK2
100
AcDbTrace
 10
80.66425034
 20
-16.0
 30
0.0
 11
81.17225034
 21
-12.698
 31
0.0
 12
80.15625034
 22
-12.698
 32
0.0
 13
80.15625034
 23
-12.698
 33
0.0
  0
SOLID
  5
33C
330
338
100
AcDbEntity
  8
SK2
100
AcDbTrace
 10
80.66425034
 20
16.0
 30
0.0
 11
80.15625034
 21
12.698
 31
0.0
 12
81.17225034
 22
12.698
 32
0.0
 13
81.17225034
 23
12.698
 33
0.0
  0
LINE
  5
33D
330
338
100
AcDbEntity
  8
SK2
100
AcDbLine
 10
57.5763481455
 20
-16.0
 30
0.0
 11
81.66425034
 21
-16.0
 31
0.0
  0
LINE
  5
33E
330
338
100
AcDbEntity
  8
SK2
100
AcDbLine
 10
57.5763481455
 20
16.0
 30
0.0
 11
81.66425034
 21
16.0
 31
0.0
  0
LINE
  5
33F
330
338
100
AcDbEntity
  8
SK2
100
AcDbLine
 10
80.66425034
 20
-16.0
 30
0.0
 11
80.66425034
 21
16.0
 31
0.0
  0
MTEXT
  5
340
330
338
100
AcDbEntity
  8
SK2
100
AcDbMText
 10
76.1525132508
 20
-5.8522450696
 30
0.0
 40
3.5
 41
0.0
 71
     1
 72
     1
  1
%%c
  7
SLDTEXTSTYLE0
 11
6.123233995736766E-17
 21
1.0
 31
0.0
 73
     1
 44
1.0
  0
MTEXT
  5
341
330
338
100
AcDbEntity
  8
SK2
100
AcDbMText
 10
76.0990410742
 20
-0.5738076712
 30
0.0
 40
3.5
 41
0.0
 71
     1
 72
     1
  1
32
  7
SLDTEXTSTYLE0
 11
6.123233995736766E-17
 21
1.0
 31
0.0
 73
     1
 44
1.0
  0
ENDBLK
  5
33A
330
338
100
AcDbEntity
  8
0
100
AcDbBlockEnd
  0
BLOCK
  5
344
330
343
100
AcDbEntity
  8
0
100
AcDbBlockBegin
  2
_D_6
 70
     0
 10
0.0
 20
0.0
 30
0.0
  3
_D_6
  1

  0
SOLID
  5
346
330
343
100
AcDbEntity
  8
SK2
100
AcDbTrace
 10
57.4371750445
 20
-41.8891035529
 30
0.0
 11
54.1351750445
 21
-41.3811035529
 31
0.0
 12
54.1351750445
 22
-42.3971035529
 32
0.0
 13
54.1351750445
 23
-42.3971035529
 33
0.0
  0
SOLID
  5
347
330
343
100
AcDbEntity
  8
SK2
100
AcDbTrace
 10
0.0971750445
 20
-41.8891035529
 30
0.0
 11
3.3991750445
 21
-42.3971035529
 31
0.0
 12
3.3991750445
 22
-41.3811035529
 32
0.0
 13
3.3991750445
 23
-41.3811035529
 33
0.0
  0
LINE
  5
348
330
343
100
AcDbEntity
  8
SK2
100
AcDbLine
 10
57.4371750445
 20
-17.9867328729
 30
0.0
 11
57.4371750445
 21
-42.8891035529
 31
0.0
  0
LINE
  5
349
330
343
100
AcDbEntity
  8
SK2
100
AcDbLine
 10
0.0971750445
 20
-23.225
 30
0.0
 11
0.0971750445
 21
-42.8891035529
 31
0.0
  0
LINE
  5
34A
330
343
100
AcDbEntity
  8
SK2
100
AcDbLine
 10
57.4371750445
 20
-41.8891035529
 30
0.0
 11
0.0971750445
 21
-41.8891035529
 31
0.0
  0
MTEXT
  5
34B
330
343
100
AcDbEntity
  8
SK2
100
AcDbMText
 10
22.9643839548
 20
-37.3773666383
 30
0.0
 40
3.5
 41
0.0
 71
     1
 72
     1
  1
57,34
  7
SLDTEXTSTYLE0
 73
     1
 44
1.0
  0
ENDBLK
  5
345
330
343
100
AcDbEntity
  8
0
100
AcDbBlockEnd
  0
BLOCK
  5
34E
330
34D
100
AcDbEntity
  8
0
100
AcDbBlockBegin
  2
_D_7
 70
     0
 10
0.0
 20
0.0
 30
0.0
  3
_D_7
  1

  0
SOLID
  5
350
330
34D
100
AcDbEntity
  8
SK2
100
AcDbTrace
 10
-93.4952350134
 20
-31.75
 30
0.0
 11
-92.9872350134
 21
-28.448
 31
0.0
 12
-94.0032350134
 22
-28.448
 32
0.0
 13
-94.0032350134
 23
-28.448
 33
0.0
  0
SOLID
  5
351
330
34D
100
AcDbEntity
  8
SK2
100
AcDbTrace
 10
-93.4952350134
 20
31.75
 30
0.0
 11
-94.0032350134
 21
28.448
 31
0.0
 12
-92.9872350134
 22
28.448
 32
0.0
 13
-92.9872350134
 23
28.448
 33
0.0
  0
LINE
  5
352
330
34D
100
AcDbEntity
  8
SK2
100
AcDbLine
 10
3.0471750445
 20
-31.75
 30
0.0
 11
-94.4952350134
 21
-31.75
 31
0.0
  0
LINE
  5
353
330
34D
100
AcDbEntity
  8
SK2
100
AcDbLine
 10
3.0471750445
 20
31.75
 30
0.0
 11
-94.4952350134
 21
31.75
 31
0.0
  0
LINE
  5
354
330
34D
100
AcDbEntity
  8
SK2
100
AcDbLine
 10
-93.4952350134
 20
-31.75
 30
0.0
 11
-93.4952350134
 21
31.75
 31
0.0
  0
MTEXT
  5
355
330
34D
100
AcDbEntity
  8
SK2
100
AcDbMText
 10
-98.0069721026
 20
-7.7918286394
 30
0.0
 40
3.5
 41
0.0
 71
     1
 72
     1
  1
%%c
  7
SLDTEXTSTYLE0
 11
6.123233995736766E-17
 21
1.0
 31
0.0
 73
     1
 44
1.0
  0
MTEXT
  5
356
330
34D
100
AcDbEntity
  8
SK2
100
AcDbMText
 10
-98.0604442793
 20
-2.513391241
 30
0.0
 40
3.5
 41
0.0
 71
     1
 72
     1
  1
63,5
  7
SLDTEXTSTYLE0
 11
6.123233995736766E-17
 21
1.0
 31
0.0
 73
     1
 44
1.0
  0
ENDBLK
  5
34F
330
34D
100
AcDbEntity
  8
0
100
AcDbBlockEnd
  0
BLOCK
  5
359
330
358
100
AcDbEntity
  8
0
100
AcDbBlockBegin
  2
_D_8
 70
     0
 10
0.0
 20
0.0
 30
0.0
  3
_D_8
  1

  0
SOLID
  5
35B
330
358
100
AcDbEntity
  8
SK2
100
AcDbTrace
 10
-83.745653815
 20
-22.225
 30
0.0
 11
-83.237653815
 21
-18.923
 31
0.0
 12
-84.253653815
 22
-18.923
 32
0.0
 13
-84.253653815
 23
-18.923
 33
0.0
  0
SOLID
  5
35C
330
358
100
AcDbEntity
  8
SK2
100
AcDbTrace
 10
-83.745653815
 20
22.225
 30
0.0
 11
-84.253653815
 21
18.923
 31
0.0
 12
-83.237653815
 22
18.923
 32
0.0
 13
-83.237653815
 23
18.923
 33
0.0
  0
LINE
  5
35D
330
358
100
AcDbEntity
  8
SK2
100
AcDbLine
 10
-0.9028249555
 20
-22.225
 30
0.0
 11
-84.745653815
 21
-22.225
 31
0.0
  0
LINE
  5
35E
330
358
100
AcDbEntity
  8
SK2
100
AcDbLine
 10
-0.9028249555
 20
22.225
 30
0.0
 11
-84.745653815
 21
22.225
 31
0.0
  0
LINE
  5
35F
330
358
100
AcDbEntity
  8
SK2
100
AcDbLine
 10
-83.745653815
 20
-22.225
 30
0.0
 11
-83.745653815
 21
22.225
 31
0.0
  0
MTEXT
  5
360
330
358
100
AcDbEntity
  8
SK2
100
AcDbMText
 10
-88.2573909042
 20
-9.0848838869
 30
0.0
 40
3.5
 41
0.0
 71
     1
 72
     1
  1
%%c
  7
SLDTEXTSTYLE0
 11
6.123233995736766E-17
 21
1.0
 31
0.0
 73
     1
 44
1.0
  0
MTEXT
  5
361
330
358
100
AcDbEntity
  8
SK2
100
AcDbMText
 10
-88.3108630809
 20
-3.8064464885
 30
0.0
 40
3.5
 41
0.0
 71
     1
 72
     1
  1
44,45
  7
SLDTEXTSTYLE0
 11
6.123233995736766E-17
 21
1.0
 31
0.0
 73
     1
 44
1.0
  0
ENDBLK
  5
35A
330
358
100
AcDbEntity
  8
0
100
AcDbBlockEnd
  0
BLOCK
  5
364
330
363
100
AcDbEntity
  8
0
100
AcDbBlockBegin
  2
_D_9
 70
     0
 10
0.0
 20
0.0
 30
0.0
  3
_D_9
  1

  0
SOLID
  5
366
330
363
100
AcDbEntity
  8
SK2
100
AcDbTrace
 10
-74.8113355866
 20
-8.00000038
 30
0.0
 11
-74.3033355866
 21
-4.69800038
 31
0.0
 12
-75.3193355866
 22
-4.69800038
 32
0.0
 13
-75.3193355866
 23
-4.69800038
 33
0.0
  0
SOLID
  5
367
330
363
100
AcDbEntity
  8
SK2
100
AcDbTrace
 10
-74.8113355866
 20
8.00000038
 30
0.0
 11
-75.3193355866
 21
4.69800038
 31
0.0
 12
-74.3033355866
 22
4.69800038
 32
0.0
 13
-74.3033355866
 23
4.69800038
 33
0.0
  0
LINE
  5
368
330
363
100
AcDbEntity
  8
SK2
100
AcDbLine
 10
-58.1909463876
 20
-8.00000038
 30
0.0
 11
-75.8113355866
 21
-8.00000038
 31
0.0
  0
LINE
  5
369
330
363
100
AcDbEntity
  8
SK2
100
AcDbLine
 10
-58.1909463876
 20
8.00000038
 30
0.0
 11
-75.8113355866
 21
8.00000038
 31
0.0
  0
LINE
  5
36A
330
363
100
AcDbEntity
  8
SK2
100
AcDbLine
 10
-74.8113355866
 20
-8.00000038
 30
0.0
 11
-74.8113355866
 21
8.00000038
 31
0.0
  0
MTEXT
  5
36B
330
363
100
AcDbEntity
  8
SK2
100
AcDbMText
 10
-79.3230725011
 20
-4.7589953445
 30
0.0
 40
3.5
 41
0.0
 71
     1
 72
     1
  1
M
  7
SLDTEXTSTYLE0
 11
3.169856808907806E-15
 21
1.0
 31
0.0
 73
     1
 44
1.0
  0
MTEXT
  5
36C
330
363
100
AcDbEntity
  8
SK2
100
AcDbMText
 10
-79.3230725011
 20
-0.47149541
 30
0.0
 40
3.5
 41
0.0
 71
     1
 72
     1
  1
16
  7
SLDTEXTSTYLE0
 11
3.169856808907806E-15
 21
1.0
 31
0.0
 73
     1
 44
1.0
  0
ENDBLK
  5
365
330
363
100
AcDbEntity
  8
0
100
AcDbBlockEnd
  0
BLOCK
  5
36F
330
36E
100
AcDbEntity
  8
0
100
AcDbBlockBegin
  2
SW_NOTE_0
 70
     0
 10
0.0
 20
0.0
 30
0.0
  3
SW_NOTE_0
  1

  0
MTEXT
  5
371
330
36E
100
AcDbEntity
  8
SK6
 62
     0
100
AcDbMText
 10
0.0
 20
4.5117370892
 30
0.0
 40
3.5
 41
0.0
 71
     1
 72
     1
  1
TAPER ISO 40
  7
SLDTEXTSTYLE0
 73
     1
 44
1.0
  0
MTEXT
  5
372
330
36E
100
AcDbEntity
  8
SK6
 62
     0
100
AcDbMText
 10
0.0
 20
-0.0139574413
 30
0.0
 40
3.5
 41
0.0
 71
     1
 72
     1
  1
DIN 69871-AD/B
  7
SLDTEXTSTYLE0
 73
     1
 44
1.0
  0
ENDBLK
  5
370
330
36E
100
AcDbEntity
  8
0
100
AcDbBlockEnd
  0
ENDSEC
  0
SECTION
  2
ENTITIES
  0
LINE
  5
92
330
1F
100
AcDbEntity
  8
1
  6
SLD-Solid
370
    25
100
AcDbLine
 10
67.2104236986
 20
25.0
 30
0.0
 11
48.3971750445
 21
25.0
 31
0.0
  0
LINE
  5
93
330
1F
100
AcDbEntity
  8
1
  6
SLD-Solid
370
    25
100
AcDbLine
 10
48.3971750445
 20
-25.0
 30
0.0
 11
67.2104236986
 21
-25.0
 31
0.0
  0
LINE
  5
94
330
1F
100
AcDbEntity
  8
1
  6
SLD-Solid
370
    25
100
AcDbLine
 10
48.3971750445
 20
25.0
 30
0.0
 11
47.5971750445
 21
24.2
 31
0.0
  0
LINE
  5
95
330
1F
100
AcDbEntity
  8
1
  6
SLD-Solid
370
    25
100
AcDbLine
 10
47.5971750445
 20
-24.2
 30
0.0
 11
48.3971750445
 21
-25.0
 31
0.0
  0
LINE
  5
96
330
1F
100
AcDbEntity
  8
1
  6
SLD-Solid
370
    25
100
AcDbLine
 10
67.2104236986
 20
-25.0
 30
0.0
 11
70.0971750445
 21
-20.0
 31
0.0
  0
LINE
  5
97
330
1F
100
AcDbEntity
  8
1
  6
SLD-Solid
370
    25
100
AcDbLine
 10
70.0971750445
 20
20.0
 30
0.0
 11
67.2104236986
 21
25.0
 31
0.0
  0
LINE
  5
98
330
1F
100
AcDbEntity
  8
1
  6
SLD-Solid
370
    25
100
AcDbLine
 10
7.6903384025
 20
31.75
 30
0.0
 11
4.0471750445
 21
31.75
 31
0.0
  0
LINE
  5
99
330
1F
100
AcDbEntity
  8
1
  6
SLD-Solid
370
    25
100
AcDbLine
 10
18.3971750445
 20
31.75
 30
0.0
 11
14.7340116866
 21
31.75
 31
0.0
  0
LINE
  5
9A
330
1F
100
AcDbEntity
  8
1
  6
SLD-Solid
370
    25
100
AcDbLine
 10
14.7340116866
 20
31.75
 30
0.0
 11
13.1271750445
 21
28.9668772965
 31
0.0
  0
LINE
  5
9B
330
1F
100
AcDbEntity
  8
1
  6
SLD-Solid
370
    25
100
AcDbLine
 10
9.2971750445
 20
28.9668772965
 30
0.0
 11
7.6903384025
 21
31.75
 31
0.0
  0
LINE
  5
9C
330
1F
100
AcDbEntity
  8
1
  6
SLD-Solid
370
    25
100
AcDbLine
 10
19.1471750445
 20
-24.8
 30
0.0
 11
28.9934273576
 21
-24.8
 31
0.0
  0
LINE
  5
9D
330
1F
100
AcDbEntity
  8
1
  6
SLD-Solid
370
    25
100
AcDbLine
 10
28.9934273576
 20
24.8
 30
0.0
 11
19.1471750445
 21
24.8
 31
0.0
  0
LINE
  5
9E
330
1F
100
AcDbEntity
  8
1
  6
SLD-Solid
370
    25
100
AcDbLine
 10
28.9934273576
 20
-24.8
 30
0.0
 11
37.4371750445
 21
-19.925
 31
0.0
  0
LINE
  5
9F
330
1F
100
AcDbEntity
  8
1
  6
SLD-Solid
370
    25
100
AcDbLine
 10
37.4371750445
 20
19.925
 30
0.0
 11
28.9934273576
 21
24.8
 31
0.0
  0
LINE
  5
A0
330
1F
100
AcDbEntity
  8
SK1
  6
SLD-Solid
370
    25
100
AcDbLine
 10
0.0971750445
 20
22.225
 30
0.0
 11
-67.2971331828
 21
12.3965705827
 31
0.0
  0
LINE
  5
A1
330
1F
100
AcDbEntity
  8
SK1
  6
SLD-Solid
370
    25
100
AcDbLine
 10
-67.2971331828
 20
-12.3965705827
 30
0.0
 11
0.0971750445
 21
-22.225
 31
0.0
  0
LINE
  5
A2
330
1F
100
AcDbEntity
  8
1
  6
SLD-Solid
370
    25
100
AcDbLine
 10
1.9841702672
 20
-22.225
 30
0.0
 11
2.2302113482
 21
-22.1102691597
 31
0.0
  0
LINE
  5
A3
330
1F
100
AcDbEntity
  8
1
  6
SLD-Solid
370
    25
100
AcDbLine
 10
2.2302113482
 20
22.1102691597
 30
0.0
 11
1.9841702672
 21
22.225
 31
0.0
  0
LINE
  5
A4
330
1F
100
AcDbEntity
  8
1
  6
SLD-Solid
370
    25
100
AcDbLine
 10
0.0971750445
 20
-22.225
 30
0.0
 11
1.9841702672
 21
-22.225
 31
0.0
  0
LINE
  5
A5
330
1F
100
AcDbEntity
  8
1
  6
SLD-Solid
370
    25
100
AcDbLine
 10
1.9841702672
 20
22.225
 30
0.0
 11
0.0971750445
 21
22.225
 31
0.0
  0
LINE
  5
A6
330
1F
100
AcDbEntity
  8
1
  6
SLD-Solid
370
    25
100
AcDbLine
 10
37.4371750445
 20
-19.925
 30
0.0
 11
47.5971750445
 21
-19.925
 31
0.0
  0
LINE
  5
A7
330
1F
100
AcDbEntity
  8
1
  6
SLD-Solid
370
    25
100
AcDbLine
 10
47.5971750445
 20
19.925
 30
0.0
 11
37.4371750445
 21
19.925
 31
0.0
  0
LINE
  5
A8
330
1F
100
AcDbEntity
  8
1
  6
SLD-Solid
370
    25
100
AcDbLine
 10
4.0471750445
 20
-31.75
 30
0.0
 11
7.6903384025
 21
-31.75
 31
0.0
  0
LINE
  5
A9
330
1F
100
AcDbEntity
  8
1
  6
SLD-Solid
370
    25
100
AcDbLine
 10
14.7340116866
 20
-31.75
 30
0.0
 11
18.3971750445
 21
-31.75
 31
0.0
  0
LINE
  5
AA
330
1F
100
AcDbEntity
  8
1
  6
SLD-Solid
370
    25
100
AcDbLine
 10
10.0471750445
 20
-28.0
 30
0.0
 11
12.3771750445
 21
-28.0
 31
0.0
  0
LINE
  5
AB
330
1F
100
AcDbEntity
  8
1
  6
SLD-Solid
370
    25
100
AcDbLine
 10
7.6903384025
 20
-31.75
 30
0.0
 11
9.2971750445
 21
-28.9668772965
 31
0.0
  0
LINE
  5
AC
330
1F
100
AcDbEntity
  8
1
  6
SLD-Solid
370
    25
100
AcDbLine
 10
13.1271750445
 20
-28.9668772965
 30
0.0
 11
14.7340116866
 21
-31.75
 31
0.0
  0
LINE
  5
AD
330
1F
100
AcDbEntity
  8
1
  6
SLD-Solid
370
    25
100
AcDbLine
 10
12.3771750445
 20
28.0
 30
0.0
 11
10.0471750445
 21
28.0
 31
0.0
  0
LINE
  5
AE
330
1F
100
AcDbEntity
  8
1
  6
SLD-Solid
370
    25
100
AcDbLine
 10
67.2104236986
 20
-23.0897402153
 30
0.0
 11
51.1565302232
 21
-23.0897402153
 31
0.0
  0
LINE
  5
AF
330
1F
100
AcDbEntity
  8
1
  6
SLD-Solid
370
    25
100
AcDbLine
 10
67.2104236986
 20
-23.0897402153
 30
0.0
 11
67.2104236986
 21
-25.0
 31
0.0
  0
LINE
  5
B0
330
1F
100
AcDbEntity
  8
1
  6
SLD-Solid
370
    25
100
AcDbLine
 10
67.2104236986
 20
25.0
 30
0.0
 11
67.2104236986
 21
23.0897402153
 31
0.0
  0
LINE
  5
B1
330
1F
100
AcDbEntity
  8
1
  6
SLD-Solid
370
    25
100
AcDbLine
 10
51.1565302232
 20
23.0897402153
 30
0.0
 11
67.2104236986
 21
23.0897402153
 31
0.0
  0
LINE
  5
B2
330
1F
100
AcDbEntity
  8
1
  6
SLD-Solid
370
    25
100
AcDbLine
 10
67.2104236986
 20
19.8453473585
 30
0.0
 11
51.1565302232
 21
19.8453473585
 31
0.0
  0
LINE
  5
B3
330
1F
100
AcDbEntity
  8
1
  6
SLD-Solid
370
    25
100
AcDbLine
 10
67.2104236986
 20
19.8453473585
 30
0.0
 11
67.2104236986
 21
3.2443928568
 31
0.0
  0
LINE
  5
B4
330
1F
100
AcDbEntity
  8
1
  6
SLD-Solid
370
    25
100
AcDbLine
 10
51.1565302232
 20
3.2443928568
 30
0.0
 11
67.2104236986
 21
3.2443928568
 31
0.0
  0
LINE
  5
B5
330
1F
100
AcDbEntity
  8
1
  6
SLD-Solid
370
    25
100
AcDbLine
 10
67.2104236986
 20
-3.2443928568
 30
0.0
 11
51.1565302232
 21
-3.2443928568
 31
0.0
  0
LINE
  5
B6
330
1F
100
AcDbEntity
  8
1
  6
SLD-Solid
370
    25
100
AcDbLine
 10
67.2104236986
 20
-3.2443928568
 30
0.0
 11
67.2104236986
 21
-19.8453473585
 31
0.0
  0
LINE
  5
B7
330
1F
100
AcDbEntity
  8
1
  6
SLD-Solid
370
    25
100
AcDbLine
 10
51.1565302232
 20
-19.8453473585
 30
0.0
 11
67.2104236986
 21
-19.8453473585
 31
0.0
  0
LINE
  5
B8
330
1F
100
AcDbEntity
  8
1
  6
SLD-Solid
370
    25
100
AcDbLine
 10
48.3971750445
 20
25.0
 30
0.0
 11
48.3971750445
 21
-25.0
 31
0.0
  0
LINE
  5
B9
330
1F
100
AcDbEntity
  8
1
  6
SLD-Solid
370
    25
100
AcDbLine
 10
47.5971750445
 20
24.2
 30
0.0
 11
47.5971750445
 21
-24.2
 31
0.0
  0
LINE
  5
BA
330
1F
100
AcDbEntity
  8
1
  6
SLD-Solid
370
    25
100
AcDbLine
 10
59.0971750445
 20
-2.5023945625
 30
0.0
 11
59.0971750445
 21
2.5023945625
 31
0.0
  0
LINE
  5
BB
330
1F
100
AcDbEntity
  8
1
  6
SLD-Solid
370
    25
100
AcDbLine
 10
68.8605714107
 20
-2.5023945625
 30
0.0
 11
67.2104236986
 21
-3.2443928568
 31
0.0
  0
LINE
  5
BC
330
1F
100
AcDbEntity
  8
1
  6
SLD-Solid
370
    25
100
AcDbLine
 10
67.2104236986
 20
3.2443928568
 30
0.0
 11
68.8605714107
 21
2.5023945625
 31
0.0
  0
LINE
  5
BD
330
1F
100
AcDbEntity
  8
1
  6
SLD-Solid
370
    25
100
AcDbLine
 10
68.8605714107
 20
17.801361602
 30
0.0
 11
67.2104236986
 21
19.8453473585
 31
0.0
  0
LINE
  5
BE
330
1F
100
AcDbEntity
  8
1
  6
SLD-Solid
370
    25
100
AcDbLine
 10
67.2104236986
 20
23.0897402153
 30
0.0
 11
68.8605714107
 21
20.3037561645
 31
0.0
  0
LINE
  5
BF
330
1F
100
AcDbEntity
  8
1
  6
SLD-Solid
370
    25
100
AcDbLine
 10
68.8605714107
 20
-20.3037561645
 30
0.0
 11
67.2104236986
 21
-23.0897402153
 31
0.0
  0
LINE
  5
C0
330
1F
100
AcDbEntity
  8
1
  6
SLD-Solid
370
    25
100
AcDbLine
 10
67.2104236986
 20
-19.8453473585
 30
0.0
 11
68.8605714107
 21
-17.801361602
 31
0.0
  0
LINE
  5
C1
330
1F
100
AcDbEntity
  8
1
  6
SLD-Solid
370
    25
100
AcDbLine
 10
70.0971750445
 20
20.0
 30
0.0
 11
70.0971750445
 21
-20.0
 31
0.0
  0
LINE
  5
C2
330
1F
100
AcDbEntity
  8
1
  6
SLD-Solid
370
    25
100
AcDbLine
 10
59.0971750445
 20
-2.5023945625
 30
0.0
 11
68.8605714107
 21
-2.5023945625
 31
0.0
  0
LINE
  5
C3
330
1F
100
AcDbEntity
  8
1
  6
SLD-Solid
370
    25
100
AcDbLine
 10
68.8605714107
 20
2.5023945625
 30
0.0
 11
59.0971750445
 21
2.5023945625
 31
0.0
  0
LINE
  5
C4
330
1F
100
AcDbEntity
  8
1
  6
SLD-Solid
370
    25
100
AcDbLine
 10
59.0971750445
 20
-20.3037561645
 30
0.0
 11
68.8605714107
 21
-20.3037561645
 31
0.0
  0
LINE
  5
C5
330
1F
100
AcDbEntity
  8
1
  6
SLD-Solid
370
    25
100
AcDbLine
 10
68.8605714107
 20
20.3037561645
 30
0.0
 11
59.0971750445
 21
20.3037561645
 31
0.0
  0
LINE
  5
C6
330
1F
100
AcDbEntity
  8
1
  6
SLD-Solid
370
    25
100
AcDbLine
 10
14.3680833524
 20
-8.095
 30
0.0
 11
18.3971750445
 21
-8.095
 31
0.0
  0
LINE
  5
C7
330
1F
100
AcDbEntity
  8
1
  6
SLD-Solid
370
    25
100
AcDbLine
 10
18.3971750445
 20
-8.73252
 30
0.0
 11
14.7340116866
 21
-8.73252
 31
0.0
  0
LINE
  5
C8
330
1F
100
AcDbEntity
  8
1
  6
SLD-Solid
370
    25
100
AcDbLine
 10
18.6471750445
 20
-8.095
 30
0.0
 11
19.1471750445
 21
-8.595
 31
0.0
  0
LINE
  5
C9
330
1F
100
AcDbEntity
  8
1
  6
SLD-Solid
370
    25
100
AcDbLine
 10
19.1471750445
 20
-18.35
 30
0.0
 11
19.1471750445
 21
-8.595
 31
0.0
  0
LINE
  5
CA
330
1F
100
AcDbEntity
  8
1
  6
SLD-Solid
370
    25
100
AcDbLine
 10
4.0471750445
 20
8.73252
 30
0.0
 11
7.6903384025
 21
8.73252
 31
0.0
  0
LINE
  5
CB
330
1F
100
AcDbEntity
  8
1
  6
SLD-Solid
370
    25
100
AcDbLine
 10
7.6903384025
 20
8.73252
 30
0.0
 11
7.6903384025
 21
31.75
 31
0.0
  0
LINE
  5
CC
330
1F
100
AcDbEntity
  8
1
  6
SLD-Solid
370
    25
100
AcDbLine
 10
3.2971750445
 20
8.595
 30
0.0
 11
3.7971750445
 21
8.095
 31
0.0
  0
LINE
  5
CD
330
1F
100
AcDbEntity
  8
1
  6
SLD-Solid
370
    25
100
AcDbLine
 10
8.0562667366
 20
8.095
 30
0.0
 11
4.0471750445
 21
8.095
 31
0.0
  0
LINE
  5
CE
330
1F
100
AcDbEntity
  8
1
  6
SLD-Solid
370
    25
100
AcDbLine
 10
3.2971750445
 20
8.595
 30
0.0
 11
3.2971750445
 21
31.0
 31
0.0
  0
LINE
  5
CF
330
1F
100
AcDbEntity
  8
1
  6
SLD-Solid
370
    25
100
AcDbLine
 10
14.7340116866
 20
-18.35
 30
0.0
 11
18.3971750445
 21
-18.35
 31
0.0
  0
LINE
  5
D0
330
1F
100
AcDbEntity
  8
1
  6
SLD-Solid
370
    25
100
AcDbLine
 10
14.7340116866
 20
-18.35
 30
0.0
 11
14.7340116866
 21
-8.73252
 31
0.0
  0
LINE
  5
D1
330
1F
100
AcDbEntity
  8
1
  6
SLD-Solid
370
    25
100
AcDbLine
 10
14.7340116866
 20
8.73252
 30
0.0
 11
18.3971750445
 21
8.73252
 31
0.0
  0
LINE
  5
D2
330
1F
100
AcDbEntity
  8
1
  6
SLD-Solid
370
    25
100
AcDbLine
 10
18.3971750445
 20
8.095
 30
0.0
 11
14.3680833524
 21
8.095
 31
0.0
  0
LINE
  5
D3
330
1F
100
AcDbEntity
  8
1
  6
SLD-Solid
370
    25
100
AcDbLine
 10
18.6471750445
 20
8.095
 30
0.0
 11
19.1471750445
 21
8.595
 31
0.0
  0
LINE
  5
D4
330
1F
100
AcDbEntity
  8
1
  6
SLD-Solid
370
    25
100
AcDbLine
 10
19.1471750445
 20
8.595
 30
0.0
 11
19.1471750445
 21
31.0
 31
0.0
  0
LINE
  5
D5
330
1F
100
AcDbEntity
  8
1
  6
SLD-Solid
370
    25
100
AcDbLine
 10
14.7340116866
 20
8.73252
 30
0.0
 11
14.7340116866
 21
31.75
 31
0.0
  0
LINE
  5
D6
330
1F
100
AcDbEntity
  8
1
  6
SLD-Solid
370
    25
100
AcDbLine
 10
7.6903384025
 20
-8.73252
 30
0.0
 11
4.0471750445
 21
-8.73252
 31
0.0
  0
LINE
  5
D7
330
1F
100
AcDbEntity
  8
1
  6
SLD-Solid
370
    25
100
AcDbLine
 10
4.0471750445
 20
-8.095
 30
0.0
 11
8.0562667366
 21
-8.095
 31
0.0
  0
LINE
  5
D8
330
1F
100
AcDbEntity
  8
1
  6
SLD-Solid
370
    25
100
AcDbLine
 10
3.2971750445
 20
-8.595
 30
0.0
 11
3.7971750445
 21
-8.095
 31
0.0
  0
LINE
  5
D9
330
1F
100
AcDbEntity
  8
1
  6
SLD-Solid
370
    25
100
AcDbLine
 10
4.0471750445
 20
-18.35
 30
0.0
 11
7.6903384025
 21
-18.35
 31
0.0
  0
LINE
  5
DA
330
1F
100
AcDbEntity
  8
1
  6
SLD-Solid
370
    25
100
AcDbLine
 10
7.6903384025
 20
-18.35
 30
0.0
 11
7.6903384025
 21
-8.73252
 31
0.0
  0
LINE
  5
DB
330
1F
100
AcDbEntity
  8
1
  6
SLD-Solid
370
    25
100
AcDbLine
 10
3.2971750445
 20
-18.35
 30
0.0
 11
3.2971750445
 21
-8.595
 31
0.0
  0
LINE
  5
DC
330
1F
100
AcDbEntity
  8
1
  6
SLD-Solid
370
    25
100
AcDbLine
 10
13.1271750445
 20
8.095
 30
0.0
 11
13.1271750445
 21
27.0172626808
 31
0.0
  0
LINE
  5
DD
330
1F
100
AcDbEntity
  8
1
  6
SLD-Solid
370
    25
100
AcDbLine
 10
13.1271750445
 20
27.4118626313
 30
0.0
 11
13.1271750445
 21
28.9668772965
 31
0.0
  0
LINE
  5
DE
330
1F
100
AcDbEntity
  8
1
  6
SLD-Solid
370
    25
100
AcDbLine
 10
13.1271750445
 20
-18.35
 30
0.0
 11
13.1271750445
 21
-8.095
 31
0.0
  0
LINE
  5
DF
330
1F
100
AcDbEntity
  8
1
  6
SLD-Solid
370
    25
100
AcDbLine
 10
9.2971750445
 20
27.4118626313
 30
0.0
 11
9.2971750445
 21
28.9668772965
 31
0.0
  0
LINE
  5
E0
330
1F
100
AcDbEntity
  8
1
  6
SLD-Solid
370
    25
100
AcDbLine
 10
9.2971750445
 20
8.095
 30
0.0
 11
9.2971750445
 21
27.0172626808
 31
0.0
  0
LINE
  5
E1
330
1F
100
AcDbEntity
  8
1
  6
SLD-Solid
370
    25
100
AcDbLine
 10
9.2971750445
 20
-18.35
 30
0.0
 11
9.2971750445
 21
-8.095
 31
0.0
  0
LINE
  5
E2
330
1F
100
AcDbEntity
  8
1
  6
SLD-Solid
370
    25
100
AcDbLine
 10
10.0471750445
 20
8.095
 30
0.0
 11
12.3771750445
 21
8.095
 31
0.0
  0
LINE
  5
E3
330
1F
100
AcDbEntity
  8
1
  6
SLD-Solid
370
    25
100
AcDbLine
 10
10.0471750445
 20
-18.35
 30
0.0
 11
12.3771750445
 21
-18.35
 31
0.0
  0
LINE
  5
E4
330
1F
100
AcDbEntity
  8
1
  6
SLD-Solid
370
    25
100
AcDbLine
 10
12.3771750445
 20
-8.095
 30
0.0
 11
10.0471750445
 21
-8.095
 31
0.0
  0
LINE
  5
E5
330
1F
100
AcDbEntity
  8
1
  6
SLD-Solid
370
    25
100
AcDbLine
 10
3.2971750445
 20
7.595
 30
0.0
 11
3.2971750445
 21
8.595
 31
0.0
  0
LINE
  5
E6
330
1F
100
AcDbEntity
  8
1
  6
SLD-Solid
370
    25
100
AcDbLine
 10
19.1471750445
 20
-7.595
 30
0.0
 11
19.1471750445
 21
-8.595
 31
0.0
  0
LINE
  5
E7
330
1F
100
AcDbEntity
  8
1
  6
SLD-Solid
370
    25
100
AcDbLine
 10
3.2971750445
 20
-8.595
 30
0.0
 11
3.2971750445
 21
-7.595
 31
0.0
  0
LINE
  5
E8
330
1F
100
AcDbEntity
  8
1
  6
SLD-Solid
370
    25
100
AcDbLine
 10
19.1471750445
 20
8.595
 30
0.0
 11
19.1471750445
 21
7.595
 31
0.0
  0
LINE
  5
E9
330
1F
100
AcDbEntity
  8
1
  6
SLD-Solid
370
    25
100
AcDbLine
 10
3.2971750445
 20
-7.595
 30
0.0
 11
3.2971750445
 21
7.595
 31
0.0
  0
LINE
  5
EA
330
1F
100
AcDbEntity
  8
1
  6
SLD-Solid
370
    25
100
AcDbLine
 10
28.9934273576
 20
-24.8
 30
0.0
 11
28.9934273576
 21
24.8
 31
0.0
  0
LINE
  5
EB
330
1F
100
AcDbEntity
  8
1
  6
SLD-Solid
370
    25
100
AcDbLine
 10
19.1471750445
 20
-4.9547956567
 30
0.0
 11
19.1471750445
 21
-7.595
 31
0.0
  0
LINE
  5
EC
330
1F
100
AcDbEntity
  8
1
  6
SLD-Solid
370
    25
100
AcDbLine
 10
19.1471750445
 20
7.595
 30
0.0
 11
19.1471750445
 21
4.9547956567
 31
0.0
  0
LINE
  5
ED
330
1F
100
AcDbEntity
  8
1
  6
SLD-Solid
370
    25
100
AcDbLine
 10
37.4371750445
 20
-19.925
 30
0.0
 11
37.4371750445
 21
19.925
 31
0.0
  0
LINE
  5
EE
330
1F
100
AcDbEntity
  8
1
  6
SLD-Solid
370
    25
100
AcDbLine
 10
0.0971750445
 20
-22.225
 30
0.0
 11
0.0971750445
 21
22.225
 31
0.0
  0
LINE
  5
EF
330
1F
100
AcDbEntity
  8
1
  6
SLD-Solid
370
    25
100
AcDbLine
 10
1.9841702672
 20
-22.225
 30
0.0
 11
1.9841702672
 21
22.225
 31
0.0
  0
LINE
  5
F0
330
1F
100
AcDbEntity
  8
1
  6
SLD-Solid
370
    25
100
AcDbLine
 10
3.2971750445
 20
-18.85
 30
0.0
 11
3.2971750445
 21
-18.35
 31
0.0
  0
LINE
  5
F1
330
1F
100
AcDbEntity
  8
1
  6
SLD-Solid
370
    25
100
AcDbLine
 10
19.1471750445
 20
-18.35
 30
0.0
 11
19.1471750445
 21
-18.85
 31
0.0
  0
LINE
  5
F2
330
1F
100
AcDbEntity
  8
1
  6
SLD-Solid
370
    25
100
AcDbLine
 10
7.6903384025
 20
-25.91022964
 30
0.0
 11
4.0471750445
 21
-25.91022964
 31
0.0
  0
LINE
  5
F3
330
1F
100
AcDbEntity
  8
1
  6
SLD-Solid
370
    25
100
AcDbLine
 10
7.6903384025
 20
-31.75
 30
0.0
 11
7.6903384025
 21
-25.91022964
 31
0.0
  0
LINE
  5
F4
330
1F
100
AcDbEntity
  8
1
  6
SLD-Solid
370
    25
100
AcDbLine
 10
18.3971750445
 20
-25.91022964
 30
0.0
 11
14.7340116866
 21
-25.91022964
 31
0.0
  0
LINE
  5
F5
330
1F
100
AcDbEntity
  8
1
  6
SLD-Solid
370
    25
100
AcDbLine
 10
14.7340116866
 20
-31.75
 30
0.0
 11
14.7340116866
 21
-25.91022964
 31
0.0
  0
LINE
  5
F6
330
1F
100
AcDbEntity
  8
1
  6
SLD-Solid
370
    25
100
AcDbLine
 10
3.2971750445
 20
-31.0
 30
0.0
 11
3.2971750445
 21
-24.9855458216
 31
0.0
  0
LINE
  5
F7
330
1F
100
AcDbEntity
  8
1
  6
SLD-Solid
370
    25
100
AcDbLine
 10
19.1471750445
 20
-31.0
 30
0.0
 11
19.1471750445
 21
-24.9855458215
 31
0.0
  0
LINE
  5
F8
330
1F
100
AcDbEntity
  8
1
  6
SLD-Solid
370
    25
100
AcDbLine
 10
12.3771750445
 20
-21.1489361435
 30
0.0
 11
10.0471750445
 21
-21.1489361435
 31
0.0
  0
LINE
  5
F9
330
1F
100
AcDbEntity
  8
1
  6
SLD-Solid
370
    25
100
AcDbLine
 10
9.2971750445
 20
-28.9668772965
 30
0.0
 11
9.2971750445
 21
-22.4133326462
 31
0.0
  0
LINE
  5
FA
330
1F
100
AcDbEntity
  8
1
  6
SLD-Solid
370
    25
100
AcDbLine
 10
13.1271750445
 20
-28.9668772965
 30
0.0
 11
13.1271750445
 21
-22.4133326462
 31
0.0
  0
LINE
  5
FB
330
1F
100
AcDbEntity
  8
1
  6
SLD-Solid
370
    25
100
AcDbLine
 10
13.1271750445
 20
-22.4133326462
 30
0.0
 11
13.1271750445
 21
-22.1323292945
 31
0.0
  0
LINE
  5
FC
330
1F
100
AcDbEntity
  8
1
  6
SLD-Solid
370
    25
100
AcDbLine
 10
9.2971750445
 20
-22.1323292945
 30
0.0
 11
9.2971750445
 21
-22.4133326462
 31
0.0
  0
LINE
  5
FD
330
1F
100
AcDbEntity
  8
1
  6
SLD-Solid
370
    25
100
AcDbLine
 10
3.2971750445
 20
-18.85
 30
0.0
 11
3.2971750445
 21
-24.9855458216
 31
0.0
  0
LINE
  5
FE
330
1F
100
AcDbEntity
  8
1
  6
SLD-Solid
370
    25
100
AcDbLine
 10
19.1471750445
 20
-18.85
 30
0.0
 11
19.1471750445
 21
-24.9855458215
 31
0.0
  0
LINE
  5
FF
330
1F
100
AcDbEntity
  8
SK1
  6
SLD-Solid
370
    25
100
AcDbLine
 10
-68.1528249555
 20
-11.4070377962
 30
0.0
 11
-68.1528249555
 21
11.4070377962
 31
0.0
  0
LINE
  5
100
330
1F
100
AcDbEntity
  8
1
  6
SLD-Solid
370
    25
100
AcDbLine
 10
9.2971750445
 20
27.2080239064
 30
0.0
 11
9.2971750445
 21
27.4118626313
 31
0.0
  0
LINE
  5
101
330
1F
100
AcDbEntity
  8
1
  6
SLD-Solid
370
    25
100
AcDbLine
 10
13.1271750445
 20
27.4118626313
 30
0.0
 11
13.1271750445
 21
27.2080239064
 31
0.0
  0
LINE
  5
102
330
1F
100
AcDbEntity
  8
1
  6
SLD-Solid
370
    25
100
AcDbLine
 10
59.0971750445
 20
-20.3037561645
 30
0.0
 11
59.0971750445
 21
-19.8453473585
 31
0.0
  0
LINE
  5
103
330
1F
100
AcDbEntity
  8
1
  6
SLD-Solid
370
    25
100
AcDbLine
 10
59.0971750445
 20
19.8453473585
 30
0.0
 11
59.0971750445
 21
20.3037561645
 31
0.0
  0
LINE
  5
104
330
1F
100
AcDbEntity
  8
SK3
  6
SLD-Dashed
370
    18
100
AcDbLine
 10
0.0
 20
11.0
 30
0.0
 11
0.0
 21
-11.0
 31
0.0
  0
LINE
  5
105
330
1F
100
AcDbEntity
  8
SK3
  6
SLD-Dashed
370
    18
100
AcDbLine
 10
-7.0
 20
11.0
 30
0.0
 11
-7.0
 21
-11.0
 31
0.0
  0
LINE
  5
106
330
1F
100
AcDbEntity
  8
SK3
  6
SLD-Dashed
370
    18
100
AcDbLine
 10
1.0
 20
10.0
 30
0.0
 11
1.0
 21
-10.0
 31
0.0
  0
LINE
  5
107
330
1F
100
AcDbEntity
  8
SK3
  6
SLD-Dashed
370
    18
100
AcDbLine
 10
-8.0
 20
10.0
 30
0.0
 11
-8.0
 21
-10.0
 31
0.0
  0
LINE
  5
108
330
1F
100
AcDbEntity
  8
SK3
  6
SLD-Dashed
370
    18
100
AcDbLine
 10
-8.0
 20
1.3888946052
 30
0.0
 11
-8.0
 21
-1.4971796802
 31
0.0
  0
LINE
  5
109
330
1F
100
AcDbEntity
  8
SK3
  6
SLD-Dashed
370
    18
100
AcDbLine
 10
1.0
 20
-1.4971796802
 30
0.0
 11
1.0
 21
1.3888946052
 31
0.0
  0
LINE
  5
10A
330
1F
100
AcDbEntity
  8
SK3
  6
SLD-Dashed
370
    18
100
AcDbLine
 10
-8.0
 20
2.8860742854
 30
0.0
 11
-8.0
 21
1.3888946052
 31
0.0
  0
LINE
  5
10B
330
1F
100
AcDbEntity
  8
SK3
  6
SLD-Dashed
370
    18
100
AcDbLine
 10
1.0
 20
1.3888946052
 30
0.0
 11
1.0
 21
2.8860742854
 31
0.0
  0
LINE
  5
10C
330
1F
100
AcDbEntity
  8
SK3
  6
SLD-Dashed
370
    18
100
AcDbLine
 10
-8.0
 20
-1.4971796802
 30
0.0
 11
-8.0
 21
-2.8860742854
 31
0.0
  0
LINE
  5
10D
330
1F
100
AcDbEntity
  8
SK3
  6
SLD-Dashed
370
    18
100
AcDbLine
 10
1.0
 20
-2.8860742854
 30
0.0
 11
1.0
 21
-1.4971796802
 31
0.0
  0
LINE
  5
10E
330
1F
100
AcDbEntity
  8
SK3
  6
SLD-Dashed
370
    18
100
AcDbLine
 10
-8.0
 20
1.4971796802
 30
0.0
 11
-8.0
 21
2.8860742854
 31
0.0
  0
LINE
  5
10F
330
1F
100
AcDbEntity
  8
SK3
  6
SLD-Dashed
370
    18
100
AcDbLine
 10
1.0
 20
2.8860742854
 30
0.0
 11
1.0
 21
1.4971796802
 31
0.0
  0
LINE
  5
110
330
1F
100
AcDbEntity
  8
SK3
  6
SLD-Dashed
370
    18
100
AcDbLine
 10
-8.0
 20
-2.8860742854
 30
0.0
 11
-8.0
 21
-1.3888946052
 31
0.0
  0
LINE
  5
111
330
1F
100
AcDbEntity
  8
SK3
  6
SLD-Dashed
370
    18
100
AcDbLine
 10
1.0
 20
-1.3888946052
 30
0.0
 11
1.0
 21
-2.8860742854
 31
0.0
  0
LINE
  5
112
330
1F
100
AcDbEntity
  8
SK3
  6
SLD-Dashed
370
    18
100
AcDbLine
 10
-8.0
 20
-1.3888946052
 30
0.0
 11
-8.0
 21
1.4971796802
 31
0.0
  0
LINE
  5
113
330
1F
100
AcDbEntity
  8
SK3
  6
SLD-Dashed
370
    18
100
AcDbLine
 10
1.0
 20
1.4971796802
 30
0.0
 11
1.0
 21
-1.3888946052
 31
0.0
  0
LINE
  5
114
330
1F
100
AcDbEntity
  8
1
  6
SLD-Dashed
370
    18
100
AcDbLine
 10
13.205283916
 20
27.3467456154
 30
0.0
 11
13.2095588108
 21
27.3888561012
 31
0.0
  0
LINE
  5
115
330
1F
100
AcDbEntity
  8
1
  6
SLD-Dashed
370
    18
100
AcDbLine
 10
9.2303580928
 20
27.4195712955
 30
0.0
 11
9.219066173
 21
27.3465480095
 31
0.0
  0
LINE
  5
116
330
1F
100
AcDbEntity
  8
SK3
  6
SLD-Dashed
370
    18
100
AcDbLine
 10
57.4371750445
 20
16.9867328729
 30
0.0
 11
57.4371750445
 21
-16.9867328729
 31
0.0
  0
LINE
  5
117
330
1F
100
AcDbEntity
  8
SK3
  6
SLD-Dashed
370
    18
100
AcDbLine
 10
27.4371750445
 20
11.9047562899
 30
0.0
 11
27.4371750445
 21
-11.9047562899
 31
0.0
  0
LINE
  5
118
330
1F
100
AcDbEntity
  8
SK3
  6
SLD-Dashed
370
    18
100
AcDbLine
 10
27.4371750445
 20
12.05
 30
0.0
 11
27.4371750445
 21
-12.05
 31
0.0
  0
LINE
  5
119
330
1F
100
AcDbEntity
  8
SK3
  6
SLD-Dashed
370
    18
100
AcDbLine
 10
22.4371750445
 20
12.05
 30
0.0
 11
22.4371750445
 21
-12.05
 31
0.0
  0
LINE
  5
11A
330
1F
100
AcDbEntity
  8
SK3
  6
SLD-Dashed
370
    18
100
AcDbLine
 10
21.3556259303
 20
10.25
 30
0.0
 11
21.3556259303
 21
-10.25
 31
0.0
  0
LINE
  5
11B
330
1F
100
AcDbEntity
  8
SK3
  6
SLD-Dashed
370
    18
100
AcDbLine
 10
9.3047895956
 20
22.8463546101
 30
0.0
 11
9.5093552348
 21
22.69332231
 31
0.0
  0
LINE
  5
11C
330
1F
100
AcDbEntity
  8
SK3
  6
SLD-Dashed
370
    18
100
AcDbLine
 10
9.5093552348
 20
22.69332231
 30
0.0
 11
9.8169612821
 21
22.5620003576
 31
0.0
  0
LINE
  5
11D
330
1F
100
AcDbEntity
  8
SK3
  6
SLD-Dashed
370
    18
100
AcDbLine
 10
9.8169612821
 20
22.5620003576
 30
0.0
 11
10.2089939929
 21
22.4603352586
 31
0.0
  0
LINE
  5
11E
330
1F
100
AcDbEntity
  8
SK3
  6
SLD-Dashed
370
    18
100
AcDbLine
 10
10.2089939929
 20
22.4603352586
 30
0.0
 11
10.6617308277
 21
22.3944789343
 31
0.0
  0
LINE
  5
11F
330
1F
100
AcDbEntity
  8
SK3
  6
SLD-Dashed
370
    18
100
AcDbLine
 10
10.6617308277
 20
22.3944789343
 30
0.0
 11
11.1477759411
 21
22.3684164585
 31
0.0
  0
LINE
  5
120
330
1F
100
AcDbEntity
  8
SK3
  6
SLD-Dashed
370
    18
100
AcDbLine
 10
11.1477759411
 20
22.3684164585
 30
0.0
 11
11.6377179494
 21
22.383724914
 31
0.0
  0
LINE
  5
121
330
1F
100
AcDbEntity
  8
SK3
  6
SLD-Dashed
370
    18
100
AcDbLine
 10
11.6377179494
 20
22.383724914
 30
0.0
 11
12.1019096615
 21
22.4394779612
 31
0.0
  0
LINE
  5
122
330
1F
100
AcDbEntity
  8
SK3
  6
SLD-Dashed
370
    18
100
AcDbLine
 10
12.1019096615
 20
22.4394779612
 30
0.0
 11
12.5122620787
 21
22.5323018923
 31
0.0
  0
LINE
  5
123
330
1F
100
AcDbEntity
  8
SK3
  6
SLD-Dashed
370
    18
100
AcDbLine
 10
12.5122620787
 20
22.5323018923
 30
0.0
 11
12.843944106
 21
22.6565797794
 31
0.0
  0
LINE
  5
124
330
1F
100
AcDbEntity
  8
SK3
  6
SLD-Dashed
370
    18
100
AcDbLine
 10
12.843944106
 20
22.6565797794
 30
0.0
 11
13.0768851222
 21
22.8047913648
 31
0.0
  0
LINE
  5
125
330
1F
100
AcDbEntity
  8
SK3
  6
SLD-Dashed
370
    18
100
AcDbLine
 10
13.0768851222
 20
22.8047913648
 30
0.0
 11
13.1969894859
 21
22.9679681232
 31
0.0
  0
LINE
  5
126
330
1F
100
AcDbEntity
  8
SK3
  6
SLD-Dashed
370
    18
100
AcDbLine
 10
13.1969894859
 20
22.9679681232
 30
0.0
 11
13.1969894859
 21
23.1362359625
 31
0.0
  0
LINE
  5
127
330
1F
100
AcDbEntity
  8
SK3
  6
SLD-Dashed
370
    18
100
AcDbLine
 10
13.1969894859
 20
23.1362359625
 30
0.0
 11
13.0768851222
 21
23.2994127209
 31
0.0
  0
LINE
  5
128
330
1F
100
AcDbEntity
  8
SK3
  6
SLD-Dashed
370
    18
100
AcDbLine
 10
13.0768851222
 20
23.2994127209
 30
0.0
 11
12.843944106
 21
23.4476243063
 31
0.0
  0
LINE
  5
129
330
1F
100
AcDbEntity
  8
SK3
  6
SLD-Dashed
370
    18
100
AcDbLine
 10
12.843944106
 20
23.4476243063
 30
0.0
 11
12.5122620787
 21
23.5719021934
 31
0.0
  0
LINE
  5
12A
330
1F
100
AcDbEntity
  8
SK3
  6
SLD-Dashed
370
    18
100
AcDbLine
 10
12.5122620787
 20
23.5719021934
 30
0.0
 11
12.1019096615
 21
23.6647261245
 31
0.0
  0
LINE
  5
12B
330
1F
100
AcDbEntity
  8
SK3
  6
SLD-Dashed
370
    18
100
AcDbLine
 10
12.1019096615
 20
23.6647261245
 30
0.0
 11
11.6377179494
 21
23.7204791717
 31
0.0
  0
LINE
  5
12C
330
1F
100
AcDbEntity
  8
SK3
  6
SLD-Dashed
370
    18
100
AcDbLine
 10
11.6377179494
 20
23.7204791717
 30
0.0
 11
11.1477759411
 21
23.7357876272
 31
0.0
  0
LINE
  5
12D
330
1F
100
AcDbEntity
  8
SK3
  6
SLD-Dashed
370
    18
100
AcDbLine
 10
11.1477759411
 20
23.7357876272
 30
0.0
 11
10.6617308277
 21
23.7097251514
 31
0.0
  0
LINE
  5
12E
330
1F
100
AcDbEntity
  8
SK3
  6
SLD-Dashed
370
    18
100
AcDbLine
 10
10.6617308277
 20
23.7097251514
 30
0.0
 11
10.2089939929
 21
23.6438688271
 31
0.0
  0
LINE
  5
12F
330
1F
100
AcDbEntity
  8
SK3
  6
SLD-Dashed
370
    18
100
AcDbLine
 10
10.2089939929
 20
23.6438688271
 30
0.0
 11
9.8169612821
 21
23.5422037281
 31
0.0
  0
LINE
  5
130
330
1F
100
AcDbEntity
  8
SK3
  6
SLD-Dashed
370
    18
100
AcDbLine
 10
9.8169612821
 20
23.5422037281
 30
0.0
 11
9.5093552348
 21
23.4108817757
 31
0.0
  0
LINE
  5
131
330
1F
100
AcDbEntity
  8
SK3
  6
SLD-Dashed
370
    18
100
AcDbLine
 10
9.5093552348
 20
23.4108817757
 30
0.0
 11
9.3047895956
 21
23.2578494756
 31
0.0
  0
LINE
  5
132
330
1F
100
AcDbEntity
  8
1
  6
SLD-Dashed
370
    18
100
AcDbLine
 10
13.1271750445
 20
26.813423956
 30
0.0
 11
13.1271750445
 21
27.0172626808
 31
0.0
  0
LINE
  5
133
330
1F
100
AcDbEntity
  8
1
  6
SLD-Dashed
370
    18
100
AcDbLine
 10
9.2971750445
 20
27.0172626808
 30
0.0
 11
9.2971750445
 21
26.813423956
 31
0.0
  0
LINE
  5
134
330
1F
100
AcDbEntity
  8
SK3
  6
SLD-Dashed
370
    18
100
AcDbLine
 10
3.40720037
 20
22.7838057852
 30
0.0
 11
3.5243771463
 21
22.7676693301
 31
0.0
  0
LINE
  5
135
330
1F
100
AcDbEntity
  8
SK3
  6
SLD-Dashed
370
    18
100
AcDbLine
 10
3.5243771463
 20
22.7676693301
 30
0.0
 11
3.7051300897
 21
22.8449685093
 31
0.0
  0
LINE
  5
136
330
1F
100
AcDbEntity
  8
SK3
  6
SLD-Dashed
370
    18
100
AcDbLine
 10
3.7051300897
 20
22.8449685093
 30
0.0
 11
3.9389544961
 21
23.0112109753
 31
0.0
  0
LINE
  5
137
330
1F
100
AcDbEntity
  8
SK3
  6
SLD-Dashed
370
    18
100
AcDbLine
 10
3.9389544961
 20
23.0112109753
 30
0.0
 11
4.212261341
 21
23.2567353205
 31
0.0
  0
LINE
  5
138
330
1F
100
AcDbEntity
  8
SK3
  6
SLD-Dashed
370
    18
100
AcDbLine
 10
4.212261341
 20
23.2567353205
 30
0.0
 11
4.5091670239
 21
23.5672725622
 31
0.0
  0
LINE
  5
139
330
1F
100
AcDbEntity
  8
SK3
  6
SLD-Dashed
370
    18
100
AcDbLine
 10
4.5091670239
 20
23.5672725622
 30
0.0
 11
4.8124164658
 21
23.9247754047
 31
0.0
  0
LINE
  5
13A
330
1F
100
AcDbEntity
  8
SK3
  6
SLD-Dashed
370
    18
100
AcDbLine
 10
4.8124164658
 20
23.9247754047
 30
0.0
 11
5.1043859113
 21
24.3084670823
 31
0.0
  0
LINE
  5
13B
330
1F
100
AcDbEntity
  8
SK3
  6
SLD-Dashed
370
    18
100
AcDbLine
 10
5.1043859113
 20
24.3084670823
 30
0.0
 11
5.3681071576
 21
24.6960488293
 31
0.0
  0
LINE
  5
13C
330
1F
100
AcDbEntity
  8
SK3
  6
SLD-Dashed
370
    18
100
AcDbLine
 10
5.3681071576
 20
24.6960488293
 30
0.0
 11
5.5882536844
 21
25.0649958035
 31
0.0
  0
LINE
  5
13D
330
1F
100
AcDbEntity
  8
SK3
  6
SLD-Dashed
370
    18
100
AcDbLine
 10
5.5882536844
 20
25.0649958035
 30
0.0
 11
5.7520313758
 21
25.3938661477
 31
0.0
  0
LINE
  5
13E
330
1F
100
AcDbEntity
  8
SK3
  6
SLD-Dashed
370
    18
100
AcDbLine
 10
5.7520313758
 20
25.3938661477
 30
0.0
 11
5.8499220677
 21
25.6635471129
 31
0.0
  0
LINE
  5
13F
330
1F
100
AcDbEntity
  8
SK3
  6
SLD-Dashed
370
    18
100
AcDbLine
 10
5.8499220677
 20
25.6635471129
 30
0.0
 11
5.8762367088
 21
25.8583658217
 31
0.0
  0
LINE
  5
140
330
1F
100
AcDbEntity
  8
SK3
  6
SLD-Dashed
370
    18
100
AcDbLine
 10
5.8762367088
 20
25.8583658217
 30
0.0
 11
5.8294459879
 21
25.9670001189
 31
0.0
  0
LINE
  5
141
330
1F
100
AcDbEntity
  8
SK3
  6
SLD-Dashed
370
    18
100
AcDbLine
 10
5.8294459879
 20
25.9670001189
 30
0.0
 11
5.7122692116
 21
25.983136574
 31
0.0
  0
LINE
  5
142
330
1F
100
AcDbEntity
  8
SK3
  6
SLD-Dashed
370
    18
100
AcDbLine
 10
5.7122692116
 20
25.983136574
 30
0.0
 11
5.5315162682
 21
25.9058373948
 31
0.0
  0
LINE
  5
143
330
1F
100
AcDbEntity
  8
SK3
  6
SLD-Dashed
370
    18
100
AcDbLine
 10
5.5315162682
 20
25.9058373948
 30
0.0
 11
5.2976918618
 21
25.7395949287
 31
0.0
  0
LINE
  5
144
330
1F
100
AcDbEntity
  8
SK3
  6
SLD-Dashed
370
    18
100
AcDbLine
 10
5.2976918618
 20
25.7395949287
 30
0.0
 11
5.024385017
 21
25.4940705836
 31
0.0
  0
LINE
  5
145
330
1F
100
AcDbEntity
  8
SK3
  6
SLD-Dashed
370
    18
100
AcDbLine
 10
5.024385017
 20
25.4940705836
 30
0.0
 11
4.7274793341
 21
25.1835333419
 31
0.0
  0
LINE
  5
146
330
1F
100
AcDbEntity
  8
SK3
  6
SLD-Dashed
370
    18
100
AcDbLine
 10
4.7274793341
 20
25.1835333419
 30
0.0
 11
4.4242298922
 21
24.8260304994
 31
0.0
  0
LINE
  5
147
330
1F
100
AcDbEntity
  8
SK3
  6
SLD-Dashed
370
    18
100
AcDbLine
 10
4.4242298922
 20
24.8260304994
 30
0.0
 11
4.1322604467
 21
24.4423388218
 31
0.0
  0
LINE
  5
148
330
1F
100
AcDbEntity
  8
SK3
  6
SLD-Dashed
370
    18
100
AcDbLine
 10
4.1322604467
 20
24.4423388218
 30
0.0
 11
3.8685392003
 21
24.0547570748
 31
0.0
  0
LINE
  5
149
330
1F
100
AcDbEntity
  8
SK3
  6
SLD-Dashed
370
    18
100
AcDbLine
 10
3.8685392003
 20
24.0547570748
 30
0.0
 11
3.6483926735
 21
23.6858101006
 31
0.0
  0
LINE
  5
14A
330
1F
100
AcDbEntity
  8
SK3
  6
SLD-Dashed
370
    18
100
AcDbLine
 10
3.6483926735
 20
23.6858101006
 30
0.0
 11
3.4846149821
 21
23.3569397564
 31
0.0
  0
LINE
  5
14B
330
1F
100
AcDbEntity
  8
SK3
  6
SLD-Dashed
370
    18
100
AcDbLine
 10
3.4846149821
 20
23.3569397564
 30
0.0
 11
3.3867242903
 21
23.0872587912
 31
0.0
  0
LINE
  5
14C
330
1F
100
AcDbEntity
  8
SK3
  6
SLD-Dashed
370
    18
100
AcDbLine
 10
3.3867242903
 20
23.0872587912
 30
0.0
 11
3.3604096491
 21
22.8924400823
 31
0.0
  0
LINE
  5
14D
330
1F
100
AcDbEntity
  8
SK3
  6
SLD-Dashed
370
    18
100
AcDbLine
 10
3.3604096491
 20
22.8924400823
 30
0.0
 11
3.40720037
 21
22.7838057852
 31
0.0
  0
LINE
  5
14E
330
1F
100
AcDbEntity
  8
SK3
  6
SLD-Dashed
370
    18
100
AcDbLine
 10
3.2971750445
 20
22.8742979511
 30
0.0
 11
3.2971750445
 21
27.8871582268
 31
0.0
  0
LINE
  5
14F
330
1F
100
AcDbEntity
  8
SK3
  6
SLD-Dashed
370
    18
100
AcDbLine
 10
3.4374784403
 20
22.8235957143
 30
0.0
 11
3.5517257972
 21
22.8078626706
 31
0.0
  0
LINE
  5
150
330
1F
100
AcDbEntity
  8
SK3
  6
SLD-Dashed
370
    18
100
AcDbLine
 10
3.5517257972
 20
22.8078626706
 30
0.0
 11
3.727959917
 21
22.8832293703
 31
0.0
  0
LINE
  5
151
330
1F
100
AcDbEntity
  8
SK3
  6
SLD-Dashed
370
    18
100
AcDbLine
 10
3.727959917
 20
22.8832293703
 30
0.0
 11
3.9559387132
 21
23.0453157748
 31
0.0
  0
LINE
  5
152
330
1F
100
AcDbEntity
  8
SK3
  6
SLD-Dashed
370
    18
100
AcDbLine
 10
3.9559387132
 20
23.0453157748
 30
0.0
 11
4.2224128869
 21
23.2847020113
 31
0.0
  0
LINE
  5
153
330
1F
100
AcDbEntity
  8
SK3
  6
SLD-Dashed
370
    18
100
AcDbLine
 10
4.2224128869
 20
23.2847020113
 30
0.0
 11
4.5118959278
 21
23.5874758219
 31
0.0
  0
LINE
  5
154
330
1F
100
AcDbEntity
  8
SK3
  6
SLD-Dashed
370
    18
100
AcDbLine
 10
4.5118959278
 20
23.5874758219
 30
0.0
 11
4.8075641336
 21
23.9360410934
 31
0.0
  0
LINE
  5
155
330
1F
100
AcDbEntity
  8
SK3
  6
SLD-Dashed
370
    18
100
AcDbLine
 10
4.8075641336
 20
23.9360410934
 30
0.0
 11
5.092234343
 21
24.310140479
 31
0.0
  0
LINE
  5
156
330
1F
100
AcDbEntity
  8
SK3
  6
SLD-Dashed
370
    18
100
AcDbLine
 10
5.092234343
 20
24.310140479
 30
0.0
 11
5.3493625582
 21
24.6880326824
 31
0.0
  0
LINE
  5
157
330
1F
100
AcDbEntity
  8
SK3
  6
SLD-Dashed
370
    18
100
AcDbLine
 10
5.3493625582
 20
24.6880326824
 30
0.0
 11
5.5640054218
 21
25.0477559822
 31
0.0
  0
LINE
  5
158
330
1F
100
AcDbEntity
  8
SK3
  6
SLD-Dashed
370
    18
100
AcDbLine
 10
5.5640054218
 20
25.0477559822
 30
0.0
 11
5.7236886709
 21
25.3684045678
 31
0.0
  0
LINE
  5
159
330
1F
100
AcDbEntity
  8
SK3
  6
SLD-Dashed
370
    18
100
AcDbLine
 10
5.7236886709
 20
25.3684045678
 30
0.0
 11
5.8191320955
 21
25.6313435089
 31
0.0
  0
LINE
  5
15A
330
1F
100
AcDbEntity
  8
SK3
  6
SLD-Dashed
370
    18
100
AcDbLine
 10
5.8191320955
 20
25.6313435089
 30
0.0
 11
5.8447888706
 21
25.82129175
 31
0.0
  0
LINE
  5
15B
330
1F
100
AcDbEntity
  8
SK3
  6
SLD-Dashed
370
    18
100
AcDbLine
 10
5.8447888706
 20
25.82129175
 30
0.0
 11
5.7991679177
 21
25.9272101898
 31
0.0
  0
LINE
  5
15C
330
1F
100
AcDbEntity
  8
SK3
  6
SLD-Dashed
370
    18
100
AcDbLine
 10
5.7991679177
 20
25.9272101898
 30
0.0
 11
5.6849205608
 21
25.9429432334
 31
0.0
  0
LINE
  5
15D
330
1F
100
AcDbEntity
  8
SK3
  6
SLD-Dashed
370
    18
100
AcDbLine
 10
5.6849205608
 20
25.9429432334
 30
0.0
 11
5.508686441
 21
25.8675765338
 31
0.0
  0
LINE
  5
15E
330
1F
100
AcDbEntity
  8
SK3
  6
SLD-Dashed
370
    18
100
AcDbLine
 10
5.508686441
 20
25.8675765338
 30
0.0
 11
5.2807076448
 21
25.7054901293
 31
0.0
  0
LINE
  5
15F
330
1F
100
AcDbEntity
  8
SK3
  6
SLD-Dashed
370
    18
100
AcDbLine
 10
5.2807076448
 20
25.7054901293
 30
0.0
 11
5.014233471
 21
25.4661038928
 31
0.0
  0
LINE
  5
160
330
1F
100
AcDbEntity
  8
SK3
  6
SLD-Dashed
370
    18
100
AcDbLine
 10
5.014233471
 20
25.4661038928
 30
0.0
 11
4.7247504302
 21
25.1633300822
 31
0.0
  0
LINE
  5
161
330
1F
100
AcDbEntity
  8
SK3
  6
SLD-Dashed
370
    18
100
AcDbLine
 10
4.7247504302
 20
25.1633300822
 30
0.0
 11
4.4290822244
 21
24.8147648107
 31
0.0
  0
LINE
  5
162
330
1F
100
AcDbEntity
  8
SK3
  6
SLD-Dashed
370
    18
100
AcDbLine
 10
4.4290822244
 20
24.8147648107
 30
0.0
 11
4.144412015
 21
24.4406654251
 31
0.0
  0
LINE
  5
163
330
1F
100
AcDbEntity
  8
SK3
  6
SLD-Dashed
370
    18
100
AcDbLine
 10
4.144412015
 20
24.4406654251
 30
0.0
 11
3.8872837998
 21
24.0627732217
 31
0.0
  0
LINE
  5
164
330
1F
100
AcDbEntity
  8
SK3
  6
SLD-Dashed
370
    18
100
AcDbLine
 10
3.8872837998
 20
24.0627732217
 30
0.0
 11
3.6726409362
 21
23.7030499219
 31
0.0
  0
LINE
  5
165
330
1F
100
AcDbEntity
  8
SK3
  6
SLD-Dashed
370
    18
100
AcDbLine
 10
3.6726409362
 20
23.7030499219
 30
0.0
 11
3.512957687
 21
23.3824013363
 31
0.0
  0
LINE
  5
166
330
1F
100
AcDbEntity
  8
SK3
  6
SLD-Dashed
370
    18
100
AcDbLine
 10
3.512957687
 20
23.3824013363
 30
0.0
 11
3.4175142625
 21
23.1194623952
 31
0.0
  0
LINE
  5
167
330
1F
100
AcDbEntity
  8
SK3
  6
SLD-Dashed
370
    18
100
AcDbLine
 10
3.4175142625
 20
23.1194623952
 30
0.0
 11
3.3918574874
 21
22.9295141541
 31
0.0
  0
LINE
  5
168
330
1F
100
AcDbEntity
  8
SK3
  6
SLD-Dashed
370
    18
100
AcDbLine
 10
3.3918574874
 20
22.9295141541
 30
0.0
 11
3.4374784403
 21
22.8235957143
 31
0.0
  0
LINE
  5
169
330
1F
100
AcDbEntity
  8
SK3
  6
SLD-Dashed
370
    18
100
AcDbLine
 10
14.0843781122
 20
14.7218578465
 30
0.0
 11
14.1986254691
 21
14.7061248028
 31
0.0
  0
LINE
  5
16A
330
1F
100
AcDbEntity
  8
SK3
  6
SLD-Dashed
370
    18
100
AcDbLine
 10
14.1986254691
 20
14.7061248028
 30
0.0
 11
14.3748595889
 21
14.7814915025
 31
0.0
  0
LINE
  5
16B
330
1F
100
AcDbEntity
  8
SK3
  6
SLD-Dashed
370
    18
100
AcDbLine
 10
14.3748595889
 20
14.7814915025
 30
0.0
 11
14.6028383852
 21
14.9435779069
 31
0.0
  0
LINE
  5
16C
330
1F
100
AcDbEntity
  8
SK3
  6
SLD-Dashed
370
    18
100
AcDbLine
 10
14.6028383852
 20
14.9435779069
 30
0.0
 11
14.8693125589
 21
15.1829641434
 31
0.0
  0
LINE
  5
16D
330
1F
100
AcDbEntity
  8
SK3
  6
SLD-Dashed
370
    18
100
AcDbLine
 10
14.8693125589
 20
15.1829641434
 30
0.0
 11
15.1587955997
 21
15.4857379541
 31
0.0
  0
LINE
  5
16E
330
1F
100
AcDbEntity
  8
SK3
  6
SLD-Dashed
370
    18
100
AcDbLine
 10
15.1587955997
 20
15.4857379541
 30
0.0
 11
15.4544638056
 21
15.8343032255
 31
0.0
  0
LINE
  5
16F
330
1F
100
AcDbEntity
  8
SK3
  6
SLD-Dashed
370
    18
100
AcDbLine
 10
15.4544638056
 20
15.8343032255
 30
0.0
 11
15.739134015
 21
16.2084026112
 31
0.0
  0
LINE
  5
170
330
1F
100
AcDbEntity
  8
SK3
  6
SLD-Dashed
370
    18
100
AcDbLine
 10
15.739134015
 20
16.2084026112
 30
0.0
 11
15.9962622301
 21
16.5862948145
 31
0.0
  0
LINE
  5
171
330
1F
100
AcDbEntity
  8
SK3
  6
SLD-Dashed
370
    18
100
AcDbLine
 10
15.9962622301
 20
16.5862948145
 30
0.0
 11
16.2109050938
 21
16.9460181144
 31
0.0
  0
LINE
  5
172
330
1F
100
AcDbEntity
  8
SK3
  6
SLD-Dashed
370
    18
100
AcDbLine
 10
16.2109050938
 20
16.9460181144
 30
0.0
 11
16.3705883429
 21
17.2666667
 31
0.0
  0
LINE
  5
173
330
1F
100
AcDbEntity
  8
SK3
  6
SLD-Dashed
370
    18
100
AcDbLine
 10
16.3705883429
 20
17.2666667
 30
0.0
 11
16.4660317675
 21
17.5296056411
 31
0.0
  0
LINE
  5
174
330
1F
100
AcDbEntity
  8
SK3
  6
SLD-Dashed
370
    18
100
AcDbLine
 10
16.4660317675
 20
17.5296056411
 30
0.0
 11
16.4916885425
 21
17.7195538822
 31
0.0
  0
LINE
  5
175
330
1F
100
AcDbEntity
  8
SK3
  6
SLD-Dashed
370
    18
100
AcDbLine
 10
16.4916885425
 20
17.7195538822
 30
0.0
 11
16.4460675897
 21
17.8254723219
 31
0.0
  0
LINE
  5
176
330
1F
100
AcDbEntity
  8
SK3
  6
SLD-Dashed
370
    18
100
AcDbLine
 10
16.4460675897
 20
17.8254723219
 30
0.0
 11
16.3318202328
 21
17.8412053656
 31
0.0
  0
LINE
  5
177
330
1F
100
AcDbEntity
  8
SK3
  6
SLD-Dashed
370
    18
100
AcDbLine
 10
16.3318202328
 20
17.8412053656
 30
0.0
 11
16.155586113
 21
17.7658386659
 31
0.0
  0
LINE
  5
178
330
1F
100
AcDbEntity
  8
SK3
  6
SLD-Dashed
370
    18
100
AcDbLine
 10
16.155586113
 20
17.7658386659
 30
0.0
 11
15.9276073167
 21
17.6037522615
 31
0.0
  0
LINE
  5
179
330
1F
100
AcDbEntity
  8
SK3
  6
SLD-Dashed
370
    18
100
AcDbLine
 10
15.9276073167
 20
17.6037522615
 30
0.0
 11
15.661133143
 21
17.364366025
 31
0.0
  0
LINE
  5
17A
330
1F
100
AcDbEntity
  8
SK3
  6
SLD-Dashed
370
    18
100
AcDbLine
 10
15.661133143
 20
17.364366025
 30
0.0
 11
15.3716501022
 21
17.0615922143
 31
0.0
  0
LINE
  5
17B
330
1F
100
AcDbEntity
  8
SK3
  6
SLD-Dashed
370
    18
100
AcDbLine
 10
15.3716501022
 20
17.0615922143
 30
0.0
 11
15.0759818963
 21
16.7130269429
 31
0.0
  0
LINE
  5
17C
330
1F
100
AcDbEntity
  8
SK3
  6
SLD-Dashed
370
    18
100
AcDbLine
 10
15.0759818963
 20
16.7130269429
 30
0.0
 11
14.7913116869
 21
16.3389275572
 31
0.0
  0
LINE
  5
17D
330
1F
100
AcDbEntity
  8
SK3
  6
SLD-Dashed
370
    18
100
AcDbLine
 10
14.7913116869
 20
16.3389275572
 30
0.0
 11
14.5341834718
 21
15.9610353539
 31
0.0
  0
LINE
  5
17E
330
1F
100
AcDbEntity
  8
SK3
  6
SLD-Dashed
370
    18
100
AcDbLine
 10
14.5341834718
 20
15.9610353539
 30
0.0
 11
14.3195406081
 21
15.601312054
 31
0.0
  0
LINE
  5
17F
330
1F
100
AcDbEntity
  8
SK3
  6
SLD-Dashed
370
    18
100
AcDbLine
 10
14.3195406081
 20
15.601312054
 30
0.0
 11
14.159857359
 21
15.2806634684
 31
0.0
  0
LINE
  5
180
330
1F
100
AcDbEntity
  8
SK3
  6
SLD-Dashed
370
    18
100
AcDbLine
 10
14.159857359
 20
15.2806634684
 30
0.0
 11
14.0644139344
 21
15.0177245273
 31
0.0
  0
LINE
  5
181
330
1F
100
AcDbEntity
  8
SK3
  6
SLD-Dashed
370
    18
100
AcDbLine
 10
14.0644139344
 20
15.0177245273
 30
0.0
 11
14.0387571593
 21
14.8277762862
 31
0.0
  0
LINE
  5
182
330
1F
100
AcDbEntity
  8
SK3
  6
SLD-Dashed
370
    18
100
AcDbLine
 10
14.0387571593
 20
14.8277762862
 30
0.0
 11
14.0843781122
 21
14.7218578465
 31
0.0
  0
LINE
  5
183
330
1F
100
AcDbEntity
  8
SK3
  6
SLD-Dashed
370
    18
100
AcDbLine
 10
11.2121750445
 20
22.4877688064
 30
0.0
 11
11.6392264689
 21
22.5069979951
 31
0.0
  0
LINE
  5
184
330
1F
100
AcDbEntity
  8
SK3
  6
SLD-Dashed
370
    18
100
AcDbLine
 10
11.6392264689
 20
22.5069979951
 30
0.0
 11
12.0371750445
 21
22.5633751239
 31
0.0
  0
LINE
  5
185
330
1F
100
AcDbEntity
  8
SK3
  6
SLD-Dashed
370
    18
100
AcDbLine
 10
12.0371750445
 20
22.5633751239
 30
0.0
 11
12.3789012335
 21
22.6530581845
 31
0.0
  0
LINE
  5
186
330
1F
100
AcDbEntity
  8
SK3
  6
SLD-Dashed
370
    18
100
AcDbLine
 10
12.3789012335
 20
22.6530581845
 30
0.0
 11
12.6411169608
 21
22.7699354246
 31
0.0
  0
LINE
  5
187
330
1F
100
AcDbEntity
  8
SK3
  6
SLD-Dashed
370
    18
100
AcDbLine
 10
12.6411169608
 20
22.7699354246
 30
0.0
 11
12.8059526579
 21
22.9060418535
 31
0.0
  0
LINE
  5
188
330
1F
100
AcDbEntity
  8
SK3
  6
SLD-Dashed
370
    18
100
AcDbLine
 10
12.8059526579
 20
22.9060418535
 30
0.0
 11
12.8621750445
 21
23.0521020429
 31
0.0
  0
LINE
  5
189
330
1F
100
AcDbEntity
  8
SK3
  6
SLD-Dashed
370
    18
100
AcDbLine
 10
12.8621750445
 20
23.0521020429
 30
0.0
 11
12.8059526579
 21
23.1981622322
 31
0.0
  0
LINE
  5
18A
330
1F
100
AcDbEntity
  8
SK3
  6
SLD-Dashed
370
    18
100
AcDbLine
 10
12.8059526579
 20
23.1981622322
 30
0.0
 11
12.6411169608
 21
23.3342686611
 31
0.0
  0
LINE
  5
18B
330
1F
100
AcDbEntity
  8
SK3
  6
SLD-Dashed
370
    18
100
AcDbLine
 10
12.6411169608
 20
23.3342686611
 30
0.0
 11
12.3789012335
 21
23.4511459012
 31
0.0
  0
LINE
  5
18C
330
1F
100
AcDbEntity
  8
SK3
  6
SLD-Dashed
370
    18
100
AcDbLine
 10
12.3789012335
 20
23.4511459012
 30
0.0
 11
12.0371750445
 21
23.5408289619
 31
0.0
  0
LINE
  5
18D
330
1F
100
AcDbEntity
  8
SK3
  6
SLD-Dashed
370
    18
100
AcDbLine
 10
12.0371750445
 20
23.5408289619
 30
0.0
 11
11.6392264689
 21
23.5972060906
 31
0.0
  0
LINE
  5
18E
330
1F
100
AcDbEntity
  8
SK3
  6
SLD-Dashed
370
    18
100
AcDbLine
 10
11.6392264689
 20
23.5972060906
 30
0.0
 11
11.2121750445
 21
23.6164352793
 31
0.0
  0
LINE
  5
18F
330
1F
100
AcDbEntity
  8
SK3
  6
SLD-Dashed
370
    18
100
AcDbLine
 10
11.2121750445
 20
23.6164352793
 30
0.0
 11
10.7851236201
 21
23.5972060906
 31
0.0
  0
LINE
  5
190
330
1F
100
AcDbEntity
  8
SK3
  6
SLD-Dashed
370
    18
100
AcDbLine
 10
10.7851236201
 20
23.5972060906
 30
0.0
 11
10.3871750445
 21
23.5408289619
 31
0.0
  0
LINE
  5
191
330
1F
100
AcDbEntity
  8
SK3
  6
SLD-Dashed
370
    18
100
AcDbLine
 10
10.3871750445
 20
23.5408289619
 30
0.0
 11
10.0454488556
 21
23.4511459012
 31
0.0
  0
LINE
  5
192
330
1F
100
AcDbEntity
  8
SK3
  6
SLD-Dashed
370
    18
100
AcDbLine
 10
10.0454488556
 20
23.4511459012
 30
0.0
 11
9.7832331283
 21
23.3342686611
 31
0.0
  0
LINE
  5
193
330
1F
100
AcDbEntity
  8
SK3
  6
SLD-Dashed
370
    18
100
AcDbLine
 10
9.7832331283
 20
23.3342686611
 30
0.0
 11
9.6183974311
 21
23.1981622322
 31
0.0
  0
LINE
  5
194
330
1F
100
AcDbEntity
  8
SK3
  6
SLD-Dashed
370
    18
100
AcDbLine
 10
9.6183974311
 20
23.1981622322
 30
0.0
 11
9.5621750445
 21
23.0521020429
 31
0.0
  0
LINE
  5
195
330
1F
100
AcDbEntity
  8
SK3
  6
SLD-Dashed
370
    18
100
AcDbLine
 10
9.5621750445
 20
23.0521020429
 30
0.0
 11
9.6183974311
 21
22.9060418535
 31
0.0
  0
LINE
  5
196
330
1F
100
AcDbEntity
  8
SK3
  6
SLD-Dashed
370
    18
100
AcDbLine
 10
9.6183974311
 20
22.9060418535
 30
0.0
 11
9.7832331283
 21
22.7699354246
 31
0.0
  0
LINE
  5
197
330
1F
100
AcDbEntity
  8
SK3
  6
SLD-Dashed
370
    18
100
AcDbLine
 10
9.7832331283
 20
22.7699354246
 30
0.0
 11
10.0454488556
 21
22.6530581845
 31
0.0
  0
LINE
  5
198
330
1F
100
AcDbEntity
  8
SK3
  6
SLD-Dashed
370
    18
100
AcDbLine
 10
10.0454488556
 20
22.6530581845
 30
0.0
 11
10.3871750445
 21
22.5633751239
 31
0.0
  0
LINE
  5
199
330
1F
100
AcDbEntity
  8
SK3
  6
SLD-Dashed
370
    18
100
AcDbLine
 10
10.3871750445
 20
22.5633751239
 30
0.0
 11
10.7851236201
 21
22.5069979951
 31
0.0
  0
LINE
  5
19A
330
1F
100
AcDbEntity
  8
SK3
  6
SLD-Dashed
370
    18
100
AcDbLine
 10
10.7851236201
 20
22.5069979951
 30
0.0
 11
11.2121750445
 21
22.4877688064
 31
0.0
  0
LINE
  5
19B
330
1F
100
AcDbEntity
  8
SK3
  6
SLD-Dashed
370
    18
100
AcDbLine
 10
-22.5628249555
 20
-10.25
 30
0.0
 11
-22.5628249555
 21
10.25
 31
0.0
  0
LINE
  5
19C
330
1F
100
AcDbEntity
  8
SK3
  6
SLD-Dashed
370
    18
100
AcDbLine
 10
-24.5156219673
 20
-7.0
 30
0.0
 11
-24.5156219673
 21
7.0
 31
0.0
  0
LINE
  5
19D
330
1F
100
AcDbEntity
  8
SK3
  6
SLD-Dashed
370
    18
100
AcDbLine
 10
-66.8537868498
 20
-8.5
 30
0.0
 11
-66.8537868498
 21
8.5
 31
0.0
  0
LINE
  5
19E
330
1F
100
AcDbEntity
  8
SK3
  6
SLD-Dashed
370
    18
100
AcDbLine
 10
-68.1528249555
 20
9.24648784
 30
0.0
 11
-68.1528249555
 21
-9.24648784
 31
0.0
  0
LINE
  5
19F
330
1F
100
AcDbEntity
  8
SK3
  6
SLD-Dashed
370
    18
100
AcDbLine
 10
-57.6528249555
 20
-8.8
 30
0.0
 11
-57.6528249555
 21
8.8
 31
0.0
  0
LINE
  5
1A0
330
1F
100
AcDbEntity
  8
SK3
  6
SLD-Dashed
370
    18
100
AcDbLine
 10
-59.6528249555
 20
-8.8
 30
0.0
 11
-59.6528249555
 21
8.8
 31
0.0
  0
LINE
  5
1A1
330
1F
100
AcDbEntity
  8
SK3
  6
SLD-Dashed
370
    18
100
AcDbLine
 10
-60.1724401978
 20
-8.5
 30
0.0
 11
-60.1724401978
 21
8.5
 31
0.0
  0
LINE
  5
1A2
330
1F
100
AcDbEntity
  8
SK3
  6
SLD-Dashed
370
    18
100
AcDbLine
 10
-56.6135944709
 20
7.0
 30
0.0
 11
-56.6135944709
 21
-7.0
 31
0.0
  0
LINE
  5
1A3
330
1F
100
AcDbEntity
  8
SK3
  6
SLD-Dashed
370
    18
100
AcDbLine
 10
5.7991679177
 20
-25.9272101898
 30
0.0
 11
5.6849205608
 21
-25.9429432334
 31
0.0
  0
LINE
  5
1A4
330
1F
100
AcDbEntity
  8
SK3
  6
SLD-Dashed
370
    18
100
AcDbLine
 10
5.6849205608
 20
-25.9429432334
 30
0.0
 11
5.508686441
 21
-25.8675765338
 31
0.0
  0
LINE
  5
1A5
330
1F
100
AcDbEntity
  8
SK3
  6
SLD-Dashed
370
    18
100
AcDbLine
 10
5.508686441
 20
-25.8675765338
 30
0.0
 11
5.2807076448
 21
-25.7054901293
 31
0.0
  0
LINE
  5
1A6
330
1F
100
AcDbEntity
  8
SK3
  6
SLD-Dashed
370
    18
100
AcDbLine
 10
5.2807076448
 20
-25.7054901293
 30
0.0
 11
5.014233471
 21
-25.4661038928
 31
0.0
  0
LINE
  5
1A7
330
1F
100
AcDbEntity
  8
SK3
  6
SLD-Dashed
370
    18
100
AcDbLine
 10
5.014233471
 20
-25.4661038928
 30
0.0
 11
4.7247504302
 21
-25.1633300822
 31
0.0
  0
LINE
  5
1A8
330
1F
100
AcDbEntity
  8
SK3
  6
SLD-Dashed
370
    18
100
AcDbLine
 10
4.7247504302
 20
-25.1633300822
 30
0.0
 11
4.4290822244
 21
-24.8147648107
 31
0.0
  0
LINE
  5
1A9
330
1F
100
AcDbEntity
  8
SK3
  6
SLD-Dashed
370
    18
100
AcDbLine
 10
4.4290822244
 20
-24.8147648107
 30
0.0
 11
4.144412015
 21
-24.4406654251
 31
0.0
  0
LINE
  5
1AA
330
1F
100
AcDbEntity
  8
SK3
  6
SLD-Dashed
370
    18
100
AcDbLine
 10
4.144412015
 20
-24.4406654251
 30
0.0
 11
3.8872837998
 21
-24.0627732217
 31
0.0
  0
LINE
  5
1AB
330
1F
100
AcDbEntity
  8
SK3
  6
SLD-Dashed
370
    18
100
AcDbLine
 10
3.8872837998
 20
-24.0627732217
 30
0.0
 11
3.6726409362
 21
-23.7030499219
 31
0.0
  0
LINE
  5
1AC
330
1F
100
AcDbEntity
  8
SK3
  6
SLD-Dashed
370
    18
100
AcDbLine
 10
3.6726409362
 20
-23.7030499219
 30
0.0
 11
3.512957687
 21
-23.3824013363
 31
0.0
  0
LINE
  5
1AD
330
1F
100
AcDbEntity
  8
SK3
  6
SLD-Dashed
370
    18
100
AcDbLine
 10
3.512957687
 20
-23.3824013363
 30
0.0
 11
3.4175142625
 21
-23.1194623952
 31
0.0
  0
LINE
  5
1AE
330
1F
100
AcDbEntity
  8
SK3
  6
SLD-Dashed
370
    18
100
AcDbLine
 10
3.4175142625
 20
-23.1194623952
 30
0.0
 11
3.3918574874
 21
-22.9295141541
 31
0.0
  0
LINE
  5
1AF
330
1F
100
AcDbEntity
  8
SK3
  6
SLD-Dashed
370
    18
100
AcDbLine
 10
3.3918574874
 20
-22.9295141541
 30
0.0
 11
3.4374784403
 21
-22.8235957143
 31
0.0
  0
LINE
  5
1B0
330
1F
100
AcDbEntity
  8
SK3
  6
SLD-Dashed
370
    18
100
AcDbLine
 10
3.4374784403
 20
-22.8235957143
 30
0.0
 11
3.5517257972
 21
-22.8078626706
 31
0.0
  0
LINE
  5
1B1
330
1F
100
AcDbEntity
  8
SK3
  6
SLD-Dashed
370
    18
100
AcDbLine
 10
3.5517257972
 20
-22.8078626706
 30
0.0
 11
3.727959917
 21
-22.8832293703
 31
0.0
  0
LINE
  5
1B2
330
1F
100
AcDbEntity
  8
SK3
  6
SLD-Dashed
370
    18
100
AcDbLine
 10
3.727959917
 20
-22.8832293703
 30
0.0
 11
3.9559387132
 21
-23.0453157748
 31
0.0
  0
LINE
  5
1B3
330
1F
100
AcDbEntity
  8
SK3
  6
SLD-Dashed
370
    18
100
AcDbLine
 10
3.9559387132
 20
-23.0453157748
 30
0.0
 11
4.2224128869
 21
-23.2847020113
 31
0.0
  0
LINE
  5
1B4
330
1F
100
AcDbEntity
  8
SK3
  6
SLD-Dashed
370
    18
100
AcDbLine
 10
4.2224128869
 20
-23.2847020113
 30
0.0
 11
4.5118959278
 21
-23.5874758219
 31
0.0
  0
LINE
  5
1B5
330
1F
100
AcDbEntity
  8
SK3
  6
SLD-Dashed
370
    18
100
AcDbLine
 10
4.5118959278
 20
-23.5874758219
 30
0.0
 11
4.8075641336
 21
-23.9360410934
 31
0.0
  0
LINE
  5
1B6
330
1F
100
AcDbEntity
  8
SK3
  6
SLD-Dashed
370
    18
100
AcDbLine
 10
4.8075641336
 20
-23.9360410934
 30
0.0
 11
5.092234343
 21
-24.310140479
 31
0.0
  0
LINE
  5
1B7
330
1F
100
AcDbEntity
  8
SK3
  6
SLD-Dashed
370
    18
100
AcDbLine
 10
5.092234343
 20
-24.310140479
 30
0.0
 11
5.3493625582
 21
-24.6880326824
 31
0.0
  0
LINE
  5
1B8
330
1F
100
AcDbEntity
  8
SK3
  6
SLD-Dashed
370
    18
100
AcDbLine
 10
5.3493625582
 20
-24.6880326824
 30
0.0
 11
5.5640054218
 21
-25.0477559822
 31
0.0
  0
LINE
  5
1B9
330
1F
100
AcDbEntity
  8
SK3
  6
SLD-Dashed
370
    18
100
AcDbLine
 10
5.5640054218
 20
-25.0477559822
 30
0.0
 11
5.7236886709
 21
-25.3684045678
 31
0.0
  0
LINE
  5
1BA
330
1F
100
AcDbEntity
  8
SK3
  6
SLD-Dashed
370
    18
100
AcDbLine
 10
5.7236886709
 20
-25.3684045678
 30
0.0
 11
5.8191320955
 21
-25.6313435089
 31
0.0
  0
LINE
  5
1BB
330
1F
100
AcDbEntity
  8
SK3
  6
SLD-Dashed
370
    18
100
AcDbLine
 10
5.8191320955
 20
-25.6313435089
 30
0.0
 11
5.8447888706
 21
-25.82129175
 31
0.0
  0
LINE
  5
1BC
330
1F
100
AcDbEntity
  8
SK3
  6
SLD-Dashed
370
    18
100
AcDbLine
 10
5.8447888706
 20
-25.82129175
 30
0.0
 11
5.7991679177
 21
-25.9272101898
 31
0.0
  0
LINE
  5
1BD
330
1F
100
AcDbEntity
  8
SK3
  6
SLD-Dashed
370
    18
100
AcDbLine
 10
16.4460675897
 20
-17.8254723219
 30
0.0
 11
16.3318202328
 21
-17.8412053656
 31
0.0
  0
LINE
  5
1BE
330
1F
100
AcDbEntity
  8
SK3
  6
SLD-Dashed
370
    18
100
AcDbLine
 10
16.3318202328
 20
-17.8412053656
 30
0.0
 11
16.155586113
 21
-17.7658386659
 31
0.0
  0
LINE
  5
1BF
330
1F
100
AcDbEntity
  8
SK3
  6
SLD-Dashed
370
    18
100
AcDbLine
 10
16.155586113
 20
-17.7658386659
 30
0.0
 11
15.9276073167
 21
-17.6037522615
 31
0.0
  0
LINE
  5
1C0
330
1F
100
AcDbEntity
  8
SK3
  6
SLD-Dashed
370
    18
100
AcDbLine
 10
15.9276073167
 20
-17.6037522615
 30
0.0
 11
15.661133143
 21
-17.364366025
 31
0.0
  0
LINE
  5
1C1
330
1F
100
AcDbEntity
  8
SK3
  6
SLD-Dashed
370
    18
100
AcDbLine
 10
15.661133143
 20
-17.364366025
 30
0.0
 11
15.3716501022
 21
-17.0615922143
 31
0.0
  0
LINE
  5
1C2
330
1F
100
AcDbEntity
  8
SK3
  6
SLD-Dashed
370
    18
100
AcDbLine
 10
15.3716501022
 20
-17.0615922143
 30
0.0
 11
15.0759818963
 21
-16.7130269429
 31
0.0
  0
LINE
  5
1C3
330
1F
100
AcDbEntity
  8
SK3
  6
SLD-Dashed
370
    18
100
AcDbLine
 10
15.0759818963
 20
-16.7130269429
 30
0.0
 11
14.7913116869
 21
-16.3389275572
 31
0.0
  0
LINE
  5
1C4
330
1F
100
AcDbEntity
  8
SK3
  6
SLD-Dashed
370
    18
100
AcDbLine
 10
14.7913116869
 20
-16.3389275572
 30
0.0
 11
14.5341834718
 21
-15.9610353539
 31
0.0
  0
LINE
  5
1C5
330
1F
100
AcDbEntity
  8
SK3
  6
SLD-Dashed
370
    18
100
AcDbLine
 10
14.5341834718
 20
-15.9610353539
 30
0.0
 11
14.3195406081
 21
-15.601312054
 31
0.0
  0
LINE
  5
1C6
330
1F
100
AcDbEntity
  8
SK3
  6
SLD-Dashed
370
    18
100
AcDbLine
 10
14.3195406081
 20
-15.601312054
 30
0.0
 11
14.159857359
 21
-15.2806634684
 31
0.0
  0
LINE
  5
1C7
330
1F
100
AcDbEntity
  8
SK3
  6
SLD-Dashed
370
    18
100
AcDbLine
 10
14.159857359
 20
-15.2806634684
 30
0.0
 11
14.0644139344
 21
-15.0177245273
 31
0.0
  0
LINE
  5
1C8
330
1F
100
AcDbEntity
  8
SK3
  6
SLD-Dashed
370
    18
100
AcDbLine
 10
14.0644139344
 20
-15.0177245273
 30
0.0
 11
14.0387571593
 21
-14.8277762862
 31
0.0
  0
LINE
  5
1C9
330
1F
100
AcDbEntity
  8
SK3
  6
SLD-Dashed
370
    18
100
AcDbLine
 10
14.0387571593
 20
-14.8277762862
 30
0.0
 11
14.0843781122
 21
-14.7218578465
 31
0.0
  0
LINE
  5
1CA
330
1F
100
AcDbEntity
  8
SK3
  6
SLD-Dashed
370
    18
100
AcDbLine
 10
14.0843781122
 20
-14.7218578465
 30
0.0
 11
14.1986254691
 21
-14.7061248028
 31
0.0
  0
LINE
  5
1CB
330
1F
100
AcDbEntity
  8
SK3
  6
SLD-Dashed
370
    18
100
AcDbLine
 10
14.1986254691
 20
-14.7061248028
 30
0.0
 11
14.3748595889
 21
-14.7814915025
 31
0.0
  0
LINE
  5
1CC
330
1F
100
AcDbEntity
  8
SK3
  6
SLD-Dashed
370
    18
100
AcDbLine
 10
14.3748595889
 20
-14.7814915025
 30
0.0
 11
14.6028383852
 21
-14.9435779069
 31
0.0
  0
LINE
  5
1CD
330
1F
100
AcDbEntity
  8
SK3
  6
SLD-Dashed
370
    18
100
AcDbLine
 10
14.6028383852
 20
-14.9435779069
 30
0.0
 11
14.8693125589
 21
-15.1829641434
 31
0.0
  0
LINE
  5
1CE
330
1F
100
AcDbEntity
  8
SK3
  6
SLD-Dashed
370
    18
100
AcDbLine
 10
14.8693125589
 20
-15.1829641434
 30
0.0
 11
15.1587955997
 21
-15.4857379541
 31
0.0
  0
LINE
  5
1CF
330
1F
100
AcDbEntity
  8
SK3
  6
SLD-Dashed
370
    18
100
AcDbLine
 10
15.1587955997
 20
-15.4857379541
 30
0.0
 11
15.4544638056
 21
-15.8343032255
 31
0.0
  0
LINE
  5
1D0
330
1F
100
AcDbEntity
  8
SK3
  6
SLD-Dashed
370
    18
100
AcDbLine
 10
15.4544638056
 20
-15.8343032255
 30
0.0
 11
15.739134015
 21
-16.2084026112
 31
0.0
  0
LINE
  5
1D1
330
1F
100
AcDbEntity
  8
SK3
  6
SLD-Dashed
370
    18
100
AcDbLine
 10
15.739134015
 20
-16.2084026112
 30
0.0
 11
15.9962622301
 21
-16.5862948145
 31
0.0
  0
LINE
  5
1D2
330
1F
100
AcDbEntity
  8
SK3
  6
SLD-Dashed
370
    18
100
AcDbLine
 10
15.9962622301
 20
-16.5862948145
 30
0.0
 11
16.2109050938
 21
-16.9460181144
 31
0.0
  0
LINE
  5
1D3
330
1F
100
AcDbEntity
  8
SK3
  6
SLD-Dashed
370
    18
100
AcDbLine
 10
16.2109050938
 20
-16.9460181144
 30
0.0
 11
16.3705883429
 21
-17.2666667
 31
0.0
  0
LINE
  5
1D4
330
1F
100
AcDbEntity
  8
SK3
  6
SLD-Dashed
370
    18
100
AcDbLine
 10
16.3705883429
 20
-17.2666667
 30
0.0
 11
16.4660317675
 21
-17.5296056411
 31
0.0
  0
LINE
  5
1D5
330
1F
100
AcDbEntity
  8
SK3
  6
SLD-Dashed
370
    18
100
AcDbLine
 10
16.4660317675
 20
-17.5296056411
 30
0.0
 11
16.4916885425
 21
-17.7195538822
 31
0.0
  0
LINE
  5
1D6
330
1F
100
AcDbEntity
  8
SK3
  6
SLD-Dashed
370
    18
100
AcDbLine
 10
16.4916885425
 20
-17.7195538822
 30
0.0
 11
16.4460675897
 21
-17.8254723219
 31
0.0
  0
LINE
  5
1D7
330
1F
100
AcDbEntity
  8
SK3
  6
SLD-Dashed
370
    18
100
AcDbLine
 10
11.2121750445
 20
-23.0862879737
 30
0.0
 11
10.7851236201
 21
-23.1055171625
 31
0.0
  0
LINE
  5
1D8
330
1F
100
AcDbEntity
  8
SK3
  6
SLD-Dashed
370
    18
100
AcDbLine
 10
10.7851236201
 20
-23.1055171625
 30
0.0
 11
10.3871750445
 21
-23.1618942912
 31
0.0
  0
LINE
  5
1D9
330
1F
100
AcDbEntity
  8
SK3
  6
SLD-Dashed
370
    18
100
AcDbLine
 10
10.3871750445
 20
-23.1618942912
 30
0.0
 11
10.0454488556
 21
-23.2515773518
 31
0.0
  0
LINE
  5
1DA
330
1F
100
AcDbEntity
  8
SK3
  6
SLD-Dashed
370
    18
100
AcDbLine
 10
10.0454488556
 20
-23.2515773518
 30
0.0
 11
9.7832331283
 21
-23.368454592
 31
0.0
  0
LINE
  5
1DB
330
1F
100
AcDbEntity
  8
SK3
  6
SLD-Dashed
370
    18
100
AcDbLine
 10
9.7832331283
 20
-23.368454592
 30
0.0
 11
9.6183974311
 21
-23.5045610208
 31
0.0
  0
LINE
  5
1DC
330
1F
100
AcDbEntity
  8
SK3
  6
SLD-Dashed
370
    18
100
AcDbLine
 10
9.6183974311
 20
-23.5045610208
 30
0.0
 11
9.5621750445
 21
-23.6506212102
 31
0.0
  0
LINE
  5
1DD
330
1F
100
AcDbEntity
  8
SK3
  6
SLD-Dashed
370
    18
100
AcDbLine
 10
9.5621750445
 20
-23.6506212102
 30
0.0
 11
9.6183974311
 21
-23.7966813996
 31
0.0
  0
LINE
  5
1DE
330
1F
100
AcDbEntity
  8
SK3
  6
SLD-Dashed
370
    18
100
AcDbLine
 10
9.6183974311
 20
-23.7966813996
 30
0.0
 11
9.7832331283
 21
-23.9327878285
 31
0.0
  0
LINE
  5
1DF
330
1F
100
AcDbEntity
  8
SK3
  6
SLD-Dashed
370
    18
100
AcDbLine
 10
9.7832331283
 20
-23.9327878285
 30
0.0
 11
10.0454488556
 21
-24.0496650686
 31
0.0
  0
LINE
  5
1E0
330
1F
100
AcDbEntity
  8
SK3
  6
SLD-Dashed
370
    18
100
AcDbLine
 10
10.0454488556
 20
-24.0496650686
 30
0.0
 11
10.3871750445
 21
-24.1393481292
 31
0.0
  0
LINE
  5
1E1
330
1F
100
AcDbEntity
  8
SK3
  6
SLD-Dashed
370
    18
100
AcDbLine
 10
10.3871750445
 20
-24.1393481292
 30
0.0
 11
10.7851236201
 21
-24.195725258
 31
0.0
  0
LINE
  5
1E2
330
1F
100
AcDbEntity
  8
SK3
  6
SLD-Dashed
370
    18
100
AcDbLine
 10
10.7851236201
 20
-24.195725258
 30
0.0
 11
11.2121750445
 21
-24.2149544467
 31
0.0
  0
LINE
  5
1E3
330
1F
100
AcDbEntity
  8
SK3
  6
SLD-Dashed
370
    18
100
AcDbLine
 10
11.2121750445
 20
-24.2149544467
 30
0.0
 11
11.6392264689
 21
-24.195725258
 31
0.0
  0
LINE
  5
1E4
330
1F
100
AcDbEntity
  8
SK3
  6
SLD-Dashed
370
    18
100
AcDbLine
 10
11.6392264689
 20
-24.195725258
 30
0.0
 11
12.0371750445
 21
-24.1393481292
 31
0.0
  0
LINE
  5
1E5
330
1F
100
AcDbEntity
  8
SK3
  6
SLD-Dashed
370
    18
100
AcDbLine
 10
12.0371750445
 20
-24.1393481292
 30
0.0
 11
12.3789012335
 21
-24.0496650686
 31
0.0
  0
LINE
  5
1E6
330
1F
100
AcDbEntity
  8
SK3
  6
SLD-Dashed
370
    18
100
AcDbLine
 10
12.3789012335
 20
-24.0496650686
 30
0.0
 11
12.6411169608
 21
-23.9327878285
 31
0.0
  0
LINE
  5
1E7
330
1F
100
AcDbEntity
  8
SK3
  6
SLD-Dashed
370
    18
100
AcDbLine
 10
12.6411169608
 20
-23.9327878285
 30
0.0
 11
12.8059526579
 21
-23.7966813996
 31
0.0
  0
LINE
  5
1E8
330
1F
100
AcDbEntity
  8
SK3
  6
SLD-Dashed
370
    18
100
AcDbLine
 10
12.8059526579
 20
-23.7966813996
 30
0.0
 11
12.8621750445
 21
-23.6506212102
 31
0.0
  0
LINE
  5
1E9
330
1F
100
AcDbEntity
  8
SK3
  6
SLD-Dashed
370
    18
100
AcDbLine
 10
12.8621750445
 20
-23.6506212102
 30
0.0
 11
12.8059526579
 21
-23.5045610208
 31
0.0
  0
LINE
  5
1EA
330
1F
100
AcDbEntity
  8
SK3
  6
SLD-Dashed
370
    18
100
AcDbLine
 10
12.8059526579
 20
-23.5045610208
 30
0.0
 11
12.6411169608
 21
-23.368454592
 31
0.0
  0
LINE
  5
1EB
330
1F
100
AcDbEntity
  8
SK3
  6
SLD-Dashed
370
    18
100
AcDbLine
 10
12.6411169608
 20
-23.368454592
 30
0.0
 11
12.3789012335
 21
-23.2515773518
 31
0.0
  0
LINE
  5
1EC
330
1F
100
AcDbEntity
  8
SK3
  6
SLD-Dashed
370
    18
100
AcDbLine
 10
12.3789012335
 20
-23.2515773518
 30
0.0
 11
12.0371750445
 21
-23.1618942912
 31
0.0
  0
LINE
  5
1ED
330
1F
100
AcDbEntity
  8
SK3
  6
SLD-Dashed
370
    18
100
AcDbLine
 10
12.0371750445
 20
-23.1618942912
 30
0.0
 11
11.6392264689
 21
-23.1055171625
 31
0.0
  0
LINE
  5
1EE
330
1F
100
AcDbEntity
  8
SK3
  6
SLD-Dashed
370
    18
100
AcDbLine
 10
11.6392264689
 20
-23.1055171625
 30
0.0
 11
11.2121750445
 21
-23.0862879737
 31
0.0
  0
LINE
  5
1EF
330
1F
100
AcDbEntity
  8
SK3
  6
SLD-Dashed
370
    18
100
AcDbLine
 10
5.8294459879
 20
-25.9670001189
 30
0.0
 11
5.7122692116
 21
-25.983136574
 31
0.0
  0
LINE
  5
1F0
330
1F
100
AcDbEntity
  8
SK3
  6
SLD-Dashed
370
    18
100
AcDbLine
 10
5.7122692116
 20
-25.983136574
 30
0.0
 11
5.5315162682
 21
-25.9058373948
 31
0.0
  0
LINE
  5
1F1
330
1F
100
AcDbEntity
  8
SK3
  6
SLD-Dashed
370
    18
100
AcDbLine
 10
5.5315162682
 20
-25.9058373948
 30
0.0
 11
5.2976918618
 21
-25.7395949287
 31
0.0
  0
LINE
  5
1F2
330
1F
100
AcDbEntity
  8
SK3
  6
SLD-Dashed
370
    18
100
AcDbLine
 10
5.2976918618
 20
-25.7395949287
 30
0.0
 11
5.024385017
 21
-25.4940705836
 31
0.0
  0
LINE
  5
1F3
330
1F
100
AcDbEntity
  8
SK3
  6
SLD-Dashed
370
    18
100
AcDbLine
 10
5.024385017
 20
-25.4940705836
 30
0.0
 11
4.7274793341
 21
-25.1835333419
 31
0.0
  0
LINE
  5
1F4
330
1F
100
AcDbEntity
  8
SK3
  6
SLD-Dashed
370
    18
100
AcDbLine
 10
4.7274793341
 20
-25.1835333419
 30
0.0
 11
4.4242298922
 21
-24.8260304994
 31
0.0
  0
LINE
  5
1F5
330
1F
100
AcDbEntity
  8
SK3
  6
SLD-Dashed
370
    18
100
AcDbLine
 10
4.4242298922
 20
-24.8260304994
 30
0.0
 11
4.1322604467
 21
-24.4423388218
 31
0.0
  0
LINE
  5
1F6
330
1F
100
AcDbEntity
  8
SK3
  6
SLD-Dashed
370
    18
100
AcDbLine
 10
4.1322604467
 20
-24.4423388218
 30
0.0
 11
3.8685392003
 21
-24.0547570748
 31
0.0
  0
LINE
  5
1F7
330
1F
100
AcDbEntity
  8
SK3
  6
SLD-Dashed
370
    18
100
AcDbLine
 10
3.8685392003
 20
-24.0547570748
 30
0.0
 11
3.6483926735
 21
-23.6858101006
 31
0.0
  0
LINE
  5
1F8
330
1F
100
AcDbEntity
  8
SK3
  6
SLD-Dashed
370
    18
100
AcDbLine
 10
3.6483926735
 20
-23.6858101006
 30
0.0
 11
3.4846149821
 21
-23.3569397564
 31
0.0
  0
LINE
  5
1F9
330
1F
100
AcDbEntity
  8
SK3
  6
SLD-Dashed
370
    18
100
AcDbLine
 10
3.4846149821
 20
-23.3569397564
 30
0.0
 11
3.3867242903
 21
-23.0872587912
 31
0.0
  0
LINE
  5
1FA
330
1F
100
AcDbEntity
  8
SK3
  6
SLD-Dashed
370
    18
100
AcDbLine
 10
3.3867242903
 20
-23.0872587912
 30
0.0
 11
3.3604096491
 21
-22.8924400823
 31
0.0
  0
LINE
  5
1FB
330
1F
100
AcDbEntity
  8
SK3
  6
SLD-Dashed
370
    18
100
AcDbLine
 10
3.3604096491
 20
-22.8924400823
 30
0.0
 11
3.40720037
 21
-22.7838057852
 31
0.0
  0
LINE
  5
1FC
330
1F
100
AcDbEntity
  8
SK3
  6
SLD-Dashed
370
    18
100
AcDbLine
 10
3.40720037
 20
-22.7838057852
 30
0.0
 11
3.5243771463
 21
-22.7676693301
 31
0.0
  0
LINE
  5
1FD
330
1F
100
AcDbEntity
  8
SK3
  6
SLD-Dashed
370
    18
100
AcDbLine
 10
3.5243771463
 20
-22.7676693301
 30
0.0
 11
3.7051300897
 21
-22.8449685093
 31
0.0
  0
LINE
  5
1FE
330
1F
100
AcDbEntity
  8
SK3
  6
SLD-Dashed
370
    18
100
AcDbLine
 10
3.7051300897
 20
-22.8449685093
 30
0.0
 11
3.9389544961
 21
-23.0112109753
 31
0.0
  0
LINE
  5
1FF
330
1F
100
AcDbEntity
  8
SK3
  6
SLD-Dashed
370
    18
100
AcDbLine
 10
3.9389544961
 20
-23.0112109753
 30
0.0
 11
4.212261341
 21
-23.2567353205
 31
0.0
  0
LINE
  5
200
330
1F
100
AcDbEntity
  8
SK3
  6
SLD-Dashed
370
    18
100
AcDbLine
 10
4.212261341
 20
-23.2567353205
 30
0.0
 11
4.5091670239
 21
-23.5672725622
 31
0.0
  0
LINE
  5
201
330
1F
100
AcDbEntity
  8
SK3
  6
SLD-Dashed
370
    18
100
AcDbLine
 10
4.5091670239
 20
-23.5672725622
 30
0.0
 11
4.8124164658
 21
-23.9247754047
 31
0.0
  0
LINE
  5
202
330
1F
100
AcDbEntity
  8
SK3
  6
SLD-Dashed
370
    18
100
AcDbLine
 10
4.8124164658
 20
-23.9247754047
 30
0.0
 11
5.1043859113
 21
-24.3084670823
 31
0.0
  0
LINE
  5
203
330
1F
100
AcDbEntity
  8
SK3
  6
SLD-Dashed
370
    18
100
AcDbLine
 10
5.1043859113
 20
-24.3084670823
 30
0.0
 11
5.3681071576
 21
-24.6960488293
 31
0.0
  0
LINE
  5
204
330
1F
100
AcDbEntity
  8
SK3
  6
SLD-Dashed
370
    18
100
AcDbLine
 10
5.3681071576
 20
-24.6960488293
 30
0.0
 11
5.5882536844
 21
-25.0649958035
 31
0.0
  0
LINE
  5
205
330
1F
100
AcDbEntity
  8
SK3
  6
SLD-Dashed
370
    18
100
AcDbLine
 10
5.5882536844
 20
-25.0649958035
 30
0.0
 11
5.7520313758
 21
-25.3938661477
 31
0.0
  0
LINE
  5
206
330
1F
100
AcDbEntity
  8
SK3
  6
SLD-Dashed
370
    18
100
AcDbLine
 10
5.7520313758
 20
-25.3938661477
 30
0.0
 11
5.8499220677
 21
-25.6635471129
 31
0.0
  0
LINE
  5
207
330
1F
100
AcDbEntity
  8
SK3
  6
SLD-Dashed
370
    18
100
AcDbLine
 10
5.8499220677
 20
-25.6635471129
 30
0.0
 11
5.8762367088
 21
-25.8583658217
 31
0.0
  0
LINE
  5
208
330
1F
100
AcDbEntity
  8
SK3
  6
SLD-Dashed
370
    18
100
AcDbLine
 10
5.8762367088
 20
-25.8583658217
 30
0.0
 11
5.8294459879
 21
-25.9670001189
 31
0.0
  0
LINE
  5
209
330
1F
100
AcDbEntity
  8
SK3
  6
SLD-Dashed
370
    18
100
AcDbLine
 10
3.2971750445
 20
-22.8742979511
 30
0.0
 11
3.2971750445
 21
-27.8871582268
 31
0.0
  0
LINE
  5
20A
330
1F
100
AcDbEntity
  8
SK3
  6
SLD-Dashed
370
    18
100
AcDbLine
 10
-7.0
 20
-11.0
 30
0.0
 11
0.0
 21
-11.0
 31
0.0
  0
LINE
  5
20B
330
1F
100
AcDbEntity
  8
SK3
  6
SLD-Dashed
370
    18
100
AcDbLine
 10
0.0
 20
11.0
 30
0.0
 11
-7.0
 21
11.0
 31
0.0
  0
LINE
  5
20C
330
1F
100
AcDbEntity
  8
SK3
  6
SLD-Dashed
370
    18
100
AcDbLine
 10
0.0
 20
-11.0
 30
0.0
 11
1.0
 21
-10.0
 31
0.0
  0
LINE
  5
20D
330
1F
100
AcDbEntity
  8
SK3
  6
SLD-Dashed
370
    18
100
AcDbLine
 10
1.0
 20
10.0
 30
0.0
 11
0.0
 21
11.0
 31
0.0
  0
LINE
  5
20E
330
1F
100
AcDbEntity
  8
SK3
  6
SLD-Dashed
370
    18
100
AcDbLine
 10
-7.0
 20
11.0
 30
0.0
 11
-8.0
 21
10.0
 31
0.0
  0
LINE
  5
20F
330
1F
100
AcDbEntity
  8
SK3
  6
SLD-Dashed
370
    18
100
AcDbLine
 10
-8.0
 20
-10.0
 30
0.0
 11
-7.0
 21
-11.0
 31
0.0
  0
LINE
  5
210
330
1F
100
AcDbEntity
  8
SK3
  6
SLD-Dashed
370
    18
100
AcDbLine
 10
56.5763481455
 20
16.0
 30
0.0
 11
27.4371750445
 21
11.9047562899
 31
0.0
  0
LINE
  5
211
330
1F
100
AcDbEntity
  8
SK3
  6
SLD-Dashed
370
    18
100
AcDbLine
 10
27.4371750445
 20
-11.9047562899
 30
0.0
 11
56.5763481455
 21
-16.0
 31
0.0
  0
LINE
  5
212
330
1F
100
AcDbEntity
  8
SK3
  6
SLD-Dashed
370
    18
100
AcDbLine
 10
22.4371750445
 20
-12.05
 30
0.0
 11
27.4371750445
 21
-12.05
 31
0.0
  0
LINE
  5
213
330
1F
100
AcDbEntity
  8
SK3
  6
SLD-Dashed
370
    18
100
AcDbLine
 10
27.4371750445
 20
12.05
 30
0.0
 11
22.4371750445
 21
12.05
 31
0.0
  0
LINE
  5
214
330
1F
100
AcDbEntity
  8
SK3
  6
SLD-Dashed
370
    18
100
AcDbLine
 10
22.4371750445
 20
12.05
 30
0.0
 11
21.3556259303
 21
10.25
 31
0.0
  0
LINE
  5
215
330
1F
100
AcDbEntity
  8
SK3
  6
SLD-Dashed
370
    18
100
AcDbLine
 10
21.3556259303
 20
-10.25
 30
0.0
 11
22.4371750445
 21
-12.05
 31
0.0
  0
LINE
  5
216
330
1F
100
AcDbEntity
  8
SK3
  6
SLD-Dashed
370
    18
100
AcDbLine
 10
9.2121750445
 20
27.3466468125
 30
0.0
 11
9.2121750445
 21
23.2331346864
 31
0.0
  0
LINE
  5
217
330
1F
100
AcDbEntity
  8
SK3
  6
SLD-Dashed
370
    18
100
AcDbLine
 10
13.2121750445
 20
23.0521020429
 30
0.0
 11
13.2121750445
 21
27.3466468125
 31
0.0
  0
LINE
  5
218
330
1F
100
AcDbEntity
  8
SK3
  6
SLD-Dashed
370
    18
100
AcDbLine
 10
3.2971750445
 20
22.8675293454
 30
0.0
 11
3.40720037
 21
22.7838057852
 31
0.0
  0
LINE
  5
219
330
1F
100
AcDbEntity
  8
SK3
  6
SLD-Dashed
370
    18
100
AcDbLine
 10
5.8294459879
 20
25.9670001189
 30
0.0
 11
3.2971750445
 21
27.8939268324
 31
0.0
  0
LINE
  5
21A
330
1F
100
AcDbEntity
  8
SK3
  6
SLD-Dashed
370
    18
100
AcDbLine
 10
12.7744826789
 20
15.718620262
 30
0.0
 11
14.0843781122
 21
14.7218578465
 31
0.0
  0
LINE
  5
21B
330
1F
100
AcDbEntity
  8
SK3
  6
SLD-Dashed
370
    18
100
AcDbLine
 10
3.4374784403
 20
22.8235957143
 30
0.0
 11
9.6608722491
 21
18.0879161418
 31
0.0
  0
LINE
  5
21C
330
1F
100
AcDbEntity
  8
SK3
  6
SLD-Dashed
370
    18
100
AcDbLine
 10
9.2906650647
 20
23.270362138
 30
0.0
 11
5.7991679177
 21
25.9272101898
 31
0.0
  0
LINE
  5
21D
330
1F
100
AcDbEntity
  8
SK3
  6
SLD-Dashed
370
    18
100
AcDbLine
 10
9.6513262112
 20
22.9959177308
 30
0.0
 11
9.3389379138
 21
23.2336290061
 31
0.0
  0
LINE
  5
21E
330
1F
100
AcDbEntity
  8
SK3
  6
SLD-Dashed
370
    18
100
AcDbLine
 10
16.4460675897
 20
17.8254723219
 30
0.0
 11
12.7642624252
 21
20.6271348944
 31
0.0
  0
LINE
  5
21F
330
1F
100
AcDbEntity
  8
SK3
  6
SLD-Dashed
370
    18
100
AcDbLine
 10
21.3556259303
 20
10.25
 30
0.0
 11
-22.5628249555
 21
10.25
 31
0.0
  0
LINE
  5
220
330
1F
100
AcDbEntity
  8
SK3
  6
SLD-Dashed
370
    18
100
AcDbLine
 10
-22.5628249555
 20
-10.25
 30
0.0
 11
21.3556259303
 21
-10.25
 31
0.0
  0
LINE
  5
221
330
1F
100
AcDbEntity
  8
SK3
  6
SLD-Dashed
370
    18
100
AcDbLine
 10
-22.5628249555
 20
10.25
 30
0.0
 11
-24.5156219673
 21
7.0
 31
0.0
  0
LINE
  5
222
330
1F
100
AcDbEntity
  8
SK3
  6
SLD-Dashed
370
    18
100
AcDbLine
 10
-24.5156219673
 20
-7.0
 30
0.0
 11
-22.5628249555
 21
-10.25
 31
0.0
  0
LINE
  5
223
330
1F
100
AcDbEntity
  8
SK3
  6
SLD-Dashed
370
    18
100
AcDbLine
 10
9.5621750445
 20
23.0521020429
 30
0.0
 11
9.5621750445
 21
22.9667378435
 31
0.0
  0
LINE
  5
224
330
1F
100
AcDbEntity
  8
SK3
  6
SLD-Dashed
370
    18
100
AcDbLine
 10
12.8621750445
 20
20.454307559
 30
0.0
 11
12.8621750445
 21
23.0521020429
 31
0.0
  0
LINE
  5
225
330
1F
100
AcDbEntity
  8
SK3
  6
SLD-Dashed
370
    18
100
AcDbLine
 10
-68.1528249555
 20
-9.25
 30
0.0
 11
-66.8537868498
 21
-8.5
 31
0.0
  0
LINE
  5
226
330
1F
100
AcDbEntity
  8
SK3
  6
SLD-Dashed
370
    18
100
AcDbLine
 10
-66.8537868498
 20
8.5
 30
0.0
 11
-68.1528249555
 21
9.25
 31
0.0
  0
LINE
  5
227
330
1F
100
AcDbEntity
  8
SK3
  6
SLD-Dashed
370
    18
100
AcDbLine
 10
-57.6528249555
 20
8.8
 30
0.0
 11
-59.6528249555
 21
8.8
 31
0.0
  0
LINE
  5
228
330
1F
100
AcDbEntity
  8
SK3
  6
SLD-Dashed
370
    18
100
AcDbLine
 10
-59.6528249555
 20
-8.8
 30
0.0
 11
-57.6528249555
 21
-8.8
 31
0.0
  0
LINE
  5
229
330
1F
100
AcDbEntity
  8
SK3
  6
SLD-Dashed
370
    18
100
AcDbLine
 10
-59.6528249555
 20
8.8
 30
0.0
 11
-60.1724401978
 21
8.5
 31
0.0
  0
LINE
  5
22A
330
1F
100
AcDbEntity
  8
SK3
  6
SLD-Dashed
370
    18
100
AcDbLine
 10
-60.1724401978
 20
-8.5
 30
0.0
 11
-59.6528249555
 21
-8.8
 31
0.0
  0
LINE
  5
22B
330
1F
100
AcDbEntity
  8
SK3
  6
SLD-Dashed
370
    18
100
AcDbLine
 10
-57.6528249555
 20
-8.8
 30
0.0
 11
-56.6135944709
 21
-7.0
 31
0.0
  0
LINE
  5
22C
330
1F
100
AcDbEntity
  8
SK3
  6
SLD-Dashed
370
    18
100
AcDbLine
 10
-56.6135944709
 20
7.0
 30
0.0
 11
-57.6528249555
 21
8.8
 31
0.0
  0
LINE
  5
22D
330
1F
100
AcDbEntity
  8
SK3
  6
SLD-Dashed
370
    18
100
AcDbLine
 10
-66.8537868498
 20
-8.5
 30
0.0
 11
-60.1724401978
 21
-8.5
 31
0.0
  0
LINE
  5
22E
330
1F
100
AcDbEntity
  8
SK3
  6
SLD-Dashed
370
    18
100
AcDbLine
 10
-60.1724401978
 20
8.5
 30
0.0
 11
-66.8537868498
 21
8.5
 31
0.0
  0
LINE
  5
22F
330
1F
100
AcDbEntity
  8
SK3
  6
SLD-Dashed
370
    18
100
AcDbLine
 10
9.5621750445
 20
18.2613425767
 30
0.0
 11
9.5621750445
 21
9.6314778987
 31
0.0
  0
LINE
  5
230
330
1F
100
AcDbEntity
  8
SK3
  6
SLD-Dashed
370
    18
100
AcDbLine
 10
12.8621750445
 20
9.6287861391
 30
0.0
 11
12.8621750445
 21
15.7500776376
 31
0.0
  0
LINE
  5
231
330
1F
100
AcDbEntity
  8
SK3
  6
SLD-Dashed
370
    18
100
AcDbLine
 10
14.2892127478
 20
14.7367975886
 30
0.0
 11
16.1757878377
 21
15.5807724054
 31
0.0
  0
LINE
  5
232
330
1F
100
AcDbEntity
  8
SK3
  6
SLD-Dashed
370
    18
100
AcDbLine
 10
16.1757878377
 20
15.5807724054
 30
0.0
 11
16.4862755429
 21
17.6240678921
 31
0.0
  0
LINE
  5
233
330
1F
100
AcDbEntity
  8
SK3
  6
SLD-Dashed
370
    18
100
AcDbLine
 10
-56.6135944709
 20
-7.0
 30
0.0
 11
-24.5156219673
 21
-7.0
 31
0.0
  0
LINE
  5
234
330
1F
100
AcDbEntity
  8
SK3
  6
SLD-Dashed
370
    18
100
AcDbLine
 10
-24.5156219673
 20
7.0
 30
0.0
 11
-56.6135944709
 21
7.0
 31
0.0
  0
LINE
  5
235
330
1F
100
AcDbEntity
  8
SK3
  6
SLD-Dashed
370
    18
100
AcDbLine
 10
9.5621750445
 20
-9.6287861391
 30
0.0
 11
9.5621750445
 21
-18.259206264
 31
0.0
  0
LINE
  5
236
330
1F
100
AcDbEntity
  8
SK3
  6
SLD-Dashed
370
    18
100
AcDbLine
 10
12.8621750445
 20
-15.7542792276
 30
0.0
 11
12.8621750445
 21
-9.6314778987
 31
0.0
  0
LINE
  5
237
330
1F
100
AcDbEntity
  8
SK3
  6
SLD-Dashed
370
    18
100
AcDbLine
 10
12.7744826789
 20
-20.6193578118
 30
0.0
 11
16.4460675897
 21
-17.8254723219
 31
0.0
  0
LINE
  5
238
330
1F
100
AcDbEntity
  8
SK3
  6
SLD-Dashed
370
    18
100
AcDbLine
 10
5.7991679177
 20
-25.9272101898
 30
0.0
 11
9.656583628
 21
-22.9919171096
 31
0.0
  0
LINE
  5
239
330
1F
100
AcDbEntity
  8
SK3
  6
SLD-Dashed
370
    18
100
AcDbLine
 10
9.6560428184
 20
-18.0915910878
 30
0.0
 11
3.4374784403
 21
-22.8235957143
 31
0.0
  0
LINE
  5
23A
330
1F
100
AcDbEntity
  8
SK3
  6
SLD-Dashed
370
    18
100
AcDbLine
 10
14.0843781122
 20
-14.7218578465
 30
0.0
 11
12.7623567405
 21
-15.7278474716
 31
0.0
  0
LINE
  5
23B
330
1F
100
AcDbEntity
  8
SK3
  6
SLD-Dashed
370
    18
100
AcDbLine
 10
16.4862755429
 20
-17.6240678921
 30
0.0
 11
16.1757878377
 21
-15.5807724054
 31
0.0
  0
LINE
  5
23C
330
1F
100
AcDbEntity
  8
SK3
  6
SLD-Dashed
370
    18
100
AcDbLine
 10
16.1757878377
 20
-15.5807724054
 30
0.0
 11
14.2892127478
 21
-14.7367975886
 31
0.0
  0
LINE
  5
23D
330
1F
100
AcDbEntity
  8
SK3
  6
SLD-Dashed
370
    18
100
AcDbLine
 10
9.5621750445
 20
-22.9638453577
 30
0.0
 11
9.5621750445
 21
-23.6506212102
 31
0.0
  0
LINE
  5
23E
330
1F
100
AcDbEntity
  8
SK3
  6
SLD-Dashed
370
    18
100
AcDbLine
 10
12.8621750445
 20
-23.6506212102
 30
0.0
 11
12.8621750445
 21
-20.4547737958
 31
0.0
  0
LINE
  5
23F
330
1F
100
AcDbEntity
  8
SK3
  6
SLD-Dashed
370
    18
100
AcDbLine
 10
3.2971750445
 20
-27.8939268324
 30
0.0
 11
5.8294459879
 21
-25.9670001189
 31
0.0
  0
LINE
  5
240
330
1F
100
AcDbEntity
  8
SK3
  6
SLD-Dashed
370
    18
100
AcDbLine
 10
3.40720037
 20
-22.7838057852
 30
0.0
 11
3.2971750445
 21
-22.8675293454
 31
0.0
  0
LINE
  5
241
330
1F
100
AcDbEntity
  8
SK3
  6
SLD-Dashed
370
    18
100
AcDbLine
 10
9.8993419641
 20
-23.9924650485
 30
0.0
 11
11.2121750445
 21
-24.5822512884
 31
0.0
  0
LINE
  5
242
330
1F
100
AcDbEntity
  8
SK3
  6
SLD-Dashed
370
    18
100
AcDbLine
 10
11.2121750445
 20
-24.5822512884
 30
0.0
 11
12.525008125
 21
-23.9924650485
 31
0.0
  0
LINE
  5
243
330
1F
100
AcDbEntity
  8
1
  6
SLD-Solid
370
    18
100
AcDbLine
 10
41.437175972
 20
-19.1719997674
 30
0.0
 11
47.5971744485
 21
-19.1719997674
 31
0.0
  0
LINE
  5
244
330
1F
100
AcDbEntity
  8
1
  6
SLD-Solid
370
    18
100
AcDbLine
 10
47.5971744485
 20
19.1719997674
 30
0.0
 11
41.437175972
 21
19.1719997674
 31
0.0
  0
LINE
  5
245
330
1F
100
AcDbEntity
  8
1
  6
SLD-Solid
370
    18
100
AcDbLine
 10
41.437175972
 20
-19.925000146
 30
0.0
 11
41.437175972
 21
-19.842447713
 31
0.0
  0
LINE
  5
246
330
1F
100
AcDbEntity
  8
1
  6
SLD-Solid
370
    18
100
AcDbLine
 10
41.4371438831
 20
-19.842447713
 30
0.0
 11
41.437175972
 21
-19.5954740047
 31
0.0
  0
LINE
  5
247
330
1F
100
AcDbEntity
  8
1
  6
SLD-Solid
370
    18
100
AcDbLine
 10
41.437175972
 20
-19.5954740047
 30
0.0
 11
41.437175972
 21
-19.1861260682
 31
0.0
  0
LINE
  5
248
330
1F
100
AcDbEntity
  8
1
  6
SLD-Solid
370
    18
100
AcDbLine
 10
41.437175972
 20
-19.1861260682
 30
0.0
 11
41.437175972
 21
-18.6177976429
 31
0.0
  0
LINE
  5
249
330
1F
100
AcDbEntity
  8
1
  6
SLD-Solid
370
    18
100
AcDbLine
 10
41.437175972
 20
-18.6177976429
 30
0.0
 11
41.437175972
 21
-17.8951937705
 31
0.0
  0
LINE
  5
24A
330
1F
100
AcDbEntity
  8
1
  6
SLD-Solid
370
    18
100
AcDbLine
 10
41.437175972
 20
-17.8951937705
 30
0.0
 11
41.437175972
 21
-17.0243065804
 31
0.0
  0
LINE
  5
24B
330
1F
100
AcDbEntity
  8
1
  6
SLD-Solid
370
    18
100
AcDbLine
 10
41.437175972
 20
-17.0243065804
 30
0.0
 11
41.437175972
 21
-16.0123500973
 31
0.0
  0
LINE
  5
24C
330
1F
100
AcDbEntity
  8
1
  6
SLD-Solid
370
    18
100
AcDbLine
 10
41.437175972
 20
-16.0123500973
 30
0.0
 11
41.437175972
 21
-14.8677099496
 31
0.0
  0
LINE
  5
24D
330
1F
100
AcDbEntity
  8
1
  6
SLD-Solid
370
    18
100
AcDbLine
 10
41.437175972
 20
-14.8677099496
 30
0.0
 11
41.437175972
 21
-13.5998716578
 31
0.0
  0
LINE
  5
24E
330
1F
100
AcDbEntity
  8
1
  6
SLD-Solid
370
    18
100
AcDbLine
 10
41.437175972
 20
-13.5998716578
 30
0.0
 11
41.437175972
 21
-12.2193396091
 31
0.0
  0
LINE
  5
24F
330
1F
100
AcDbEntity
  8
1
  6
SLD-Solid
370
    18
100
AcDbLine
 10
41.437175972
 20
-12.2193396091
 30
0.0
 11
41.437175972
 21
-10.7375551015
 31
0.0
  0
LINE
  5
250
330
1F
100
AcDbEntity
  8
1
  6
SLD-Solid
370
    18
100
AcDbLine
 10
41.437175972
 20
-10.7375551015
 30
0.0
 11
41.437175972
 21
-9.1667957604
 31
0.0
  0
LINE
  5
251
330
1F
100
AcDbEntity
  8
1
  6
SLD-Solid
370
    18
100
AcDbLine
 10
41.437175972
 20
-9.1667957604
 30
0.0
 11
41.437175972
 21
-7.5200772844
 31
0.0
  0
LINE
  5
252
330
1F
100
AcDbEntity
  8
1
  6
SLD-Solid
370
    18
100
AcDbLine
 10
41.437175972
 20
-7.5200772844
 30
0.0
 11
41.437175972
 21
-5.811045412
 31
0.0
  0
LINE
  5
253
330
1F
100
AcDbEntity
  8
1
  6
SLD-Solid
370
    18
100
AcDbLine
 10
41.437175972
 20
-5.811045412
 30
0.0
 11
41.437175972
 21
-4.0538609028
 31
0.0
  0
LINE
  5
254
330
1F
100
AcDbEntity
  8
1
  6
SLD-Solid
370
    18
100
AcDbLine
 10
41.437175972
 20
-4.0538609028
 30
0.0
 11
41.437175972
 21
-2.2630852181
 31
0.0
  0
LINE
  5
255
330
1F
100
AcDbEntity
  8
1
  6
SLD-Solid
370
    18
100
AcDbLine
 10
41.437175972
 20
-2.2630852181
 30
0.0
 11
41.437175972
 21
-0.4535567132
 31
0.0
  0
LINE
  5
256
330
1F
100
AcDbEntity
  8
1
  6
SLD-Solid
370
    18
100
AcDbLine
 10
41.437175972
 20
-0.4535567132
 30
0.0
 11
41.437175972
 21
1.359730144
 31
0.0
  0
LINE
  5
257
330
1F
100
AcDbEntity
  8
1
  6
SLD-Solid
370
    18
100
AcDbLine
 10
41.437175972
 20
1.359730144
 30
0.0
 11
41.437175972
 21
3.1617498025
 31
0.0
  0
LINE
  5
258
330
1F
100
AcDbEntity
  8
1
  6
SLD-Solid
370
    18
100
AcDbLine
 10
41.437175972
 20
3.1617498025
 30
0.0
 11
41.437175972
 21
4.9375700764
 31
0.0
  0
LINE
  5
259
330
1F
100
AcDbEntity
  8
1
  6
SLD-Solid
370
    18
100
AcDbLine
 10
41.437175972
 20
4.9375700764
 30
0.0
 11
41.437175972
 21
6.6724764183
 31
0.0
  0
LINE
  5
25A
330
1F
100
AcDbEntity
  8
1
  6
SLD-Solid
370
    18
100
AcDbLine
 10
41.437175972
 20
6.6724764183
 30
0.0
 11
41.437175972
 21
8.3520924672
 31
0.0
  0
LINE
  5
25B
330
1F
100
AcDbEntity
  8
1
  6
SLD-Solid
370
    18
100
AcDbLine
 10
41.437175972
 20
8.3520924672
 30
0.0
 11
41.437175972
 21
9.962500073
 31
0.0
  0
LINE
  5
25C
330
1F
100
AcDbEntity
  8
1
  6
SLD-Solid
370
    18
100
AcDbLine
 10
41.437175972
 20
9.962500073
 30
0.0
 11
41.437175972
 21
11.4903552458
 31
0.0
  0
LINE
  5
25D
330
1F
100
AcDbEntity
  8
1
  6
SLD-Solid
370
    18
100
AcDbLine
 10
41.437175972
 20
11.4903552458
 30
0.0
 11
41.437175972
 21
12.9229985178
 31
0.0
  0
LINE
  5
25E
330
1F
100
AcDbEntity
  8
1
  6
SLD-Solid
370
    18
100
AcDbLine
 10
41.437175972
 20
12.9229985178
 30
0.0
 11
41.437175972
 21
14.2485564575
 31
0.0
  0
LINE
  5
25F
330
1F
100
AcDbEntity
  8
1
  6
SLD-Solid
370
    18
100
AcDbLine
 10
41.437175972
 20
14.2485564575
 30
0.0
 11
41.437175972
 21
15.4560478404
 31
0.0
  0
LINE
  5
260
330
1F
100
AcDbEntity
  8
1
  6
SLD-Solid
370
    18
100
AcDbLine
 10
41.437175972
 20
15.4560478404
 30
0.0
 11
41.437175972
 21
16.5354646742
 31
0.0
  0
LINE
  5
261
330
1F
100
AcDbEntity
  8
1
  6
SLD-Solid
370
    18
100
AcDbLine
 10
41.437175972
 20
16.5354646742
 30
0.0
 11
41.437175972
 21
17.4778625369
 31
0.0
  0
LINE
  5
262
330
1F
100
AcDbEntity
  8
1
  6
SLD-Solid
370
    18
100
AcDbLine
 10
41.437175972
 20
17.4778625369
 30
0.0
 11
41.437175972
 21
18.2754360139
 31
0.0
  0
LINE
  5
263
330
1F
100
AcDbEntity
  8
1
  6
SLD-Solid
370
    18
100
AcDbLine
 10
41.437175972
 20
18.2754360139
 30
0.0
 11
41.437175972
 21
18.9215708524
 31
0.0
  0
LINE
  5
264
330
1F
100
AcDbEntity
  8
1
  6
SLD-Solid
370
    18
100
AcDbLine
 10
41.437175972
 20
18.9215708524
 30
0.0
 11
41.437175972
 21
19.4109175354
 31
0.0
  0
LINE
  5
265
330
1F
100
AcDbEntity
  8
1
  6
SLD-Solid
370
    18
100
AcDbLine
 10
41.437175972
 20
19.4109175354
 30
0.0
 11
41.437175972
 21
19.7394173592
 31
0.0
  0
LINE
  5
266
330
1F
100
AcDbEntity
  8
1
  6
SLD-Solid
370
    18
100
AcDbLine
 10
41.437175972
 20
19.7394173592
 30
0.0
 11
41.437175972
 21
19.9043508619
 31
0.0
  0
LINE
  5
267
330
1F
100
AcDbEntity
  8
1
  6
SLD-Solid
370
    18
100
AcDbLine
 10
41.437175972
 20
19.9043508619
 30
0.0
 11
41.437175972
 21
19.925000146
 31
0.0
  0
LINE
  5
268
330
1F
100
AcDbEntity
  8
SK3
  6
SLD-Solid
370
    18
100
AcDbLine
 10
-35.1528256111
 20
8.00000038
 30
0.0
 11
-57.1909463876
 21
8.00000038
 31
0.0
  0
LINE
  5
269
330
1F
100
AcDbEntity
  8
SK3
  6
SLD-Solid
370
    18
100
AcDbLine
 10
-57.1909463876
 20
-8.00000038
 30
0.0
 11
-35.1528256111
 21
-8.00000038
 31
0.0
  0
LINE
  5
26A
330
1F
100
AcDbEntity
  8
SK3
  6
SLD-Solid
370
    18
100
AcDbLine
 10
-35.1528256111
 20
8.00000038
 30
0.0
 11
-35.1528256111
 21
7.9786581919
 31
0.0
  0
LINE
  5
26B
330
1F
100
AcDbEntity
  8
SK3
  6
SLD-Solid
370
    18
100
AcDbLine
 10
-35.1528256111
 20
7.9786581919
 30
0.0
 11
-35.1528256111
 21
7.8086070716
 31
0.0
  0
LINE
  5
26C
330
1F
100
AcDbEntity
  8
SK3
  6
SLD-Solid
370
    18
100
AcDbLine
 10
-35.1528256111
 20
7.8086070716
 30
0.0
 11
-35.1528256111
 21
7.472129073
 31
0.0
  0
LINE
  5
26D
330
1F
100
AcDbEntity
  8
SK3
  6
SLD-Solid
370
    18
100
AcDbLine
 10
-35.1528256111
 20
7.472129073
 30
0.0
 11
-35.1528256111
 21
6.9763953798
 31
0.0
  0
LINE
  5
26E
330
1F
100
AcDbEntity
  8
SK3
  6
SLD-Solid
370
    18
100
AcDbLine
 10
-35.1528256111
 20
6.9763953798
 30
0.0
 11
-35.1528256111
 21
6.3319718465
 31
0.0
  0
LINE
  5
26F
330
1F
100
AcDbEntity
  8
SK3
  6
SLD-Solid
370
    18
100
AcDbLine
 10
-35.1528256111
 20
6.3319718465
 30
0.0
 11
-35.1528256111
 21
5.5525936186
 31
0.0
  0
LINE
  5
270
330
1F
100
AcDbEntity
  8
SK3
  6
SLD-Solid
370
    18
100
AcDbLine
 10
-35.1528256111
 20
5.5525936186
 30
0.0
 11
-35.1528256111
 21
4.6548712999
 31
0.0
  0
LINE
  5
271
330
1F
100
AcDbEntity
  8
SK3
  6
SLD-Solid
370
    18
100
AcDbLine
 10
-35.1528256111
 20
4.6548712999
 30
0.0
 11
-35.1528256111
 21
3.6579386797
 31
0.0
  0
LINE
  5
272
330
1F
100
AcDbEntity
  8
SK3
  6
SLD-Solid
370
    18
100
AcDbLine
 10
-35.1528256111
 20
3.6579386797
 30
0.0
 11
-35.1528256111
 21
2.5830431841
 31
0.0
  0
LINE
  5
273
330
1F
100
AcDbEntity
  8
SK3
  6
SLD-Solid
370
    18
100
AcDbLine
 10
-35.1528256111
 20
2.5830431841
 30
0.0
 11
-35.1528256111
 21
1.4530947665
 31
0.0
  0
LINE
  5
274
330
1F
100
AcDbEntity
  8
SK3
  6
SLD-Solid
370
    18
100
AcDbLine
 10
-35.1528256111
 20
1.4530947665
 30
0.0
 11
-35.1528256111
 21
0.292176177
 31
0.0
  0
LINE
  5
275
330
1F
100
AcDbEntity
  8
SK3
  6
SLD-Solid
370
    18
100
AcDbLine
 10
-35.1528256111
 20
0.292176177
 30
0.0
 11
-35.1528256111
 21
-0.8749696426
 31
0.0
  0
LINE
  5
276
330
1F
100
AcDbEntity
  8
SK3
  6
SLD-Solid
370
    18
100
AcDbLine
 10
-35.1528256111
 20
-0.8749696426
 30
0.0
 11
-35.1528256111
 21
-2.0234670956
 31
0.0
  0
LINE
  5
277
330
1F
100
AcDbEntity
  8
SK3
  6
SLD-Solid
370
    18
100
AcDbLine
 10
-35.1528256111
 20
-2.0234670956
 30
0.0
 11
-35.1528256111
 21
-3.1288377941
 31
0.0
  0
LINE
  5
278
330
1F
100
AcDbEntity
  8
SK3
  6
SLD-Solid
370
    18
100
AcDbLine
 10
-35.1528256111
 20
-3.1288377941
 30
0.0
 11
-35.1528256111
 21
-4.1675227694
 31
0.0
  0
LINE
  5
279
330
1F
100
AcDbEntity
  8
SK3
  6
SLD-Solid
370
    18
100
AcDbLine
 10
-35.1528256111
 20
-4.1675227694
 30
0.0
 11
-35.1528256111
 21
-5.1173842512
 31
0.0
  0
LINE
  5
27A
330
1F
100
AcDbEntity
  8
SK3
  6
SLD-Solid
370
    18
100
AcDbLine
 10
-35.1528256111
 20
-5.1173842512
 30
0.0
 11
-35.1528256111
 21
-5.958177615
 31
0.0
  0
LINE
  5
27B
330
1F
100
AcDbEntity
  8
SK3
  6
SLD-Solid
370
    18
100
AcDbLine
 10
-35.1528256111
 20
-5.958177615
 30
0.0
 11
-35.1528256111
 21
-6.6719823517
 31
0.0
  0
LINE
  5
27C
330
1F
100
AcDbEntity
  8
SK3
  6
SLD-Solid
370
    18
100
AcDbLine
 10
-35.1528256111
 20
-6.6719823517
 30
0.0
 11
-35.1528256111
 21
-7.2435857728
 31
0.0
  0
LINE
  5
27D
330
1F
100
AcDbEntity
  8
SK3
  6
SLD-Solid
370
    18
100
AcDbLine
 10
-35.1528256111
 20
-7.2435857728
 30
0.0
 11
-35.1528256111
 21
-7.6608047821
 31
0.0
  0
LINE
  5
27E
330
1F
100
AcDbEntity
  8
SK3
  6
SLD-Solid
370
    18
100
AcDbLine
 10
-35.1528256111
 20
-7.6608047821
 30
0.0
 11
-35.1528256111
 21
-7.9147471115
 31
0.0
  0
LINE
  5
27F
330
1F
100
AcDbEntity
  8
SK3
  6
SLD-Solid
370
    18
100
AcDbLine
 10
-35.1528256111
 20
-7.9147471115
 30
0.0
 11
-35.1528256111
 21
-8.00000038
 31
0.0
  0
LINE
  5
280
330
1F
100
AcDbEntity
  8
SK3
  6
SLD-Solid
370
    18
100
AcDbLine
 10
-18.5628245496
 20
-10.9999999404
 30
0.0
 11
21.8062707312
 21
-10.9999999404
 31
0.0
  0
LINE
  5
281
330
1F
100
AcDbEntity
  8
SK3
  6
SLD-Solid
370
    18
100
AcDbLine
 10
21.8062707312
 20
10.9999999404
 30
0.0
 11
-18.5628245496
 21
10.9999999404
 31
0.0
  0
LINE
  5
282
330
1F
100
AcDbEntity
  8
SK3
  6
SLD-Solid
370
    18
100
AcDbLine
 10
-18.5628245496
 20
-10.9999999404
 30
0.0
 11
-18.5628245496
 21
-10.9166251495
 31
0.0
  0
LINE
  5
283
330
1F
100
AcDbEntity
  8
SK3
  6
SLD-Solid
370
    18
100
AcDbLine
 10
-18.5628585011
 20
-10.9166251495
 30
0.0
 11
-18.5628245496
 21
-10.6677664444
 31
0.0
  0
LINE
  5
284
330
1F
100
AcDbEntity
  8
SK3
  6
SLD-Solid
370
    18
100
AcDbLine
 10
-18.5628245496
 20
-10.6677664444
 30
0.0
 11
-18.5628245496
 21
-10.25719475
 31
0.0
  0
LINE
  5
285
330
1F
100
AcDbEntity
  8
SK3
  6
SLD-Solid
370
    18
100
AcDbLine
 10
-18.5628245496
 20
-10.25719475
 30
0.0
 11
-18.5628245496
 21
-9.6911340952
 31
0.0
  0
LINE
  5
286
330
1F
100
AcDbEntity
  8
SK3
  6
SLD-Solid
370
    18
100
AcDbLine
 10
-18.5628245496
 20
-9.6911340952
 30
0.0
 11
-18.5628245496
 21
-8.9781656861
 31
0.0
  0
LINE
  5
287
330
1F
100
AcDbEntity
  8
SK3
  6
SLD-Solid
370
    18
100
AcDbLine
 10
-18.5628245496
 20
-8.9781656861
 30
0.0
 11
-18.5628245496
 21
-8.1290984526
 31
0.0
  0
LINE
  5
288
330
1F
100
AcDbEntity
  8
SK3
  6
SLD-Solid
370
    18
100
AcDbLine
 10
-18.5628245496
 20
-8.1290984526
 30
0.0
 11
-18.5628245496
 21
-7.15680141
 31
0.0
  0
LINE
  5
289
330
1F
100
AcDbEntity
  8
SK3
  6
SLD-Solid
370
    18
100
AcDbLine
 10
-18.5628245496
 20
-7.15680141
 30
0.0
 11
-18.5628245496
 21
-6.0760146007
 31
0.0
  0
LINE
  5
28A
330
1F
100
AcDbEntity
  8
SK3
  6
SLD-Solid
370
    18
100
AcDbLine
 10
-18.5628245496
 20
-6.0760146007
 30
0.0
 11
-18.5628245496
 21
-4.9031218514
 31
0.0
  0
LINE
  5
28B
330
1F
100
AcDbEntity
  8
SK3
  6
SLD-Solid
370
    18
100
AcDbLine
 10
-18.5628245496
 20
-4.9031218514
 30
0.0
 11
-18.5628245496
 21
-3.6559028085
 31
0.0
  0
LINE
  5
28C
330
1F
100
AcDbEntity
  8
SK3
  6
SLD-Solid
370
    18
100
AcDbLine
 10
-18.5628245496
 20
-3.6559028085
 30
0.0
 11
-18.5628245496
 21
-2.3532640189
 31
0.0
  0
LINE
  5
28D
330
1F
100
AcDbEntity
  8
SK3
  6
SLD-Solid
370
    18
100
AcDbLine
 10
-18.5628245496
 20
-2.3532640189
 30
0.0
 11
-18.5628245496
 21
-1.0149519658
 31
0.0
  0
LINE
  5
28E
330
1F
100
AcDbEntity
  8
SK3
  6
SLD-Solid
370
    18
100
AcDbLine
 10
-18.5628245496
 20
-1.0149519658
 30
0.0
 11
-18.5628245496
 21
0.3387456527
 31
0.0
  0
LINE
  5
28F
330
1F
100
AcDbEntity
  8
SK3
  6
SLD-Solid
370
    18
100
AcDbLine
 10
-18.5628245496
 20
0.3387456527
 30
0.0
 11
-18.5628245496
 21
1.6873081913
 31
0.0
  0
LINE
  5
290
330
1F
100
AcDbEntity
  8
SK3
  6
SLD-Solid
370
    18
100
AcDbLine
 10
-18.5628245496
 20
1.6873081913
 30
0.0
 11
-18.5628245496
 21
3.0102930032
 31
0.0
  0
LINE
  5
291
330
1F
100
AcDbEntity
  8
SK3
  6
SLD-Solid
370
    18
100
AcDbLine
 10
-18.5628245496
 20
3.0102930032
 30
0.0
 11
-18.5628245496
 21
4.2876447551
 31
0.0
  0
LINE
  5
292
330
1F
100
AcDbEntity
  8
SK3
  6
SLD-Solid
370
    18
100
AcDbLine
 10
-18.5628245496
 20
4.2876447551
 30
0.0
 11
-18.5628245496
 21
5.4999999702
 31
0.0
  0
LINE
  5
293
330
1F
100
AcDbEntity
  8
SK3
  6
SLD-Solid
370
    18
100
AcDbLine
 10
-18.5628245496
 20
5.4999999702
 30
0.0
 11
-18.5628245496
 21
6.6289808601
 31
0.0
  0
LINE
  5
294
330
1F
100
AcDbEntity
  8
SK3
  6
SLD-Solid
370
    18
100
AcDbLine
 10
-18.5628245496
 20
6.6289808601
 30
0.0
 11
-18.5628245496
 21
7.6574734412
 31
0.0
  0
LINE
  5
295
330
1F
100
AcDbEntity
  8
SK3
  6
SLD-Solid
370
    18
100
AcDbLine
 10
-18.5628245496
 20
7.6574734412
 30
0.0
 11
-18.5628245496
 21
8.5698859766
 31
0.0
  0
LINE
  5
296
330
1F
100
AcDbEntity
  8
SK3
  6
SLD-Solid
370
    18
100
AcDbLine
 10
-18.5628245496
 20
8.5698859766
 30
0.0
 11
-18.5628245496
 21
9.3523887917
 31
0.0
  0
LINE
  5
297
330
1F
100
AcDbEntity
  8
SK3
  6
SLD-Solid
370
    18
100
AcDbLine
 10
-18.5628245496
 20
9.3523887917
 30
0.0
 11
-18.5628245496
 21
9.993118234
 31
0.0
  0
LINE
  5
298
330
1F
100
AcDbEntity
  8
SK3
  6
SLD-Solid
370
    18
100
AcDbLine
 10
-18.5628245496
 20
9.993118234
 30
0.0
 11
-18.5628245496
 21
10.4823615402
 31
0.0
  0
LINE
  5
299
330
1F
100
AcDbEntity
  8
SK3
  6
SLD-Solid
370
    18
100
AcDbLine
 10
-18.5628245496
 20
10.4823615402
 30
0.0
 11
-18.5628245496
 21
10.8127044514
 31
0.0
  0
LINE
  5
29A
330
1F
100
AcDbEntity
  8
SK3
  6
SLD-Solid
370
    18
100
AcDbLine
 10
-18.5628245496
 20
10.8127044514
 30
0.0
 11
-18.5628245496
 21
10.9791364521
 31
0.0
  0
LINE
  5
29B
330
1F
100
AcDbEntity
  8
SK3
  6
SLD-Solid
370
    18
100
AcDbLine
 10
-18.5628245496
 20
10.9791364521
 30
0.0
 11
-18.5628245496
 21
10.9999999404
 31
0.0
  0
LINE
  5
29C
330
1F
100
AcDbEntity
  8
4
  6
SLD-Center
370
    18
100
AcDbLine
 10
0.6648195575
 20
0.0
 30
0.0
 11
59.4371750445
 21
0.0
 31
0.0
  0
LINE
  5
29D
330
1F
100
AcDbEntity
  8
SK4
  6
SLD-Center
370
    18
100
AcDbLine
 10
59.1024048504
 20
0.0
 30
0.0
 11
-70.6290344998
 21
0.0
 31
0.0
  0
ARC
  5
29E
330
1F
100
AcDbEntity
  8
1
  6
SLD-Solid
370
    25
100
AcDbCircle
 10
4.0471750445
 20
31.0
 30
0.0
 40
0.7500000000000147
100
AcDbArc
 50
90.0
 51
180.0
  0
ARC
  5
29F
330
1F
100
AcDbEntity
  8
1
  6
SLD-Solid
370
    25
100
AcDbCircle
 10
18.3971750445
 20
31.0
 30
0.0
 40
0.7500000000000036
100
AcDbArc
 50
360.0
 51
90.0
  0
ARC
  5
2A0
330
1F
100
AcDbEntity
  8
1
  6
SLD-Solid
370
    25
100
AcDbCircle
 10
2.5471750445
 20
-22.79
 30
0.0
 40
0.7500000000000012
100
AcDbArc
 50
0.0
 51
115.0
  0
ARC
  5
2A1
330
1F
100
AcDbEntity
  8
1
  6
SLD-Solid
370
    25
100
AcDbCircle
 10
2.5471750445
 20
22.79
 30
0.0
 40
0.7500000000000004
100
AcDbArc
 50
245.0
 51
0.0
  0
ARC
  5
2A2
330
1F
100
AcDbEntity
  8
1
  6
SLD-Solid
370
    25
100
AcDbCircle
 10
4.0471750445
 20
-31.0
 30
0.0
 40
0.7500000000000147
100
AcDbArc
 50
180.0
 51
270.0
  0
ARC
  5
2A3
330
1F
100
AcDbEntity
  8
1
  6
SLD-Solid
370
    25
100
AcDbCircle
 10
18.3971750445
 20
-31.0
 30
0.0
 40
0.7500000000000142
100
AcDbArc
 50
270.0
 51
0.0
  0
ARC
  5
2A4
330
1F
100
AcDbEntity
  8
1
  6
SLD-Solid
370
    25
100
AcDbCircle
 10
12.3771750445
 20
-28.75
 30
0.0
 40
0.75
100
AcDbArc
 50
0.0
 51
90.0
  0
ARC
  5
2A5
330
1F
100
AcDbEntity
  8
1
  6
SLD-Solid
370
    25
100
AcDbCircle
 10
10.0471750445
 20
-28.75
 30
0.0
 40
0.7500000000000142
100
AcDbArc
 50
90.0
 51
180.0
  0
ARC
  5
2A6
330
1F
100
AcDbEntity
  8
SK1
  6
SLD-Solid
370
    25
100
AcDbCircle
 10
-67.1528249555
 20
-11.4070377962
 30
0.0
 40
1.0
100
AcDbArc
 50
180.0
 51
261.7027777778
  0
ARC
  5
2A7
330
1F
100
AcDbEntity
  8
SK1
  6
SLD-Solid
370
    25
100
AcDbCircle
 10
-67.1528249555
 20
11.4070377962
 30
0.0
 40
1.000000000000003
100
AcDbArc
 50
98.2972222222
 51
180.0
  0
ARC
  5
2A8
330
1F
100
AcDbEntity
  8
1
  6
SLD-Solid
370
    25
100
AcDbCircle
 10
12.3771750445
 20
28.75
 30
0.0
 40
0.75
100
AcDbArc
 50
270.0
 51
0.0
  0
ARC
  5
2A9
330
1F
100
AcDbEntity
  8
1
  6
SLD-Solid
370
    25
100
AcDbCircle
 10
10.0471750445
 20
28.75
 30
0.0
 40
0.7500000000000142
100
AcDbArc
 50
180.0
 51
270.0
  0
ARC
  5
2AA
330
1F
100
AcDbEntity
  8
1
  6
SLD-Solid
370
    25
100
AcDbCircle
 10
43.4471750445
 20
0.0
 30
0.0
 40
24.80000000000018
100
AcDbArc
 50
180.0
 51
191.5246876988
  0
ARC
  5
2AB
330
1F
100
AcDbEntity
  8
1
  6
SLD-Solid
370
    25
100
AcDbCircle
 10
43.4471750445
 20
0.0
 30
0.0
 40
24.80000000000018
100
AcDbArc
 50
168.4753123013
 51
180.0
  0
CIRCLE
  5
2AC
330
1F
100
AcDbEntity
  8
1
  6
SLD-Solid
370
    25
100
AcDbCircle
 10
11.1971750445
 20
0.0
 30
0.0
 40
5.000000000000005
  0
ARC
  5
2AD
330
1F
100
AcDbEntity
  8
SK3
  6
SLD-Dashed
370
    18
100
AcDbCircle
 10
56.4371750445
 20
-16.9902680687
 30
0.0
 40
1.000000000000007
100
AcDbArc
 50
0.0
 51
82.0
  0
ARC
  5
2AE
330
1F
100
AcDbEntity
  8
SK3
  6
SLD-Dashed
370
    18
100
AcDbCircle
 10
56.4371750445
 20
16.9902680687
 30
0.0
 40
1.000000000000007
100
AcDbArc
 50
278.0
 51
0.0
  0
SPLINE
  5
2AF
330
1F
100
AcDbEntity
  8
1
  6
SLD-Solid
370
    25
100
AcDbSpline
210
0.0
220
0.0
230
1.0
 70
     8
 71
     3
 72
    11
 73
     7
 74
     0
 42
0.000000001
 43
0.00000001
 40
0.0
 40
0.0
 40
0.0
 40
0.0
 40
0.1197941731576418
 40
0.4953992706251169
 40
0.8802058268423579
 40
1.0
 40
1.0
 40
1.0
 40
1.0
 10
51.15653022319272
 20
19.84534735852715
 30
0.0
 10
51.1181275079941
 20
20.00025445518307
 30
0.0
 10
50.95931613513719
 20
20.6408604268693
 30
0.0
 10
50.85532866313682
 20
21.67898135998021
 30
0.0
 10
50.95638975746886
 20
22.56256056713295
 30
0.0
 10
51.11813198914322
 20
22.98859741320654
 30
0.0
 10
51.15653022319272
 20
23.08974021530534
 30
0.0
  0
SPLINE
  5
2B0
330
1F
100
AcDbEntity
  8
1
  6
SLD-Solid
370
    25
100
AcDbSpline
210
0.0
220
0.0
230
1.0
 70
     8
 71
     3
 72
    11
 73
     7
 74
     0
 42
0.000000001
 43
0.00000001
 40
0.0
 40
0.0
 40
0.0
 40
0.0
 40
0.1197941731576423
 40
0.4953992706251168
 40
0.8802058268423576
 40
1.0
 40
1.0
 40
1.0
 40
1.0
 10
51.15653022319272
 20
-3.24439285677822
 30
0.0
 10
51.1181275079941
 20
-2.98834412128467
 30
0.0
 10
50.95931613513719
 20
-1.929474950402167
 30
0.0
 10
50.85532866313685
 20
-0.0102378428395861
 30
0.0
 10
50.95638975746878
 20
1.909814507954889
 30
0.0
 10
51.11813198914319
 20
2.988345427238144
 30
0.0
 10
51.15653022319269
 20
3.244392856778223
 30
0.0
  0
SPLINE
  5
2B1
330
1F
100
AcDbEntity
  8
1
  6
SLD-Solid
370
    25
100
AcDbSpline
210
0.0
220
0.0
230
1.0
 70
     8
 71
     3
 72
    11
 73
     7
 74
     0
 42
0.000000001
 43
0.00000001
 40
0.0
 40
0.0
 40
0.0
 40
0.0
 40
0.1197941731576417
 40
0.495399270625117
 40
0.880205826842359
 40
0.9999999999999999
 40
0.9999999999999999
 40
0.9999999999999999
 40
0.9999999999999999
 10
51.1565302231927
 20
-23.0897402153052
 30
0.0
 10
51.11812750799412
 20
-22.98859857646757
 30
0.0
 10
50.95931613513714
 20
-22.57033537727128
 30
0.0
 10
50.85532866313683
 20
-21.6892192028196
 30
0.0
 10
50.95638975746884
 20
-20.65274605917786
 30
0.0
 10
51.11813198914319
 20
-20.00025198596819
 30
0.0
 10
51.15653022319269
 20
-19.84534735852691
 30
0.0
  0
SPLINE
  5
2B2
330
1F
100
AcDbEntity
  8
1
  6
SLD-Solid
370
    25
100
AcDbSpline
210
0.0
220
0.0
230
1.0
 70
     8
 71
     3
 72
    10
 73
     6
 74
     0
 42
0.000000001
 43
0.00000001
 40
0.0
 40
0.0
 40
0.0
 40
0.0
 40
0.4323736516863448
 40
0.8661336802076137
 40
1.0
 40
1.0
 40
1.0
 40
1.0
 10
68.86057141067585
 20
2.502394562544128
 30
0.0
 10
68.89585406219183
 20
1.781356013948021
 30
0.0
 10
68.96653249665661
 20
0.336966955476567
 30
0.0
 10
68.93022515298095
 20
-1.333528810629515
 30
0.0
 10
68.87386348137893
 20
-2.279339121405113
 30
0.0
 10
68.86057141067585
 20
-2.50239456254411
 30
0.0
  0
SPLINE
  5
2B3
330
1F
100
AcDbEntity
  8
1
  6
SLD-Solid
370
    25
100
AcDbSpline
210
0.0
220
0.0
230
1.0
 70
     8
 71
     3
 72
    11
 73
     7
 74
     0
 42
0.000000001
 43
0.00000001
 40
0.0
 40
0.0
 40
0.0
 40
0.0
 40
0.0054360027607874
 40
0.4989674740461637
 40
0.994563997239213
 40
1.0
 40
1.0
 40
1.0
 40
1.0
 10
68.86057141067585
 20
20.30375616452973
 30
0.0
 10
68.86116011720799
 20
20.29922893295568
 30
0.0
 10
68.91519714113794
 20
19.88367702793676
 30
0.0
 10
68.9693447015255
 20
19.05342422945586
 30
0.0
 10
68.9154207851304
 20
18.22316055748026
 30
0.0
 10
68.8611601172471
 20
17.80588883350461
 30
0.0
 10
68.86057141067587
 20
17.80136160198564
 30
0.0
  0
SPLINE
  5
2B4
330
1F
100
AcDbEntity
  8
1
  6
SLD-Solid
370
    25
100
AcDbSpline
210
0.0
220
0.0
230
1.0
 70
     8
 71
     3
 72
    11
 73
     7
 74
     0
 42
0.000000001
 43
0.00000001
 40
0.0
 40
0.0
 40
0.0
 40
0.0
 40
0.0054360027607868
 40
0.4989674740461648
 40
0.9945639972392142
 40
1.0
 40
1.0
 40
1.0
 40
1.0
 10
68.86057141067585
 20
-17.80136160198543
 30
0.0
 10
68.86116011720796
 20
-17.8058888335595
 30
0.0
 10
68.91519714113896
 20
-18.22144073857831
 30
0.0
 10
68.96934470152442
 20
-19.05169353705943
 30
0.0
 10
68.91542078513139
 20
-19.88195720903489
 30
0.0
 10
68.86116011724707
 20
-20.29922893301062
 30
0.0
 10
68.86057141067585
 20
-20.30375616452961
 30
0.0
  0
SPLINE
  5
2B5
330
1F
100
AcDbEntity
  8
1
  6
SLD-Solid
370
    25
100
AcDbSpline
210
0.0
220
0.0
230
1.0
 70
     8
 71
     3
 72
     8
 73
     4
 74
     0
 42
0.000000001
 43
0.00000001
 40
0.0
 40
0.0
 40
0.0
 40
0.0
 40
0.0008783072046589
 40
0.0008783072046589
 40
0.0008783072046589
 40
0.0008783072046589
 10
14.73401168656692
 20
-8.732520000000028
 30
0.0
 10
14.61144585884014
 20
-8.520229759105511
 30
0.0
 10
14.48945587807665
 20
-8.307726875209413
 30
0.0
 10
14.36808335238704
 20
-8.094999999999999
 30
0.0
  0
SPLINE
  5
2B6
330
1F
100
AcDbEntity
  8
1
  6
SLD-Solid
370
    25
100
AcDbSpline
210
0.0
220
0.0
230
1.0
 70
    24
 71
     3
 72
    18
 73
    14
 74
     0
 42
0.000000001
 43
0.00000001
 40
0.0
 40
0.0
 40
0.0
 40
0.0
 40
0.0503985907721767
 40
0.1007611985112129
 40
0.1867133625924686
 40
0.250707802088887
 40
0.3759053866292146
 40
0.5002769903873882
 40
0.6254727404757954
 40
0.7499722576385894
 40
0.8750533663912197
 40
0.9372999447731115
 40
1.0
 40
1.0
 40
1.0
 40
1.0
 10
18.39717504451014
 20
-8.094999999999999
 30
0.0
 10
18.40390091387929
 20
-8.094999999999999
 30
0.0
 10
18.41734785055512
 20
-8.095000000000002
 30
0.0
 10
18.44208457709439
 20
-8.095000000000006
 30
0.0
 10
18.46814884393373
 20
-8.095000000000008
 30
0.0
 10
18.50251572469878
 20
-8.095000000000017
 30
0.0
 10
18.53914706688673
 20
-8.095000000000022
 30
0.0
 10
18.57703991568893
 20
-8.095000000000027
 30
0.0
 10
18.60771119442221
 20
-8.095000000000036
 30
0.0
 10
18.63032017599862
 20
-8.095000000000038
 30
0.0
 10
18.64172431266976
 20
-8.095000000000041
 30
0.0
 10
18.64650291589503
 20
-8.095000000000041
 30
0.0
 10
18.64695046020464
 20
-8.095000000000041
 30
0.0
 10
18.64717504451012
 20
-8.095000000000041
 30
0.0
  0
SPLINE
  5
2B7
330
1F
100
AcDbEntity
  8
1
  6
SLD-Solid
370
    25
100
AcDbSpline
210
0.0
220
0.0
230
1.0
 70
     8
 71
     3
 72
    15
 73
    11
 74
     0
 42
0.000000001
 43
0.00000001
 40
0.0
 40
0.0
 40
0.0
 40
0.0
 40
0.0701435325383619
 40
0.1230076382658076
 40
0.2464580449108382
 40
0.4936501266417946
 40
0.6221640882791771
 40
0.7451781028260629
 40
0.8734188463590339
 40
1.0
 40
1.0
 40
1.0
 40
1.0
 10
19.14717504451009
 20
-8.595000000000017
 30
0.0
 10
19.14631969222509
 20
-8.600068931336681
 30
0.0
 10
19.14481969841732
 20
-8.608958094024787
 30
0.0
 10
19.1298488906705
 20
-8.626522361201257
 30
0.0
 10
19.08289804061657
 20
-8.655890547791135
 30
0.0
 10
18.97248346589234
 20
-8.686676393428936
 30
0.0
 10
18.8214842476847
 20
-8.709663478514942
 30
0.0
 10
18.6897714097317
 20
-8.722605848112558
 30
0.0
 10
18.54715016916286
 20
-8.730953584814682
 30
0.0
 10
18.44694922501404
 20
-8.7320001335731
 30
0.0
 10
18.39717504451016
 20
-8.732520000000028
 30
0.0
  0
SPLINE
  5
2B8
330
1F
100
AcDbEntity
  8
1
  6
SLD-Solid
370
    25
100
AcDbSpline
210
0.0
220
0.0
230
1.0
 70
    24
 71
     3
 72
     8
 73
     4
 74
     0
 42
0.000000001
 43
0.00000001
 40
0.0
 40
0.0
 40
0.0
 40
0.0
 40
0.2499999999999996
 40
0.2499999999999996
 40
0.2499999999999996
 40
0.2499999999999996
 10
18.39717504451016
 20
-18.34999999999999
 30
0.0
 10
18.50726850391839
 20
-18.34999999999999
 30
0.0
 10
18.61632149949278
 20
-18.34999999999999
 30
0.0
 10
18.71196469039883
 20
-18.34999999999999
 30
0.0
  0
SPLINE
  5
2B9
330
1F
100
AcDbEntity
  8
1
  6
SLD-Solid
370
    25
100
AcDbSpline
210
0.0
220
0.0
230
1.0
 70
    24
 71
     3
 72
     8
 73
     4
 74
     0
 42
0.000000001
 43
0.00000001
 40
0.2499999999999996
 40
0.2499999999999996
 40
0.2499999999999996
 40
0.2499999999999996
 40
0.4999999999999991
 40
0.4999999999999991
 40
0.4999999999999991
 40
0.4999999999999991
 10
18.71196469039883
 20
-18.34999999999999
 30
0.0
 10
18.80760788130489
 20
-18.34999999999999
 30
0.0
 10
18.89008022486365
 20
-18.34999999999999
 30
0.0
 10
18.9550042414853
 20
-18.34999999999999
 30
0.0
  0
SPLINE
  5
2BA
330
1F
100
AcDbEntity
  8
1
  6
SLD-Solid
370
    25
100
AcDbSpline
210
0.0
220
0.0
230
1.0
 70
    24
 71
     2
 72
     6
 73
     3
 74
     0
 42
0.000000001
 43
0.00000001
 40
0.4999999999999991
 40
0.4999999999999991
 40
0.4999999999999991
 40
1.0
 40
1.0
 40
1.0
 10
18.9550042414853
 20
-18.34999999999999
 30
0.0
 10
19.08485227472864
 20
-18.34999999999999
 30
0.0
 10
19.14717504451019
 20
-18.35000000000001
 30
0.0
  0
SPLINE
  5
2BB
330
1F
100
AcDbEntity
  8
1
  6
SLD-Solid
370
    25
100
AcDbSpline
210
0.0
220
0.0
230
1.0
 70
     8
 71
     3
 72
    15
 73
    11
 74
     0
 42
0.000000001
 43
0.00000001
 40
0.0
 40
0.0
 40
0.0
 40
0.0
 40
0.070143531794924
 40
0.1230076382662239
 40
0.2464580449112004
 40
0.4936501266420342
 40
0.6221640882725309
 40
0.7451781028261851
 40
0.8734188463588567
 40
1.0
 40
1.0
 40
1.0
 40
1.0
 10
3.297175044510159
 20
8.595000000000006
 30
0.0
 10
3.298030396778409
 20
8.600068931283253
 30
0.0
 10
3.299530390572694
 20
8.608958093971948
 30
0.0
 10
3.314501198267192
 20
8.626522361149192
 30
0.0
 10
3.361452048403726
 20
8.65589054779145
 30
0.0
 10
3.471866623126429
 20
8.686676393428536
 30
0.0
 10
3.622865841333242
 20
8.70966347851447
 30
0.0
 10
3.7545786792859
 20
8.722605848112428
 30
0.0
 10
3.897199919857306
 20
8.730953584814579
 30
0.0
 10
3.997400864006129
 20
8.732000133573052
 30
0.0
 10
4.04717504451009
 20
8.732519999999987
 30
0.0
  0
SPLINE
  5
2BC
330
1F
100
AcDbEntity
  8
1
  6
SLD-Solid
370
    25
100
AcDbSpline
210
0.0
220
0.0
230
1.0
 70
    24
 71
     3
 72
    18
 73
    14
 74
     0
 42
0.000000001
 43
0.00000001
 40
0.0
 40
0.0
 40
0.0
 40
0.0
 40
0.0503985907721776
 40
0.1007611985112122
 40
0.1867133625924729
 40
0.250707802088889
 40
0.3759053866292136
 40
0.5002769903873886
 40
0.6254727404758041
 40
0.7499722576385879
 40
0.8750533663912278
 40
0.9372999447731191
 40
0.9999999999999999
 40
0.9999999999999999
 40
0.9999999999999999
 40
0.9999999999999999
 10
4.047175044510146
 20
8.094999999999985
 30
0.0
 10
4.040449175141
 20
8.094999999999985
 30
0.0
 10
4.027002238465152
 20
8.094999999999983
 30
0.0
 10
4.002265511925882
 20
8.094999999999983
 30
0.0
 10
3.976201245086575
 20
8.094999999999983
 30
0.0
 10
3.941834364321495
 20
8.094999999999981
 30
0.0
 10
3.905203022133569
 20
8.094999999999986
 30
0.0
 10
3.867310173331348
 20
8.094999999999986
 30
0.0
 10
3.836638894598079
 20
8.094999999999985
 30
0.0
 10
3.814029913021669
 20
8.094999999999985
 30
0.0
 10
3.80262577635053
 20
8.094999999999992
 30
0.0
 10
3.797847173125271
 20
8.094999999999992
 30
0.0
 10
3.797399628815645
 20
8.094999999999992
 30
0.0
 10
3.797175044510173
 20
8.094999999999992
 30
0.0
  0
SPLINE
  5
2BD
330
1F
100
AcDbEntity
  8
1
  6
SLD-Solid
370
    25
100
AcDbSpline
210
0.0
220
0.0
230
1.0
 70
     8
 71
     3
 72
     8
 73
     4
 74
     0
 42
0.000000001
 43
0.00000001
 40
0.0
 40
0.0
 40
0.0
 40
0.0
 40
0.0008783072046589
 40
0.0008783072046589
 40
0.0008783072046589
 40
0.0008783072046589
 10
7.690338402453395
 20
8.732519999999987
 30
0.0
 10
7.812904230180174
 20
8.520229759105485
 30
0.0
 10
7.934894210943676
 20
8.307726875209406
 30
0.0
 10
8.056266736633313
 20
8.094999999999983
 30
0.0
  0
SPLINE
  5
2BE
330
1F
100
AcDbEntity
  8
1
  6
SLD-Solid
370
    25
100
AcDbSpline
210
0.0
220
0.0
230
1.0
 70
     8
 71
     3
 72
     8
 73
     4
 74
     0
 42
0.000000001
 43
0.00000001
 40
0.0
 40
0.0
 40
0.0
 40
0.0
 40
0.0008783072046589
 40
0.0008783072046589
 40
0.0008783072046589
 40
0.0008783072046589
 10
14.3680833523839
 20
8.094999999992927
 30
0.0
 10
14.48945587807352
 20
8.307726875202356
 30
0.0
 10
14.61144585883702
 20
8.520229759098427
 30
0.0
 10
14.7340116865638
 20
8.73251999999293
 30
0.0
  0
SPLINE
  5
2BF
330
1F
100
AcDbEntity
  8
1
  6
SLD-Solid
370
    25
100
AcDbSpline
210
0.0
220
0.0
230
1.0
 70
    24
 71
     3
 72
    18
 73
    14
 74
     0
 42
0.000000001
 43
0.00000001
 40
0.0
 40
0.0
 40
0.0
 40
0.0
 40
0.0502617221452385
 40
0.1003354213518343
 40
0.1864287239590559
 40
0.2507033761673368
 40
0.3754040368259516
 40
0.5003115117971194
 40
0.6254321409840755
 40
0.7499589778058467
 40
0.8750959321922386
 40
0.9373335260982067
 40
1.0
 40
1.0
 40
1.0
 40
1.0
 10
18.64717504450704
 20
8.094999999992917
 30
0.0
 10
18.6470308978914
 20
8.09499999999291
 30
0.0
 10
18.64674314389492
 20
8.09499999999291
 30
0.0
 10
18.64387928789904
 20
8.09499999999291
 30
0.0
 10
18.63826716609906
 20
8.09499999999291
 30
0.0
 10
18.62654251294687
 20
8.09499999999291
 30
0.0
 10
18.60758888204534
 20
8.094999999992917
 30
0.0
 10
18.57682536869092
 20
8.094999999992917
 30
0.0
 10
18.53889774798667
 20
8.094999999992915
 30
0.0
 10
18.49512688908237
 20
8.094999999992922
 30
0.0
 10
18.45521117274058
 20
8.094999999992922
 30
0.0
 10
18.42221089689128
 20
8.094999999992927
 30
0.0
 10
18.40553941012516
 20
8.094999999992927
 30
0.0
 10
18.39717504450704
 20
8.094999999992927
 30
0.0
  0
SPLINE
  5
2C0
330
1F
100
AcDbEntity
  8
1
  6
SLD-Solid
370
    25
100
AcDbSpline
210
0.0
220
0.0
230
1.0
 70
     8
 71
     3
 72
    17
 73
    13
 74
     0
 42
0.000000001
 43
0.00000001
 40
0.0
 40
0.0
 40
0.0
 40
0.0
 40
0.0630096892532792
 40
0.1264306799664213
 40
0.1902686728771463
 40
0.2545292253591724
 40
0.3775638368193145
 40
0.5060541142148836
 40
0.7530801336068137
 40
0.8766168954597358
 40
0.9296269325062025
 40
1.0
 40
1.0
 40
1.0
 40
1.0
 10
18.39717504450704
 20
8.73251999999293
 30
0.0
 10
18.42192920925093
 20
8.73239197811998
 30
0.0
 10
18.47159912379355
 20
8.732135098699668
 30
0.0
 10
18.54560595382157
 20
8.730043004151886
 30
0.0
 10
18.61860723111512
 20
8.726684778834718
 30
0.0
 10
18.71134953053608
 20
8.72052249488093
 30
0.0
 10
18.8210277215556
 20
8.709704769506505
 30
0.0
 10
18.9720873090813
 20
8.68676675424978
 30
0.0
 10
19.08265653283281
 20
8.655981996491716
 30
0.0
 10
19.12974763390302
 20
8.626607912865888
 30
0.0
 10
19.14480313903232
 20
8.609006381148747
 30
0.0
 10
19.1463135583293
 20
8.600087177325536
 30
0.0
 10
19.14717504450705
 20
8.594999999992927
 30
0.0
  0
SPLINE
  5
2C1
330
1F
100
AcDbEntity
  8
1
  6
SLD-Solid
370
    25
100
AcDbSpline
210
0.0
220
0.0
230
1.0
 70
     8
 71
     3
 72
     8
 73
     4
 74
     0
 42
0.000000001
 43
0.00000001
 40
0.0
 40
0.0
 40
0.0
 40
0.0
 40
0.0008783072046589
 40
0.0008783072046589
 40
0.0008783072046589
 40
0.0008783072046589
 10
8.056266736633303
 20
-8.094999999999999
 30
0.0
 10
7.934894210943677
 20
-8.307726875209424
 30
0.0
 10
7.812904230180176
 20
-8.520229759105504
 30
0.0
 10
7.690338402453395
 20
-8.732520000000035
 30
0.0
  0
SPLINE
  5
2C2
330
1F
100
AcDbEntity
  8
1
  6
SLD-Solid
370
    25
100
AcDbSpline
210
0.0
220
0.0
230
1.0
 70
     8
 71
     3
 72
    17
 73
    13
 74
     0
 42
0.000000001
 43
0.00000001
 40
0.0
 40
0.0
 40
0.0
 40
0.0
 40
0.0630096893448313
 40
0.1264306800884619
 40
0.1902686729686383
 40
0.2545292253590999
 40
0.3775638369531303
 40
0.5060541142146913
 40
0.7530801336065006
 40
0.8766168954593534
 40
0.9296269332021537
 40
1.0
 40
1.0
 40
1.0
 40
1.0
 10
4.047175044510174
 20
-8.732520000000035
 30
0.0
 10
4.022420879730274
 20
-8.73239197812643
 30
0.0
 10
3.972750965139604
 20
-8.732135098705001
 30
0.0
 10
3.898744135077681
 20
-8.730043004151797
 30
0.0
 10
3.825742857822251
 20
-8.726684778833018
 30
0.0
 10
3.733000558400063
 20
-8.720522494883253
 30
0.0
 10
3.623322367416706
 20
-8.709704769511378
 30
0.0
 10
3.472262779906685
 20
-8.686766754246705
 30
0.0
 10
3.361693556184389
 20
-8.655981996499449
 30
0.0
 10
3.314602455036689
 20
-8.626607912824213
 30
0.0
 10
3.299546949956475
 20
-8.609006381106381
 30
0.0
 10
3.298036530672177
 20
-8.600087177282601
 30
0.0
 10
3.297175044510159
 20
-8.595000000000026
 30
0.0
  0
SPLINE
  5
2C3
330
1F
100
AcDbEntity
  8
1
  6
SLD-Solid
370
    25
100
AcDbSpline
210
0.0
220
0.0
230
1.0
 70
    24
 71
     3
 72
    18
 73
    14
 74
     0
 42
0.000000001
 43
0.00000001
 40
0.0
 40
0.0
 40
0.0
 40
0.0
 40
0.050261722145265
 40
0.1003354213518359
 40
0.1864287239590548
 40
0.2507033761673297
 40
0.3754040368259436
 40
0.5003115117971219
 40
0.6254321409840781
 40
0.7499589778058471
 40
0.8750959321922372
 40
0.9373335260982102
 40
1.0
 40
1.0
 40
1.0
 40
1.0
 10
3.797175044510173
 20
-8.095000000000004
 30
0.0
 10
3.797319191125817
 20
-8.095000000000004
 30
0.0
 10
3.797606945122295
 20
-8.095000000000004
 30
0.0
 10
3.800470801118172
 20
-8.095000000000004
 30
0.0
 10
3.806082922918147
 20
-8.095000000000004
 30
0.0
 10
3.817807576070378
 20
-8.095
 30
0.0
 10
3.836761206971878
 20
-8.095
 30
0.0
 10
3.867524720326296
 20
-8.095
 30
0.0
 10
3.905452341030555
 20
-8.095
 30
0.0
 10
3.949223199934862
 20
-8.094999999999999
 30
0.0
 10
3.989138916276655
 20
-8.094999999999999
 30
0.0
 10
4.022139192125934
 20
-8.094999999999999
 30
0.0
 10
4.038810678892057
 20
-8.094999999999999
 30
0.0
 10
4.047175044510174
 20
-8.094999999999999
 30
0.0
  0
SPLINE
  5
2C4
330
1F
100
AcDbEntity
  8
1
  6
SLD-Solid
370
    25
100
AcDbSpline
210
0.0
220
0.0
230
1.0
 70
    24
 71
     2
 72
     6
 73
     3
 74
     0
 42
0.000000001
 43
0.00000001
 40
0.0
 40
0.0
 40
0.0
 40
0.5000000000000032
 40
0.5000000000000032
 40
0.5000000000000032
 10
3.297175044510159
 20
-18.35000000000001
 30
0.0
 10
3.359628436007456
 20
-18.34999999999999
 30
0.0
 10
3.48900001102867
 20
-18.34999999999999
 30
0.0
  0
SPLINE
  5
2C5
330
1F
100
AcDbEntity
  8
1
  6
SLD-Solid
370
    25
100
AcDbSpline
210
0.0
220
0.0
230
1.0
 70
    24
 71
     3
 72
     8
 73
     4
 74
     0
 42
0.000000001
 43
0.00000001
 40
0.5000000000000032
 40
0.5000000000000032
 40
0.5000000000000032
 40
0.5000000000000032
 40
0.7500000000000016
 40
0.7500000000000016
 40
0.7500000000000016
 40
0.7500000000000016
 10
3.48900001102867
 20
-18.34999999999999
 30
0.0
 10
3.553685798539291
 20
-18.34999999999999
 30
0.0
 10
3.636112054239596
 20
-18.34999999999999
 30
0.0
 10
3.731583877747108
 20
-18.34999999999999
 30
0.0
  0
SPLINE
  5
2C6
330
1F
100
AcDbEntity
  8
1
  6
SLD-Solid
370
    25
100
AcDbSpline
210
0.0
220
0.0
230
1.0
 70
    24
 71
     3
 72
     8
 73
     4
 74
     0
 42
0.000000001
 43
0.00000001
 40
0.7500000000000016
 40
0.7500000000000016
 40
0.7500000000000016
 40
0.7500000000000016
 40
1.0
 40
1.0
 40
1.0
 40
1.0
 10
3.731583877747108
 20
-18.34999999999999
 30
0.0
 10
3.827055701254606
 20
-18.35000000000001
 30
0.0
 10
3.935887031485994
 20
-18.35000000000001
 30
0.0
 10
4.047175044510174
 20
-18.34999999999999
 30
0.0
  0
SPLINE
  5
2C7
330
1F
100
AcDbEntity
  8
1
  6
SLD-Solid
370
    25
100
AcDbSpline
210
0.0
220
0.0
230
1.0
 70
    24
 71
     3
 72
     8
 73
     4
 74
     0
 42
0.000000001
 43
0.00000001
 40
0.0
 40
0.0
 40
0.0
 40
0.0
 40
1.0
 40
1.0
 40
1.0
 40
1.0
 10
13.12717504450703
 20
8.094999999992927
 30
0.0
 10
13.53989305432481
 20
8.094999999992927
 30
0.0
 10
13.95359393074422
 20
8.094999999992927
 30
0.0
 10
14.3680833523839
 20
8.094999999992927
 30
0.0
  0
SPLINE
  5
2C8
330
1F
100
AcDbEntity
  8
1
  6
SLD-Solid
370
    25
100
AcDbSpline
210
0.0
220
0.0
230
1.0
 70
     8
 71
     3
 72
     9
 73
     5
 74
     0
 42
0.000000001
 43
0.00000001
 40
0.0
 40
0.0
 40
0.0
 40
0.0
 40
0.5549482632672368
 40
1.0
 40
1.0
 40
1.0
 40
1.0
 10
13.12717504450703
 20
27.01726268082101
 30
0.0
 10
13.15432505367646
 20
27.09737051094023
 30
0.0
 10
13.20324854973283
 20
27.24172239997503
 30
0.0
 10
13.20465705727969
 20
27.31440022370287
 30
0.0
 10
13.20528391600963
 20
27.3467456153749
 30
0.0
  0
SPLINE
  5
2C9
330
1F
100
AcDbEntity
  8
1
  6
SLD-Solid
370
    25
100
AcDbSpline
210
0.0
220
0.0
230
1.0
 70
     8
 71
     3
 72
     8
 73
     4
 74
     0
 42
0.000000001
 43
0.00000001
 40
0.0
 40
0.0
 40
0.0
 40
0.0
 40
1.0
 40
1.0
 40
1.0
 40
1.0
 10
13.20955881079539
 20
27.38885610116811
 30
0.0
 10
13.20086748224736
 20
27.43220912960295
 30
0.0
 10
13.17072429280505
 20
27.43601780818719
 30
0.0
 10
13.1271750445069
 20
27.41186263126708
 30
0.0
  0
SPLINE
  5
2CA
330
1F
100
AcDbEntity
  8
1
  6
SLD-Solid
370
    25
100
AcDbSpline
210
0.0
220
0.0
230
1.0
 70
    24
 71
     3
 72
     8
 73
     4
 74
     0
 42
0.000000001
 43
0.00000001
 40
0.0
 40
0.0
 40
0.0
 40
0.0
 40
1.0
 40
1.0
 40
1.0
 40
1.0
 10
13.12717504451016
 20
-18.34999999999999
 30
0.0
 10
13.65044319790445
 20
-18.34999999999999
 30
0.0
 10
14.18738789644404
 20
-18.34999999999999
 30
0.0
 10
14.73401168656692
 20
-18.34999999999999
 30
0.0
  0
SPLINE
  5
2CB
330
1F
100
AcDbEntity
  8
1
  6
SLD-Solid
370
    25
100
AcDbSpline
210
0.0
220
0.0
230
1.0
 70
    24
 71
     3
 72
     8
 73
     4
 74
     0
 42
0.000000001
 43
0.00000001
 40
0.0
 40
0.0
 40
0.0
 40
0.0
 40
1.0
 40
1.0
 40
1.0
 40
1.0
 10
14.36808335238703
 20
-8.094999999999999
 30
0.0
 10
13.95359393074733
 20
-8.094999999999999
 30
0.0
 10
13.53989305432791
 20
-8.094999999999999
 30
0.0
 10
13.12717504451015
 20
-8.094999999999999
 30
0.0
  0
SPLINE
  5
2CC
330
1F
100
AcDbEntity
  8
1
  6
SLD-Solid
370
    25
100
AcDbSpline
210
0.0
220
0.0
230
1.0
 70
     8
 71
     3
 72
     8
 73
     4
 74
     0
 42
0.000000001
 43
0.00000001
 40
0.0
 40
0.0
 40
0.0
 40
0.0
 40
1.0
 40
1.0
 40
1.0
 40
1.0
 10
9.29717504451015
 20
27.41186263126166
 30
0.0
 10
9.268191856089638
 20
27.42793854695173
 30
0.0
 10
9.245242729821038
 20
27.43188644554218
 30
0.0
 10
9.230358092784677
 20
27.41957129554514
 30
0.0
  0
SPLINE
  5
2CD
330
1F
100
AcDbEntity
  8
1
  6
SLD-Solid
370
    25
100
AcDbSpline
210
0.0
220
0.0
230
1.0
 70
     8
 71
     3
 72
    10
 73
     6
 74
     0
 42
0.000000001
 43
0.00000001
 40
0.0
 40
0.0
 40
0.0
 40
0.0
 40
0.1680288744547075
 40
0.7148701403564326
 40
1.0
 40
1.0
 40
1.0
 40
1.0
 10
9.219066173007565
 20
27.34654800952585
 30
0.0
 10
9.217011758546167
 20
27.33839028304316
 30
0.0
 10
9.20827135866463
 20
27.30368365839545
 30
0.0
 10
9.243857306790474
 20
27.17482051366004
 30
0.0
 10
9.283566177206254
 20
27.05747788371194
 30
0.0
 10
9.297175044510189
 20
27.01726268082809
 30
0.0
  0
SPLINE
  5
2CE
330
1F
100
AcDbEntity
  8
1
  6
SLD-Solid
370
    25
100
AcDbSpline
210
0.0
220
0.0
230
1.0
 70
    24
 71
     3
 72
     8
 73
     4
 74
     0
 42
0.000000001
 43
0.00000001
 40
0.0
 40
0.0
 40
0.0
 40
0.0
 40
1.0
 40
1.0
 40
1.0
 40
1.0
 10
8.056266736633313
 20
8.094999999999983
 30
0.0
 10
8.470756158272998
 20
8.094999999999981
 30
0.0
 10
8.88445703469241
 20
8.094999999999986
 30
0.0
 10
9.297175044510189
 20
8.094999999999992
 30
0.0
  0
SPLINE
  5
2CF
330
1F
100
AcDbEntity
  8
1
  6
SLD-Solid
370
    25
100
AcDbSpline
210
0.0
220
0.0
230
1.0
 70
    24
 71
     3
 72
     8
 73
     4
 74
     0
 42
0.000000001
 43
0.00000001
 40
0.0
 40
0.0
 40
0.0
 40
0.0
 40
1.0
 40
1.0
 40
1.0
 40
1.0
 10
7.690338402453395
 20
-18.34999999999999
 30
0.0
 10
8.236993096053524
 20
-18.34999999999999
 30
0.0
 10
8.774148709620885
 20
-18.34999999999999
 30
0.0
 10
9.297175044510164
 20
-18.34999999999999
 30
0.0
  0
SPLINE
  5
2D0
330
1F
100
AcDbEntity
  8
1
  6
SLD-Solid
370
    25
100
AcDbSpline
210
0.0
220
0.0
230
1.0
 70
    24
 71
     3
 72
     8
 73
     4
 74
     0
 42
0.000000001
 43
0.00000001
 40
0.0
 40
0.0
 40
0.0
 40
0.0
 40
1.0
 40
1.0
 40
1.0
 40
1.0
 10
9.297175044510178
 20
-8.094999999999999
 30
0.0
 10
8.884457034692414
 20
-8.094999999999999
 30
0.0
 10
8.470756158272987
 20
-8.094999999999999
 30
0.0
 10
8.056266736633303
 20
-8.094999999999999
 30
0.0
  0
SPLINE
  5
2D1
330
1F
100
AcDbEntity
  8
1
  6
SLD-Solid
370
    25
100
AcDbSpline
210
0.0
220
0.0
230
1.0
 70
     8
 71
     3
 72
    16
 73
    12
 74
     0
 42
0.000000001
 43
0.00000001
 40
0.0
 40
0.0
 40
0.0
 40
0.0
 40
0.1249999999999979
 40
0.1249999999999979
 40
0.2499999999999958
 40
0.2499999999999958
 40
0.4999999999999972
 40
0.4999999999999972
 40
0.7499999999999986
 40
0.7499999999999986
 40
1.0
 40
1.0
 40
1.0
 40
1.0
 10
9.297175044510192
 20
26.81342395599223
 30
0.0
 10
9.297175044510192
 20
26.75008219873891
 30
0.0
 10
9.306738872411625
 20
26.67853228546582
 30
0.0
 10
9.333340652605132
 20
26.55137620786218
 30
0.0
 10
9.350782031189539
 20
26.49121349319728
 30
0.0
 10
9.411002322752577
 20
26.32086774534963
 30
0.0
 10
9.4621221342195
 20
26.21821216600435
 30
0.0
 10
9.589186008990891
 20
26.02727557642674
 30
0.0
 10
9.663290957942577
 20
25.94241156889361
 30
0.0
 10
9.836658047135904
 20
25.79997779741086
 30
0.0
 10
9.936834770393032
 20
25.74236666909598
 30
0.0
 10
10.04717504450704
 20
25.71100064078868
 30
0.0
  0
SPLINE
  5
2D2
330
1F
100
AcDbEntity
  8
1
  6
SLD-Solid
370
    25
100
AcDbSpline
210
0.0
220
0.0
230
1.0
 70
    24
 71
     2
 72
     6
 73
     3
 74
     0
 42
0.000000001
 43
0.00000001
 40
0.0
 40
0.0
 40
0.0
 40
0.25
 40
0.25
 40
0.25
 10
9.297175044510164
 20
8.094999999999992
 30
0.0
 10
9.315881963449597
 20
8.094999999999992
 30
0.0
 10
9.352159961199813
 20
8.094999999999992
 30
0.0
  0
SPLINE
  5
2D3
330
1F
100
AcDbEntity
  8
1
  6
SLD-Solid
370
    25
100
AcDbSpline
210
0.0
220
0.0
230
1.0
 70
    24
 71
     3
 72
     8
 73
     4
 74
     0
 42
0.000000001
 43
0.00000001
 40
0.25
 40
0.25
 40
0.25
 40
0.25
 40
0.5
 40
0.5
 40
0.5
 40
0.5
 10
9.352159961199813
 20
8.094999999999992
 30
0.0
 10
9.388437958950016
 20
8.094999999999992
 30
0.0
 10
9.442678985935455
 20
8.094999999999992
 30
0.0
 10
9.510932802325067
 20
8.094999999999992
 30
0.0
  0
SPLINE
  5
2D4
330
1F
100
AcDbEntity
  8
1
  6
SLD-Solid
370
    25
100
AcDbSpline
210
0.0
220
0.0
230
1.0
 70
    24
 71
     3
 72
     8
 73
     4
 74
     0
 42
0.000000001
 43
0.00000001
 40
0.5
 40
0.5
 40
0.5
 40
0.5
 40
0.75
 40
0.75
 40
0.75
 40
0.75
 10
9.510932802325067
 20
8.094999999999992
 30
0.0
 10
9.579186618714667
 20
8.094999999999992
 30
0.0
 10
9.662394850262393
 20
8.094999999999992
 30
0.0
 10
9.75452935745559
 20
8.094999999999999
 30
0.0
  0
SPLINE
  5
2D5
330
1F
100
AcDbEntity
  8
1
  6
SLD-Solid
370
    25
100
AcDbSpline
210
0.0
220
0.0
230
1.0
 70
    24
 71
     3
 72
     8
 73
     4
 74
     0
 42
0.000000001
 43
0.00000001
 40
0.75
 40
0.75
 40
0.75
 40
0.75
 40
1.0
 40
1.0
 40
1.0
 40
1.0
 10
9.75452935745559
 20
8.094999999999999
 30
0.0
 10
9.846663864648775
 20
8.094999999999999
 30
0.0
 10
9.946203232765724
 20
8.094999999999992
 30
0.0
 10
10.04717504451018
 20
8.094999999999992
 30
0.0
  0
SPLINE
  5
2D6
330
1F
100
AcDbEntity
  8
1
  6
SLD-Solid
370
    25
100
AcDbSpline
210
0.0
220
0.0
230
1.0
 70
    24
 71
     3
 72
     8
 73
     4
 74
     0
 42
0.000000001
 43
0.00000001
 40
0.0
 40
0.0
 40
0.0
 40
0.0
 40
0.2499999999999994
 40
0.2499999999999994
 40
0.2499999999999994
 40
0.2499999999999994
 10
12.3771750445108
 20
-18.34999999999999
 30
0.0
 10
12.49111820219571
 20
-18.34999999999999
 30
0.0
 10
12.60604863144628
 20
-18.35000000000001
 30
0.0
 10
12.70172118144432
 20
-18.35000000000001
 30
0.0
  0
SPLINE
  5
2D7
330
1F
100
AcDbEntity
  8
1
  6
SLD-Solid
370
    25
100
AcDbSpline
210
0.0
220
0.0
230
1.0
 70
    24
 71
     3
 72
     8
 73
     4
 74
     0
 42
0.000000001
 43
0.00000001
 40
0.2499999999999994
 40
0.2499999999999994
 40
0.2499999999999994
 40
0.2499999999999994
 40
0.4999999999999989
 40
0.4999999999999989
 40
0.4999999999999989
 40
0.4999999999999989
 10
12.70172118144432
 20
-18.35000000000001
 30
0.0
 10
12.79739373144236
 20
-18.35000000000001
 30
0.0
 10
12.87817038084499
 20
-18.35000000000001
 30
0.0
 10
12.94129414287508
 20
-18.35000000000001
 30
0.0
  0
SPLINE
  5
2D8
330
1F
100
AcDbEntity
  8
1
  6
SLD-Solid
370
    25
100
AcDbSpline
210
0.0
220
0.0
230
1.0
 70
    24
 71
     2
 72
     6
 73
     3
 74
     0
 42
0.000000001
 43
0.00000001
 40
0.4999999999999989
 40
0.4999999999999989
 40
0.4999999999999989
 40
1.0
 40
1.0
 40
1.0
 10
12.94129414287508
 20
-18.35000000000001
 30
0.0
 10
13.06754166693525
 20
-18.35000000000001
 30
0.0
 10
13.12717504451016
 20
-18.34999999999999
 30
0.0
  0
SPLINE
  5
2D9
330
1F
100
AcDbEntity
  8
1
  6
SLD-Solid
370
    25
100
AcDbSpline
210
0.0
220
0.0
230
1.0
 70
    24
 71
     2
 72
     6
 73
     3
 74
     0
 42
0.000000001
 43
0.00000001
 40
0.0
 40
0.0
 40
0.0
 40
0.25
 40
0.25
 40
0.25
 10
13.12717504451016
 20
-8.094999999999999
 30
0.0
 10
13.10846812557073
 20
-8.094999999999999
 30
0.0
 10
13.07219012782053
 20
-8.094999999999999
 30
0.0
  0
SPLINE
  5
2DA
330
1F
100
AcDbEntity
  8
1
  6
SLD-Solid
370
    25
100
AcDbSpline
210
0.0
220
0.0
230
1.0
 70
    24
 71
     3
 72
     8
 73
     4
 74
     0
 42
0.000000001
 43
0.00000001
 40
0.25
 40
0.25
 40
0.25
 40
0.25
 40
0.5
 40
0.5
 40
0.5
 40
0.5
 10
13.07219012782053
 20
-8.094999999999999
 30
0.0
 10
13.03591213007031
 20
-8.094999999999999
 30
0.0
 10
12.98167110308489
 20
-8.094999999999999
 30
0.0
 10
12.91341728669527
 20
-8.094999999999999
 30
0.0
  0
SPLINE
  5
2DB
330
1F
100
AcDbEntity
  8
1
  6
SLD-Solid
370
    25
100
AcDbSpline
210
0.0
220
0.0
230
1.0
 70
    24
 71
     3
 72
     8
 73
     4
 74
     0
 42
0.000000001
 43
0.00000001
 40
0.5
 40
0.5
 40
0.5
 40
0.5
 40
0.75
 40
0.75
 40
0.75
 40
0.75
 10
12.91341728669527
 20
-8.094999999999999
 30
0.0
 10
12.84516347030566
 20
-8.094999999999999
 30
0.0
 10
12.76195523875796
 20
-8.094999999999999
 30
0.0
 10
12.66982073156478
 20
-8.094999999999999
 30
0.0
  0
SPLINE
  5
2DC
330
1F
100
AcDbEntity
  8
1
  6
SLD-Solid
370
    25
100
AcDbSpline
210
0.0
220
0.0
230
1.0
 70
    24
 71
     3
 72
     8
 73
     4
 74
     0
 42
0.000000001
 43
0.00000001
 40
0.75
 40
0.75
 40
0.75
 40
0.75
 40
1.0
 40
1.0
 40
1.0
 40
1.0
 10
12.66982073156478
 20
-8.094999999999999
 30
0.0
 10
12.57768622437158
 20
-8.094999999999999
 30
0.0
 10
12.47814685625463
 20
-8.094999999999999
 30
0.0
 10
12.37717504451016
 20
-8.094999999999999
 30
0.0
  0
SPLINE
  5
2DD
330
1F
100
AcDbEntity
  8
1
  6
SLD-Solid
370
    25
100
AcDbSpline
210
0.0
220
0.0
230
1.0
 70
    24
 71
     2
 72
     6
 73
     3
 74
     0
 42
0.000000001
 43
0.00000001
 40
0.0
 40
0.0
 40
0.0
 40
0.25
 40
0.25
 40
0.25
 10
9.297175044510164
 20
-18.34999999999999
 30
0.0
 10
9.312224596831731
 20
-18.35
 30
0.0
 10
9.342894554544637
 20
-18.35000000000001
 30
0.0
  0
SPLINE
  5
2DE
330
1F
100
AcDbEntity
  8
1
  6
SLD-Solid
370
    25
100
AcDbSpline
210
0.0
220
0.0
230
1.0
 70
    24
 71
     3
 72
     8
 73
     4
 74
     0
 42
0.000000001
 43
0.00000001
 40
0.25
 40
0.25
 40
0.25
 40
0.25
 40
0.5
 40
0.5
 40
0.5
 40
0.5
 10
9.342894554544637
 20
-18.35000000000001
 30
0.0
 10
9.373564512257557
 20
-18.35000000000001
 30
0.0
 10
9.419757472553151
 20
-18.34999999999999
 30
0.0
 10
9.482822302108286
 20
-18.34999999999999
 30
0.0
  0
SPLINE
  5
2DF
330
1F
100
AcDbEntity
  8
1
  6
SLD-Solid
370
    25
100
AcDbSpline
210
0.0
220
0.0
230
1.0
 70
    24
 71
     3
 72
     8
 73
     4
 74
     0
 42
0.000000001
 43
0.00000001
 40
0.5
 40
0.5
 40
0.5
 40
0.5
 40
0.75
 40
0.75
 40
0.75
 40
0.75
 10
9.482822302108286
 20
-18.34999999999999
 30
0.0
 10
9.545887131663418
 20
-18.34999999999999
 30
0.0
 10
9.626073852106149
 20
-18.34999999999999
 30
0.0
 10
9.723122717920141
 20
-18.34999999999999
 30
0.0
  0
SPLINE
  5
2E0
330
1F
100
AcDbEntity
  8
1
  6
SLD-Solid
370
    25
100
AcDbSpline
210
0.0
220
0.0
230
1.0
 70
    24
 71
     3
 72
     8
 73
     4
 74
     0
 42
0.000000001
 43
0.00000001
 40
0.75
 40
0.75
 40
0.75
 40
0.75
 40
1.0
 40
1.0
 40
1.0
 40
1.0
 10
9.723122717920141
 20
-18.34999999999999
 30
0.0
 10
9.820171583734133
 20
-18.35000000000001
 30
0.0
 10
9.93336611579082
 20
-18.34999999999999
 30
0.0
 10
10.04717504451018
 20
-18.34999999999999
 30
0.0
  0
SPLINE
  5
2E1
330
1F
100
AcDbEntity
  8
1
  6
SLD-Solid
370
    25
100
AcDbSpline
210
0.0
220
0.0
230
1.0
 70
    24
 71
     3
 72
     8
 73
     4
 74
     0
 42
0.000000001
 43
0.00000001
 40
0.0
 40
0.0
 40
0.0
 40
0.0
 40
0.2500000000000009
 40
0.2500000000000009
 40
0.2500000000000009
 40
0.2500000000000009
 10
10.04717504451018
 20
-8.094999999999999
 30
0.0
 10
9.947394320197825
 20
-8.094999999999999
 30
0.0
 10
9.845664619230435
 20
-8.094999999999999
 30
0.0
 10
9.753945252937532
 20
-8.094999999999999
 30
0.0
  0
SPLINE
  5
2E2
330
1F
100
AcDbEntity
  8
1
  6
SLD-Solid
370
    25
100
AcDbSpline
210
0.0
220
0.0
230
1.0
 70
    24
 71
     3
 72
     8
 73
     4
 74
     0
 42
0.000000001
 43
0.00000001
 40
0.2500000000000009
 40
0.2500000000000009
 40
0.2500000000000009
 40
0.2500000000000009
 40
0.5000000000000018
 40
0.5000000000000018
 40
0.5000000000000018
 40
0.5000000000000018
 10
9.753945252937532
 20
-8.094999999999999
 30
0.0
 10
9.66222588664463
 20
-8.094999999999999
 30
0.0
 10
9.579121158961673
 20
-8.094999999999999
 30
0.0
 10
9.51083039232889
 20
-8.094999999999999
 30
0.0
  0
SPLINE
  5
2E3
330
1F
100
AcDbEntity
  8
1
  6
SLD-Solid
370
    25
100
AcDbSpline
210
0.0
220
0.0
230
1.0
 70
    24
 71
     2
 72
     6
 73
     3
 74
     0
 42
0.000000001
 43
0.00000001
 40
0.5000000000000018
 40
0.5000000000000018
 40
0.5000000000000018
 40
1.0
 40
1.0
 40
1.0
 10
9.51083039232889
 20
-8.094999999999999
 30
0.0
 10
9.374248859063322
 20
-8.094999999999999
 30
0.0
 10
9.297175044509887
 20
-8.094999999999999
 30
0.0
  0
SPLINE
  5
2E4
330
1F
100
AcDbEntity
  8
1
  6
SLD-Solid
370
    25
100
AcDbSpline
210
0.0
220
0.0
230
1.0
 70
     8
 71
     3
 72
    16
 73
    12
 74
     0
 42
0.000000001
 43
0.00000001
 40
0.0
 40
0.0
 40
0.0
 40
0.0
 40
0.249999999999999
 40
0.249999999999999
 40
0.499999999999998
 40
0.499999999999998
 40
0.749999999999997
 40
0.749999999999997
 40
0.8749999999999984
 40
0.8749999999999984
 40
1.0
 40
1.0
 40
1.0
 40
1.0
 10
12.37717504450703
 20
25.71100064078868
 30
0.0
 10
12.48760877140864
 20
25.74239323457944
 30
0.0
 10
12.58600406197044
 20
25.79873250188821
 30
0.0
 10
12.76127839305907
 20
25.94245138604113
 30
0.0
 10
12.83506345792369
 20
26.02725745595261
 30
0.0
 10
12.96139631362961
 20
26.21683037013149
 30
0.0
 10
13.01345745042229
 20
26.32104193278872
 30
0.0
 10
13.07378891126258
 20
26.49190672933528
 30
0.0
 10
13.0911345614645
 20
26.55178250641629
 30
0.0
 10
13.11780524256671
 20
26.67965382866436
 30
0.0
 10
13.12717504450703
 20
26.74911867245211
 30
0.0
 10
13.12717504450703
 20
26.81342395598517
 30
0.0
  0
SPLINE
  5
2E5
330
1F
100
AcDbEntity
  8
1
  6
SLD-Solid
370
    25
100
AcDbSpline
210
0.0
220
0.0
230
1.0
 70
    24
 71
     3
 72
     8
 73
     4
 74
     0
 42
0.000000001
 43
0.00000001
 40
0.0
 40
0.0
 40
0.0
 40
0.0
 40
0.2500000000000016
 40
0.2500000000000016
 40
0.2500000000000016
 40
0.2500000000000016
 10
12.37717504450701
 20
8.094999999999992
 30
0.0
 10
12.4769557688193
 20
8.094999999997597
 30
0.0
 10
12.57868546978658
 20
8.094999999995133
 30
0.0
 10
12.67040483607941
 20
8.094999999992927
 30
0.0
  0
SPLINE
  5
2E6
330
1F
100
AcDbEntity
  8
1
  6
SLD-Solid
370
    25
100
AcDbSpline
210
0.0
220
0.0
230
1.0
 70
    24
 71
     3
 72
     8
 73
     4
 74
     0
 42
0.000000001
 43
0.00000001
 40
0.2500000000000016
 40
0.2500000000000016
 40
0.2500000000000016
 40
0.2500000000000016
 40
0.5000000000000032
 40
0.5000000000000032
 40
0.5000000000000032
 40
0.5000000000000032
 10
12.67040483607941
 20
8.094999999992927
 30
0.0
 10
12.76212420237224
 20
8.094999999992927
 30
0.0
 10
12.84522893005514
 20
8.094999999992934
 30
0.0
 10
12.91351969668791
 20
8.094999999992934
 30
0.0
  0
SPLINE
  5
2E7
330
1F
100
AcDbEntity
  8
1
  6
SLD-Solid
370
    25
100
AcDbSpline
210
0.0
220
0.0
230
1.0
 70
    24
 71
     2
 72
     6
 73
     3
 74
     0
 42
0.000000001
 43
0.00000001
 40
0.5000000000000032
 40
0.5000000000000032
 40
0.5000000000000032
 40
1.0
 40
1.0
 40
1.0
 10
12.91351969668791
 20
8.094999999992934
 30
0.0
 10
13.05010122995348
 20
8.094999999992927
 30
0.0
 10
13.12717504450703
 20
8.094999999992927
 30
0.0
  0
SPLINE
  5
2E8
330
1F
100
AcDbEntity
  8
1
  6
SLD-Solid
370
    25
100
AcDbSpline
210
0.0
220
0.0
230
1.0
 70
     8
 71
     3
 72
    12
 73
     8
 74
     0
 42
0.000000001
 43
0.00000001
 40
0.0
 40
0.0
 40
0.0
 40
0.0
 40
0.2499999999999994
 40
0.2499999999999994
 40
0.4999999999999989
 40
0.4999999999999989
 40
1.0
 40
1.0
 40
1.0
 40
1.0
 10
10.04717504450704
 20
25.71100064078868
 30
0.0
 10
10.21704575442438
 20
25.66271211206651
 30
0.0
 10
10.40114086812821
 20
25.62527590633429
 30
0.0
 10
10.79750045701158
 20
25.57346530882965
 30
0.0
 10
11.00289667104125
 20
25.56022125844618
 30
0.0
 10
11.6254635932604
 20
25.55999751387887
 30
0.0
 10
12.03743081072653
 20
25.6144227834342
 30
0.0
 10
12.37717504450703
 20
25.71100064078868
 30
0.0
  0
SPLINE
  5
2E9
330
1F
100
AcDbEntity
  8
1
  6
SLD-Solid
370
    25
100
AcDbSpline
210
0.0
220
0.0
230
1.0
 70
     8
 71
     3
 72
    12
 73
     8
 74
     0
 42
0.000000001
 43
0.00000001
 40
0.0
 40
0.0
 40
0.0
 40
0.0
 40
0.25
 40
0.25
 40
0.5
 40
0.5
 40
1.0
 40
1.0
 40
1.0
 40
1.0
 10
4.047175044510174
 20
-25.91022964004758
 30
0.0
 10
3.937822475728852
 20
-25.91022964004756
 30
0.0
 10
3.828586843822632
 20
-25.87992796563979
 30
0.0
 10
3.635781013399189
 20
-25.77047014941628
 30
0.0
 10
3.554002787256163
 20
-25.69343095107757
 30
0.0
 10
3.359884135432825
 20
-25.42763934306025
 30
0.0
 10
3.297175044513878
 20
-25.20425093593309
 30
0.0
 10
3.297175044510159
 20
-24.98554582155403
 30
0.0
  0
SPLINE
  5
2EA
330
1F
100
AcDbEntity
  8
1
  6
SLD-Solid
370
    25
100
AcDbSpline
210
0.0
220
0.0
230
1.0
 70
     8
 71
     3
 72
    12
 73
     8
 74
     0
 42
0.000000001
 43
0.00000001
 40
0.0
 40
0.0
 40
0.0
 40
0.0
 40
0.5000000000000023
 40
0.5000000000000023
 40
0.7500000000000011
 40
0.7500000000000011
 40
1.0
 40
1.0
 40
1.0
 40
1.0
 10
19.14717504451018
 20
-24.98554582153449
 30
0.0
 10
19.14717504451018
 20
-25.20557810036768
 30
0.0
 10
19.08570606917342
 20
-25.42532674379459
 30
0.0
 10
18.89100626251859
 20
-25.69283297454339
 30
0.0
 10
18.80866581431431
 20
-25.77032859015186
 30
0.0
 10
18.61648690560941
 20
-25.87960340703118
 30
0.0
 10
18.50699935870753
 20
-25.91022964004757
 30
0.0
 10
18.39717504451016
 20
-25.91022964004758
 30
0.0
  0
SPLINE
  5
2EB
330
1F
100
AcDbEntity
  8
1
  6
SLD-Solid
370
    25
100
AcDbSpline
210
0.0
220
0.0
230
1.0
 70
     8
 71
     3
 72
     8
 73
     4
 74
     0
 42
0.000000001
 43
0.00000001
 40
0.0
 40
0.0
 40
0.0
 40
0.0
 40
1.0
 40
1.0
 40
1.0
 40
1.0
 10
9.297175044510164
 20
-22.41333264622108
 30
0.0
 10
8.774142927670509
 20
-23.58413672808592
 30
0.0
 10
8.237006573445353
 20
-24.74996546403979
 30
0.0
 10
7.690338402453395
 20
-25.91022964004758
 30
0.0
  0
SPLINE
  5
2EC
330
1F
100
AcDbEntity
  8
1
  6
SLD-Solid
370
    25
100
AcDbSpline
210
0.0
220
0.0
230
1.0
 70
     8
 71
     3
 72
     8
 73
     4
 74
     0
 42
0.000000001
 43
0.00000001
 40
0.0
 40
0.0
 40
0.0
 40
0.0
 40
1.0
 40
1.0
 40
1.0
 40
1.0
 10
14.73401168656693
 20
-25.91022964004758
 30
0.0
 10
14.18734351557498
 20
-24.74996546403978
 30
0.0
 10
13.65020716134983
 20
-23.58413672808591
 30
0.0
 10
13.12717504451018
 20
-22.41333264622106
 30
0.0
  0
SPLINE
  5
2ED
330
1F
100
AcDbEntity
  8
1
  6
SLD-Solid
370
    25
100
AcDbSpline
210
0.0
220
0.0
230
1.0
 70
     8
 71
     3
 72
    14
 73
    10
 74
     0
 42
0.000000001
 43
0.00000001
 40
0.0
 40
0.0
 40
0.0
 40
0.0
 40
0.25
 40
0.25
 40
0.5
 40
0.5
 40
0.75
 40
0.75
 40
1.0
 40
1.0
 40
1.0
 40
1.0
 10
13.12717504451018
 20
-22.13232929449587
 30
0.0
 10
13.12717504451018
 20
-22.01875316848333
 30
0.0
 10
13.11192296139574
 20
-21.90465396632408
 30
0.0
 10
13.05029186981457
 20
-21.68551840407665
 30
0.0
 10
13.00504464884916
 20
-21.58218135241126
 30
0.0
 10
12.8779844662818
 20
-21.39129413692186
 30
0.0
 10
12.7970122182324
 20
-21.30678247587393
 30
0.0
 10
12.60402530275881
 20
-21.18493889661091
 30
0.0
 10
12.49128649821396
 20
-21.14893614345647
 30
0.0
 10
12.37717504451018
 20
-21.14893614345647
 30
0.0
  0
SPLINE
  5
2EE
330
1F
100
AcDbEntity
  8
1
  6
SLD-Solid
370
    25
100
AcDbSpline
210
0.0
220
0.0
230
1.0
 70
     8
 71
     3
 72
    14
 73
    10
 74
     0
 42
0.000000001
 43
0.00000001
 40
0.0
 40
0.0
 40
0.0
 40
0.0
 40
0.1249999999999982
 40
0.1249999999999982
 40
0.2499999999999964
 40
0.2499999999999964
 40
0.4999999999999969
 40
0.4999999999999969
 40
1.0
 40
1.0
 40
1.0
 40
1.0
 10
10.04717504451018
 20
-21.14893614345647
 30
0.0
 10
9.990398705737439
 20
-21.14893614345648
 30
0.0
 10
9.932359778941441
 20
-21.15782630300204
 30
0.0
 10
9.822884459171608
 20
-21.19144609061743
 30
0.0
 10
9.77170127190985
 20
-21.21560556432989
 30
0.0
 10
9.627252204172487
 20
-21.30690106897559
 30
0.0
 10
9.54616823466524
 20
-21.39170378208911
 30
0.0
 10
9.357052466080109
 20
-21.67548088616529
 30
0.0
 10
9.297175044510164
 20
-21.90492065088523
 30
0.0
 10
9.297175044510164
 20
-22.13232929449588
 30
0.0
  0
SPLINE
  5
2EF
330
1F
100
AcDbEntity
  8
1
  6
SLD-Solid
370
    25
100
AcDbSpline
210
0.0
220
0.0
230
1.0
 70
     8
 71
     3
 72
    16
 73
    12
 74
     0
 42
0.000000001
 43
0.00000001
 40
0.0
 40
0.0
 40
0.0
 40
0.0
 40
0.2500000000000011
 40
0.2500000000000011
 40
0.5000000000000021
 40
0.5000000000000021
 40
0.7500000000000031
 40
0.7500000000000031
 40
0.8750000000000016
 40
0.8750000000000016
 40
1.0
 40
1.0
 40
1.0
 40
1.0
 10
10.04717504451008
 20
26.82301853349019
 30
0.0
 10
9.93674131760848
 20
26.80027599034486
 30
0.0
 10
9.838346027046668
 20
26.79683942016774
 30
0.0
 10
9.663071695958036
 20
26.81222120094814
 30
0.0
 10
9.58928663109343
 20
26.83083008839229
 30
0.0
 10
9.462953775387529
 20
26.88495833898959
 30
0.0
 10
9.410892638594849
 20
26.91972746121536
 30
0.0
 10
9.350561177754555
 20
26.99319708569396
 30
0.0
 10
9.333215527552646
 20
27.02133912772178
 30
0.0
 10
9.306544846450452
 20
27.09589126404212
 30
0.0
 10
9.297175044510137
 20
27.14371862289292
 30
0.0
 10
9.29717504451015
 20
27.20802390642598
 30
0.0
  0
SPLINE
  5
2F0
330
1F
100
AcDbEntity
  8
1
  6
SLD-Solid
370
    25
100
AcDbSpline
210
0.0
220
0.0
230
1.0
 70
     8
 71
     3
 72
    12
 73
     8
 74
     0
 42
0.000000001
 43
0.00000001
 40
0.0
 40
0.0
 40
0.0
 40
0.0
 40
0.25
 40
0.25
 40
0.5
 40
0.5
 40
1.0
 40
1.0
 40
1.0
 40
1.0
 10
12.37717504451007
 20
26.82301853349013
 30
0.0
 10
12.20730433459273
 20
26.85800143280735
 30
0.0
 10
12.02320922088891
 20
26.88390423639618
 30
0.0
 10
11.62684963200555
 20
26.91937262947672
 30
0.0
 10
11.42145341797586
 20
26.92817666438652
 30
0.0
 10
10.79888649575672
 20
26.92832683986094
 30
0.0
 10
10.38691927829059
 20
26.89298491162408
 30
0.0
 10
10.04717504451008
 20
26.82301853349019
 30
0.0
  0
SPLINE
  5
2F1
330
1F
100
AcDbEntity
  8
1
  6
SLD-Solid
370
    25
100
AcDbSpline
210
0.0
220
0.0
230
1.0
 70
     8
 71
     3
 72
    16
 73
    12
 74
     0
 42
0.000000001
 43
0.00000001
 40
0.0
 40
0.0
 40
0.0
 40
0.0
 40
0.1250000000000009
 40
0.1250000000000009
 40
0.2500000000000018
 40
0.2500000000000018
 40
0.5000000000000012
 40
0.5000000000000012
 40
0.7500000000000007
 40
0.7500000000000007
 40
1.0
 40
1.0
 40
1.0
 40
1.0
 10
13.1271750445069
 20
27.20802390643122
 30
0.0
 10
13.1271750445069
 20
27.1446821491779
 30
0.0
 10
13.11761121660547
 20
27.09517885573592
 30
0.0
 10
13.09100943641198
 20
27.02116147442295
 30
0.0
 10
13.07356805782757
 20
26.99288151408816
 30
0.0
 10
13.01334776626451
 20
26.9196877827192
 30
0.0
 10
12.96222795479759
 20
26.8853831151977
 30
0.0
 10
12.83516408002622
 20
26.8308052475017
 30
0.0
 10
12.76105913107452
 20
26.81227314493874
 30
0.0
 10
12.5876920418812
 20
26.79691696881304
 30
0.0
 10
12.48751531862408
 20
26.80029523586117
 30
0.0
 10
12.37717504451007
 20
26.82301853349013
 30
0.0
  0
SPLINE
  5
2F2
330
1F
100
AcDbEntity
  8
SK3
  6
SLD-Dashed
370
    18
100
AcDbSpline
210
0.0
220
0.0
230
1.0
 70
     8
 71
     3
 72
    14
 73
    10
 74
     0
 42
0.000000001
 43
0.00000001
 40
0.0
 40
0.0
 40
0.0
 40
0.0
 40
0.25
 40
0.25
 40
0.5
 40
0.5
 40
0.75
 40
0.75
 40
1.0
 40
1.0
 40
1.0
 40
1.0
 10
9.304789595562756
 20
23.2578494756313
 30
0.0
 10
9.277146092550131
 20
23.28327823531382
 30
0.0
 10
9.254097174085134
 20
23.29741050815224
 30
0.0
 10
9.221175993753087
 20
23.29342827428992
 30
0.0
 10
9.212228238096403
 20
23.27507896500589
 30
0.0
 10
9.212122323182621
 20
23.20074329806214
 30
0.0
 10
9.221092474642937
 20
23.14611664390673
 30
0.0
 10
9.254011563732389
 20
23.01021158984605
 30
0.0
 10
9.277126072346395
 20
22.93180090809758
 30
0.0
 10
9.304789595562836
 20
22.84635461007286
 30
0.0
  0
SPLINE
  5
2F3
330
1F
100
AcDbEntity
  8
SK3
  6
SLD-Dashed
370
    18
100
AcDbSpline
210
0.0
220
0.0
230
1.0
 70
     8
 71
     3
 72
    34
 73
    30
 74
     0
 42
0.000000001
 43
0.00000001
 40
0.4999999999999979
 40
0.4999999999999979
 40
0.4999999999999979
 40
0.4999999999999979
 40
0.562499999999998
 40
0.562499999999998
 40
0.5937499999999981
 40
0.5937499999999981
 40
0.6249999999999982
 40
0.6249999999999982
 40
0.6562499999999984
 40
0.6562499999999984
 40
0.6874999999999986
 40
0.6874999999999986
 40
0.7499999999999991
 40
0.7499999999999991
 40
0.7812499999999992
 40
0.7812499999999992
 40
0.8124999999999993
 40
0.8124999999999993
 40
0.8437499999999994
 40
0.8437499999999994
 40
0.8749999999999996
 40
0.8749999999999996
 40
0.9062499999999998
 40
0.9062499999999998
 40
0.9374999999999999
 40
0.9374999999999999
 40
0.96875
 40
0.96875
 40
1.0
 40
1.0
 40
1.0
 40
1.0
 10
10.54706961797468
 20
20.83939046133179
 30
0.0
 10
10.689807083826
 20
20.61623535383183
 30
0.0
 10
10.84290402703612
 20
20.40034020612855
 30
0.0
 10
11.12063961873369
 20
20.11974774983987
 30
0.0
 10
11.22090224914414
 20
20.03506133841346
 30
0.0
 10
11.44368917338509
 20
19.90202523848854
 30
0.0
 10
11.56505979398205
 20
19.85636932238474
 30
0.0
 10
11.81193307750411
 20
19.81834705508892
 30
0.0
 10
11.9358743439293
 20
19.82541361136527
 30
0.0
 10
12.16471990759029
 20
19.87113904737417
 30
0.0
 10
12.27052642396216
 20
19.90901688262058
 30
0.0
 10
12.55543558265761
 20
20.04338706304559
 30
0.0
 10
12.6979724657402
 20
20.15748101913774
 30
0.0
 10
12.82112745923747
 20
20.3163795690515
 30
0.0
 10
12.84753064759844
 20
20.36869830021059
 30
0.0
 10
12.86744478952055
 20
20.46407068698104
 30
0.0
 10
12.86155017833378
 20
20.50809579026946
 30
0.0
 10
12.81751315396429
 20
20.58670273274053
 30
0.0
 10
12.78019600419729
 20
20.62036391382856
 30
0.0
 10
12.67562457355402
 20
20.67880303965009
 30
0.0
 10
12.60843436907645
 20
20.70315217179684
 30
0.0
 10
12.45026951245198
 20
20.74506697422294
 30
0.0
 10
12.35710978434143
 20
20.76306355348386
 30
0.0
 10
12.15272419577655
 20
20.80054797821102
 30
0.0
 10
12.04149652296108
 20
20.81988880904709
 30
0.0
 10
11.79954054974723
 20
20.87856381245234
 30
0.0
 10
11.67398705867286
 20
20.91779460819587
 30
0.0
 10
11.43038531620304
 20
21.02911527108174
 30
0.0
 10
11.31628095140139
 20
21.09953242026531
 30
0.0
 10
11.21217504451018
 20
21.17875161027494
 30
0.0
  0
SPLINE
  5
2F4
330
1F
100
AcDbEntity
  8
SK3
  6
SLD-Dashed
370
    18
100
AcDbSpline
210
0.0
220
0.0
230
1.0
 70
     8
 71
     3
 72
    32
 73
    28
 74
     0
 42
0.000000001
 43
0.00000001
 40
0.0
 40
0.0
 40
0.0
 40
0.0
 40
0.0312500000000001
 40
0.0312500000000001
 40
0.0625000000000002
 40
0.0625000000000002
 40
0.1249999999999998
 40
0.1249999999999998
 40
0.1874999999999994
 40
0.1874999999999994
 40
0.2187499999999992
 40
0.2187499999999992
 40
0.249999999999999
 40
0.249999999999999
 40
0.2812499999999988
 40
0.2812499999999988
 40
0.3124999999999986
 40
0.3124999999999986
 40
0.3437499999999984
 40
0.3437499999999984
 40
0.3749999999999982
 40
0.3749999999999982
 40
0.4062499999999979
 40
0.4062499999999979
 40
0.4374999999999977
 40
0.4374999999999977
 40
0.4999999999999979
 40
0.4999999999999979
 40
0.4999999999999979
 40
0.4999999999999979
 10
11.21217504451016
 20
21.17875161027494
 30
0.0
 10
11.10806913761894
 20
21.25797080028456
 30
0.0
 10
11.01625362093214
 20
21.34285059862821
 30
0.0
 10
10.84479641828544
 20
21.51739232411443
 30
0.0
 10
10.76536318248023
 20
21.60711674781946
 30
0.0
 10
10.53764741004652
 20
21.87810823988762
 30
0.0
 10
10.40259561687934
 20
22.05723493175804
 30
0.0
 10
10.14976208014648
 20
22.39465868829963
 30
0.0
 10
10.03198865226815
 20
22.55444913615406
 30
0.0
 10
9.867363204558306
 20
22.76413869711338
 30
0.0
 10
9.815140970319284
 20
22.82813217252616
 30
0.0
 10
9.720371932810764
 20
22.93456489587036
 30
0.0
 10
9.677066057659777
 20
22.97806553251086
 30
0.0
 10
9.60576367176369
 20
23.02840087322287
 30
0.0
 10
9.579067321278668
 20
23.03332613058728
 30
0.0
 10
9.556986822127453
 20
22.98326804514635
 30
0.0
 10
9.562238885398394
 20
22.92678738490279
 30
0.0
 10
9.602299970826012
 20
22.76846886513447
 30
0.0
 10
9.635419286584291
 20
22.67034415658177
 30
0.0
 10
9.716422948314776
 20
22.45687868614512
 30
0.0
 10
9.762918611979282
 20
22.34495490160377
 30
0.0
 10
9.863744651819758
 20
22.11524263911089
 30
0.0
 10
9.918419205294724
 20
21.99690704152573
 30
0.0
 10
10.03146677609802
 20
21.76239601491105
 30
0.0
 10
10.09021327638344
 20
21.64535767447227
 30
0.0
 10
10.27312710721212
 20
21.29563855276318
 30
0.0
 10
10.40433215212337
 20
21.06254556883174
 30
0.0
 10
10.54706961797468
 20
20.83939046133179
 30
0.0
  0
SPLINE
  5
2F5
330
1F
100
AcDbEntity
  8
SK3
  6
SLD-Dashed
370
    18
100
AcDbSpline
210
0.0
220
0.0
230
1.0
 70
     8
 71
     3
 72
    38
 73
    34
 74
     0
 42
0.000000001
 43
0.00000001
 40
0.5000000000000001
 40
0.5000000000000001
 40
0.5000000000000001
 40
0.5000000000000001
 40
0.5312500000000001
 40
0.5312500000000001
 40
0.5625
 40
0.5625
 40
0.59375
 40
0.59375
 40
0.625
 40
0.625
 40
0.6562499999999999
 40
0.6562499999999999
 40
0.6874999999999999
 40
0.6874999999999999
 40
0.7187499999999999
 40
0.7187499999999999
 40
0.7499999999999998
 40
0.7499999999999998
 40
0.8125000000000007
 40
0.8125000000000007
 40
0.8437500000000007
 40
0.8437500000000007
 40
0.8750000000000006
 40
0.8750000000000006
 40
0.9062500000000006
 40
0.9062500000000006
 40
0.9375000000000006
 40
0.9375000000000006
 40
0.9687500000000004
 40
0.9687500000000004
 40
0.9843750000000003
 40
0.9843750000000003
 40
1.0
 40
1.0
 40
1.0
 40
1.0
 10
9.659340961812383
 20
18.47093598961303
 30
0.0
 10
9.703844653338955
 20
18.52416098688805
 30
0.0
 10
9.764087254847148
 20
18.57938849438463
 30
0.0
 10
9.908987676741713
 20
18.68375239917334
 30
0.0
 10
9.99474246956071
 20
18.73401424472705
 30
0.0
 10
10.18924643274556
 20
18.8199322275476
 30
0.0
 10
10.29563542711054
 20
18.85489400372536
 30
0.0
 10
10.527092211989
 20
18.89353738847553
 30
0.0
 10
10.6522667258841
 20
18.89577731622844
 30
0.0
 10
10.89860307082501
 20
18.84685379350589
 30
0.0
 10
11.01806254924055
 20
18.79569165197121
 30
0.0
 10
11.23689165105383
 20
18.65451476066452
 30
0.0
 10
11.33444010491251
 20
18.5677009318593
 30
0.0
 10
11.51507843134547
 20
18.37844427042388
 30
0.0
 10
11.59871347904297
 20
18.2751051322028
 30
0.0
 10
11.75509592053201
 20
18.06321384263406
 30
0.0
 10
11.82838470142801
 20
17.95392511395889
 30
0.0
 10
12.03936731126089
 20
17.61974155296101
 30
0.0
 10
12.16920689536204
 20
17.3873463276272
 30
0.0
 10
12.35164770817228
 20
17.03574839840395
 30
0.0
 10
12.41005616050037
 20
16.91845212228918
 30
0.0
 10
12.52196490537738
 20
16.68436964494053
 30
0.0
 10
12.57582014912602
 20
16.56677083259166
 30
0.0
 10
12.67488847741448
 20
16.33866118066523
 30
0.0
 10
12.72060973187315
 20
16.22711687706209
 30
0.0
 10
12.79829816794503
 20
16.0182798016189
 30
0.0
 10
12.82967996665976
 20
15.92212850952397
 30
0.0
 10
12.86443490399287
 20
15.77300891717614
 30
0.0
 10
12.86681228848005
 20
15.72182794413953
 30
0.0
 10
12.8464013330067
 20
15.69153457680419
 30
0.0
 10
12.83574940936583
 20
15.68875344160839
 30
0.0
 10
12.80905175115397
 20
15.69536171497651
 30
0.0
 10
12.79303764407398
 20
15.70450089689616
 30
0.0
 10
12.77448267894404
 20
15.71862026199412
 30
0.0
  0
SPLINE
  5
2F6
330
1F
100
AcDbEntity
  8
SK3
  6
SLD-Dashed
370
    18
100
AcDbSpline
210
0.0
220
0.0
230
1.0
 70
     8
 71
     3
 72
    32
 73
    28
 74
     0
 42
0.000000001
 43
0.00000001
 40
0.0
 40
0.0
 40
0.0
 40
0.0
 40
0.0312500000000001
 40
0.0312500000000001
 40
0.0625000000000002
 40
0.0625000000000002
 40
0.1250000000000003
 40
0.1250000000000003
 40
0.1875000000000004
 40
0.1875000000000004
 40
0.2187500000000003
 40
0.2187500000000003
 40
0.2500000000000002
 40
0.2500000000000002
 40
0.28125
 40
0.28125
 40
0.3124999999999999
 40
0.3124999999999999
 40
0.3437499999999997
 40
0.3437499999999997
 40
0.3749999999999997
 40
0.3749999999999997
 40
0.4375000000000002
 40
0.4375000000000002
 40
0.4687500000000002
 40
0.4687500000000002
 40
0.5000000000000001
 40
0.5000000000000001
 40
0.5000000000000001
 40
0.5000000000000001
 10
12.77448267894404
 20
15.71862026199412
 30
0.0
 10
12.73737274868417
 20
15.74685899219002
 30
0.0
 10
12.69337806578312
 20
15.79224259566823
 30
0.0
 10
12.59689385108855
 20
15.9022963991526
 30
0.0
 10
12.54383386695565
 20
15.96790322450679
 30
0.0
 10
12.37774445790628
 20
16.18069042781309
 30
0.0
 10
12.25833673521422
 20
16.34294467859647
 30
0.0
 10
12.00026450441541
 20
16.68678550781622
 30
0.0
 10
11.86203223073891
 20
16.8691349791612
 30
0.0
 10
11.63161645643597
 20
17.13967173638346
 30
0.0
 10
11.55065905336557
 20
17.22963068267214
 30
0.0
 10
11.37312501166936
 20
17.40558287635432
 30
0.0
 10
11.27759322487977
 20
17.49045861876102
 30
0.0
 10
11.06520348922295
 20
17.64380301353632
 30
0.0
 10
10.949210242421
 20
17.71043612197693
 30
0.0
 10
10.70351185771584
 20
17.8142110669719
 30
0.0
 10
10.57904774682079
 20
17.84965901655795
 30
0.0
 10
10.34115259807163
 20
17.90370925451104
 30
0.0
 10
10.23176888900107
 20
17.92220535972609
 30
0.0
 10
10.03121705049108
 20
17.95947433583487
 30
0.0
 10
9.942202060190766
 20
17.97770297449697
 30
0.0
 10
9.71370692523306
 20
18.0431335092885
 30
0.0
 10
9.613418617750904
 20
18.10241425150425
 30
0.0
 10
9.55944512502549
 20
18.22319269411327
 30
0.0
 10
9.557286376316073
 20
18.26770507956405
 30
0.0
 10
9.584964485401901
 20
18.3654332474002
 30
0.0
 10
9.614837270285795
 20
18.41771099233801
 30
0.0
 10
9.659340961812383
 20
18.47093598961303
 30
0.0
  0
SPLINE
  5
2F7
330
1F
100
AcDbEntity
  8
SK3
  6
SLD-Dashed
370
    18
100
AcDbSpline
210
0.0
220
0.0
230
1.0
 70
     8
 71
     3
 72
    30
 73
    26
 74
     0
 42
0.000000001
 43
0.00000001
 40
0.5000000000000009
 40
0.5000000000000009
 40
0.5000000000000009
 40
0.5000000000000009
 40
0.5625000000000004
 40
0.5625000000000004
 40
0.6250000000000001
 40
0.6250000000000001
 40
0.6562500000000002
 40
0.6562500000000002
 40
0.6875000000000003
 40
0.6875000000000003
 40
0.7187500000000004
 40
0.7187500000000004
 40
0.7500000000000006
 40
0.7500000000000006
 40
0.7812500000000007
 40
0.7812500000000007
 40
0.8125000000000007
 40
0.8125000000000007
 40
0.8750000000000004
 40
0.8750000000000004
 40
0.9375000000000003
 40
0.9375000000000003
 40
0.9687500000000001
 40
0.9687500000000001
 40
1.0
 40
1.0
 40
1.0
 40
1.0
 10
11.86697163007593
 20
-17.8923229626897
 30
0.0
 10
12.00963799417151
 20
-17.67070440556971
 30
0.0
 10
12.14101641095426
 20
-17.43839527667694
 30
0.0
 10
12.38460745012802
 20
-16.97483031967647
 30
0.0
 10
12.49791541545377
 20
-16.74140211064305
 30
0.0
 10
12.65165075296318
 20
-16.39375558576599
 30
0.0
 10
12.69856048128676
 20
-16.28170289315482
 30
0.0
 10
12.78012705608358
 20
-16.0698977888558
 30
0.0
 10
12.81534701382776
 20
-15.96819079433429
 30
0.0
 10
12.8593115897761
 20
-15.804284145472
 30
0.0
 10
12.86743595914651
 20
-15.74311791179765
 30
0.0
 10
12.84957280615152
 20
-15.6835350762214
 30
0.0
 10
12.82442338190233
 20
-15.68523834432889
 30
0.0
 10
12.75626170858804
 20
-15.72953787216991
 30
0.0
 10
12.71285669180143
 20
-15.77187993935919
 30
0.0
 10
12.61818429003256
 20
-15.87679896563816
 30
0.0
 10
12.5665883558843
 20
-15.93961580200765
 30
0.0
 10
12.40208125783275
 20
-16.14822680602849
 30
0.0
 10
12.28235351164232
 20
-16.31053867976721
 30
0.0
 10
12.02701236067881
 20
-16.65147882946563
 30
0.0
 10
11.88985169982781
 20
-16.83353639743864
 30
0.0
 10
11.66168663430975
 20
-17.10544293868932
 30
0.0
 10
11.5820278141813
 20
-17.19558760882549
 30
0.0
 10
11.40976135351485
 20
-17.37124855765232
 30
0.0
 10
11.31623773502052
 20
-17.45771014988549
 30
0.0
 10
11.21217504451018
 20
-17.53689645447305
 30
0.0
  0
SPLINE
  5
2F8
330
1F
100
AcDbEntity
  8
SK3
  6
SLD-Dashed
370
    18
100
AcDbSpline
210
0.0
220
0.0
230
1.0
 70
     8
 71
     3
 72
    34
 73
    30
 74
     0
 42
0.000000001
 43
0.00000001
 40
0.0
 40
0.0
 40
0.0
 40
0.0
 40
0.0312499999999999
 40
0.0312499999999999
 40
0.0624999999999998
 40
0.0624999999999998
 40
0.0937499999999997
 40
0.0937499999999997
 40
0.1249999999999998
 40
0.1249999999999998
 40
0.1562499999999998
 40
0.1562499999999998
 40
0.1874999999999998
 40
0.1874999999999998
 40
0.2499999999999999
 40
0.2499999999999999
 40
0.3125000000000001
 40
0.3125000000000001
 40
0.3437500000000002
 40
0.3437500000000002
 40
0.3750000000000003
 40
0.3750000000000003
 40
0.4062500000000005
 40
0.4062500000000005
 40
0.4375000000000006
 40
0.4375000000000006
 40
0.4687500000000008
 40
0.4687500000000008
 40
0.5000000000000009
 40
0.5000000000000009
 40
0.5000000000000009
 40
0.5000000000000009
 10
11.21217504451019
 20
-17.53689645447306
 30
0.0
 10
11.10811235399983
 20
-17.61608275906061
 30
0.0
 10
10.99544744594069
 20
-17.68568655045015
 30
0.0
 10
10.75242107624784
 20
-17.79707922957885
 30
0.0
 10
10.62817508081463
 20
-17.83608132712147
 30
0.0
 10
10.38757977084846
 20
-17.89479374448347
 30
0.0
 10
10.27570495744567
 20
-17.9143620665804
 30
0.0
 10
10.06881676373843
 20
-17.9522855825236
 30
0.0
 10
9.977315256266168
 20
-17.96985838929487
 30
0.0
 10
9.81765467743887
 20
-18.01190468167731
 30
0.0
 10
9.750815276352347
 20
-18.03603027826289
 30
0.0
 10
9.646321030959522
 20
-18.09373421516188
 30
0.0
 10
9.607843634128292
 20
-18.12800625054991
 30
0.0
 10
9.54131927128014
 20
-18.24422870024181
 30
0.0
 10
9.56074597915285
 20
-18.34292442278637
 30
0.0
 10
9.722613504694785
 20
-18.55480157919651
 30
0.0
 10
9.865085097678216
 20
-18.66930111395104
 30
0.0
 10
10.1458486091303
 20
-18.80341694907232
 30
0.0
 10
10.24940443103339
 20
-18.84139332547912
 30
0.0
 10
10.47809863111677
 20
-18.88914098662073
 30
0.0
 10
10.60003449503928
 20
-18.89754920765947
 30
0.0
 10
10.84859806623975
 20
-18.86243703960239
 30
0.0
 10
10.96865870166405
 20
-18.81899219989517
 30
0.0
 10
11.19278694126429
 20
-18.68857740517246
 30
0.0
 10
11.2923989042635
 20
-18.60587995809751
 30
0.0
 10
11.47794303244621
 20
-18.42116017956384
 30
0.0
 10
11.56273198790863
 20
-18.3200356624122
 30
0.0
 10
11.72133596347944
 20
-18.11140665073927
 30
0.0
 10
11.79563844802806
 20
-18.0031322412497
 30
0.0
 10
11.86697163007593
 20
-17.8923229626897
 30
0.0
  0
SPLINE
  5
2F9
330
1F
100
AcDbEntity
  8
SK3
  6
SLD-Dashed
370
    18
100
AcDbSpline
210
0.0
220
0.0
230
1.0
 70
     8
 71
     3
 72
    30
 73
    26
 74
     0
 42
0.000000001
 43
0.00000001
 40
0.4999999999999996
 40
0.4999999999999996
 40
0.4999999999999996
 40
0.4999999999999996
 40
0.5312499999999996
 40
0.5312499999999996
 40
0.5624999999999996
 40
0.5624999999999996
 40
0.6249999999999997
 40
0.6249999999999997
 40
0.6874999999999998
 40
0.6874999999999998
 40
0.7187499999999999
 40
0.7187499999999999
 40
0.75
 40
0.75
 40
0.7812500000000001
 40
0.7812500000000001
 40
0.8125000000000002
 40
0.8125000000000002
 40
0.8437500000000003
 40
0.8437500000000003
 40
0.8750000000000004
 40
0.8750000000000004
 40
0.9375000000000002
 40
0.9375000000000002
 40
1.0
 40
1.0
 40
1.0
 40
1.0
 10
9.640595344445558
 20
-22.65998997114812
 30
0.0
 10
9.675736278245543
 20
-22.56022716883099
 30
0.0
 10
9.71980231101717
 20
-22.44904839944532
 30
0.0
 10
9.815202068755177
 20
-22.2236780839706
 30
0.0
 10
9.867340904097924
 20
-22.10744453751688
 30
0.0
 10
10.03290222544159
 20
-21.75463004044461
 30
0.0
 10
10.15180487247827
 20
-21.52064448601666
 30
0.0
 10
10.40799453158699
 20
-21.0588380163739
 30
0.0
 10
10.54558478884175
 20
-20.82955805298789
 30
0.0
 10
10.77494826779805
 20
-20.50643317375552
 30
0.0
 10
10.85588602367568
 20
-20.40152870512312
 30
0.0
 10
11.03082039578586
 20
-20.20556086715295
 30
0.0
 10
11.12415842093668
 20
-20.11488201047908
 30
0.0
 10
11.3332204086119
 20
-19.96052893895906
 30
0.0
 10
11.4477484823049
 20
-19.89926443941835
 30
0.0
 10
11.69197806912477
 20
-19.82807633767501
 30
0.0
 10
11.81663103928374
 20
-19.81958662546975
 30
0.0
 10
12.05667868382215
 20
-19.84303817835689
 30
0.0
 10
12.16749205038911
 20
-19.87318242107358
 30
0.0
 10
12.37140249518766
 20
-19.95206349756283
 30
0.0
 10
12.46220205630856
 20
-20.00025605676593
 30
0.0
 10
12.69677412118501
 20
-20.15399503516336
 30
0.0
 10
12.80161681483695
 20
-20.26792332503301
 30
0.0
 10
12.88327355513215
 20
-20.46801773808178
 30
0.0
 10
12.86038038696756
 20
-20.55399411581358
 30
0.0
 10
12.7744826789441
 20
-20.61935781184684
 30
0.0
  0
SPLINE
  5
2FA
330
1F
100
AcDbEntity
  8
SK3
  6
SLD-Dashed
370
    18
100
AcDbSpline
210
0.0
220
0.0
230
1.0
 70
     8
 71
     3
 72
    34
 73
    30
 74
     0
 42
0.000000001
 43
0.00000001
 40
0.0
 40
0.0
 40
0.0
 40
0.0
 40
0.0312499999999999
 40
0.0312499999999999
 40
0.0624999999999998
 40
0.0624999999999998
 40
0.0937499999999997
 40
0.0937499999999997
 40
0.1249999999999996
 40
0.1249999999999996
 40
0.1562499999999994
 40
0.1562499999999994
 40
0.1874999999999993
 40
0.1874999999999993
 40
0.2499999999999997
 40
0.2499999999999997
 40
0.3125
 40
0.3125
 40
0.3437499999999998
 40
0.3437499999999998
 40
0.3749999999999997
 40
0.3749999999999997
 40
0.4062499999999995
 40
0.4062499999999995
 40
0.4374999999999995
 40
0.4374999999999995
 40
0.4687499999999995
 40
0.4687499999999995
 40
0.4999999999999996
 40
0.4999999999999996
 40
0.4999999999999996
 40
0.4999999999999996
 10
12.7744826789441
 20
-20.61935781184684
 30
0.0
 10
12.73153382493235
 20
-20.65203965986344
 30
0.0
 10
12.67447034307084
 20
-20.67893166493468
 30
0.0
 10
12.53321313413719
 20
-20.72541543980047
 30
0.0
 10
12.44812995878469
 20
-20.74490836916302
 30
0.0
 10
12.25835690848791
 20
-20.78180696819734
 30
0.0
 10
12.15140084087515
 20
-20.79954830523241
 30
0.0
 10
11.92041995839459
 20
-20.84734178875046
 30
0.0
 10
11.79606943931576
 20
-20.87807405413513
 30
0.0
 10
11.55021959699958
 20
-20.96908417859751
 30
0.0
 10
11.42949188730044
 20
-21.03008950406161
 30
0.0
 10
11.20962930802689
 20
-21.17497279059741
 30
0.0
 10
11.11032897619746
 20
-21.25735513703285
 30
0.0
 10
10.83484970988681
 20
-21.5168703042206
 30
0.0
 10
10.68406680455752
 20
-21.69912075795287
 30
0.0
 10
10.40074753073263
 20
-22.05725573907559
 30
0.0
 10
10.27003980941388
 20
-22.23420714395772
 30
0.0
 10
10.08818005010378
 20
-22.47743384821165
 30
0.0
 10
10.02981026717645
 20
-22.55514665472533
 30
0.0
 10
9.917579850120594
 20
-22.70089934625717
 30
0.0
 10
9.863235397610762
 20
-22.76957377640452
 30
0.0
 10
9.7626238980245
 20
-22.88873427842829
 30
0.0
 10
9.71650184223584
 20
-22.93921098612151
 30
0.0
 10
9.636563581239571
 20
-23.01052916562901
 30
0.0
 10
9.602840810807493
 20
-23.03089302097994
 30
0.0
 10
9.56239953989027
 20
-23.01585114589004
 30
0.0
 10
9.556914505853747
 20
-22.97888962661067
 30
0.0
 10
9.57876029974393
 20
-22.84998128766081
 30
0.0
 10
9.605454410645573
 20
-22.75975277346525
 30
0.0
 10
9.640595344445558
 20
-22.65998997114812
 30
0.0
  0
ELLIPSE
  5
2FB
330
1F
100
AcDbEntity
  8
1
  6
SLD-Solid
370
    25
100
AcDbEllipse
 10
59.0971750445
 20
5.8816641459
 30
0.0
 11
12.70000000000002
 21
0.0
 31
0.0
210
0.0
220
0.0
230
1.0
 40
0.2660842192
 41
4.036940194910059
 42
4.7123889803847
  0
ELLIPSE
  5
2FC
330
1F
100
AcDbEntity
  8
1
  6
SLD-Solid
370
    25
100
AcDbEllipse
 10
59.0971750445
 20
-5.8816641459
 30
0.0
 11
12.70000000000002
 21
0.0
 31
0.0
210
0.0
220
0.0
230
1.0
 40
0.2660842192
 41
1.570796326794897
 42
2.246245112269547
  0
ELLIPSE
  5
2FD
330
1F
100
AcDbEntity
  8
1
  6
SLD-Solid
370
    25
100
AcDbEllipse
 10
59.0971750445
 20
-32.9919135843
 30
0.0
 11
12.70000000000002
 21
0.0
 31
0.0
210
0.0
220
0.0
230
1.0
 40
0.9990675134
 41
1.570796326794897
 42
2.246245112269548
  0
ELLIPSE
  5
2FE
330
1F
100
AcDbEntity
  8
1
  6
SLD-Solid
370
    25
100
AcDbEllipse
 10
59.0971750445
 20
32.9919135843
 30
0.0
 11
12.70000000000002
 21
0.0
 31
0.0
210
0.0
220
0.0
230
1.0
 40
0.9990675134
 41
4.036940194910052
 42
4.71238898038472
  0
ELLIPSE
  5
2FF
330
1F
100
AcDbEntity
  8
SK3
  6
SLD-Dashed
370
    18
100
AcDbEllipse
 10
6.3573392081
 20
23.0521020429
 30
0.0
 11
3.098580671678189
 21
0.0
 31
0.0
210
0.0
220
0.0
230
1.0
 40
0.2152402503
 41
5.969574850670362
 42
6.596795763688903
  0
INSERT
  5
300
330
1F
100
AcDbEntity
  8
81
100
AcDbBlockReference
  2
Block11
 10
-34.189307606
 20
-130.2676275275
 30
0.0
  0
INSERT
  5
301
330
1F
100
AcDbEntity
  8
80
100
AcDbBlockReference
  2
Block12
 10
-61.7273641656
 20
-130.3356800267
 30
0.0
  0
DIMENSION
  5
302
330
1F
100
AcDbEntity
  8
2
100
AcDbDimension
  2
_D
 10
70.0971750445
 20
49.1464820629
 30
0.0
 11
34.6864898266
 21
49.1464820629
 31
0.0
 70
   160
  1
<>
 71
     2
 42
-1.0
  3
SLDDIMSTYLE0
100
AcDbAlignedDimension
 13
0.0971750445
 23
22.225
 33
0.0
 14
70.0971750445
 24
20.0
 34
0.0
 50
0.0
100
AcDbRotatedDimension
  0
DIMENSION
  5
30E
330
1F
100
AcDbEntity
  8
SK2
100
AcDbDimension
  2
_D_1
 10
19.1471750445
 20
40.7492648759
 30
0.0
 11
9.3346222217
 21
40.7492648759
 31
0.0
 70
   160
  1
<>
 71
     2
 42
-1.0
  3
SLDDIMSTYLE0
100
AcDbAlignedDimension
 13
0.0971750445
 23
22.225
 33
0.0
 14
19.1471750445
 24
31.0
 34
0.0
100
AcDbRotatedDimension
  0
DIMENSION
  5
318
330
1F
100
AcDbEntity
  8
SK2
100
AcDbDimension
  2
_D_2
 10
70.0971750445
 20
40.7492648759
 30
0.0
 11
44.5725052292
 21
40.7492648759
 31
0.0
 70
   160
  1
<>
 71
     2
 42
-1.0
  3
SLDDIMSTYLE0
100
AcDbAlignedDimension
 13
19.1471750445
 23
31.0
 33
0.0
 14
70.0971750445
 24
20.0
 34
0.0
100
AcDbRotatedDimension
  0
DIMENSION
  5
322
330
1F
100
AcDbEntity
  8
SK2
100
AcDbDimension
  2
_D_3
 10
70.0971750445
 20
32.7369307837
 30
0.0
 11
59.068824006
 21
32.7369307837
 31
0.0
 70
   160
  1
<>
 71
     2
 42
-1.0
  3
SLDDIMSTYLE0
100
AcDbAlignedDimension
 13
47.5971750445
 23
24.2
 33
0.0
 14
70.0971750445
 24
20.0
 34
0.0
100
AcDbRotatedDimension
  0
DIMENSION
  5
32C
330
1F
100
AcDbEntity
  8
SK2
100
AcDbDimension
  2
_D_4
 10
90.8130894152
 20
-25.0
 30
0.0
 11
90.8130894152
 21
-0.6269149441
 31
0.0
 70
   160
  1
%%c<>
 71
     2
 42
-1.0
  3
SLDDIMSTYLE0
100
AcDbAlignedDimension
 13
67.2104236986
 23
25.0
 33
0.0
 14
67.2104236986
 24
-25.0
 34
0.0
 50
90.0
100
AcDbRotatedDimension
  0
DIMENSION
  5
337
330
1F
100
AcDbEntity
  8
SK2
100
AcDbDimension
  2
_D_5
 10
80.66425034
 20
16.0
 30
0.0
 11
80.66425034
 21
-0.6269149441
 31
0.0
 70
   160
  1
%%c<>
 71
     2
 42
-1.0
  3
SLDDIMSTYLE0
100
AcDbAlignedDimension
 13
56.5763481455
 23
-16.0
 33
0.0
 14
56.5763481455
 24
16.0
 34
0.0
 50
90.0
100
AcDbRotatedDimension
  0
DIMENSION
  5
342
330
1F
100
AcDbEntity
  8
SK2
100
AcDbDimension
  2
_D_6
 10
0.0971750445
 20
-41.8891035529
 30
0.0
 11
28.7831341984
 21
-41.8891035529
 31
0.0
 70
   160
  1
<>
 71
     2
 42
-1.0
  3
SLDDIMSTYLE0
100
AcDbAlignedDimension
 13
57.4371750445
 23
-16.9867328729
 33
0.0
 14
0.0971750445
 24
-22.225
 34
0.0
100
AcDbRotatedDimension
  0
DIMENSION
  5
34C
330
1F
100
AcDbEntity
  8
SK2
100
AcDbDimension
  2
_D_7
 10
-93.4952350134
 20
31.75
 30
0.0
 11
-93.4952350134
 21
-0.6269149441
 31
0.0
 70
   160
  1
%%c<>
 71
     2
 42
-1.0
  3
SLDDIMSTYLE0
100
AcDbAlignedDimension
 13
4.0471750445
 23
-31.75
 33
0.0
 14
4.0471750445
 24
31.75
 34
0.0
 50
90.0
100
AcDbRotatedDimension
  0
DIMENSION
  5
357
330
1F
100
AcDbEntity
  8
SK2
100
AcDbDimension
  2
_D_8
 10
-83.745653815
 20
22.225
 30
0.0
 11
-83.745653815
 21
-0.6269149441
 31
0.0
 70
   160
  1
%%c<>
 71
     2
 42
-1.0
  3
SLDDIMSTYLE0
100
AcDbAlignedDimension
 13
0.0971750445
 23
-22.225
 33
0.0
 14
0.0971750445
 24
22.225
 34
0.0
 50
90.0
100
AcDbRotatedDimension
  0
DIMENSION
  5
362
330
1F
100
AcDbEntity
  8
SK2
100
AcDbDimension
  2
_D_9
 10
-74.8113355866
 20
8.00000038
 30
0.0
 11
-74.8113355866
 21
-0.0291339509
 31
0.0
 70
   160
  1
M<>
 71
     2
 42
-1.0
  3
SLDDIMSTYLE0
100
AcDbAlignedDimension
 13
-57.1909463876
 23
-8.00000038
 33
0.0
 14
-57.1909463876
 24
8.00000038
 34
0.0
 50
90.0
100
AcDbRotatedDimension
  0
MTEXT
  5
36D
330
1F
100
AcDbEntity
  8
SK6
 62
     5
100
AcDbMText
 10
-67.5835795999
 20
-38.4030608861
 30
0.0
 40
3.5
 41
0.0
 71
     1
 72
     1
  1
A1B14-40 32 070
  7
SLDTEXTSTYLE0
 73
     1
 44
1.0
  0
INSERT
  5
373
330
1F
100
AcDbEntity
  8
SK6
 62
     5
100
AcDbBlockReference
  2
SW_NOTE_0
 10
-36.4747184514
 20
39.0301674978
 30
0.0
  0
ENDSEC
  0
SECTION
  2
OBJECTS
  0
DICTIONARY
  5
C
330
0
100
AcDbDictionary
281
     1
  3
ACAD_GROUP
350
D
  3
ACAD_LAYOUT
350
1A
  3
ACAD_MLINESTYLE
350
17
  3
ACAD_PLOTSETTINGS
350
19
  3
ACAD_PLOTSTYLENAME
350
E
  3
ACAD_SCALELIST
350
47
  0
DICTIONARY
  5
D
102
{ACAD_REACTORS
330
C
102
}
330
C
100
AcDbDictionary
281
     1
  0
DICTIONARY
  5
1A
102
{ACAD_REACTORS
330
C
102
}
330
C
100
AcDbDictionary
281
     1
  3
Layout1
350
1E
  3
Layout2
350
26
  3
Model
350
22
  0
DICTIONARY
  5
17
102
{ACAD_REACTORS
330
C
102
}
330
C
100
AcDbDictionary
281
     1
  3
Standard
350
18
  0
DICTIONARY
  5
19
102
{ACAD_REACTORS
330
C
102
}
330
C
100
AcDbDictionary
281
     1
  0
ACDBDICTIONARYWDFLT
  5
E
102
{ACAD_REACTORS
330
C
102
}
330
C
100
AcDbDictionary
281
     1
  3
Normal
350
F
100
AcDbDictionaryWithDefault
340
F
  0
DICTIONARY
  5
47
102
{ACAD_REACTORS
330
C
102
}
330
C
100
AcDbDictionary
281
     1
  3
A0
350
48
  3
A1
350
49
  3
A2
350
4A
  3
A3
350
4B
  3
A4
350
4C
  3
A5
350
4D
  3
A6
350
4E
  3
A7
350
4F
  3
A8
350
50
  3
A9
350
51
  3
B0
350
52
  3
B1
350
53
  3
B2
350
54
  3
B3
350
55
  3
B4
350
56
  3
B5
350
57
  3
B6
350
58
  3
B7
350
59
  3
B8
350
5A
  3
B9
350
5B
  3
C0
350
5C
  3
C1
350
5D
  3
C2
350
5E
  3
C3
350
5F
  3
C4
350
60
  3
C5
350
61
  3
C6
350
62
  3
C7
350
63
  3
C8
350
64
  3
C9
350
65
  3
D0
350
66
  3
D1
350
67
  3
D2
350
68
  0
LAYOUT
  5
1E
102
{ACAD_REACTORS
330
1A
102
}
330
1A
100
AcDbPlotSettings
  1

  2
none_device
  4

  6

 40
0.0
 41
0.0
 42
0.0
 43
0.0
 44
0.0
 45
0.0
 46
0.0
 47
0.0
 48
0.0
 49
0.0
140
0.0
141
0.0
142
1.0
143
1.0
 70
   688
 72
     1
 73
     0
 74
     5
  7

 75
    16
147
1.0
148
0.0
149
0.0
100
AcDbLayout
  1
Layout1
 70
     1
 71
     1
 10
0.0
 20
0.0
 11
420.0
 21
297.0
 12
0.0
 22
0.0
 32
0.0
 14
1.0000000000E+20
 24
1.0000000000E+20
 34
1.0000000000E+20
 15
-1.0000000000E+20
 25
-1.0000000000E+20
 35
-1.0000000000E+20
146
0.0
 13
0.0
 23
0.0
 33
0.0
 16
1.0
 26
0.0
 36
0.0
 17
0.0
 27
1.0
 37
0.0
 76
     0
330
1B
  0
LAYOUT
  5
26
102
{ACAD_REACTORS
330
1A
102
}
330
1A
100
AcDbPlotSettings
  1

  2
none_device
  4

  6

 40
0.0
 41
0.0
 42
0.0
 43
0.0
 44
0.0
 45
0.0
 46
0.0
 47
0.0
 48
0.0
 49
0.0
140
0.0
141
0.0
142
1.0
143
1.0
 70
   688
 72
     1
 73
     0
 74
     5
  7

 75
    16
147
1.0
148
0.0
149
0.0
100
AcDbLayout
  1
Layout2
 70
     1
 71
     2
 10
0.0
 20
0.0
 11
0.0
 21
0.0
 12
0.0
 22
0.0
 32
0.0
 14
0.0
 24
0.0
 34
0.0
 15
0.0
 25
0.0
 35
0.0
146
0.0
 13
0.0
 23
0.0
 33
0.0
 16
1.0
 26
0.0
 36
0.0
 17
0.0
 27
1.0
 37
0.0
 76
     0
330
23
  0
LAYOUT
  5
22
102
{ACAD_REACTORS
330
1A
102
}
330
1A
100
AcDbPlotSettings
  1

  2
none_device
  4
Letter_(8.50_x_11.00_Inches)
  6

 40
6.35
 41
6.35
 42
6.35000508
 43
6.35000508
 44
215.9
 45
279.4
 46
0.0
 47
0.0
 48
0.0
 49
0.0
140
0.0
141
0.0
142
1.0
143
1.0
 70
  1712
 72
     1
 73
     0
 74
     0
  7

 75
     0
147
1.0
148
0.0
149
0.0
100
AcDbLayout
  1
Model
 70
     1
 71
     0
 10
0.0
 20
0.0
 11
297.0
 21
210.0
 12
0.0
 22
0.0
 32
0.0
 14
0.0
 24
0.0
 34
0.0
 15
297.0
 25
210.0
 35
0.0
146
0.0
 13
0.0
 23
0.0
 33
0.0
 16
1.0
 26
0.0
 36
0.0
 17
0.0
 27
1.0
 37
0.0
 76
     0
330
1F
331
29
  0
MLINESTYLE
  5
18
102
{ACAD_REACTORS
330
17
102
}
330
17
100
AcDbMlineStyle
  2
Standard
 70
     0
  3

 62
   256
 51
90.0
 52
90.0
 71
     2
 49
0.5
 62
   256
  6
BYLAYER
 49
-0.5
 62
   256
  6
BYLAYER
  0
ACDBPLACEHOLDER
  5
F
102
{ACAD_REACTORS
330
E
102
}
330
E
  0
SCALE
  5
48
102
{ACAD_REACTORS
330
47
102
}
330
47
100
AcDbScale
 70
     0
300
1:1
140
1.0
141
1.0
290
     1
  0
SCALE
  5
49
102
{ACAD_REACTORS
330
47
102
}
330
47
100
AcDbScale
 70
     0
300
1:2
140
1.0
141
2.0
290
     0
  0
SCALE
  5
4A
102
{ACAD_REACTORS
330
47
102
}
330
47
100
AcDbScale
 70
     0
300
1:4
140
1.0
141
4.0
290
     0
  0
SCALE
  5
4B
102
{ACAD_REACTORS
330
47
102
}
330
47
100
AcDbScale
 70
     0
300
1:5
140
1.0
141
5.0
290
     0
  0
SCALE
  5
4C
102
{ACAD_REACTORS
330
47
102
}
330
47
100
AcDbScale
 70
     0
300
1:8
140
1.0
141
8.0
290
     0
  0
SCALE
  5
4D
102
{ACAD_REACTORS
330
47
102
}
330
47
100
AcDbScale
 70
     0
300
1:10
140
1.0
141
10.0
290
     0
  0
SCALE
  5
4E
102
{ACAD_REACTORS
330
47
102
}
330
47
100
AcDbScale
 70
     0
300
1:16
140
1.0
141
16.0
290
     0
  0
SCALE
  5
4F
102
{ACAD_REACTORS
330
47
102
}
330
47
100
AcDbScale
 70
     0
300
1:20
140
1.0
141
20.0
290
     0
  0
SCALE
  5
50
102
{ACAD_REACTORS
330
47
102
}
330
47
100
AcDbScale
 70
     0
300
1:30
140
1.0
141
30.0
290
     0
  0
SCALE
  5
51
102
{ACAD_REACTORS
330
47
102
}
330
47
100
AcDbScale
 70
     0
300
1:40
140
1.0
141
40.0
290
     0
  0
SCALE
  5
52
102
{ACAD_REACTORS
330
47
102
}
330
47
100
AcDbScale
 70
     0
300
1:50
140
1.0
141
50.0
290
     0
  0
SCALE
  5
53
102
{ACAD_REACTORS
330
47
102
}
330
47
100
AcDbScale
 70
     0
300
1:100
140
1.0
141
100.0
290
     0
  0
SCALE
  5
54
102
{ACAD_REACTORS
330
47
102
}
330
47
100
AcDbScale
 70
     0
300
2:1
140
2.0
141
1.0
290
     0
  0
SCALE
  5
55
102
{ACAD_REACTORS
330
47
102
}
330
47
100
AcDbScale
 70
     0
300
4:1
140
4.0
141
1.0
290
     0
  0
SCALE
  5
56
102
{ACAD_REACTORS
330
47
102
}
330
47
100
AcDbScale
 70
     0
300
8:1
140
8.0
141
1.0
290
     0
  0
SCALE
  5
57
102
{ACAD_REACTORS
330
47
102
}
330
47
100
AcDbScale
 70
     0
300
10:1
140
10.0
141
1.0
290
     0
  0
SCALE
  5
58
102
{ACAD_REACTORS
330
47
102
}
330
47
100
AcDbScale
 70
     0
300
100:1
140
100.0
141
1.0
290
     0
  0
SCALE
  5
59
102
{ACAD_REACTORS
330
47
102
}
330
47
100
AcDbScale
 70
     0
300
1/128" = 1'-0"
140
0.0078125
141
12.0
290
     0
  0
SCALE
  5
5A
102
{ACAD_REACTORS
330
47
102
}
330
47
100
AcDbScale
 70
     0
300
1/64" = 1'-0"
140
0.015625
141
12.0
290
     0
  0
SCALE
  5
5B
102
{ACAD_REACTORS
330
47
102
}
330
47
100
AcDbScale
 70
     0
300
1/32" = 1'-0"
140
0.03125
141
12.0
290
     0
  0
SCALE
  5
5C
102
{ACAD_REACTORS
330
47
102
}
330
47
100
AcDbScale
 70
     0
300
1/16" = 1'-0"
140
0.0625
141
12.0
290
     0
  0
SCALE
  5
5D
102
{ACAD_REACTORS
330
47
102
}
330
47
100
AcDbScale
 70
     0
300
3/32" = 1'-0"
140
0.09375
141
12.0
290
     0
  0
SCALE
  5
5E
102
{ACAD_REACTORS
330
47
102
}
330
47
100
AcDbScale
 70
     0
300
1/8" = 1'-0"
140
0.125
141
12.0
290
     0
  0
SCALE
  5
5F
102
{ACAD_REACTORS
330
47
102
}
330
47
100
AcDbScale
 70
     0
300
3/16" = 1'-0"
140
0.1875
141
12.0
290
     0
  0
SCALE
  5
60
102
{ACAD_REACTORS
330
47
102
}
330
47
100
AcDbScale
 70
     0
300
1/4" = 1'-0"
140
0.25
141
12.0
290
     0
  0
SCALE
  5
61
102
{ACAD_REACTORS
330
47
102
}
330
47
100
AcDbScale
 70
     0
300
3/8" = 1'-0"
140
0.375
141
12.0
290
     0
  0
SCALE
  5
62
102
{ACAD_REACTORS
330
47
102
}
330
47
100
AcDbScale
 70
     0
300
1/2" = 1'-0"
140
0.5
141
12.0
290
     0
  0
SCALE
  5
63
102
{ACAD_REACTORS
330
47
102
}
330
47
100
AcDbScale
 70
     0
300
3/4" = 1'-0"
140
0.75
141
12.0
290
     0
  0
SCALE
  5
64
102
{ACAD_REACTORS
330
47
102
}
330
47
100
AcDbScale
 70
     0
300
1" = 1'-0"
140
1.0
141
12.0
290
     0
  0
SCALE
  5
65
102
{ACAD_REACTORS
330
47
102
}
330
47
100
AcDbScale
 70
     0
300
1-1/2" = 1'-0"
140
1.5
141
12.0
290
     0
  0
SCALE
  5
66
102
{ACAD_REACTORS
330
47
102
}
330
47
100
AcDbScale
 70
     0
300
3" = 1'-0"
140
3.0
141
12.0
290
     0
  0
SCALE
  5
67
102
{ACAD_REACTORS
330
47
102
}
330
47
100
AcDbScale
 70
     0
300
6" = 1'-0"
140
6.0
141
12.0
290
     0
  0
SCALE
  5
68
102
{ACAD_REACTORS
330
47
102
}
330
47
100
AcDbScale
 70
     0
300
1'-0" = 1'-0"
140
12.0
141
12.0
290
     0
  0
ENDSEC
  0
EOF
