  0
SECTION
  2
HEADER
  9
$ACADVER
  1
AC1015
  9
$ACADMAINTVER
 70
     6
  9
$DWGCODEPAGE
  3
ANSI_1250
  9
$INSBASE
 10
0.0
 20
0.0
 30
0.0
  9
$EXTMIN
 10
0.0
 20
0.0
 30
0.0
  9
$EXTMAX
 10
297.0
 20
210.0
 30
0.0
  9
$LIMMIN
 10
0.0
 20
0.0
  9
$LIMMAX
 10
297.0
 20
210.0
  9
$ORTHOMODE
 70
     0
  9
$REGENMODE
 70
     1
  9
$FILLMODE
 70
     1
  9
$QTEXTMODE
 70
     0
  9
$MIRRTEXT
 70
     1
  9
$LTSCALE
 40
1.0
  9
$ATTMODE
 70
     1
  9
$TEXTSIZE
 40
3.5
  9
$TRACEWID
 40
1.0
  9
$TEXTSTYLE
  7
Standard
  9
$CLAYER
  8
0
  9
$CELTYPE
  6
ByLayer
  9
$CECOLOR
 62
   256
  9
$CELTSCALE
 40
1.0
  9
$DISPSILH
 70
     0
  9
$DIMSCALE
 40
1.0
  9
$DIMASZ
 40
3.302
  9
$DIMEXO
 40
1.0
  9
$DIMDLI
 40
3.75
  9
$DIMRND
 40
0.0
  9
$DIMDLE
 40
0.0
  9
$DIMEXE
 40
1.0
  9
$DIMTP
 40
0.0
  9
$DIMTM
 40
0.0
  9
$DIMTXT
 40
3.5
  9
$DIMCEN
 40
2.5
  9
$DIMTSZ
 40
0.0
  9
$DIMTOL
 70
     0
  9
$DIMLIM
 70
     0
  9
$DIMTIH
 70
     1
  9
$DIMTOH
 70
     1
  9
$DIMSE1
 70
     0
  9
$DIMSE2
 70
     0
  9
$DIMTAD
 70
     1
  9
$DIMZIN
 70
     0
  9
$DIMBLK
  1

  9
$DIMASO
 70
     1
  9
$DIMSHO
 70
     1
  9
$DIMPOST
  1

  9
$DIMAPOST
  1

  9
$DIMALT
 70
     0
  9
$DIMALTD
 70
     3
  9
$DIMALTF
 40
0.0393700787
  9
$DIMLFAC
 40
1.0
  9
$DIMTOFL
 70
     1
  9
$DIMTVP
 40
0.0
  9
$DIMTIX
 70
     0
  9
$DIMSOXD
 70
     0
  9
$DIMSAH
 70
     0
  9
$DIMBLK1
  1

  9
$DIMBLK2
  1

  9
$DIMSTYLE
  2
ISO-25
  9
$DIMCLRD
 70
     0
  9
$DIMCLRE
 70
     0
  9
$DIMCLRT
 70
     0
  9
$DIMTFAC
 40
1.0
  9
$DIMGAP
 40
1.524
  9
$DIMJUST
 70
     0
  9
$DIMSD1
 70
     0
  9
$DIMSD2
 70
     0
  9
$DIMTOLJ
 70
     0
  9
$DIMTZIN
 70
     0
  9
$DIMALTZ
 70
     0
  9
$DIMALTTZ
 70
     0
  9
$DIMUPT
 70
     0
  9
$DIMDEC
 70
     2
  9
$DIMTDEC
 70
     2
  9
$DIMALTU
 70
     2
  9
$DIMALTTD
 70
     3
  9
$DIMTXSTY
  7
Standard
  9
$DIMAUNIT
 70
     0
  9
$DIMADEC
 70
     2
  9
$DIMALTRND
 40
0.0
  9
$DIMAZIN
 70
     0
  9
$DIMDSEP
 70
    44
  9
$DIMATFIT
 70
     3
  9
$DIMFRAC
 70
     0
  9
$DIMLDRBLK
  1

  9
$DIMLUNIT
 70
     2
  9
$DIMLWD
 70
    -2
  9
$DIMLWE
 70
    -2
  9
$DIMTMOVE
 70
     0
  9
$LUNITS
 70
     2
  9
$LUPREC
 70
     2
  9
$SKETCHINC
 40
1.0
  9
$FILLETRAD
 40
10.0
  9
$AUNITS
 70
     0
  9
$AUPREC
 70
     2
  9
$MENU
  1
.
  9
$ELEVATION
 40
0.0
  9
$PELEVATION
 40
0.0
  9
$THICKNESS
 40
0.0
  9
$LIMCHECK
 70
     0
  9
$CHAMFERA
 40
0.0
  9
$CHAMFERB
 40
0.0
  9
$CHAMFERC
 40
0.0
  9
$CHAMFERD
 40
0.0
  9
$SKPOLY
 70
     0
  9
$TDCREATE
 40
2459290.514863542
  9
$TDUCREATE
 40
2459290.473196875
  9
$TDUPDATE
 40
2459290.514864618
  9
$TDUUPDATE
 40
2459290.473197951
  9
$TDINDWG
 40
0.0000000116
  9
$TDUSRTIMER
 40
0.0000000116
  9
$USRTIMER
 70
     1
  9
$ANGBASE
 50
0.0
  9
$ANGDIR
 70
     0
  9
$PDMODE
 70
     0
  9
$PDSIZE
 40
-1.0
  9
$PLINEWID
 40
0.0
  9
$SPLFRAME
 70
     0
  9
$SPLINETYPE
 70
     6
  9
$SPLINESEGS
 70
     8
  9
$HANDSEED
  5
33A
  9
$SURFTAB1
 70
     6
  9
$SURFTAB2
 70
     6
  9
$SURFTYPE
 70
     6
  9
$SURFU
 70
     6
  9
$SURFV
 70
     6
  9
$UCSBASE
  2

  9
$UCSNAME
  2

  9
$UCSORG
 10
0.0
 20
0.0
 30
0.0
  9
$UCSXDIR
 10
1.0
 20
0.0
 30
0.0
  9
$UCSYDIR
 10
0.0
 20
1.0
 30
0.0
  9
$UCSORTHOREF
  2

  9
$UCSORTHOVIEW
 70
     0
  9
$UCSORGTOP
 10
0.0
 20
0.0
 30
0.0
  9
$UCSORGBOTTOM
 10
0.0
 20
0.0
 30
0.0
  9
$UCSORGLEFT
 10
0.0
 20
0.0
 30
0.0
  9
$UCSORGRIGHT
 10
0.0
 20
0.0
 30
0.0
  9
$UCSORGFRONT
 10
0.0
 20
0.0
 30
0.0
  9
$UCSORGBACK
 10
0.0
 20
0.0
 30
0.0
  9
$PUCSBASE
  2

  9
$PUCSNAME
  2

  9
$PUCSORG
 10
0.0
 20
0.0
 30
0.0
  9
$PUCSXDIR
 10
1.0
 20
0.0
 30
0.0
  9
$PUCSYDIR
 10
0.0
 20
1.0
 30
0.0
  9
$PUCSORTHOREF
  2

  9
$PUCSORTHOVIEW
 70
     0
  9
$PUCSORGTOP
 10
0.0
 20
0.0
 30
0.0
  9
$PUCSORGBOTTOM
 10
0.0
 20
0.0
 30
0.0
  9
$PUCSORGLEFT
 10
0.0
 20
0.0
 30
0.0
  9
$PUCSORGRIGHT
 10
0.0
 20
0.0
 30
0.0
  9
$PUCSORGFRONT
 10
0.0
 20
0.0
 30
0.0
  9
$PUCSORGBACK
 10
0.0
 20
0.0
 30
0.0
  9
$USERI1
 70
     0
  9
$USERI2
 70
     0
  9
$USERI3
 70
     0
  9
$USERI4
 70
     0
  9
$USERI5
 70
     0
  9
$USERR1
 40
0.0
  9
$USERR2
 40
0.0
  9
$USERR3
 40
0.0
  9
$USERR4
 40
0.0
  9
$USERR5
 40
0.0
  9
$WORLDVIEW
 70
     1
  9
$SHADEDGE
 70
     3
  9
$SHADEDIF
 70
    70
  9
$TILEMODE
 70
     1
  9
$MAXACTVP
 70
    64
  9
$PINSBASE
 10
0.0
 20
0.0
 30
0.0
  9
$PLIMCHECK
 70
     0
  9
$PEXTMIN
 10
1.0000000000E+20
 20
1.0000000000E+20
 30
1.0000000000E+20
  9
$PEXTMAX
 10
-1.0000000000E+20
 20
-1.0000000000E+20
 30
-1.0000000000E+20
  9
$PLIMMIN
 10
0.0
 20
0.0
  9
$PLIMMAX
 10
420.0
 20
297.0
  9
$UNITMODE
 70
     0
  9
$VISRETAIN
 70
     1
  9
$PLINEGEN
 70
     0
  9
$PSLTSCALE
 70
     1
  9
$TREEDEPTH
 70
  3020
  9
$CMLSTYLE
  2
Standard
  9
$CMLJUST
 70
     0
  9
$CMLSCALE
 40
20.0
  9
$PROXYGRAPHICS
 70
     1
  9
$MEASUREMENT
 70
     1
  9
$CELWEIGHT
370
    -1
  9
$ENDCAPS
280
     0
  9
$JOINSTYLE
280
     0
  9
$LWDISPLAY
290
     1
  9
$INSUNITS
 70
     4
  9
$HYPERLINKBASE
  1

  9
$STYLESHEET
  1

  9
$XEDIT
290
     1
  9
$CEPSNTYPE
380
     0
  9
$PSTYLEMODE
290
     1
  9
$FINGERPRINTGUID
  2
{544E48E5-CA60-43E7-9C33-05D426C467CC}
  9
$VERSIONGUID
  2
{FAEB1C32-E019-11D5-929B-00C0DF256EC4}
  9
$EXTNAMES
290
     1
  9
$PSVPSCALE
 40
0.0
  9
$OLESTARTUP
290
     0
  0
ENDSEC
  0
SECTION
  2
CLASSES
  0
CLASS
  1
ACDBDICTIONARYWDFLT
  2
AcDbDictionaryWithDefault
  3
ObjectDBX Classes
 90
        0
280
     0
281
     0
  0
CLASS
  1
VISUALSTYLE
  2
AcDbVisualStyle
  3
ObjectDBX Classes
 90
     4095
280
     0
281
     0
  0
CLASS
  1
MATERIAL
  2
AcDbMaterial
  3
ObjectDBX Classes
 90
     1153
280
     0
281
     0
  0
CLASS
  1
SCALE
  2
AcDbScale
  3
ObjectDBX Classes
 90
     1153
280
     0
281
     0
  0
CLASS
  1
TABLESTYLE
  2
AcDbTableStyle
  3
ObjectDBX Classes
 90
     4095
280
     0
281
     0
  0
CLASS
  1
MLEADERSTYLE
  2
AcDbMLeaderStyle
  3
ACDB_MLEADERSTYLE_CLASS
 90
     4095
280
     0
281
     0
  0
CLASS
  1
SUN
  2
AcDbSun
  3
SCENEOE
 90
     1153
280
     0
281
     0
  0
CLASS
  1
ACDBPLACEHOLDER
  2
AcDbPlaceHolder
  3
ObjectDBX Classes
 90
        0
280
     0
281
     0
  0
CLASS
  1
LAYOUT
  2
AcDbLayout
  3
ObjectDBX Classes
 90
        0
280
     0
281
     0
  0
ENDSEC
  0
SECTION
  2
TABLES
  0
TABLE
  2
VPORT
  5
8
330
0
100
AcDbSymbolTable
 70
     1
  0
VPORT
  5
29
330
8
100
AcDbSymbolTableRecord
100
AcDbViewportTableRecord
  2
*Active
 70
     0
 10
0.0
 20
0.0
 11
1.0
 21
1.0
 12
148.5
 22
105.0
 13
0.0
 23
0.0
 14
10.0
 24
10.0
 15
10.0
 25
10.0
 16
0.0
 26
0.0
 36
1.0
 17
0.0
 27
0.0
 37
0.0
 40
210.0
 41
1.4142857143
 42
50.0
 43
0.0
 44
0.0
 50
0.0
 51
0.0
 71
     0
 72
  2000
 73
     1
 74
     3
 75
     0
 76
     0
 77
     0
 78
     0
281
     0
 65
     1
110
0.0
120
0.0
130
0.0
111
1.0
121
0.0
131
0.0
112
0.0
122
1.0
132
0.0
 79
     0
146
0.0
  0
ENDTAB
  0
TABLE
  2
LTYPE
  5
5
330
0
100
AcDbSymbolTable
 70
     8
  0
LTYPE
  5
14
330
5
100
AcDbSymbolTableRecord
100
AcDbLinetypeTableRecord
  2
ByBlock
 70
     0
  3

 72
    65
 73
     0
 40
0.0
  0
LTYPE
  5
15
330
5
100
AcDbSymbolTableRecord
100
AcDbLinetypeTableRecord
  2
ByLayer
 70
     0
  3

 72
    65
 73
     0
 40
0.0
  0
LTYPE
  5
16
330
5
100
AcDbSymbolTableRecord
100
AcDbLinetypeTableRecord
  2
Continuous
 70
     0
  3
Solid line
 72
    65
 73
     0
 40
0.0
  0
LTYPE
  5
6E
330
5
100
AcDbSymbolTableRecord
100
AcDbLinetypeTableRecord
  2
SLD-Solid
 70
     0
  3
SolidWorks Line Style
 72
    65
 73
     0
 40
0.0
  0
LTYPE
  5
6F
330
5
100
AcDbSymbolTableRecord
100
AcDbLinetypeTableRecord
  2
SLD-Dashed
 70
     0
  3
SolidWorks Line Style
 72
    65
 73
     2
 40
1.905
 49
1.27
 74
     0
 49
-0.635
 74
     0
  0
LTYPE
  5
70
330
5
100
AcDbSymbolTableRecord
100
AcDbLinetypeTableRecord
  2
SLD-Phantom
 70
     0
  3
SolidWorks Line Style
 72
    65
 73
     6
 40
12.7
 49
6.35
 74
     0
 49
-1.27
 74
     0
 49
1.27
 74
     0
 49
-1.27
 74
     0
 49
1.27
 74
     0
 49
-1.27
 74
     0
  0
LTYPE
  5
71
330
5
100
AcDbSymbolTableRecord
100
AcDbLinetypeTableRecord
  2
SLD-Chain
 70
     0
  3
SolidWorks Line Style
 72
    65
 73
     4
 40
10.16
 49
6.35
 74
     0
 49
-1.27
 74
     0
 49
1.27
 74
     0
 49
-1.27
 74
     0
  0
LTYPE
  5
72
330
5
100
AcDbSymbolTableRecord
100
AcDbLinetypeTableRecord
  2
SLD-Center
 70
     0
  3
SolidWorks Line Style
 72
    65
 73
     4
 40
19.05
 49
15.24
 74
     0
 49
-1.27
 74
     0
 49
1.27
 74
     0
 49
-1.27
 74
     0
  0
LTYPE
  5
73
330
5
100
AcDbSymbolTableRecord
100
AcDbLinetypeTableRecord
  2
SLD-Stitch
 70
     0
  3
SolidWorks Line Style
 72
    65
 73
     2
 40
0.635
 49
0.0
 74
     0
 49
-0.635
 74
     0
  0
LTYPE
  5
74
330
5
100
AcDbSymbolTableRecord
100
AcDbLinetypeTableRecord
  2
SLD-Thin-Thick-Chain
 70
     0
  3
SolidWorks Line Style
 72
    65
 73
     4
 40
10.16
 49
6.35
 74
     0
 49
-1.27
 74
     0
 49
1.27
 74
     0
 49
-1.27
 74
     0
  0
ENDTAB
  0
TABLE
  2
LAYER
  5
2
330
0
100
AcDbSymbolTable
 70
    12
  0
LAYER
  5
10
330
2
100
AcDbSymbolTableRecord
100
AcDbLayerTableRecord
  2
0
 70
     0
 62
     7
  6
Continuous
370
    -3
390
F
  0
LAYER
  5
75
330
2
100
AcDbSymbolTableRecord
100
AcDbLayerTableRecord
  2
SLD-0
 70
     0
 62
   179
  6
SLD-Solid
370
    -3
390
F
  0
LAYER
  5
76
330
2
100
AcDbSymbolTableRecord
100
AcDbLayerTableRecord
  2
80
 70
     0
 62
    -6
  6
SLD-Solid
290
     0
370
    -3
390
F
  0
LAYER
  5
77
330
2
100
AcDbSymbolTableRecord
100
AcDbLayerTableRecord
  2
81
 70
     0
 62
    -3
  6
SLD-Solid
290
     0
370
    -3
390
F
  0
LAYER
  5
78
330
2
100
AcDbSymbolTableRecord
100
AcDbLayerTableRecord
  2
1
 70
     0
 62
     4
  6
SLD-Solid
290
     0
370
    -3
390
F
  0
LAYER
  5
79
330
2
100
AcDbSymbolTableRecord
100
AcDbLayerTableRecord
  2
4
 70
     0
 62
    -2
  6
SLD-Chain
290
     0
370
    -3
390
F
  0
LAYER
  5
7A
330
2
100
AcDbSymbolTableRecord
100
AcDbLayerTableRecord
  2
2
 70
     0
 62
     7
  6
SLD-Solid
290
     0
370
    -3
390
F
  0
LAYER
  5
7B
330
2
100
AcDbSymbolTableRecord
100
AcDbLayerTableRecord
  2
SK3
 70
     0
 62
     1
  6
SLD-Dashed
290
     0
370
    -3
390
F
  0
LAYER
  5
7C
330
2
100
AcDbSymbolTableRecord
100
AcDbLayerTableRecord
  2
SK4
 70
     0
 62
     2
  6
SLD-Chain
290
     0
370
    -3
390
F
  0
LAYER
  5
7D
330
2
100
AcDbSymbolTableRecord
100
AcDbLayerTableRecord
  2
SK2
 70
     0
 62
     7
  6
SLD-Solid
290
     0
370
    -3
390
F
  0
LAYER
  5
7E
330
2
100
AcDbSymbolTableRecord
100
AcDbLayerTableRecord
  2
SK6
 70
     0
 62
     5
  6
SLD-Solid
290
     0
370
    -3
390
F
  0
LAYER
  5
7F
330
2
100
AcDbSymbolTableRecord
100
AcDbLayerTableRecord
  2
SK1
 70
     0
 62
     4
  6
SLD-Solid
370
    -3
390
F
  0
ENDTAB
  0
TABLE
  2
STYLE
  5
3
330
0
100
AcDbSymbolTable
 70
     2
  0
STYLE
  5
11
330
3
100
AcDbSymbolTableRecord
100
AcDbTextStyleTableRecord
  2
Standard
 70
     0
 40
0.0
 41
1.0
 50
0.0
 71
     0
 42
3.5
  3
txt
  4

  0
STYLE
  5
2D3
330
3
100
AcDbSymbolTableRecord
100
AcDbTextStyleTableRecord
  2
SLDTEXTSTYLE0
 70
     0
 40
0.0
 41
0.75
 50
0.0
 71
     0
 42
3.5
  3
TXT
  4

  0
ENDTAB
  0
TABLE
  2
VIEW
  5
6
330
0
100
AcDbSymbolTable
 70
     0
  0
ENDTAB
  0
TABLE
  2
UCS
  5
7
330
0
100
AcDbSymbolTable
 70
     0
  0
ENDTAB
  0
TABLE
  2
APPID
  5
9
330
0
100
AcDbSymbolTable
 70
     1
  0
APPID
  5
12
330
9
100
AcDbSymbolTableRecord
100
AcDbRegAppTableRecord
  2
ACAD
 70
     0
  0
ENDTAB
  0
TABLE
  2
DIMSTYLE
  5
A
330
0
100
AcDbSymbolTable
 70
     2
100
AcDbDimStyleTable
  0
DIMSTYLE
105
27
330
A
100
AcDbSymbolTableRecord
100
AcDbDimStyleTableRecord
  2
ISO-25
 70
     0
 41
2.5
 42
0.625
 43
3.75
 44
1.25
 73
     0
 74
     0
 77
     1
 78
     8
140
2.5
141
2.5
143
0.0393700787
147
0.625
171
     3
172
     1
178
     0
271
     2
272
     2
274
     3
278
    44
283
     0
284
     8
340
11
  0
DIMSTYLE
105
2D4
102
{ACAD_REACTORS
330
2D2
330
2DE
330
2E8
330
2F2
330
2FD
330
308
330
312
330
31D
330
328
102
}
330
A
100
AcDbSymbolTableRecord
100
AcDbDimStyleTableRecord
  2
SLDDIMSTYLE0
 70
     0
 41
3.302
 44
0.0
 45
0.000000001
 73
     0
 74
     0
 77
     1
 78
    12
 79
     3
140
3.5
147
0.875
173
     1
178
     0
271
     2
272
     2
276
     2
284
    12
340
2D3
  0
ENDTAB
  0
TABLE
  2
BLOCK_RECORD
  5
1
330
0
100
AcDbSymbolTable
 70
    13
  0
BLOCK_RECORD
  5
1F
330
1
100
AcDbSymbolTableRecord
100
AcDbBlockTableRecord
  2
*Model_Space
340
22
  0
BLOCK_RECORD
  5
1B
330
1
100
AcDbSymbolTableRecord
100
AcDbBlockTableRecord
  2
*Paper_Space
340
1E
  0
BLOCK_RECORD
  5
23
330
1
100
AcDbSymbolTableRecord
100
AcDbBlockTableRecord
  2
*Paper_Space0
340
26
  0
BLOCK_RECORD
  5
80
330
1
100
AcDbSymbolTableRecord
100
AcDbBlockTableRecord
  2
Block11
340
0
102
{BLKREFS
331
2D0
102
}
  0
BLOCK_RECORD
  5
89
330
1
100
AcDbSymbolTableRecord
100
AcDbBlockTableRecord
  2
Block12
340
0
102
{BLKREFS
331
2D1
102
}
  0
BLOCK_RECORD
  5
2D5
330
1
100
AcDbSymbolTableRecord
100
AcDbBlockTableRecord
  2
_D
340
0
  0
BLOCK_RECORD
  5
2DF
330
1
100
AcDbSymbolTableRecord
100
AcDbBlockTableRecord
  2
_D_1
340
0
  0
BLOCK_RECORD
  5
2E9
330
1
100
AcDbSymbolTableRecord
100
AcDbBlockTableRecord
  2
_D_2
340
0
  0
BLOCK_RECORD
  5
2F3
330
1
100
AcDbSymbolTableRecord
100
AcDbBlockTableRecord
  2
_D_3
340
0
  0
BLOCK_RECORD
  5
2FE
330
1
100
AcDbSymbolTableRecord
100
AcDbBlockTableRecord
  2
_D_4
340
0
  0
BLOCK_RECORD
  5
309
330
1
100
AcDbSymbolTableRecord
100
AcDbBlockTableRecord
  2
_D_5
340
0
  0
BLOCK_RECORD
  5
313
330
1
100
AcDbSymbolTableRecord
100
AcDbBlockTableRecord
  2
_D_6
340
0
  0
BLOCK_RECORD
  5
31E
330
1
100
AcDbSymbolTableRecord
100
AcDbBlockTableRecord
  2
_D_7
340
0
  0
BLOCK_RECORD
  5
329
330
1
100
AcDbSymbolTableRecord
100
AcDbBlockTableRecord
  2
_D_8
340
0
  0
BLOCK_RECORD
  5
334
330
1
100
AcDbSymbolTableRecord
100
AcDbBlockTableRecord
  2
SW_NOTE_0
340
0
102
{BLKREFS
331
339
102
}
  0
ENDTAB
  0
ENDSEC
  0
SECTION
  2
BLOCKS
  0
BLOCK
  5
20
330
1F
100
AcDbEntity
  8
0
100
AcDbBlockBegin
  2
*Model_Space
 70
     0
 10
0.0
 20
0.0
 30
0.0
  3
*Model_Space
  1

  0
ENDBLK
  5
21
330
1F
100
AcDbEntity
  8
0
100
AcDbBlockEnd
  0
BLOCK
  5
1C
330
1B
100
AcDbEntity
 67
     1
  8
0
100
AcDbBlockBegin
  2
*Paper_Space
 70
     0
 10
0.0
 20
0.0
 30
0.0
  3
*Paper_Space
  1

  0
ENDBLK
  5
1D
330
1B
100
AcDbEntity
 67
     1
  8
0
100
AcDbBlockEnd
  0
BLOCK
  5
24
330
23
100
AcDbEntity
  8
0
100
AcDbBlockBegin
  2
*Paper_Space0
 70
     0
 10
0.0
 20
0.0
 30
0.0
  3
*Paper_Space0
  1

  0
ENDBLK
  5
25
330
23
100
AcDbEntity
  8
0
100
AcDbBlockEnd
  0
BLOCK
  5
81
330
80
100
AcDbEntity
  8
0
100
AcDbBlockBegin
  2
Block11
 70
     0
 10
0.0
 20
0.0
 30
0.0
  3
Block11
  1

  0
CIRCLE
  5
83
330
80
100
AcDbEntity
  8
81
370
    18
100
AcDbCircle
 10
91.6264826505
 20
130.2676275275
 30
0.0
 40
2.499999999999981
  0
LINE
  5
84
330
80
100
AcDbEntity
  8
81
370
    18
100
AcDbLine
 10
91.6264826505
 20
130.2676275275
 30
0.0
 11
95.1620165565
 21
133.8031614334
 31
0.0
  0
LINE
  5
85
330
80
100
AcDbEntity
  8
81
370
    18
100
AcDbLine
 10
91.6264826505
 20
130.2676275275
 30
0.0
 11
88.0909487446
 21
126.7320936216
 31
0.0
  0
LINE
  5
86
330
80
100
AcDbEntity
  8
81
370
    18
100
AcDbLine
 10
91.6264826505
 20
130.2676275275
 30
0.0
 11
88.0909487446
 21
133.8031614334
 31
0.0
  0
LINE
  5
87
330
80
100
AcDbEntity
  8
81
100
AcDbLine
 10
91.6264826505
 20
130.2676275275
 30
0.0
 11
101.6264826505
 21
130.2676275275
 31
0.0
  0
LINE
  5
88
330
80
100
AcDbEntity
  8
81
370
    18
100
AcDbLine
 10
91.6264826505
 20
130.2676275275
 30
0.0
 11
95.1620165565
 21
126.7320936216
 31
0.0
  0
ENDBLK
  5
82
330
80
100
AcDbEntity
  8
0
100
AcDbBlockEnd
  0
BLOCK
  5
8A
330
89
100
AcDbEntity
  8
0
100
AcDbBlockBegin
  2
Block12
 70
     0
 10
0.0
 20
0.0
 30
0.0
  3
Block12
  1

  0
CIRCLE
  5
8C
330
89
100
AcDbEntity
  8
80
370
    18
100
AcDbCircle
 10
61.7273641656
 20
130.3356800267
 30
0.0
 40
2.500000000000004
  0
LINE
  5
8D
330
89
100
AcDbEntity
  8
80
370
    18
100
AcDbLine
 10
61.7273641656
 20
130.3356800267
 30
0.0
 11
65.2628980715
 21
133.8712139326
 31
0.0
  0
LINE
  5
8E
330
89
100
AcDbEntity
  8
80
370
    18
100
AcDbLine
 10
61.7273641656
 20
130.3356800267
 30
0.0
 11
58.1918302597
 21
126.8001461208
 31
0.0
  0
LINE
  5
8F
330
89
100
AcDbEntity
  8
80
370
    18
100
AcDbLine
 10
61.7273641656
 20
130.3356800267
 30
0.0
 11
58.1918302597
 21
133.8712139326
 31
0.0
  0
LINE
  5
90
330
89
100
AcDbEntity
  8
80
370
    18
100
AcDbLine
 10
61.7273641656
 20
130.3356800267
 30
0.0
 11
51.7273641656
 21
130.3356800267
 31
0.0
  0
LINE
  5
91
330
89
100
AcDbEntity
  8
80
370
    18
100
AcDbLine
 10
61.7273641656
 20
130.3356800267
 30
0.0
 11
65.2628980715
 21
126.8001461208
 31
0.0
  0
ENDBLK
  5
8B
330
89
100
AcDbEntity
  8
0
100
AcDbBlockEnd
  0
BLOCK
  5
2D6
330
2D5
100
AcDbEntity
  8
0
100
AcDbBlockBegin
  2
_D
 70
     0
 10
0.0
 20
0.0
 30
0.0
  3
_D
  1

  0
SOLID
  5
2D8
330
2D5
100
AcDbEntity
  8
SK2
100
AcDbTrace
 10
0.0
 20
40.7276166529
 30
0.0
 11
3.302
 21
40.2196166529
 31
0.0
 12
3.302
 22
41.2356166529
 32
0.0
 13
3.302
 23
41.2356166529
 33
0.0
  0
SOLID
  5
2D9
330
2D5
100
AcDbEntity
  8
SK2
100
AcDbTrace
 10
19.05
 20
40.7276166529
 30
0.0
 11
15.748
 21
41.2356166529
 31
0.0
 12
15.748
 22
40.2196166529
 32
0.0
 13
15.748
 23
40.2196166529
 33
0.0
  0
LINE
  5
2DA
330
2D5
100
AcDbEntity
  8
SK2
100
AcDbLine
 10
0.0
 20
23.225
 30
0.0
 11
0.0
 21
41.7276166529
 31
0.0
  0
LINE
  5
2DB
330
2D5
100
AcDbEntity
  8
SK2
100
AcDbLine
 10
19.05
 20
32.0
 30
0.0
 11
19.05
 21
41.7276166529
 31
0.0
  0
LINE
  5
2DC
330
2D5
100
AcDbEntity
  8
SK2
100
AcDbLine
 10
0.0
 20
40.7276166529
 30
0.0
 11
19.05
 21
40.7276166529
 31
0.0
  0
MTEXT
  5
2DD
330
2D5
100
AcDbEntity
  8
SK2
100
AcDbMText
 10
3.9236089914
 20
45.2393535675
 30
0.0
 40
3.5
 41
0.0
 71
     1
 72
     1
  1
19,05
  7
SLDTEXTSTYLE0
 73
     1
 44
1.0
  0
ENDBLK
  5
2D7
330
2D5
100
AcDbEntity
  8
0
100
AcDbBlockEnd
  0
BLOCK
  5
2E0
330
2DF
100
AcDbEntity
  8
0
100
AcDbBlockBegin
  2
_D_1
 70
     0
 10
0.0
 20
0.0
 30
0.0
  3
_D_1
  1

  0
SOLID
  5
2E2
330
2DF
100
AcDbEntity
  8
SK2
100
AcDbTrace
 10
19.05
 20
40.7276166529
 30
0.0
 11
22.352
 21
40.2196166529
 31
0.0
 12
22.352
 22
41.2356166529
 32
0.0
 13
22.352
 23
41.2356166529
 33
0.0
  0
SOLID
  5
2E3
330
2DF
100
AcDbEntity
  8
SK2
100
AcDbTrace
 10
100.0
 20
40.7276166529
 30
0.0
 11
96.698
 21
41.2356166529
 31
0.0
 12
96.698
 22
40.2196166529
 32
0.0
 13
96.698
 23
40.2196166529
 33
0.0
  0
LINE
  5
2E4
330
2DF
100
AcDbEntity
  8
SK2
100
AcDbLine
 10
19.05
 20
32.0
 30
0.0
 11
19.05
 21
41.7276166529
 31
0.0
  0
LINE
  5
2E5
330
2DF
100
AcDbEntity
  8
SK2
100
AcDbLine
 10
100.0
 20
15.0
 30
0.0
 11
100.0
 21
41.7276166529
 31
0.0
  0
LINE
  5
2E6
330
2DF
100
AcDbEntity
  8
SK2
100
AcDbLine
 10
19.05
 20
40.7276166529
 30
0.0
 11
100.0
 21
40.7276166529
 31
0.0
  0
MTEXT
  5
2E7
330
2DF
100
AcDbEntity
  8
SK2
100
AcDbMText
 10
53.5854773142
 20
45.2393535675
 30
0.0
 40
3.5
 41
0.0
 71
     1
 72
     1
  1
80,95
  7
SLDTEXTSTYLE0
 73
     1
 44
1.0
  0
ENDBLK
  5
2E1
330
2DF
100
AcDbEntity
  8
0
100
AcDbBlockEnd
  0
BLOCK
  5
2EA
330
2E9
100
AcDbEntity
  8
0
100
AcDbBlockBegin
  2
_D_2
 70
     0
 10
0.0
 20
0.0
 30
0.0
  3
_D_2
  1

  0
SOLID
  5
2EC
330
2E9
100
AcDbEntity
  8
2
100
AcDbTrace
 10
100.0
 20
50.2722399942
 30
0.0
 11
96.698
 21
50.7802399942
 31
0.0
 12
96.698
 22
49.7642399942
 32
0.0
 13
96.698
 23
49.7642399942
 33
0.0
  0
SOLID
  5
2ED
330
2E9
100
AcDbEntity
  8
2
100
AcDbTrace
 10
0.0
 20
50.2722399942
 30
0.0
 11
3.302
 21
49.7642399942
 31
0.0
 12
3.302
 22
50.7802399942
 32
0.0
 13
3.302
 23
50.7802399942
 33
0.0
  0
LINE
  5
2EE
330
2E9
100
AcDbEntity
  8
2
100
AcDbLine
 10
100.0
 20
15.0
 30
0.0
 11
100.0
 21
51.2722399942
 31
0.0
  0
LINE
  5
2EF
330
2E9
100
AcDbEntity
  8
2
100
AcDbLine
 10
0.0
 20
23.225
 30
0.0
 11
0.0
 21
51.2722399942
 31
0.0
  0
LINE
  5
2F0
330
2E9
100
AcDbEntity
  8
2
100
AcDbLine
 10
100.0
 20
50.2722399942
 30
0.0
 11
0.0
 21
50.2722399942
 31
0.0
  0
MTEXT
  5
2F1
330
2E9
100
AcDbEntity
  8
2
100
AcDbMText
 10
45.8520831377
 20
54.7839769088
 30
0.0
 40
3.5
 41
0.0
 71
     1
 72
     1
  1
100
  7
SLDTEXTSTYLE0
 73
     1
 44
1.0
  0
ENDBLK
  5
2EB
330
2E9
100
AcDbEntity
  8
0
100
AcDbBlockEnd
  0
BLOCK
  5
2F4
330
2F3
100
AcDbEntity
  8
0
100
AcDbBlockBegin
  2
_D_3
 70
     0
 10
0.0
 20
0.0
 30
0.0
  3
_D_3
  1

  0
SOLID
  5
2F6
330
2F3
100
AcDbEntity
  8
SK2
100
AcDbTrace
 10
120.103402301
 20
17.0
 30
0.0
 11
119.595402301
 21
13.698
 31
0.0
 12
120.611402301
 22
13.698
 32
0.0
 13
120.611402301
 23
13.698
 33
0.0
  0
SOLID
  5
2F7
330
2F3
100
AcDbEntity
  8
SK2
100
AcDbTrace
 10
120.103402301
 20
-17.0
 30
0.0
 11
120.611402301
 21
-13.698
 31
0.0
 12
119.595402301
 22
-13.698
 32
0.0
 13
119.595402301
 23
-13.698
 33
0.0
  0
LINE
  5
2F8
330
2F3
100
AcDbEntity
  8
SK2
100
AcDbLine
 10
99.2679491924
 20
17.0
 30
0.0
 11
121.103402301
 21
17.0
 31
0.0
  0
LINE
  5
2F9
330
2F3
100
AcDbEntity
  8
SK2
100
AcDbLine
 10
99.2679491924
 20
-17.0
 30
0.0
 11
121.103402301
 21
-17.0
 31
0.0
  0
LINE
  5
2FA
330
2F3
100
AcDbEntity
  8
SK2
100
AcDbLine
 10
120.103402301
 20
17.0
 30
0.0
 11
120.103402301
 21
-17.0
 31
0.0
  0
MTEXT
  5
2FB
330
2F3
100
AcDbEntity
  8
SK2
100
AcDbMText
 10
115.5916652118
 20
-5.9965372383
 30
0.0
 40
3.5
 41
0.0
 71
     1
 72
     1
  1
%%c
  7
SLDTEXTSTYLE0
 11
-7.044195017643634E-15
 21
1.0
 31
0.0
 73
     1
 44
1.0
  0
MTEXT
  5
2FC
330
2F3
100
AcDbEntity
  8
SK2
100
AcDbMText
 10
115.5381930351
 20
-0.7180998399
 30
0.0
 40
3.5
 41
0.0
 71
     1
 72
     1
  1
34
  7
SLDTEXTSTYLE0
 11
-7.044195017643634E-15
 21
1.0
 31
0.0
 73
     1
 44
1.0
  0
ENDBLK
  5
2F5
330
2F3
100
AcDbEntity
  8
0
100
AcDbBlockEnd
  0
BLOCK
  5
2FF
330
2FE
100
AcDbEntity
  8
0
100
AcDbBlockBegin
  2
_D_4
 70
     0
 10
0.0
 20
0.0
 30
0.0
  3
_D_4
  1

  0
SOLID
  5
301
330
2FE
100
AcDbEntity
  8
SK2
100
AcDbTrace
 10
109.8420771441
 20
-10.0
 30
0.0
 11
110.3500771441
 21
-6.698
 31
0.0
 12
109.3340771441
 22
-6.698
 32
0.0
 13
109.3340771441
 23
-6.698
 33
0.0
  0
SOLID
  5
302
330
2FE
100
AcDbEntity
  8
SK2
100
AcDbTrace
 10
109.8420771441
 20
10.0
 30
0.0
 11
109.3340771441
 21
6.698
 31
0.0
 12
110.3500771441
 22
6.698
 32
0.0
 13
110.3500771441
 23
6.698
 33
0.0
  0
LINE
  5
303
330
2FE
100
AcDbEntity
  8
SK2
100
AcDbLine
 10
89.3195865505
 20
-10.0
 30
0.0
 11
110.8420771441
 21
-10.0
 31
0.0
  0
LINE
  5
304
330
2FE
100
AcDbEntity
  8
SK2
100
AcDbLine
 10
89.3195865505
 20
10.0
 30
0.0
 11
110.8420771441
 21
10.0
 31
0.0
  0
LINE
  5
305
330
2FE
100
AcDbEntity
  8
SK2
100
AcDbLine
 10
109.8420771441
 20
-10.0
 30
0.0
 11
109.8420771441
 21
10.0
 31
0.0
  0
MTEXT
  5
306
330
2FE
100
AcDbEntity
  8
SK2
100
AcDbMText
 10
105.3303400549
 20
-5.9965372383
 30
0.0
 40
3.5
 41
0.0
 71
     1
 72
     1
  1
%%c
  7
SLDTEXTSTYLE0
 11
6.123233995736766E-17
 21
1.0
 31
0.0
 73
     1
 44
1.0
  0
MTEXT
  5
307
330
2FE
100
AcDbEntity
  8
SK2
100
AcDbMText
 10
105.2768678783
 20
-0.7180998399
 30
0.0
 40
3.5
 41
0.0
 71
     1
 72
     1
  1
20
  7
SLDTEXTSTYLE0
 11
6.123233995736766E-17
 21
1.0
 31
0.0
 73
     1
 44
1.0
  0
ENDBLK
  5
300
330
2FE
100
AcDbEntity
  8
0
100
AcDbBlockEnd
  0
BLOCK
  5
30A
330
309
100
AcDbEntity
  8
0
100
AcDbBlockBegin
  2
_D_5
 70
     0
 10
0.0
 20
0.0
 30
0.0
  3
_D_5
  1

  0
SOLID
  5
30C
330
309
100
AcDbEntity
  8
SK2
100
AcDbTrace
 10
88.75
 20
-41.1146251956
 30
0.0
 11
85.448
 21
-40.6066251956
 31
0.0
 12
85.448
 22
-41.6226251956
 32
0.0
 13
85.448
 23
-41.6226251956
 33
0.0
  0
SOLID
  5
30D
330
309
100
AcDbEntity
  8
SK2
100
AcDbTrace
 10
0.0
 20
-41.1146251956
 30
0.0
 11
3.302
 21
-41.6226251956
 31
0.0
 12
3.302
 22
-40.6066251956
 32
0.0
 13
3.302
 23
-40.6066251956
 33
0.0
  0
LINE
  5
30E
330
309
100
AcDbEntity
  8
SK2
100
AcDbLine
 10
88.75
 20
-11.4951340344
 30
0.0
 11
88.75
 21
-42.1146251956
 31
0.0
  0
LINE
  5
30F
330
309
100
AcDbEntity
  8
SK2
100
AcDbLine
 10
0.0
 20
-23.225
 30
0.0
 11
0.0
 21
-42.1146251956
 31
0.0
  0
LINE
  5
310
330
309
100
AcDbEntity
  8
SK2
100
AcDbLine
 10
88.75
 20
-41.1146251956
 30
0.0
 11
0.0
 21
-41.1146251956
 31
0.0
  0
MTEXT
  5
311
330
309
100
AcDbEntity
  8
SK2
100
AcDbMText
 10
36.5733271515
 20
-36.6028882811
 30
0.0
 40
3.5
 41
0.0
 71
     1
 72
     1
  1
88,75
  7
SLDTEXTSTYLE0
 73
     1
 44
1.0
  0
ENDBLK
  5
30B
330
309
100
AcDbEntity
  8
0
100
AcDbBlockEnd
  0
BLOCK
  5
314
330
313
100
AcDbEntity
  8
0
100
AcDbBlockBegin
  2
_D_6
 70
     0
 10
0.0
 20
0.0
 30
0.0
  3
_D_6
  1

  0
SOLID
  5
316
330
313
100
AcDbEntity
  8
SK2
100
AcDbTrace
 10
-94.6389461222
 20
31.75
 30
0.0
 11
-95.1469461222
 21
28.448
 31
0.0
 12
-94.1309461222
 22
28.448
 32
0.0
 13
-94.1309461222
 23
28.448
 33
0.0
  0
SOLID
  5
317
330
313
100
AcDbEntity
  8
SK2
100
AcDbTrace
 10
-94.6389461222
 20
-31.75
 30
0.0
 11
-94.1309461222
 21
-28.448
 31
0.0
 12
-95.1469461222
 22
-28.448
 32
0.0
 13
-95.1469461222
 23
-28.448
 33
0.0
  0
LINE
  5
318
330
313
100
AcDbEntity
  8
SK2
100
AcDbLine
 10
2.95
 20
31.75
 30
0.0
 11
-95.6389461222
 21
31.75
 31
0.0
  0
LINE
  5
319
330
313
100
AcDbEntity
  8
SK2
100
AcDbLine
 10
2.95
 20
-31.75
 30
0.0
 11
-95.6389461222
 21
-31.75
 31
0.0
  0
LINE
  5
31A
330
313
100
AcDbEntity
  8
SK2
100
AcDbLine
 10
-94.6389461222
 20
31.75
 30
0.0
 11
-94.6389461222
 21
-31.75
 31
0.0
  0
MTEXT
  5
31B
330
313
100
AcDbEntity
  8
SK2
100
AcDbMText
 10
-99.1506832114
 20
-7.9361208081
 30
0.0
 40
3.5
 41
0.0
 71
     1
 72
     1
  1
%%c
  7
SLDTEXTSTYLE0
 11
-7.044195017643634E-15
 21
1.0
 31
0.0
 73
     1
 44
1.0
  0
MTEXT
  5
31C
330
313
100
AcDbEntity
  8
SK2
100
AcDbMText
 10
-99.2041553881
 20
-2.6576834097
 30
0.0
 40
3.5
 41
0.0
 71
     1
 72
     1
  1
63,5
  7
SLDTEXTSTYLE0
 11
-7.044195017643634E-15
 21
1.0
 31
0.0
 73
     1
 44
1.0
  0
ENDBLK
  5
315
330
313
100
AcDbEntity
  8
0
100
AcDbBlockEnd
  0
BLOCK
  5
31F
330
31E
100
AcDbEntity
  8
0
100
AcDbBlockBegin
  2
_D_7
 70
     0
 10
0.0
 20
0.0
 30
0.0
  3
_D_7
  1

  0
SOLID
  5
321
330
31E
100
AcDbEntity
  8
SK2
100
AcDbTrace
 10
-85.104146351
 20
-22.225
 30
0.0
 11
-84.596146351
 21
-18.923
 31
0.0
 12
-85.612146351
 22
-18.923
 32
0.0
 13
-85.612146351
 23
-18.923
 33
0.0
  0
SOLID
  5
322
330
31E
100
AcDbEntity
  8
SK2
100
AcDbTrace
 10
-85.104146351
 20
22.225
 30
0.0
 11
-85.612146351
 21
18.923
 31
0.0
 12
-84.596146351
 22
18.923
 32
0.0
 13
-84.596146351
 23
18.923
 33
0.0
  0
LINE
  5
323
330
31E
100
AcDbEntity
  8
SK2
100
AcDbLine
 10
-1.0
 20
-22.225
 30
0.0
 11
-86.104146351
 21
-22.225
 31
0.0
  0
LINE
  5
324
330
31E
100
AcDbEntity
  8
SK2
100
AcDbLine
 10
-1.0
 20
22.225
 30
0.0
 11
-86.104146351
 21
22.225
 31
0.0
  0
LINE
  5
325
330
31E
100
AcDbEntity
  8
SK2
100
AcDbLine
 10
-85.104146351
 20
-22.225
 30
0.0
 11
-85.104146351
 21
22.225
 31
0.0
  0
MTEXT
  5
326
330
31E
100
AcDbEntity
  8
SK2
100
AcDbMText
 10
-89.6158834402
 20
-9.2291760556
 30
0.0
 40
3.5
 41
0.0
 71
     1
 72
     1
  1
%%c
  7
SLDTEXTSTYLE0
 11
6.123233995736766E-17
 21
1.0
 31
0.0
 73
     1
 44
1.0
  0
MTEXT
  5
327
330
31E
100
AcDbEntity
  8
SK2
100
AcDbMText
 10
-89.6693556169
 20
-3.9507386572
 30
0.0
 40
3.5
 41
0.0
 71
     1
 72
     1
  1
44,45
  7
SLDTEXTSTYLE0
 11
6.123233995736766E-17
 21
1.0
 31
0.0
 73
     1
 44
1.0
  0
ENDBLK
  5
320
330
31E
100
AcDbEntity
  8
0
100
AcDbBlockEnd
  0
BLOCK
  5
32A
330
329
100
AcDbEntity
  8
0
100
AcDbBlockBegin
  2
_D_8
 70
     0
 10
0.0
 20
0.0
 30
0.0
  3
_D_8
  1

  0
SOLID
  5
32C
330
329
100
AcDbEntity
  8
SK2
100
AcDbTrace
 10
-75.5461009736
 20
-8.00000038
 30
0.0
 11
-75.0381009736
 21
-4.69800038
 31
0.0
 12
-76.0541009736
 22
-4.69800038
 32
0.0
 13
-76.0541009736
 23
-4.69800038
 33
0.0
  0
SOLID
  5
32D
330
329
100
AcDbEntity
  8
SK2
100
AcDbTrace
 10
-75.5461009736
 20
8.00000038
 30
0.0
 11
-76.0541009736
 21
4.69800038
 31
0.0
 12
-75.0381009736
 22
4.69800038
 32
0.0
 13
-75.0381009736
 23
4.69800038
 33
0.0
  0
LINE
  5
32E
330
329
100
AcDbEntity
  8
SK2
100
AcDbLine
 10
-58.2881214321
 20
-8.00000038
 30
0.0
 11
-76.5461009736
 21
-8.00000038
 31
0.0
  0
LINE
  5
32F
330
329
100
AcDbEntity
  8
SK2
100
AcDbLine
 10
-58.2881214321
 20
8.00000038
 30
0.0
 11
-76.5461009736
 21
8.00000038
 31
0.0
  0
LINE
  5
330
330
329
100
AcDbEntity
  8
SK2
100
AcDbLine
 10
-75.5461009736
 20
-8.00000038
 30
0.0
 11
-75.5461009736
 21
8.00000038
 31
0.0
  0
MTEXT
  5
331
330
329
100
AcDbEntity
  8
SK2
100
AcDbMText
 10
-80.0578378882
 20
-4.7059504469
 30
0.0
 40
3.5
 41
0.0
 71
     1
 72
     1
  1
M
  7
SLDTEXTSTYLE0
 11
3.169856808907806E-15
 21
1.0
 31
0.0
 73
     1
 44
1.0
  0
MTEXT
  5
332
330
329
100
AcDbEntity
  8
SK2
100
AcDbMText
 10
-80.0578378882
 20
-0.4184505125
 30
0.0
 40
3.5
 41
0.0
 71
     1
 72
     1
  1
16
  7
SLDTEXTSTYLE0
 11
3.169856808907806E-15
 21
1.0
 31
0.0
 73
     1
 44
1.0
  0
ENDBLK
  5
32B
330
329
100
AcDbEntity
  8
0
100
AcDbBlockEnd
  0
BLOCK
  5
335
330
334
100
AcDbEntity
  8
0
100
AcDbBlockBegin
  2
SW_NOTE_0
 70
     0
 10
0.0
 20
0.0
 30
0.0
  3
SW_NOTE_0
  1

  0
MTEXT
  5
337
330
334
100
AcDbEntity
  8
SK6
 62
     0
100
AcDbMText
 10
0.0
 20
4.5117370892
 30
0.0
 40
3.5
 41
0.0
 71
     1
 72
     1
  1
TAPER ISO 40
  7
SLDTEXTSTYLE0
 73
     1
 44
1.0
  0
MTEXT
  5
338
330
334
100
AcDbEntity
  8
SK6
 62
     0
100
AcDbMText
 10
0.0
 20
-0.0139574413
 30
0.0
 40
3.5
 41
0.0
 71
     1
 72
     1
  1
DIN 69871-AD/B
  7
SLDTEXTSTYLE0
 73
     1
 44
1.0
  0
ENDBLK
  5
336
330
334
100
AcDbEntity
  8
0
100
AcDbBlockEnd
  0
ENDSEC
  0
SECTION
  2
ENTITIES
  0
LINE
  5
92
330
1F
100
AcDbEntity
  8
1
  6
SLD-Solid
370
    25
100
AcDbLine
 10
98.2679491924
 20
17.0
 30
0.0
 11
81.8
 21
17.0
 31
0.0
  0
LINE
  5
93
330
1F
100
AcDbEntity
  8
1
  6
SLD-Solid
370
    25
100
AcDbLine
 10
81.8
 20
-17.0
 30
0.0
 11
98.2679491924
 21
-17.0
 31
0.0
  0
LINE
  5
94
330
1F
100
AcDbEntity
  8
1
  6
SLD-Solid
370
    25
100
AcDbLine
 10
81.8
 20
17.0
 30
0.0
 11
81.0
 21
16.2
 31
0.0
  0
LINE
  5
95
330
1F
100
AcDbEntity
  8
1
  6
SLD-Solid
370
    25
100
AcDbLine
 10
81.0
 20
-16.2
 30
0.0
 11
81.8
 21
-17.0
 31
0.0
  0
LINE
  5
96
330
1F
100
AcDbEntity
  8
1
  6
SLD-Solid
370
    25
100
AcDbLine
 10
98.2679491924
 20
-17.0
 30
0.0
 11
100.0
 21
-14.0
 31
0.0
  0
LINE
  5
97
330
1F
100
AcDbEntity
  8
1
  6
SLD-Solid
370
    25
100
AcDbLine
 10
100.0
 20
14.0
 30
0.0
 11
98.2679491924
 21
17.0
 31
0.0
  0
LINE
  5
98
330
1F
100
AcDbEntity
  8
1
  6
SLD-Solid
370
    25
100
AcDbLine
 10
7.5931633579
 20
31.75
 30
0.0
 11
3.95
 21
31.75
 31
0.0
  0
LINE
  5
99
330
1F
100
AcDbEntity
  8
1
  6
SLD-Solid
370
    25
100
AcDbLine
 10
18.3
 20
31.75
 30
0.0
 11
14.6368366421
 21
31.75
 31
0.0
  0
LINE
  5
9A
330
1F
100
AcDbEntity
  8
1
  6
SLD-Solid
370
    25
100
AcDbLine
 10
9.2
 20
28.9668772965
 30
0.0
 11
7.5931633579
 21
31.75
 31
0.0
  0
LINE
  5
9B
330
1F
100
AcDbEntity
  8
1
  6
SLD-Solid
370
    25
100
AcDbLine
 10
14.6368366421
 20
31.75
 30
0.0
 11
13.03
 21
28.9668772965
 31
0.0
  0
LINE
  5
9C
330
1F
100
AcDbEntity
  8
SK1
  6
SLD-Solid
370
    25
100
AcDbLine
 10
0.0
 20
22.225
 30
0.0
 11
-67.3943082273
 21
12.3965705827
 31
0.0
  0
LINE
  5
9D
330
1F
100
AcDbEntity
  8
SK1
  6
SLD-Solid
370
    25
100
AcDbLine
 10
-67.3943082273
 20
-12.3965705827
 30
0.0
 11
0.0
 21
-22.225
 31
0.0
  0
LINE
  5
9E
330
1F
100
AcDbEntity
  8
1
  6
SLD-Solid
370
    25
100
AcDbLine
 10
0.0
 20
-22.225
 30
0.0
 11
1.8869952227
 21
-22.225
 31
0.0
  0
LINE
  5
9F
330
1F
100
AcDbEntity
  8
1
  6
SLD-Solid
370
    25
100
AcDbLine
 10
1.8869952227
 20
22.225
 30
0.0
 11
0.0
 21
22.225
 31
0.0
  0
LINE
  5
A0
330
1F
100
AcDbEntity
  8
1
  6
SLD-Solid
370
    25
100
AcDbLine
 10
1.8869952227
 20
-22.225
 30
0.0
 11
2.1330363037
 21
-22.1102691597
 31
0.0
  0
LINE
  5
A1
330
1F
100
AcDbEntity
  8
1
  6
SLD-Solid
370
    25
100
AcDbLine
 10
2.1330363037
 20
22.1102691597
 30
0.0
 11
1.8869952227
 21
22.225
 31
0.0
  0
LINE
  5
A2
330
1F
100
AcDbEntity
  8
1
  6
SLD-Solid
370
    25
100
AcDbLine
 10
3.95
 20
-31.75
 30
0.0
 11
7.5931633579
 21
-31.75
 31
0.0
  0
LINE
  5
A3
330
1F
100
AcDbEntity
  8
1
  6
SLD-Solid
370
    25
100
AcDbLine
 10
14.6368366421
 20
-31.75
 30
0.0
 11
18.3
 21
-31.75
 31
0.0
  0
LINE
  5
A4
330
1F
100
AcDbEntity
  8
1
  6
SLD-Solid
370
    25
100
AcDbLine
 10
7.5931633579
 20
-31.75
 30
0.0
 11
9.2
 21
-28.9668772965
 31
0.0
  0
LINE
  5
A5
330
1F
100
AcDbEntity
  8
1
  6
SLD-Solid
370
    25
100
AcDbLine
 10
13.03
 20
-28.9668772965
 30
0.0
 11
14.6368366421
 21
-31.75
 31
0.0
  0
LINE
  5
A6
330
1F
100
AcDbEntity
  8
1
  6
SLD-Solid
370
    25
100
AcDbLine
 10
9.95
 20
-28.0
 30
0.0
 11
12.28
 21
-28.0
 31
0.0
  0
LINE
  5
A7
330
1F
100
AcDbEntity
  8
1
  6
SLD-Solid
370
    25
100
AcDbLine
 10
21.05
 20
-16.8
 30
0.0
 11
64.1722777169
 21
-16.8
 31
0.0
  0
LINE
  5
A8
330
1F
100
AcDbEntity
  8
1
  6
SLD-Solid
370
    25
100
AcDbLine
 10
64.1722777169
 20
16.8
 30
0.0
 11
21.05
 21
16.8
 31
0.0
  0
LINE
  5
A9
330
1F
100
AcDbEntity
  8
1
  6
SLD-Solid
370
    25
100
AcDbLine
 10
64.1722777169
 20
-16.8
 30
0.0
 11
71.75
 21
-12.425
 31
0.0
  0
LINE
  5
AA
330
1F
100
AcDbEntity
  8
1
  6
SLD-Solid
370
    25
100
AcDbLine
 10
71.75
 20
12.425
 30
0.0
 11
64.1722777169
 21
16.8
 31
0.0
  0
LINE
  5
AB
330
1F
100
AcDbEntity
  8
1
  6
SLD-Solid
370
    25
100
AcDbLine
 10
71.75
 20
-12.425
 30
0.0
 11
81.0
 21
-12.425
 31
0.0
  0
LINE
  5
AC
330
1F
100
AcDbEntity
  8
1
  6
SLD-Solid
370
    25
100
AcDbLine
 10
81.0
 20
12.425
 30
0.0
 11
71.75
 21
12.425
 31
0.0
  0
LINE
  5
AD
330
1F
100
AcDbEntity
  8
1
  6
SLD-Solid
370
    25
100
AcDbLine
 10
12.28
 20
28.0
 30
0.0
 11
9.95
 21
28.0
 31
0.0
  0
LINE
  5
AE
330
1F
100
AcDbEntity
  8
1
  6
SLD-Solid
370
    25
100
AcDbLine
 10
81.8
 20
17.0
 30
0.0
 11
81.8
 21
-17.0
 31
0.0
  0
LINE
  5
AF
330
1F
100
AcDbEntity
  8
1
  6
SLD-Solid
370
    25
100
AcDbLine
 10
98.2679491924
 20
17.0
 30
0.0
 11
98.2679491924
 21
16.9936060746
 31
0.0
  0
LINE
  5
B0
330
1F
100
AcDbEntity
  8
1
  6
SLD-Solid
370
    25
100
AcDbLine
 10
88.3313708499
 20
16.9936060746
 30
0.0
 11
98.2679491924
 21
16.9936060746
 31
0.0
  0
LINE
  5
B1
330
1F
100
AcDbEntity
  8
1
  6
SLD-Solid
370
    25
100
AcDbLine
 10
98.2679491924
 20
8.9005534985
 30
0.0
 11
88.3313708499
 21
8.9005534985
 31
0.0
  0
LINE
  5
B2
330
1F
100
AcDbEntity
  8
1
  6
SLD-Solid
370
    25
100
AcDbLine
 10
98.2679491924
 20
8.9005534985
 30
0.0
 11
98.2679491924
 21
8.0930525761
 31
0.0
  0
LINE
  5
B3
330
1F
100
AcDbEntity
  8
1
  6
SLD-Solid
370
    25
100
AcDbLine
 10
88.3313708499
 20
8.0930525761
 30
0.0
 11
98.2679491924
 21
8.0930525761
 31
0.0
  0
LINE
  5
B4
330
1F
100
AcDbEntity
  8
1
  6
SLD-Solid
370
    25
100
AcDbLine
 10
98.2679491924
 20
-8.0930525761
 30
0.0
 11
88.3313708499
 21
-8.0930525761
 31
0.0
  0
LINE
  5
B5
330
1F
100
AcDbEntity
  8
1
  6
SLD-Solid
370
    25
100
AcDbLine
 10
98.2679491924
 20
-8.0930525761
 30
0.0
 11
98.2679491924
 21
-8.9005534985
 31
0.0
  0
LINE
  5
B6
330
1F
100
AcDbEntity
  8
1
  6
SLD-Solid
370
    25
100
AcDbLine
 10
88.3313708499
 20
-8.9005534985
 30
0.0
 11
98.2679491924
 21
-8.9005534985
 31
0.0
  0
LINE
  5
B7
330
1F
100
AcDbEntity
  8
1
  6
SLD-Solid
370
    25
100
AcDbLine
 10
98.2679491924
 20
-16.9936060746
 30
0.0
 11
88.3313708499
 21
-16.9936060746
 31
0.0
  0
LINE
  5
B8
330
1F
100
AcDbEntity
  8
1
  6
SLD-Solid
370
    25
100
AcDbLine
 10
98.2679491924
 20
-16.9936060746
 30
0.0
 11
98.2679491924
 21
-17.0
 31
0.0
  0
LINE
  5
B9
330
1F
100
AcDbEntity
  8
1
  6
SLD-Solid
370
    25
100
AcDbLine
 10
81.0
 20
16.2
 30
0.0
 11
81.0
 21
-16.2
 31
0.0
  0
LINE
  5
BA
330
1F
100
AcDbEntity
  8
1
  6
SLD-Solid
370
    25
100
AcDbLine
 10
100.0
 20
14.0
 30
0.0
 11
100.0
 21
-14.0
 31
0.0
  0
LINE
  5
BB
330
1F
100
AcDbEntity
  8
1
  6
SLD-Solid
370
    25
100
AcDbLine
 10
87.7656854249
 20
-7.6443829631
 30
0.0
 11
87.7656854249
 21
7.6443829631
 31
0.0
  0
LINE
  5
BC
330
1F
100
AcDbEntity
  8
1
  6
SLD-Solid
370
    25
100
AcDbLine
 10
88.3313708499
 20
8.0930525761
 30
0.0
 11
88.3313708499
 21
-8.0930525761
 31
0.0
  0
LINE
  5
BD
330
1F
100
AcDbEntity
  8
1
  6
SLD-Solid
370
    25
100
AcDbLine
 10
87.7656854249
 20
-16.9721936426
 30
0.0
 11
87.7656854249
 21
-9.3278106795
 31
0.0
  0
LINE
  5
BE
330
1F
100
AcDbEntity
  8
1
  6
SLD-Solid
370
    25
100
AcDbLine
 10
88.3313708499
 20
-8.9005534985
 30
0.0
 11
88.3313708499
 21
-16.9936060746
 31
0.0
  0
LINE
  5
BF
330
1F
100
AcDbEntity
  8
1
  6
SLD-Solid
370
    25
100
AcDbLine
 10
87.7656854249
 20
9.3278106795
 30
0.0
 11
87.7656854249
 21
16.9721936426
 31
0.0
  0
LINE
  5
C0
330
1F
100
AcDbEntity
  8
1
  6
SLD-Solid
370
    25
100
AcDbLine
 10
88.3313708499
 20
16.9936060746
 30
0.0
 11
88.3313708499
 21
8.9005534985
 31
0.0
  0
LINE
  5
C1
330
1F
100
AcDbEntity
  8
1
  6
SLD-Solid
370
    25
100
AcDbLine
 10
14.2709083079
 20
-8.095
 30
0.0
 11
18.3
 21
-8.095
 31
0.0
  0
LINE
  5
C2
330
1F
100
AcDbEntity
  8
1
  6
SLD-Solid
370
    25
100
AcDbLine
 10
18.3
 20
-8.73252
 30
0.0
 11
14.6368366421
 21
-8.73252
 31
0.0
  0
LINE
  5
C3
330
1F
100
AcDbEntity
  8
1
  6
SLD-Solid
370
    25
100
AcDbLine
 10
18.55
 20
-8.095
 30
0.0
 11
19.05
 21
-8.595
 31
0.0
  0
LINE
  5
C4
330
1F
100
AcDbEntity
  8
1
  6
SLD-Solid
370
    25
100
AcDbLine
 10
3.95
 20
8.73252
 30
0.0
 11
7.5931633579
 21
8.73252
 31
0.0
  0
LINE
  5
C5
330
1F
100
AcDbEntity
  8
1
  6
SLD-Solid
370
    25
100
AcDbLine
 10
7.9590916921
 20
8.095
 30
0.0
 11
3.95
 21
8.095
 31
0.0
  0
LINE
  5
C6
330
1F
100
AcDbEntity
  8
1
  6
SLD-Solid
370
    25
100
AcDbLine
 10
3.2
 20
8.595
 30
0.0
 11
3.7
 21
8.095
 31
0.0
  0
LINE
  5
C7
330
1F
100
AcDbEntity
  8
1
  6
SLD-Solid
370
    25
100
AcDbLine
 10
3.2
 20
8.595
 30
0.0
 11
3.2
 21
31.0
 31
0.0
  0
LINE
  5
C8
330
1F
100
AcDbEntity
  8
1
  6
SLD-Solid
370
    25
100
AcDbLine
 10
7.5931633579
 20
8.73252
 30
0.0
 11
7.5931633579
 21
31.75
 31
0.0
  0
LINE
  5
C9
330
1F
100
AcDbEntity
  8
1
  6
SLD-Solid
370
    25
100
AcDbLine
 10
19.05
 20
-18.35
 30
0.0
 11
19.05
 21
-8.595
 31
0.0
  0
LINE
  5
CA
330
1F
100
AcDbEntity
  8
1
  6
SLD-Solid
370
    25
100
AcDbLine
 10
3.2
 20
-8.595
 30
0.0
 11
3.7
 21
-8.095
 31
0.0
  0
LINE
  5
CB
330
1F
100
AcDbEntity
  8
1
  6
SLD-Solid
370
    25
100
AcDbLine
 10
3.2
 20
-18.35
 30
0.0
 11
3.2
 21
-8.595
 31
0.0
  0
LINE
  5
CC
330
1F
100
AcDbEntity
  8
1
  6
SLD-Solid
370
    25
100
AcDbLine
 10
7.5931633579
 20
-8.73252
 30
0.0
 11
3.95
 21
-8.73252
 31
0.0
  0
LINE
  5
CD
330
1F
100
AcDbEntity
  8
1
  6
SLD-Solid
370
    25
100
AcDbLine
 10
3.95
 20
-8.095
 30
0.0
 11
7.9590916921
 21
-8.095
 31
0.0
  0
LINE
  5
CE
330
1F
100
AcDbEntity
  8
1
  6
SLD-Solid
370
    25
100
AcDbLine
 10
14.6368366421
 20
-18.35
 30
0.0
 11
18.3
 21
-18.35
 31
0.0
  0
LINE
  5
CF
330
1F
100
AcDbEntity
  8
1
  6
SLD-Solid
370
    25
100
AcDbLine
 10
14.6368366421
 20
-18.35
 30
0.0
 11
14.6368366421
 21
-8.73252
 31
0.0
  0
LINE
  5
D0
330
1F
100
AcDbEntity
  8
1
  6
SLD-Solid
370
    25
100
AcDbLine
 10
3.95
 20
-18.35
 30
0.0
 11
7.5931633579
 21
-18.35
 31
0.0
  0
LINE
  5
D1
330
1F
100
AcDbEntity
  8
1
  6
SLD-Solid
370
    25
100
AcDbLine
 10
7.5931633579
 20
-18.35
 30
0.0
 11
7.5931633579
 21
-8.73252
 31
0.0
  0
LINE
  5
D2
330
1F
100
AcDbEntity
  8
1
  6
SLD-Solid
370
    25
100
AcDbLine
 10
18.55
 20
8.095
 30
0.0
 11
19.05
 21
8.595
 31
0.0
  0
LINE
  5
D3
330
1F
100
AcDbEntity
  8
1
  6
SLD-Solid
370
    25
100
AcDbLine
 10
14.6368366421
 20
8.73252
 30
0.0
 11
18.3
 21
8.73252
 31
0.0
  0
LINE
  5
D4
330
1F
100
AcDbEntity
  8
1
  6
SLD-Solid
370
    25
100
AcDbLine
 10
14.6368366421
 20
8.73252
 30
0.0
 11
14.6368366421
 21
31.75
 31
0.0
  0
LINE
  5
D5
330
1F
100
AcDbEntity
  8
1
  6
SLD-Solid
370
    25
100
AcDbLine
 10
19.05
 20
8.595
 30
0.0
 11
19.05
 21
31.0
 31
0.0
  0
LINE
  5
D6
330
1F
100
AcDbEntity
  8
1
  6
SLD-Solid
370
    25
100
AcDbLine
 10
18.3
 20
8.095
 30
0.0
 11
14.2709083079
 21
8.095
 31
0.0
  0
LINE
  5
D7
330
1F
100
AcDbEntity
  8
1
  6
SLD-Solid
370
    25
100
AcDbLine
 10
9.2
 20
27.4118626313
 30
0.0
 11
9.2
 21
28.9668772965
 31
0.0
  0
LINE
  5
D8
330
1F
100
AcDbEntity
  8
1
  6
SLD-Solid
370
    25
100
AcDbLine
 10
9.2
 20
8.095
 30
0.0
 11
9.2
 21
27.0172626808
 31
0.0
  0
LINE
  5
D9
330
1F
100
AcDbEntity
  8
1
  6
SLD-Solid
370
    25
100
AcDbLine
 10
9.2
 20
-18.35
 30
0.0
 11
9.2
 21
-8.095
 31
0.0
  0
LINE
  5
DA
330
1F
100
AcDbEntity
  8
1
  6
SLD-Solid
370
    25
100
AcDbLine
 10
13.03
 20
8.095
 30
0.0
 11
13.03
 21
27.0172626808
 31
0.0
  0
LINE
  5
DB
330
1F
100
AcDbEntity
  8
1
  6
SLD-Solid
370
    25
100
AcDbLine
 10
13.03
 20
27.4118626313
 30
0.0
 11
13.03
 21
28.9668772965
 31
0.0
  0
LINE
  5
DC
330
1F
100
AcDbEntity
  8
1
  6
SLD-Solid
370
    25
100
AcDbLine
 10
13.03
 20
-18.35
 30
0.0
 11
13.03
 21
-8.095
 31
0.0
  0
LINE
  5
DD
330
1F
100
AcDbEntity
  8
1
  6
SLD-Solid
370
    25
100
AcDbLine
 10
9.95
 20
8.095
 30
0.0
 11
12.28
 21
8.095
 31
0.0
  0
LINE
  5
DE
330
1F
100
AcDbEntity
  8
1
  6
SLD-Solid
370
    25
100
AcDbLine
 10
9.95
 20
-18.35
 30
0.0
 11
12.28
 21
-18.35
 31
0.0
  0
LINE
  5
DF
330
1F
100
AcDbEntity
  8
1
  6
SLD-Solid
370
    25
100
AcDbLine
 10
12.28
 20
-8.095
 30
0.0
 11
9.95
 21
-8.095
 31
0.0
  0
LINE
  5
E0
330
1F
100
AcDbEntity
  8
1
  6
SLD-Solid
370
    25
100
AcDbLine
 10
19.05
 20
-7.595
 30
0.0
 11
19.05
 21
-8.595
 31
0.0
  0
LINE
  5
E1
330
1F
100
AcDbEntity
  8
1
  6
SLD-Solid
370
    25
100
AcDbLine
 10
3.2
 20
-8.595
 30
0.0
 11
3.2
 21
-7.595
 31
0.0
  0
LINE
  5
E2
330
1F
100
AcDbEntity
  8
1
  6
SLD-Solid
370
    25
100
AcDbLine
 10
19.05
 20
8.595
 30
0.0
 11
19.05
 21
7.595
 31
0.0
  0
LINE
  5
E3
330
1F
100
AcDbEntity
  8
1
  6
SLD-Solid
370
    25
100
AcDbLine
 10
3.2
 20
7.595
 30
0.0
 11
3.2
 21
8.595
 31
0.0
  0
LINE
  5
E4
330
1F
100
AcDbEntity
  8
1
  6
SLD-Solid
370
    25
100
AcDbLine
 10
19.05
 20
7.595
 30
0.0
 11
19.05
 21
-7.595
 31
0.0
  0
LINE
  5
E5
330
1F
100
AcDbEntity
  8
1
  6
SLD-Solid
370
    25
100
AcDbLine
 10
3.2
 20
-7.595
 30
0.0
 11
3.2
 21
7.595
 31
0.0
  0
LINE
  5
E6
330
1F
100
AcDbEntity
  8
1
  6
SLD-Solid
370
    25
100
AcDbLine
 10
0.0
 20
-22.225
 30
0.0
 11
0.0
 21
22.225
 31
0.0
  0
LINE
  5
E7
330
1F
100
AcDbEntity
  8
1
  6
SLD-Solid
370
    25
100
AcDbLine
 10
1.8869952227
 20
-22.225
 30
0.0
 11
1.8869952227
 21
22.225
 31
0.0
  0
LINE
  5
E8
330
1F
100
AcDbEntity
  8
1
  6
SLD-Solid
370
    25
100
AcDbLine
 10
19.05
 20
-18.35
 30
0.0
 11
19.05
 21
-18.85
 31
0.0
  0
LINE
  5
E9
330
1F
100
AcDbEntity
  8
1
  6
SLD-Solid
370
    25
100
AcDbLine
 10
3.2
 20
-18.85
 30
0.0
 11
3.2
 21
-18.35
 31
0.0
  0
LINE
  5
EA
330
1F
100
AcDbEntity
  8
1
  6
SLD-Solid
370
    25
100
AcDbLine
 10
7.5931633579
 20
-25.91022964
 30
0.0
 11
3.95
 21
-25.91022964
 31
0.0
  0
LINE
  5
EB
330
1F
100
AcDbEntity
  8
1
  6
SLD-Solid
370
    25
100
AcDbLine
 10
7.5931633579
 20
-31.75
 30
0.0
 11
7.5931633579
 21
-25.91022964
 31
0.0
  0
LINE
  5
EC
330
1F
100
AcDbEntity
  8
1
  6
SLD-Solid
370
    25
100
AcDbLine
 10
3.2
 20
-31.0
 30
0.0
 11
3.2
 21
-24.9855458216
 31
0.0
  0
LINE
  5
ED
330
1F
100
AcDbEntity
  8
1
  6
SLD-Solid
370
    25
100
AcDbLine
 10
19.05
 20
-31.0
 30
0.0
 11
19.05
 21
-24.9855458215
 31
0.0
  0
LINE
  5
EE
330
1F
100
AcDbEntity
  8
1
  6
SLD-Solid
370
    25
100
AcDbLine
 10
18.3
 20
-25.91022964
 30
0.0
 11
14.6368366421
 21
-25.91022964
 31
0.0
  0
LINE
  5
EF
330
1F
100
AcDbEntity
  8
1
  6
SLD-Solid
370
    25
100
AcDbLine
 10
14.6368366421
 20
-31.75
 30
0.0
 11
14.6368366421
 21
-25.91022964
 31
0.0
  0
LINE
  5
F0
330
1F
100
AcDbEntity
  8
1
  6
SLD-Solid
370
    25
100
AcDbLine
 10
9.2
 20
-28.9668772965
 30
0.0
 11
9.2
 21
-22.4133326462
 31
0.0
  0
LINE
  5
F1
330
1F
100
AcDbEntity
  8
1
  6
SLD-Solid
370
    25
100
AcDbLine
 10
13.03
 20
-28.9668772965
 30
0.0
 11
13.03
 21
-22.4133326462
 31
0.0
  0
LINE
  5
F2
330
1F
100
AcDbEntity
  8
1
  6
SLD-Solid
370
    25
100
AcDbLine
 10
13.03
 20
-22.4133326462
 30
0.0
 11
13.03
 21
-22.1323292945
 31
0.0
  0
LINE
  5
F3
330
1F
100
AcDbEntity
  8
1
  6
SLD-Solid
370
    25
100
AcDbLine
 10
12.28
 20
-21.1489361435
 30
0.0
 11
9.95
 21
-21.1489361435
 31
0.0
  0
LINE
  5
F4
330
1F
100
AcDbEntity
  8
1
  6
SLD-Solid
370
    25
100
AcDbLine
 10
9.2
 20
-22.1323292945
 30
0.0
 11
9.2
 21
-22.4133326462
 31
0.0
  0
LINE
  5
F5
330
1F
100
AcDbEntity
  8
1
  6
SLD-Solid
370
    25
100
AcDbLine
 10
19.05
 20
-18.85
 30
0.0
 11
19.05
 21
-24.9855458215
 31
0.0
  0
LINE
  5
F6
330
1F
100
AcDbEntity
  8
1
  6
SLD-Solid
370
    25
100
AcDbLine
 10
3.2
 20
-18.85
 30
0.0
 11
3.2
 21
-24.9855458216
 31
0.0
  0
LINE
  5
F7
330
1F
100
AcDbEntity
  8
1
  6
SLD-Solid
370
    25
100
AcDbLine
 10
64.1722777169
 20
-16.8
 30
0.0
 11
64.1722777169
 21
16.8
 31
0.0
  0
LINE
  5
F8
330
1F
100
AcDbEntity
  8
1
  6
SLD-Solid
370
    25
100
AcDbLine
 10
71.75
 20
-12.425
 30
0.0
 11
71.75
 21
12.425
 31
0.0
  0
LINE
  5
F9
330
1F
100
AcDbEntity
  8
SK1
  6
SLD-Solid
370
    25
100
AcDbLine
 10
-68.25
 20
-11.4070377962
 30
0.0
 11
-68.25
 21
11.4070377962
 31
0.0
  0
LINE
  5
FA
330
1F
100
AcDbEntity
  8
1
  6
SLD-Solid
370
    25
100
AcDbLine
 10
9.2
 20
27.2080239064
 30
0.0
 11
9.2
 21
27.4118626313
 31
0.0
  0
LINE
  5
FB
330
1F
100
AcDbEntity
  8
1
  6
SLD-Solid
370
    25
100
AcDbLine
 10
13.03
 20
27.4118626313
 30
0.0
 11
13.03
 21
27.2080239064
 31
0.0
  0
LINE
  5
FC
330
1F
100
AcDbEntity
  8
SK3
  6
SLD-Dashed
370
    18
100
AcDbLine
 10
32.0830757425
 20
6.0
 30
0.0
 11
32.0830757425
 21
-6.0
 31
0.0
  0
LINE
  5
FD
330
1F
100
AcDbEntity
  8
SK3
  6
SLD-Dashed
370
    18
100
AcDbLine
 10
30.0830757425
 20
4.0
 30
0.0
 11
30.0830757425
 21
-4.0
 31
0.0
  0
LINE
  5
FE
330
1F
100
AcDbEntity
  8
SK3
  6
SLD-Dashed
370
    18
100
AcDbLine
 10
44.0830757425
 20
6.0
 30
0.0
 11
44.0830757425
 21
-6.0
 31
0.0
  0
LINE
  5
FF
330
1F
100
AcDbEntity
  8
SK3
  6
SLD-Dashed
370
    18
100
AcDbLine
 10
46.0830757425
 20
4.0
 30
0.0
 11
46.0830757425
 21
-4.0
 31
0.0
  0
LINE
  5
100
330
1F
100
AcDbEntity
  8
SK3
  6
SLD-Dashed
370
    18
100
AcDbLine
 10
30.0830757425
 20
-2.0623577037
 30
0.0
 11
30.0830757425
 21
1.3792174903
 31
0.0
  0
LINE
  5
101
330
1F
100
AcDbEntity
  8
SK3
  6
SLD-Dashed
370
    18
100
AcDbLine
 10
46.0830757425
 20
2.7482677767
 30
0.0
 11
46.0830757425
 21
-2.7482677767
 31
0.0
  0
LINE
  5
102
330
1F
100
AcDbEntity
  8
SK3
  6
SLD-Dashed
370
    18
100
AcDbLine
 10
30.0830757425
 20
1.3792174903
 30
0.0
 11
30.0830757425
 21
3.441575194
 31
0.0
  0
LINE
  5
103
330
1F
100
AcDbEntity
  8
SK3
  6
SLD-Dashed
370
    18
100
AcDbLine
 10
30.0830757425
 20
-3.441575194
 30
0.0
 11
30.0830757425
 21
-2.0623577037
 31
0.0
  0
LINE
  5
104
330
1F
100
AcDbEntity
  8
SK3
  6
SLD-Dashed
370
    18
100
AcDbLine
 10
30.0830757425
 20
3.441575194
 30
0.0
 11
30.0830757425
 21
2.0623577037
 31
0.0
  0
LINE
  5
105
330
1F
100
AcDbEntity
  8
SK3
  6
SLD-Dashed
370
    18
100
AcDbLine
 10
30.0830757425
 20
-1.3792174903
 30
0.0
 11
30.0830757425
 21
-3.441575194
 31
0.0
  0
LINE
  5
106
330
1F
100
AcDbEntity
  8
SK3
  6
SLD-Dashed
370
    18
100
AcDbLine
 10
30.0830757425
 20
2.0623577037
 30
0.0
 11
30.0830757425
 21
-1.3792174903
 31
0.0
  0
LINE
  5
107
330
1F
100
AcDbEntity
  8
1
  6
SLD-Dashed
370
    18
100
AcDbLine
 10
9.1331830483
 20
27.4195712955
 30
0.0
 11
9.1218911285
 21
27.3465480095
 31
0.0
  0
LINE
  5
108
330
1F
100
AcDbEntity
  8
1
  6
SLD-Dashed
370
    18
100
AcDbLine
 10
13.1081088715
 20
27.3467456154
 30
0.0
 11
13.1123837663
 21
27.3888561012
 31
0.0
  0
LINE
  5
109
330
1F
100
AcDbEntity
  8
SK3
  6
SLD-Dashed
370
    18
100
AcDbLine
 10
9.1285767029
 20
23.1308393474
 30
0.0
 11
9.2573958249
 21
22.9569187183
 31
0.0
  0
LINE
  5
10A
330
1F
100
AcDbEntity
  8
SK3
  6
SLD-Dashed
370
    18
100
AcDbLine
 10
9.2573958249
 20
22.9569187183
 30
0.0
 11
9.5140072867
 21
22.8004366559
 31
0.0
  0
LINE
  5
10B
330
1F
100
AcDbEntity
  8
SK3
  6
SLD-Dashed
370
    18
100
AcDbLine
 10
9.5140072867
 20
22.8004366559
 30
0.0
 11
9.8807577155
 21
22.672158214
 31
0.0
  0
LINE
  5
10C
330
1F
100
AcDbEntity
  8
SK3
  6
SLD-Dashed
370
    18
100
AcDbLine
 10
9.8807577155
 20
22.672158214
 30
0.0
 11
10.3324168196
 21
22.5809082018
 31
0.0
  0
LINE
  5
10D
330
1F
100
AcDbEntity
  8
SK3
  6
SLD-Dashed
370
    18
100
AcDbLine
 10
10.3324168196
 20
22.5809082018
 30
0.0
 11
10.837913085
 21
22.5329640883
 31
0.0
  0
LINE
  5
10E
330
1F
100
AcDbEntity
  8
SK3
  6
SLD-Dashed
370
    18
100
AcDbLine
 10
10.837913085
 20
22.5329640883
 30
0.0
 11
11.3624713152
 21
22.5316241489
 31
0.0
  0
LINE
  5
10F
330
1F
100
AcDbEntity
  8
SK3
  6
SLD-Dashed
370
    18
100
AcDbLine
 10
11.3624713152
 20
22.5316241489
 30
0.0
 11
11.8700049613
 21
22.5769805638
 31
0.0
  0
LINE
  5
110
330
1F
100
AcDbEntity
  8
SK3
  6
SLD-Dashed
370
    18
100
AcDbLine
 10
11.8700049613
 20
22.5769805638
 30
0.0
 11
12.3255986667
 21
22.6659130758
 31
0.0
  0
LINE
  5
111
330
1F
100
AcDbEntity
  8
SK3
  6
SLD-Dashed
370
    18
100
AcDbLine
 10
12.3255986667
 20
22.6659130758
 30
0.0
 11
12.69791024
 21
22.7923036467
 31
0.0
  0
LINE
  5
112
330
1F
100
AcDbEntity
  8
SK3
  6
SLD-Dashed
370
    18
100
AcDbLine
 10
12.69791024
 20
22.7923036467
 30
0.0
 11
12.9613268151
 21
22.9474573417
 31
0.0
  0
LINE
  5
113
330
1F
100
AcDbEntity
  8
SK3
  6
SLD-Dashed
370
    18
100
AcDbLine
 10
12.9613268151
 20
22.9474573417
 30
0.0
 11
13.0977268669
 21
23.120700491
 31
0.0
  0
LINE
  5
114
330
1F
100
AcDbEntity
  8
SK3
  6
SLD-Dashed
370
    18
100
AcDbLine
 10
13.0977268669
 20
23.120700491
 30
0.0
 11
13.0977268669
 21
23.3001149758
 31
0.0
  0
LINE
  5
115
330
1F
100
AcDbEntity
  8
SK3
  6
SLD-Dashed
370
    18
100
AcDbLine
 10
13.0977268669
 20
23.3001149758
 30
0.0
 11
12.9613268151
 21
23.4733581251
 31
0.0
  0
LINE
  5
116
330
1F
100
AcDbEntity
  8
SK3
  6
SLD-Dashed
370
    18
100
AcDbLine
 10
12.9613268151
 20
23.4733581251
 30
0.0
 11
12.69791024
 21
23.6285118201
 31
0.0
  0
LINE
  5
117
330
1F
100
AcDbEntity
  8
SK3
  6
SLD-Dashed
370
    18
100
AcDbLine
 10
12.69791024
 20
23.6285118201
 30
0.0
 11
12.3255986667
 21
23.754902391
 31
0.0
  0
LINE
  5
118
330
1F
100
AcDbEntity
  8
SK3
  6
SLD-Dashed
370
    18
100
AcDbLine
 10
12.3255986667
 20
23.754902391
 30
0.0
 11
11.8700049613
 21
23.8438349031
 31
0.0
  0
LINE
  5
119
330
1F
100
AcDbEntity
  8
SK3
  6
SLD-Dashed
370
    18
100
AcDbLine
 10
11.8700049613
 20
23.8438349031
 30
0.0
 11
11.3624713152
 21
23.8891913179
 31
0.0
  0
LINE
  5
11A
330
1F
100
AcDbEntity
  8
SK3
  6
SLD-Dashed
370
    18
100
AcDbLine
 10
11.3624713152
 20
23.8891913179
 30
0.0
 11
10.837913085
 21
23.8878513785
 31
0.0
  0
LINE
  5
11B
330
1F
100
AcDbEntity
  8
SK3
  6
SLD-Dashed
370
    18
100
AcDbLine
 10
10.837913085
 20
23.8878513785
 30
0.0
 11
10.3324168196
 21
23.839907265
 31
0.0
  0
LINE
  5
11C
330
1F
100
AcDbEntity
  8
SK3
  6
SLD-Dashed
370
    18
100
AcDbLine
 10
10.3324168196
 20
23.839907265
 30
0.0
 11
9.8807577155
 21
23.7486572528
 31
0.0
  0
LINE
  5
11D
330
1F
100
AcDbEntity
  8
SK3
  6
SLD-Dashed
370
    18
100
AcDbLine
 10
9.8807577155
 20
23.7486572528
 30
0.0
 11
9.5140072867
 21
23.6203788109
 31
0.0
  0
LINE
  5
11E
330
1F
100
AcDbEntity
  8
SK3
  6
SLD-Dashed
370
    18
100
AcDbLine
 10
9.5140072867
 20
23.6203788109
 30
0.0
 11
9.2573958249
 21
23.4638967485
 31
0.0
  0
LINE
  5
11F
330
1F
100
AcDbEntity
  8
SK3
  6
SLD-Dashed
370
    18
100
AcDbLine
 10
9.2573958249
 20
23.4638967485
 30
0.0
 11
9.1285767029
 21
23.2899761194
 31
0.0
  0
LINE
  5
120
330
1F
100
AcDbEntity
  8
1
  6
SLD-Dashed
370
    18
100
AcDbLine
 10
13.03
 20
26.813423956
 30
0.0
 11
13.03
 21
27.0172626808
 31
0.0
  0
LINE
  5
121
330
1F
100
AcDbEntity
  8
1
  6
SLD-Dashed
370
    18
100
AcDbLine
 10
9.2
 20
27.0172626808
 30
0.0
 11
9.2
 21
26.813423956
 31
0.0
  0
LINE
  5
122
330
1F
100
AcDbEntity
  8
SK3
  6
SLD-Dashed
370
    18
100
AcDbLine
 10
3.3100253255
 20
22.7838057852
 30
0.0
 11
3.4399584689
 21
22.7705685797
 31
0.0
  0
LINE
  5
123
330
1F
100
AcDbEntity
  8
SK3
  6
SLD-Dashed
370
    18
100
AcDbLine
 10
3.4399584689
 20
22.7705685797
 30
0.0
 11
3.6435729011
 21
22.8666981846
 31
0.0
  0
LINE
  5
124
330
1F
100
AcDbEntity
  8
SK3
  6
SLD-Dashed
370
    18
100
AcDbLine
 10
3.6435729011
 20
22.8666981846
 30
0.0
 11
3.9069926353
 21
23.0656435262
 31
0.0
  0
LINE
  5
125
330
1F
100
AcDbEntity
  8
SK3
  6
SLD-Dashed
370
    18
100
AcDbLine
 10
3.9069926353
 20
23.0656435262
 30
0.0
 11
4.2122660518
 21
23.3538468081
 31
0.0
  0
LINE
  5
126
330
1F
100
AcDbEntity
  8
SK3
  6
SLD-Dashed
370
    18
100
AcDbLine
 10
4.2122660518
 20
23.3538468081
 30
0.0
 11
4.5385892718
 21
23.7116674531
 31
0.0
  0
LINE
  5
127
330
1F
100
AcDbEntity
  8
SK3
  6
SLD-Dashed
370
    18
100
AcDbLine
 10
4.5385892718
 20
23.7116674531
 30
0.0
 11
4.8637239071
 21
24.1147205754
 31
0.0
  0
LINE
  5
128
330
1F
100
AcDbEntity
  8
SK3
  6
SLD-Dashed
370
    18
100
AcDbLine
 10
4.8637239071
 20
24.1147205754
 30
0.0
 11
5.1655125697
 21
24.535538771
 31
0.0
  0
LINE
  5
129
330
1F
100
AcDbEntity
  8
SK3
  6
SLD-Dashed
370
    18
100
AcDbLine
 10
5.1655125697
 20
24.535538771
 30
0.0
 11
5.4233888608
 21
24.945443975
 31
0.0
  0
LINE
  5
12A
330
1F
100
AcDbEntity
  8
SK3
  6
SLD-Dashed
370
    18
100
AcDbLine
 10
5.4233888608
 20
24.945443975
 30
0.0
 11
5.6197789374
 21
25.3165018254
 31
0.0
  0
LINE
  5
12B
330
1F
100
AcDbEntity
  8
SK3
  6
SLD-Dashed
370
    18
100
AcDbLine
 10
5.6197789374
 20
25.3165018254
 30
0.0
 11
5.7412991405
 21
25.6234253429
 31
0.0
  0
LINE
  5
12C
330
1F
100
AcDbEntity
  8
SK3
  6
SLD-Dashed
370
    18
100
AcDbLine
 10
5.7412991405
 20
25.6234253429
 30
0.0
 11
5.7796680688
 21
25.8452981968
 31
0.0
  0
LINE
  5
12D
330
1F
100
AcDbEntity
  8
SK3
  6
SLD-Dashed
370
    18
100
AcDbLine
 10
5.7796680688
 20
25.8452981968
 30
0.0
 11
5.7322709434
 21
25.9670001189
 31
0.0
  0
LINE
  5
12E
330
1F
100
AcDbEntity
  8
SK3
  6
SLD-Dashed
370
    18
100
AcDbLine
 10
5.7322709434
 20
25.9670001189
 30
0.0
 11
5.6023378001
 21
25.9802373244
 31
0.0
  0
LINE
  5
12F
330
1F
100
AcDbEntity
  8
SK3
  6
SLD-Dashed
370
    18
100
AcDbLine
 10
5.6023378001
 20
25.9802373244
 30
0.0
 11
5.3987233678
 21
25.8841077195
 31
0.0
  0
LINE
  5
130
330
1F
100
AcDbEntity
  8
SK3
  6
SLD-Dashed
370
    18
100
AcDbLine
 10
5.3987233678
 20
25.8841077195
 30
0.0
 11
5.1353036336
 21
25.6851623779
 31
0.0
  0
LINE
  5
131
330
1F
100
AcDbEntity
  8
SK3
  6
SLD-Dashed
370
    18
100
AcDbLine
 10
5.1353036336
 20
25.6851623779
 30
0.0
 11
4.8300302171
 21
25.3969590959
 31
0.0
  0
LINE
  5
132
330
1F
100
AcDbEntity
  8
SK3
  6
SLD-Dashed
370
    18
100
AcDbLine
 10
4.8300302171
 20
25.3969590959
 30
0.0
 11
4.5037069971
 21
25.039138451
 31
0.0
  0
LINE
  5
133
330
1F
100
AcDbEntity
  8
SK3
  6
SLD-Dashed
370
    18
100
AcDbLine
 10
4.5037069971
 20
25.039138451
 30
0.0
 11
4.1785723618
 21
24.6360853286
 31
0.0
  0
LINE
  5
134
330
1F
100
AcDbEntity
  8
SK3
  6
SLD-Dashed
370
    18
100
AcDbLine
 10
4.1785723618
 20
24.6360853286
 30
0.0
 11
3.8767836993
 21
24.2152671331
 31
0.0
  0
LINE
  5
135
330
1F
100
AcDbEntity
  8
SK3
  6
SLD-Dashed
370
    18
100
AcDbLine
 10
3.8767836993
 20
24.2152671331
 30
0.0
 11
3.6189074082
 21
23.805361929
 31
0.0
  0
LINE
  5
136
330
1F
100
AcDbEntity
  8
SK3
  6
SLD-Dashed
370
    18
100
AcDbLine
 10
3.6189074082
 20
23.805361929
 30
0.0
 11
3.4225173315
 21
23.4343040786
 31
0.0
  0
LINE
  5
137
330
1F
100
AcDbEntity
  8
SK3
  6
SLD-Dashed
370
    18
100
AcDbLine
 10
3.4225173315
 20
23.4343040786
 30
0.0
 11
3.3009971285
 21
23.1273805612
 31
0.0
  0
LINE
  5
138
330
1F
100
AcDbEntity
  8
SK3
  6
SLD-Dashed
370
    18
100
AcDbLine
 10
3.3009971285
 20
23.1273805612
 30
0.0
 11
3.2626282002
 21
22.9055077073
 31
0.0
  0
LINE
  5
139
330
1F
100
AcDbEntity
  8
SK3
  6
SLD-Dashed
370
    18
100
AcDbLine
 10
3.2626282002
 20
22.9055077073
 30
0.0
 11
3.3100253255
 21
22.7838057852
 31
0.0
  0
LINE
  5
13A
330
1F
100
AcDbEntity
  8
SK3
  6
SLD-Dashed
370
    18
100
AcDbLine
 10
3.2
 20
22.8742979511
 30
0.0
 11
3.2
 21
27.8871582268
 31
0.0
  0
LINE
  5
13B
330
1F
100
AcDbEntity
  8
SK3
  6
SLD-Dashed
370
    18
100
AcDbLine
 10
3.3403033958
 20
22.8235957143
 30
0.0
 11
3.4669882105
 21
22.810689439
 31
0.0
  0
LINE
  5
13C
330
1F
100
AcDbEntity
  8
SK3
  6
SLD-Dashed
370
    18
100
AcDbLine
 10
3.4669882105
 20
22.810689439
 30
0.0
 11
3.665512282
 21
22.9044158038
 31
0.0
  0
LINE
  5
13D
330
1F
100
AcDbEntity
  8
SK3
  6
SLD-Dashed
370
    18
100
AcDbLine
 10
3.665512282
 20
22.9044158038
 30
0.0
 11
3.9223465228
 21
23.0983875118
 31
0.0
  0
LINE
  5
13E
330
1F
100
AcDbEntity
  8
SK3
  6
SLD-Dashed
370
    18
100
AcDbLine
 10
3.9223465228
 20
23.0983875118
 30
0.0
 11
4.2199881039
 21
23.3793857117
 31
0.0
  0
LINE
  5
13F
330
1F
100
AcDbEntity
  8
SK3
  6
SLD-Dashed
370
    18
100
AcDbLine
 10
4.2199881039
 20
23.3793857117
 30
0.0
 11
4.5381532434
 21
23.7282608406
 31
0.0
  0
LINE
  5
140
330
1F
100
AcDbEntity
  8
SK3
  6
SLD-Dashed
370
    18
100
AcDbLine
 10
4.5381532434
 20
23.7282608406
 30
0.0
 11
4.8551595128
 21
24.1212376349
 31
0.0
  0
LINE
  5
141
330
1F
100
AcDbEntity
  8
SK3
  6
SLD-Dashed
370
    18
100
AcDbLine
 10
4.8551595128
 20
24.1212376349
 30
0.0
 11
5.1494034588
 21
24.5315353755
 31
0.0
  0
LINE
  5
142
330
1F
100
AcDbEntity
  8
SK3
  6
SLD-Dashed
370
    18
100
AcDbLine
 10
5.1494034588
 20
24.5315353755
 30
0.0
 11
5.4008328426
 21
24.9311929495
 31
0.0
  0
LINE
  5
143
330
1F
100
AcDbEntity
  8
SK3
  6
SLD-Dashed
370
    18
100
AcDbLine
 10
5.4008328426
 20
24.9311929495
 30
0.0
 11
5.5923131674
 21
25.2929743536
 31
0.0
  0
LINE
  5
144
330
1F
100
AcDbEntity
  8
SK3
  6
SLD-Dashed
370
    18
100
AcDbLine
 10
5.5923131674
 20
25.2929743536
 30
0.0
 11
5.7107953653
 21
25.5922247831
 31
0.0
  0
LINE
  5
145
330
1F
100
AcDbEntity
  8
SK3
  6
SLD-Dashed
370
    18
100
AcDbLine
 10
5.7107953653
 20
25.5922247831
 30
0.0
 11
5.7482050704
 21
25.8085508157
 31
0.0
  0
LINE
  5
146
330
1F
100
AcDbEntity
  8
SK3
  6
SLD-Dashed
370
    18
100
AcDbLine
 10
5.7482050704
 20
25.8085508157
 30
0.0
 11
5.7019928732
 21
25.9272101898
 31
0.0
  0
LINE
  5
147
330
1F
100
AcDbEntity
  8
SK3
  6
SLD-Dashed
370
    18
100
AcDbLine
 10
5.7019928732
 20
25.9272101898
 30
0.0
 11
5.5753080585
 21
25.9401164651
 31
0.0
  0
LINE
  5
148
330
1F
100
AcDbEntity
  8
SK3
  6
SLD-Dashed
370
    18
100
AcDbLine
 10
5.5753080585
 20
25.9401164651
 30
0.0
 11
5.376783987
 21
25.8463901003
 31
0.0
  0
LINE
  5
149
330
1F
100
AcDbEntity
  8
SK3
  6
SLD-Dashed
370
    18
100
AcDbLine
 10
5.376783987
 20
25.8463901003
 30
0.0
 11
5.1199497461
 21
25.6524183922
 31
0.0
  0
LINE
  5
14A
330
1F
100
AcDbEntity
  8
SK3
  6
SLD-Dashed
370
    18
100
AcDbLine
 10
5.1199497461
 20
25.6524183922
 30
0.0
 11
4.8223081651
 21
25.3714201923
 31
0.0
  0
LINE
  5
14B
330
1F
100
AcDbEntity
  8
SK3
  6
SLD-Dashed
370
    18
100
AcDbLine
 10
4.8223081651
 20
25.3714201923
 30
0.0
 11
4.5041430256
 21
25.0225450635
 31
0.0
  0
LINE
  5
14C
330
1F
100
AcDbEntity
  8
SK3
  6
SLD-Dashed
370
    18
100
AcDbLine
 10
4.5041430256
 20
25.0225450635
 30
0.0
 11
4.1871367561
 21
24.6295682692
 31
0.0
  0
LINE
  5
14D
330
1F
100
AcDbEntity
  8
SK3
  6
SLD-Dashed
370
    18
100
AcDbLine
 10
4.1871367561
 20
24.6295682692
 30
0.0
 11
3.8928928102
 21
24.2192705286
 31
0.0
  0
LINE
  5
14E
330
1F
100
AcDbEntity
  8
SK3
  6
SLD-Dashed
370
    18
100
AcDbLine
 10
3.8928928102
 20
24.2192705286
 30
0.0
 11
3.6414634263
 21
23.8196129546
 31
0.0
  0
LINE
  5
14F
330
1F
100
AcDbEntity
  8
SK3
  6
SLD-Dashed
370
    18
100
AcDbLine
 10
3.6414634263
 20
23.8196129546
 30
0.0
 11
3.4499831016
 21
23.4578315505
 31
0.0
  0
LINE
  5
150
330
1F
100
AcDbEntity
  8
SK3
  6
SLD-Dashed
370
    18
100
AcDbLine
 10
3.4499831016
 20
23.4578315505
 30
0.0
 11
3.3315009036
 21
23.158581121
 31
0.0
  0
LINE
  5
151
330
1F
100
AcDbEntity
  8
SK3
  6
SLD-Dashed
370
    18
100
AcDbLine
 10
3.3315009036
 20
23.158581121
 30
0.0
 11
3.2940911985
 21
22.9422550884
 31
0.0
  0
LINE
  5
152
330
1F
100
AcDbEntity
  8
SK3
  6
SLD-Dashed
370
    18
100
AcDbLine
 10
3.2940911985
 20
22.9422550884
 30
0.0
 11
3.3403033958
 21
22.8235957143
 31
0.0
  0
LINE
  5
153
330
1F
100
AcDbEntity
  8
SK3
  6
SLD-Dashed
370
    18
100
AcDbLine
 10
13.9872030677
 20
14.7218578465
 30
0.0
 11
14.1138878825
 21
14.7089515712
 31
0.0
  0
LINE
  5
154
330
1F
100
AcDbEntity
  8
SK3
  6
SLD-Dashed
370
    18
100
AcDbLine
 10
14.1138878825
 20
14.7089515712
 30
0.0
 11
14.3124119539
 21
14.802677936
 31
0.0
  0
LINE
  5
155
330
1F
100
AcDbEntity
  8
SK3
  6
SLD-Dashed
370
    18
100
AcDbLine
 10
14.3124119539
 20
14.802677936
 30
0.0
 11
14.5692461948
 21
14.996649644
 31
0.0
  0
LINE
  5
156
330
1F
100
AcDbEntity
  8
SK3
  6
SLD-Dashed
370
    18
100
AcDbLine
 10
14.5692461948
 20
14.996649644
 30
0.0
 11
14.8668877759
 21
15.2776478439
 31
0.0
  0
LINE
  5
157
330
1F
100
AcDbEntity
  8
SK3
  6
SLD-Dashed
370
    18
100
AcDbLine
 10
14.8668877759
 20
15.2776478439
 30
0.0
 11
15.1850529154
 21
15.6265229727
 31
0.0
  0
LINE
  5
158
330
1F
100
AcDbEntity
  8
SK3
  6
SLD-Dashed
370
    18
100
AcDbLine
 10
15.1850529154
 20
15.6265229727
 30
0.0
 11
15.5020591848
 21
16.019499767
 31
0.0
  0
LINE
  5
159
330
1F
100
AcDbEntity
  8
SK3
  6
SLD-Dashed
370
    18
100
AcDbLine
 10
15.5020591848
 20
16.019499767
 30
0.0
 11
15.7963031307
 21
16.4297975076
 31
0.0
  0
LINE
  5
15A
330
1F
100
AcDbEntity
  8
SK3
  6
SLD-Dashed
370
    18
100
AcDbLine
 10
15.7963031307
 20
16.4297975076
 30
0.0
 11
16.0477325146
 21
16.8294550816
 31
0.0
  0
LINE
  5
15B
330
1F
100
AcDbEntity
  8
SK3
  6
SLD-Dashed
370
    18
100
AcDbLine
 10
16.0477325146
 20
16.8294550816
 30
0.0
 11
16.2392128393
 21
17.1912364858
 31
0.0
  0
LINE
  5
15C
330
1F
100
AcDbEntity
  8
SK3
  6
SLD-Dashed
370
    18
100
AcDbLine
 10
16.2392128393
 20
17.1912364858
 30
0.0
 11
16.3576950373
 21
17.4904869152
 31
0.0
  0
LINE
  5
15D
330
1F
100
AcDbEntity
  8
SK3
  6
SLD-Dashed
370
    18
100
AcDbLine
 10
16.3576950373
 20
17.4904869152
 30
0.0
 11
16.3951047424
 21
17.7068129478
 31
0.0
  0
LINE
  5
15E
330
1F
100
AcDbEntity
  8
SK3
  6
SLD-Dashed
370
    18
100
AcDbLine
 10
16.3951047424
 20
17.7068129478
 30
0.0
 11
16.3488925452
 21
17.8254723219
 31
0.0
  0
LINE
  5
15F
330
1F
100
AcDbEntity
  8
SK3
  6
SLD-Dashed
370
    18
100
AcDbLine
 10
16.3488925452
 20
17.8254723219
 30
0.0
 11
16.2222077304
 21
17.8383785972
 31
0.0
  0
LINE
  5
160
330
1F
100
AcDbEntity
  8
SK3
  6
SLD-Dashed
370
    18
100
AcDbLine
 10
16.2222077304
 20
17.8383785972
 30
0.0
 11
16.0236836589
 21
17.7446522324
 31
0.0
  0
LINE
  5
161
330
1F
100
AcDbEntity
  8
SK3
  6
SLD-Dashed
370
    18
100
AcDbLine
 10
16.0236836589
 20
17.7446522324
 30
0.0
 11
15.7668494181
 21
17.5506805244
 31
0.0
  0
LINE
  5
162
330
1F
100
AcDbEntity
  8
SK3
  6
SLD-Dashed
370
    18
100
AcDbLine
 10
15.7668494181
 20
17.5506805244
 30
0.0
 11
15.469207837
 21
17.2696823245
 31
0.0
  0
LINE
  5
163
330
1F
100
AcDbEntity
  8
SK3
  6
SLD-Dashed
370
    18
100
AcDbLine
 10
15.469207837
 20
17.2696823245
 30
0.0
 11
15.1510426975
 21
16.9208071957
 31
0.0
  0
LINE
  5
164
330
1F
100
AcDbEntity
  8
SK3
  6
SLD-Dashed
370
    18
100
AcDbLine
 10
15.1510426975
 20
16.9208071957
 30
0.0
 11
14.8340364281
 21
16.5278304014
 31
0.0
  0
LINE
  5
165
330
1F
100
AcDbEntity
  8
SK3
  6
SLD-Dashed
370
    18
100
AcDbLine
 10
14.8340364281
 20
16.5278304014
 30
0.0
 11
14.5397924821
 21
16.1175326608
 31
0.0
  0
LINE
  5
166
330
1F
100
AcDbEntity
  8
SK3
  6
SLD-Dashed
370
    18
100
AcDbLine
 10
14.5397924821
 20
16.1175326608
 30
0.0
 11
14.2883630983
 21
15.7178750868
 31
0.0
  0
LINE
  5
167
330
1F
100
AcDbEntity
  8
SK3
  6
SLD-Dashed
370
    18
100
AcDbLine
 10
14.2883630983
 20
15.7178750868
 30
0.0
 11
14.0968827735
 21
15.3560936826
 31
0.0
  0
LINE
  5
168
330
1F
100
AcDbEntity
  8
SK3
  6
SLD-Dashed
370
    18
100
AcDbLine
 10
14.0968827735
 20
15.3560936826
 30
0.0
 11
13.9784005756
 21
15.0568432532
 31
0.0
  0
LINE
  5
169
330
1F
100
AcDbEntity
  8
SK3
  6
SLD-Dashed
370
    18
100
AcDbLine
 10
13.9784005756
 20
15.0568432532
 30
0.0
 11
13.9409908705
 21
14.8405172206
 31
0.0
  0
LINE
  5
16A
330
1F
100
AcDbEntity
  8
SK3
  6
SLD-Dashed
370
    18
100
AcDbLine
 10
13.9409908705
 20
14.8405172206
 30
0.0
 11
13.9872030677
 21
14.7218578465
 31
0.0
  0
LINE
  5
16B
330
1F
100
AcDbEntity
  8
SK3
  6
SLD-Dashed
370
    18
100
AcDbLine
 10
88.75
 20
10.4951340344
 30
0.0
 11
88.75
 21
-10.4951340344
 31
0.0
  0
LINE
  5
16C
330
1F
100
AcDbEntity
  8
SK3
  6
SLD-Dashed
370
    18
100
AcDbLine
 10
11.115
 20
22.6460744969
 30
0.0
 11
11.5798587188
 21
22.6689339582
 31
0.0
  0
LINE
  5
16D
330
1F
100
AcDbEntity
  8
SK3
  6
SLD-Dashed
370
    18
100
AcDbLine
 10
11.5798587188
 20
22.6689339582
 30
0.0
 11
12.0070573488
 21
22.7356604045
 31
0.0
  0
LINE
  5
16E
330
1F
100
AcDbEntity
  8
SK3
  6
SLD-Dashed
370
    18
100
AcDbLine
 10
12.0070573488
 20
22.7356604045
 30
0.0
 11
12.3619867977
 21
22.840848056
 31
0.0
  0
LINE
  5
16F
330
1F
100
AcDbEntity
  8
SK3
  6
SLD-Dashed
370
    18
100
AcDbLine
 10
12.3619867977
 20
22.840848056
 30
0.0
 11
12.6158927923
 21
22.9759752346
 31
0.0
  0
LINE
  5
170
330
1F
100
AcDbEntity
  8
SK3
  6
SLD-Dashed
370
    18
100
AcDbLine
 10
12.6158927923
 20
22.9759752346
 30
0.0
 11
12.7482053791
 21
23.1300947401
 31
0.0
  0
LINE
  5
171
330
1F
100
AcDbEntity
  8
SK3
  6
SLD-Dashed
370
    18
100
AcDbLine
 10
12.7482053791
 20
23.1300947401
 30
0.0
 11
12.7482053791
 21
23.2907207267
 31
0.0
  0
LINE
  5
172
330
1F
100
AcDbEntity
  8
SK3
  6
SLD-Dashed
370
    18
100
AcDbLine
 10
12.7482053791
 20
23.2907207267
 30
0.0
 11
12.6158927923
 21
23.4448402322
 31
0.0
  0
LINE
  5
173
330
1F
100
AcDbEntity
  8
SK3
  6
SLD-Dashed
370
    18
100
AcDbLine
 10
12.6158927923
 20
23.4448402322
 30
0.0
 11
12.3619867977
 21
23.5799674108
 31
0.0
  0
LINE
  5
174
330
1F
100
AcDbEntity
  8
SK3
  6
SLD-Dashed
370
    18
100
AcDbLine
 10
12.3619867977
 20
23.5799674108
 30
0.0
 11
12.0070573488
 21
23.6851550623
 31
0.0
  0
LINE
  5
175
330
1F
100
AcDbEntity
  8
SK3
  6
SLD-Dashed
370
    18
100
AcDbLine
 10
12.0070573488
 20
23.6851550623
 30
0.0
 11
11.5798587188
 21
23.7518815086
 31
0.0
  0
LINE
  5
176
330
1F
100
AcDbEntity
  8
SK3
  6
SLD-Dashed
370
    18
100
AcDbLine
 10
11.5798587188
 20
23.7518815086
 30
0.0
 11
11.115
 21
23.7747409699
 31
0.0
  0
LINE
  5
177
330
1F
100
AcDbEntity
  8
SK3
  6
SLD-Dashed
370
    18
100
AcDbLine
 10
11.115
 20
23.7747409699
 30
0.0
 11
10.6501412812
 21
23.7518815086
 31
0.0
  0
LINE
  5
178
330
1F
100
AcDbEntity
  8
SK3
  6
SLD-Dashed
370
    18
100
AcDbLine
 10
10.6501412812
 20
23.7518815086
 30
0.0
 11
10.2229426512
 21
23.6851550623
 31
0.0
  0
LINE
  5
179
330
1F
100
AcDbEntity
  8
SK3
  6
SLD-Dashed
370
    18
100
AcDbLine
 10
10.2229426512
 20
23.6851550623
 30
0.0
 11
9.8680132023
 21
23.5799674108
 31
0.0
  0
LINE
  5
17A
330
1F
100
AcDbEntity
  8
SK3
  6
SLD-Dashed
370
    18
100
AcDbLine
 10
9.8680132023
 20
23.5799674108
 30
0.0
 11
9.6141072077
 21
23.4448402322
 31
0.0
  0
LINE
  5
17B
330
1F
100
AcDbEntity
  8
SK3
  6
SLD-Dashed
370
    18
100
AcDbLine
 10
9.6141072077
 20
23.4448402322
 30
0.0
 11
9.4817946209
 21
23.2907207267
 31
0.0
  0
LINE
  5
17C
330
1F
100
AcDbEntity
  8
SK3
  6
SLD-Dashed
370
    18
100
AcDbLine
 10
9.4817946209
 20
23.2907207267
 30
0.0
 11
9.4817946209
 21
23.1300947401
 31
0.0
  0
LINE
  5
17D
330
1F
100
AcDbEntity
  8
SK3
  6
SLD-Dashed
370
    18
100
AcDbLine
 10
9.4817946209
 20
23.1300947401
 30
0.0
 11
9.6141072077
 21
22.9759752346
 31
0.0
  0
LINE
  5
17E
330
1F
100
AcDbEntity
  8
SK3
  6
SLD-Dashed
370
    18
100
AcDbLine
 10
9.6141072077
 20
22.9759752346
 30
0.0
 11
9.8680132023
 21
22.840848056
 31
0.0
  0
LINE
  5
17F
330
1F
100
AcDbEntity
  8
SK3
  6
SLD-Dashed
370
    18
100
AcDbLine
 10
9.8680132023
 20
22.840848056
 30
0.0
 11
10.2229426512
 21
22.7356604045
 31
0.0
  0
LINE
  5
180
330
1F
100
AcDbEntity
  8
SK3
  6
SLD-Dashed
370
    18
100
AcDbLine
 10
10.2229426512
 20
22.7356604045
 30
0.0
 11
10.6501412812
 21
22.6689339582
 31
0.0
  0
LINE
  5
181
330
1F
100
AcDbEntity
  8
SK3
  6
SLD-Dashed
370
    18
100
AcDbLine
 10
10.6501412812
 20
22.6689339582
 30
0.0
 11
11.115
 21
22.6460744969
 31
0.0
  0
LINE
  5
182
330
1F
100
AcDbEntity
  8
SK3
  6
SLD-Dashed
370
    18
100
AcDbLine
 10
66.75
 20
6.9523469049
 30
0.0
 11
66.75
 21
-6.9523469049
 31
0.0
  0
LINE
  5
183
330
1F
100
AcDbEntity
  8
SK3
  6
SLD-Dashed
370
    18
100
AcDbLine
 10
-66.9509618943
 20
-8.5
 30
0.0
 11
-66.9509618943
 21
8.5
 31
0.0
  0
LINE
  5
184
330
1F
100
AcDbEntity
  8
SK3
  6
SLD-Dashed
370
    18
100
AcDbLine
 10
-68.25
 20
9.2459377377
 30
0.0
 11
-68.25
 21
-9.2459377377
 31
0.0
  0
LINE
  5
185
330
1F
100
AcDbEntity
  8
SK3
  6
SLD-Dashed
370
    18
100
AcDbLine
 10
-60.2696152423
 20
-8.5
 30
0.0
 11
-60.2696152423
 21
8.5
 31
0.0
  0
LINE
  5
186
330
1F
100
AcDbEntity
  8
SK3
  6
SLD-Dashed
370
    18
100
AcDbLine
 10
-59.75
 20
-8.8
 30
0.0
 11
-59.75
 21
8.8
 31
0.0
  0
LINE
  5
187
330
1F
100
AcDbEntity
  8
SK3
  6
SLD-Dashed
370
    18
100
AcDbLine
 10
-57.75
 20
-8.8
 30
0.0
 11
-57.75
 21
8.8
 31
0.0
  0
LINE
  5
188
330
1F
100
AcDbEntity
  8
SK3
  6
SLD-Dashed
370
    18
100
AcDbLine
 10
-56.7107695155
 20
7.0
 30
0.0
 11
-56.7107695155
 21
-7.0
 31
0.0
  0
LINE
  5
189
330
1F
100
AcDbEntity
  8
SK3
  6
SLD-Dashed
370
    18
100
AcDbLine
 10
61.75
 20
7.1
 30
0.0
 11
61.75
 21
-7.1
 31
0.0
  0
LINE
  5
18A
330
1F
100
AcDbEntity
  8
SK3
  6
SLD-Dashed
370
    18
100
AcDbLine
 10
60.5482787619
 20
5.1
 30
0.0
 11
60.5482787619
 21
-5.1
 31
0.0
  0
LINE
  5
18B
330
1F
100
AcDbEntity
  8
SK3
  6
SLD-Dashed
370
    18
100
AcDbLine
 10
66.75
 20
7.1
 30
0.0
 11
66.75
 21
-7.1
 31
0.0
  0
LINE
  5
18C
330
1F
100
AcDbEntity
  8
SK3
  6
SLD-Dashed
370
    18
100
AcDbLine
 10
-8.25
 20
7.0
 30
0.0
 11
-8.25
 21
-7.0
 31
0.0
  0
LINE
  5
18D
330
1F
100
AcDbEntity
  8
SK3
  6
SLD-Dashed
370
    18
100
AcDbLine
 10
-7.1083648238
 20
5.1
 30
0.0
 11
-7.1083648238
 21
-5.1
 31
0.0
  0
LINE
  5
18E
330
1F
100
AcDbEntity
  8
SK3
  6
SLD-Dashed
370
    18
100
AcDbLine
 10
5.7019928732
 20
-25.9272101898
 30
0.0
 11
5.5753080585
 21
-25.9401164651
 31
0.0
  0
LINE
  5
18F
330
1F
100
AcDbEntity
  8
SK3
  6
SLD-Dashed
370
    18
100
AcDbLine
 10
5.5753080585
 20
-25.9401164651
 30
0.0
 11
5.376783987
 21
-25.8463901003
 31
0.0
  0
LINE
  5
190
330
1F
100
AcDbEntity
  8
SK3
  6
SLD-Dashed
370
    18
100
AcDbLine
 10
5.376783987
 20
-25.8463901003
 30
0.0
 11
5.1199497461
 21
-25.6524183922
 31
0.0
  0
LINE
  5
191
330
1F
100
AcDbEntity
  8
SK3
  6
SLD-Dashed
370
    18
100
AcDbLine
 10
5.1199497461
 20
-25.6524183922
 30
0.0
 11
4.8223081651
 21
-25.3714201923
 31
0.0
  0
LINE
  5
192
330
1F
100
AcDbEntity
  8
SK3
  6
SLD-Dashed
370
    18
100
AcDbLine
 10
4.8223081651
 20
-25.3714201923
 30
0.0
 11
4.5041430256
 21
-25.0225450635
 31
0.0
  0
LINE
  5
193
330
1F
100
AcDbEntity
  8
SK3
  6
SLD-Dashed
370
    18
100
AcDbLine
 10
4.5041430256
 20
-25.0225450635
 30
0.0
 11
4.1871367561
 21
-24.6295682692
 31
0.0
  0
LINE
  5
194
330
1F
100
AcDbEntity
  8
SK3
  6
SLD-Dashed
370
    18
100
AcDbLine
 10
4.1871367561
 20
-24.6295682692
 30
0.0
 11
3.8928928102
 21
-24.2192705286
 31
0.0
  0
LINE
  5
195
330
1F
100
AcDbEntity
  8
SK3
  6
SLD-Dashed
370
    18
100
AcDbLine
 10
3.8928928102
 20
-24.2192705286
 30
0.0
 11
3.6414634263
 21
-23.8196129546
 31
0.0
  0
LINE
  5
196
330
1F
100
AcDbEntity
  8
SK3
  6
SLD-Dashed
370
    18
100
AcDbLine
 10
3.6414634263
 20
-23.8196129546
 30
0.0
 11
3.4499831016
 21
-23.4578315505
 31
0.0
  0
LINE
  5
197
330
1F
100
AcDbEntity
  8
SK3
  6
SLD-Dashed
370
    18
100
AcDbLine
 10
3.4499831016
 20
-23.4578315505
 30
0.0
 11
3.3315009036
 21
-23.158581121
 31
0.0
  0
LINE
  5
198
330
1F
100
AcDbEntity
  8
SK3
  6
SLD-Dashed
370
    18
100
AcDbLine
 10
3.3315009036
 20
-23.158581121
 30
0.0
 11
3.2940911985
 21
-22.9422550884
 31
0.0
  0
LINE
  5
199
330
1F
100
AcDbEntity
  8
SK3
  6
SLD-Dashed
370
    18
100
AcDbLine
 10
3.2940911985
 20
-22.9422550884
 30
0.0
 11
3.3403033958
 21
-22.8235957143
 31
0.0
  0
LINE
  5
19A
330
1F
100
AcDbEntity
  8
SK3
  6
SLD-Dashed
370
    18
100
AcDbLine
 10
3.3403033958
 20
-22.8235957143
 30
0.0
 11
3.4669882105
 21
-22.810689439
 31
0.0
  0
LINE
  5
19B
330
1F
100
AcDbEntity
  8
SK3
  6
SLD-Dashed
370
    18
100
AcDbLine
 10
3.4669882105
 20
-22.810689439
 30
0.0
 11
3.665512282
 21
-22.9044158038
 31
0.0
  0
LINE
  5
19C
330
1F
100
AcDbEntity
  8
SK3
  6
SLD-Dashed
370
    18
100
AcDbLine
 10
3.665512282
 20
-22.9044158038
 30
0.0
 11
3.9223465228
 21
-23.0983875118
 31
0.0
  0
LINE
  5
19D
330
1F
100
AcDbEntity
  8
SK3
  6
SLD-Dashed
370
    18
100
AcDbLine
 10
3.9223465228
 20
-23.0983875118
 30
0.0
 11
4.2199881039
 21
-23.3793857117
 31
0.0
  0
LINE
  5
19E
330
1F
100
AcDbEntity
  8
SK3
  6
SLD-Dashed
370
    18
100
AcDbLine
 10
4.2199881039
 20
-23.3793857117
 30
0.0
 11
4.5381532434
 21
-23.7282608406
 31
0.0
  0
LINE
  5
19F
330
1F
100
AcDbEntity
  8
SK3
  6
SLD-Dashed
370
    18
100
AcDbLine
 10
4.5381532434
 20
-23.7282608406
 30
0.0
 11
4.8551595128
 21
-24.1212376349
 31
0.0
  0
LINE
  5
1A0
330
1F
100
AcDbEntity
  8
SK3
  6
SLD-Dashed
370
    18
100
AcDbLine
 10
4.8551595128
 20
-24.1212376349
 30
0.0
 11
5.1494034588
 21
-24.5315353755
 31
0.0
  0
LINE
  5
1A1
330
1F
100
AcDbEntity
  8
SK3
  6
SLD-Dashed
370
    18
100
AcDbLine
 10
5.1494034588
 20
-24.5315353755
 30
0.0
 11
5.4008328426
 21
-24.9311929495
 31
0.0
  0
LINE
  5
1A2
330
1F
100
AcDbEntity
  8
SK3
  6
SLD-Dashed
370
    18
100
AcDbLine
 10
5.4008328426
 20
-24.9311929495
 30
0.0
 11
5.5923131674
 21
-25.2929743536
 31
0.0
  0
LINE
  5
1A3
330
1F
100
AcDbEntity
  8
SK3
  6
SLD-Dashed
370
    18
100
AcDbLine
 10
5.5923131674
 20
-25.2929743536
 30
0.0
 11
5.7107953653
 21
-25.5922247831
 31
0.0
  0
LINE
  5
1A4
330
1F
100
AcDbEntity
  8
SK3
  6
SLD-Dashed
370
    18
100
AcDbLine
 10
5.7107953653
 20
-25.5922247831
 30
0.0
 11
5.7482050704
 21
-25.8085508157
 31
0.0
  0
LINE
  5
1A5
330
1F
100
AcDbEntity
  8
SK3
  6
SLD-Dashed
370
    18
100
AcDbLine
 10
5.7482050704
 20
-25.8085508157
 30
0.0
 11
5.7019928732
 21
-25.9272101898
 31
0.0
  0
LINE
  5
1A6
330
1F
100
AcDbEntity
  8
SK3
  6
SLD-Dashed
370
    18
100
AcDbLine
 10
16.3488925452
 20
-17.8254723219
 30
0.0
 11
16.2222077304
 21
-17.8383785972
 31
0.0
  0
LINE
  5
1A7
330
1F
100
AcDbEntity
  8
SK3
  6
SLD-Dashed
370
    18
100
AcDbLine
 10
16.2222077304
 20
-17.8383785972
 30
0.0
 11
16.0236836589
 21
-17.7446522324
 31
0.0
  0
LINE
  5
1A8
330
1F
100
AcDbEntity
  8
SK3
  6
SLD-Dashed
370
    18
100
AcDbLine
 10
16.0236836589
 20
-17.7446522324
 30
0.0
 11
15.7668494181
 21
-17.5506805244
 31
0.0
  0
LINE
  5
1A9
330
1F
100
AcDbEntity
  8
SK3
  6
SLD-Dashed
370
    18
100
AcDbLine
 10
15.7668494181
 20
-17.5506805244
 30
0.0
 11
15.469207837
 21
-17.2696823245
 31
0.0
  0
LINE
  5
1AA
330
1F
100
AcDbEntity
  8
SK3
  6
SLD-Dashed
370
    18
100
AcDbLine
 10
15.469207837
 20
-17.2696823245
 30
0.0
 11
15.1510426975
 21
-16.9208071957
 31
0.0
  0
LINE
  5
1AB
330
1F
100
AcDbEntity
  8
SK3
  6
SLD-Dashed
370
    18
100
AcDbLine
 10
15.1510426975
 20
-16.9208071957
 30
0.0
 11
14.8340364281
 21
-16.5278304014
 31
0.0
  0
LINE
  5
1AC
330
1F
100
AcDbEntity
  8
SK3
  6
SLD-Dashed
370
    18
100
AcDbLine
 10
14.8340364281
 20
-16.5278304014
 30
0.0
 11
14.5397924821
 21
-16.1175326608
 31
0.0
  0
LINE
  5
1AD
330
1F
100
AcDbEntity
  8
SK3
  6
SLD-Dashed
370
    18
100
AcDbLine
 10
14.5397924821
 20
-16.1175326608
 30
0.0
 11
14.2883630983
 21
-15.7178750868
 31
0.0
  0
LINE
  5
1AE
330
1F
100
AcDbEntity
  8
SK3
  6
SLD-Dashed
370
    18
100
AcDbLine
 10
14.2883630983
 20
-15.7178750868
 30
0.0
 11
14.0968827735
 21
-15.3560936826
 31
0.0
  0
LINE
  5
1AF
330
1F
100
AcDbEntity
  8
SK3
  6
SLD-Dashed
370
    18
100
AcDbLine
 10
14.0968827735
 20
-15.3560936826
 30
0.0
 11
13.9784005756
 21
-15.0568432532
 31
0.0
  0
LINE
  5
1B0
330
1F
100
AcDbEntity
  8
SK3
  6
SLD-Dashed
370
    18
100
AcDbLine
 10
13.9784005756
 20
-15.0568432532
 30
0.0
 11
13.9409908705
 21
-14.8405172206
 31
0.0
  0
LINE
  5
1B1
330
1F
100
AcDbEntity
  8
SK3
  6
SLD-Dashed
370
    18
100
AcDbLine
 10
13.9409908705
 20
-14.8405172206
 30
0.0
 11
13.9872030677
 21
-14.7218578465
 31
0.0
  0
LINE
  5
1B2
330
1F
100
AcDbEntity
  8
SK3
  6
SLD-Dashed
370
    18
100
AcDbLine
 10
13.9872030677
 20
-14.7218578465
 30
0.0
 11
14.1138878825
 21
-14.7089515712
 31
0.0
  0
LINE
  5
1B3
330
1F
100
AcDbEntity
  8
SK3
  6
SLD-Dashed
370
    18
100
AcDbLine
 10
14.1138878825
 20
-14.7089515712
 30
0.0
 11
14.3124119539
 21
-14.802677936
 31
0.0
  0
LINE
  5
1B4
330
1F
100
AcDbEntity
  8
SK3
  6
SLD-Dashed
370
    18
100
AcDbLine
 10
14.3124119539
 20
-14.802677936
 30
0.0
 11
14.5692461948
 21
-14.996649644
 31
0.0
  0
LINE
  5
1B5
330
1F
100
AcDbEntity
  8
SK3
  6
SLD-Dashed
370
    18
100
AcDbLine
 10
14.5692461948
 20
-14.996649644
 30
0.0
 11
14.8668877759
 21
-15.2776478439
 31
0.0
  0
LINE
  5
1B6
330
1F
100
AcDbEntity
  8
SK3
  6
SLD-Dashed
370
    18
100
AcDbLine
 10
14.8668877759
 20
-15.2776478439
 30
0.0
 11
15.1850529154
 21
-15.6265229727
 31
0.0
  0
LINE
  5
1B7
330
1F
100
AcDbEntity
  8
SK3
  6
SLD-Dashed
370
    18
100
AcDbLine
 10
15.1850529154
 20
-15.6265229727
 30
0.0
 11
15.5020591848
 21
-16.019499767
 31
0.0
  0
LINE
  5
1B8
330
1F
100
AcDbEntity
  8
SK3
  6
SLD-Dashed
370
    18
100
AcDbLine
 10
15.5020591848
 20
-16.019499767
 30
0.0
 11
15.7963031307
 21
-16.4297975076
 31
0.0
  0
LINE
  5
1B9
330
1F
100
AcDbEntity
  8
SK3
  6
SLD-Dashed
370
    18
100
AcDbLine
 10
15.7963031307
 20
-16.4297975076
 30
0.0
 11
16.0477325146
 21
-16.8294550816
 31
0.0
  0
LINE
  5
1BA
330
1F
100
AcDbEntity
  8
SK3
  6
SLD-Dashed
370
    18
100
AcDbLine
 10
16.0477325146
 20
-16.8294550816
 30
0.0
 11
16.2392128393
 21
-17.1912364858
 31
0.0
  0
LINE
  5
1BB
330
1F
100
AcDbEntity
  8
SK3
  6
SLD-Dashed
370
    18
100
AcDbLine
 10
16.2392128393
 20
-17.1912364858
 30
0.0
 11
16.3576950373
 21
-17.4904869152
 31
0.0
  0
LINE
  5
1BC
330
1F
100
AcDbEntity
  8
SK3
  6
SLD-Dashed
370
    18
100
AcDbLine
 10
16.3576950373
 20
-17.4904869152
 30
0.0
 11
16.3951047424
 21
-17.7068129478
 31
0.0
  0
LINE
  5
1BD
330
1F
100
AcDbEntity
  8
SK3
  6
SLD-Dashed
370
    18
100
AcDbLine
 10
16.3951047424
 20
-17.7068129478
 30
0.0
 11
16.3488925452
 21
-17.8254723219
 31
0.0
  0
LINE
  5
1BE
330
1F
100
AcDbEntity
  8
SK3
  6
SLD-Dashed
370
    18
100
AcDbLine
 10
11.115
 20
-22.9279822832
 30
0.0
 11
10.6501412812
 21
-22.9508417445
 31
0.0
  0
LINE
  5
1BF
330
1F
100
AcDbEntity
  8
SK3
  6
SLD-Dashed
370
    18
100
AcDbLine
 10
10.6501412812
 20
-22.9508417445
 30
0.0
 11
10.2229426512
 21
-23.0175681908
 31
0.0
  0
LINE
  5
1C0
330
1F
100
AcDbEntity
  8
SK3
  6
SLD-Dashed
370
    18
100
AcDbLine
 10
10.2229426512
 20
-23.0175681908
 30
0.0
 11
9.8680132023
 21
-23.1227558422
 31
0.0
  0
LINE
  5
1C1
330
1F
100
AcDbEntity
  8
SK3
  6
SLD-Dashed
370
    18
100
AcDbLine
 10
9.8680132023
 20
-23.1227558422
 30
0.0
 11
9.6141072077
 21
-23.2578830209
 31
0.0
  0
LINE
  5
1C2
330
1F
100
AcDbEntity
  8
SK3
  6
SLD-Dashed
370
    18
100
AcDbLine
 10
9.6141072077
 20
-23.2578830209
 30
0.0
 11
9.4817946209
 21
-23.4120025264
 31
0.0
  0
LINE
  5
1C3
330
1F
100
AcDbEntity
  8
SK3
  6
SLD-Dashed
370
    18
100
AcDbLine
 10
9.4817946209
 20
-23.4120025264
 30
0.0
 11
9.4817946209
 21
-23.5726285129
 31
0.0
  0
LINE
  5
1C4
330
1F
100
AcDbEntity
  8
SK3
  6
SLD-Dashed
370
    18
100
AcDbLine
 10
9.4817946209
 20
-23.5726285129
 30
0.0
 11
9.6141072077
 21
-23.7267480184
 31
0.0
  0
LINE
  5
1C5
330
1F
100
AcDbEntity
  8
SK3
  6
SLD-Dashed
370
    18
100
AcDbLine
 10
9.6141072077
 20
-23.7267480184
 30
0.0
 11
9.8680132023
 21
-23.8618751971
 31
0.0
  0
LINE
  5
1C6
330
1F
100
AcDbEntity
  8
SK3
  6
SLD-Dashed
370
    18
100
AcDbLine
 10
9.8680132023
 20
-23.8618751971
 30
0.0
 11
10.2229426512
 21
-23.9670628485
 31
0.0
  0
LINE
  5
1C7
330
1F
100
AcDbEntity
  8
SK3
  6
SLD-Dashed
370
    18
100
AcDbLine
 10
10.2229426512
 20
-23.9670628485
 30
0.0
 11
10.6501412812
 21
-24.0337892948
 31
0.0
  0
LINE
  5
1C8
330
1F
100
AcDbEntity
  8
SK3
  6
SLD-Dashed
370
    18
100
AcDbLine
 10
10.6501412812
 20
-24.0337892948
 30
0.0
 11
11.115
 21
-24.0566487561
 31
0.0
  0
LINE
  5
1C9
330
1F
100
AcDbEntity
  8
SK3
  6
SLD-Dashed
370
    18
100
AcDbLine
 10
11.115
 20
-24.0566487561
 30
0.0
 11
11.5798587188
 21
-24.0337892948
 31
0.0
  0
LINE
  5
1CA
330
1F
100
AcDbEntity
  8
SK3
  6
SLD-Dashed
370
    18
100
AcDbLine
 10
11.5798587188
 20
-24.0337892948
 30
0.0
 11
12.0070573488
 21
-23.9670628485
 31
0.0
  0
LINE
  5
1CB
330
1F
100
AcDbEntity
  8
SK3
  6
SLD-Dashed
370
    18
100
AcDbLine
 10
12.0070573488
 20
-23.9670628485
 30
0.0
 11
12.3619867977
 21
-23.8618751971
 31
0.0
  0
LINE
  5
1CC
330
1F
100
AcDbEntity
  8
SK3
  6
SLD-Dashed
370
    18
100
AcDbLine
 10
12.3619867977
 20
-23.8618751971
 30
0.0
 11
12.6158927923
 21
-23.7267480184
 31
0.0
  0
LINE
  5
1CD
330
1F
100
AcDbEntity
  8
SK3
  6
SLD-Dashed
370
    18
100
AcDbLine
 10
12.6158927923
 20
-23.7267480184
 30
0.0
 11
12.7482053791
 21
-23.5726285129
 31
0.0
  0
LINE
  5
1CE
330
1F
100
AcDbEntity
  8
SK3
  6
SLD-Dashed
370
    18
100
AcDbLine
 10
12.7482053791
 20
-23.5726285129
 30
0.0
 11
12.7482053791
 21
-23.4120025264
 31
0.0
  0
LINE
  5
1CF
330
1F
100
AcDbEntity
  8
SK3
  6
SLD-Dashed
370
    18
100
AcDbLine
 10
12.7482053791
 20
-23.4120025264
 30
0.0
 11
12.6158927923
 21
-23.2578830209
 31
0.0
  0
LINE
  5
1D0
330
1F
100
AcDbEntity
  8
SK3
  6
SLD-Dashed
370
    18
100
AcDbLine
 10
12.6158927923
 20
-23.2578830209
 30
0.0
 11
12.3619867977
 21
-23.1227558422
 31
0.0
  0
LINE
  5
1D1
330
1F
100
AcDbEntity
  8
SK3
  6
SLD-Dashed
370
    18
100
AcDbLine
 10
12.3619867977
 20
-23.1227558422
 30
0.0
 11
12.0070573488
 21
-23.0175681908
 31
0.0
  0
LINE
  5
1D2
330
1F
100
AcDbEntity
  8
SK3
  6
SLD-Dashed
370
    18
100
AcDbLine
 10
12.0070573488
 20
-23.0175681908
 30
0.0
 11
11.5798587188
 21
-22.9508417445
 31
0.0
  0
LINE
  5
1D3
330
1F
100
AcDbEntity
  8
SK3
  6
SLD-Dashed
370
    18
100
AcDbLine
 10
11.5798587188
 20
-22.9508417445
 30
0.0
 11
11.115
 21
-22.9279822832
 31
0.0
  0
LINE
  5
1D4
330
1F
100
AcDbEntity
  8
SK3
  6
SLD-Dashed
370
    18
100
AcDbLine
 10
5.7322709434
 20
-25.9670001189
 30
0.0
 11
5.6023378001
 21
-25.9802373244
 31
0.0
  0
LINE
  5
1D5
330
1F
100
AcDbEntity
  8
SK3
  6
SLD-Dashed
370
    18
100
AcDbLine
 10
5.6023378001
 20
-25.9802373244
 30
0.0
 11
5.3987233678
 21
-25.8841077195
 31
0.0
  0
LINE
  5
1D6
330
1F
100
AcDbEntity
  8
SK3
  6
SLD-Dashed
370
    18
100
AcDbLine
 10
5.3987233678
 20
-25.8841077195
 30
0.0
 11
5.1353036336
 21
-25.6851623779
 31
0.0
  0
LINE
  5
1D7
330
1F
100
AcDbEntity
  8
SK3
  6
SLD-Dashed
370
    18
100
AcDbLine
 10
5.1353036336
 20
-25.6851623779
 30
0.0
 11
4.8300302171
 21
-25.3969590959
 31
0.0
  0
LINE
  5
1D8
330
1F
100
AcDbEntity
  8
SK3
  6
SLD-Dashed
370
    18
100
AcDbLine
 10
4.8300302171
 20
-25.3969590959
 30
0.0
 11
4.5037069971
 21
-25.039138451
 31
0.0
  0
LINE
  5
1D9
330
1F
100
AcDbEntity
  8
SK3
  6
SLD-Dashed
370
    18
100
AcDbLine
 10
4.5037069971
 20
-25.039138451
 30
0.0
 11
4.1785723618
 21
-24.6360853286
 31
0.0
  0
LINE
  5
1DA
330
1F
100
AcDbEntity
  8
SK3
  6
SLD-Dashed
370
    18
100
AcDbLine
 10
4.1785723618
 20
-24.6360853286
 30
0.0
 11
3.8767836993
 21
-24.2152671331
 31
0.0
  0
LINE
  5
1DB
330
1F
100
AcDbEntity
  8
SK3
  6
SLD-Dashed
370
    18
100
AcDbLine
 10
3.8767836993
 20
-24.2152671331
 30
0.0
 11
3.6189074082
 21
-23.805361929
 31
0.0
  0
LINE
  5
1DC
330
1F
100
AcDbEntity
  8
SK3
  6
SLD-Dashed
370
    18
100
AcDbLine
 10
3.6189074082
 20
-23.805361929
 30
0.0
 11
3.4225173315
 21
-23.4343040786
 31
0.0
  0
LINE
  5
1DD
330
1F
100
AcDbEntity
  8
SK3
  6
SLD-Dashed
370
    18
100
AcDbLine
 10
3.4225173315
 20
-23.4343040786
 30
0.0
 11
3.3009971285
 21
-23.1273805612
 31
0.0
  0
LINE
  5
1DE
330
1F
100
AcDbEntity
  8
SK3
  6
SLD-Dashed
370
    18
100
AcDbLine
 10
3.3009971285
 20
-23.1273805612
 30
0.0
 11
3.2626282002
 21
-22.9055077073
 31
0.0
  0
LINE
  5
1DF
330
1F
100
AcDbEntity
  8
SK3
  6
SLD-Dashed
370
    18
100
AcDbLine
 10
3.2626282002
 20
-22.9055077073
 30
0.0
 11
3.3100253255
 21
-22.7838057852
 31
0.0
  0
LINE
  5
1E0
330
1F
100
AcDbEntity
  8
SK3
  6
SLD-Dashed
370
    18
100
AcDbLine
 10
3.3100253255
 20
-22.7838057852
 30
0.0
 11
3.4399584689
 21
-22.7705685797
 31
0.0
  0
LINE
  5
1E1
330
1F
100
AcDbEntity
  8
SK3
  6
SLD-Dashed
370
    18
100
AcDbLine
 10
3.4399584689
 20
-22.7705685797
 30
0.0
 11
3.6435729011
 21
-22.8666981846
 31
0.0
  0
LINE
  5
1E2
330
1F
100
AcDbEntity
  8
SK3
  6
SLD-Dashed
370
    18
100
AcDbLine
 10
3.6435729011
 20
-22.8666981846
 30
0.0
 11
3.9069926353
 21
-23.0656435262
 31
0.0
  0
LINE
  5
1E3
330
1F
100
AcDbEntity
  8
SK3
  6
SLD-Dashed
370
    18
100
AcDbLine
 10
3.9069926353
 20
-23.0656435262
 30
0.0
 11
4.2122660518
 21
-23.3538468081
 31
0.0
  0
LINE
  5
1E4
330
1F
100
AcDbEntity
  8
SK3
  6
SLD-Dashed
370
    18
100
AcDbLine
 10
4.2122660518
 20
-23.3538468081
 30
0.0
 11
4.5385892718
 21
-23.7116674531
 31
0.0
  0
LINE
  5
1E5
330
1F
100
AcDbEntity
  8
SK3
  6
SLD-Dashed
370
    18
100
AcDbLine
 10
4.5385892718
 20
-23.7116674531
 30
0.0
 11
4.8637239071
 21
-24.1147205754
 31
0.0
  0
LINE
  5
1E6
330
1F
100
AcDbEntity
  8
SK3
  6
SLD-Dashed
370
    18
100
AcDbLine
 10
4.8637239071
 20
-24.1147205754
 30
0.0
 11
5.1655125697
 21
-24.535538771
 31
0.0
  0
LINE
  5
1E7
330
1F
100
AcDbEntity
  8
SK3
  6
SLD-Dashed
370
    18
100
AcDbLine
 10
5.1655125697
 20
-24.535538771
 30
0.0
 11
5.4233888608
 21
-24.945443975
 31
0.0
  0
LINE
  5
1E8
330
1F
100
AcDbEntity
  8
SK3
  6
SLD-Dashed
370
    18
100
AcDbLine
 10
5.4233888608
 20
-24.945443975
 30
0.0
 11
5.6197789374
 21
-25.3165018254
 31
0.0
  0
LINE
  5
1E9
330
1F
100
AcDbEntity
  8
SK3
  6
SLD-Dashed
370
    18
100
AcDbLine
 10
5.6197789374
 20
-25.3165018254
 30
0.0
 11
5.7412991405
 21
-25.6234253429
 31
0.0
  0
LINE
  5
1EA
330
1F
100
AcDbEntity
  8
SK3
  6
SLD-Dashed
370
    18
100
AcDbLine
 10
5.7412991405
 20
-25.6234253429
 30
0.0
 11
5.7796680688
 21
-25.8452981968
 31
0.0
  0
LINE
  5
1EB
330
1F
100
AcDbEntity
  8
SK3
  6
SLD-Dashed
370
    18
100
AcDbLine
 10
5.7796680688
 20
-25.8452981968
 30
0.0
 11
5.7322709434
 21
-25.9670001189
 31
0.0
  0
LINE
  5
1EC
330
1F
100
AcDbEntity
  8
SK3
  6
SLD-Dashed
370
    18
100
AcDbLine
 10
3.2
 20
-22.8742979511
 30
0.0
 11
3.2
 21
-27.8871582268
 31
0.0
  0
LINE
  5
1ED
330
1F
100
AcDbEntity
  8
SK3
  6
SLD-Dashed
370
    18
100
AcDbLine
 10
32.0830757425
 20
6.0
 30
0.0
 11
30.0830757425
 21
4.0
 31
0.0
  0
LINE
  5
1EE
330
1F
100
AcDbEntity
  8
SK3
  6
SLD-Dashed
370
    18
100
AcDbLine
 10
30.0830757425
 20
-4.0
 30
0.0
 11
32.0830757425
 21
-6.0
 31
0.0
  0
LINE
  5
1EF
330
1F
100
AcDbEntity
  8
SK3
  6
SLD-Dashed
370
    18
100
AcDbLine
 10
32.0830757425
 20
-6.0
 30
0.0
 11
44.0830757425
 21
-6.0
 31
0.0
  0
LINE
  5
1F0
330
1F
100
AcDbEntity
  8
SK3
  6
SLD-Dashed
370
    18
100
AcDbLine
 10
44.0830757425
 20
6.0
 30
0.0
 11
32.0830757425
 21
6.0
 31
0.0
  0
LINE
  5
1F1
330
1F
100
AcDbEntity
  8
SK3
  6
SLD-Dashed
370
    18
100
AcDbLine
 10
44.0830757425
 20
-6.0
 30
0.0
 11
46.0830757425
 21
-4.0
 31
0.0
  0
LINE
  5
1F2
330
1F
100
AcDbEntity
  8
SK3
  6
SLD-Dashed
370
    18
100
AcDbLine
 10
46.0830757425
 20
4.0
 30
0.0
 11
44.0830757425
 21
6.0
 31
0.0
  0
LINE
  5
1F3
330
1F
100
AcDbEntity
  8
SK3
  6
SLD-Dashed
370
    18
100
AcDbLine
 10
9.115
 20
27.3466468125
 30
0.0
 11
9.115
 21
23.230614392
 31
0.0
  0
LINE
  5
1F4
330
1F
100
AcDbEntity
  8
SK3
  6
SLD-Dashed
370
    18
100
AcDbLine
 10
13.115
 20
23.2104077334
 30
0.0
 11
13.115
 21
27.3466468125
 31
0.0
  0
LINE
  5
1F5
330
1F
100
AcDbEntity
  8
SK3
  6
SLD-Dashed
370
    18
100
AcDbLine
 10
3.2
 20
22.8675293454
 30
0.0
 11
3.3100253255
 21
22.7838057852
 31
0.0
  0
LINE
  5
1F6
330
1F
100
AcDbEntity
  8
SK3
  6
SLD-Dashed
370
    18
100
AcDbLine
 10
5.7322709434
 20
25.9670001189
 30
0.0
 11
3.2
 21
27.8939268324
 31
0.0
  0
LINE
  5
1F7
330
1F
100
AcDbEntity
  8
SK3
  6
SLD-Dashed
370
    18
100
AcDbLine
 10
12.6773076344
 20
15.718620262
 30
0.0
 11
13.9872030677
 21
14.7218578465
 31
0.0
  0
LINE
  5
1F8
330
1F
100
AcDbEntity
  8
SK3
  6
SLD-Dashed
370
    18
100
AcDbLine
 10
3.3403033958
 20
22.8235957143
 30
0.0
 11
9.5636972046
 21
18.0879161418
 31
0.0
  0
LINE
  5
1F9
330
1F
100
AcDbEntity
  8
SK3
  6
SLD-Dashed
370
    18
100
AcDbLine
 10
9.5541511667
 20
22.9959177308
 30
0.0
 11
5.7019928732
 21
25.9272101898
 31
0.0
  0
LINE
  5
1FA
330
1F
100
AcDbEntity
  8
SK3
  6
SLD-Dashed
370
    18
100
AcDbLine
 10
16.3488925452
 20
17.8254723219
 30
0.0
 11
12.6670873806
 21
20.6271348944
 31
0.0
  0
LINE
  5
1FB
330
1F
100
AcDbEntity
  8
SK3
  6
SLD-Dashed
370
    18
100
AcDbLine
 10
88.3195865505
 20
10.0
 30
0.0
 11
66.75
 21
6.968592302
 31
0.0
  0
LINE
  5
1FC
330
1F
100
AcDbEntity
  8
SK3
  6
SLD-Dashed
370
    18
100
AcDbLine
 10
66.75
 20
-6.968592302
 30
0.0
 11
88.3195865505
 21
-10.0
 31
0.0
  0
LINE
  5
1FD
330
1F
100
AcDbEntity
  8
SK3
  6
SLD-Dashed
370
    18
100
AcDbLine
 10
9.465
 20
23.2104077334
 30
0.0
 11
9.465
 21
22.9667378435
 31
0.0
  0
LINE
  5
1FE
330
1F
100
AcDbEntity
  8
SK3
  6
SLD-Dashed
370
    18
100
AcDbLine
 10
12.765
 20
20.454307559
 30
0.0
 11
12.765
 21
23.2104077334
 31
0.0
  0
LINE
  5
1FF
330
1F
100
AcDbEntity
  8
SK3
  6
SLD-Dashed
370
    18
100
AcDbLine
 10
-68.25
 20
-9.25
 30
0.0
 11
-66.9509618943
 21
-8.5
 31
0.0
  0
LINE
  5
200
330
1F
100
AcDbEntity
  8
SK3
  6
SLD-Dashed
370
    18
100
AcDbLine
 10
-66.9509618943
 20
8.5
 30
0.0
 11
-68.25
 21
9.25
 31
0.0
  0
LINE
  5
201
330
1F
100
AcDbEntity
  8
SK3
  6
SLD-Dashed
370
    18
100
AcDbLine
 10
-59.75
 20
8.8
 30
0.0
 11
-60.2696152423
 21
8.5
 31
0.0
  0
LINE
  5
202
330
1F
100
AcDbEntity
  8
SK3
  6
SLD-Dashed
370
    18
100
AcDbLine
 10
-60.2696152423
 20
-8.5
 30
0.0
 11
-59.75
 21
-8.8
 31
0.0
  0
LINE
  5
203
330
1F
100
AcDbEntity
  8
SK3
  6
SLD-Dashed
370
    18
100
AcDbLine
 10
-57.75
 20
8.8
 30
0.0
 11
-59.75
 21
8.8
 31
0.0
  0
LINE
  5
204
330
1F
100
AcDbEntity
  8
SK3
  6
SLD-Dashed
370
    18
100
AcDbLine
 10
-59.75
 20
-8.8
 30
0.0
 11
-57.75
 21
-8.8
 31
0.0
  0
LINE
  5
205
330
1F
100
AcDbEntity
  8
SK3
  6
SLD-Dashed
370
    18
100
AcDbLine
 10
-57.75
 20
-8.8
 30
0.0
 11
-56.7107695155
 21
-7.0
 31
0.0
  0
LINE
  5
206
330
1F
100
AcDbEntity
  8
SK3
  6
SLD-Dashed
370
    18
100
AcDbLine
 10
-56.7107695155
 20
7.0
 30
0.0
 11
-57.75
 21
8.8
 31
0.0
  0
LINE
  5
207
330
1F
100
AcDbEntity
  8
SK3
  6
SLD-Dashed
370
    18
100
AcDbLine
 10
-66.9509618943
 20
-8.5
 30
0.0
 11
-60.2696152423
 21
-8.5
 31
0.0
  0
LINE
  5
208
330
1F
100
AcDbEntity
  8
SK3
  6
SLD-Dashed
370
    18
100
AcDbLine
 10
-60.2696152423
 20
8.5
 30
0.0
 11
-66.9509618943
 21
8.5
 31
0.0
  0
LINE
  5
209
330
1F
100
AcDbEntity
  8
SK3
  6
SLD-Dashed
370
    18
100
AcDbLine
 10
9.465
 20
18.2613425767
 30
0.0
 11
9.465
 21
4.7880042342
 31
0.0
  0
LINE
  5
20A
330
1F
100
AcDbEntity
  8
SK3
  6
SLD-Dashed
370
    18
100
AcDbLine
 10
12.765
 20
4.7869498361
 30
0.0
 11
12.765
 21
15.7500776376
 31
0.0
  0
LINE
  5
20B
330
1F
100
AcDbEntity
  8
SK3
  6
SLD-Dashed
370
    18
100
AcDbLine
 10
14.1920377033
 20
14.7367975886
 30
0.0
 11
16.0786127932
 21
15.5807724054
 31
0.0
  0
LINE
  5
20C
330
1F
100
AcDbEntity
  8
SK3
  6
SLD-Dashed
370
    18
100
AcDbLine
 10
16.0786127932
 20
15.5807724054
 30
0.0
 11
16.3891004984
 21
17.6240678921
 31
0.0
  0
LINE
  5
20D
330
1F
100
AcDbEntity
  8
SK3
  6
SLD-Dashed
370
    18
100
AcDbLine
 10
61.75
 20
7.1
 30
0.0
 11
60.5482787619
 21
5.1
 31
0.0
  0
LINE
  5
20E
330
1F
100
AcDbEntity
  8
SK3
  6
SLD-Dashed
370
    18
100
AcDbLine
 10
60.5482787619
 20
-5.1
 30
0.0
 11
61.75
 21
-7.1
 31
0.0
  0
LINE
  5
20F
330
1F
100
AcDbEntity
  8
SK3
  6
SLD-Dashed
370
    18
100
AcDbLine
 10
61.75
 20
-7.1
 30
0.0
 11
66.75
 21
-7.1
 31
0.0
  0
LINE
  5
210
330
1F
100
AcDbEntity
  8
SK3
  6
SLD-Dashed
370
    18
100
AcDbLine
 10
66.75
 20
7.1
 30
0.0
 11
61.75
 21
7.1
 31
0.0
  0
LINE
  5
211
330
1F
100
AcDbEntity
  8
SK3
  6
SLD-Dashed
370
    18
100
AcDbLine
 10
-8.25
 20
-7.0
 30
0.0
 11
-7.1083648238
 21
-5.1
 31
0.0
  0
LINE
  5
212
330
1F
100
AcDbEntity
  8
SK3
  6
SLD-Dashed
370
    18
100
AcDbLine
 10
-7.1083648238
 20
5.1
 30
0.0
 11
-8.25
 21
7.0
 31
0.0
  0
LINE
  5
213
330
1F
100
AcDbEntity
  8
SK3
  6
SLD-Dashed
370
    18
100
AcDbLine
 10
-56.7107695155
 20
-7.0
 30
0.0
 11
-8.25
 21
-7.0
 31
0.0
  0
LINE
  5
214
330
1F
100
AcDbEntity
  8
SK3
  6
SLD-Dashed
370
    18
100
AcDbLine
 10
-8.25
 20
7.0
 30
0.0
 11
-56.7107695155
 21
7.0
 31
0.0
  0
LINE
  5
215
330
1F
100
AcDbEntity
  8
SK3
  6
SLD-Dashed
370
    18
100
AcDbLine
 10
60.5482787619
 20
5.1
 30
0.0
 11
-7.1083648238
 21
5.1
 31
0.0
  0
LINE
  5
216
330
1F
100
AcDbEntity
  8
SK3
  6
SLD-Dashed
370
    18
100
AcDbLine
 10
-7.1083648238
 20
-5.1
 30
0.0
 11
60.5482787619
 21
-5.1
 31
0.0
  0
LINE
  5
217
330
1F
100
AcDbEntity
  8
SK3
  6
SLD-Dashed
370
    18
100
AcDbLine
 10
9.465
 20
-4.7869498361
 30
0.0
 11
9.465
 21
-18.259206264
 31
0.0
  0
LINE
  5
218
330
1F
100
AcDbEntity
  8
SK3
  6
SLD-Dashed
370
    18
100
AcDbLine
 10
12.765
 20
-15.7542792276
 30
0.0
 11
12.765
 21
-4.7880042342
 31
0.0
  0
LINE
  5
219
330
1F
100
AcDbEntity
  8
SK3
  6
SLD-Dashed
370
    18
100
AcDbLine
 10
12.6773076344
 20
-20.6193578118
 30
0.0
 11
16.3488925452
 21
-17.8254723219
 31
0.0
  0
LINE
  5
21A
330
1F
100
AcDbEntity
  8
SK3
  6
SLD-Dashed
370
    18
100
AcDbLine
 10
5.7019928732
 20
-25.9272101898
 30
0.0
 11
9.5594085835
 21
-22.9919171096
 31
0.0
  0
LINE
  5
21B
330
1F
100
AcDbEntity
  8
SK3
  6
SLD-Dashed
370
    18
100
AcDbLine
 10
9.5588677739
 20
-18.0915910878
 30
0.0
 11
3.3403033958
 21
-22.8235957143
 31
0.0
  0
LINE
  5
21C
330
1F
100
AcDbEntity
  8
SK3
  6
SLD-Dashed
370
    18
100
AcDbLine
 10
13.9872030677
 20
-14.7218578465
 30
0.0
 11
12.6651816959
 21
-15.7278474716
 31
0.0
  0
LINE
  5
21D
330
1F
100
AcDbEntity
  8
SK3
  6
SLD-Dashed
370
    18
100
AcDbLine
 10
16.3891004984
 20
-17.6240678921
 30
0.0
 11
16.0786127932
 21
-15.5807724054
 31
0.0
  0
LINE
  5
21E
330
1F
100
AcDbEntity
  8
SK3
  6
SLD-Dashed
370
    18
100
AcDbLine
 10
16.0786127932
 20
-15.5807724054
 30
0.0
 11
14.1920377033
 21
-14.7367975886
 31
0.0
  0
LINE
  5
21F
330
1F
100
AcDbEntity
  8
SK3
  6
SLD-Dashed
370
    18
100
AcDbLine
 10
9.465
 20
-22.9638453577
 30
0.0
 11
9.465
 21
-23.4923155196
 31
0.0
  0
LINE
  5
220
330
1F
100
AcDbEntity
  8
SK3
  6
SLD-Dashed
370
    18
100
AcDbLine
 10
12.765
 20
-23.4923155196
 30
0.0
 11
12.765
 21
-20.4547737958
 31
0.0
  0
LINE
  5
221
330
1F
100
AcDbEntity
  8
SK3
  6
SLD-Dashed
370
    18
100
AcDbLine
 10
3.2
 20
-27.8939268324
 30
0.0
 11
5.7322709434
 21
-25.9670001189
 31
0.0
  0
LINE
  5
222
330
1F
100
AcDbEntity
  8
SK3
  6
SLD-Dashed
370
    18
100
AcDbLine
 10
3.3100253255
 20
-22.7838057852
 30
0.0
 11
3.2
 21
-22.8675293454
 31
0.0
  0
LINE
  5
223
330
1F
100
AcDbEntity
  8
SK3
  6
SLD-Dashed
370
    18
100
AcDbLine
 10
9.8021669195
 20
-23.8341593579
 30
0.0
 11
11.115
 21
-24.4239455979
 31
0.0
  0
LINE
  5
224
330
1F
100
AcDbEntity
  8
SK3
  6
SLD-Dashed
370
    18
100
AcDbLine
 10
11.115
 20
-24.4239455979
 30
0.0
 11
12.4278330805
 21
-23.8341593579
 31
0.0
  0
LINE
  5
225
330
1F
100
AcDbEntity
  8
1
  6
SLD-Solid
370
    18
100
AcDbLine
 10
75.7500007749
 20
-11.6720004007
 30
0.0
 11
81.0000002384
 21
-11.6720004007
 31
0.0
  0
LINE
  5
226
330
1F
100
AcDbEntity
  8
1
  6
SLD-Solid
370
    18
100
AcDbLine
 10
81.0000002384
 20
11.6720004007
 30
0.0
 11
75.7500007749
 21
11.6720004007
 31
0.0
  0
LINE
  5
227
330
1F
100
AcDbEntity
  8
1
  6
SLD-Solid
370
    18
100
AcDbLine
 10
75.7500007749
 20
-12.424999848
 30
0.0
 11
75.7500007749
 21
-12.3270247132
 31
0.0
  0
LINE
  5
228
330
1F
100
AcDbEntity
  8
1
  6
SLD-Solid
370
    18
100
AcDbLine
 10
75.7499248404
 20
-12.3270247132
 30
0.0
 11
75.7500007749
 21
-12.0346462354
 31
0.0
  0
LINE
  5
229
330
1F
100
AcDbEntity
  8
1
  6
SLD-Solid
370
    18
100
AcDbLine
 10
75.7500007749
 20
-12.0346462354
 30
0.0
 11
75.7500007749
 21
-11.5524725989
 31
0.0
  0
LINE
  5
22A
330
1F
100
AcDbEntity
  8
1
  6
SLD-Solid
370
    18
100
AcDbLine
 10
75.7500007749
 20
-11.5524725989
 30
0.0
 11
75.7500007749
 21
-10.8881108463
 31
0.0
  0
LINE
  5
22B
330
1F
100
AcDbEntity
  8
1
  6
SLD-Solid
370
    18
100
AcDbLine
 10
75.7500007749
 20
-10.8881108463
 30
0.0
 11
75.7500007749
 21
-10.052036494
 31
0.0
  0
LINE
  5
22C
330
1F
100
AcDbEntity
  8
1
  6
SLD-Solid
370
    18
100
AcDbLine
 10
75.7500007749
 20
-10.052036494
 30
0.0
 11
75.7500007749
 21
-9.0574352071
 31
0.0
  0
LINE
  5
22D
330
1F
100
AcDbEntity
  8
1
  6
SLD-Solid
370
    18
100
AcDbLine
 10
75.7500007749
 20
-9.0574352071
 30
0.0
 11
75.7500007749
 21
-7.9199932516
 31
0.0
  0
LINE
  5
22E
330
1F
100
AcDbEntity
  8
1
  6
SLD-Solid
370
    18
100
AcDbLine
 10
75.7500007749
 20
-7.9199932516
 30
0.0
 11
75.7500007749
 21
-6.6576479003
 31
0.0
  0
LINE
  5
22F
330
1F
100
AcDbEntity
  8
1
  6
SLD-Solid
370
    18
100
AcDbLine
 10
75.7500007749
 20
-6.6576479003
 30
0.0
 11
75.7500007749
 21
-5.2903075702
 31
0.0
  0
LINE
  5
230
330
1F
100
AcDbEntity
  8
1
  6
SLD-Solid
370
    18
100
AcDbLine
 10
75.7500007749
 20
-5.2903075702
 30
0.0
 11
75.7500007749
 21
-3.8395361044
 31
0.0
  0
LINE
  5
231
330
1F
100
AcDbEntity
  8
1
  6
SLD-Solid
370
    18
100
AcDbLine
 10
75.7500007749
 20
-3.8395361044
 30
0.0
 11
75.7500007749
 21
-2.3282128386
 31
0.0
  0
LINE
  5
232
330
1F
100
AcDbEntity
  8
1
  6
SLD-Solid
370
    18
100
AcDbLine
 10
75.7500007749
 20
-2.3282128386
 30
0.0
 11
75.7500007749
 21
-0.7801721804
 31
0.0
  0
LINE
  5
233
330
1F
100
AcDbEntity
  8
1
  6
SLD-Solid
370
    18
100
AcDbLine
 10
75.7500007749
 20
-0.7801721804
 30
0.0
 11
75.7500007749
 21
0.7801721804
 31
0.0
  0
LINE
  5
234
330
1F
100
AcDbEntity
  8
1
  6
SLD-Solid
370
    18
100
AcDbLine
 10
75.7500007749
 20
0.7801721804
 30
0.0
 11
75.7500007749
 21
2.3282128386
 31
0.0
  0
LINE
  5
235
330
1F
100
AcDbEntity
  8
1
  6
SLD-Solid
370
    18
100
AcDbLine
 10
75.7500007749
 20
2.3282128386
 30
0.0
 11
75.7500007749
 21
3.8395361044
 31
0.0
  0
LINE
  5
236
330
1F
100
AcDbEntity
  8
1
  6
SLD-Solid
370
    18
100
AcDbLine
 10
75.7500007749
 20
3.8395361044
 30
0.0
 11
75.7500007749
 21
5.2903075702
 31
0.0
  0
LINE
  5
237
330
1F
100
AcDbEntity
  8
1
  6
SLD-Solid
370
    18
100
AcDbLine
 10
75.7500007749
 20
5.2903075702
 30
0.0
 11
75.7500007749
 21
6.6576479003
 31
0.0
  0
LINE
  5
238
330
1F
100
AcDbEntity
  8
1
  6
SLD-Solid
370
    18
100
AcDbLine
 10
75.7500007749
 20
6.6576479003
 30
0.0
 11
75.7500007749
 21
7.9199932516
 31
0.0
  0
LINE
  5
239
330
1F
100
AcDbEntity
  8
1
  6
SLD-Solid
370
    18
100
AcDbLine
 10
75.7500007749
 20
7.9199932516
 30
0.0
 11
75.7500007749
 21
9.0574352071
 31
0.0
  0
LINE
  5
23A
330
1F
100
AcDbEntity
  8
1
  6
SLD-Solid
370
    18
100
AcDbLine
 10
75.7500007749
 20
9.0574352071
 30
0.0
 11
75.7500007749
 21
10.052036494
 31
0.0
  0
LINE
  5
23B
330
1F
100
AcDbEntity
  8
1
  6
SLD-Solid
370
    18
100
AcDbLine
 10
75.7500007749
 20
10.052036494
 30
0.0
 11
75.7500007749
 21
10.8881108463
 31
0.0
  0
LINE
  5
23C
330
1F
100
AcDbEntity
  8
1
  6
SLD-Solid
370
    18
100
AcDbLine
 10
75.7500007749
 20
10.8881108463
 30
0.0
 11
75.7500007749
 21
11.5524725989
 31
0.0
  0
LINE
  5
23D
330
1F
100
AcDbEntity
  8
1
  6
SLD-Solid
370
    18
100
AcDbLine
 10
75.7500007749
 20
11.5524725989
 30
0.0
 11
75.7500007749
 21
12.0346462354
 31
0.0
  0
LINE
  5
23E
330
1F
100
AcDbEntity
  8
1
  6
SLD-Solid
370
    18
100
AcDbLine
 10
75.7500007749
 20
12.0346462354
 30
0.0
 11
75.7500007749
 21
12.3270247132
 31
0.0
  0
LINE
  5
23F
330
1F
100
AcDbEntity
  8
1
  6
SLD-Solid
370
    18
100
AcDbLine
 10
75.7500007749
 20
12.3270247132
 30
0.0
 11
75.7500007749
 21
12.424999848
 31
0.0
  0
LINE
  5
240
330
1F
100
AcDbEntity
  8
SK3
  6
SLD-Solid
370
    18
100
AcDbLine
 10
-35.2500006557
 20
8.00000038
 30
0.0
 11
-57.2881214321
 21
8.00000038
 31
0.0
  0
LINE
  5
241
330
1F
100
AcDbEntity
  8
SK3
  6
SLD-Solid
370
    18
100
AcDbLine
 10
-57.2881214321
 20
-8.00000038
 30
0.0
 11
-35.2500006557
 21
-8.00000038
 31
0.0
  0
LINE
  5
242
330
1F
100
AcDbEntity
  8
SK3
  6
SLD-Solid
370
    18
100
AcDbLine
 10
-35.2500006557
 20
8.00000038
 30
0.0
 11
-35.2500006557
 21
7.9015064985
 31
0.0
  0
LINE
  5
243
330
1F
100
AcDbEntity
  8
SK3
  6
SLD-Solid
370
    18
100
AcDbLine
 10
-35.2500169855
 20
7.9015064985
 30
0.0
 11
-35.2500006557
 21
7.6084523462
 31
0.0
  0
LINE
  5
244
330
1F
100
AcDbEntity
  8
SK3
  6
SLD-Solid
370
    18
100
AcDbLine
 10
-35.2500006557
 20
7.6084523462
 30
0.0
 11
-35.2500006557
 21
7.1280524135
 31
0.0
  0
LINE
  5
245
330
1F
100
AcDbEntity
  8
SK3
  6
SLD-Solid
370
    18
100
AcDbLine
 10
-35.2500006557
 20
7.1280524135
 30
0.0
 11
-35.2500006557
 21
6.472135894
 31
0.0
  0
LINE
  5
246
330
1F
100
AcDbEntity
  8
SK3
  6
SLD-Solid
370
    18
100
AcDbLine
 10
-35.2500006557
 20
6.472135894
 30
0.0
 11
-35.2500006557
 21
5.6568542495
 31
0.0
  0
LINE
  5
247
330
1F
100
AcDbEntity
  8
SK3
  6
SLD-Solid
370
    18
100
AcDbLine
 10
-35.2500006557
 20
5.6568542495
 30
0.0
 11
-35.2500006557
 21
4.7022821382
 31
0.0
  0
LINE
  5
248
330
1F
100
AcDbEntity
  8
SK3
  6
SLD-Solid
370
    18
100
AcDbLine
 10
-35.2500006557
 20
4.7022821382
 30
0.0
 11
-35.2500006557
 21
3.6319240462
 31
0.0
  0
LINE
  5
249
330
1F
100
AcDbEntity
  8
SK3
  6
SLD-Solid
370
    18
100
AcDbLine
 10
-35.2500006557
 20
3.6319240462
 30
0.0
 11
-35.2500006557
 21
2.4721359368
 31
0.0
  0
LINE
  5
24A
330
1F
100
AcDbEntity
  8
SK3
  6
SLD-Solid
370
    18
100
AcDbLine
 10
-35.2500006557
 20
2.4721359368
 30
0.0
 11
-35.2500006557
 21
1.2514757691
 31
0.0
  0
LINE
  5
24B
330
1F
100
AcDbEntity
  8
SK3
  6
SLD-Solid
370
    18
100
AcDbLine
 10
-35.2500006557
 20
1.2514757691
 30
0.0
 11
-35.2500006557
 21
0.0
 31
0.0
  0
LINE
  5
24C
330
1F
100
AcDbEntity
  8
SK3
  6
SLD-Solid
370
    18
100
AcDbLine
 10
-35.2500006557
 20
0.0
 30
0.0
 11
-35.2500006557
 21
-1.2514757691
 31
0.0
  0
LINE
  5
24D
330
1F
100
AcDbEntity
  8
SK3
  6
SLD-Solid
370
    18
100
AcDbLine
 10
-35.2500006557
 20
-1.2514757691
 30
0.0
 11
-35.2500006557
 21
-2.4721359368
 31
0.0
  0
LINE
  5
24E
330
1F
100
AcDbEntity
  8
SK3
  6
SLD-Solid
370
    18
100
AcDbLine
 10
-35.2500006557
 20
-2.4721359368
 30
0.0
 11
-35.2500006557
 21
-3.6319240462
 31
0.0
  0
LINE
  5
24F
330
1F
100
AcDbEntity
  8
SK3
  6
SLD-Solid
370
    18
100
AcDbLine
 10
-35.2500006557
 20
-3.6319240462
 30
0.0
 11
-35.2500006557
 21
-4.7022821382
 31
0.0
  0
LINE
  5
250
330
1F
100
AcDbEntity
  8
SK3
  6
SLD-Solid
370
    18
100
AcDbLine
 10
-35.2500006557
 20
-4.7022821382
 30
0.0
 11
-35.2500006557
 21
-5.6568542495
 31
0.0
  0
LINE
  5
251
330
1F
100
AcDbEntity
  8
SK3
  6
SLD-Solid
370
    18
100
AcDbLine
 10
-35.2500006557
 20
-5.6568542495
 30
0.0
 11
-35.2500006557
 21
-6.472135894
 31
0.0
  0
LINE
  5
252
330
1F
100
AcDbEntity
  8
SK3
  6
SLD-Solid
370
    18
100
AcDbLine
 10
-35.2500006557
 20
-6.472135894
 30
0.0
 11
-35.2500006557
 21
-7.1280524135
 31
0.0
  0
LINE
  5
253
330
1F
100
AcDbEntity
  8
SK3
  6
SLD-Solid
370
    18
100
AcDbLine
 10
-35.2500006557
 20
-7.1280524135
 30
0.0
 11
-35.2500006557
 21
-7.6084523462
 31
0.0
  0
LINE
  5
254
330
1F
100
AcDbEntity
  8
SK3
  6
SLD-Solid
370
    18
100
AcDbLine
 10
-35.2500006557
 20
-7.6084523462
 30
0.0
 11
-35.2500006557
 21
-7.9015064985
 31
0.0
  0
LINE
  5
255
330
1F
100
AcDbEntity
  8
SK3
  6
SLD-Solid
370
    18
100
AcDbLine
 10
-35.2500006557
 20
-7.9015064985
 30
0.0
 11
-35.2500006557
 21
-8.00000038
 31
0.0
  0
LINE
  5
256
330
1F
100
AcDbEntity
  8
SK3
  6
SLD-Solid
370
    18
100
AcDbLine
 10
3.7499999162
 20
-6.0000000522
 30
0.0
 11
61.08905375
 21
-6.0000000522
 31
0.0
  0
LINE
  5
257
330
1F
100
AcDbEntity
  8
SK3
  6
SLD-Solid
370
    18
100
AcDbLine
 10
61.08905375
 20
6.0000000522
 30
0.0
 11
3.7499999162
 21
6.0000000522
 31
0.0
  0
LINE
  5
258
330
1F
100
AcDbEntity
  8
SK3
  6
SLD-Solid
370
    18
100
AcDbLine
 10
3.7499999162
 20
-6.0000000522
 30
0.0
 11
3.7499999162
 21
-5.903577432
 31
0.0
  0
LINE
  5
259
330
1F
100
AcDbEntity
  8
SK3
  6
SLD-Solid
370
    18
100
AcDbLine
 10
3.7499577422
 20
-5.903577432
 30
0.0
 11
3.7499999162
 21
-5.6174090132
 31
0.0
  0
LINE
  5
25A
330
1F
100
AcDbEntity
  8
SK3
  6
SLD-Solid
370
    18
100
AcDbLine
 10
3.7499999162
 20
-5.6174090132
 30
0.0
 11
3.7499999162
 21
-5.1506925374
 31
0.0
  0
LINE
  5
25B
330
1F
100
AcDbEntity
  8
SK3
  6
SLD-Solid
370
    18
100
AcDbLine
 10
3.7499999162
 20
-5.1506925374
 30
0.0
 11
3.7499999162
 21
-4.5184288174
 31
0.0
  0
LINE
  5
25C
330
1F
100
AcDbEntity
  8
SK3
  6
SLD-Solid
370
    18
100
AcDbLine
 10
3.7499999162
 20
-4.5184288174
 30
0.0
 11
3.7499999162
 21
-3.740938846
 31
0.0
  0
LINE
  5
25D
330
1F
100
AcDbEntity
  8
SK3
  6
SLD-Solid
370
    18
100
AcDbLine
 10
3.7499999162
 20
-3.740938846
 30
0.0
 11
3.7499999162
 21
-2.8432118706
 31
0.0
  0
LINE
  5
25E
330
1F
100
AcDbEntity
  8
SK3
  6
SLD-Solid
370
    18
100
AcDbLine
 10
3.7499999162
 20
-2.8432118706
 30
0.0
 11
3.7499999162
 21
-1.8541020108
 31
0.0
  0
LINE
  5
25F
330
1F
100
AcDbEntity
  8
SK3
  6
SLD-Solid
370
    18
100
AcDbLine
 10
3.7499999162
 20
-1.8541020108
 30
0.0
 11
3.7499999162
 21
-0.8053996135
 31
0.0
  0
LINE
  5
260
330
1F
100
AcDbEntity
  8
SK3
  6
SLD-Solid
370
    18
100
AcDbLine
 10
3.7499999162
 20
-0.8053996135
 30
0.0
 11
3.7499999162
 21
0.2691889822
 31
0.0
  0
LINE
  5
261
330
1F
100
AcDbEntity
  8
SK3
  6
SLD-Solid
370
    18
100
AcDbLine
 10
3.7499999162
 20
0.2691889822
 30
0.0
 11
3.7499999162
 21
1.3351256493
 31
0.0
  0
LINE
  5
262
330
1F
100
AcDbEntity
  8
SK3
  6
SLD-Solid
370
    18
100
AcDbLine
 10
3.7499999162
 20
1.3351256493
 30
0.0
 11
3.7499999162
 21
2.3581502028
 31
0.0
  0
LINE
  5
263
330
1F
100
AcDbEntity
  8
SK3
  6
SLD-Solid
370
    18
100
AcDbLine
 10
3.7499999162
 20
2.3581502028
 30
0.0
 11
3.7499999162
 21
3.3053818624
 31
0.0
  0
LINE
  5
264
330
1F
100
AcDbEntity
  8
SK3
  6
SLD-Solid
370
    18
100
AcDbLine
 10
3.7499999162
 20
3.3053818624
 30
0.0
 11
3.7499999162
 21
4.1463756934
 31
0.0
  0
LINE
  5
265
330
1F
100
AcDbEntity
  8
SK3
  6
SLD-Solid
370
    18
100
AcDbLine
 10
3.7499999162
 20
4.1463756934
 30
0.0
 11
3.7499999162
 21
4.8541021533
 31
0.0
  0
LINE
  5
266
330
1F
100
AcDbEntity
  8
SK3
  6
SLD-Solid
370
    18
100
AcDbLine
 10
3.7499999162
 20
4.8541021533
 30
0.0
 11
3.7499999162
 21
5.4058129899
 31
0.0
  0
LINE
  5
267
330
1F
100
AcDbEntity
  8
SK3
  6
SLD-Solid
370
    18
100
AcDbLine
 10
3.7499999162
 20
5.4058129899
 30
0.0
 11
3.7499999162
 21
5.7837772183
 31
0.0
  0
LINE
  5
268
330
1F
100
AcDbEntity
  8
SK3
  6
SLD-Solid
370
    18
100
AcDbLine
 10
3.7499999162
 20
5.7837772183
 30
0.0
 11
3.7499999162
 21
5.9758457355
 31
0.0
  0
LINE
  5
269
330
1F
100
AcDbEntity
  8
SK3
  6
SLD-Solid
370
    18
100
AcDbLine
 10
3.7499999162
 20
5.9758457355
 30
0.0
 11
3.7499999162
 21
6.0000000522
 31
0.0
  0
LINE
  5
26A
330
1F
100
AcDbEntity
  8
4
  6
SLD-Center
370
    18
100
AcDbLine
 10
0.6587204391
 20
0.0
 30
0.0
 11
90.75
 21
0.0
 31
0.0
  0
LINE
  5
26B
330
1F
100
AcDbEntity
  8
SK4
  6
SLD-Center
370
    18
100
AcDbLine
 10
90.6124211229
 20
0.0
 30
0.0
 11
-70.5846105024
 21
0.0
 31
0.0
  0
ARC
  5
26C
330
1F
100
AcDbEntity
  8
1
  6
SLD-Solid
370
    25
100
AcDbCircle
 10
3.95
 20
31.0
 30
0.0
 40
0.7500000000000009
100
AcDbArc
 50
90.0
 51
180.0
  0
ARC
  5
26D
330
1F
100
AcDbEntity
  8
1
  6
SLD-Solid
370
    25
100
AcDbCircle
 10
18.3
 20
31.0
 30
0.0
 40
0.75
100
AcDbArc
 50
0.0
 51
90.0
  0
ARC
  5
26E
330
1F
100
AcDbEntity
  8
1
  6
SLD-Solid
370
    25
100
AcDbCircle
 10
2.45
 20
-22.79
 30
0.0
 40
0.7500000000000142
100
AcDbArc
 50
0.0
 51
115.0
  0
ARC
  5
26F
330
1F
100
AcDbEntity
  8
1
  6
SLD-Solid
370
    25
100
AcDbCircle
 10
2.45
 20
22.79
 30
0.0
 40
0.7500000000000004
100
AcDbArc
 50
245.0
 51
0.0
  0
ARC
  5
270
330
1F
100
AcDbEntity
  8
1
  6
SLD-Solid
370
    25
100
AcDbCircle
 10
21.05
 20
18.8
 30
0.0
 40
2.000000000000004
100
AcDbArc
 50
180.0
 51
270.0
  0
ARC
  5
271
330
1F
100
AcDbEntity
  8
1
  6
SLD-Solid
370
    25
100
AcDbCircle
 10
21.05
 20
-18.8
 30
0.0
 40
2.000000000000014
100
AcDbArc
 50
90.0
 51
180.0
  0
ARC
  5
272
330
1F
100
AcDbEntity
  8
1
  6
SLD-Solid
370
    25
100
AcDbCircle
 10
3.95
 20
-31.0
 30
0.0
 40
0.7500000000000009
100
AcDbArc
 50
180.0
 51
270.0
  0
ARC
  5
273
330
1F
100
AcDbEntity
  8
1
  6
SLD-Solid
370
    25
100
AcDbCircle
 10
18.3
 20
-31.0
 30
0.0
 40
0.75
100
AcDbArc
 50
270.0
 51
0.0
  0
ARC
  5
274
330
1F
100
AcDbEntity
  8
1
  6
SLD-Solid
370
    25
100
AcDbCircle
 10
12.28
 20
-28.75
 30
0.0
 40
0.75
100
AcDbArc
 50
0.0
 51
90.0
  0
ARC
  5
275
330
1F
100
AcDbEntity
  8
1
  6
SLD-Solid
370
    25
100
AcDbCircle
 10
9.95
 20
-28.75
 30
0.0
 40
0.7500000000000142
100
AcDbArc
 50
90.0
 51
180.0
  0
ARC
  5
276
330
1F
100
AcDbEntity
  8
SK1
  6
SLD-Solid
370
    25
100
AcDbCircle
 10
-67.25
 20
-11.4070377962
 30
0.0
 40
1.0
100
AcDbArc
 50
180.0
 51
261.7027777778
  0
ARC
  5
277
330
1F
100
AcDbEntity
  8
SK1
  6
SLD-Solid
370
    25
100
AcDbCircle
 10
-67.25
 20
11.4070377962
 30
0.0
 40
1.000000000000003
100
AcDbArc
 50
98.2972222222
 51
180.0
  0
ARC
  5
278
330
1F
100
AcDbEntity
  8
1
  6
SLD-Solid
370
    25
100
AcDbCircle
 10
12.28
 20
28.75
 30
0.0
 40
0.75
100
AcDbArc
 50
270.0
 51
0.0
  0
ARC
  5
279
330
1F
100
AcDbEntity
  8
1
  6
SLD-Solid
370
    25
100
AcDbCircle
 10
9.95
 20
28.75
 30
0.0
 40
0.7500000000000142
100
AcDbArc
 50
180.0
 51
270.0
  0
ARC
  5
27A
330
1F
100
AcDbEntity
  8
1
  6
SLD-Solid
370
    25
100
AcDbCircle
 10
102.95
 20
0.0
 30
0.0
 40
17.00000000000012
100
AcDbArc
 50
153.2775130875
 51
206.7224869125
  0
CIRCLE
  5
27B
330
1F
100
AcDbEntity
  8
1
  6
SLD-Solid
370
    25
100
AcDbCircle
 10
11.1
 20
0.0
 30
0.0
 40
5.000000000000004
  0
ARC
  5
27C
330
1F
100
AcDbEntity
  8
SK3
  6
SLD-Dashed
370
    18
100
AcDbCircle
 10
88.25
 20
-10.4951340344
 30
0.0
 40
0.5000000000000284
100
AcDbArc
 50
360.0
 51
82.0
  0
ARC
  5
27D
330
1F
100
AcDbEntity
  8
SK3
  6
SLD-Dashed
370
    18
100
AcDbCircle
 10
88.25
 20
10.4951340344
 30
0.0
 40
0.5000000000000284
100
AcDbArc
 50
278.0
 51
0.0
  0
SPLINE
  5
27E
330
1F
100
AcDbEntity
  8
1
  6
SLD-Solid
370
    25
100
AcDbSpline
210
0.0
220
0.0
230
1.0
 70
     8
 71
     3
 72
    11
 73
     7
 74
     0
 42
0.000000001
 43
0.00000001
 40
0.0
 40
0.0
 40
0.0
 40
0.0
 40
0.5075323323411945
 40
0.7182599345913192
 40
0.9309793699561695
 40
1.0
 40
1.0
 40
1.0
 40
1.0
 10
87.76568542494933
 20
16.97219364257758
 30
0.0
 10
87.82907327834297
 20
16.97833393726406
 30
0.0
 10
87.91877979067957
 20
16.98702368445621
 30
0.0
 10
88.11246933760555
 20
16.99208323164745
 30
0.0
 10
88.2380707612833
 20
16.99349419354745
 30
0.0
 10
88.31301180630312
 20
16.99358405933733
 30
0.0
 10
88.33137084989855
 20
16.99360607464222
 30
0.0
  0
SPLINE
  5
27F
330
1F
100
AcDbEntity
  8
1
  6
SLD-Solid
370
    25
100
AcDbSpline
210
0.0
220
0.0
230
1.0
 70
     8
 71
     3
 72
    11
 73
     7
 74
     0
 42
0.000000001
 43
0.00000001
 40
0.0
 40
0.0
 40
0.0
 40
0.0
 40
0.1717228516707639
 40
0.3815121680050002
 40
0.7049174088237361
 40
1.0
 40
1.0
 40
1.0
 40
1.0
 10
88.33137084989878
 20
8.90055349851224
 30
0.0
 10
88.28547531872198
 20
8.904850012406085
 30
0.0
 10
88.18351041754173
 20
8.914395464945198
 30
0.0
 10
88.02008127452658
 20
9.00175605614925
 30
0.0
 10
87.8740941401853
 20
9.144854121857602
 30
0.0
 10
87.80070136218485
 20
9.268715842669648
 30
0.0
 10
87.7656854249494
 20
9.327810679518539
 30
0.0
  0
SPLINE
  5
280
330
1F
100
AcDbEntity
  8
1
  6
SLD-Solid
370
    25
100
AcDbSpline
210
0.0
220
0.0
230
1.0
 70
     8
 71
     3
 72
    11
 73
     7
 74
     0
 42
0.000000001
 43
0.00000001
 40
0.0
 40
0.0
 40
0.0
 40
0.0
 40
0.5075323323411891
 40
0.7182599345913171
 40
0.9309793699561679
 40
1.0
 40
1.0
 40
1.0
 40
1.0
 10
87.76568542494927
 20
7.644382963058659
 30
0.0
 10
87.82907327834296
 20
7.752486842987301
 30
0.0
 10
87.91877979067962
 20
7.905475491746763
 30
0.0
 10
88.11246933760549
 20
8.045479728929084
 30
0.0
 10
88.23807076128327
 20
8.089408372539298
 30
0.0
 10
88.31301180630315
 20
8.092335491145345
 30
0.0
 10
88.33137084989855
 20
8.09305257612973
 30
0.0
  0
SPLINE
  5
281
330
1F
100
AcDbEntity
  8
1
  6
SLD-Solid
370
    25
100
AcDbSpline
210
0.0
220
0.0
230
1.0
 70
     8
 71
     3
 72
    11
 73
     7
 74
     0
 42
0.000000001
 43
0.00000001
 40
0.0
 40
0.0
 40
0.0
 40
0.0
 40
0.1717228516707502
 40
0.3815121680049895
 40
0.704917408823729
 40
1.0
 40
1.0
 40
1.0
 40
1.0
 10
88.33137084989859
 20
-8.093052576129896
 30
0.0
 10
88.28547531872182
 20
-8.088622617933185
 30
0.0
 10
88.18351041754156
 20
-8.078780695676718
 30
0.0
 10
88.02008127452652
 20
-7.988336700391259
 30
0.0
 10
87.87409414018515
 20
-7.838993845184454
 30
0.0
 10
87.80070136218477
 20
-7.707242138347549
 30
0.0
 10
87.76568542494934
 20
-7.644382963058801
 30
0.0
  0
SPLINE
  5
282
330
1F
100
AcDbEntity
  8
1
  6
SLD-Solid
370
    25
100
AcDbSpline
210
0.0
220
0.0
230
1.0
 70
     8
 71
     3
 72
    11
 73
     7
 74
     0
 42
0.000000001
 43
0.00000001
 40
0.0
 40
0.0
 40
0.0
 40
0.0
 40
0.5075323323411909
 40
0.7182599345913183
 40
0.9309793699561865
 40
1.0
 40
1.0
 40
1.0
 40
1.0
 10
87.76568542494917
 20
-9.327810679519008
 30
0.0
 10
87.8290732783428
 20
-9.225847094276837
 30
0.0
 10
87.91877979067941
 20
-9.08154819270951
 30
0.0
 10
88.11246933760533
 20
-8.9466035027184
 30
0.0
 10
88.2380707612831
 20
-8.904085821008161
 30
0.0
 10
88.313011806303
 20
-8.901248568192027
 30
0.0
 10
88.33137084989839
 20
-8.900553498512547
 30
0.0
  0
SPLINE
  5
283
330
1F
100
AcDbEntity
  8
1
  6
SLD-Solid
370
    25
100
AcDbSpline
210
0.0
220
0.0
230
1.0
 70
     8
 71
     3
 72
    11
 73
     7
 74
     0
 42
0.000000001
 43
0.00000001
 40
0.0
 40
0.0
 40
0.0
 40
0.0
 40
0.1717228516707437
 40
0.3815121680049768
 40
0.7049174088237105
 40
1.0
 40
1.0
 40
1.0
 40
1.0
 10
88.33137084989885
 20
-16.99360607464223
 30
0.0
 10
88.28547531872206
 20
-16.99347263033937
 30
0.0
 10
88.18351041754181
 20
-16.99317616062207
 30
0.0
 10
88.02008127452675
 20
-16.99009275654073
 30
0.0
 10
87.87409414018545
 20
-16.98384796704233
 30
0.0
 10
87.800701362185
 20
-16.97595798101749
 30
0.0
 10
87.76568542494962
 20
-16.97219364257764
 30
0.0
  0
SPLINE
  5
284
330
1F
100
AcDbEntity
  8
1
  6
SLD-Solid
370
    25
100
AcDbSpline
210
0.0
220
0.0
230
1.0
 70
     8
 71
     3
 72
    13
 73
     9
 74
     0
 42
0.000000001
 43
0.00000001
 40
0.0
 40
0.0
 40
0.0
 40
0.0
 40
0.1392149030754799
 40
0.2783907453752024
 40
0.4207830831363779
 40
0.5631565723249391
 40
0.7800221883509851
 40
1.0
 40
1.0
 40
1.0
 40
1.0
 10
98.26794919243113
 20
8.09305257612973
 30
0.0
 10
98.45823165543523
 20
7.355835920235282
 30
0.0
 10
98.8387431921837
 20
5.881609455945062
 30
0.0
 10
99.23311739365019
 20
3.612339673907714
 30
0.0
 10
99.45291595365234
 20
1.302129388963548
 30
0.0
 10
99.46668232296389
 20
-1.443397048504009
 30
0.0
 10
99.13586370449022
 20
-4.605227153104209
 30
0.0
 10
98.5586248338852
 20
-6.924935350260925
 30
0.0
 10
98.26794919243113
 20
-8.093052576129738
 30
0.0
  0
SPLINE
  5
285
330
1F
100
AcDbEntity
  8
1
  6
SLD-Solid
370
    25
100
AcDbSpline
210
0.0
220
0.0
230
1.0
 70
     8
 71
     3
 72
    13
 73
     9
 74
     0
 42
0.000000001
 43
0.00000001
 40
0.0
 40
0.0
 40
0.0
 40
0.0
 40
0.1389063756095035
 40
0.2783897186998043
 40
0.4202335500398097
 40
0.5631590466961179
 40
0.7800234343506327
 40
1.0
 40
1.0
 40
1.0
 40
1.0
 10
98.26794919243113
 20
16.99360607464222
 30
0.0
 10
98.45794420154806
 20
16.6258264128183
 30
0.0
 10
98.83872339120249
 20
15.88873946378944
 30
0.0
 10
99.23195189163212
 20
14.75554259251255
 30
0.0
 10
99.4544153979529
 20
13.59970072959205
 30
0.0
 10
99.46629780631054
 20
12.22687827747423
 30
0.0
 10
99.13607112738369
 20
10.64446971834413
 30
0.0
 10
98.55869430245816
 20
9.484613286427654
 30
0.0
 10
98.26794919243113
 20
8.900553498512501
 30
0.0
  0
SPLINE
  5
286
330
1F
100
AcDbEntity
  8
1
  6
SLD-Solid
370
    25
100
AcDbSpline
210
0.0
220
0.0
230
1.0
 70
     8
 71
     3
 72
    14
 73
    10
 74
     0
 42
0.000000001
 43
0.00000001
 40
0.0
 40
0.0
 40
0.0
 40
0.0
 40
0.1757764760303393
 40
0.3528307214721822
 40
0.4853685850348067
 40
0.6188289888674858
 40
0.75499294857935
 40
0.8919468906361452
 40
1.0
 40
1.0
 40
1.0
 40
1.0
 10
98.26794919243113
 20
-8.90055349851248
 30
0.0
 10
98.50467147895633
 20
-9.366580211487248
 30
0.0
 10
98.97983685392255
 20
-10.30202131872518
 30
0.0
 10
99.35485967025991
 20
-11.61877461363555
 30
0.0
 10
99.48162285035093
 20
-12.82954817510314
 30
0.0
 10
99.40820454506093
 20
-13.92992315195936
 30
0.0
 10
99.14822719768772
 20
-15.03494243459101
 30
0.0
 10
98.75685329989606
 20
-16.05963506401942
 30
0.0
 10
98.41757697505881
 20
-16.70776676745656
 30
0.0
 10
98.26794919243113
 20
-16.99360607464222
 30
0.0
  0
SPLINE
  5
287
330
1F
100
AcDbEntity
  8
1
  6
SLD-Solid
370
    25
100
AcDbSpline
210
0.0
220
0.0
230
1.0
 70
     8
 71
     3
 72
     8
 73
     4
 74
     0
 42
0.000000001
 43
0.00000001
 40
0.0
 40
0.0
 40
0.0
 40
0.0
 40
0.0008783072046589
 40
0.0008783072046589
 40
0.0008783072046589
 40
0.0008783072046589
 10
14.63683664205676
 20
-8.732520000000028
 30
0.0
 10
14.51427081432997
 20
-8.520229759105508
 30
0.0
 10
14.3922808335665
 20
-8.30772687520941
 30
0.0
 10
14.27090830787686
 20
-8.094999999999999
 30
0.0
  0
SPLINE
  5
288
330
1F
100
AcDbEntity
  8
1
  6
SLD-Solid
370
    25
100
AcDbSpline
210
0.0
220
0.0
230
1.0
 70
    24
 71
     3
 72
    18
 73
    14
 74
     0
 42
0.000000001
 43
0.00000001
 40
0.0
 40
0.0
 40
0.0
 40
0.0
 40
0.0503985907721767
 40
0.1007611985112129
 40
0.1867133625924686
 40
0.250707802088887
 40
0.3759053866292146
 40
0.5002769903873882
 40
0.6254727404757954
 40
0.7499722576385894
 40
0.8750533663912197
 40
0.9372999447731115
 40
1.0
 40
1.0
 40
1.0
 40
1.0
 10
18.29999999999997
 20
-8.094999999999999
 30
0.0
 10
18.30672586936911
 20
-8.094999999999999
 30
0.0
 10
18.32017280604496
 20
-8.095
 30
0.0
 10
18.34490953258423
 20
-8.095000000000008
 30
0.0
 10
18.37097379942355
 20
-8.095000000000011
 30
0.0
 10
18.4053406801886
 20
-8.095000000000018
 30
0.0
 10
18.44197202237656
 20
-8.095000000000029
 30
0.0
 10
18.47986487117877
 20
-8.095000000000036
 30
0.0
 10
18.51053614991203
 20
-8.095000000000043
 30
0.0
 10
18.53314513148845
 20
-8.095000000000047
 30
0.0
 10
18.54454926815959
 20
-8.09500000000005
 30
0.0
 10
18.54932787138486
 20
-8.09500000000005
 30
0.0
 10
18.54977541569447
 20
-8.09500000000005
 30
0.0
 10
18.54999999999994
 20
-8.09500000000005
 30
0.0
  0
SPLINE
  5
289
330
1F
100
AcDbEntity
  8
1
  6
SLD-Solid
370
    25
100
AcDbSpline
210
0.0
220
0.0
230
1.0
 70
     8
 71
     3
 72
    15
 73
    11
 74
     0
 42
0.000000001
 43
0.00000001
 40
0.0
 40
0.0
 40
0.0
 40
0.0
 40
0.0701435325383619
 40
0.1230076382658076
 40
0.2464580449108382
 40
0.4936501266417946
 40
0.6221640882791771
 40
0.7451781028260629
 40
0.8734188463590339
 40
1.0
 40
1.0
 40
1.0
 40
1.0
 10
19.04999999999992
 20
-8.59500000000002
 30
0.0
 10
19.04914464771491
 20
-8.60006893133667
 30
0.0
 10
19.04764465390715
 20
-8.608958094024805
 30
0.0
 10
19.03267384616034
 20
-8.626522361201275
 30
0.0
 10
18.9857229961064
 20
-8.655890547791138
 30
0.0
 10
18.87530842138217
 20
-8.68667639342894
 30
0.0
 10
18.72430920317451
 20
-8.709663478514942
 30
0.0
 10
18.59259636522152
 20
-8.722605848112561
 30
0.0
 10
18.44997512465267
 20
-8.730953584814669
 30
0.0
 10
18.34977418050385
 20
-8.7320001335731
 30
0.0
 10
18.3
 20
-8.732520000000028
 30
0.0
  0
SPLINE
  5
28A
330
1F
100
AcDbEntity
  8
1
  6
SLD-Solid
370
    25
100
AcDbSpline
210
0.0
220
0.0
230
1.0
 70
     8
 71
     3
 72
     8
 73
     4
 74
     0
 42
0.000000001
 43
0.00000001
 40
0.0
 40
0.0
 40
0.0
 40
0.0
 40
0.0008783072046588
 40
0.0008783072046588
 40
0.0008783072046588
 40
0.0008783072046588
 10
7.59316335794323
 20
8.732519999999932
 30
0.0
 10
7.715729185670011
 20
8.520229759105435
 30
0.0
 10
7.837719166433499
 20
8.307726875209365
 30
0.0
 10
7.959091692123124
 20
8.09499999999997
 30
0.0
  0
SPLINE
  5
28B
330
1F
100
AcDbEntity
  8
1
  6
SLD-Solid
370
    25
100
AcDbSpline
210
0.0
220
0.0
230
1.0
 70
     8
 71
     3
 72
    15
 73
    11
 74
     0
 42
0.000000001
 43
0.00000001
 40
0.0
 40
0.0
 40
0.0
 40
0.0
 40
0.0701435326420306
 40
0.1230076382657401
 40
0.2464580449107778
 40
0.4936501266417154
 40
0.6221640881347863
 40
0.7451781028260123
 40
0.8734188462349866
 40
1.0
 40
1.0
 40
1.0
 40
1.0
 10
3.199999999999994
 20
8.59499999999997
 30
0.0
 10
3.200855352287327
 20
8.600068931344067
 30
0.0
 10
3.202355346096974
 20
8.608958094032088
 30
0.0
 10
3.217326153851105
 20
8.626522361208464
 30
0.0
 10
3.264277003893423
 20
8.655890547791346
 30
0.0
 10
3.374691578586331
 20
8.686676393418018
 30
0.0
 10
3.525690796776976
 20
8.709663478512383
 30
0.0
 10
3.657403634681297
 20
8.722605848105172
 30
0.0
 10
3.80002487529757
 20
8.730953584808583
 30
0.0
 10
3.90022581944699
 20
8.73200013357068
 30
0.0
 10
3.949999999999926
 20
8.732519999999932
 30
0.0
  0
SPLINE
  5
28C
330
1F
100
AcDbEntity
  8
1
  6
SLD-Solid
370
    25
100
AcDbSpline
210
0.0
220
0.0
230
1.0
 70
    24
 71
     3
 72
    18
 73
    14
 74
     0
 42
0.000000001
 43
0.00000001
 40
0.0
 40
0.0
 40
0.0
 40
0.0
 40
0.0503985907721862
 40
0.1007611985112243
 40
0.1867133625924645
 40
0.2507078020888892
 40
0.3759053866292166
 40
0.5002769903873832
 40
0.6254727404758037
 40
0.7499722576385862
 40
0.875053366391222
 40
0.9372999447731126
 40
1.0
 40
1.0
 40
1.0
 40
1.0
 10
3.949999999999982
 20
8.09499999999997
 30
0.0
 10
3.943274130630822
 20
8.094999999999978
 30
0.0
 10
3.929827193954988
 20
8.094999999999978
 30
0.0
 10
3.905090467415703
 20
8.094999999999978
 30
0.0
 10
3.879026200576396
 20
8.094999999999985
 30
0.0
 10
3.844659319811317
 20
8.094999999999985
 30
0.0
 10
3.808027977623377
 20
8.094999999999992
 30
0.0
 10
3.770135128821156
 20
8.094999999999992
 30
0.0
 10
3.739463850087887
 20
8.094999999999999
 30
0.0
 10
3.716854868511435
 20
8.094999999999999
 30
0.0
 10
3.705450731840338
 20
8.094999999999999
 30
0.0
 10
3.700672128615051
 20
8.094999999999999
 30
0.0
 10
3.700224584305439
 20
8.094999999999999
 30
0.0
 10
3.699999999999967
 20
8.094999999999999
 30
0.0
  0
SPLINE
  5
28D
330
1F
100
AcDbEntity
  8
1
  6
SLD-Solid
370
    25
100
AcDbSpline
210
0.0
220
0.0
230
1.0
 70
    24
 71
     3
 72
     8
 73
     4
 74
     0
 42
0.000000001
 43
0.00000001
 40
0.0
 40
0.0
 40
0.0
 40
0.0
 40
0.2499999999999996
 40
0.2499999999999996
 40
0.2499999999999996
 40
0.2499999999999996
 10
18.3
 20
-18.34999999999999
 30
0.0
 10
18.41009345940822
 20
-18.34999999999999
 30
0.0
 10
18.51914645498262
 20
-18.34999999999999
 30
0.0
 10
18.61478964588868
 20
-18.34999999999999
 30
0.0
  0
SPLINE
  5
28E
330
1F
100
AcDbEntity
  8
1
  6
SLD-Solid
370
    25
100
AcDbSpline
210
0.0
220
0.0
230
1.0
 70
    24
 71
     3
 72
     8
 73
     4
 74
     0
 42
0.000000001
 43
0.00000001
 40
0.2499999999999996
 40
0.2499999999999996
 40
0.2499999999999996
 40
0.2499999999999996
 40
0.4999999999999991
 40
0.4999999999999991
 40
0.4999999999999991
 40
0.4999999999999991
 10
18.61478964588868
 20
-18.34999999999999
 30
0.0
 10
18.71043283679473
 20
-18.34999999999999
 30
0.0
 10
18.79290518035347
 20
-18.34999999999998
 30
0.0
 10
18.85782919697514
 20
-18.34999999999998
 30
0.0
  0
SPLINE
  5
28F
330
1F
100
AcDbEntity
  8
1
  6
SLD-Solid
370
    25
100
AcDbSpline
210
0.0
220
0.0
230
1.0
 70
    24
 71
     2
 72
     6
 73
     3
 74
     0
 42
0.000000001
 43
0.00000001
 40
0.4999999999999991
 40
0.4999999999999991
 40
0.4999999999999991
 40
1.0
 40
1.0
 40
1.0
 10
18.85782919697514
 20
-18.34999999999998
 30
0.0
 10
18.98767723021848
 20
-18.34999999999999
 30
0.0
 10
19.05000000000001
 20
-18.34999999999999
 30
0.0
  0
SPLINE
  5
290
330
1F
100
AcDbEntity
  8
1
  6
SLD-Solid
370
    25
100
AcDbSpline
210
0.0
220
0.0
230
1.0
 70
     8
 71
     3
 72
    17
 73
    13
 74
     0
 42
0.000000001
 43
0.00000001
 40
0.0
 40
0.0
 40
0.0
 40
0.0
 40
0.0630096893451547
 40
0.1264306800888902
 40
0.1902686729689498
 40
0.2545292253590783
 40
0.3775638371003589
 40
0.5060541142147391
 40
0.753080133606525
 40
0.8766168954593743
 40
0.929626933168583
 40
1.0
 40
1.0
 40
1.0
 40
1.0
 10
3.949999999999995
 20
-8.73251999999998
 30
0.0
 10
3.92524583521997
 20
-8.732391978126374
 30
0.0
 10
3.875575920629121
 20
-8.732135098704914
 30
0.0
 10
3.8015690905671
 20
-8.730043004151751
 30
0.0
 10
3.728567813311767
 20
-8.726684778832805
 30
0.0
 10
3.635825513835497
 20
-8.720522494880228
 30
0.0
 10
3.526147322856776
 20
-8.709704769500421
 30
0.0
 10
3.375087735364629
 20
-8.686766754240352
 30
0.0
 10
3.2645185116741
 20
-8.655981996498921
 30
0.0
 10
3.217427410530271
 20
-8.62660791282656
 30
0.0
 10
3.202371905447671
 20
-8.609006381108713
 30
0.0
 10
3.200861486162762
 20
-8.600087177284978
 30
0.0
 10
3.199999999999994
 20
-8.594999999999985
 30
0.0
  0
SPLINE
  5
291
330
1F
100
AcDbEntity
  8
1
  6
SLD-Solid
370
    25
100
AcDbSpline
210
0.0
220
0.0
230
1.0
 70
    24
 71
     3
 72
    18
 73
    14
 74
     0
 42
0.000000001
 43
0.00000001
 40
0.0
 40
0.0
 40
0.0
 40
0.0
 40
0.0502617221452743
 40
0.1003354213518458
 40
0.1864287239590684
 40
0.2507033761673355
 40
0.3754040368259481
 40
0.5003115117971233
 40
0.6254321409840756
 40
0.7499589778058476
 40
0.8750959321922354
 40
0.9373335260982104
 40
0.9999999999999999
 40
0.9999999999999999
 40
0.9999999999999999
 40
0.9999999999999999
 10
3.699999999999967
 20
-8.095000000000004
 30
0.0
 10
3.700144146615611
 20
-8.095000000000004
 30
0.0
 10
3.700431900612089
 20
-8.095000000000004
 30
0.0
 10
3.703295756607966
 20
-8.094999999999992
 30
0.0
 10
3.708907878407941
 20
-8.094999999999992
 30
0.0
 10
3.720632531560145
 20
-8.094999999999992
 30
0.0
 10
3.739586162461686
 20
-8.094999999999995
 30
0.0
 10
3.770349675816104
 20
-8.095000000000011
 30
0.0
 10
3.808277296520362
 20
-8.095000000000011
 30
0.0
 10
3.85204815542467
 20
-8.095
 30
0.0
 10
3.891963871766477
 20
-8.095000000000004
 30
0.0
 10
3.924964147615742
 20
-8.095000000000022
 30
0.0
 10
3.941635634381893
 20
-8.095000000000026
 30
0.0
 10
3.949999999999995
 20
-8.095000000000011
 30
0.0
  0
SPLINE
  5
292
330
1F
100
AcDbEntity
  8
1
  6
SLD-Solid
370
    25
100
AcDbSpline
210
0.0
220
0.0
230
1.0
 70
    24
 71
     2
 72
     6
 73
     3
 74
     0
 42
0.000000001
 43
0.00000001
 40
0.0
 40
0.0
 40
0.0
 40
0.5000000000000032
 40
0.5000000000000032
 40
0.5000000000000032
 10
3.199999999999994
 20
-18.34999999999999
 30
0.0
 10
3.262453391497278
 20
-18.34999999999998
 30
0.0
 10
3.391824966518506
 20
-18.34999999999999
 30
0.0
  0
SPLINE
  5
293
330
1F
100
AcDbEntity
  8
1
  6
SLD-Solid
370
    25
100
AcDbSpline
210
0.0
220
0.0
230
1.0
 70
    24
 71
     3
 72
     8
 73
     4
 74
     0
 42
0.000000001
 43
0.00000001
 40
0.5000000000000032
 40
0.5000000000000032
 40
0.5000000000000032
 40
0.5000000000000032
 40
0.7500000000000016
 40
0.7500000000000016
 40
0.7500000000000016
 40
0.7500000000000016
 10
3.391824966518506
 20
-18.34999999999999
 30
0.0
 10
3.456510754029099
 20
-18.34999999999999
 30
0.0
 10
3.538937009729431
 20
-18.34999999999999
 30
0.0
 10
3.63440883323693
 20
-18.34999999999999
 30
0.0
  0
SPLINE
  5
294
330
1F
100
AcDbEntity
  8
1
  6
SLD-Solid
370
    25
100
AcDbSpline
210
0.0
220
0.0
230
1.0
 70
    24
 71
     3
 72
     8
 73
     4
 74
     0
 42
0.000000001
 43
0.00000001
 40
0.7500000000000016
 40
0.7500000000000016
 40
0.7500000000000016
 40
0.7500000000000016
 40
1.0
 40
1.0
 40
1.0
 40
1.0
 10
3.63440883323693
 20
-18.34999999999999
 30
0.0
 10
3.729880656744442
 20
-18.34999999999999
 30
0.0
 10
3.838711986975829
 20
-18.34999999999999
 30
0.0
 10
3.950000000000009
 20
-18.34999999999999
 30
0.0
  0
SPLINE
  5
295
330
1F
100
AcDbEntity
  8
1
  6
SLD-Solid
370
    25
100
AcDbSpline
210
0.0
220
0.0
230
1.0
 70
     8
 71
     3
 72
     8
 73
     4
 74
     0
 42
0.000000001
 43
0.00000001
 40
0.0
 40
0.0
 40
0.0
 40
0.0
 40
0.0008783072046588
 40
0.0008783072046588
 40
0.0008783072046588
 40
0.0008783072046588
 10
7.95909169212311
 20
-8.095000000000011
 30
0.0
 10
7.837719166433485
 20
-8.307726875209424
 30
0.0
 10
7.715729185669998
 20
-8.52022975910549
 30
0.0
 10
7.59316335794323
 20
-8.73251999999998
 30
0.0
  0
SPLINE
  5
296
330
1F
100
AcDbEntity
  8
1
  6
SLD-Solid
370
    25
100
AcDbSpline
210
0.0
220
0.0
230
1.0
 70
    24
 71
     3
 72
    18
 73
    14
 74
     0
 42
0.000000001
 43
0.00000001
 40
0.0
 40
0.0
 40
0.0
 40
0.0
 40
0.0502617221452385
 40
0.1003354213518343
 40
0.1864287239590559
 40
0.2507033761673368
 40
0.3754040368259516
 40
0.5003115117971194
 40
0.6254321409840755
 40
0.7499589778058467
 40
0.8750959321922386
 40
0.9373335260982067
 40
1.0
 40
1.0
 40
1.0
 40
1.0
 10
18.54999999999685
 20
8.094999999992934
 30
0.0
 10
18.5498558533812
 20
8.094999999992927
 30
0.0
 10
18.54956809938473
 20
8.094999999992927
 30
0.0
 10
18.54670424338885
 20
8.094999999992927
 30
0.0
 10
18.54109212158886
 20
8.094999999992927
 30
0.0
 10
18.52936746843667
 20
8.094999999992929
 30
0.0
 10
18.51041383753514
 20
8.094999999992936
 30
0.0
 10
18.47965032418072
 20
8.094999999992929
 30
0.0
 10
18.44172270347645
 20
8.09499999999293
 30
0.0
 10
18.39795184457217
 20
8.094999999992933
 30
0.0
 10
18.35803612823036
 20
8.094999999992933
 30
0.0
 10
18.32503585238108
 20
8.094999999992941
 30
0.0
 10
18.30836436561496
 20
8.094999999992934
 30
0.0
 10
18.29999999999685
 20
8.094999999992934
 30
0.0
  0
SPLINE
  5
297
330
1F
100
AcDbEntity
  8
1
  6
SLD-Solid
370
    25
100
AcDbSpline
210
0.0
220
0.0
230
1.0
 70
     8
 71
     3
 72
    17
 73
    13
 74
     0
 42
0.000000001
 43
0.00000001
 40
0.0
 40
0.0
 40
0.0
 40
0.0
 40
0.0630096892532792
 40
0.1264306799664213
 40
0.1902686728771463
 40
0.2545292253591724
 40
0.3775638368193145
 40
0.5060541142148836
 40
0.7530801336068137
 40
0.8766168954597358
 40
0.9296269325062025
 40
1.0
 40
1.0
 40
1.0
 40
1.0
 10
18.29999999999685
 20
8.732519999992936
 30
0.0
 10
18.32475416474072
 20
8.73239197811998
 30
0.0
 10
18.37442407928336
 20
8.732135098699668
 30
0.0
 10
18.44843090931139
 20
8.730043004151893
 30
0.0
 10
18.52143218660493
 20
8.726684778834718
 30
0.0
 10
18.61417448602588
 20
8.720522494880937
 30
0.0
 10
18.72385267704539
 20
8.709704769506505
 30
0.0
 10
18.87491226457111
 20
8.686766754249787
 30
0.0
 10
18.9854814883226
 20
8.655981996491722
 30
0.0
 10
19.03257258939284
 20
8.626607912865888
 30
0.0
 10
19.04762809452212
 20
8.609006381148747
 30
0.0
 10
19.04913851381911
 20
8.600087177325536
 30
0.0
 10
19.04999999999685
 20
8.594999999992934
 30
0.0
  0
SPLINE
  5
298
330
1F
100
AcDbEntity
  8
1
  6
SLD-Solid
370
    25
100
AcDbSpline
210
0.0
220
0.0
230
1.0
 70
     8
 71
     3
 72
     8
 73
     4
 74
     0
 42
0.000000001
 43
0.00000001
 40
0.0
 40
0.0
 40
0.0
 40
0.0
 40
0.0008783072046589
 40
0.0008783072046589
 40
0.0008783072046589
 40
0.0008783072046589
 10
14.27090830787371
 20
8.094999999992934
 30
0.0
 10
14.39228083356334
 20
8.307726875202356
 30
0.0
 10
14.51427081432682
 20
8.520229759098427
 30
0.0
 10
14.63683664205361
 20
8.732519999992936
 30
0.0
  0
SPLINE
  5
299
330
1F
100
AcDbEntity
  8
1
  6
SLD-Solid
370
    25
100
AcDbSpline
210
0.0
220
0.0
230
1.0
 70
     8
 71
     3
 72
     8
 73
     4
 74
     0
 42
0.000000001
 43
0.00000001
 40
0.0
 40
0.0
 40
0.0
 40
0.0
 40
1.0
 40
1.0
 40
1.0
 40
1.0
 10
9.199999999999985
 20
27.41186263126166
 30
0.0
 10
9.171016811579474
 20
27.42793854695173
 30
0.0
 10
9.148067685310874
 20
27.43188644554218
 30
0.0
 10
9.133183048274512
 20
27.41957129554514
 30
0.0
  0
SPLINE
  5
29A
330
1F
100
AcDbEntity
  8
1
  6
SLD-Solid
370
    25
100
AcDbSpline
210
0.0
220
0.0
230
1.0
 70
     8
 71
     3
 72
    10
 73
     6
 74
     0
 42
0.000000001
 43
0.00000001
 40
0.0
 40
0.0
 40
0.0
 40
0.0
 40
0.1680288744547075
 40
0.7148701403564326
 40
1.0
 40
1.0
 40
1.0
 40
1.0
 10
9.121891128497401
 20
27.34654800952585
 30
0.0
 10
9.119836714036003
 20
27.33839028304316
 30
0.0
 10
9.111096314154466
 20
27.30368365839545
 30
0.0
 10
9.146682262280311
 20
27.17482051366004
 30
0.0
 10
9.186391132696093
 20
27.05747788371194
 30
0.0
 10
9.200000000000028
 20
27.0172626808281
 30
0.0
  0
SPLINE
  5
29B
330
1F
100
AcDbEntity
  8
1
  6
SLD-Solid
370
    25
100
AcDbSpline
210
0.0
220
0.0
230
1.0
 70
    24
 71
     3
 72
     8
 73
     4
 74
     0
 42
0.000000001
 43
0.00000001
 40
0.0
 40
0.0
 40
0.0
 40
0.0
 40
1.0
 40
1.0
 40
1.0
 40
1.0
 10
7.959091692123124
 20
8.09499999999997
 30
0.0
 10
8.373581113762823
 20
8.094999999999985
 30
0.0
 10
8.78728199018225
 20
8.094999999999992
 30
0.0
 10
9.200000000000028
 20
8.094999999999999
 30
0.0
  0
SPLINE
  5
29C
330
1F
100
AcDbEntity
  8
1
  6
SLD-Solid
370
    25
100
AcDbSpline
210
0.0
220
0.0
230
1.0
 70
    24
 71
     3
 72
     8
 73
     4
 74
     0
 42
0.000000001
 43
0.00000001
 40
0.0
 40
0.0
 40
0.0
 40
0.0
 40
1.0
 40
1.0
 40
1.0
 40
1.0
 10
7.59316335794323
 20
-18.34999999999999
 30
0.0
 10
8.139818051543331
 20
-18.34999999999999
 30
0.0
 10
8.67697366511072
 20
-18.34999999999999
 30
0.0
 10
9.2
 20
-18.34999999999999
 30
0.0
  0
SPLINE
  5
29D
330
1F
100
AcDbEntity
  8
1
  6
SLD-Solid
370
    25
100
AcDbSpline
210
0.0
220
0.0
230
1.0
 70
    24
 71
     3
 72
     8
 73
     4
 74
     0
 42
0.000000001
 43
0.00000001
 40
0.0
 40
0.0
 40
0.0
 40
0.0
 40
1.0
 40
1.0
 40
1.0
 40
1.0
 10
9.200000000000014
 20
-8.094999999999999
 30
0.0
 10
8.787281990182235
 20
-8.095000000000002
 30
0.0
 10
8.37358111376281
 20
-8.095000000000008
 30
0.0
 10
7.95909169212311
 20
-8.095000000000011
 30
0.0
  0
SPLINE
  5
29E
330
1F
100
AcDbEntity
  8
1
  6
SLD-Solid
370
    25
100
AcDbSpline
210
0.0
220
0.0
230
1.0
 70
    24
 71
     3
 72
     8
 73
     4
 74
     0
 42
0.000000001
 43
0.00000001
 40
0.0
 40
0.0
 40
0.0
 40
0.0
 40
1.0
 40
1.0
 40
1.0
 40
1.0
 10
13.02999999999684
 20
8.094999999992934
 30
0.0
 10
13.44271800981461
 20
8.094999999992934
 30
0.0
 10
13.85641888623403
 20
8.094999999992934
 30
0.0
 10
14.27090830787371
 20
8.094999999992934
 30
0.0
  0
SPLINE
  5
29F
330
1F
100
AcDbEntity
  8
1
  6
SLD-Solid
370
    25
100
AcDbSpline
210
0.0
220
0.0
230
1.0
 70
     8
 71
     3
 72
     9
 73
     5
 74
     0
 42
0.000000001
 43
0.00000001
 40
0.0
 40
0.0
 40
0.0
 40
0.0
 40
0.5549482632672378
 40
1.0
 40
1.0
 40
1.0
 40
1.0
 10
13.02999999999684
 20
27.01726268082102
 30
0.0
 10
13.05715000916628
 20
27.09737051094022
 30
0.0
 10
13.10607350522264
 20
27.24172239997502
 30
0.0
 10
13.1074820127695
 20
27.31440022370287
 30
0.0
 10
13.10810887149944
 20
27.3467456153749
 30
0.0
  0
SPLINE
  5
2A0
330
1F
100
AcDbEntity
  8
1
  6
SLD-Solid
370
    25
100
AcDbSpline
210
0.0
220
0.0
230
1.0
 70
     8
 71
     3
 72
     8
 73
     4
 74
     0
 42
0.000000001
 43
0.00000001
 40
0.0
 40
0.0
 40
0.0
 40
0.0
 40
1.0
 40
1.0
 40
1.0
 40
1.0
 10
13.11238376628522
 20
27.38885610116811
 30
0.0
 10
13.10369243773719
 20
27.43220912960294
 30
0.0
 10
13.07354924829487
 20
27.43601780818719
 30
0.0
 10
13.02999999999674
 20
27.41186263126708
 30
0.0
  0
SPLINE
  5
2A1
330
1F
100
AcDbEntity
  8
1
  6
SLD-Solid
370
    25
100
AcDbSpline
210
0.0
220
0.0
230
1.0
 70
    24
 71
     3
 72
     8
 73
     4
 74
     0
 42
0.000000001
 43
0.00000001
 40
0.0
 40
0.0
 40
0.0
 40
0.0
 40
1.0
 40
1.0
 40
1.0
 40
1.0
 10
13.03
 20
-18.34999999999999
 30
0.0
 10
13.55326815339429
 20
-18.34999999999999
 30
0.0
 10
14.09021285193389
 20
-18.34999999999999
 30
0.0
 10
14.63683664205676
 20
-18.34999999999999
 30
0.0
  0
SPLINE
  5
2A2
330
1F
100
AcDbEntity
  8
1
  6
SLD-Solid
370
    25
100
AcDbSpline
210
0.0
220
0.0
230
1.0
 70
    24
 71
     3
 72
     8
 73
     4
 74
     0
 42
0.000000001
 43
0.00000001
 40
0.0
 40
0.0
 40
0.0
 40
0.0
 40
1.0
 40
1.0
 40
1.0
 40
1.0
 10
14.27090830787685
 20
-8.094999999999999
 30
0.0
 10
13.85641888623716
 20
-8.094999999999999
 30
0.0
 10
13.44271800981775
 20
-8.094999999999999
 30
0.0
 10
13.02999999999999
 20
-8.094999999999999
 30
0.0
  0
SPLINE
  5
2A3
330
1F
100
AcDbEntity
  8
1
  6
SLD-Solid
370
    25
100
AcDbSpline
210
0.0
220
0.0
230
1.0
 70
     8
 71
     3
 72
    16
 73
    12
 74
     0
 42
0.000000001
 43
0.00000001
 40
0.0
 40
0.0
 40
0.0
 40
0.0
 40
0.1249999999999979
 40
0.1249999999999979
 40
0.2499999999999958
 40
0.2499999999999958
 40
0.4999999999999972
 40
0.4999999999999972
 40
0.7499999999999986
 40
0.7499999999999986
 40
1.0
 40
1.0
 40
1.0
 40
1.0
 10
9.200000000000028
 20
26.81342395599224
 30
0.0
 10
9.200000000000028
 20
26.75008219873892
 30
0.0
 10
9.20956382790146
 20
26.67853228546582
 30
0.0
 10
9.236165608094968
 20
26.55137620786218
 30
0.0
 10
9.25360698667936
 20
26.49121349319728
 30
0.0
 10
9.313827278242426
 20
26.32086774534963
 30
0.0
 10
9.36494708970935
 20
26.21821216600434
 30
0.0
 10
9.492010964480727
 20
26.02727557642674
 30
0.0
 10
9.5661159134324
 20
25.94241156889361
 30
0.0
 10
9.73948300262574
 20
25.79997779741086
 30
0.0
 10
9.839659725882854
 20
25.74236666909598
 30
0.0
 10
9.94999999999685
 20
25.71100064078868
 30
0.0
  0
SPLINE
  5
2A4
330
1F
100
AcDbEntity
  8
1
  6
SLD-Solid
370
    25
100
AcDbSpline
210
0.0
220
0.0
230
1.0
 70
    24
 71
     2
 72
     6
 73
     3
 74
     0
 42
0.000000001
 43
0.00000001
 40
0.0
 40
0.0
 40
0.0
 40
0.25
 40
0.25
 40
0.25
 10
9.2
 20
8.094999999999999
 30
0.0
 10
9.218706918939432
 20
8.094999999999999
 30
0.0
 10
9.254984916689635
 20
8.094999999999999
 30
0.0
  0
SPLINE
  5
2A5
330
1F
100
AcDbEntity
  8
1
  6
SLD-Solid
370
    25
100
AcDbSpline
210
0.0
220
0.0
230
1.0
 70
    24
 71
     3
 72
     8
 73
     4
 74
     0
 42
0.000000001
 43
0.00000001
 40
0.25
 40
0.25
 40
0.25
 40
0.25
 40
0.5
 40
0.5
 40
0.5
 40
0.5
 10
9.254984916689635
 20
8.094999999999999
 30
0.0
 10
9.291262914439852
 20
8.094999999999999
 30
0.0
 10
9.34550394142529
 20
8.094999999999999
 30
0.0
 10
9.413757757814889
 20
8.094999999999999
 30
0.0
  0
SPLINE
  5
2A6
330
1F
100
AcDbEntity
  8
1
  6
SLD-Solid
370
    25
100
AcDbSpline
210
0.0
220
0.0
230
1.0
 70
    24
 71
     3
 72
     8
 73
     4
 74
     0
 42
0.000000001
 43
0.00000001
 40
0.5
 40
0.5
 40
0.5
 40
0.5
 40
0.75
 40
0.75
 40
0.75
 40
0.75
 10
9.413757757814889
 20
8.094999999999999
 30
0.0
 10
9.482011574204503
 20
8.094999999999999
 30
0.0
 10
9.565219805752228
 20
8.094999999999999
 30
0.0
 10
9.657354312945413
 20
8.094999999999999
 30
0.0
  0
SPLINE
  5
2A7
330
1F
100
AcDbEntity
  8
1
  6
SLD-Solid
370
    25
100
AcDbSpline
210
0.0
220
0.0
230
1.0
 70
    24
 71
     3
 72
     8
 73
     4
 74
     0
 42
0.000000001
 43
0.00000001
 40
0.75
 40
0.75
 40
0.75
 40
0.75
 40
1.0
 40
1.0
 40
1.0
 40
1.0
 10
9.657354312945413
 20
8.094999999999999
 30
0.0
 10
9.749488820138582
 20
8.095000000000004
 30
0.0
 10
9.849028188255545
 20
8.094999999999999
 30
0.0
 10
9.950000000000014
 20
8.094999999999999
 30
0.0
  0
SPLINE
  5
2A8
330
1F
100
AcDbEntity
  8
1
  6
SLD-Solid
370
    25
100
AcDbSpline
210
0.0
220
0.0
230
1.0
 70
    24
 71
     3
 72
     8
 73
     4
 74
     0
 42
0.000000001
 43
0.00000001
 40
0.0
 40
0.0
 40
0.0
 40
0.0
 40
0.2499999999999994
 40
0.2499999999999994
 40
0.2499999999999994
 40
0.2499999999999994
 10
12.28000000000064
 20
-18.34999999999999
 30
0.0
 10
12.39394315768555
 20
-18.34999999999999
 30
0.0
 10
12.5088735869361
 20
-18.34999999999999
 30
0.0
 10
12.60454613693414
 20
-18.34999999999999
 30
0.0
  0
SPLINE
  5
2A9
330
1F
100
AcDbEntity
  8
1
  6
SLD-Solid
370
    25
100
AcDbSpline
210
0.0
220
0.0
230
1.0
 70
    24
 71
     3
 72
     8
 73
     4
 74
     0
 42
0.000000001
 43
0.00000001
 40
0.2499999999999994
 40
0.2499999999999994
 40
0.2499999999999994
 40
0.2499999999999994
 40
0.4999999999999989
 40
0.4999999999999989
 40
0.4999999999999989
 40
0.4999999999999989
 10
12.60454613693414
 20
-18.34999999999999
 30
0.0
 10
12.70021868693216
 20
-18.34999999999999
 30
0.0
 10
12.78099533633482
 20
-18.34999999999999
 30
0.0
 10
12.84411909836491
 20
-18.34999999999999
 30
0.0
  0
SPLINE
  5
2AA
330
1F
100
AcDbEntity
  8
1
  6
SLD-Solid
370
    25
100
AcDbSpline
210
0.0
220
0.0
230
1.0
 70
    24
 71
     2
 72
     6
 73
     3
 74
     0
 42
0.000000001
 43
0.00000001
 40
0.4999999999999989
 40
0.4999999999999989
 40
0.4999999999999989
 40
1.0
 40
1.0
 40
1.0
 10
12.84411909836491
 20
-18.34999999999999
 30
0.0
 10
12.97036662242508
 20
-18.35
 30
0.0
 10
13.03
 20
-18.34999999999999
 30
0.0
  0
SPLINE
  5
2AB
330
1F
100
AcDbEntity
  8
1
  6
SLD-Solid
370
    25
100
AcDbSpline
210
0.0
220
0.0
230
1.0
 70
    24
 71
     2
 72
     6
 73
     3
 74
     0
 42
0.000000001
 43
0.00000001
 40
0.0
 40
0.0
 40
0.0
 40
0.25
 40
0.25
 40
0.25
 10
13.03
 20
-8.094999999999999
 30
0.0
 10
13.01129308106057
 20
-8.094999999999999
 30
0.0
 10
12.97501508331035
 20
-8.094999999999999
 30
0.0
  0
SPLINE
  5
2AC
330
1F
100
AcDbEntity
  8
1
  6
SLD-Solid
370
    25
100
AcDbSpline
210
0.0
220
0.0
230
1.0
 70
    24
 71
     3
 72
     8
 73
     4
 74
     0
 42
0.000000001
 43
0.00000001
 40
0.25
 40
0.25
 40
0.25
 40
0.25
 40
0.5
 40
0.5
 40
0.5
 40
0.5
 10
12.97501508331035
 20
-8.094999999999999
 30
0.0
 10
12.93873708556015
 20
-8.094999999999999
 30
0.0
 10
12.88449605857472
 20
-8.094999999999999
 30
0.0
 10
12.81624224218511
 20
-8.094999999999999
 30
0.0
  0
SPLINE
  5
2AD
330
1F
100
AcDbEntity
  8
1
  6
SLD-Solid
370
    25
100
AcDbSpline
210
0.0
220
0.0
230
1.0
 70
    24
 71
     3
 72
     8
 73
     4
 74
     0
 42
0.000000001
 43
0.00000001
 40
0.5
 40
0.5
 40
0.5
 40
0.5
 40
0.75
 40
0.75
 40
0.75
 40
0.75
 10
12.81624224218511
 20
-8.094999999999999
 30
0.0
 10
12.7479884257955
 20
-8.094999999999999
 30
0.0
 10
12.66478019424777
 20
-8.094999999999999
 30
0.0
 10
12.5726456870546
 20
-8.094999999999999
 30
0.0
  0
SPLINE
  5
2AE
330
1F
100
AcDbEntity
  8
1
  6
SLD-Solid
370
    25
100
AcDbSpline
210
0.0
220
0.0
230
1.0
 70
    24
 71
     3
 72
     8
 73
     4
 74
     0
 42
0.000000001
 43
0.00000001
 40
0.75
 40
0.75
 40
0.75
 40
0.75
 40
1.0
 40
1.0
 40
1.0
 40
1.0
 10
12.5726456870546
 20
-8.094999999999999
 30
0.0
 10
12.48051117986142
 20
-8.094999999999999
 30
0.0
 10
12.38097181174447
 20
-8.094999999999999
 30
0.0
 10
12.28
 20
-8.094999999999999
 30
0.0
  0
SPLINE
  5
2AF
330
1F
100
AcDbEntity
  8
1
  6
SLD-Solid
370
    25
100
AcDbSpline
210
0.0
220
0.0
230
1.0
 70
    24
 71
     2
 72
     6
 73
     3
 74
     0
 42
0.000000001
 43
0.00000001
 40
0.0
 40
0.0
 40
0.0
 40
0.25
 40
0.25
 40
0.25
 10
9.2
 20
-18.34999999999999
 30
0.0
 10
9.215049552321567
 20
-18.34999999999999
 30
0.0
 10
9.245719510034487
 20
-18.34999999999999
 30
0.0
  0
SPLINE
  5
2B0
330
1F
100
AcDbEntity
  8
1
  6
SLD-Solid
370
    25
100
AcDbSpline
210
0.0
220
0.0
230
1.0
 70
    24
 71
     3
 72
     8
 73
     4
 74
     0
 42
0.000000001
 43
0.00000001
 40
0.25
 40
0.25
 40
0.25
 40
0.25
 40
0.5
 40
0.5
 40
0.5
 40
0.5
 10
9.245719510034487
 20
-18.34999999999999
 30
0.0
 10
9.276389467747393
 20
-18.34999999999999
 30
0.0
 10
9.322582428042999
 20
-18.34999999999999
 30
0.0
 10
9.385647257598121
 20
-18.34999999999999
 30
0.0
  0
SPLINE
  5
2B1
330
1F
100
AcDbEntity
  8
1
  6
SLD-Solid
370
    25
100
AcDbSpline
210
0.0
220
0.0
230
1.0
 70
    24
 71
     3
 72
     8
 73
     4
 74
     0
 42
0.000000001
 43
0.00000001
 40
0.5
 40
0.5
 40
0.5
 40
0.5
 40
0.75
 40
0.75
 40
0.75
 40
0.75
 10
9.385647257598121
 20
-18.34999999999999
 30
0.0
 10
9.448712087153242
 20
-18.34999999999999
 30
0.0
 10
9.528898807595985
 20
-18.34999999999999
 30
0.0
 10
9.625947673409977
 20
-18.34999999999999
 30
0.0
  0
SPLINE
  5
2B2
330
1F
100
AcDbEntity
  8
1
  6
SLD-Solid
370
    25
100
AcDbSpline
210
0.0
220
0.0
230
1.0
 70
    24
 71
     3
 72
     8
 73
     4
 74
     0
 42
0.000000001
 43
0.00000001
 40
0.75
 40
0.75
 40
0.75
 40
0.75
 40
1.0
 40
1.0
 40
1.0
 40
1.0
 10
9.625947673409977
 20
-18.34999999999999
 30
0.0
 10
9.722996539223969
 20
-18.34999999999999
 30
0.0
 10
9.836191071280656
 20
-18.34999999999999
 30
0.0
 10
9.950000000000014
 20
-18.34999999999999
 30
0.0
  0
SPLINE
  5
2B3
330
1F
100
AcDbEntity
  8
1
  6
SLD-Solid
370
    25
100
AcDbSpline
210
0.0
220
0.0
230
1.0
 70
    24
 71
     3
 72
     8
 73
     4
 74
     0
 42
0.000000001
 43
0.00000001
 40
0.0
 40
0.0
 40
0.0
 40
0.0
 40
0.2500000000000009
 40
0.2500000000000009
 40
0.2500000000000009
 40
0.2500000000000009
 10
9.950000000000014
 20
-8.094999999999999
 30
0.0
 10
9.85021927568766
 20
-8.094999999999999
 30
0.0
 10
9.74848957472027
 20
-8.094999999999999
 30
0.0
 10
9.656770208427368
 20
-8.094999999999999
 30
0.0
  0
SPLINE
  5
2B4
330
1F
100
AcDbEntity
  8
1
  6
SLD-Solid
370
    25
100
AcDbSpline
210
0.0
220
0.0
230
1.0
 70
    24
 71
     3
 72
     8
 73
     4
 74
     0
 42
0.000000001
 43
0.00000001
 40
0.2500000000000009
 40
0.2500000000000009
 40
0.2500000000000009
 40
0.2500000000000009
 40
0.5000000000000018
 40
0.5000000000000018
 40
0.5000000000000018
 40
0.5000000000000018
 10
9.656770208427368
 20
-8.094999999999999
 30
0.0
 10
9.565050842134465
 20
-8.094999999999999
 30
0.0
 10
9.481946114451508
 20
-8.094999999999999
 30
0.0
 10
9.413655347818711
 20
-8.094999999999985
 30
0.0
  0
SPLINE
  5
2B5
330
1F
100
AcDbEntity
  8
1
  6
SLD-Solid
370
    25
100
AcDbSpline
210
0.0
220
0.0
230
1.0
 70
    24
 71
     2
 72
     6
 73
     3
 74
     0
 42
0.000000001
 43
0.00000001
 40
0.5000000000000018
 40
0.5000000000000018
 40
0.5000000000000018
 40
1.0
 40
1.0
 40
1.0
 10
9.413655347818711
 20
-8.094999999999985
 30
0.0
 10
9.277073814553157
 20
-8.094999999999999
 30
0.0
 10
9.199999999999722
 20
-8.094999999999999
 30
0.0
  0
SPLINE
  5
2B6
330
1F
100
AcDbEntity
  8
1
  6
SLD-Solid
370
    25
100
AcDbSpline
210
0.0
220
0.0
230
1.0
 70
     8
 71
     3
 72
    16
 73
    12
 74
     0
 42
0.000000001
 43
0.00000001
 40
0.0
 40
0.0
 40
0.0
 40
0.0
 40
0.2500000000000017
 40
0.2500000000000017
 40
0.5000000000000034
 40
0.5000000000000034
 40
0.7500000000000051
 40
0.7500000000000051
 40
0.8750000000000026
 40
0.8750000000000026
 40
1.0
 40
1.0
 40
1.0
 40
1.0
 10
12.27999999999684
 20
25.71100064078868
 30
0.0
 10
12.39043372689845
 20
25.74239323457944
 30
0.0
 10
12.48882901746025
 20
25.7987325018882
 30
0.0
 10
12.66410334854888
 20
25.94245138604112
 30
0.0
 10
12.7378884134135
 20
26.02725745595261
 30
0.0
 10
12.8642212691194
 20
26.2168303701315
 30
0.0
 10
12.9162824059121
 20
26.32104193278872
 30
0.0
 10
12.97661386675239
 20
26.49190672933528
 30
0.0
 10
12.99395951695428
 20
26.55178250641627
 30
0.0
 10
13.02063019805652
 20
26.67965382866436
 30
0.0
 10
13.02999999999684
 20
26.7491186724521
 30
0.0
 10
13.02999999999684
 20
26.81342395598517
 30
0.0
  0
SPLINE
  5
2B7
330
1F
100
AcDbEntity
  8
1
  6
SLD-Solid
370
    25
100
AcDbSpline
210
0.0
220
0.0
230
1.0
 70
    24
 71
     3
 72
     8
 73
     4
 74
     0
 42
0.000000001
 43
0.00000001
 40
0.0
 40
0.0
 40
0.0
 40
0.0
 40
0.2500000000000016
 40
0.2500000000000016
 40
0.2500000000000016
 40
0.2500000000000016
 10
12.27999999999682
 20
8.094999999999999
 30
0.0
 10
12.37978072430909
 20
8.094999999997597
 30
0.0
 10
12.48151042527638
 20
8.09499999999514
 30
0.0
 10
12.57322979156922
 20
8.094999999992934
 30
0.0
  0
SPLINE
  5
2B8
330
1F
100
AcDbEntity
  8
1
  6
SLD-Solid
370
    25
100
AcDbSpline
210
0.0
220
0.0
230
1.0
 70
    24
 71
     3
 72
     8
 73
     4
 74
     0
 42
0.000000001
 43
0.00000001
 40
0.2500000000000016
 40
0.2500000000000016
 40
0.2500000000000016
 40
0.2500000000000016
 40
0.5000000000000032
 40
0.5000000000000032
 40
0.5000000000000032
 40
0.5000000000000032
 10
12.57322979156922
 20
8.094999999992934
 30
0.0
 10
12.66494915786205
 20
8.094999999992934
 30
0.0
 10
12.74805388554495
 20
8.094999999992941
 30
0.0
 10
12.81634465217772
 20
8.094999999992941
 30
0.0
  0
SPLINE
  5
2B9
330
1F
100
AcDbEntity
  8
1
  6
SLD-Solid
370
    25
100
AcDbSpline
210
0.0
220
0.0
230
1.0
 70
    24
 71
     2
 72
     6
 73
     3
 74
     0
 42
0.000000001
 43
0.00000001
 40
0.5000000000000032
 40
0.5000000000000032
 40
0.5000000000000032
 40
1.0
 40
1.0
 40
1.0
 10
12.81634465217772
 20
8.094999999992941
 30
0.0
 10
12.95292618544329
 20
8.094999999992934
 30
0.0
 10
13.02999999999684
 20
8.094999999992934
 30
0.0
  0
SPLINE
  5
2BA
330
1F
100
AcDbEntity
  8
1
  6
SLD-Solid
370
    25
100
AcDbSpline
210
0.0
220
0.0
230
1.0
 70
     8
 71
     3
 72
    12
 73
     8
 74
     0
 42
0.000000001
 43
0.00000001
 40
0.0
 40
0.0
 40
0.0
 40
0.0
 40
0.25
 40
0.25
 40
0.5
 40
0.5
 40
1.0
 40
1.0
 40
1.0
 40
1.0
 10
9.94999999999685
 20
25.71100064078868
 30
0.0
 10
10.11987070991419
 20
25.66271211206652
 30
0.0
 10
10.30396582361802
 20
25.62527590633429
 30
0.0
 10
10.70032541250136
 20
25.57346530882964
 30
0.0
 10
10.90572162653106
 20
25.56022125844617
 30
0.0
 10
11.52828854875021
 20
25.55999751387887
 30
0.0
 10
11.94025576621634
 20
25.61442278343421
 30
0.0
 10
12.27999999999684
 20
25.71100064078868
 30
0.0
  0
SPLINE
  5
2BB
330
1F
100
AcDbEntity
  8
1
  6
SLD-Solid
370
    25
100
AcDbSpline
210
0.0
220
0.0
230
1.0
 70
     8
 71
     3
 72
    12
 73
     8
 74
     0
 42
0.000000001
 43
0.00000001
 40
0.0
 40
0.0
 40
0.0
 40
0.0
 40
0.25
 40
0.25
 40
0.5
 40
0.5
 40
1.0
 40
1.0
 40
1.0
 40
1.0
 10
3.949999999999995
 20
-25.91022964004758
 30
0.0
 10
3.840647431218688
 20
-25.91022964004756
 30
0.0
 10
3.731411799312467
 20
-25.87992796563979
 30
0.0
 10
3.538605968889039
 20
-25.77047014941628
 30
0.0
 10
3.456827742746013
 20
-25.69343095107757
 30
0.0
 10
3.262709090922661
 20
-25.42763934306025
 30
0.0
 10
3.200000000003672
 20
-25.20425093593309
 30
0.0
 10
3.199999999999994
 20
-24.98554582155403
 30
0.0
  0
SPLINE
  5
2BC
330
1F
100
AcDbEntity
  8
1
  6
SLD-Solid
370
    25
100
AcDbSpline
210
0.0
220
0.0
230
1.0
 70
     8
 71
     3
 72
    12
 73
     8
 74
     0
 42
0.000000001
 43
0.00000001
 40
0.0
 40
0.0
 40
0.0
 40
0.0
 40
0.5000000000000023
 40
0.5000000000000023
 40
0.7500000000000011
 40
0.7500000000000011
 40
1.0
 40
1.0
 40
1.0
 40
1.0
 10
19.05
 20
-24.98554582153449
 30
0.0
 10
19.05
 20
-25.20557810036769
 30
0.0
 10
18.98853102466325
 20
-25.4253267437946
 30
0.0
 10
18.79383121800841
 20
-25.69283297454338
 30
0.0
 10
18.71149076980415
 20
-25.77032859015185
 30
0.0
 10
18.51931186109924
 20
-25.87960340703118
 30
0.0
 10
18.40982431419734
 20
-25.91022964004756
 30
0.0
 10
18.3
 20
-25.91022964004758
 30
0.0
  0
SPLINE
  5
2BD
330
1F
100
AcDbEntity
  8
1
  6
SLD-Solid
370
    25
100
AcDbSpline
210
0.0
220
0.0
230
1.0
 70
     8
 71
     3
 72
     8
 73
     4
 74
     0
 42
0.000000001
 43
0.00000001
 40
0.0
 40
0.0
 40
0.0
 40
0.0
 40
1.0
 40
1.0
 40
1.0
 40
1.0
 10
9.2
 20
-22.41333264622108
 30
0.0
 10
8.676967883160344
 20
-23.58413672808592
 30
0.0
 10
8.1398315289352
 20
-24.74996546403979
 30
0.0
 10
7.59316335794323
 20
-25.91022964004758
 30
0.0
  0
SPLINE
  5
2BE
330
1F
100
AcDbEntity
  8
1
  6
SLD-Solid
370
    25
100
AcDbSpline
210
0.0
220
0.0
230
1.0
 70
     8
 71
     3
 72
    14
 73
    10
 74
     0
 42
0.000000001
 43
0.00000001
 40
0.0
 40
0.0
 40
0.0
 40
0.0
 40
0.25
 40
0.25
 40
0.5
 40
0.5
 40
0.75
 40
0.75
 40
1.0
 40
1.0
 40
1.0
 40
1.0
 10
13.03000000000001
 20
-22.13232929449585
 30
0.0
 10
13.03000000000001
 20
-22.01875316848331
 30
0.0
 10
13.01474791688558
 20
-21.90465396632408
 30
0.0
 10
12.9531168253044
 20
-21.68551840407664
 30
0.0
 10
12.90786960433897
 20
-21.58218135241124
 30
0.0
 10
12.78080942177161
 20
-21.39129413692185
 30
0.0
 10
12.69983717372221
 20
-21.30678247587391
 30
0.0
 10
12.50685025824862
 20
-21.18493889661091
 30
0.0
 10
12.39411145370377
 20
-21.14893614345646
 30
0.0
 10
12.28
 20
-21.14893614345647
 30
0.0
  0
SPLINE
  5
2BF
330
1F
100
AcDbEntity
  8
1
  6
SLD-Solid
370
    25
100
AcDbSpline
210
0.0
220
0.0
230
1.0
 70
     8
 71
     3
 72
     8
 73
     4
 74
     0
 42
0.000000001
 43
0.00000001
 40
0.0
 40
0.0
 40
0.0
 40
0.0
 40
1.0
 40
1.0
 40
1.0
 40
1.0
 10
14.63683664205676
 20
-25.91022964004758
 30
0.0
 10
14.0901684710648
 20
-24.74996546403978
 30
0.0
 10
13.55303211683966
 20
-23.58413672808591
 30
0.0
 10
13.03000000000001
 20
-22.41333264622106
 30
0.0
  0
SPLINE
  5
2C0
330
1F
100
AcDbEntity
  8
1
  6
SLD-Solid
370
    25
100
AcDbSpline
210
0.0
220
0.0
230
1.0
 70
     8
 71
     3
 72
    14
 73
    10
 74
     0
 42
0.000000001
 43
0.00000001
 40
0.0
 40
0.0
 40
0.0
 40
0.0
 40
0.1249999999999982
 40
0.1249999999999982
 40
0.2499999999999964
 40
0.2499999999999964
 40
0.4999999999999969
 40
0.4999999999999969
 40
1.0
 40
1.0
 40
1.0
 40
1.0
 10
9.950000000000014
 20
-21.14893614345647
 30
0.0
 10
9.893223661227275
 20
-21.14893614345647
 30
0.0
 10
9.835184734431277
 20
-21.15782630300203
 30
0.0
 10
9.725709414661443
 20
-21.19144609061743
 30
0.0
 10
9.674526227399685
 20
-21.21560556432989
 30
0.0
 10
9.530077159662323
 20
-21.30690106897559
 30
0.0
 10
9.448993190155075
 20
-21.39170378208912
 30
0.0
 10
9.259877421569945
 20
-21.67548088616528
 30
0.0
 10
9.2
 20
-21.90492065088522
 30
0.0
 10
9.2
 20
-22.13232929449588
 30
0.0
  0
SPLINE
  5
2C1
330
1F
100
AcDbEntity
  8
1
  6
SLD-Solid
370
    25
100
AcDbSpline
210
0.0
220
0.0
230
1.0
 70
     8
 71
     3
 72
    16
 73
    12
 74
     0
 42
0.000000001
 43
0.00000001
 40
0.0
 40
0.0
 40
0.0
 40
0.0
 40
0.2500000000000011
 40
0.2500000000000011
 40
0.5000000000000021
 40
0.5000000000000021
 40
0.7500000000000031
 40
0.7500000000000031
 40
0.8750000000000016
 40
0.8750000000000016
 40
1.0
 40
1.0
 40
1.0
 40
1.0
 10
9.949999999999918
 20
26.82301853349019
 30
0.0
 10
9.839566273098288
 20
26.80027599034485
 30
0.0
 10
9.74117098253649
 20
26.79683942016773
 30
0.0
 10
9.565896651447872
 20
26.81222120094813
 30
0.0
 10
9.492111586583253
 20
26.83083008839228
 30
0.0
 10
9.365778730877365
 20
26.88495833898958
 30
0.0
 10
9.313717594084656
 20
26.91972746121535
 30
0.0
 10
9.253386133244376
 20
26.99319708569395
 30
0.0
 10
9.236040483042482
 20
27.02133912772177
 30
0.0
 10
9.209369801940259
 20
27.0958912640421
 30
0.0
 10
9.199999999999973
 20
27.14371862289293
 30
0.0
 10
9.199999999999985
 20
27.20802390642598
 30
0.0
  0
SPLINE
  5
2C2
330
1F
100
AcDbEntity
  8
1
  6
SLD-Solid
370
    25
100
AcDbSpline
210
0.0
220
0.0
230
1.0
 70
     8
 71
     3
 72
    12
 73
     8
 74
     0
 42
0.000000001
 43
0.00000001
 40
0.0
 40
0.0
 40
0.0
 40
0.0
 40
0.25
 40
0.25
 40
0.5
 40
0.5
 40
1.0
 40
1.0
 40
1.0
 40
1.0
 10
12.2799999999999
 20
26.82301853349013
 30
0.0
 10
12.11012929008257
 20
26.85800143280736
 30
0.0
 10
11.92603417637875
 20
26.88390423639618
 30
0.0
 10
11.52967458749539
 20
26.91937262947673
 30
0.0
 10
11.3242783734657
 20
26.92817666438654
 30
0.0
 10
10.70171145124653
 20
26.92832683986094
 30
0.0
 10
10.2897442337804
 20
26.89298491162408
 30
0.0
 10
9.949999999999918
 20
26.82301853349019
 30
0.0
  0
SPLINE
  5
2C3
330
1F
100
AcDbEntity
  8
1
  6
SLD-Solid
370
    25
100
AcDbSpline
210
0.0
220
0.0
230
1.0
 70
     8
 71
     3
 72
    16
 73
    12
 74
     0
 42
0.000000001
 43
0.00000001
 40
0.0
 40
0.0
 40
0.0
 40
0.0
 40
0.1250000000000009
 40
0.1250000000000009
 40
0.2500000000000018
 40
0.2500000000000018
 40
0.5000000000000012
 40
0.5000000000000012
 40
0.7500000000000007
 40
0.7500000000000007
 40
1.0
 40
1.0
 40
1.0
 40
1.0
 10
13.02999999999674
 20
27.20802390643122
 30
0.0
 10
13.02999999999674
 20
27.1446821491779
 30
0.0
 10
13.02043617209531
 20
27.09517885573592
 30
0.0
 10
12.99383439190181
 20
27.02116147442295
 30
0.0
 10
12.97639301331741
 20
26.99288151408816
 30
0.0
 10
12.91617272175435
 20
26.9196877827192
 30
0.0
 10
12.86505291028743
 20
26.8853831151977
 30
0.0
 10
12.73798903551605
 20
26.8308052475017
 30
0.0
 10
12.66388408656435
 20
26.81227314493874
 30
0.0
 10
12.49051699737103
 20
26.79691696881303
 30
0.0
 10
12.39034027411391
 20
26.80029523586116
 30
0.0
 10
12.2799999999999
 20
26.82301853349013
 30
0.0
  0
SPLINE
  5
2C4
330
1F
100
AcDbEntity
  8
SK3
  6
SLD-Dashed
370
    18
100
AcDbSpline
210
0.0
220
0.0
230
1.0
 70
     8
 71
     3
 72
     8
 73
     4
 74
     0
 42
0.000000001
 43
0.00000001
 40
0.0
 40
0.0
 40
0.0
 40
0.0
 40
1.0
 40
1.0
 40
1.0
 40
1.0
 10
9.128576702935337
 20
23.28997611937698
 30
0.0
 10
9.11072723455235
 20
23.27357610829826
 30
0.0
 10
9.110717684123317
 20
23.21873966459207
 30
0.0
 10
9.12857670293594
 20
23.13083934744693
 30
0.0
  0
SPLINE
  5
2C5
330
1F
100
AcDbEntity
  8
SK3
  6
SLD-Dashed
370
    18
100
AcDbSpline
210
0.0
220
0.0
230
1.0
 70
     8
 71
     3
 72
    34
 73
    30
 74
     0
 42
0.000000001
 43
0.00000001
 40
0.4999999999999976
 40
0.4999999999999976
 40
0.4999999999999976
 40
0.4999999999999976
 40
0.562499999999998
 40
0.562499999999998
 40
0.5937499999999983
 40
0.5937499999999983
 40
0.6249999999999987
 40
0.6249999999999987
 40
0.656249999999999
 40
0.656249999999999
 40
0.6874999999999993
 40
0.6874999999999993
 40
0.7499999999999998
 40
0.7499999999999998
 40
0.7812499999999998
 40
0.7812499999999998
 40
0.8124999999999998
 40
0.8124999999999998
 40
0.8437499999999999
 40
0.8437499999999999
 40
0.8749999999999999
 40
0.8749999999999999
 40
0.9062499999999999
 40
0.9062499999999999
 40
0.9374999999999999
 40
0.9374999999999999
 40
0.96875
 40
0.96875
 40
1.0
 40
1.0
 40
1.0
 40
1.0
 10
10.4498945734645
 20
20.83939046133178
 30
0.0
 10
10.59263203931582
 20
20.61623535383182
 30
0.0
 10
10.74572898252596
 20
20.40034020612855
 30
0.0
 10
11.02346457422351
 20
20.11974774983988
 30
0.0
 10
11.12372720463399
 20
20.03506133841345
 30
0.0
 10
11.34651412887493
 20
19.90202523848854
 30
0.0
 10
11.4678847494719
 20
19.85636932238475
 30
0.0
 10
11.71475803299395
 20
19.81834705508891
 30
0.0
 10
11.83869929941914
 20
19.82541361136528
 30
0.0
 10
12.06754486308012
 20
19.87113904737418
 30
0.0
 10
12.17335137945201
 20
19.90901688262058
 30
0.0
 10
12.45826053814743
 20
20.04338706304561
 30
0.0
 10
12.60079742123002
 20
20.15748101913771
 30
0.0
 10
12.72395241472731
 20
20.31637956905152
 30
0.0
 10
12.75035560308828
 20
20.3686983002106
 30
0.0
 10
12.77026974501039
 20
20.46407068698104
 30
0.0
 10
12.76437513382361
 20
20.50809579026946
 30
0.0
 10
12.72033810945412
 20
20.58670273274056
 30
0.0
 10
12.68302095968713
 20
20.62036391382856
 30
0.0
 10
12.57844952904385
 20
20.6788030396501
 30
0.0
 10
12.51125932456627
 20
20.70315217179686
 30
0.0
 10
12.35309446794182
 20
20.74506697422294
 30
0.0
 10
12.25993473983125
 20
20.76306355348386
 30
0.0
 10
12.05554915126639
 20
20.80054797821104
 30
0.0
 10
11.9443214784509
 20
20.81988880904708
 30
0.0
 10
11.70236550523705
 20
20.87856381245234
 30
0.0
 10
11.57681201416269
 20
20.91779460819587
 30
0.0
 10
11.33321027169287
 20
21.02911527108175
 30
0.0
 10
11.21910590689122
 20
21.09953242026532
 30
0.0
 10
11.115
 20
21.17875161027495
 30
0.0
  0
SPLINE
  5
2C6
330
1F
100
AcDbEntity
  8
SK3
  6
SLD-Dashed
370
    18
100
AcDbSpline
210
0.0
220
0.0
230
1.0
 70
     8
 71
     3
 72
    32
 73
    28
 74
     0
 42
0.000000001
 43
0.00000001
 40
0.0
 40
0.0
 40
0.0
 40
0.0
 40
0.0312499999999999
 40
0.0312499999999999
 40
0.0624999999999998
 40
0.0624999999999998
 40
0.1249999999999991
 40
0.1249999999999991
 40
0.1874999999999984
 40
0.1874999999999984
 40
0.2187499999999981
 40
0.2187499999999981
 40
0.2499999999999978
 40
0.2499999999999978
 40
0.2812499999999978
 40
0.2812499999999978
 40
0.3124999999999977
 40
0.3124999999999977
 40
0.3437499999999976
 40
0.3437499999999976
 40
0.3749999999999975
 40
0.3749999999999975
 40
0.4062499999999974
 40
0.4062499999999974
 40
0.4374999999999973
 40
0.4374999999999973
 40
0.4999999999999976
 40
0.4999999999999976
 40
0.4999999999999976
 40
0.4999999999999976
 10
11.115
 20
21.17875161027495
 30
0.0
 10
11.01089409310878
 20
21.25797080028458
 30
0.0
 10
10.91907857642198
 20
21.34285059862824
 30
0.0
 10
10.74762137377526
 20
21.51739232411443
 30
0.0
 10
10.66818813797005
 20
21.60711674781948
 30
0.0
 10
10.44047236553634
 20
21.87810823988764
 30
0.0
 10
10.30542057236915
 20
22.05723493175803
 30
0.0
 10
10.0525870356363
 20
22.39465868829964
 30
0.0
 10
9.93481360775797
 20
22.55444913615408
 30
0.0
 10
9.770188160048127
 20
22.76413869711339
 30
0.0
 10
9.717965925809105
 20
22.82813217252617
 30
0.0
 10
9.623196888300573
 20
22.93456489587036
 30
0.0
 10
9.579891013149599
 20
22.97806553251085
 30
0.0
 10
9.508588627253497
 20
23.02840087322286
 30
0.0
 10
9.481892276768475
 20
23.03332613058727
 30
0.0
 10
9.459811777617274
 20
22.98326804514635
 30
0.0
 10
9.465063840888217
 20
22.92678738490279
 30
0.0
 10
9.505124926315847
 20
22.76846886513447
 30
0.0
 10
9.538244242074112
 20
22.67034415658176
 30
0.0
 10
9.619247903804611
 20
22.45687868614511
 30
0.0
 10
9.665743567469118
 20
22.34495490160376
 30
0.0
 10
9.766569607309567
 20
22.11524263911089
 30
0.0
 10
9.821244160784545
 20
21.99690704152574
 30
0.0
 10
9.934291731587845
 20
21.76239601491104
 30
0.0
 10
9.993038231873266
 20
21.64535767447227
 30
0.0
 10
10.17595206270196
 20
21.29563855276318
 30
0.0
 10
10.30715710761319
 20
21.06254556883174
 30
0.0
 10
10.4498945734645
 20
20.83939046133178
 30
0.0
  0
SPLINE
  5
2C7
330
1F
100
AcDbEntity
  8
SK3
  6
SLD-Dashed
370
    18
100
AcDbSpline
210
0.0
220
0.0
230
1.0
 70
     8
 71
     3
 72
    38
 73
    34
 74
     0
 42
0.000000001
 43
0.00000001
 40
0.5000000000000008
 40
0.5000000000000008
 40
0.5000000000000008
 40
0.5000000000000008
 40
0.5312500000000011
 40
0.5312500000000011
 40
0.5625000000000014
 40
0.5625000000000014
 40
0.5937500000000017
 40
0.5937500000000017
 40
0.625000000000002
 40
0.625000000000002
 40
0.6562500000000023
 40
0.6562500000000023
 40
0.6875000000000027
 40
0.6875000000000027
 40
0.718750000000003
 40
0.718750000000003
 40
0.7500000000000032
 40
0.7500000000000032
 40
0.812500000000003
 40
0.812500000000003
 40
0.8437500000000026
 40
0.8437500000000026
 40
0.8750000000000021
 40
0.8750000000000021
 40
0.9062500000000017
 40
0.9062500000000017
 40
0.9375000000000011
 40
0.9375000000000011
 40
0.9687500000000007
 40
0.9687500000000007
 40
0.9843750000000003
 40
0.9843750000000003
 40
1.0
 40
1.0
 40
1.0
 40
1.0
 10
9.562165917302204
 20
18.47093598961304
 30
0.0
 10
9.606669608828778
 20
18.52416098688806
 30
0.0
 10
9.66691221033697
 20
18.57938849438463
 30
0.0
 10
9.811812632231549
 20
18.68375239917333
 30
0.0
 10
9.897567425050546
 20
18.73401424472705
 30
0.0
 10
10.09207138823538
 20
18.8199322275476
 30
0.0
 10
10.19846038260036
 20
18.85489400372537
 30
0.0
 10
10.42991716747883
 20
18.89353738847553
 30
0.0
 10
10.55509168137393
 20
18.89577731622843
 30
0.0
 10
10.80142802631484
 20
18.84685379350589
 30
0.0
 10
10.92088750473039
 20
18.79569165197122
 30
0.0
 10
11.13971660654367
 20
18.65451476066453
 30
0.0
 10
11.23726506040235
 20
18.5677009318593
 30
0.0
 10
11.41790338683531
 20
18.37844427042388
 30
0.0
 10
11.50153843453278
 20
18.27510513220281
 30
0.0
 10
11.65792087602184
 20
18.06321384263407
 30
0.0
 10
11.73120965691783
 20
17.95392511395891
 30
0.0
 10
11.94219226675071
 20
17.61974155296101
 30
0.0
 10
12.07203185085186
 20
17.3873463276272
 30
0.0
 10
12.2544726636621
 20
17.03574839840396
 30
0.0
 10
12.3128811159902
 20
16.91845212228916
 30
0.0
 10
12.42478986086722
 20
16.68436964494052
 30
0.0
 10
12.47864510461585
 20
16.56677083259166
 30
0.0
 10
12.57771343290431
 20
16.33866118066524
 30
0.0
 10
12.62343468736299
 20
16.22711687706209
 30
0.0
 10
12.70112312343485
 20
16.01827980161889
 30
0.0
 10
12.7325049221496
 20
15.92212850952399
 30
0.0
 10
12.76725985948271
 20
15.77300891717614
 30
0.0
 10
12.76963724396989
 20
15.72182794413952
 30
0.0
 10
12.74922628849655
 20
15.69153457680419
 30
0.0
 10
12.73857436485566
 20
15.68875344160839
 30
0.0
 10
12.71187670664381
 20
15.69536171497653
 30
0.0
 10
12.69586259956382
 20
15.70450089689617
 30
0.0
 10
12.67730763443388
 20
15.71862026199412
 30
0.0
  0
SPLINE
  5
2C8
330
1F
100
AcDbEntity
  8
SK3
  6
SLD-Dashed
370
    18
100
AcDbSpline
210
0.0
220
0.0
230
1.0
 70
     8
 71
     3
 72
    32
 73
    28
 74
     0
 42
0.000000001
 43
0.00000001
 40
0.0
 40
0.0
 40
0.0
 40
0.0
 40
0.03125
 40
0.03125
 40
0.0625
 40
0.0625
 40
0.1249999999999999
 40
0.1249999999999999
 40
0.1874999999999999
 40
0.1874999999999999
 40
0.2187499999999998
 40
0.2187499999999998
 40
0.2499999999999998
 40
0.2499999999999998
 40
0.2812499999999998
 40
0.2812499999999998
 40
0.3124999999999997
 40
0.3124999999999997
 40
0.3437499999999997
 40
0.3437499999999997
 40
0.3749999999999997
 40
0.3749999999999997
 40
0.4375000000000002
 40
0.4375000000000002
 40
0.4687500000000004
 40
0.4687500000000004
 40
0.5000000000000008
 40
0.5000000000000008
 40
0.5000000000000008
 40
0.5000000000000008
 10
12.67730763443388
 20
15.71862026199412
 30
0.0
 10
12.64019770417399
 20
15.74685899219002
 30
0.0
 10
12.59620302127296
 20
15.79224259566823
 30
0.0
 10
12.49971880657838
 20
15.9022963991526
 30
0.0
 10
12.44665882244547
 20
15.96790322450679
 30
0.0
 10
12.28056941339611
 20
16.18069042781309
 30
0.0
 10
12.16116169070405
 20
16.34294467859648
 30
0.0
 10
11.90308945990524
 20
16.68678550781622
 30
0.0
 10
11.76485718622873
 20
16.8691349791612
 30
0.0
 10
11.53444141192582
 20
17.13967173638347
 30
0.0
 10
11.4534840088554
 20
17.22963068267214
 30
0.0
 10
11.27594996715919
 20
17.40558287635432
 30
0.0
 10
11.18041818036962
 20
17.49045861876101
 30
0.0
 10
10.96802844471279
 20
17.64380301353633
 30
0.0
 10
10.85203519791082
 20
17.71043612197694
 30
0.0
 10
10.60633681320568
 20
17.8142110669719
 30
0.0
 10
10.48187270231064
 20
17.84965901655796
 30
0.0
 10
10.24397755356146
 20
17.90370925451105
 30
0.0
 10
10.1345938444909
 20
17.9222053597261
 30
0.0
 10
9.934042005980901
 20
17.95947433583487
 30
0.0
 10
9.845027015680575
 20
17.97770297449698
 30
0.0
 10
9.616531880722908
 20
18.0431335092885
 30
0.0
 10
9.51624357324074
 20
18.10241425150425
 30
0.0
 10
9.462270080515312
 20
18.22319269411326
 30
0.0
 10
9.460111331805908
 20
18.26770507956405
 30
0.0
 10
9.487789440891751
 20
18.3654332474002
 30
0.0
 10
9.517662225775616
 20
18.41771099233802
 30
0.0
 10
9.562165917302204
 20
18.47093598961304
 30
0.0
  0
SPLINE
  5
2C9
330
1F
100
AcDbEntity
  8
SK3
  6
SLD-Dashed
370
    18
100
AcDbSpline
210
0.0
220
0.0
230
1.0
 70
     8
 71
     3
 72
    30
 73
    26
 74
     0
 42
0.000000001
 43
0.00000001
 40
0.4999999999999997
 40
0.4999999999999997
 40
0.4999999999999997
 40
0.4999999999999997
 40
0.5624999999999999
 40
0.5624999999999999
 40
0.625
 40
0.625
 40
0.65625
 40
0.65625
 40
0.6875
 40
0.6875
 40
0.71875
 40
0.71875
 40
0.7499999999999999
 40
0.7499999999999999
 40
0.7812500000000001
 40
0.7812500000000001
 40
0.8125000000000003
 40
0.8125000000000003
 40
0.8750000000000002
 40
0.8750000000000002
 40
0.9375
 40
0.9375
 40
0.96875
 40
0.96875
 40
1.0
 40
1.0
 40
1.0
 40
1.0
 10
11.76979658556573
 20
-17.89232296268974
 30
0.0
 10
11.91246294966131
 20
-17.67070440556975
 30
0.0
 10
12.04384136644407
 20
-17.43839527667695
 30
0.0
 10
12.28743240561786
 20
-16.9748303196765
 30
0.0
 10
12.4007403709436
 20
-16.74140211064309
 30
0.0
 10
12.55447570845299
 20
-16.39375558576602
 30
0.0
 10
12.60138543677659
 20
-16.28170289315484
 30
0.0
 10
12.68295201157341
 20
-16.06989778885581
 30
0.0
 10
12.71817196931761
 20
-15.96819079433429
 30
0.0
 10
12.76213654526595
 20
-15.80428414547202
 30
0.0
 10
12.77026091463636
 20
-15.74311791179766
 30
0.0
 10
12.75239776164137
 20
-15.68353507622142
 30
0.0
 10
12.72724833739217
 20
-15.6852383443289
 30
0.0
 10
12.65908666407788
 20
-15.72953787216991
 30
0.0
 10
12.61568164729128
 20
-15.77187993935918
 30
0.0
 10
12.52100924552238
 20
-15.87679896563816
 30
0.0
 10
12.46941331137413
 20
-15.93961580200764
 30
0.0
 10
12.30490621332259
 20
-16.14822680602848
 30
0.0
 10
12.18517846713216
 20
-16.31053867976721
 30
0.0
 10
11.92983731616862
 20
-16.65147882946563
 30
0.0
 10
11.79267665531762
 20
-16.83353639743864
 30
0.0
 10
11.56451158979958
 20
-17.1054429386893
 30
0.0
 10
11.48485276967111
 20
-17.19558760882547
 30
0.0
 10
11.31258630900467
 20
-17.37124855765229
 30
0.0
 10
11.21906269051034
 20
-17.45771014988547
 30
0.0
 10
11.115
 20
-17.53689645447305
 30
0.0
  0
SPLINE
  5
2CA
330
1F
100
AcDbEntity
  8
SK3
  6
SLD-Dashed
370
    18
100
AcDbSpline
210
0.0
220
0.0
230
1.0
 70
     8
 71
     3
 72
    34
 73
    30
 74
     0
 42
0.000000001
 43
0.00000001
 40
0.0
 40
0.0
 40
0.0
 40
0.0
 40
0.03125
 40
0.03125
 40
0.0625
 40
0.0625
 40
0.0937499999999999
 40
0.0937499999999999
 40
0.1249999999999999
 40
0.1249999999999999
 40
0.1562499999999999
 40
0.1562499999999999
 40
0.1874999999999999
 40
0.1874999999999999
 40
0.2499999999999998
 40
0.2499999999999998
 40
0.3124999999999998
 40
0.3124999999999998
 40
0.3437499999999998
 40
0.3437499999999998
 40
0.3749999999999998
 40
0.3749999999999998
 40
0.4062499999999997
 40
0.4062499999999997
 40
0.4374999999999997
 40
0.4374999999999997
 40
0.4687499999999997
 40
0.4687499999999997
 40
0.4999999999999997
 40
0.4999999999999997
 40
0.4999999999999997
 40
0.4999999999999997
 10
11.115
 20
-17.53689645447305
 30
0.0
 10
11.01093730948964
 20
-17.61608275906062
 30
0.0
 10
10.8982724014305
 20
-17.68568655045027
 30
0.0
 10
10.65524603173766
 20
-17.79707922957898
 30
0.0
 10
10.53100003630447
 20
-17.83608132712159
 30
0.0
 10
10.2904047263383
 20
-17.89479374448361
 30
0.0
 10
10.17852991293557
 20
-17.91436206658054
 30
0.0
 10
9.971641719228334
 20
-17.95228558252374
 30
0.0
 10
9.88014021175608
 20
-17.96985838929501
 30
0.0
 10
9.720479632928768
 20
-18.01190468167745
 30
0.0
 10
9.653640231842244
 20
-18.03603027826314
 30
0.0
 10
9.549145986449417
 20
-18.09373421516214
 30
0.0
 10
9.510668589618188
 20
-18.12800625055017
 30
0.0
 10
9.44414422677005
 20
-18.24422870024206
 30
0.0
 10
9.463570934642728
 20
-18.34292442278661
 30
0.0
 10
9.625438460184737
 20
-18.55480157919675
 30
0.0
 10
9.767910053168183
 20
-18.6693011139512
 30
0.0
 10
10.04867356462022
 20
-18.80341694907246
 30
0.0
 10
10.15222938652334
 20
-18.84139332547926
 30
0.0
 10
10.38092358660672
 20
-18.88914098662087
 30
0.0
 10
10.50285945052921
 20
-18.89754920765959
 30
0.0
 10
10.75142302172968
 20
-18.86243703960253
 30
0.0
 10
10.87148365715399
 20
-18.81899219989532
 30
0.0
 10
11.09561189675423
 20
-18.68857740517251
 30
0.0
 10
11.19522385975345
 20
-18.60587995809753
 30
0.0
 10
11.38076798793609
 20
-18.42116017956387
 30
0.0
 10
11.46555694339851
 20
-18.32003566241221
 30
0.0
 10
11.6241609189693
 20
-18.1114066507393
 30
0.0
 10
11.69846340351795
 20
-18.00313224124973
 30
0.0
 10
11.76979658556573
 20
-17.89232296268974
 30
0.0
  0
SPLINE
  5
2CB
330
1F
100
AcDbEntity
  8
SK3
  6
SLD-Dashed
370
    18
100
AcDbSpline
210
0.0
220
0.0
230
1.0
 70
     8
 71
     3
 72
    30
 73
    26
 74
     0
 42
0.000000001
 43
0.00000001
 40
0.4999999999999977
 40
0.4999999999999977
 40
0.4999999999999977
 40
0.4999999999999977
 40
0.5312499999999976
 40
0.5312499999999976
 40
0.5624999999999974
 40
0.5624999999999974
 40
0.6249999999999978
 40
0.6249999999999978
 40
0.6874999999999982
 40
0.6874999999999982
 40
0.7187499999999984
 40
0.7187499999999984
 40
0.7499999999999987
 40
0.7499999999999987
 40
0.7812499999999989
 40
0.7812499999999989
 40
0.8124999999999991
 40
0.8124999999999991
 40
0.8437499999999993
 40
0.8437499999999993
 40
0.8749999999999994
 40
0.8749999999999994
 40
0.9374999999999996
 40
0.9374999999999996
 40
1.0
 40
1.0
 40
1.0
 40
1.0
 10
9.543420299935407
 20
-22.65998997114813
 30
0.0
 10
9.57856123373539
 20
-22.56022716883101
 30
0.0
 10
9.622627266507006
 20
-22.4490483994453
 30
0.0
 10
9.718027024245012
 20
-22.2236780839706
 30
0.0
 10
9.77016585958776
 20
-22.10744453751687
 30
0.0
 10
9.935727180931428
 20
-21.75463004044461
 30
0.0
 10
10.05462982796812
 20
-21.52064448601666
 30
0.0
 10
10.31081948707682
 20
-21.0588380163739
 30
0.0
 10
10.4484097443316
 20
-20.82955805298788
 30
0.0
 10
10.67777322328789
 20
-20.50643317375554
 30
0.0
 10
10.75871097916552
 20
-20.40152870512313
 30
0.0
 10
10.9336453512757
 20
-20.20556086715294
 30
0.0
 10
11.02698337642652
 20
-20.11488201047908
 30
0.0
 10
11.23604536410175
 20
-19.96052893895906
 30
0.0
 10
11.35057343779473
 20
-19.89926443941835
 30
0.0
 10
11.5948030246146
 20
-19.828076337675
 30
0.0
 10
11.71945599477357
 20
-19.81958662546977
 30
0.0
 10
11.95950363931199
 20
-19.84303817835688
 30
0.0
 10
12.07031700587895
 20
-19.87318242107357
 30
0.0
 10
12.27422745067751
 20
-19.9520634975628
 30
0.0
 10
12.3650270117984
 20
-20.00025605676592
 30
0.0
 10
12.59959907667484
 20
-20.15399503516338
 30
0.0
 10
12.70444177032678
 20
-20.26792332503298
 30
0.0
 10
12.78609851062196
 20
-20.46801773808175
 30
0.0
 10
12.76320534245741
 20
-20.55399411581357
 30
0.0
 10
12.67730763443392
 20
-20.61935781184681
 30
0.0
  0
SPLINE
  5
2CC
330
1F
100
AcDbEntity
  8
SK3
  6
SLD-Dashed
370
    18
100
AcDbSpline
210
0.0
220
0.0
230
1.0
 70
     8
 71
     3
 72
    34
 73
    30
 74
     0
 42
0.000000001
 43
0.00000001
 40
0.0
 40
0.0
 40
0.0
 40
0.0
 40
0.0312499999999997
 40
0.0312499999999997
 40
0.0624999999999993
 40
0.0624999999999993
 40
0.093749999999999
 40
0.093749999999999
 40
0.1249999999999986
 40
0.1249999999999986
 40
0.1562499999999983
 40
0.1562499999999983
 40
0.1874999999999979
 40
0.1874999999999979
 40
0.2499999999999978
 40
0.2499999999999978
 40
0.3124999999999976
 40
0.3124999999999976
 40
0.3437499999999977
 40
0.3437499999999977
 40
0.3749999999999978
 40
0.3749999999999978
 40
0.4062499999999979
 40
0.4062499999999979
 40
0.4374999999999978
 40
0.4374999999999978
 40
0.4687499999999978
 40
0.4687499999999978
 40
0.4999999999999977
 40
0.4999999999999977
 40
0.4999999999999977
 40
0.4999999999999977
 10
12.67730763443392
 20
-20.61935781184681
 30
0.0
 10
12.6343587804222
 20
-20.65203965986343
 30
0.0
 10
12.57729529856069
 20
-20.67893166493469
 30
0.0
 10
12.43603808962702
 20
-20.72541543980046
 30
0.0
 10
12.35095491427453
 20
-20.74490836916301
 30
0.0
 10
12.16118186397774
 20
-20.78180696819733
 30
0.0
 10
12.05422579636498
 20
-20.79954830523239
 30
0.0
 10
11.82324491388441
 20
-20.84734178875046
 30
0.0
 10
11.69889439480557
 20
-20.87807405413509
 30
0.0
 10
11.45304455248941
 20
-20.9690841785975
 30
0.0
 10
11.33231684279028
 20
-21.03008950406159
 30
0.0
 10
11.11245426351672
 20
-21.17497279059741
 30
0.0
 10
11.01315393168731
 20
-21.25735513703283
 30
0.0
 10
10.73767466537663
 20
-21.51687030422057
 30
0.0
 10
10.58689176004736
 20
-21.69912075795287
 30
0.0
 10
10.30357248622246
 20
-22.0572557390756
 30
0.0
 10
10.17286476490371
 20
-22.23420714395772
 30
0.0
 10
9.99100500559362
 20
-22.47743384821165
 30
0.0
 10
9.932635222666283
 20
-22.55514665472535
 30
0.0
 10
9.82040480561043
 20
-22.70089934625716
 30
0.0
 10
9.766060353100583
 20
-22.7695737764045
 30
0.0
 10
9.665448853514308
 20
-22.88873427842827
 30
0.0
 10
9.619326797725689
 20
-22.93921098612149
 30
0.0
 10
9.53938853672938
 20
-23.01052916562901
 30
0.0
 10
9.505665766297314
 20
-23.03089302097996
 30
0.0
 10
9.465224495380106
 20
-23.01585114589004
 30
0.0
 10
9.459739461343569
 20
-22.97888962661066
 30
0.0
 10
9.48158525523378
 20
-22.84998128766082
 30
0.0
 10
9.508279366135422
 20
-22.75975277346525
 30
0.0
 10
9.543420299935407
 20
-22.65998997114813
 30
0.0
  0
ELLIPSE
  5
2CD
330
1F
100
AcDbEntity
  8
1
  6
SLD-Solid
370
    25
100
AcDbEllipse
 10
102.95
 20
0.0
 30
0.0
 11
16.42073904691421
 21
-16.42073904691412
 31
0.0
210
0.0
220
0.0
230
1.0
 40
0.2679491924
 41
2.936996660444207
 42
3.869787422333722
  0
ELLIPSE
  5
2CE
330
1F
100
AcDbEntity
  8
1
  6
SLD-Solid
370
    25
100
AcDbEllipse
 10
102.95
 20
0.0
 30
0.0
 11
16.42073904691426
 21
16.42073904691415
 31
0.0
210
0.0
220
0.0
230
1.0
 40
0.2679491924
 41
2.413397884845924
 42
3.346188646735474
  0
ELLIPSE
  5
2CF
330
1F
100
AcDbEntity
  8
SK3
  6
SLD-Dashed
370
    18
100
AcDbEllipse
 10
6.0521267237
 20
23.2104077334
 30
0.0
 11
3.098580671678175
 21
0.0
 31
0.0
210
0.0
220
0.0
230
1.0
 40
0.2152402503
 41
6.163596669273424
 42
6.402773945087435
  0
INSERT
  5
2D0
330
1F
100
AcDbEntity
  8
81
100
AcDbBlockReference
  2
Block11
 10
-2.8764826505
 20
-130.2676275275
 30
0.0
  0
INSERT
  5
2D1
330
1F
100
AcDbEntity
  8
80
100
AcDbBlockReference
  2
Block12
 10
-61.7273641656
 20
-130.3356800267
 30
0.0
  0
DIMENSION
  5
2D2
330
1F
100
AcDbEntity
  8
SK2
100
AcDbDimension
  2
_D
 10
19.05
 20
40.7276166529
 30
0.0
 11
9.742359235
 21
40.7276166529
 31
0.0
 70
   160
  1
<>
 71
     2
 42
-1.0
  3
SLDDIMSTYLE0
100
AcDbAlignedDimension
 13
0.0
 23
22.225
 33
0.0
 14
19.05
 24
31.0
 34
0.0
100
AcDbRotatedDimension
  0
DIMENSION
  5
2DE
330
1F
100
AcDbEntity
  8
SK2
100
AcDbDimension
  2
_D_1
 10
100.0
 20
40.7276166529
 30
0.0
 11
59.4042275579
 21
40.7276166529
 31
0.0
 70
   160
  1
<>
 71
     2
 42
-1.0
  3
SLDDIMSTYLE0
100
AcDbAlignedDimension
 13
19.05
 23
31.0
 33
0.0
 14
100.0
 24
14.0
 34
0.0
 50
0.0
100
AcDbRotatedDimension
  0
DIMENSION
  5
2E8
330
1F
100
AcDbEntity
  8
2
100
AcDbDimension
  2
_D_2
 10
0.0
 20
50.2722399942
 30
0.0
 11
49.7312498116
 21
50.2722399942
 31
0.0
 70
   160
  1
<>
 71
     2
 42
-1.0
  3
SLDDIMSTYLE0
100
AcDbAlignedDimension
 13
100.0
 23
14.0
 33
0.0
 14
0.0
 24
22.225
 34
0.0
 50
0.0
100
AcDbRotatedDimension
  0
DIMENSION
  5
2F2
330
1F
100
AcDbEntity
  8
SK2
100
AcDbDimension
  2
_D_3
 10
120.103402301
 20
-17.0
 30
0.0
 11
120.103402301
 21
-0.7712071128
 31
0.0
 70
   160
  1
%%c<>
 71
     2
 42
-1.0
  3
SLDDIMSTYLE0
100
AcDbAlignedDimension
 13
98.2679491924
 23
17.0
 33
0.0
 14
98.2679491924
 24
-17.0
 34
0.0
 50
90.0
100
AcDbRotatedDimension
  0
DIMENSION
  5
2FD
330
1F
100
AcDbEntity
  8
SK2
100
AcDbDimension
  2
_D_4
 10
109.8420771441
 20
10.0
 30
0.0
 11
109.8420771441
 21
-0.7712071128
 31
0.0
 70
   160
  1
%%c<>
 71
     2
 42
-1.0
  3
SLDDIMSTYLE0
100
AcDbAlignedDimension
 13
88.3195865505
 23
-10.0
 33
0.0
 14
88.3195865505
 24
10.0
 34
0.0
 50
90.0
100
AcDbRotatedDimension
  0
DIMENSION
  5
308
330
1F
100
AcDbEntity
  8
SK2
100
AcDbDimension
  2
_D_5
 10
0.0
 20
-41.1146251956
 30
0.0
 11
42.3920773952
 21
-41.1146251956
 31
0.0
 70
   160
  1
<>
 71
     2
 42
-1.0
  3
SLDDIMSTYLE0
100
AcDbAlignedDimension
 13
88.75
 23
-10.4951340344
 33
0.0
 14
0.0
 24
-22.225
 34
0.0
100
AcDbRotatedDimension
  0
DIMENSION
  5
312
330
1F
100
AcDbEntity
  8
SK2
100
AcDbDimension
  2
_D_6
 10
-94.6389461222
 20
-31.75
 30
0.0
 11
-94.6389461222
 21
-0.7712071128
 31
0.0
 70
   160
  1
%%c<>
 71
     2
 42
-1.0
  3
SLDDIMSTYLE0
100
AcDbAlignedDimension
 13
3.95
 23
31.75
 33
0.0
 14
3.95
 24
-31.75
 34
0.0
 50
90.0
100
AcDbRotatedDimension
  0
DIMENSION
  5
31D
330
1F
100
AcDbEntity
  8
SK2
100
AcDbDimension
  2
_D_7
 10
-85.104146351
 20
22.225
 30
0.0
 11
-85.104146351
 21
-0.7712071128
 31
0.0
 70
   160
  1
%%c<>
 71
     2
 42
-1.0
  3
SLDDIMSTYLE0
100
AcDbAlignedDimension
 13
0.0
 23
-22.225
 33
0.0
 14
0.0
 24
22.225
 34
0.0
 50
90.0
100
AcDbRotatedDimension
  0
DIMENSION
  5
328
330
1F
100
AcDbEntity
  8
SK2
100
AcDbDimension
  2
_D_8
 10
-75.5461009736
 20
8.00000038
 30
0.0
 11
-75.5461009736
 21
0.0239109466
 31
0.0
 70
   160
  1
M<>
 71
     2
 42
-1.0
  3
SLDDIMSTYLE0
100
AcDbAlignedDimension
 13
-57.2881214321
 23
-8.00000038
 33
0.0
 14
-57.2881214321
 24
8.00000038
 34
0.0
 50
90.0
100
AcDbRotatedDimension
  0
MTEXT
  5
333
330
1F
100
AcDbEntity
  8
SK6
 62
     5
100
AcDbMText
 10
-67.539920135
 20
-37.6285825289
 30
0.0
 40
3.5
 41
0.0
 71
     1
 72
     1
  1
A1B14-40 20 100
  7
SLDTEXTSTYLE0
 73
     1
 44
1.0
  0
INSERT
  5
339
330
1F
100
AcDbEntity
  8
SK6
 62
     5
100
AcDbBlockReference
  2
SW_NOTE_0
 10
-37.3984276596
 20
38.6634326908
 30
0.0
  0
ENDSEC
  0
SECTION
  2
OBJECTS
  0
DICTIONARY
  5
C
330
0
100
AcDbDictionary
281
     1
  3
ACAD_GROUP
350
D
  3
ACAD_LAYOUT
350
1A
  3
ACAD_MLINESTYLE
350
17
  3
ACAD_PLOTSETTINGS
350
19
  3
ACAD_PLOTSTYLENAME
350
E
  3
ACAD_SCALELIST
350
47
  0
DICTIONARY
  5
D
102
{ACAD_REACTORS
330
C
102
}
330
C
100
AcDbDictionary
281
     1
  0
DICTIONARY
  5
1A
102
{ACAD_REACTORS
330
C
102
}
330
C
100
AcDbDictionary
281
     1
  3
Layout1
350
1E
  3
Layout2
350
26
  3
Model
350
22
  0
DICTIONARY
  5
17
102
{ACAD_REACTORS
330
C
102
}
330
C
100
AcDbDictionary
281
     1
  3
Standard
350
18
  0
DICTIONARY
  5
19
102
{ACAD_REACTORS
330
C
102
}
330
C
100
AcDbDictionary
281
     1
  0
ACDBDICTIONARYWDFLT
  5
E
102
{ACAD_REACTORS
330
C
102
}
330
C
100
AcDbDictionary
281
     1
  3
Normal
350
F
100
AcDbDictionaryWithDefault
340
F
  0
DICTIONARY
  5
47
102
{ACAD_REACTORS
330
C
102
}
330
C
100
AcDbDictionary
281
     1
  3
A0
350
48
  3
A1
350
49
  3
A2
350
4A
  3
A3
350
4B
  3
A4
350
4C
  3
A5
350
4D
  3
A6
350
4E
  3
A7
350
4F
  3
A8
350
50
  3
A9
350
51
  3
B0
350
52
  3
B1
350
53
  3
B2
350
54
  3
B3
350
55
  3
B4
350
56
  3
B5
350
57
  3
B6
350
58
  3
B7
350
59
  3
B8
350
5A
  3
B9
350
5B
  3
C0
350
5C
  3
C1
350
5D
  3
C2
350
5E
  3
C3
350
5F
  3
C4
350
60
  3
C5
350
61
  3
C6
350
62
  3
C7
350
63
  3
C8
350
64
  3
C9
350
65
  3
D0
350
66
  3
D1
350
67
  3
D2
350
68
  0
LAYOUT
  5
1E
102
{ACAD_REACTORS
330
1A
102
}
330
1A
100
AcDbPlotSettings
  1

  2
none_device
  4

  6

 40
0.0
 41
0.0
 42
0.0
 43
0.0
 44
0.0
 45
0.0
 46
0.0
 47
0.0
 48
0.0
 49
0.0
140
0.0
141
0.0
142
1.0
143
1.0
 70
   688
 72
     1
 73
     0
 74
     5
  7

 75
    16
147
1.0
148
0.0
149
0.0
100
AcDbLayout
  1
Layout1
 70
     1
 71
     1
 10
0.0
 20
0.0
 11
420.0
 21
297.0
 12
0.0
 22
0.0
 32
0.0
 14
1.0000000000E+20
 24
1.0000000000E+20
 34
1.0000000000E+20
 15
-1.0000000000E+20
 25
-1.0000000000E+20
 35
-1.0000000000E+20
146
0.0
 13
0.0
 23
0.0
 33
0.0
 16
1.0
 26
0.0
 36
0.0
 17
0.0
 27
1.0
 37
0.0
 76
     0
330
1B
  0
LAYOUT
  5
26
102
{ACAD_REACTORS
330
1A
102
}
330
1A
100
AcDbPlotSettings
  1

  2
none_device
  4

  6

 40
0.0
 41
0.0
 42
0.0
 43
0.0
 44
0.0
 45
0.0
 46
0.0
 47
0.0
 48
0.0
 49
0.0
140
0.0
141
0.0
142
1.0
143
1.0
 70
   688
 72
     1
 73
     0
 74
     5
  7

 75
    16
147
1.0
148
0.0
149
0.0
100
AcDbLayout
  1
Layout2
 70
     1
 71
     2
 10
0.0
 20
0.0
 11
0.0
 21
0.0
 12
0.0
 22
0.0
 32
0.0
 14
0.0
 24
0.0
 34
0.0
 15
0.0
 25
0.0
 35
0.0
146
0.0
 13
0.0
 23
0.0
 33
0.0
 16
1.0
 26
0.0
 36
0.0
 17
0.0
 27
1.0
 37
0.0
 76
     0
330
23
  0
LAYOUT
  5
22
102
{ACAD_REACTORS
330
1A
102
}
330
1A
100
AcDbPlotSettings
  1

  2
none_device
  4
Letter_(8.50_x_11.00_Inches)
  6

 40
6.35
 41
6.35
 42
6.35000508
 43
6.35000508
 44
215.9
 45
279.4
 46
0.0
 47
0.0
 48
0.0
 49
0.0
140
0.0
141
0.0
142
1.0
143
1.0
 70
  1712
 72
     1
 73
     0
 74
     0
  7

 75
     0
147
1.0
148
0.0
149
0.0
100
AcDbLayout
  1
Model
 70
     1
 71
     0
 10
0.0
 20
0.0
 11
297.0
 21
210.0
 12
0.0
 22
0.0
 32
0.0
 14
0.0
 24
0.0
 34
0.0
 15
297.0
 25
210.0
 35
0.0
146
0.0
 13
0.0
 23
0.0
 33
0.0
 16
1.0
 26
0.0
 36
0.0
 17
0.0
 27
1.0
 37
0.0
 76
     0
330
1F
331
29
  0
MLINESTYLE
  5
18
102
{ACAD_REACTORS
330
17
102
}
330
17
100
AcDbMlineStyle
  2
Standard
 70
     0
  3

 62
   256
 51
90.0
 52
90.0
 71
     2
 49
0.5
 62
   256
  6
BYLAYER
 49
-0.5
 62
   256
  6
BYLAYER
  0
ACDBPLACEHOLDER
  5
F
102
{ACAD_REACTORS
330
E
102
}
330
E
  0
SCALE
  5
48
102
{ACAD_REACTORS
330
47
102
}
330
47
100
AcDbScale
 70
     0
300
1:1
140
1.0
141
1.0
290
     1
  0
SCALE
  5
49
102
{ACAD_REACTORS
330
47
102
}
330
47
100
AcDbScale
 70
     0
300
1:2
140
1.0
141
2.0
290
     0
  0
SCALE
  5
4A
102
{ACAD_REACTORS
330
47
102
}
330
47
100
AcDbScale
 70
     0
300
1:4
140
1.0
141
4.0
290
     0
  0
SCALE
  5
4B
102
{ACAD_REACTORS
330
47
102
}
330
47
100
AcDbScale
 70
     0
300
1:5
140
1.0
141
5.0
290
     0
  0
SCALE
  5
4C
102
{ACAD_REACTORS
330
47
102
}
330
47
100
AcDbScale
 70
     0
300
1:8
140
1.0
141
8.0
290
     0
  0
SCALE
  5
4D
102
{ACAD_REACTORS
330
47
102
}
330
47
100
AcDbScale
 70
     0
300
1:10
140
1.0
141
10.0
290
     0
  0
SCALE
  5
4E
102
{ACAD_REACTORS
330
47
102
}
330
47
100
AcDbScale
 70
     0
300
1:16
140
1.0
141
16.0
290
     0
  0
SCALE
  5
4F
102
{ACAD_REACTORS
330
47
102
}
330
47
100
AcDbScale
 70
     0
300
1:20
140
1.0
141
20.0
290
     0
  0
SCALE
  5
50
102
{ACAD_REACTORS
330
47
102
}
330
47
100
AcDbScale
 70
     0
300
1:30
140
1.0
141
30.0
290
     0
  0
SCALE
  5
51
102
{ACAD_REACTORS
330
47
102
}
330
47
100
AcDbScale
 70
     0
300
1:40
140
1.0
141
40.0
290
     0
  0
SCALE
  5
52
102
{ACAD_REACTORS
330
47
102
}
330
47
100
AcDbScale
 70
     0
300
1:50
140
1.0
141
50.0
290
     0
  0
SCALE
  5
53
102
{ACAD_REACTORS
330
47
102
}
330
47
100
AcDbScale
 70
     0
300
1:100
140
1.0
141
100.0
290
     0
  0
SCALE
  5
54
102
{ACAD_REACTORS
330
47
102
}
330
47
100
AcDbScale
 70
     0
300
2:1
140
2.0
141
1.0
290
     0
  0
SCALE
  5
55
102
{ACAD_REACTORS
330
47
102
}
330
47
100
AcDbScale
 70
     0
300
4:1
140
4.0
141
1.0
290
     0
  0
SCALE
  5
56
102
{ACAD_REACTORS
330
47
102
}
330
47
100
AcDbScale
 70
     0
300
8:1
140
8.0
141
1.0
290
     0
  0
SCALE
  5
57
102
{ACAD_REACTORS
330
47
102
}
330
47
100
AcDbScale
 70
     0
300
10:1
140
10.0
141
1.0
290
     0
  0
SCALE
  5
58
102
{ACAD_REACTORS
330
47
102
}
330
47
100
AcDbScale
 70
     0
300
100:1
140
100.0
141
1.0
290
     0
  0
SCALE
  5
59
102
{ACAD_REACTORS
330
47
102
}
330
47
100
AcDbScale
 70
     0
300
1/128" = 1'-0"
140
0.0078125
141
12.0
290
     0
  0
SCALE
  5
5A
102
{ACAD_REACTORS
330
47
102
}
330
47
100
AcDbScale
 70
     0
300
1/64" = 1'-0"
140
0.015625
141
12.0
290
     0
  0
SCALE
  5
5B
102
{ACAD_REACTORS
330
47
102
}
330
47
100
AcDbScale
 70
     0
300
1/32" = 1'-0"
140
0.03125
141
12.0
290
     0
  0
SCALE
  5
5C
102
{ACAD_REACTORS
330
47
102
}
330
47
100
AcDbScale
 70
     0
300
1/16" = 1'-0"
140
0.0625
141
12.0
290
     0
  0
SCALE
  5
5D
102
{ACAD_REACTORS
330
47
102
}
330
47
100
AcDbScale
 70
     0
300
3/32" = 1'-0"
140
0.09375
141
12.0
290
     0
  0
SCALE
  5
5E
102
{ACAD_REACTORS
330
47
102
}
330
47
100
AcDbScale
 70
     0
300
1/8" = 1'-0"
140
0.125
141
12.0
290
     0
  0
SCALE
  5
5F
102
{ACAD_REACTORS
330
47
102
}
330
47
100
AcDbScale
 70
     0
300
3/16" = 1'-0"
140
0.1875
141
12.0
290
     0
  0
SCALE
  5
60
102
{ACAD_REACTORS
330
47
102
}
330
47
100
AcDbScale
 70
     0
300
1/4" = 1'-0"
140
0.25
141
12.0
290
     0
  0
SCALE
  5
61
102
{ACAD_REACTORS
330
47
102
}
330
47
100
AcDbScale
 70
     0
300
3/8" = 1'-0"
140
0.375
141
12.0
290
     0
  0
SCALE
  5
62
102
{ACAD_REACTORS
330
47
102
}
330
47
100
AcDbScale
 70
     0
300
1/2" = 1'-0"
140
0.5
141
12.0
290
     0
  0
SCALE
  5
63
102
{ACAD_REACTORS
330
47
102
}
330
47
100
AcDbScale
 70
     0
300
3/4" = 1'-0"
140
0.75
141
12.0
290
     0
  0
SCALE
  5
64
102
{ACAD_REACTORS
330
47
102
}
330
47
100
AcDbScale
 70
     0
300
1" = 1'-0"
140
1.0
141
12.0
290
     0
  0
SCALE
  5
65
102
{ACAD_REACTORS
330
47
102
}
330
47
100
AcDbScale
 70
     0
300
1-1/2" = 1'-0"
140
1.5
141
12.0
290
     0
  0
SCALE
  5
66
102
{ACAD_REACTORS
330
47
102
}
330
47
100
AcDbScale
 70
     0
300
3" = 1'-0"
140
3.0
141
12.0
290
     0
  0
SCALE
  5
67
102
{ACAD_REACTORS
330
47
102
}
330
47
100
AcDbScale
 70
     0
300
6" = 1'-0"
140
6.0
141
12.0
290
     0
  0
SCALE
  5
68
102
{ACAD_REACTORS
330
47
102
}
330
47
100
AcDbScale
 70
     0
300
1'-0" = 1'-0"
140
12.0
141
12.0
290
     0
  0
ENDSEC
  0
EOF
