  0
SECTION
  2
HEADER
  9
$ACADVER
  1
AC1015
  9
$ACADMAINTVER
 70
     6
  9
$DWGCODEPAGE
  3
ANSI_1250
  9
$INSBASE
 10
0.0
 20
0.0
 30
0.0
  9
$EXTMIN
 10
0.0
 20
0.0
 30
0.0
  9
$EXTMAX
 10
297.0
 20
210.0
 30
0.0
  9
$LIMMIN
 10
0.0
 20
0.0
  9
$LIMMAX
 10
297.0
 20
210.0
  9
$ORTHOMODE
 70
     0
  9
$REGENMODE
 70
     1
  9
$FILLMODE
 70
     1
  9
$QTEXTMODE
 70
     0
  9
$MIRRTEXT
 70
     1
  9
$LTSCALE
 40
1.0
  9
$ATTMODE
 70
     1
  9
$TEXTSIZE
 40
3.5
  9
$TRACEWID
 40
1.0
  9
$TEXTSTYLE
  7
Standard
  9
$CLAYER
  8
0
  9
$CELTYPE
  6
ByLayer
  9
$CECOLOR
 62
   256
  9
$CELTSCALE
 40
1.0
  9
$DISPSILH
 70
     0
  9
$DIMSCALE
 40
1.0
  9
$DIMASZ
 40
3.302
  9
$DIMEXO
 40
1.0
  9
$DIMDLI
 40
3.75
  9
$DIMRND
 40
0.0
  9
$DIMDLE
 40
0.0
  9
$DIMEXE
 40
1.0
  9
$DIMTP
 40
0.0
  9
$DIMTM
 40
0.0
  9
$DIMTXT
 40
3.5
  9
$DIMCEN
 40
2.5
  9
$DIMTSZ
 40
0.0
  9
$DIMTOL
 70
     0
  9
$DIMLIM
 70
     0
  9
$DIMTIH
 70
     1
  9
$DIMTOH
 70
     1
  9
$DIMSE1
 70
     0
  9
$DIMSE2
 70
     0
  9
$DIMTAD
 70
     1
  9
$DIMZIN
 70
     0
  9
$DIMBLK
  1

  9
$DIMASO
 70
     1
  9
$DIMSHO
 70
     1
  9
$DIMPOST
  1

  9
$DIMAPOST
  1

  9
$DIMALT
 70
     0
  9
$DIMALTD
 70
     3
  9
$DIMALTF
 40
0.0393700787
  9
$DIMLFAC
 40
1.0
  9
$DIMTOFL
 70
     1
  9
$DIMTVP
 40
0.0
  9
$DIMTIX
 70
     0
  9
$DIMSOXD
 70
     0
  9
$DIMSAH
 70
     0
  9
$DIMBLK1
  1

  9
$DIMBLK2
  1

  9
$DIMSTYLE
  2
ISO-25
  9
$DIMCLRD
 70
     0
  9
$DIMCLRE
 70
     0
  9
$DIMCLRT
 70
     0
  9
$DIMTFAC
 40
1.0
  9
$DIMGAP
 40
1.524
  9
$DIMJUST
 70
     0
  9
$DIMSD1
 70
     0
  9
$DIMSD2
 70
     0
  9
$DIMTOLJ
 70
     0
  9
$DIMTZIN
 70
     0
  9
$DIMALTZ
 70
     0
  9
$DIMALTTZ
 70
     0
  9
$DIMUPT
 70
     0
  9
$DIMDEC
 70
     2
  9
$DIMTDEC
 70
     2
  9
$DIMALTU
 70
     2
  9
$DIMALTTD
 70
     3
  9
$DIMTXSTY
  7
Standard
  9
$DIMAUNIT
 70
     0
  9
$DIMADEC
 70
     2
  9
$DIMALTRND
 40
0.0
  9
$DIMAZIN
 70
     0
  9
$DIMDSEP
 70
    44
  9
$DIMATFIT
 70
     3
  9
$DIMFRAC
 70
     0
  9
$DIMLDRBLK
  1

  9
$DIMLUNIT
 70
     2
  9
$DIMLWD
 70
    -2
  9
$DIMLWE
 70
    -2
  9
$DIMTMOVE
 70
     0
  9
$LUNITS
 70
     2
  9
$LUPREC
 70
     2
  9
$SKETCHINC
 40
1.0
  9
$FILLETRAD
 40
10.0
  9
$AUNITS
 70
     0
  9
$AUPREC
 70
     2
  9
$MENU
  1
.
  9
$ELEVATION
 40
0.0
  9
$PELEVATION
 40
0.0
  9
$THICKNESS
 40
0.0
  9
$LIMCHECK
 70
     0
  9
$CHAMFERA
 40
0.0
  9
$CHAMFERB
 40
0.0
  9
$CHAMFERC
 40
0.0
  9
$CHAMFERD
 40
0.0
  9
$SKPOLY
 70
     0
  9
$TDCREATE
 40
2459290.517726227
  9
$TDUCREATE
 40
2459290.47605956
  9
$TDUPDATE
 40
2459290.517727419
  9
$TDUUPDATE
 40
2459290.476060752
  9
$TDINDWG
 40
0.0000000116
  9
$TDUSRTIMER
 40
0.0000000116
  9
$USRTIMER
 70
     1
  9
$ANGBASE
 50
0.0
  9
$ANGDIR
 70
     0
  9
$PDMODE
 70
     0
  9
$PDSIZE
 40
-1.0
  9
$PLINEWID
 40
0.0
  9
$SPLFRAME
 70
     0
  9
$SPLINETYPE
 70
     6
  9
$SPLINESEGS
 70
     8
  9
$HANDSEED
  5
32A
  9
$SURFTAB1
 70
     6
  9
$SURFTAB2
 70
     6
  9
$SURFTYPE
 70
     6
  9
$SURFU
 70
     6
  9
$SURFV
 70
     6
  9
$UCSBASE
  2

  9
$UCSNAME
  2

  9
$UCSORG
 10
0.0
 20
0.0
 30
0.0
  9
$UCSXDIR
 10
1.0
 20
0.0
 30
0.0
  9
$UCSYDIR
 10
0.0
 20
1.0
 30
0.0
  9
$UCSORTHOREF
  2

  9
$UCSORTHOVIEW
 70
     0
  9
$UCSORGTOP
 10
0.0
 20
0.0
 30
0.0
  9
$UCSORGBOTTOM
 10
0.0
 20
0.0
 30
0.0
  9
$UCSORGLEFT
 10
0.0
 20
0.0
 30
0.0
  9
$UCSORGRIGHT
 10
0.0
 20
0.0
 30
0.0
  9
$UCSORGFRONT
 10
0.0
 20
0.0
 30
0.0
  9
$UCSORGBACK
 10
0.0
 20
0.0
 30
0.0
  9
$PUCSBASE
  2

  9
$PUCSNAME
  2

  9
$PUCSORG
 10
0.0
 20
0.0
 30
0.0
  9
$PUCSXDIR
 10
1.0
 20
0.0
 30
0.0
  9
$PUCSYDIR
 10
0.0
 20
1.0
 30
0.0
  9
$PUCSORTHOREF
  2

  9
$PUCSORTHOVIEW
 70
     0
  9
$PUCSORGTOP
 10
0.0
 20
0.0
 30
0.0
  9
$PUCSORGBOTTOM
 10
0.0
 20
0.0
 30
0.0
  9
$PUCSORGLEFT
 10
0.0
 20
0.0
 30
0.0
  9
$PUCSORGRIGHT
 10
0.0
 20
0.0
 30
0.0
  9
$PUCSORGFRONT
 10
0.0
 20
0.0
 30
0.0
  9
$PUCSORGBACK
 10
0.0
 20
0.0
 30
0.0
  9
$USERI1
 70
     0
  9
$USERI2
 70
     0
  9
$USERI3
 70
     0
  9
$USERI4
 70
     0
  9
$USERI5
 70
     0
  9
$USERR1
 40
0.0
  9
$USERR2
 40
0.0
  9
$USERR3
 40
0.0
  9
$USERR4
 40
0.0
  9
$USERR5
 40
0.0
  9
$WORLDVIEW
 70
     1
  9
$SHADEDGE
 70
     3
  9
$SHADEDIF
 70
    70
  9
$TILEMODE
 70
     1
  9
$MAXACTVP
 70
    64
  9
$PINSBASE
 10
0.0
 20
0.0
 30
0.0
  9
$PLIMCHECK
 70
     0
  9
$PEXTMIN
 10
1.0000000000E+20
 20
1.0000000000E+20
 30
1.0000000000E+20
  9
$PEXTMAX
 10
-1.0000000000E+20
 20
-1.0000000000E+20
 30
-1.0000000000E+20
  9
$PLIMMIN
 10
0.0
 20
0.0
  9
$PLIMMAX
 10
420.0
 20
297.0
  9
$UNITMODE
 70
     0
  9
$VISRETAIN
 70
     1
  9
$PLINEGEN
 70
     0
  9
$PSLTSCALE
 70
     1
  9
$TREEDEPTH
 70
  3020
  9
$CMLSTYLE
  2
Standard
  9
$CMLJUST
 70
     0
  9
$CMLSCALE
 40
20.0
  9
$PROXYGRAPHICS
 70
     1
  9
$MEASUREMENT
 70
     1
  9
$CELWEIGHT
370
    -1
  9
$ENDCAPS
280
     0
  9
$JOINSTYLE
280
     0
  9
$LWDISPLAY
290
     1
  9
$INSUNITS
 70
     4
  9
$HYPERLINKBASE
  1

  9
$STYLESHEET
  1

  9
$XEDIT
290
     1
  9
$CEPSNTYPE
380
     0
  9
$PSTYLEMODE
290
     1
  9
$FINGERPRINTGUID
  2
{D182BE73-6C18-46BA-A1D6-31F3FC4E48DE}
  9
$VERSIONGUID
  2
{FAEB1C32-E019-11D5-929B-00C0DF256EC4}
  9
$EXTNAMES
290
     1
  9
$PSVPSCALE
 40
0.0
  9
$OLESTARTUP
290
     0
  0
ENDSEC
  0
SECTION
  2
CLASSES
  0
CLASS
  1
ACDBDICTIONARYWDFLT
  2
AcDbDictionaryWithDefault
  3
ObjectDBX Classes
 90
        0
280
     0
281
     0
  0
CLASS
  1
VISUALSTYLE
  2
AcDbVisualStyle
  3
ObjectDBX Classes
 90
     4095
280
     0
281
     0
  0
CLASS
  1
MATERIAL
  2
AcDbMaterial
  3
ObjectDBX Classes
 90
     1153
280
     0
281
     0
  0
CLASS
  1
SCALE
  2
AcDbScale
  3
ObjectDBX Classes
 90
     1153
280
     0
281
     0
  0
CLASS
  1
TABLESTYLE
  2
AcDbTableStyle
  3
ObjectDBX Classes
 90
     4095
280
     0
281
     0
  0
CLASS
  1
MLEADERSTYLE
  2
AcDbMLeaderStyle
  3
ACDB_MLEADERSTYLE_CLASS
 90
     4095
280
     0
281
     0
  0
CLASS
  1
SUN
  2
AcDbSun
  3
SCENEOE
 90
     1153
280
     0
281
     0
  0
CLASS
  1
ACDBPLACEHOLDER
  2
AcDbPlaceHolder
  3
ObjectDBX Classes
 90
        0
280
     0
281
     0
  0
CLASS
  1
LAYOUT
  2
AcDbLayout
  3
ObjectDBX Classes
 90
        0
280
     0
281
     0
  0
ENDSEC
  0
SECTION
  2
TABLES
  0
TABLE
  2
VPORT
  5
8
330
0
100
AcDbSymbolTable
 70
     1
  0
VPORT
  5
29
330
8
100
AcDbSymbolTableRecord
100
AcDbViewportTableRecord
  2
*Active
 70
     0
 10
0.0
 20
0.0
 11
1.0
 21
1.0
 12
148.5
 22
105.0
 13
0.0
 23
0.0
 14
10.0
 24
10.0
 15
10.0
 25
10.0
 16
0.0
 26
0.0
 36
1.0
 17
0.0
 27
0.0
 37
0.0
 40
210.0
 41
1.4142857143
 42
50.0
 43
0.0
 44
0.0
 50
0.0
 51
0.0
 71
     0
 72
  2000
 73
     1
 74
     3
 75
     0
 76
     0
 77
     0
 78
     0
281
     0
 65
     1
110
0.0
120
0.0
130
0.0
111
1.0
121
0.0
131
0.0
112
0.0
122
1.0
132
0.0
 79
     0
146
0.0
  0
ENDTAB
  0
TABLE
  2
LTYPE
  5
5
330
0
100
AcDbSymbolTable
 70
     8
  0
LTYPE
  5
14
330
5
100
AcDbSymbolTableRecord
100
AcDbLinetypeTableRecord
  2
ByBlock
 70
     0
  3

 72
    65
 73
     0
 40
0.0
  0
LTYPE
  5
15
330
5
100
AcDbSymbolTableRecord
100
AcDbLinetypeTableRecord
  2
ByLayer
 70
     0
  3

 72
    65
 73
     0
 40
0.0
  0
LTYPE
  5
16
330
5
100
AcDbSymbolTableRecord
100
AcDbLinetypeTableRecord
  2
Continuous
 70
     0
  3
Solid line
 72
    65
 73
     0
 40
0.0
  0
LTYPE
  5
6E
330
5
100
AcDbSymbolTableRecord
100
AcDbLinetypeTableRecord
  2
SLD-Solid
 70
     0
  3
SolidWorks Line Style
 72
    65
 73
     0
 40
0.0
  0
LTYPE
  5
6F
330
5
100
AcDbSymbolTableRecord
100
AcDbLinetypeTableRecord
  2
SLD-Dashed
 70
     0
  3
SolidWorks Line Style
 72
    65
 73
     2
 40
1.905
 49
1.27
 74
     0
 49
-0.635
 74
     0
  0
LTYPE
  5
70
330
5
100
AcDbSymbolTableRecord
100
AcDbLinetypeTableRecord
  2
SLD-Phantom
 70
     0
  3
SolidWorks Line Style
 72
    65
 73
     6
 40
12.7
 49
6.35
 74
     0
 49
-1.27
 74
     0
 49
1.27
 74
     0
 49
-1.27
 74
     0
 49
1.27
 74
     0
 49
-1.27
 74
     0
  0
LTYPE
  5
71
330
5
100
AcDbSymbolTableRecord
100
AcDbLinetypeTableRecord
  2
SLD-Chain
 70
     0
  3
SolidWorks Line Style
 72
    65
 73
     4
 40
10.16
 49
6.35
 74
     0
 49
-1.27
 74
     0
 49
1.27
 74
     0
 49
-1.27
 74
     0
  0
LTYPE
  5
72
330
5
100
AcDbSymbolTableRecord
100
AcDbLinetypeTableRecord
  2
SLD-Center
 70
     0
  3
SolidWorks Line Style
 72
    65
 73
     4
 40
19.05
 49
15.24
 74
     0
 49
-1.27
 74
     0
 49
1.27
 74
     0
 49
-1.27
 74
     0
  0
LTYPE
  5
73
330
5
100
AcDbSymbolTableRecord
100
AcDbLinetypeTableRecord
  2
SLD-Stitch
 70
     0
  3
SolidWorks Line Style
 72
    65
 73
     2
 40
0.635
 49
0.0
 74
     0
 49
-0.635
 74
     0
  0
LTYPE
  5
74
330
5
100
AcDbSymbolTableRecord
100
AcDbLinetypeTableRecord
  2
SLD-Thin-Thick-Chain
 70
     0
  3
SolidWorks Line Style
 72
    65
 73
     4
 40
10.16
 49
6.35
 74
     0
 49
-1.27
 74
     0
 49
1.27
 74
     0
 49
-1.27
 74
     0
  0
ENDTAB
  0
TABLE
  2
LAYER
  5
2
330
0
100
AcDbSymbolTable
 70
    12
  0
LAYER
  5
10
330
2
100
AcDbSymbolTableRecord
100
AcDbLayerTableRecord
  2
0
 70
     0
 62
     7
  6
Continuous
370
    -3
390
F
  0
LAYER
  5
75
330
2
100
AcDbSymbolTableRecord
100
AcDbLayerTableRecord
  2
SLD-0
 70
     0
 62
   179
  6
SLD-Solid
370
    -3
390
F
  0
LAYER
  5
76
330
2
100
AcDbSymbolTableRecord
100
AcDbLayerTableRecord
  2
80
 70
     0
 62
    -6
  6
SLD-Solid
290
     0
370
    -3
390
F
  0
LAYER
  5
77
330
2
100
AcDbSymbolTableRecord
100
AcDbLayerTableRecord
  2
81
 70
     0
 62
    -3
  6
SLD-Solid
290
     0
370
    -3
390
F
  0
LAYER
  5
78
330
2
100
AcDbSymbolTableRecord
100
AcDbLayerTableRecord
  2
1
 70
     0
 62
     4
  6
SLD-Solid
290
     0
370
    -3
390
F
  0
LAYER
  5
79
330
2
100
AcDbSymbolTableRecord
100
AcDbLayerTableRecord
  2
4
 70
     0
 62
    -2
  6
SLD-Chain
290
     0
370
    -3
390
F
  0
LAYER
  5
7A
330
2
100
AcDbSymbolTableRecord
100
AcDbLayerTableRecord
  2
2
 70
     0
 62
     7
  6
SLD-Solid
290
     0
370
    -3
390
F
  0
LAYER
  5
7B
330
2
100
AcDbSymbolTableRecord
100
AcDbLayerTableRecord
  2
SK3
 70
     0
 62
     1
  6
SLD-Dashed
290
     0
370
    -3
390
F
  0
LAYER
  5
7C
330
2
100
AcDbSymbolTableRecord
100
AcDbLayerTableRecord
  2
SK4
 70
     0
 62
     2
  6
SLD-Chain
290
     0
370
    -3
390
F
  0
LAYER
  5
7D
330
2
100
AcDbSymbolTableRecord
100
AcDbLayerTableRecord
  2
SK2
 70
     0
 62
     7
  6
SLD-Solid
290
     0
370
    -3
390
F
  0
LAYER
  5
7E
330
2
100
AcDbSymbolTableRecord
100
AcDbLayerTableRecord
  2
SK6
 70
     0
 62
     5
  6
SLD-Solid
290
     0
370
    -3
390
F
  0
LAYER
  5
7F
330
2
100
AcDbSymbolTableRecord
100
AcDbLayerTableRecord
  2
SK1
 70
     0
 62
     4
  6
SLD-Solid
370
    -3
390
F
  0
ENDTAB
  0
TABLE
  2
STYLE
  5
3
330
0
100
AcDbSymbolTable
 70
     2
  0
STYLE
  5
11
330
3
100
AcDbSymbolTableRecord
100
AcDbTextStyleTableRecord
  2
Standard
 70
     0
 40
0.0
 41
1.0
 50
0.0
 71
     0
 42
3.5
  3
txt
  4

  0
STYLE
  5
2C3
330
3
100
AcDbSymbolTableRecord
100
AcDbTextStyleTableRecord
  2
SLDTEXTSTYLE0
 70
     0
 40
0.0
 41
0.75
 50
0.0
 71
     0
 42
3.5
  3
TXT
  4

  0
ENDTAB
  0
TABLE
  2
VIEW
  5
6
330
0
100
AcDbSymbolTable
 70
     0
  0
ENDTAB
  0
TABLE
  2
UCS
  5
7
330
0
100
AcDbSymbolTable
 70
     0
  0
ENDTAB
  0
TABLE
  2
APPID
  5
9
330
0
100
AcDbSymbolTable
 70
     1
  0
APPID
  5
12
330
9
100
AcDbSymbolTableRecord
100
AcDbRegAppTableRecord
  2
ACAD
 70
     0
  0
ENDTAB
  0
TABLE
  2
DIMSTYLE
  5
A
330
0
100
AcDbSymbolTable
 70
     2
100
AcDbDimStyleTable
  0
DIMSTYLE
105
27
330
A
100
AcDbSymbolTableRecord
100
AcDbDimStyleTableRecord
  2
ISO-25
 70
     0
 41
2.5
 42
0.625
 43
3.75
 44
1.25
 73
     0
 74
     0
 77
     1
 78
     8
140
2.5
141
2.5
143
0.0393700787
147
0.625
171
     3
172
     1
178
     0
271
     2
272
     2
274
     3
278
    44
283
     0
284
     8
340
11
  0
DIMSTYLE
105
2C4
102
{ACAD_REACTORS
330
2C2
330
2CE
330
2D8
330
2E2
330
2EC
330
2F7
330
302
330
30D
330
318
102
}
330
A
100
AcDbSymbolTableRecord
100
AcDbDimStyleTableRecord
  2
SLDDIMSTYLE0
 70
     0
 41
3.302
 44
0.0
 45
0.000000001
 73
     0
 74
     0
 77
     1
 78
    12
 79
     3
140
3.5
147
0.875
173
     1
178
     0
271
     2
272
     2
276
     2
284
    12
340
2C3
  0
ENDTAB
  0
TABLE
  2
BLOCK_RECORD
  5
1
330
0
100
AcDbSymbolTable
 70
    13
  0
BLOCK_RECORD
  5
1F
330
1
100
AcDbSymbolTableRecord
100
AcDbBlockTableRecord
  2
*Model_Space
340
22
  0
BLOCK_RECORD
  5
1B
330
1
100
AcDbSymbolTableRecord
100
AcDbBlockTableRecord
  2
*Paper_Space
340
1E
  0
BLOCK_RECORD
  5
23
330
1
100
AcDbSymbolTableRecord
100
AcDbBlockTableRecord
  2
*Paper_Space0
340
26
  0
BLOCK_RECORD
  5
80
330
1
100
AcDbSymbolTableRecord
100
AcDbBlockTableRecord
  2
Block11
340
0
102
{BLKREFS
331
2C0
102
}
  0
BLOCK_RECORD
  5
89
330
1
100
AcDbSymbolTableRecord
100
AcDbBlockTableRecord
  2
Block12
340
0
102
{BLKREFS
331
2C1
102
}
  0
BLOCK_RECORD
  5
2C5
330
1
100
AcDbSymbolTableRecord
100
AcDbBlockTableRecord
  2
_D
340
0
  0
BLOCK_RECORD
  5
2CF
330
1
100
AcDbSymbolTableRecord
100
AcDbBlockTableRecord
  2
_D_1
340
0
  0
BLOCK_RECORD
  5
2D9
330
1
100
AcDbSymbolTableRecord
100
AcDbBlockTableRecord
  2
_D_2
340
0
  0
BLOCK_RECORD
  5
2E3
330
1
100
AcDbSymbolTableRecord
100
AcDbBlockTableRecord
  2
_D_3
340
0
  0
BLOCK_RECORD
  5
2ED
330
1
100
AcDbSymbolTableRecord
100
AcDbBlockTableRecord
  2
_D_4
340
0
  0
BLOCK_RECORD
  5
2F8
330
1
100
AcDbSymbolTableRecord
100
AcDbBlockTableRecord
  2
_D_5
340
0
  0
BLOCK_RECORD
  5
303
330
1
100
AcDbSymbolTableRecord
100
AcDbBlockTableRecord
  2
_D_6
340
0
  0
BLOCK_RECORD
  5
30E
330
1
100
AcDbSymbolTableRecord
100
AcDbBlockTableRecord
  2
_D_7
340
0
  0
BLOCK_RECORD
  5
319
330
1
100
AcDbSymbolTableRecord
100
AcDbBlockTableRecord
  2
_D_8
340
0
  0
BLOCK_RECORD
  5
324
330
1
100
AcDbSymbolTableRecord
100
AcDbBlockTableRecord
  2
SW_NOTE_0
340
0
102
{BLKREFS
331
329
102
}
  0
ENDTAB
  0
ENDSEC
  0
SECTION
  2
BLOCKS
  0
BLOCK
  5
20
330
1F
100
AcDbEntity
  8
0
100
AcDbBlockBegin
  2
*Model_Space
 70
     0
 10
0.0
 20
0.0
 30
0.0
  3
*Model_Space
  1

  0
ENDBLK
  5
21
330
1F
100
AcDbEntity
  8
0
100
AcDbBlockEnd
  0
BLOCK
  5
1C
330
1B
100
AcDbEntity
 67
     1
  8
0
100
AcDbBlockBegin
  2
*Paper_Space
 70
     0
 10
0.0
 20
0.0
 30
0.0
  3
*Paper_Space
  1

  0
ENDBLK
  5
1D
330
1B
100
AcDbEntity
 67
     1
  8
0
100
AcDbBlockEnd
  0
BLOCK
  5
24
330
23
100
AcDbEntity
  8
0
100
AcDbBlockBegin
  2
*Paper_Space0
 70
     0
 10
0.0
 20
0.0
 30
0.0
  3
*Paper_Space0
  1

  0
ENDBLK
  5
25
330
23
100
AcDbEntity
  8
0
100
AcDbBlockEnd
  0
BLOCK
  5
81
330
80
100
AcDbEntity
  8
0
100
AcDbBlockBegin
  2
Block11
 70
     0
 10
0.0
 20
0.0
 30
0.0
  3
Block11
  1

  0
CIRCLE
  5
83
330
80
100
AcDbEntity
  8
81
370
    18
100
AcDbCircle
 10
91.6264826505
 20
130.2676275275
 30
0.0
 40
2.499999999999981
  0
LINE
  5
84
330
80
100
AcDbEntity
  8
81
370
    18
100
AcDbLine
 10
91.6264826505
 20
130.2676275275
 30
0.0
 11
95.1620165565
 21
133.8031614334
 31
0.0
  0
LINE
  5
85
330
80
100
AcDbEntity
  8
81
370
    18
100
AcDbLine
 10
91.6264826505
 20
130.2676275275
 30
0.0
 11
88.0909487446
 21
126.7320936216
 31
0.0
  0
LINE
  5
86
330
80
100
AcDbEntity
  8
81
370
    18
100
AcDbLine
 10
91.6264826505
 20
130.2676275275
 30
0.0
 11
88.0909487446
 21
133.8031614334
 31
0.0
  0
LINE
  5
87
330
80
100
AcDbEntity
  8
81
100
AcDbLine
 10
91.6264826505
 20
130.2676275275
 30
0.0
 11
101.6264826505
 21
130.2676275275
 31
0.0
  0
LINE
  5
88
330
80
100
AcDbEntity
  8
81
370
    18
100
AcDbLine
 10
91.6264826505
 20
130.2676275275
 30
0.0
 11
95.1620165565
 21
126.7320936216
 31
0.0
  0
ENDBLK
  5
82
330
80
100
AcDbEntity
  8
0
100
AcDbBlockEnd
  0
BLOCK
  5
8A
330
89
100
AcDbEntity
  8
0
100
AcDbBlockBegin
  2
Block12
 70
     0
 10
0.0
 20
0.0
 30
0.0
  3
Block12
  1

  0
CIRCLE
  5
8C
330
89
100
AcDbEntity
  8
80
370
    18
100
AcDbCircle
 10
61.7273641656
 20
130.3356800267
 30
0.0
 40
2.500000000000004
  0
LINE
  5
8D
330
89
100
AcDbEntity
  8
80
370
    18
100
AcDbLine
 10
61.7273641656
 20
130.3356800267
 30
0.0
 11
65.2628980715
 21
133.8712139326
 31
0.0
  0
LINE
  5
8E
330
89
100
AcDbEntity
  8
80
370
    18
100
AcDbLine
 10
61.7273641656
 20
130.3356800267
 30
0.0
 11
58.1918302597
 21
126.8001461208
 31
0.0
  0
LINE
  5
8F
330
89
100
AcDbEntity
  8
80
370
    18
100
AcDbLine
 10
61.7273641656
 20
130.3356800267
 30
0.0
 11
58.1918302597
 21
133.8712139326
 31
0.0
  0
LINE
  5
90
330
89
100
AcDbEntity
  8
80
370
    18
100
AcDbLine
 10
61.7273641656
 20
130.3356800267
 30
0.0
 11
51.7273641656
 21
130.3356800267
 31
0.0
  0
LINE
  5
91
330
89
100
AcDbEntity
  8
80
370
    18
100
AcDbLine
 10
61.7273641656
 20
130.3356800267
 30
0.0
 11
65.2628980715
 21
126.8001461208
 31
0.0
  0
ENDBLK
  5
8B
330
89
100
AcDbEntity
  8
0
100
AcDbBlockEnd
  0
BLOCK
  5
2C6
330
2C5
100
AcDbEntity
  8
0
100
AcDbBlockBegin
  2
_D
 70
     0
 10
0.0
 20
0.0
 30
0.0
  3
_D
  1

  0
SOLID
  5
2C8
330
2C5
100
AcDbEntity
  8
SK2
100
AcDbTrace
 10
0.0
 20
38.3288224456
 30
0.0
 11
3.302
 21
37.8208224456
 31
0.0
 12
3.302
 22
38.8368224456
 32
0.0
 13
3.302
 23
38.8368224456
 33
0.0
  0
SOLID
  5
2C9
330
2C5
100
AcDbEntity
  8
SK2
100
AcDbTrace
 10
19.05
 20
38.3288224456
 30
0.0
 11
15.748
 21
38.8368224456
 31
0.0
 12
15.748
 22
37.8208224456
 32
0.0
 13
15.748
 23
37.8208224456
 33
0.0
  0
LINE
  5
2CA
330
2C5
100
AcDbEntity
  8
SK2
100
AcDbLine
 10
0.0
 20
23.225
 30
0.0
 11
0.0
 21
39.3288224456
 31
0.0
  0
LINE
  5
2CB
330
2C5
100
AcDbEntity
  8
SK2
100
AcDbLine
 10
19.05
 20
30.8288189921
 30
0.0
 11
19.05
 21
39.3288224456
 31
0.0
  0
LINE
  5
2CC
330
2C5
100
AcDbEntity
  8
SK2
100
AcDbLine
 10
0.0
 20
38.3288224456
 30
0.0
 11
19.05
 21
38.3288224456
 31
0.0
  0
MTEXT
  5
2CD
330
2C5
100
AcDbEntity
  8
SK2
100
AcDbMText
 10
3.6831101584
 20
42.8405593602
 30
0.0
 40
3.5
 41
0.0
 71
     1
 72
     1
  1
19,05
  7
SLDTEXTSTYLE0
 73
     1
 44
1.0
  0
ENDBLK
  5
2C7
330
2C5
100
AcDbEntity
  8
0
100
AcDbBlockEnd
  0
BLOCK
  5
2D0
330
2CF
100
AcDbEntity
  8
0
100
AcDbBlockBegin
  2
_D_1
 70
     0
 10
0.0
 20
0.0
 30
0.0
  3
_D_1
  1

  0
SOLID
  5
2D2
330
2CF
100
AcDbEntity
  8
SK2
100
AcDbTrace
 10
19.05
 20
38.3288224456
 30
0.0
 11
22.352
 21
37.8208224456
 31
0.0
 12
22.352
 22
38.8368224456
 32
0.0
 13
22.352
 23
38.8368224456
 33
0.0
  0
SOLID
  5
2D3
330
2CF
100
AcDbEntity
  8
SK2
100
AcDbTrace
 10
43.0
 20
38.3288224456
 30
0.0
 11
39.698
 21
38.8368224456
 31
0.0
 12
39.698
 22
37.8208224456
 32
0.0
 13
39.698
 23
37.8208224456
 33
0.0
  0
LINE
  5
2D4
330
2CF
100
AcDbEntity
  8
SK2
100
AcDbLine
 10
19.05
 20
30.8288189921
 30
0.0
 11
19.05
 21
39.3288224456
 31
0.0
  0
LINE
  5
2D5
330
2CF
100
AcDbEntity
  8
SK2
100
AcDbLine
 10
43.0
 20
20.2
 30
0.0
 11
43.0
 21
39.3288224456
 31
0.0
  0
LINE
  5
2D6
330
2CF
100
AcDbEntity
  8
SK2
100
AcDbLine
 10
19.05
 20
38.3288224456
 30
0.0
 11
43.0
 21
38.3288224456
 31
0.0
  0
MTEXT
  5
2D7
330
2CF
100
AcDbEntity
  8
SK2
100
AcDbMText
 10
25.3343179906
 20
42.8405593602
 30
0.0
 40
3.5
 41
0.0
 71
     1
 72
     1
  1
23,95
  7
SLDTEXTSTYLE0
 73
     1
 44
1.0
  0
ENDBLK
  5
2D1
330
2CF
100
AcDbEntity
  8
0
100
AcDbBlockEnd
  0
BLOCK
  5
2DA
330
2D9
100
AcDbEntity
  8
0
100
AcDbBlockBegin
  2
_D_2
 70
     0
 10
0.0
 20
0.0
 30
0.0
  3
_D_2
  1

  0
SOLID
  5
2DC
330
2D9
100
AcDbEntity
  8
SK2
100
AcDbTrace
 10
43.0
 20
38.3288224456
 30
0.0
 11
46.302
 21
37.8208224456
 31
0.0
 12
46.302
 22
38.8368224456
 32
0.0
 13
46.302
 23
38.8368224456
 33
0.0
  0
SOLID
  5
2DD
330
2D9
100
AcDbEntity
  8
SK2
100
AcDbTrace
 10
74.0
 20
38.3288224456
 30
0.0
 11
70.698
 21
38.8368224456
 31
0.0
 12
70.698
 22
37.8208224456
 32
0.0
 13
70.698
 23
37.8208224456
 33
0.0
  0
LINE
  5
2DE
330
2D9
100
AcDbEntity
  8
SK2
100
AcDbLine
 10
43.0
 20
20.2
 30
0.0
 11
43.0
 21
39.3288224456
 31
0.0
  0
LINE
  5
2DF
330
2D9
100
AcDbEntity
  8
SK2
100
AcDbLine
 10
74.0
 20
11.6473460386
 30
0.0
 11
74.0
 21
39.3288224456
 31
0.0
  0
LINE
  5
2E0
330
2D9
100
AcDbEntity
  8
SK2
100
AcDbLine
 10
43.0
 20
38.3288224456
 30
0.0
 11
74.0
 21
38.3288224456
 31
0.0
  0
MTEXT
  5
2E1
330
2D9
100
AcDbEntity
  8
SK2
100
AcDbMText
 10
55.4897633016
 20
42.8405593602
 30
0.0
 40
3.5
 41
0.0
 71
     1
 72
     1
  1
31
  7
SLDTEXTSTYLE0
 73
     1
 44
1.0
  0
ENDBLK
  5
2DB
330
2D9
100
AcDbEntity
  8
0
100
AcDbBlockEnd
  0
BLOCK
  5
2E4
330
2E3
100
AcDbEntity
  8
0
100
AcDbBlockBegin
  2
_D_3
 70
     0
 10
0.0
 20
0.0
 30
0.0
  3
_D_3
  1

  0
SOLID
  5
2E6
330
2E3
100
AcDbEntity
  8
2
100
AcDbTrace
 10
43.0
 20
47.1775769509
 30
0.0
 11
39.698
 21
47.6855769509
 31
0.0
 12
39.698
 22
46.6695769509
 32
0.0
 13
39.698
 23
46.6695769509
 33
0.0
  0
SOLID
  5
2E7
330
2E3
100
AcDbEntity
  8
2
100
AcDbTrace
 10
0.0
 20
47.1775769509
 30
0.0
 11
3.302
 21
46.6695769509
 31
0.0
 12
3.302
 22
47.6855769509
 32
0.0
 13
3.302
 23
47.6855769509
 33
0.0
  0
LINE
  5
2E8
330
2E3
100
AcDbEntity
  8
2
100
AcDbLine
 10
43.0
 20
20.2
 30
0.0
 11
43.0
 21
48.1775769509
 31
0.0
  0
LINE
  5
2E9
330
2E3
100
AcDbEntity
  8
2
100
AcDbLine
 10
0.0
 20
23.225
 30
0.0
 11
0.0
 21
48.1775769509
 31
0.0
  0
LINE
  5
2EA
330
2E3
100
AcDbEntity
  8
2
100
AcDbLine
 10
43.0
 20
47.1775769509
 30
0.0
 11
0.0
 21
47.1775769509
 31
0.0
  0
MTEXT
  5
2EB
330
2E3
100
AcDbEntity
  8
2
100
AcDbMText
 10
18.306167242
 20
51.6893138655
 30
0.0
 40
3.5
 41
0.0
 71
     1
 72
     1
  1
43
  7
SLDTEXTSTYLE0
 73
     1
 44
1.0
  0
ENDBLK
  5
2E5
330
2E3
100
AcDbEntity
  8
0
100
AcDbBlockEnd
  0
BLOCK
  5
2EE
330
2ED
100
AcDbEntity
  8
0
100
AcDbBlockBegin
  2
_D_4
 70
     0
 10
0.0
 20
0.0
 30
0.0
  3
_D_4
  1

  0
SOLID
  5
2F0
330
2ED
100
AcDbEntity
  8
SK2
100
AcDbTrace
 10
108.2238259563
 20
20.0
 30
0.0
 11
107.7158259563
 21
16.698
 31
0.0
 12
108.7318259563
 22
16.698
 32
0.0
 13
108.7318259563
 23
16.698
 33
0.0
  0
SOLID
  5
2F1
330
2ED
100
AcDbEntity
  8
SK2
100
AcDbTrace
 10
108.2238259563
 20
-20.0
 30
0.0
 11
108.7318259563
 21
-16.698
 31
0.0
 12
107.7158259563
 22
-16.698
 32
0.0
 13
107.7158259563
 23
-16.698
 33
0.0
  0
LINE
  5
2F2
330
2ED
100
AcDbEntity
  8
SK2
100
AcDbLine
 10
43.2
 20
20.0
 30
0.0
 11
109.2238259563
 21
20.0
 31
0.0
  0
LINE
  5
2F3
330
2ED
100
AcDbEntity
  8
SK2
100
AcDbLine
 10
43.2
 20
-20.0
 30
0.0
 11
109.2238259563
 21
-20.0
 31
0.0
  0
LINE
  5
2F4
330
2ED
100
AcDbEntity
  8
SK2
100
AcDbLine
 10
108.2238259563
 20
20.0
 30
0.0
 11
108.2238259563
 21
-20.0
 31
0.0
  0
MTEXT
  5
2F5
330
2ED
100
AcDbEntity
  8
SK2
100
AcDbMText
 10
103.7120888671
 20
-5.5350064303
 30
0.0
 40
3.5
 41
0.0
 71
     1
 72
     1
  1
%%c
  7
SLDTEXTSTYLE0
 11
-1.237326553584439E-14
 21
1.0
 31
0.0
 73
     1
 44
1.0
  0
MTEXT
  5
2F6
330
2ED
100
AcDbEntity
  8
SK2
100
AcDbMText
 10
103.6586166904
 20
-0.2565690319
 30
0.0
 40
3.5
 41
0.0
 71
     1
 72
     1
  1
40
  7
SLDTEXTSTYLE0
 11
-1.237326553584439E-14
 21
1.0
 31
0.0
 73
     1
 44
1.0
  0
ENDBLK
  5
2EF
330
2ED
100
AcDbEntity
  8
0
100
AcDbBlockEnd
  0
BLOCK
  5
2F9
330
2F8
100
AcDbEntity
  8
0
100
AcDbBlockBegin
  2
_D_5
 70
     0
 10
0.0
 20
0.0
 30
0.0
  3
_D_5
  1

  0
SOLID
  5
2FB
330
2F8
100
AcDbEntity
  8
SK2
100
AcDbTrace
 10
98.0150130416
 20
11.0
 30
0.0
 11
97.5070130416
 21
7.698
 31
0.0
 12
98.5230130416
 22
7.698
 32
0.0
 13
98.5230130416
 23
7.698
 33
0.0
  0
SOLID
  5
2FC
330
2F8
100
AcDbEntity
  8
SK2
100
AcDbTrace
 10
98.0150130416
 20
-11.0
 30
0.0
 11
98.5230130416
 21
-7.698
 31
0.0
 12
97.5070130416
 22
-7.698
 32
0.0
 13
97.5070130416
 23
-7.698
 33
0.0
  0
LINE
  5
2FD
330
2F8
100
AcDbEntity
  8
SK2
100
AcDbLine
 10
73.0
 20
11.0
 30
0.0
 11
99.0150130416
 21
11.0
 31
0.0
  0
LINE
  5
2FE
330
2F8
100
AcDbEntity
  8
SK2
100
AcDbLine
 10
73.0
 20
-11.0
 30
0.0
 11
99.0150130416
 21
-11.0
 31
0.0
  0
LINE
  5
2FF
330
2F8
100
AcDbEntity
  8
SK2
100
AcDbLine
 10
98.0150130416
 20
11.0
 30
0.0
 11
98.0150130416
 21
-11.0
 31
0.0
  0
MTEXT
  5
300
330
2F8
100
AcDbEntity
  8
SK2
100
AcDbMText
 10
93.5032759524
 20
-5.5350064303
 30
0.0
 40
3.5
 41
0.0
 71
     1
 72
     1
  1
%%c
  7
SLDTEXTSTYLE0
 11
-7.044195017643634E-15
 21
1.0
 31
0.0
 73
     1
 44
1.0
  0
MTEXT
  5
301
330
2F8
100
AcDbEntity
  8
SK2
100
AcDbMText
 10
93.4498037758
 20
-0.2565690319
 30
0.0
 40
3.5
 41
0.0
 71
     1
 72
     1
  1
22
  7
SLDTEXTSTYLE0
 11
-7.044195017643634E-15
 21
1.0
 31
0.0
 73
     1
 44
1.0
  0
ENDBLK
  5
2FA
330
2F8
100
AcDbEntity
  8
0
100
AcDbBlockEnd
  0
BLOCK
  5
304
330
303
100
AcDbEntity
  8
0
100
AcDbBlockBegin
  2
_D_6
 70
     0
 10
0.0
 20
0.0
 30
0.0
  3
_D_6
  1

  0
SOLID
  5
306
330
303
100
AcDbEntity
  8
SK2
100
AcDbTrace
 10
-97.4835756859
 20
30.5753609371
 30
0.0
 11
-97.9915756859
 21
27.2733609371
 31
0.0
 12
-96.9755756859
 22
27.2733609371
 32
0.0
 13
-96.9755756859
 23
27.2733609371
 33
0.0
  0
SOLID
  5
307
330
303
100
AcDbEntity
  8
SK2
100
AcDbTrace
 10
-97.4835756859
 20
-30.5579089831
 30
0.0
 11
-96.9755756859
 21
-27.2559089831
 31
0.0
 12
-97.9915756859
 22
-27.2559089831
 32
0.0
 13
-97.9915756859
 23
-27.2559089831
 33
0.0
  0
LINE
  5
308
330
303
100
AcDbEntity
  8
SK2
100
AcDbLine
 10
2.95
 20
30.5753609371
 30
0.0
 11
-98.4835756859
 21
30.5753609371
 31
0.0
  0
LINE
  5
309
330
303
100
AcDbEntity
  8
SK2
100
AcDbLine
 10
2.95
 20
-30.5579089831
 30
0.0
 11
-98.4835756859
 21
-30.5579089831
 31
0.0
  0
LINE
  5
30A
330
303
100
AcDbEntity
  8
SK2
100
AcDbLine
 10
-97.4835756859
 20
30.5753609371
 30
0.0
 11
-97.4835756859
 21
-30.5579089831
 31
0.0
  0
MTEXT
  5
30B
330
303
100
AcDbEntity
  8
SK2
100
AcDbMText
 10
-101.9953127751
 20
-7.4745900001
 30
0.0
 40
3.5
 41
0.0
 71
     1
 72
     1
  1
%%c
  7
SLDTEXTSTYLE0
 11
-5.267838178243384E-15
 21
1.0
 31
0.0
 73
     1
 44
1.0
  0
MTEXT
  5
30C
330
303
100
AcDbEntity
  8
SK2
100
AcDbMText
 10
-102.0487849518
 20
-2.1961526017
 30
0.0
 40
3.5
 41
0.0
 71
     1
 72
     1
  1
63,5
  7
SLDTEXTSTYLE0
 11
-5.267838178243384E-15
 21
1.0
 31
0.0
 73
     1
 44
1.0
  0
ENDBLK
  5
305
330
303
100
AcDbEntity
  8
0
100
AcDbBlockEnd
  0
BLOCK
  5
30F
330
30E
100
AcDbEntity
  8
0
100
AcDbBlockBegin
  2
_D_7
 70
     0
 10
0.0
 20
0.0
 30
0.0
  3
_D_7
  1

  0
SOLID
  5
311
330
30E
100
AcDbEntity
  8
SK2
100
AcDbTrace
 10
-86.1396960579
 20
22.225
 30
0.0
 11
-86.6476960579
 21
18.923
 31
0.0
 12
-85.6316960579
 22
18.923
 32
0.0
 13
-85.6316960579
 23
18.923
 33
0.0
  0
SOLID
  5
312
330
30E
100
AcDbEntity
  8
SK2
100
AcDbTrace
 10
-86.1396960579
 20
-22.225
 30
0.0
 11
-85.6316960579
 21
-18.923
 31
0.0
 12
-86.6476960579
 22
-18.923
 32
0.0
 13
-86.6476960579
 23
-18.923
 33
0.0
  0
LINE
  5
313
330
30E
100
AcDbEntity
  8
SK2
100
AcDbLine
 10
-1.0
 20
22.225
 30
0.0
 11
-87.1396960579
 21
22.225
 31
0.0
  0
LINE
  5
314
330
30E
100
AcDbEntity
  8
SK2
100
AcDbLine
 10
-1.0
 20
-22.225
 30
0.0
 11
-87.1396960579
 21
-22.225
 31
0.0
  0
LINE
  5
315
330
30E
100
AcDbEntity
  8
SK2
100
AcDbLine
 10
-86.1396960579
 20
22.225
 30
0.0
 11
-86.1396960579
 21
-22.225
 31
0.0
  0
MTEXT
  5
316
330
30E
100
AcDbEntity
  8
SK2
100
AcDbMText
 10
-90.6514331471
 20
-8.7676452476
 30
0.0
 40
3.5
 41
0.0
 71
     1
 72
     1
  1
%%c
  7
SLDTEXTSTYLE0
 11
-1.237326553584439E-14
 21
1.0
 31
0.0
 73
     1
 44
1.0
  0
MTEXT
  5
317
330
30E
100
AcDbEntity
  8
SK2
100
AcDbMText
 10
-90.7049053237
 20
-3.4892078492
 30
0.0
 40
3.5
 41
0.0
 71
     1
 72
     1
  1
44,45
  7
SLDTEXTSTYLE0
 11
-1.237326553584439E-14
 21
1.0
 31
0.0
 73
     1
 44
1.0
  0
ENDBLK
  5
310
330
30E
100
AcDbEntity
  8
0
100
AcDbBlockEnd
  0
BLOCK
  5
31A
330
319
100
AcDbEntity
  8
0
100
AcDbBlockBegin
  2
_D_8
 70
     0
 10
0.0
 20
0.0
 30
0.0
  3
_D_8
  1

  0
SOLID
  5
31C
330
319
100
AcDbEntity
  8
SK2
100
AcDbTrace
 10
-75.9366269729
 20
-8.0
 30
0.0
 11
-75.4286269729
 21
-4.698
 31
0.0
 12
-76.4446269729
 22
-4.698
 32
0.0
 13
-76.4446269729
 23
-4.698
 33
0.0
  0
SOLID
  5
31D
330
319
100
AcDbEntity
  8
SK2
100
AcDbTrace
 10
-75.9366269729
 20
8.0
 30
0.0
 11
-76.4446269729
 21
4.698
 31
0.0
 12
-75.4286269729
 22
4.698
 32
0.0
 13
-75.4286269729
 23
4.698
 33
0.0
  0
LINE
  5
31E
330
319
100
AcDbEntity
  8
SK2
100
AcDbLine
 10
-60.2881197846
 20
-8.0
 30
0.0
 11
-76.9366269729
 21
-8.0
 31
0.0
  0
LINE
  5
31F
330
319
100
AcDbEntity
  8
SK2
100
AcDbLine
 10
-60.2881197846
 20
8.0
 30
0.0
 11
-76.9366269729
 21
8.0
 31
0.0
  0
LINE
  5
320
330
319
100
AcDbEntity
  8
SK2
100
AcDbLine
 10
-75.9366269729
 20
-8.0
 30
0.0
 11
-75.9366269729
 21
8.0
 31
0.0
  0
MTEXT
  5
321
330
319
100
AcDbEntity
  8
SK2
100
AcDbMText
 10
-80.4483638875
 20
-5.0395376983
 30
0.0
 40
3.5
 41
0.0
 71
     1
 72
     1
  1
M
  7
SLDTEXTSTYLE0
 11
-7.044195017643634E-15
 21
1.0
 31
0.0
 73
     1
 44
1.0
  0
MTEXT
  5
322
330
319
100
AcDbEntity
  8
SK2
100
AcDbMText
 10
-80.4483638875
 20
-0.7520377639
 30
0.0
 40
3.5
 41
0.0
 71
     1
 72
     1
  1
16
  7
SLDTEXTSTYLE0
 11
-7.044195017643634E-15
 21
1.0
 31
0.0
 73
     1
 44
1.0
  0
ENDBLK
  5
31B
330
319
100
AcDbEntity
  8
0
100
AcDbBlockEnd
  0
BLOCK
  5
325
330
324
100
AcDbEntity
  8
0
100
AcDbBlockBegin
  2
SW_NOTE_0
 70
     0
 10
0.0
 20
0.0
 30
0.0
  3
SW_NOTE_0
  1

  0
MTEXT
  5
327
330
324
100
AcDbEntity
  8
SK6
 62
     0
100
AcDbMText
 10
0.0
 20
4.5117370892
 30
0.0
 40
3.5
 41
0.0
 71
     1
 72
     1
  1
TAPER ISO 40
  7
SLDTEXTSTYLE0
 73
     1
 44
1.0
  0
MTEXT
  5
328
330
324
100
AcDbEntity
  8
SK6
 62
     0
100
AcDbMText
 10
0.0
 20
-0.0139574413
 30
0.0
 40
3.5
 41
0.0
 71
     1
 72
     1
  1
DIN 69871-AD/B
  7
SLDTEXTSTYLE0
 73
     1
 44
1.0
  0
ENDBLK
  5
326
330
324
100
AcDbEntity
  8
0
100
AcDbBlockEnd
  0
ENDSEC
  0
SECTION
  2
ENTITIES
  0
LINE
  5
92
330
1F
100
AcDbEntity
  8
SK1
  6
SLD-Solid
370
    25
100
AcDbLine
 10
83.4428037632
 20
-6.5
 30
0.0
 11
87.1428037632
 21
-6.5
 31
0.0
  0
LINE
  5
93
330
1F
100
AcDbEntity
  8
SK1
  6
SLD-Solid
370
    25
100
AcDbLine
 10
87.1428037632
 20
6.5
 30
0.0
 11
83.4428037632
 21
6.5
 31
0.0
  0
LINE
  5
94
330
1F
100
AcDbEntity
  8
SK1
  6
SLD-Solid
370
    25
100
AcDbLine
 10
87.1428037632
 20
-6.5
 30
0.0
 11
88.1428037632
 21
-5.5
 31
0.0
  0
LINE
  5
95
330
1F
100
AcDbEntity
  8
SK1
  6
SLD-Solid
370
    25
100
AcDbLine
 10
88.1428037632
 20
5.5
 30
0.0
 11
87.1428037632
 21
6.5
 31
0.0
  0
LINE
  5
96
330
1F
100
AcDbEntity
  8
SK1
  6
SLD-Solid
370
    25
100
AcDbLine
 10
74.0
 20
-4.35
 30
0.0
 11
78.1428037632
 21
-4.35
 31
0.0
  0
LINE
  5
97
330
1F
100
AcDbEntity
  8
SK1
  6
SLD-Solid
370
    25
100
AcDbLine
 10
78.1428037632
 20
4.35
 30
0.0
 11
74.0
 21
4.35
 31
0.0
  0
LINE
  5
98
330
1F
100
AcDbEntity
  8
SK1
  6
SLD-Solid
370
    25
100
AcDbLine
 10
78.4428037632
 20
14.0
 30
0.0
 11
78.1428037632
 21
13.7
 31
0.0
  0
LINE
  5
99
330
1F
100
AcDbEntity
  8
SK1
  6
SLD-Solid
370
    25
100
AcDbLine
 10
78.1428037632
 20
-13.7
 30
0.0
 11
78.4428037632
 21
-14.0
 31
0.0
  0
LINE
  5
9A
330
1F
100
AcDbEntity
  8
SK1
  6
SLD-Solid
370
    25
100
AcDbLine
 10
78.4428037632
 20
-14.0
 30
0.0
 11
82.1428037632
 21
-14.0
 31
0.0
  0
LINE
  5
9B
330
1F
100
AcDbEntity
  8
SK1
  6
SLD-Solid
370
    25
100
AcDbLine
 10
82.1428037632
 20
14.0
 30
0.0
 11
78.4428037632
 21
14.0
 31
0.0
  0
LINE
  5
9C
330
1F
100
AcDbEntity
  8
SK1
  6
SLD-Solid
370
    25
100
AcDbLine
 10
82.1428037632
 20
-14.0
 30
0.0
 11
83.1428037632
 21
-13.0
 31
0.0
  0
LINE
  5
9D
330
1F
100
AcDbEntity
  8
SK1
  6
SLD-Solid
370
    25
100
AcDbLine
 10
83.1428037632
 20
13.0
 30
0.0
 11
82.1428037632
 21
14.0
 31
0.0
  0
LINE
  5
9E
330
1F
100
AcDbEntity
  8
1
  6
SLD-Solid
370
    25
100
AcDbLine
 10
1.8869952227
 20
22.225
 30
0.0
 11
0.0
 21
22.225
 31
0.0
  0
LINE
  5
9F
330
1F
100
AcDbEntity
  8
1
  6
SLD-Solid
370
    25
100
AcDbLine
 10
0.0
 20
-22.225
 30
0.0
 11
1.8869952227
 21
-22.225
 31
0.0
  0
LINE
  5
A0
330
1F
100
AcDbEntity
  8
SK1
  6
SLD-Solid
370
    25
100
AcDbLine
 10
0.0
 20
22.225
 30
0.0
 11
-67.3943082273
 21
12.3965705826
 31
0.0
  0
LINE
  5
A1
330
1F
100
AcDbEntity
  8
SK1
  6
SLD-Solid
370
    25
100
AcDbLine
 10
-67.3943082273
 20
-12.3965705827
 30
0.0
 11
0.0
 21
-22.225
 31
0.0
  0
LINE
  5
A2
330
1F
100
AcDbEntity
  8
1
  6
SLD-Solid
370
    25
100
AcDbLine
 10
1.8869952227
 20
-22.225
 30
0.0
 11
2.1330363037
 21
-22.1102691597
 31
0.0
  0
LINE
  5
A3
330
1F
100
AcDbEntity
  8
1
  6
SLD-Solid
370
    25
100
AcDbLine
 10
2.1330363037
 20
22.1102691597
 30
0.0
 11
1.8869952227
 21
22.225
 31
0.0
  0
LINE
  5
A4
330
1F
100
AcDbEntity
  8
1
  6
SLD-Solid
370
    25
100
AcDbLine
 10
42.2
 20
20.0
 30
0.0
 11
21.05
 21
20.0
 31
0.0
  0
LINE
  5
A5
330
1F
100
AcDbEntity
  8
1
  6
SLD-Solid
370
    25
100
AcDbLine
 10
21.05
 20
-20.0
 30
0.0
 11
42.2
 21
-20.0
 31
0.0
  0
LINE
  5
A6
330
1F
100
AcDbEntity
  8
SK1
  6
SLD-Solid
370
    25
100
AcDbLine
 10
72.0
 20
11.0
 30
0.0
 11
44.3455452618
 21
11.0
 31
0.0
  0
LINE
  5
A7
330
1F
100
AcDbEntity
  8
SK1
  6
SLD-Solid
370
    25
100
AcDbLine
 10
44.3455452618
 20
-11.0
 30
0.0
 11
46.9030059464
 21
-11.0
 31
0.0
  0
LINE
  5
A8
330
1F
100
AcDbEntity
  8
SK1
  6
SLD-Solid
370
    25
100
AcDbLine
 10
44.3455452618
 20
11.0
 30
0.0
 11
43.6605646396
 21
10.7840264394
 31
0.0
  0
LINE
  5
A9
330
1F
100
AcDbEntity
  8
SK1
  6
SLD-Solid
370
    25
100
AcDbLine
 10
43.6605646396
 20
-10.7840264394
 30
0.0
 11
44.3455452618
 21
-11.0
 31
0.0
  0
LINE
  5
AA
330
1F
100
AcDbEntity
  8
SK1
  6
SLD-Solid
370
    25
100
AcDbLine
 10
72.0
 20
-11.0
 30
0.0
 11
74.0
 21
-10.6473460386
 31
0.0
  0
LINE
  5
AB
330
1F
100
AcDbEntity
  8
SK1
  6
SLD-Solid
370
    25
100
AcDbLine
 10
74.0
 20
10.6473460386
 30
0.0
 11
72.0
 21
11.0
 31
0.0
  0
LINE
  5
AC
330
1F
100
AcDbEntity
  8
SK1
  6
SLD-Solid
370
    25
100
AcDbLine
 10
87.1428037632
 20
-6.5
 30
0.0
 11
87.1428037632
 21
6.5
 31
0.0
  0
LINE
  5
AD
330
1F
100
AcDbEntity
  8
SK1
  6
SLD-Solid
370
    25
100
AcDbLine
 10
88.1428037632
 20
5.5
 30
0.0
 11
88.1428037632
 21
-5.5
 31
0.0
  0
LINE
  5
AE
330
1F
100
AcDbEntity
  8
SK1
  6
SLD-Solid
370
    25
100
AcDbLine
 10
78.1428037632
 20
-12.6618769205
 30
0.0
 11
78.1428037632
 21
13.7
 31
0.0
  0
LINE
  5
AF
330
1F
100
AcDbEntity
  8
SK1
  6
SLD-Solid
370
    25
100
AcDbLine
 10
78.1428037632
 20
-13.7
 30
0.0
 11
78.1428037632
 21
-12.6618769205
 31
0.0
  0
LINE
  5
B0
330
1F
100
AcDbEntity
  8
SK1
  6
SLD-Solid
370
    25
100
AcDbLine
 10
78.4428037632
 20
-12.9391442983
 30
0.0
 11
78.4428037632
 21
-14.0
 31
0.0
  0
LINE
  5
B1
330
1F
100
AcDbEntity
  8
SK1
  6
SLD-Solid
370
    25
100
AcDbLine
 10
78.4428037632
 20
14.0
 30
0.0
 11
78.4428037632
 21
-12.9391442983
 31
0.0
  0
LINE
  5
B2
330
1F
100
AcDbEntity
  8
SK1
  6
SLD-Solid
370
    25
100
AcDbLine
 10
82.1428037632
 20
-14.0
 30
0.0
 11
82.1428037632
 21
14.0
 31
0.0
  0
LINE
  5
B3
330
1F
100
AcDbEntity
  8
SK1
  6
SLD-Solid
370
    25
100
AcDbLine
 10
83.1428037632
 20
-13.0
 30
0.0
 11
83.1428037632
 21
13.0
 31
0.0
  0
LINE
  5
B4
330
1F
100
AcDbEntity
  8
1
  6
SLD-Solid
370
    25
100
AcDbLine
 10
18.3
 20
30.5753585477
 30
0.0
 11
14.6368366421
 21
30.5753585477
 31
0.0
  0
LINE
  5
B5
330
1F
100
AcDbEntity
  8
1
  6
SLD-Solid
370
    25
100
AcDbLine
 10
14.6368366421
 20
-30.5578859972
 30
0.0
 11
18.3
 21
-30.5578859972
 31
0.0
  0
LINE
  5
B6
330
1F
100
AcDbEntity
  8
1
  6
SLD-Solid
370
    25
100
AcDbLine
 10
14.6368366421
 20
30.5753585477
 30
0.0
 11
14.6368366421
 21
-30.5578859972
 31
0.0
  0
LINE
  5
B7
330
1F
100
AcDbEntity
  8
1
  6
SLD-Solid
370
    25
100
AcDbLine
 10
19.05
 20
29.8288189921
 30
0.0
 11
19.05
 21
-29.8048528797
 31
0.0
  0
LINE
  5
B8
330
1F
100
AcDbEntity
  8
1
  6
SLD-Solid
370
    25
100
AcDbLine
 10
3.2
 20
29.8288211426
 30
0.0
 11
3.2
 21
-29.804866641
 31
0.0
  0
LINE
  5
B9
330
1F
100
AcDbEntity
  8
1
  6
SLD-Solid
370
    25
100
AcDbLine
 10
3.95
 20
-30.5579089831
 30
0.0
 11
7.5931633579
 21
-30.5579089831
 31
0.0
  0
LINE
  5
BA
330
1F
100
AcDbEntity
  8
1
  6
SLD-Solid
370
    25
100
AcDbLine
 10
7.5931633579
 20
30.5753609371
 30
0.0
 11
3.95
 21
30.5753609371
 31
0.0
  0
LINE
  5
BB
330
1F
100
AcDbEntity
  8
1
  6
SLD-Solid
370
    25
100
AcDbLine
 10
7.5931633579
 20
30.5753609371
 30
0.0
 11
7.5931633579
 21
-30.5579089831
 31
0.0
  0
LINE
  5
BC
330
1F
100
AcDbEntity
  8
1
  6
SLD-Solid
370
    25
100
AcDbLine
 10
13.03
 20
27.8127840266
 30
0.0
 11
13.03
 21
14.4271385169
 31
0.0
  0
LINE
  5
BD
330
1F
100
AcDbEntity
  8
1
  6
SLD-Solid
370
    25
100
AcDbLine
 10
13.03
 20
-10.4473679721
 30
0.0
 11
13.03
 21
-27.8127840266
 31
0.0
  0
LINE
  5
BE
330
1F
100
AcDbEntity
  8
1
  6
SLD-Solid
370
    25
100
AcDbLine
 10
13.03
 20
2.0013803193
 30
0.0
 11
13.03
 21
-9.3632135186
 31
0.0
  0
LINE
  5
BF
330
1F
100
AcDbEntity
  8
1
  6
SLD-Solid
370
    25
100
AcDbLine
 10
13.03
 20
13.358298959
 30
0.0
 11
13.03
 21
3.2145852486
 31
0.0
  0
LINE
  5
C0
330
1F
100
AcDbEntity
  8
1
  6
SLD-Solid
370
    25
100
AcDbLine
 10
9.2
 20
-10.4473679721
 30
0.0
 11
9.2
 21
-27.8127840266
 31
0.0
  0
LINE
  5
C1
330
1F
100
AcDbEntity
  8
1
  6
SLD-Solid
370
    25
100
AcDbLine
 10
9.2
 20
27.8127840266
 30
0.0
 11
9.2
 21
14.3694120127
 31
0.0
  0
LINE
  5
C2
330
1F
100
AcDbEntity
  8
1
  6
SLD-Solid
370
    25
100
AcDbLine
 10
9.2
 20
13.417294268
 30
0.0
 11
9.2
 21
3.1484607785
 31
0.0
  0
LINE
  5
C3
330
1F
100
AcDbEntity
  8
1
  6
SLD-Solid
370
    25
100
AcDbLine
 10
9.2
 20
2.0677429732
 30
0.0
 11
9.2
 21
-9.3632135186
 31
0.0
  0
LINE
  5
C4
330
1F
100
AcDbEntity
  8
SK3
  6
SLD-Solid
370
    25
100
AcDbLine
 10
9.2
 20
3.1484607785
 30
0.0
 11
9.2
 21
3.1289268349
 31
0.0
  0
LINE
  5
C5
330
1F
100
AcDbEntity
  8
SK3
  6
SLD-Solid
370
    25
100
AcDbLine
 10
13.03
 20
3.1950504063
 30
0.0
 11
13.03
 21
3.2145852486
 31
0.0
  0
LINE
  5
C6
330
1F
100
AcDbEntity
  8
1
  6
SLD-Solid
370
    25
100
AcDbLine
 10
9.2
 20
-10.3731767437
 30
0.0
 11
9.2
 21
-10.4473679721
 31
0.0
  0
LINE
  5
C7
330
1F
100
AcDbEntity
  8
1
  6
SLD-Solid
370
    25
100
AcDbLine
 10
13.03
 20
-10.4473679721
 30
0.0
 11
13.03
 21
-10.3731767437
 31
0.0
  0
LINE
  5
C8
330
1F
100
AcDbEntity
  8
1
  6
SLD-Solid
370
    25
100
AcDbLine
 10
12.28
 20
-26.8043088887
 30
0.0
 11
9.95
 21
-26.8043088887
 31
0.0
  0
LINE
  5
C9
330
1F
100
AcDbEntity
  8
1
  6
SLD-Solid
370
    25
100
AcDbLine
 10
9.2
 20
14.3694120127
 30
0.0
 11
9.2
 21
14.265354737
 31
0.0
  0
LINE
  5
CA
330
1F
100
AcDbEntity
  8
1
  6
SLD-Solid
370
    25
100
AcDbLine
 10
13.03
 20
14.3230764537
 30
0.0
 11
13.03
 21
14.4271385169
 31
0.0
  0
LINE
  5
CB
330
1F
100
AcDbEntity
  8
1
  6
SLD-Solid
370
    25
100
AcDbLine
 10
12.28
 20
26.8043088887
 30
0.0
 11
9.95
 21
26.8043088887
 31
0.0
  0
LINE
  5
CC
330
1F
100
AcDbEntity
  8
1
  6
SLD-Solid
370
    25
100
AcDbLine
 10
0.0
 20
0.0
 30
0.0
 11
0.0
 21
-22.225
 31
0.0
  0
LINE
  5
CD
330
1F
100
AcDbEntity
  8
1
  6
SLD-Solid
370
    25
100
AcDbLine
 10
0.0
 20
22.225
 30
0.0
 11
0.0
 21
0.0
 31
0.0
  0
LINE
  5
CE
330
1F
100
AcDbEntity
  8
1
  6
SLD-Solid
370
    25
100
AcDbLine
 10
1.8869952227
 20
0.0
 30
0.0
 11
1.8869952227
 21
-22.225
 31
0.0
  0
LINE
  5
CF
330
1F
100
AcDbEntity
  8
1
  6
SLD-Solid
370
    25
100
AcDbLine
 10
1.8869952227
 20
22.225
 30
0.0
 11
1.8869952227
 21
0.0
 31
0.0
  0
LINE
  5
D0
330
1F
100
AcDbEntity
  8
1
  6
SLD-Solid
370
    25
100
AcDbLine
 10
42.2
 20
5.05
 30
0.0
 11
37.3
 21
5.05
 31
0.0
  0
LINE
  5
D1
330
1F
100
AcDbEntity
  8
1
  6
SLD-Solid
370
    25
100
AcDbLine
 10
37.3
 20
-5.05
 30
0.0
 11
42.2
 21
-5.05
 31
0.0
  0
LINE
  5
D2
330
1F
100
AcDbEntity
  8
1
  6
SLD-Solid
370
    25
100
AcDbLine
 10
43.0
 20
-5.05
 30
0.0
 11
43.0
 21
-19.2
 31
0.0
  0
LINE
  5
D3
330
1F
100
AcDbEntity
  8
1
  6
SLD-Solid
370
    25
100
AcDbLine
 10
43.0
 20
19.2
 30
0.0
 11
43.0
 21
5.05
 31
0.0
  0
LINE
  5
D4
330
1F
100
AcDbEntity
  8
SK1
  6
SLD-Solid
370
    25
100
AcDbLine
 10
-68.25
 20
0.0
 30
0.0
 11
-68.25
 21
-11.4070377962
 31
0.0
  0
LINE
  5
D5
330
1F
100
AcDbEntity
  8
SK1
  6
SLD-Solid
370
    25
100
AcDbLine
 10
-68.25
 20
11.4070377961
 30
0.0
 11
-68.25
 21
0.0
 31
0.0
  0
LINE
  5
D6
330
1F
100
AcDbEntity
  8
SK1
  6
SLD-Solid
370
    25
100
AcDbLine
 10
72.0
 20
11.0
 30
0.0
 11
72.0
 21
-11.0
 31
0.0
  0
LINE
  5
D7
330
1F
100
AcDbEntity
  8
SK1
  6
SLD-Solid
370
    25
100
AcDbLine
 10
68.99375
 20
-10.5812315416
 30
0.0
 11
49.90625
 21
-10.5812315416
 31
0.0
  0
LINE
  5
D8
330
1F
100
AcDbEntity
  8
SK1
  6
SLD-Solid
370
    25
100
AcDbLine
 10
44.3455452618
 20
0.0
 30
0.0
 11
44.3455452618
 21
-11.0
 31
0.0
  0
LINE
  5
D9
330
1F
100
AcDbEntity
  8
SK1
  6
SLD-Solid
370
    25
100
AcDbLine
 10
44.3455452618
 20
11.0
 30
0.0
 11
44.3455452618
 21
0.0
 31
0.0
  0
LINE
  5
DA
330
1F
100
AcDbEntity
  8
SK1
  6
SLD-Solid
370
    25
100
AcDbLine
 10
74.0
 20
0.0
 30
0.0
 11
74.0
 21
-10.6473460386
 31
0.0
  0
LINE
  5
DB
330
1F
100
AcDbEntity
  8
SK1
  6
SLD-Solid
370
    25
100
AcDbLine
 10
74.0
 20
10.6473460386
 30
0.0
 11
74.0
 21
0.0
 31
0.0
  0
LINE
  5
DC
330
1F
100
AcDbEntity
  8
SK1
  6
SLD-Solid
370
    25
100
AcDbLine
 10
83.4428037632
 20
0.6136223757
 30
0.0
 11
83.4428037632
 21
-6.5
 31
0.0
  0
LINE
  5
DD
330
1F
100
AcDbEntity
  8
SK1
  6
SLD-Solid
370
    25
100
AcDbLine
 10
83.4428037632
 20
6.5
 30
0.0
 11
83.4428037632
 21
0.6136223757
 31
0.0
  0
LINE
  5
DE
330
1F
100
AcDbEntity
  8
1
  6
SLD-Solid
370
    25
100
AcDbLine
 10
42.2
 20
5.05
 30
0.0
 11
42.2
 21
20.0
 31
0.0
  0
LINE
  5
DF
330
1F
100
AcDbEntity
  8
1
  6
SLD-Solid
370
    25
100
AcDbLine
 10
42.2
 20
-20.0
 30
0.0
 11
42.2
 21
-5.05
 31
0.0
  0
LINE
  5
E0
330
1F
100
AcDbEntity
  8
SK1
  6
SLD-Solid
370
    25
100
AcDbLine
 10
43.6605646396
 20
0.0
 30
0.0
 11
43.6605646396
 21
-10.7840264394
 31
0.0
  0
LINE
  5
E1
330
1F
100
AcDbEntity
  8
SK1
  6
SLD-Solid
370
    25
100
AcDbLine
 10
43.6605646396
 20
10.7840264394
 30
0.0
 11
43.6605646396
 21
0.0
 31
0.0
  0
LINE
  5
E2
330
1F
100
AcDbEntity
  8
SK3
  6
SLD-Dashed
370
    18
100
AcDbLine
 10
3.3100253255
 20
-8.8686354442
 30
0.0
 11
3.4332701059
 21
-9.3543571971
 31
0.0
  0
LINE
  5
E3
330
1F
100
AcDbEntity
  8
SK3
  6
SLD-Dashed
370
    18
100
AcDbLine
 10
3.4332701059
 20
-9.3543571971
 30
0.0
 11
3.6248702638
 21
-9.809559266
 31
0.0
  0
LINE
  5
E4
330
1F
100
AcDbEntity
  8
SK3
  6
SLD-Dashed
370
    18
100
AcDbLine
 10
3.6248702638
 20
-9.809559266
 30
0.0
 11
3.8727868565
 21
-10.2056396306
 31
0.0
  0
LINE
  5
E5
330
1F
100
AcDbEntity
  8
SK3
  6
SLD-Dashed
370
    18
100
AcDbLine
 10
3.8727868565
 20
-10.2056396306
 30
0.0
 11
4.1614423729
 21
-10.5177111051
 31
0.0
  0
LINE
  5
E6
330
1F
100
AcDbEntity
  8
SK3
  6
SLD-Dashed
370
    18
100
AcDbLine
 10
4.1614423729
 20
-10.5177111051
 30
0.0
 11
4.4726995251
 21
-10.7261650909
 31
0.0
  0
LINE
  5
E7
330
1F
100
AcDbEntity
  8
SK3
  6
SLD-Dashed
370
    18
100
AcDbLine
 10
4.4726995251
 20
-10.7261650909
 30
0.0
 11
4.7870008817
 21
-10.8179036574
 31
0.0
  0
LINE
  5
E8
330
1F
100
AcDbEntity
  8
SK3
  6
SLD-Dashed
370
    18
100
AcDbLine
 10
4.7870008817
 20
-10.8179036574
 30
0.0
 11
5.0845977324
 21
-10.7871625333
 31
0.0
  0
LINE
  5
E9
330
1F
100
AcDbEntity
  8
SK3
  6
SLD-Dashed
370
    18
100
AcDbLine
 10
5.0845977324
 20
-10.7871625333
 30
0.0
 11
5.3467909727
 21
-10.6358732963
 31
0.0
  0
LINE
  5
EA
330
1F
100
AcDbEntity
  8
SK3
  6
SLD-Dashed
370
    18
100
AcDbLine
 10
5.3467909727
 20
-10.6358732963
 30
0.0
 11
5.5571060369
 21
-10.3735420056
 31
0.0
  0
LINE
  5
EB
330
1F
100
AcDbEntity
  8
SK3
  6
SLD-Dashed
370
    18
100
AcDbLine
 10
5.5571060369
 20
-10.3735420056
 30
0.0
 11
5.7023280561
 21
-10.016651901
 31
0.0
  0
LINE
  5
EC
330
1F
100
AcDbEntity
  8
SK3
  6
SLD-Dashed
370
    18
100
AcDbLine
 10
5.7023280561
 20
-10.016651901
 30
0.0
 11
5.7733321968
 21
-9.5876277002
 31
0.0
  0
LINE
  5
ED
330
1F
100
AcDbEntity
  8
SK3
  6
SLD-Dashed
370
    18
100
AcDbLine
 10
5.7733321968
 20
-9.5876277002
 30
0.0
 11
5.7656570077
 21
-9.1134265718
 31
0.0
  0
LINE
  5
EE
330
1F
100
AcDbEntity
  8
SK3
  6
SLD-Dashed
370
    18
100
AcDbLine
 10
5.7656570077
 20
-9.1134265718
 30
0.0
 11
5.679784749
 21
-8.6238443166
 31
0.0
  0
LINE
  5
EF
330
1F
100
AcDbEntity
  8
SK3
  6
SLD-Dashed
370
    18
100
AcDbLine
 10
5.679784749
 20
-8.6238443166
 30
0.0
 11
5.5211110907
 21
-8.1496431882
 31
0.0
  0
LINE
  5
F0
330
1F
100
AcDbEntity
  8
SK3
  6
SLD-Dashed
370
    18
100
AcDbLine
 10
5.5211110907
 20
-8.1496431882
 30
0.0
 11
5.2996060822
 21
-7.7206189875
 31
0.0
  0
LINE
  5
F1
330
1F
100
AcDbEntity
  8
SK3
  6
SLD-Dashed
370
    18
100
AcDbLine
 10
5.2996060822
 20
-7.7206189875
 30
0.0
 11
5.029187698
 21
-7.3637288828
 31
0.0
  0
LINE
  5
F2
330
1F
100
AcDbEntity
  8
SK3
  6
SLD-Dashed
370
    18
100
AcDbLine
 10
5.029187698
 20
-7.3637288828
 30
0.0
 11
4.7268473195
 21
-7.1013975921
 31
0.0
  0
LINE
  5
F3
330
1F
100
AcDbEntity
  8
SK3
  6
SLD-Dashed
370
    18
100
AcDbLine
 10
4.7268473195
 20
-7.1013975921
 30
0.0
 11
4.4115821047
 21
-6.9501083551
 31
0.0
  0
LINE
  5
F4
330
1F
100
AcDbEntity
  8
SK3
  6
SLD-Dashed
370
    18
100
AcDbLine
 10
4.4115821047
 20
-6.9501083551
 30
0.0
 11
4.1032013265
 21
-6.919367231
 31
0.0
  0
LINE
  5
F5
330
1F
100
AcDbEntity
  8
SK3
  6
SLD-Dashed
370
    18
100
AcDbLine
 10
4.1032013265
 20
-6.919367231
 30
0.0
 11
3.8210816833
 21
-7.0111057976
 31
0.0
  0
LINE
  5
F6
330
1F
100
AcDbEntity
  8
SK3
  6
SLD-Dashed
370
    18
100
AcDbLine
 10
3.8210816833
 20
-7.0111057976
 30
0.0
 11
3.58294979
 21
-7.2195597834
 31
0.0
  0
LINE
  5
F7
330
1F
100
AcDbEntity
  8
SK3
  6
SLD-Dashed
370
    18
100
AcDbLine
 10
3.58294979
 20
-7.2195597834
 30
0.0
 11
3.4037683491
 21
-7.5316312578
 31
0.0
  0
LINE
  5
F8
330
1F
100
AcDbEntity
  8
SK3
  6
SLD-Dashed
370
    18
100
AcDbLine
 10
3.4037683491
 20
-7.5316312578
 30
0.0
 11
3.2947959895
 21
-7.9277116224
 31
0.0
  0
LINE
  5
F9
330
1F
100
AcDbEntity
  8
SK3
  6
SLD-Dashed
370
    18
100
AcDbLine
 10
3.2947959895
 20
-7.9277116224
 30
0.0
 11
3.2628798454
 21
-8.3829136913
 31
0.0
  0
LINE
  5
FA
330
1F
100
AcDbEntity
  8
SK3
  6
SLD-Dashed
370
    18
100
AcDbLine
 10
3.2628798454
 20
-8.3829136913
 30
0.0
 11
3.3100253255
 21
-8.8686354442
 31
0.0
  0
LINE
  5
FB
330
1F
100
AcDbEntity
  8
SK3
  6
SLD-Dashed
370
    18
100
AcDbLine
 10
3.2
 20
-7.1668508159
 30
0.0
 11
3.2
 21
-11.3022369236
 31
0.0
  0
LINE
  5
FC
330
1F
100
AcDbEntity
  8
SK3
  6
SLD-Dashed
370
    18
100
AcDbLine
 10
13.03
 20
-9.2890222902
 30
0.0
 11
13.03
 21
-9.3632135186
 31
0.0
  0
LINE
  5
FD
330
1F
100
AcDbEntity
  8
SK3
  6
SLD-Dashed
370
    18
100
AcDbLine
 10
9.2
 20
-9.3632135186
 30
0.0
 11
9.2
 21
-9.2890222902
 31
0.0
  0
LINE
  5
FE
330
1F
100
AcDbEntity
  8
SK3
  6
SLD-Dashed
370
    18
100
AcDbLine
 10
3.3403033958
 20
-8.8686354442
 30
0.0
 11
3.4669882105
 21
-9.36150305
 31
0.0
  0
LINE
  5
FF
330
1F
100
AcDbEntity
  8
SK3
  6
SLD-Dashed
370
    18
100
AcDbLine
 10
3.4669882105
 20
-9.36150305
 30
0.0
 11
3.665512282
 21
-9.820782543
 31
0.0
  0
LINE
  5
100
330
1F
100
AcDbEntity
  8
SK3
  6
SLD-Dashed
370
    18
100
AcDbLine
 10
3.665512282
 20
-9.820782543
 30
0.0
 11
3.9223465228
 21
-10.2151747846
 31
0.0
  0
LINE
  5
101
330
1F
100
AcDbEntity
  8
SK3
  6
SLD-Dashed
370
    18
100
AcDbLine
 10
3.9223465228
 20
-10.2151747846
 30
0.0
 11
4.2199881039
 21
-10.5178025955
 31
0.0
  0
LINE
  5
102
330
1F
100
AcDbEntity
  8
SK3
  6
SLD-Dashed
370
    18
100
AcDbLine
 10
4.2199881039
 20
-10.5178025955
 30
0.0
 11
4.5381532434
 21
-10.7080423904
 31
0.0
  0
LINE
  5
103
330
1F
100
AcDbEntity
  8
SK3
  6
SLD-Dashed
370
    18
100
AcDbLine
 10
4.5381532434
 20
-10.7080423904
 30
0.0
 11
4.8551595128
 21
-10.7729296417
 31
0.0
  0
LINE
  5
104
330
1F
100
AcDbEntity
  8
SK3
  6
SLD-Dashed
370
    18
100
AcDbLine
 10
4.8551595128
 20
-10.7729296417
 30
0.0
 11
5.1494034588
 21
-10.7080423904
 31
0.0
  0
LINE
  5
105
330
1F
100
AcDbEntity
  8
SK3
  6
SLD-Dashed
370
    18
100
AcDbLine
 10
5.1494034588
 20
-10.7080423904
 30
0.0
 11
5.4008328426
 21
-10.5178025955
 31
0.0
  0
LINE
  5
106
330
1F
100
AcDbEntity
  8
SK3
  6
SLD-Dashed
370
    18
100
AcDbLine
 10
5.4008328426
 20
-10.5178025955
 30
0.0
 11
5.5923131674
 21
-10.2151747846
 31
0.0
  0
LINE
  5
107
330
1F
100
AcDbEntity
  8
SK3
  6
SLD-Dashed
370
    18
100
AcDbLine
 10
5.5923131674
 20
-10.2151747846
 30
0.0
 11
5.7107953653
 21
-9.820782543
 31
0.0
  0
LINE
  5
108
330
1F
100
AcDbEntity
  8
SK3
  6
SLD-Dashed
370
    18
100
AcDbLine
 10
5.7107953653
 20
-9.820782543
 30
0.0
 11
5.7482050704
 21
-9.36150305
 31
0.0
  0
LINE
  5
109
330
1F
100
AcDbEntity
  8
SK3
  6
SLD-Dashed
370
    18
100
AcDbLine
 10
5.7482050704
 20
-9.36150305
 30
0.0
 11
5.7019928732
 21
-8.8686354442
 31
0.0
  0
LINE
  5
10A
330
1F
100
AcDbEntity
  8
SK3
  6
SLD-Dashed
370
    18
100
AcDbLine
 10
5.7019928732
 20
-8.8686354442
 30
0.0
 11
5.5753080585
 21
-8.3757678384
 31
0.0
  0
LINE
  5
10B
330
1F
100
AcDbEntity
  8
SK3
  6
SLD-Dashed
370
    18
100
AcDbLine
 10
5.5753080585
 20
-8.3757678384
 30
0.0
 11
5.376783987
 21
-7.9164883454
 31
0.0
  0
LINE
  5
10C
330
1F
100
AcDbEntity
  8
SK3
  6
SLD-Dashed
370
    18
100
AcDbLine
 10
5.376783987
 20
-7.9164883454
 30
0.0
 11
5.1199497461
 21
-7.5220961038
 31
0.0
  0
LINE
  5
10D
330
1F
100
AcDbEntity
  8
SK3
  6
SLD-Dashed
370
    18
100
AcDbLine
 10
5.1199497461
 20
-7.5220961038
 30
0.0
 11
4.8223081651
 21
-7.2194682929
 31
0.0
  0
LINE
  5
10E
330
1F
100
AcDbEntity
  8
SK3
  6
SLD-Dashed
370
    18
100
AcDbLine
 10
4.8223081651
 20
-7.2194682929
 30
0.0
 11
4.5041430256
 21
-7.029228498
 31
0.0
  0
LINE
  5
10F
330
1F
100
AcDbEntity
  8
SK3
  6
SLD-Dashed
370
    18
100
AcDbLine
 10
4.5041430256
 20
-7.029228498
 30
0.0
 11
4.1871367561
 21
-6.9643412467
 31
0.0
  0
LINE
  5
110
330
1F
100
AcDbEntity
  8
SK3
  6
SLD-Dashed
370
    18
100
AcDbLine
 10
4.1871367561
 20
-6.9643412467
 30
0.0
 11
3.8928928102
 21
-7.029228498
 31
0.0
  0
LINE
  5
111
330
1F
100
AcDbEntity
  8
SK3
  6
SLD-Dashed
370
    18
100
AcDbLine
 10
3.8928928102
 20
-7.029228498
 30
0.0
 11
3.6414634263
 21
-7.2194682929
 31
0.0
  0
LINE
  5
112
330
1F
100
AcDbEntity
  8
SK3
  6
SLD-Dashed
370
    18
100
AcDbLine
 10
3.6414634263
 20
-7.2194682929
 30
0.0
 11
3.4499831016
 21
-7.5220961038
 31
0.0
  0
LINE
  5
113
330
1F
100
AcDbEntity
  8
SK3
  6
SLD-Dashed
370
    18
100
AcDbLine
 10
3.4499831016
 20
-7.5220961038
 30
0.0
 11
3.3315009036
 21
-7.9164883455
 31
0.0
  0
LINE
  5
114
330
1F
100
AcDbEntity
  8
SK3
  6
SLD-Dashed
370
    18
100
AcDbLine
 10
3.3315009036
 20
-7.9164883455
 30
0.0
 11
3.2940911985
 21
-8.3757678384
 31
0.0
  0
LINE
  5
115
330
1F
100
AcDbEntity
  8
SK3
  6
SLD-Dashed
370
    18
100
AcDbLine
 10
3.2940911985
 20
-8.3757678384
 30
0.0
 11
3.3403033958
 21
-8.8686354442
 31
0.0
  0
LINE
  5
116
330
1F
100
AcDbEntity
  8
SK3
  6
SLD-Dashed
370
    18
100
AcDbLine
 10
13.9872030677
 20
-5.9198440145
 30
0.0
 11
14.1138878825
 21
-6.4127116203
 31
0.0
  0
LINE
  5
117
330
1F
100
AcDbEntity
  8
SK3
  6
SLD-Dashed
370
    18
100
AcDbLine
 10
14.1138878825
 20
-6.4127116203
 30
0.0
 11
14.3124119539
 21
-6.8719911132
 31
0.0
  0
LINE
  5
118
330
1F
100
AcDbEntity
  8
SK3
  6
SLD-Dashed
370
    18
100
AcDbLine
 10
14.3124119539
 20
-6.8719911132
 30
0.0
 11
14.5692461948
 21
-7.2663833549
 31
0.0
  0
LINE
  5
119
330
1F
100
AcDbEntity
  8
SK3
  6
SLD-Dashed
370
    18
100
AcDbLine
 10
14.5692461948
 20
-7.2663833549
 30
0.0
 11
14.8668877759
 21
-7.5690111658
 31
0.0
  0
LINE
  5
11A
330
1F
100
AcDbEntity
  8
SK3
  6
SLD-Dashed
370
    18
100
AcDbLine
 10
14.8668877759
 20
-7.5690111658
 30
0.0
 11
15.1850529154
 21
-7.7592509607
 31
0.0
  0
LINE
  5
11B
330
1F
100
AcDbEntity
  8
SK3
  6
SLD-Dashed
370
    18
100
AcDbLine
 10
15.1850529154
 20
-7.7592509607
 30
0.0
 11
15.5020591848
 21
-7.824138212
 31
0.0
  0
LINE
  5
11C
330
1F
100
AcDbEntity
  8
SK3
  6
SLD-Dashed
370
    18
100
AcDbLine
 10
15.5020591848
 20
-7.824138212
 30
0.0
 11
15.7963031307
 21
-7.7592509607
 31
0.0
  0
LINE
  5
11D
330
1F
100
AcDbEntity
  8
SK3
  6
SLD-Dashed
370
    18
100
AcDbLine
 10
15.7963031307
 20
-7.7592509607
 30
0.0
 11
16.0477325146
 21
-7.5690111658
 31
0.0
  0
LINE
  5
11E
330
1F
100
AcDbEntity
  8
SK3
  6
SLD-Dashed
370
    18
100
AcDbLine
 10
16.0477325146
 20
-7.5690111658
 30
0.0
 11
16.2392128393
 21
-7.2663833549
 31
0.0
  0
LINE
  5
11F
330
1F
100
AcDbEntity
  8
SK3
  6
SLD-Dashed
370
    18
100
AcDbLine
 10
16.2392128393
 20
-7.2663833549
 30
0.0
 11
16.3576950373
 21
-6.8719911132
 31
0.0
  0
LINE
  5
120
330
1F
100
AcDbEntity
  8
SK3
  6
SLD-Dashed
370
    18
100
AcDbLine
 10
16.3576950373
 20
-6.8719911132
 30
0.0
 11
16.3951047424
 21
-6.4127116203
 31
0.0
  0
LINE
  5
121
330
1F
100
AcDbEntity
  8
SK3
  6
SLD-Dashed
370
    18
100
AcDbLine
 10
16.3951047424
 20
-6.4127116203
 30
0.0
 11
16.3488925452
 21
-5.9198440145
 31
0.0
  0
LINE
  5
122
330
1F
100
AcDbEntity
  8
SK3
  6
SLD-Dashed
370
    18
100
AcDbLine
 10
16.3488925452
 20
-5.9198440145
 30
0.0
 11
16.2222077304
 21
-5.4269764087
 31
0.0
  0
LINE
  5
123
330
1F
100
AcDbEntity
  8
SK3
  6
SLD-Dashed
370
    18
100
AcDbLine
 10
16.2222077304
 20
-5.4269764087
 30
0.0
 11
16.0236836589
 21
-4.9676969157
 31
0.0
  0
LINE
  5
124
330
1F
100
AcDbEntity
  8
SK3
  6
SLD-Dashed
370
    18
100
AcDbLine
 10
16.0236836589
 20
-4.9676969157
 30
0.0
 11
15.7668494181
 21
-4.573304674
 31
0.0
  0
LINE
  5
125
330
1F
100
AcDbEntity
  8
SK3
  6
SLD-Dashed
370
    18
100
AcDbLine
 10
15.7668494181
 20
-4.573304674
 30
0.0
 11
15.469207837
 21
-4.2706768632
 31
0.0
  0
LINE
  5
126
330
1F
100
AcDbEntity
  8
SK3
  6
SLD-Dashed
370
    18
100
AcDbLine
 10
15.469207837
 20
-4.2706768632
 30
0.0
 11
15.1510426975
 21
-4.0804370683
 31
0.0
  0
LINE
  5
127
330
1F
100
AcDbEntity
  8
SK3
  6
SLD-Dashed
370
    18
100
AcDbLine
 10
15.1510426975
 20
-4.0804370683
 30
0.0
 11
14.8340364281
 21
-4.015549817
 31
0.0
  0
LINE
  5
128
330
1F
100
AcDbEntity
  8
SK3
  6
SLD-Dashed
370
    18
100
AcDbLine
 10
14.8340364281
 20
-4.015549817
 30
0.0
 11
14.5397924821
 21
-4.0804370683
 31
0.0
  0
LINE
  5
129
330
1F
100
AcDbEntity
  8
SK3
  6
SLD-Dashed
370
    18
100
AcDbLine
 10
14.5397924821
 20
-4.0804370683
 30
0.0
 11
14.2883630983
 21
-4.2706768632
 31
0.0
  0
LINE
  5
12A
330
1F
100
AcDbEntity
  8
SK3
  6
SLD-Dashed
370
    18
100
AcDbLine
 10
14.2883630983
 20
-4.2706768632
 30
0.0
 11
14.0968827735
 21
-4.573304674
 31
0.0
  0
LINE
  5
12B
330
1F
100
AcDbEntity
  8
SK3
  6
SLD-Dashed
370
    18
100
AcDbLine
 10
14.0968827735
 20
-4.573304674
 30
0.0
 11
13.9784005756
 21
-4.9676969157
 31
0.0
  0
LINE
  5
12C
330
1F
100
AcDbEntity
  8
SK3
  6
SLD-Dashed
370
    18
100
AcDbLine
 10
13.9784005756
 20
-4.9676969157
 30
0.0
 11
13.9409908705
 21
-5.4269764087
 31
0.0
  0
LINE
  5
12D
330
1F
100
AcDbEntity
  8
SK3
  6
SLD-Dashed
370
    18
100
AcDbLine
 10
13.9409908705
 20
-5.4269764087
 30
0.0
 11
13.9872030677
 21
-5.9198440145
 31
0.0
  0
LINE
  5
12E
330
1F
100
AcDbEntity
  8
SK3
  6
SLD-Dashed
370
    18
100
AcDbLine
 10
10.1492970604
 20
-7.9394482622
 30
0.0
 11
9.9959639476
 21
-7.8196308379
 31
0.0
  0
LINE
  5
12F
330
1F
100
AcDbEntity
  8
SK3
  6
SLD-Dashed
370
    18
100
AcDbLine
 10
9.9959639476
 20
-7.8196308379
 30
0.0
 11
9.8335697323
 21
-7.6479456875
 31
0.0
  0
LINE
  5
130
330
1F
100
AcDbEntity
  8
SK3
  6
SLD-Dashed
370
    18
100
AcDbLine
 10
9.8335697323
 20
-7.6479456875
 30
0.0
 11
9.6952184234
 21
-7.451236105
 31
0.0
  0
LINE
  5
131
330
1F
100
AcDbEntity
  8
SK3
  6
SLD-Dashed
370
    18
100
AcDbLine
 10
9.6952184234
 20
-7.451236105
 30
0.0
 11
9.5753254966
 21
-7.208740602
 31
0.0
  0
LINE
  5
132
330
1F
100
AcDbEntity
  8
SK3
  6
SLD-Dashed
370
    18
100
AcDbLine
 10
9.5753254966
 20
-7.208740602
 30
0.0
 11
9.4964044976
 21
-6.9452148642
 31
0.0
  0
LINE
  5
133
330
1F
100
AcDbEntity
  8
SK3
  6
SLD-Dashed
370
    18
100
AcDbLine
 10
9.4964044976
 20
-6.9452148642
 30
0.0
 11
9.4657786481
 21
-6.6888858809
 31
0.0
  0
LINE
  5
134
330
1F
100
AcDbEntity
  8
SK3
  6
SLD-Dashed
370
    18
100
AcDbLine
 10
9.4657786481
 20
-6.6888858809
 30
0.0
 11
9.4809355955
 21
-6.4277271394
 31
0.0
  0
LINE
  5
135
330
1F
100
AcDbEntity
  8
SK3
  6
SLD-Dashed
370
    18
100
AcDbLine
 10
9.4809355955
 20
-6.4277271394
 30
0.0
 11
9.5383674078
 21
-6.1908004838
 31
0.0
  0
LINE
  5
136
330
1F
100
AcDbEntity
  8
SK3
  6
SLD-Dashed
370
    18
100
AcDbLine
 10
9.5383674078
 20
-6.1908004838
 30
0.0
 11
9.6391793638
 21
-5.9633821804
 31
0.0
  0
LINE
  5
137
330
1F
100
AcDbEntity
  8
SK3
  6
SLD-Dashed
370
    18
100
AcDbLine
 10
9.6391793638
 20
-5.9633821804
 30
0.0
 11
9.7778460646
 21
-5.7590111298
 31
0.0
  0
LINE
  5
138
330
1F
100
AcDbEntity
  8
SK3
  6
SLD-Dashed
370
    18
100
AcDbLine
 10
9.7778460646
 20
-5.7590111298
 30
0.0
 11
9.9568785493
 21
-5.5739441608
 31
0.0
  0
LINE
  5
139
330
1F
100
AcDbEntity
  8
SK3
  6
SLD-Dashed
370
    18
100
AcDbLine
 10
9.9568785493
 20
-5.5739441608
 30
0.0
 11
10.1692341495
 21
-5.4154131213
 31
0.0
  0
LINE
  5
13A
330
1F
100
AcDbEntity
  8
SK3
  6
SLD-Dashed
370
    18
100
AcDbLine
 10
10.1692341495
 20
-5.4154131213
 30
0.0
 11
10.418116344
 21
-5.2793059694
 31
0.0
  0
LINE
  5
13B
330
1F
100
AcDbEntity
  8
SK3
  6
SLD-Dashed
370
    18
100
AcDbLine
 10
10.418116344
 20
-5.2793059694
 30
0.0
 11
10.5770234644
 21
-5.2106092747
 31
0.0
  0
LINE
  5
13C
330
1F
100
AcDbEntity
  8
SK3
  6
SLD-Dashed
370
    18
100
AcDbLine
 10
10.5770234644
 20
-5.2106092747
 30
0.0
 11
10.7415575901
 21
-5.1495605021
 31
0.0
  0
LINE
  5
13D
330
1F
100
AcDbEntity
  8
SK3
  6
SLD-Dashed
370
    18
100
AcDbLine
 10
10.7415575901
 20
-5.1495605021
 30
0.0
 11
10.8969273656
 21
-5.0985685639
 31
0.0
  0
LINE
  5
13E
330
1F
100
AcDbEntity
  8
SK3
  6
SLD-Dashed
370
    18
100
AcDbLine
 10
10.8969273656
 20
-5.0985685639
 30
0.0
 11
11.0468744202
 21
-5.0537390144
 31
0.0
  0
LINE
  5
13F
330
1F
100
AcDbEntity
  8
SK3
  6
SLD-Dashed
370
    18
100
AcDbLine
 10
11.0468744202
 20
-5.0537390144
 30
0.0
 11
11.2561534558
 21
-4.9969205373
 31
0.0
  0
LINE
  5
140
330
1F
100
AcDbEntity
  8
SK3
  6
SLD-Dashed
370
    18
100
AcDbLine
 10
11.2561534558
 20
-4.9969205373
 30
0.0
 11
11.4457331326
 21
-4.9517939818
 31
0.0
  0
LINE
  5
141
330
1F
100
AcDbEntity
  8
SK3
  6
SLD-Dashed
370
    18
100
AcDbLine
 10
11.4457331326
 20
-4.9517939818
 30
0.0
 11
11.8057795062
 21
-4.8938085449
 31
0.0
  0
LINE
  5
142
330
1F
100
AcDbEntity
  8
SK3
  6
SLD-Dashed
370
    18
100
AcDbLine
 10
11.8057795062
 20
-4.8938085449
 30
0.0
 11
12.1240802497
 21
-4.8986710743
 31
0.0
  0
LINE
  5
143
330
1F
100
AcDbEntity
  8
SK3
  6
SLD-Dashed
370
    18
100
AcDbLine
 10
12.1240802497
 20
-4.8986710743
 30
0.0
 11
12.3002958385
 21
-4.9417171181
 31
0.0
  0
LINE
  5
144
330
1F
100
AcDbEntity
  8
SK3
  6
SLD-Dashed
370
    18
100
AcDbLine
 10
12.3002958385
 20
-4.9417171181
 30
0.0
 11
12.464319685
 21
-5.0267503515
 31
0.0
  0
LINE
  5
145
330
1F
100
AcDbEntity
  8
SK3
  6
SLD-Dashed
370
    18
100
AcDbLine
 10
12.464319685
 20
-5.0267503515
 30
0.0
 11
12.5636462894
 21
-5.1142821188
 31
0.0
  0
LINE
  5
146
330
1F
100
AcDbEntity
  8
SK3
  6
SLD-Dashed
370
    18
100
AcDbLine
 10
12.5636462894
 20
-5.1142821188
 30
0.0
 11
12.6521936056
 21
-5.2365779754
 31
0.0
  0
LINE
  5
147
330
1F
100
AcDbEntity
  8
SK3
  6
SLD-Dashed
370
    18
100
AcDbLine
 10
12.6521936056
 20
-5.2365779754
 30
0.0
 11
12.6982581742
 21
-5.3338785964
 31
0.0
  0
LINE
  5
148
330
1F
100
AcDbEntity
  8
SK3
  6
SLD-Dashed
370
    18
100
AcDbLine
 10
12.6982581742
 20
-5.3338785964
 30
0.0
 11
12.7349981669
 21
-5.4523307937
 31
0.0
  0
LINE
  5
149
330
1F
100
AcDbEntity
  8
SK3
  6
SLD-Dashed
370
    18
100
AcDbLine
 10
12.7349981669
 20
-5.4523307937
 30
0.0
 11
12.7546878238
 21
-5.5608237571
 31
0.0
  0
LINE
  5
14A
330
1F
100
AcDbEntity
  8
SK3
  6
SLD-Dashed
370
    18
100
AcDbLine
 10
12.7546878238
 20
-5.5608237571
 30
0.0
 11
12.7643511479
 21
-5.6841505103
 31
0.0
  0
LINE
  5
14B
330
1F
100
AcDbEntity
  8
SK3
  6
SLD-Dashed
370
    18
100
AcDbLine
 10
12.7643511479
 20
-5.6841505103
 30
0.0
 11
12.7625673419
 21
-5.8129503743
 31
0.0
  0
LINE
  5
14C
330
1F
100
AcDbEntity
  8
SK3
  6
SLD-Dashed
370
    18
100
AcDbLine
 10
12.7625673419
 20
-5.8129503743
 30
0.0
 11
12.7493276647
 21
-5.9505709352
 31
0.0
  0
LINE
  5
14D
330
1F
100
AcDbEntity
  8
SK3
  6
SLD-Dashed
370
    18
100
AcDbLine
 10
12.7493276647
 20
-5.9505709352
 30
0.0
 11
12.7199361939
 21
-6.1162944579
 31
0.0
  0
LINE
  5
14E
330
1F
100
AcDbEntity
  8
SK3
  6
SLD-Dashed
370
    18
100
AcDbLine
 10
12.7199361939
 20
-6.1162944579
 30
0.0
 11
12.6773076344
 21
-6.2826358644
 31
0.0
  0
LINE
  5
14F
330
1F
100
AcDbEntity
  8
SK1
  6
SLD-Dashed
370
    18
100
AcDbLine
 10
49.90625
 20
-10.5812315416
 30
0.0
 11
68.99375
 21
-10.5812315416
 31
0.0
  0
LINE
  5
150
330
1F
100
AcDbEntity
  8
SK3
  6
SLD-Dashed
370
    18
100
AcDbLine
 10
-66.9509618943
 20
8.5
 30
0.0
 11
-66.9509618943
 21
-8.5
 31
0.0
  0
LINE
  5
151
330
1F
100
AcDbEntity
  8
SK3
  6
SLD-Dashed
370
    18
100
AcDbLine
 10
-68.25
 20
-9.25
 30
0.0
 11
-68.25
 21
9.25
 31
0.0
  0
LINE
  5
152
330
1F
100
AcDbEntity
  8
SK3
  6
SLD-Dashed
370
    18
100
AcDbLine
 10
-62.2696152423
 20
8.5
 30
0.0
 11
-62.2696152423
 21
-8.5
 31
0.0
  0
LINE
  5
153
330
1F
100
AcDbEntity
  8
SK3
  6
SLD-Dashed
370
    18
100
AcDbLine
 10
-61.75
 20
8.8
 30
0.0
 11
-61.75
 21
-8.8
 31
0.0
  0
LINE
  5
154
330
1F
100
AcDbEntity
  8
SK3
  6
SLD-Dashed
370
    18
100
AcDbLine
 10
-59.75
 20
8.8
 30
0.0
 11
-59.75
 21
-8.8
 31
0.0
  0
LINE
  5
155
330
1F
100
AcDbEntity
  8
SK3
  6
SLD-Dashed
370
    18
100
AcDbLine
 10
-58.7107695155
 20
-7.0
 30
0.0
 11
-58.7107695155
 21
7.0
 31
0.0
  0
LINE
  5
156
330
1F
100
AcDbEntity
  8
1
  6
SLD-Dashed
370
    18
100
AcDbLine
 10
13.03
 20
27.8127840266
 30
0.0
 11
13.03
 21
27.5868351755
 31
0.0
  0
LINE
  5
157
330
1F
100
AcDbEntity
  8
1
  6
SLD-Dashed
370
    18
100
AcDbLine
 10
9.2
 20
27.5868351755
 30
0.0
 11
9.2
 21
27.8127840266
 31
0.0
  0
LINE
  5
158
330
1F
100
AcDbEntity
  8
1
  6
SLD-Dashed
370
    18
100
AcDbLine
 10
13.03
 20
-27.8127840266
 30
0.0
 11
13.03
 21
-27.5868351755
 31
0.0
  0
LINE
  5
159
330
1F
100
AcDbEntity
  8
1
  6
SLD-Dashed
370
    18
100
AcDbLine
 10
9.2
 20
-27.5868351755
 30
0.0
 11
9.2
 21
-27.8127840266
 31
0.0
  0
LINE
  5
15A
330
1F
100
AcDbEntity
  8
SK3
  6
SLD-Dashed
370
    18
100
AcDbLine
 10
18.55
 20
-24.8
 30
0.0
 11
3.7
 21
-24.8
 31
0.0
  0
LINE
  5
15B
330
1F
100
AcDbEntity
  8
SK3
  6
SLD-Dashed
370
    18
100
AcDbLine
 10
3.6238671166
 20
22.577078289
 30
0.0
 11
18.5441315929
 21
22.577078289
 31
0.0
  0
LINE
  5
15C
330
1F
100
AcDbEntity
  8
SK3
  6
SLD-Dashed
370
    18
100
AcDbLine
 10
23.75
 20
7.0
 30
0.0
 11
23.75
 21
-7.0
 31
0.0
  0
LINE
  5
15D
330
1F
100
AcDbEntity
  8
SK3
  6
SLD-Dashed
370
    18
100
AcDbLine
 10
25.4023667023
 20
-4.25
 30
0.0
 11
25.4023667023
 21
4.25
 31
0.0
  0
LINE
  5
15E
330
1F
100
AcDbEntity
  8
SK3
  6
SLD-Dashed
370
    18
100
AcDbLine
 10
73.0
 20
5.25
 30
0.0
 11
73.0
 21
-5.25
 31
0.0
  0
LINE
  5
15F
330
1F
100
AcDbEntity
  8
SK3
  6
SLD-Dashed
370
    18
100
AcDbLine
 10
74.0
 20
5.823462543
 30
0.0
 11
74.0
 21
-5.823462543
 31
0.0
  0
LINE
  5
160
330
1F
100
AcDbEntity
  8
SK3
  6
SLD-Dashed
370
    18
100
AcDbLine
 10
69.5
 20
5.25
 30
0.0
 11
69.5
 21
-5.25
 31
0.0
  0
LINE
  5
161
330
1F
100
AcDbEntity
  8
SK3
  6
SLD-Dashed
370
    18
100
AcDbLine
 10
68.899139381
 20
4.25
 30
0.0
 11
68.899139381
 21
-4.25
 31
0.0
  0
LINE
  5
162
330
1F
100
AcDbEntity
  8
SK3
  6
SLD-Dashed
370
    18
100
AcDbLine
 10
6.2
 20
-20.2
 30
0.0
 11
16.0
 21
-20.2
 31
0.0
  0
LINE
  5
163
330
1F
100
AcDbEntity
  8
SK3
  6
SLD-Dashed
370
    18
100
AcDbLine
 10
16.1
 20
-24.8
 30
0.0
 11
6.1
 21
-24.8
 31
0.0
  0
LINE
  5
164
330
1F
100
AcDbEntity
  8
SK3
  6
SLD-Dashed
370
    18
100
AcDbLine
 10
49.90625
 20
-6.7
 30
0.0
 11
68.99375
 21
-6.7
 31
0.0
  0
LINE
  5
165
330
1F
100
AcDbEntity
  8
SK3
  6
SLD-Dashed
370
    18
100
AcDbLine
 10
68.99375
 20
-6.7
 30
0.0
 11
71.983531448
 21
-6.7
 31
0.0
  0
LINE
  5
166
330
1F
100
AcDbEntity
  8
SK3
  6
SLD-Dashed
370
    18
100
AcDbLine
 10
49.90625
 20
-6.7
 30
0.0
 11
46.916468552
 21
-6.7
 31
0.0
  0
LINE
  5
167
330
1F
100
AcDbEntity
  8
SK3
  6
SLD-Dashed
370
    18
100
AcDbLine
 10
18.5441315929
 20
22.577078289
 30
0.0
 11
3.6238671166
 21
22.577078289
 31
0.0
  0
LINE
  5
168
330
1F
100
AcDbEntity
  8
1
  6
SLD-Dashed
370
    18
100
AcDbLine
 10
9.95
 20
26.8043088887
 30
0.0
 11
12.28
 21
26.8043088887
 31
0.0
  0
LINE
  5
169
330
1F
100
AcDbEntity
  8
1
  6
SLD-Dashed
370
    18
100
AcDbLine
 10
9.95
 20
-26.8043088887
 30
0.0
 11
12.28
 21
-26.8043088887
 31
0.0
  0
LINE
  5
16A
330
1F
100
AcDbEntity
  8
SK3
  6
SLD-Dashed
370
    18
100
AcDbLine
 10
5.7019928732
 20
8.8686354442
 30
0.0
 11
5.5753080585
 21
8.3757678384
 31
0.0
  0
LINE
  5
16B
330
1F
100
AcDbEntity
  8
SK3
  6
SLD-Dashed
370
    18
100
AcDbLine
 10
5.5753080585
 20
8.3757678384
 30
0.0
 11
5.376783987
 21
7.9164883454
 31
0.0
  0
LINE
  5
16C
330
1F
100
AcDbEntity
  8
SK3
  6
SLD-Dashed
370
    18
100
AcDbLine
 10
5.376783987
 20
7.9164883454
 30
0.0
 11
5.1199497461
 21
7.5220961038
 31
0.0
  0
LINE
  5
16D
330
1F
100
AcDbEntity
  8
SK3
  6
SLD-Dashed
370
    18
100
AcDbLine
 10
5.1199497461
 20
7.5220961038
 30
0.0
 11
4.8223081651
 21
7.2194682929
 31
0.0
  0
LINE
  5
16E
330
1F
100
AcDbEntity
  8
SK3
  6
SLD-Dashed
370
    18
100
AcDbLine
 10
4.8223081651
 20
7.2194682929
 30
0.0
 11
4.5041430256
 21
7.029228498
 31
0.0
  0
LINE
  5
16F
330
1F
100
AcDbEntity
  8
SK3
  6
SLD-Dashed
370
    18
100
AcDbLine
 10
4.5041430256
 20
7.029228498
 30
0.0
 11
4.1871367561
 21
6.9643412467
 31
0.0
  0
LINE
  5
170
330
1F
100
AcDbEntity
  8
SK3
  6
SLD-Dashed
370
    18
100
AcDbLine
 10
4.1871367561
 20
6.9643412467
 30
0.0
 11
3.8928928102
 21
7.029228498
 31
0.0
  0
LINE
  5
171
330
1F
100
AcDbEntity
  8
SK3
  6
SLD-Dashed
370
    18
100
AcDbLine
 10
3.8928928102
 20
7.029228498
 30
0.0
 11
3.6414634263
 21
7.2194682929
 31
0.0
  0
LINE
  5
172
330
1F
100
AcDbEntity
  8
SK3
  6
SLD-Dashed
370
    18
100
AcDbLine
 10
3.6414634263
 20
7.2194682929
 30
0.0
 11
3.4499831016
 21
7.5220961038
 31
0.0
  0
LINE
  5
173
330
1F
100
AcDbEntity
  8
SK3
  6
SLD-Dashed
370
    18
100
AcDbLine
 10
3.4499831016
 20
7.5220961038
 30
0.0
 11
3.3315009036
 21
7.9164883454
 31
0.0
  0
LINE
  5
174
330
1F
100
AcDbEntity
  8
SK3
  6
SLD-Dashed
370
    18
100
AcDbLine
 10
3.3315009036
 20
7.9164883454
 30
0.0
 11
3.2940911985
 21
8.3757678384
 31
0.0
  0
LINE
  5
175
330
1F
100
AcDbEntity
  8
SK3
  6
SLD-Dashed
370
    18
100
AcDbLine
 10
3.2940911985
 20
8.3757678384
 30
0.0
 11
3.3403033958
 21
8.8686354442
 31
0.0
  0
LINE
  5
176
330
1F
100
AcDbEntity
  8
SK3
  6
SLD-Dashed
370
    18
100
AcDbLine
 10
3.3403033958
 20
8.8686354442
 30
0.0
 11
3.4669882105
 21
9.36150305
 31
0.0
  0
LINE
  5
177
330
1F
100
AcDbEntity
  8
SK3
  6
SLD-Dashed
370
    18
100
AcDbLine
 10
3.4669882105
 20
9.36150305
 30
0.0
 11
3.665512282
 21
9.820782543
 31
0.0
  0
LINE
  5
178
330
1F
100
AcDbEntity
  8
SK3
  6
SLD-Dashed
370
    18
100
AcDbLine
 10
3.665512282
 20
9.820782543
 30
0.0
 11
3.9223465228
 21
10.2151747846
 31
0.0
  0
LINE
  5
179
330
1F
100
AcDbEntity
  8
SK3
  6
SLD-Dashed
370
    18
100
AcDbLine
 10
3.9223465228
 20
10.2151747846
 30
0.0
 11
4.2199881039
 21
10.5178025955
 31
0.0
  0
LINE
  5
17A
330
1F
100
AcDbEntity
  8
SK3
  6
SLD-Dashed
370
    18
100
AcDbLine
 10
4.2199881039
 20
10.5178025955
 30
0.0
 11
4.5381532434
 21
10.7080423904
 31
0.0
  0
LINE
  5
17B
330
1F
100
AcDbEntity
  8
SK3
  6
SLD-Dashed
370
    18
100
AcDbLine
 10
4.5381532434
 20
10.7080423904
 30
0.0
 11
4.8551595128
 21
10.7729296417
 31
0.0
  0
LINE
  5
17C
330
1F
100
AcDbEntity
  8
SK3
  6
SLD-Dashed
370
    18
100
AcDbLine
 10
4.8551595128
 20
10.7729296417
 30
0.0
 11
5.1494034588
 21
10.7080423904
 31
0.0
  0
LINE
  5
17D
330
1F
100
AcDbEntity
  8
SK3
  6
SLD-Dashed
370
    18
100
AcDbLine
 10
5.1494034588
 20
10.7080423904
 30
0.0
 11
5.4008328426
 21
10.5178025955
 31
0.0
  0
LINE
  5
17E
330
1F
100
AcDbEntity
  8
SK3
  6
SLD-Dashed
370
    18
100
AcDbLine
 10
5.4008328426
 20
10.5178025955
 30
0.0
 11
5.5923131674
 21
10.2151747846
 31
0.0
  0
LINE
  5
17F
330
1F
100
AcDbEntity
  8
SK3
  6
SLD-Dashed
370
    18
100
AcDbLine
 10
5.5923131674
 20
10.2151747846
 30
0.0
 11
5.7107953653
 21
9.820782543
 31
0.0
  0
LINE
  5
180
330
1F
100
AcDbEntity
  8
SK3
  6
SLD-Dashed
370
    18
100
AcDbLine
 10
5.7107953653
 20
9.820782543
 30
0.0
 11
5.7482050704
 21
9.36150305
 31
0.0
  0
LINE
  5
181
330
1F
100
AcDbEntity
  8
SK3
  6
SLD-Dashed
370
    18
100
AcDbLine
 10
5.7482050704
 20
9.36150305
 30
0.0
 11
5.7019928732
 21
8.8686354442
 31
0.0
  0
LINE
  5
182
330
1F
100
AcDbEntity
  8
SK3
  6
SLD-Dashed
370
    18
100
AcDbLine
 10
16.3488925452
 20
5.9198440145
 30
0.0
 11
16.2222077304
 21
5.4269764087
 31
0.0
  0
LINE
  5
183
330
1F
100
AcDbEntity
  8
SK3
  6
SLD-Dashed
370
    18
100
AcDbLine
 10
16.2222077304
 20
5.4269764087
 30
0.0
 11
16.0236836589
 21
4.9676969157
 31
0.0
  0
LINE
  5
184
330
1F
100
AcDbEntity
  8
SK3
  6
SLD-Dashed
370
    18
100
AcDbLine
 10
16.0236836589
 20
4.9676969157
 30
0.0
 11
15.7668494181
 21
4.573304674
 31
0.0
  0
LINE
  5
185
330
1F
100
AcDbEntity
  8
SK3
  6
SLD-Dashed
370
    18
100
AcDbLine
 10
15.7668494181
 20
4.573304674
 30
0.0
 11
15.469207837
 21
4.2706768632
 31
0.0
  0
LINE
  5
186
330
1F
100
AcDbEntity
  8
SK3
  6
SLD-Dashed
370
    18
100
AcDbLine
 10
15.469207837
 20
4.2706768632
 30
0.0
 11
15.1510426975
 21
4.0804370683
 31
0.0
  0
LINE
  5
187
330
1F
100
AcDbEntity
  8
SK3
  6
SLD-Dashed
370
    18
100
AcDbLine
 10
15.1510426975
 20
4.0804370683
 30
0.0
 11
14.8340364281
 21
4.015549817
 31
0.0
  0
LINE
  5
188
330
1F
100
AcDbEntity
  8
SK3
  6
SLD-Dashed
370
    18
100
AcDbLine
 10
14.8340364281
 20
4.015549817
 30
0.0
 11
14.5397924821
 21
4.0804370683
 31
0.0
  0
LINE
  5
189
330
1F
100
AcDbEntity
  8
SK3
  6
SLD-Dashed
370
    18
100
AcDbLine
 10
14.5397924821
 20
4.0804370683
 30
0.0
 11
14.2883630983
 21
4.2706768632
 31
0.0
  0
LINE
  5
18A
330
1F
100
AcDbEntity
  8
SK3
  6
SLD-Dashed
370
    18
100
AcDbLine
 10
14.2883630983
 20
4.2706768632
 30
0.0
 11
14.0968827735
 21
4.573304674
 31
0.0
  0
LINE
  5
18B
330
1F
100
AcDbEntity
  8
SK3
  6
SLD-Dashed
370
    18
100
AcDbLine
 10
14.0968827735
 20
4.573304674
 30
0.0
 11
13.9784005756
 21
4.9676969157
 31
0.0
  0
LINE
  5
18C
330
1F
100
AcDbEntity
  8
SK3
  6
SLD-Dashed
370
    18
100
AcDbLine
 10
13.9784005756
 20
4.9676969157
 30
0.0
 11
13.9409908705
 21
5.4269764087
 31
0.0
  0
LINE
  5
18D
330
1F
100
AcDbEntity
  8
SK3
  6
SLD-Dashed
370
    18
100
AcDbLine
 10
13.9409908705
 20
5.4269764087
 30
0.0
 11
13.9872030677
 21
5.9198440145
 31
0.0
  0
LINE
  5
18E
330
1F
100
AcDbEntity
  8
SK3
  6
SLD-Dashed
370
    18
100
AcDbLine
 10
13.9872030677
 20
5.9198440145
 30
0.0
 11
14.1138878825
 21
6.4127116203
 31
0.0
  0
LINE
  5
18F
330
1F
100
AcDbEntity
  8
SK3
  6
SLD-Dashed
370
    18
100
AcDbLine
 10
14.1138878825
 20
6.4127116203
 30
0.0
 11
14.3124119539
 21
6.8719911132
 31
0.0
  0
LINE
  5
190
330
1F
100
AcDbEntity
  8
SK3
  6
SLD-Dashed
370
    18
100
AcDbLine
 10
14.3124119539
 20
6.8719911132
 30
0.0
 11
14.5692461948
 21
7.2663833549
 31
0.0
  0
LINE
  5
191
330
1F
100
AcDbEntity
  8
SK3
  6
SLD-Dashed
370
    18
100
AcDbLine
 10
14.5692461948
 20
7.2663833549
 30
0.0
 11
14.8668877759
 21
7.5690111658
 31
0.0
  0
LINE
  5
192
330
1F
100
AcDbEntity
  8
SK3
  6
SLD-Dashed
370
    18
100
AcDbLine
 10
14.8668877759
 20
7.5690111658
 30
0.0
 11
15.1850529154
 21
7.7592509607
 31
0.0
  0
LINE
  5
193
330
1F
100
AcDbEntity
  8
SK3
  6
SLD-Dashed
370
    18
100
AcDbLine
 10
15.1850529154
 20
7.7592509607
 30
0.0
 11
15.5020591848
 21
7.824138212
 31
0.0
  0
LINE
  5
194
330
1F
100
AcDbEntity
  8
SK3
  6
SLD-Dashed
370
    18
100
AcDbLine
 10
15.5020591848
 20
7.824138212
 30
0.0
 11
15.7963031307
 21
7.7592509607
 31
0.0
  0
LINE
  5
195
330
1F
100
AcDbEntity
  8
SK3
  6
SLD-Dashed
370
    18
100
AcDbLine
 10
15.7963031307
 20
7.7592509607
 30
0.0
 11
16.0477325146
 21
7.5690111658
 31
0.0
  0
LINE
  5
196
330
1F
100
AcDbEntity
  8
SK3
  6
SLD-Dashed
370
    18
100
AcDbLine
 10
16.0477325146
 20
7.5690111658
 30
0.0
 11
16.2392128393
 21
7.2663833549
 31
0.0
  0
LINE
  5
197
330
1F
100
AcDbEntity
  8
SK3
  6
SLD-Dashed
370
    18
100
AcDbLine
 10
16.2392128393
 20
7.2663833549
 30
0.0
 11
16.3576950373
 21
6.8719911132
 31
0.0
  0
LINE
  5
198
330
1F
100
AcDbEntity
  8
SK3
  6
SLD-Dashed
370
    18
100
AcDbLine
 10
16.3576950373
 20
6.8719911132
 30
0.0
 11
16.3951047424
 21
6.4127116203
 31
0.0
  0
LINE
  5
199
330
1F
100
AcDbEntity
  8
SK3
  6
SLD-Dashed
370
    18
100
AcDbLine
 10
16.3951047424
 20
6.4127116203
 30
0.0
 11
16.3488925452
 21
5.9198440145
 31
0.0
  0
LINE
  5
19A
330
1F
100
AcDbEntity
  8
SK3
  6
SLD-Dashed
370
    18
100
AcDbLine
 10
19.05
 20
-18.35
 30
0.0
 11
3.2
 21
-18.35
 31
0.0
  0
LINE
  5
19B
330
1F
100
AcDbEntity
  8
SK3
  6
SLD-Dashed
370
    18
100
AcDbLine
 10
19.05
 20
-18.85
 30
0.0
 11
19.05
 21
-18.35
 31
0.0
  0
LINE
  5
19C
330
1F
100
AcDbEntity
  8
SK3
  6
SLD-Dashed
370
    18
100
AcDbLine
 10
3.2
 20
-18.35
 30
0.0
 11
3.2
 21
-18.85
 31
0.0
  0
LINE
  5
19D
330
1F
100
AcDbEntity
  8
SK3
  6
SLD-Dashed
370
    18
100
AcDbLine
 10
7.5931633579
 20
-25.91022964
 30
0.0
 11
3.95
 21
-25.91022964
 31
0.0
  0
LINE
  5
19E
330
1F
100
AcDbEntity
  8
SK3
  6
SLD-Dashed
370
    18
100
AcDbLine
 10
18.3
 20
-25.91022964
 30
0.0
 11
14.6368366421
 21
-25.91022964
 31
0.0
  0
LINE
  5
19F
330
1F
100
AcDbEntity
  8
SK3
  6
SLD-Dashed
370
    18
100
AcDbLine
 10
13.03
 20
-22.4133326462
 30
0.0
 11
13.03
 21
-22.1323292945
 31
0.0
  0
LINE
  5
1A0
330
1F
100
AcDbEntity
  8
SK3
  6
SLD-Dashed
370
    18
100
AcDbLine
 10
9.2
 20
-22.1323292945
 30
0.0
 11
9.2
 21
-22.4133326462
 31
0.0
  0
LINE
  5
1A1
330
1F
100
AcDbEntity
  8
SK3
  6
SLD-Dashed
370
    18
100
AcDbLine
 10
12.28
 20
-21.1489361435
 30
0.0
 11
9.95
 21
-21.1489361435
 31
0.0
  0
LINE
  5
1A2
330
1F
100
AcDbEntity
  8
SK3
  6
SLD-Dashed
370
    18
100
AcDbLine
 10
19.05
 20
-18.85
 30
0.0
 11
19.05
 21
-24.9855458215
 31
0.0
  0
LINE
  5
1A3
330
1F
100
AcDbEntity
  8
SK3
  6
SLD-Dashed
370
    18
100
AcDbLine
 10
3.2
 20
-18.85
 30
0.0
 11
3.2
 21
-24.9855458215
 31
0.0
  0
LINE
  5
1A4
330
1F
100
AcDbEntity
  8
SK3
  6
SLD-Dashed
370
    18
100
AcDbLine
 10
3.95
 20
-18.35
 30
0.0
 11
7.5931633579
 21
-18.35
 31
0.0
  0
LINE
  5
1A5
330
1F
100
AcDbEntity
  8
SK3
  6
SLD-Dashed
370
    18
100
AcDbLine
 10
14.6368366421
 20
-18.35
 30
0.0
 11
18.3
 21
-18.35
 31
0.0
  0
LINE
  5
1A6
330
1F
100
AcDbEntity
  8
SK3
  6
SLD-Dashed
370
    18
100
AcDbLine
 10
9.95
 20
-18.35
 30
0.0
 11
12.28
 21
-18.35
 31
0.0
  0
LINE
  5
1A7
330
1F
100
AcDbEntity
  8
SK3
  6
SLD-Dashed
370
    18
100
AcDbLine
 10
11.115
 20
10.1009964074
 30
0.0
 11
10.6501412812
 21
10.0381905537
 31
0.0
  0
LINE
  5
1A8
330
1F
100
AcDbEntity
  8
SK3
  6
SLD-Dashed
370
    18
100
AcDbLine
 10
10.6501412812
 20
10.0381905537
 30
0.0
 11
10.2229426512
 21
9.8548611492
 31
0.0
  0
LINE
  5
1A9
330
1F
100
AcDbEntity
  8
SK3
  6
SLD-Dashed
370
    18
100
AcDbLine
 10
10.2229426512
 20
9.8548611492
 30
0.0
 11
9.8680132023
 21
9.565860452
 31
0.0
  0
LINE
  5
1AA
330
1F
100
AcDbEntity
  8
SK3
  6
SLD-Dashed
370
    18
100
AcDbLine
 10
9.8680132023
 20
9.565860452
 30
0.0
 11
9.6141072077
 21
9.1946015799
 31
0.0
  0
LINE
  5
1AB
330
1F
100
AcDbEntity
  8
SK3
  6
SLD-Dashed
370
    18
100
AcDbLine
 10
9.6141072077
 20
9.1946015799
 30
0.0
 11
9.4817946209
 21
8.7711617187
 31
0.0
  0
LINE
  5
1AC
330
1F
100
AcDbEntity
  8
SK3
  6
SLD-Dashed
370
    18
100
AcDbLine
 10
9.4817946209
 20
8.7711617187
 30
0.0
 11
9.4817946209
 21
8.3298454476
 31
0.0
  0
LINE
  5
1AD
330
1F
100
AcDbEntity
  8
SK3
  6
SLD-Dashed
370
    18
100
AcDbLine
 10
9.4817946209
 20
8.3298454476
 30
0.0
 11
9.6141072077
 21
7.9064055864
 31
0.0
  0
LINE
  5
1AE
330
1F
100
AcDbEntity
  8
SK3
  6
SLD-Dashed
370
    18
100
AcDbLine
 10
9.6141072077
 20
7.9064055864
 30
0.0
 11
9.8680132023
 21
7.5351467142
 31
0.0
  0
LINE
  5
1AF
330
1F
100
AcDbEntity
  8
SK3
  6
SLD-Dashed
370
    18
100
AcDbLine
 10
9.8680132023
 20
7.5351467142
 30
0.0
 11
10.2229426512
 21
7.2461460171
 31
0.0
  0
LINE
  5
1B0
330
1F
100
AcDbEntity
  8
SK3
  6
SLD-Dashed
370
    18
100
AcDbLine
 10
10.2229426512
 20
7.2461460171
 30
0.0
 11
10.6501412812
 21
7.0628166126
 31
0.0
  0
LINE
  5
1B1
330
1F
100
AcDbEntity
  8
SK3
  6
SLD-Dashed
370
    18
100
AcDbLine
 10
10.6501412812
 20
7.0628166126
 30
0.0
 11
11.115
 21
7.0000107588
 31
0.0
  0
LINE
  5
1B2
330
1F
100
AcDbEntity
  8
SK3
  6
SLD-Dashed
370
    18
100
AcDbLine
 10
11.115
 20
7.0000107588
 30
0.0
 11
11.5798587188
 21
7.0628166126
 31
0.0
  0
LINE
  5
1B3
330
1F
100
AcDbEntity
  8
SK3
  6
SLD-Dashed
370
    18
100
AcDbLine
 10
11.5798587188
 20
7.0628166126
 30
0.0
 11
12.0070573488
 21
7.2461460171
 31
0.0
  0
LINE
  5
1B4
330
1F
100
AcDbEntity
  8
SK3
  6
SLD-Dashed
370
    18
100
AcDbLine
 10
12.0070573488
 20
7.2461460171
 30
0.0
 11
12.3619867977
 21
7.5351467142
 31
0.0
  0
LINE
  5
1B5
330
1F
100
AcDbEntity
  8
SK3
  6
SLD-Dashed
370
    18
100
AcDbLine
 10
12.3619867977
 20
7.5351467142
 30
0.0
 11
12.6158927923
 21
7.9064055864
 31
0.0
  0
LINE
  5
1B6
330
1F
100
AcDbEntity
  8
SK3
  6
SLD-Dashed
370
    18
100
AcDbLine
 10
12.6158927923
 20
7.9064055864
 30
0.0
 11
12.7482053791
 21
8.3298454476
 31
0.0
  0
LINE
  5
1B7
330
1F
100
AcDbEntity
  8
SK3
  6
SLD-Dashed
370
    18
100
AcDbLine
 10
12.7482053791
 20
8.3298454476
 30
0.0
 11
12.7482053791
 21
8.7711617187
 31
0.0
  0
LINE
  5
1B8
330
1F
100
AcDbEntity
  8
SK3
  6
SLD-Dashed
370
    18
100
AcDbLine
 10
12.7482053791
 20
8.7711617187
 30
0.0
 11
12.6158927923
 21
9.1946015799
 31
0.0
  0
LINE
  5
1B9
330
1F
100
AcDbEntity
  8
SK3
  6
SLD-Dashed
370
    18
100
AcDbLine
 10
12.6158927923
 20
9.1946015799
 30
0.0
 11
12.3619867977
 21
9.565860452
 31
0.0
  0
LINE
  5
1BA
330
1F
100
AcDbEntity
  8
SK3
  6
SLD-Dashed
370
    18
100
AcDbLine
 10
12.3619867977
 20
9.565860452
 30
0.0
 11
12.0070573488
 21
9.8548611492
 31
0.0
  0
LINE
  5
1BB
330
1F
100
AcDbEntity
  8
SK3
  6
SLD-Dashed
370
    18
100
AcDbLine
 10
12.0070573488
 20
9.8548611492
 30
0.0
 11
11.5798587188
 21
10.0381905537
 31
0.0
  0
LINE
  5
1BC
330
1F
100
AcDbEntity
  8
SK3
  6
SLD-Dashed
370
    18
100
AcDbLine
 10
11.5798587188
 20
10.0381905537
 30
0.0
 11
11.115
 21
10.1009964074
 31
0.0
  0
LINE
  5
1BD
330
1F
100
AcDbEntity
  8
SK3
  6
SLD-Dashed
370
    18
100
AcDbLine
 10
5.7322709434
 20
8.8686354442
 30
0.0
 11
5.609026163
 21
8.3829136913
 31
0.0
  0
LINE
  5
1BE
330
1F
100
AcDbEntity
  8
SK3
  6
SLD-Dashed
370
    18
100
AcDbLine
 10
5.609026163
 20
8.3829136913
 30
0.0
 11
5.4174260052
 21
7.9277116224
 31
0.0
  0
LINE
  5
1BF
330
1F
100
AcDbEntity
  8
SK3
  6
SLD-Dashed
370
    18
100
AcDbLine
 10
5.4174260052
 20
7.9277116224
 30
0.0
 11
5.1695094124
 21
7.5316312578
 31
0.0
  0
LINE
  5
1C0
330
1F
100
AcDbEntity
  8
SK3
  6
SLD-Dashed
370
    18
100
AcDbLine
 10
5.1695094124
 20
7.5316312578
 30
0.0
 11
4.8808538961
 21
7.2195597834
 31
0.0
  0
LINE
  5
1C1
330
1F
100
AcDbEntity
  8
SK3
  6
SLD-Dashed
370
    18
100
AcDbLine
 10
4.8808538961
 20
7.2195597834
 30
0.0
 11
4.5695967438
 21
7.0111057976
 31
0.0
  0
LINE
  5
1C2
330
1F
100
AcDbEntity
  8
SK3
  6
SLD-Dashed
370
    18
100
AcDbLine
 10
4.5695967438
 20
7.0111057976
 30
0.0
 11
4.2552953872
 21
6.919367231
 31
0.0
  0
LINE
  5
1C3
330
1F
100
AcDbEntity
  8
SK3
  6
SLD-Dashed
370
    18
100
AcDbLine
 10
4.2552953872
 20
6.919367231
 30
0.0
 11
3.9576985365
 21
6.9501083551
 31
0.0
  0
LINE
  5
1C4
330
1F
100
AcDbEntity
  8
SK3
  6
SLD-Dashed
370
    18
100
AcDbLine
 10
3.9576985365
 20
6.9501083551
 30
0.0
 11
3.6955052963
 21
7.1013975921
 31
0.0
  0
LINE
  5
1C5
330
1F
100
AcDbEntity
  8
SK3
  6
SLD-Dashed
370
    18
100
AcDbLine
 10
3.6955052963
 20
7.1013975921
 30
0.0
 11
3.485190232
 21
7.3637288828
 31
0.0
  0
LINE
  5
1C6
330
1F
100
AcDbEntity
  8
SK3
  6
SLD-Dashed
370
    18
100
AcDbLine
 10
3.485190232
 20
7.3637288828
 30
0.0
 11
3.3399682128
 21
7.7206189875
 31
0.0
  0
LINE
  5
1C7
330
1F
100
AcDbEntity
  8
SK3
  6
SLD-Dashed
370
    18
100
AcDbLine
 10
3.3399682128
 20
7.7206189875
 30
0.0
 11
3.2689640721
 21
8.1496431882
 31
0.0
  0
LINE
  5
1C8
330
1F
100
AcDbEntity
  8
SK3
  6
SLD-Dashed
370
    18
100
AcDbLine
 10
3.2689640721
 20
8.1496431882
 30
0.0
 11
3.2766392613
 21
8.6238443166
 31
0.0
  0
LINE
  5
1C9
330
1F
100
AcDbEntity
  8
SK3
  6
SLD-Dashed
370
    18
100
AcDbLine
 10
3.2766392613
 20
8.6238443166
 30
0.0
 11
3.3625115199
 21
9.1134265718
 31
0.0
  0
LINE
  5
1CA
330
1F
100
AcDbEntity
  8
SK3
  6
SLD-Dashed
370
    18
100
AcDbLine
 10
3.3625115199
 20
9.1134265718
 30
0.0
 11
3.5211851783
 21
9.5876277002
 31
0.0
  0
LINE
  5
1CB
330
1F
100
AcDbEntity
  8
SK3
  6
SLD-Dashed
370
    18
100
AcDbLine
 10
3.5211851783
 20
9.5876277002
 30
0.0
 11
3.7426901867
 21
10.016651901
 31
0.0
  0
LINE
  5
1CC
330
1F
100
AcDbEntity
  8
SK3
  6
SLD-Dashed
370
    18
100
AcDbLine
 10
3.7426901867
 20
10.016651901
 30
0.0
 11
4.013108571
 21
10.3735420056
 31
0.0
  0
LINE
  5
1CD
330
1F
100
AcDbEntity
  8
SK3
  6
SLD-Dashed
370
    18
100
AcDbLine
 10
4.013108571
 20
10.3735420056
 30
0.0
 11
4.3154489495
 21
10.6358732963
 31
0.0
  0
LINE
  5
1CE
330
1F
100
AcDbEntity
  8
SK3
  6
SLD-Dashed
370
    18
100
AcDbLine
 10
4.3154489495
 20
10.6358732963
 30
0.0
 11
4.6307141643
 21
10.7871625333
 31
0.0
  0
LINE
  5
1CF
330
1F
100
AcDbEntity
  8
SK3
  6
SLD-Dashed
370
    18
100
AcDbLine
 10
4.6307141643
 20
10.7871625333
 30
0.0
 11
4.9390949425
 21
10.8179036574
 31
0.0
  0
LINE
  5
1D0
330
1F
100
AcDbEntity
  8
SK3
  6
SLD-Dashed
370
    18
100
AcDbLine
 10
4.9390949425
 20
10.8179036574
 30
0.0
 11
5.2212145856
 21
10.7261650909
 31
0.0
  0
LINE
  5
1D1
330
1F
100
AcDbEntity
  8
SK3
  6
SLD-Dashed
370
    18
100
AcDbLine
 10
5.2212145856
 20
10.7261650909
 30
0.0
 11
5.459346479
 21
10.5177111051
 31
0.0
  0
LINE
  5
1D2
330
1F
100
AcDbEntity
  8
SK3
  6
SLD-Dashed
370
    18
100
AcDbLine
 10
5.459346479
 20
10.5177111051
 30
0.0
 11
5.6385279199
 21
10.2056396306
 31
0.0
  0
LINE
  5
1D3
330
1F
100
AcDbEntity
  8
SK3
  6
SLD-Dashed
370
    18
100
AcDbLine
 10
5.6385279199
 20
10.2056396306
 30
0.0
 11
5.7475002794
 21
9.809559266
 31
0.0
  0
LINE
  5
1D4
330
1F
100
AcDbEntity
  8
SK3
  6
SLD-Dashed
370
    18
100
AcDbLine
 10
5.7475002794
 20
9.809559266
 30
0.0
 11
5.7794164235
 21
9.3543571971
 31
0.0
  0
LINE
  5
1D5
330
1F
100
AcDbEntity
  8
SK3
  6
SLD-Dashed
370
    18
100
AcDbLine
 10
5.7794164235
 20
9.3543571971
 30
0.0
 11
5.7322709434
 21
8.8686354442
 31
0.0
  0
LINE
  5
1D6
330
1F
100
AcDbEntity
  8
SK3
  6
SLD-Dashed
370
    18
100
AcDbLine
 10
3.2
 20
7.1668508159
 30
0.0
 11
3.2
 21
11.3022369236
 31
0.0
  0
LINE
  5
1D7
330
1F
100
AcDbEntity
  8
SK3
  6
SLD-Dashed
370
    18
100
AcDbLine
 10
3.2
 20
-11.3098348849
 30
0.0
 11
5.0549767861
 21
-10.7960759675
 31
0.0
  0
LINE
  5
1D8
330
1F
100
AcDbEntity
  8
SK3
  6
SLD-Dashed
370
    18
100
AcDbLine
 10
3.9873194828
 20
-6.941194921
 30
0.0
 11
3.2
 21
-7.1592528547
 31
0.0
  0
LINE
  5
1D9
330
1F
100
AcDbEntity
  8
SK3
  6
SLD-Dashed
370
    18
100
AcDbLine
 10
13.115
 20
-9.9562185183
 30
0.0
 11
13.115
 21
-8.4376369358
 31
0.0
  0
LINE
  5
1DA
330
1F
100
AcDbEntity
  8
SK3
  6
SLD-Dashed
370
    18
100
AcDbLine
 10
9.115
 20
-8.4542667518
 30
0.0
 11
9.115
 21
-9.9562185183
 31
0.0
  0
LINE
  5
1DB
330
1F
100
AcDbEntity
  8
SK3
  6
SLD-Dashed
370
    18
100
AcDbLine
 10
5.0416310698
 20
-10.7478899544
 30
0.0
 11
15.6885307418
 21
-7.7990985247
 31
0.0
  0
LINE
  5
1DC
330
1F
100
AcDbEntity
  8
SK3
  6
SLD-Dashed
370
    18
100
AcDbLine
 10
14.6475648711
 20
-4.0405895043
 30
0.0
 11
4.0006651991
 21
-6.989380934
 31
0.0
  0
LINE
  5
1DD
330
1F
100
AcDbEntity
  8
SK3
  6
SLD-Dashed
370
    18
100
AcDbLine
 10
12.765
 20
-8.4376369358
 30
0.0
 11
12.765
 21
-7.4414734354
 31
0.0
  0
LINE
  5
1DE
330
1F
100
AcDbEntity
  8
SK3
  6
SLD-Dashed
370
    18
100
AcDbLine
 10
9.465
 20
-8.3559232747
 30
0.0
 11
9.465
 21
-8.4376369358
 31
0.0
  0
LINE
  5
1DF
330
1F
100
AcDbEntity
  8
SK3
  6
SLD-Dashed
370
    18
100
AcDbLine
 10
12.765
 20
-5.7280232029
 30
0.0
 11
12.765
 21
-2.3938599274
 31
0.0
  0
LINE
  5
1E0
330
1F
100
AcDbEntity
  8
SK3
  6
SLD-Dashed
370
    18
100
AcDbLine
 10
9.465
 20
-2.3936806223
 30
0.0
 11
9.465
 21
-6.6415177735
 31
0.0
  0
LINE
  5
1E1
330
1F
100
AcDbEntity
  8
SK3
  6
SLD-Dashed
370
    18
100
AcDbLine
 10
-68.25
 20
-9.25
 30
0.0
 11
-66.9509618943
 21
-8.5
 31
0.0
  0
LINE
  5
1E2
330
1F
100
AcDbEntity
  8
SK3
  6
SLD-Dashed
370
    18
100
AcDbLine
 10
-66.9509618943
 20
8.5
 30
0.0
 11
-68.25
 21
9.25
 31
0.0
  0
LINE
  5
1E3
330
1F
100
AcDbEntity
  8
SK3
  6
SLD-Dashed
370
    18
100
AcDbLine
 10
-61.75
 20
8.8
 30
0.0
 11
-62.2696152423
 21
8.5
 31
0.0
  0
LINE
  5
1E4
330
1F
100
AcDbEntity
  8
SK3
  6
SLD-Dashed
370
    18
100
AcDbLine
 10
-62.2696152423
 20
-8.5
 30
0.0
 11
-61.75
 21
-8.8
 31
0.0
  0
LINE
  5
1E5
330
1F
100
AcDbEntity
  8
SK3
  6
SLD-Dashed
370
    18
100
AcDbLine
 10
-61.75
 20
-8.8
 30
0.0
 11
-59.75
 21
-8.8
 31
0.0
  0
LINE
  5
1E6
330
1F
100
AcDbEntity
  8
SK3
  6
SLD-Dashed
370
    18
100
AcDbLine
 10
-59.75
 20
8.8
 30
0.0
 11
-61.75
 21
8.8
 31
0.0
  0
LINE
  5
1E7
330
1F
100
AcDbEntity
  8
SK3
  6
SLD-Dashed
370
    18
100
AcDbLine
 10
-59.75
 20
-8.8
 30
0.0
 11
-58.7107695155
 21
-7.0
 31
0.0
  0
LINE
  5
1E8
330
1F
100
AcDbEntity
  8
SK3
  6
SLD-Dashed
370
    18
100
AcDbLine
 10
-58.7107695155
 20
7.0
 30
0.0
 11
-59.75
 21
8.8
 31
0.0
  0
LINE
  5
1E9
330
1F
100
AcDbEntity
  8
SK3
  6
SLD-Dashed
370
    18
100
AcDbLine
 10
-66.9509618943
 20
-8.5
 30
0.0
 11
-62.2696152423
 21
-8.5
 31
0.0
  0
LINE
  5
1EA
330
1F
100
AcDbEntity
  8
SK3
  6
SLD-Dashed
370
    18
100
AcDbLine
 10
-62.2696152423
 20
8.5
 30
0.0
 11
-66.9509618943
 21
8.5
 31
0.0
  0
LINE
  5
1EB
330
1F
100
AcDbEntity
  8
SK3
  6
SLD-Dashed
370
    18
100
AcDbLine
 10
-58.7107695155
 20
-7.0
 30
0.0
 11
23.75
 21
-7.0
 31
0.0
  0
LINE
  5
1EC
330
1F
100
AcDbEntity
  8
SK3
  6
SLD-Dashed
370
    18
100
AcDbLine
 10
23.75
 20
7.0
 30
0.0
 11
-58.7107695155
 21
7.0
 31
0.0
  0
LINE
  5
1ED
330
1F
100
AcDbEntity
  8
SK3
  6
SLD-Dashed
370
    18
100
AcDbLine
 10
23.75
 20
-7.0
 30
0.0
 11
25.4023667023
 21
-4.25
 31
0.0
  0
LINE
  5
1EE
330
1F
100
AcDbEntity
  8
SK3
  6
SLD-Dashed
370
    18
100
AcDbLine
 10
25.4023667023
 20
4.25
 30
0.0
 11
23.75
 21
7.0
 31
0.0
  0
LINE
  5
1EF
330
1F
100
AcDbEntity
  8
SK3
  6
SLD-Dashed
370
    18
100
AcDbLine
 10
74.0
 20
5.8273502692
 30
0.0
 11
73.0
 21
5.25
 31
0.0
  0
LINE
  5
1F0
330
1F
100
AcDbEntity
  8
SK3
  6
SLD-Dashed
370
    18
100
AcDbLine
 10
73.0
 20
-5.25
 30
0.0
 11
74.0
 21
-5.8273502692
 31
0.0
  0
LINE
  5
1F1
330
1F
100
AcDbEntity
  8
SK3
  6
SLD-Dashed
370
    18
100
AcDbLine
 10
69.5
 20
5.25
 30
0.0
 11
68.899139381
 21
4.25
 31
0.0
  0
LINE
  5
1F2
330
1F
100
AcDbEntity
  8
SK3
  6
SLD-Dashed
370
    18
100
AcDbLine
 10
68.899139381
 20
-4.25
 30
0.0
 11
69.5
 21
-5.25
 31
0.0
  0
LINE
  5
1F3
330
1F
100
AcDbEntity
  8
SK3
  6
SLD-Dashed
370
    18
100
AcDbLine
 10
73.0
 20
5.25
 30
0.0
 11
69.5
 21
5.25
 31
0.0
  0
LINE
  5
1F4
330
1F
100
AcDbEntity
  8
SK3
  6
SLD-Dashed
370
    18
100
AcDbLine
 10
69.5
 20
-5.25
 30
0.0
 11
73.0
 21
-5.25
 31
0.0
  0
LINE
  5
1F5
330
1F
100
AcDbEntity
  8
SK3
  6
SLD-Dashed
370
    18
100
AcDbLine
 10
16.1
 20
-24.8
 30
0.0
 11
16.1
 21
-20.3
 31
0.0
  0
LINE
  5
1F6
330
1F
100
AcDbEntity
  8
SK3
  6
SLD-Dashed
370
    18
100
AcDbLine
 10
6.1
 20
-20.3
 30
0.0
 11
6.1
 21
-24.8
 31
0.0
  0
LINE
  5
1F7
330
1F
100
AcDbEntity
  8
SK3
  6
SLD-Dashed
370
    18
100
AcDbLine
 10
68.899139381
 20
4.25
 30
0.0
 11
25.4023667023
 21
4.25
 31
0.0
  0
LINE
  5
1F8
330
1F
100
AcDbEntity
  8
SK3
  6
SLD-Dashed
370
    18
100
AcDbLine
 10
25.4023667023
 20
-4.25
 30
0.0
 11
68.899139381
 21
-4.25
 31
0.0
  0
LINE
  5
1F9
330
1F
100
AcDbEntity
  8
SK3
  6
SLD-Dashed
370
    18
100
AcDbLine
 10
72.0
 20
-11.0
 30
0.0
 11
72.0
 21
-6.7
 31
0.0
  0
LINE
  5
1FA
330
1F
100
AcDbEntity
  8
SK3
  6
SLD-Dashed
370
    18
100
AcDbLine
 10
46.9
 20
-6.7
 30
0.0
 11
46.9
 21
-11.0
 31
0.0
  0
LINE
  5
1FB
330
1F
100
AcDbEntity
  8
SK3
  6
SLD-Dashed
370
    18
100
AcDbLine
 10
12.765
 20
2.3925727663
 30
0.0
 11
12.765
 21
5.7308030226
 31
0.0
  0
LINE
  5
1FC
330
1F
100
AcDbEntity
  8
SK3
  6
SLD-Dashed
370
    18
100
AcDbLine
 10
9.465
 20
6.6425219029
 30
0.0
 11
9.465
 21
2.3935154777
 31
0.0
  0
LINE
  5
1FD
330
1F
100
AcDbEntity
  8
SK3
  6
SLD-Dashed
370
    18
100
AcDbLine
 10
4.0006651991
 20
6.989380934
 30
0.0
 11
14.6475648711
 21
4.0405895043
 31
0.0
  0
LINE
  5
1FE
330
1F
100
AcDbEntity
  8
SK3
  6
SLD-Dashed
370
    18
100
AcDbLine
 10
15.6885307418
 20
7.7990985247
 30
0.0
 11
5.0416310698
 21
10.7478899544
 31
0.0
  0
LINE
  5
1FF
330
1F
100
AcDbEntity
  8
SK3
  6
SLD-Dashed
370
    18
100
AcDbLine
 10
12.765
 20
7.4416431317
 30
0.0
 11
12.765
 21
8.5505035831
 31
0.0
  0
LINE
  5
200
330
1F
100
AcDbEntity
  8
SK3
  6
SLD-Dashed
370
    18
100
AcDbLine
 10
9.465
 20
8.5505035831
 30
0.0
 11
9.465
 21
8.3548704959
 31
0.0
  0
LINE
  5
201
330
1F
100
AcDbEntity
  8
SK3
  6
SLD-Dashed
370
    18
100
AcDbLine
 10
3.2
 20
7.1592528547
 30
0.0
 11
3.9873194828
 21
6.941194921
 31
0.0
  0
LINE
  5
202
330
1F
100
AcDbEntity
  8
SK3
  6
SLD-Dashed
370
    18
100
AcDbLine
 10
5.0549767861
 20
10.7960759675
 30
0.0
 11
3.2
 21
11.3098348849
 31
0.0
  0
LINE
  5
203
330
1F
100
AcDbEntity
  8
SK3
  6
SLD-Solid
370
    18
100
AcDbLine
 10
-35.25
 20
8.0
 30
0.0
 11
-59.2881197846
 21
8.0
 31
0.0
  0
LINE
  5
204
330
1F
100
AcDbEntity
  8
SK3
  6
SLD-Solid
370
    18
100
AcDbLine
 10
-59.2881197846
 20
-8.0
 30
0.0
 11
-35.25
 21
-8.0
 31
0.0
  0
LINE
  5
205
330
1F
100
AcDbEntity
  8
SK3
  6
SLD-Solid
370
    18
100
AcDbLine
 10
-35.25
 20
8.0
 30
0.0
 11
-35.25
 21
7.9765264095
 31
0.0
  0
LINE
  5
206
330
1F
100
AcDbEntity
  8
SK3
  6
SLD-Solid
370
    18
100
AcDbLine
 10
-35.2500236739
 20
7.9765264095
 30
0.0
 11
-35.25
 21
7.789563391
 31
0.0
  0
LINE
  5
207
330
1F
100
AcDbEntity
  8
SK3
  6
SLD-Solid
370
    18
100
AcDbLine
 10
-35.25
 20
7.789563391
 30
0.0
 11
-35.25
 21
7.4200196088
 31
0.0
  0
LINE
  5
208
330
1F
100
AcDbEntity
  8
SK3
  6
SLD-Solid
370
    18
100
AcDbLine
 10
-35.25
 20
7.4200196088
 30
0.0
 11
-35.25
 21
6.8765568559
 31
0.0
  0
LINE
  5
209
330
1F
100
AcDbEntity
  8
SK3
  6
SLD-Solid
370
    18
100
AcDbLine
 10
-35.25
 20
6.8765568559
 30
0.0
 11
-35.25
 21
6.1719134386
 31
0.0
  0
LINE
  5
20A
330
1F
100
AcDbEntity
  8
SK3
  6
SLD-Solid
370
    18
100
AcDbLine
 10
-35.25
 20
6.1719134386
 30
0.0
 11
-35.25
 21
5.3226056013
 31
0.0
  0
LINE
  5
20B
330
1F
100
AcDbEntity
  8
SK3
  6
SLD-Solid
370
    18
100
AcDbLine
 10
-35.25
 20
5.3226056013
 30
0.0
 11
-35.25
 21
4.3485404
 31
0.0
  0
LINE
  5
20C
330
1F
100
AcDbEntity
  8
SK3
  6
SLD-Solid
370
    18
100
AcDbLine
 10
-35.25
 20
4.3485404
 30
0.0
 11
-35.25
 21
3.2725490974
 31
0.0
  0
LINE
  5
20D
330
1F
100
AcDbEntity
  8
SK3
  6
SLD-Solid
370
    18
100
AcDbLine
 10
-35.25
 20
3.2725490974
 30
0.0
 11
-35.25
 21
2.1198520176
 31
0.0
  0
LINE
  5
20E
330
1F
100
AcDbEntity
  8
SK3
  6
SLD-Solid
370
    18
100
AcDbLine
 10
-35.25
 20
2.1198520176
 30
0.0
 11
-35.25
 21
0.9174674032
 31
0.0
  0
LINE
  5
20F
330
1F
100
AcDbEntity
  8
SK3
  6
SLD-Solid
370
    18
100
AcDbLine
 10
-35.25
 20
0.9174674032
 30
0.0
 11
-35.25
 21
-0.3064218695
 31
0.0
  0
LINE
  5
210
330
1F
100
AcDbEntity
  8
SK3
  6
SLD-Solid
370
    18
100
AcDbLine
 10
-35.25
 20
-0.3064218695
 30
0.0
 11
-35.25
 21
-1.5231288733
 31
0.0
  0
LINE
  5
211
330
1F
100
AcDbEntity
  8
SK3
  6
SLD-Solid
370
    18
100
AcDbLine
 10
-35.25
 20
-1.5231288733
 30
0.0
 11
-35.25
 21
-2.7041350273
 31
0.0
  0
LINE
  5
212
330
1F
100
AcDbEntity
  8
SK3
  6
SLD-Solid
370
    18
100
AcDbLine
 10
-35.25
 20
-2.7041350273
 30
0.0
 11
-35.25
 21
-3.8217585481
 31
0.0
  0
LINE
  5
213
330
1F
100
AcDbEntity
  8
SK3
  6
SLD-Solid
370
    18
100
AcDbLine
 10
-35.25
 20
-3.8217585481
 30
0.0
 11
-35.25
 21
-4.8498032877
 31
0.0
  0
LINE
  5
214
330
1F
100
AcDbEntity
  8
SK3
  6
SLD-Solid
370
    18
100
AcDbLine
 10
-35.25
 20
-4.8498032877
 30
0.0
 11
-35.25
 21
-5.7641727488
 31
0.0
  0
LINE
  5
215
330
1F
100
AcDbEntity
  8
SK3
  6
SLD-Solid
370
    18
100
AcDbLine
 10
-35.25
 20
-5.7641727488
 30
0.0
 11
-35.25
 21
-6.5434348861
 31
0.0
  0
LINE
  5
216
330
1F
100
AcDbEntity
  8
SK3
  6
SLD-Solid
370
    18
100
AcDbLine
 10
-35.25
 20
-6.5434348861
 30
0.0
 11
-35.25
 21
-7.1693244557
 31
0.0
  0
LINE
  5
217
330
1F
100
AcDbEntity
  8
SK3
  6
SLD-Solid
370
    18
100
AcDbLine
 10
-35.25
 20
-7.1693244557
 30
0.0
 11
-35.25
 21
-7.6271711364
 31
0.0
  0
LINE
  5
218
330
1F
100
AcDbEntity
  8
SK3
  6
SLD-Solid
370
    18
100
AcDbLine
 10
-35.25
 20
-7.6271711364
 30
0.0
 11
-35.25
 21
-7.9062433902
 31
0.0
  0
LINE
  5
219
330
1F
100
AcDbEntity
  8
SK3
  6
SLD-Solid
370
    18
100
AcDbLine
 10
-35.25
 20
-7.9062433902
 30
0.0
 11
-35.25
 21
-8.0
 31
0.0
  0
LINE
  5
21A
330
1F
100
AcDbEntity
  8
SK3
  6
SLD-Solid
370
    18
100
AcDbLine
 10
49.0
 20
-5.0
 30
0.0
 11
69.3497848452
 21
-5.0
 31
0.0
  0
LINE
  5
21B
330
1F
100
AcDbEntity
  8
SK3
  6
SLD-Solid
370
    18
100
AcDbLine
 10
69.3497848452
 20
5.0
 30
0.0
 11
49.0
 21
5.0
 31
0.0
  0
LINE
  5
21C
330
1F
100
AcDbEntity
  8
SK3
  6
SLD-Solid
370
    18
100
AcDbLine
 10
49.0
 20
-5.0
 30
0.0
 11
49.0
 21
-4.9096434863
 31
0.0
  0
LINE
  5
21D
330
1F
100
AcDbEntity
  8
SK3
  6
SLD-Solid
370
    18
100
AcDbLine
 10
48.9999496232
 20
-4.9096434863
 30
0.0
 11
49.0
 21
-4.6418396651
 31
0.0
  0
LINE
  5
21E
330
1F
100
AcDbEntity
  8
SK3
  6
SLD-Solid
370
    18
100
AcDbLine
 10
49.0
 20
-4.6418396651
 30
0.0
 11
49.0
 21
-4.2062676642
 31
0.0
  0
LINE
  5
21F
330
1F
100
AcDbEntity
  8
SK3
  6
SLD-Solid
370
    18
100
AcDbLine
 10
49.0
 20
-4.2062676642
 30
0.0
 11
49.0
 21
-3.6186701905
 31
0.0
  0
LINE
  5
220
330
1F
100
AcDbEntity
  8
SK3
  6
SLD-Solid
370
    18
100
AcDbLine
 10
49.0
 20
-3.6186701905
 30
0.0
 11
49.0
 21
-2.9002845479
 31
0.0
  0
LINE
  5
221
330
1F
100
AcDbEntity
  8
SK3
  6
SLD-Solid
370
    18
100
AcDbLine
 10
49.0
 20
-2.9002845479
 30
0.0
 11
49.0
 21
-2.077075065
 31
0.0
  0
LINE
  5
222
330
1F
100
AcDbEntity
  8
SK3
  6
SLD-Solid
370
    18
100
AcDbLine
 10
49.0
 20
-2.077075065
 30
0.0
 11
49.0
 21
-1.1787946775
 31
0.0
  0
LINE
  5
223
330
1F
100
AcDbEntity
  8
SK3
  6
SLD-Solid
370
    18
100
AcDbLine
 10
49.0
 20
-1.1787946775
 30
0.0
 11
49.0
 21
-0.2379095791
 31
0.0
  0
LINE
  5
224
330
1F
100
AcDbEntity
  8
SK3
  6
SLD-Solid
370
    18
100
AcDbLine
 10
49.0
 20
-0.2379095791
 30
0.0
 11
49.0
 21
0.7115741914
 31
0.0
  0
LINE
  5
225
330
1F
100
AcDbEntity
  8
SK3
  6
SLD-Solid
370
    18
100
AcDbLine
 10
49.0
 20
0.7115741914
 30
0.0
 11
49.0
 21
1.6353398166
 31
0.0
  0
LINE
  5
226
330
1F
100
AcDbEntity
  8
SK3
  6
SLD-Solid
370
    18
100
AcDbLine
 10
49.0
 20
1.6353398166
 30
0.0
 11
49.0
 21
2.5
 31
0.0
  0
LINE
  5
227
330
1F
100
AcDbEntity
  8
SK3
  6
SLD-Solid
370
    18
100
AcDbLine
 10
49.0
 20
2.5
 30
0.0
 11
49.0
 21
3.2743036697
 31
0.0
  0
LINE
  5
228
330
1F
100
AcDbEntity
  8
SK3
  6
SLD-Solid
370
    18
100
AcDbLine
 10
49.0
 20
3.2743036697
 30
0.0
 11
49.0
 21
3.9302654737
 31
0.0
  0
LINE
  5
229
330
1F
100
AcDbEntity
  8
SK3
  6
SLD-Solid
370
    18
100
AcDbLine
 10
49.0
 20
3.9302654737
 30
0.0
 11
49.0
 21
4.4441772433
 31
0.0
  0
LINE
  5
22A
330
1F
100
AcDbEntity
  8
SK3
  6
SLD-Solid
370
    18
100
AcDbLine
 10
49.0
 20
4.4441772433
 30
0.0
 11
49.0
 21
4.7974648681
 31
0.0
  0
LINE
  5
22B
330
1F
100
AcDbEntity
  8
SK3
  6
SLD-Solid
370
    18
100
AcDbLine
 10
49.0
 20
4.7974648681
 30
0.0
 11
49.0
 21
4.9773596129
 31
0.0
  0
LINE
  5
22C
330
1F
100
AcDbEntity
  8
SK3
  6
SLD-Solid
370
    18
100
AcDbLine
 10
49.0
 20
4.9773596129
 30
0.0
 11
49.0
 21
5.0
 31
0.0
  0
LINE
  5
22D
330
1F
100
AcDbEntity
  8
SK1
  6
SLD-Solid
370
    18
100
AcDbLine
 10
78.1428037632
 20
4.25
 30
0.0
 11
74.0
 21
4.25
 31
0.0
  0
LINE
  5
22E
330
1F
100
AcDbEntity
  8
SK1
  6
SLD-Solid
370
    18
100
AcDbLine
 10
74.0
 20
-4.25
 30
0.0
 11
78.1428037632
 21
-4.25
 31
0.0
  0
LINE
  5
22F
330
1F
100
AcDbEntity
  8
4
  6
SLD-Center
370
    18
100
AcDbLine
 10
76.0
 20
0.0
 30
0.0
 11
0.4061176882
 21
0.0
 31
0.0
  0
LINE
  5
230
330
1F
100
AcDbEntity
  8
SK4
  6
SLD-Center
370
    18
100
AcDbLine
 10
75.8020610253
 20
0.0
 30
0.0
 11
-70.3822957783
 21
0.0
 31
0.0
  0
ARC
  5
231
330
1F
100
AcDbEntity
  8
SK1
  6
SLD-Solid
370
    25
100
AcDbCircle
 10
83.4428037632
 20
6.2
 30
0.0
 40
0.3000000000000016
100
AcDbArc
 50
90.0
 51
180.0
  0
ARC
  5
232
330
1F
100
AcDbEntity
  8
SK1
  6
SLD-Solid
370
    25
100
AcDbCircle
 10
83.4428037632
 20
-6.2
 30
0.0
 40
0.3000000000000016
100
AcDbArc
 50
180.0
 51
270.0
  0
ARC
  5
233
330
1F
100
AcDbEntity
  8
1
  6
SLD-Solid
370
    25
100
AcDbCircle
 10
2.45
 20
22.79
 30
0.0
 40
0.7500000000007513
100
AcDbArc
 50
245.0
 51
345.3053202454
  0
ARC
  5
234
330
1F
100
AcDbEntity
  8
1
  6
SLD-Solid
370
    25
100
AcDbCircle
 10
2.45
 20
-22.79
 30
0.0
 40
0.7499999999993303
100
AcDbArc
 50
359.9999999998
 51
115.0000000001
  0
ARC
  5
235
330
1F
100
AcDbEntity
  8
1
  6
SLD-Solid
370
    25
100
AcDbCircle
 10
21.05
 20
-22.0
 30
0.0
 40
2.000000000000004
100
AcDbArc
 50
90.0
 51
180.0
  0
ARC
  5
236
330
1F
100
AcDbEntity
  8
1
  6
SLD-Solid
370
    25
100
AcDbCircle
 10
21.05
 20
22.0
 30
0.0
 40
2.000000000000053
100
AcDbArc
 50
180.0
 51
270.0
  0
ARC
  5
237
330
1F
100
AcDbEntity
  8
1
  6
SLD-Solid
370
    25
100
AcDbCircle
 10
42.2
 20
-19.2
 30
0.0
 40
0.8000000000000007
100
AcDbArc
 50
270.0
 51
0.0
  0
ARC
  5
238
330
1F
100
AcDbEntity
  8
1
  6
SLD-Solid
370
    25
100
AcDbCircle
 10
42.2
 20
19.2
 30
0.0
 40
0.7999999999999936
100
AcDbArc
 50
0.0000000002
 51
90.0
  0
ARC
  5
239
330
1F
100
AcDbEntity
  8
SK1
  6
SLD-Solid
370
    25
100
AcDbCircle
 10
-67.25
 20
11.4070377961
 30
0.0
 40
0.9999999999994742
100
AcDbArc
 50
98.2972222219
 51
180.0000000001
  0
ARC
  5
23A
330
1F
100
AcDbEntity
  8
SK1
  6
SLD-Solid
370
    25
100
AcDbCircle
 10
-67.25
 20
-11.4070377962
 30
0.0
 40
1.000000000002909
100
AcDbArc
 50
180.0000000003
 51
261.7027777778
  0
ARC
  5
23B
330
1F
100
AcDbEntity
  8
SK1
  6
SLD-Solid
370
    25
100
AcDbCircle
 10
43.42
 20
11.547
 30
0.0
 40
0.8000000000000047
100
AcDbArc
 50
238.3317567465
 51
287.5
  0
ARC
  5
23C
330
1F
100
AcDbEntity
  8
SK1
  6
SLD-Solid
370
    25
100
AcDbCircle
 10
43.42
 20
-11.547
 30
0.0
 40
0.799999999999992
100
AcDbArc
 50
72.5
 51
121.6682432535
  0
ARC
  5
23D
330
1F
100
AcDbEntity
  8
1
  6
SLD-Solid
370
    25
100
AcDbCircle
 10
11.1225731457
 20
1.2170930058
 30
0.0
 40
1.999505669504645
100
AcDbArc
 50
89.9304585415
 51
157.0575149022
  0
ARC
  5
23E
330
1F
100
AcDbEntity
  8
1
  6
SLD-Solid
370
    25
100
AcDbCircle
 10
11.1271062099
 20
1.2166638639
 30
0.0
 40
1.999934447709619
100
AcDbArc
 50
22.1803901453
 51
90.060340458
  0
ARC
  5
23F
330
1F
100
AcDbEntity
  8
SK3
  6
SLD-Dashed
370
    18
100
AcDbCircle
 10
6.2
 20
-20.3
 30
0.0
 40
0.0999999999999943
100
AcDbArc
 50
90.0
 51
180.0
  0
ARC
  5
240
330
1F
100
AcDbEntity
  8
SK3
  6
SLD-Dashed
370
    18
100
AcDbCircle
 10
16.0
 20
-20.3
 30
0.0
 40
0.1000000000000032
100
AcDbArc
 50
0.0
 51
90.0
  0
SPLINE
  5
241
330
1F
100
AcDbEntity
  8
1
  6
SLD-Solid
370
    25
100
AcDbSpline
210
0.0
220
0.0
230
1.0
 70
     8
 71
     3
 72
    15
 73
    11
 74
     0
 42
0.000000001
 43
0.00000001
 40
0.0
 40
0.0
 40
0.0
 40
0.0
 40
0.069946967599268
 40
0.1232495019638718
 40
0.2469139614486102
 40
0.4943135207059607
 40
0.6227252920277385
 40
0.7456587922637183
 40
0.8736576760310657
 40
1.0
 40
1.0
 40
1.0
 40
1.0
 10
19.04999999999933
 20
29.82881899210963
 30
0.0
 10
19.04915108738947
 20
29.85599822585463
 30
0.0
 10
19.04765526762821
 20
29.90388918007046
 30
0.0
 10
19.03268955479739
 20
29.99880913237259
 30
0.0
 10
18.98567033920758
 20
30.15776624446882
 30
0.0
 10
18.87522355738046
 20
30.32517365985912
 30
0.0
 10
18.7241454161846
 20
30.4504336649188
 30
0.0
 10
18.59246616520836
 20
30.52119023007681
 30
0.0
 10
18.44989099600747
 20
30.56674492949655
 30
0.0
 10
18.34974624642319
 20
30.57249983579838
 30
0.0
 10
18.29999999999943
 20
30.57535854769515
 30
0.0
  0
SPLINE
  5
242
330
1F
100
AcDbEntity
  8
1
  6
SLD-Solid
370
    25
100
AcDbSpline
210
0.0
220
0.0
230
1.0
 70
     8
 71
     3
 72
    18
 73
    14
 74
     0
 42
0.000000001
 43
0.00000001
 40
0.0
 40
0.0
 40
0.0
 40
0.0
 40
0.0627055099628399
 40
0.1258180762743586
 40
0.1893520056291389
 40
0.2533212411767529
 40
0.3760225542109861
 40
0.5042029356617553
 40
0.6287444288251025
 40
0.7524971402266435
 40
0.8762905010543083
 40
0.9301814060611103
 40
1.0
 40
1.0
 40
1.0
 40
1.0
 10
18.29999999999965
 20
-30.55788599722716
 30
0.0
 10
18.32475189245106
 20
-30.55717415240525
 30
0.0
 10
18.37441635565741
 20
-30.55574584178066
 30
0.0
 10
18.4484070084786
 20
-30.54418224837842
 30
0.0
 10
18.52137928816175
 20
-30.52567922368236
 30
0.0
 10
18.61414871620877
 20
-30.4917169493196
 30
0.0
 10
18.72382630655614
 20
-30.43205957986806
 30
0.0
 10
18.83789059747485
 20
-30.33670428094301
 30
0.0
 10
18.93096567504024
 20
-30.22062761503343
 30
0.0
 10
18.99906840573241
 20
-30.09053185714682
 30
0.0
 10
19.03266225195431
 20
-29.97655781390378
 30
0.0
 10
19.04765434478801
 20
-29.88065720374609
 30
0.0
 10
19.0491537644669
 20
-29.83220059569276
 30
0.0
 10
19.04999999999933
 20
-29.80485287971166
 30
0.0
  0
SPLINE
  5
243
330
1F
100
AcDbEntity
  8
1
  6
SLD-Solid
370
    25
100
AcDbSpline
210
0.0
220
0.0
230
1.0
 70
     8
 71
     3
 72
    17
 73
    13
 74
     0
 42
0.000000001
 43
0.00000001
 40
0.0
 40
0.0
 40
0.0
 40
0.0
 40
0.0628888396365808
 40
0.126187127922581
 40
0.1899037537177423
 40
0.2540473816737308
 40
0.3769828768295423
 40
0.5053904312544141
 40
0.7526209933055679
 40
0.8763638664989896
 40
0.9298286844755602
 40
1.0
 40
1.0
 40
1.0
 40
1.0
 10
3.949999999999994
 20
30.57536093714896
 30
0.0
 10
3.925260594275517
 20
30.57465594167373
 30
0.0
 10
3.875620712653891
 20
30.57324136072847
 30
0.0
 10
3.801660986851932
 20
30.56178759446422
 30
0.0
 10
3.728709257318108
 20
30.5434544928118
 30
0.0
 10
3.635989250578841
 20
30.50982007129874
 30
0.0
 10
3.526318847106566
 20
30.4506710076424
 30
0.0
 10
3.375178249315463
 20
30.32567342248191
 30
0.0
 10
3.264574196495144
 20
30.15826957713116
 30
0.0
 10
3.217412270241024
 20
29.99927682971757
 30
0.0
 10
3.202361189092184
 20
29.90415331952974
 30
0.0
 10
3.200854909063782
 20
29.85609645105431
 30
0.0
 10
3.199999999999991
 20
29.82882114257114
 30
0.0
  0
SPLINE
  5
244
330
1F
100
AcDbEntity
  8
1
  6
SLD-Solid
370
    25
100
AcDbSpline
210
0.0
220
0.0
230
1.0
 70
     8
 71
     3
 72
    16
 73
    12
 74
     0
 42
0.000000001
 43
0.00000001
 40
0.0
 40
0.0
 40
0.0
 40
0.0
 40
0.0695972538514195
 40
0.123327738095534
 40
0.2470395666591703
 40
0.3706254246806487
 40
0.4955039232053334
 40
0.6236892954479415
 40
0.7463896467418886
 40
0.8740291783554848
 40
0.9999999999999999
 40
0.9999999999999999
 40
0.9999999999999999
 40
0.9999999999999999
 10
3.200000000000041
 20
-29.80486664099097
 30
0.0
 10
3.200840330888875
 20
-29.83211893791854
 30
0.0
 10
3.202329414179343
 20
-29.88041055794653
 30
0.0
 10
3.217237154378468
 20
-29.97610839277719
 30
0.0
 10
3.250688715694237
 20
-30.08991375049755
 30
0.0
 10
3.318652551605729
 20
-30.22007276301185
 30
0.0
 10
3.411627066941424
 20
-30.33622625362586
 30
0.0
 10
3.525709306098931
 20
-30.43184487736112
 30
0.0
 10
3.657379122707051
 20
-30.50320172902492
 30
0.0
 10
3.800029806173651
 20
-30.54921379636113
 30
0.0
 10
3.900229701082141
 20
-30.55502332938696
 30
0.0
 10
3.949999999999995
 20
-30.55790898306486
 30
0.0
  0
SPLINE
  5
245
330
1F
100
AcDbEntity
  8
1
  6
SLD-Solid
370
    25
100
AcDbSpline
210
0.0
220
0.0
230
1.0
 70
     8
 71
     3
 72
    14
 73
    10
 74
     0
 42
0.000000001
 43
0.00000001
 40
0.0
 40
0.0
 40
0.0
 40
0.0
 40
0.25
 40
0.25
 40
0.5
 40
0.5
 40
0.75
 40
0.75
 40
1.0
 40
1.0
 40
1.0
 40
1.0
 10
13.02999999999849
 20
14.42713851694012
 30
0.0
 10
13.05898396534985
 20
14.37259992179865
 30
0.0
 10
13.08269469317811
 20
14.30877340141277
 30
0.0
 10
13.11608120471381
 20
14.15631998185873
 30
0.0
 10
13.12492217037859
 20
14.07065992868134
 30
0.0
 10
13.12507680424304
 20
13.88130260930858
 30
0.0
 10
13.11613097492941
 20
13.77846352230187
 30
0.0
 10
13.08312123359777
 20
13.56986701759826
 30
0.0
 10
13.05904915811871
 20
13.46307736876837
 30
0.0
 10
13.0299999999982
 20
13.35829895897685
 30
0.0
  0
SPLINE
  5
246
330
1F
100
AcDbEntity
  8
1
  6
SLD-Solid
370
    25
100
AcDbSpline
210
0.0
220
0.0
230
1.0
 70
     8
 71
     3
 72
     8
 73
     4
 74
     0
 42
0.000000001
 43
0.00000001
 40
0.0
 40
0.0
 40
0.0
 40
0.0
 40
1.0
 40
1.0
 40
1.0
 40
1.0
 10
14.3359983460435
 20
30.16151882747545
 30
0.0
 10
13.89971936423182
 20
29.37911880556084
 30
0.0
 10
13.46431130537737
 20
28.59624790492151
 30
0.0
 10
13.02999999999999
 20
27.81278402659762
 30
0.0
  0
SPLINE
  5
247
330
1F
100
AcDbEntity
  8
1
  6
SLD-Solid
370
    25
100
AcDbSpline
210
0.0
220
0.0
230
1.0
 70
     8
 71
     3
 72
     8
 73
     4
 74
     0
 42
0.000000001
 43
0.00000001
 40
0.0
 40
0.0
 40
0.0
 40
0.0
 40
0.0006888740319126
 40
0.0006888740319126
 40
0.0006888740319126
 40
0.0006888740319126
 10
14.63683664205619
 20
30.57535854769515
 30
0.0
 10
14.5362814689701
 20
30.4375015156561
 30
0.0
 10
14.43599688551467
 20
30.29955630279801
 30
0.0
 10
14.3359983460435
 20
30.16151882747545
 30
0.0
  0
SPLINE
  5
248
330
1F
100
AcDbEntity
  8
1
  6
SLD-Solid
370
    25
100
AcDbSpline
210
0.0
220
0.0
230
1.0
 70
     8
 71
     3
 72
     8
 73
     4
 74
     0
 42
0.000000001
 43
0.00000001
 40
0.0
 40
0.0
 40
0.0
 40
0.0
 40
0.0006744388085558
 40
0.0006744388085558
 40
0.0006744388085558
 40
0.0006744388085558
 10
14.37164736689955
 20
-30.22544538331279
 30
0.0
 10
14.45959193074418
 20
-30.33636220150214
 30
0.0
 10
14.54799612919976
 20
-30.44717457304273
 30
0.0
 10
14.63683664205674
 20
-30.55788599722683
 30
0.0
  0
SPLINE
  5
249
330
1F
100
AcDbEntity
  8
1
  6
SLD-Solid
370
    25
100
AcDbSpline
210
0.0
220
0.0
230
1.0
 70
     8
 71
     3
 72
     8
 73
     4
 74
     0
 42
0.000000001
 43
0.00000001
 40
0.0
 40
0.0
 40
0.0
 40
0.0
 40
1.0
 40
1.0
 40
1.0
 40
1.0
 10
14.37164736689955
 20
-30.22544538331279
 30
0.0
 10
13.92344569040367
 20
-29.42177793480444
 30
0.0
 10
13.47614903267276
 20
-28.61760224597263
 30
0.0
 10
13.02999999999999
 20
-27.81278402659763
 30
0.0
  0
SPLINE
  5
24A
330
1F
100
AcDbEntity
  8
1
  6
SLD-Solid
370
    25
100
AcDbSpline
210
0.0
220
0.0
230
1.0
 70
     8
 71
     3
 72
    14
 73
    10
 74
     0
 42
0.000000001
 43
0.00000001
 40
0.0
 40
0.0
 40
0.0
 40
0.0
 40
0.25
 40
0.25
 40
0.5
 40
0.5
 40
0.75
 40
0.75
 40
1.0
 40
1.0
 40
1.0
 40
1.0
 10
13.02999999999682
 20
-9.36321351860582
 30
0.0
 10
13.05614901336999
 20
-9.460869309271716
 30
0.0
 10
13.07736595872984
 20
-9.559903720027553
 30
0.0
 10
13.10706956482884
 20
-9.761533736286584
 30
0.0
 10
13.1149309152655
 20
-9.861116747162713
 30
0.0
 10
13.11506816657583
 20
-10.05155434096817
 30
0.0
 10
13.1071291089411
 20
-10.14309682494243
 30
0.0
 10
13.07778052409926
 20
-10.30714399288455
 30
0.0
 10
13.05622574486044
 20
-10.381690064139
 30
0.0
 10
13.02999999999682
 20
-10.44736797213994
 30
0.0
  0
SPLINE
  5
24B
330
1F
100
AcDbEntity
  8
1
  6
SLD-Solid
370
    25
100
AcDbSpline
210
0.0
220
0.0
230
1.0
 70
     8
 71
     3
 72
    14
 73
    10
 74
     0
 42
0.000000001
 43
0.00000001
 40
0.0
 40
0.0
 40
0.0
 40
0.0
 40
0.25
 40
0.25
 40
0.5
 40
0.5
 40
0.75
 40
0.75
 40
1.0
 40
1.0
 40
1.0
 40
1.0
 10
13.0299999999982
 20
3.214585248603678
 30
0.0
 10
13.05898396534948
 20
3.128994446379027
 30
0.0
 10
13.08269469317765
 20
3.037155548097192
 30
0.0
 10
13.11608120471316
 20
2.836799358974218
 30
0.0
 10
13.12492217037786
 20
2.732333355669892
 30
0.0
 10
13.12507680424211
 20
2.517273494460972
 30
0.0
 10
13.1161309749284
 20
2.407866052235238
 30
0.0
 10
13.08312123359656
 20
2.198098128211562
 30
0.0
 10
13.05904915811743
 20
2.096571778495336
 30
0.0
 10
13.02999999999682
 20
2.001380319269282
 30
0.0
  0
SPLINE
  5
24C
330
1F
100
AcDbEntity
  8
1
  6
SLD-Solid
370
    25
100
AcDbSpline
210
0.0
220
0.0
230
1.0
 70
     8
 71
     3
 72
    14
 73
    10
 74
     0
 42
0.000000001
 43
0.00000001
 40
0.0
 40
0.0
 40
0.0
 40
0.0
 40
0.25
 40
0.25
 40
0.5
 40
0.5
 40
0.75
 40
0.75
 40
1.0
 40
1.0
 40
1.0
 40
1.0
 10
9.199999999999992
 20
-10.44736797213991
 30
0.0
 10
9.173850986626842
 20
-10.38188222507844
 30
0.0
 10
9.152634041267005
 20
-10.30896838556235
 30
0.0
 10
9.122930435167984
 20
-10.14391469510492
 30
0.0
 10
9.115069084731347
 20
-10.05401656986635
 30
0.0
 10
9.114931833421004
 20
-9.863748039868337
 30
0.0
 10
9.122870891055719
 20
-9.762424990334896
 30
0.0
 10
9.152219475897546
 20
-9.562238537150332
 30
0.0
 10
9.173774255136365
 20
-9.461155869772579
 30
0.0
 10
9.199999999999985
 20
-9.363213518605807
 30
0.0
  0
SPLINE
  5
24D
330
1F
100
AcDbEntity
  8
1
  6
SLD-Solid
370
    25
100
AcDbSpline
210
0.0
220
0.0
230
1.0
 70
     8
 71
     3
 72
     8
 73
     4
 74
     0
 42
0.000000001
 43
0.00000001
 40
0.0
 40
0.0
 40
0.0
 40
0.0
 40
1.0
 40
1.0
 40
1.0
 40
1.0
 10
9.19999999999999
 20
-27.81278402659765
 30
0.0
 10
8.753825436795324
 20
-28.6176483010702
 30
0.0
 10
8.3065031179048
 20
-29.42186997179667
 30
0.0
 10
7.858275689112902
 20
-30.22558335104452
 30
0.0
  0
SPLINE
  5
24E
330
1F
100
AcDbEntity
  8
1
  6
SLD-Solid
370
    25
100
AcDbSpline
210
0.0
220
0.0
230
1.0
 70
     8
 71
     3
 72
     8
 73
     4
 74
     0
 42
0.000000001
 43
0.00000001
 40
0.0
 40
0.0
 40
0.0
 40
0.0
 40
0.0006742886233641
 40
0.0006742886233641
 40
0.0006742886233641
 40
0.0006742886233641
 10
7.593163357943229
 20
-30.55790898306486
 30
0.0
 10
7.681978133138283
 20
-30.44723584359265
 30
0.0
 10
7.770356680011871
 20
-30.3364617983647
 30
0.0
 10
7.858275689112902
 20
-30.22558335104452
 30
0.0
  0
SPLINE
  5
24F
330
1F
100
AcDbEntity
  8
1
  6
SLD-Solid
370
    25
100
AcDbSpline
210
0.0
220
0.0
230
1.0
 70
     8
 71
     3
 72
     8
 73
     4
 74
     0
 42
0.000000001
 43
0.00000001
 40
0.0
 40
0.0
 40
0.0
 40
0.0
 40
0.0006888652761855
 40
0.0006888652761855
 40
0.0006888652761855
 40
0.0006888652761855
 10
7.893998699232144
 20
30.16152412632425
 30
0.0
 10
7.79400113187187
 20
30.29956062861516
 30
0.0
 10
7.693717533619651
 20
30.43750487173247
 30
0.0
 10
7.59316335794323
 20
30.57536093714896
 30
0.0
  0
SPLINE
  5
250
330
1F
100
AcDbEntity
  8
1
  6
SLD-Solid
370
    25
100
AcDbSpline
210
0.0
220
0.0
230
1.0
 70
     8
 71
     3
 72
     8
 73
     4
 74
     0
 42
0.000000001
 43
0.00000001
 40
0.0
 40
0.0
 40
0.0
 40
0.0
 40
1.0
 40
1.0
 40
1.0
 40
1.0
 10
9.199999999999985
 20
27.81278402659763
 30
0.0
 10
8.765687714156575
 20
28.59624967360613
 30
0.0
 10
8.330278669909013
 20
29.37912234026616
 30
0.0
 10
7.893998699232144
 20
30.16152412632425
 30
0.0
  0
SPLINE
  5
251
330
1F
100
AcDbEntity
  8
1
  6
SLD-Solid
370
    25
100
AcDbSpline
210
0.0
220
0.0
230
1.0
 70
     8
 71
     3
 72
    14
 73
    10
 74
     0
 42
0.000000001
 43
0.00000001
 40
0.0
 40
0.0
 40
0.0
 40
0.0
 40
0.25
 40
0.25
 40
0.5
 40
0.5
 40
0.75
 40
0.75
 40
1.0
 40
1.0
 40
1.0
 40
1.0
 10
9.199999999999985
 20
13.41729426795302
 30
0.0
 10
9.17672165655517
 20
13.50984895399849
 30
0.0
 10
9.1579981614541
 20
13.6019544836841
 30
0.0
 10
9.13194105728389
 20
13.78503354407853
 30
0.0
 10
9.12504858009676
 20
13.87428030755417
 30
0.0
 10
9.124951943139365
 20
14.04013897762222
 30
0.0
 10
9.131884147769679
 20
14.11851740705917
 30
0.0
 10
9.157695257709959
 20
14.25601877221026
 30
0.0
 10
9.176643624390287
 20
14.31685635888578
 30
0.0
 10
9.199999999999985
 20
14.36941201270362
 30
0.0
  0
SPLINE
  5
252
330
1F
100
AcDbEntity
  8
1
  6
SLD-Solid
370
    25
100
AcDbSpline
210
0.0
220
0.0
230
1.0
 70
     8
 71
     3
 72
    14
 73
    10
 74
     0
 42
0.000000001
 43
0.00000001
 40
0.0
 40
0.0
 40
0.0
 40
0.0
 40
0.25
 40
0.25
 40
0.5
 40
0.5
 40
0.75
 40
0.75
 40
1.0
 40
1.0
 40
1.0
 40
1.0
 10
9.199999999999985
 20
2.067742973228579
 30
0.0
 10
9.176721656555198
 20
2.153769180031129
 30
0.0
 10
9.157998161454115
 20
2.242999523078458
 30
0.0
 10
9.131941057283877
 20
2.429488303733685
 30
0.0
 10
9.12504858009676
 20
2.525148049204319
 30
0.0
 10
9.12495194313935
 20
2.713329732078842
 30
0.0
 10
9.131884147769679
 20
2.807968374750051
 30
0.0
 10
9.15769525770993
 20
2.985158779631736
 30
0.0
 10
9.176643624390287
 20
3.069713180480167
 30
0.0
 10
9.199999999999985
 20
3.148460778470856
 30
0.0
  0
SPLINE
  5
253
330
1F
100
AcDbEntity
  8
1
  6
SLD-Solid
370
    25
100
AcDbSpline
210
0.0
220
0.0
230
1.0
 70
     8
 71
     3
 72
    16
 73
    12
 74
     0
 42
0.000000001
 43
0.00000001
 40
0.0
 40
0.0
 40
0.0
 40
0.0
 40
0.2500000000000001
 40
0.2500000000000001
 40
0.5000000000000001
 40
0.5000000000000001
 40
0.7500000000000002
 40
0.7500000000000002
 40
0.8750000000000001
 40
0.8750000000000001
 40
1.0
 40
1.0
 40
1.0
 40
1.0
 10
9.949999999999987
 20
0.9054008904063604
 30
0.0
 10
9.83883913421095
 20
0.9861970079488441
 30
0.0
 10
9.739902813026848
 20
1.077582915139229
 30
0.0
 10
9.564313202336361
 20
1.275638626964372
 30
0.0
 10
9.490552685972265
 20
1.378863517988126
 30
0.0
 10
9.364593468858457
 20
1.591886989652486
 30
0.0
 10
9.31293060165915
 20
1.701806363805902
 30
0.0
 10
9.253207465811958
 20
1.85926344577543
 30
0.0
 10
9.236054165735572
 20
1.911186894414434
 30
0.0
 10
9.209536444062415
 20
2.002134201095656
 30
0.0
 10
9.199999999999985
 20
2.041975631651622
 30
0.0
 10
9.199999999999985
 20
2.04820902968772
 30
0.0
  0
SPLINE
  5
254
330
1F
100
AcDbEntity
  8
1
  6
SLD-Solid
370
    25
100
AcDbSpline
210
0.0
220
0.0
230
1.0
 70
     8
 71
     3
 72
    16
 73
    12
 74
     0
 42
0.000000001
 43
0.00000001
 40
0.0
 40
0.0
 40
0.0
 40
0.0
 40
0.1249999999999998
 40
0.1249999999999998
 40
0.2499999999999996
 40
0.2499999999999996
 40
0.4999999999999996
 40
0.4999999999999996
 40
0.7499999999999996
 40
0.7499999999999996
 40
1.0
 40
1.0
 40
1.0
 40
1.0
 10
9.199999999999985
 20
3.128926834929949
 30
0.0
 10
9.200000000000014
 20
3.122758841137163
 30
0.0
 10
9.20974059879262
 20
3.15186436302678
 30
0.0
 10
9.236148153136073
 20
3.223230078663167
 30
0.0
 10
9.253138927932932
 20
3.26640987794298
 30
0.0
 10
9.313077912922878
 20
3.401099695481885
 30
0.0
 10
9.363919208305704
 20
3.496230545378953
 30
0.0
 10
9.48979619693649
 20
3.685998293247672
 30
0.0
 10
9.56477172941142
 20
3.780672656692512
 30
0.0
 10
9.738486282096781
 20
3.961533440469504
 30
0.0
 10
9.839055979137811
 20
4.049347322177814
 30
0.0
 10
9.94999999999789
 20
4.129145905168774
 30
0.0
  0
SPLINE
  5
255
330
1F
100
AcDbEntity
  8
1
  6
SLD-Solid
370
    25
100
AcDbSpline
210
0.0
220
0.0
230
1.0
 70
     8
 71
     3
 72
    12
 73
     8
 74
     0
 42
0.000000001
 43
0.00000001
 40
0.0
 40
0.0
 40
0.0
 40
0.0
 40
0.2499999999999994
 40
0.2499999999999994
 40
0.4999999999999989
 40
0.4999999999999989
 40
1.0
 40
1.0
 40
1.0
 40
1.0
 10
9.94999999999789
 20
4.129145905168774
 30
0.0
 10
10.11911991650748
 20
4.250788600181895
 30
0.0
 10
10.3026435200667
 20
4.343579516047705
 30
0.0
 10
10.69821493773962
 20
4.472289156780322
 30
0.0
 10
10.9034125116655
 20
4.505429302446295
 30
0.0
 10
11.5259769507375
 20
4.509761882422178
 30
0.0
 10
11.93875839455147
 20
4.382483242957639
 30
0.0
 10
12.27999999999789
 20
4.143345644057564
 30
0.0
  0
SPLINE
  5
256
330
1F
100
AcDbEntity
  8
1
  6
SLD-Solid
370
    25
100
AcDbSpline
210
0.0
220
0.0
230
1.0
 70
     8
 71
     3
 72
    16
 73
    12
 74
     0
 42
0.000000001
 43
0.00000001
 40
0.0
 40
0.0
 40
0.0
 40
0.0
 40
0.2500000000000002
 40
0.2500000000000002
 40
0.4999999999999998
 40
0.4999999999999998
 40
0.7499999999999993
 40
0.7499999999999993
 40
0.8749999999999997
 40
0.8749999999999997
 40
1.0
 40
1.0
 40
1.0
 40
1.0
 10
12.27999999999789
 20
4.143345644057564
 30
0.0
 10
12.38979819034808
 20
4.066400526039016
 30
0.0
 10
12.48771954023686
 20
3.983543451476203
 30
0.0
 10
12.66275471320967
 20
3.807554568916349
 30
0.0
 10
12.7365792449065
 20
3.717841617628913
 30
0.0
 10
12.8632721683722
 20
3.536143002403659
 30
0.0
 10
12.91569421217516
 20
3.443736979682421
 30
0.0
 10
12.97654294892654
 20
3.31749752226039
 30
0.0
 10
12.99405091255869
 20
3.276981346068887
 30
0.0
 10
13.02079232696095
 20
3.212531499625325
 30
0.0
 10
13.0299999999982
 20
3.188977324699617
 30
0.0
 10
13.0299999999982
 20
3.195050406326692
 30
0.0
  0
SPLINE
  5
257
330
1F
100
AcDbEntity
  8
1
  6
SLD-Solid
370
    25
100
AcDbSpline
210
0.0
220
0.0
230
1.0
 70
     8
 71
     3
 72
    16
 73
    12
 74
     0
 42
0.000000001
 43
0.00000001
 40
0.0
 40
0.0
 40
0.0
 40
0.0
 40
0.1250000000000012
 40
0.1250000000000012
 40
0.2500000000000024
 40
0.2500000000000024
 40
0.5000000000000016
 40
0.5000000000000016
 40
0.7500000000000008
 40
0.7500000000000008
 40
1.0
 40
1.0
 40
1.0
 40
1.0
 10
13.03000000000922
 20
1.981845476997819
 30
0.0
 10
13.03000000000922
 20
1.975764242686764
 30
0.0
 10
13.02061001209712
 20
1.94029386638863
 30
0.0
 10
12.9936737432218
 20
1.855886406705525
 30
0.0
 10
12.97620432943319
 20
1.807073600353315
 30
0.0
 10
12.91552372851894
 20
1.657836317825907
 30
0.0
 10
12.86283705778756
 20
1.551667070126848
 30
0.0
 10
12.73668103372015
 20
1.347587653460394
 30
0.0
 10
12.66225212910542
 20
1.247197996381934
 30
0.0
 10
12.48732587518238
 20
1.056312613050066
 30
0.0
 10
12.39001303066253
 20
0.9689654219741384
 30
0.0
 10
12.27999999999999
 20
0.8910510240565175
 30
0.0
  0
SPLINE
  5
258
330
1F
100
AcDbEntity
  8
1
  6
SLD-Solid
370
    25
100
AcDbSpline
210
0.0
220
0.0
230
1.0
 70
     8
 71
     3
 72
    12
 73
     8
 74
     0
 42
0.000000001
 43
0.00000001
 40
0.0
 40
0.0
 40
0.0
 40
0.0
 40
0.25
 40
0.25
 40
0.5
 40
0.5
 40
1.0
 40
1.0
 40
1.0
 40
1.0
 10
12.27999999999999
 20
0.8910510240565175
 30
0.0
 10
12.10938073841264
 20
0.7702135472608534
 30
0.0
 10
11.92471490210968
 20
0.6785718055678791
 30
0.0
 10
11.52756570958262
 20
0.5531521405084048
 30
0.0
 10
11.32197072606905
 20
0.522104756755723
 30
0.0
 10
10.6993957285697
 20
0.5253980539293921
 30
0.0
 10
10.28824237865357
 20
0.6595529403246869
 30
0.0
 10
9.949999999999987
 20
0.9054008904063604
 30
0.0
  0
SPLINE
  5
259
330
1F
100
AcDbEntity
  8
1
  6
SLD-Solid
370
    25
100
AcDbSpline
210
0.0
220
0.0
230
1.0
 70
     8
 71
     3
 72
    16
 73
    12
 74
     0
 42
0.000000001
 43
0.00000001
 40
0.0
 40
0.0
 40
0.0
 40
0.0
 40
0.2499999999999993
 40
0.2499999999999993
 40
0.4999999999999986
 40
0.4999999999999986
 40
0.7499999999999978
 40
0.7499999999999978
 40
0.8749999999999989
 40
0.8749999999999989
 40
1.0
 40
1.0
 40
1.0
 40
1.0
 10
12.27999999999682
 20
-8.03278760779678
 30
0.0
 10
12.39043372689844
 20
-8.108729321442219
 30
0.0
 10
12.48882901746022
 20
-8.200473206837145
 30
0.0
 10
12.66410334854887
 20
-8.405728806778136
 30
0.0
 10
12.73788841341349
 20
-8.515486421936085
 30
0.0
 10
12.86422126911939
 20
-8.745901984341401
 30
0.0
 10
12.91628240591208
 20
-8.866590169077732
 30
0.0
 10
12.97661386675238
 20
-9.044850915317943
 30
0.0
 10
12.99395951695428
 20
-9.104462708685052
 30
0.0
 10
13.02063019805652
 20
-9.214547395183196
 30
0.0
 10
13.02999999999682
 20
-9.265617081058185
 30
0.0
 10
13.02999999999682
 20
-9.289022290170264
 30
0.0
  0
SPLINE
  5
25A
330
1F
100
AcDbEntity
  8
1
  6
SLD-Solid
370
    25
100
AcDbSpline
210
0.0
220
0.0
230
1.0
 70
     8
 71
     3
 72
    16
 73
    12
 74
     0
 42
0.000000001
 43
0.00000001
 40
0.0
 40
0.0
 40
0.0
 40
0.0
 40
0.1250000000000009
 40
0.1250000000000009
 40
0.2500000000000018
 40
0.2500000000000018
 40
0.5000000000000012
 40
0.5000000000000012
 40
0.7500000000000007
 40
0.7500000000000007
 40
1.0
 40
1.0
 40
1.0
 40
1.0
 10
9.199999999999985
 20
-9.289022290174788
 30
0.0
 10
9.199999999999985
 20
-9.265967775948457
 30
0.0
 10
9.209563827901404
 20
-9.213651598864434
 30
0.0
 10
9.236165608094913
 20
-9.104042339300479
 30
0.0
 10
9.25360698667932
 20
-9.0441485149351
 30
0.0
 10
9.313827278242371
 20
-8.866366468518489
 30
0.0
 10
9.364947089709293
 20
-8.74754544853238
 30
0.0
 10
9.492010964480672
 20
-8.515544216609872
 30
0.0
 10
9.566115913432371
 20
-8.405604957855449
 30
0.0
 10
9.739483002625699
 20
-8.202318123876458
 30
0.0
 10
9.839659725882813
 20
-8.108665056973326
 30
0.0
 10
9.949999999996823
 20
-8.03278760779678
 30
0.0
  0
SPLINE
  5
25B
330
1F
100
AcDbEntity
  8
1
  6
SLD-Solid
370
    25
100
AcDbSpline
210
0.0
220
0.0
230
1.0
 70
     8
 71
     3
 72
    16
 73
    12
 74
     0
 42
0.000000001
 43
0.00000001
 40
0.0
 40
0.0
 40
0.0
 40
0.0
 40
0.1250000000000006
 40
0.1250000000000006
 40
0.2500000000000012
 40
0.2500000000000012
 40
0.5000000000000008
 40
0.5000000000000008
 40
0.7500000000000003
 40
0.7500000000000003
 40
1.0
 40
1.0
 40
1.0
 40
1.0
 10
13.02999999999999
 20
13.25423689575077
 30
0.0
 10
13.02999999999999
 20
13.22171486025361
 30
0.0
 10
13.02063230050278
 20
13.1652205452828
 30
0.0
 10
12.99361556231939
 20
13.04713227969972
 30
0.0
 10
12.9762138055608
 20
12.9856086782465
 30
0.0
 10
12.91546637159638
 20
12.80180430434868
 30
0.0
 10
12.86280401623209
 20
12.67859401980553
 30
0.0
 10
12.73666842354115
 20
12.44725763024151
 30
0.0
 10
12.6616803652899
 20
12.3360056516461
 30
0.0
 10
12.48724895776775
 20
12.13493244750436
 30
0.0
 10
12.39011238222307
 20
12.04699294675414
 30
0.0
 10
12.27999999999999
 20
11.9764663239689
 30
0.0
  0
SPLINE
  5
25C
330
1F
100
AcDbEntity
  8
1
  6
SLD-Solid
370
    25
100
AcDbSpline
210
0.0
220
0.0
230
1.0
 70
     8
 71
     3
 72
    16
 73
    12
 74
     0
 42
0.000000001
 43
0.00000001
 40
0.0
 40
0.0
 40
0.0
 40
0.0
 40
0.2499999999999999
 40
0.2499999999999999
 40
0.4999999999999998
 40
0.4999999999999998
 40
0.7499999999999997
 40
0.7499999999999997
 40
0.8749999999999998
 40
0.8749999999999998
 40
1.0
 40
1.0
 40
1.0
 40
1.0
 10
9.949999999999987
 20
11.98944236018545
 30
0.0
 10
9.838845618233005
 20
12.06249067460921
 30
0.0
 10
9.739914737404543
 20
12.1544250669141
 30
0.0
 10
9.564332004720566
 20
12.3630546454497
 30
0.0
 10
9.490573642347053
 20
12.47615080652714
 30
0.0
 10
9.364616596655884
 20
12.71583976158569
 30
0.0
 10
9.312953250259964
 20
12.84224965040105
 30
0.0
 10
9.253227496010389
 20
13.03264456797214
 30
0.0
 10
9.236066342376226
 20
13.097051995342
 30
0.0
 10
9.209729158719593
 20
13.21897391871756
 30
0.0
 10
9.199999999999944
 20
13.28057692835785
 30
0.0
 10
9.199999999999973
 20
13.31323699229151
 30
0.0
  0
SPLINE
  5
25D
330
1F
100
AcDbEntity
  8
1
  6
SLD-Solid
370
    25
100
AcDbSpline
210
0.0
220
0.0
230
1.0
 70
     8
 71
     3
 72
    12
 73
     8
 74
     0
 42
0.000000001
 43
0.00000001
 40
0.0
 40
0.0
 40
0.0
 40
0.0
 40
0.2500000000000002
 40
0.2500000000000002
 40
0.5000000000000001
 40
0.5000000000000001
 40
1.0
 40
1.0
 40
1.0
 40
1.0
 10
9.949999999996823
 20
-8.03278760779678
 30
0.0
 10
10.11987070991416
 20
-7.915972997159022
 30
0.0
 10
10.30396582361799
 20
-7.826862840678926
 30
0.0
 10
10.70032541250135
 20
-7.703990274779783
 30
0.0
 10
10.90572162653104
 20
-7.672893949800992
 30
0.0
 10
11.5282885487502
 20
-7.672366892885377
 30
0.0
 10
11.94025576621632
 20
-7.799156451461433
 30
0.0
 10
12.27999999999682
 20
-8.03278760779678
 30
0.0
  0
SPLINE
  5
25E
330
1F
100
AcDbEntity
  8
1
  6
SLD-Solid
370
    25
100
AcDbSpline
210
0.0
220
0.0
230
1.0
 70
     8
 71
     3
 72
    12
 73
     8
 74
     0
 42
0.000000001
 43
0.00000001
 40
0.0
 40
0.0
 40
0.0
 40
0.0
 40
0.25
 40
0.25
 40
0.5
 40
0.5
 40
1.0
 40
1.0
 40
1.0
 40
1.0
 10
12.27999999999999
 20
11.9764663239689
 30
0.0
 10
12.10938073841186
 20
11.86718524168747
 30
0.0
 10
11.92471490211827
 20
11.78401387014914
 30
0.0
 10
11.52756570959017
 20
11.67009676386629
 30
0.0
 10
11.32197072607555
 20
11.64183419046647
 30
0.0
 10
10.69939572857358
 20
11.64482979934794
 30
0.0
 10
10.28824237865508
 20
11.76715660559203
 30
0.0
 10
9.949999999999987
 20
11.98944236018545
 30
0.0
  0
SPLINE
  5
25F
330
1F
100
AcDbEntity
  8
1
  6
SLD-Solid
370
    25
100
AcDbSpline
210
0.0
220
0.0
230
1.0
 70
     8
 71
     3
 72
    16
 73
    12
 74
     0
 42
0.000000001
 43
0.00000001
 40
0.0
 40
0.0
 40
0.0
 40
0.0
 40
0.2499999999999998
 40
0.2499999999999998
 40
0.4999999999999996
 40
0.4999999999999996
 40
0.7499999999999993
 40
0.7499999999999993
 40
0.8749999999999997
 40
0.8749999999999997
 40
1.0
 40
1.0
 40
1.0
 40
1.0
 10
9.949999999999998
 20
-11.08803165800864
 30
0.0
 10
9.83956627309838
 20
-11.01523830532304
 30
0.0
 10
9.741170982536584
 20
-10.94274942699642
 30
0.0
 10
9.56589665144795
 20
-10.79540173334309
 30
0.0
 10
9.492111586583329
 20
-10.72328408444049
 30
0.0
 10
9.365778730877429
 20
-10.58156849206972
 30
0.0
 10
9.313717594084734
 20
-10.51146513976871
 30
0.0
 10
9.253386133244424
 20
-10.4221348499883
 30
0.0
 10
9.236040483042517
 20
-10.39455892286184
 30
0.0
 10
9.209369801940294
 20
-10.35815034999981
 30
0.0
 10
9.199999999999992
 20
-10.34977153459677
 30
0.0
 10
9.199999999999992
 20
-10.37317674370886
 30
0.0
  0
SPLINE
  5
260
330
1F
100
AcDbEntity
  8
1
  6
SLD-Solid
370
    25
100
AcDbSpline
210
0.0
220
0.0
230
1.0
 70
     8
 71
     3
 72
    16
 73
    12
 74
     0
 42
0.000000001
 43
0.00000001
 40
0.0
 40
0.0
 40
0.0
 40
0.0
 40
0.1249999999999985
 40
0.1249999999999985
 40
0.249999999999997
 40
0.249999999999997
 40
0.499999999999998
 40
0.499999999999998
 40
0.749999999999999
 40
0.749999999999999
 40
1.0
 40
1.0
 40
1.0
 40
1.0
 10
13.02999999999682
 20
-10.37317674370894
 30
0.0
 10
13.02999999999682
 20
-10.35012222948262
 30
0.0
 10
13.02043617209539
 20
-10.35837864255988
 30
0.0
 10
12.99383439190189
 20
-10.39476675115381
 30
0.0
 10
12.97639301331749
 20
-10.42247007438042
 30
0.0
 10
12.91617272175442
 20
-10.51161099949349
 30
0.0
 10
12.86505291028751
 20
-10.58058256634234
 30
0.0
 10
12.73798903551612
 20
-10.72322384373522
 30
0.0
 10
12.66388408656443
 20
-10.79552999607576
 30
0.0
 10
12.49051699737109
 20
-10.94138598585885
 30
0.0
 10
12.39034027411399
 20
-11.01529990554179
 30
0.0
 10
12.28
 20
-11.08803165800864
 30
0.0
  0
SPLINE
  5
261
330
1F
100
AcDbEntity
  8
1
  6
SLD-Solid
370
    25
100
AcDbSpline
210
0.0
220
0.0
230
1.0
 70
     8
 71
     3
 72
    12
 73
     8
 74
     0
 42
0.000000001
 43
0.00000001
 40
0.0
 40
0.0
 40
0.0
 40
0.0
 40
0.25
 40
0.25
 40
0.5
 40
0.5
 40
1.0
 40
1.0
 40
1.0
 40
1.0
 10
12.28
 20
-11.08803165800864
 30
0.0
 10
12.11012929008266
 20
-11.20000341559483
 30
0.0
 10
11.92603417637883
 20
-11.2849157569949
 30
0.0
 10
11.52967458749547
 20
-11.40184024692137
 30
0.0
 10
11.32427837346579
 20
-11.43132053842806
 30
0.0
 10
10.70171145124662
 20
-11.43182081838371
 30
0.0
 10
10.28974423378049
 20
-11.31197702801791
 30
0.0
 10
9.949999999999998
 20
-11.08803165800864
 30
0.0
  0
SPLINE
  5
262
330
1F
100
AcDbEntity
  8
1
  6
SLD-Solid
370
    25
100
AcDbSpline
210
0.0
220
0.0
230
1.0
 70
     8
 71
     3
 72
    12
 73
     8
 74
     0
 42
0.000000001
 43
0.00000001
 40
0.0
 40
0.0
 40
0.0
 40
0.0
 40
0.2500000000000016
 40
0.2500000000000016
 40
0.5000000000000032
 40
0.5000000000000032
 40
1.0
 40
1.0
 40
1.0
 40
1.0
 10
9.949999999999987
 20
-26.80430888868439
 30
0.0
 10
9.850219275687632
 20
-26.8043088886844
 30
0.0
 10
9.748489574720242
 20
-26.82597317527054
 30
0.0
 10
9.56505084213445
 20
-26.90735539054019
 30
0.0
 10
9.481946114451508
 20
-26.96711648327168
 30
0.0
 10
9.27707381455313
 20
-27.18590763033132
 30
0.0
 10
9.199999999999694
 20
-27.38705398234564
 30
0.0
 10
9.199999999999973
 20
-27.58683517549747
 30
0.0
  0
SPLINE
  5
263
330
1F
100
AcDbEntity
  8
1
  6
SLD-Solid
370
    25
100
AcDbSpline
210
0.0
220
0.0
230
1.0
 70
     8
 71
     3
 72
    14
 73
    10
 74
     0
 42
0.000000001
 43
0.00000001
 40
0.0
 40
0.0
 40
0.0
 40
0.0
 40
0.25
 40
0.25
 40
0.5
 40
0.5
 40
0.75
 40
0.75
 40
1.0
 40
1.0
 40
1.0
 40
1.0
 10
13.02999999999999
 20
-27.5868351754964
 30
0.0
 10
13.02999999999999
 20
-27.48633204917054
 30
0.0
 10
13.01129308106055
 20
-27.38625032826132
 30
0.0
 10
12.93873708556012
 20
-27.19964761855488
 30
0.0
 10
12.8844960585747
 20
-27.11279998838253
 30
0.0
 10
12.74798842579548
 20
-26.96707505027712
 30
0.0
 10
12.66478019424776
 20
-26.9071847047812
 30
0.0
 10
12.4805111798614
 20
-26.82562619640964
 30
0.0
 10
12.38097181174445
 20
-26.8043088886844
 30
0.0
 10
12.27999999999999
 20
-26.8043088886844
 30
0.0
  0
SPLINE
  5
264
330
1F
100
AcDbEntity
  8
SK3
  6
SLD-Solid
370
    25
100
AcDbSpline
210
0.0
220
0.0
230
1.0
 70
     8
 71
     3
 72
    17
 73
    13
 74
     0
 42
0.000000001
 43
0.00000001
 40
0.0
 40
0.0
 40
0.0
 40
0.0
 40
0.0163490988844184
 40
0.0846111765742814
 40
0.1966642354467658
 40
0.4176937349563253
 40
0.6080272069709881
 40
0.688396931239623
 40
0.7563403851548423
 40
0.8244176294137313
 40
0.9142070393904398
 40
1.0
 40
1.0
 40
1.0
 40
1.0
 10
9.48326443094985
 20
-8.544591945388154
 30
0.0
 10
9.485668433267577
 20
-8.569396722201025
 30
0.0
 10
9.498109820161735
 20
-8.697768405902789
 30
0.0
 10
9.596193859403538
 20
-8.905051294226428
 30
0.0
 10
9.850730477209954
 20
-9.163180284244714
 30
0.0
 10
10.27638747925284
 20
-9.226390459599378
 30
0.0
 10
10.74638198226506
 20
-9.149202486440112
 30
0.0
 10
11.1801988739286
 20
-9.034102524943247
 30
0.0
 10
11.51856225384391
 20
-8.929968937006
 30
0.0
 10
11.88852987629117
 20
-8.780011449060217
 30
0.0
 10
12.24965614144023
 20
-8.564609617693561
 30
0.0
 10
12.42683093148754
 20
-8.34454851228235
 30
0.0
 10
12.51340197921165
 20
-8.23702237691237
 30
0.0
  0
SPLINE
  5
265
330
1F
100
AcDbEntity
  8
SK3
  6
SLD-Solid
370
    25
100
AcDbSpline
210
0.0
220
0.0
230
1.0
 70
     8
 71
     3
 72
    17
 73
    13
 74
     0
 42
0.000000001
 43
0.00000001
 40
0.0
 40
0.0
 40
0.0
 40
0.0
 40
0.0660441359143084
 40
0.3113917054228572
 40
0.4135516817389869
 40
0.5172122511010963
 40
0.6031669167364218
 40
0.6914803339679806
 40
0.7775208446339734
 40
0.8660826508392131
 40
0.9796332114188115
 40
1.0
 40
1.0
 40
1.0
 40
1.0
 10
11.71787487589408
 20
-7.78298557365743
 30
0.0
 10
11.6939634237125
 20
-7.80581385503128
 30
0.0
 10
11.58122324215231
 20
-7.913446991122255
 30
0.0
 10
11.40499965128149
 20
-8.022517440281009
 30
0.0
 10
11.18874606455787
 20
-8.116599658906136
 30
0.0
 10
11.03355880826311
 20
-8.158939605195602
 30
0.0
 10
10.872068736497
 20
-8.177647005951135
 30
0.0
 10
10.71104945535135
 20
-8.171171457867704
 30
0.0
 10
10.54407314853327
 20
-8.13819135128134
 30
0.0
 10
10.36548231818664
 20
-8.071557935473335
 30
0.0
 10
10.23047981076336
 20
-8.004302076159146
 30
0.0
 10
10.16001385821533
 20
-7.948009504686885
 30
0.0
 10
10.14929706037909
 20
-7.939448262181334
 30
0.0
  0
SPLINE
  5
266
330
1F
100
AcDbEntity
  8
1
  6
SLD-Solid
370
    25
100
AcDbSpline
210
0.0
220
0.0
230
1.0
 70
     8
 71
     3
 72
    16
 73
    12
 74
     0
 42
0.000000001
 43
0.00000001
 40
0.0
 40
0.0
 40
0.0
 40
0.0
 40
0.125
 40
0.125
 40
0.25
 40
0.25
 40
0.5
 40
0.5
 40
0.75
 40
0.75
 40
1.0
 40
1.0
 40
1.0
 40
1.0
 10
9.199999999999985
 20
14.26535473703917
 30
0.0
 10
9.200000000001179
 20
14.23253824476477
 30
0.0
 10
9.209727271595858
 20
14.23245441136527
 30
0.0
 10
9.236153532651295
 20
14.25286869500705
 30
0.0
 10
9.253093968942098
 20
14.27242684068915
 30
0.0
 10
9.313101280437053
 20
14.33929382209753
 30
0.0
 10
9.36394949204826
 20
14.39399195112771
 30
0.0
 10
9.489587017955353
 20
14.50884403533466
 30
0.0
 10
9.564790355593129
 20
14.56998140421709
 30
0.0
 10
9.73847878832286
 20
14.69545148601958
 30
0.0
 10
9.839054875039235
 20
14.76114121960002
 30
0.0
 10
9.949999999998488
 20
14.8295777019137
 30
0.0
  0
SPLINE
  5
267
330
1F
100
AcDbEntity
  8
1
  6
SLD-Solid
370
    25
100
AcDbSpline
210
0.0
220
0.0
230
1.0
 70
     8
 71
     3
 72
    12
 73
     8
 74
     0
 42
0.000000001
 43
0.00000001
 40
0.0
 40
0.0
 40
0.0
 40
0.0
 40
0.25
 40
0.25
 40
0.5
 40
0.5
 40
1.0
 40
1.0
 40
1.0
 40
1.0
 10
9.949999999998488
 20
14.8295777019137
 30
0.0
 10
10.1191199165081
 20
14.9338992949478
 30
0.0
 10
10.30264352006736
 20
15.01316922924015
 30
0.0
 10
10.69821493774034
 20
15.12302212126948
 30
0.0
 10
10.90341251166627
 20
15.15123673005753
 30
0.0
 10
11.52597695073836
 20
15.15492821636435
 30
0.0
 10
11.93875839455204
 20
15.04679003658383
 30
0.0
 10
12.27999999999849
 20
14.84175400946483
 30
0.0
  0
SPLINE
  5
268
330
1F
100
AcDbEntity
  8
1
  6
SLD-Solid
370
    25
100
AcDbSpline
210
0.0
220
0.0
230
1.0
 70
     8
 71
     3
 72
    16
 73
    12
 74
     0
 42
0.000000001
 43
0.00000001
 40
0.0
 40
0.0
 40
0.0
 40
0.0
 40
0.2500000000000002
 40
0.2500000000000002
 40
0.5000000000000004
 40
0.5000000000000004
 40
0.7500000000000007
 40
0.7500000000000007
 40
0.8750000000000003
 40
0.8750000000000003
 40
1.0
 40
1.0
 40
1.0
 40
1.0
 10
12.27999999999849
 20
14.84175400946483
 30
0.0
 10
12.38980194730081
 20
14.77577918492565
 30
0.0
 10
12.48772649260083
 20
14.71390797499327
 30
0.0
 10
12.66276572822357
 20
14.59252964411471
 30
0.0
 10
12.73659155903503
 20
14.535413379931
 30
0.0
 10
12.86328586416533
 20
14.42717476030361
 30
0.0
 10
12.91570770854666
 20
14.37541508243271
 30
0.0
 10
12.97655493867739
 20
14.31659247224884
 30
0.0
 10
12.99405038404702
 20
14.29983429832767
 30
0.0
 10
13.02080668460755
 20
14.28641213808362
 30
0.0
 10
13.02999999999849
 20
14.29079162571299
 30
0.0
 10
13.02999999999849
 20
14.32307645371233
 30
0.0
  0
SPLINE
  5
269
330
1F
100
AcDbEntity
  8
1
  6
SLD-Solid
370
    25
100
AcDbSpline
210
0.0
220
0.0
230
1.0
 70
     8
 71
     3
 72
    12
 73
     8
 74
     0
 42
0.000000001
 43
0.00000001
 40
0.0
 40
0.0
 40
0.0
 40
0.0
 40
0.25
 40
0.25
 40
0.5
 40
0.5
 40
1.0
 40
1.0
 40
1.0
 40
1.0
 10
9.949999999999987
 20
26.8043088886844
 30
0.0
 10
9.85020310490127
 20
26.80430888868439
 30
0.0
 10
9.749501667275991
 20
26.82572174190437
 30
0.0
 10
9.566443787491997
 20
26.90654241362413
 30
0.0
 10
9.483267922669944
 20
26.96588196572587
 30
0.0
 10
9.276316509628943
 20
27.18636461126023
 30
0.0
 10
9.199999999999985
 20
27.38652349465741
 30
0.0
 10
9.199999999999973
 20
27.58683517549637
 30
0.0
  0
SPLINE
  5
26A
330
1F
100
AcDbEntity
  8
1
  6
SLD-Solid
370
    25
100
AcDbSpline
210
0.0
220
0.0
230
1.0
 70
     8
 71
     3
 72
    10
 73
     6
 74
     0
 42
0.000000001
 43
0.00000001
 40
0.0
 40
0.0
 40
0.0
 40
0.0
 40
0.5
 40
0.5
 40
1.0
 40
1.0
 40
1.0
 40
1.0
 10
13.02999999999999
 20
27.5868351754964
 30
0.0
 10
13.02999999999999
 20
27.38707634764943
 30
0.0
 10
12.95316556404608
 20
27.18603271636413
 30
0.0
 10
12.6790551263346
 20
26.8935607871121
 30
0.0
 10
12.48157512974545
 20
26.8043088886844
 30
0.0
 10
12.27999999999999
 20
26.8043088886844
 30
0.0
  0
SPLINE
  5
26B
330
1F
100
AcDbEntity
  8
1
  6
SLD-Solid
370
    25
100
AcDbSpline
210
0.0
220
0.0
230
1.0
 70
     8
 71
     3
 72
    40
 73
    36
 74
     0
 42
0.000000001
 43
0.00000001
 40
0.0
 40
0.0
 40
0.0
 40
0.0
 40
0.0624999999999999
 40
0.0624999999999999
 40
0.1249999999999997
 40
0.1249999999999997
 40
0.1874999999999996
 40
0.1874999999999996
 40
0.2499999999999994
 40
0.2499999999999994
 40
0.3124999999999993
 40
0.3124999999999993
 40
0.3749999999999992
 40
0.3749999999999992
 40
0.4062499999999992
 40
0.4062499999999992
 40
0.4374999999999992
 40
0.4374999999999992
 40
0.4999999999999993
 40
0.4999999999999993
 40
0.5624999999999994
 40
0.5624999999999994
 40
0.6249999999999994
 40
0.6249999999999994
 40
0.6874999999999996
 40
0.6874999999999996
 40
0.7499999999999997
 40
0.7499999999999997
 40
0.8124999999999998
 40
0.8124999999999998
 40
0.8749999999999998
 40
0.8749999999999998
 40
0.9374999999999999
 40
0.9374999999999999
 40
1.0
 40
1.0
 40
1.0
 40
1.0
 10
37.29999999999998
 20
5.049999999999999
 30
0.0
 10
36.96496880017281
 20
5.049999999999999
 30
0.0
 10
36.63581860803035
 20
5.016992654987069
 30
0.0
 10
35.9887081962172
 20
4.887930648747478
 30
0.0
 10
35.66731751991014
 20
4.790220162792957
 30
0.0
 10
35.05656619277907
 20
4.536393506017624
 30
0.0
 10
34.76710808360968
 20
4.381269431581757
 30
0.0
 10
34.2192893514026
 20
4.015007495864323
 30
0.0
 10
33.96101360947939
 20
3.802783865180265
 30
0.0
 10
33.49733471448715
 20
3.339121436502834
 30
0.0
 10
33.28875914665115
 20
3.085862993492672
 30
0.0
 10
32.91946601263255
 20
2.534467514824584
 30
0.0
 10
32.76342850329893
 20
2.242776290361591
 30
0.0
 10
32.57410229523125
 20
1.787567479113336
 30
0.0
 10
32.51829830120981
 20
1.63255847676632
 30
0.0
 10
32.42162394282965
 20
1.315813573840023
 30
0.0
 10
32.38059941877032
 20
1.153109264014192
 30
0.0
 10
32.28278080428871
 20
0.6638250941464647
 30
0.0
 10
32.25029781940679
 20
0.3353151214078066
 30
0.0
 10
32.2497062185277
 20
-0.3262837172686855
 30
0.0
 10
32.28272033720163
 20
-0.6624114921032418
 30
0.0
 10
32.41197059298907
 20
-1.311126506404681
 30
0.0
 10
32.50762989987474
 20
-1.626593571957439
 30
0.0
 10
32.76168892464647
 20
-2.239721055897665
 30
0.0
 10
32.91903162255913
 20
-2.533238590772112
 30
0.0
 10
33.28370774984798
 20
-3.078892372799454
 30
0.0
 10
33.49386502125175
 20
-3.335447377904904
 30
0.0
 10
33.96137169943622
 20
-3.803345074785892
 30
0.0
 10
34.2147004084883
 20
-4.011388484541772
 30
0.0
 10
34.76011386246322
 20
-4.377132571860825
 30
0.0
 10
35.05569221727436
 20
-4.535902053388105
 30
0.0
 10
35.66485312971479
 20
-4.789323498588256
 30
0.0
 10
35.97953613199617
 20
-4.885570390053023
 30
0.0
 10
36.62961906848117
 20
-5.016274740235273
 30
0.0
 10
36.96495958595304
 20
-5.050000000000002
 30
0.0
 10
37.29999999999996
 20
-5.050000000000002
 30
0.0
  0
SPLINE
  5
26C
330
1F
100
AcDbEntity
  8
1
  6
SLD-Solid
370
    25
100
AcDbSpline
210
0.0
220
0.0
230
1.0
 70
    24
 71
     2
 72
     6
 73
     3
 74
     0
 42
0.000000001
 43
0.00000001
 40
0.0
 40
0.0
 40
0.0
 40
0.5000000000000056
 40
0.5000000000000056
 40
0.5000000000000056
 10
42.99999999999997
 20
-5.050000000000002
 30
0.0
 10
42.91786309376256
 20
-5.050000000000002
 30
0.0
 10
42.77053620303209
 20
-5.049999999999995
 30
0.0
  0
SPLINE
  5
26D
330
1F
100
AcDbEntity
  8
1
  6
SLD-Solid
370
    25
100
AcDbSpline
210
0.0
220
0.0
230
1.0
 70
    24
 71
     3
 72
     8
 73
     4
 74
     0
 42
0.000000001
 43
0.00000001
 40
0.5000000000000056
 40
0.5000000000000056
 40
0.5000000000000056
 40
0.5000000000000056
 40
0.7500000000000028
 40
0.7500000000000028
 40
0.7500000000000028
 40
0.7500000000000028
 10
42.77053620303209
 20
-5.049999999999995
 30
0.0
 10
42.69687275766688
 20
-5.049999999999995
 30
0.0
 10
42.60819591374808
 20
-5.050000000000002
 30
0.0
 10
42.51065044827601
 20
-5.049999999999995
 30
0.0
  0
SPLINE
  5
26E
330
1F
100
AcDbEntity
  8
1
  6
SLD-Solid
370
    25
100
AcDbSpline
210
0.0
220
0.0
230
1.0
 70
    24
 71
     3
 72
     8
 73
     4
 74
     0
 42
0.000000001
 43
0.00000001
 40
0.7500000000000028
 40
0.7500000000000028
 40
0.7500000000000028
 40
0.7500000000000028
 40
1.0
 40
1.0
 40
1.0
 40
1.0
 10
42.51065044827601
 20
-5.049999999999995
 30
0.0
 10
42.41310498280394
 20
-5.049999999999995
 30
0.0
 10
42.30612446589723
 20
-5.050000000000002
 30
0.0
 10
42.19999999999997
 20
-5.050000000000002
 30
0.0
  0
SPLINE
  5
26F
330
1F
100
AcDbEntity
  8
1
  6
SLD-Solid
370
    25
100
AcDbSpline
210
0.0
220
0.0
230
1.0
 70
    24
 71
     3
 72
     8
 73
     4
 74
     0
 42
0.000000001
 43
0.00000001
 40
0.0
 40
0.0
 40
0.0
 40
0.0
 40
0.25
 40
0.25
 40
0.25
 40
0.25
 10
42.19999999999997
 20
5.049999999999999
 30
0.0
 10
42.30707493744114
 20
5.049999999999999
 30
0.0
 10
42.41340225200464
 20
5.049999999999992
 30
0.0
 10
42.5108712612408
 20
5.049999999999992
 30
0.0
  0
SPLINE
  5
270
330
1F
100
AcDbEntity
  8
1
  6
SLD-Solid
370
    25
100
AcDbSpline
210
0.0
220
0.0
230
1.0
 70
    24
 71
     3
 72
     8
 73
     4
 74
     0
 42
0.000000001
 43
0.00000001
 40
0.25
 40
0.25
 40
0.25
 40
0.25
 40
0.5
 40
0.5
 40
0.5
 40
0.5
 10
42.5108712612408
 20
5.049999999999992
 30
0.0
 10
42.60834027047693
 20
5.049999999999992
 30
0.0
 10
42.69759789170239
 20
5.049999999999999
 30
0.0
 10
42.77070227948906
 20
5.049999999999999
 30
0.0
  0
SPLINE
  5
271
330
1F
100
AcDbEntity
  8
1
  6
SLD-Solid
370
    25
100
AcDbSpline
210
0.0
220
0.0
230
1.0
 70
    24
 71
     3
 72
     8
 73
     4
 74
     0
 42
0.000000001
 43
0.00000001
 40
0.5
 40
0.5
 40
0.5
 40
0.5
 40
0.75
 40
0.75
 40
0.75
 40
0.75
 10
42.77070227948906
 20
5.049999999999999
 30
0.0
 10
42.84380666727571
 20
5.049999999999999
 30
0.0
 10
42.90211008941293
 20
5.049999999999999
 30
0.0
 10
42.9410192146135
 20
5.049999999999999
 30
0.0
  0
SPLINE
  5
272
330
1F
100
AcDbEntity
  8
1
  6
SLD-Solid
370
    25
100
AcDbSpline
210
0.0
220
0.0
230
1.0
 70
    24
 71
     2
 72
     6
 73
     3
 74
     0
 42
0.000000001
 43
0.00000001
 40
0.75
 40
0.75
 40
0.75
 40
1.0
 40
1.0
 40
1.0
 10
42.94101921461332
 20
5.049999999999999
 30
0.0
 10
42.9799283398139
 20
5.050000000002967
 30
0.0
 10
42.99999999999978
 20
5.050000000004509
 30
0.0
  0
SPLINE
  5
273
330
1F
100
AcDbEntity
  8
1
  6
SLD-Solid
370
    25
100
AcDbSpline
210
0.0
220
0.0
230
1.0
 70
     8
 71
     3
 72
    10
 73
     6
 74
     0
 42
0.000000001
 43
0.00000001
 40
0.0
 40
0.0
 40
0.0
 40
0.0
 40
0.5
 40
0.5
 40
1.0
 40
1.0
 40
1.0
 40
1.0
 10
42.99999999999997
 20
5.0487314762959
 30
0.0
 10
42.97214073034476
 20
5.04107991209779
 30
0.0
 10
42.94181682798866
 20
4.999135378782437
 30
0.0
 10
42.88821024598012
 20
4.863413442531453
 30
0.0
 10
42.865989466139
 20
4.771608299839192
 30
0.0
 10
42.85451825927996
 20
4.674999999999999
 30
0.0
  0
SPLINE
  5
274
330
1F
100
AcDbEntity
  8
1
  6
SLD-Solid
370
    25
100
AcDbSpline
210
0.0
220
0.0
230
1.0
 70
     8
 71
     3
 72
    10
 73
     6
 74
     0
 42
0.000000001
 43
0.00000001
 40
0.0
 40
0.0
 40
0.0
 40
0.0
 40
0.5
 40
0.5
 40
1.0
 40
1.0
 40
1.0
 40
1.0
 10
42.85451825927996
 20
-4.675000000000002
 30
0.0
 10
42.86597700150095
 20
-4.771503325052738
 30
0.0
 10
42.88837063921376
 20
-4.863801306728855
 30
0.0
 10
42.94161420599621
 20
-4.998640584743915
 30
0.0
 10
42.97217168731469
 20
-5.041088414447128
 30
0.0
 10
42.99999999999997
 20
-5.048731476295902
 30
0.0
  0
SPLINE
  5
275
330
1F
100
AcDbEntity
  8
1
  6
SLD-Solid
370
    25
100
AcDbSpline
210
0.0
220
0.0
230
1.0
 70
     8
 71
     3
 72
     8
 73
     4
 74
     0
 42
0.000000001
 43
0.00000001
 40
0.0
 40
0.0
 40
0.0
 40
0.0
 40
1.0
 40
1.0
 40
1.0
 40
1.0
 10
42.85451825927996
 20
4.674999999999999
 30
0.0
 10
42.7720308137295
 20
3.980306584509451
 30
0.0
 10
42.70526100575523
 20
3.284630142655121
 30
0.0
 10
42.65702643940141
 20
2.587794453357689
 30
0.0
  0
SPLINE
  5
276
330
1F
100
AcDbEntity
  8
1
  6
SLD-Solid
370
    25
100
AcDbSpline
210
0.0
220
0.0
230
1.0
 70
     8
 71
     3
 72
     8
 73
     4
 74
     0
 42
0.000000001
 43
0.00000001
 40
0.0
 40
0.0
 40
0.0
 40
0.0
 40
1.0
 40
1.0
 40
1.0
 40
1.0
 10
42.65702643940141
 20
-2.587794453357686
 30
0.0
 10
42.70510799038678
 20
-3.282419558466219
 30
0.0
 10
42.77178156532572
 20
-3.978207462348653
 30
0.0
 10
42.85451825927996
 20
-4.674999999999995
 30
0.0
  0
SPLINE
  5
277
330
1F
100
AcDbEntity
  8
1
  6
SLD-Solid
370
    25
100
AcDbSpline
210
0.0
220
0.0
230
1.0
 70
     8
 71
     3
 72
    18
 73
    14
 74
     0
 42
0.000000001
 43
0.00000001
 40
0.0
 40
0.0
 40
0.0
 40
0.0
 40
0.25
 40
0.25
 40
0.5
 40
0.5
 40
0.5625
 40
0.5625
 40
0.625
 40
0.625
 40
0.75
 40
0.75
 40
1.0
 40
1.0
 40
1.0
 40
1.0
 10
42.65702643940141
 20
2.587794453357689
 30
0.0
 10
42.62749169608023
 20
2.16111158303884
 30
0.0
 10
42.62207086771365
 20
1.733295367862084
 30
0.0
 10
42.61882997556162
 20
0.8773057044557664
 30
0.0
 10
42.62133463191697
 20
0.449137018457859
 30
0.0
 10
42.62139220071877
 20
-0.0859965131609734
 30
0.0
 10
42.62130922350672
 20
-0.1961788539326416
 30
0.0
 10
42.62099910676219
 20
-0.4137318783460388
 30
0.0
 10
42.62077237470045
 20
-0.5225084426923876
 30
0.0
 10
42.62010818459951
 20
-0.8488381240876544
 30
0.0
 10
42.61963561770364
 20
-1.066391266676826
 30
0.0
 10
42.62185012765367
 20
-1.719048052161169
 30
0.0
 10
42.62701672233622
 20
-2.154249726878267
 30
0.0
 10
42.65702643940141
 20
-2.587794453357692
 30
0.0
  0
SPLINE
  5
278
330
1F
100
AcDbEntity
  8
SK1
  6
SLD-Solid
370
    25
100
AcDbSpline
210
0.0
220
0.0
230
1.0
 70
     8
 71
     2
 72
     6
 73
     3
 74
     0
 42
0.000000001
 43
0.00000001
 40
0.0
 40
0.0
 40
0.0
 40
0.1249999999999985
 40
0.1249999999999985
 40
0.1249999999999985
 10
71.99999999999993
 20
-11.0
 30
0.0
 10
71.98015108523134
 20
-10.99452896940095
 30
0.0
 10
71.94151666277884
 20
-10.98416083438743
 30
0.0
  0
SPLINE
  5
279
330
1F
100
AcDbEntity
  8
SK1
  6
SLD-Solid
370
    25
100
AcDbSpline
210
0.0
220
0.0
230
1.0
 70
     8
 71
     3
 72
     8
 73
     4
 74
     0
 42
0.000000001
 43
0.00000001
 40
0.1249999999999985
 40
0.1249999999999985
 40
0.1249999999999985
 40
0.1249999999999985
 40
0.2499999999999969
 40
0.2499999999999969
 40
0.2499999999999969
 40
0.2499999999999969
 10
71.94151666277884
 20
-10.98416083438743
 30
0.0
 10
71.90288224032638
 20
-10.97379269937392
 30
0.0
 10
71.84578242393013
 20
-10.95861193797355
 30
0.0
 10
71.76999163381883
 20
-10.93937742958206
 30
0.0
  0
SPLINE
  5
27A
330
1F
100
AcDbEntity
  8
SK1
  6
SLD-Solid
370
    25
100
AcDbSpline
210
0.0
220
0.0
230
1.0
 70
     8
 71
     3
 72
     8
 73
     4
 74
     0
 42
0.000000001
 43
0.00000001
 40
0.2499999999999969
 40
0.2499999999999969
 40
0.2499999999999969
 40
0.2499999999999969
 40
0.4999999999999938
 40
0.4999999999999938
 40
0.4999999999999938
 40
0.4999999999999938
 10
71.76999163381883
 20
-10.93937742958206
 30
0.0
 10
71.61841005359624
 20
-10.90090841279908
 30
0.0
 10
71.39713995189872
 20
-10.84732879492625
 30
0.0
 10
71.11929746195992
 20
-10.79260918177549
 30
0.0
  0
SPLINE
  5
27B
330
1F
100
AcDbEntity
  8
SK1
  6
SLD-Solid
370
    25
100
AcDbSpline
210
0.0
220
0.0
230
1.0
 70
     8
 71
     3
 72
     8
 73
     4
 74
     0
 42
0.000000001
 43
0.00000001
 40
0.4999999999999938
 40
0.4999999999999938
 40
0.4999999999999938
 40
0.4999999999999938
 40
0.6249999999999952
 40
0.6249999999999952
 40
0.6249999999999952
 40
0.6249999999999952
 10
71.11929746195992
 20
-10.79260918177549
 30
0.0
 10
70.98037621699052
 20
-10.76524937520011
 30
0.0
 10
70.82977274205665
 20
-10.73814515899933
 30
0.0
 10
70.66753360687045
 20
-10.71279667034377
 30
0.0
  0
SPLINE
  5
27C
330
1F
100
AcDbEntity
  8
SK1
  6
SLD-Solid
370
    25
100
AcDbSpline
210
0.0
220
0.0
230
1.0
 70
     8
 71
     3
 72
     8
 73
     4
 74
     0
 42
0.000000001
 43
0.00000001
 40
0.6249999999999952
 40
0.6249999999999952
 40
0.6249999999999952
 40
0.6249999999999952
 40
0.7499999999999968
 40
0.7499999999999968
 40
0.7499999999999968
 40
0.7499999999999968
 10
70.66753360687045
 20
-10.71279667034377
 30
0.0
 10
70.50529447168424
 20
-10.68744818168821
 30
0.0
 10
70.32943345310188
 20
-10.66368143201043
 30
0.0
 10
70.14833838622553
 20
-10.64403754592716
 30
0.0
  0
SPLINE
  5
27D
330
1F
100
AcDbEntity
  8
SK1
  6
SLD-Solid
370
    25
100
AcDbSpline
210
0.0
220
0.0
230
1.0
 70
     8
 71
     3
 72
     8
 73
     4
 74
     0
 42
0.000000001
 43
0.00000001
 40
0.7499999999999968
 40
0.7499999999999968
 40
0.7499999999999968
 40
0.7499999999999968
 40
0.8749999999999984
 40
0.8749999999999984
 40
0.8749999999999984
 40
0.8749999999999984
 10
70.14833838622553
 20
-10.64403754592716
 30
0.0
 10
69.96724331934911
 20
-10.62439365984389
 30
0.0
 10
69.78000413210722
 20
-10.60864268188637
 30
0.0
 10
69.58642173170671
 20
-10.59781679021978
 30
0.0
  0
SPLINE
  5
27E
330
1F
100
AcDbEntity
  8
SK1
  6
SLD-Solid
370
    25
100
AcDbSpline
210
0.0
220
0.0
230
1.0
 70
     8
 71
     3
 72
     8
 73
     4
 74
     0
 42
0.000000001
 43
0.00000001
 40
0.8749999999999984
 40
0.8749999999999984
 40
0.8749999999999984
 40
0.8749999999999984
 40
1.0
 40
1.0
 40
1.0
 40
1.0
 10
69.58642173170671
 20
-10.59781679021978
 30
0.0
 10
69.39283933130622
 20
-10.58699089855319
 30
0.0
 10
69.1932348453651
 20
-10.58123154162597
 30
0.0
 10
68.9937499999999
 20
-10.58123154162596
 30
0.0
  0
SPLINE
  5
27F
330
1F
100
AcDbEntity
  8
SK1
  6
SLD-Solid
370
    25
100
AcDbSpline
210
0.0
220
0.0
230
1.0
 70
     8
 71
     3
 72
    22
 73
    18
 74
     0
 42
0.000000001
 43
0.00000001
 40
0.0
 40
0.0
 40
0.0
 40
0.0
 40
0.0513878261772791
 40
0.1559585566413492
 40
0.2092618249944531
 40
0.2606473829961382
 40
0.3651001766368399
 40
0.4182727405178711
 40
0.4708778086152474
 40
0.577814088820813
 40
0.632269694674516
 40
0.6856907634241757
 40
0.7394937117789044
 40
0.7945218812408041
 40
0.8499832664051812
 40
0.9021044874811692
 40
1.0
 40
1.0
 40
1.0
 40
1.0
 10
49.90625
 20
-10.58123154162596
 30
0.0
 10
49.82502084237345
 20
-10.58179601680008
 30
0.0
 10
49.57849587482707
 20
-10.58350916055349
 30
0.0
 10
49.25063245439287
 20
-10.59948722281388
 30
0.0
 10
48.93414396346384
 20
-10.62492562632934
 30
0.0
 10
48.62708962036311
 20
-10.65642693409425
 30
0.0
 10
48.33650396755747
 20
-10.69552408214983
 30
0.0
 10
48.06741936639174
 20
-10.7392393636433
 30
0.0
 10
47.81216270944889
 20
-10.78524080669468
 30
0.0
 10
47.58322787138315
 20
-10.83242711356815
 30
0.0
 10
47.38715003790362
 20
-10.87668438524787
 30
0.0
 10
47.25725694232304
 20
-10.90757169121736
 30
0.0
 10
47.14564205934143
 20
-10.93527015884489
 30
0.0
 10
47.05252209695593
 20
-10.95920307552546
 30
0.0
 10
46.9820141915325
 20
-10.9778163516589
 30
0.0
 10
46.91645801931693
 20
-10.99547315466927
 30
0.0
 10
46.90831789688139
 20
-10.9977178630762
 30
0.0
 10
46.90300594641628
 20
-10.99918267886498
 30
0.0
  0
SPLINE
  5
280
330
1F
100
AcDbEntity
  8
SK3
  6
SLD-Dashed
370
    18
100
AcDbSpline
210
0.0
220
0.0
230
1.0
 70
     8
 71
     3
 72
    10
 73
     6
 74
     0
 42
0.000000001
 43
0.00000001
 40
0.0
 40
0.0
 40
0.0
 40
0.0
 40
0.5
 40
0.5
 40
1.0
 40
1.0
 40
1.0
 40
1.0
 10
9.1381502386019
 20
-8.152513349923927
 30
0.0
 10
9.123100104871204
 20
-8.255620108263598
 30
0.0
 10
9.114984999226957
 20
-8.356863420605276
 30
0.0
 10
9.115015042334349
 20
-8.552681333304012
 30
0.0
 10
9.123102863559037
 20
-8.641600333137985
 30
0.0
 10
9.1381502386019
 20
-8.722760521764455
 30
0.0
  0
SPLINE
  5
281
330
1F
100
AcDbEntity
  8
SK3
  6
SLD-Dashed
370
    18
100
AcDbSpline
210
0.0
220
0.0
230
1.0
 70
     8
 71
     3
 72
    14
 73
    10
 74
     0
 42
0.000000001
 43
0.00000001
 40
0.0
 40
0.0
 40
0.0
 40
0.0
 40
0.2156626484164403
 40
0.415642404960505
 40
0.6220295438892464
 40
0.8007815452667578
 40
0.8765395158584427
 40
0.9528765618629018
 40
1.0
 40
1.0
 40
1.0
 40
1.0
 10
11.11500000000046
 20
-5.949256181891204
 30
0.0
 10
10.92073417805171
 20
-6.039594942867627
 30
0.0
 10
10.54632945832255
 20
-6.213703070302327
 30
0.0
 10
10.14600726683793
 20
-6.659766231973049
 30
0.0
 10
9.802093825572816
 20
-7.162105890506039
 30
0.0
 10
9.57639319865894
 20
-7.674626650188768
 30
0.0
 10
9.479391788830394
 20
-8.095385702232665
 30
0.0
 10
9.45544568496709
 20
-8.359989587176482
 30
0.0
 10
9.475579562775518
 20
-8.493595944763076
 30
0.0
 10
9.48326443094985
 20
-8.544591945388154
 30
0.0
  0
SPLINE
  5
282
330
1F
100
AcDbEntity
  8
SK3
  6
SLD-Dashed
370
    18
100
AcDbSpline
210
0.0
220
0.0
230
1.0
 70
     8
 71
     3
 72
    16
 73
    12
 74
     0
 42
0.000000001
 43
0.00000001
 40
0.0
 40
0.0
 40
0.0
 40
0.0
 40
0.0095175032577263
 40
0.1661747465193134
 40
0.3200847900385455
 40
0.4698811989621473
 40
0.6223511804149027
 40
0.7797571226580335
 40
0.8777595464061528
 40
0.9758655076959295
 40
1.0
 40
1.0
 40
1.0
 40
1.0
 10
12.51340197921165
 20
-8.23702237691237
 30
0.0
 10
12.52055156707614
 20
-8.229298856255708
 30
0.0
 10
12.64538272488366
 20
-8.094446883779117
 30
0.0
 10
12.75502986857109
 20
-7.747938233839863
 30
0.0
 10
12.78202194451122
 20
-7.23214087466386
 30
0.0
 10
12.61484531136575
 20
-6.720207576854872
 30
0.0
 10
12.29238035988679
 20
-6.276791801497483
 30
0.0
 10
11.88390845439538
 20
-5.995924999222052
 30
0.0
 10
11.48522777329337
 20
-5.897281792134539
 30
0.0
 10
11.2519545405297
 20
-5.914103462646248
 30
0.0
 10
11.13758124356051
 20
-5.943460155618537
 30
0.0
 10
11.11500000000046
 20
-5.949256181891204
 30
0.0
  0
SPLINE
  5
283
330
1F
100
AcDbEntity
  8
SK3
  6
SLD-Dashed
370
    18
100
AcDbSpline
210
0.0
220
0.0
230
1.0
 70
     8
 71
     3
 72
    12
 73
     8
 74
     0
 42
0.000000001
 43
0.00000001
 40
0.0
 40
0.0
 40
0.0
 40
0.0
 40
0.1504511224452778
 40
0.3066913934878645
 40
0.5682816700956456
 40
0.8362093000375315
 40
1.0
 40
1.0
 40
1.0
 40
1.0
 10
12.67730763443389
 20
-6.28263586436589
 30
0.0
 10
12.64385702150479
 20
-6.383108600194053
 30
0.0
 10
12.57566866288365
 20
-6.587920122088049
 30
0.0
 10
12.41448644290959
 20
-6.919757625154871
 30
0.0
 10
12.19645704878927
 20
-7.268571850314584
 30
0.0
 10
11.95602488576154
 20
-7.57223748219386
 30
0.0
 10
11.7833764129925
 20
-7.725020747457744
 30
0.0
 10
11.71787487589408
 20
-7.78298557365743
 30
0.0
  0
SPLINE
  5
284
330
1F
100
AcDbEntity
  8
SK3
  6
SLD-Dashed
370
    18
100
AcDbSpline
210
0.0
220
0.0
230
1.0
 70
    24
 71
     2
 72
     6
 73
     3
 74
     0
 42
0.000000001
 43
0.00000001
 40
0.0
 40
0.0
 40
0.0
 40
0.25
 40
0.25
 40
0.25
 10
3.199999999999994
 20
22.59999999999999
 30
0.0
 10
3.192575886898835
 20
22.6
 30
0.0
 10
3.186463932143571
 20
22.59999999999999
 30
0.0
  0
SPLINE
  5
285
330
1F
100
AcDbEntity
  8
SK3
  6
SLD-Dashed
370
    18
100
AcDbSpline
210
0.0
220
0.0
230
1.0
 70
    24
 71
     3
 72
     8
 73
     4
 74
     0
 42
0.000000001
 43
0.00000001
 40
0.25
 40
0.25
 40
0.25
 40
0.25
 40
0.5
 40
0.5
 40
0.5
 40
0.5
 10
3.186463932143571
 20
22.59999999999999
 30
0.0
 10
3.180351977388307
 20
22.59999999999999
 30
0.0
 10
3.175622110806353
 20
22.6
 30
0.0
 10
3.1755356464295
 20
22.6
 30
0.0
  0
SPLINE
  5
286
330
1F
100
AcDbEntity
  8
SK3
  6
SLD-Dashed
370
    18
100
AcDbSpline
210
0.0
220
0.0
230
1.0
 70
    24
 71
     3
 72
     8
 73
     4
 74
     0
 42
0.000000001
 43
0.00000001
 40
0.5
 40
0.5
 40
0.5
 40
0.5
 40
0.5625
 40
0.5625
 40
0.5625
 40
0.5625
 10
3.1755356464295
 20
22.6
 30
0.0
 10
3.175514030335266
 20
22.6
 30
0.0
 10
3.175756782063152
 20
22.6
 30
0.0
 10
3.176252872171381
 20
22.6
 30
0.0
  0
SPLINE
  5
287
330
1F
100
AcDbEntity
  8
SK3
  6
SLD-Dashed
370
    18
100
AcDbSpline
210
0.0
220
0.0
230
1.0
 70
    24
 71
     3
 72
     8
 73
     4
 74
     0
 42
0.000000001
 43
0.00000001
 40
0.5625
 40
0.5625
 40
0.5625
 40
0.5625
 40
0.625
 40
0.625
 40
0.625
 40
0.625
 10
3.176252872171381
 20
22.6
 30
0.0
 10
3.176748962279596
 20
22.6
 30
0.0
 10
3.177497902177598
 20
22.6
 30
0.0
 10
3.178460899892682
 20
22.6
 30
0.0
  0
SPLINE
  5
288
330
1F
100
AcDbEntity
  8
SK3
  6
SLD-Dashed
370
    18
100
AcDbSpline
210
0.0
220
0.0
230
1.0
 70
    24
 71
     3
 72
     8
 73
     4
 74
     0
 42
0.000000001
 43
0.00000001
 40
0.625
 40
0.625
 40
0.625
 40
0.625
 40
0.75
 40
0.75
 40
0.75
 40
0.75
 10
3.178460899892682
 20
22.6
 30
0.0
 10
3.180386895322865
 20
22.60000000000001
 30
0.0
 10
3.183192270314536
 20
22.6
 30
0.0
 10
3.186270690980611
 20
22.6
 30
0.0
  0
SPLINE
  5
289
330
1F
100
AcDbEntity
  8
SK3
  6
SLD-Dashed
370
    18
100
AcDbSpline
210
0.0
220
0.0
230
1.0
 70
    24
 71
     2
 72
     6
 73
     3
 74
     0
 42
0.000000001
 43
0.00000001
 40
0.75
 40
0.75
 40
0.75
 40
1.0
 40
1.0
 40
1.0
 10
3.186270690980611
 20
22.6
 30
0.0
 10
3.192427532312775
 20
22.59999999999999
 30
0.0
 10
3.199999999999994
 20
22.59999999999999
 30
0.0
  0
SPLINE
  5
28A
330
1F
100
AcDbEntity
  8
SK3
  6
SLD-Dashed
370
    18
100
AcDbSpline
210
0.0
220
0.0
230
1.0
 70
     8
 71
     3
 72
    30
 73
    26
 74
     0
 42
0.000000001
 43
0.00000001
 40
0.500000000000001
 40
0.500000000000001
 40
0.500000000000001
 40
0.500000000000001
 40
0.5625000000000009
 40
0.5625000000000009
 40
0.5937500000000009
 40
0.5937500000000009
 40
0.6250000000000009
 40
0.6250000000000009
 40
0.6562500000000009
 40
0.6562500000000009
 40
0.6875000000000008
 40
0.6875000000000008
 40
0.7500000000000004
 40
0.7500000000000004
 40
0.7812500000000002
 40
0.7812500000000002
 40
0.8124999999999999
 40
0.8124999999999999
 40
0.8749999999999998
 40
0.8749999999999998
 40
0.9374999999999996
 40
0.9374999999999996
 40
0.9687499999999998
 40
0.9687499999999998
 40
1.0
 40
1.0
 40
1.0
 40
1.0
 10
11.11430368410711
 20
-3.877172552155854
 30
0.0
 10
11.33009126887197
 20
-3.87725057035335
 30
0.0
 10
11.54795128911971
 20
-3.840163879053012
 30
0.0
 10
11.84605317565858
 20
-3.733503950163412
 30
0.0
 10
11.94253393061905
 20
-3.688844576862364
 30
0.0
 10
12.12179675468214
 20
-3.584396341963808
 30
0.0
 10
12.20462098377892
 20
-3.524896024259275
 30
0.0
 10
12.35687870501914
 20
-3.390855347486413
 30
0.0
 10
12.42631806940206
 20
-3.31588924941217
 30
0.0
 10
12.54572006888069
 20
-3.156394907283588
 30
0.0
 10
12.59658790169309
 20
-3.0711959119521
 30
0.0
 10
12.72179440427297
 20
-2.797870601497682
 30
0.0
 10
12.7648746695358
 20
-2.599635773386622
 30
0.0
 10
12.76506225703517
 20
-2.292729329377911
 30
0.0
 10
12.75445301760235
 20
-2.190971671629359
 30
0.0
 10
12.71241496733701
 20
-1.98860241250514
 30
0.0
 10
12.68045121229688
 20
-1.887128696729742
 30
0.0
 10
12.55657935443361
 20
-1.597150549416188
 30
0.0
 10
12.4338679471566
 20
-1.416237039392042
 30
0.0
 10
12.13106882835609
 20
-1.11381943919138
 30
0.0
 10
11.94781800952532
 20
-0.9894109901842363
 30
0.0
 10
11.65004990845554
 20
-0.8634349448329581
 30
0.0
 10
11.54505220944865
 20
-0.8306714940699289
 30
0.0
 10
11.3323047047327
 20
-0.7872186525825844
 30
0.0
 10
11.22442130839524
 20
-0.7761870294391883
 30
0.0
 10
11.11499999999999
 20
-0.7761870294391883
 30
0.0
  0
SPLINE
  5
28B
330
1F
100
AcDbEntity
  8
SK3
  6
SLD-Dashed
370
    18
100
AcDbSpline
210
0.0
220
0.0
230
1.0
 70
     8
 71
     3
 72
    32
 73
    28
 74
     0
 42
0.000000001
 43
0.00000001
 40
0.0
 40
0.0
 40
0.0
 40
0.0
 40
0.0312500000000002
 40
0.0312500000000002
 40
0.0625000000000004
 40
0.0625000000000004
 40
0.0937500000000006
 40
0.0937500000000006
 40
0.1250000000000008
 40
0.1250000000000008
 40
0.1875000000000009
 40
0.1875000000000009
 40
0.2500000000000011
 40
0.2500000000000011
 40
0.2812500000000011
 40
0.2812500000000011
 40
0.3125000000000012
 40
0.3125000000000012
 40
0.3750000000000012
 40
0.3750000000000012
 40
0.4062500000000011
 40
0.4062500000000011
 40
0.4375000000000011
 40
0.4375000000000011
 40
0.4687500000000011
 40
0.4687500000000011
 40
0.500000000000001
 40
0.500000000000001
 40
0.500000000000001
 40
0.500000000000001
 10
11.11499999999999
 20
-0.7761870294391883
 30
0.0
 10
11.00557869160473
 20
-0.7761870294391883
 30
0.0
 10
10.89806586933308
 20
-0.7872158517148522
 30
0.0
 10
10.68667557509277
 20
-0.8302464334251636
 30
0.0
 10
10.58167903828547
 20
-0.8627949969944142
 30
0.0
 10
10.38206695335692
 20
-0.9470624567166352
 30
0.0
 10
10.28745482523744
 20
-0.9984411012338678
 30
0.0
 10
10.10839779389289
 20
-1.119117661897567
 30
0.0
 10
10.02393255072596
 20
-1.188799965596038
 30
0.0
 10
9.796543306819464
 20
-1.415674410817788
 30
0.0
 10
9.673729911510998
 20
-1.596813358985809
 30
0.0
 10
9.508870539297915
 20
-1.98196991963295
 30
0.0
 10
9.46513293658971
 20
-2.190136880900955
 30
0.0
 10
9.464933997937075
 20
-2.494715483199069
 30
0.0
 10
9.47573993255485
 20
-2.596989968316688
 30
0.0
 10
9.518010878332566
 20
-2.792786270541941
 30
0.0
 10
9.54928231265674
 20
-2.887169215205671
 30
0.0
 10
9.673818187818414
 20
-3.160133943201981
 30
0.0
 10
9.795190608826637
 20
-3.321994093354212
 30
0.0
 10
10.02468579114224
 20
-3.524411755127747
 30
0.0
 10
10.10756261211379
 20
-3.583929339277776
 30
0.0
 10
10.2858915658829
 20
-3.6880197640475
 30
0.0
 10
10.38250767519575
 20
-3.732907718499722
 30
0.0
 10
10.58170943134508
 20
-3.80434312706527
 30
0.0
 10
10.68455576173691
 20
-3.831307682281047
 30
0.0
 10
10.89687217954247
 20
-3.867841494158395
 30
0.0
 10
11.00640989172467
 20
-3.877133543057111
 30
0.0
 10
11.11430368410711
 20
-3.877172552155854
 30
0.0
  0
SPLINE
  5
28C
330
1F
100
AcDbEntity
  8
SK1
  6
SLD-Dashed
370
    18
100
AcDbSpline
210
0.0
220
0.0
230
1.0
 70
     8
 71
     3
 72
     8
 73
     4
 74
     0
 42
0.000000001
 43
0.00000001
 40
0.0
 40
0.0
 40
0.0
 40
0.0
 40
0.125
 40
0.125
 40
0.125
 40
0.125
 10
68.99374999999992
 20
-10.58123154162596
 30
0.0
 10
69.19346319074856
 20
-10.58123154162578
 30
0.0
 10
69.38963745242187
 20
-10.58688461599218
 30
0.0
 10
69.58244995553349
 20
-10.59759541476906
 30
0.0
  0
SPLINE
  5
28D
330
1F
100
AcDbEntity
  8
SK1
  6
SLD-Dashed
370
    18
100
AcDbSpline
210
0.0
220
0.0
230
1.0
 70
     8
 71
     3
 72
     8
 73
     4
 74
     0
 42
0.000000001
 43
0.00000001
 40
0.125
 40
0.125
 40
0.125
 40
0.125
 40
0.25
 40
0.25
 40
0.25
 40
0.25
 10
69.58244995553348
 20
-10.59759541476906
 30
0.0
 10
69.77526245864507
 20
-10.60830621354628
 30
0.0
 10
69.9667614821104
 20
-10.6243370990061
 30
0.0
 10
70.14859295628715
 20
-10.64406516285889
 30
0.0
  0
SPLINE
  5
28E
330
1F
100
AcDbEntity
  8
SK1
  6
SLD-Dashed
370
    18
100
AcDbSpline
210
0.0
220
0.0
230
1.0
 70
     8
 71
     3
 72
     8
 73
     4
 74
     0
 42
0.000000001
 43
0.00000001
 40
0.25
 40
0.25
 40
0.25
 40
0.25
 40
0.375
 40
0.375
 40
0.375
 40
0.375
 10
70.14859295628715
 20
-10.64406516285889
 30
0.0
 10
70.33042443046398
 20
-10.66379322671153
 30
0.0
 10
70.50274949574
 20
-10.68707626364672
 30
0.0
 10
70.66581122059293
 20
-10.71252769718291
 30
0.0
  0
SPLINE
  5
28F
330
1F
100
AcDbEntity
  8
SK1
  6
SLD-Dashed
370
    18
100
AcDbSpline
210
0.0
220
0.0
230
1.0
 70
     8
 71
     3
 72
     8
 73
     4
 74
     0
 42
0.000000001
 43
0.00000001
 40
0.375
 40
0.375
 40
0.375
 40
0.375
 40
0.5
 40
0.5
 40
0.5
 40
0.5
 10
70.66581122059293
 20
-10.71252769718291
 30
0.0
 10
70.8288729454458
 20
-10.7379791307191
 30
0.0
 10
70.98247407274124
 20
-10.76564910319405
 30
0.0
 10
71.1203954913503
 20
-10.79282548656195
 30
0.0
  0
SPLINE
  5
290
330
1F
100
AcDbEntity
  8
SK1
  6
SLD-Dashed
370
    18
100
AcDbSpline
210
0.0
220
0.0
230
1.0
 70
     8
 71
     3
 72
     8
 73
     4
 74
     0
 42
0.000000001
 43
0.00000001
 40
0.5
 40
0.5
 40
0.5
 40
0.5
 40
0.625
 40
0.625
 40
0.625
 40
0.625
 10
71.1203954913503
 20
-10.79282548656195
 30
0.0
 10
71.25831690995938
 20
-10.82000186992984
 30
0.0
 10
71.38243800060349
 20
-10.84697419564057
 30
0.0
 10
71.49234754788972
 20
-10.87223301092378
 30
0.0
  0
SPLINE
  5
291
330
1F
100
AcDbEntity
  8
SK1
  6
SLD-Dashed
370
    18
100
AcDbSpline
210
0.0
220
0.0
230
1.0
 70
     8
 71
     3
 72
     8
 73
     4
 74
     0
 42
0.000000001
 43
0.00000001
 40
0.625
 40
0.625
 40
0.625
 40
0.625
 40
0.75
 40
0.75
 40
0.75
 40
0.75
 10
71.49234754788975
 20
-10.87223301092379
 30
0.0
 10
71.60225709517599
 20
-10.89749182620701
 30
0.0
 10
71.6949706324616
 20
-10.92033784021107
 30
0.0
 10
71.77006037172292
 20
-10.93939487438116
 30
0.0
  0
SPLINE
  5
292
330
1F
100
AcDbEntity
  8
SK1
  6
SLD-Dashed
370
    18
100
AcDbSpline
210
0.0
220
0.0
230
1.0
 70
     8
 71
     3
 72
     8
 73
     4
 74
     0
 42
0.000000001
 43
0.00000001
 40
0.75
 40
0.75
 40
0.75
 40
0.75
 40
0.875
 40
0.875
 40
0.875
 40
0.875
 10
71.77006037172292
 20
-10.93939487438116
 30
0.0
 10
71.84515011098425
 20
-10.95845190855126
 30
0.0
 10
71.90335080132209
 20
-10.97391666125813
 30
0.0
 10
71.942065878111
 20
-10.98430823741859
 30
0.0
  0
SPLINE
  5
293
330
1F
100
AcDbEntity
  8
SK3
  6
SLD-Dashed
370
    18
100
AcDbSpline
210
0.0
220
0.0
230
1.0
 70
     8
 71
     3
 72
    10
 73
     6
 74
     0
 42
0.000000001
 43
0.00000001
 40
0.0
 40
0.0
 40
0.0
 40
0.0
 40
0.5
 40
0.5
 40
1.0
 40
1.0
 40
1.0
 40
1.0
 10
18.55
 20
-25.30000000000001
 30
0.0
 10
18.55
 20
-25.37685488672688
 30
0.0
 10
18.56844576885981
 20
-25.45145660760567
 30
0.0
 10
18.62566366171896
 20
-25.5924751958072
 30
0.0
 10
18.66325160725779
 20
-25.65842864116831
 30
0.0
 10
18.70459032431991
 20
-25.72247898491318
 30
0.0
  0
SPLINE
  5
294
330
1F
100
AcDbEntity
  8
SK3
  6
SLD-Dashed
370
    18
100
AcDbSpline
210
0.0
220
0.0
230
1.0
 70
    24
 71
     3
 72
     8
 73
     4
 74
     0
 42
0.000000001
 43
0.00000001
 40
0.0
 40
0.0
 40
0.0
 40
0.0
 40
0.4999999999999987
 40
0.4999999999999987
 40
0.4999999999999987
 40
0.4999999999999987
 10
3.199999999999994
 20
22.59999999999999
 30
0.0
 10
3.297404612181282
 20
22.59999999999998
 30
0.0
 10
3.3924580240767
 20
22.59999999999999
 30
0.0
 10
3.474580131426333
 20
22.59999999999999
 30
0.0
  0
SPLINE
  5
295
330
1F
100
AcDbEntity
  8
SK3
  6
SLD-Dashed
370
    18
100
AcDbSpline
210
0.0
220
0.0
230
1.0
 70
    24
 71
     3
 72
     8
 73
     4
 74
     0
 42
0.000000001
 43
0.00000001
 40
0.4999999999999987
 40
0.4999999999999987
 40
0.4999999999999987
 40
0.4999999999999987
 40
0.7499999999999993
 40
0.7499999999999993
 40
0.7499999999999993
 40
0.7499999999999993
 10
3.474580131426333
 20
22.59999999999999
 30
0.0
 10
3.515641185101157
 20
22.59999999999999
 30
0.0
 10
3.553141821186725
 20
22.59999999999999
 30
0.0
 10
3.582035778873491
 20
22.6
 30
0.0
  0
SPLINE
  5
296
330
1F
100
AcDbEntity
  8
SK3
  6
SLD-Dashed
370
    18
100
AcDbSpline
210
0.0
220
0.0
230
1.0
 70
    24
 71
     2
 72
     6
 73
     3
 74
     0
 42
0.000000001
 43
0.00000001
 40
0.7499999999999993
 40
0.7499999999999993
 40
0.7499999999999993
 40
1.0
 40
1.0
 40
1.0
 10
3.582035778873491
 20
22.6
 30
0.0
 10
3.607374968996075
 20
22.58611525172689
 30
0.0
 10
3.623867116597013
 20
22.57707828895047
 30
0.0
  0
SPLINE
  5
297
330
1F
100
AcDbEntity
  8
SK3
  6
SLD-Dashed
370
    18
100
AcDbSpline
210
0.0
220
0.0
230
1.0
 70
     8
 71
     3
 72
    30
 73
    26
 74
     0
 42
0.000000001
 43
0.00000001
 40
0.5000000000000003
 40
0.5000000000000003
 40
0.5000000000000003
 40
0.5000000000000003
 40
0.5625000000000004
 40
0.5625000000000004
 40
0.5937500000000004
 40
0.5937500000000004
 40
0.6250000000000004
 40
0.6250000000000004
 40
0.6562500000000004
 40
0.6562500000000004
 40
0.6875000000000004
 40
0.6875000000000004
 40
0.7500000000000006
 40
0.7500000000000006
 40
0.7812500000000006
 40
0.7812500000000006
 40
0.8125000000000004
 40
0.8125000000000004
 40
0.8750000000000003
 40
0.8750000000000003
 40
0.9375000000000002
 40
0.9375000000000002
 40
0.9687500000000001
 40
0.9687500000000001
 40
1.0
 40
1.0
 40
1.0
 40
1.0
 10
11.11569631589288
 20
0.7761871796929526
 30
0.0
 10
10.89990873112802
 20
0.776094052712055
 30
0.0
 10
10.68204871088028
 20
0.8206453475713138
 30
0.0
 10
10.38394682434138
 20
0.9461590508833134
 30
0.0
 10
10.28746606938094
 20
0.9984249815305837
 30
0.0
 10
10.10820324531785
 20
1.119257329460867
 30
0.0
 10
10.02537901622105
 20
1.187498351242072
 30
0.0
 10
9.87312129498083
 20
1.339130272885965
 30
0.0
 10
9.803681930597913
 20
1.422966399572706
 30
0.0
 10
9.68427993111931
 20
1.59859712462846
 30
0.0
 10
9.633412098306898
 20
1.691166254699117
 30
0.0
 10
9.508205595727
 20
1.983206633486702
 30
0.0
 10
9.465125330464188
 20
2.188626025133984
 30
0.0
 10
9.464937742964807
 20
2.495562715383877
 30
0.0
 10
9.475546982397637
 20
2.595594457577822
 30
0.0
 10
9.517585032662964
 20
2.791308244238434
 30
0.0
 10
9.549548787703088
 20
2.887772084563853
 30
0.0
 10
9.673420645566367
 20
3.159224968162365
 30
0.0
 10
9.796132052843395
 20
3.322668800155658
 30
0.0
 10
10.09893117164389
 20
3.590052108657378
 30
0.0
 10
10.28218199047466
 20
3.696740205200618
 30
0.0
 10
10.57995009154443
 20
3.803806145853093
 30
0.0
 10
10.68494779055132
 20
3.831410842413653
 30
0.0
 10
10.89769529526727
 20
3.867947222441263
 30
0.0
 10
11.00557869160473
 20
3.87717267803267
 30
0.0
 10
11.11499999999999
 20
3.87717267803267
 30
0.0
  0
SPLINE
  5
298
330
1F
100
AcDbEntity
  8
SK3
  6
SLD-Dashed
370
    18
100
AcDbSpline
210
0.0
220
0.0
230
1.0
 70
     8
 71
     3
 72
    32
 73
    28
 74
     0
 42
0.000000001
 43
0.00000001
 40
0.0
 40
0.0
 40
0.0
 40
0.0
 40
0.0312499999999999
 40
0.0312499999999999
 40
0.0624999999999998
 40
0.0624999999999998
 40
0.0937499999999997
 40
0.0937499999999997
 40
0.1249999999999996
 40
0.1249999999999996
 40
0.1874999999999997
 40
0.1874999999999997
 40
0.2499999999999999
 40
0.2499999999999999
 40
0.2812499999999999
 40
0.2812499999999999
 40
0.3125
 40
0.3125
 40
0.3750000000000001
 40
0.3750000000000001
 40
0.4062500000000002
 40
0.4062500000000002
 40
0.4375000000000003
 40
0.4375000000000003
 40
0.4687500000000003
 40
0.4687500000000003
 40
0.5000000000000003
 40
0.5000000000000003
 40
0.5000000000000003
 40
0.5000000000000003
 10
11.11499999999999
 20
3.87717267803267
 30
0.0
 10
11.22442130839522
 20
3.87717267803267
 30
0.0
 10
11.33193413066688
 20
3.867949144079182
 30
0.0
 10
11.54332442490717
 20
3.831768674567457
 30
0.0
 10
11.64832096171449
 20
3.80434804319512
 30
0.0
 10
11.84793304664306
 20
3.732733819274782
 30
0.0
 10
11.94254517476254
 20
3.68883028834853
 30
0.0
 10
12.12160220610708
 20
3.584517425655333
 30
0.0
 10
12.20606744927401
 20
3.523753458917013
 30
0.0
 10
12.43345669318054
 20
3.323175041199278
 30
0.0
 10
12.55627008848896
 20
3.159519466276253
 30
0.0
 10
12.72112946070204
 20
2.799010829243602
 30
0.0
 10
12.76486706341023
 20
2.598123691223343
 30
0.0
 10
12.76506600206288
 20
2.293577165403446
 30
0.0
 10
12.75426006744514
 20
2.189545011981042
 30
0.0
 10
12.71198912166742
 20
1.987057576095734
 30
0.0
 10
12.68071768734323
 20
1.887771593074419
 30
0.0
 10
12.55618181218156
 20
1.596181771180261
 30
0.0
 10
12.43480939117335
 20
1.417011034108448
 30
0.0
 10
12.20531420885772
 20
1.188054939879786
 30
0.0
 10
12.1224373878862
 20
1.119792609414721
 30
0.0
 10
11.94410843411707
 20
0.9993840943400834
 30
0.0
 10
11.84749232480424
 20
0.9468582944288304
 30
0.0
 10
11.64829056865492
 20
0.8628003181327393
 30
0.0
 10
11.54544423826308
 20
0.8307938811981941
 30
0.0
 10
11.33312782045751
 20
0.787344695440527
 30
0.0
 10
11.2235901082753
 20
0.7762337431833979
 30
0.0
 10
11.11569631589288
 20
0.7761871796929526
 30
0.0
  0
SPLINE
  5
299
330
1F
100
AcDbEntity
  8
SK3
  6
SLD-Dashed
370
    18
100
AcDbSpline
210
0.0
220
0.0
230
1.0
 70
     8
 71
     3
 72
    30
 73
    26
 74
     0
 42
0.000000001
 43
0.00000001
 40
0.4999999999999957
 40
0.4999999999999957
 40
0.4999999999999957
 40
0.4999999999999957
 40
0.5624999999999964
 40
0.5624999999999964
 40
0.6249999999999971
 40
0.6249999999999971
 40
0.6562499999999976
 40
0.6562499999999976
 40
0.687499999999998
 40
0.687499999999998
 40
0.7187499999999984
 40
0.7187499999999984
 40
0.7499999999999988
 40
0.7499999999999988
 40
0.7812499999999992
 40
0.7812499999999992
 40
0.8124999999999997
 40
0.8124999999999997
 40
0.8749999999999998
 40
0.8749999999999998
 40
0.9374999999999998
 40
0.9374999999999998
 40
0.9687499999999999
 40
0.9687499999999999
 40
1.0
 40
1.0
 40
1.0
 40
1.0
 10
11.76979658556575
 20
4.897279110339471
 30
0.0
 10
11.91246294966133
 20
4.882256760898248
 30
0.0
 10
12.04384136644408
 20
4.882819793019737
 30
0.0
 10
12.28743240561786
 20
4.928163099538016
 30
0.0
 10
12.40074037094363
 20
4.971266772981799
 30
0.0
 10
12.55447570845301
 20
5.099404902456445
 30
0.0
 10
12.60138543677659
 20
5.151874520294801
 30
0.0
 10
12.68295201157342
 20
5.2869805567278
 30
0.0
 10
12.71817196931761
 20
5.371820149716419
 30
0.0
 10
12.76213654526595
 20
5.578707548147724
 30
0.0
 10
12.77026091463634
 20
5.701542481072338
 30
0.0
 10
12.75239776164135
 20
5.964368720094732
 30
0.0
 10
12.72724833739212
 20
6.099264719857819
 30
0.0
 10
12.65908666407783
 20
6.353110225917079
 30
0.0
 10
12.61568164729122
 20
6.474839021829201
 30
0.0
 10
12.52100924552234
 20
6.700456538059778
 30
0.0
 10
12.46941331137409
 20
6.805573231554563
 30
0.0
 10
12.30490621332256
 20
7.10528345773246
 30
0.0
 10
12.18517846713211
 20
7.27994899964142
 30
0.0
 10
11.92983731616859
 20
7.593144382902768
 30
0.0
 10
11.79267665531759
 20
7.733663579398788
 30
0.0
 10
11.56451158979957
 20
7.91421967526005
 30
0.0
 10
11.48485276967108
 20
7.969136937664184
 30
0.0
 10
11.31258630900464
 20
8.06507137412476
 30
0.0
 10
11.21906269051034
 20
8.10669449901008
 30
0.0
 10
11.11499999999999
 20
8.135515956841491
 30
0.0
  0
SPLINE
  5
29A
330
1F
100
AcDbEntity
  8
SK3
  6
SLD-Dashed
370
    18
100
AcDbSpline
210
0.0
220
0.0
230
1.0
 70
     8
 71
     3
 72
    34
 73
    30
 74
     0
 42
0.000000001
 43
0.00000001
 40
0.0
 40
0.0
 40
0.0
 40
0.0
 40
0.0312499999999995
 40
0.0312499999999995
 40
0.0624999999999991
 40
0.0624999999999991
 40
0.0937499999999986
 40
0.0937499999999986
 40
0.1249999999999983
 40
0.1249999999999983
 40
0.1562499999999981
 40
0.1562499999999981
 40
0.1874999999999979
 40
0.1874999999999979
 40
0.2499999999999974
 40
0.2499999999999974
 40
0.312499999999997
 40
0.312499999999997
 40
0.3437499999999966
 40
0.3437499999999966
 40
0.3749999999999962
 40
0.3749999999999962
 40
0.4062499999999959
 40
0.4062499999999959
 40
0.4374999999999959
 40
0.4374999999999959
 40
0.4687499999999958
 40
0.4687499999999958
 40
0.4999999999999957
 40
0.4999999999999957
 40
0.4999999999999957
 40
0.4999999999999957
 10
11.11499999999999
 20
8.135515956841484
 30
0.0
 10
11.01093730948961
 20
8.164337414672893
 30
0.0
 10
10.89827240143046
 20
8.179464794190281
 30
0.0
 10
10.65524603173761
 20
8.16584176040517
 30
0.0
 10
10.5310000363044
 20
8.136838624998601
 30
0.0
 10
10.29040472633823
 20
8.037357367222137
 30
0.0
 10
10.17852991293552
 20
7.969631374308041
 30
0.0
 10
9.971641719228291
 20
7.804710470753776
 30
0.0
 10
9.880140211756025
 20
7.710255544057409
 30
0.0
 10
9.720479632928713
 20
7.501520767052218
 30
0.0
 10
9.653640231842203
 20
7.388447537981242
 30
0.0
 10
9.549145986449389
 20
7.153218751817354
 30
0.0
 10
9.51066858961816
 20
7.028363198412269
 30
0.0
 10
9.444144226770021
 20
6.655645231796154
 30
0.0
 10
9.463570934642714
 20
6.401824616238574
 30
0.0
 10
9.62543846018471
 20
5.944312211752692
 30
0.0
 10
9.767910053168183
 20
5.739855544595954
 30
0.0
 10
10.04867356462022
 20
5.493346099588223
 30
0.0
 10
10.15222938652334
 20
5.421392519446379
 30
0.0
 10
10.38092358660672
 20
5.292864116337579
 30
0.0
 10
10.50285945052921
 20
5.238408419891573
 30
0.0
 10
10.7514230217297
 20
5.143758254460645
 30
0.0
 10
10.87148365715397
 20
5.105486382977683
 30
0.0
 10
11.09561189675423
 20
5.038956888356629
 30
0.0
 10
11.19522385975344
 20
5.01207675542438
 30
0.0
 10
11.38076798793609
 20
4.965661035352481
 30
0.0
 10
11.46555694339851
 20
4.946630596353904
 30
0.0
 10
11.62416091896931
 20
4.916239958733755
 30
0.0
 10
11.69846340351795
 20
4.904790285060079
 30
0.0
 10
11.76979658556575
 20
4.897279110339471
 30
0.0
  0
SPLINE
  5
29B
330
1F
100
AcDbEntity
  8
SK3
  6
SLD-Dashed
370
    18
100
AcDbSpline
210
0.0
220
0.0
230
1.0
 70
    24
 71
     2
 72
     6
 73
     3
 74
     0
 42
0.000000001
 43
0.00000001
 40
0.0
 40
0.0
 40
0.0
 40
0.2500000000000006
 40
0.2500000000000006
 40
0.2500000000000006
 10
3.623867116597012
 20
22.57707828895047
 30
0.0
 10
3.607327852825271
 20
22.58615947326908
 30
0.0
 10
3.582120554491613
 20
22.59999999999998
 30
0.0
  0
SPLINE
  5
29C
330
1F
100
AcDbEntity
  8
SK3
  6
SLD-Dashed
370
    18
100
AcDbSpline
210
0.0
220
0.0
230
1.0
 70
    24
 71
     3
 72
     8
 73
     4
 74
     0
 42
0.000000001
 43
0.00000001
 40
0.2500000000000006
 40
0.2500000000000006
 40
0.2500000000000006
 40
0.2500000000000006
 40
0.5000000000000012
 40
0.5000000000000012
 40
0.5000000000000012
 40
0.5000000000000012
 10
3.582120554491613
 20
22.59999999999998
 30
0.0
 10
3.553363501972315
 20
22.59999999999998
 30
0.0
 10
3.515789127580618
 20
22.6
 30
0.0
 10
3.474580131426333
 20
22.59999999999999
 30
0.0
  0
SPLINE
  5
29D
330
1F
100
AcDbEntity
  8
SK3
  6
SLD-Dashed
370
    18
100
AcDbSpline
210
0.0
220
0.0
230
1.0
 70
    24
 71
     3
 72
     8
 73
     4
 74
     0
 42
0.000000001
 43
0.00000001
 40
0.5000000000000012
 40
0.5000000000000012
 40
0.5000000000000012
 40
0.5000000000000012
 40
1.0
 40
1.0
 40
1.0
 40
1.0
 10
3.474580131426333
 20
22.59999999999999
 30
0.0
 10
3.392159920137999
 20
22.6
 30
0.0
 10
3.297441601679746
 20
22.59999999999999
 30
0.0
 10
3.199999999999994
 20
22.59999999999999
 30
0.0
  0
SPLINE
  5
29E
330
1F
100
AcDbEntity
  8
SK3
  6
SLD-Dashed
370
    18
100
AcDbSpline
210
0.0
220
0.0
230
1.0
 70
     8
 71
     3
 72
    10
 73
     6
 74
     0
 42
0.000000001
 43
0.00000001
 40
0.0
 40
0.0
 40
0.0
 40
0.0
 40
0.5
 40
0.5
 40
1.0
 40
1.0
 40
1.0
 40
1.0
 10
18.70471005157803
 20
-25.72266446696796
 30
0.0
 10
18.66337030686245
 20
-25.65862892930113
 30
0.0
 10
18.62581481412224
 20
-25.59272978733735
 30
0.0
 10
18.56865558994304
 20
-25.45209092415752
 30
0.0
 10
18.55
 20
-25.37690471036052
 30
0.0
 10
18.55
 20
-25.30000000000001
 30
0.0
  0
SPLINE
  5
29F
330
1F
100
AcDbEntity
  8
1
  6
SLD-Dashed
370
    18
100
AcDbSpline
210
0.0
220
0.0
230
1.0
 70
     8
 71
     3
 72
     8
 73
     4
 74
     0
 42
0.000000001
 43
0.00000001
 40
0.0
 40
0.0
 40
0.0
 40
0.0
 40
1.0
 40
1.0
 40
1.0
 40
1.0
 10
7.893998699232148
 20
30.16152412632424
 30
0.0
 10
8.330278668086631
 20
29.37912233928418
 30
0.0
 10
8.765687712019059
 20
28.59624967245401
 30
0.0
 10
9.199999999999985
 20
27.81278402659763
 30
0.0
  0
SPLINE
  5
2A0
330
1F
100
AcDbEntity
  8
1
  6
SLD-Dashed
370
    18
100
AcDbSpline
210
0.0
220
0.0
230
1.0
 70
     8
 71
     3
 72
    10
 73
     6
 74
     0
 42
0.000000001
 43
0.00000001
 40
0.0
 40
0.0
 40
0.0
 40
0.0
 40
0.5
 40
0.5
 40
1.0
 40
1.0
 40
1.0
 40
1.0
 10
9.199999999999962
 20
27.58683517549638
 30
0.0
 10
9.199999999999974
 20
27.38707634764942
 30
0.0
 10
9.276834435953884
 20
27.18603271636411
 30
0.0
 10
9.550944873665369
 20
26.89356078711209
 30
0.0
 10
9.748424870254526
 20
26.80430888868439
 30
0.0
 10
9.949999999999987
 20
26.8043088886844
 30
0.0
  0
SPLINE
  5
2A1
330
1F
100
AcDbEntity
  8
1
  6
SLD-Dashed
370
    18
100
AcDbSpline
210
0.0
220
0.0
230
1.0
 70
     8
 71
     3
 72
    12
 73
     8
 74
     0
 42
0.000000001
 43
0.00000001
 40
0.0
 40
0.0
 40
0.0
 40
0.0
 40
0.2500000000000016
 40
0.2500000000000016
 40
0.5000000000000031
 40
0.5000000000000031
 40
1.0
 40
1.0
 40
1.0
 40
1.0
 10
12.27999999999999
 20
26.8043088886844
 30
0.0
 10
12.3797968950987
 20
26.8043088886844
 30
0.0
 10
12.48049833272398
 20
26.82572174190437
 30
0.0
 10
12.66355621250802
 20
26.90654241362413
 30
0.0
 10
12.74673207733004
 20
26.96588196572588
 30
0.0
 10
12.95368349037103
 20
27.18636461126024
 30
0.0
 10
13.02999999999999
 20
27.38652349465746
 30
0.0
 10
13.02999999999999
 20
27.5868351754964
 30
0.0
  0
SPLINE
  5
2A2
330
1F
100
AcDbEntity
  8
1
  6
SLD-Dashed
370
    18
100
AcDbSpline
210
0.0
220
0.0
230
1.0
 70
     8
 71
     3
 72
     8
 73
     4
 74
     0
 42
0.000000001
 43
0.00000001
 40
0.0
 40
0.0
 40
0.0
 40
0.0
 40
1.0
 40
1.0
 40
1.0
 40
1.0
 10
13.02999999999999
 20
27.81278402659761
 30
0.0
 10
13.46431130323986
 20
28.59624790607362
 30
0.0
 10
13.89971936240948
 20
29.37911880654281
 30
0.0
 10
14.3359983460435
 20
30.16151882747545
 30
0.0
  0
SPLINE
  5
2A3
330
1F
100
AcDbEntity
  8
1
  6
SLD-Dashed
370
    18
100
AcDbSpline
210
0.0
220
0.0
230
1.0
 70
     8
 71
     3
 72
     8
 73
     4
 74
     0
 42
0.000000001
 43
0.00000001
 40
0.0
 40
0.0
 40
0.0
 40
0.0
 40
1.0
 40
1.0
 40
1.0
 40
1.0
 10
13.02999999999999
 20
-27.81278402659763
 30
0.0
 10
13.47617456320467
 20
-28.61764830107019
 30
0.0
 10
13.92349688209517
 20
-29.42186997179667
 30
0.0
 10
14.37172431088706
 20
-30.22558335104452
 30
0.0
  0
SPLINE
  5
2A4
330
1F
100
AcDbEntity
  8
1
  6
SLD-Dashed
370
    18
100
AcDbSpline
210
0.0
220
0.0
230
1.0
 70
     8
 71
     3
 72
    12
 73
     8
 74
     0
 42
0.000000001
 43
0.00000001
 40
0.0
 40
0.0
 40
0.0
 40
0.0
 40
0.2500000000000016
 40
0.2500000000000016
 40
0.5000000000000032
 40
0.5000000000000032
 40
1.0
 40
1.0
 40
1.0
 40
1.0
 10
12.27999999999997
 20
-26.80430888868439
 30
0.0
 10
12.37978072431224
 20
-26.8043088886844
 30
0.0
 10
12.48151042527952
 20
-26.82597317527049
 30
0.0
 10
12.66494915786522
 20
-26.90735539054002
 30
0.0
 10
12.7480538855481
 20
-26.96711648327141
 30
0.0
 10
12.95292618544644
 20
-27.18590763033071
 30
0.0
 10
13.02999999999999
 20
-27.38705398234477
 30
0.0
 10
13.02999999999999
 20
-27.5868351754964
 30
0.0
  0
SPLINE
  5
2A5
330
1F
100
AcDbEntity
  8
1
  6
SLD-Dashed
370
    18
100
AcDbSpline
210
0.0
220
0.0
230
1.0
 70
     8
 71
     3
 72
    14
 73
    10
 74
     0
 42
0.000000001
 43
0.00000001
 40
0.0
 40
0.0
 40
0.0
 40
0.0
 40
0.25
 40
0.25
 40
0.5
 40
0.5
 40
0.75
 40
0.75
 40
1.0
 40
1.0
 40
1.0
 40
1.0
 10
9.200000000000504
 20
-27.58683517549692
 30
0.0
 10
9.200000000000434
 20
-27.48633204917105
 30
0.0
 10
9.218706918939796
 20
-27.38625032826182
 30
0.0
 10
9.291262914440104
 20
-27.19964761855534
 30
0.0
 10
9.345503941425472
 20
-27.11279998838293
 30
0.0
 10
9.482011574204584
 20
-26.96707505027743
 30
0.0
 10
9.565219805752271
 20
-26.90718470478146
 30
0.0
 10
9.749488820138582
 20
-26.82562619640977
 30
0.0
 10
9.849028188255518
 20
-26.80430888868446
 30
0.0
 10
9.949999999999987
 20
-26.80430888868439
 30
0.0
  0
SPLINE
  5
2A6
330
1F
100
AcDbEntity
  8
1
  6
SLD-Dashed
370
    18
100
AcDbSpline
210
0.0
220
0.0
230
1.0
 70
     8
 71
     3
 72
     8
 73
     4
 74
     0
 42
0.000000001
 43
0.00000001
 40
0.0
 40
0.0
 40
0.0
 40
0.0
 40
1.0
 40
1.0
 40
1.0
 40
1.0
 10
7.858352633100349
 20
-30.22544538331286
 30
0.0
 10
8.306554309596287
 20
-29.42177793480448
 30
0.0
 10
8.753850967327212
 20
-28.61760224597266
 30
0.0
 10
9.2
 20
-27.81278402659764
 30
0.0
  0
SPLINE
  5
2A7
330
1F
100
AcDbEntity
  8
SK3
  6
SLD-Dashed
370
    18
100
AcDbSpline
210
0.0
220
0.0
230
1.0
 70
     8
 71
     3
 72
    12
 73
     8
 74
     0
 42
0.000000001
 43
0.00000001
 40
0.0
 40
0.0
 40
0.0
 40
0.0
 40
0.2500000000000003
 40
0.2500000000000003
 40
0.5000000000000006
 40
0.5000000000000006
 40
1.0
 40
1.0
 40
1.0
 40
1.0
 10
9.949999999999985
 20
-21.14893614345662
 30
0.0
 10
9.835936901806354
 20
-21.14893614345662
 30
0.0
 10
9.721259457052307
 20
-21.18584712701706
 30
0.0
 10
9.529550461759722
 20
-21.30745805589333
 30
0.0
 10
9.448962431672838
 20
-21.39173613326
 30
0.0
 10
9.259830884989947
 20
-21.67557833508071
 30
0.0
 10
9.199999999999982
 20
-21.90610457426623
 30
0.0
 10
9.19999999999998
 20
-22.132329294496
 30
0.0
  0
SPLINE
  5
2A8
330
1F
100
AcDbEntity
  8
SK3
  6
SLD-Dashed
370
    18
100
AcDbSpline
210
0.0
220
0.0
230
1.0
 70
     8
 71
     3
 72
    14
 73
    10
 74
     0
 42
0.000000001
 43
0.00000001
 40
0.0
 40
0.0
 40
0.0
 40
0.0
 40
0.25
 40
0.25
 40
0.5
 40
0.5
 40
0.75
 40
0.75
 40
1.0
 40
1.0
 40
1.0
 40
1.0
 10
13.02999999999996
 20
-22.13232929449593
 30
0.0
 10
13.02999999999996
 20
-22.01826902485111
 30
0.0
 10
13.01506237934912
 20
-21.90620552728329
 30
0.0
 10
12.95346267662341
 20
-21.68631926902338
 30
0.0
 10
12.90761723370811
 20
-21.58180217631511
 30
0.0
 10
12.78106163491502
 20
-21.39167307641905
 30
0.0
 10
12.70088587990455
 20
-21.30757882093607
 30
0.0
 10
12.50695573392863
 20
-21.18487204837227
 30
0.0
 10
12.39354933538725
 20
-21.14893614345662
 30
0.0
 10
12.27999999999999
 20
-21.14893614345662
 30
0.0
  0
SPLINE
  5
2A9
330
1F
100
AcDbEntity
  8
SK3
  6
SLD-Dashed
370
    18
100
AcDbSpline
210
0.0
220
0.0
230
1.0
 70
    24
 71
     2
 72
     6
 73
     3
 74
     0
 42
0.000000001
 43
0.00000001
 40
0.0
 40
0.0
 40
0.0
 40
0.25
 40
0.25
 40
0.25
 10
9.199999999999985
 20
-18.35
 30
0.0
 10
9.215166861193739
 20
-18.35
 30
0.0
 10
9.245806781973135
 20
-18.35
 30
0.0
  0
SPLINE
  5
2AA
330
1F
100
AcDbEntity
  8
SK3
  6
SLD-Dashed
370
    18
100
AcDbSpline
210
0.0
220
0.0
230
1.0
 70
    24
 71
     3
 72
     8
 73
     4
 74
     0
 42
0.000000001
 43
0.00000001
 40
0.25
 40
0.25
 40
0.25
 40
0.25
 40
0.5
 40
0.5
 40
0.5
 40
0.5
 10
9.245806781973135
 20
-18.35
 30
0.0
 10
9.276446702752503
 20
-18.35
 30
0.0
 10
9.322918752353221
 20
-18.35
 30
0.0
 10
9.385958982750742
 20
-18.35
 30
0.0
  0
SPLINE
  5
2AB
330
1F
100
AcDbEntity
  8
SK3
  6
SLD-Dashed
370
    18
100
AcDbSpline
210
0.0
220
0.0
230
1.0
 70
    24
 71
     3
 72
     8
 73
     4
 74
     0
 42
0.000000001
 43
0.00000001
 40
0.5
 40
0.5
 40
0.5
 40
0.5
 40
0.75
 40
0.75
 40
0.75
 40
0.75
 10
9.385958982750742
 20
-18.35
 30
0.0
 10
9.448999213148277
 20
-18.35
 30
0.0
 10
9.529064162572917
 20
-18.35
 30
0.0
 10
9.626398333053384
 20
-18.35
 30
0.0
  0
SPLINE
  5
2AC
330
1F
100
AcDbEntity
  8
SK3
  6
SLD-Dashed
370
    18
100
AcDbSpline
210
0.0
220
0.0
230
1.0
 70
    24
 71
     3
 72
     8
 73
     4
 74
     0
 42
0.000000001
 43
0.00000001
 40
0.75
 40
0.75
 40
0.75
 40
0.75
 40
1.0
 40
1.0
 40
1.0
 40
1.0
 10
9.626398333053384
 20
-18.35
 30
0.0
 10
9.723732503533853
 20
-18.35
 30
0.0
 10
9.836381831357086
 20
-18.35
 30
0.0
 10
9.950000000000001
 20
-18.35
 30
0.0
  0
SPLINE
  5
2AD
330
1F
100
AcDbEntity
  8
SK3
  6
SLD-Dashed
370
    18
100
AcDbSpline
210
0.0
220
0.0
230
1.0
 70
    24
 71
     3
 72
     8
 73
     4
 74
     0
 42
0.000000001
 43
0.00000001
 40
0.0
 40
0.0
 40
0.0
 40
0.0
 40
0.2500000000000006
 40
0.2500000000000006
 40
0.2500000000000006
 40
0.2500000000000006
 10
12.28
 20
-18.35
 30
0.0
 10
12.39387251328287
 20
-18.35
 30
0.0
 10
12.50776080994781
 20
-18.35
 30
0.0
 10
12.60403578072328
 20
-18.35
 30
0.0
  0
SPLINE
  5
2AE
330
1F
100
AcDbEntity
  8
SK3
  6
SLD-Dashed
370
    18
100
AcDbSpline
210
0.0
220
0.0
230
1.0
 70
    24
 71
     3
 72
     8
 73
     4
 74
     0
 42
0.000000001
 43
0.00000001
 40
0.2500000000000006
 40
0.2500000000000006
 40
0.2500000000000006
 40
0.2500000000000006
 40
0.5000000000000011
 40
0.5000000000000011
 40
0.5000000000000011
 40
0.5000000000000011
 10
12.60403578072328
 20
-18.35
 30
0.0
 10
12.70031075149873
 20
-18.35
 30
0.0
 10
12.78072688590697
 20
-18.35
 30
0.0
 10
12.8439936370323
 20
-18.35
 30
0.0
  0
SPLINE
  5
2AF
330
1F
100
AcDbEntity
  8
SK3
  6
SLD-Dashed
370
    18
100
AcDbSpline
210
0.0
220
0.0
230
1.0
 70
    24
 71
     2
 72
     6
 73
     3
 74
     0
 42
0.000000001
 43
0.00000001
 40
0.5000000000000011
 40
0.5000000000000011
 40
0.5000000000000011
 40
1.0
 40
1.0
 40
1.0
 10
12.8439936370323
 20
-18.35
 30
0.0
 10
12.97052713928296
 20
-18.35
 30
0.0
 10
13.02999999999999
 20
-18.35
 30
0.0
  0
SPLINE
  5
2B0
330
1F
100
AcDbEntity
  8
SK3
  6
SLD-Dashed
370
    18
100
AcDbSpline
210
0.0
220
0.0
230
1.0
 70
    24
 71
     3
 72
     8
 73
     4
 74
     0
 42
0.000000001
 43
0.00000001
 40
0.0
 40
0.0
 40
0.0
 40
0.0
 40
0.2500000000000016
 40
0.2500000000000016
 40
0.2500000000000016
 40
0.2500000000000016
 10
18.29999999999998
 20
-18.35
 30
0.0
 10
18.41088345614662
 20
-18.35000000000001
 30
0.0
 10
18.52024195941292
 20
-18.35
 30
0.0
 10
18.61523568267816
 20
-18.35
 30
0.0
  0
SPLINE
  5
2B1
330
1F
100
AcDbEntity
  8
SK3
  6
SLD-Dashed
370
    18
100
AcDbSpline
210
0.0
220
0.0
230
1.0
 70
    24
 71
     3
 72
     8
 73
     4
 74
     0
 42
0.000000001
 43
0.00000001
 40
0.2500000000000016
 40
0.2500000000000016
 40
0.2500000000000016
 40
0.2500000000000016
 40
0.5000000000000032
 40
0.5000000000000032
 40
0.5000000000000032
 40
0.5000000000000032
 10
18.61523568267816
 20
-18.35
 30
0.0
 10
18.71022940594341
 20
-18.35
 30
0.0
 10
18.79255896697542
 20
-18.35
 30
0.0
 10
18.8576433727506
 20
-18.35
 30
0.0
  0
SPLINE
  5
2B2
330
1F
100
AcDbEntity
  8
SK3
  6
SLD-Dashed
370
    18
100
AcDbSpline
210
0.0
220
0.0
230
1.0
 70
    24
 71
     2
 72
     6
 73
     3
 74
     0
 42
0.000000001
 43
0.00000001
 40
0.5000000000000032
 40
0.5000000000000032
 40
0.5000000000000032
 40
1.0
 40
1.0
 40
1.0
 10
18.8576433727506
 20
-18.35
 30
0.0
 10
18.98781218430101
 20
-18.35
 30
0.0
 10
19.04999999999997
 20
-18.35
 30
0.0
  0
SPLINE
  5
2B3
330
1F
100
AcDbEntity
  8
SK3
  6
SLD-Dashed
370
    18
100
AcDbSpline
210
0.0
220
0.0
230
1.0
 70
    24
 71
     2
 72
     6
 73
     3
 74
     0
 42
0.000000001
 43
0.00000001
 40
0.0
 40
0.0
 40
0.0
 40
0.25
 40
0.25
 40
0.25
 10
3.199999999999994
 20
-18.35
 30
0.0
 10
3.215534372041293
 20
-18.35
 30
0.0
 10
3.247177760214728
 20
-18.35
 30
0.0
  0
SPLINE
  5
2B4
330
1F
100
AcDbEntity
  8
SK3
  6
SLD-Dashed
370
    18
100
AcDbSpline
210
0.0
220
0.0
230
1.0
 70
    24
 71
     3
 72
     8
 73
     4
 74
     0
 42
0.000000001
 43
0.00000001
 40
0.25
 40
0.25
 40
0.25
 40
0.25
 40
0.5
 40
0.5
 40
0.5
 40
0.5
 10
3.247177760214728
 20
-18.35
 30
0.0
 10
3.278821148388178
 20
-18.35
 30
0.0
 10
3.326877628883978
 20
-18.35
 30
0.0
 10
3.391635253097797
 20
-18.35
 30
0.0
  0
SPLINE
  5
2B5
330
1F
100
AcDbEntity
  8
SK3
  6
SLD-Dashed
370
    18
100
AcDbSpline
210
0.0
220
0.0
230
1.0
 70
    24
 71
     3
 72
     8
 73
     4
 74
     0
 42
0.000000001
 43
0.00000001
 40
0.5
 40
0.5
 40
0.5
 40
0.5
 40
0.75
 40
0.75
 40
0.75
 40
0.75
 10
3.391635253097797
 20
-18.35
 30
0.0
 10
3.456392877311643
 20
-18.35
 30
0.0
 10
3.537993436572323
 20
-18.35
 30
0.0
 10
3.634449963809433
 20
-18.35
 30
0.0
  0
SPLINE
  5
2B6
330
1F
100
AcDbEntity
  8
SK3
  6
SLD-Dashed
370
    18
100
AcDbSpline
210
0.0
220
0.0
230
1.0
 70
    24
 71
     3
 72
     8
 73
     4
 74
     0
 42
0.000000001
 43
0.00000001
 40
0.75
 40
0.75
 40
0.75
 40
0.75
 40
1.0
 40
1.0
 40
1.0
 40
1.0
 10
3.634449963809433
 20
-18.35
 30
0.0
 10
3.730906491046557
 20
-18.35
 30
0.0
 10
3.839318178829626
 20
-18.35
 30
0.0
 10
3.949999999999995
 20
-18.35
 30
0.0
  0
SPLINE
  5
2B7
330
1F
100
AcDbEntity
  8
SK3
  6
SLD-Dashed
370
    18
100
AcDbSpline
210
0.0
220
0.0
230
1.0
 70
     8
 71
     3
 72
    14
 73
    10
 74
     0
 42
0.000000001
 43
0.00000001
 40
0.0
 40
0.0
 40
0.0
 40
0.0
 40
0.25
 40
0.25
 40
0.5
 40
0.5
 40
0.75
 40
0.75
 40
1.0
 40
1.0
 40
1.0
 40
1.0
 10
19.05
 20
-24.98554582153458
 30
0.0
 10
19.05
 20
-25.09511951628439
 30
0.0
 10
19.03421225329058
 20
-25.2057187258511
 30
0.0
 10
18.97116178764257
 20
-25.41445574332477
 30
0.0
 10
18.92271483449101
 20
-25.51595796020201
 30
0.0
 10
18.79360389711934
 20
-25.69293989561363
 30
0.0
 10
18.71142955262484
 20
-25.77032425271896
 30
0.0
 10
18.51974491589363
 20
-25.87939623808181
 30
0.0
 10
18.41038882700791
 20
-25.91022964004767
 30
0.0
 10
18.3
 20
-25.91022964004767
 30
0.0
  0
SPLINE
  5
2B8
330
1F
100
AcDbEntity
  8
SK3
  6
SLD-Dashed
370
    18
100
AcDbSpline
210
0.0
220
0.0
230
1.0
 70
     8
 71
     3
 72
    12
 73
     8
 74
     0
 42
0.000000001
 43
0.00000001
 40
0.0
 40
0.0
 40
0.0
 40
0.0
 40
0.2500000000000001
 40
0.2500000000000001
 40
0.5000000000000001
 40
0.5000000000000001
 40
1.0
 40
1.0
 40
1.0
 40
1.0
 10
3.949999999999995
 20
-25.9102296400477
 30
0.0
 10
3.83915878082669
 20
-25.9102296400477
 30
0.0
 10
3.730471818891829
 20
-25.87938355290739
 30
0.0
 10
3.539648957222405
 20
-25.77107303496582
 30
0.0
 10
3.457372067223949
 20
-25.69414842786488
 30
0.0
 10
3.261852427533935
 20
-25.42652197982713
 30
0.0
 10
3.199999999999883
 20
-25.20459198571109
 30
0.0
 10
3.199999999999994
 20
-24.98554582153412
 30
0.0
  0
SPLINE
  5
2B9
330
1F
100
AcDbEntity
  8
SK3
  6
SLD-Dashed
370
    18
100
AcDbSpline
210
0.0
220
0.0
230
1.0
 70
     8
 71
     3
 72
    30
 73
    26
 74
     0
 42
0.000000001
 43
0.00000001
 40
0.5000000000000023
 40
0.5000000000000023
 40
0.5000000000000023
 40
0.5000000000000023
 40
0.5312500000000024
 40
0.5312500000000024
 40
0.5625000000000026
 40
0.5625000000000026
 40
0.6250000000000028
 40
0.6250000000000028
 40
0.6875000000000029
 40
0.6875000000000029
 40
0.7187500000000027
 40
0.7187500000000027
 40
0.7500000000000024
 40
0.7500000000000024
 40
0.7812500000000022
 40
0.7812500000000022
 40
0.812500000000002
 40
0.812500000000002
 40
0.8437500000000018
 40
0.8437500000000018
 40
0.8750000000000014
 40
0.8750000000000014
 40
0.9375000000000008
 40
0.9375000000000008
 40
1.0
 40
1.0
 40
1.0
 40
1.0
 10
9.543420299935407
 20
8.779164202220976
 30
0.0
 10
9.578561233735405
 20
8.859780618086697
 30
0.0
 10
9.622627266507019
 20
8.923794183661828
 30
0.0
 10
9.718027024245027
 20
9.025758720035872
 30
0.0
 10
9.770165859587774
 20
9.064859097077958
 30
0.0
 10
9.935727180931456
 20
9.157211171430472
 30
0.0
 10
10.05462982796815
 20
9.184992456892166
 30
0.0
 10
10.31081948707685
 20
9.203606692695098
 30
0.0
 10
10.44840974433162
 20
9.193378534086472
 30
0.0
 10
10.6777732232879
 20
9.15573302892824
 30
0.0
 10
10.75871097916553
 20
9.139325882255605
 30
0.0
 10
10.93364535127571
 20
9.098739976864985
 30
0.0
 10
11.02698337642653
 20
9.07485143391961
 30
0.0
 10
11.23604536410178
 20
9.016444669949886
 30
0.0
 10
11.35057343779476
 20
8.982450275402128
 30
0.0
 10
11.59480302461463
 20
8.89882537410535
 30
0.0
 10
11.7194559947736
 20
8.85045483824637
 30
0.0
 10
11.95950363931203
 20
8.73414850032765
 30
0.0
 10
12.07031700587899
 20
8.668572650845508
 30
0.0
 10
12.27422745067755
 20
8.516171160077086
 30
0.0
 10
12.36502701179844
 20
8.430882284499674
 30
0.0
 10
12.59959907667485
 20
8.148150203280684
 30
0.0
 10
12.70444177032678
 20
7.922793662573077
 30
0.0
 10
12.78609851062196
 20
7.438758262361178
 30
0.0
 10
12.76320534245734
 20
7.182019426018003
 30
0.0
 10
12.67730763443387
 20
6.936735170769183
 30
0.0
  0
SPLINE
  5
2BA
330
1F
100
AcDbEntity
  8
SK3
  6
SLD-Dashed
370
    18
100
AcDbSpline
210
0.0
220
0.0
230
1.0
 70
     8
 71
     3
 72
    34
 73
    30
 74
     0
 42
0.000000001
 43
0.00000001
 40
0.0
 40
0.0
 40
0.0
 40
0.0
 40
0.0312500000000001
 40
0.0312500000000001
 40
0.0625000000000002
 40
0.0625000000000002
 40
0.0937500000000003
 40
0.0937500000000003
 40
0.1250000000000004
 40
0.1250000000000004
 40
0.1562500000000005
 40
0.1562500000000005
 40
0.1875000000000006
 40
0.1875000000000006
 40
0.2500000000000011
 40
0.2500000000000011
 40
0.3125000000000016
 40
0.3125000000000016
 40
0.3437500000000017
 40
0.3437500000000017
 40
0.3750000000000019
 40
0.3750000000000019
 40
0.4062500000000022
 40
0.4062500000000022
 40
0.4375000000000022
 40
0.4375000000000022
 40
0.4687500000000022
 40
0.4687500000000022
 40
0.5000000000000023
 40
0.5000000000000023
 40
0.5000000000000023
 40
0.5000000000000023
 10
12.67730763443388
 20
6.936735170769183
 30
0.0
 10
12.63435878042213
 20
6.814093043144766
 30
0.0
 10
12.57729529856062
 20
6.697907968659759
 30
0.0
 10
12.43603808962698
 20
6.478825579697006
 30
0.0
 10
12.35095491427449
 20
6.37559790068002
 30
0.0
 10
12.16118186397767
 20
6.195677328194031
 30
0.0
 10
12.05422579636489
 20
6.116519150458834
 30
0.0
 10
11.82324491388433
 20
5.992288968745443
 30
0.0
 10
11.69889439480548
 20
5.947796516244629
 30
0.0
 10
11.45304455248933
 20
5.90479798253133
 30
0.0
 10
11.33231684279019
 20
5.906500158642462
 30
0.0
 10
11.11245426351667
 20
5.943973551987475
 30
0.0
 10
11.01315393168724
 20
5.97845341631293
 30
0.0
 10
10.73767466537658
 20
6.10755892408709
 30
0.0
 10
10.5868917600473
 20
6.222865001686742
 30
0.0
 10
10.30357248622239
 20
6.487130062003008
 30
0.0
 10
10.17286476490367
 20
6.6379501328779
 30
0.0
 10
9.991005005593564
 20
6.889595493159366
 30
0.0
 10
9.932635222666242
 20
6.978050688572289
 30
0.0
 10
9.820404805610375
 20
7.16677025668052
 30
0.0
 10
9.766060353100542
 20
7.267956566324063
 30
0.0
 10
9.665448853514267
 20
7.482658085956204
 30
0.0
 10
9.619326797725632
 20
7.595375777572314
 30
0.0
 10
9.539388536729351
 20
7.837768627707173
 30
0.0
 10
9.505665766297286
 20
7.96829584868141
 30
0.0
 10
9.46522449538008
 20
8.233656541530937
 30
0.0
 10
9.459739461343556
 20
8.365744160008543
 30
0.0
 10
9.48158525523378
 20
8.59871723360766
 30
0.0
 10
9.508279366135422
 20
8.698547786355252
 30
0.0
 10
9.543420299935407
 20
8.779164202220976
 30
0.0
  0
SPLINE
  5
2BB
330
1F
100
AcDbEntity
  8
SK3
  6
SLD-Dashed
370
    18
100
AcDbSpline
210
0.0
220
0.0
230
1.0
 70
     8
 71
     3
 72
     8
 73
     4
 74
     0
 42
0.000000001
 43
0.00000001
 40
0.0
 40
0.0
 40
0.0
 40
0.0
 40
1.0
 40
1.0
 40
1.0
 40
1.0
 10
14.63683664205673
 20
-25.91022964004766
 30
0.0
 10
14.09012227777954
 20
-24.7498674220889
 30
0.0
 10
13.55294133690069
 20
-23.58393351776748
 30
0.0
 10
13.02999999999996
 20
-22.41333264622118
 30
0.0
  0
SPLINE
  5
2BC
330
1F
100
AcDbEntity
  8
SK3
  6
SLD-Dashed
370
    18
100
AcDbSpline
210
0.0
220
0.0
230
1.0
 70
     8
 71
     3
 72
     8
 73
     4
 74
     0
 42
0.000000001
 43
0.00000001
 40
0.0
 40
0.0
 40
0.0
 40
0.0
 40
1.0
 40
1.0
 40
1.0
 40
1.0
 10
9.199999999999985
 20
-22.4133326462212
 30
0.0
 10
8.676711774190867
 20
-23.58471002639256
 30
0.0
 10
8.139792627971307
 20
-24.75004802855927
 30
0.0
 10
7.59316335794323
 20
-25.91022964004768
 30
0.0
  0
SPLINE
  5
2BD
330
1F
100
AcDbEntity
  8
SK3
  6
SLD-Dashed
370
    18
100
AcDbSpline
210
0.0
220
0.0
230
1.0
 70
    24
 71
     3
 72
     8
 73
     4
 74
     0
 42
0.000000001
 43
0.00000001
 40
0.0
 40
0.0
 40
0.0
 40
0.0
 40
1.0
 40
1.0
 40
1.0
 40
1.0
 10
7.59316335794323
 20
-18.35
 30
0.0
 10
8.14047015127725
 20
-18.35
 30
0.0
 10
8.677299140454675
 20
-18.35
 30
0.0
 10
9.199999999999985
 20
-18.35
 30
0.0
  0
SPLINE
  5
2BE
330
1F
100
AcDbEntity
  8
SK3
  6
SLD-Dashed
370
    18
100
AcDbSpline
210
0.0
220
0.0
230
1.0
 70
    24
 71
     3
 72
     8
 73
     4
 74
     0
 42
0.000000001
 43
0.00000001
 40
0.0
 40
0.0
 40
0.0
 40
0.0
 40
1.0
 40
1.0
 40
1.0
 40
1.0
 10
13.02999999999999
 20
-18.35
 30
0.0
 10
13.55320414498341
 20
-18.35
 30
0.0
 10
14.09000628914509
 20
-18.35
 30
0.0
 10
14.63683664205674
 20
-18.35
 30
0.0
  0
ELLIPSE
  5
2BF
330
1F
100
AcDbEntity
  8
SK3
  6
SLD-Dashed
370
    18
100
AcDbEllipse
 10
6.0773103747
 20
-8.4376369358
 30
0.0
 11
3.098580671678216
 21
0.0
 31
0.0
210
0.0
220
0.0
230
1.0
 40
0.5913677276
 41
6.126949351778327
 42
6.439421262580872
  0
INSERT
  5
2C0
330
1F
100
AcDbEntity
  8
81
100
AcDbBlockReference
  2
Block11
 10
-48.7719643913
 20
-130.2676275275
 30
0.0
  0
INSERT
  5
2C1
330
1F
100
AcDbEntity
  8
80
100
AcDbBlockReference
  2
Block12
 10
-61.7273641656
 20
-130.3356800267
 30
0.0
  0
DIMENSION
  5
2C2
330
1F
100
AcDbEntity
  8
SK2
100
AcDbDimension
  2
_D
 10
19.05
 20
38.3288224456
 30
0.0
 11
9.5018604021
 21
38.3288224456
 31
0.0
 70
   160
  1
<>
 71
     2
 42
-1.0
  3
SLDDIMSTYLE0
100
AcDbAlignedDimension
 13
0.0
 23
22.225
 33
0.0
 14
19.05
 24
29.8288189921
 34
0.0
 50
0.0
100
AcDbRotatedDimension
  0
DIMENSION
  5
2CE
330
1F
100
AcDbEntity
  8
SK2
100
AcDbDimension
  2
_D_1
 10
43.0
 20
38.3288224456
 30
0.0
 11
31.1530682343
 21
38.3288224456
 31
0.0
 70
   160
  1
<>
 71
     2
 42
-1.0
  3
SLDDIMSTYLE0
100
AcDbAlignedDimension
 13
19.05
 23
29.8288189921
 33
0.0
 14
43.0
 24
19.2
 34
0.0
 50
0.0
100
AcDbRotatedDimension
  0
DIMENSION
  5
2D8
330
1F
100
AcDbEntity
  8
SK2
100
AcDbDimension
  2
_D_2
 10
74.0
 20
38.3288224456
 30
0.0
 11
58.0758744951
 21
38.3288224456
 31
0.0
 70
   160
  1
<>
 71
     2
 42
-1.0
  3
SLDDIMSTYLE0
100
AcDbAlignedDimension
 13
43.0
 23
19.2
 33
0.0
 14
74.0
 24
10.6473460386
 34
0.0
 50
0.0
100
AcDbRotatedDimension
  0
DIMENSION
  5
2E2
330
1F
100
AcDbEntity
  8
2
100
AcDbDimension
  2
_D_3
 10
0.0
 20
47.1775769509
 30
0.0
 11
20.8922784355
 21
47.1775769509
 31
0.0
 70
   160
  1
<>
 71
     2
 42
-1.0
  3
SLDDIMSTYLE0
100
AcDbAlignedDimension
 13
43.0
 23
19.2
 33
0.0
 14
0.0
 24
22.225
 34
0.0
 50
0.0
100
AcDbRotatedDimension
  0
DIMENSION
  5
2EC
330
1F
100
AcDbEntity
  8
SK2
100
AcDbDimension
  2
_D_4
 10
108.2238259563
 20
-20.0
 30
0.0
 11
108.2238259563
 21
-0.3096763047
 31
0.0
 70
   160
  1
%%c<>
 71
     2
 42
-1.0
  3
SLDDIMSTYLE0
100
AcDbAlignedDimension
 13
42.2
 23
20.0
 33
0.0
 14
42.2
 24
-20.0
 34
0.0
 50
90.0
100
AcDbRotatedDimension
  0
DIMENSION
  5
2F7
330
1F
100
AcDbEntity
  8
SK2
100
AcDbDimension
  2
_D_5
 10
98.0150130416
 20
-11.0
 30
0.0
 11
98.0150130416
 21
-0.3096763047
 31
0.0
 70
   160
  1
%%c<>
 71
     2
 42
-1.0
  3
SLDDIMSTYLE0
100
AcDbAlignedDimension
 13
72.0
 23
11.0
 33
0.0
 14
72.0
 24
-11.0
 34
0.0
 50
90.0
100
AcDbRotatedDimension
  0
DIMENSION
  5
302
330
1F
100
AcDbEntity
  8
SK2
100
AcDbDimension
  2
_D_6
 10
-97.4835756859
 20
-30.5579089831
 30
0.0
 11
-97.4835756859
 21
-0.3096763047
 31
0.0
 70
   160
  1
%%c<>
 71
     2
 42
-1.0
  3
SLDDIMSTYLE0
100
AcDbAlignedDimension
 13
3.95
 23
30.5753609371
 33
0.0
 14
3.95
 24
-30.5579089831
 34
0.0
 50
90.0
100
AcDbRotatedDimension
  0
DIMENSION
  5
30D
330
1F
100
AcDbEntity
  8
SK2
100
AcDbDimension
  2
_D_7
 10
-86.1396960579
 20
-22.225
 30
0.0
 11
-86.1396960579
 21
-0.3096763047
 31
0.0
 70
   160
  1
%%c<>
 71
     2
 42
-1.0
  3
SLDDIMSTYLE0
100
AcDbAlignedDimension
 13
0.0
 23
22.225
 33
0.0
 14
0.0
 24
-22.225
 34
0.0
 50
90.0
100
AcDbRotatedDimension
  0
DIMENSION
  5
318
330
1F
100
AcDbEntity
  8
SK2
100
AcDbDimension
  2
_D_8
 10
-75.9366269729
 20
8.0
 30
0.0
 11
-75.9366269729
 21
-0.3096763047
 31
0.0
 70
   160
  1
M<>
 71
     2
 42
-1.0
  3
SLDDIMSTYLE0
100
AcDbAlignedDimension
 13
-59.2881197846
 23
-8.0
 33
0.0
 14
-59.2881197846
 24
8.0
 34
0.0
 50
90.0
100
AcDbRotatedDimension
  0
MTEXT
  5
323
330
1F
100
AcDbEntity
  8
SK6
 62
     5
100
AcDbMText
 10
-67.1911718329
 20
-35.1944560786
 30
0.0
 40
3.5
 41
0.0
 71
     1
 72
     1
  1
A1B08-40 22 055
  7
SLDTEXTSTYLE0
 73
     1
 44
1.0
  0
INSERT
  5
329
330
1F
100
AcDbEntity
  8
SK6
 62
     5
100
AcDbBlockReference
  2
SW_NOTE_0
 10
-37.1681956104
 20
36.4385974306
 30
0.0
  0
ENDSEC
  0
SECTION
  2
OBJECTS
  0
DICTIONARY
  5
C
330
0
100
AcDbDictionary
281
     1
  3
ACAD_GROUP
350
D
  3
ACAD_LAYOUT
350
1A
  3
ACAD_MLINESTYLE
350
17
  3
ACAD_PLOTSETTINGS
350
19
  3
ACAD_PLOTSTYLENAME
350
E
  3
ACAD_SCALELIST
350
47
  0
DICTIONARY
  5
D
102
{ACAD_REACTORS
330
C
102
}
330
C
100
AcDbDictionary
281
     1
  0
DICTIONARY
  5
1A
102
{ACAD_REACTORS
330
C
102
}
330
C
100
AcDbDictionary
281
     1
  3
Layout1
350
1E
  3
Layout2
350
26
  3
Model
350
22
  0
DICTIONARY
  5
17
102
{ACAD_REACTORS
330
C
102
}
330
C
100
AcDbDictionary
281
     1
  3
Standard
350
18
  0
DICTIONARY
  5
19
102
{ACAD_REACTORS
330
C
102
}
330
C
100
AcDbDictionary
281
     1
  0
ACDBDICTIONARYWDFLT
  5
E
102
{ACAD_REACTORS
330
C
102
}
330
C
100
AcDbDictionary
281
     1
  3
Normal
350
F
100
AcDbDictionaryWithDefault
340
F
  0
DICTIONARY
  5
47
102
{ACAD_REACTORS
330
C
102
}
330
C
100
AcDbDictionary
281
     1
  3
A0
350
48
  3
A1
350
49
  3
A2
350
4A
  3
A3
350
4B
  3
A4
350
4C
  3
A5
350
4D
  3
A6
350
4E
  3
A7
350
4F
  3
A8
350
50
  3
A9
350
51
  3
B0
350
52
  3
B1
350
53
  3
B2
350
54
  3
B3
350
55
  3
B4
350
56
  3
B5
350
57
  3
B6
350
58
  3
B7
350
59
  3
B8
350
5A
  3
B9
350
5B
  3
C0
350
5C
  3
C1
350
5D
  3
C2
350
5E
  3
C3
350
5F
  3
C4
350
60
  3
C5
350
61
  3
C6
350
62
  3
C7
350
63
  3
C8
350
64
  3
C9
350
65
  3
D0
350
66
  3
D1
350
67
  3
D2
350
68
  0
LAYOUT
  5
1E
102
{ACAD_REACTORS
330
1A
102
}
330
1A
100
AcDbPlotSettings
  1

  2
none_device
  4

  6

 40
0.0
 41
0.0
 42
0.0
 43
0.0
 44
0.0
 45
0.0
 46
0.0
 47
0.0
 48
0.0
 49
0.0
140
0.0
141
0.0
142
1.0
143
1.0
 70
   688
 72
     1
 73
     0
 74
     5
  7

 75
    16
147
1.0
148
0.0
149
0.0
100
AcDbLayout
  1
Layout1
 70
     1
 71
     1
 10
0.0
 20
0.0
 11
420.0
 21
297.0
 12
0.0
 22
0.0
 32
0.0
 14
1.0000000000E+20
 24
1.0000000000E+20
 34
1.0000000000E+20
 15
-1.0000000000E+20
 25
-1.0000000000E+20
 35
-1.0000000000E+20
146
0.0
 13
0.0
 23
0.0
 33
0.0
 16
1.0
 26
0.0
 36
0.0
 17
0.0
 27
1.0
 37
0.0
 76
     0
330
1B
  0
LAYOUT
  5
26
102
{ACAD_REACTORS
330
1A
102
}
330
1A
100
AcDbPlotSettings
  1

  2
none_device
  4

  6

 40
0.0
 41
0.0
 42
0.0
 43
0.0
 44
0.0
 45
0.0
 46
0.0
 47
0.0
 48
0.0
 49
0.0
140
0.0
141
0.0
142
1.0
143
1.0
 70
   688
 72
     1
 73
     0
 74
     5
  7

 75
    16
147
1.0
148
0.0
149
0.0
100
AcDbLayout
  1
Layout2
 70
     1
 71
     2
 10
0.0
 20
0.0
 11
0.0
 21
0.0
 12
0.0
 22
0.0
 32
0.0
 14
0.0
 24
0.0
 34
0.0
 15
0.0
 25
0.0
 35
0.0
146
0.0
 13
0.0
 23
0.0
 33
0.0
 16
1.0
 26
0.0
 36
0.0
 17
0.0
 27
1.0
 37
0.0
 76
     0
330
23
  0
LAYOUT
  5
22
102
{ACAD_REACTORS
330
1A
102
}
330
1A
100
AcDbPlotSettings
  1

  2
none_device
  4
Letter_(8.50_x_11.00_Inches)
  6

 40
6.35
 41
6.35
 42
6.35000508
 43
6.35000508
 44
215.9
 45
279.4
 46
0.0
 47
0.0
 48
0.0
 49
0.0
140
0.0
141
0.0
142
1.0
143
1.0
 70
  1712
 72
     1
 73
     0
 74
     0
  7

 75
     0
147
1.0
148
0.0
149
0.0
100
AcDbLayout
  1
Model
 70
     1
 71
     0
 10
0.0
 20
0.0
 11
297.0
 21
210.0
 12
0.0
 22
0.0
 32
0.0
 14
0.0
 24
0.0
 34
0.0
 15
297.0
 25
210.0
 35
0.0
146
0.0
 13
0.0
 23
0.0
 33
0.0
 16
1.0
 26
0.0
 36
0.0
 17
0.0
 27
1.0
 37
0.0
 76
     0
330
1F
331
29
  0
MLINESTYLE
  5
18
102
{ACAD_REACTORS
330
17
102
}
330
17
100
AcDbMlineStyle
  2
Standard
 70
     0
  3

 62
   256
 51
90.0
 52
90.0
 71
     2
 49
0.5
 62
   256
  6
BYLAYER
 49
-0.5
 62
   256
  6
BYLAYER
  0
ACDBPLACEHOLDER
  5
F
102
{ACAD_REACTORS
330
E
102
}
330
E
  0
SCALE
  5
48
102
{ACAD_REACTORS
330
47
102
}
330
47
100
AcDbScale
 70
     0
300
1:1
140
1.0
141
1.0
290
     1
  0
SCALE
  5
49
102
{ACAD_REACTORS
330
47
102
}
330
47
100
AcDbScale
 70
     0
300
1:2
140
1.0
141
2.0
290
     0
  0
SCALE
  5
4A
102
{ACAD_REACTORS
330
47
102
}
330
47
100
AcDbScale
 70
     0
300
1:4
140
1.0
141
4.0
290
     0
  0
SCALE
  5
4B
102
{ACAD_REACTORS
330
47
102
}
330
47
100
AcDbScale
 70
     0
300
1:5
140
1.0
141
5.0
290
     0
  0
SCALE
  5
4C
102
{ACAD_REACTORS
330
47
102
}
330
47
100
AcDbScale
 70
     0
300
1:8
140
1.0
141
8.0
290
     0
  0
SCALE
  5
4D
102
{ACAD_REACTORS
330
47
102
}
330
47
100
AcDbScale
 70
     0
300
1:10
140
1.0
141
10.0
290
     0
  0
SCALE
  5
4E
102
{ACAD_REACTORS
330
47
102
}
330
47
100
AcDbScale
 70
     0
300
1:16
140
1.0
141
16.0
290
     0
  0
SCALE
  5
4F
102
{ACAD_REACTORS
330
47
102
}
330
47
100
AcDbScale
 70
     0
300
1:20
140
1.0
141
20.0
290
     0
  0
SCALE
  5
50
102
{ACAD_REACTORS
330
47
102
}
330
47
100
AcDbScale
 70
     0
300
1:30
140
1.0
141
30.0
290
     0
  0
SCALE
  5
51
102
{ACAD_REACTORS
330
47
102
}
330
47
100
AcDbScale
 70
     0
300
1:40
140
1.0
141
40.0
290
     0
  0
SCALE
  5
52
102
{ACAD_REACTORS
330
47
102
}
330
47
100
AcDbScale
 70
     0
300
1:50
140
1.0
141
50.0
290
     0
  0
SCALE
  5
53
102
{ACAD_REACTORS
330
47
102
}
330
47
100
AcDbScale
 70
     0
300
1:100
140
1.0
141
100.0
290
     0
  0
SCALE
  5
54
102
{ACAD_REACTORS
330
47
102
}
330
47
100
AcDbScale
 70
     0
300
2:1
140
2.0
141
1.0
290
     0
  0
SCALE
  5
55
102
{ACAD_REACTORS
330
47
102
}
330
47
100
AcDbScale
 70
     0
300
4:1
140
4.0
141
1.0
290
     0
  0
SCALE
  5
56
102
{ACAD_REACTORS
330
47
102
}
330
47
100
AcDbScale
 70
     0
300
8:1
140
8.0
141
1.0
290
     0
  0
SCALE
  5
57
102
{ACAD_REACTORS
330
47
102
}
330
47
100
AcDbScale
 70
     0
300
10:1
140
10.0
141
1.0
290
     0
  0
SCALE
  5
58
102
{ACAD_REACTORS
330
47
102
}
330
47
100
AcDbScale
 70
     0
300
100:1
140
100.0
141
1.0
290
     0
  0
SCALE
  5
59
102
{ACAD_REACTORS
330
47
102
}
330
47
100
AcDbScale
 70
     0
300
1/128" = 1'-0"
140
0.0078125
141
12.0
290
     0
  0
SCALE
  5
5A
102
{ACAD_REACTORS
330
47
102
}
330
47
100
AcDbScale
 70
     0
300
1/64" = 1'-0"
140
0.015625
141
12.0
290
     0
  0
SCALE
  5
5B
102
{ACAD_REACTORS
330
47
102
}
330
47
100
AcDbScale
 70
     0
300
1/32" = 1'-0"
140
0.03125
141
12.0
290
     0
  0
SCALE
  5
5C
102
{ACAD_REACTORS
330
47
102
}
330
47
100
AcDbScale
 70
     0
300
1/16" = 1'-0"
140
0.0625
141
12.0
290
     0
  0
SCALE
  5
5D
102
{ACAD_REACTORS
330
47
102
}
330
47
100
AcDbScale
 70
     0
300
3/32" = 1'-0"
140
0.09375
141
12.0
290
     0
  0
SCALE
  5
5E
102
{ACAD_REACTORS
330
47
102
}
330
47
100
AcDbScale
 70
     0
300
1/8" = 1'-0"
140
0.125
141
12.0
290
     0
  0
SCALE
  5
5F
102
{ACAD_REACTORS
330
47
102
}
330
47
100
AcDbScale
 70
     0
300
3/16" = 1'-0"
140
0.1875
141
12.0
290
     0
  0
SCALE
  5
60
102
{ACAD_REACTORS
330
47
102
}
330
47
100
AcDbScale
 70
     0
300
1/4" = 1'-0"
140
0.25
141
12.0
290
     0
  0
SCALE
  5
61
102
{ACAD_REACTORS
330
47
102
}
330
47
100
AcDbScale
 70
     0
300
3/8" = 1'-0"
140
0.375
141
12.0
290
     0
  0
SCALE
  5
62
102
{ACAD_REACTORS
330
47
102
}
330
47
100
AcDbScale
 70
     0
300
1/2" = 1'-0"
140
0.5
141
12.0
290
     0
  0
SCALE
  5
63
102
{ACAD_REACTORS
330
47
102
}
330
47
100
AcDbScale
 70
     0
300
3/4" = 1'-0"
140
0.75
141
12.0
290
     0
  0
SCALE
  5
64
102
{ACAD_REACTORS
330
47
102
}
330
47
100
AcDbScale
 70
     0
300
1" = 1'-0"
140
1.0
141
12.0
290
     0
  0
SCALE
  5
65
102
{ACAD_REACTORS
330
47
102
}
330
47
100
AcDbScale
 70
     0
300
1-1/2" = 1'-0"
140
1.5
141
12.0
290
     0
  0
SCALE
  5
66
102
{ACAD_REACTORS
330
47
102
}
330
47
100
AcDbScale
 70
     0
300
3" = 1'-0"
140
3.0
141
12.0
290
     0
  0
SCALE
  5
67
102
{ACAD_REACTORS
330
47
102
}
330
47
100
AcDbScale
 70
     0
300
6" = 1'-0"
140
6.0
141
12.0
290
     0
  0
SCALE
  5
68
102
{ACAD_REACTORS
330
47
102
}
330
47
100
AcDbScale
 70
     0
300
1'-0" = 1'-0"
140
12.0
141
12.0
290
     0
  0
ENDSEC
  0
EOF
