  0
SECTION
  2
HEADER
  9
$ACADVER
  1
AC1015
  9
$ACADMAINTVER
 70
     6
  9
$DWGCODEPAGE
  3
ANSI_1250
  9
$INSBASE
 10
0.0
 20
0.0
 30
0.0
  9
$EXTMIN
 10
0.0
 20
0.0
 30
0.0
  9
$EXTMAX
 10
297.0
 20
210.0
 30
0.0
  9
$LIMMIN
 10
0.0
 20
0.0
  9
$LIMMAX
 10
297.0
 20
210.0
  9
$ORTHOMODE
 70
     0
  9
$REGENMODE
 70
     1
  9
$FILLMODE
 70
     1
  9
$QTEXTMODE
 70
     0
  9
$MIRRTEXT
 70
     1
  9
$LTSCALE
 40
1.0
  9
$ATTMODE
 70
     1
  9
$TEXTSIZE
 40
3.5
  9
$TRACEWID
 40
1.0
  9
$TEXTSTYLE
  7
Standard
  9
$CLAYER
  8
0
  9
$CELTYPE
  6
ByLayer
  9
$CECOLOR
 62
   256
  9
$CELTSCALE
 40
1.0
  9
$DISPSILH
 70
     0
  9
$DIMSCALE
 40
1.0
  9
$DIMASZ
 40
3.302
  9
$DIMEXO
 40
1.0
  9
$DIMDLI
 40
3.75
  9
$DIMRND
 40
0.0
  9
$DIMDLE
 40
0.0
  9
$DIMEXE
 40
1.0
  9
$DIMTP
 40
0.0
  9
$DIMTM
 40
0.0
  9
$DIMTXT
 40
3.5
  9
$DIMCEN
 40
2.5
  9
$DIMTSZ
 40
0.0
  9
$DIMTOL
 70
     0
  9
$DIMLIM
 70
     0
  9
$DIMTIH
 70
     1
  9
$DIMTOH
 70
     1
  9
$DIMSE1
 70
     0
  9
$DIMSE2
 70
     0
  9
$DIMTAD
 70
     1
  9
$DIMZIN
 70
     0
  9
$DIMBLK
  1

  9
$DIMASO
 70
     1
  9
$DIMSHO
 70
     1
  9
$DIMPOST
  1

  9
$DIMAPOST
  1

  9
$DIMALT
 70
     0
  9
$DIMALTD
 70
     3
  9
$DIMALTF
 40
0.0393700787
  9
$DIMLFAC
 40
1.0
  9
$DIMTOFL
 70
     1
  9
$DIMTVP
 40
0.0
  9
$DIMTIX
 70
     0
  9
$DIMSOXD
 70
     0
  9
$DIMSAH
 70
     0
  9
$DIMBLK1
  1

  9
$DIMBLK2
  1

  9
$DIMSTYLE
  2
ISO-25
  9
$DIMCLRD
 70
     0
  9
$DIMCLRE
 70
     0
  9
$DIMCLRT
 70
     0
  9
$DIMTFAC
 40
1.0
  9
$DIMGAP
 40
1.524
  9
$DIMJUST
 70
     0
  9
$DIMSD1
 70
     0
  9
$DIMSD2
 70
     0
  9
$DIMTOLJ
 70
     0
  9
$DIMTZIN
 70
     0
  9
$DIMALTZ
 70
     0
  9
$DIMALTTZ
 70
     0
  9
$DIMUPT
 70
     0
  9
$DIMDEC
 70
     2
  9
$DIMTDEC
 70
     2
  9
$DIMALTU
 70
     2
  9
$DIMALTTD
 70
     3
  9
$DIMTXSTY
  7
Standard
  9
$DIMAUNIT
 70
     0
  9
$DIMADEC
 70
     2
  9
$DIMALTRND
 40
0.0
  9
$DIMAZIN
 70
     0
  9
$DIMDSEP
 70
    44
  9
$DIMATFIT
 70
     3
  9
$DIMFRAC
 70
     0
  9
$DIMLDRBLK
  1

  9
$DIMLUNIT
 70
     2
  9
$DIMLWD
 70
    -2
  9
$DIMLWE
 70
    -2
  9
$DIMTMOVE
 70
     0
  9
$LUNITS
 70
     2
  9
$LUPREC
 70
     2
  9
$SKETCHINC
 40
1.0
  9
$FILLETRAD
 40
10.0
  9
$AUNITS
 70
     0
  9
$AUPREC
 70
     2
  9
$MENU
  1
.
  9
$ELEVATION
 40
0.0
  9
$PELEVATION
 40
0.0
  9
$THICKNESS
 40
0.0
  9
$LIMCHECK
 70
     0
  9
$CHAMFERA
 40
0.0
  9
$CHAMFERB
 40
0.0
  9
$CHAMFERC
 40
0.0
  9
$CHAMFERD
 40
0.0
  9
$SKPOLY
 70
     0
  9
$TDCREATE
 40
2459290.529996597
  9
$TDUCREATE
 40
2459290.488329931
  9
$TDUPDATE
 40
2459290.529997778
  9
$TDUUPDATE
 40
2459290.488331111
  9
$TDINDWG
 40
0.0000000116
  9
$TDUSRTIMER
 40
0.0000000116
  9
$USRTIMER
 70
     1
  9
$ANGBASE
 50
0.0
  9
$ANGDIR
 70
     0
  9
$PDMODE
 70
     0
  9
$PDSIZE
 40
-1.0
  9
$PLINEWID
 40
0.0
  9
$SPLFRAME
 70
     0
  9
$SPLINETYPE
 70
     6
  9
$SPLINESEGS
 70
     8
  9
$HANDSEED
  5
36F
  9
$SURFTAB1
 70
     6
  9
$SURFTAB2
 70
     6
  9
$SURFTYPE
 70
     6
  9
$SURFU
 70
     6
  9
$SURFV
 70
     6
  9
$UCSBASE
  2

  9
$UCSNAME
  2

  9
$UCSORG
 10
0.0
 20
0.0
 30
0.0
  9
$UCSXDIR
 10
1.0
 20
0.0
 30
0.0
  9
$UCSYDIR
 10
0.0
 20
1.0
 30
0.0
  9
$UCSORTHOREF
  2

  9
$UCSORTHOVIEW
 70
     0
  9
$UCSORGTOP
 10
0.0
 20
0.0
 30
0.0
  9
$UCSORGBOTTOM
 10
0.0
 20
0.0
 30
0.0
  9
$UCSORGLEFT
 10
0.0
 20
0.0
 30
0.0
  9
$UCSORGRIGHT
 10
0.0
 20
0.0
 30
0.0
  9
$UCSORGFRONT
 10
0.0
 20
0.0
 30
0.0
  9
$UCSORGBACK
 10
0.0
 20
0.0
 30
0.0
  9
$PUCSBASE
  2

  9
$PUCSNAME
  2

  9
$PUCSORG
 10
0.0
 20
0.0
 30
0.0
  9
$PUCSXDIR
 10
1.0
 20
0.0
 30
0.0
  9
$PUCSYDIR
 10
0.0
 20
1.0
 30
0.0
  9
$PUCSORTHOREF
  2

  9
$PUCSORTHOVIEW
 70
     0
  9
$PUCSORGTOP
 10
0.0
 20
0.0
 30
0.0
  9
$PUCSORGBOTTOM
 10
0.0
 20
0.0
 30
0.0
  9
$PUCSORGLEFT
 10
0.0
 20
0.0
 30
0.0
  9
$PUCSORGRIGHT
 10
0.0
 20
0.0
 30
0.0
  9
$PUCSORGFRONT
 10
0.0
 20
0.0
 30
0.0
  9
$PUCSORGBACK
 10
0.0
 20
0.0
 30
0.0
  9
$USERI1
 70
     0
  9
$USERI2
 70
     0
  9
$USERI3
 70
     0
  9
$USERI4
 70
     0
  9
$USERI5
 70
     0
  9
$USERR1
 40
0.0
  9
$USERR2
 40
0.0
  9
$USERR3
 40
0.0
  9
$USERR4
 40
0.0
  9
$USERR5
 40
0.0
  9
$WORLDVIEW
 70
     1
  9
$SHADEDGE
 70
     3
  9
$SHADEDIF
 70
    70
  9
$TILEMODE
 70
     1
  9
$MAXACTVP
 70
    64
  9
$PINSBASE
 10
0.0
 20
0.0
 30
0.0
  9
$PLIMCHECK
 70
     0
  9
$PEXTMIN
 10
1.0000000000E+20
 20
1.0000000000E+20
 30
1.0000000000E+20
  9
$PEXTMAX
 10
-1.0000000000E+20
 20
-1.0000000000E+20
 30
-1.0000000000E+20
  9
$PLIMMIN
 10
0.0
 20
0.0
  9
$PLIMMAX
 10
420.0
 20
297.0
  9
$UNITMODE
 70
     0
  9
$VISRETAIN
 70
     1
  9
$PLINEGEN
 70
     0
  9
$PSLTSCALE
 70
     1
  9
$TREEDEPTH
 70
  3020
  9
$CMLSTYLE
  2
Standard
  9
$CMLJUST
 70
     0
  9
$CMLSCALE
 40
20.0
  9
$PROXYGRAPHICS
 70
     1
  9
$MEASUREMENT
 70
     1
  9
$CELWEIGHT
370
    -1
  9
$ENDCAPS
280
     0
  9
$JOINSTYLE
280
     0
  9
$LWDISPLAY
290
     1
  9
$INSUNITS
 70
     4
  9
$HYPERLINKBASE
  1

  9
$STYLESHEET
  1

  9
$XEDIT
290
     1
  9
$CEPSNTYPE
380
     0
  9
$PSTYLEMODE
290
     1
  9
$FINGERPRINTGUID
  2
{7E979634-000E-4505-B4B0-E0F2414D07EF}
  9
$VERSIONGUID
  2
{FAEB1C32-E019-11D5-929B-00C0DF256EC4}
  9
$EXTNAMES
290
     1
  9
$PSVPSCALE
 40
0.0
  9
$OLESTARTUP
290
     0
  0
ENDSEC
  0
SECTION
  2
CLASSES
  0
CLASS
  1
ACDBDICTIONARYWDFLT
  2
AcDbDictionaryWithDefault
  3
ObjectDBX Classes
 90
        0
280
     0
281
     0
  0
CLASS
  1
VISUALSTYLE
  2
AcDbVisualStyle
  3
ObjectDBX Classes
 90
     4095
280
     0
281
     0
  0
CLASS
  1
MATERIAL
  2
AcDbMaterial
  3
ObjectDBX Classes
 90
     1153
280
     0
281
     0
  0
CLASS
  1
SCALE
  2
AcDbScale
  3
ObjectDBX Classes
 90
     1153
280
     0
281
     0
  0
CLASS
  1
TABLESTYLE
  2
AcDbTableStyle
  3
ObjectDBX Classes
 90
     4095
280
     0
281
     0
  0
CLASS
  1
MLEADERSTYLE
  2
AcDbMLeaderStyle
  3
ACDB_MLEADERSTYLE_CLASS
 90
     4095
280
     0
281
     0
  0
CLASS
  1
SUN
  2
AcDbSun
  3
SCENEOE
 90
     1153
280
     0
281
     0
  0
CLASS
  1
ACDBPLACEHOLDER
  2
AcDbPlaceHolder
  3
ObjectDBX Classes
 90
        0
280
     0
281
     0
  0
CLASS
  1
LAYOUT
  2
AcDbLayout
  3
ObjectDBX Classes
 90
        0
280
     0
281
     0
  0
ENDSEC
  0
SECTION
  2
TABLES
  0
TABLE
  2
VPORT
  5
8
330
0
100
AcDbSymbolTable
 70
     1
  0
VPORT
  5
29
330
8
100
AcDbSymbolTableRecord
100
AcDbViewportTableRecord
  2
*Active
 70
     0
 10
0.0
 20
0.0
 11
1.0
 21
1.0
 12
148.5
 22
105.0
 13
0.0
 23
0.0
 14
10.0
 24
10.0
 15
10.0
 25
10.0
 16
0.0
 26
0.0
 36
1.0
 17
0.0
 27
0.0
 37
0.0
 40
210.0
 41
1.4142857143
 42
50.0
 43
0.0
 44
0.0
 50
0.0
 51
0.0
 71
     0
 72
  2000
 73
     1
 74
     3
 75
     0
 76
     0
 77
     0
 78
     0
281
     0
 65
     1
110
0.0
120
0.0
130
0.0
111
1.0
121
0.0
131
0.0
112
0.0
122
1.0
132
0.0
 79
     0
146
0.0
  0
ENDTAB
  0
TABLE
  2
LTYPE
  5
5
330
0
100
AcDbSymbolTable
 70
     8
  0
LTYPE
  5
14
330
5
100
AcDbSymbolTableRecord
100
AcDbLinetypeTableRecord
  2
ByBlock
 70
     0
  3

 72
    65
 73
     0
 40
0.0
  0
LTYPE
  5
15
330
5
100
AcDbSymbolTableRecord
100
AcDbLinetypeTableRecord
  2
ByLayer
 70
     0
  3

 72
    65
 73
     0
 40
0.0
  0
LTYPE
  5
16
330
5
100
AcDbSymbolTableRecord
100
AcDbLinetypeTableRecord
  2
Continuous
 70
     0
  3
Solid line
 72
    65
 73
     0
 40
0.0
  0
LTYPE
  5
6E
330
5
100
AcDbSymbolTableRecord
100
AcDbLinetypeTableRecord
  2
SLD-Solid
 70
     0
  3
SolidWorks Line Style
 72
    65
 73
     0
 40
0.0
  0
LTYPE
  5
6F
330
5
100
AcDbSymbolTableRecord
100
AcDbLinetypeTableRecord
  2
SLD-Dashed
 70
     0
  3
SolidWorks Line Style
 72
    65
 73
     2
 40
1.905
 49
1.27
 74
     0
 49
-0.635
 74
     0
  0
LTYPE
  5
70
330
5
100
AcDbSymbolTableRecord
100
AcDbLinetypeTableRecord
  2
SLD-Phantom
 70
     0
  3
SolidWorks Line Style
 72
    65
 73
     6
 40
12.7
 49
6.35
 74
     0
 49
-1.27
 74
     0
 49
1.27
 74
     0
 49
-1.27
 74
     0
 49
1.27
 74
     0
 49
-1.27
 74
     0
  0
LTYPE
  5
71
330
5
100
AcDbSymbolTableRecord
100
AcDbLinetypeTableRecord
  2
SLD-Chain
 70
     0
  3
SolidWorks Line Style
 72
    65
 73
     4
 40
10.16
 49
6.35
 74
     0
 49
-1.27
 74
     0
 49
1.27
 74
     0
 49
-1.27
 74
     0
  0
LTYPE
  5
72
330
5
100
AcDbSymbolTableRecord
100
AcDbLinetypeTableRecord
  2
SLD-Center
 70
     0
  3
SolidWorks Line Style
 72
    65
 73
     4
 40
19.05
 49
15.24
 74
     0
 49
-1.27
 74
     0
 49
1.27
 74
     0
 49
-1.27
 74
     0
  0
LTYPE
  5
73
330
5
100
AcDbSymbolTableRecord
100
AcDbLinetypeTableRecord
  2
SLD-Stitch
 70
     0
  3
SolidWorks Line Style
 72
    65
 73
     2
 40
0.635
 49
0.0
 74
     0
 49
-0.635
 74
     0
  0
LTYPE
  5
74
330
5
100
AcDbSymbolTableRecord
100
AcDbLinetypeTableRecord
  2
SLD-Thin-Thick-Chain
 70
     0
  3
SolidWorks Line Style
 72
    65
 73
     4
 40
10.16
 49
6.35
 74
     0
 49
-1.27
 74
     0
 49
1.27
 74
     0
 49
-1.27
 74
     0
  0
ENDTAB
  0
TABLE
  2
LAYER
  5
2
330
0
100
AcDbSymbolTable
 70
    12
  0
LAYER
  5
10
330
2
100
AcDbSymbolTableRecord
100
AcDbLayerTableRecord
  2
0
 70
     0
 62
     7
  6
Continuous
370
    -3
390
F
  0
LAYER
  5
75
330
2
100
AcDbSymbolTableRecord
100
AcDbLayerTableRecord
  2
SLD-0
 70
     0
 62
   179
  6
SLD-Solid
370
    -3
390
F
  0
LAYER
  5
76
330
2
100
AcDbSymbolTableRecord
100
AcDbLayerTableRecord
  2
80
 70
     0
 62
    -6
  6
SLD-Solid
290
     0
370
    -3
390
F
  0
LAYER
  5
77
330
2
100
AcDbSymbolTableRecord
100
AcDbLayerTableRecord
  2
81
 70
     0
 62
    -3
  6
SLD-Solid
290
     0
370
    -3
390
F
  0
LAYER
  5
78
330
2
100
AcDbSymbolTableRecord
100
AcDbLayerTableRecord
  2
1
 70
     0
 62
     4
  6
SLD-Solid
290
     0
370
    -3
390
F
  0
LAYER
  5
79
330
2
100
AcDbSymbolTableRecord
100
AcDbLayerTableRecord
  2
4
 70
     0
 62
    -2
  6
SLD-Chain
290
     0
370
    -3
390
F
  0
LAYER
  5
7A
330
2
100
AcDbSymbolTableRecord
100
AcDbLayerTableRecord
  2
2
 70
     0
 62
     7
  6
SLD-Solid
290
     0
370
    -3
390
F
  0
LAYER
  5
7B
330
2
100
AcDbSymbolTableRecord
100
AcDbLayerTableRecord
  2
SK3
 70
     0
 62
     1
  6
SLD-Dashed
290
     0
370
    -3
390
F
  0
LAYER
  5
7C
330
2
100
AcDbSymbolTableRecord
100
AcDbLayerTableRecord
  2
SK4
 70
     0
 62
     2
  6
SLD-Chain
290
     0
370
    -3
390
F
  0
LAYER
  5
7D
330
2
100
AcDbSymbolTableRecord
100
AcDbLayerTableRecord
  2
SK2
 70
     0
 62
     7
  6
SLD-Solid
290
     0
370
    -3
390
F
  0
LAYER
  5
7E
330
2
100
AcDbSymbolTableRecord
100
AcDbLayerTableRecord
  2
SK6
 70
     0
 62
     5
  6
SLD-Solid
290
     0
370
    -3
390
F
  0
LAYER
  5
7F
330
2
100
AcDbSymbolTableRecord
100
AcDbLayerTableRecord
  2
SK1
 70
     0
 62
     4
  6
SLD-Solid
370
    -3
390
F
  0
ENDTAB
  0
TABLE
  2
STYLE
  5
3
330
0
100
AcDbSymbolTable
 70
     2
  0
STYLE
  5
11
330
3
100
AcDbSymbolTableRecord
100
AcDbTextStyleTableRecord
  2
Standard
 70
     0
 40
0.0
 41
1.0
 50
0.0
 71
     0
 42
3.5
  3
txt
  4

  0
STYLE
  5
308
330
3
100
AcDbSymbolTableRecord
100
AcDbTextStyleTableRecord
  2
SLDTEXTSTYLE0
 70
     0
 40
0.0
 41
0.75
 50
0.0
 71
     0
 42
3.5
  3
TXT
  4

  0
ENDTAB
  0
TABLE
  2
VIEW
  5
6
330
0
100
AcDbSymbolTable
 70
     0
  0
ENDTAB
  0
TABLE
  2
UCS
  5
7
330
0
100
AcDbSymbolTable
 70
     0
  0
ENDTAB
  0
TABLE
  2
APPID
  5
9
330
0
100
AcDbSymbolTable
 70
     1
  0
APPID
  5
12
330
9
100
AcDbSymbolTableRecord
100
AcDbRegAppTableRecord
  2
ACAD
 70
     0
  0
ENDTAB
  0
TABLE
  2
DIMSTYLE
  5
A
330
0
100
AcDbSymbolTable
 70
     2
100
AcDbDimStyleTable
  0
DIMSTYLE
105
27
330
A
100
AcDbSymbolTableRecord
100
AcDbDimStyleTableRecord
  2
ISO-25
 70
     0
 41
2.5
 42
0.625
 43
3.75
 44
1.25
 73
     0
 74
     0
 77
     1
 78
     8
140
2.5
141
2.5
143
0.0393700787
147
0.625
171
     3
172
     1
178
     0
271
     2
272
     2
274
     3
278
    44
283
     0
284
     8
340
11
  0
DIMSTYLE
105
309
102
{ACAD_REACTORS
330
307
330
313
330
31D
330
327
330
331
330
33C
330
347
330
352
330
35D
102
}
330
A
100
AcDbSymbolTableRecord
100
AcDbDimStyleTableRecord
  2
SLDDIMSTYLE0
 70
     0
 41
3.302
 44
0.0
 45
0.000000001
 73
     0
 74
     0
 77
     1
 78
    12
 79
     3
140
3.5
147
0.875
173
     1
178
     0
271
     2
272
     2
276
     2
284
    12
340
308
  0
ENDTAB
  0
TABLE
  2
BLOCK_RECORD
  5
1
330
0
100
AcDbSymbolTable
 70
    13
  0
BLOCK_RECORD
  5
1F
330
1
100
AcDbSymbolTableRecord
100
AcDbBlockTableRecord
  2
*Model_Space
340
22
  0
BLOCK_RECORD
  5
1B
330
1
100
AcDbSymbolTableRecord
100
AcDbBlockTableRecord
  2
*Paper_Space
340
1E
  0
BLOCK_RECORD
  5
23
330
1
100
AcDbSymbolTableRecord
100
AcDbBlockTableRecord
  2
*Paper_Space0
340
26
  0
BLOCK_RECORD
  5
80
330
1
100
AcDbSymbolTableRecord
100
AcDbBlockTableRecord
  2
Block11
340
0
102
{BLKREFS
331
306
102
}
  0
BLOCK_RECORD
  5
89
330
1
100
AcDbSymbolTableRecord
100
AcDbBlockTableRecord
  2
Block12
340
0
102
{BLKREFS
331
305
102
}
  0
BLOCK_RECORD
  5
30A
330
1
100
AcDbSymbolTableRecord
100
AcDbBlockTableRecord
  2
_D
340
0
  0
BLOCK_RECORD
  5
314
330
1
100
AcDbSymbolTableRecord
100
AcDbBlockTableRecord
  2
_D_1
340
0
  0
BLOCK_RECORD
  5
31E
330
1
100
AcDbSymbolTableRecord
100
AcDbBlockTableRecord
  2
_D_2
340
0
  0
BLOCK_RECORD
  5
328
330
1
100
AcDbSymbolTableRecord
100
AcDbBlockTableRecord
  2
_D_3
340
0
  0
BLOCK_RECORD
  5
332
330
1
100
AcDbSymbolTableRecord
100
AcDbBlockTableRecord
  2
_D_4
340
0
  0
BLOCK_RECORD
  5
33D
330
1
100
AcDbSymbolTableRecord
100
AcDbBlockTableRecord
  2
_D_5
340
0
  0
BLOCK_RECORD
  5
348
330
1
100
AcDbSymbolTableRecord
100
AcDbBlockTableRecord
  2
_D_6
340
0
  0
BLOCK_RECORD
  5
353
330
1
100
AcDbSymbolTableRecord
100
AcDbBlockTableRecord
  2
_D_7
340
0
  0
BLOCK_RECORD
  5
35E
330
1
100
AcDbSymbolTableRecord
100
AcDbBlockTableRecord
  2
_D_8
340
0
  0
BLOCK_RECORD
  5
369
330
1
100
AcDbSymbolTableRecord
100
AcDbBlockTableRecord
  2
SW_NOTE_0
340
0
102
{BLKREFS
331
36E
102
}
  0
ENDTAB
  0
ENDSEC
  0
SECTION
  2
BLOCKS
  0
BLOCK
  5
20
330
1F
100
AcDbEntity
  8
0
100
AcDbBlockBegin
  2
*Model_Space
 70
     0
 10
0.0
 20
0.0
 30
0.0
  3
*Model_Space
  1

  0
ENDBLK
  5
21
330
1F
100
AcDbEntity
  8
0
100
AcDbBlockEnd
  0
BLOCK
  5
1C
330
1B
100
AcDbEntity
 67
     1
  8
0
100
AcDbBlockBegin
  2
*Paper_Space
 70
     0
 10
0.0
 20
0.0
 30
0.0
  3
*Paper_Space
  1

  0
ENDBLK
  5
1D
330
1B
100
AcDbEntity
 67
     1
  8
0
100
AcDbBlockEnd
  0
BLOCK
  5
24
330
23
100
AcDbEntity
  8
0
100
AcDbBlockBegin
  2
*Paper_Space0
 70
     0
 10
0.0
 20
0.0
 30
0.0
  3
*Paper_Space0
  1

  0
ENDBLK
  5
25
330
23
100
AcDbEntity
  8
0
100
AcDbBlockEnd
  0
BLOCK
  5
81
330
80
100
AcDbEntity
  8
0
100
AcDbBlockBegin
  2
Block11
 70
     0
 10
0.0
 20
0.0
 30
0.0
  3
Block11
  1

  0
CIRCLE
  5
83
330
80
100
AcDbEntity
  8
81
370
    18
100
AcDbCircle
 10
91.6264826505
 20
130.2676275275
 30
0.0
 40
2.499999999999981
  0
LINE
  5
84
330
80
100
AcDbEntity
  8
81
370
    18
100
AcDbLine
 10
91.6264826505
 20
130.2676275275
 30
0.0
 11
95.1620165565
 21
133.8031614334
 31
0.0
  0
LINE
  5
85
330
80
100
AcDbEntity
  8
81
370
    18
100
AcDbLine
 10
91.6264826505
 20
130.2676275275
 30
0.0
 11
88.0909487446
 21
126.7320936216
 31
0.0
  0
LINE
  5
86
330
80
100
AcDbEntity
  8
81
370
    18
100
AcDbLine
 10
91.6264826505
 20
130.2676275275
 30
0.0
 11
88.0909487446
 21
133.8031614334
 31
0.0
  0
LINE
  5
87
330
80
100
AcDbEntity
  8
81
100
AcDbLine
 10
91.6264826505
 20
130.2676275275
 30
0.0
 11
101.6264826505
 21
130.2676275275
 31
0.0
  0
LINE
  5
88
330
80
100
AcDbEntity
  8
81
370
    18
100
AcDbLine
 10
91.6264826505
 20
130.2676275275
 30
0.0
 11
95.1620165565
 21
126.7320936216
 31
0.0
  0
ENDBLK
  5
82
330
80
100
AcDbEntity
  8
0
100
AcDbBlockEnd
  0
BLOCK
  5
8A
330
89
100
AcDbEntity
  8
0
100
AcDbBlockBegin
  2
Block12
 70
     0
 10
0.0
 20
0.0
 30
0.0
  3
Block12
  1

  0
CIRCLE
  5
8C
330
89
100
AcDbEntity
  8
80
370
    18
100
AcDbCircle
 10
61.7273641656
 20
130.3356800267
 30
0.0
 40
2.500000000000004
  0
LINE
  5
8D
330
89
100
AcDbEntity
  8
80
370
    18
100
AcDbLine
 10
61.7273641656
 20
130.3356800267
 30
0.0
 11
65.2628980715
 21
133.8712139326
 31
0.0
  0
LINE
  5
8E
330
89
100
AcDbEntity
  8
80
370
    18
100
AcDbLine
 10
61.7273641656
 20
130.3356800267
 30
0.0
 11
58.1918302597
 21
126.8001461208
 31
0.0
  0
LINE
  5
8F
330
89
100
AcDbEntity
  8
80
370
    18
100
AcDbLine
 10
61.7273641656
 20
130.3356800267
 30
0.0
 11
58.1918302597
 21
133.8712139326
 31
0.0
  0
LINE
  5
90
330
89
100
AcDbEntity
  8
80
370
    18
100
AcDbLine
 10
61.7273641656
 20
130.3356800267
 30
0.0
 11
51.7273641656
 21
130.3356800267
 31
0.0
  0
LINE
  5
91
330
89
100
AcDbEntity
  8
80
370
    18
100
AcDbLine
 10
61.7273641656
 20
130.3356800267
 30
0.0
 11
65.2628980715
 21
126.8001461208
 31
0.0
  0
ENDBLK
  5
8B
330
89
100
AcDbEntity
  8
0
100
AcDbBlockEnd
  0
BLOCK
  5
30B
330
30A
100
AcDbEntity
  8
0
100
AcDbBlockBegin
  2
_D
 70
     0
 10
0.0
 20
0.0
 30
0.0
  3
_D
  1

  0
SOLID
  5
30D
330
30A
100
AcDbEntity
  8
SK2
100
AcDbTrace
 10
0.0
 20
55.466176315
 30
0.0
 11
3.302
 21
54.958176315
 31
0.0
 12
3.302
 22
55.974176315
 32
0.0
 13
3.302
 23
55.974176315
 33
0.0
  0
SOLID
  5
30E
330
30A
100
AcDbEntity
  8
SK2
100
AcDbTrace
 10
19.05
 20
55.466176315
 30
0.0
 11
15.748
 21
55.974176315
 31
0.0
 12
15.748
 22
54.958176315
 32
0.0
 13
15.748
 23
54.958176315
 33
0.0
  0
LINE
  5
30F
330
30A
100
AcDbEntity
  8
SK2
100
AcDbLine
 10
0.0
 20
35.925
 30
0.0
 11
0.0
 21
56.466176315
 31
0.0
  0
LINE
  5
310
330
30A
100
AcDbEntity
  8
SK2
100
AcDbLine
 10
19.05
 20
47.0865405879
 30
0.0
 11
19.05
 21
56.466176315
 31
0.0
  0
LINE
  5
311
330
30A
100
AcDbEntity
  8
SK2
100
AcDbLine
 10
0.0
 20
55.466176315
 30
0.0
 11
19.05
 21
55.466176315
 31
0.0
  0
MTEXT
  5
312
330
30A
100
AcDbEntity
  8
SK2
100
AcDbMText
 10
3.8843263414
 20
59.9779132296
 30
0.0
 40
3.5
 41
0.0
 71
     1
 72
     1
  1
19,05
  7
SLDTEXTSTYLE0
 73
     1
 44
1.0
  0
ENDBLK
  5
30C
330
30A
100
AcDbEntity
  8
0
100
AcDbBlockEnd
  0
BLOCK
  5
315
330
314
100
AcDbEntity
  8
0
100
AcDbBlockBegin
  2
_D_1
 70
     0
 10
0.0
 20
0.0
 30
0.0
  3
_D_1
  1

  0
SOLID
  5
317
330
314
100
AcDbEntity
  8
SK2
100
AcDbTrace
 10
19.05
 20
55.466176315
 30
0.0
 11
22.352
 21
54.958176315
 31
0.0
 12
22.352
 22
55.974176315
 32
0.0
 13
22.352
 23
55.974176315
 33
0.0
  0
SOLID
  5
318
330
314
100
AcDbEntity
  8
SK2
100
AcDbTrace
 10
100.0
 20
55.466176315
 30
0.0
 11
96.698
 21
55.974176315
 31
0.0
 12
96.698
 22
54.958176315
 32
0.0
 13
96.698
 23
54.958176315
 33
0.0
  0
LINE
  5
319
330
314
100
AcDbEntity
  8
SK2
100
AcDbLine
 10
19.05
 20
47.0865405879
 30
0.0
 11
19.05
 21
56.466176315
 31
0.0
  0
LINE
  5
31A
330
314
100
AcDbEntity
  8
SK2
100
AcDbLine
 10
100.0
 20
39.2
 30
0.0
 11
100.0
 21
56.466176315
 31
0.0
  0
LINE
  5
31B
330
314
100
AcDbEntity
  8
SK2
100
AcDbLine
 10
19.05
 20
55.466176315
 30
0.0
 11
100.0
 21
55.466176315
 31
0.0
  0
MTEXT
  5
31C
330
314
100
AcDbEntity
  8
SK2
100
AcDbMText
 10
50.8197200098
 20
59.9779132296
 30
0.0
 40
3.5
 41
0.0
 71
     1
 72
     1
  1
80,95
  7
SLDTEXTSTYLE0
 73
     1
 44
1.0
  0
ENDBLK
  5
316
330
314
100
AcDbEntity
  8
0
100
AcDbBlockEnd
  0
BLOCK
  5
31F
330
31E
100
AcDbEntity
  8
0
100
AcDbBlockBegin
  2
_D_2
 70
     0
 10
0.0
 20
0.0
 30
0.0
  3
_D_2
  1

  0
SOLID
  5
321
330
31E
100
AcDbEntity
  8
SK2
100
AcDbTrace
 10
100.0
 20
55.4661763151
 30
0.0
 11
103.302
 21
54.9581763151
 31
0.0
 12
103.302
 22
55.9741763151
 32
0.0
 13
103.302
 23
55.9741763151
 33
0.0
  0
SOLID
  5
322
330
31E
100
AcDbEntity
  8
SK2
100
AcDbTrace
 10
124.0
 20
55.4661763151
 30
0.0
 11
120.698
 21
55.9741763151
 31
0.0
 12
120.698
 22
54.9581763151
 32
0.0
 13
120.698
 23
54.9581763151
 33
0.0
  0
LINE
  5
323
330
31E
100
AcDbEntity
  8
SK2
100
AcDbLine
 10
100.0
 20
39.2
 30
0.0
 11
100.0
 21
56.4661763151
 31
0.0
  0
LINE
  5
324
330
31E
100
AcDbEntity
  8
SK2
100
AcDbLine
 10
124.0
 20
16.4710190579
 30
0.0
 11
124.0
 21
56.4661763151
 31
0.0
  0
LINE
  5
325
330
31E
100
AcDbEntity
  8
SK2
100
AcDbLine
 10
100.0
 20
55.4661763151
 30
0.0
 11
124.0
 21
55.4661763151
 31
0.0
  0
MTEXT
  5
326
330
31E
100
AcDbEntity
  8
SK2
100
AcDbMText
 10
109.0042662474
 20
59.9779132296
 30
0.0
 40
3.5
 41
0.0
 71
     1
 72
     1
  1
24
  7
SLDTEXTSTYLE0
 73
     1
 44
1.0
  0
ENDBLK
  5
320
330
31E
100
AcDbEntity
  8
0
100
AcDbBlockEnd
  0
BLOCK
  5
329
330
328
100
AcDbEntity
  8
0
100
AcDbBlockBegin
  2
_D_3
 70
     0
 10
0.0
 20
0.0
 30
0.0
  3
_D_3
  1

  0
SOLID
  5
32B
330
328
100
AcDbEntity
  8
2
100
AcDbTrace
 10
100.0
 20
64.5170786753
 30
0.0
 11
96.698
 21
65.0250786753
 31
0.0
 12
96.698
 22
64.0090786753
 32
0.0
 13
96.698
 23
64.0090786753
 33
0.0
  0
SOLID
  5
32C
330
328
100
AcDbEntity
  8
2
100
AcDbTrace
 10
0.0
 20
64.5170786753
 30
0.0
 11
3.302
 21
64.0090786753
 31
0.0
 12
3.302
 22
65.0250786753
 32
0.0
 13
3.302
 23
65.0250786753
 33
0.0
  0
LINE
  5
32D
330
328
100
AcDbEntity
  8
2
100
AcDbLine
 10
100.0
 20
39.2
 30
0.0
 11
100.0
 21
65.5170786753
 31
0.0
  0
LINE
  5
32E
330
328
100
AcDbEntity
  8
2
100
AcDbLine
 10
0.0
 20
35.925
 30
0.0
 11
0.0
 21
65.5170786753
 31
0.0
  0
LINE
  5
32F
330
328
100
AcDbEntity
  8
2
100
AcDbLine
 10
100.0
 20
64.5170786753
 30
0.0
 11
0.0
 21
64.5170786753
 31
0.0
  0
MTEXT
  5
330
330
328
100
AcDbEntity
  8
2
100
AcDbMText
 10
43.4069441469
 20
69.0288155899
 30
0.0
 40
3.5
 41
0.0
 71
     1
 72
     1
  1
100
  7
SLDTEXTSTYLE0
 73
     1
 44
1.0
  0
ENDBLK
  5
32A
330
328
100
AcDbEntity
  8
0
100
AcDbBlockEnd
  0
BLOCK
  5
333
330
332
100
AcDbEntity
  8
0
100
AcDbBlockBegin
  2
_D_4
 70
     0
 10
0.0
 20
0.0
 30
0.0
  3
_D_4
  1

  0
SOLID
  5
335
330
332
100
AcDbEntity
  8
SK2
100
AcDbTrace
 10
164.1213986496
 20
-39.0
 30
0.0
 11
164.6293986496
 21
-35.698
 31
0.0
 12
163.6133986496
 22
-35.698
 32
0.0
 13
163.6133986496
 23
-35.698
 33
0.0
  0
SOLID
  5
336
330
332
100
AcDbEntity
  8
SK2
100
AcDbTrace
 10
164.1213986496
 20
39.0
 30
0.0
 11
163.6133986496
 21
35.698
 31
0.0
 12
164.6293986496
 22
35.698
 32
0.0
 13
164.6293986496
 23
35.698
 33
0.0
  0
LINE
  5
337
330
332
100
AcDbEntity
  8
SK2
100
AcDbLine
 10
100.2
 20
-39.0
 30
0.0
 11
165.1213986496
 21
-39.0
 31
0.0
  0
LINE
  5
338
330
332
100
AcDbEntity
  8
SK2
100
AcDbLine
 10
100.2
 20
39.0
 30
0.0
 11
165.1213986496
 21
39.0
 31
0.0
  0
LINE
  5
339
330
332
100
AcDbEntity
  8
SK2
100
AcDbLine
 10
164.1213986496
 20
-39.0
 30
0.0
 11
164.1213986496
 21
39.0
 31
0.0
  0
MTEXT
  5
33A
330
332
100
AcDbEntity
  8
SK2
100
AcDbMText
 10
159.6096615604
 20
-5.1358750772
 30
0.0
 40
3.5
 41
0.0
 71
     1
 72
     1
  1
%%c
  7
SLDTEXTSTYLE0
 11
6.123233995736766E-17
 21
1.0
 31
0.0
 73
     1
 44
1.0
  0
MTEXT
  5
33B
330
332
100
AcDbEntity
  8
SK2
100
AcDbMText
 10
159.5561893837
 20
0.1425623211
 30
0.0
 40
3.5
 41
0.0
 71
     1
 72
     1
  1
78
  7
SLDTEXTSTYLE0
 11
6.123233995736766E-17
 21
1.0
 31
0.0
 73
     1
 44
1.0
  0
ENDBLK
  5
334
330
332
100
AcDbEntity
  8
0
100
AcDbBlockEnd
  0
BLOCK
  5
33E
330
33D
100
AcDbEntity
  8
0
100
AcDbBlockBegin
  2
_D_5
 70
     0
 10
0.0
 20
0.0
 30
0.0
  3
_D_5
  1

  0
SOLID
  5
340
330
33D
100
AcDbEntity
  8
SK2
100
AcDbTrace
 10
153.9759144435
 20
-16.0
 30
0.0
 11
154.4839144435
 21
-12.698
 31
0.0
 12
153.4679144435
 22
-12.698
 32
0.0
 13
153.4679144435
 23
-12.698
 33
0.0
  0
SOLID
  5
341
330
33D
100
AcDbEntity
  8
SK2
100
AcDbTrace
 10
153.9759144435
 20
16.0
 30
0.0
 11
153.4679144435
 21
12.698
 31
0.0
 12
154.4839144435
 22
12.698
 32
0.0
 13
154.4839144435
 23
12.698
 33
0.0
  0
LINE
  5
342
330
33D
100
AcDbEntity
  8
SK2
100
AcDbLine
 10
122.0
 20
-16.0
 30
0.0
 11
154.9759144435
 21
-16.0
 31
0.0
  0
LINE
  5
343
330
33D
100
AcDbEntity
  8
SK2
100
AcDbLine
 10
122.0
 20
16.0
 30
0.0
 11
154.9759144435
 21
16.0
 31
0.0
  0
LINE
  5
344
330
33D
100
AcDbEntity
  8
SK2
100
AcDbLine
 10
153.9759144435
 20
-16.0
 30
0.0
 11
153.9759144435
 21
16.0
 31
0.0
  0
MTEXT
  5
345
330
33D
100
AcDbEntity
  8
SK2
100
AcDbMText
 10
149.4641773543
 20
-5.1358750772
 30
0.0
 40
3.5
 41
0.0
 71
     1
 72
     1
  1
%%c
  7
SLDTEXTSTYLE0
 11
6.123233995736766E-17
 21
1.0
 31
0.0
 73
     1
 44
1.0
  0
MTEXT
  5
346
330
33D
100
AcDbEntity
  8
SK2
100
AcDbMText
 10
149.4107051776
 20
0.1425623211
 30
0.0
 40
3.5
 41
0.0
 71
     1
 72
     1
  1
32
  7
SLDTEXTSTYLE0
 11
6.123233995736766E-17
 21
1.0
 31
0.0
 73
     1
 44
1.0
  0
ENDBLK
  5
33F
330
33D
100
AcDbEntity
  8
0
100
AcDbBlockEnd
  0
BLOCK
  5
349
330
348
100
AcDbEntity
  8
0
100
AcDbBlockBegin
  2
_D_6
 70
     0
 10
0.0
 20
0.0
 30
0.0
  3
_D_6
  1

  0
SOLID
  5
34B
330
348
100
AcDbEntity
  8
SK2
100
AcDbTrace
 10
-136.6017953399
 20
46.8399781951
 30
0.0
 11
-137.1097953399
 21
43.5379781951
 31
0.0
 12
-136.0937953399
 22
43.5379781951
 32
0.0
 13
-136.0937953399
 23
43.5379781951
 33
0.0
  0
SOLID
  5
34C
330
348
100
AcDbEntity
  8
SK2
100
AcDbTrace
 10
-136.6017953399
 20
-46.8062276079
 30
0.0
 11
-136.0937953399
 21
-43.5042276079
 31
0.0
 12
-137.1097953399
 22
-43.5042276079
 32
0.0
 13
-137.1097953399
 23
-43.5042276079
 33
0.0
  0
LINE
  5
34D
330
348
100
AcDbEntity
  8
SK2
100
AcDbLine
 10
2.95
 20
46.8399781951
 30
0.0
 11
-137.6017953399
 21
46.8399781951
 31
0.0
  0
LINE
  5
34E
330
348
100
AcDbEntity
  8
SK2
100
AcDbLine
 10
2.95
 20
-46.8062276079
 30
0.0
 11
-137.6017953399
 21
-46.8062276079
 31
0.0
  0
LINE
  5
34F
330
348
100
AcDbEntity
  8
SK2
100
AcDbLine
 10
-136.6017953399
 20
46.8399781951
 30
0.0
 11
-136.6017953399
 21
-46.8062276079
 31
0.0
  0
MTEXT
  5
350
330
348
100
AcDbEntity
  8
SK2
100
AcDbMText
 10
-141.1135324291
 20
-8.3685138945
 30
0.0
 40
3.5
 41
0.0
 71
     1
 72
     1
  1
%%c
  7
SLDTEXTSTYLE0
 11
-3.491481338843133E-15
 21
1.0
 31
0.0
 73
     1
 44
1.0
  0
MTEXT
  5
351
330
348
100
AcDbEntity
  8
SK2
100
AcDbMText
 10
-141.1670046058
 20
-3.0900764961
 30
0.0
 40
3.5
 41
0.0
 71
     1
 72
     1
  1
97,45
  7
SLDTEXTSTYLE0
 11
-3.491481338843133E-15
 21
1.0
 31
0.0
 73
     1
 44
1.0
  0
ENDBLK
  5
34A
330
348
100
AcDbEntity
  8
0
100
AcDbBlockEnd
  0
BLOCK
  5
354
330
353
100
AcDbEntity
  8
0
100
AcDbBlockBegin
  2
_D_7
 70
     0
 10
0.0
 20
0.0
 30
0.0
  3
_D_7
  1

  0
SOLID
  5
356
330
353
100
AcDbEntity
  8
SK2
100
AcDbTrace
 10
-123.545867579
 20
-34.925
 30
0.0
 11
-123.037867579
 21
-31.623
 31
0.0
 12
-124.053867579
 22
-31.623
 32
0.0
 13
-124.053867579
 23
-31.623
 33
0.0
  0
SOLID
  5
357
330
353
100
AcDbEntity
  8
SK2
100
AcDbTrace
 10
-123.545867579
 20
34.925
 30
0.0
 11
-124.053867579
 21
31.623
 31
0.0
 12
-123.037867579
 22
31.623
 32
0.0
 13
-123.037867579
 23
31.623
 33
0.0
  0
LINE
  5
358
330
353
100
AcDbEntity
  8
SK2
100
AcDbLine
 10
-1.0
 20
-34.925
 30
0.0
 11
-124.545867579
 21
-34.925
 31
0.0
  0
LINE
  5
359
330
353
100
AcDbEntity
  8
SK2
100
AcDbLine
 10
-1.0
 20
34.925
 30
0.0
 11
-124.545867579
 21
34.925
 31
0.0
  0
LINE
  5
35A
330
353
100
AcDbEntity
  8
SK2
100
AcDbLine
 10
-123.545867579
 20
-34.925
 30
0.0
 11
-123.545867579
 21
34.925
 31
0.0
  0
MTEXT
  5
35B
330
353
100
AcDbEntity
  8
SK2
100
AcDbMText
 10
-128.0576046682
 20
-8.3685138945
 30
0.0
 40
3.5
 41
0.0
 71
     1
 72
     1
  1
%%c
  7
SLDTEXTSTYLE0
 11
6.123233995736766E-17
 21
1.0
 31
0.0
 73
     1
 44
1.0
  0
MTEXT
  5
35C
330
353
100
AcDbEntity
  8
SK2
100
AcDbMText
 10
-128.1110768449
 20
-3.0900764961
 30
0.0
 40
3.5
 41
0.0
 71
     1
 72
     1
  1
69,85
  7
SLDTEXTSTYLE0
 11
6.123233995736766E-17
 21
1.0
 31
0.0
 73
     1
 44
1.0
  0
ENDBLK
  5
355
330
353
100
AcDbEntity
  8
0
100
AcDbBlockEnd
  0
BLOCK
  5
35F
330
35E
100
AcDbEntity
  8
0
100
AcDbBlockBegin
  2
_D_8
 70
     0
 10
0.0
 20
0.0
 30
0.0
  3
_D_8
  1

  0
SOLID
  5
361
330
35E
100
AcDbEntity
  8
SK2
100
AcDbTrace
 10
-111.8112098832
 20
-12.0
 30
0.0
 11
-111.3032098832
 21
-8.698
 31
0.0
 12
-112.3192098832
 22
-8.698
 32
0.0
 13
-112.3192098832
 23
-8.698
 33
0.0
  0
SOLID
  5
362
330
35E
100
AcDbEntity
  8
SK2
100
AcDbTrace
 10
-111.8112098832
 20
12.0
 30
0.0
 11
-112.3192098832
 21
8.698
 31
0.0
 12
-111.3032098832
 22
8.698
 32
0.0
 13
-111.3032098832
 23
8.698
 33
0.0
  0
LINE
  5
363
330
35E
100
AcDbEntity
  8
SK2
100
AcDbLine
 10
-90.3448185145
 20
-12.0
 30
0.0
 11
-112.8112098832
 21
-12.0
 31
0.0
  0
LINE
  5
364
330
35E
100
AcDbEntity
  8
SK2
100
AcDbLine
 10
-90.3448185145
 20
12.0
 30
0.0
 11
-112.8112098832
 21
12.0
 31
0.0
  0
LINE
  5
365
330
35E
100
AcDbEntity
  8
SK2
100
AcDbLine
 10
-111.8112098832
 20
-12.0
 30
0.0
 11
-111.8112098832
 21
12.0
 31
0.0
  0
MTEXT
  5
366
330
35E
100
AcDbEntity
  8
SK2
100
AcDbMText
 10
-116.3229467977
 20
-4.6404063453
 30
0.0
 40
3.5
 41
0.0
 71
     1
 72
     1
  1
M
  7
SLDTEXTSTYLE0
 11
-6.600105807793572E-15
 21
1.0
 31
0.0
 73
     1
 44
1.0
  0
MTEXT
  5
367
330
35E
100
AcDbEntity
  8
SK2
100
AcDbMText
 10
-116.3229467977
 20
-0.3529064108
 30
0.0
 40
3.5
 41
0.0
 71
     1
 72
     1
  1
24
  7
SLDTEXTSTYLE0
 11
-6.600105807793572E-15
 21
1.0
 31
0.0
 73
     1
 44
1.0
  0
ENDBLK
  5
360
330
35E
100
AcDbEntity
  8
0
100
AcDbBlockEnd
  0
BLOCK
  5
36A
330
369
100
AcDbEntity
  8
0
100
AcDbBlockBegin
  2
SW_NOTE_0
 70
     0
 10
0.0
 20
0.0
 30
0.0
  3
SW_NOTE_0
  1

  0
MTEXT
  5
36C
330
369
100
AcDbEntity
  8
SK6
 62
     0
100
AcDbMText
 10
0.0
 20
4.5117370892
 30
0.0
 40
3.5
 41
0.0
 71
     1
 72
     1
  1
TAPER ISO 50
  7
SLDTEXTSTYLE0
 73
     1
 44
1.0
  0
MTEXT
  5
36D
330
369
100
AcDbEntity
  8
SK6
 62
     0
100
AcDbMText
 10
0.0
 20
-0.0139574413
 30
0.0
 40
3.5
 41
0.0
 71
     1
 72
     1
  1
DIN 69871-AD/B
  7
SLDTEXTSTYLE0
 73
     1
 44
1.0
  0
ENDBLK
  5
36B
330
369
100
AcDbEntity
  8
0
100
AcDbBlockEnd
  0
ENDSEC
  0
SECTION
  2
ENTITIES
  0
LINE
  5
92
330
1F
100
AcDbEntity
  8
SK1
  6
SLD-Solid
370
    25
100
AcDbLine
 10
142.8010116611
 20
-12.0
 30
0.0
 11
143.8010116611
 21
-11.0
 31
0.0
  0
LINE
  5
93
330
1F
100
AcDbEntity
  8
SK1
  6
SLD-Solid
370
    25
100
AcDbLine
 10
143.8010116611
 20
11.0
 30
0.0
 11
142.8010116611
 21
12.0
 31
0.0
  0
LINE
  5
94
330
1F
100
AcDbEntity
  8
SK1
  6
SLD-Solid
370
    25
100
AcDbLine
 10
134.1010116611
 20
-12.0
 30
0.0
 11
142.8010116611
 21
-12.0
 31
0.0
  0
LINE
  5
95
330
1F
100
AcDbEntity
  8
SK1
  6
SLD-Solid
370
    25
100
AcDbLine
 10
142.8010116611
 20
12.0
 30
0.0
 11
134.1010116611
 21
12.0
 31
0.0
  0
LINE
  5
96
330
1F
100
AcDbEntity
  8
SK1
  6
SLD-Solid
370
    25
100
AcDbLine
 10
124.0
 20
-7.105
 30
0.0
 11
127.8010116611
 21
-7.105
 31
0.0
  0
LINE
  5
97
330
1F
100
AcDbEntity
  8
SK1
  6
SLD-Solid
370
    25
100
AcDbLine
 10
127.8010116611
 20
7.105
 30
0.0
 11
124.0
 21
7.105
 31
0.0
  0
LINE
  5
98
330
1F
100
AcDbEntity
  8
SK1
  6
SLD-Solid
370
    25
100
AcDbLine
 10
128.1010116611
 20
20.0
 30
0.0
 11
127.8010116611
 21
19.7
 31
0.0
  0
LINE
  5
99
330
1F
100
AcDbEntity
  8
SK1
  6
SLD-Solid
370
    25
100
AcDbLine
 10
127.8010116611
 20
-19.7
 30
0.0
 11
128.1010116611
 21
-20.0
 31
0.0
  0
LINE
  5
9A
330
1F
100
AcDbEntity
  8
SK1
  6
SLD-Solid
370
    25
100
AcDbLine
 10
128.1010116611
 20
-20.0
 30
0.0
 11
132.8010116611
 21
-20.0
 31
0.0
  0
LINE
  5
9B
330
1F
100
AcDbEntity
  8
SK1
  6
SLD-Solid
370
    25
100
AcDbLine
 10
132.8010116611
 20
20.0
 30
0.0
 11
128.1010116611
 21
20.0
 31
0.0
  0
LINE
  5
9C
330
1F
100
AcDbEntity
  8
SK1
  6
SLD-Solid
370
    25
100
AcDbLine
 10
132.8010116611
 20
-20.0
 30
0.0
 11
133.8010116611
 21
-19.0
 31
0.0
  0
LINE
  5
9D
330
1F
100
AcDbEntity
  8
SK1
  6
SLD-Solid
370
    25
100
AcDbLine
 10
133.8010116611
 20
19.0
 30
0.0
 11
132.8010116611
 21
20.0
 31
0.0
  0
LINE
  5
9E
330
1F
100
AcDbEntity
  8
1
  6
SLD-Solid
370
    25
100
AcDbLine
 10
99.2
 20
39.0
 30
0.0
 11
33.1974239987
 21
39.0
 31
0.0
  0
LINE
  5
9F
330
1F
100
AcDbEntity
  8
1
  6
SLD-Solid
370
    25
100
AcDbLine
 10
82.2360988335
 20
-39.0
 30
0.0
 11
99.2
 21
-39.0
 31
0.0
  0
LINE
  5
A0
330
1F
100
AcDbEntity
  8
1
  6
SLD-Solid
370
    25
100
AcDbLine
 10
33.1881811788
 20
-39.0
 30
0.0
 11
67.7805363253
 21
-39.0
 31
0.0
  0
LINE
  5
A1
330
1F
100
AcDbEntity
  8
SK1
  6
SLD-Solid
370
    25
100
AcDbLine
 10
0.0
 20
34.925
 30
0.0
 11
-99.6746935113
 21
20.3889699457
 31
0.0
  0
LINE
  5
A2
330
1F
100
AcDbEntity
  8
SK1
  6
SLD-Solid
370
    25
100
AcDbLine
 10
-99.6746935114
 20
-20.3889699459
 30
0.0
 11
0.0
 21
-34.925
 31
0.0
  0
LINE
  5
A3
330
1F
100
AcDbEntity
  8
1
  6
SLD-Solid
370
    25
100
AcDbLine
 10
1.7476022729
 20
34.925
 30
0.0
 11
0.0
 21
34.925
 31
0.0
  0
LINE
  5
A4
330
1F
100
AcDbEntity
  8
1
  6
SLD-Solid
370
    25
100
AcDbLine
 10
0.0
 20
-34.925
 30
0.0
 11
1.7476022729
 21
-34.925
 31
0.0
  0
LINE
  5
A5
330
1F
100
AcDbEntity
  8
1
  6
SLD-Solid
370
    25
100
AcDbLine
 10
1.7476022729
 20
-34.925
 30
0.0
 11
2.1330363037
 21
-34.7452691597
 31
0.0
  0
LINE
  5
A6
330
1F
100
AcDbEntity
  8
1
  6
SLD-Solid
370
    25
100
AcDbLine
 10
2.1330363037
 20
34.7452691597
 30
0.0
 11
1.7476022729
 21
34.925
 31
0.0
  0
LINE
  5
A7
330
1F
100
AcDbEntity
  8
SK1
  6
SLD-Solid
370
    25
100
AcDbLine
 10
101.3439594644
 20
16.0
 30
0.0
 11
100.6605646396
 21
15.7845264394
 31
0.0
  0
LINE
  5
A8
330
1F
100
AcDbEntity
  8
SK1
  6
SLD-Solid
370
    25
100
AcDbLine
 10
100.6605646396
 20
-15.7845264394
 30
0.0
 11
101.3439594644
 21
-16.0
 31
0.0
  0
LINE
  5
A9
330
1F
100
AcDbEntity
  8
SK1
  6
SLD-Solid
370
    25
100
AcDbLine
 10
121.0
 20
16.0
 30
0.0
 11
101.3439594644
 21
16.0
 31
0.0
  0
LINE
  5
AA
330
1F
100
AcDbEntity
  8
SK1
  6
SLD-Solid
370
    25
100
AcDbLine
 10
101.3439594644
 20
-16.0
 30
0.0
 11
121.0
 21
-16.0
 31
0.0
  0
LINE
  5
AB
330
1F
100
AcDbEntity
  8
SK1
  6
SLD-Solid
370
    25
100
AcDbLine
 10
121.0
 20
-16.0
 30
0.0
 11
124.0
 21
-15.4710190579
 31
0.0
  0
LINE
  5
AC
330
1F
100
AcDbEntity
  8
SK1
  6
SLD-Solid
370
    25
100
AcDbLine
 10
124.0
 20
15.4710190579
 30
0.0
 11
121.0
 21
16.0
 31
0.0
  0
LINE
  5
AD
330
1F
100
AcDbEntity
  8
SK1
  6
SLD-Solid
370
    25
100
AcDbLine
 10
142.8010116611
 20
-12.0
 30
0.0
 11
142.8010116611
 21
12.0
 31
0.0
  0
LINE
  5
AE
330
1F
100
AcDbEntity
  8
SK1
  6
SLD-Solid
370
    25
100
AcDbLine
 10
143.8010116611
 20
11.0
 30
0.0
 11
143.8010116611
 21
-11.0
 31
0.0
  0
LINE
  5
AF
330
1F
100
AcDbEntity
  8
SK1
  6
SLD-Solid
370
    25
100
AcDbLine
 10
127.8010116611
 20
0.0
 30
0.0
 11
127.8010116611
 21
19.7
 31
0.0
  0
LINE
  5
B0
330
1F
100
AcDbEntity
  8
SK1
  6
SLD-Solid
370
    25
100
AcDbLine
 10
127.8010116611
 20
-19.7
 30
0.0
 11
127.8010116611
 21
0.0
 31
0.0
  0
LINE
  5
B1
330
1F
100
AcDbEntity
  8
SK1
  6
SLD-Solid
370
    25
100
AcDbLine
 10
128.1010116611
 20
0.0
 30
0.0
 11
128.1010116611
 21
-20.0
 31
0.0
  0
LINE
  5
B2
330
1F
100
AcDbEntity
  8
SK1
  6
SLD-Solid
370
    25
100
AcDbLine
 10
128.1010116611
 20
20.0
 30
0.0
 11
128.1010116611
 21
0.0
 31
0.0
  0
LINE
  5
B3
330
1F
100
AcDbEntity
  8
SK1
  6
SLD-Solid
370
    25
100
AcDbLine
 10
132.8010116611
 20
-20.0
 30
0.0
 11
132.8010116611
 21
20.0
 31
0.0
  0
LINE
  5
B4
330
1F
100
AcDbEntity
  8
SK1
  6
SLD-Solid
370
    25
100
AcDbLine
 10
133.8010116611
 20
-19.0
 30
0.0
 11
133.8010116611
 21
19.0
 31
0.0
  0
LINE
  5
B5
330
1F
100
AcDbEntity
  8
SK1
  6
SLD-Solid
370
    25
100
AcDbLine
 10
100.0
 20
19.9313807996
 30
0.0
 11
105.7009618943
 21
19.9313807996
 31
0.0
  0
LINE
  5
B6
330
1F
100
AcDbEntity
  8
SK1
  6
SLD-Solid
370
    25
100
AcDbLine
 10
105.7009618943
 20
19.9313807996
 30
0.0
 11
105.7009618943
 21
19.019
 31
0.0
  0
LINE
  5
B7
330
1F
100
AcDbEntity
  8
SK1
  6
SLD-Solid
370
    25
100
AcDbLine
 10
105.7009618943
 20
19.019
 30
0.0
 11
100.0
 21
19.019
 31
0.0
  0
LINE
  5
B8
330
1F
100
AcDbEntity
  8
SK1
  6
SLD-Solid
370
    25
100
AcDbLine
 10
107.0
 20
25.484598215
 30
0.0
 11
107.0
 21
19.019
 31
0.0
  0
LINE
  5
B9
330
1F
100
AcDbEntity
  8
SK1
  6
SLD-Solid
370
    25
100
AcDbLine
 10
100.0
 20
25.3360758703
 30
0.0
 11
100.0296155741
 21
25.3360758703
 31
0.0
  0
LINE
  5
BA
330
1F
100
AcDbEntity
  8
SK1
  6
SLD-Solid
370
    25
100
AcDbLine
 10
100.0296155741
 20
26.6639241297
 30
0.0
 11
100.0
 21
26.6639241297
 31
0.0
  0
LINE
  5
BB
330
1F
100
AcDbEntity
  8
SK1
  6
SLD-Solid
370
    25
100
AcDbLine
 10
105.7009618943
 20
32.0686192004
 30
0.0
 11
100.0
 21
32.0686192004
 31
0.0
  0
LINE
  5
BC
330
1F
100
AcDbEntity
  8
SK1
  6
SLD-Solid
370
    25
100
AcDbLine
 10
107.0
 20
26.515401785
 30
0.0
 11
107.0
 21
25.484598215
 31
0.0
  0
LINE
  5
BD
330
1F
100
AcDbEntity
  8
SK1
  6
SLD-Solid
370
    25
100
AcDbLine
 10
105.7009618943
 20
32.981
 30
0.0
 11
105.7009618943
 21
32.0686192004
 31
0.0
  0
LINE
  5
BE
330
1F
100
AcDbEntity
  8
SK1
  6
SLD-Solid
370
    25
100
AcDbLine
 10
107.0
 20
32.981
 30
0.0
 11
107.0
 21
26.515401785
 31
0.0
  0
LINE
  5
BF
330
1F
100
AcDbEntity
  8
SK1
  6
SLD-Solid
370
    25
100
AcDbLine
 10
100.0
 20
32.981
 30
0.0
 11
105.7009618943
 21
32.981
 31
0.0
  0
LINE
  5
C0
330
1F
100
AcDbEntity
  8
SK1
  6
SLD-Solid
370
    25
100
AcDbLine
 10
100.0
 20
-32.0686192004
 30
0.0
 11
105.7009618943
 21
-32.0686192004
 31
0.0
  0
LINE
  5
C1
330
1F
100
AcDbEntity
  8
SK1
  6
SLD-Solid
370
    25
100
AcDbLine
 10
100.0
 20
-26.6639241297
 30
0.0
 11
100.0296155741
 21
-26.6639241297
 31
0.0
  0
LINE
  5
C2
330
1F
100
AcDbEntity
  8
SK1
  6
SLD-Solid
370
    25
100
AcDbLine
 10
100.0296155741
 20
-25.3360758703
 30
0.0
 11
100.0
 21
-25.3360758703
 31
0.0
  0
LINE
  5
C3
330
1F
100
AcDbEntity
  8
SK1
  6
SLD-Solid
370
    25
100
AcDbLine
 10
105.7009618943
 20
-19.9313807996
 30
0.0
 11
100.0
 21
-19.9313807996
 31
0.0
  0
LINE
  5
C4
330
1F
100
AcDbEntity
  8
SK1
  6
SLD-Solid
370
    25
100
AcDbLine
 10
107.0
 20
-25.484598215
 30
0.0
 11
107.0
 21
-26.515401785
 31
0.0
  0
LINE
  5
C5
330
1F
100
AcDbEntity
  8
SK1
  6
SLD-Solid
370
    25
100
AcDbLine
 10
105.7009618943
 20
-32.0686192004
 30
0.0
 11
105.7009618943
 21
-32.981
 31
0.0
  0
LINE
  5
C6
330
1F
100
AcDbEntity
  8
SK1
  6
SLD-Solid
370
    25
100
AcDbLine
 10
107.0
 20
-26.515401785
 30
0.0
 11
107.0
 21
-32.981
 31
0.0
  0
LINE
  5
C7
330
1F
100
AcDbEntity
  8
SK1
  6
SLD-Solid
370
    25
100
AcDbLine
 10
105.7009618943
 20
-32.981
 30
0.0
 11
100.0
 21
-32.981
 31
0.0
  0
LINE
  5
C8
330
1F
100
AcDbEntity
  8
SK1
  6
SLD-Solid
370
    25
100
AcDbLine
 10
100.0
 20
-19.019
 30
0.0
 11
105.7009618943
 21
-19.019
 31
0.0
  0
LINE
  5
C9
330
1F
100
AcDbEntity
  8
SK1
  6
SLD-Solid
370
    25
100
AcDbLine
 10
105.7009618943
 20
-19.019
 30
0.0
 11
105.7009618943
 21
-19.9313807996
 31
0.0
  0
LINE
  5
CA
330
1F
100
AcDbEntity
  8
SK1
  6
SLD-Solid
370
    25
100
AcDbLine
 10
107.0
 20
-19.019
 30
0.0
 11
107.0
 21
-25.484598215
 31
0.0
  0
LINE
  5
CB
330
1F
100
AcDbEntity
  8
1
  6
SLD-Solid
370
    25
100
AcDbLine
 10
3.2
 20
-46.0656121744
 30
0.0
 11
3.2
 21
46.0865405219
 31
0.0
  0
LINE
  5
CC
330
1F
100
AcDbEntity
  8
1
  6
SLD-Solid
370
    25
100
AcDbLine
 10
19.05
 20
46.0865405879
 30
0.0
 11
19.05
 21
-46.1116661022
 31
0.0
  0
LINE
  5
CD
330
1F
100
AcDbEntity
  8
1
  6
SLD-Solid
370
    25
100
AcDbLine
 10
18.3
 20
46.8399783064
 30
0.0
 11
14.3331615075
 21
46.8399783064
 31
0.0
  0
LINE
  5
CE
330
1F
100
AcDbEntity
  8
1
  6
SLD-Solid
370
    25
100
AcDbLine
 10
14.3331615075
 20
-46.858202685
 30
0.0
 11
18.3
 21
-46.858202685
 31
0.0
  0
LINE
  5
CF
330
1F
100
AcDbEntity
  8
1
  6
SLD-Solid
370
    25
100
AcDbLine
 10
14.3331615075
 20
46.8399783064
 30
0.0
 11
14.3331615075
 21
-46.858202685
 31
0.0
  0
LINE
  5
D0
330
1F
100
AcDbEntity
  8
1
  6
SLD-Solid
370
    25
100
AcDbLine
 10
3.95
 20
-46.8062276079
 30
0.0
 11
7.8668384925
 21
-46.8062276079
 31
0.0
  0
LINE
  5
D1
330
1F
100
AcDbEntity
  8
1
  6
SLD-Solid
370
    25
100
AcDbLine
 10
7.8668384925
 20
46.8399781951
 30
0.0
 11
3.95
 21
46.8399781951
 31
0.0
  0
LINE
  5
D2
330
1F
100
AcDbEntity
  8
1
  6
SLD-Solid
370
    25
100
AcDbLine
 10
7.8668384925
 20
46.8399781951
 30
0.0
 11
7.8668384925
 21
-46.8062276079
 31
0.0
  0
LINE
  5
D3
330
1F
100
AcDbEntity
  8
1
  6
SLD-Solid
370
    25
100
AcDbLine
 10
9.185
 20
44.6143246819
 30
0.0
 11
9.185
 21
7.3450395685
 31
0.0
  0
LINE
  5
D4
330
1F
100
AcDbEntity
  8
1
  6
SLD-Solid
370
    25
100
AcDbLine
 10
9.185
 20
6.3833010964
 30
0.0
 11
9.185
 21
-15.4262992336
 31
0.0
  0
LINE
  5
D5
330
1F
100
AcDbEntity
  8
1
  6
SLD-Solid
370
    25
100
AcDbLine
 10
9.185
 20
-16.3400748148
 30
0.0
 11
9.185
 21
-23.5012610414
 31
0.0
  0
LINE
  5
D6
330
1F
100
AcDbEntity
  8
1
  6
SLD-Solid
370
    25
100
AcDbLine
 10
9.185
 20
-24.3347873787
 30
0.0
 11
9.185
 21
-44.6143246819
 31
0.0
  0
LINE
  5
D7
330
1F
100
AcDbEntity
  8
1
  6
SLD-Solid
370
    25
100
AcDbLine
 10
13.015
 20
6.2169100805
 30
0.0
 11
13.015
 21
-15.2677906723
 31
0.0
  0
LINE
  5
D8
330
1F
100
AcDbEntity
  8
1
  6
SLD-Solid
370
    25
100
AcDbLine
 10
13.015
 20
44.6143246819
 30
0.0
 11
13.015
 21
7.5108210551
 31
0.0
  0
LINE
  5
D9
330
1F
100
AcDbEntity
  8
1
  6
SLD-Solid
370
    25
100
AcDbLine
 10
13.015
 20
-24.4776702474
 30
0.0
 11
13.015
 21
-44.6143246819
 31
0.0
  0
LINE
  5
DA
330
1F
100
AcDbEntity
  8
1
  6
SLD-Solid
370
    25
100
AcDbLine
 10
13.015
 20
-16.4971729702
 30
0.0
 11
13.015
 21
-23.3562542838
 31
0.0
  0
LINE
  5
DB
330
1F
100
AcDbEntity
  8
1
  6
SLD-Solid
370
    25
100
AcDbLine
 10
9.185
 20
7.3450395685
 30
0.0
 11
9.185
 21
7.3166767374
 31
0.0
  0
LINE
  5
DC
330
1F
100
AcDbEntity
  8
1
  6
SLD-Solid
370
    25
100
AcDbLine
 10
13.015
 20
7.4824569595
 30
0.0
 11
13.015
 21
7.5108210551
 31
0.0
  0
LINE
  5
DD
330
1F
100
AcDbEntity
  8
1
  6
SLD-Solid
370
    25
100
AcDbLine
 10
12.265
 20
43.633015023
 30
0.0
 11
9.935
 21
43.633015023
 31
0.0
  0
LINE
  5
DE
330
1F
100
AcDbEntity
  8
1
  6
SLD-Solid
370
    25
100
AcDbLine
 10
9.185
 20
-16.2744453027
 30
0.0
 11
9.185
 21
-16.3400748148
 31
0.0
  0
LINE
  5
DF
330
1F
100
AcDbEntity
  8
1
  6
SLD-Solid
370
    25
100
AcDbLine
 10
13.015
 20
-16.4971729702
 30
0.0
 11
13.015
 21
-16.4315405319
 31
0.0
  0
LINE
  5
E0
330
1F
100
AcDbEntity
  8
1
  6
SLD-Solid
370
    25
100
AcDbLine
 10
22.05
 20
35.0537842176
 30
0.0
 11
22.05
 21
-35.7312190807
 31
0.0
  0
LINE
  5
E1
330
1F
100
AcDbEntity
  8
1
  6
SLD-Solid
370
    25
100
AcDbLine
 10
9.185
 20
-24.2359578266
 30
0.0
 11
9.185
 21
-24.3347873787
 31
0.0
  0
LINE
  5
E2
330
1F
100
AcDbEntity
  8
1
  6
SLD-Solid
370
    25
100
AcDbLine
 10
13.015
 20
-24.4776702474
 30
0.0
 11
13.015
 21
-24.3788362889
 31
0.0
  0
LINE
  5
E3
330
1F
100
AcDbEntity
  8
1
  6
SLD-Solid
370
    25
100
AcDbLine
 10
100.0
 20
38.2
 30
0.0
 11
100.0
 21
-38.2
 31
0.0
  0
LINE
  5
E4
330
1F
100
AcDbEntity
  8
1
  6
SLD-Solid
370
    25
100
AcDbLine
 10
26.5457985879
 20
-37.5
 30
0.0
 11
19.8569775484
 21
-37.5
 31
0.0
  0
LINE
  5
E5
330
1F
100
AcDbEntity
  8
1
  6
SLD-Solid
370
    25
100
AcDbLine
 10
12.265
 20
-43.633015023
 30
0.0
 11
9.935
 21
-43.633015023
 31
0.0
  0
LINE
  5
E6
330
1F
100
AcDbEntity
  8
1
  6
SLD-Solid
370
    25
100
AcDbLine
 10
0.0
 20
0.0
 30
0.0
 11
0.0
 21
-34.925
 31
0.0
  0
LINE
  5
E7
330
1F
100
AcDbEntity
  8
1
  6
SLD-Solid
370
    25
100
AcDbLine
 10
0.0
 20
34.925
 30
0.0
 11
0.0
 21
0.0
 31
0.0
  0
LINE
  5
E8
330
1F
100
AcDbEntity
  8
1
  6
SLD-Solid
370
    25
100
AcDbLine
 10
1.7476022729
 20
0.0
 30
0.0
 11
1.7476022729
 21
-34.925
 31
0.0
  0
LINE
  5
E9
330
1F
100
AcDbEntity
  8
1
  6
SLD-Solid
370
    25
100
AcDbLine
 10
1.7476022729
 20
34.925
 30
0.0
 11
1.7476022729
 21
0.0
 31
0.0
  0
LINE
  5
EA
330
1F
100
AcDbEntity
  8
SK1
  6
SLD-Solid
370
    25
100
AcDbLine
 10
-101.6
 20
-0.0000000001
 30
0.0
 11
-101.6
 21
18.1625211761
 31
0.0
  0
LINE
  5
EB
330
1F
100
AcDbEntity
  8
SK1
  6
SLD-Solid
370
    25
100
AcDbLine
 10
-101.6
 20
-18.1625211763
 30
0.0
 11
-101.6
 21
-0.0000000001
 31
0.0
  0
LINE
  5
EC
330
1F
100
AcDbEntity
  8
SK1
  6
SLD-Solid
370
    25
100
AcDbLine
 10
101.3439594644
 20
0.0
 30
0.0
 11
101.3439594644
 21
-16.0
 31
0.0
  0
LINE
  5
ED
330
1F
100
AcDbEntity
  8
SK1
  6
SLD-Solid
370
    25
100
AcDbLine
 10
101.3439594644
 20
16.0
 30
0.0
 11
101.3439594644
 21
0.0
 31
0.0
  0
LINE
  5
EE
330
1F
100
AcDbEntity
  8
SK1
  6
SLD-Solid
370
    25
100
AcDbLine
 10
121.0
 20
0.0
 30
0.0
 11
121.0
 21
-16.0
 31
0.0
  0
LINE
  5
EF
330
1F
100
AcDbEntity
  8
SK1
  6
SLD-Solid
370
    25
100
AcDbLine
 10
121.0
 20
16.0
 30
0.0
 11
121.0
 21
0.0
 31
0.0
  0
LINE
  5
F0
330
1F
100
AcDbEntity
  8
SK1
  6
SLD-Solid
370
    25
100
AcDbLine
 10
124.0
 20
0.0
 30
0.0
 11
124.0
 21
-15.4710190579
 31
0.0
  0
LINE
  5
F1
330
1F
100
AcDbEntity
  8
SK1
  6
SLD-Solid
370
    25
100
AcDbLine
 10
124.0
 20
15.4710190579
 30
0.0
 11
124.0
 21
0.0
 31
0.0
  0
LINE
  5
F2
330
1F
100
AcDbEntity
  8
SK1
  6
SLD-Solid
370
    25
100
AcDbLine
 10
134.1010116611
 20
-0.4982490325
 30
0.0
 11
134.1010116611
 21
-12.0
 31
0.0
  0
LINE
  5
F3
330
1F
100
AcDbEntity
  8
SK1
  6
SLD-Solid
370
    25
100
AcDbLine
 10
134.1010116611
 20
12.0
 30
0.0
 11
134.1010116611
 21
-0.4982490325
 31
0.0
  0
LINE
  5
F4
330
1F
100
AcDbEntity
  8
SK1
  6
SLD-Solid
370
    25
100
AcDbLine
 10
100.0296155741
 20
25.3360758703
 30
0.0
 11
100.0296155741
 21
23.0297580278
 31
0.0
  0
LINE
  5
F5
330
1F
100
AcDbEntity
  8
SK1
  6
SLD-Solid
370
    25
100
AcDbLine
 10
100.0296155741
 20
28.9753114705
 30
0.0
 11
100.0296155741
 21
26.6639241297
 31
0.0
  0
LINE
  5
F6
330
1F
100
AcDbEntity
  8
SK1
  6
SLD-Solid
370
    25
100
AcDbLine
 10
100.0296155741
 20
-26.6639241297
 30
0.0
 11
100.0296155741
 21
-28.9702419722
 31
0.0
  0
LINE
  5
F7
330
1F
100
AcDbEntity
  8
SK1
  6
SLD-Solid
370
    25
100
AcDbLine
 10
100.0296155741
 20
-23.0246885295
 30
0.0
 11
100.0296155741
 21
-25.3360758703
 31
0.0
  0
LINE
  5
F8
330
1F
100
AcDbEntity
  8
SK1
  6
SLD-Solid
370
    25
100
AcDbLine
 10
100.6605646396
 20
0.0
 30
0.0
 11
100.6605646396
 21
-15.7845264394
 31
0.0
  0
LINE
  5
F9
330
1F
100
AcDbEntity
  8
SK1
  6
SLD-Solid
370
    25
100
AcDbLine
 10
100.6605646396
 20
15.7845264394
 30
0.0
 11
100.6605646396
 21
0.0
 31
0.0
  0
LINE
  5
FA
330
1F
100
AcDbEntity
  8
SK3
  6
SLD-Dashed
370
    18
100
AcDbLine
 10
3.3949403416
 20
-13.9015950424
 30
0.0
 11
3.5710638624
 21
-14.5873390073
 31
0.0
  0
LINE
  5
FB
330
1F
100
AcDbEntity
  8
SK3
  6
SLD-Dashed
370
    18
100
AcDbLine
 10
3.5710638624
 20
-14.5873390073
 30
0.0
 11
3.8482422099
 21
-15.2222244793
 31
0.0
  0
LINE
  5
FC
330
1F
100
AcDbEntity
  8
SK3
  6
SLD-Dashed
370
    18
100
AcDbLine
 10
3.8482422099
 20
-15.2222244793
 30
0.0
 11
4.2059183341
 21
-15.7591649075
 31
0.0
  0
LINE
  5
FD
330
1F
100
AcDbEntity
  8
SK3
  6
SLD-Dashed
370
    18
100
AcDbLine
 10
4.2059183341
 20
-15.7591649075
 30
0.0
 11
4.6175650332
 21
-16.1583378767
 31
0.0
  0
LINE
  5
FE
330
1F
100
AcDbEntity
  8
SK3
  6
SLD-Dashed
370
    18
100
AcDbLine
 10
4.6175650332
 20
-16.1583378767
 30
0.0
 11
5.0526523546
 21
-16.3901385537
 31
0.0
  0
LINE
  5
FF
330
1F
100
AcDbEntity
  8
SK3
  6
SLD-Dashed
370
    18
100
AcDbLine
 10
5.0526523546
 20
-16.3901385537
 30
0.0
 11
5.4789118621
 21
-16.4373753428
 31
0.0
  0
LINE
  5
100
330
1F
100
AcDbEntity
  8
SK3
  6
SLD-Dashed
370
    18
100
AcDbLine
 10
5.4789118621
 20
-16.4373753428
 30
0.0
 11
5.864729838
 21
-16.2965449074
 31
0.0
  0
LINE
  5
101
330
1F
100
AcDbEntity
  8
SK3
  6
SLD-Dashed
370
    18
100
AcDbLine
 10
5.864729838
 20
-16.2965449074
 30
0.0
 11
6.181491928
 21
-15.9780919968
 31
0.0
  0
LINE
  5
102
330
1F
100
AcDbEntity
  8
SK3
  6
SLD-Dashed
370
    18
100
AcDbLine
 10
6.181491928
 20
-15.9780919968
 30
0.0
 11
6.4057053371
 21
-15.5056348064
 31
0.0
  0
LINE
  5
103
330
1F
100
AcDbEntity
  8
SK3
  6
SLD-Dashed
370
    18
100
AcDbLine
 10
6.4057053371
 20
-15.5056348064
 30
0.0
 11
6.5207411824
 21
-14.9142133246
 31
0.0
  0
LINE
  5
104
330
1F
100
AcDbEntity
  8
SK3
  6
SLD-Dashed
370
    18
100
AcDbLine
 10
6.5207411824
 20
-14.9142133246
 30
0.0
 11
6.5180677814
 21
-14.2476905773
 31
0.0
  0
LINE
  5
105
330
1F
100
AcDbEntity
  8
SK3
  6
SLD-Dashed
370
    18
100
AcDbLine
 10
6.5180677814
 20
-14.2476905773
 30
0.0
 11
6.3978834082
 21
-13.5554995075
 31
0.0
  0
LINE
  5
106
330
1F
100
AcDbEntity
  8
SK3
  6
SLD-Dashed
370
    18
100
AcDbLine
 10
6.3978834082
 20
-13.5554995075
 30
0.0
 11
6.1691015878
 21
-12.8889767602
 31
0.0
  0
LINE
  5
107
330
1F
100
AcDbEntity
  8
SK3
  6
SLD-Dashed
370
    18
100
AcDbLine
 10
6.1691015878
 20
-12.8889767602
 30
0.0
 11
5.8486900213
 21
-12.2975552785
 31
0.0
  0
LINE
  5
108
330
1F
100
AcDbEntity
  8
SK3
  6
SLD-Dashed
370
    18
100
AcDbLine
 10
5.8486900213
 20
-12.2975552785
 30
0.0
 11
5.4604121688
 21
-11.825098088
 31
0.0
  0
LINE
  5
109
330
1F
100
AcDbEntity
  8
SK3
  6
SLD-Dashed
370
    18
100
AcDbLine
 10
5.4604121688
 20
-11.825098088
 30
0.0
 11
5.0330648223
 21
-11.5066451774
 31
0.0
  0
LINE
  5
10A
330
1F
100
AcDbEntity
  8
SK3
  6
SLD-Dashed
370
    18
100
AcDbLine
 10
5.0330648223
 20
-11.5066451774
 30
0.0
 11
4.5983423796
 21
-11.365814742
 31
0.0
  0
LINE
  5
10B
330
1F
100
AcDbEntity
  8
SK3
  6
SLD-Dashed
370
    18
100
AcDbLine
 10
4.5983423796
 20
-11.365814742
 30
0.0
 11
4.1884862155
 21
-11.4130515312
 31
0.0
  0
LINE
  5
10C
330
1F
100
AcDbEntity
  8
SK3
  6
SLD-Dashed
370
    18
100
AcDbLine
 10
4.1884862155
 20
-11.4130515312
 30
0.0
 11
3.8338934867
 21
-11.6448522082
 31
0.0
  0
LINE
  5
10D
330
1F
100
AcDbEntity
  8
SK3
  6
SLD-Dashed
370
    18
100
AcDbLine
 10
3.8338934867
 20
-11.6448522082
 30
0.0
 11
3.5608627138
 21
-12.0440251773
 31
0.0
  0
LINE
  5
10E
330
1F
100
AcDbEntity
  8
SK3
  6
SLD-Dashed
370
    18
100
AcDbLine
 10
3.5608627138
 20
-12.0440251773
 30
0.0
 11
3.3896433401
 21
-12.5809656055
 31
0.0
  0
LINE
  5
10F
330
1F
100
AcDbEntity
  8
SK3
  6
SLD-Dashed
370
    18
100
AcDbLine
 10
3.3896433401
 20
-12.5809656055
 30
0.0
 11
3.3329339234
 21
-13.2158510775
 31
0.0
  0
LINE
  5
110
330
1F
100
AcDbEntity
  8
SK3
  6
SLD-Dashed
370
    18
100
AcDbLine
 10
3.3329339234
 20
-13.2158510775
 30
0.0
 11
3.3949403416
 21
-13.9015950424
 31
0.0
  0
LINE
  5
111
330
1F
100
AcDbEntity
  8
SK3
  6
SLD-Dashed
370
    18
100
AcDbLine
 10
3.2
 20
-11.6748484571
 30
0.0
 11
3.2
 21
-17.0506447969
 31
0.0
  0
LINE
  5
112
330
1F
100
AcDbEntity
  8
SK3
  6
SLD-Dashed
370
    18
100
AcDbLine
 10
3.2
 20
-15.0483796974
 30
0.0
 11
3.2
 21
-15.9034435425
 31
0.0
  0
LINE
  5
113
330
1F
100
AcDbEntity
  8
SK3
  6
SLD-Dashed
370
    18
100
AcDbLine
 10
3.4837105329
 20
-13.9015950424
 30
0.0
 11
3.6596015728
 21
-14.5763638826
 31
0.0
  0
LINE
  5
114
330
1F
100
AcDbEntity
  8
SK3
  6
SLD-Dashed
370
    18
100
AcDbLine
 10
3.6596015728
 20
-14.5763638826
 30
0.0
 11
3.9387063052
 21
-15.1964669645
 31
0.0
  0
LINE
  5
115
330
1F
100
AcDbEntity
  8
SK3
  6
SLD-Dashed
370
    18
100
AcDbLine
 10
3.9387063052
 20
-15.1964669645
 30
0.0
 11
4.2984133244
 21
-15.711667224
 31
0.0
  0
LINE
  5
116
330
1F
100
AcDbEntity
  8
SK3
  6
SLD-Dashed
370
    18
100
AcDbLine
 10
4.2984133244
 20
-15.711667224
 30
0.0
 11
4.7095813072
 21
-16.0802262004
 31
0.0
  0
LINE
  5
117
330
1F
100
AcDbEntity
  8
SK3
  6
SLD-Dashed
370
    18
100
AcDbLine
 10
4.7095813072
 20
-16.0802262004
 30
0.0
 11
5.1388998687
 21
-16.2722854371
 31
0.0
  0
LINE
  5
118
330
1F
100
AcDbEntity
  8
SK3
  6
SLD-Dashed
370
    18
100
AcDbLine
 10
5.1388998687
 20
-16.2722854371
 30
0.0
 11
5.5515881725
 21
-16.2722854371
 31
0.0
  0
LINE
  5
119
330
1F
100
AcDbEntity
  8
SK3
  6
SLD-Dashed
370
    18
100
AcDbLine
 10
5.5515881725
 20
-16.2722854371
 30
0.0
 11
5.9142126665
 21
-16.0802262004
 31
0.0
  0
LINE
  5
11A
330
1F
100
AcDbEntity
  8
SK3
  6
SLD-Dashed
370
    18
100
AcDbLine
 10
5.9142126665
 20
-16.0802262004
 30
0.0
 11
6.1973956708
 21
-15.711667224
 31
0.0
  0
LINE
  5
11B
330
1F
100
AcDbEntity
  8
SK3
  6
SLD-Dashed
370
    18
100
AcDbLine
 10
6.1973956708
 20
-15.711667224
 30
0.0
 11
6.3781953826
 21
-15.1964669645
 31
0.0
  0
LINE
  5
11C
330
1F
100
AcDbEntity
  8
SK3
  6
SLD-Dashed
370
    18
100
AcDbLine
 10
6.3781953826
 20
-15.1964669645
 30
0.0
 11
6.4419644844
 21
-14.5763638826
 31
0.0
  0
LINE
  5
11D
330
1F
100
AcDbEntity
  8
SK3
  6
SLD-Dashed
370
    18
100
AcDbLine
 10
6.4419644844
 20
-14.5763638826
 30
0.0
 11
6.3835367829
 21
-13.9015950424
 31
0.0
  0
LINE
  5
11E
330
1F
100
AcDbEntity
  8
SK3
  6
SLD-Dashed
370
    18
100
AcDbLine
 10
6.3835367829
 20
-13.9015950424
 30
0.0
 11
6.207645743
 21
-13.2268262022
 31
0.0
  0
LINE
  5
11F
330
1F
100
AcDbEntity
  8
SK3
  6
SLD-Dashed
370
    18
100
AcDbLine
 10
6.207645743
 20
-13.2268262022
 30
0.0
 11
5.9285410107
 21
-12.6067231204
 31
0.0
  0
LINE
  5
120
330
1F
100
AcDbEntity
  8
SK3
  6
SLD-Dashed
370
    18
100
AcDbLine
 10
5.9285410107
 20
-12.6067231204
 30
0.0
 11
5.5688339914
 21
-12.0915228608
 31
0.0
  0
LINE
  5
121
330
1F
100
AcDbEntity
  8
SK3
  6
SLD-Dashed
370
    18
100
AcDbLine
 10
5.5688339914
 20
-12.0915228608
 30
0.0
 11
5.1576660087
 21
-11.7229638844
 31
0.0
  0
LINE
  5
122
330
1F
100
AcDbEntity
  8
SK3
  6
SLD-Dashed
370
    18
100
AcDbLine
 10
5.1576660087
 20
-11.7229638844
 30
0.0
 11
4.7283474471
 21
-11.5309046477
 31
0.0
  0
LINE
  5
123
330
1F
100
AcDbEntity
  8
SK3
  6
SLD-Dashed
370
    18
100
AcDbLine
 10
4.7283474471
 20
-11.5309046477
 30
0.0
 11
4.3156591434
 21
-11.5309046477
 31
0.0
  0
LINE
  5
124
330
1F
100
AcDbEntity
  8
SK3
  6
SLD-Dashed
370
    18
100
AcDbLine
 10
4.3156591434
 20
-11.5309046477
 30
0.0
 11
3.9530346494
 21
-11.7229638844
 31
0.0
  0
LINE
  5
125
330
1F
100
AcDbEntity
  8
SK3
  6
SLD-Dashed
370
    18
100
AcDbLine
 10
3.9530346494
 20
-11.7229638844
 30
0.0
 11
3.6698516451
 21
-12.0915228608
 31
0.0
  0
LINE
  5
126
330
1F
100
AcDbEntity
  8
SK3
  6
SLD-Dashed
370
    18
100
AcDbLine
 10
3.6698516451
 20
-12.0915228608
 30
0.0
 11
3.4890519333
 21
-12.6067231204
 31
0.0
  0
LINE
  5
127
330
1F
100
AcDbEntity
  8
SK3
  6
SLD-Dashed
370
    18
100
AcDbLine
 10
3.4890519333
 20
-12.6067231204
 30
0.0
 11
3.4252828315
 21
-13.2268262022
 31
0.0
  0
LINE
  5
128
330
1F
100
AcDbEntity
  8
SK3
  6
SLD-Dashed
370
    18
100
AcDbLine
 10
3.4252828315
 20
-13.2268262022
 30
0.0
 11
3.4837105329
 21
-13.9015950424
 31
0.0
  0
LINE
  5
129
330
1F
100
AcDbEntity
  8
SK3
  6
SLD-Dashed
370
    18
100
AcDbLine
 10
14.2794578574
 20
-11.0168048658
 30
0.0
 11
14.4553488973
 21
-11.691573706
 31
0.0
  0
LINE
  5
12A
330
1F
100
AcDbEntity
  8
SK3
  6
SLD-Dashed
370
    18
100
AcDbLine
 10
14.4553488973
 20
-11.691573706
 30
0.0
 11
14.7344536296
 21
-12.3116767878
 31
0.0
  0
LINE
  5
12B
330
1F
100
AcDbEntity
  8
SK3
  6
SLD-Dashed
370
    18
100
AcDbLine
 10
14.7344536296
 20
-12.3116767878
 30
0.0
 11
15.0941606488
 21
-12.8268770474
 31
0.0
  0
LINE
  5
12C
330
1F
100
AcDbEntity
  8
SK3
  6
SLD-Dashed
370
    18
100
AcDbLine
 10
15.0941606488
 20
-12.8268770474
 30
0.0
 11
15.5053286316
 21
-13.1954360238
 31
0.0
  0
LINE
  5
12D
330
1F
100
AcDbEntity
  8
SK3
  6
SLD-Dashed
370
    18
100
AcDbLine
 10
15.5053286316
 20
-13.1954360238
 30
0.0
 11
15.9346471931
 21
-13.3874952605
 31
0.0
  0
LINE
  5
12E
330
1F
100
AcDbEntity
  8
SK3
  6
SLD-Dashed
370
    18
100
AcDbLine
 10
15.9346471931
 20
-13.3874952605
 30
0.0
 11
16.3473354969
 21
-13.3874952605
 31
0.0
  0
LINE
  5
12F
330
1F
100
AcDbEntity
  8
SK3
  6
SLD-Dashed
370
    18
100
AcDbLine
 10
16.3473354969
 20
-13.3874952605
 30
0.0
 11
16.7099599909
 21
-13.1954360238
 31
0.0
  0
LINE
  5
130
330
1F
100
AcDbEntity
  8
SK3
  6
SLD-Dashed
370
    18
100
AcDbLine
 10
16.7099599909
 20
-13.1954360238
 30
0.0
 11
16.9931429952
 21
-12.8268770474
 31
0.0
  0
LINE
  5
131
330
1F
100
AcDbEntity
  8
SK3
  6
SLD-Dashed
370
    18
100
AcDbLine
 10
16.9931429952
 20
-12.8268770474
 30
0.0
 11
17.173942707
 21
-12.3116767878
 31
0.0
  0
LINE
  5
132
330
1F
100
AcDbEntity
  8
SK3
  6
SLD-Dashed
370
    18
100
AcDbLine
 10
17.173942707
 20
-12.3116767878
 30
0.0
 11
17.2377118088
 21
-11.691573706
 31
0.0
  0
LINE
  5
133
330
1F
100
AcDbEntity
  8
SK3
  6
SLD-Dashed
370
    18
100
AcDbLine
 10
17.2377118088
 20
-11.691573706
 30
0.0
 11
17.1792841073
 21
-11.0168048658
 31
0.0
  0
LINE
  5
134
330
1F
100
AcDbEntity
  8
SK3
  6
SLD-Dashed
370
    18
100
AcDbLine
 10
17.1792841073
 20
-11.0168048658
 30
0.0
 11
17.0033930674
 21
-10.3420360255
 31
0.0
  0
LINE
  5
135
330
1F
100
AcDbEntity
  8
SK3
  6
SLD-Dashed
370
    18
100
AcDbLine
 10
17.0033930674
 20
-10.3420360255
 30
0.0
 11
16.7242883351
 21
-9.7219329437
 31
0.0
  0
LINE
  5
136
330
1F
100
AcDbEntity
  8
SK3
  6
SLD-Dashed
370
    18
100
AcDbLine
 10
16.7242883351
 20
-9.7219329437
 30
0.0
 11
16.3645813158
 21
-9.2067326842
 31
0.0
  0
LINE
  5
137
330
1F
100
AcDbEntity
  8
SK3
  6
SLD-Dashed
370
    18
100
AcDbLine
 10
16.3645813158
 20
-9.2067326842
 30
0.0
 11
15.9534133331
 21
-8.8381737078
 31
0.0
  0
LINE
  5
138
330
1F
100
AcDbEntity
  8
SK3
  6
SLD-Dashed
370
    18
100
AcDbLine
 10
15.9534133331
 20
-8.8381737078
 30
0.0
 11
15.5240947716
 21
-8.6461144711
 31
0.0
  0
LINE
  5
139
330
1F
100
AcDbEntity
  8
SK3
  6
SLD-Dashed
370
    18
100
AcDbLine
 10
15.5240947716
 20
-8.6461144711
 30
0.0
 11
15.1114064678
 21
-8.6461144711
 31
0.0
  0
LINE
  5
13A
330
1F
100
AcDbEntity
  8
SK3
  6
SLD-Dashed
370
    18
100
AcDbLine
 10
15.1114064678
 20
-8.6461144711
 30
0.0
 11
14.7487819738
 21
-8.8381737078
 31
0.0
  0
LINE
  5
13B
330
1F
100
AcDbEntity
  8
SK3
  6
SLD-Dashed
370
    18
100
AcDbLine
 10
14.7487819738
 20
-8.8381737078
 30
0.0
 11
14.4655989695
 21
-9.2067326842
 31
0.0
  0
LINE
  5
13C
330
1F
100
AcDbEntity
  8
SK3
  6
SLD-Dashed
370
    18
100
AcDbLine
 10
14.4655989695
 20
-9.2067326842
 30
0.0
 11
14.2847992577
 21
-9.7219329437
 31
0.0
  0
LINE
  5
13D
330
1F
100
AcDbEntity
  8
SK3
  6
SLD-Dashed
370
    18
100
AcDbLine
 10
14.2847992577
 20
-9.7219329437
 30
0.0
 11
14.2210301559
 21
-10.3420360255
 31
0.0
  0
LINE
  5
13E
330
1F
100
AcDbEntity
  8
SK3
  6
SLD-Dashed
370
    18
100
AcDbLine
 10
14.2210301559
 20
-10.3420360255
 30
0.0
 11
14.2794578574
 21
-11.0168048658
 31
0.0
  0
LINE
  5
13F
330
1F
100
AcDbEntity
  8
SK3
  6
SLD-Dashed
370
    18
100
AcDbLine
 10
11.125
 20
-12.5246373053
 30
0.0
 11
10.5606667635
 21
-12.618143464
 31
0.0
  0
LINE
  5
140
330
1F
100
AcDbEntity
  8
SK3
  6
SLD-Dashed
370
    18
100
AcDbLine
 10
10.5606667635
 20
-12.618143464
 30
0.0
 11
10.064400444
 21
-12.8873837174
 31
0.0
  0
LINE
  5
141
330
1F
100
AcDbEntity
  8
SK3
  6
SLD-Dashed
370
    18
100
AcDbLine
 10
10.064400444
 20
-12.8873837174
 30
0.0
 11
9.6960580838
 21
-13.2998837174
 31
0.0
  0
LINE
  5
142
330
1F
100
AcDbEntity
  8
SK3
  6
SLD-Dashed
370
    18
100
AcDbLine
 10
9.6960580838
 20
-13.2998837174
 30
0.0
 11
9.5000672075
 21
-13.8058898762
 31
0.0
  0
LINE
  5
143
330
1F
100
AcDbEntity
  8
SK3
  6
SLD-Dashed
370
    18
100
AcDbLine
 10
9.5000672075
 20
-13.8058898762
 30
0.0
 11
9.5000672075
 21
-14.344370383
 31
0.0
  0
LINE
  5
144
330
1F
100
AcDbEntity
  8
SK3
  6
SLD-Dashed
370
    18
100
AcDbLine
 10
9.5000672075
 20
-14.344370383
 30
0.0
 11
9.6960580838
 21
-14.8503765417
 31
0.0
  0
LINE
  5
145
330
1F
100
AcDbEntity
  8
SK3
  6
SLD-Dashed
370
    18
100
AcDbLine
 10
9.6960580838
 20
-14.8503765417
 30
0.0
 11
10.064400444
 21
-15.2628765417
 31
0.0
  0
LINE
  5
146
330
1F
100
AcDbEntity
  8
SK3
  6
SLD-Dashed
370
    18
100
AcDbLine
 10
10.064400444
 20
-15.2628765417
 30
0.0
 11
10.5606667635
 21
-15.5321167952
 31
0.0
  0
LINE
  5
147
330
1F
100
AcDbEntity
  8
SK3
  6
SLD-Dashed
370
    18
100
AcDbLine
 10
10.5606667635
 20
-15.5321167952
 30
0.0
 11
11.125
 21
-15.6256229539
 31
0.0
  0
LINE
  5
148
330
1F
100
AcDbEntity
  8
SK3
  6
SLD-Dashed
370
    18
100
AcDbLine
 10
11.125
 20
-15.6256229539
 30
0.0
 11
11.6893332365
 21
-15.5321167952
 31
0.0
  0
LINE
  5
149
330
1F
100
AcDbEntity
  8
SK3
  6
SLD-Dashed
370
    18
100
AcDbLine
 10
11.6893332365
 20
-15.5321167952
 30
0.0
 11
12.185599556
 21
-15.2628765417
 31
0.0
  0
LINE
  5
14A
330
1F
100
AcDbEntity
  8
SK3
  6
SLD-Dashed
370
    18
100
AcDbLine
 10
12.185599556
 20
-15.2628765417
 30
0.0
 11
12.5539419162
 21
-14.8503765417
 31
0.0
  0
LINE
  5
14B
330
1F
100
AcDbEntity
  8
SK3
  6
SLD-Dashed
370
    18
100
AcDbLine
 10
12.5539419162
 20
-14.8503765417
 30
0.0
 11
12.7499327925
 21
-14.344370383
 31
0.0
  0
LINE
  5
14C
330
1F
100
AcDbEntity
  8
SK3
  6
SLD-Dashed
370
    18
100
AcDbLine
 10
12.7499327925
 20
-14.344370383
 30
0.0
 11
12.7499327925
 21
-13.8058898762
 31
0.0
  0
LINE
  5
14D
330
1F
100
AcDbEntity
  8
SK3
  6
SLD-Dashed
370
    18
100
AcDbLine
 10
12.7499327925
 20
-13.8058898762
 30
0.0
 11
12.5539419162
 21
-13.2998837174
 31
0.0
  0
LINE
  5
14E
330
1F
100
AcDbEntity
  8
SK3
  6
SLD-Dashed
370
    18
100
AcDbLine
 10
12.5539419162
 20
-13.2998837174
 30
0.0
 11
12.185599556
 21
-12.8873837174
 31
0.0
  0
LINE
  5
14F
330
1F
100
AcDbEntity
  8
SK3
  6
SLD-Dashed
370
    18
100
AcDbLine
 10
12.185599556
 20
-12.8873837174
 30
0.0
 11
11.6893332365
 21
-12.618143464
 31
0.0
  0
LINE
  5
150
330
1F
100
AcDbEntity
  8
SK3
  6
SLD-Dashed
370
    18
100
AcDbLine
 10
11.6893332365
 20
-12.618143464
 30
0.0
 11
11.125
 21
-12.5246373053
 31
0.0
  0
LINE
  5
151
330
1F
100
AcDbEntity
  8
1
  6
SLD-Dashed
370
    18
100
AcDbLine
 10
15.8741110355
 20
-37.5
 30
0.0
 11
26.5457985879
 21
-37.5
 31
0.0
  0
LINE
  5
152
330
1F
100
AcDbEntity
  8
SK3
  6
SLD-Dashed
370
    18
100
AcDbLine
 10
19.8569775484
 20
-37.5
 30
0.0
 11
15.8745527091
 21
-37.5
 31
0.0
  0
LINE
  5
153
330
1F
100
AcDbEntity
  8
SK3
  6
SLD-Dashed
370
    18
100
AcDbLine
 10
3.2
 20
35.3
 30
0.0
 11
3.2
 21
35.425
 31
0.0
  0
LINE
  5
154
330
1F
100
AcDbEntity
  8
SK3
  6
SLD-Dashed
370
    18
100
AcDbLine
 10
-99.85
 20
12.505
 30
0.0
 11
-99.85
 21
-12.505
 31
0.0
  0
LINE
  5
155
330
1F
100
AcDbEntity
  8
SK3
  6
SLD-Dashed
370
    18
100
AcDbLine
 10
-101.6
 20
13.5153629711
 30
0.0
 11
-101.6
 21
-13.5153629711
 31
0.0
  0
LINE
  5
156
330
1F
100
AcDbEntity
  8
1
  6
SLD-Dashed
370
    18
100
AcDbLine
 10
13.015
 20
-44.6143246819
 30
0.0
 11
13.015
 21
-44.4145527952
 31
0.0
  0
LINE
  5
157
330
1F
100
AcDbEntity
  8
1
  6
SLD-Dashed
370
    18
100
AcDbLine
 10
9.185
 20
-44.4145527952
 30
0.0
 11
9.185
 21
-44.6143246819
 31
0.0
  0
LINE
  5
158
330
1F
100
AcDbEntity
  8
1
  6
SLD-Dashed
370
    18
100
AcDbLine
 10
13.015
 20
44.6143246819
 30
0.0
 11
13.015
 21
44.4145527952
 31
0.0
  0
LINE
  5
159
330
1F
100
AcDbEntity
  8
1
  6
SLD-Dashed
370
    18
100
AcDbLine
 10
9.185
 20
44.4145527952
 30
0.0
 11
9.185
 21
44.6143246819
 31
0.0
  0
LINE
  5
15A
330
1F
100
AcDbEntity
  8
SK3
  6
SLD-Dashed
370
    18
100
AcDbLine
 10
17.994260649
 20
-37.5
 30
0.0
 11
3.7
 21
-37.5
 31
0.0
  0
LINE
  5
15B
330
1F
100
AcDbEntity
  8
SK3
  6
SLD-Dashed
370
    18
100
AcDbLine
 10
20.3
 20
35.3
 30
0.0
 11
32.7
 21
35.3
 31
0.0
  0
LINE
  5
15C
330
1F
100
AcDbEntity
  8
SK3
  6
SLD-Dashed
370
    18
100
AcDbLine
 10
3.5407342411
 20
35.3
 30
0.0
 11
20.3
 21
35.3
 31
0.0
  0
LINE
  5
15D
330
1F
100
AcDbEntity
  8
SK3
  6
SLD-Dashed
370
    18
100
AcDbLine
 10
-92.85
 20
12.875
 30
0.0
 11
-92.85
 21
-12.875
 31
0.0
  0
LINE
  5
15E
330
1F
100
AcDbEntity
  8
SK3
  6
SLD-Dashed
370
    18
100
AcDbLine
 10
-93.4908587988
 20
12.505
 30
0.0
 11
-93.4908587988
 21
-12.505
 31
0.0
  0
LINE
  5
15F
330
1F
100
AcDbEntity
  8
SK3
  6
SLD-Dashed
370
    18
100
AcDbLine
 10
-89.85
 20
12.875
 30
0.0
 11
-89.85
 21
-12.875
 31
0.0
  0
LINE
  5
160
330
1F
100
AcDbEntity
  8
SK3
  6
SLD-Dashed
370
    18
100
AcDbLine
 10
-88.4787931107
 20
10.5
 30
0.0
 11
-88.4787931107
 21
-10.5
 31
0.0
  0
LINE
  5
161
330
1F
100
AcDbEntity
  8
SK3
  6
SLD-Dashed
370
    18
100
AcDbLine
 10
15.8745527091
 20
-37.5
 30
0.0
 11
17.994260649
 21
-37.5
 31
0.0
  0
LINE
  5
162
330
1F
100
AcDbEntity
  8
SK3
  6
SLD-Dashed
370
    18
100
AcDbLine
 10
26.5457985879
 20
-37.5
 30
0.0
 11
32.7
 21
-37.5
 31
0.0
  0
LINE
  5
163
330
1F
100
AcDbEntity
  8
SK3
  6
SLD-Dashed
370
    18
100
AcDbLine
 10
80.4
 20
10.5
 30
0.0
 11
80.4
 21
-10.5
 31
0.0
  0
LINE
  5
164
330
1F
100
AcDbEntity
  8
SK3
  6
SLD-Dashed
370
    18
100
AcDbLine
 10
82.5030121666
 20
-7.0
 30
0.0
 11
82.5030121666
 21
7.0
 31
0.0
  0
LINE
  5
165
330
1F
100
AcDbEntity
  8
SK3
  6
SLD-Dashed
370
    18
100
AcDbLine
 10
124.0
 20
10.4852813742
 30
0.0
 11
124.0
 21
6.4852813742
 31
0.0
  0
LINE
  5
166
330
1F
100
AcDbEntity
  8
SK3
  6
SLD-Dashed
370
    18
100
AcDbLine
 10
84.0
 20
10.4852813742
 30
0.0
 11
84.0
 21
6.4852813742
 31
0.0
  0
LINE
  5
167
330
1F
100
AcDbEntity
  8
SK3
  6
SLD-Dashed
370
    18
100
AcDbLine
 10
124.0
 20
-6.4852813742
 30
0.0
 11
124.0
 21
-10.4852813742
 31
0.0
  0
LINE
  5
168
330
1F
100
AcDbEntity
  8
SK3
  6
SLD-Dashed
370
    18
100
AcDbLine
 10
84.0
 20
-6.4852813742
 30
0.0
 11
84.0
 21
-10.4852813742
 31
0.0
  0
LINE
  5
169
330
1F
100
AcDbEntity
  8
SK3
  6
SLD-Dashed
370
    18
100
AcDbLine
 10
122.0
 20
8.5
 30
0.0
 11
122.0
 21
-8.5
 31
0.0
  0
LINE
  5
16A
330
1F
100
AcDbEntity
  8
SK3
  6
SLD-Dashed
370
    18
100
AcDbLine
 10
124.0
 20
9.6547005384
 30
0.0
 11
124.0
 21
-9.6547005384
 31
0.0
  0
LINE
  5
16B
330
1F
100
AcDbEntity
  8
SK3
  6
SLD-Dashed
370
    18
100
AcDbLine
 10
118.0
 20
8.5
 30
0.0
 11
118.0
 21
-8.5
 31
0.0
  0
LINE
  5
16C
330
1F
100
AcDbEntity
  8
SK3
  6
SLD-Dashed
370
    18
100
AcDbLine
 10
117.0987090715
 20
-7.0
 30
0.0
 11
117.0987090715
 21
7.0
 31
0.0
  0
LINE
  5
16D
330
1F
100
AcDbEntity
  8
SK3
  6
SLD-Dashed
370
    18
100
AcDbLine
 10
6.4000005661
 20
-32.8
 30
0.0
 11
15.8
 21
-32.8
 31
0.0
  0
LINE
  5
16E
330
1F
100
AcDbEntity
  8
SK3
  6
SLD-Dashed
370
    18
100
AcDbLine
 10
6.1
 20
-37.5
 30
0.0
 11
16.1
 21
-37.5
 31
0.0
  0
LINE
  5
16F
330
1F
100
AcDbEntity
  8
SK3
  6
SLD-Dashed
370
    18
100
AcDbLine
 10
124.0
 20
-6.4852813742
 30
0.0
 11
124.0
 21
-10.4852813742
 31
0.0
  0
LINE
  5
170
330
1F
100
AcDbEntity
  8
SK3
  6
SLD-Dashed
370
    18
100
AcDbLine
 10
84.0
 20
-6.4852813742
 30
0.0
 11
84.0
 21
-10.4852813742
 31
0.0
  0
LINE
  5
171
330
1F
100
AcDbEntity
  8
SK3
  6
SLD-Dashed
370
    18
100
AcDbLine
 10
124.0
 20
10.4852813742
 30
0.0
 11
124.0
 21
6.4852813742
 31
0.0
  0
LINE
  5
172
330
1F
100
AcDbEntity
  8
SK3
  6
SLD-Dashed
370
    18
100
AcDbLine
 10
84.0
 20
10.4852813742
 30
0.0
 11
84.0
 21
6.4852813742
 31
0.0
  0
LINE
  5
173
330
1F
100
AcDbEntity
  8
SK3
  6
SLD-Dashed
370
    18
100
AcDbLine
 10
17.994186245
 20
-37.5
 30
0.0
 11
15.8741110355
 21
-37.5
 31
0.0
  0
LINE
  5
174
330
1F
100
AcDbEntity
  8
SK3
  6
SLD-Dashed
370
    18
100
AcDbLine
 10
3.7
 20
-37.5
 30
0.0
 11
17.994186245
 21
-37.5
 31
0.0
  0
LINE
  5
175
330
1F
100
AcDbEntity
  8
SK3
  6
SLD-Dashed
370
    18
100
AcDbLine
 10
20.3
 20
35.3
 30
0.0
 11
3.540624663
 21
35.3
 31
0.0
  0
LINE
  5
176
330
1F
100
AcDbEntity
  8
1
  6
SLD-Dashed
370
    18
100
AcDbLine
 10
9.935
 20
-43.633015023
 30
0.0
 11
12.265
 21
-43.633015023
 31
0.0
  0
LINE
  5
177
330
1F
100
AcDbEntity
  8
1
  6
SLD-Dashed
370
    18
100
AcDbLine
 10
9.935
 20
43.633015023
 30
0.0
 11
12.265
 21
43.633015023
 31
0.0
  0
LINE
  5
178
330
1F
100
AcDbEntity
  8
SK3
  6
SLD-Dashed
370
    18
100
AcDbLine
 10
6.3835367829
 20
13.9015950424
 30
0.0
 11
6.207645743
 21
13.2268262022
 31
0.0
  0
LINE
  5
179
330
1F
100
AcDbEntity
  8
SK3
  6
SLD-Dashed
370
    18
100
AcDbLine
 10
6.207645743
 20
13.2268262022
 30
0.0
 11
5.9285410107
 21
12.6067231204
 31
0.0
  0
LINE
  5
17A
330
1F
100
AcDbEntity
  8
SK3
  6
SLD-Dashed
370
    18
100
AcDbLine
 10
5.9285410107
 20
12.6067231204
 30
0.0
 11
5.5688339914
 21
12.0915228608
 31
0.0
  0
LINE
  5
17B
330
1F
100
AcDbEntity
  8
SK3
  6
SLD-Dashed
370
    18
100
AcDbLine
 10
5.5688339914
 20
12.0915228608
 30
0.0
 11
5.1576660087
 21
11.7229638844
 31
0.0
  0
LINE
  5
17C
330
1F
100
AcDbEntity
  8
SK3
  6
SLD-Dashed
370
    18
100
AcDbLine
 10
5.1576660087
 20
11.7229638844
 30
0.0
 11
4.7283474471
 21
11.5309046477
 31
0.0
  0
LINE
  5
17D
330
1F
100
AcDbEntity
  8
SK3
  6
SLD-Dashed
370
    18
100
AcDbLine
 10
4.7283474471
 20
11.5309046477
 30
0.0
 11
4.3156591434
 21
11.5309046477
 31
0.0
  0
LINE
  5
17E
330
1F
100
AcDbEntity
  8
SK3
  6
SLD-Dashed
370
    18
100
AcDbLine
 10
4.3156591434
 20
11.5309046477
 30
0.0
 11
3.9530346494
 21
11.7229638844
 31
0.0
  0
LINE
  5
17F
330
1F
100
AcDbEntity
  8
SK3
  6
SLD-Dashed
370
    18
100
AcDbLine
 10
3.9530346494
 20
11.7229638844
 30
0.0
 11
3.6698516451
 21
12.0915228608
 31
0.0
  0
LINE
  5
180
330
1F
100
AcDbEntity
  8
SK3
  6
SLD-Dashed
370
    18
100
AcDbLine
 10
3.6698516451
 20
12.0915228608
 30
0.0
 11
3.4890519333
 21
12.6067231204
 31
0.0
  0
LINE
  5
181
330
1F
100
AcDbEntity
  8
SK3
  6
SLD-Dashed
370
    18
100
AcDbLine
 10
3.4890519333
 20
12.6067231204
 30
0.0
 11
3.4252828315
 21
13.2268262022
 31
0.0
  0
LINE
  5
182
330
1F
100
AcDbEntity
  8
SK3
  6
SLD-Dashed
370
    18
100
AcDbLine
 10
3.4252828315
 20
13.2268262022
 30
0.0
 11
3.4837105329
 21
13.9015950424
 31
0.0
  0
LINE
  5
183
330
1F
100
AcDbEntity
  8
SK3
  6
SLD-Dashed
370
    18
100
AcDbLine
 10
3.4837105329
 20
13.9015950424
 30
0.0
 11
3.6596015728
 21
14.5763638826
 31
0.0
  0
LINE
  5
184
330
1F
100
AcDbEntity
  8
SK3
  6
SLD-Dashed
370
    18
100
AcDbLine
 10
3.6596015728
 20
14.5763638826
 30
0.0
 11
3.9387063052
 21
15.1964669645
 31
0.0
  0
LINE
  5
185
330
1F
100
AcDbEntity
  8
SK3
  6
SLD-Dashed
370
    18
100
AcDbLine
 10
3.9387063052
 20
15.1964669645
 30
0.0
 11
4.2984133244
 21
15.711667224
 31
0.0
  0
LINE
  5
186
330
1F
100
AcDbEntity
  8
SK3
  6
SLD-Dashed
370
    18
100
AcDbLine
 10
4.2984133244
 20
15.711667224
 30
0.0
 11
4.7095813072
 21
16.0802262004
 31
0.0
  0
LINE
  5
187
330
1F
100
AcDbEntity
  8
SK3
  6
SLD-Dashed
370
    18
100
AcDbLine
 10
4.7095813072
 20
16.0802262004
 30
0.0
 11
5.1388998687
 21
16.2722854371
 31
0.0
  0
LINE
  5
188
330
1F
100
AcDbEntity
  8
SK3
  6
SLD-Dashed
370
    18
100
AcDbLine
 10
5.1388998687
 20
16.2722854371
 30
0.0
 11
5.5515881725
 21
16.2722854371
 31
0.0
  0
LINE
  5
189
330
1F
100
AcDbEntity
  8
SK3
  6
SLD-Dashed
370
    18
100
AcDbLine
 10
5.5515881725
 20
16.2722854371
 30
0.0
 11
5.9142126665
 21
16.0802262004
 31
0.0
  0
LINE
  5
18A
330
1F
100
AcDbEntity
  8
SK3
  6
SLD-Dashed
370
    18
100
AcDbLine
 10
5.9142126665
 20
16.0802262004
 30
0.0
 11
6.1973956708
 21
15.711667224
 31
0.0
  0
LINE
  5
18B
330
1F
100
AcDbEntity
  8
SK3
  6
SLD-Dashed
370
    18
100
AcDbLine
 10
6.1973956708
 20
15.711667224
 30
0.0
 11
6.3781953826
 21
15.1964669645
 31
0.0
  0
LINE
  5
18C
330
1F
100
AcDbEntity
  8
SK3
  6
SLD-Dashed
370
    18
100
AcDbLine
 10
6.3781953826
 20
15.1964669645
 30
0.0
 11
6.4419644844
 21
14.5763638826
 31
0.0
  0
LINE
  5
18D
330
1F
100
AcDbEntity
  8
SK3
  6
SLD-Dashed
370
    18
100
AcDbLine
 10
6.4419644844
 20
14.5763638826
 30
0.0
 11
6.3835367829
 21
13.9015950424
 31
0.0
  0
LINE
  5
18E
330
1F
100
AcDbEntity
  8
SK3
  6
SLD-Dashed
370
    18
100
AcDbLine
 10
17.1792841073
 20
11.0168048658
 30
0.0
 11
17.0033930674
 21
10.3420360255
 31
0.0
  0
LINE
  5
18F
330
1F
100
AcDbEntity
  8
SK3
  6
SLD-Dashed
370
    18
100
AcDbLine
 10
17.0033930674
 20
10.3420360255
 30
0.0
 11
16.7242883351
 21
9.7219329437
 31
0.0
  0
LINE
  5
190
330
1F
100
AcDbEntity
  8
SK3
  6
SLD-Dashed
370
    18
100
AcDbLine
 10
16.7242883351
 20
9.7219329437
 30
0.0
 11
16.3645813158
 21
9.2067326842
 31
0.0
  0
LINE
  5
191
330
1F
100
AcDbEntity
  8
SK3
  6
SLD-Dashed
370
    18
100
AcDbLine
 10
16.3645813158
 20
9.2067326842
 30
0.0
 11
15.9534133331
 21
8.8381737078
 31
0.0
  0
LINE
  5
192
330
1F
100
AcDbEntity
  8
SK3
  6
SLD-Dashed
370
    18
100
AcDbLine
 10
15.9534133331
 20
8.8381737078
 30
0.0
 11
15.5240947716
 21
8.6461144711
 31
0.0
  0
LINE
  5
193
330
1F
100
AcDbEntity
  8
SK3
  6
SLD-Dashed
370
    18
100
AcDbLine
 10
15.5240947716
 20
8.6461144711
 30
0.0
 11
15.1114064678
 21
8.6461144711
 31
0.0
  0
LINE
  5
194
330
1F
100
AcDbEntity
  8
SK3
  6
SLD-Dashed
370
    18
100
AcDbLine
 10
15.1114064678
 20
8.6461144711
 30
0.0
 11
14.7487819738
 21
8.8381737078
 31
0.0
  0
LINE
  5
195
330
1F
100
AcDbEntity
  8
SK3
  6
SLD-Dashed
370
    18
100
AcDbLine
 10
14.7487819738
 20
8.8381737078
 30
0.0
 11
14.4655989695
 21
9.2067326842
 31
0.0
  0
LINE
  5
196
330
1F
100
AcDbEntity
  8
SK3
  6
SLD-Dashed
370
    18
100
AcDbLine
 10
14.4655989695
 20
9.2067326842
 30
0.0
 11
14.2847992577
 21
9.7219329437
 31
0.0
  0
LINE
  5
197
330
1F
100
AcDbEntity
  8
SK3
  6
SLD-Dashed
370
    18
100
AcDbLine
 10
14.2847992577
 20
9.7219329437
 30
0.0
 11
14.2210301559
 21
10.3420360255
 31
0.0
  0
LINE
  5
198
330
1F
100
AcDbEntity
  8
SK3
  6
SLD-Dashed
370
    18
100
AcDbLine
 10
14.2210301559
 20
10.3420360255
 30
0.0
 11
14.2794578574
 21
11.0168048658
 31
0.0
  0
LINE
  5
199
330
1F
100
AcDbEntity
  8
SK3
  6
SLD-Dashed
370
    18
100
AcDbLine
 10
14.2794578574
 20
11.0168048658
 30
0.0
 11
14.4553488973
 21
11.691573706
 31
0.0
  0
LINE
  5
19A
330
1F
100
AcDbEntity
  8
SK3
  6
SLD-Dashed
370
    18
100
AcDbLine
 10
14.4553488973
 20
11.691573706
 30
0.0
 11
14.7344536296
 21
12.3116767878
 31
0.0
  0
LINE
  5
19B
330
1F
100
AcDbEntity
  8
SK3
  6
SLD-Dashed
370
    18
100
AcDbLine
 10
14.7344536296
 20
12.3116767878
 30
0.0
 11
15.0941606488
 21
12.8268770474
 31
0.0
  0
LINE
  5
19C
330
1F
100
AcDbEntity
  8
SK3
  6
SLD-Dashed
370
    18
100
AcDbLine
 10
15.0941606488
 20
12.8268770474
 30
0.0
 11
15.5053286316
 21
13.1954360237
 31
0.0
  0
LINE
  5
19D
330
1F
100
AcDbEntity
  8
SK3
  6
SLD-Dashed
370
    18
100
AcDbLine
 10
15.5053286316
 20
13.1954360237
 30
0.0
 11
15.9346471931
 21
13.3874952605
 31
0.0
  0
LINE
  5
19E
330
1F
100
AcDbEntity
  8
SK3
  6
SLD-Dashed
370
    18
100
AcDbLine
 10
15.9346471931
 20
13.3874952605
 30
0.0
 11
16.3473354969
 21
13.3874952605
 31
0.0
  0
LINE
  5
19F
330
1F
100
AcDbEntity
  8
SK3
  6
SLD-Dashed
370
    18
100
AcDbLine
 10
16.3473354969
 20
13.3874952605
 30
0.0
 11
16.7099599909
 21
13.1954360237
 31
0.0
  0
LINE
  5
1A0
330
1F
100
AcDbEntity
  8
SK3
  6
SLD-Dashed
370
    18
100
AcDbLine
 10
16.7099599909
 20
13.1954360237
 30
0.0
 11
16.9931429952
 21
12.8268770474
 31
0.0
  0
LINE
  5
1A1
330
1F
100
AcDbEntity
  8
SK3
  6
SLD-Dashed
370
    18
100
AcDbLine
 10
16.9931429952
 20
12.8268770474
 30
0.0
 11
17.173942707
 21
12.3116767878
 31
0.0
  0
LINE
  5
1A2
330
1F
100
AcDbEntity
  8
SK3
  6
SLD-Dashed
370
    18
100
AcDbLine
 10
17.173942707
 20
12.3116767878
 30
0.0
 11
17.2377118088
 21
11.691573706
 31
0.0
  0
LINE
  5
1A3
330
1F
100
AcDbEntity
  8
SK3
  6
SLD-Dashed
370
    18
100
AcDbLine
 10
17.2377118088
 20
11.691573706
 30
0.0
 11
17.1792841073
 21
11.0168048658
 31
0.0
  0
LINE
  5
1A4
330
1F
100
AcDbEntity
  8
SK3
  6
SLD-Dashed
370
    18
100
AcDbLine
 10
7.8668384925
 20
-38.5110779517
 30
0.0
 11
3.95
 21
-38.5110779517
 31
0.0
  0
LINE
  5
1A5
330
1F
100
AcDbEntity
  8
SK3
  6
SLD-Dashed
370
    18
100
AcDbLine
 10
18.3
 20
-38.5110779517
 30
0.0
 11
14.3331615075
 21
-38.5110779517
 31
0.0
  0
LINE
  5
1A6
330
1F
100
AcDbEntity
  8
SK3
  6
SLD-Dashed
370
    18
100
AcDbLine
 10
19.05
 20
-30.35
 30
0.0
 11
19.05
 21
-37.5576639982
 31
0.0
  0
LINE
  5
1A7
330
1F
100
AcDbEntity
  8
SK3
  6
SLD-Dashed
370
    18
100
AcDbLine
 10
13.015
 20
-35.5784410398
 30
0.0
 11
13.015
 21
-35.3276095993
 31
0.0
  0
LINE
  5
1A8
330
1F
100
AcDbEntity
  8
SK3
  6
SLD-Dashed
370
    18
100
AcDbLine
 10
12.265
 20
-34.3398820615
 30
0.0
 11
9.935
 21
-34.3398820615
 31
0.0
  0
LINE
  5
1A9
330
1F
100
AcDbEntity
  8
SK3
  6
SLD-Dashed
370
    18
100
AcDbLine
 10
9.185
 20
-35.3276095993
 30
0.0
 11
9.185
 21
-35.5784410398
 31
0.0
  0
LINE
  5
1AA
330
1F
100
AcDbEntity
  8
SK3
  6
SLD-Dashed
370
    18
100
AcDbLine
 10
3.2
 20
-37.5576639982
 30
0.0
 11
3.2
 21
-30.35
 31
0.0
  0
LINE
  5
1AB
330
1F
100
AcDbEntity
  8
SK3
  6
SLD-Dashed
370
    18
100
AcDbLine
 10
19.05
 20
-29.85
 30
0.0
 11
3.2
 21
-29.85
 31
0.0
  0
LINE
  5
1AC
330
1F
100
AcDbEntity
  8
SK3
  6
SLD-Dashed
370
    18
100
AcDbLine
 10
18.3
 20
-29.85
 30
0.0
 11
14.3331615075
 21
-29.85
 31
0.0
  0
LINE
  5
1AD
330
1F
100
AcDbEntity
  8
SK3
  6
SLD-Dashed
370
    18
100
AcDbLine
 10
7.8668384925
 20
-29.85
 30
0.0
 11
3.95
 21
-29.85
 31
0.0
  0
LINE
  5
1AE
330
1F
100
AcDbEntity
  8
SK3
  6
SLD-Dashed
370
    18
100
AcDbLine
 10
12.265
 20
-29.85
 30
0.0
 11
9.935
 21
-29.85
 31
0.0
  0
LINE
  5
1AF
330
1F
100
AcDbEntity
  8
SK3
  6
SLD-Dashed
370
    18
100
AcDbLine
 10
11.125
 20
15.6673742401
 30
0.0
 11
10.5606667635
 21
15.5738680813
 31
0.0
  0
LINE
  5
1B0
330
1F
100
AcDbEntity
  8
SK3
  6
SLD-Dashed
370
    18
100
AcDbLine
 10
10.5606667635
 20
15.5738680813
 30
0.0
 11
10.064400444
 21
15.3046278279
 31
0.0
  0
LINE
  5
1B1
330
1F
100
AcDbEntity
  8
SK3
  6
SLD-Dashed
370
    18
100
AcDbLine
 10
10.064400444
 20
15.3046278279
 30
0.0
 11
9.6960580838
 21
14.8921278279
 31
0.0
  0
LINE
  5
1B2
330
1F
100
AcDbEntity
  8
SK3
  6
SLD-Dashed
370
    18
100
AcDbLine
 10
9.6960580838
 20
14.8921278279
 30
0.0
 11
9.5000672075
 21
14.3861216692
 31
0.0
  0
LINE
  5
1B3
330
1F
100
AcDbEntity
  8
SK3
  6
SLD-Dashed
370
    18
100
AcDbLine
 10
9.5000672075
 20
14.3861216692
 30
0.0
 11
9.5000672075
 21
13.8476411623
 31
0.0
  0
LINE
  5
1B4
330
1F
100
AcDbEntity
  8
SK3
  6
SLD-Dashed
370
    18
100
AcDbLine
 10
9.5000672075
 20
13.8476411623
 30
0.0
 11
9.6960580838
 21
13.3416350036
 31
0.0
  0
LINE
  5
1B5
330
1F
100
AcDbEntity
  8
SK3
  6
SLD-Dashed
370
    18
100
AcDbLine
 10
9.6960580838
 20
13.3416350036
 30
0.0
 11
10.064400444
 21
12.9291350036
 31
0.0
  0
LINE
  5
1B6
330
1F
100
AcDbEntity
  8
SK3
  6
SLD-Dashed
370
    18
100
AcDbLine
 10
10.064400444
 20
12.9291350036
 30
0.0
 11
10.5606667635
 21
12.6598947502
 31
0.0
  0
LINE
  5
1B7
330
1F
100
AcDbEntity
  8
SK3
  6
SLD-Dashed
370
    18
100
AcDbLine
 10
10.5606667635
 20
12.6598947502
 30
0.0
 11
11.125
 21
12.5663885915
 31
0.0
  0
LINE
  5
1B8
330
1F
100
AcDbEntity
  8
SK3
  6
SLD-Dashed
370
    18
100
AcDbLine
 10
11.125
 20
12.5663885915
 30
0.0
 11
11.6893332365
 21
12.6598947502
 31
0.0
  0
LINE
  5
1B9
330
1F
100
AcDbEntity
  8
SK3
  6
SLD-Dashed
370
    18
100
AcDbLine
 10
11.6893332365
 20
12.6598947502
 30
0.0
 11
12.185599556
 21
12.9291350036
 31
0.0
  0
LINE
  5
1BA
330
1F
100
AcDbEntity
  8
SK3
  6
SLD-Dashed
370
    18
100
AcDbLine
 10
12.185599556
 20
12.9291350036
 30
0.0
 11
12.5539419162
 21
13.3416350036
 31
0.0
  0
LINE
  5
1BB
330
1F
100
AcDbEntity
  8
SK3
  6
SLD-Dashed
370
    18
100
AcDbLine
 10
12.5539419162
 20
13.3416350036
 30
0.0
 11
12.7499327925
 21
13.8476411623
 31
0.0
  0
LINE
  5
1BC
330
1F
100
AcDbEntity
  8
SK3
  6
SLD-Dashed
370
    18
100
AcDbLine
 10
12.7499327925
 20
13.8476411623
 30
0.0
 11
12.7499327925
 21
14.3861216692
 31
0.0
  0
LINE
  5
1BD
330
1F
100
AcDbEntity
  8
SK3
  6
SLD-Dashed
370
    18
100
AcDbLine
 10
12.7499327925
 20
14.3861216692
 30
0.0
 11
12.5539419162
 21
14.8921278279
 31
0.0
  0
LINE
  5
1BE
330
1F
100
AcDbEntity
  8
SK3
  6
SLD-Dashed
370
    18
100
AcDbLine
 10
12.5539419162
 20
14.8921278279
 30
0.0
 11
12.185599556
 21
15.3046278279
 31
0.0
  0
LINE
  5
1BF
330
1F
100
AcDbEntity
  8
SK3
  6
SLD-Dashed
370
    18
100
AcDbLine
 10
12.185599556
 20
15.3046278279
 30
0.0
 11
11.6893332365
 21
15.5738680813
 31
0.0
  0
LINE
  5
1C0
330
1F
100
AcDbEntity
  8
SK3
  6
SLD-Dashed
370
    18
100
AcDbLine
 10
11.6893332365
 20
15.5738680813
 30
0.0
 11
11.125
 21
15.6673742401
 31
0.0
  0
LINE
  5
1C1
330
1F
100
AcDbEntity
  8
SK3
  6
SLD-Dashed
370
    18
100
AcDbLine
 10
6.4723069743
 20
13.9015950424
 30
0.0
 11
6.2961834535
 21
13.2158510775
 31
0.0
  0
LINE
  5
1C2
330
1F
100
AcDbEntity
  8
SK3
  6
SLD-Dashed
370
    18
100
AcDbLine
 10
6.2961834535
 20
13.2158510775
 30
0.0
 11
6.019005106
 21
12.5809656055
 31
0.0
  0
LINE
  5
1C3
330
1F
100
AcDbEntity
  8
SK3
  6
SLD-Dashed
370
    18
100
AcDbLine
 10
6.019005106
 20
12.5809656055
 30
0.0
 11
5.6613289817
 21
12.0440251773
 31
0.0
  0
LINE
  5
1C4
330
1F
100
AcDbEntity
  8
SK3
  6
SLD-Dashed
370
    18
100
AcDbLine
 10
5.6613289817
 20
12.0440251773
 30
0.0
 11
5.2496822827
 21
11.6448522082
 31
0.0
  0
LINE
  5
1C5
330
1F
100
AcDbEntity
  8
SK3
  6
SLD-Dashed
370
    18
100
AcDbLine
 10
5.2496822827
 20
11.6448522082
 30
0.0
 11
4.8145949613
 21
11.4130515312
 31
0.0
  0
LINE
  5
1C6
330
1F
100
AcDbEntity
  8
SK3
  6
SLD-Dashed
370
    18
100
AcDbLine
 10
4.8145949613
 20
11.4130515312
 30
0.0
 11
4.3883354538
 21
11.365814742
 31
0.0
  0
LINE
  5
1C7
330
1F
100
AcDbEntity
  8
SK3
  6
SLD-Dashed
370
    18
100
AcDbLine
 10
4.3883354538
 20
11.365814742
 30
0.0
 11
4.0025174779
 21
11.5066451774
 31
0.0
  0
LINE
  5
1C8
330
1F
100
AcDbEntity
  8
SK3
  6
SLD-Dashed
370
    18
100
AcDbLine
 10
4.0025174779
 20
11.5066451774
 30
0.0
 11
3.6857553878
 21
11.825098088
 31
0.0
  0
LINE
  5
1C9
330
1F
100
AcDbEntity
  8
SK3
  6
SLD-Dashed
370
    18
100
AcDbLine
 10
3.6857553878
 20
11.825098088
 30
0.0
 11
3.4615419788
 21
12.2975552785
 31
0.0
  0
LINE
  5
1CA
330
1F
100
AcDbEntity
  8
SK3
  6
SLD-Dashed
370
    18
100
AcDbLine
 10
3.4615419788
 20
12.2975552785
 30
0.0
 11
3.3465061335
 21
12.8889767602
 31
0.0
  0
LINE
  5
1CB
330
1F
100
AcDbEntity
  8
SK3
  6
SLD-Dashed
370
    18
100
AcDbLine
 10
3.3465061335
 20
12.8889767602
 30
0.0
 11
3.3491795344
 21
13.5554995075
 31
0.0
  0
LINE
  5
1CC
330
1F
100
AcDbEntity
  8
SK3
  6
SLD-Dashed
370
    18
100
AcDbLine
 10
3.3491795344
 20
13.5554995075
 30
0.0
 11
3.4693639077
 21
14.2476905773
 31
0.0
  0
LINE
  5
1CD
330
1F
100
AcDbEntity
  8
SK3
  6
SLD-Dashed
370
    18
100
AcDbLine
 10
3.4693639077
 20
14.2476905773
 30
0.0
 11
3.698145728
 21
14.9142133246
 31
0.0
  0
LINE
  5
1CE
330
1F
100
AcDbEntity
  8
SK3
  6
SLD-Dashed
370
    18
100
AcDbLine
 10
3.698145728
 20
14.9142133246
 30
0.0
 11
4.0185572945
 21
15.5056348064
 31
0.0
  0
LINE
  5
1CF
330
1F
100
AcDbEntity
  8
SK3
  6
SLD-Dashed
370
    18
100
AcDbLine
 10
4.0185572945
 20
15.5056348064
 30
0.0
 11
4.4068351471
 21
15.9780919968
 31
0.0
  0
LINE
  5
1D0
330
1F
100
AcDbEntity
  8
SK3
  6
SLD-Dashed
370
    18
100
AcDbLine
 10
4.4068351471
 20
15.9780919968
 30
0.0
 11
4.8341824935
 21
16.2965449074
 31
0.0
  0
LINE
  5
1D1
330
1F
100
AcDbEntity
  8
SK3
  6
SLD-Dashed
370
    18
100
AcDbLine
 10
4.8341824935
 20
16.2965449074
 30
0.0
 11
5.2689049362
 21
16.4373753428
 31
0.0
  0
LINE
  5
1D2
330
1F
100
AcDbEntity
  8
SK3
  6
SLD-Dashed
370
    18
100
AcDbLine
 10
5.2689049362
 20
16.4373753428
 30
0.0
 11
5.6787611004
 21
16.3901385537
 31
0.0
  0
LINE
  5
1D3
330
1F
100
AcDbEntity
  8
SK3
  6
SLD-Dashed
370
    18
100
AcDbLine
 10
5.6787611004
 20
16.3901385537
 30
0.0
 11
6.0333538292
 21
16.1583378767
 31
0.0
  0
LINE
  5
1D4
330
1F
100
AcDbEntity
  8
SK3
  6
SLD-Dashed
370
    18
100
AcDbLine
 10
6.0333538292
 20
16.1583378767
 30
0.0
 11
6.3063846021
 21
15.7591649075
 31
0.0
  0
LINE
  5
1D5
330
1F
100
AcDbEntity
  8
SK3
  6
SLD-Dashed
370
    18
100
AcDbLine
 10
6.3063846021
 20
15.7591649075
 30
0.0
 11
6.4776039757
 21
15.2222244793
 31
0.0
  0
LINE
  5
1D6
330
1F
100
AcDbEntity
  8
SK3
  6
SLD-Dashed
370
    18
100
AcDbLine
 10
6.4776039757
 20
15.2222244793
 30
0.0
 11
6.5343133925
 21
14.5873390073
 31
0.0
  0
LINE
  5
1D7
330
1F
100
AcDbEntity
  8
SK3
  6
SLD-Dashed
370
    18
100
AcDbLine
 10
6.5343133925
 20
14.5873390073
 30
0.0
 11
6.4723069743
 21
13.9015950424
 31
0.0
  0
LINE
  5
1D8
330
1F
100
AcDbEntity
  8
SK3
  6
SLD-Dashed
370
    18
100
AcDbLine
 10
3.2
 20
11.6748484571
 30
0.0
 11
3.2
 21
17.0506447969
 31
0.0
  0
LINE
  5
1D9
330
1F
100
AcDbEntity
  8
SK3
  6
SLD-Dashed
370
    18
100
AcDbLine
 10
3.2
 20
15.0483796974
 30
0.0
 11
3.2
 21
15.9034435425
 31
0.0
  0
LINE
  5
1DA
330
1F
100
AcDbEntity
  8
SK3
  6
SLD-Dashed
370
    18
100
AcDbLine
 10
3.2
 20
-17.0560709439
 30
0.0
 11
5.6048333499
 21
-16.4134623855
 31
0.0
  0
LINE
  5
1DB
330
1F
100
AcDbEntity
  8
SK3
  6
SLD-Dashed
370
    18
100
AcDbLine
 10
4.2624139659
 20
-11.3897276993
 30
0.0
 11
3.2
 21
-11.6736210955
 31
0.0
  0
LINE
  5
1DC
330
1F
100
AcDbEntity
  8
SK3
  6
SLD-Dashed
370
    18
100
AcDbLine
 10
5.5661097138
 20
-16.2685469619
 30
0.0
 11
16.3618570383
 21
-13.3837567853
 31
0.0
  0
LINE
  5
1DD
330
1F
100
AcDbEntity
  8
SK3
  6
SLD-Dashed
370
    18
100
AcDbLine
 10
15.0968849264
 20
-8.6498529463
 30
0.0
 11
4.301137602
 21
-11.5346431229
 31
0.0
  0
LINE
  5
1DE
330
1F
100
AcDbEntity
  8
SK3
  6
SLD-Dashed
370
    18
100
AcDbLine
 10
12.775
 20
-14.0751301296
 30
0.0
 11
12.775
 21
-12.869488756
 31
0.0
  0
LINE
  5
1DF
330
1F
100
AcDbEntity
  8
SK3
  6
SLD-Dashed
370
    18
100
AcDbLine
 10
9.475
 20
-13.7505293184
 30
0.0
 11
9.475
 21
-14.0751301296
 31
0.0
  0
LINE
  5
1E0
330
1F
100
AcDbEntity
  8
SK3
  6
SLD-Dashed
370
    18
100
AcDbLine
 10
12.775
 20
-10.7436836418
 30
0.0
 11
12.775
 21
-3.5910923016
 31
0.0
  0
LINE
  5
1E1
330
1F
100
AcDbEntity
  8
SK3
  6
SLD-Dashed
370
    18
100
AcDbLine
 10
9.475
 20
-3.5901214152
 30
0.0
 11
9.475
 21
-11.6248275727
 31
0.0
  0
LINE
  5
1E2
330
1F
100
AcDbEntity
  8
SK3
  6
SLD-Dashed
370
    18
100
AcDbLine
 10
-101.6
 20
-13.5153629711
 30
0.0
 11
-99.85
 21
-12.505
 31
0.0
  0
LINE
  5
1E3
330
1F
100
AcDbEntity
  8
SK3
  6
SLD-Dashed
370
    18
100
AcDbLine
 10
-99.85
 20
12.505
 30
0.0
 11
-101.6
 21
13.5153629711
 31
0.0
  0
LINE
  5
1E4
330
1F
100
AcDbEntity
  8
SK3
  6
SLD-Dashed
370
    18
100
AcDbLine
 10
33.2
 20
35.8
 30
0.0
 11
33.2
 21
39.0
 31
0.0
  0
LINE
  5
1E5
330
1F
100
AcDbEntity
  8
SK3
  6
SLD-Dashed
370
    18
100
AcDbLine
 10
-92.85
 20
12.875
 30
0.0
 11
-93.4908587988
 21
12.505
 31
0.0
  0
LINE
  5
1E6
330
1F
100
AcDbEntity
  8
SK3
  6
SLD-Dashed
370
    18
100
AcDbLine
 10
-93.4908587988
 20
-12.505
 30
0.0
 11
-92.85
 21
-12.875
 31
0.0
  0
LINE
  5
1E7
330
1F
100
AcDbEntity
  8
SK3
  6
SLD-Dashed
370
    18
100
AcDbLine
 10
-92.85
 20
-12.875
 30
0.0
 11
-89.85
 21
-12.875
 31
0.0
  0
LINE
  5
1E8
330
1F
100
AcDbEntity
  8
SK3
  6
SLD-Dashed
370
    18
100
AcDbLine
 10
-89.85
 20
12.875
 30
0.0
 11
-92.85
 21
12.875
 31
0.0
  0
LINE
  5
1E9
330
1F
100
AcDbEntity
  8
SK3
  6
SLD-Dashed
370
    18
100
AcDbLine
 10
-89.85
 20
-12.875
 30
0.0
 11
-88.4787931107
 21
-10.5
 31
0.0
  0
LINE
  5
1EA
330
1F
100
AcDbEntity
  8
SK3
  6
SLD-Dashed
370
    18
100
AcDbLine
 10
-88.4787931107
 20
10.5
 30
0.0
 11
-89.85
 21
12.875
 31
0.0
  0
LINE
  5
1EB
330
1F
100
AcDbEntity
  8
SK3
  6
SLD-Dashed
370
    18
100
AcDbLine
 10
-99.85
 20
-12.505
 30
0.0
 11
-93.4908587988
 21
-12.505
 31
0.0
  0
LINE
  5
1EC
330
1F
100
AcDbEntity
  8
SK3
  6
SLD-Dashed
370
    18
100
AcDbLine
 10
-93.4908587988
 20
12.505
 30
0.0
 11
-99.85
 21
12.505
 31
0.0
  0
LINE
  5
1ED
330
1F
100
AcDbEntity
  8
SK3
  6
SLD-Dashed
370
    18
100
AcDbLine
 10
-88.4787931107
 20
-10.5
 30
0.0
 11
80.4
 21
-10.5
 31
0.0
  0
LINE
  5
1EE
330
1F
100
AcDbEntity
  8
SK3
  6
SLD-Dashed
370
    18
100
AcDbLine
 10
80.4
 20
10.5
 30
0.0
 11
-88.4787931107
 21
10.5
 31
0.0
  0
LINE
  5
1EF
330
1F
100
AcDbEntity
  8
SK3
  6
SLD-Dashed
370
    18
100
AcDbLine
 10
80.4
 20
-10.5
 30
0.0
 11
82.5030121666
 21
-7.0
 31
0.0
  0
LINE
  5
1F0
330
1F
100
AcDbEntity
  8
SK3
  6
SLD-Dashed
370
    18
100
AcDbLine
 10
82.5030121666
 20
7.0
 30
0.0
 11
80.4
 21
10.5
 31
0.0
  0
LINE
  5
1F1
330
1F
100
AcDbEntity
  8
SK3
  6
SLD-Dashed
370
    18
100
AcDbLine
 10
124.0
 20
10.4852813742
 30
0.0
 11
88.4142135624
 21
10.4852813742
 31
0.0
  0
LINE
  5
1F2
330
1F
100
AcDbEntity
  8
SK3
  6
SLD-Dashed
370
    18
100
AcDbLine
 10
88.4142135624
 20
6.4852813742
 30
0.0
 11
124.0
 21
6.4852813742
 31
0.0
  0
LINE
  5
1F3
330
1F
100
AcDbEntity
  8
SK3
  6
SLD-Dashed
370
    18
100
AcDbLine
 10
85.5857864376
 20
10.4852813742
 30
0.0
 11
84.0
 21
10.4852813742
 31
0.0
  0
LINE
  5
1F4
330
1F
100
AcDbEntity
  8
SK3
  6
SLD-Dashed
370
    18
100
AcDbLine
 10
84.0
 20
6.4852813742
 30
0.0
 11
85.5857864376
 21
6.4852813742
 31
0.0
  0
LINE
  5
1F5
330
1F
100
AcDbEntity
  8
SK3
  6
SLD-Dashed
370
    18
100
AcDbLine
 10
124.0
 20
-6.4852813742
 30
0.0
 11
88.4142135624
 21
-6.4852813742
 31
0.0
  0
LINE
  5
1F6
330
1F
100
AcDbEntity
  8
SK3
  6
SLD-Dashed
370
    18
100
AcDbLine
 10
88.4142135624
 20
-10.4852813742
 30
0.0
 11
124.0
 21
-10.4852813742
 31
0.0
  0
LINE
  5
1F7
330
1F
100
AcDbEntity
  8
SK3
  6
SLD-Dashed
370
    18
100
AcDbLine
 10
84.0
 20
10.4852813742
 30
0.0
 11
82.7982787619
 21
8.4852813742
 31
0.0
  0
LINE
  5
1F8
330
1F
100
AcDbEntity
  8
SK3
  6
SLD-Dashed
370
    18
100
AcDbLine
 10
82.7982787619
 20
8.4852813742
 30
0.0
 11
84.0
 21
6.4852813742
 31
0.0
  0
LINE
  5
1F9
330
1F
100
AcDbEntity
  8
SK3
  6
SLD-Dashed
370
    18
100
AcDbLine
 10
84.0
 20
-6.4852813742
 30
0.0
 11
82.7982787619
 21
-8.4852813742
 31
0.0
  0
LINE
  5
1FA
330
1F
100
AcDbEntity
  8
SK3
  6
SLD-Dashed
370
    18
100
AcDbLine
 10
82.7982787619
 20
-8.4852813742
 30
0.0
 11
84.0
 21
-10.4852813742
 31
0.0
  0
LINE
  5
1FB
330
1F
100
AcDbEntity
  8
SK3
  6
SLD-Dashed
370
    18
100
AcDbLine
 10
85.5857864376
 20
-6.4852813742
 30
0.0
 11
84.0
 21
-6.4852813742
 31
0.0
  0
LINE
  5
1FC
330
1F
100
AcDbEntity
  8
SK3
  6
SLD-Dashed
370
    18
100
AcDbLine
 10
84.0
 20
-10.4852813742
 30
0.0
 11
85.5857864376
 21
-10.4852813742
 31
0.0
  0
LINE
  5
1FD
330
1F
100
AcDbEntity
  8
SK3
  6
SLD-Dashed
370
    18
100
AcDbLine
 10
124.0
 20
9.6547005384
 30
0.0
 11
122.0
 21
8.5
 31
0.0
  0
LINE
  5
1FE
330
1F
100
AcDbEntity
  8
SK3
  6
SLD-Dashed
370
    18
100
AcDbLine
 10
122.0
 20
-8.5
 30
0.0
 11
124.0
 21
-9.6547005384
 31
0.0
  0
LINE
  5
1FF
330
1F
100
AcDbEntity
  8
SK3
  6
SLD-Dashed
370
    18
100
AcDbLine
 10
33.2
 20
-39.0
 30
0.0
 11
33.2
 21
-38.0
 31
0.0
  0
LINE
  5
200
330
1F
100
AcDbEntity
  8
SK3
  6
SLD-Dashed
370
    18
100
AcDbLine
 10
118.0
 20
8.5
 30
0.0
 11
117.0987090715
 21
7.0
 31
0.0
  0
LINE
  5
201
330
1F
100
AcDbEntity
  8
SK3
  6
SLD-Dashed
370
    18
100
AcDbLine
 10
117.0987090715
 20
-7.0
 30
0.0
 11
118.0
 21
-8.5
 31
0.0
  0
LINE
  5
202
330
1F
100
AcDbEntity
  8
SK3
  6
SLD-Dashed
370
    18
100
AcDbLine
 10
122.0
 20
8.5
 30
0.0
 11
118.0
 21
8.5
 31
0.0
  0
LINE
  5
203
330
1F
100
AcDbEntity
  8
SK3
  6
SLD-Dashed
370
    18
100
AcDbLine
 10
118.0
 20
-8.5
 30
0.0
 11
122.0
 21
-8.5
 31
0.0
  0
LINE
  5
204
330
1F
100
AcDbEntity
  8
SK3
  6
SLD-Dashed
370
    18
100
AcDbLine
 10
117.0987090715
 20
7.0
 30
0.0
 11
82.5030121666
 21
7.0
 31
0.0
  0
LINE
  5
205
330
1F
100
AcDbEntity
  8
SK3
  6
SLD-Dashed
370
    18
100
AcDbLine
 10
82.5030121666
 20
-7.0
 30
0.0
 11
117.0987090715
 21
-7.0
 31
0.0
  0
LINE
  5
206
330
1F
100
AcDbEntity
  8
SK3
  6
SLD-Dashed
370
    18
100
AcDbLine
 10
16.1
 20
-37.5
 30
0.0
 11
16.1
 21
-33.1
 31
0.0
  0
LINE
  5
207
330
1F
100
AcDbEntity
  8
SK3
  6
SLD-Dashed
370
    18
100
AcDbLine
 10
6.1
 20
-33.1
 30
0.0
 11
6.1
 21
-37.5
 31
0.0
  0
LINE
  5
208
330
1F
100
AcDbEntity
  8
SK3
  6
SLD-Dashed
370
    18
100
AcDbLine
 10
124.0
 20
-6.4852813742
 30
0.0
 11
88.4142135624
 21
-6.4852813742
 31
0.0
  0
LINE
  5
209
330
1F
100
AcDbEntity
  8
SK3
  6
SLD-Dashed
370
    18
100
AcDbLine
 10
88.4142135624
 20
-10.4852813742
 30
0.0
 11
124.0
 21
-10.4852813742
 31
0.0
  0
LINE
  5
20A
330
1F
100
AcDbEntity
  8
SK3
  6
SLD-Dashed
370
    18
100
AcDbLine
 10
84.0
 20
-6.4852813742
 30
0.0
 11
82.7982787619
 21
-8.4852813742
 31
0.0
  0
LINE
  5
20B
330
1F
100
AcDbEntity
  8
SK3
  6
SLD-Dashed
370
    18
100
AcDbLine
 10
82.7982787619
 20
-8.4852813742
 30
0.0
 11
84.0
 21
-10.4852813742
 31
0.0
  0
LINE
  5
20C
330
1F
100
AcDbEntity
  8
SK3
  6
SLD-Dashed
370
    18
100
AcDbLine
 10
85.5857864376
 20
-6.4852813742
 30
0.0
 11
84.0
 21
-6.4852813742
 31
0.0
  0
LINE
  5
20D
330
1F
100
AcDbEntity
  8
SK3
  6
SLD-Dashed
370
    18
100
AcDbLine
 10
84.0
 20
-10.4852813742
 30
0.0
 11
85.5857864376
 21
-10.4852813742
 31
0.0
  0
LINE
  5
20E
330
1F
100
AcDbEntity
  8
SK3
  6
SLD-Dashed
370
    18
100
AcDbLine
 10
124.0
 20
10.4852813742
 30
0.0
 11
88.4142135624
 21
10.4852813742
 31
0.0
  0
LINE
  5
20F
330
1F
100
AcDbEntity
  8
SK3
  6
SLD-Dashed
370
    18
100
AcDbLine
 10
88.4142135624
 20
6.4852813742
 30
0.0
 11
124.0
 21
6.4852813742
 31
0.0
  0
LINE
  5
210
330
1F
100
AcDbEntity
  8
SK3
  6
SLD-Dashed
370
    18
100
AcDbLine
 10
85.5857864376
 20
10.4852813742
 30
0.0
 11
84.0
 21
10.4852813742
 31
0.0
  0
LINE
  5
211
330
1F
100
AcDbEntity
  8
SK3
  6
SLD-Dashed
370
    18
100
AcDbLine
 10
84.0
 20
6.4852813742
 30
0.0
 11
85.5857864376
 21
6.4852813742
 31
0.0
  0
LINE
  5
212
330
1F
100
AcDbEntity
  8
SK3
  6
SLD-Dashed
370
    18
100
AcDbLine
 10
84.0
 20
10.4852813742
 30
0.0
 11
82.7982787619
 21
8.4852813742
 31
0.0
  0
LINE
  5
213
330
1F
100
AcDbEntity
  8
SK3
  6
SLD-Dashed
370
    18
100
AcDbLine
 10
82.7982787619
 20
8.4852813742
 30
0.0
 11
84.0
 21
6.4852813742
 31
0.0
  0
LINE
  5
214
330
1F
100
AcDbEntity
  8
SK3
  6
SLD-Dashed
370
    18
100
AcDbLine
 10
12.775
 20
3.5901214152
 30
0.0
 11
12.775
 21
10.7474202897
 31
0.0
  0
LINE
  5
215
330
1F
100
AcDbEntity
  8
SK3
  6
SLD-Dashed
370
    18
100
AcDbLine
 10
9.475
 20
11.6251587266
 30
0.0
 11
9.475
 21
3.5910923016
 31
0.0
  0
LINE
  5
216
330
1F
100
AcDbEntity
  8
SK3
  6
SLD-Dashed
370
    18
100
AcDbLine
 10
4.301137602
 20
11.5346431229
 30
0.0
 11
15.0968849264
 21
8.6498529463
 31
0.0
  0
LINE
  5
217
330
1F
100
AcDbEntity
  8
SK3
  6
SLD-Dashed
370
    18
100
AcDbLine
 10
16.3618570383
 20
13.3837567853
 30
0.0
 11
5.5661097138
 21
16.2685469619
 31
0.0
  0
LINE
  5
218
330
1F
100
AcDbEntity
  8
SK3
  6
SLD-Dashed
370
    18
100
AcDbLine
 10
12.775
 20
12.869174843
 30
0.0
 11
12.775
 21
14.1168814158
 31
0.0
  0
LINE
  5
219
330
1F
100
AcDbEntity
  8
SK3
  6
SLD-Dashed
370
    18
100
AcDbLine
 10
9.475
 20
14.1168814158
 30
0.0
 11
9.475
 21
13.7489030277
 31
0.0
  0
LINE
  5
21A
330
1F
100
AcDbEntity
  8
SK3
  6
SLD-Dashed
370
    18
100
AcDbLine
 10
3.2
 20
11.6736210955
 30
0.0
 11
4.2624139659
 21
11.3897276993
 31
0.0
  0
LINE
  5
21B
330
1F
100
AcDbEntity
  8
SK3
  6
SLD-Dashed
370
    18
100
AcDbLine
 10
5.6048333499
 20
16.4134623855
 30
0.0
 11
3.2
 21
17.0560709439
 31
0.0
  0
LINE
  5
21C
330
1F
100
AcDbEntity
  8
SK3
  6
SLD-Solid
370
    18
100
AcDbLine
 10
-52.6
 20
12.0
 30
0.0
 11
-89.3448185145
 21
12.0
 31
0.0
  0
LINE
  5
21D
330
1F
100
AcDbEntity
  8
SK3
  6
SLD-Solid
370
    18
100
AcDbLine
 10
-89.3448185145
 20
-12.0
 30
0.0
 11
-52.6
 21
-12.0
 31
0.0
  0
LINE
  5
21E
330
1F
100
AcDbEntity
  8
SK3
  6
SLD-Solid
370
    18
100
AcDbLine
 10
-52.6
 20
12.0
 30
0.0
 11
-52.6
 21
11.9208250771
 31
0.0
  0
LINE
  5
21F
330
1F
100
AcDbEntity
  8
SK3
  6
SLD-Solid
370
    18
100
AcDbLine
 10
-52.6
 20
12.0
 30
0.0
 11
-52.6
 21
11.9208250771
 31
0.0
  0
LINE
  5
220
330
1F
100
AcDbEntity
  8
SK3
  6
SLD-Solid
370
    18
100
AcDbLine
 10
-52.6
 20
11.9208250771
 30
0.0
 11
-52.6
 21
11.5710419454
 31
0.0
  0
LINE
  5
221
330
1F
100
AcDbEntity
  8
SK3
  6
SLD-Solid
370
    18
100
AcDbLine
 10
-52.6
 20
11.5710419454
 30
0.0
 11
-52.6
 21
10.9500433977
 31
0.0
  0
LINE
  5
222
330
1F
100
AcDbEntity
  8
SK3
  6
SLD-Solid
370
    18
100
AcDbLine
 10
-52.6
 20
10.9500433977
 30
0.0
 11
-52.6
 21
10.0723851136
 31
0.0
  0
LINE
  5
223
330
1F
100
AcDbEntity
  8
SK3
  6
SLD-Solid
370
    18
100
AcDbLine
 10
-52.6
 20
10.0723851136
 30
0.0
 11
-52.6
 21
8.9586386593
 31
0.0
  0
LINE
  5
224
330
1F
100
AcDbEntity
  8
SK3
  6
SLD-Solid
370
    18
100
AcDbLine
 10
-52.6
 20
8.9586386593
 30
0.0
 11
-52.6
 21
7.6349093079
 31
0.0
  0
LINE
  5
225
330
1F
100
AcDbEntity
  8
SK3
  6
SLD-Solid
370
    18
100
AcDbLine
 10
-52.6
 20
7.6349093079
 30
0.0
 11
-52.6
 21
6.1322241534
 31
0.0
  0
LINE
  5
226
330
1F
100
AcDbEntity
  8
SK3
  6
SLD-Solid
370
    18
100
AcDbLine
 10
-52.6
 20
6.1322241534
 30
0.0
 11
-52.6
 21
4.4858048621
 31
0.0
  0
LINE
  5
227
330
1F
100
AcDbEntity
  8
SK3
  6
SLD-Solid
370
    18
100
AcDbLine
 10
-52.6
 20
4.4858048621
 30
0.0
 11
-52.6
 21
2.7342421068
 31
0.0
  0
LINE
  5
228
330
1F
100
AcDbEntity
  8
SK3
  6
SLD-Solid
370
    18
100
AcDbLine
 10
-52.6
 20
2.7342421068
 30
0.0
 11
-52.6
 21
0.918591034
 31
0.0
  0
LINE
  5
229
330
1F
100
AcDbEntity
  8
SK3
  6
SLD-Solid
370
    18
100
AcDbLine
 10
-52.6
 20
0.918591034
 30
0.0
 11
-52.6
 21
-0.918591034
 31
0.0
  0
LINE
  5
22A
330
1F
100
AcDbEntity
  8
SK3
  6
SLD-Solid
370
    18
100
AcDbLine
 10
-52.6
 20
-0.918591034
 30
0.0
 11
-52.6
 21
-2.7342421068
 31
0.0
  0
LINE
  5
22B
330
1F
100
AcDbEntity
  8
SK3
  6
SLD-Solid
370
    18
100
AcDbLine
 10
-52.6
 20
-2.7342421068
 30
0.0
 11
-52.6
 21
-4.4858048621
 31
0.0
  0
LINE
  5
22C
330
1F
100
AcDbEntity
  8
SK3
  6
SLD-Solid
370
    18
100
AcDbLine
 10
-52.6
 20
-4.4858048621
 30
0.0
 11
-52.6
 21
-6.1322241534
 31
0.0
  0
LINE
  5
22D
330
1F
100
AcDbEntity
  8
SK3
  6
SLD-Solid
370
    18
100
AcDbLine
 10
-52.6
 20
-6.1322241534
 30
0.0
 11
-52.6
 21
-7.6349093079
 31
0.0
  0
LINE
  5
22E
330
1F
100
AcDbEntity
  8
SK3
  6
SLD-Solid
370
    18
100
AcDbLine
 10
-52.6
 20
-7.6349093079
 30
0.0
 11
-52.6
 21
-8.9586386593
 31
0.0
  0
LINE
  5
22F
330
1F
100
AcDbEntity
  8
SK3
  6
SLD-Solid
370
    18
100
AcDbLine
 10
-52.6
 20
-8.9586386593
 30
0.0
 11
-52.6
 21
-10.0723851136
 31
0.0
  0
LINE
  5
230
330
1F
100
AcDbEntity
  8
SK3
  6
SLD-Solid
370
    18
100
AcDbLine
 10
-52.6
 20
-10.0723851136
 30
0.0
 11
-52.6
 21
-10.9500433977
 31
0.0
  0
LINE
  5
231
330
1F
100
AcDbEntity
  8
SK3
  6
SLD-Solid
370
    18
100
AcDbLine
 10
-52.6
 20
-10.9500433977
 30
0.0
 11
-52.6
 21
-11.5710419454
 31
0.0
  0
LINE
  5
232
330
1F
100
AcDbEntity
  8
SK3
  6
SLD-Solid
370
    18
100
AcDbLine
 10
-52.6
 20
-11.5710419454
 30
0.0
 11
-52.6
 21
-11.9208250771
 31
0.0
  0
LINE
  5
233
330
1F
100
AcDbEntity
  8
SK3
  6
SLD-Solid
370
    18
100
AcDbLine
 10
-52.6
 20
-11.9208250771
 30
0.0
 11
-52.6
 21
-12.0
 31
0.0
  0
LINE
  5
234
330
1F
100
AcDbEntity
  8
SK3
  6
SLD-Solid
370
    18
100
AcDbLine
 10
-52.6
 20
11.9208250771
 30
0.0
 11
-52.6
 21
11.5710419454
 31
0.0
  0
LINE
  5
235
330
1F
100
AcDbEntity
  8
SK3
  6
SLD-Solid
370
    18
100
AcDbLine
 10
-52.6
 20
11.5710419454
 30
0.0
 11
-52.6
 21
10.9500433977
 31
0.0
  0
LINE
  5
236
330
1F
100
AcDbEntity
  8
SK3
  6
SLD-Solid
370
    18
100
AcDbLine
 10
-52.6
 20
10.9500433977
 30
0.0
 11
-52.6
 21
10.0723851136
 31
0.0
  0
LINE
  5
237
330
1F
100
AcDbEntity
  8
SK3
  6
SLD-Solid
370
    18
100
AcDbLine
 10
-52.6
 20
10.0723851136
 30
0.0
 11
-52.6
 21
8.9586386593
 31
0.0
  0
LINE
  5
238
330
1F
100
AcDbEntity
  8
SK3
  6
SLD-Solid
370
    18
100
AcDbLine
 10
-52.6
 20
8.9586386593
 30
0.0
 11
-52.6
 21
7.6349093079
 31
0.0
  0
LINE
  5
239
330
1F
100
AcDbEntity
  8
SK3
  6
SLD-Solid
370
    18
100
AcDbLine
 10
-52.6
 20
7.6349093079
 30
0.0
 11
-52.6
 21
6.1322241534
 31
0.0
  0
LINE
  5
23A
330
1F
100
AcDbEntity
  8
SK3
  6
SLD-Solid
370
    18
100
AcDbLine
 10
-52.6
 20
6.1322241534
 30
0.0
 11
-52.6
 21
4.4858048621
 31
0.0
  0
LINE
  5
23B
330
1F
100
AcDbEntity
  8
SK3
  6
SLD-Solid
370
    18
100
AcDbLine
 10
-52.6
 20
4.4858048621
 30
0.0
 11
-52.6
 21
2.7342421068
 31
0.0
  0
LINE
  5
23C
330
1F
100
AcDbEntity
  8
SK3
  6
SLD-Solid
370
    18
100
AcDbLine
 10
-52.6
 20
2.7342421068
 30
0.0
 11
-52.6
 21
0.918591034
 31
0.0
  0
LINE
  5
23D
330
1F
100
AcDbEntity
  8
SK3
  6
SLD-Solid
370
    18
100
AcDbLine
 10
-52.6
 20
0.918591034
 30
0.0
 11
-52.6
 21
-0.918591034
 31
0.0
  0
LINE
  5
23E
330
1F
100
AcDbEntity
  8
SK3
  6
SLD-Solid
370
    18
100
AcDbLine
 10
-52.6
 20
-0.918591034
 30
0.0
 11
-52.6
 21
-2.7342421068
 31
0.0
  0
LINE
  5
23F
330
1F
100
AcDbEntity
  8
SK3
  6
SLD-Solid
370
    18
100
AcDbLine
 10
-52.6
 20
-2.7342421068
 30
0.0
 11
-52.6
 21
-4.4858048621
 31
0.0
  0
LINE
  5
240
330
1F
100
AcDbEntity
  8
SK3
  6
SLD-Solid
370
    18
100
AcDbLine
 10
-52.6
 20
-4.4858048621
 30
0.0
 11
-52.6
 21
-6.1322241534
 31
0.0
  0
LINE
  5
241
330
1F
100
AcDbEntity
  8
SK3
  6
SLD-Solid
370
    18
100
AcDbLine
 10
-52.6
 20
-6.1322241534
 30
0.0
 11
-52.6
 21
-7.6349093079
 31
0.0
  0
LINE
  5
242
330
1F
100
AcDbEntity
  8
SK3
  6
SLD-Solid
370
    18
100
AcDbLine
 10
-52.6
 20
-7.6349093079
 30
0.0
 11
-52.6
 21
-8.9586386593
 31
0.0
  0
LINE
  5
243
330
1F
100
AcDbEntity
  8
SK3
  6
SLD-Solid
370
    18
100
AcDbLine
 10
-52.6
 20
-8.9586386593
 30
0.0
 11
-52.6
 21
-10.0723851136
 31
0.0
  0
LINE
  5
244
330
1F
100
AcDbEntity
  8
SK3
  6
SLD-Solid
370
    18
100
AcDbLine
 10
-52.6
 20
-10.0723851136
 30
0.0
 11
-52.6
 21
-10.9500433977
 31
0.0
  0
LINE
  5
245
330
1F
100
AcDbEntity
  8
SK3
  6
SLD-Solid
370
    18
100
AcDbLine
 10
-52.6
 20
-10.9500433977
 30
0.0
 11
-52.6
 21
-11.5710419454
 31
0.0
  0
LINE
  5
246
330
1F
100
AcDbEntity
  8
SK3
  6
SLD-Solid
370
    18
100
AcDbLine
 10
-52.6
 20
-11.5710419454
 30
0.0
 11
-52.6
 21
-11.9208250771
 31
0.0
  0
LINE
  5
247
330
1F
100
AcDbEntity
  8
SK3
  6
SLD-Solid
370
    18
100
AcDbLine
 10
-52.6
 20
-11.9208250771
 30
0.0
 11
-52.6
 21
-12.0
 31
0.0
  0
LINE
  5
248
330
1F
100
AcDbEntity
  8
SK3
  6
SLD-Solid
370
    18
100
AcDbLine
 10
88.0
 20
-8.0
 30
0.0
 11
117.6995696905
 21
-8.0
 31
0.0
  0
LINE
  5
249
330
1F
100
AcDbEntity
  8
SK3
  6
SLD-Solid
370
    18
100
AcDbLine
 10
117.6995696905
 20
8.0
 30
0.0
 11
88.0
 21
8.0
 31
0.0
  0
LINE
  5
24A
330
1F
100
AcDbEntity
  8
SK3
  6
SLD-Solid
370
    18
100
AcDbLine
 10
88.0
 20
6.74742538
 30
0.0
 11
88.0
 21
7.2870798604
 31
0.0
  0
LINE
  5
24B
330
1F
100
AcDbEntity
  8
SK3
  6
SLD-Solid
370
    18
100
AcDbLine
 10
88.0
 20
-8.0
 30
0.0
 11
88.0
 21
-7.919715991
 31
0.0
  0
LINE
  5
24C
330
1F
100
AcDbEntity
  8
SK3
  6
SLD-Solid
370
    18
100
AcDbLine
 10
88.0
 20
-6.0205763947
 30
0.0
 11
88.0
 21
-6.74742538
 31
0.0
  0
LINE
  5
24D
330
1F
100
AcDbEntity
  8
SK3
  6
SLD-Solid
370
    18
100
AcDbLine
 10
88.0
 20
-8.0
 30
0.0
 11
88.0
 21
-7.919715991
 31
0.0
  0
LINE
  5
24E
330
1F
100
AcDbEntity
  8
SK3
  6
SLD-Solid
370
    18
100
AcDbLine
 10
88.0
 20
6.74742538
 30
0.0
 11
88.0
 21
6.0205763947
 31
0.0
  0
LINE
  5
24F
330
1F
100
AcDbEntity
  8
SK3
  6
SLD-Solid
370
    18
100
AcDbLine
 10
88.0
 20
6.74742538
 30
0.0
 11
88.0
 21
7.2870798604
 31
0.0
  0
LINE
  5
250
330
1F
100
AcDbEntity
  8
SK3
  6
SLD-Solid
370
    18
100
AcDbLine
 10
87.9999600108
 20
7.2870798604
 30
0.0
 11
88.0
 21
7.6804753447
 31
0.0
  0
LINE
  5
251
330
1F
100
AcDbEntity
  8
SK3
  6
SLD-Solid
370
    18
100
AcDbLine
 10
88.0
 20
7.6804753447
 30
0.0
 11
88.0
 21
7.919715991
 31
0.0
  0
LINE
  5
252
330
1F
100
AcDbEntity
  8
SK3
  6
SLD-Solid
370
    18
100
AcDbLine
 10
88.0
 20
7.919715991
 30
0.0
 11
88.0
 21
8.0
 31
0.0
  0
LINE
  5
253
330
1F
100
AcDbEntity
  8
SK3
  6
SLD-Solid
370
    18
100
AcDbLine
 10
87.9999600108
 20
-4.2979356372
 30
0.0
 11
88.0
 21
-3.3012826458
 31
0.0
  0
LINE
  5
254
330
1F
100
AcDbEntity
  8
SK3
  6
SLD-Solid
370
    18
100
AcDbLine
 10
88.0
 20
-3.3012826458
 30
0.0
 11
88.0
 21
-2.2383696031
 31
0.0
  0
LINE
  5
255
330
1F
100
AcDbEntity
  8
SK3
  6
SLD-Solid
370
    18
100
AcDbLine
 10
88.0
 20
-2.2383696031
 30
0.0
 11
88.0
 21
-1.130530239
 31
0.0
  0
LINE
  5
256
330
1F
100
AcDbEntity
  8
SK3
  6
SLD-Solid
370
    18
100
AcDbLine
 10
88.0
 20
-1.130530239
 30
0.0
 11
88.0
 21
0.0
 31
0.0
  0
LINE
  5
257
330
1F
100
AcDbEntity
  8
SK3
  6
SLD-Solid
370
    18
100
AcDbLine
 10
88.0
 20
0.0
 30
0.0
 11
88.0
 21
1.130530239
 31
0.0
  0
LINE
  5
258
330
1F
100
AcDbEntity
  8
SK3
  6
SLD-Solid
370
    18
100
AcDbLine
 10
88.0
 20
1.130530239
 30
0.0
 11
88.0
 21
2.2383696031
 31
0.0
  0
LINE
  5
259
330
1F
100
AcDbEntity
  8
SK3
  6
SLD-Solid
370
    18
100
AcDbLine
 10
88.0
 20
2.2383696031
 30
0.0
 11
88.0
 21
3.3012826458
 31
0.0
  0
LINE
  5
25A
330
1F
100
AcDbEntity
  8
SK3
  6
SLD-Solid
370
    18
100
AcDbLine
 10
88.0
 20
3.3012826458
 30
0.0
 11
88.0
 21
4.2979356372
 31
0.0
  0
LINE
  5
25B
330
1F
100
AcDbEntity
  8
SK3
  6
SLD-Solid
370
    18
100
AcDbLine
 10
87.9999600108
 20
-7.919715991
 30
0.0
 11
88.0
 21
-7.6804753447
 31
0.0
  0
LINE
  5
25C
330
1F
100
AcDbEntity
  8
SK3
  6
SLD-Solid
370
    18
100
AcDbLine
 10
88.0
 20
-7.6804753447
 30
0.0
 11
88.0
 21
-7.2870798604
 31
0.0
  0
LINE
  5
25D
330
1F
100
AcDbEntity
  8
SK3
  6
SLD-Solid
370
    18
100
AcDbLine
 10
88.0
 20
-7.2870798604
 30
0.0
 11
88.0
 21
-6.74742538
 31
0.0
  0
LINE
  5
25E
330
1F
100
AcDbEntity
  8
SK3
  6
SLD-Solid
370
    18
100
AcDbLine
 10
87.9999600108
 20
-7.919715991
 30
0.0
 11
88.0
 21
-7.6804753447
 31
0.0
  0
LINE
  5
25F
330
1F
100
AcDbEntity
  8
SK3
  6
SLD-Solid
370
    18
100
AcDbLine
 10
88.0
 20
-7.6804753447
 30
0.0
 11
88.0
 21
-7.2870798604
 31
0.0
  0
LINE
  5
260
330
1F
100
AcDbEntity
  8
SK3
  6
SLD-Solid
370
    18
100
AcDbLine
 10
88.0
 20
-7.2870798604
 30
0.0
 11
88.0
 21
-6.74742538
 31
0.0
  0
LINE
  5
261
330
1F
100
AcDbEntity
  8
SK3
  6
SLD-Solid
370
    18
100
AcDbLine
 10
87.9999600108
 20
7.2870798604
 30
0.0
 11
88.0
 21
7.6804753447
 31
0.0
  0
LINE
  5
262
330
1F
100
AcDbEntity
  8
SK3
  6
SLD-Solid
370
    18
100
AcDbLine
 10
88.0
 20
7.6804753447
 30
0.0
 11
88.0
 21
7.919715991
 31
0.0
  0
LINE
  5
263
330
1F
100
AcDbEntity
  8
SK3
  6
SLD-Solid
370
    18
100
AcDbLine
 10
88.0
 20
7.919715991
 30
0.0
 11
88.0
 21
8.0
 31
0.0
  0
LINE
  5
264
330
1F
100
AcDbEntity
  8
SK3
  6
SLD-Solid
370
    18
100
AcDbLine
 10
87.9999600108
 20
-4.2979356372
 30
0.0
 11
88.0
 21
-3.3012826458
 31
0.0
  0
LINE
  5
265
330
1F
100
AcDbEntity
  8
SK3
  6
SLD-Solid
370
    18
100
AcDbLine
 10
88.0
 20
-3.3012826458
 30
0.0
 11
88.0
 21
-2.2383696031
 31
0.0
  0
LINE
  5
266
330
1F
100
AcDbEntity
  8
SK3
  6
SLD-Solid
370
    18
100
AcDbLine
 10
88.0
 20
-2.2383696031
 30
0.0
 11
88.0
 21
-1.130530239
 31
0.0
  0
LINE
  5
267
330
1F
100
AcDbEntity
  8
SK3
  6
SLD-Solid
370
    18
100
AcDbLine
 10
88.0
 20
-1.130530239
 30
0.0
 11
88.0
 21
0.0
 31
0.0
  0
LINE
  5
268
330
1F
100
AcDbEntity
  8
SK3
  6
SLD-Solid
370
    18
100
AcDbLine
 10
88.0
 20
0.0
 30
0.0
 11
88.0
 21
1.130530239
 31
0.0
  0
LINE
  5
269
330
1F
100
AcDbEntity
  8
SK3
  6
SLD-Solid
370
    18
100
AcDbLine
 10
88.0
 20
1.130530239
 30
0.0
 11
88.0
 21
2.2383696031
 31
0.0
  0
LINE
  5
26A
330
1F
100
AcDbEntity
  8
SK3
  6
SLD-Solid
370
    18
100
AcDbLine
 10
88.0
 20
2.2383696031
 30
0.0
 11
88.0
 21
3.3012826458
 31
0.0
  0
LINE
  5
26B
330
1F
100
AcDbEntity
  8
SK3
  6
SLD-Solid
370
    18
100
AcDbLine
 10
88.0
 20
3.3012826458
 30
0.0
 11
88.0
 21
4.2979356372
 31
0.0
  0
LINE
  5
26C
330
1F
100
AcDbEntity
  8
SK4
  6
SLD-Center
370
    18
100
AcDbLine
 10
125.5053802897
 20
0.0
 30
0.0
 11
-104.3494463555
 21
0.0
 31
0.0
  0
LINE
  5
26D
330
1F
100
AcDbEntity
  8
4
  6
SLD-Center
370
    18
100
AcDbLine
 10
125.6308405438
 20
0.0
 30
0.0
 11
-0.1618813027
 21
0.0
 31
0.0
  0
ARC
  5
26E
330
1F
100
AcDbEntity
  8
SK1
  6
SLD-Solid
370
    25
100
AcDbCircle
 10
134.1010116611
 20
11.7
 30
0.0
 40
0.3000000000000007
100
AcDbArc
 50
90.0
 51
180.0
  0
ARC
  5
26F
330
1F
100
AcDbEntity
  8
SK1
  6
SLD-Solid
370
    25
100
AcDbCircle
 10
134.1010116611
 20
-11.7
 30
0.0
 40
0.2999999999999936
100
AcDbArc
 50
180.0
 51
270.0
  0
ARC
  5
270
330
1F
100
AcDbEntity
  8
1
  6
SLD-Solid
370
    25
100
AcDbCircle
 10
99.2
 20
-38.2
 30
0.0
 40
0.8000000000000398
100
AcDbArc
 50
270.0
 51
0.0
  0
ARC
  5
271
330
1F
100
AcDbEntity
  8
1
  6
SLD-Solid
370
    25
100
AcDbCircle
 10
99.2
 20
38.2
 30
0.0
 40
0.800000000000054
100
AcDbArc
 50
0.0
 51
90.0
  0
ARC
  5
272
330
1F
100
AcDbEntity
  8
1
  6
SLD-Solid
370
    25
100
AcDbCircle
 10
2.45
 20
35.425
 30
0.0
 40
0.7499999999999996
100
AcDbArc
 50
245.0000000001
 51
0.0
  0
ARC
  5
273
330
1F
100
AcDbEntity
  8
1
  6
SLD-Solid
370
    25
100
AcDbCircle
 10
2.45
 20
-35.425
 30
0.0
 40
0.75
100
AcDbArc
 50
0.0
 51
115.0000000001
  0
ARC
  5
274
330
1F
100
AcDbEntity
  8
SK1
  6
SLD-Solid
370
    25
100
AcDbCircle
 10
-99.35
 20
18.1625211761
 30
0.0
 40
2.25
100
AcDbArc
 50
98.2972222215
 51
179.9999999999
  0
ARC
  5
275
330
1F
100
AcDbEntity
  8
SK1
  6
SLD-Solid
370
    25
100
AcDbCircle
 10
-99.35
 20
-18.1625211763
 30
0.0
 40
2.25
100
AcDbArc
 50
180.0000000001
 51
261.7027777778
  0
ARC
  5
276
330
1F
100
AcDbEntity
  8
SK1
  6
SLD-Solid
370
    25
100
AcDbCircle
 10
100.42
 20
16.5475
 30
0.0
 40
0.7999999999999954
100
AcDbArc
 50
238.3317567465
 51
287.5
  0
ARC
  5
277
330
1F
100
AcDbEntity
  8
SK1
  6
SLD-Solid
370
    25
100
AcDbCircle
 10
100.42
 20
-16.5475
 30
0.0
 40
0.7999999999999954
100
AcDbArc
 50
72.5
 51
121.6682432535
  0
ARC
  5
278
330
1F
100
AcDbEntity
  8
1
  6
SLD-Solid
370
    25
100
AcDbCircle
 10
11.136974013
 20
-15.2348377747
 30
0.0
 40
2.000133999737212
100
AcDbArc
 50
247.3982809301
 51
351.3239957759
  0
ARC
  5
279
330
1F
100
AcDbEntity
  8
1
  6
SLD-Solid
370
    25
100
AcDbCircle
 10
11.0139313067
 20
-15.3010787813
 30
0.0
 40
1.893744257597514
100
AcDbArc
 50
189.2160155265
 51
250.0657919741
  0
ARC
  5
27A
330
1F
100
AcDbEntity
  8
1
  6
SLD-Solid
370
    25
100
AcDbCircle
 10
11.1223622147
 20
4.0819969809
 30
0.0
 40
2.008833342370155
100
AcDbArc
 50
89.924765284
 51
138.1498977851
  0
ARC
  5
27B
330
1F
100
AcDbEntity
  8
1
  6
SLD-Solid
370
    25
100
AcDbCircle
 10
11.1276077497
 20
4.0818723054
 30
0.0
 40
2.008957978551604
100
AcDbArc
 50
42.2279615599
 51
90.0743734282
  0
ARC
  5
27C
330
1F
100
AcDbEntity
  8
SK3
  6
SLD-Dashed
370
    18
100
AcDbCircle
 10
-0.4832596518
 20
-15.47591162
 30
0.0
 40
3.707989375296789
100
AcDbArc
 50
353.3790594847
 51
6.6209405153
  0
ARC
  5
27D
330
1F
100
AcDbEntity
  8
SK3
  6
SLD-Dashed
370
    18
100
AcDbCircle
 10
-0.4832596518
 20
15.47591162
 30
0.0
 40
3.707989375296266
100
AcDbArc
 50
353.3790594847
 51
6.6209405153
  0
ARC
  5
27E
330
1F
100
AcDbEntity
  8
SK3
  6
SLD-Dashed
370
    18
100
AcDbCircle
 10
6.4
 20
-33.1
 30
0.0
 40
0.3000000000000766
100
AcDbArc
 50
89.9998918766
 51
180.0
  0
ARC
  5
27F
330
1F
100
AcDbEntity
  8
SK3
  6
SLD-Dashed
370
    18
100
AcDbCircle
 10
15.8
 20
-33.1
 30
0.0
 40
0.3000000000000114
100
AcDbArc
 50
359.9999999997
 51
90.0
  0
ARC
  5
280
330
1F
100
AcDbEntity
  8
1
370
    25
100
AcDbCircle
 10
19.9342320414
 20
77.9704017472
 30
0.0
 40
41.16640392203721
100
AcDbArc
 50
270.3475373491
 51
288.7988946395
  0
ARC
  5
281
330
1F
100
AcDbEntity
  8
1
370
    25
100
AcDbCircle
 10
24.4304500119
 20
-62.3934357986
 30
0.0
 40
24.9831512314943
100
AcDbArc
 50
69.4503720161
 51
85.142893234
  0
ARC
  5
282
330
1F
100
AcDbEntity
  8
1
370
    25
100
AcDbCircle
 10
74.9972861887
 20
-81.3661654352
 30
0.0
 40
42.98013939246503
100
AcDbArc
 50
80.3039008364
 51
99.6662629
  0
SPLINE
  5
283
330
1F
100
AcDbEntity
  8
SK1
  6
SLD-Solid
370
    25
100
AcDbSpline
210
0.0
220
0.0
230
1.0
 70
     8
 71
     3
 72
    10
 73
     6
 74
     0
 42
0.000000001
 43
0.00000001
 40
0.0
 40
0.0
 40
0.0
 40
0.0
 40
0.4369080587517395
 40
0.8802097485016401
 40
1.0
 40
1.0
 40
1.0
 40
1.0
 10
105.7009618943234
 20
19.9313807995558
 30
0.0
 10
105.9799846783363
 20
20.71714373615679
 30
0.0
 10
106.5421134137137
 20
22.3001683175378
 30
0.0
 10
106.9214302526482
 20
24.18387877797625
 30
0.0
 10
106.9862174033891
 20
25.25642780705094
 30
0.0
 10
107.0
 20
25.48459821498177
 30
0.0
  0
SPLINE
  5
284
330
1F
100
AcDbEntity
  8
SK1
  6
SLD-Solid
370
    25
100
AcDbSpline
210
0.0
220
0.0
230
1.0
 70
    24
 71
     3
 72
    10
 73
     6
 74
     0
 42
0.000000001
 43
0.00000001
 40
0.0
 40
0.0
 40
0.0
 40
0.0
 40
0.3386794853348039
 40
0.683514178817596
 40
1.0
 40
1.0
 40
1.0
 40
1.0
 10
107.0
 20
19.01899999999999
 30
0.0
 10
106.9418101391337
 20
19.01899999999999
 30
0.0
 10
106.8243728667632
 20
19.01899999999999
 30
0.0
 10
106.3324761099224
 20
19.01899999999999
 30
0.0
 10
105.9053636125215
 20
19.01899999999999
 30
0.0
 10
105.7009618943234
 20
19.01899999999999
 30
0.0
  0
SPLINE
  5
285
330
1F
100
AcDbEntity
  8
SK1
  6
SLD-Solid
370
    25
100
AcDbSpline
210
0.0
220
0.0
230
1.0
 70
     8
 71
     3
 72
    46
 73
    42
 74
     0
 42
0.000000001
 43
0.00000001
 40
0.0
 40
0.0
 40
0.0
 40
0.0
 40
0.0005958372364066
 40
0.0029443622862916
 40
0.0053903593045676
 40
0.0085428153701188
 40
0.0117810146809587
 40
0.0201401321236186
 40
0.0287260019630024
 40
0.0465610830857609
 40
0.0645438621758708
 40
0.0827121521207441
 40
0.1008996550416181
 40
0.1721364123376096
 40
0.2435477239538187
 40
0.3152817095808485
 40
0.3870830466948274
 40
0.4369917856163008
 40
0.4869285988526
 40
0.5369666557097115
 40
0.5870481860432136
 40
0.6332491079775786
 40
0.6795105209057497
 40
0.7260233028696653
 40
0.7726657052227109
 40
0.8066352743316191
 40
0.8407340762877965
 40
0.859250457069581
 40
0.8778188112488561
 40
0.8966219745066084
 40
0.9155590132371174
 40
0.9248187693101227
 40
0.9341191686236744
 40
0.9435957990955056
 40
0.9531656104781184
 40
0.9620000215281379
 40
0.9710060097447645
 40
0.9798577083857393
 40
0.9890332945804554
 40
0.9944774713115507
 40
1.0
 40
1.0
 40
1.0
 40
1.0
 10
100.0296155740811
 20
25.33607587029842
 30
0.0
 10
100.0301092756135
 20
25.33606742338047
 30
0.0
 10
100.032548928733
 20
25.3360256824735
 30
0.0
 10
100.0369927846664
 20
25.33527107679346
 30
0.0
 10
100.0431812932417
 20
25.33292789342816
 30
0.0
 10
100.049460508723
 20
25.32907780109215
 30
0.0
 10
100.0588153087467
 20
25.32116496357398
 30
0.0
 10
100.069420988164
 20
25.30806567081529
 30
0.0
 10
100.0845044657196
 20
25.28348477063727
 30
0.0
 10
100.1000366872786
 20
25.25002154281803
 30
0.0
 10
100.1159933639916
 20
25.20822650193213
 30
0.0
 10
100.1302080999621
 20
25.16548913560457
 30
0.0
 10
100.1558272144742
 20
25.08008971953894
 30
0.0
 10
100.1877091485514
 20
24.95059251872526
 30
0.0
 10
100.2234361914677
 20
24.77656540341668
 30
0.0
 10
100.2536995179316
 20
24.60101625026847
 30
0.0
 10
100.2762101095994
 20
24.44228910430551
 30
0.0
 10
100.2923806344396
 20
24.30097056954424
 30
0.0
 10
100.3035447827532
 20
24.17726469042952
 30
0.0
 10
100.3114385313978
 20
24.05316074404884
 30
0.0
 10
100.315514887056
 20
23.93196515098036
 30
0.0
 10
100.3155816765067
 20
23.81382920546846
 30
0.0
 10
100.3114092354045
 20
23.69871717934583
 30
0.0
 10
100.3021715073793
 20
23.58352268985483
 30
0.0
 10
100.2881167379693
 20
23.47905564523656
 30
0.0
 10
100.2698425083297
 20
23.3857337494462
 30
0.0
 10
100.2516479475232
 20
23.31626083863195
 30
0.0
 10
100.2330882498594
 20
23.26025049289523
 30
0.0
 10
100.2161590906325
 20
23.21711579393825
 30
0.0
 10
100.1962367743921
 20
23.1748814900855
 30
0.0
 10
100.1766231031589
 20
23.14114975039928
 30
0.0
 10
100.1587334810628
 20
23.11572373790877
 30
0.0
 10
100.1440994077318
 20
23.09765329415909
 30
0.0
 10
100.1278535983622
 20
23.08064528381189
 30
0.0
 10
100.110251901495
 20
23.06560493423088
 30
0.0
 10
100.0912817792106
 20
23.05300452391529
 30
0.0
 10
100.0712247214853
 20
23.04346933736561
 30
0.0
 10
100.0495407333641
 20
23.03736783852484
 30
0.0
 10
100.0300172640419
 20
23.0358634624415
 30
0.0
 10
100.0133257080657
 20
23.03718739340185
 30
0.0
 10
100.0044630092947
 20
23.03924392134537
 30
0.0
 10
100.0
 20
23.04027953178007
 30
0.0
  0
SPLINE
  5
286
330
1F
100
AcDbEntity
  8
SK1
  6
SLD-Solid
370
    25
100
AcDbSpline
210
0.0
220
0.0
230
1.0
 70
     8
 71
     3
 72
    20
 73
    16
 74
     0
 42
0.000000001
 43
0.00000001
 40
0.0
 40
0.0
 40
0.0
 40
0.0
 40
0.0088113355658388
 40
0.0248512046742798
 40
0.0408160866356896
 40
0.0681518679462975
 40
0.120123283704408
 40
0.2732577827994664
 40
0.760718382987631
 40
0.9630861795858771
 40
0.9756617714721282
 40
0.988827677984727
 40
0.9936871460963375
 40
0.9985955005398801
 40
1.0
 40
1.0
 40
1.0
 40
1.0
 10
100.0000000000096
 20
28.9597204682225
 30
0.0
 10
100.0071438885473
 20
28.9612209503057
 30
0.0
 10
100.0272922797753
 20
28.96545286124371
 30
0.0
 10
100.0617048918006
 20
28.9612441646896
 30
0.0
 10
100.106589493097
 20
28.94019521464957
 30
0.0
 10
100.1646283602046
 20
28.8849219351963
 30
0.0
 10
100.2573926089694
 20
28.71401216901683
 30
0.0
 10
100.3603776582881
 20
28.14086884230759
 30
0.0
 10
100.2629035514826
 20
27.44900025061742
 30
0.0
 10
100.1621553824665
 20
26.86694509375359
 30
0.0
 10
100.0751376097199
 20
26.69992835911361
 30
0.0
 10
100.0600499570994
 20
26.67910431346995
 30
0.0
 10
100.0449058661095
 20
26.66755604917579
 30
0.0
 10
100.0359950989153
 20
26.66417840703118
 30
0.0
 10
100.0307765989511
 20
26.66397040623646
 30
0.0
 10
100.0296155740811
 20
26.66392412970158
 30
0.0
  0
SPLINE
  5
287
330
1F
100
AcDbEntity
  8
SK1
  6
SLD-Solid
370
    25
100
AcDbSpline
210
0.0
220
0.0
230
1.0
 70
     8
 71
     3
 72
    10
 73
     6
 74
     0
 42
0.000000001
 43
0.00000001
 40
0.0
 40
0.0
 40
0.0
 40
0.0
 40
0.3386794853348031
 40
0.6835141788175965
 40
0.9999999999999999
 40
0.9999999999999999
 40
0.9999999999999999
 40
0.9999999999999999
 10
107.0
 20
26.51540178501823
 30
0.0
 10
106.9418101391337
 20
27.16008773903358
 30
0.0
 10
106.8243728667632
 20
28.46117625940387
 30
0.0
 10
106.3324761099225
 20
30.31319166584063
 30
0.0
 10
105.9053636125215
 20
31.50044132672077
 30
0.0
 10
105.7009618943234
 20
32.06861920044425
 30
0.0
  0
SPLINE
  5
288
330
1F
100
AcDbEntity
  8
SK1
  6
SLD-Solid
370
    25
100
AcDbSpline
210
0.0
220
0.0
230
1.0
 70
    24
 71
     3
 72
    10
 73
     6
 74
     0
 42
0.000000001
 43
0.00000001
 40
0.0
 40
0.0
 40
0.0
 40
0.0
 40
0.4369080587517412
 40
0.8802097485016424
 40
1.0
 40
1.0
 40
1.0
 40
1.0
 10
105.7009618943234
 20
32.98100000000004
 30
0.0
 10
105.9799846783363
 20
32.98100000000003
 30
0.0
 10
106.5421134137137
 20
32.98100000000002
 30
0.0
 10
106.9214302526483
 20
32.98100000000003
 30
0.0
 10
106.986217403389
 20
32.98100000000002
 30
0.0
 10
107.0
 20
32.98100000000003
 30
0.0
  0
SPLINE
  5
289
330
1F
100
AcDbEntity
  8
SK1
  6
SLD-Solid
370
    25
100
AcDbSpline
210
0.0
220
0.0
230
1.0
 70
     8
 71
     3
 72
    46
 73
    42
 74
     0
 42
0.000000001
 43
0.00000001
 40
0.0
 40
0.0
 40
0.0
 40
0.0
 40
0.0005958372364066
 40
0.0029443622862916
 40
0.0053903593045676
 40
0.0085428153701195
 40
0.0117810146809585
 40
0.0201401321236184
 40
0.0287260019630022
 40
0.0465610830857607
 40
0.0645438621758706
 40
0.0827121521207453
 40
0.1008996550416179
 40
0.1721364123376108
 40
0.2435477239538185
 40
0.3152817095808496
 40
0.3870830466948271
 40
0.4369917856163019
 40
0.4869285988525997
 40
0.5369666557097112
 40
0.5870481860432133
 40
0.6332491079775782
 40
0.6795105209057494
 40
0.726023302869665
 40
0.7726657052227105
 40
0.8066352743316186
 40
0.8407340762877961
 40
0.8592504570695819
 40
0.8778188112488556
 40
0.8966219745066092
 40
0.915559013237117
 40
0.9248187693101223
 40
0.934119168623674
 40
0.9435957990955061
 40
0.953165610478118
 40
0.9620000215281382
 40
0.9710060097447643
 40
0.9798577083857394
 40
0.9890332945804553
 40
0.9944774713115506
 40
1.0
 40
1.0
 40
1.0
 40
1.0
 10
100.0296155740812
 20
-26.66392412970158
 30
0.0
 10
100.0301092756135
 20
-26.66393257661954
 30
0.0
 10
100.0325489287329
 20
-26.6639743175265
 30
0.0
 10
100.0369927846664
 20
-26.66472892320654
 30
0.0
 10
100.0431812932417
 20
-26.66707210657185
 30
0.0
 10
100.049460508723
 20
-26.67092219890786
 30
0.0
 10
100.0588153087467
 20
-26.67883503642602
 30
0.0
 10
100.069420988164
 20
-26.6919343291847
 30
0.0
 10
100.0845044657197
 20
-26.71651522936276
 30
0.0
 10
100.1000366872786
 20
-26.74997845718198
 30
0.0
 10
100.1159933639915
 20
-26.79177349806787
 30
0.0
 10
100.1302080999622
 20
-26.83451086439543
 30
0.0
 10
100.1558272144741
 20
-26.91991028046111
 30
0.0
 10
100.1877091485514
 20
-27.04940748127474
 30
0.0
 10
100.2234361914677
 20
-27.22343459658333
 30
0.0
 10
100.2536995179316
 20
-27.39898374973153
 30
0.0
 10
100.2762101095994
 20
-27.5577108956945
 30
0.0
 10
100.2923806344396
 20
-27.69902943045575
 30
0.0
 10
100.3035447827531
 20
-27.8227353095705
 30
0.0
 10
100.3114385313978
 20
-27.94683925595118
 30
0.0
 10
100.315514887056
 20
-28.06803484901964
 30
0.0
 10
100.3155816765067
 20
-28.18617079453152
 30
0.0
 10
100.3114092354045
 20
-28.30128282065418
 30
0.0
 10
100.3021715073793
 20
-28.41647731014518
 30
0.0
 10
100.2881167379692
 20
-28.52094435476344
 30
0.0
 10
100.2698425083297
 20
-28.61426625055378
 30
0.0
 10
100.2516479475232
 20
-28.68373916136805
 30
0.0
 10
100.2330882498594
 20
-28.73974950710478
 30
0.0
 10
100.2161590906324
 20
-28.78288420606175
 30
0.0
 10
100.1962367743921
 20
-28.82511850991452
 30
0.0
 10
100.1766231031589
 20
-28.85885024960071
 30
0.0
 10
100.1587334810628
 20
-28.88427626209123
 30
0.0
 10
100.1440994077318
 20
-28.90234670584091
 30
0.0
 10
100.1278535983622
 20
-28.91935471618812
 30
0.0
 10
100.110251901495
 20
-28.93439506576911
 30
0.0
 10
100.0912817792106
 20
-28.94699547608471
 30
0.0
 10
100.0712247214853
 20
-28.95653066263438
 30
0.0
 10
100.0495407333642
 20
-28.96263216147517
 30
0.0
 10
100.0300172640418
 20
-28.9641365375585
 30
0.0
 10
100.0133257080657
 20
-28.96281260659816
 30
0.0
 10
100.0044630092948
 20
-28.96075607865463
 30
0.0
 10
100.0
 20
-28.95972046821993
 30
0.0
  0
SPLINE
  5
28A
330
1F
100
AcDbEntity
  8
SK1
  6
SLD-Solid
370
    25
100
AcDbSpline
210
0.0
220
0.0
230
1.0
 70
     8
 71
     3
 72
    20
 73
    16
 74
     0
 42
0.000000001
 43
0.00000001
 40
0.0
 40
0.0
 40
0.0
 40
0.0
 40
0.0088113355658388
 40
0.0248512046742798
 40
0.0408160866356896
 40
0.0681518679462975
 40
0.120123283704408
 40
0.2732577827994664
 40
0.760718382987631
 40
0.9630861795858771
 40
0.9756617714721282
 40
0.988827677984727
 40
0.9936871460963375
 40
0.9985955005398801
 40
1.0
 40
1.0
 40
1.0
 40
1.0
 10
100.0000000000096
 20
-23.04027953177749
 30
0.0
 10
100.0071438885473
 20
-23.0387790496943
 30
0.0
 10
100.0272922797753
 20
-23.0345471387563
 30
0.0
 10
100.0617048918006
 20
-23.03875583531041
 30
0.0
 10
100.106589493097
 20
-23.05980478535044
 30
0.0
 10
100.1646283602046
 20
-23.11507806480371
 30
0.0
 10
100.2573926089694
 20
-23.28598783098316
 30
0.0
 10
100.3603776582881
 20
-23.85913115769243
 30
0.0
 10
100.2629035514826
 20
-24.55099974938261
 30
0.0
 10
100.1621553824665
 20
-25.13305490624641
 30
0.0
 10
100.0751376097199
 20
-25.30007164088639
 30
0.0
 10
100.0600499570994
 20
-25.32089568653008
 30
0.0
 10
100.0449058661095
 20
-25.33244395082421
 30
0.0
 10
100.0359950989153
 20
-25.33582159296883
 30
0.0
 10
100.0307765989511
 20
-25.33602959376354
 30
0.0
 10
100.0296155740811
 20
-25.33607587029843
 30
0.0
  0
SPLINE
  5
28B
330
1F
100
AcDbEntity
  8
SK1
  6
SLD-Solid
370
    25
100
AcDbSpline
210
0.0
220
0.0
230
1.0
 70
     8
 71
     3
 72
    10
 73
     6
 74
     0
 42
0.000000001
 43
0.00000001
 40
0.0
 40
0.0
 40
0.0
 40
0.0
 40
0.3386794853348031
 40
0.6835141788175965
 40
0.9999999999999999
 40
0.9999999999999999
 40
0.9999999999999999
 40
0.9999999999999999
 10
107.0
 20
-25.48459821498177
 30
0.0
 10
106.9418101391337
 20
-24.83991226096641
 30
0.0
 10
106.8243728667632
 20
-23.53882374059613
 30
0.0
 10
106.3324761099225
 20
-21.68680833415938
 30
0.0
 10
105.9053636125215
 20
-20.49955867327924
 30
0.0
 10
105.7009618943234
 20
-19.93138079955577
 30
0.0
  0
SPLINE
  5
28C
330
1F
100
AcDbEntity
  8
SK1
  6
SLD-Solid
370
    25
100
AcDbSpline
210
0.0
220
0.0
230
1.0
 70
     8
 71
     3
 72
    10
 73
     6
 74
     0
 42
0.000000001
 43
0.00000001
 40
0.0
 40
0.0
 40
0.0
 40
0.0
 40
0.4369080587517395
 40
0.8802097485016401
 40
1.0
 40
1.0
 40
1.0
 40
1.0
 10
105.7009618943234
 20
-32.06861920044419
 30
0.0
 10
105.9799846783363
 20
-31.28285626384323
 30
0.0
 10
106.5421134137137
 20
-29.69983168246223
 30
0.0
 10
106.9214302526482
 20
-27.81612122202374
 30
0.0
 10
106.9862174033891
 20
-26.74357219294907
 30
0.0
 10
107.0
 20
-26.51540178501824
 30
0.0
  0
SPLINE
  5
28D
330
1F
100
AcDbEntity
  8
SK1
  6
SLD-Solid
370
    25
100
AcDbSpline
210
0.0
220
0.0
230
1.0
 70
    24
 71
     3
 72
    10
 73
     6
 74
     0
 42
0.000000001
 43
0.00000001
 40
0.0
 40
0.0
 40
0.0
 40
0.0
 40
0.338679485334804
 40
0.6835141788175959
 40
1.0
 40
1.0
 40
1.0
 40
1.0
 10
107.0
 20
-32.98099999999999
 30
0.0
 10
106.9418101391337
 20
-32.98099999999999
 30
0.0
 10
106.8243728667632
 20
-32.98099999999999
 30
0.0
 10
106.3324761099225
 20
-32.98099999999999
 30
0.0
 10
105.9053636125215
 20
-32.98100000000001
 30
0.0
 10
105.7009618943234
 20
-32.98099999999999
 30
0.0
  0
SPLINE
  5
28E
330
1F
100
AcDbEntity
  8
SK1
  6
SLD-Solid
370
    25
100
AcDbSpline
210
0.0
220
0.0
230
1.0
 70
    24
 71
     3
 72
    10
 73
     6
 74
     0
 42
0.000000001
 43
0.00000001
 40
0.0
 40
0.0
 40
0.0
 40
0.0
 40
0.4369080587517412
 40
0.8802097485016424
 40
1.0
 40
1.0
 40
1.0
 40
1.0
 10
105.7009618943234
 20
-19.01899999999996
 30
0.0
 10
105.9799846783363
 20
-19.01899999999998
 30
0.0
 10
106.5421134137137
 20
-19.01900000000002
 30
0.0
 10
106.9214302526483
 20
-19.01899999999999
 30
0.0
 10
106.986217403389
 20
-19.01899999999999
 30
0.0
 10
107.0
 20
-19.01899999999999
 30
0.0
  0
SPLINE
  5
28F
330
1F
100
AcDbEntity
  8
1
  6
SLD-Solid
370
    25
100
AcDbSpline
210
0.0
220
0.0
230
1.0
 70
     8
 71
     3
 72
    15
 73
    11
 74
     0
 42
0.000000001
 43
0.00000001
 40
0.0
 40
0.0
 40
0.0
 40
0.0
 40
0.0706189846882904
 40
0.1229799933780631
 40
0.2464005420211422
 40
0.4935563641940425
 40
0.6221295228547512
 40
0.7451048614174116
 40
0.8733981602557622
 40
1.0
 40
1.0
 40
1.0
 40
1.0
 10
3.199999999999994
 20
-46.06561217437579
 30
0.0
 10
3.200865997767643
 20
-46.09287174705321
 30
0.0
 10
3.202374096477958
 20
-46.14034314701956
 30
0.0
 10
3.217371469859856
 20
-46.23442215939885
 30
0.0
 10
3.264245425821946
 20
-46.39177556540346
 30
0.0
 10
3.374632418589776
 20
-46.55786311004806
 30
0.0
 10
3.525614465739096
 20
-46.68214319325138
 30
0.0
 10
3.657347388413848
 20
-46.7524191604246
 30
0.0
 10
3.799983035698229
 20
-46.79767007008364
 30
0.0
 10
3.90021605739381
 20
-46.80338774261622
 30
0.0
 10
3.949999999999926
 20
-46.80622760792592
 30
0.0
  0
SPLINE
  5
290
330
1F
100
AcDbEntity
  8
1
  6
SLD-Solid
370
    25
100
AcDbSpline
210
0.0
220
0.0
230
1.0
 70
     8
 71
     3
 72
    18
 73
    14
 74
     0
 42
0.000000001
 43
0.00000001
 40
0.0
 40
0.0
 40
0.0
 40
0.0
 40
0.0626983775997668
 40
0.1258166086392012
 40
0.18936970083382
 40
0.2533723006469722
 40
0.3759971371250163
 40
0.5042623695963871
 40
0.6288009520835539
 40
0.7525293866333974
 40
0.8763093521795758
 40
0.9295192034721254
 40
1.0
 40
1.0
 40
1.0
 40
1.0
 10
3.950000000000009
 20
46.83997819508586
 30
0.0
 10
3.925244131679814
 20
46.83926574063506
 30
0.0
 10
3.875566619833362
 20
46.83783606085316
 30
0.0
 10
3.801549881720601
 20
46.82626004793315
 30
0.0
 10
3.728539088191887
 20
46.80773228713294
 30
0.0
 10
3.635763770945488
 20
46.77373634092982
 30
0.0
 10
3.526064718613414
 20
46.71401759297212
 30
0.0
 10
3.412008142073736
 20
46.61858849978911
 30
0.0
 10
3.318951821561861
 20
46.50241979388619
 30
0.0
 10
3.250891801772932
 20
46.37227706960427
 30
0.0
 10
3.217398875274946
 20
46.2585329314546
 30
0.0
 10
3.202371083016645
 20
46.16262306495802
 30
0.0
 10
3.200860661155436
 20
46.11415713802255
 30
0.0
 10
3.199999999999994
 20
46.08654052193178
 30
0.0
  0
SPLINE
  5
291
330
1F
100
AcDbEntity
  8
1
  6
SLD-Solid
370
    25
100
AcDbSpline
210
0.0
220
0.0
230
1.0
 70
     8
 71
     3
 72
    18
 73
    14
 74
     0
 42
0.000000001
 43
0.00000001
 40
0.0
 40
0.0
 40
0.0
 40
0.0
 40
0.0628259627681324
 40
0.1260712803764565
 40
0.1897452036157597
 40
0.2538567635514968
 40
0.3765996289726266
 40
0.5049366256416271
 40
0.6294142297544811
 40
0.7529968844630504
 40
0.8765580487886564
 40
0.9293594482220575
 40
1.0
 40
1.0
 40
1.0
 40
1.0
 10
18.29999999999926
 20
-46.85820268504172
 30
0.0
 10
18.32474726193512
 20
-46.85749730244325
 30
0.0
 10
18.37440697044731
 20
-46.85608182891245
 30
0.0
 10
18.44840165106372
 20
-46.84461890901861
 30
0.0
 10
18.52139692720589
 20
-46.82626933805399
 30
0.0
 10
18.6141344299201
 20
-46.79260614656349
 30
0.0
 10
18.72380287335436
 20
-46.73347649998756
 30
0.0
 10
18.83787040149346
 20
-46.63895308084483
 30
0.0
 10
18.9309663227614
 20
-46.52384873332801
 30
0.0
 10
18.99906611031822
 20
-46.39488222103564
 30
0.0
 10
19.03255478765421
 20
-46.28224845926626
 30
0.0
 10
19.04761478974391
 20
-46.18719180390987
 30
0.0
 10
19.04913185080524
 20
-46.13915532540254
 30
0.0
 10
19.04999999999926
 20
-46.11166610221767
 30
0.0
  0
SPLINE
  5
292
330
1F
100
AcDbEntity
  8
1
  6
SLD-Solid
370
    25
100
AcDbSpline
210
0.0
220
0.0
230
1.0
 70
     8
 71
     3
 72
    16
 73
    12
 74
     0
 42
0.000000001
 43
0.00000001
 40
0.0
 40
0.0
 40
0.0
 40
0.0
 40
0.0702657184779665
 40
0.1233154886639839
 40
0.247008772952287
 40
0.3705794281864186
 40
0.4954448971899152
 40
0.6237158240712294
 40
0.7463400879435556
 40
0.874031332264938
 40
1.0
 40
1.0
 40
1.0
 40
1.0
 10
19.04999999999926
 20
46.08654058785242
 30
0.0
 10
19.04914514527267
 20
46.11406385846007
 30
0.0
 10
19.04764488553536
 20
46.16236686650057
 30
0.0
 10
19.03270035564807
 20
46.2580734303455
 30
0.0
 10
18.99934810340717
 20
46.3716489757231
 30
0.0
 10
18.93142652627039
 20
46.50185076862453
 30
0.0
 10
18.83846990529851
 20
46.61809366748986
 30
0.0
 10
18.72439804366284
 20
46.71378248322259
 30
0.0
 10
18.59269894447395
 20
46.7852135274685
 30
0.0
 10
18.4500296678716
 20
46.83127284066229
 30
0.0
 10
18.34978296784907
 20
46.83708965157285
 30
0.0
 10
18.29999999999934
 20
46.83997830636628
 30
0.0
  0
SPLINE
  5
293
330
1F
100
AcDbEntity
  8
1
  6
SLD-Solid
370
    25
100
AcDbSpline
210
0.0
220
0.0
230
1.0
 70
     8
 71
     3
 72
     8
 73
     4
 74
     0
 42
0.000000001
 43
0.00000001
 40
0.0
 40
0.0
 40
0.0
 40
0.0
 40
1.0
 40
1.0
 40
1.0
 40
1.0
 10
9.185000000000027
 20
-44.61432468190729
 30
0.0
 10
8.868459357486675
 20
-45.18504791213533
 30
0.0
 10
8.551560425574479
 20
-45.75557320880057
 30
0.0
 10
8.234341191997007
 20
-46.3259174221083
 30
0.0
  0
SPLINE
  5
294
330
1F
100
AcDbEntity
  8
1
  6
SLD-Solid
370
    25
100
AcDbSpline
210
0.0
220
0.0
230
1.0
 70
     8
 71
     3
 72
     8
 73
     4
 74
     0
 42
0.000000001
 43
0.00000001
 40
0.0
 40
0.0
 40
0.0
 40
0.0
 40
0.00087976719834
 40
0.00087976719834
 40
0.00087976719834
 40
0.00087976719834
 10
7.866838492538081
 20
-46.80622760792592
 30
0.0
 10
7.989720100472428
 20
-46.64622958751872
 30
0.0
 10
8.112226806384959
 20
-46.48612739423184
 30
0.0
 10
8.234341191997007
 20
-46.3259174221083
 30
0.0
  0
SPLINE
  5
295
330
1F
100
AcDbEntity
  8
1
  6
SLD-Solid
370
    25
100
AcDbSpline
210
0.0
220
0.0
230
1.0
 70
     8
 71
     3
 72
     8
 73
     4
 74
     0
 42
0.000000001
 43
0.00000001
 40
0.0
 40
0.0
 40
0.0
 40
0.0
 40
0.0006700961442869
 40
0.0006700961442869
 40
0.0006700961442869
 40
0.0006700961442869
 10
8.130592225982772
 20
46.51242592367527
 30
0.0
 10
8.042962260770956
 20
46.62167544447082
 30
0.0
 10
7.955041139424672
 20
46.7308590553227
 30
0.0
 10
7.866838492538081
 20
46.83997819508586
 30
0.0
  0
SPLINE
  5
296
330
1F
100
AcDbEntity
  8
1
  6
SLD-Solid
370
    25
100
AcDbSpline
210
0.0
220
0.0
230
1.0
 70
     8
 71
     3
 72
     8
 73
     4
 74
     0
 42
0.000000001
 43
0.00000001
 40
0.0
 40
0.0
 40
0.0
 40
0.0
 40
1.0
 40
1.0
 40
1.0
 40
1.0
 10
9.184999999999993
 20
44.61432468190733
 30
0.0
 10
8.833957030269193
 20
45.2472556573512
 30
0.0
 10
8.482471350034368
 20
45.87994718917611
 30
0.0
 10
8.130592225982772
 20
46.51242592367527
 30
0.0
  0
SPLINE
  5
297
330
1F
100
AcDbEntity
  8
1
  6
SLD-Solid
370
    25
100
AcDbSpline
210
0.0
220
0.0
230
1.0
 70
     8
 71
     3
 72
    14
 73
    10
 74
     0
 42
0.000000001
 43
0.00000001
 40
0.0
 40
0.0
 40
0.0
 40
0.0
 40
0.25
 40
0.25
 40
0.5
 40
0.5
 40
0.75
 40
0.75
 40
1.0
 40
1.0
 40
1.0
 40
1.0
 10
9.184999999999999
 20
6.383301096406481
 30
0.0
 10
9.166077014827287
 20
6.462936999506251
 30
0.0
 10
9.151094003787161
 20
6.544337456094257
 30
0.0
 10
9.130454264739086
 20
6.711319145874292
 30
0.0
 10
9.125005258280249
 20
6.796919581442469
 30
0.0
 10
9.124994749585904
 20
6.962646994794659
 30
0.0
 10
9.130387799404668
 20
7.044994692782164
 30
0.0
 10
9.15105634335114
 20
7.2016366504324
 30
0.0
 10
9.166067460973881
 20
7.275291764322525
 30
0.0
 10
9.184999999999993
 20
7.345039568455523
 30
0.0
  0
SPLINE
  5
298
330
1F
100
AcDbEntity
  8
1
  6
SLD-Solid
370
    25
100
AcDbSpline
210
0.0
220
0.0
230
1.0
 70
     8
 71
     3
 72
    14
 73
    10
 74
     0
 42
0.000000001
 43
0.00000001
 40
0.0
 40
0.0
 40
0.0
 40
0.0
 40
0.25
 40
0.25
 40
0.5
 40
0.5
 40
0.75
 40
0.75
 40
1.0
 40
1.0
 40
1.0
 40
1.0
 10
9.184999999999999
 20
-16.34007481478486
 30
0.0
 10
9.166077014827287
 20
-16.28060553094038
 30
0.0
 10
9.151094003787163
 20
-16.21609231516498
 30
0.0
 10
9.130454264739088
 20
-16.0751106107695
 30
0.0
 10
9.12500525828025
 20
-15.99844587503395
 30
0.0
 10
9.124994749585905
 20
-15.8409924583081
 30
0.0
 10
9.130387799404671
 20
-15.75813272261398
 30
0.0
 10
9.151056343351144
 20
-15.59160555191078
 30
0.0
 10
9.166067460973885
 20
-15.50877191385105
 30
0.0
 10
9.184999999999999
 20
-15.42629923363456
 30
0.0
  0
SPLINE
  5
299
330
1F
100
AcDbEntity
  8
1
  6
SLD-Solid
370
    25
100
AcDbSpline
210
0.0
220
0.0
230
1.0
 70
     8
 71
     3
 72
    14
 73
    10
 74
     0
 42
0.000000001
 43
0.00000001
 40
0.0
 40
0.0
 40
0.0
 40
0.0
 40
0.25
 40
0.25
 40
0.5
 40
0.5
 40
0.75
 40
0.75
 40
1.0
 40
1.0
 40
1.0
 40
1.0
 10
9.185000000000027
 20
-24.33478737866564
 30
0.0
 10
9.166077014827314
 20
-24.28735689756055
 30
0.0
 10
9.151094003787218
 20
-24.2339082044753
 30
0.0
 10
9.130454264739102
 20
-24.11274563141695
 30
0.0
 10
9.125005258280265
 20
-24.04477782226987
 30
0.0
 10
9.124994749585918
 20
-23.90115600591202
 30
0.0
 10
9.130387799404685
 20
-23.82362920609323
 30
0.0
 10
9.151056343351172
 20
-23.66427844461007
 30
0.0
 10
9.166067460973885
 20
-23.58331039370514
 30
0.0
 10
9.184999999999999
 20
-23.50126104141826
 30
0.0
  0
SPLINE
  5
29A
330
1F
100
AcDbEntity
  8
1
  6
SLD-Solid
370
    25
100
AcDbSpline
210
0.0
220
0.0
230
1.0
 70
     8
 71
     3
 72
    12
 73
     8
 74
     0
 42
0.000000001
 43
0.00000001
 40
0.0
 40
0.0
 40
0.0
 40
0.0
 40
0.4999999999999966
 40
0.4999999999999966
 40
0.7499999999999982
 40
0.7499999999999982
 40
1.0
 40
1.0
 40
1.0
 40
1.0
 10
13.01500000000001
 20
-15.26779067226578
 30
0.0
 10
13.08149652973022
 20
-15.4886533640502
 30
0.0
 10
13.12487441551841
 20
-15.72708904676496
 30
0.0
 10
13.12506236667169
 20
-16.05878532229645
 30
0.0
 10
13.11461866891571
 20
-16.16149000298397
 30
0.0
 10
13.07592531430966
 20
-16.34653146328343
 30
0.0
 10
13.04827931420441
 20
-16.4269980034288
 30
0.0
 10
13.01500000000039
 20
-16.49717297017859
 30
0.0
  0
SPLINE
  5
29B
330
1F
100
AcDbEntity
  8
1
  6
SLD-Solid
370
    25
100
AcDbSpline
210
0.0
220
0.0
230
1.0
 70
     8
 71
     3
 72
    12
 73
     8
 74
     0
 42
0.000000001
 43
0.00000001
 40
0.0
 40
0.0
 40
0.0
 40
0.0
 40
0.4999999999999989
 40
0.4999999999999989
 40
0.7499999999999994
 40
0.7499999999999994
 40
1.0
 40
1.0
 40
1.0
 40
1.0
 10
13.01500000000014
 20
7.510821055105872
 30
0.0
 10
13.08149652973026
 20
7.338229587081371
 30
0.0
 10
13.12487441551832
 20
7.126386318039829
 30
0.0
 10
13.12506236667149
 20
6.777449133698599
 30
0.0
 10
13.11461866891547
 20
6.65993966553726
 30
0.0
 10
13.07592531430933
 20
6.43032266118429
 30
0.0
 10
13.04827931420406
 20
6.320728401835527
 30
0.0
 10
13.01500000000001
 20
6.21691008052018
 30
0.0
  0
SPLINE
  5
29C
330
1F
100
AcDbEntity
  8
1
  6
SLD-Solid
370
    25
100
AcDbSpline
210
0.0
220
0.0
230
1.0
 70
     8
 71
     3
 72
     8
 73
     4
 74
     0
 42
0.000000001
 43
0.00000001
 40
0.0
 40
0.0
 40
0.0
 40
0.0
 40
1.0
 40
1.0
 40
1.0
 40
1.0
 10
14.06940814166341
 20
46.51242658449426
 30
0.0
 10
13.71752889478861
 20
45.87994762987059
 30
0.0
 10
13.36604309198833
 20
45.24725587778169
 30
0.0
 10
13.01500000000001
 20
44.61432468190731
 30
0.0
  0
SPLINE
  5
29D
330
1F
100
AcDbEntity
  8
1
  6
SLD-Solid
370
    25
100
AcDbSpline
210
0.0
220
0.0
230
1.0
 70
     8
 71
     3
 72
     8
 73
     4
 74
     0
 42
0.000000001
 43
0.00000001
 40
0.0
 40
0.0
 40
0.0
 40
0.0
 40
0.0006700954286005
 40
0.0006700954286005
 40
0.0006700954286005
 40
0.0006700954286005
 10
14.33316150746115
 20
46.83997830636628
 30
0.0
 10
14.24495898339528
 20
46.73085934965218
 30
0.0
 10
14.15703798460501
 20
46.62167592197788
 30
0.0
 10
14.06940814166341
 20
46.51242658449426
 30
0.0
  0
SPLINE
  5
29E
330
1F
100
AcDbEntity
  8
1
  6
SLD-Solid
370
    25
100
AcDbSpline
210
0.0
220
0.0
230
1.0
 70
     8
 71
     3
 72
     8
 73
     4
 74
     0
 42
0.000000001
 43
0.00000001
 40
0.0000000000000066
 40
0.0000000000000066
 40
0.0000000000000066
 40
0.0000000000000066
 40
0.0006849348851525
 40
0.0006849348851525
 40
0.0006849348851525
 40
0.0006849348851525
 10
14.03288902614304
 20
-46.446782651302
 30
0.0
 10
14.13280481527505
 20
-46.58397966003585
 30
0.0
 10
14.23289772545803
 20
-46.72111911430081
 30
0.0
 10
14.3331615074702
 20
-46.85820268504172
 30
0.0
  0
SPLINE
  5
29F
330
1F
100
AcDbEntity
  8
1
  6
SLD-Solid
370
    25
100
AcDbSpline
210
0.0
220
0.0
230
1.0
 70
     8
 71
     3
 72
     8
 73
     4
 74
     0
 42
0.000000001
 43
0.00000001
 40
0.0
 40
0.0
 40
0.0
 40
0.0
 40
1.0
 40
1.0
 40
1.0
 40
1.0
 10
14.03288902614304
 20
-46.446782651302
 30
0.0
 10
13.69321289773572
 20
-45.83617629652652
 30
0.0
 10
13.35390117994487
 20
-45.22536399303799
 30
0.0
 10
13.01500000000001
 20
-44.61432468190731
 30
0.0
  0
SPLINE
  5
2A0
330
1F
100
AcDbEntity
  8
1
  6
SLD-Solid
370
    25
100
AcDbSpline
210
0.0
220
0.0
230
1.0
 70
     8
 71
     3
 72
    12
 73
     8
 74
     0
 42
0.000000001
 43
0.00000001
 40
0.0
 40
0.0
 40
0.0
 40
0.0
 40
0.5
 40
0.5
 40
0.75
 40
0.75
 40
1.0
 40
1.0
 40
1.0
 40
1.0
 10
13.01500000000039
 20
-23.35625428379986
 30
0.0
 10
13.08149652973052
 20
-23.58165922707943
 30
0.0
 10
13.12487441551866
 20
-23.81479367337627
 30
0.0
 10
13.12506236667189
 20
-24.1174275869622
 30
0.0
 10
13.1146186689159
 20
-24.20734807153103
 30
0.0
 10
13.07592531430982
 20
-24.36219769177634
 30
0.0
 10
13.04827931420455
 20
-24.4256387215621
 30
0.0
 10
13.01500000000051
 20
-24.47767024740665
 30
0.0
  0
SPLINE
  5
2A1
330
1F
100
AcDbEntity
  8
1
  6
SLD-Solid
370
    25
100
AcDbSpline
210
0.0
220
0.0
230
1.0
 70
     8
 71
     3
 72
    16
 73
    12
 74
     0
 42
0.000000001
 43
0.00000001
 40
0.0
 40
0.0
 40
0.0
 40
0.0
 40
0.2499999999999984
 40
0.2499999999999984
 40
0.4999999999999969
 40
0.4999999999999969
 40
0.7499999999999953
 40
0.7499999999999953
 40
0.8749999999999977
 40
0.8749999999999977
 40
1.0
 40
1.0
 40
1.0
 40
1.0
 10
12.2650000000003
 20
-14.00757694761919
 30
0.0
 10
12.37355509804373
 20
-14.07927415315782
 30
0.0
 10
12.47074395705841
 20
-14.16609747635386
 30
0.0
 10
12.64564545169285
 20
-14.36225576880668
 30
0.0
 10
12.71967183958071
 20
-14.46741328740247
 30
0.0
 10
12.84711571690313
 20
-14.68835520197347
 30
0.0
 10
12.90008820251264
 20
-14.80425789868227
 30
0.0
 10
12.96162241617911
 20
-14.9742917527043
 30
0.0
 10
12.97929092721323
 20
-15.03078371597057
 30
0.0
 10
13.0061076569019
 20
-15.1337216809047
 30
0.0
 10
13.01499999999894
 20
-15.17967072087978
 30
0.0
 10
13.0150000000001
 20
-15.20215823402329
 30
0.0
  0
SPLINE
  5
2A2
330
1F
100
AcDbEntity
  8
1
  6
SLD-Solid
370
    25
100
AcDbSpline
210
0.0
220
0.0
230
1.0
 70
     8
 71
     3
 72
    16
 73
    12
 74
     0
 42
0.000000001
 43
0.00000001
 40
0.0
 40
0.0
 40
0.0
 40
0.0
 40
0.1250000000000001
 40
0.1250000000000001
 40
0.2500000000000002
 40
0.2500000000000002
 40
0.5000000000000001
 40
0.5000000000000001
 40
0.75
 40
0.75
 40
1.0
 40
1.0
 40
1.0
 40
1.0
 10
13.01500000000047
 20
6.188545984905842
 30
0.0
 10
13.01500000000047
 20
6.178864337518791
 30
0.0
 10
13.0059469958451
 20
6.143142644164866
 30
0.0
 10
12.9791204834882
 20
6.057920640039524
 30
0.0
 10
12.96158504825632
 20
6.008876619220895
 30
0.0
 10
12.89978695875819
 20
5.857052905711336
 30
0.0
 10
12.84772084681236
 20
5.752343018195684
 30
0.0
 10
12.72004082376348
 20
5.546064157821096
 30
0.0
 10
12.64492107724083
 20
5.44541833833923
 30
0.0
 10
12.47285806788803
 20
5.25877044012074
 30
0.0
 10
12.37350296549515
 20
5.170548412777232
 30
0.0
 10
12.26500000000069
 20
5.095701302471771
 30
0.0
  0
SPLINE
  5
2A3
330
1F
100
AcDbEntity
  8
1
  6
SLD-Solid
370
    25
100
AcDbSpline
210
0.0
220
0.0
230
1.0
 70
     8
 71
     3
 72
    16
 73
    12
 74
     0
 42
0.000000001
 43
0.00000001
 40
0.0
 40
0.0
 40
0.0
 40
0.0
 40
0.1249999999999996
 40
0.1249999999999996
 40
0.2499999999999992
 40
0.2499999999999992
 40
0.4999999999999994
 40
0.4999999999999994
 40
0.7499999999999997
 40
0.7499999999999997
 40
1.0
 40
1.0
 40
1.0
 40
1.0
 10
9.184999999999999
 20
-15.36066972152461
 30
0.0
 10
9.184999999999999
 20
-15.33656618969542
 30
0.0
 10
9.19494924791897
 20
-15.27742009335968
 30
0.0
 10
9.221027119802008
 20
-15.15946175929096
 30
0.0
 10
9.23759402235262
 20
-15.09731841344438
 30
0.0
 10
9.29646292745033
 20
-14.90951022876762
 30
0.0
 10
9.346990256271988
 20
-14.7852032333478
 30
0.0
 10
9.471582827246069
 20
-14.54626766040269
 30
0.0
 10
9.547123345571118
 20
-14.42939661874494
 30
0.0
 10
9.721968455709023
 20
-14.21765997840106
 30
0.0
 10
9.823083693381474
 20
-14.12054883147443
 30
0.0
 10
9.934999999999597
 20
-14.04169177846343
 30
0.0
  0
SPLINE
  5
2A4
330
1F
100
AcDbEntity
  8
1
  6
SLD-Solid
370
    25
100
AcDbSpline
210
0.0
220
0.0
230
1.0
 70
     8
 71
     3
 72
    16
 73
    12
 74
     0
 42
0.000000001
 43
0.00000001
 40
0.0
 40
0.0
 40
0.0
 40
0.0
 40
0.2499999999999997
 40
0.2499999999999997
 40
0.4999999999999993
 40
0.4999999999999993
 40
0.749999999999999
 40
0.749999999999999
 40
0.8749999999999994
 40
0.8749999999999994
 40
1.0
 40
1.0
 40
1.0
 40
1.0
 10
9.934999999999999
 20
5.131334987721926
 30
0.0
 10
9.822927112807605
 20
5.213824996536568
 30
0.0
 10
9.723088154733938
 20
5.30879307238747
 30
0.0
 10
9.546705220420614
 20
5.515890946924736
 30
0.0
 10
9.472825657148604
 20
5.624634282993333
 30
0.0
 10
9.34724986425868
 20
5.850509843190042
 30
0.0
 10
9.296242842885619
 20
5.967397848334707
 30
0.0
 10
9.237643725572578
 20
6.137438351146558
 30
0.0
 10
9.220824084193877
 20
6.194227429479032
 30
0.0
 10
9.19484965695304
 20
6.296047602364303
 30
0.0
 10
9.185000000000027
 20
6.34469792460346
 30
0.0
 10
9.184999999999999
 20
6.354938265365512
 30
0.0
  0
SPLINE
  5
2A5
330
1F
100
AcDbEntity
  8
1
  6
SLD-Solid
370
    25
100
AcDbSpline
210
0.0
220
0.0
230
1.0
 70
     8
 71
     3
 72
    12
 73
     8
 74
     0
 42
0.000000001
 43
0.00000001
 40
0.0
 40
0.0
 40
0.0
 40
0.0
 40
0.25
 40
0.25
 40
0.5
 40
0.5
 40
1.0
 40
1.0
 40
1.0
 40
1.0
 10
12.26500000000069
 20
5.095701302471771
 30
0.0
 10
12.09322616456722
 20
4.977208917035951
 30
0.0
 10
11.90768141147937
 20
4.887872416463955
 30
0.0
 10
11.50936708789059
 20
4.766951904252366
 30
0.0
 10
11.30348131316256
 20
4.738009141757322
 30
0.0
 10
10.68100581585889
 20
4.746998792743303
 30
0.0
 10
10.27105315097428
 20
4.883986783526216
 30
0.0
 10
9.934999999999999
 20
5.131334987721926
 30
0.0
  0
SPLINE
  5
2A6
330
1F
100
AcDbEntity
  8
1
  6
SLD-Solid
370
    25
100
AcDbSpline
210
0.0
220
0.0
230
1.0
 70
     8
 71
     3
 72
    16
 73
    12
 74
     0
 42
0.000000001
 43
0.00000001
 40
0.0
 40
0.0
 40
0.0
 40
0.0
 40
0.1249999999999996
 40
0.1249999999999996
 40
0.2499999999999992
 40
0.2499999999999992
 40
0.4999999999999994
 40
0.4999999999999994
 40
0.7499999999999997
 40
0.7499999999999997
 40
1.0
 40
1.0
 40
1.0
 40
1.0
 10
9.184999999999993
 20
7.316676737414735
 30
0.0
 10
9.184999999999993
 20
7.306260015138747
 30
0.0
 10
9.194949247918967
 20
7.336635556971291
 30
0.0
 10
9.221027119802002
 20
7.40798507104068
 30
0.0
 10
9.237594022352617
 20
7.450708908209563
 30
0.0
 10
9.296462927450325
 20
7.584055308325961
 30
0.0
 10
9.346990256271985
 20
7.678447799175592
 30
0.0
 10
9.471582827246065
 20
7.865355579011383
 30
0.0
 10
9.547123345571114
 20
7.960144712589447
 30
0.0
 10
9.721968455708993
 20
8.141254969137616
 30
0.0
 10
9.823083693381498
 20
8.229415923767911
 30
0.0
 10
9.934999999999595
 20
8.310924854020287
 30
0.0
  0
SPLINE
  5
2A7
330
1F
100
AcDbEntity
  8
1
  6
SLD-Solid
370
    25
100
AcDbSpline
210
0.0
220
0.0
230
1.0
 70
     8
 71
     3
 72
    12
 73
     8
 74
     0
 42
0.000000001
 43
0.00000001
 40
0.0
 40
0.0
 40
0.0
 40
0.0
 40
0.25
 40
0.25
 40
0.5
 40
0.5
 40
1.0
 40
1.0
 40
1.0
 40
1.0
 10
9.934999999999595
 20
8.310924854020287
 30
0.0
 10
10.10302617041521
 20
8.43329874053278
 30
0.0
 10
10.28571921790675
 20
8.527121001837251
 30
0.0
 10
10.68010092317973
 20
8.658520528767983
 30
0.0
 10
10.88499449382985
 20
8.693284687393255
 30
0.0
 10
11.5074495868725
 20
8.703230282610768
 30
0.0
 10
11.92145100806197
 20
8.580619292564249
 30
0.0
 10
12.2650000000003
 20
8.346179840472791
 30
0.0
  0
SPLINE
  5
2A8
330
1F
100
AcDbEntity
  8
1
  6
SLD-Solid
370
    25
100
AcDbSpline
210
0.0
220
0.0
230
1.0
 70
     8
 71
     3
 72
    16
 73
    12
 74
     0
 42
0.000000001
 43
0.00000001
 40
0.0
 40
0.0
 40
0.0
 40
0.0
 40
0.2500000000000005
 40
0.2500000000000005
 40
0.500000000000001
 40
0.500000000000001
 40
0.7500000000000016
 40
0.7500000000000016
 40
0.8750000000000008
 40
0.8750000000000008
 40
1.0
 40
1.0
 40
1.0
 40
1.0
 10
12.2650000000003
 20
8.346179840472791
 30
0.0
 10
12.37355509804373
 20
8.272101329680364
 30
0.0
 10
12.4707439570584
 20
8.193604700497549
 30
0.0
 10
12.64564545169283
 20
8.027683707605961
 30
0.0
 10
12.7196718395807
 20
7.943823489136283
 30
0.0
 10
12.84711571690313
 20
7.77554653945281
 30
0.0
 10
12.90008820251264
 20
7.690661548008369
 30
0.0
 10
12.96162241617913
 20
7.578029140553929
 30
0.0
 10
12.97929092721323
 20
7.542604672667965
 30
0.0
 10
13.00610765690192
 20
7.489408489710338
 30
0.0
 10
13.01499999999896
 20
7.472738625238347
 30
0.0
 10
13.01500000000014
 20
7.482456959490777
 30
0.0
  0
SPLINE
  5
2A9
330
1F
100
AcDbEntity
  8
1
  6
SLD-Solid
370
    25
100
AcDbSpline
210
0.0
220
0.0
230
1.0
 70
     8
 71
     3
 72
    12
 73
     8
 74
     0
 42
0.000000001
 43
0.00000001
 40
0.0
 40
0.0
 40
0.0
 40
0.0
 40
0.2500000000000007
 40
0.2500000000000007
 40
0.5000000000000014
 40
0.5000000000000014
 40
1.0
 40
1.0
 40
1.0
 40
1.0
 10
9.934999999998888
 20
43.63301502303043
 30
0.0
 10
9.83511921257095
 20
43.63301502303059
 30
0.0
 10
9.735031007328102
 20
43.65414350767951
 30
0.0
 10
9.550755663023603
 20
43.73539237501984
 30
0.0
 10
9.467863842961833
 20
43.79468442323389
 30
0.0
 10
9.2614217972775
 20
44.01450213782674
 30
0.0
 10
9.185000000000027
 20
44.21514437565139
 30
0.0
 10
9.184999999999999
 20
44.41455279522693
 30
0.0
  0
SPLINE
  5
2AA
330
1F
100
AcDbEntity
  8
1
  6
SLD-Solid
370
    25
100
AcDbSpline
210
0.0
220
0.0
230
1.0
 70
     8
 71
     3
 72
    12
 73
     8
 74
     0
 42
0.000000001
 43
0.00000001
 40
0.0
 40
0.0
 40
0.0
 40
0.0
 40
0.5000000000000063
 40
0.5000000000000063
 40
0.7500000000000031
 40
0.7500000000000031
 40
1.0
 40
1.0
 40
1.0
 40
1.0
 10
13.01500000000001
 20
44.41455279522865
 30
0.0
 10
13.01500000000044
 20
44.21464324025656
 30
0.0
 10
12.93742224982702
 20
44.01319670577967
 30
0.0
 10
12.73251213771283
 20
43.79512211107204
 30
0.0
 10
12.64883068651113
 20
43.73525024845308
 30
0.0
 10
12.46587661012802
 20
43.65450353783469
 30
0.0
 10
12.36573901357175
 20
43.63301502303043
 30
0.0
 10
12.26500000000001
 20
43.63301502303045
 30
0.0
  0
SPLINE
  5
2AB
330
1F
100
AcDbEntity
  8
1
  6
SLD-Solid
370
    25
100
AcDbSpline
210
0.0
220
0.0
230
1.0
 70
     8
 71
     3
 72
    12
 73
     8
 74
     0
 42
0.000000001
 43
0.00000001
 40
0.0
 40
0.0
 40
0.0
 40
0.0
 40
0.2500000000000001
 40
0.2500000000000001
 40
0.5000000000000001
 40
0.5000000000000001
 40
1.0
 40
1.0
 40
1.0
 40
1.0
 10
9.934999999999597
 20
-14.04169177846343
 30
0.0
 10
10.10302617041522
 20
-13.92329930262073
 30
0.0
 10
10.28571921790677
 20
-13.83229530779006
 30
0.0
 10
10.68010092317978
 20
-13.70476137883975
 30
0.0
 10
10.8849944938299
 20
-13.67096408621715
 30
0.0
 10
11.50744958687259
 20
-13.6612996392684
 30
0.0
 10
11.92145100806201
 20
-13.78067371477652
 30
0.0
 10
12.2650000000003
 20
-14.00757694761919
 30
0.0
  0
SPLINE
  5
2AC
330
1F
100
AcDbEntity
  8
1
  6
SLD-Solid
370
    25
100
AcDbSpline
210
0.0
220
0.0
230
1.0
 70
     8
 71
     3
 72
    16
 73
    12
 74
     0
 42
0.000000001
 43
0.00000001
 40
0.0
 40
0.0
 40
0.0
 40
0.0
 40
0.1250000000000043
 40
0.1250000000000043
 40
0.2500000000000085
 40
0.2500000000000085
 40
0.5000000000000057
 40
0.5000000000000057
 40
0.7500000000000029
 40
0.7500000000000029
 40
1.0
 40
1.0
 40
1.0
 40
1.0
 10
13.01500000000039
 20
-16.4315405319404
 30
0.0
 10
13.01500000000039
 20
-16.40897270744808
 30
0.0
 10
13.00586006921509
 20
-16.41250590992746
 30
0.0
 10
12.97905676333259
 20
-16.44128291303706
 30
0.0
 10
12.96129813559539
 20
-16.46550924038479
 30
0.0
 10
12.89984145231611
 20
-16.54607814784246
 30
0.0
 10
12.84660313151963
 20
-16.61225201052815
 30
0.0
 10
12.719660172943
 20
-16.74604853319119
 30
0.0
 10
12.64435854248486
 20
-16.81619148003636
 30
0.0
 10
12.47036668863935
 20
-16.95689584699064
 30
0.0
 10
12.37382816094063
 20
-17.02593958791165
 30
0.0
 10
12.26500000000069
 20
-17.095950763788
 30
0.0
  0
SPLINE
  5
2AD
330
1F
100
AcDbEntity
  8
1
  6
SLD-Solid
370
    25
100
AcDbSpline
210
0.0
220
0.0
230
1.0
 70
     8
 71
     3
 72
    12
 73
     8
 74
     0
 42
0.000000001
 43
0.00000001
 40
0.0
 40
0.0
 40
0.0
 40
0.0
 40
0.25
 40
0.25
 40
0.5
 40
0.5
 40
1.0
 40
1.0
 40
1.0
 40
1.0
 10
12.26500000000069
 20
-17.095950763788
 30
0.0
 10
12.09322616456722
 20
-17.20645606039147
 30
0.0
 10
11.90768141147937
 20
-17.28955955756763
 30
0.0
 10
11.50936708789059
 20
-17.40198293367125
 30
0.0
 10
11.30348131316254
 20
-17.4288493041319
 30
0.0
 10
10.68100581585887
 20
-17.42049964268104
 30
0.0
 10
10.27105315097428
 20
-17.29348189488108
 30
0.0
 10
9.934999999999999
 20
-17.0627122142027
 30
0.0
  0
SPLINE
  5
2AE
330
1F
100
AcDbEntity
  8
1
  6
SLD-Solid
370
    25
100
AcDbSpline
210
0.0
220
0.0
230
1.0
 70
     8
 71
     3
 72
    16
 73
    12
 74
     0
 42
0.000000001
 43
0.00000001
 40
0.0
 40
0.0
 40
0.0
 40
0.0
 40
0.2499999999999992
 40
0.2499999999999992
 40
0.4999999999999984
 40
0.4999999999999984
 40
0.7499999999999977
 40
0.7499999999999977
 40
0.8749999999999988
 40
0.8749999999999988
 40
1.0
 40
1.0
 40
1.0
 40
1.0
 10
9.934999999999999
 20
-17.0627122142027
 30
0.0
 10
9.822927112807605
 20
-16.98575110160758
 30
0.0
 10
9.723088154733938
 20
-16.90863634792431
 30
0.0
 10
9.546705220420614
 20
-16.75182162420025
 30
0.0
 10
9.472825657148604
 20
-16.67471435137312
 30
0.0
 10
9.34724986425868
 20
-16.5217687635996
 30
0.0
 10
9.296242842885619
 20
-16.44575888738576
 30
0.0
 10
9.237643725572578
 20
-16.34504967157098
 30
0.0
 10
9.220824084193877
 20
-16.31299346349982
 30
0.0
 10
9.19484965695304
 20
-16.26639061413289
 30
0.0
 10
9.184999999999999
 20
-16.2507499047408
 30
0.0
 10
9.184999999999999
 20
-16.27444530267508
 30
0.0
  0
SPLINE
  5
2AF
330
1F
100
AcDbEntity
  8
1
  6
SLD-Solid
370
    25
100
AcDbSpline
210
0.0
220
0.0
230
1.0
 70
     8
 71
     3
 72
    16
 73
    12
 74
     0
 42
0.000000001
 43
0.00000001
 40
0.0
 40
0.0
 40
0.0
 40
0.0
 40
0.1249999999999981
 40
0.1249999999999981
 40
0.2499999999999962
 40
0.2499999999999962
 40
0.4999999999999974
 40
0.4999999999999974
 40
0.7499999999999987
 40
0.7499999999999987
 40
1.0
 40
1.0
 40
1.0
 40
1.0
 10
9.184999999999999
 20
-23.40243148931727
 30
0.0
 10
9.184999999999999
 20
-23.36613468962844
 30
0.0
 10
9.19494924791897
 20
-23.29943651760868
 30
0.0
 10
9.221027119801981
 20
-23.17072338643246
 30
0.0
 10
9.23759402235262
 20
-23.10496762756868
 30
0.0
 10
9.29646292745033
 20
-22.90793257121058
 30
0.0
 10
9.346990256271988
 20
-22.77997089231069
 30
0.0
 10
9.471582827246069
 20
-22.53619871837397
 30
0.0
 10
9.547123345571118
 20
-22.41830817645366
 30
0.0
 10
9.721968455708996
 20
-22.20847529148533
 30
0.0
 10
9.823083693381474
 20
-22.11427523467965
 30
0.0
 10
9.934999999999597
 20
-22.04174881428851
 30
0.0
  0
SPLINE
  5
2B0
330
1F
100
AcDbEntity
  8
1
  6
SLD-Solid
370
    25
100
AcDbSpline
210
0.0
220
0.0
230
1.0
 70
     8
 71
     3
 72
    16
 73
    12
 74
     0
 42
0.000000001
 43
0.00000001
 40
0.0
 40
0.0
 40
0.0
 40
0.0
 40
0.2500000000000006
 40
0.2500000000000006
 40
0.5000000000000011
 40
0.5000000000000011
 40
0.7500000000000017
 40
0.7500000000000017
 40
0.8750000000000008
 40
0.8750000000000008
 40
1.0
 40
1.0
 40
1.0
 40
1.0
 10
12.2650000000003
 20
-22.01036988218355
 30
0.0
 10
12.37355509804375
 20
-22.07632316083131
 30
0.0
 10
12.47074395705842
 20
-22.16067362297185
 30
0.0
 10
12.64564545169284
 20
-22.35581370494359
 30
0.0
 10
12.71967183958067
 20
-22.46245980992403
 30
0.0
 10
12.84711571690312
 20
-22.68969567589025
 30
0.0
 10
12.90008820251263
 20
-22.81025588749899
 30
0.0
 10
12.9616224161791
 20
-22.99188003853193
 30
0.0
 10
12.97929092721321
 20
-23.05302111516117
 30
0.0
 10
13.00610765690189
 20
-23.16897054732961
 30
0.0
 10
13.01499999999892
 20
-23.22355704064619
 30
0.0
 10
13.01500000000009
 20
-23.25742032532202
 30
0.0
  0
SPLINE
  5
2B1
330
1F
100
AcDbEntity
  8
1
  6
SLD-Solid
370
    25
100
AcDbSpline
210
0.0
220
0.0
230
1.0
 70
     8
 71
     3
 72
    12
 73
     8
 74
     0
 42
0.000000001
 43
0.00000001
 40
0.0
 40
0.0
 40
0.0
 40
0.0
 40
0.2500000000000001
 40
0.2500000000000001
 40
0.5000000000000001
 40
0.5000000000000001
 40
1.0
 40
1.0
 40
1.0
 40
1.0
 10
9.934999999999597
 20
-22.04174881428851
 30
0.0
 10
10.10302617041522
 20
-21.93286086899695
 30
0.0
 10
10.28571921790677
 20
-21.84906584944236
 30
0.0
 10
10.68010092317978
 20
-21.73160108196194
 30
0.0
 10
10.8849944938299
 20
-21.70044917027723
 30
0.0
 10
11.50744958687258
 20
-21.69154304607459
 30
0.0
 10
11.92145100806201
 20
-21.8016447020413
 30
0.0
 10
12.2650000000003
 20
-22.01036988218355
 30
0.0
  0
SPLINE
  5
2B2
330
1F
100
AcDbEntity
  8
1
  6
SLD-Solid
370
    25
100
AcDbSpline
210
0.0
220
0.0
230
1.0
 70
     8
 71
     3
 72
    20
 73
    16
 74
     0
 42
0.000000001
 43
0.00000001
 40
0.0
 40
0.0
 40
0.0
 40
0.0
 40
0.2499999999999995
 40
0.2499999999999995
 40
0.3749999999999996
 40
0.3749999999999996
 40
0.4999999999999997
 40
0.4999999999999997
 40
0.6249999999999998
 40
0.6249999999999998
 40
0.7499999999999998
 40
0.7499999999999998
 40
0.8749999999999999
 40
0.8749999999999999
 40
1.0
 40
1.0
 40
1.0
 40
1.0
 10
22.05000000000004
 20
-35.73121908068102
 30
0.0
 10
21.66922377118624
 20
-35.86384415786488
 30
0.0
 10
21.31162946310861
 20
-36.05997357681716
 30
0.0
 10
20.80461033399458
 20
-36.43463000579215
 30
0.0
 10
20.63959554691332
 20
-36.57450688538905
 30
0.0
 10
20.32780790850046
 20
-36.87670837486667
 30
0.0
 10
20.18055739157691
 20
-37.03909823549804
 30
0.0
 10
19.90437838386984
 20
-37.38780856449754
 30
0.0
 10
19.77541478595812
 20
-37.57408317904434
 30
0.0
 10
19.53911026424053
 20
-37.97487402990451
 30
0.0
 10
19.43247853269459
 20
-38.18887384788442
 30
0.0
 10
19.25401309592685
 20
-38.6344457699691
 30
0.0
 10
19.18049955270264
 20
-38.87009765477487
 30
0.0
 10
19.07846859286799
 20
-39.35655393999953
 30
0.0
 10
19.05000000000003
 20
-39.60447242800119
 30
0.0
 10
19.05000000000003
 20
-39.85831313191703
 30
0.0
  0
SPLINE
  5
2B3
330
1F
100
AcDbEntity
  8
1
  6
SLD-Solid
370
    25
100
AcDbSpline
210
0.0
220
0.0
230
1.0
 70
     8
 71
     3
 72
    22
 73
    18
 74
     0
 42
0.000000001
 43
0.00000001
 40
0.0
 40
0.0
 40
0.0
 40
0.0
 40
0.1249999999999977
 40
0.1249999999999977
 40
0.1874999999999967
 40
0.1874999999999967
 40
0.2499999999999957
 40
0.2499999999999957
 40
0.3749999999999962
 40
0.3749999999999962
 40
0.4999999999999967
 40
0.4999999999999967
 40
0.6249999999999971
 40
0.6249999999999971
 40
0.7499999999999976
 40
0.7499999999999976
 40
1.0
 40
1.0
 40
1.0
 40
1.0
 10
19.05000000015669
 20
39.82924300512669
 30
0.0
 10
19.05000000014763
 20
39.52698225732082
 30
0.0
 10
19.08950187559016
 20
39.23803324148917
 30
0.0
 10
19.18632847603428
 20
38.81727170352876
 30
0.0
 10
19.22495397286307
 20
38.68026607513234
 30
0.0
 10
19.31061537782915
 20
38.41710190797149
 30
0.0
 10
19.35789603148449
 20
38.28994654112067
 30
0.0
 10
19.5106122297703
 20
37.91929790044623
 30
0.0
 10
19.62773850496369
 20
37.68497268322336
 30
0.0
 10
19.87791823525022
 20
37.247269124082
 30
0.0
 10
20.01101527665831
 20
37.04337174308818
 30
0.0
 10
20.28947591161299
 20
36.65848629441834
 30
0.0
 10
20.4348854527905
 20
36.47758403966373
 30
0.0
 10
20.73634244517467
 20
36.13564715156522
 30
0.0
 10
20.89280787486402
 20
35.97433078255562
 30
0.0
 10
21.37119011729496
 20
35.52423978359158
 30
0.0
 10
21.70334322179685
 20
35.26605895447799
 30
0.0
 10
22.05000000000004
 20
35.05378421761358
 30
0.0
  0
SPLINE
  5
2B4
330
1F
100
AcDbEntity
  8
1
  6
SLD-Solid
370
    25
100
AcDbSpline
210
0.0
220
0.0
230
1.0
 70
     8
 71
     3
 72
    16
 73
    12
 74
     0
 42
0.000000001
 43
0.00000001
 40
0.0
 40
0.0
 40
0.0
 40
0.0
 40
0.1250000000000042
 40
0.1250000000000042
 40
0.2500000000000084
 40
0.2500000000000084
 40
0.5000000000000057
 40
0.5000000000000057
 40
0.7500000000000029
 40
0.7500000000000029
 40
1.0
 40
1.0
 40
1.0
 40
1.0
 10
13.01500000000051
 20
-24.37883628893545
 30
0.0
 10
13.0150000000005
 20
-24.34485206575955
 30
0.0
 10
13.0058600692152
 20
-24.33518567744666
 30
0.0
 10
12.97905676333269
 20
-24.33951716089482
 30
0.0
 10
12.9612981355955
 20
-24.3519763965149
 30
0.0
 10
12.89984145231619
 20
-24.39904123195793
 30
0.0
 10
12.8466031315197
 20
-24.4445174364113
 30
0.0
 10
12.71966017294304
 20
-24.54099130805195
 30
0.0
 10
12.6443585424849
 20
-24.594096247168
 30
0.0
 10
12.47036668863936
 20
-24.70637018299453
 30
0.0
 10
12.37382816094067
 20
-24.76420907926508
 30
0.0
 10
12.26500000000071
 20
-24.82751773352079
 30
0.0
  0
SPLINE
  5
2B5
330
1F
100
AcDbEntity
  8
1
  6
SLD-Solid
370
    25
100
AcDbSpline
210
0.0
220
0.0
230
1.0
 70
     8
 71
     3
 72
    12
 73
     8
 74
     0
 42
0.000000001
 43
0.00000001
 40
0.0
 40
0.0
 40
0.0
 40
0.0
 40
0.25
 40
0.25
 40
0.5
 40
0.5
 40
1.0
 40
1.0
 40
1.0
 40
1.0
 10
12.26500000000071
 20
-24.82751773352079
 30
0.0
 10
12.09322616456722
 20
-24.92744380287363
 30
0.0
 10
11.90768141147937
 20
-25.00250082716171
 30
0.0
 10
11.50936708789059
 20
-25.10401282603554
 30
0.0
 10
11.30348131316254
 20
-25.12825334017076
 30
0.0
 10
10.68100581585887
 20
-25.12071762706723
 30
0.0
 10
10.27105315097428
 20
-25.00617570388297
 30
0.0
 10
9.935000000000013
 20
-24.7974583675922
 30
0.0
  0
SPLINE
  5
2B6
330
1F
100
AcDbEntity
  8
1
  6
SLD-Solid
370
    25
100
AcDbSpline
210
0.0
220
0.0
230
1.0
 70
     8
 71
     3
 72
    16
 73
    12
 74
     0
 42
0.000000001
 43
0.00000001
 40
0.0
 40
0.0
 40
0.0
 40
0.0
 40
0.25
 40
0.25
 40
0.5
 40
0.5
 40
0.75
 40
0.75
 40
0.875
 40
0.875
 40
1.0
 40
1.0
 40
1.0
 40
1.0
 10
9.935000000000013
 20
-24.7974583675922
 30
0.0
 10
9.82292711280762
 20
-24.72785165681628
 30
0.0
 10
9.723088154733952
 20
-24.66302993559876
 30
0.0
 10
9.546705220420629
 20
-24.53680298974552
 30
0.0
 10
9.472825657148617
 20
-24.47749977136635
 30
0.0
 10
9.347249864258709
 20
-24.36393952043521
 30
0.0
 10
9.296242842885647
 20
-24.30935612781713
 30
0.0
 10
9.237643725572605
 20
-24.24310211787506
 30
0.0
 10
9.220824084193904
 20
-24.22307861712537
 30
0.0
 10
9.194849656953066
 20
-24.20167095695302
 30
0.0
 10
9.185000000000027
 20
-24.20027562370498
 30
0.0
 10
9.185000000000027
 20
-24.2359578265648
 30
0.0
  0
SPLINE
  5
2B7
330
1F
100
AcDbEntity
  8
1
  6
SLD-Solid
370
    25
100
AcDbSpline
210
0.0
220
0.0
230
1.0
 70
     8
 71
     3
 72
    12
 73
     8
 74
     0
 42
0.000000001
 43
0.00000001
 40
0.0
 40
0.0
 40
0.0
 40
0.0
 40
0.2499999999999992
 40
0.2499999999999992
 40
0.4999999999999984
 40
0.4999999999999984
 40
1.0
 40
1.0
 40
1.0
 40
1.0
 10
9.934999999999999
 20
-43.63301502303044
 30
0.0
 10
9.835205147597211
 20
-43.63301502303045
 30
0.0
 10
9.733240692232956
 20
-43.65476370384823
 30
0.0
 10
9.550454989704486
 20
-43.73569606259787
 30
0.0
 10
9.467052381540608
 20
-43.79547861362951
 30
0.0
 10
9.2622873418972
 20
-44.01372059499529
 30
0.0
 10
9.184999999999999
 20
-44.21436013461167
 30
0.0
 10
9.184999999999999
 20
-44.41455279522692
 30
0.0
  0
SPLINE
  5
2B8
330
1F
100
AcDbEntity
  8
1
  6
SLD-Solid
370
    25
100
AcDbSpline
210
0.0
220
0.0
230
1.0
 70
     8
 71
     3
 72
    14
 73
    10
 74
     0
 42
0.000000001
 43
0.00000001
 40
0.0
 40
0.0
 40
0.0
 40
0.0
 40
0.25
 40
0.25
 40
0.5
 40
0.5
 40
0.75
 40
0.75
 40
1.0
 40
1.0
 40
1.0
 40
1.0
 10
13.01500000000001
 20
-44.41455279522692
 30
0.0
 10
13.01500000000001
 20
-44.31359684058481
 30
0.0
 10
12.99639812341774
 20
-44.21433752079794
 30
0.0
 10
12.92346523542377
 20
-44.02713873906653
 30
0.0
 10
12.86944851074745
 20
-43.94089204401604
 30
0.0
 10
12.73244181536368
 20
-43.79501127808648
 30
0.0
 10
12.64943646355129
 20
-43.73552784744922
 30
0.0
 10
12.46539582722482
 20
-43.65428111190434
 30
0.0
 10
12.3659395639678
 20
-43.63301502303045
 30
0.0
 10
12.26500000000001
 20
-43.63301502303045
 30
0.0
  0
SPLINE
  5
2B9
330
1F
100
AcDbEntity
  8
1
  6
SLD-Solid
370
    25
100
AcDbSpline
210
0.0
220
0.0
230
1.0
 70
     8
 71
     3
 72
    34
 73
    30
 74
     0
 42
0.000000001
 43
0.00000001
 40
0.4999999999999919
 40
0.4999999999999919
 40
0.4999999999999919
 40
0.4999999999999919
 40
0.5312499999999913
 40
0.5312499999999913
 40
0.5624999999999909
 40
0.5624999999999909
 40
0.6249999999999926
 40
0.6249999999999926
 40
0.6562499999999933
 40
0.6562499999999933
 40
0.6874999999999942
 40
0.6874999999999942
 40
0.718749999999995
 40
0.718749999999995
 40
0.7499999999999958
 40
0.7499999999999958
 40
0.7812499999999967
 40
0.7812499999999967
 40
0.8124999999999974
 40
0.8124999999999974
 40
0.8437499999999983
 40
0.8437499999999983
 40
0.8749999999999991
 40
0.8749999999999991
 40
0.90625
 40
0.90625
 40
0.9375000000000008
 40
0.9375000000000008
 40
1.0
 40
1.0
 40
1.0
 40
1.0
 10
87.00089816399812
 20
-29.28821379025552
 30
0.0
 10
86.83772937525683
 20
-29.28825257890905
 30
0.0
 10
86.67553435134495
 20
-29.27782984929371
 30
0.0
 10
86.35313329797204
 20
-29.23552698586047
 30
0.0
 10
86.19513171898491
 20
-29.20372809433771
 30
0.0
 10
85.74372059405741
 20
-29.07956729177097
 30
0.0
 10
85.46465849751745
 20
-28.95540318484359
 30
0.0
 10
85.11858842832068
 20
-28.7222606722642
 30
0.0
 10
85.01294653898434
 20
-28.63518310390744
 30
0.0
 10
84.83117638075865
 20
-28.44989579102284
 30
0.0
 10
84.75428712039451
 20
-28.35154485967072
 30
0.0
 10
84.62862360277049
 20
-28.14301401503195
 30
0.0
 10
84.5803175385333
 20
-28.03275064865362
 30
0.0
 10
84.51649674849213
 20
-27.80960855587847
 30
0.0
 10
84.50016528087347
 20
-27.6955682290334
 30
0.0
 10
84.49983719107904
 20
-27.46227623634387
 30
0.0
 10
84.51593340282277
 20
-27.34627990495348
 30
0.0
 10
84.57916645600996
 20
-27.11750136991911
 30
0.0
 10
84.62701315700122
 20
-27.00325895380962
 30
0.0
 10
84.75235124131613
 20
-26.78364923099613
 30
0.0
 10
84.82904614286666
 20
-26.67895555753897
 30
0.0
 10
85.01010506422222
 20
-26.47999004360523
 30
0.0
 10
85.11557654487581
 20
-26.38518499593521
 30
0.0
 10
85.34608346385461
 20
-26.21453145177492
 30
0.0
 10
85.4717993722088
 20
-26.13764030020708
 30
0.0
 10
85.74458403949639
 20
-26.00147582371432
 30
0.0
 10
85.89027432936159
 20
-25.94318555167418
 30
0.0
 10
86.34133502320554
 20
-25.80278203293604
 30
0.0
 10
86.66958509651546
 20
-25.75267999107906
 30
0.0
 10
87.00000000000003
 20
-25.75267999107906
 30
0.0
  0
SPLINE
  5
2BA
330
1F
100
AcDbEntity
  8
1
  6
SLD-Solid
370
    25
100
AcDbSpline
210
0.0
220
0.0
230
1.0
 70
     8
 71
     3
 72
    38
 73
    34
 74
     0
 42
0.000000001
 43
0.00000001
 40
0.0
 40
0.0
 40
0.0
 40
0.0
 40
0.0312499999999995
 40
0.0312499999999995
 40
0.062499999999999
 40
0.062499999999999
 40
0.0937499999999985
 40
0.0937499999999985
 40
0.124999999999998
 40
0.124999999999998
 40
0.1562499999999975
 40
0.1562499999999975
 40
0.1874999999999969
 40
0.1874999999999969
 40
0.2187499999999964
 40
0.2187499999999964
 40
0.2499999999999959
 40
0.2499999999999959
 40
0.2812499999999954
 40
0.2812499999999954
 40
0.3124999999999949
 40
0.3124999999999949
 40
0.3437499999999944
 40
0.3437499999999944
 40
0.3749999999999939
 40
0.3749999999999939
 40
0.4062499999999934
 40
0.4062499999999934
 40
0.4374999999999929
 40
0.4374999999999929
 40
0.4687499999999924
 40
0.4687499999999924
 40
0.4999999999999919
 40
0.4999999999999919
 40
0.4999999999999919
 40
0.4999999999999919
 10
87.00000000000003
 20
-25.75267999107906
 30
0.0
 10
87.16520745174233
 20
-25.75267999107906
 30
0.0
 10
87.32764568993984
 20
-25.76488902121121
 30
0.0
 10
87.647212844022
 20
-25.81263825262033
 30
0.0
 10
87.80600012936074
 20
-25.848758854345
 30
0.0
 10
88.10873466230714
 20
-25.94276339035218
 30
0.0
 10
88.25231111495144
 20
-26.00018157081548
 30
0.0
 10
88.52403566158756
 20
-26.13531247097771
 30
0.0
 10
88.65265667322211
 20
-26.21371607366085
 30
0.0
 10
88.88321123009757
 20
-26.38417143987618
 30
0.0
 10
88.98668272079921
 20
-26.47682527400418
 30
0.0
 10
89.16944343572698
 20
-26.67693995195542
 30
0.0
 10
89.247083613048
 20
-26.78294141527477
 30
0.0
 10
89.37177846651923
 20
-27.00086330516271
 30
0.0
 10
89.41978650922944
 20
-27.11439207444733
 30
0.0
 10
89.48402098287816
 20
-27.34544745581484
 30
0.0
 10
89.49991200579949
 20
-27.46089194876609
 30
0.0
 10
89.50008727234705
 20
-27.69153714388314
 30
0.0
 10
89.4838548338667
 20
-27.80793021145761
 30
0.0
 10
89.42007050431397
 20
-28.03183781056281
 30
0.0
 10
89.3728762199146
 20
-28.13996959308068
 30
0.0
 10
89.24770232298975
 20
-28.34878381983748
 30
0.0
 10
89.16944544104308
 20
-28.44910639042429
 30
0.0
 10
88.98852910811522
 20
-28.6338326587765
 30
0.0
 10
88.8852449858191
 20
-28.719442172215
 30
0.0
 10
88.65198803860494
 20
-28.87705092277221
 30
0.0
 10
88.52559686159553
 20
-28.94659694922698
 30
0.0
 10
88.25493182035848
 20
-29.06782515497359
 30
0.0
 10
88.10884339026539
 20
-29.12001219780344
 30
0.0
 10
87.80597292294532
 20
-29.20353023078867
 30
0.0
 10
87.65014308853783
 20
-29.23490065067529
 30
0.0
 10
87.32978263947031
 20
-29.27732343240068
 30
0.0
 10
87.1640669527394
 20
-29.28817500160199
 30
0.0
 10
87.00089816399812
 20
-29.28821379025552
 30
0.0
  0
SPLINE
  5
2BB
330
1F
100
AcDbEntity
  8
SK3
  6
SLD-Dashed
370
    18
100
AcDbSpline
210
0.0
220
0.0
230
1.0
 70
     8
 71
     3
 72
    34
 73
    30
 74
     0
 42
0.000000001
 43
0.00000001
 40
0.5000000000000033
 40
0.5000000000000033
 40
0.5000000000000033
 40
0.5000000000000033
 40
0.5625000000000039
 40
0.5625000000000039
 40
0.5937500000000036
 40
0.5937500000000036
 40
0.6250000000000033
 40
0.6250000000000033
 40
0.6562500000000031
 40
0.6562500000000031
 40
0.6875000000000028
 40
0.6875000000000028
 40
0.7187500000000026
 40
0.7187500000000026
 40
0.7500000000000023
 40
0.7500000000000023
 40
0.7812500000000021
 40
0.7812500000000021
 40
0.8125000000000018
 40
0.8125000000000018
 40
0.8437500000000016
 40
0.8437500000000016
 40
0.8750000000000013
 40
0.8750000000000013
 40
0.9062500000000011
 40
0.9062500000000011
 40
0.9375000000000008
 40
0.9375000000000008
 40
1.0
 40
1.0
 40
1.0
 40
1.0
 10
10.60808274902045
 20
-14.67518531385683
 30
0.0
 10
10.77143994352721
 20
-14.66271400222923
 30
0.0
 10
10.95396076821069
 20
-14.63137977172298
 30
0.0
 10
11.25812245907616
 20
-14.54691770596581
 30
0.0
 10
11.36641585866906
 20
-14.51171888144407
 30
0.0
 10
11.58574352105282
 20
-14.42634662926326
 30
0.0
 10
11.69715944869879
 20
-14.37625545607625
 30
0.0
 10
11.9211718066789
 20
-14.25483711630839
 30
0.0
 10
12.02893523597723
 20
-14.18587333985302
 30
0.0
 10
12.22961030853029
 20
-14.02983333564765
 30
0.0
 10
12.32267742835867
 20
-13.94226901556113
 30
0.0
 10
12.48372543018653
 20
-13.75415019217129
 30
0.0
 10
12.553660539161
 20
-13.65130323099278
 30
0.0
 10
12.66489321927144
 20
-13.43691773984464
 30
0.0
 10
12.70717730188425
 20
-13.32435113894589
 30
0.0
 10
12.76326417564931
 20
-13.08988167819469
 30
0.0
 10
12.77635511926062
 20
-12.97149039057764
 30
0.0
 10
12.77342672652903
 20
-12.73211084337585
 30
0.0
 10
12.75684979458236
 20
-12.61060743991063
 30
0.0
 10
12.69552150102995
 20
-12.3777349719693
 30
0.0
 10
12.65033349294085
 20
-12.26373909474839
 30
0.0
 10
12.53298957942556
 20
-12.04909612932819
 30
0.0
 10
12.4621453620085
 20
-11.95022400081675
 30
0.0
 10
12.2965127732214
 20
-11.77143410287192
 30
0.0
 10
12.20150676240366
 20
-11.69219588739513
 30
0.0
 10
11.99926684334574
 20
-11.56533020093853
 30
0.0
 10
11.88885801145315
 20
-11.51587497169292
 30
0.0
 10
11.55399205333034
 20
-11.42069275726636
 30
0.0
 10
11.32716468948121
 20
-11.42871083881333
 30
0.0
 10
11.125
 20
-11.48273236161767
 30
0.0
  0
SPLINE
  5
2BC
330
1F
100
AcDbEntity
  8
SK3
  6
SLD-Dashed
370
    18
100
AcDbSpline
210
0.0
220
0.0
230
1.0
 70
     8
 71
     3
 72
    30
 73
    26
 74
     0
 42
0.000000001
 43
0.00000001
 40
0.0
 40
0.0
 40
0.0
 40
0.0
 40
0.0625000000000004
 40
0.0625000000000004
 40
0.1250000000000008
 40
0.1250000000000008
 40
0.156250000000001
 40
0.156250000000001
 40
0.1875000000000012
 40
0.1875000000000012
 40
0.2187500000000014
 40
0.2187500000000014
 40
0.2500000000000016
 40
0.2500000000000016
 40
0.2812500000000018
 40
0.2812500000000018
 40
0.3125000000000019
 40
0.3125000000000019
 40
0.3437500000000021
 40
0.3437500000000021
 40
0.3750000000000023
 40
0.3750000000000023
 40
0.4375000000000028
 40
0.4375000000000028
 40
0.5000000000000033
 40
0.5000000000000033
 40
0.5000000000000033
 40
0.5000000000000033
 10
11.125
 20
-11.48273236161767
 30
0.0
 10
10.9228353105188
 20
-11.53675388442203
 30
0.0
 10
10.74714710048241
 20
-11.63024516394937
 30
0.0
 10
10.42066988662177
 20
-11.86454434722243
 30
0.0
 10
10.27375737476435
 20
-12.00407384287219
 30
0.0
 10
10.07148943268486
 20
-12.24177839203641
 30
0.0
 10
10.00699015299676
 20
-12.32609339770692
 30
0.0
 10
9.883509956371231
 20
-12.50701007175142
 30
0.0
 10
9.8242685730979
 20
-12.60415729348413
 30
0.0
 10
9.71515470609037
 20
-12.8093465113156
 30
0.0
 10
9.664396735733508
 20
-12.91903622889816
 30
0.0
 10
9.57698186349916
 20
-13.14891853741645
 30
0.0
 10
9.540303532497518
 20
-13.26831266228058
 30
0.0
 10
9.487704529938009
 20
-13.52080982106202
 30
0.0
 10
9.473745253197983
 20
-13.64846695671314
 30
0.0
 10
9.476438089560556
 20
-13.8870025785682
 30
0.0
 10
9.493197896427997
 20
-13.99682053671483
 30
0.0
 10
9.549353346861203
 20
-14.1837493979528
 30
0.0
 10
9.58858947784802
 20
-14.26231510462451
 30
0.0
 10
9.67848001882428
 20
-14.39201189392023
 30
0.0
 10
9.73020446699914
 20
-14.44496665500988
 30
0.0
 10
9.89634859518443
 20
-14.5747125881458
 30
0.0
 10
10.02083275682619
 20
-14.62455209347309
 30
0.0
 10
10.29708420272973
 20
-14.68178062150183
 30
0.0
 10
10.4447255545137
 20
-14.68765662548444
 30
0.0
 10
10.60808274902045
 20
-14.67518531385683
 30
0.0
  0
SPLINE
  5
2BD
330
1F
100
AcDbEntity
  8
SK3
  6
SLD-Dashed
370
    18
100
AcDbSpline
210
0.0
220
0.0
230
1.0
 70
     8
 71
     3
 72
    34
 73
    30
 74
     0
 42
0.000000001
 43
0.00000001
 40
0.5000000000000033
 40
0.5000000000000033
 40
0.5000000000000033
 40
0.5000000000000033
 40
0.5625000000000039
 40
0.5625000000000039
 40
0.5937500000000036
 40
0.5937500000000036
 40
0.6250000000000033
 40
0.6250000000000033
 40
0.6562500000000031
 40
0.6562500000000031
 40
0.6875000000000028
 40
0.6875000000000028
 40
0.7187500000000026
 40
0.7187500000000026
 40
0.7500000000000023
 40
0.7500000000000023
 40
0.7812500000000021
 40
0.7812500000000021
 40
0.8125000000000018
 40
0.8125000000000018
 40
0.8437500000000016
 40
0.8437500000000016
 40
0.8750000000000013
 40
0.8750000000000013
 40
0.9062500000000011
 40
0.9062500000000011
 40
0.9375000000000008
 40
0.9375000000000008
 40
1.0
 40
1.0
 40
1.0
 40
1.0
 10
10.60808274902045
 20
-14.67518531385683
 30
0.0
 10
10.77143994352721
 20
-14.66271400222923
 30
0.0
 10
10.95396076821069
 20
-14.63137977172298
 30
0.0
 10
11.25812245907616
 20
-14.54691770596581
 30
0.0
 10
11.36641585866906
 20
-14.51171888144407
 30
0.0
 10
11.58574352105282
 20
-14.42634662926326
 30
0.0
 10
11.69715944869879
 20
-14.37625545607625
 30
0.0
 10
11.9211718066789
 20
-14.25483711630839
 30
0.0
 10
12.02893523597723
 20
-14.18587333985302
 30
0.0
 10
12.22961030853029
 20
-14.02983333564765
 30
0.0
 10
12.32267742835867
 20
-13.94226901556113
 30
0.0
 10
12.48372543018653
 20
-13.75415019217129
 30
0.0
 10
12.553660539161
 20
-13.65130323099278
 30
0.0
 10
12.66489321927144
 20
-13.43691773984464
 30
0.0
 10
12.70717730188425
 20
-13.32435113894589
 30
0.0
 10
12.76326417564931
 20
-13.08988167819469
 30
0.0
 10
12.77635511926062
 20
-12.97149039057764
 30
0.0
 10
12.77342672652903
 20
-12.73211084337585
 30
0.0
 10
12.75684979458236
 20
-12.61060743991063
 30
0.0
 10
12.69552150102995
 20
-12.3777349719693
 30
0.0
 10
12.65033349294085
 20
-12.26373909474839
 30
0.0
 10
12.53298957942556
 20
-12.04909612932819
 30
0.0
 10
12.4621453620085
 20
-11.95022400081675
 30
0.0
 10
12.2965127732214
 20
-11.77143410287192
 30
0.0
 10
12.20150676240366
 20
-11.69219588739513
 30
0.0
 10
11.99926684334574
 20
-11.56533020093853
 30
0.0
 10
11.88885801145315
 20
-11.51587497169292
 30
0.0
 10
11.55399205333034
 20
-11.42069275726636
 30
0.0
 10
11.32716468948121
 20
-11.42871083881333
 30
0.0
 10
11.125
 20
-11.48273236161767
 30
0.0
  0
SPLINE
  5
2BE
330
1F
100
AcDbEntity
  8
SK3
  6
SLD-Dashed
370
    18
100
AcDbSpline
210
0.0
220
0.0
230
1.0
 70
     8
 71
     3
 72
    30
 73
    26
 74
     0
 42
0.000000001
 43
0.00000001
 40
0.0
 40
0.0
 40
0.0
 40
0.0
 40
0.0625000000000004
 40
0.0625000000000004
 40
0.1250000000000008
 40
0.1250000000000008
 40
0.156250000000001
 40
0.156250000000001
 40
0.1875000000000012
 40
0.1875000000000012
 40
0.2187500000000014
 40
0.2187500000000014
 40
0.2500000000000016
 40
0.2500000000000016
 40
0.2812500000000018
 40
0.2812500000000018
 40
0.3125000000000019
 40
0.3125000000000019
 40
0.3437500000000021
 40
0.3437500000000021
 40
0.3750000000000023
 40
0.3750000000000023
 40
0.4375000000000028
 40
0.4375000000000028
 40
0.5000000000000033
 40
0.5000000000000033
 40
0.5000000000000033
 40
0.5000000000000033
 10
11.125
 20
-11.48273236161767
 30
0.0
 10
10.9228353105188
 20
-11.53675388442203
 30
0.0
 10
10.74714710048241
 20
-11.63024516394937
 30
0.0
 10
10.42066988662177
 20
-11.86454434722243
 30
0.0
 10
10.27375737476435
 20
-12.00407384287219
 30
0.0
 10
10.07148943268486
 20
-12.24177839203641
 30
0.0
 10
10.00699015299676
 20
-12.32609339770692
 30
0.0
 10
9.883509956371231
 20
-12.50701007175142
 30
0.0
 10
9.8242685730979
 20
-12.60415729348413
 30
0.0
 10
9.71515470609037
 20
-12.8093465113156
 30
0.0
 10
9.664396735733508
 20
-12.91903622889816
 30
0.0
 10
9.57698186349916
 20
-13.14891853741645
 30
0.0
 10
9.540303532497518
 20
-13.26831266228058
 30
0.0
 10
9.487704529938009
 20
-13.52080982106202
 30
0.0
 10
9.473745253197983
 20
-13.64846695671314
 30
0.0
 10
9.476438089560556
 20
-13.8870025785682
 30
0.0
 10
9.493197896427997
 20
-13.99682053671483
 30
0.0
 10
9.549353346861203
 20
-14.1837493979528
 30
0.0
 10
9.58858947784802
 20
-14.26231510462451
 30
0.0
 10
9.67848001882428
 20
-14.39201189392023
 30
0.0
 10
9.73020446699914
 20
-14.44496665500988
 30
0.0
 10
9.89634859518443
 20
-14.5747125881458
 30
0.0
 10
10.02083275682619
 20
-14.62455209347309
 30
0.0
 10
10.29708420272973
 20
-14.68178062150183
 30
0.0
 10
10.4447255545137
 20
-14.68765662548444
 30
0.0
 10
10.60808274902045
 20
-14.67518531385683
 30
0.0
  0
SPLINE
  5
2BF
330
1F
100
AcDbEntity
  8
SK3
  6
SLD-Dashed
370
    18
100
AcDbSpline
210
0.0
220
0.0
230
1.0
 70
     8
 71
     3
 72
    34
 73
    30
 74
     0
 42
0.000000001
 43
0.00000001
 40
0.4999999999999981
 40
0.4999999999999981
 40
0.4999999999999981
 40
0.4999999999999981
 40
0.5312499999999982
 40
0.5312499999999982
 40
0.5624999999999984
 40
0.5624999999999984
 40
0.5937499999999986
 40
0.5937499999999986
 40
0.6249999999999988
 40
0.6249999999999988
 40
0.6562499999999989
 40
0.6562499999999989
 40
0.6874999999999991
 40
0.6874999999999991
 40
0.7500000000000003
 40
0.7500000000000003
 40
0.8125000000000009
 40
0.8125000000000009
 40
0.8437500000000007
 40
0.8437500000000007
 40
0.8750000000000006
 40
0.8750000000000006
 40
0.9062500000000003
 40
0.9062500000000003
 40
0.9375000000000002
 40
0.9375000000000002
 40
0.96875
 40
0.96875
 40
1.0
 40
1.0
 40
1.0
 40
1.0
 10
9.638805742161832
 20
-10.95392502366155
 30
0.0
 10
9.693881160736453
 20
-10.84705887039515
 30
0.0
 10
9.7631792831568
 20
-10.74439645836092
 30
0.0
 10
9.923515798150165
 20
-10.55592715127707
 30
0.0
 10
10.01390276352472
 20
-10.47020735344793
 30
0.0
 10
10.21445694949233
 20
-10.31296552728881
 30
0.0
 10
10.32267837600233
 20
-10.24333508542233
 30
0.0
 10
10.54307526498147
 20
-10.12288935951399
 30
0.0
 10
10.65791658596847
 20
-10.0707037473173
 30
0.0
 10
10.8781987114101
 20
-9.984463182040978
 30
0.0
 10
10.9860809461116
 20
-9.949205279737958
 30
0.0
 10
11.18968749579613
 20
-9.892304259469132
 30
0.0
 10
11.28527842069105
 20
-9.87058004861397
 30
0.0
 10
11.55898297450238
 20
-9.820769890310151
 30
0.0
 10
11.72337034356713
 20
-9.808096789548914
 30
0.0
 10
12.02194861504779
 20
-9.821477532699955
 30
0.0
 10
12.15920875119775
 20
-9.847310188176937
 30
0.0
 10
12.34760730605768
 20
-9.927824692744649
 30
0.0
 10
12.40688352391467
 20
-9.961503747003594
 30
0.0
 10
12.51780294837562
 20
-10.04749808647204
 30
0.0
 10
12.56969006353051
 20
-10.10021829085855
 30
0.0
 10
12.65991931900848
 20
-10.22933776798954
 30
0.0
 10
12.69929072119655
 20
-10.30748393412845
 30
0.0
 10
12.75586568636482
 20
-10.4930273204106
 30
0.0
 10
12.77303399215494
 20
-10.60290348381535
 30
0.0
 10
12.77663319740259
 20
-10.83901366027946
 30
0.0
 10
12.76306993948378
 20
-10.96766771108162
 30
0.0
 10
12.71170841969944
 20
-11.21837738140183
 30
0.0
 10
12.67469993892516
 20
-11.34057418425365
 30
0.0
 10
12.63040931107551
 20
-11.45745606890593
 30
0.0
  0
SPLINE
  5
2C0
330
1F
100
AcDbEntity
  8
SK3
  6
SLD-Dashed
370
    18
100
AcDbSpline
210
0.0
220
0.0
230
1.0
 70
     8
 71
     3
 72
    26
 73
    22
 74
     0
 42
0.000000001
 43
0.00000001
 40
0.0
 40
0.0
 40
0.0
 40
0.0
 40
0.0624999999999994
 40
0.0624999999999994
 40
0.1249999999999989
 40
0.1249999999999989
 40
0.1874999999999983
 40
0.1874999999999983
 40
0.2499999999999978
 40
0.2499999999999978
 40
0.2812499999999979
 40
0.2812499999999979
 40
0.312499999999998
 40
0.312499999999998
 40
0.3749999999999979
 40
0.3749999999999979
 40
0.4374999999999978
 40
0.4374999999999978
 40
0.4687499999999979
 40
0.4687499999999979
 40
0.4999999999999981
 40
0.4999999999999981
 40
0.4999999999999981
 40
0.4999999999999981
 10
12.63040931107551
 20
-11.45745606890593
 30
0.0
 10
12.54182805537621
 20
-11.69121983821047
 30
0.0
 10
12.43200682775367
 20
-11.89056157115204
 30
0.0
 10
12.18419932759148
 20
-12.25514411813773
 30
0.0
 10
12.04834522926905
 20
-12.41463399152649
 30
0.0
 10
11.75314013646113
 20
-12.69173524411826
 30
0.0
 10
11.59091385222408
 20
-12.81202758601149
 30
0.0
 10
11.2300472901949
 20
-12.99241430793261
 30
0.0
 10
11.02728334192528
 20
-13.05343833574659
 30
0.0
 10
10.69987000905163
 20
-13.05646994226843
 30
0.0
 10
10.58531472788919
 20
-13.04197607005522
 30
0.0
 10
10.36396153134605
 20
-12.97944613660276
 30
0.0
 10
10.2544996195266
 20
-12.93102694430322
 30
0.0
 10
9.947578697971124
 20
-12.7394816191428
 30
0.0
 10
9.77664657830704
 20
-12.55346040827487
 30
0.0
 10
9.542451961566112
 20
-12.12678030999241
 30
0.0
 10
9.47861205537788
 20
-11.8858064070257
 30
0.0
 10
9.473421112414282
 20
-11.52565520755316
 30
0.0
 10
9.4863458986527
 20
-11.40749361566869
 30
0.0
 10
9.541390615621106
 20
-11.17459151908681
 30
0.0
 10
9.583730323587211
 20
-11.06079117692797
 30
0.0
 10
9.638805742161832
 20
-10.95392502366155
 30
0.0
  0
SPLINE
  5
2C1
330
1F
100
AcDbEntity
  8
SK3
  6
SLD-Dashed
370
    18
100
AcDbSpline
210
0.0
220
0.0
230
1.0
 70
     8
 71
     3
 72
    28
 73
    24
 74
     0
 42
0.000000001
 43
0.00000001
 40
0.5000000000000021
 40
0.5000000000000021
 40
0.5000000000000021
 40
0.5000000000000021
 40
0.5625000000000018
 40
0.5625000000000018
 40
0.6250000000000014
 40
0.6250000000000014
 40
0.6562500000000012
 40
0.6562500000000012
 40
0.687500000000001
 40
0.687500000000001
 40
0.750000000000001
 40
0.750000000000001
 40
0.7812500000000009
 40
0.7812500000000009
 40
0.8125000000000008
 40
0.8125000000000008
 40
0.8437500000000007
 40
0.8437500000000007
 40
0.8750000000000006
 40
0.8750000000000006
 40
0.9375000000000003
 40
0.9375000000000003
 40
1.0
 40
1.0
 40
1.0
 40
1.0
 10
11.1243600537384
 20
-5.097086583382697
 30
0.0
 10
11.33988562047077
 20
-5.097160583832729
 30
0.0
 10
11.55732167442221
 20
-5.058927670124218
 30
0.0
 10
11.95460566062911
 20
-4.912677242283774
 30
0.0
 10
12.13838916186498
 20
-4.803297967249355
 30
0.0
 10
12.36674817482665
 20
-4.597838458596355
 30
0.0
 10
12.43642359557634
 20
-4.521151198634992
 30
0.0
 10
12.55613473401263
 20
-4.358419513695193
 30
0.0
 10
12.60691930730983
 20
-4.271935060808599
 30
0.0
 10
12.73162372652385
 20
-3.996380017332005
 30
0.0
 10
12.77481888810718
 20
-3.797425146083687
 30
0.0
 10
12.77508970785607
 20
-3.49002998761351
 30
0.0
 10
12.76447463517888
 20
-3.388630582932664
 30
0.0
 10
12.72263839499743
 20
-3.187941017992253
 30
0.0
 10
12.69087299470581
 20
-3.087576006019443
 30
0.0
 10
12.60823811087246
 20
-2.895868188771675
 30
0.0
 10
12.55764216253896
 20
-2.804381628702959
 30
0.0
 10
12.4379504664088
 20
-2.630333473030523
 30
0.0
 10
12.36849706837069
 20
-2.547796395584612
 30
0.0
 10
12.14084013457034
 20
-2.324831507384183
 30
0.0
 10
11.95710187850989
 20
-2.203317580297855
 30
0.0
 10
11.56029580374729
 20
-2.039937583109518
 30
0.0
 10
11.34337670434038
 20
-1.996101044651637
 30
0.0
 10
11.12500000000002
 20
-1.996101044651637
 30
0.0
  0
SPLINE
  5
2C2
330
1F
100
AcDbEntity
  8
SK3
  6
SLD-Dashed
370
    18
100
AcDbSpline
210
0.0
220
0.0
230
1.0
 70
     8
 71
     3
 72
    32
 73
    28
 74
     0
 42
0.000000001
 43
0.00000001
 40
0.0
 40
0.0
 40
0.0
 40
0.0
 40
0.0312500000000001
 40
0.0312500000000001
 40
0.0625000000000002
 40
0.0625000000000002
 40
0.0937500000000003
 40
0.0937500000000003
 40
0.1250000000000004
 40
0.1250000000000004
 40
0.1875000000000008
 40
0.1875000000000008
 40
0.2500000000000011
 40
0.2500000000000011
 40
0.2812500000000013
 40
0.2812500000000013
 40
0.3125000000000016
 40
0.3125000000000016
 40
0.3750000000000019
 40
0.3750000000000019
 40
0.4062500000000019
 40
0.4062500000000019
 40
0.437500000000002
 40
0.437500000000002
 40
0.4687500000000021
 40
0.4687500000000021
 40
0.5000000000000021
 40
0.5000000000000021
 40
0.5000000000000021
 40
0.5000000000000021
 10
11.12500000000002
 20
-1.996101044651637
 30
0.0
 10
11.01581164782982
 20
-1.996101044651637
 30
0.0
 10
10.9084822900788
 20
-2.006774489306203
 30
0.0
 10
10.69737880135693
 20
-2.048496370893521
 30
0.0
 10
10.59249811499481
 20
-2.080062202259196
 30
0.0
 10
10.39276793872451
 20
-2.162097541962012
 30
0.0
 10
10.29806530291035
 20
-2.212190897345354
 30
0.0
 10
10.11883723733684
 20
-2.330096968954781
 30
0.0
 10
10.03411032775671
 20
-2.398429092897426
 30
0.0
 10
9.806209980126795
 20
-2.621349293016294
 30
0.0
 10
9.683328143792371
 20
-2.799888215129324
 30
0.0
 10
9.518633555653341
 20
-3.18107007067734
 30
0.0
 10
9.475122981946152
 20
-3.387740235847328
 30
0.0
 10
9.474938909992806
 20
-3.691623257817307
 30
0.0
 10
9.485689500772304
 20
-3.793949374151777
 30
0.0
 10
9.52785379900098
 20
-3.990698923252392
 30
0.0
 10
9.559048982658192
 20
-4.085797326516621
 30
0.0
 10
9.683206297152788
 20
-4.361493222071064
 30
0.0
 10
9.804247454552662
 20
-4.526400962507352
 30
0.0
 10
10.03474287902699
 20
-4.734313476061493
 30
0.0
 10
10.11788081798107
 20
-4.795456382091758
 30
0.0
 10
10.29637949850368
 20
-4.902358398560354
 30
0.0
 10
10.39291317519607
 20
-4.948485047428362
 30
0.0
 10
10.59252114107806
 20
-5.022147421466505
 30
0.0
 10
10.69536195960279
 20
-5.049894805337122
 30
0.0
 10
10.90712812463579
 20
-5.087454485186376
 30
0.0
 10
11.01659727037224
 20
-5.097049583157681
 30
0.0
 10
11.1243600537384
 20
-5.097086583382697
 30
0.0
  0
SPLINE
  5
2C3
330
1F
100
AcDbEntity
  8
SK3
  6
SLD-Dashed
370
    18
100
AcDbSpline
210
0.0
220
0.0
230
1.0
 70
    24
 71
     3
 72
     8
 73
     4
 74
     0
 42
0.000000001
 43
0.00000001
 40
0.0
 40
0.0
 40
0.0
 40
0.0
 40
0.5
 40
0.5
 40
0.5
 40
0.5
 10
3.199999999997845
 20
35.29999999998465
 30
0.0
 10
3.280283515396056
 20
35.29999999998839
 30
0.0
 10
3.357808972361933
 20
35.29999999999199
 30
0.0
 10
3.42292565559549
 20
35.29999999999499
 30
0.0
  0
SPLINE
  5
2C4
330
1F
100
AcDbEntity
  8
SK3
  6
SLD-Dashed
370
    18
100
AcDbSpline
210
0.0
220
0.0
230
1.0
 70
    24
 71
     2
 72
     6
 73
     3
 74
     0
 42
0.000000001
 43
0.00000001
 40
0.5
 40
0.5
 40
0.5
 40
1.0
 40
1.0
 40
1.0
 10
3.422925655595779
 20
35.29999999999499
 30
0.0
 10
3.488042338829364
 20
35.299999999995
 30
0.0
 10
3.540734241120252
 20
35.29999999999501
 30
0.0
  0
SPLINE
  5
2C5
330
1F
100
AcDbEntity
  8
SK3
  6
SLD-Dashed
370
    18
100
AcDbSpline
210
0.0
220
0.0
230
1.0
 70
     8
 71
     3
 72
    28
 73
    24
 74
     0
 42
0.000000001
 43
0.00000001
 40
0.5000000000000009
 40
0.5000000000000009
 40
0.5000000000000009
 40
0.5000000000000009
 40
0.5625000000000008
 40
0.5625000000000008
 40
0.6250000000000007
 40
0.6250000000000007
 40
0.6562500000000006
 40
0.6562500000000006
 40
0.6875000000000004
 40
0.6875000000000004
 40
0.7500000000000003
 40
0.7500000000000003
 40
0.7812500000000003
 40
0.7812500000000003
 40
0.8125000000000003
 40
0.8125000000000003
 40
0.8437500000000003
 40
0.8437500000000003
 40
0.8750000000000003
 40
0.8750000000000003
 40
0.9375000000000002
 40
0.9375000000000002
 40
1.0
 40
1.0
 40
1.0
 40
1.0
 10
11.1256399462616
 20
1.996101168021625
 30
0.0
 10
10.91011437952923
 20
1.996018069188747
 30
0.0
 10
10.69267832557778
 20
2.039126344320005
 30
0.0
 10
10.29539433937092
 20
2.201882125499405
 30
0.0
 10
10.11161083813503
 20
2.322930192641515
 30
0.0
 10
9.883251825173343
 20
2.545838823969151
 30
0.0
 10
9.813576404423651
 20
2.628421736312989
 30
0.0
 10
9.693865265987366
 20
2.801888809725726
 30
0.0
 10
9.643080692690209
 20
2.893265101092023
 30
0.0
 10
9.518376273476154
 20
3.181219677072453
 30
0.0
 10
9.475181111892827
 20
3.384978395674101
 30
0.0
 10
9.474910292143923
 20
3.692402665103213
 30
0.0
 10
9.48552536482114
 20
3.792650637691103
 30
0.0
 10
9.527361605002561
 20
3.988926781036538
 30
0.0
 10
9.559127005294183
 20
4.085974642666641
 30
0.0
 10
9.641761889127535
 20
4.269460320685849
 30
0.0
 10
9.692357837461058
 20
4.356067786520278
 30
0.0
 10
9.812049533591189
 20
4.519370626251816
 30
0.0
 10
9.881502931629344
 20
4.596024389578346
 30
0.0
 10
10.10915986542967
 20
4.801564579329648
 30
0.0
 10
10.2928981214901
 20
4.911381338388255
 30
0.0
 10
10.6897041962527
 20
5.058204639393625
 30
0.0
 10
10.90662329565964
 20
5.097086693245073
 30
0.0
 10
11.12500000000002
 20
5.097086693245066
 30
0.0
  0
SPLINE
  5
2C6
330
1F
100
AcDbEntity
  8
SK3
  6
SLD-Dashed
370
    18
100
AcDbSpline
210
0.0
220
0.0
230
1.0
 70
     8
 71
     3
 72
    32
 73
    28
 74
     0
 42
0.000000001
 43
0.00000001
 40
0.0
 40
0.0
 40
0.0
 40
0.0
 40
0.0312500000000001
 40
0.0312500000000001
 40
0.0625000000000002
 40
0.0625000000000002
 40
0.0937500000000003
 40
0.0937500000000003
 40
0.1250000000000004
 40
0.1250000000000004
 40
0.1875000000000008
 40
0.1875000000000008
 40
0.2500000000000012
 40
0.2500000000000012
 40
0.2812500000000012
 40
0.2812500000000012
 40
0.3125000000000013
 40
0.3125000000000013
 40
0.3750000000000011
 40
0.3750000000000011
 40
0.4062500000000011
 40
0.4062500000000011
 40
0.437500000000001
 40
0.437500000000001
 40
0.4687500000000009
 40
0.4687500000000009
 40
0.5000000000000009
 40
0.5000000000000009
 40
0.5000000000000009
 40
0.5000000000000009
 10
11.12500000000002
 20
5.097086693245073
 30
0.0
 10
11.23418835217023
 20
5.097086693245073
 30
0.0
 10
11.34151770992121
 20
5.087592280637251
 30
0.0
 10
11.55262119864307
 20
5.050353282823147
 30
0.0
 10
11.65750188500524
 20
5.022144718194641
 30
0.0
 10
11.85723206127552
 20
4.948425651004229
 30
0.0
 10
11.95193469708966
 20
4.903253657613995
 30
0.0
 10
12.13116276266321
 20
4.796141864208014
 30
0.0
 10
12.21588967224334
 20
4.733714962607341
 30
0.0
 10
12.44379001987322
 20
4.52822695400365
 30
0.0
 10
12.56667185620766
 20
4.361307298992631
 30
0.0
 10
12.73136644434671
 20
3.99650684803738
 30
0.0
 10
12.77487701805391
 20
3.794669554412891
 30
0.0
 10
12.7750610900072
 20
3.490806318710495
 30
0.0
 10
12.76431049922769
 20
3.387314094537908
 30
0.0
 10
12.72214620099904
 20
3.186117396486693
 30
0.0
 10
12.6909510173418
 20
3.087761111022068
 30
0.0
 10
12.56679370284723
 20
2.799711533441537
 30
0.0
 10
12.44575254544733
 20
2.623327713085814
 30
0.0
 10
12.21525712097303
 20
2.397781040868123
 30
0.0
 10
12.13211918201895
 20
2.330847797333862
 30
0.0
 10
11.95362050149632
 20
2.213180055808416
 30
0.0
 10
11.85708682480395
 20
2.162031547661515
 30
0.0
 10
11.65747885892196
 20
2.080059091289728
 30
0.0
 10
11.55463804039723
 20
2.049009526200365
 30
0.0
 10
11.3428718753642
 20
2.006929379023199
 30
0.0
 10
11.23340272962778
 20
1.99614271743806
 30
0.0
 10
11.1256399462616
 20
1.996101168021625
 30
0.0
  0
SPLINE
  5
2C7
330
1F
100
AcDbEntity
  8
SK3
  6
SLD-Dashed
370
    18
100
AcDbSpline
210
0.0
220
0.0
230
1.0
 70
     8
 71
     3
 72
    34
 73
    30
 74
     0
 42
0.000000001
 43
0.00000001
 40
0.5000000000000014
 40
0.5000000000000014
 40
0.5000000000000014
 40
0.5000000000000014
 40
0.5624999999999998
 40
0.5624999999999998
 40
0.5937500000000004
 40
0.5937500000000004
 40
0.6250000000000011
 40
0.6250000000000011
 40
0.6562500000000018
 40
0.6562500000000018
 40
0.6875000000000024
 40
0.6875000000000024
 40
0.7187500000000031
 40
0.7187500000000031
 40
0.7500000000000038
 40
0.7500000000000038
 40
0.7812500000000044
 40
0.7812500000000044
 40
0.8125000000000051
 40
0.8125000000000051
 40
0.8750000000000049
 40
0.8750000000000049
 40
0.9062500000000037
 40
0.9062500000000037
 40
0.9375000000000024
 40
0.9375000000000024
 40
0.9687500000000012
 40
0.9687500000000012
 40
1.0
 40
1.0
 40
1.0
 40
1.0
 10
87.00086547247865
 20
6.157629959690373
 30
0.0
 10
86.73898172326561
 20
6.157686202354823
 30
0.0
 10
86.47453465677584
 20
6.131884394624018
 30
0.0
 10
86.11296002623351
 20
6.054820983573718
 30
0.0
 10
85.99591909619068
 20
6.022203307658041
 30
0.0
 10
85.77932394714705
 20
5.944757485218291
 30
0.0
 10
85.67905789733518
 20
5.899948256202367
 30
0.0
 10
85.49441691059533
 20
5.79647808830875
 30
0.0
 10
85.41067062605879
 20
5.737866002512269
 30
0.0
 10
85.26617459074245
 20
5.609921711260873
 30
0.0
 10
85.20440237236542
 20
5.540079139837915
 30
0.0
 10
85.10284381877675
 20
5.386644808699173
 30
0.0
 10
85.0647698325529
 20
5.305583120322879
 30
0.0
 10
85.01336197861805
 20
5.134573342815988
 30
0.0
 10
85.0000464031421
 20
5.043469702953149
 30
0.0
 10
84.99995384324937
 20
4.857017940435638
 30
0.0
 10
85.01282088750442
 20
4.762265349870592
 30
0.0
 10
85.06404550997526
 20
4.570011986679279
 30
0.0
 10
85.10291329440442
 20
4.472111174404297
 30
0.0
 10
85.25311677514568
 20
4.188202378617036
 30
0.0
 10
85.40186517727608
 20
4.004679457425775
 30
0.0
 10
85.67685574056894
 20
3.769940625466137
 30
0.0
 10
85.77868031306018
 20
3.697085827320111
 30
0.0
 10
85.995815277222
 20
3.569154438452779
 30
0.0
 10
86.11030395711371
 20
3.514267898975493
 30
0.0
 10
86.35128397130526
 20
3.423859355451815
 30
0.0
 10
86.47893235870677
 20
3.388313174077527
 30
0.0
 10
86.73634381427647
 20
3.341269175543914
 30
0.0
 10
86.86712226340465
 20
3.329202927879485
 30
0.0
 10
87.00000000000003
 20
3.329202927879485
 30
0.0
  0
SPLINE
  5
2C8
330
1F
100
AcDbEntity
  8
SK3
  6
SLD-Dashed
370
    18
100
AcDbSpline
210
0.0
220
0.0
230
1.0
 70
     8
 71
     3
 72
    34
 73
    30
 74
     0
 42
0.000000001
 43
0.00000001
 40
0.0
 40
0.0
 40
0.0
 40
0.0
 40
0.0312500000000017
 40
0.0312500000000017
 40
0.0625000000000033
 40
0.0625000000000033
 40
0.093750000000005
 40
0.093750000000005
 40
0.1250000000000067
 40
0.1250000000000067
 40
0.1875000000000075
 40
0.1875000000000075
 40
0.2187500000000073
 40
0.2187500000000073
 40
0.2500000000000071
 40
0.2500000000000071
 40
0.2812500000000069
 40
0.2812500000000069
 40
0.3125000000000068
 40
0.3125000000000068
 40
0.3750000000000051
 40
0.3750000000000051
 40
0.4062500000000042
 40
0.4062500000000042
 40
0.4375000000000033
 40
0.4375000000000033
 40
0.4687500000000024
 40
0.4687500000000024
 40
0.5000000000000014
 40
0.5000000000000014
 40
0.5000000000000014
 40
0.5000000000000014
 10
87.00000000000003
 20
3.329202927879485
 30
0.0
 10
87.13287773659542
 20
3.329202927879485
 30
0.0
 10
87.26338835847952
 20
3.341264004975739
 30
0.0
 10
87.51991677029461
 20
3.388059307657981
 30
0.0
 10
87.6472973119222
 20
3.423393915846604
 30
0.0
 10
87.88912326565875
 20
3.513986737262387
 30
0.0
 10
88.00370758982761
 20
3.568921369756027
 30
0.0
 10
88.22056464993203
 20
3.696593199457032
 30
0.0
 10
88.32265980601703
 20
3.769571908802089
 30
0.0
 10
88.5977733066817
 20
4.004281532886525
 30
0.0
 10
88.74656091463135
 20
4.187878226115542
 30
0.0
 10
88.89657562631143
 20
4.471003575842417
 30
0.0
 10
88.93537613260213
 20
4.568281767026498
 30
0.0
 10
88.98704267358889
 20
4.761318901532599
 30
0.0
 10
88.99991507200109
 20
4.856034756511613
 30
0.0
 10
89.00008409834709
 20
5.041638307955481
 30
0.0
 10
88.98692903604147
 20
5.133223192269831
 30
0.0
 10
88.93557309094446
 20
5.304819778387946
 30
0.0
 10
88.8975826975813
 20
5.385766413493142
 30
0.0
 10
88.74620941542108
 20
5.615157561445129
 30
0.0
 10
88.59886575484138
 20
5.744073455790318
 30
0.0
 10
88.32163402393702
 20
5.899625281290316
 30
0.0
 10
88.22142063186023
 20
5.944433790487473
 30
0.0
 10
88.00539190719795
 20
6.021791463716113
 30
0.0
 10
87.88830428046055
 20
6.054499016702103
 30
0.0
 10
87.64723424204638
 20
6.10598340736554
 30
0.0
 10
87.52254684248808
 20
6.125171607030869
 30
0.0
 10
87.26455848570419
 20
6.15110038843348
 30
0.0
 10
87.1318073470852
 20
6.157601838358152
 30
0.0
 10
87.00086547247865
 20
6.157629959690373
 30
0.0
  0
SPLINE
  5
2C9
330
1F
100
AcDbEntity
  8
SK3
  6
SLD-Dashed
370
    18
100
AcDbSpline
210
0.0
220
0.0
230
1.0
 70
     8
 71
     3
 72
    34
 73
    30
 74
     0
 42
0.000000001
 43
0.00000001
 40
0.4999999999999815
 40
0.4999999999999815
 40
0.4999999999999815
 40
0.4999999999999815
 40
0.5624999999999823
 40
0.5624999999999823
 40
0.5937499999999842
 40
0.5937499999999842
 40
0.6249999999999861
 40
0.6249999999999861
 40
0.6562499999999879
 40
0.6562499999999879
 40
0.6874999999999898
 40
0.6874999999999898
 40
0.7187499999999917
 40
0.7187499999999917
 40
0.7499999999999936
 40
0.7499999999999936
 40
0.7812499999999954
 40
0.7812499999999954
 40
0.8124999999999973
 40
0.8124999999999973
 40
0.8749999999999997
 40
0.8749999999999997
 40
0.9062499999999998
 40
0.9062499999999998
 40
0.9374999999999999
 40
0.9374999999999999
 40
0.96875
 40
0.96875
 40
1.0
 40
1.0
 40
1.0
 40
1.0
 10
86.99913452752136
 20
-6.157629959690429
 30
0.0
 10
87.2610182767344
 20
-6.157686202354872
 30
0.0
 10
87.52546534322408
 20
-6.131884394624073
 30
0.0
 10
87.88703997376643
 20
-6.054820983573767
 30
0.0
 10
88.00408090380937
 20
-6.02220330765809
 30
0.0
 10
88.22067605285291
 20
-5.944757485218339
 30
0.0
 10
88.32094210266483
 20
-5.899948256202422
 30
0.0
 10
88.50558308940465
 20
-5.796478088308792
 30
0.0
 10
88.58932937394124
 20
-5.737866002512332
 30
0.0
 10
88.73382540925762
 20
-5.609921711260929
 30
0.0
 10
88.79559762763462
 20
-5.540079139837978
 30
0.0
 10
88.89715618122327
 20
-5.386644808699235
 30
0.0
 10
88.93523016744712
 20
-5.305583120322941
 30
0.0
 10
88.98663802138194
 20
-5.13457334281605
 30
0.0
 10
88.99995359685792
 20
-5.043469702953211
 30
0.0
 10
89.00004615675064
 20
-4.8570179404357
 30
0.0
 10
88.98717911249562
 20
-4.762265349870655
 30
0.0
 10
88.93595449002473
 20
-4.570011986679348
 30
0.0
 10
88.89708670559557
 20
-4.472111174404366
 30
0.0
 10
88.74688322485436
 20
-4.188202378617105
 30
0.0
 10
88.59813482272388
 20
-4.004679457425844
 30
0.0
 10
88.32314425943105
 20
-3.769940625466213
 30
0.0
 10
88.22131968693972
 20
-3.697085827320187
 30
0.0
 10
88.00418472277796
 20
-3.569154438452856
 30
0.0
 10
87.88969604288621
 20
-3.514267898975569
 30
0.0
 10
87.64871602869465
 20
-3.423859355451905
 30
0.0
 10
87.52106764129321
 20
-3.388313174077604
 30
0.0
 10
87.26365618572352
 20
-3.341269175543997
 30
0.0
 10
87.13287773659539
 20
-3.329202927879561
 30
0.0
 10
86.99999999999997
 20
-3.329202927879561
 30
0.0
  0
SPLINE
  5
2CA
330
1F
100
AcDbEntity
  8
SK3
  6
SLD-Dashed
370
    18
100
AcDbSpline
210
0.0
220
0.0
230
1.0
 70
     8
 71
     3
 72
    34
 73
    30
 74
     0
 42
0.000000001
 43
0.00000001
 40
0.0
 40
0.0
 40
0.0
 40
0.0
 40
0.0312499999999999
 40
0.0312499999999999
 40
0.0624999999999998
 40
0.0624999999999998
 40
0.0937499999999996
 40
0.0937499999999996
 40
0.1249999999999995
 40
0.1249999999999995
 40
0.1874999999999969
 40
0.1874999999999969
 40
0.218749999999995
 40
0.218749999999995
 40
0.2499999999999931
 40
0.2499999999999931
 40
0.2812499999999912
 40
0.2812499999999912
 40
0.3124999999999893
 40
0.3124999999999893
 40
0.3749999999999867
 40
0.3749999999999867
 40
0.4062499999999854
 40
0.4062499999999854
 40
0.4374999999999841
 40
0.4374999999999841
 40
0.4687499999999828
 40
0.4687499999999828
 40
0.4999999999999815
 40
0.4999999999999815
 40
0.4999999999999815
 40
0.4999999999999815
 10
86.99999999999997
 20
-3.329202927879561
 30
0.0
 10
86.8671222634046
 20
-3.329202927879561
 30
0.0
 10
86.73661164152053
 20
-3.341264004975822
 30
0.0
 10
86.48008322970546
 20
-3.388059307658065
 30
0.0
 10
86.3527026880779
 20
-3.423393915846687
 30
0.0
 10
86.11087673434129
 20
-3.51398673726247
 30
0.0
 10
85.99629241017237
 20
-3.56892136975611
 30
0.0
 10
85.77943535006801
 20
-3.696593199457109
 30
0.0
 10
85.67734019398301
 20
-3.769571908802158
 30
0.0
 10
85.40222669331834
 20
-4.004281532886594
 30
0.0
 10
85.25343908536861
 20
-4.187878226115598
 30
0.0
 10
85.1034243736886
 20
-4.471003575842479
 30
0.0
 10
85.06462386739788
 20
-4.568281767026567
 30
0.0
 10
85.01295732641115
 20
-4.761318901532655
 30
0.0
 10
85.00008492799898
 20
-4.856034756511675
 30
0.0
 10
84.99991590165293
 20
-5.041638307955537
 30
0.0
 10
85.0130709639586
 20
-5.133223192269886
 30
0.0
 10
85.0644269090555
 20
-5.304819778387988
 30
0.0
 10
85.10241730241874
 20
-5.385766413493191
 30
0.0
 10
85.25379058457891
 20
-5.615157561445177
 30
0.0
 10
85.40113424515872
 20
-5.744073455790359
 30
0.0
 10
85.67836597606296
 20
-5.89962528129035
 30
0.0
 10
85.7785793681397
 20
-5.944433790487529
 30
0.0
 10
85.99460809280198
 20
-6.021791463716161
 30
0.0
 10
86.11169571953938
 20
-6.054499016702152
 30
0.0
 10
86.35276575795356
 20
-6.105983407365574
 30
0.0
 10
86.4774531575119
 20
-6.125171607030911
 30
0.0
 10
86.73544151429586
 20
-6.151100388433528
 30
0.0
 10
86.86819265291487
 20
-6.157601838358201
 30
0.0
 10
86.99913452752136
 20
-6.157629959690429
 30
0.0
  0
SPLINE
  5
2CB
330
1F
100
AcDbEntity
  8
SK3
  6
SLD-Dashed
370
    18
100
AcDbSpline
210
0.0
220
0.0
230
1.0
 70
     8
 71
     3
 72
    34
 73
    30
 74
     0
 42
0.000000001
 43
0.00000001
 40
0.4999999999999762
 40
0.4999999999999762
 40
0.4999999999999762
 40
0.4999999999999762
 40
0.5624999999999762
 40
0.5624999999999762
 40
0.5937499999999778
 40
0.5937499999999778
 40
0.6249999999999795
 40
0.6249999999999795
 40
0.6562499999999811
 40
0.6562499999999811
 40
0.6874999999999828
 40
0.6874999999999828
 40
0.7187499999999843
 40
0.7187499999999843
 40
0.749999999999986
 40
0.749999999999986
 40
0.7812499999999877
 40
0.7812499999999877
 40
0.8124999999999892
 40
0.8124999999999892
 40
0.8749999999999912
 40
0.8749999999999912
 40
0.9062499999999934
 40
0.9062499999999934
 40
0.9374999999999956
 40
0.9374999999999956
 40
0.9687499999999978
 40
0.9687499999999978
 40
1.0
 40
1.0
 40
1.0
 40
1.0
 10
86.99913452752133
 20
-3.329203099770757
 30
0.0
 10
87.26101827673438
 20
-3.329099074421374
 30
0.0
 10
87.52546534322406
 20
-3.377979717645072
 30
0.0
 10
87.88703997376643
 20
-3.513094242592843
 30
0.0
 10
88.00408090380937
 20
-3.569122353209886
 30
0.0
 10
88.22067605285291
 20
-3.696677629019193
 30
0.0
 10
88.3209421026648
 20
-3.768218807124406
 30
0.0
 10
88.50558308940471
 20
-3.92551960585958
 30
0.0
 10
88.58932937394124
 20
-4.011087768493724
 30
0.0
 10
88.73382540925756
 20
-4.188163051132323
 30
0.0
 10
88.79559762763456
 20
-4.280488449992466
 30
0.0
 10
88.89715618122321
 20
-4.472037114235556
 30
0.0
 10
88.93523016744712
 20
-4.568069407593016
 30
0.0
 10
88.9866380213819
 20
-4.75947759176211
 30
0.0
 10
88.99995359685789
 20
-4.856006483958751
 30
0.0
 10
89.00004615675064
 20
-5.042495646318597
 30
0.0
 10
88.9871791124956
 20
-5.132003345401752
 30
0.0
 10
88.93595449002473
 20
-5.30392496566464
 30
0.0
 10
88.8970867055956
 20
-5.386550786582927
 30
0.0
 10
88.74688322485441
 20
-5.614070872942654
 30
0.0
 10
88.59813482272396
 20
-5.744357153438822
 30
0.0
 10
88.32314425943105
 20
-5.898840720532109
 30
0.0
 10
88.22131968693978
 20
-5.944506418981213
 30
0.0
 10
88.00418472277799
 20
-6.022187042458327
 30
0.0
 10
87.88969604288627
 20
-6.054141542097449
 30
0.0
 10
87.64871602869471
 20
-6.105726475334833
 30
0.0
 10
87.52106764129327
 20
-6.125361489238437
 30
0.0
 10
87.26365618572355
 20
-6.151149472743506
 30
0.0
 10
87.13287773659539
 20
-6.157630052625644
 30
0.0
 10
87.00000000000003
 20
-6.157630052625644
 30
0.0
  0
SPLINE
  5
2CC
330
1F
100
AcDbEntity
  8
SK3
  6
SLD-Dashed
370
    18
100
AcDbSpline
210
0.0
220
0.0
230
1.0
 70
     8
 71
     3
 72
    34
 73
    30
 74
     0
 42
0.000000001
 43
0.00000001
 40
0.0
 40
0.0
 40
0.0
 40
0.0
 40
0.0312499999999995
 40
0.0312499999999995
 40
0.0624999999999991
 40
0.0624999999999991
 40
0.0937499999999986
 40
0.0937499999999986
 40
0.1249999999999981
 40
0.1249999999999981
 40
0.1874999999999948
 40
0.1874999999999948
 40
0.2187499999999926
 40
0.2187499999999926
 40
0.2499999999999905
 40
0.2499999999999905
 40
0.2812499999999883
 40
0.2812499999999883
 40
0.3124999999999861
 40
0.3124999999999861
 40
0.3749999999999827
 40
0.3749999999999827
 40
0.4062499999999811
 40
0.4062499999999811
 40
0.4374999999999795
 40
0.4374999999999795
 40
0.4687499999999779
 40
0.4687499999999779
 40
0.4999999999999762
 40
0.4999999999999762
 40
0.4999999999999762
 40
0.4999999999999762
 10
87.00000000000003
 20
-6.157630052625644
 30
0.0
 10
86.86712226340468
 20
-6.157630052625651
 30
0.0
 10
86.73661164152061
 20
-6.151151663269565
 30
0.0
 10
86.48008322970549
 20
-6.125501290774701
 30
0.0
 10
86.35270268807795
 20
-6.105988342378868
 30
0.0
 10
86.11087673434135
 20
-6.05430563736803
 30
0.0
 10
85.99629241017237
 20
-6.022323249742466
 30
0.0
 10
85.77943535006801
 20
-5.944810828413124
 30
0.0
 10
85.67734019398304
 20
-5.899076102204116
 30
0.0
 10
85.40222669331831
 20
-5.74463352584706
 30
0.0
 10
85.25343908536873
 20
-5.614282512318589
 30
0.0
 10
85.1034243736886
 20
-5.387462302979859
 30
0.0
 10
85.06462386739788
 20
-5.305427360451101
 30
0.0
 10
85.01295732641113
 20
-5.132893930121521
 30
0.0
 10
85.00008492799898
 20
-5.043425864012872
 30
0.0
 10
84.99991590165293
 20
-4.857890609513409
 30
0.0
 10
85.01307096395855
 20
-4.760944742260167
 30
0.0
 10
85.06442690905556
 20
-4.568967312132549
 30
0.0
 10
85.10241730241874
 20
-4.473082762672519
 30
0.0
 10
85.25379058457888
 20
-4.186860710587416
 30
0.0
 10
85.40113424515869
 20
-4.005148675128356
 30
0.0
 10
85.67836597606293
 20
-3.768729293038904
 30
0.0
 10
85.77857936813973
 20
-3.697196159829177
 30
0.0
 10
85.99460809280201
 20
-3.569815135446193
 30
0.0
 10
86.11169571953944
 20
-3.513650612050542
 30
0.0
 10
86.35276575795353
 20
-3.423399713119488
 30
0.0
 10
86.47745315751185
 20
-3.388657567272788
 30
0.0
 10
86.73544151429586
 20
-3.341360701155392
 30
0.0
 10
86.86819265291481
 20
-3.329255112445452
 30
0.0
 10
86.99913452752133
 20
-3.329203099770757
 30
0.0
  0
SPLINE
  5
2CD
330
1F
100
AcDbEntity
  8
SK3
  6
SLD-Dashed
370
    18
100
AcDbSpline
210
0.0
220
0.0
230
1.0
 70
     8
 71
     3
 72
    34
 73
    30
 74
     0
 42
0.000000001
 43
0.00000001
 40
0.4999999999999951
 40
0.4999999999999951
 40
0.4999999999999951
 40
0.4999999999999951
 40
0.5624999999999942
 40
0.5624999999999942
 40
0.5937499999999952
 40
0.5937499999999952
 40
0.6249999999999963
 40
0.6249999999999963
 40
0.6562499999999973
 40
0.6562499999999973
 40
0.6874999999999984
 40
0.6874999999999984
 40
0.7187499999999994
 40
0.7187499999999994
 40
0.7500000000000006
 40
0.7500000000000006
 40
0.7812500000000016
 40
0.7812500000000016
 40
0.8125000000000027
 40
0.8125000000000027
 40
0.8750000000000034
 40
0.8750000000000034
 40
0.9062500000000026
 40
0.9062500000000026
 40
0.9375000000000018
 40
0.9375000000000018
 40
0.9687500000000009
 40
0.9687500000000009
 40
1.0
 40
1.0
 40
1.0
 40
1.0
 10
87.00086547247865
 20
3.32920309977084
 30
0.0
 10
86.73898172326564
 20
3.329099074421457
 30
0.0
 10
86.47453465677576
 20
3.377979717645162
 30
0.0
 10
86.11296002623351
 20
3.513094242592926
 30
0.0
 10
85.99591909619065
 20
3.569122353209969
 30
0.0
 10
85.77932394714702
 20
3.69667762901927
 30
0.0
 10
85.67905789733518
 20
3.768218807124482
 30
0.0
 10
85.49441691059528
 20
3.92551960585967
 30
0.0
 10
85.41067062605876
 20
4.011087768493807
 30
0.0
 10
85.2661745907424
 20
4.188163051132399
 30
0.0
 10
85.20440237236542
 20
4.280488449992549
 30
0.0
 10
85.10284381877672
 20
4.472037114235633
 30
0.0
 10
85.06476983255287
 20
4.568069407593092
 30
0.0
 10
85.01336197861801
 20
4.759477591762186
 30
0.0
 10
85.00004640314206
 20
4.856006483958813
 30
0.0
 10
84.99995384324934
 20
5.042495646318673
 30
0.0
 10
85.01282088750442
 20
5.132003345401821
 30
0.0
 10
85.0640455099752
 20
5.303924965664702
 30
0.0
 10
85.10291329440439
 20
5.386550786582997
 30
0.0
 10
85.25311677514568
 20
5.61407087294271
 30
0.0
 10
85.40186517727614
 20
5.744357153438871
 30
0.0
 10
85.67685574056894
 20
5.898840720532157
 30
0.0
 10
85.77868031306026
 20
5.944506418981269
 30
0.0
 10
85.995815277222
 20
6.022187042458368
 30
0.0
 10
86.11030395711374
 20
6.054141542097491
 30
0.0
 10
86.35128397130529
 20
6.105726475334867
 30
0.0
 10
86.47893235870674
 20
6.125361489238479
 30
0.0
 10
86.73634381427647
 20
6.151149472743548
 30
0.0
 10
86.86712226340462
 20
6.157630052625686
 30
0.0
 10
87.0
 20
6.157630052625686
 30
0.0
  0
SPLINE
  5
2CE
330
1F
100
AcDbEntity
  8
SK3
  6
SLD-Dashed
370
    18
100
AcDbSpline
210
0.0
220
0.0
230
1.0
 70
     8
 71
     3
 72
    34
 73
    30
 74
     0
 42
0.000000001
 43
0.00000001
 40
0.0
 40
0.0
 40
0.0
 40
0.0
 40
0.0312500000000007
 40
0.0312500000000007
 40
0.0625000000000014
 40
0.0625000000000014
 40
0.0937500000000022
 40
0.0937500000000022
 40
0.1250000000000029
 40
0.1250000000000029
 40
0.187500000000002
 40
0.187500000000002
 40
0.2187500000000009
 40
0.2187500000000009
 40
0.2499999999999999
 40
0.2499999999999999
 40
0.2812499999999988
 40
0.2812499999999988
 40
0.3124999999999978
 40
0.3124999999999978
 40
0.3749999999999969
 40
0.3749999999999969
 40
0.4062499999999964
 40
0.4062499999999964
 40
0.437499999999996
 40
0.437499999999996
 40
0.4687499999999956
 40
0.4687499999999956
 40
0.4999999999999951
 40
0.4999999999999951
 40
0.4999999999999951
 40
0.4999999999999951
 10
87.0
 20
6.157630052625686
 30
0.0
 10
87.13287773659539
 20
6.157630052625686
 30
0.0
 10
87.26338835847952
 20
6.1511516632696
 30
0.0
 10
87.51991677029459
 20
6.125501290774736
 30
0.0
 10
87.64729731192217
 20
6.105988342378916
 30
0.0
 10
87.8891232656587
 20
6.054305637368078
 30
0.0
 10
88.00370758982758
 20
6.022323249742501
 30
0.0
 10
88.220564649932
 20
5.944810828413159
 30
0.0
 10
88.32265980601697
 20
5.899076102204165
 30
0.0
 10
88.59777330668167
 20
5.744633525847101
 30
0.0
 10
88.74656091463126
 20
5.614282512318623
 30
0.0
 10
88.8965756263114
 20
5.387462302979908
 30
0.0
 10
88.93537613260213
 20
5.305427360451143
 30
0.0
 10
88.98704267358887
 20
5.132893930121569
 30
0.0
 10
88.999915072001
 20
5.043425864012928
 30
0.0
 10
89.00008409834703
 20
4.857890609513457
 30
0.0
 10
88.98692903604145
 20
4.760944742260214
 30
0.0
 10
88.93557309094443
 20
4.568967312132605
 30
0.0
 10
88.89758269758127
 20
4.473082762672574
 30
0.0
 10
88.74620941542102
 20
4.186860710587485
 30
0.0
 10
88.5988657548413
 20
4.005148675128425
 30
0.0
 10
88.32163402393702
 20
3.768729293038974
 30
0.0
 10
88.22142063186028
 20
3.697196159829247
 30
0.0
 10
88.00539190719797
 20
3.569815135446262
 30
0.0
 10
87.8883042804606
 20
3.513650612050612
 30
0.0
 10
87.6472342420464
 20
3.423399713119564
 30
0.0
 10
87.52254684248808
 20
3.388657567272864
 30
0.0
 10
87.26455848570413
 20
3.341360701155469
 30
0.0
 10
87.13180734708514
 20
3.329255112445528
 30
0.0
 10
87.00086547247865
 20
3.32920309977084
 30
0.0
  0
SPLINE
  5
2CF
330
1F
100
AcDbEntity
  8
SK3
  6
SLD-Dashed
370
    18
100
AcDbSpline
210
0.0
220
0.0
230
1.0
 70
     8
 71
     3
 72
    26
 73
    22
 74
     0
 42
0.000000001
 43
0.00000001
 40
0.4999999999999964
 40
0.4999999999999964
 40
0.4999999999999964
 40
0.4999999999999964
 40
0.5624999999999969
 40
0.5624999999999969
 40
0.6249999999999974
 40
0.6249999999999974
 40
0.6562499999999978
 40
0.6562499999999978
 40
0.6874999999999981
 40
0.6874999999999981
 40
0.7187499999999984
 40
0.7187499999999984
 40
0.7499999999999988
 40
0.7499999999999988
 40
0.8124999999999991
 40
0.8124999999999991
 40
0.8749999999999993
 40
0.8749999999999993
 40
0.9374999999999997
 40
0.9374999999999997
 40
1.0
 40
1.0
 40
1.0
 40
1.0
 10
11.63869831779576
 20
9.819390371339171
 30
0.0
 10
11.80317915771355
 20
9.806594466981545
 30
0.0
 10
11.95081782962325
 20
9.81243208145466
 30
0.0
 10
12.22616299685258
 20
9.86883930159902
 30
0.0
 10
12.3523651546993
 20
9.91895362087799
 30
0.0
 10
12.5187466142635
 20
10.0483728906065
 30
0.0
 10
12.57051953396265
 20
10.10115000339713
 30
0.0
 10
12.66070184098396
 20
10.23071744026828
 30
0.0
 10
12.70001796005854
 20
10.30921538460803
 30
0.0
 10
12.75624339139554
 20
10.49493258066082
 30
0.0
 10
12.77323165300571
 20
10.60488156995192
 30
0.0
 10
12.77649462889746
 20
10.8411030005361
 30
0.0
 10
12.76278670669281
 20
10.9697704302337
 30
0.0
 10
12.68516730486985
 20
11.34647137591054
 30
0.0
 10
12.58996305158951
 20
11.58088814423532
 30
0.0
 10
12.37315603453723
 20
11.98947715399235
 30
0.0
 10
12.24747178673936
 20
12.17132846963922
 30
0.0
 10
11.97676737519447
 20
12.48981349043058
 30
0.0
 10
11.83102686354766
 20
12.62828009284712
 30
0.0
 10
11.50508373269932
 20
12.86276351579466
 30
0.0
 10
11.32747339457478
 20
12.95749122616793
 30
0.0
 10
11.125
 20
13.01159523973412
 30
0.0
  0
SPLINE
  5
2D0
330
1F
100
AcDbEntity
  8
SK3
  6
SLD-Dashed
370
    18
100
AcDbSpline
210
0.0
220
0.0
230
1.0
 70
     8
 71
     3
 72
    34
 73
    30
 74
     0
 42
0.000000001
 43
0.00000001
 40
0.0
 40
0.0
 40
0.0
 40
0.0
 40
0.0312499999999997
 40
0.0312499999999997
 40
0.0624999999999994
 40
0.0624999999999994
 40
0.0937499999999991
 40
0.0937499999999991
 40
0.1249999999999988
 40
0.1249999999999988
 40
0.1562499999999984
 40
0.1562499999999984
 40
0.1874999999999981
 40
0.1874999999999981
 40
0.2187499999999978
 40
0.2187499999999978
 40
0.2499999999999975
 40
0.2499999999999975
 40
0.2812499999999972
 40
0.2812499999999972
 40
0.3124999999999969
 40
0.3124999999999969
 40
0.374999999999996
 40
0.374999999999996
 40
0.4062499999999959
 40
0.4062499999999959
 40
0.4374999999999959
 40
0.4374999999999959
 40
0.4999999999999964
 40
0.4999999999999964
 40
0.4999999999999964
 40
0.4999999999999964
 10
11.125
 20
13.01159523973412
 30
0.0
 10
11.02376330271261
 20
13.03864724651722
 30
0.0
 10
10.91875434041333
 20
13.05441768585489
 30
0.0
 10
10.69982193729475
 20
13.05649587060895
 30
0.0
 10
10.58565504429779
 20
13.04203538439416
 30
0.0
 10
10.36433306908847
 20
12.9795877952765
 30
0.0
 10
10.253862400543
 20
12.93066318687901
 30
0.0
 10
10.04998753866607
 20
12.80335962284318
 30
0.0
 10
9.955887873020943
 20
12.72514830576772
 30
0.0
 10
9.7890763521635
 20
12.54575166602615
 30
0.0
 10
9.718022202672039
 20
12.44674722204867
 30
0.0
 10
9.600536001433166
 20
12.23250861951099
 30
0.0
 10
9.555159683901193
 20
12.11851015366418
 30
0.0
 10
9.493538953914276
 20
11.88585378314767
 30
0.0
 10
9.476799814585949
 20
11.76451266100638
 30
0.0
 10
9.473480888754688
 20
11.52533259241783
 30
0.0
 10
9.486354225371821
 20
11.40705029377197
 30
0.0
 10
9.541906609790484
 20
11.17282024047873
 30
0.0
 10
9.583939125903814
 20
11.06025657731943
 30
0.0
 10
9.694361385739619
 20
10.84625731946295
 30
0.0
 10
9.764046986917407
 20
10.74326010657123
 30
0.0
 10
10.00399120049184
 20
10.46156575413959
 30
0.0
 10
10.21277179464272
 20
10.30327029353928
 30
0.0
 10
10.54446991129018
 20
10.12219171688671
 30
0.0
 10
10.65925898590063
 20
10.07012567259626
 30
0.0
 10
10.87934718809663
 20
9.984066675225806
 30
0.0
 10
10.98764418607857
 20
9.94872682514808
 30
0.0
 10
11.2921073873139
 20
9.863765363482608
 30
0.0
 10
11.47421747787797
 20
9.832186275696806
 30
0.0
 10
11.63869831779576
 20
9.819390371339171
 30
0.0
  0
SPLINE
  5
2D1
330
1F
100
AcDbEntity
  8
SK3
  6
SLD-Dashed
370
    18
100
AcDbSpline
210
0.0
220
0.0
230
1.0
 70
    24
 71
     2
 72
     6
 73
     3
 74
     0
 42
0.000000001
 43
0.00000001
 40
0.0
 40
0.0
 40
0.0
 40
0.5
 40
0.5
 40
0.5
 10
3.54062466302503
 20
35.29999999999501
 30
0.0
 10
3.48724183497473
 20
35.29999999999501
 30
0.0
 10
3.422396832220218
 20
35.29999999999499
 30
0.0
  0
SPLINE
  5
2D2
330
1F
100
AcDbEntity
  8
SK3
  6
SLD-Dashed
370
    18
100
AcDbSpline
210
0.0
220
0.0
230
1.0
 70
    24
 71
     3
 72
     8
 73
     4
 74
     0
 42
0.000000001
 43
0.00000001
 40
0.5
 40
0.5
 40
0.5
 40
0.5
 40
1.0
 40
1.0
 40
1.0
 40
1.0
 10
3.422396832219928
 20
35.29999999999499
 30
0.0
 10
3.357551829465387
 20
35.29999999999198
 30
0.0
 10
3.280201683488597
 20
35.29999999998839
 30
0.0
 10
3.199999999997845
 20
35.29999999998465
 30
0.0
  0
SPLINE
  5
2D3
330
1F
100
AcDbEntity
  8
1
  6
SLD-Dashed
370
    18
100
AcDbSpline
210
0.0
220
0.0
230
1.0
 70
     8
 71
     3
 72
     8
 73
     4
 74
     0
 42
0.000000001
 43
0.00000001
 40
0.0
 40
0.0
 40
0.0
 40
0.0
 40
1.0
 40
1.0
 40
1.0
 40
1.0
 10
13.01500000000001
 20
-44.61432468190731
 30
0.0
 10
13.3539123530121
 20
-45.22538413809418
 30
0.0
 10
13.69323527086251
 20
-45.83621657161472
 30
0.0
 10
14.03292262199263
 20
-46.44684304364807
 30
0.0
  0
SPLINE
  5
2D4
330
1F
100
AcDbEntity
  8
1
  6
SLD-Dashed
370
    18
100
AcDbSpline
210
0.0
220
0.0
230
1.0
 70
     8
 71
     3
 72
    12
 73
     8
 74
     0
 42
0.000000001
 43
0.00000001
 40
0.0
 40
0.0
 40
0.0
 40
0.0
 40
0.2500000000000008
 40
0.2500000000000008
 40
0.5000000000000016
 40
0.5000000000000016
 40
1.0
 40
1.0
 40
1.0
 40
1.0
 10
12.265
 20
-43.63301502303044
 30
0.0
 10
12.3647948524028
 20
-43.63301502303045
 30
0.0
 10
12.46675930776704
 20
-43.65476370384824
 30
0.0
 10
12.64954501029551
 20
-43.73569606259787
 30
0.0
 10
12.73294761845939
 20
-43.79547861362951
 30
0.0
 10
12.9377126581028
 20
-44.01372059499524
 30
0.0
 10
13.01500000000001
 20
-44.21436013461165
 30
0.0
 10
13.01500000000001
 20
-44.41455279522692
 30
0.0
  0
SPLINE
  5
2D5
330
1F
100
AcDbEntity
  8
1
  6
SLD-Dashed
370
    18
100
AcDbSpline
210
0.0
220
0.0
230
1.0
 70
     8
 71
     3
 72
    14
 73
    10
 74
     0
 42
0.000000001
 43
0.00000001
 40
0.0
 40
0.0
 40
0.0
 40
0.0
 40
0.25
 40
0.25
 40
0.5
 40
0.5
 40
0.75
 40
0.75
 40
1.0
 40
1.0
 40
1.0
 40
1.0
 10
9.184999999999999
 20
-44.41455279522692
 30
0.0
 10
9.185000000000027
 20
-44.31359684058482
 30
0.0
 10
9.203601876582242
 20
-44.21433752079794
 30
0.0
 10
9.276534764576239
 20
-44.02713873906653
 30
0.0
 10
9.330551489252576
 20
-43.94089204401604
 30
0.0
 10
9.46755818463632
 20
-43.79501127808648
 30
0.0
 10
9.550563536448745
 20
-43.73552784744923
 30
0.0
 10
9.73460417277519
 20
-43.65428111190434
 30
0.0
 10
9.834060436032216
 20
-43.63301502303044
 30
0.0
 10
9.934999999999999
 20
-43.63301502303044
 30
0.0
  0
SPLINE
  5
2D6
330
1F
100
AcDbEntity
  8
1
  6
SLD-Dashed
370
    18
100
AcDbSpline
210
0.0
220
0.0
230
1.0
 70
     8
 71
     3
 72
     8
 73
     4
 74
     0
 42
0.000000001
 43
0.00000001
 40
0.0
 40
0.0
 40
0.0
 40
0.0
 40
1.0
 40
1.0
 40
1.0
 40
1.0
 10
8.234341191993414
 20
-46.32591742211478
 30
0.0
 10
8.551560425572118
 20
-45.75557320880487
 30
0.0
 10
8.868459357485495
 20
-45.18504791213747
 30
0.0
 10
9.185000000000027
 20
-44.61432468190729
 30
0.0
  0
SPLINE
  5
2D7
330
1F
100
AcDbEntity
  8
1
  6
SLD-Dashed
370
    18
100
AcDbSpline
210
0.0
220
0.0
230
1.0
 70
     8
 71
     3
 72
     8
 73
     4
 74
     0
 42
0.000000001
 43
0.00000001
 40
0.0
 40
0.0
 40
0.0
 40
0.0
 40
1.0
 40
1.0
 40
1.0
 40
1.0
 10
8.130521853603224
 20
46.51255241321733
 30
0.0
 10
8.482424487656342
 20
45.88003154395508
 30
0.0
 10
8.833933628551986
 20
45.24729785068075
 30
0.0
 10
9.184999999999995
 20
44.61432468190733
 30
0.0
  0
SPLINE
  5
2D8
330
1F
100
AcDbEntity
  8
1
  6
SLD-Dashed
370
    18
100
AcDbSpline
210
0.0
220
0.0
230
1.0
 70
     8
 71
     3
 72
    12
 73
     8
 74
     0
 42
0.000000001
 43
0.00000001
 40
0.0
 40
0.0
 40
0.0
 40
0.0
 40
0.4999999999999984
 40
0.4999999999999984
 40
0.7499999999999992
 40
0.7499999999999992
 40
1.0
 40
1.0
 40
1.0
 40
1.0
 10
9.184999999999466
 20
44.41455279522749
 30
0.0
 10
9.184999999999315
 20
44.2146432402557
 30
0.0
 10
9.262577750172747
 20
44.01319670577918
 30
0.0
 10
9.46748786228675
 20
43.79512211107191
 30
0.0
 10
9.551169313488328
 20
43.73525024845306
 30
0.0
 10
9.734123389871188
 20
43.65450353783479
 30
0.0
 10
9.834260986427298
 20
43.63301502303051
 30
0.0
 10
9.934999999998888
 20
43.63301502303043
 30
0.0
  0
SPLINE
  5
2D9
330
1F
100
AcDbEntity
  8
1
  6
SLD-Dashed
370
    18
100
AcDbSpline
210
0.0
220
0.0
230
1.0
 70
     8
 71
     3
 72
    12
 73
     8
 74
     0
 42
0.000000001
 43
0.00000001
 40
0.0
 40
0.0
 40
0.0
 40
0.0
 40
0.2500000000000039
 40
0.2500000000000039
 40
0.5000000000000078
 40
0.5000000000000078
 40
1.0
 40
1.0
 40
1.0
 40
1.0
 10
12.26500000000087
 20
43.63301502303134
 30
0.0
 10
12.36488078742889
 20
43.63301502303146
 30
0.0
 10
12.46496899267184
 20
43.65414350768038
 30
0.0
 10
12.64924433697647
 20
43.73539237502072
 30
0.0
 10
12.73213615703832
 20
43.79468442323487
 30
0.0
 10
12.93857820272282
 20
44.014502137828
 30
0.0
 10
13.01500000000024
 20
44.21514437565295
 30
0.0
 10
13.01500000000001
 20
44.41455279522865
 30
0.0
  0
SPLINE
  5
2DA
330
1F
100
AcDbEntity
  8
1
  6
SLD-Dashed
370
    18
100
AcDbSpline
210
0.0
220
0.0
230
1.0
 70
     8
 71
     3
 72
     8
 73
     4
 74
     0
 42
0.000000001
 43
0.00000001
 40
0.0
 40
0.0
 40
0.0
 40
0.0
 40
1.0
 40
1.0
 40
1.0
 40
1.0
 10
13.01500000000001
 20
44.61432468190731
 30
0.0
 10
13.36604900858748
 20
45.24726654541842
 30
0.0
 10
13.71754074288913
 20
45.87996895708405
 30
0.0
 10
14.06942593373975
 20
46.51245856453758
 30
0.0
  0
SPLINE
  5
2DB
330
1F
100
AcDbEntity
  8
SK3
  6
SLD-Dashed
370
    18
100
AcDbSpline
210
0.0
220
0.0
230
1.0
 70
     8
 71
     3
 72
    12
 73
     8
 74
     0
 42
0.000000001
 43
0.00000001
 40
0.0
 40
0.0
 40
0.0
 40
0.0
 40
0.2500000000000032
 40
0.2500000000000032
 40
0.5000000000000064
 40
0.5000000000000064
 40
1.0
 40
1.0
 40
1.0
 40
1.0
 10
9.934999999999986
 20
-34.33988206153306
 30
0.0
 10
9.82034052335068
 20
-34.33988206153309
 30
0.0
 10
9.705538166582302
 20
-34.37709050155936
 30
0.0
 10
9.51369567735824
 20
-34.49933758638673
 30
0.0
 10
9.433027612081812
 20
-34.58414775442159
 30
0.0
 10
9.244146091268751
 20
-34.86954808682448
 30
0.0
 10
9.18499999999997
 20
-35.10067185598795
 30
0.0
 10
9.18499999999997
 20
-35.32760959929216
 30
0.0
  0
SPLINE
  5
2DC
330
1F
100
AcDbEntity
  8
SK3
  6
SLD-Dashed
370
    18
100
AcDbSpline
210
0.0
220
0.0
230
1.0
 70
     8
 71
     3
 72
    14
 73
    10
 74
     0
 42
0.000000001
 43
0.00000001
 40
0.0
 40
0.0
 40
0.0
 40
0.0
 40
0.25
 40
0.25
 40
0.5
 40
0.5
 40
0.75
 40
0.75
 40
1.0
 40
1.0
 40
1.0
 40
1.0
 10
13.015
 20
-35.32760959929214
 30
0.0
 10
13.015
 20
-35.21322856537278
 30
0.0
 10
13.00020717297601
 20
-35.10084302755592
 30
0.0
 10
12.93903926534706
 20
-34.88033227781025
 30
0.0
 10
12.89333758405227
 20
-34.77519549750905
 30
0.0
 10
12.76709112923276
 20
-34.58421796605322
 30
0.0
 10
12.68685796093914
 20
-34.49954708636009
 30
0.0
 10
12.49267738404916
 20
-34.37609760771406
 30
0.0
 10
12.37895818171267
 20
-34.33988206153306
 30
0.0
 10
12.26500000000001
 20
-34.33988206153306
 30
0.0
  0
SPLINE
  5
2DD
330
1F
100
AcDbEntity
  8
SK3
  6
SLD-Dashed
370
    18
100
AcDbSpline
210
0.0
220
0.0
230
1.0
 70
    24
 71
     3
 72
     8
 73
     4
 74
     0
 42
0.000000001
 43
0.00000001
 40
0.0
 40
0.0
 40
0.0
 40
0.0
 40
0.25
 40
0.25
 40
0.25
 40
0.25
 10
9.934999999999972
 20
-29.84999999999999
 30
0.0
 10
9.820633557571345
 20
-29.84999999999999
 30
0.0
 10
9.705713694936751
 20
-29.84999999999999
 30
0.0
 10
9.609616781792424
 20
-29.84999999999999
 30
0.0
  0
SPLINE
  5
2DE
330
1F
100
AcDbEntity
  8
SK3
  6
SLD-Dashed
370
    18
100
AcDbSpline
210
0.0
220
0.0
230
1.0
 70
    24
 71
     3
 72
     8
 73
     4
 74
     0
 42
0.000000001
 43
0.00000001
 40
0.25
 40
0.25
 40
0.25
 40
0.25
 40
0.5
 40
0.5
 40
0.5
 40
0.5
 10
9.609616781792424
 20
-29.84999999999999
 30
0.0
 10
9.513519868648096
 20
-29.84999999999999
 30
0.0
 10
9.432800300690811
 20
-29.84999999999999
 30
0.0
 10
9.370104098752275
 20
-29.84999999999999
 30
0.0
  0
SPLINE
  5
2DF
330
1F
100
AcDbEntity
  8
SK3
  6
SLD-Dashed
370
    18
100
AcDbSpline
210
0.0
220
0.0
230
1.0
 70
    24
 71
     3
 72
     8
 73
     4
 74
     0
 42
0.000000001
 43
0.00000001
 40
0.5
 40
0.5
 40
0.5
 40
0.5
 40
0.75
 40
0.75
 40
0.75
 40
0.75
 10
9.370104098752275
 20
-29.84999999999999
 30
0.0
 10
9.30740789681371
 20
-29.84999999999999
 30
0.0
 10
9.26091718858904
 20
-29.84999999999999
 30
0.0
 10
9.230556730383963
 20
-29.84999999999999
 30
0.0
  0
SPLINE
  5
2E0
330
1F
100
AcDbEntity
  8
SK3
  6
SLD-Dashed
370
    18
100
AcDbSpline
210
0.0
220
0.0
230
1.0
 70
    24
 71
     2
 72
     6
 73
     3
 74
     0
 42
0.000000001
 43
0.00000001
 40
0.75
 40
0.75
 40
0.75
 40
1.0
 40
1.0
 40
1.0
 10
9.230556730383963
 20
-29.84999999999999
 30
0.0
 10
9.200196272178884
 20
-29.84999999999999
 30
0.0
 10
9.184999999999999
 20
-29.84999999999999
 30
0.0
  0
SPLINE
  5
2E1
330
1F
100
AcDbEntity
  8
SK3
  6
SLD-Dashed
370
    18
100
AcDbSpline
210
0.0
220
0.0
230
1.0
 70
    24
 71
     2
 72
     6
 73
     3
 74
     0
 42
0.000000001
 43
0.00000001
 40
0.0
 40
0.0
 40
0.0
 40
0.25
 40
0.25
 40
0.25
 10
13.01500000000001
 20
-29.84999999999999
 30
0.0
 10
12.99976712842463
 20
-29.84999999999999
 30
0.0
 10
12.9694092411118
 20
-29.84999999999999
 30
0.0
  0
SPLINE
  5
2E2
330
1F
100
AcDbEntity
  8
SK3
  6
SLD-Dashed
370
    18
100
AcDbSpline
210
0.0
220
0.0
230
1.0
 70
    24
 71
     3
 72
     8
 73
     4
 74
     0
 42
0.000000001
 43
0.00000001
 40
0.25
 40
0.25
 40
0.25
 40
0.25
 40
0.5
 40
0.5
 40
0.5
 40
0.5
 10
12.9694092411118
 20
-29.84999999999999
 30
0.0
 10
12.93905135379898
 20
-29.84999999999999
 30
0.0
 10
12.89250680873123
 20
-29.84999999999999
 30
0.0
 10
12.8296380976702
 20
-29.84999999999999
 30
0.0
  0
SPLINE
  5
2E3
330
1F
100
AcDbEntity
  8
SK3
  6
SLD-Dashed
370
    18
100
AcDbSpline
210
0.0
220
0.0
230
1.0
 70
    24
 71
     3
 72
     8
 73
     4
 74
     0
 42
0.000000001
 43
0.00000001
 40
0.5
 40
0.5
 40
0.5
 40
0.5
 40
0.75
 40
0.75
 40
0.75
 40
0.75
 10
12.8296380976702
 20
-29.84999999999999
 30
0.0
 10
12.76676938660916
 20
-29.84999999999999
 30
0.0
 10
12.68590636195691
 20
-29.84999999999999
 30
0.0
 10
12.58961969903433
 20
-29.84999999999999
 30
0.0
  0
SPLINE
  5
2E4
330
1F
100
AcDbEntity
  8
SK3
  6
SLD-Dashed
370
    18
100
AcDbSpline
210
0.0
220
0.0
230
1.0
 70
    24
 71
     3
 72
     8
 73
     4
 74
     0
 42
0.000000001
 43
0.00000001
 40
0.75
 40
0.75
 40
0.75
 40
0.75
 40
1.0
 40
1.0
 40
1.0
 40
1.0
 10
12.58961969903433
 20
-29.84999999999999
 30
0.0
 10
12.49333303611175
 20
-29.84999999999999
 30
0.0
 10
12.37892259690215
 20
-29.84999999999999
 30
0.0
 10
12.26500000000001
 20
-29.84999999999999
 30
0.0
  0
SPLINE
  5
2E5
330
1F
100
AcDbEntity
  8
SK3
  6
SLD-Dashed
370
    18
100
AcDbSpline
210
0.0
220
0.0
230
1.0
 70
     8
 71
     3
 72
    12
 73
     8
 74
     0
 42
0.000000001
 43
0.00000001
 40
0.0
 40
0.0
 40
0.0
 40
0.0
 40
0.2500000000000032
 40
0.2500000000000032
 40
0.5000000000000063
 40
0.5000000000000063
 40
1.0
 40
1.0
 40
1.0
 40
1.0
 10
18.30000000000004
 20
-38.51107795167514
 30
0.0
 10
18.41289482414816
 20
-38.51107795167514
 30
0.0
 10
18.52359129640865
 20
-38.47784171459015
 30
0.0
 10
18.71564346709772
 20
-38.36327503607398
 30
0.0
 10
18.79756672136534
 20
-38.28247143446088
 30
0.0
 10
18.99012152039929
 20
-38.00619514557206
 30
0.0
 10
19.05000000000001
 20
-37.78188509263182
 30
0.0
 10
19.05000000000001
 20
-37.55766399817752
 30
0.0
  0
SPLINE
  5
2E6
330
1F
100
AcDbEntity
  8
SK3
  6
SLD-Dashed
370
    18
100
AcDbSpline
210
0.0
220
0.0
230
1.0
 70
    24
 71
     2
 72
     6
 73
     3
 74
     0
 42
0.000000001
 43
0.00000001
 40
0.0
 40
0.0
 40
0.0
 40
0.25
 40
0.25
 40
0.25
 10
3.200000000000008
 20
-29.84999999999999
 30
0.0
 10
3.215211600272647
 20
-29.84999999999999
 30
0.0
 10
3.246168525324125
 20
-29.84999999999999
 30
0.0
  0
SPLINE
  5
2E7
330
1F
100
AcDbEntity
  8
SK3
  6
SLD-Dashed
370
    18
100
AcDbSpline
210
0.0
220
0.0
230
1.0
 70
    24
 71
     3
 72
     8
 73
     4
 74
     0
 42
0.000000001
 43
0.00000001
 40
0.25
 40
0.25
 40
0.25
 40
0.25
 40
0.5
 40
0.5
 40
0.5
 40
0.5
 10
3.246168525324125
 20
-29.84999999999999
 30
0.0
 10
3.277125450375618
 20
-29.84999999999999
 30
0.0
 10
3.324391360501555
 20
-29.84999999999999
 30
0.0
 10
3.388322433028404
 20
-29.84999999999999
 30
0.0
  0
SPLINE
  5
2E8
330
1F
100
AcDbEntity
  8
SK3
  6
SLD-Dashed
370
    18
100
AcDbSpline
210
0.0
220
0.0
230
1.0
 70
    24
 71
     3
 72
     8
 73
     4
 74
     0
 42
0.000000001
 43
0.00000001
 40
0.5
 40
0.5
 40
0.5
 40
0.5
 40
0.75
 40
0.75
 40
0.75
 40
0.75
 10
3.388322433028404
 20
-29.84999999999999
 30
0.0
 10
3.452253505555267
 20
-29.84999999999999
 30
0.0
 10
3.533292784974232
 20
-29.84999999999999
 30
0.0
 10
3.630542153656588
 20
-29.84999999999999
 30
0.0
  0
SPLINE
  5
2E9
330
1F
100
AcDbEntity
  8
SK3
  6
SLD-Dashed
370
    18
100
AcDbSpline
210
0.0
220
0.0
230
1.0
 70
    24
 71
     3
 72
     8
 73
     4
 74
     0
 42
0.000000001
 43
0.00000001
 40
0.75
 40
0.75
 40
0.75
 40
0.75
 40
0.875
 40
0.875
 40
0.875
 40
0.875
 10
3.630542153656588
 20
-29.84999999999999
 30
0.0
 10
3.679166837997794
 20
-29.84999999999999
 30
0.0
 10
3.730166761843803
 20
-29.84999999999999
 30
0.0
 10
3.783693176329303
 20
-29.84999999999999
 30
0.0
  0
SPLINE
  5
2EA
330
1F
100
AcDbEntity
  8
SK3
  6
SLD-Dashed
370
    18
100
AcDbSpline
210
0.0
220
0.0
230
1.0
 70
    24
 71
     3
 72
     8
 73
     4
 74
     0
 42
0.000000001
 43
0.00000001
 40
0.875
 40
0.875
 40
0.875
 40
0.875
 40
1.0
 40
1.0
 40
1.0
 40
1.0
 10
3.783693176329303
 20
-29.84999999999999
 30
0.0
 10
3.837219590814844
 20
-29.84999999999999
 30
0.0
 10
3.894124468199658
 20
-29.84999999999999
 30
0.0
 10
3.950000000000009
 20
-29.84999999999999
 30
0.0
  0
SPLINE
  5
2EB
330
1F
100
AcDbEntity
  8
SK3
  6
SLD-Dashed
370
    18
100
AcDbSpline
210
0.0
220
0.0
230
1.0
 70
    24
 71
     3
 72
     8
 73
     4
 74
     0
 42
0.000000001
 43
0.00000001
 40
0.0
 40
0.0
 40
0.0
 40
0.0
 40
0.25
 40
0.25
 40
0.25
 40
0.25
 10
18.30000000000001
 20
-29.84999999999999
 30
0.0
 10
18.41247317381035
 20
-29.84999999999999
 30
0.0
 10
18.52309590071283
 20
-29.84999999999999
 30
0.0
 10
18.61937178891969
 20
-29.84999999999999
 30
0.0
  0
SPLINE
  5
2EC
330
1F
100
AcDbEntity
  8
SK3
  6
SLD-Dashed
370
    18
100
AcDbSpline
210
0.0
220
0.0
230
1.0
 70
    24
 71
     3
 72
     8
 73
     4
 74
     0
 42
0.000000001
 43
0.00000001
 40
0.25
 40
0.25
 40
0.25
 40
0.25
 40
0.5
 40
0.5
 40
0.5
 40
0.5
 10
18.61937178891969
 20
-29.84999999999999
 30
0.0
 10
18.71564767712655
 20
-29.84999999999999
 30
0.0
 10
18.79771216328975
 20
-29.84999999999999
 30
0.0
 10
18.86163687579914
 20
-29.84999999999999
 30
0.0
  0
SPLINE
  5
2ED
330
1F
100
AcDbEntity
  8
SK3
  6
SLD-Dashed
370
    18
100
AcDbSpline
210
0.0
220
0.0
230
1.0
 70
    24
 71
     2
 72
     6
 73
     3
 74
     0
 42
0.000000001
 43
0.00000001
 40
0.5
 40
0.5
 40
0.5
 40
1.0
 40
1.0
 40
1.0
 10
18.86163687579914
 20
-29.84999999999999
 30
0.0
 10
18.98948630081793
 20
-29.84999999999999
 30
0.0
 10
19.05000000000004
 20
-29.84999999999999
 30
0.0
  0
SPLINE
  5
2EE
330
1F
100
AcDbEntity
  8
SK3
  6
SLD-Dashed
370
    18
100
AcDbSpline
210
0.0
220
0.0
230
1.0
 70
     8
 71
     3
 72
    14
 73
    10
 74
     0
 42
0.000000001
 43
0.00000001
 40
0.0
 40
0.0
 40
0.0
 40
0.0
 40
0.25
 40
0.25
 40
0.5
 40
0.5
 40
0.75
 40
0.75
 40
1.0
 40
1.0
 40
1.0
 40
1.0
 10
3.200000000000008
 20
-37.55766399817753
 30
0.0
 10
3.200000000000008
 20
-37.67012918224768
 30
0.0
 10
3.215021356358622
 20
-37.78022583506725
 30
0.0
 10
3.277170561977321
 20
-37.99535666632221
 30
0.0
 10
3.324005286895471
 20
-38.0981659073132
 30
0.0
 10
3.452289036616776
 20
-38.28230235340511
 30
0.0
 10
3.533762741077223
 20
-38.36291800445689
 30
0.0
 10
3.726977015320931
 20
-38.47818354595603
 30
0.0
 10
3.838206150636722
 20
-38.51107795167556
 30
0.0
 10
3.950000000001577
 20
-38.51107795167525
 30
0.0
  0
SPLINE
  5
2EF
330
1F
100
AcDbEntity
  8
SK3
  6
SLD-Dashed
370
    18
100
AcDbSpline
210
0.0
220
0.0
230
1.0
 70
     8
 71
     3
 72
    30
 73
    26
 74
     0
 42
0.000000001
 43
0.00000001
 40
0.5000000000000012
 40
0.5000000000000012
 40
0.5000000000000012
 40
0.5000000000000012
 40
0.5625000000000016
 40
0.5625000000000016
 40
0.6250000000000019
 40
0.6250000000000019
 40
0.6875000000000022
 40
0.6875000000000022
 40
0.7500000000000026
 40
0.7500000000000026
 40
0.7812500000000023
 40
0.7812500000000023
 40
0.812500000000002
 40
0.812500000000002
 40
0.8437500000000017
 40
0.8437500000000017
 40
0.8750000000000013
 40
0.8750000000000013
 40
0.906250000000001
 40
0.906250000000001
 40
0.9375000000000007
 40
0.9375000000000007
 40
0.9687500000000003
 40
0.9687500000000003
 40
1.0
 40
1.0
 40
1.0
 40
1.0
 10
9.602846279599994
 20
14.27915034605749
 30
0.0
 10
9.686456538694044
 20
14.42125418637672
 30
0.0
 10
9.797407143448082
 20
14.51131733768239
 30
0.0
 10
10.0401022360723
 20
14.63242374926591
 30
0.0
 10
10.1757110634756
 20
14.66434400040097
 30
0.0
 10
10.46843928875983
 20
14.68785090664326
 30
0.0
 10
10.62555865364928
 20
14.68003033605995
 30
0.0
 10
10.98145473780869
 20
14.62436653420474
 30
0.0
 10
11.18157682258694
 20
14.57632221838456
 30
0.0
 10
11.50801002825792
 20
14.45860893436531
 30
0.0
 10
11.61873162334234
 20
14.41242944660487
 30
0.0
 10
11.84220113938147
 20
14.30063256215509
 30
0.0
 10
11.9541226944473
 20
14.23490090158637
 30
0.0
 10
12.16107863552193
 20
14.08747705033153
 30
0.0
 10
12.25901625186773
 20
14.00366784802332
 30
0.0
 10
12.43052677631547
 20
13.82249974419361
 30
0.0
 10
12.50593330594194
 20
13.72350506925842
 30
0.0
 10
12.63000303324981
 20
13.51367430078371
 30
0.0
 10
12.67841410243631
 20
13.40398486856725
 30
0.0
 10
12.74789370637355
 20
13.17359881812328
 30
0.0
 10
12.76810124630634
 20
13.0546820393179
 30
0.0
 10
12.77891027826542
 20
12.81644825424515
 30
0.0
 10
12.76940813581845
 20
12.69449512908347
 30
0.0
 10
12.72129905847902
 20
12.45817259633861
 30
0.0
 10
12.68301625646416
 20
12.34304803310304
 30
0.0
 10
12.63040931107548
 20
12.23233436389447
 30
0.0
  0
SPLINE
  5
2F0
330
1F
100
AcDbEntity
  8
SK3
  6
SLD-Dashed
370
    18
100
AcDbSpline
210
0.0
220
0.0
230
1.0
 70
     8
 71
     3
 72
    30
 73
    26
 74
     0
 42
0.000000001
 43
0.00000001
 40
0.0
 40
0.0
 40
0.0
 40
0.0
 40
0.0312499999999998
 40
0.0312499999999998
 40
0.0624999999999996
 40
0.0624999999999996
 40
0.0937499999999994
 40
0.0937499999999994
 40
0.1249999999999991
 40
0.1249999999999991
 40
0.1874999999999995
 40
0.1874999999999995
 40
0.2499999999999999
 40
0.2499999999999999
 40
0.3125000000000003
 40
0.3125000000000003
 40
0.3750000000000007
 40
0.3750000000000007
 40
0.4062500000000009
 40
0.4062500000000009
 40
0.437500000000001
 40
0.437500000000001
 40
0.4687500000000011
 40
0.4687500000000011
 40
0.5000000000000012
 40
0.5000000000000012
 40
0.5000000000000012
 40
0.5000000000000012
 10
12.63040931107549
 20
12.23233436389445
 30
0.0
 10
12.57780236568679
 20
12.12162069468588
 30
0.0
 10
12.51267206459282
 20
12.01896209858486
 30
0.0
 10
12.35821503903314
 20
11.83123217673014
 30
0.0
 10
12.26800655859485
 20
11.74609765066659
 30
0.0
 10
12.07343499093587
 20
11.60605794329098
 30
0.0
 10
11.96643370486025
 20
11.54920121804526
 30
0.0
 10
11.74573264298173
 20
11.46981719393705
 30
0.0
 10
11.6340655249772
 20
11.44748668283043
 30
0.0
 10
11.2995180174265
 20
11.42770686560557
 30
0.0
 10
11.09198428069917
 20
11.47806879673301
 30
0.0
 10
10.72217844091618
 20
11.6423624380891
 30
0.0
 10
10.55844908096565
 20
11.75496051093685
 30
0.0
 10
10.25324958882678
 20
12.02428585488771
 30
0.0
 10
10.11576882260282
 20
12.17795893248256
 30
0.0
 10
9.862525619365057
 20
12.52988094776038
 30
0.0
 10
9.74626089640175
 20
12.72918710194076
 30
0.0
 10
9.605692660850234
 20
13.06645756895108
 30
0.0
 10
9.565421636405905
 20
13.18319961587498
 30
0.0
 10
9.50328600423446
 20
13.42936776111945
 30
0.0
 10
9.482363995141242
 20
13.55752069830105
 30
0.0
 10
9.47090841224374
 20
13.8054679971886
 30
0.0
 10
9.48066481746275
 20
13.92083957613719
 30
0.0
 10
9.525951505689815
 20
14.12239475073319
 30
0.0
 10
9.561041150052976
 20
14.20809842589786
 30
0.0
 10
9.602846279599994
 20
14.27915034605749
 30
0.0
  0
SPLINE
  5
2F1
330
1F
100
AcDbEntity
  8
SK3
  6
SLD-Dashed
370
    18
100
AcDbSpline
210
0.0
220
0.0
230
1.0
 70
     8
 71
     3
 72
     8
 73
     4
 74
     0
 42
0.000000001
 43
0.00000001
 40
0.0
 40
0.0
 40
0.0
 40
0.0
 40
1.0
 40
1.0
 40
1.0
 40
1.0
 10
14.3331615074619
 20
-38.51107795167514
 30
0.0
 10
13.88828033603337
 20
-37.53615380778988
 30
0.0
 10
13.44843124794119
 20
-36.55839054484731
 30
0.0
 10
13.015
 20
-35.57844103980167
 30
0.0
  0
SPLINE
  5
2F2
330
1F
100
AcDbEntity
  8
SK3
  6
SLD-Dashed
370
    18
100
AcDbSpline
210
0.0
220
0.0
230
1.0
 70
     8
 71
     3
 72
     8
 73
     4
 74
     0
 42
0.000000001
 43
0.00000001
 40
0.0
 40
0.0
 40
0.0
 40
0.0
 40
1.0
 40
1.0
 40
1.0
 40
1.0
 10
9.18499999999997
 20
-35.57844103980172
 30
0.0
 10
8.751438636104364
 20
-36.55868472544871
 30
0.0
 10
8.311697968222454
 20
-37.5362013524067
 30
0.0
 10
7.866838492538081
 20
-38.51107795167525
 30
0.0
  0
SPLINE
  5
2F3
330
1F
100
AcDbEntity
  8
SK3
  6
SLD-Dashed
370
    18
100
AcDbSpline
210
0.0
220
0.0
230
1.0
 70
    24
 71
     3
 72
     8
 73
     4
 74
     0
 42
0.000000001
 43
0.00000001
 40
0.0
 40
0.0
 40
0.0
 40
0.0
 40
1.0
 40
1.0
 40
1.0
 40
1.0
 10
9.184999999999999
 20
-29.84999999999999
 30
0.0
 10
8.751488371242914
 20
-29.84999999999999
 30
0.0
 10
8.311716081514668
 20
-29.84999999999999
 30
0.0
 10
7.866838492538081
 20
-29.84999999999999
 30
0.0
  0
SPLINE
  5
2F4
330
1F
100
AcDbEntity
  8
SK3
  6
SLD-Dashed
370
    18
100
AcDbSpline
210
0.0
220
0.0
230
1.0
 70
    24
 71
     3
 72
     8
 73
     4
 74
     0
 42
0.000000001
 43
0.00000001
 40
0.0
 40
0.0
 40
0.0
 40
0.0
 40
1.0
 40
1.0
 40
1.0
 40
1.0
 10
14.3331615074619
 20
-29.84999999999999
 30
0.0
 10
13.88822424534004
 20
-29.84999999999999
 30
0.0
 10
13.44831765806796
 20
-29.84999999999999
 30
0.0
 10
13.01500000000001
 20
-29.84999999999999
 30
0.0
  0
ELLIPSE
  5
2F5
330
1F
100
AcDbEntity
  8
SK3
  6
SLD-Dashed
370
    18
100
AcDbEllipse
 10
87.0
 20
-8.4852813742
 30
0.0
 11
1.847759065022544
 21
1.847759065022575
 31
0.0
210
0.0
220
0.0
230
1.0
 40
0.4142135624
 41
1.178097245096171
 42
4.319689898685988
  0
ELLIPSE
  5
2F6
330
1F
100
AcDbEntity
  8
SK3
  6
SLD-Dashed
370
    18
100
AcDbEllipse
 10
87.0
 20
-8.4852813742
 30
0.0
 11
1.847759065022544
 21
-1.847759065022569
 31
0.0
210
0.0
220
0.0
230
1.0
 40
0.4142135624
 41
5.105088062083436
 42
8.246680715673204
  0
ELLIPSE
  5
2F7
330
1F
100
AcDbEntity
  8
SK3
  6
SLD-Dashed
370
    18
100
AcDbEllipse
 10
87.0
 20
8.4852813742
 30
0.0
 11
1.847759065022544
 21
1.847759065022569
 31
0.0
210
0.0
220
0.0
230
1.0
 40
0.4142135624
 41
4.319689898685962
 42
7.461282552275745
  0
ELLIPSE
  5
2F8
330
1F
100
AcDbEntity
  8
SK3
  6
SLD-Dashed
370
    18
100
AcDbEllipse
 10
87.0
 20
8.4852813742
 30
0.0
 11
1.847759065022544
 21
-1.847759065022561
 31
0.0
210
0.0
220
0.0
230
1.0
 40
0.4142135624
 41
1.963495408493619
 42
5.105088062083421
  0
ELLIPSE
  5
2F9
330
1F
100
AcDbEntity
  8
SK3
  6
SLD-Dashed
370
    18
100
AcDbEllipse
 10
87.0
 20
8.4852813742
 30
0.0
 11
1.847759065022544
 21
-1.847759065022561
 31
0.0
210
0.0
220
0.0
230
1.0
 40
0.4142135624
 41
5.105088062083433
 42
8.246680715673216
  0
ELLIPSE
  5
2FA
330
1F
100
AcDbEntity
  8
SK3
  6
SLD-Dashed
370
    18
100
AcDbEllipse
 10
87.0
 20
8.4852813742
 30
0.0
 11
1.847759065022544
 21
1.847759065022569
 31
0.0
210
0.0
220
0.0
230
1.0
 40
0.4142135624
 41
1.178097245096168
 42
4.31968989868597
  0
ELLIPSE
  5
2FB
330
1F
100
AcDbEntity
  8
SK3
  6
SLD-Dashed
370
    18
100
AcDbEllipse
 10
87.0
 20
-8.4852813742
 30
0.0
 11
1.847759065022544
 21
1.847759065022575
 31
0.0
210
0.0
220
0.0
230
1.0
 40
0.4142135624
 41
4.319689898685988
 42
7.461282552275758
  0
ELLIPSE
  5
2FC
330
1F
100
AcDbEntity
  8
SK3
  6
SLD-Dashed
370
    18
100
AcDbEllipse
 10
87.0
 20
-8.4852813742
 30
0.0
 11
1.847759065022544
 21
-1.847759065022569
 31
0.0
210
0.0
220
0.0
230
1.0
 40
0.4142135624
 41
1.963495408493618
 42
5.105088062083436
  0
ELLIPSE
  5
2FD
330
1F
100
AcDbEntity
  8
SK3
  6
SLD-Dashed
370
    18
100
AcDbEllipse
 10
87.0
 20
8.4852813742
 30
0.0
 11
1.847759065022544
 21
1.847759065022588
 31
0.0
210
0.0
220
0.0
230
1.0
 40
0.4142135624
 41
1.178097245096165
 42
4.319689898685968
  0
ELLIPSE
  5
2FE
330
1F
100
AcDbEntity
  8
SK3
  6
SLD-Dashed
370
    18
100
AcDbEllipse
 10
87.0
 20
8.4852813742
 30
0.0
 11
1.847759065022544
 21
-1.847759065022547
 31
0.0
210
0.0
220
0.0
230
1.0
 40
0.4142135624
 41
5.105088062083421
 42
8.246680715673204
  0
ELLIPSE
  5
2FF
330
1F
100
AcDbEntity
  8
SK3
  6
SLD-Dashed
370
    18
100
AcDbEllipse
 10
87.0
 20
-8.4852813742
 30
0.0
 11
1.847759065022544
 21
1.847759065022638
 31
0.0
210
0.0
220
0.0
230
1.0
 40
0.4142135624
 41
4.319689898685951
 42
7.46128255227572
  0
ELLIPSE
  5
300
330
1F
100
AcDbEntity
  8
SK3
  6
SLD-Dashed
370
    18
100
AcDbEllipse
 10
87.0
 20
-8.4852813742
 30
0.0
 11
1.847759065022544
 21
-1.847759065022492
 31
0.0
210
0.0
220
0.0
230
1.0
 40
0.4142135624
 41
1.96349540849363
 42
5.105088062083448
  0
ELLIPSE
  5
301
330
1F
100
AcDbEntity
  8
SK3
  6
SLD-Dashed
370
    18
100
AcDbEllipse
 10
87.0
 20
-8.4852813742
 30
0.0
 11
1.847759065022544
 21
-1.847759065022492
 31
0.0
210
0.0
220
0.0
230
1.0
 40
0.4142135624
 41
5.105088062083455
 42
8.246680715673225
  0
ELLIPSE
  5
302
330
1F
100
AcDbEntity
  8
SK3
  6
SLD-Dashed
370
    18
100
AcDbEllipse
 10
87.0
 20
-8.4852813742
 30
0.0
 11
1.847759065022544
 21
1.847759065022638
 31
0.0
210
0.0
220
0.0
230
1.0
 40
0.4142135624
 41
1.178097245096146
 42
4.319689898685963
  0
ELLIPSE
  5
303
330
1F
100
AcDbEntity
  8
SK3
  6
SLD-Dashed
370
    18
100
AcDbEllipse
 10
87.0
 20
8.4852813742
 30
0.0
 11
1.847759065022544
 21
1.847759065022588
 31
0.0
210
0.0
220
0.0
230
1.0
 40
0.4142135624
 41
4.319689898685968
 42
7.461282552275751
  0
ELLIPSE
  5
304
330
1F
100
AcDbEntity
  8
SK3
  6
SLD-Dashed
370
    18
100
AcDbEllipse
 10
87.0
 20
8.4852813742
 30
0.0
 11
1.847759065022544
 21
-1.847759065022547
 31
0.0
210
0.0
220
0.0
230
1.0
 40
0.4142135624
 41
1.963495408493618
 42
5.105088062083421
  0
INSERT
  5
305
330
1F
100
AcDbEntity
  8
80
100
AcDbBlockReference
  2
Block12
 10
-61.7273641656
 20
-130.3356800267
 30
0.0
  0
INSERT
  5
306
330
1F
100
AcDbEntity
  8
81
100
AcDbBlockReference
  2
Block11
 10
8.3735173495
 20
-130.2676275275
 30
0.0
  0
DIMENSION
  5
307
330
1F
100
AcDbEntity
  8
SK2
100
AcDbDimension
  2
_D
 10
19.05
 20
55.466176315
 30
0.0
 11
9.703076585
 21
55.466176315
 31
0.0
 70
   160
  1
<>
 71
     2
 42
-1.0
  3
SLDDIMSTYLE0
100
AcDbAlignedDimension
 13
0.0
 23
34.925
 33
0.0
 14
19.05
 24
46.0865405879
 34
0.0
100
AcDbRotatedDimension
  0
DIMENSION
  5
313
330
1F
100
AcDbEntity
  8
SK2
100
AcDbDimension
  2
_D_1
 10
100.0
 20
55.466176315
 30
0.0
 11
56.6384702534
 21
55.466176315
 31
0.0
 70
   160
  1
<>
 71
     2
 42
-1.0
  3
SLDDIMSTYLE0
100
AcDbAlignedDimension
 13
19.05
 23
46.0865405879
 33
0.0
 14
100.0
 24
38.2
 34
0.0
 50
0.0
100
AcDbRotatedDimension
  0
DIMENSION
  5
31D
330
1F
100
AcDbEntity
  8
SK2
100
AcDbDimension
  2
_D_2
 10
124.0
 20
55.4661763151
 30
0.0
 11
111.5903774409
 21
55.4661763151
 31
0.0
 70
   160
  1
<>
 71
     2
 42
-1.0
  3
SLDDIMSTYLE0
100
AcDbAlignedDimension
 13
100.0
 23
38.2
 33
0.0
 14
124.0
 24
15.4710190579
 34
0.0
 50
0.0
100
AcDbRotatedDimension
  0
DIMENSION
  5
327
330
1F
100
AcDbEntity
  8
2
100
AcDbDimension
  2
_D_3
 10
0.0
 20
64.5170786753
 30
0.0
 11
47.2861108207
 21
64.5170786753
 31
0.0
 70
   160
  1
<>
 71
     2
 42
-1.0
  3
SLDDIMSTYLE0
100
AcDbAlignedDimension
 13
100.0
 23
38.2
 33
0.0
 14
0.0
 24
34.925
 34
0.0
100
AcDbRotatedDimension
  0
DIMENSION
  5
331
330
1F
100
AcDbEntity
  8
SK2
100
AcDbDimension
  2
_D_4
 10
164.1213986496
 20
39.0
 30
0.0
 11
164.1213986496
 21
0.0894550483
 31
0.0
 70
   160
  1
%%c<>
 71
     2
 42
-1.0
  3
SLDDIMSTYLE0
100
AcDbAlignedDimension
 13
99.2
 23
-39.0
 33
0.0
 14
99.2
 24
39.0
 34
0.0
 50
90.0
100
AcDbRotatedDimension
  0
DIMENSION
  5
33C
330
1F
100
AcDbEntity
  8
SK2
100
AcDbDimension
  2
_D_5
 10
153.9759144435
 20
16.0
 30
0.0
 11
153.9759144435
 21
0.0894550483
 31
0.0
 70
   160
  1
%%c<>
 71
     2
 42
-1.0
  3
SLDDIMSTYLE0
100
AcDbAlignedDimension
 13
121.0
 23
-16.0
 33
0.0
 14
121.0
 24
16.0
 34
0.0
 50
90.0
100
AcDbRotatedDimension
  0
DIMENSION
  5
347
330
1F
100
AcDbEntity
  8
SK2
100
AcDbDimension
  2
_D_6
 10
-136.6017953399
 20
-46.8062276079
 30
0.0
 11
-136.6017953399
 21
0.0894550483
 31
0.0
 70
   160
  1
%%c<>
 71
     2
 42
-1.0
  3
SLDDIMSTYLE0
100
AcDbAlignedDimension
 13
3.95
 23
46.8399781951
 33
0.0
 14
3.95
 24
-46.8062276079
 34
0.0
 50
90.0
100
AcDbRotatedDimension
  0
DIMENSION
  5
352
330
1F
100
AcDbEntity
  8
SK2
100
AcDbDimension
  2
_D_7
 10
-123.545867579
 20
34.925
 30
0.0
 11
-123.545867579
 21
0.0894550483
 31
0.0
 70
   160
  1
%%c<>
 71
     2
 42
-1.0
  3
SLDDIMSTYLE0
100
AcDbAlignedDimension
 13
0.0
 23
-34.925
 33
0.0
 14
0.0
 24
34.925
 34
0.0
 50
90.0
100
AcDbRotatedDimension
  0
DIMENSION
  5
35D
330
1F
100
AcDbEntity
  8
SK2
100
AcDbDimension
  2
_D_8
 10
-111.8112098832
 20
12.0
 30
0.0
 11
-111.8112098832
 21
0.0894550483
 31
0.0
 70
   160
  1
M<>
 71
     2
 42
-1.0
  3
SLDDIMSTYLE0
100
AcDbAlignedDimension
 13
-89.3448185145
 23
-12.0
 33
0.0
 14
-89.3448185145
 24
12.0
 34
0.0
 50
90.0
100
AcDbRotatedDimension
  0
MTEXT
  5
368
330
1F
100
AcDbEntity
  8
SK6
 62
     5
100
AcDbMText
 10
-101.9422315214
 20
-51.6339392593
 30
0.0
 40
3.5
 41
0.0
 71
     1
 72
     1
  1
A1B05-50 32 100
  7
SLDTEXTSTYLE0
 73
     1
 44
1.0
  0
INSERT
  5
36E
330
1F
100
AcDbEntity
  8
SK6
 62
     5
100
AcDbBlockReference
  2
SW_NOTE_0
 10
-37.0879548734
 20
40.788382836
 30
0.0
  0
ENDSEC
  0
SECTION
  2
OBJECTS
  0
DICTIONARY
  5
C
330
0
100
AcDbDictionary
281
     1
  3
ACAD_GROUP
350
D
  3
ACAD_LAYOUT
350
1A
  3
ACAD_MLINESTYLE
350
17
  3
ACAD_PLOTSETTINGS
350
19
  3
ACAD_PLOTSTYLENAME
350
E
  3
ACAD_SCALELIST
350
47
  0
DICTIONARY
  5
D
102
{ACAD_REACTORS
330
C
102
}
330
C
100
AcDbDictionary
281
     1
  0
DICTIONARY
  5
1A
102
{ACAD_REACTORS
330
C
102
}
330
C
100
AcDbDictionary
281
     1
  3
Layout1
350
1E
  3
Layout2
350
26
  3
Model
350
22
  0
DICTIONARY
  5
17
102
{ACAD_REACTORS
330
C
102
}
330
C
100
AcDbDictionary
281
     1
  3
Standard
350
18
  0
DICTIONARY
  5
19
102
{ACAD_REACTORS
330
C
102
}
330
C
100
AcDbDictionary
281
     1
  0
ACDBDICTIONARYWDFLT
  5
E
102
{ACAD_REACTORS
330
C
102
}
330
C
100
AcDbDictionary
281
     1
  3
Normal
350
F
100
AcDbDictionaryWithDefault
340
F
  0
DICTIONARY
  5
47
102
{ACAD_REACTORS
330
C
102
}
330
C
100
AcDbDictionary
281
     1
  3
A0
350
48
  3
A1
350
49
  3
A2
350
4A
  3
A3
350
4B
  3
A4
350
4C
  3
A5
350
4D
  3
A6
350
4E
  3
A7
350
4F
  3
A8
350
50
  3
A9
350
51
  3
B0
350
52
  3
B1
350
53
  3
B2
350
54
  3
B3
350
55
  3
B4
350
56
  3
B5
350
57
  3
B6
350
58
  3
B7
350
59
  3
B8
350
5A
  3
B9
350
5B
  3
C0
350
5C
  3
C1
350
5D
  3
C2
350
5E
  3
C3
350
5F
  3
C4
350
60
  3
C5
350
61
  3
C6
350
62
  3
C7
350
63
  3
C8
350
64
  3
C9
350
65
  3
D0
350
66
  3
D1
350
67
  3
D2
350
68
  0
LAYOUT
  5
1E
102
{ACAD_REACTORS
330
1A
102
}
330
1A
100
AcDbPlotSettings
  1

  2
none_device
  4

  6

 40
0.0
 41
0.0
 42
0.0
 43
0.0
 44
0.0
 45
0.0
 46
0.0
 47
0.0
 48
0.0
 49
0.0
140
0.0
141
0.0
142
1.0
143
1.0
 70
   688
 72
     1
 73
     0
 74
     5
  7

 75
    16
147
1.0
148
0.0
149
0.0
100
AcDbLayout
  1
Layout1
 70
     1
 71
     1
 10
0.0
 20
0.0
 11
420.0
 21
297.0
 12
0.0
 22
0.0
 32
0.0
 14
1.0000000000E+20
 24
1.0000000000E+20
 34
1.0000000000E+20
 15
-1.0000000000E+20
 25
-1.0000000000E+20
 35
-1.0000000000E+20
146
0.0
 13
0.0
 23
0.0
 33
0.0
 16
1.0
 26
0.0
 36
0.0
 17
0.0
 27
1.0
 37
0.0
 76
     0
330
1B
  0
LAYOUT
  5
26
102
{ACAD_REACTORS
330
1A
102
}
330
1A
100
AcDbPlotSettings
  1

  2
none_device
  4

  6

 40
0.0
 41
0.0
 42
0.0
 43
0.0
 44
0.0
 45
0.0
 46
0.0
 47
0.0
 48
0.0
 49
0.0
140
0.0
141
0.0
142
1.0
143
1.0
 70
   688
 72
     1
 73
     0
 74
     5
  7

 75
    16
147
1.0
148
0.0
149
0.0
100
AcDbLayout
  1
Layout2
 70
     1
 71
     2
 10
0.0
 20
0.0
 11
0.0
 21
0.0
 12
0.0
 22
0.0
 32
0.0
 14
0.0
 24
0.0
 34
0.0
 15
0.0
 25
0.0
 35
0.0
146
0.0
 13
0.0
 23
0.0
 33
0.0
 16
1.0
 26
0.0
 36
0.0
 17
0.0
 27
1.0
 37
0.0
 76
     0
330
23
  0
LAYOUT
  5
22
102
{ACAD_REACTORS
330
1A
102
}
330
1A
100
AcDbPlotSettings
  1

  2
none_device
  4
Letter_(8.50_x_11.00_Inches)
  6

 40
6.35
 41
6.35
 42
6.35000508
 43
6.35000508
 44
215.9
 45
279.4
 46
0.0
 47
0.0
 48
0.0
 49
0.0
140
0.0
141
0.0
142
1.0
143
1.0
 70
  1712
 72
     1
 73
     0
 74
     0
  7

 75
     0
147
1.0
148
0.0
149
0.0
100
AcDbLayout
  1
Model
 70
     1
 71
     0
 10
0.0
 20
0.0
 11
297.0
 21
210.0
 12
0.0
 22
0.0
 32
0.0
 14
0.0
 24
0.0
 34
0.0
 15
297.0
 25
210.0
 35
0.0
146
0.0
 13
0.0
 23
0.0
 33
0.0
 16
1.0
 26
0.0
 36
0.0
 17
0.0
 27
1.0
 37
0.0
 76
     0
330
1F
331
29
  0
MLINESTYLE
  5
18
102
{ACAD_REACTORS
330
17
102
}
330
17
100
AcDbMlineStyle
  2
Standard
 70
     0
  3

 62
   256
 51
90.0
 52
90.0
 71
     2
 49
0.5
 62
   256
  6
BYLAYER
 49
-0.5
 62
   256
  6
BYLAYER
  0
ACDBPLACEHOLDER
  5
F
102
{ACAD_REACTORS
330
E
102
}
330
E
  0
SCALE
  5
48
102
{ACAD_REACTORS
330
47
102
}
330
47
100
AcDbScale
 70
     0
300
1:1
140
1.0
141
1.0
290
     1
  0
SCALE
  5
49
102
{ACAD_REACTORS
330
47
102
}
330
47
100
AcDbScale
 70
     0
300
1:2
140
1.0
141
2.0
290
     0
  0
SCALE
  5
4A
102
{ACAD_REACTORS
330
47
102
}
330
47
100
AcDbScale
 70
     0
300
1:4
140
1.0
141
4.0
290
     0
  0
SCALE
  5
4B
102
{ACAD_REACTORS
330
47
102
}
330
47
100
AcDbScale
 70
     0
300
1:5
140
1.0
141
5.0
290
     0
  0
SCALE
  5
4C
102
{ACAD_REACTORS
330
47
102
}
330
47
100
AcDbScale
 70
     0
300
1:8
140
1.0
141
8.0
290
     0
  0
SCALE
  5
4D
102
{ACAD_REACTORS
330
47
102
}
330
47
100
AcDbScale
 70
     0
300
1:10
140
1.0
141
10.0
290
     0
  0
SCALE
  5
4E
102
{ACAD_REACTORS
330
47
102
}
330
47
100
AcDbScale
 70
     0
300
1:16
140
1.0
141
16.0
290
     0
  0
SCALE
  5
4F
102
{ACAD_REACTORS
330
47
102
}
330
47
100
AcDbScale
 70
     0
300
1:20
140
1.0
141
20.0
290
     0
  0
SCALE
  5
50
102
{ACAD_REACTORS
330
47
102
}
330
47
100
AcDbScale
 70
     0
300
1:30
140
1.0
141
30.0
290
     0
  0
SCALE
  5
51
102
{ACAD_REACTORS
330
47
102
}
330
47
100
AcDbScale
 70
     0
300
1:40
140
1.0
141
40.0
290
     0
  0
SCALE
  5
52
102
{ACAD_REACTORS
330
47
102
}
330
47
100
AcDbScale
 70
     0
300
1:50
140
1.0
141
50.0
290
     0
  0
SCALE
  5
53
102
{ACAD_REACTORS
330
47
102
}
330
47
100
AcDbScale
 70
     0
300
1:100
140
1.0
141
100.0
290
     0
  0
SCALE
  5
54
102
{ACAD_REACTORS
330
47
102
}
330
47
100
AcDbScale
 70
     0
300
2:1
140
2.0
141
1.0
290
     0
  0
SCALE
  5
55
102
{ACAD_REACTORS
330
47
102
}
330
47
100
AcDbScale
 70
     0
300
4:1
140
4.0
141
1.0
290
     0
  0
SCALE
  5
56
102
{ACAD_REACTORS
330
47
102
}
330
47
100
AcDbScale
 70
     0
300
8:1
140
8.0
141
1.0
290
     0
  0
SCALE
  5
57
102
{ACAD_REACTORS
330
47
102
}
330
47
100
AcDbScale
 70
     0
300
10:1
140
10.0
141
1.0
290
     0
  0
SCALE
  5
58
102
{ACAD_REACTORS
330
47
102
}
330
47
100
AcDbScale
 70
     0
300
100:1
140
100.0
141
1.0
290
     0
  0
SCALE
  5
59
102
{ACAD_REACTORS
330
47
102
}
330
47
100
AcDbScale
 70
     0
300
1/128" = 1'-0"
140
0.0078125
141
12.0
290
     0
  0
SCALE
  5
5A
102
{ACAD_REACTORS
330
47
102
}
330
47
100
AcDbScale
 70
     0
300
1/64" = 1'-0"
140
0.015625
141
12.0
290
     0
  0
SCALE
  5
5B
102
{ACAD_REACTORS
330
47
102
}
330
47
100
AcDbScale
 70
     0
300
1/32" = 1'-0"
140
0.03125
141
12.0
290
     0
  0
SCALE
  5
5C
102
{ACAD_REACTORS
330
47
102
}
330
47
100
AcDbScale
 70
     0
300
1/16" = 1'-0"
140
0.0625
141
12.0
290
     0
  0
SCALE
  5
5D
102
{ACAD_REACTORS
330
47
102
}
330
47
100
AcDbScale
 70
     0
300
3/32" = 1'-0"
140
0.09375
141
12.0
290
     0
  0
SCALE
  5
5E
102
{ACAD_REACTORS
330
47
102
}
330
47
100
AcDbScale
 70
     0
300
1/8" = 1'-0"
140
0.125
141
12.0
290
     0
  0
SCALE
  5
5F
102
{ACAD_REACTORS
330
47
102
}
330
47
100
AcDbScale
 70
     0
300
3/16" = 1'-0"
140
0.1875
141
12.0
290
     0
  0
SCALE
  5
60
102
{ACAD_REACTORS
330
47
102
}
330
47
100
AcDbScale
 70
     0
300
1/4" = 1'-0"
140
0.25
141
12.0
290
     0
  0
SCALE
  5
61
102
{ACAD_REACTORS
330
47
102
}
330
47
100
AcDbScale
 70
     0
300
3/8" = 1'-0"
140
0.375
141
12.0
290
     0
  0
SCALE
  5
62
102
{ACAD_REACTORS
330
47
102
}
330
47
100
AcDbScale
 70
     0
300
1/2" = 1'-0"
140
0.5
141
12.0
290
     0
  0
SCALE
  5
63
102
{ACAD_REACTORS
330
47
102
}
330
47
100
AcDbScale
 70
     0
300
3/4" = 1'-0"
140
0.75
141
12.0
290
     0
  0
SCALE
  5
64
102
{ACAD_REACTORS
330
47
102
}
330
47
100
AcDbScale
 70
     0
300
1" = 1'-0"
140
1.0
141
12.0
290
     0
  0
SCALE
  5
65
102
{ACAD_REACTORS
330
47
102
}
330
47
100
AcDbScale
 70
     0
300
1-1/2" = 1'-0"
140
1.5
141
12.0
290
     0
  0
SCALE
  5
66
102
{ACAD_REACTORS
330
47
102
}
330
47
100
AcDbScale
 70
     0
300
3" = 1'-0"
140
3.0
141
12.0
290
     0
  0
SCALE
  5
67
102
{ACAD_REACTORS
330
47
102
}
330
47
100
AcDbScale
 70
     0
300
6" = 1'-0"
140
6.0
141
12.0
290
     0
  0
SCALE
  5
68
102
{ACAD_REACTORS
330
47
102
}
330
47
100
AcDbScale
 70
     0
300
1'-0" = 1'-0"
140
12.0
141
12.0
290
     0
  0
ENDSEC
  0
EOF
