0
SECTION
2
HEADER
9
$ACADVER
1
AC1015
9
$DWGCODEPAGE
3
ANSI_1252
9
$HANDSEED
5
209
9
$ANGBASE
50
0
9
$ANGDIR
70
0
9
$ATTMODE
70
1
9
$AUNITS
70
0
9
$AUPREC
70
0
9
$CECOLOR
62
256
9
$CELTSCALE
40
1
9
$CELTYPE
6
ByLayer
9
$CELWEIGHT
370
18
9
$CLAYER
8
0
9
$CMLJUST
70
0
9
$CMLSCALE
40
1
9
$CMLSTYLE
2
Standard
9
$DIMSTYLE
2
Standard
9
$TEXTSIZE
40
0.2
9
$TEXTSTYLE
7
Standard
9
$LUNITS
70
2
9
$LUPREC
70
4
9
$EXTNAMES
290
1
9
$INSUNITS
70
4
9
$LTSCALE
40
1
9
$LWDISPLAY
290
1
9
$PDMODE
70
0
9
$PDSIZE
40
0
9
$PLINEGEN
70
0
0
ENDSEC
0
SECTION
2
CLASSES
0
CLASS
1
RASTERVARIABLES
2
AcDbRasterVariables
3
ISM
90
0
280
0
281
0
0
ENDSEC
0
SECTION
2
TABLES
0
TABLE
2
VPORT
5
1ff
100
AcDbSymbolTable
0
VPORT
5
1
100
AcDbSymbolTableRecord
100
AcDbViewportTableRecord
2
*Active
70
0
10
0
20
0
11
1
21
1
12
-1
22
1
13
0
23
0
14
0.5
24
0.5
15
10
25
10
16
0
26
0
36
1
17
0
27
0
37
0
0
ENDTAB
0
TABLE
2
LTYPE
5
200
100
AcDbSymbolTable
0
LTYPE
5
14
100
AcDbSymbolTableRecord
100
AcDbLinetypeTableRecord
70
0
2
ByBlock
3

72
65
73
0
40
0
0
LTYPE
5
15
100
AcDbSymbolTableRecord
100
AcDbLinetypeTableRecord
70
0
2
ByLayer
3

72
65
73
0
40
0
0
LTYPE
5
16
100
AcDbSymbolTableRecord
100
AcDbLinetypeTableRecord
70
0
2
Continuous
3
Solid line
72
65
73
0
40
0
0
LTYPE
5
6E
100
AcDbSymbolTableRecord
100
AcDbLinetypeTableRecord
70
0
2
CENTER
3
____ _ ____ _ ____ _ ____
72
65
73
4
40
47.5
49
22
74
0
49
-8.5
74
0
49
8.5
74
0
49
-8.5
74
0
0
LTYPE
5
6F
100
AcDbSymbolTableRecord
100
AcDbLinetypeTableRecord
70
0
2
DASHED
3
__ __ __ __ __ __ __ __ __
72
65
73
2
40
25.72
49
12.86
74
0
49
-12.86
74
0
0
ENDTAB
0
TABLE
2
LAYER
5
201
100
AcDbSymbolTable
0
LAYER
5
10
100
AcDbSymbolTableRecord
100
AcDbLayerTableRecord
2
0
70
0
62
7
6
Continuous
290
1
370
-3
390
0
0
LAYER
5
71
100
AcDbSymbolTableRecord
100
AcDbLayerTableRecord
2
81
70
0
62
-3
6
Continuous
290
1
370
-3
390
0
0
LAYER
5
73
100
AcDbSymbolTableRecord
100
AcDbLayerTableRecord
2
80
70
0
62
-6
6
Continuous
290
1
370
-3
390
0
0
LAYER
5
75
100
AcDbSymbolTableRecord
100
AcDbLayerTableRecord
2
1
70
0
62
4
6
Continuous
290
1
370
-3
390
0
0
LAYER
5
82
100
AcDbSymbolTableRecord
100
AcDbLayerTableRecord
2
4
70
0
62
-2
6
CENTER
290
1
370
-3
390
0
0
LAYER
5
A6
100
AcDbSymbolTableRecord
100
AcDbLayerTableRecord
2
2
70
0
62
7
6
Continuous
290
1
370
-3
390
0
0
LAYER
5
112
100
AcDbSymbolTableRecord
100
AcDbLayerTableRecord
2
Defpoints
70
0
62
7
6
Continuous
290
0
370
-3
390
0
0
LAYER
5
1eb
100
AcDbSymbolTableRecord
100
AcDbLayerTableRecord
2
SK4
70
0
62
2
6
CENTER
290
1
370
-3
390
0
0
LAYER
5
1ec
100
AcDbSymbolTableRecord
100
AcDbLayerTableRecord
2
SK1
70
0
62
4
6
Continuous
290
1
370
-3
390
0
0
LAYER
5
1ed
100
AcDbSymbolTableRecord
100
AcDbLayerTableRecord
2
SK2
70
0
62
7
6
Continuous
290
1
370
-3
390
0
0
LAYER
5
1ee
100
AcDbSymbolTableRecord
100
AcDbLayerTableRecord
2
SK6
70
0
62
5
6
Continuous
290
1
370
-3
390
0
0
ENDTAB
0
TABLE
2
STYLE
5
202
100
AcDbSymbolTable
0
STYLE
5
11
100
AcDbSymbolTableRecord
100
AcDbTextStyleTableRecord
2
Standard
3
txt
70
0
71
0
40
0
41
1
42
0
50
0
0
STYLE
5
F6
100
AcDbSymbolTableRecord
100
AcDbTextStyleTableRecord
2
iso_b_vert
3
simplex.shx
70
0
71
0
40
0
41
1
42
0
50
0
0
STYLE
5
F7
100
AcDbSymbolTableRecord
100
AcDbTextStyleTableRecord
2
DWGDirectTextStyle
3
simplex
70
0
71
0
40
0
41
1
42
0
50
0
0
ENDTAB
0
TABLE
2
DIMSTYLE
5
203
100
AcDbSymbolTable
100
AcDbDimStyleTable
0
DIMSTYLE
105
27
100
AcDbSymbolTableRecord
100
AcDbDimStyleTableRecord
2
Standard
70
0
3
<>
41
0.18
42
0.0625
44
0.18
140
0.18
147
0.09
73
0
74
0
77
1
271
2
275
0
278
52
280
0
340
11
0
ENDTAB
0
TABLE
2
VIEW
5
204
100
AcDbSymbolTable
0
ENDTAB
0
TABLE
2
UCS
5
205
100
AcDbSymbolTable
0
ENDTAB
0
TABLE
2
APPID
5
206
100
AcDbSymbolTable
0
APPID
5
12
100
AcDbSymbolTableRecord
100
AcDbRegAppTableRecord
2
ACAD
70
0
0
APPID
5
10E
100
AcDbSymbolTableRecord
100
AcDbRegAppTableRecord
2
ACAD_DSTYLE_DIMBREAK
70
0
0
APPID
5
1AA
100
AcDbSymbolTableRecord
100
AcDbRegAppTableRecord
2
ACAD_DSTYLE_DIM_LINETYPE
70
0
0
APPID
5
1AB
100
AcDbSymbolTableRecord
100
AcDbRegAppTableRecord
2
ACAD_DSTYLE_DIM_EXT1_LINETYPE
70
0
0
APPID
5
1AC
100
AcDbSymbolTableRecord
100
AcDbRegAppTableRecord
2
ACAD_DSTYLE_DIM_EXT2_LINETYPE
70
0
0
APPID
5
1E7
100
AcDbSymbolTableRecord
100
AcDbRegAppTableRecord
2
ACAD_MLEADERVER
70
0
0
ENDTAB
0
TABLE
2
BLOCK_RECORD
5
207
100
AcDbSymbolTable
0
BLOCK_RECORD
5
1F
100
AcDbSymbolTableRecord
100
AcDbBlockTableRecord
2
*Model_Space
340
0
70
0
0
BLOCK_RECORD
5
1B
100
AcDbSymbolTableRecord
100
AcDbBlockTableRecord
2
*Paper_Space
340
0
70
0
0
BLOCK_RECORD
5
23
100
AcDbSymbolTableRecord
100
AcDbBlockTableRecord
2
*Paper_Space0
340
0
70
0
0
BLOCK_RECORD
5
113
100
AcDbSymbolTableRecord
100
AcDbBlockTableRecord
2
*D1
340
0
70
0
0
BLOCK_RECORD
5
11F
100
AcDbSymbolTableRecord
100
AcDbBlockTableRecord
2
_U0
340
0
70
0
0
BLOCK_RECORD
5
12B
100
AcDbSymbolTableRecord
100
AcDbBlockTableRecord
2
*D3
340
0
70
0
0
BLOCK_RECORD
5
137
100
AcDbSymbolTableRecord
100
AcDbBlockTableRecord
2
_U1
340
0
70
0
0
BLOCK_RECORD
5
143
100
AcDbSymbolTableRecord
100
AcDbBlockTableRecord
2
*D5
340
0
70
0
0
BLOCK_RECORD
5
150
100
AcDbSymbolTableRecord
100
AcDbBlockTableRecord
2
_U2
340
0
70
0
0
BLOCK_RECORD
5
15C
100
AcDbSymbolTableRecord
100
AcDbBlockTableRecord
2
*D7
340
0
70
0
0
BLOCK_RECORD
5
169
100
AcDbSymbolTableRecord
100
AcDbBlockTableRecord
2
_U3
340
0
70
0
0
BLOCK_RECORD
5
175
100
AcDbSymbolTableRecord
100
AcDbBlockTableRecord
2
*D9
340
0
70
0
0
BLOCK_RECORD
5
181
100
AcDbSymbolTableRecord
100
AcDbBlockTableRecord
2
_U4
340
0
70
0
0
ENDTAB
0
ENDSEC
0
SECTION
2
BLOCKS
0
BLOCK
5
20
100
AcDbEntity
8
0
100
AcDbBlockBegin
2
*Model_Space
70
0
10
0
20
0
30
0
3
*Model_Space
0
ENDBLK
5
21
100
AcDbEntity
8
0
100
AcDbBlockEnd
0
BLOCK
5
1C
100
AcDbEntity
8
0
100
AcDbBlockBegin
2
*Paper_Space
70
0
10
0
20
0
30
0
3
*Paper_Space
0
ENDBLK
5
1D
100
AcDbEntity
8
0
100
AcDbBlockEnd
0
BLOCK
5
24
100
AcDbEntity
8
0
100
AcDbBlockBegin
2
*Paper_Space0
70
0
10
0
20
0
30
0
3
*Paper_Space0
0
ENDBLK
5
25
100
AcDbEntity
8
0
100
AcDbBlockEnd
0
BLOCK
5
114
100
AcDbEntity
8
0
100
AcDbBlockBegin
2
*D1
70
1
10
0
20
0
30
0
3
*D1
0
LINE
5
116
100
AcDbEntity
8
0
62
256
6
ByLayer
370
-2
48
1
60
0
100
AcDbLine
10
0
20
0.0875
30
0
11
0
21
24.0595
31
0
39
0
210
0
220
0
230
1
0
LINE
5
117
100
AcDbEntity
8
0
62
256
6
ByLayer
370
-2
48
1
60
0
100
AcDbLine
10
26.535
20
0.397
30
0
11
26.535
21
24.0595
31
0
39
0
210
0
220
0
230
1
0
LINE
5
118
100
AcDbEntity
8
0
62
256
6
ByLayer
370
-2
48
1
60
0
100
AcDbLine
10
3.5
20
22.0595
30
0
11
23.035
21
22.0595
31
0
39
0
210
0
220
0
230
1
0
SOLID
5
119
100
AcDbEntity
8
0
62
256
6
ByLayer
370
-1
48
1
60
0
100
AcDbTrace
10
3.5
20
22.642833
30
0
11
3.5
21
21.476167
31
0
12
0
22
22.0595
32
0
13
0
23
22.0595
33
0
39
0
210
0
220
0
230
1
0
SOLID
5
11A
100
AcDbEntity
8
0
62
256
6
ByLayer
370
-1
48
1
60
0
100
AcDbTrace
10
23.035
20
21.476167
30
0
11
23.035
21
22.642833
31
0
12
26.535
22
22.0595
32
0
13
26.535
23
22.0595
33
0
39
0
210
0
220
0
230
1
0
MTEXT
5
11B
100
AcDbEntity
8
0
62
256
6
ByLayer
370
18
48
1
60
0
100
AcDbMText
10
20.072699
20
29.0595
30
0
210
0
220
0
230
1
1
\A1;26.54
40
3.5
41
0
44
1
50
0
71
5
72
5
7
iso_b_vert
0
POINT
5
11C
100
AcDbEntity
8
Defpoints
62
0
6
ByLayer
370
-1
48
1
60
0
100
AcDbPoint
10
0
20
-1.5
30
0
39
0
210
0
220
0
230
1
50
360
0
POINT
5
11D
100
AcDbEntity
8
Defpoints
62
0
6
ByLayer
370
-1
48
1
60
0
100
AcDbPoint
10
26.535
20
-1.1905
30
0
39
0
210
0
220
0
230
1
50
360
0
POINT
5
11E
100
AcDbEntity
8
Defpoints
62
0
6
ByLayer
370
-1
48
1
60
0
100
AcDbPoint
10
26.535
20
22.0595
30
0
39
0
210
0
220
0
230
1
50
360
0
ENDBLK
5
115
100
AcDbEntity
8
0
100
AcDbBlockEnd
0
BLOCK
5
126
100
AcDbEntity
8
0
100
AcDbBlockBegin
2
_U0
70
0
10
0
20
0
30
0
3
_U0
0
MTEXT
5
120
100
AcDbEntity
8
2
62
256
6
ByLayer
370
18
48
1
60
0
100
AcDbMText
10
14.659
20
23.092134
30
0
210
0
220
0
230
1
1
\W0.7607;26.54
40
3.5
41
0
44
1.084337
50
0
71
7
72
5
7
iso_b_vert
0
LINE
5
121
100
AcDbEntity
8
2
62
256
6
ByLayer
370
13
48
1
60
0
100
AcDbLine
10
0
20
0.0875
30
0
11
0
21
24.0595
31
0
39
0
210
0
220
0
230
1
0
LINE
5
122
100
AcDbEntity
8
2
62
256
6
ByLayer
370
13
48
1
60
0
100
AcDbLine
10
26.535
20
0.397
30
0
11
26.535
21
24.0595
31
0
39
0
210
0
220
0
230
1
0
LINE
5
123
100
AcDbEntity
8
2
62
256
6
ByLayer
370
13
48
1
60
0
100
AcDbLine
10
0
20
22.0595
30
0
11
26.535
21
22.0595
31
0
39
0
210
0
220
0
230
1
0
SOLID
5
124
100
AcDbEntity
8
2
62
256
6
ByLayer
370
18
48
1
60
0
100
AcDbTrace
10
0
20
22.0595
30
0
11
3.499998
21
22.520284
31
0
12
3.500002
22
21.598716
32
0
13
3.500002
23
21.598716
33
0
39
0
210
0
220
0
230
1
0
SOLID
5
125
100
AcDbEntity
8
2
62
256
6
ByLayer
370
18
48
1
60
0
100
AcDbTrace
10
26.535
20
22.0595
30
0
11
23.035002
21
21.598716
31
0
12
23.034998
22
22.520284
32
0
13
23.034998
23
22.520284
33
0
39
0
210
0
220
0
230
1
0
ENDBLK
5
127
100
AcDbEntity
8
0
100
AcDbBlockEnd
0
BLOCK
5
12C
100
AcDbEntity
8
0
100
AcDbBlockBegin
2
*D3
70
1
10
0
20
0
30
0
3
*D3
0
LINE
5
12E
100
AcDbEntity
8
0
62
256
6
ByLayer
370
-2
48
1
60
0
100
AcDbLine
10
-22.75
20
-3.0875
30
0
11
-22.75
21
-25.25
31
0
39
0
210
0
220
0
230
1
0
LINE
5
12F
100
AcDbEntity
8
0
62
256
6
ByLayer
370
-2
48
1
60
0
100
AcDbLine
10
0
20
-3.0875
30
0
11
0
21
-25.25
31
0
39
0
210
0
220
0
230
1
0
LINE
5
130
100
AcDbEntity
8
0
62
256
6
ByLayer
370
-2
48
1
60
0
100
AcDbLine
10
-19.25
20
-23.25
30
0
11
-3.5
21
-23.25
31
0
39
0
210
0
220
0
230
1
0
SOLID
5
131
100
AcDbEntity
8
0
62
256
6
ByLayer
370
-1
48
1
60
0
100
AcDbTrace
10
-19.25
20
-22.666667
30
0
11
-19.25
21
-23.833333
31
0
12
-22.75
22
-23.25
32
0
13
-22.75
23
-23.25
33
0
39
0
210
0
220
0
230
1
0
SOLID
5
132
100
AcDbEntity
8
0
62
256
6
ByLayer
370
-1
48
1
60
0
100
AcDbTrace
10
-3.5
20
-23.833333
30
0
11
-3.5
21
-22.666667
31
0
12
0
22
-23.25
32
0
13
0
23
-23.25
33
0
39
0
210
0
220
0
230
1
0
MTEXT
5
133
100
AcDbEntity
8
0
62
256
6
ByLayer
370
18
48
1
60
0
100
AcDbMText
10
-11.335068
20
-16.25
30
0
210
0
220
0
230
1
1
\A1;22.75
40
3.5
41
0
44
1
50
0
71
5
72
5
7
iso_b_vert
0
POINT
5
134
100
AcDbEntity
8
Defpoints
62
0
6
ByLayer
370
-1
48
1
60
0
100
AcDbPoint
10
-22.75
20
-1.5
30
0
39
0
210
0
220
0
230
1
50
360
0
POINT
5
135
100
AcDbEntity
8
Defpoints
62
0
6
ByLayer
370
-1
48
1
60
0
100
AcDbPoint
10
0
20
-1.5
30
0
39
0
210
0
220
0
230
1
50
360
0
POINT
5
136
100
AcDbEntity
8
Defpoints
62
0
6
ByLayer
370
-1
48
1
60
0
100
AcDbPoint
10
0
20
-23.25
30
0
39
0
210
0
220
0
230
1
50
360
0
ENDBLK
5
12D
100
AcDbEntity
8
0
100
AcDbBlockEnd
0
BLOCK
5
13E
100
AcDbEntity
8
0
100
AcDbBlockBegin
2
_U1
70
0
10
0
20
0
30
0
3
_U1
0
MTEXT
5
138
100
AcDbEntity
8
SK2
62
256
6
ByLayer
370
18
48
1
60
0
100
AcDbMText
10
-16.5645
20
-22.217366
30
0
210
0
220
0
230
1
1
\W0.7468;22.75
40
3.5
41
0
44
1.084337
50
0
71
7
72
5
7
iso_b_vert
0
LINE
5
139
100
AcDbEntity
8
SK2
62
256
6
ByLayer
370
13
48
1
60
0
100
AcDbLine
10
-22.75
20
-3.0875
30
0
11
-22.75
21
-25.25
31
0
39
0
210
0
220
0
230
1
0
LINE
5
13A
100
AcDbEntity
8
SK2
62
256
6
ByLayer
370
13
48
1
60
0
100
AcDbLine
10
0
20
-3.0875
30
0
11
0
21
-25.25
31
0
39
0
210
0
220
0
230
1
0
LINE
5
13B
100
AcDbEntity
8
SK2
62
256
6
ByLayer
370
13
48
1
60
0
100
AcDbLine
10
-22.75
20
-23.25
30
0
11
0
21
-23.25
31
0
39
0
210
0
220
0
230
1
0
SOLID
5
13C
100
AcDbEntity
8
SK2
62
256
6
ByLayer
370
18
48
1
60
0
100
AcDbTrace
10
-22.75
20
-23.25
30
0
11
-19.250002
21
-22.789216
31
0
12
-19.249998
22
-23.710784
32
0
13
-19.249998
23
-23.710784
33
0
39
0
210
0
220
0
230
1
0
SOLID
5
13D
100
AcDbEntity
8
SK2
62
256
6
ByLayer
370
18
48
1
60
0
100
AcDbTrace
10
0
20
-23.25
30
0
11
-3.499998
21
-23.710784
31
0
12
-3.500002
22
-22.789216
32
0
13
-3.500002
23
-22.789216
33
0
39
0
210
0
220
0
230
1
0
ENDBLK
5
13F
100
AcDbEntity
8
0
100
AcDbBlockEnd
0
BLOCK
5
144
100
AcDbEntity
8
0
100
AcDbBlockBegin
2
*D5
70
1
10
0
20
0
30
0
3
*D5
0
LINE
5
146
100
AcDbEntity
8
0
62
256
6
ByLayer
370
-2
48
1
60
0
100
AcDbLine
10
8.202
20
-2.778
30
0
11
8.202
21
-18.4405
31
0
39
0
210
0
220
0
230
1
0
LINE
5
147
100
AcDbEntity
8
0
62
256
6
ByLayer
370
-2
48
1
60
0
100
AcDbLine
10
27.25
20
-2.778
30
0
11
27.25
21
-18.4405
31
0
39
0
210
0
220
0
230
1
0
LINE
5
148
100
AcDbEntity
8
0
62
256
6
ByLayer
370
-2
48
1
60
0
100
AcDbLine
10
27.25
20
-16.4405
30
0
11
54.75
21
-16.4405
31
0
39
0
210
0
220
0
230
1
0
LINE
5
149
100
AcDbEntity
8
0
62
256
6
ByLayer
370
-2
48
1
60
0
100
AcDbLine
10
11.702
20
-16.4405
30
0
11
23.75
21
-16.4405
31
0
39
0
210
0
220
0
230
1
0
SOLID
5
14A
100
AcDbEntity
8
0
62
256
6
ByLayer
370
-1
48
1
60
0
100
AcDbTrace
10
11.702
20
-15.857167
30
0
11
11.702
21
-17.023833
31
0
12
8.202
22
-16.4405
32
0
13
8.202
23
-16.4405
33
0
39
0
210
0
220
0
230
1
0
SOLID
5
14B
100
AcDbEntity
8
0
62
256
6
ByLayer
370
-1
48
1
60
0
100
AcDbTrace
10
23.75
20
-17.023833
30
0
11
23.75
21
-15.857167
31
0
12
27.25
22
-16.4405
32
0
13
27.25
23
-16.4405
33
0
39
0
210
0
220
0
230
1
0
MTEXT
5
14C
100
AcDbEntity
8
0
62
256
6
ByLayer
370
18
48
1
60
0
100
AcDbMText
10
42.75
20
-9.4405
30
0
210
0
220
0
230
1
1
\A1;19.05
40
3.5
41
0
44
1
50
0
71
5
72
5
7
iso_b_vert
0
POINT
5
14D
100
AcDbEntity
8
Defpoints
62
0
6
ByLayer
370
-1
48
1
60
0
100
AcDbPoint
10
8.202
20
-1.1905
30
0
39
0
210
0
220
0
230
1
50
360
0
POINT
5
14E
100
AcDbEntity
8
Defpoints
62
0
6
ByLayer
370
-1
48
1
60
0
100
AcDbPoint
10
27.25
20
-1.1905
30
0
39
0
210
0
220
0
230
1
50
360
0
POINT
5
14F
100
AcDbEntity
8
Defpoints
62
0
6
ByLayer
370
-1
48
1
60
0
100
AcDbPoint
10
27.25
20
-16.4405
30
0
39
0
210
0
220
0
230
1
50
360
0
ENDBLK
5
145
100
AcDbEntity
8
0
100
AcDbBlockEnd
0
BLOCK
5
157
100
AcDbEntity
8
0
100
AcDbBlockBegin
2
_U2
70
0
10
0
20
0
30
0
3
_U2
0
MTEXT
5
151
100
AcDbEntity
8
SK2
62
256
6
ByLayer
370
18
48
1
60
0
100
AcDbMText
10
37.4355
20
-15.407866
30
0
210
0
220
0
230
1
1
\W0.6864;19.05
40
3.5
41
0
44
1.084337
50
0
71
7
72
5
7
iso_b_vert
0
LINE
5
152
100
AcDbEntity
8
SK2
62
256
6
ByLayer
370
13
48
1
60
0
100
AcDbLine
10
8.202
20
-2.778
30
0
11
8.202
21
-18.4405
31
0
39
0
210
0
220
0
230
1
0
LINE
5
153
100
AcDbEntity
8
SK2
62
256
6
ByLayer
370
13
48
1
60
0
100
AcDbLine
10
27.25
20
-2.778
30
0
11
27.25
21
-18.4405
31
0
39
0
210
0
220
0
230
1
0
LINE
5
154
100
AcDbEntity
8
SK2
62
256
6
ByLayer
370
13
48
1
60
0
100
AcDbLine
10
8.202
20
-16.4405
30
0
11
47.204998
21
-16.4405
31
0
39
0
210
0
220
0
230
1
0
SOLID
5
155
100
AcDbEntity
8
SK2
62
256
6
ByLayer
370
18
48
1
60
0
100
AcDbTrace
10
8.202
20
-16.4405
30
0
11
11.701998
21
-15.979716
31
0
12
11.702002
22
-16.901284
32
0
13
11.702002
23
-16.901284
33
0
39
0
210
0
220
0
230
1
0
SOLID
5
156
100
AcDbEntity
8
SK2
62
256
6
ByLayer
370
18
48
1
60
0
100
AcDbTrace
10
27.25
20
-16.4405
30
0
11
23.750002
21
-16.901284
31
0
12
23.749998
22
-15.979716
32
0
13
23.749998
23
-15.979716
33
0
39
0
210
0
220
0
230
1
0
ENDBLK
5
158
100
AcDbEntity
8
0
100
AcDbBlockEnd
0
BLOCK
5
15D
100
AcDbEntity
8
0
100
AcDbBlockBegin
2
*D7
70
1
10
0
20
0
30
0
3
*D7
0
LINE
5
15F
100
AcDbEntity
8
0
62
256
6
ByLayer
370
-2
48
1
60
0
100
AcDbLine
10
4.078
20
-2.778
30
0
11
4.078
21
-28.4405
31
0
39
0
210
0
220
0
230
1
0
LINE
5
160
100
AcDbEntity
8
0
62
256
6
ByLayer
370
-2
48
1
60
0
100
AcDbLine
10
27.25
20
-2.778
30
0
11
27.25
21
-28.4405
31
0
39
0
210
0
220
0
230
1
0
LINE
5
161
100
AcDbEntity
8
0
62
256
6
ByLayer
370
-2
48
1
60
0
100
AcDbLine
10
27.25
20
-26.4405
30
0
11
55.25
21
-26.4405
31
0
39
0
210
0
220
0
230
1
0
LINE
5
162
100
AcDbEntity
8
0
62
256
6
ByLayer
370
-2
48
1
60
0
100
AcDbLine
10
7.578
20
-26.4405
30
0
11
23.75
21
-26.4405
31
0
39
0
210
0
220
0
230
1
0
SOLID
5
163
100
AcDbEntity
8
0
62
256
6
ByLayer
370
-1
48
1
60
0
100
AcDbTrace
10
7.578
20
-25.857167
30
0
11
7.578
21
-27.023833
31
0
12
4.078
22
-26.4405
32
0
13
4.078
23
-26.4405
33
0
39
0
210
0
220
0
230
1
0
SOLID
5
164
100
AcDbEntity
8
0
62
256
6
ByLayer
370
-1
48
1
60
0
100
AcDbTrace
10
23.75
20
-27.023833
30
0
11
23.75
21
-25.857167
31
0
12
27.25
22
-26.4405
32
0
13
27.25
23
-26.4405
33
0
39
0
210
0
220
0
230
1
0
MTEXT
5
165
100
AcDbEntity
8
0
62
256
6
ByLayer
370
18
48
1
60
0
100
AcDbMText
10
43
20
-19.4405
30
0
210
0
220
0
230
1
1
\A1;23.17
40
3.5
41
0
44
1
50
0
71
5
72
5
7
iso_b_vert
0
POINT
5
166
100
AcDbEntity
8
Defpoints
62
0
6
ByLayer
370
-1
48
1
60
0
100
AcDbPoint
10
4.078
20
-1.1905
30
0
39
0
210
0
220
0
230
1
50
360
0
POINT
5
167
100
AcDbEntity
8
Defpoints
62
0
6
ByLayer
370
-1
48
1
60
0
100
AcDbPoint
10
27.25
20
-1.1905
30
0
39
0
210
0
220
0
230
1
50
360
0
POINT
5
168
100
AcDbEntity
8
Defpoints
62
0
6
ByLayer
370
-1
48
1
60
0
100
AcDbPoint
10
27.25
20
-26.4405
30
0
39
0
210
0
220
0
230
1
50
360
0
ENDBLK
5
15E
100
AcDbEntity
8
0
100
AcDbBlockEnd
0
BLOCK
5
170
100
AcDbEntity
8
0
100
AcDbBlockBegin
2
_U3
70
0
10
0
20
0
30
0
3
_U3
0
MTEXT
5
16A
100
AcDbEntity
8
SK2
62
256
6
ByLayer
370
18
48
1
60
0
100
AcDbMText
10
37.4355
20
-25.407866
30
0
210
0
220
0
230
1
1
\W0.6864;23.17
40
3.5
41
0
44
1.084337
50
0
71
7
72
5
7
iso_b_vert
0
LINE
5
16B
100
AcDbEntity
8
SK2
62
256
6
ByLayer
370
13
48
1
60
0
100
AcDbLine
10
4.078
20
-2.778
30
0
11
4.078
21
-28.4405
31
0
39
0
210
0
220
0
230
1
0
LINE
5
16C
100
AcDbEntity
8
SK2
62
256
6
ByLayer
370
13
48
1
60
0
100
AcDbLine
10
27.25
20
-2.778
30
0
11
27.25
21
-28.4405
31
0
39
0
210
0
220
0
230
1
0
LINE
5
16D
100
AcDbEntity
8
SK2
62
256
6
ByLayer
370
13
48
1
60
0
100
AcDbLine
10
4.078
20
-26.4405
30
0
11
47.204998
21
-26.4405
31
0
39
0
210
0
220
0
230
1
0
SOLID
5
16E
100
AcDbEntity
8
SK2
62
256
6
ByLayer
370
18
48
1
60
0
100
AcDbTrace
10
4.078
20
-26.4405
30
0
11
7.577998
21
-25.979716
31
0
12
7.578002
22
-26.901284
32
0
13
7.578002
23
-26.901284
33
0
39
0
210
0
220
0
230
1
0
SOLID
5
16F
100
AcDbEntity
8
SK2
62
256
6
ByLayer
370
18
48
1
60
0
100
AcDbTrace
10
27.25
20
-26.4405
30
0
11
23.750002
21
-26.901284
31
0
12
23.749998
22
-25.979716
32
0
13
23.749998
23
-25.979716
33
0
39
0
210
0
220
0
230
1
0
ENDBLK
5
171
100
AcDbEntity
8
0
100
AcDbBlockEnd
0
BLOCK
5
176
100
AcDbEntity
8
0
100
AcDbBlockBegin
2
*D9
70
1
10
0
20
0
30
0
3
*D9
0
LINE
5
178
100
AcDbEntity
8
0
62
256
6
ByLayer
370
-2
48
1
60
0
100
AcDbLine
10
-22.75
20
-0.0875
30
0
11
-22.75
21
-38.509391
31
0
39
0
210
0
220
0
230
1
0
LINE
5
179
100
AcDbEntity
8
0
62
256
6
ByLayer
370
-2
48
1
60
0
100
AcDbLine
10
27.25
20
-0.397
30
0
11
27.25
21
-38.509391
31
0
39
0
210
0
220
0
230
1
0
LINE
5
17A
100
AcDbEntity
8
0
62
256
6
ByLayer
370
-2
48
1
60
0
100
AcDbLine
10
-19.25
20
-36.509391
30
0
11
23.75
21
-36.509391
31
0
39
0
210
0
220
0
230
1
0
SOLID
5
17B
100
AcDbEntity
8
0
62
256
6
ByLayer
370
-1
48
1
60
0
100
AcDbTrace
10
-19.25
20
-35.926058
30
0
11
-19.25
21
-37.092724
31
0
12
-22.75
22
-36.509391
32
0
13
-22.75
23
-36.509391
33
0
39
0
210
0
220
0
230
1
0
SOLID
5
17C
100
AcDbEntity
8
0
62
256
6
ByLayer
370
-1
48
1
60
0
100
AcDbTrace
10
23.75
20
-37.092724
30
0
11
23.75
21
-35.926058
31
0
12
27.25
22
-36.509391
32
0
13
27.25
23
-36.509391
33
0
39
0
210
0
220
0
230
1
0
MTEXT
5
17D
100
AcDbEntity
8
0
62
256
6
ByLayer
370
18
48
1
60
0
100
AcDbMText
10
2.25
20
-29.509391
30
0
210
0
220
0
230
1
1
\A1;50
40
3.5
41
0
44
1
50
0
71
5
72
5
7
iso_b_vert
0
POINT
5
17E
100
AcDbEntity
8
Defpoints
62
0
6
ByLayer
370
-1
48
1
60
0
100
AcDbPoint
10
-22.75
20
1.5
30
0
39
0
210
0
220
0
230
1
50
360
0
POINT
5
17F
100
AcDbEntity
8
Defpoints
62
0
6
ByLayer
370
-1
48
1
60
0
100
AcDbPoint
10
27.25
20
1.1905
30
0
39
0
210
0
220
0
230
1
50
360
0
POINT
5
180
100
AcDbEntity
8
Defpoints
62
0
6
ByLayer
370
-1
48
1
60
0
100
AcDbPoint
10
27.25
20
-36.509391
30
0
39
0
210
0
220
0
230
1
50
360
0
ENDBLK
5
177
100
AcDbEntity
8
0
100
AcDbBlockEnd
0
BLOCK
5
18A
100
AcDbEntity
8
0
100
AcDbBlockBegin
2
_U4
70
0
10
0
20
0
30
0
3
_U4
0
MTEXT
5
182
100
AcDbEntity
8
SK2
62
256
6
ByLayer
370
18
48
1
60
0
100
AcDbMText
10
-2.979432
20
-35.476757
30
0
210
0
220
0
230
1
1
\W0.7468;50.00
40
3.5
41
0
44
1.084337
50
0
71
7
72
5
7
iso_b_vert
0
MTEXT
5
183
100
AcDbEntity
8
SK2
62
256
6
ByLayer
370
18
48
1
60
0
100
AcDbMText
10
-6.847431
20
-35.476757
30
0
210
0
220
0
230
1
1
\W0.1790;(
40
3.5
41
0
44
1.084337
50
0
71
7
72
5
7
iso_b_vert
0
MTEXT
5
184
100
AcDbEntity
8
SK2
62
256
6
ByLayer
370
18
48
1
60
0
100
AcDbMText
10
11.350432
20
-35.476757
30
0
210
0
220
0
230
1
1
\W0.1969;)
40
3.5
41
0
44
1.084337
50
0
71
7
72
5
7
iso_b_vert
0
LINE
5
185
100
AcDbEntity
8
SK2
62
256
6
ByLayer
370
13
48
1
60
0
100
AcDbLine
10
-22.75
20
-0.0875
30
0
11
-22.75
21
-38.509391
31
0
39
0
210
0
220
0
230
1
0
LINE
5
186
100
AcDbEntity
8
SK2
62
256
6
ByLayer
370
13
48
1
60
0
100
AcDbLine
10
27.25
20
-0.397
30
0
11
27.25
21
-38.509391
31
0
39
0
210
0
220
0
230
1
0
LINE
5
187
100
AcDbEntity
8
SK2
62
256
6
ByLayer
370
13
48
1
60
0
100
AcDbLine
10
-22.75
20
-36.509391
30
0
11
27.25
21
-36.509391
31
0
39
0
210
0
220
0
230
1
0
SOLID
5
188
100
AcDbEntity
8
SK2
62
256
6
ByLayer
370
18
48
1
60
0
100
AcDbTrace
10
-22.75
20
-36.509391
30
0
11
-19.250002
21
-36.048607
31
0
12
-19.249998
22
-36.970175
32
0
13
-19.249998
23
-36.970175
33
0
39
0
210
0
220
0
230
1
0
SOLID
5
189
100
AcDbEntity
8
SK2
62
256
6
ByLayer
370
18
48
1
60
0
100
AcDbTrace
10
27.25
20
-36.509391
30
0
11
23.750002
21
-36.970175
31
0
12
23.749998
22
-36.048607
32
0
13
23.749998
23
-36.048607
33
0
39
0
210
0
220
0
230
1
0
ENDBLK
5
18B
100
AcDbEntity
8
0
100
AcDbBlockEnd
0
ENDSEC
0
SECTION
2
ENTITIES
0
ELLIPSE
5
B9
100
AcDbEntity
8
SK1
62
256
6
ByLayer
370
18
48
1
60
0
100
AcDbEllipse
10
27.226455
20
-0.054733
30
0
11
0.023704937054064
21
0.0422353960939266
31
0
210
0
220
0
230
1
40
0.065341
41
1.21620760514797
42
2.2634051562642
0
ELLIPSE
5
BA
100
AcDbEntity
8
SK1
62
256
6
ByLayer
370
18
48
1
60
0
100
AcDbEllipse
10
27.226455
20
0.054733
30
0
11
0.023704937047242
21
-0.0422353960823505
31
0
210
0
220
0
230
1
40
0.065341
41
-2.26340515638358
42
-1.21620760495431
0
ELLIPSE
5
BB
100
AcDbEntity
8
SK1
62
256
6
ByLayer
370
13
48
1
60
0
100
AcDbEllipse
10
6.491822
20
-1.130344
30
0
11
0.0161882728805469
21
-0.0473068686465819
31
0
210
0
220
0
230
1
40
0.573158
41
-2.75131870252568
42
-2.55365003267989
0
ELLIPSE
5
BC
100
AcDbEntity
8
SK1
62
256
6
ByLayer
370
13
48
1
60
0
100
AcDbEllipse
10
6.59343
20
-1.124123
30
0
11
-0.00900922061904378
21
-0.0491816423458733
31
0
210
0
220
0
230
1
40
0.471076
41
-2.7753828999171
42
-1.47035652045879
0
ELLIPSE
5
BD
100
AcDbEntity
8
SK1
62
256
6
ByLayer
370
18
48
1
60
0
100
AcDbEllipse
10
4.444238
20
-0.000411
30
0
11
0.639820779233115
21
-1.13053935238769
31
0
210
0
220
0
230
1
40
0.476134
41
2.28092593940462
42
2.87888724539973
0
ELLIPSE
5
BE
100
AcDbEntity
8
SK1
62
256
6
ByLayer
370
18
48
1
60
0
100
AcDbEllipse
10
27.250391
20
0.000616
30
0
11
0.724749158236608
21
1.18807387212506
31
0
210
0
220
0
230
1
40
0.104823
41
-3.07785868922179
42
-2.88200895725757
0
ELLIPSE
5
BF
100
AcDbEntity
8
SK1
62
256
6
ByLayer
370
18
48
1
60
0
100
AcDbEllipse
10
27.251005
20
0.000616
30
0
11
1.05308029222452
21
1.07052779715263
31
0
210
0
220
0
230
1
40
0.494576
41
-2.74247194743183
42
-2.68946788938491
0
ELLIPSE
5
C0
100
AcDbEntity
8
SK1
62
256
6
ByLayer
370
18
48
1
60
0
100
AcDbEllipse
10
4.444238
20
0.000411
30
0
11
0.639820779233141
21
1.13053935238774
31
0
210
0
220
0
230
1
40
0.476134
41
1.98393309335654
42
-2.28092593939808
0
ELLIPSE
5
C1
100
AcDbEntity
8
SK1
62
256
6
ByLayer
370
18
48
1
60
0
100
AcDbEllipse
10
27.250391
20
-0.000616
30
0
11
0.724749158574521
21
-1.18807387269992
31
0
210
0
220
0
230
1
40
0.104823
41
2.88200895732081
42
3.07785868923743
0
POINT
5
70
100
AcDbEntity
8
81
62
256
6
ByLayer
370
18
48
1
60
0
100
AcDbPoint
10
27.25
20
0
30
0
39
0
210
0
220
0
230
1
50
360
0
POINT
5
72
100
AcDbEntity
8
80
62
256
6
ByLayer
370
18
48
1
60
0
100
AcDbPoint
10
0
20
0
30
0
39
0
210
0
220
0
230
1
50
360
0
POINT
5
74
100
AcDbEntity
8
1
62
256
6
ByLayer
370
18
48
1
60
0
100
AcDbPoint
10
-22.75
20
0
30
0
39
0
210
0
220
0
230
1
50
360
0
POINT
5
76
100
AcDbEntity
8
1
62
256
6
ByLayer
370
18
48
1
60
1
100
AcDbPoint
10
0
20
-1.5
30
0
39
0
210
0
220
0
230
1
50
360
0
POINT
5
77
100
AcDbEntity
8
1
62
256
6
ByLayer
370
18
48
1
60
1
100
AcDbPoint
10
26.535
20
-1.1905
30
0
39
0
210
0
220
0
230
1
50
360
0
POINT
5
78
100
AcDbEntity
8
1
62
256
6
ByLayer
370
18
48
1
60
1
100
AcDbPoint
10
-22.75
20
-1.5
30
0
39
0
210
0
220
0
230
1
50
360
0
POINT
5
79
100
AcDbEntity
8
1
62
256
6
ByLayer
370
18
48
1
60
1
100
AcDbPoint
10
0
20
-1.5
30
0
39
0
210
0
220
0
230
1
50
360
0
POINT
5
7A
100
AcDbEntity
8
1
62
256
6
ByLayer
370
18
48
1
60
1
100
AcDbPoint
10
8.202
20
-1.1905
30
0
39
0
210
0
220
0
230
1
50
360
0
POINT
5
7B
100
AcDbEntity
8
1
62
256
6
ByLayer
370
18
48
1
60
1
100
AcDbPoint
10
27.25
20
-1.1905
30
0
39
0
210
0
220
0
230
1
50
360
0
POINT
5
7C
100
AcDbEntity
8
1
62
256
6
ByLayer
370
18
48
1
60
1
100
AcDbPoint
10
4.078
20
-1.1905
30
0
39
0
210
0
220
0
230
1
50
360
0
POINT
5
7D
100
AcDbEntity
8
1
62
256
6
ByLayer
370
18
48
1
60
1
100
AcDbPoint
10
27.25
20
-1.1905
30
0
39
0
210
0
220
0
230
1
50
360
0
POINT
5
7E
100
AcDbEntity
8
1
62
256
6
ByLayer
370
18
48
1
60
1
100
AcDbPoint
10
-22.75
20
1.5
30
0
39
0
210
0
220
0
230
1
50
360
0
POINT
5
7F
100
AcDbEntity
8
1
62
256
6
ByLayer
370
18
48
1
60
1
100
AcDbPoint
10
27.25
20
1.1905
30
0
39
0
210
0
220
0
230
1
50
360
0
SPLINE
5
C2
100
AcDbEntity
8
SK1
62
256
6
ByLayer
370
13
48
1
60
0
100
AcDbSpline
70
4
71
3
72
12
73
8
40
0
40
0
40
0
40
0
40
0.25
40
0.25
40
0.5
40
0.5
40
1
40
1
40
1
40
1
41
1
10
4.43528991195871
20
-0.967625572236244
30
0
41
1
10
4.37407029535387
20
-0.900553181192151
30
0
41
1
10
4.31270720250467
20
-0.833747353984535
30
0
41
1
10
4.18965483033844
20
-0.700741719887674
30
0
41
1
10
4.12796350618768
20
-0.634545462197508
30
0
41
1
10
3.94250072291493
20
-0.436684287664889
30
0
41
1
10
3.81835720610866
20
-0.305714766279891
30
0
41
1
10
3.69435970622513
20
-0.174472432498305
30
0
0
SPLINE
5
C3
100
AcDbEntity
8
SK1
62
256
6
ByLayer
370
13
48
1
60
0
100
AcDbSpline
70
4
71
3
72
8
73
4
40
0
40
0
40
0
40
0
40
1
40
1
40
1
40
1
41
1
10
6.46653538275902
20
-1.09012435496805
30
0
41
1
10
6.46483333585039
20
-1.09078628927645
30
0
41
1
10
6.46315131041328
20
-1.09145755321802
30
0
41
1
10
6.46148873861412
20
-1.09213780168997
30
0
0
SPLINE
5
C4
100
AcDbEntity
8
SK1
62
256
6
ByLayer
370
13
48
1
60
0
100
AcDbSpline
70
4
71
3
72
12
73
8
40
0
40
0
40
0
40
0
40
0.5
40
0.5
40
0.75
40
0.75
40
1
40
1
40
1
40
1
41
1
10
6.59354621858597
20
-1.07668273277665
30
0
41
1
10
6.5712977700309
20
-1.07354867699306
30
0
41
1
10
6.54952648118589
20
-1.07316427612395
30
0
41
1
10
6.51767785937042
20
-1.07648568406245
30
0
41
1
10
6.50719749030054
20
-1.07825012802883
30
0
41
1
10
6.4865405317245
20
-1.08315413851773
30
0
41
1
10
6.47635150144794
20
-1.08630681874004
30
0
41
1
10
6.46653538275902
20
-1.09012435496805
30
0
0
SPLINE
5
C5
100
AcDbEntity
8
SK1
62
256
6
ByLayer
370
13
48
1
60
0
100
AcDbSpline
70
4
71
3
72
31
73
27
40
0
40
0
40
0
40
0
40
0.0625
40
0.0625
40
0.125
40
0.125
40
0.1875
40
0.1875
40
0.25
40
0.25
40
0.375
40
0.375
40
0.4375
40
0.4375
40
0.5
40
0.5
40
0.5625
40
0.5625
40
0.625
40
0.625
40
0.6875
40
0.6875
40
0.75
40
0.75
40
0.875
40
1
40
1
40
1
40
1
41
1
10
6.59398068876624
20
-0.0794943817209628
30
0
41
1
10
6.593970255182
20
-0.107128220066414
30
0
41
1
10
6.5939599005095
20
-0.134753721517853
30
0
41
1
10
6.59393949586794
20
-0.189987682559718
30
0
41
1
10
6.59392943194666
20
-0.217638123014496
30
0
41
1
10
6.59390991270308
20
-0.272343486573249
30
0
41
1
10
6.59390041059464
20
-0.29952893812802
30
0
41
1
10
6.59388210709793
20
-0.353105611190415
30
0
41
1
10
6.59387331932101
20
-0.379453137528884
30
0
41
1
10
6.59384797290937
20
-0.457204459924213
30
0
41
1
10
6.59383245448083
20
-0.507323760327523
30
0
41
1
10
6.59381053393406
20
-0.579927495405144
30
0
41
1
10
6.59380344762928
20
-0.603697849749608
30
0
41
1
10
6.59378952160571
20
-0.650354963919
30
0
41
1
10
6.59378270500224
20
-0.673161627772686
30
0
41
1
10
6.59376922037202
20
-0.717359030922609
30
0
41
1
10
6.59376253541279
20
-0.738807303708825
30
0
41
1
10
6.59374897894469
20
-0.780398643946199
30
0
41
1
10
6.5937420992544
20
-0.800559551754077
30
0
41
1
10
6.59372792155679
20
-0.839248513511365
30
0
41
1
10
6.59372061129449
20
-0.857817249034355
30
0
41
1
10
6.59370517697067
20
-0.89340432870091
30
0
41
1
10
6.59369702610798
20
-0.9104697175311
30
0
41
1
10
6.59367096805596
20
-0.958887930303916
30
0
41
1
10
6.59363200457977
20
-1.0160883384597
30
0
41
1
10
6.59357842860697
20
-1.05896473938566
30
0
41
1
10
6.59354621858597
20
-1.07668273277665
30
0
0
SPLINE
5
C6
100
AcDbEntity
8
SK1
62
256
6
ByLayer
370
18
48
1
60
0
100
AcDbSpline
70
4
71
3
72
22
73
18
40
0
40
0
40
0
40
0
40
0.249999999999978
40
0.249999999999978
40
0.374999999999973
40
0.374999999999973
40
0.43749999999997
40
0.43749999999997
40
0.499999999999967
40
0.499999999999967
40
0.62499999999997
40
0.62499999999997
40
0.687499999999975
40
0.687499999999975
40
0.74999999999998
40
0.74999999999998
40
1
40
1
40
1
40
1
41
1
10
26.4581458725542
20
-1.14738399148405
30
0
41
1
10
26.4108502764452
20
-1.1399065190291
30
0
41
1
10
26.3665878433902
20
-1.12669718071257
30
0
41
1
10
26.3055432728747
20
-1.0967748463367
30
0
41
1
10
26.2860924497309
20
-1.0851049515189
30
0
41
1
10
26.2584437777419
20
-1.06471342483462
30
0
41
1
10
26.2494904819848
20
-1.05743395638871
30
0
41
1
10
26.232331961649
20
-1.04203458491219
30
0
41
1
10
26.2240996830219
20
-1.03389584294473
30
0
41
1
10
26.2004773737886
20
-1.008119955035
30
0
41
1
10
26.1861578557233
20
-0.989128226371662
30
0
41
1
10
26.1670193221038
20
-0.957678752457241
30
0
41
1
10
26.1610308647655
20
-0.946700770939145
30
0
41
1
10
26.1498826170751
20
-0.923696246640105
30
0
41
1
10
26.1447042364764
20
-0.911615815771597
30
0
41
1
10
26.1213095169745
20
-0.849200209446508
30
0
41
1
10
26.1104389185726
20
-0.793015194095887
30
0
41
1
10
26.1078601235185
20
-0.73022169173737
30
0
0
SPLINE
5
C7
100
AcDbEntity
8
SK1
62
256
6
ByLayer
370
18
48
1
60
0
100
AcDbSpline
70
4
71
3
72
36
73
32
40
0
40
0
40
0
40
0
40
0.0312499999999979
40
0.0312499999999979
40
0.0624999999999957
40
0.0624999999999957
40
0.124999999999991
40
0.124999999999991
40
0.156249999999989
40
0.156249999999989
40
0.187499999999987
40
0.187499999999987
40
0.249999999999988
40
0.249999999999988
40
0.312499999999988
40
0.312499999999988
40
0.343749999999988
40
0.343749999999988
40
0.374999999999988
40
0.374999999999988
40
0.499999999999989
40
0.499999999999989
40
0.562499999999994
40
0.562499999999994
40
0.625
40
0.625
40
0.75
40
0.75
40
0.875
40
0.875
40
1
40
1
40
1
40
1
41
1
10
25.2046830712224
20
0.366660715812515
30
0
41
1
10
25.2033381329367
20
0.351393352574917
30
0
41
1
10
25.2025985343868
20
0.335799414186937
30
0
41
1
10
25.2023912387831
20
0.304614023672713
30
0
41
1
10
25.2029145914621
20
0.289034900788636
30
0
41
1
10
25.2062945960601
20
0.242336711165933
30
0
41
1
10
25.2109575772728
20
0.211256745154827
30
0
41
1
10
25.2213566929703
20
0.16471049480171
30
0
41
1
10
25.2253914593803
20
0.149207381776108
30
0
41
1
10
25.2345732121222
20
0.118225231405461
30
0
41
1
10
25.2396868611553
20
0.102867652238615
30
0
41
1
10
25.2563373702406
20
0.0575462240013849
30
0
41
1
10
25.2692276901295
20
0.0281593467650509
30
0
41
1
10
25.2980418558339
20
-0.0292121776857925
30
0
41
1
10
25.3139682801492
20
-0.0571956330035164
30
0
41
1
10
25.3398519583185
20
-0.0982490816026598
30
0
41
1
10
25.3487863863947
20
-0.11173409915466
30
0
41
1
10
25.3670854065397
20
-0.138150916493515
30
0
41
1
10
25.3764694181331
20
-0.151113660102624
30
0
41
1
10
25.4244552034453
20
-0.214810916423744
30
0
41
1
10
25.4662052876215
20
-0.262247242090666
30
0
41
1
10
25.5325527347926
20
-0.329502207098073
30
0
41
1
10
25.5552987934317
20
-0.35126028288397
30
0
41
1
10
25.6019131803306
20
-0.393600738737547
30
0
41
1
10
25.6256164775123
20
-0.4140324783246
30
0
41
1
10
25.697569780411
20
-0.473254907017946
30
0
41
1
10
25.7467415171501
20
-0.510067576926957
30
0
41
1
10
25.8469853758854
20
-0.579476301822666
30
0
41
1
10
25.8980632371837
20
-0.612059622324324
30
0
41
1
10
26.0018163543956
20
-0.673681930436828
30
0
41
1
10
26.0544920653194
20
-0.702719908461376
30
0
41
1
10
26.1078601235184
20
-0.73022169173737
30
0
0
SPLINE
5
C8
100
AcDbEntity
8
SK1
62
256
6
ByLayer
370
18
48
1
60
0
100
AcDbSpline
70
4
71
3
72
14
73
10
40
0
40
0
40
0
40
0
40
0.244021648823904
40
0.244021648823904
40
0.488043297647811
40
0.488043297647811
40
0.976086595295622
40
0.976086595295622
40
1
40
1
40
1
40
1
41
1
10
6.59354621858597
20
-1.07668273277665
30
0
41
1
10
6.64584797726576
20
-1.0858635639913
30
0
41
1
10
6.69814043913655
20
-1.09398751985103
30
0
41
1
10
6.80231993962508
20
-1.10805632248764
30
0
41
1
10
6.85426917455189
20
-1.11401275873971
30
0
41
1
10
7.00980463839545
20
-1.12866557580506
30
0
41
1
10
7.11308297019116
20
-1.13413987476841
30
0
41
1
10
7.22128367455437
20
-1.13542713713295
30
0
41
1
10
7.22633731345545
20
-1.13547709225017
30
0
41
1
10
7.23139060075496
20
-1.13551687433929
30
0
0
SPLINE
5
C9
100
AcDbEntity
8
SK1
62
256
6
ByLayer
370
18
48
1
60
0
100
AcDbSpline
70
4
71
3
72
20
73
16
40
0
40
0
40
0
40
0
40
0.247689745210405
40
0.247689745210405
40
0.448573671297323
40
0.448573671297323
40
0.498794652819051
40
0.498794652819051
40
0.549015634340781
40
0.549015634340781
40
0.649457597384249
40
0.649457597384249
40
0.850341523471177
40
0.850341523471177
40
1
40
1
40
1
40
1
41
1
10
14.9146864051137
20
0.961278695380656
30
0
41
1
10
15.0417688752927
20
0.923260617354998
30
0
41
1
10
15.1687001645983
20
0.879827777115082
30
0
41
1
10
15.3991252025914
20
0.79230699350083
30
0
41
1
10
15.5025511779093
20
0.749859934368658
30
0
41
1
10
15.632469787764
20
0.693114421091309
30
0
41
1
10
15.6584851410955
20
0.681583643843453
30
0
41
1
10
15.7105885159185
20
0.658177707785995
30
0
41
1
10
15.7367017771512
20
0.646291480608625
30
0
41
1
10
15.8149457039769
20
0.610229085961919
30
0
41
1
10
15.8669628995406
20
0.585654051256341
30
0
41
1
10
16.022651406343
20
0.510448866925969
30
0
41
1
10
16.12596151624
20
0.458346073692212
30
0
41
1
10
16.3058780991402
20
0.364850940336879
30
0
41
1
10
16.3826145562569
20
0.324198238329217
30
0
41
1
10
16.4593674399411
20
0.282947976292377
30
0
0
SPLINE
5
CA
100
AcDbEntity
8
SK1
62
256
6
ByLayer
370
13
48
1
60
0
100
AcDbSpline
70
4
71
3
72
14
73
10
40
0
40
0
40
0
40
0
40
0.117891903789354
40
0.117891903789354
40
0.580212657843758
40
0.580212657843758
40
0.811373034870973
40
0.811373034870973
40
1
40
1
40
1
40
1
41
1
10
16.4593674398726
20
0.282947976329183
30
0
41
1
10
16.4856385944789
20
0.268828741200934
30
0
41
1
10
16.5119116735754
20
0.254639497623486
30
0
41
1
10
16.6412440610346
20
0.18448907406102
30
0
41
1
10
16.7444173772153
20
0.127683097380213
30
0
41
1
10
16.8996815105107
20
0.0416749370672846
30
0
41
1
10
16.9515178467604
20
0.0128684961840122
30
0
41
1
10
17.0458628225717
20
-0.0395751272209566
30
0
41
1
10
17.0883632054396
20
-0.0632064031660491
30
0
41
1
10
17.1309063983412
20
-0.0868178663258163
30
0
0
SPLINE
5
CB
100
AcDbEntity
8
SK1
62
256
6
ByLayer
370
18
48
1
60
0
100
AcDbSpline
70
4
71
3
72
40
73
36
40
0
40
0
40
0
40
0
40
0.0092732361925677
40
0.0092732361925677
40
0.0596713745807788
40
0.0596713745807788
40
0.11006951296899
40
0.11006951296899
40
0.210865789745414
40
0.210865789745414
40
0.261263928133625
40
0.261263928133625
40
0.311662066521836
40
0.311662066521836
40
0.412458343298254
40
0.412458343298254
40
0.513254620074672
40
0.513254620074672
40
0.538453689268776
40
0.538453689268776
40
0.563652758462881
40
0.563652758462881
40
0.614050896851085
40
0.614050896851085
40
0.714847173627487
40
0.714847173627487
40
0.81564345040389
40
0.81564345040389
40
0.916439727180292
40
0.916439727180292
40
0.966837865568496
40
0.966837865568496
40
0.992036934762596
40
0.992036934762596
40
1
40
1
40
1
40
1
41
1
10
17.1309063984006
20
-0.0868178663588992
30
0
41
1
10
17.140499444348
20
-0.0921420048527182
30
0
41
1
10
17.1500946669949
20
-0.0974651359547067
30
0
41
1
10
17.2118471943894
20
-0.131705558861995
30
0
41
1
10
17.2639887507033
20
-0.160517593598087
30
0
41
1
10
17.3683639792148
20
-0.217708336658944
30
0
41
1
10
17.4204816256001
20
-0.246050012624778
30
0
41
1
10
17.5763144082161
20
-0.330105711169949
30
0
41
1
10
17.6796661469588
20
-0.384903532514272
30
0
41
1
10
17.834323350098
20
-0.464565454839715
30
0
41
1
10
17.8858228570949
20
-0.490679448586889
30
0
41
1
10
17.9888369590944
20
-0.541821375801675
30
0
41
1
10
18.0403401458972
20
-0.566869502517989
30
0
41
1
10
18.1948592731485
20
-0.640414637074144
30
0
41
1
10
18.2979008654294
20
-0.687286202436297
30
0
41
1
10
18.5045534737791
20
-0.775885872947441
30
0
41
1
10
18.6081673285088
20
-0.817625155591003
30
0
41
1
10
18.7384237029399
20
-0.866048152621346
30
0
41
1
10
18.7645034979024
20
-0.875539744377619
30
0
41
1
10
18.8165451618217
20
-0.894053152371868
30
0
41
1
10
18.8425322773535
20
-0.903083414980983
30
0
41
1
10
18.9204055161088
20
-0.929484914322217
30
0
41
1
10
18.9722001863187
20
-0.946171235667038
30
0
41
1
10
19.1273077742736
20
-0.993440000246778
30
0
41
1
10
19.2303857821536
20
-1.02121490240887
30
0
41
1
10
19.4363611981266
20
-1.06876797941436
30
0
41
1
10
19.539257497151
20
-1.08857427669665
30
0
41
1
10
19.7453472394653
20
-1.1200463274343
30
0
41
1
10
19.8485424559691
20
-1.13171530294622
30
0
41
1
10
20.0040294784702
20
-1.14285972365849
30
0
41
1
10
20.055977866775
20
-1.14552012316963
30
0
41
1
10
20.1341464144979
20
-1.14789124323488
30
0
41
1
10
20.160227125385
20
-1.14840835019194
30
0
41
1
10
20.1944687306277
20
-1.14871892153101
30
0
41
1
10
20.2026871892568
20
-1.14876536417125
30
0
41
1
10
20.2109019570085
20
-1.14878369756897
30
0
0
SPLINE
5
CC
100
AcDbEntity
8
SK1
62
256
6
ByLayer
370
18
48
1
60
0
100
AcDbSpline
70
4
71
3
72
44
73
40
40
0
40
0
40
0
40
0
40
0.0567472501661009
40
0.0567472501661009
40
0.113494500332202
40
0.113494500332202
40
0.141868125415252
40
0.141868125415252
40
0.170241750498303
40
0.170241750498303
40
0.226989000664398
40
0.226989000664398
40
0.340483500996581
40
0.340483500996581
40
0.397230751162669
40
0.397230751162669
40
0.453978001328758
40
0.453978001328758
40
0.510725251494846
40
0.510725251494846
40
0.567472501660935
40
0.567472501660935
40
0.624219751827023
40
0.624219751827023
40
0.680967001993112
40
0.680967001993112
40
0.709340627076156
40
0.709340627076156
40
0.737714252159201
40
0.737714252159201
40
0.794461502325289
40
0.794461502325289
40
0.851208752491378
40
0.851208752491378
40
0.907956002657466
40
0.907956002657466
40
0.964703252823555
40
0.964703252823555
40
1
40
1
40
1
40
1
41
1
10
25.2046830712224
20
0.366660715812685
30
0
41
1
10
25.1563931047504
20
0.392227943915316
30
0
41
1
10
25.108097713651
20
0.417621824017971
30
0
41
1
10
25.0113186488902
20
0.467742599712807
30
0
41
1
10
24.962810170665
20
0.492427248840016
30
0
41
1
10
24.8898319991256
20
0.528823115407135
30
0
41
1
10
24.8654744803909
20
0.540857562858662
30
0
41
1
10
24.8167089389902
20
0.564750265607188
30
0
41
1
10
24.7922792999945
20
0.576623625365727
30
0
41
1
10
24.7191120270792
20
0.611880025911518
30
0
41
1
10
24.6705180990564
20
0.634870145543601
30
0
41
1
10
24.5250075362589
20
0.70178852649758
30
0
41
1
10
24.4283235786828
20
0.743553978649089
30
0
41
1
10
24.2838406311411
20
0.802639508578181
30
0
41
1
10
24.2357709527382
20
0.821756100551056
30
0
41
1
10
24.1394950185305
20
0.858499102131276
30
0
41
1
10
24.091324005935
20
0.876161367674911
30
0
41
1
10
23.9949802922679
20
0.91010774089699
30
0
41
1
10
23.9468248344516
20
0.926411982195077
30
0
41
1
10
23.8505590028088
20
0.957619985488606
30
0
41
1
10
23.8023824206643
20
0.972449713277342
30
0
41
1
10
23.7058470806925
20
1.00038842465554
30
0
41
1
10
23.6575001686205
20
1.01350886930399
30
0
41
1
10
23.5606721131608
20
1.03798897037359
30
0
41
1
10
23.5122150705069
20
1.04937835958799
30
0
41
1
10
23.4393646224155
20
1.06517348829897
30
0
41
1
10
23.4150514261317
20
1.0702220505525
30
0
41
1
10
23.3663374017086
20
1.07987914264081
30
0
41
1
10
23.3419119472109
20
1.08448995165551
30
0
41
1
10
23.2687014532814
20
1.09764994974196
30
0
41
1
10
23.2199931015585
20
1.10553239964142
30
0
41
1
10
23.1228411583771
20
1.11944867370343
30
0
41
1
10
23.074418291611
20
1.1254883419823
30
0
41
1
10
22.9777617583928
20
1.13556983559855
30
0
41
1
10
22.9294643220082
20
1.13958653472344
30
0
41
1
10
22.8329251483523
20
1.14575112010453
30
0
41
1
10
22.7846899462457
20
1.14790192948061
30
0
41
1
10
22.706540484066
20
1.14997480330356
30
0
41
1
10
22.6766034665684
20
1.15043361578697
30
0
41
1
10
22.646659801064
20
1.15054757255794
30
0
0
SPLINE
5
CD
100
AcDbEntity
8
SK1
62
256
6
ByLayer
370
18
48
1
60
0
100
AcDbSpline
70
4
71
3
72
118
73
114
40
0
40
0
40
0
40
0
40
0.0114192145374035
40
0.0114192145374035
40
0.0291509690301376
40
0.0291509690301376
40
0.0380168462765048
40
0.0380168462765048
40
0.0468827235228719
40
0.0468827235228719
40
0.064614478015606
40
0.064614478015606
40
0.0823462325083402
40
0.0823462325083402
40
0.100077987001074
40
0.100077987001074
40
0.117809741493808
40
0.117809741493808
40
0.135541495986543
40
0.135541495986543
40
0.153273250479277
40
0.153273250479277
40
0.171005004972011
40
0.171005004972011
40
0.188736759464745
40
0.188736759464745
40
0.206468513957479
40
0.206468513957479
40
0.224200268450213
40
0.224200268450213
40
0.241932022942947
40
0.241932022942947
40
0.259663777435681
40
0.259663777435681
40
0.277395531928416
40
0.277395531928416
40
0.29512728642115
40
0.29512728642115
40
0.312859040913884
40
0.312859040913884
40
0.348322549899353
40
0.348322549899353
40
0.366054304392087
40
0.366054304392087
40
0.383786058884821
40
0.383786058884821
40
0.401517813377555
40
0.401517813377555
40
0.41924956787029
40
0.41924956787029
40
0.436981322363024
40
0.436981322363024
40
0.454713076855758
40
0.454713076855758
40
0.472444831348493
40
0.472444831348493
40
0.490176585841227
40
0.490176585841227
40
0.525640094826695
40
0.525640094826695
40
0.543371849319429
40
0.543371849319429
40
0.561103603812163
40
0.561103603812163
40
0.578835358304898
40
0.578835358304898
40
0.596567112797632
40
0.596567112797632
40
0.614298867290366
40
0.614298867290366
40
0.632030621783101
40
0.632030621783101
40
0.649762376275835
40
0.649762376275835
40
0.667494130768569
40
0.667494130768569
40
0.685225885261303
40
0.685225885261303
40
0.702957639754037
40
0.702957639754037
40
0.720689394246772
40
0.720689394246772
40
0.738421148739506
40
0.738421148739506
40
0.747287025985873
40
0.747287025985873
40
0.75615290323224
40
0.75615290323224
40
0.773884657724974
40
0.773884657724974
40
0.791616412217709
40
0.791616412217709
40
0.809348166710443
40
0.809348166710443
40
0.827079921203177
40
0.827079921203177
40
0.844811675695911
40
0.844811675695911
40
0.862543430188646
40
0.862543430188646
40
0.88027518468138
40
0.88027518468138
40
0.898006939174114
40
0.898006939174114
40
0.915738693666848
40
0.915738693666848
40
0.933470448159583
40
0.933470448159583
40
0.951202202652317
40
0.951202202652317
40
0.986665711637787
40
0.986665711637787
40
1
40
1
40
1
40
1
41
1
10
17.8909034469543
20
-0.765422491581091
30
0
41
1
10
17.8596627244458
20
-0.778293240163947
30
0
41
1
10
17.828397483399
20
-0.790952866170102
30
0
41
1
10
17.7485077023968
20
-0.822714738674819
30
0
41
1
10
17.6997758009715
20
-0.841382970195212
30
0
41
1
10
17.6264376165547
20
-0.868278173837098
30
0
41
1
10
17.6019301874356
20
-0.877072994486127
30
0
41
1
10
17.5529809750962
20
-0.894255644409668
30
0
41
1
10
17.5285434616916
20
-0.902641839663005
30
0
41
1
10
17.4553638185967
20
-0.927200228697984
30
0
41
1
10
17.4067906446431
20
-0.942781177275691
30
0
41
1
10
17.3097700903147
20
-0.9721691866078
30
0
41
1
10
17.2612990522555
20
-0.986027710899918
30
0
41
1
10
17.1643628312435
20
-1.01232309617092
30
0
41
1
10
17.1159227830137
20
-1.02472397932883
30
0
41
1
10
17.0192162671569
20
-1.04789035631626
30
0
41
1
10
16.9709745399285
20
-1.05867975061392
30
0
41
1
10
16.8744303237358
20
-1.07836897183947
30
0
41
1
10
16.8261263008198
20
-1.0872753410186
30
0
41
1
10
16.7295202257622
20
-1.10317800541534
30
0
41
1
10
16.6812162441291
20
-1.11016892749987
30
0
41
1
10
16.5846377764581
20
-1.12206630040609
30
0
41
1
10
16.5363733554209
20
-1.12697702012517
30
0
41
1
10
16.4395291029435
20
-1.13466143008682
30
0
41
1
10
16.3909878477479
20
-1.13744710213643
30
0
41
1
10
16.293686502321
20
-1.1415973445371
30
0
41
1
10
16.2449278411021
20
-1.14299816921667
30
0
41
1
10
16.1472240721518
20
-1.14409708748292
30
0
41
1
10
16.0982349237095
20
-1.1437694878301
30
0
41
1
10
16.0005883379623
20
-1.14126732331891
30
0
41
1
10
15.9518393120713
20
-1.13910402596702
30
0
41
1
10
15.8545925601498
20
-1.13288424770133
30
0
41
1
10
15.806113940433
20
-1.12884056206536
30
0
41
1
10
15.7093932879649
20
-1.11860304880381
30
0
41
1
10
15.6611389649232
20
-1.11235695779263
30
0
41
1
10
15.5646533641452
20
-1.09782003467635
30
0
41
1
10
15.5164377510068
20
-1.08954587194944
30
0
41
1
10
15.4200914290777
20
-1.07130385825877
30
0
41
1
10
15.3719527100932
20
-1.06137874068511
30
0
41
1
10
15.2273648872649
20
-1.02947067163785
30
0
41
1
10
15.1306795304462
20
-1.00520733872955
30
0
41
1
10
14.9855252416762
20
-0.96277967831594
30
0
41
1
10
14.9371400731487
20
-0.947655351399277
30
0
41
1
10
14.8400381394561
20
-0.916026288880886
30
0
41
1
10
14.7913249659134
20
-0.899528945827029
30
0
41
1
10
14.6936389755396
20
-0.865314389229326
30
0
41
1
10
14.6446116017175
20
-0.84754159020008
30
0
41
1
10
14.5470786003201
20
-0.81058548615249
30
0
41
1
10
14.4984546735219
20
-0.791446185987297
30
0
41
1
10
14.4013099978295
20
-0.752055506467059
30
0
41
1
10
14.3528158023362
20
-0.731769405290606
30
0
41
1
10
14.2560347904198
20
-0.689901688547934
30
0
41
1
10
14.20777880454
20
-0.668278401190179
30
0
41
1
10
14.111475247316
20
-0.623570274589639
30
0
41
1
10
14.0633988514369
20
-0.600492874533387
30
0
41
1
10
13.9671337336351
20
-0.553687838322446
30
0
41
1
10
13.9189470656336
20
-0.529985614424078
30
0
41
1
10
13.7742943346209
20
-0.458121339125938
30
0
41
1
10
13.6778176337571
20
-0.409210443161271
30
0
41
1
10
13.5325967458347
20
-0.333306224529878
30
0
41
1
10
13.4841373178769
20
-0.307505461910495
30
0
41
1
10
13.3870883280886
20
-0.255009807530115
30
0
41
1
10
13.3385238521056
20
-0.22832776825436
30
0
41
1
10
13.2410494102482
20
-0.174838020032269
30
0
41
1
10
13.1920645553518
20
-0.148026252746916
30
0
41
1
10
13.0944547261356
20
-0.0944373361855355
30
0
41
1
10
13.0457473506323
20
-0.0676379607789386
30
0
41
1
10
12.9485851824742
20
-0.013940592094059
30
0
41
1
10
12.900142720677
20
0.0129725521371711
30
0
41
1
10
12.8034326908921
20
0.0666562716846215
30
0
41
1
10
12.7551266068064
20
0.0933669510933726
30
0
41
1
10
12.6585131731137
20
0.146456466365038
30
0
41
1
10
12.6102351994524
20
0.172885670455997
30
0
41
1
10
12.51378601495
20
0.225569519374403
30
0
41
1
10
12.4655941233231
20
0.251785574634624
30
0
41
1
10
12.3690844038608
20
0.303594021147916
30
0
41
1
10
12.3207722613319
20
0.329198844993272
30
0
41
1
10
12.2241392056447
20
0.379949462940459
30
0
41
1
10
12.1758424024197
20
0.405125551183147
30
0
41
1
10
12.0790817699665
20
0.454827573098584
30
0
41
1
10
12.030595437439
20
0.479327648226416
30
0
41
1
10
11.9333250380418
20
0.527478636049665
30
0
41
1
10
11.8845593699555
20
0.551157870092965
30
0
41
1
10
11.8112670357777
20
0.586147254807855
30
0
41
1
10
11.7867955734365
20
0.597729388132763
30
0
41
1
10
11.7379277015311
20
0.620667626739589
30
0
41
1
10
11.7135261761058
20
0.632028249518299
30
0
41
1
10
11.6403475611624
20
0.665658471286491
30
0
41
1
10
11.5915676509118
20
0.68743515508578
30
0
41
1
10
11.4940476471415
20
0.729679219312402
30
0
41
1
10
11.4453101764926
20
0.750154615187853
30
0
41
1
10
11.3479739713059
20
0.789822956421716
30
0
41
1
10
11.2994015784178
20
0.809008405630522
30
0
41
1
10
11.2020551282269
20
0.845667924467591
30
0
41
1
10
11.1532912178599
20
0.863231736906499
30
0
41
1
10
11.0555735533909
20
0.897162858116019
30
0
41
1
10
11.0066550609119
20
0.91348557445599
30
0
41
1
10
10.9092369087311
20
0.944727831453889
30
0
41
1
10
10.8606512585203
20
0.959625151337008
30
0
41
1
10
10.7635289798503
20
0.987684189515704
30
0
41
1
10
10.7150166598635
20
1.0008765888247
30
0
41
1
10
10.6181563848341
20
1.02557637990611
30
0
41
1
10
10.5698206229093
20
1.03709256658146
30
0
41
1
10
10.4733148403842
20
1.058341248663
30
0
41
1
10
10.4251245990575
20
1.06805269179492
30
0
41
1
10
10.3286808694787
20
1.08530028669739
30
0
41
1
10
10.280459620217
20
1.09285734074706
30
0
41
1
10
10.1839727633411
20
1.10638169789314
30
0
41
1
10
10.1357256764382
20
1.11237981680239
30
0
41
1
10
9.99088844583613
20
1.12777374261466
30
0
41
1
10
9.89389841091239
20
1.13447600127907
30
0
41
1
10
9.76002415297583
20
1.13798758444688
30
0
41
1
10
9.72340561172521
20
1.13832162032443
30
0
41
1
10
9.68671479332141
20
1.13810825438881
30
0
0
SPLINE
5
CE
100
AcDbEntity
8
SK1
62
256
6
ByLayer
370
18
48
1
60
0
100
AcDbSpline
70
4
71
3
72
38
73
34
40
0
40
0
40
0
40
0
40
0.031249999999993
40
0.031249999999993
40
0.0624999999999861
40
0.0624999999999861
40
0.124999999999978
40
0.124999999999978
40
0.18749999999997
40
0.18749999999997
40
0.21874999999997
40
0.21874999999997
40
0.24999999999997
40
0.31249999999998
40
0.31249999999998
40
0.34374999999998
40
0.34374999999998
40
0.37499999999998
40
0.37499999999998
40
0.437499999999979
40
0.499999999999979
40
0.499999999999979
40
0.562499999999978
40
0.562499999999978
40
0.624999999999978
40
0.624999999999978
40
0.749999999999989
40
0.749999999999989
40
0.875
40
0.875
40
0.9375
40
0.9375
40
1
40
1
40
1
40
1
41
1
10
26.3913964203467
20
0.520565150358323
30
0
41
1
10
26.386152779722
20
0.506960652583587
30
0
41
1
10
26.3805157000188
20
0.49356523232666
30
0
41
1
10
26.3683718012231
20
0.467236580146363
30
0
41
1
10
26.361836378972
20
0.454254742864833
30
0
41
1
10
26.3410443387142
20
0.416511868303814
30
0
41
1
10
26.3256209134141
20
0.392948531967335
30
0
41
1
10
26.2915066434166
20
0.349165658046814
30
0
41
1
10
26.2728180265686
20
0.328943840534919
30
0
41
1
10
26.2422370873612
20
0.301218690698789
30
0
41
1
10
26.2315794319656
20
0.292385256145934
30
0
41
1
10
26.2095552682774
20
0.275751591511295
30
0
41
1
10
26.1756696040021
20
0.25249488407772
30
0
41
1
10
26.1393502983229
20
0.234090996686206
30
0
41
1
10
26.1015464564319
20
0.21864735934372
30
0
41
1
10
26.0886982780145
20
0.213991808527482
30
0
41
1
10
26.062531279145
20
0.205619194008932
30
0
41
1
10
26.0491985376683
20
0.201902314431635
30
0
41
1
10
26.0090714111043
20
0.192191545487532
30
0
41
1
10
25.9548771764801
20
0.18292015113596
30
0
41
1
10
25.8995314025578
20
0.179771704419693
30
0
41
1
10
25.8436696537991
20
0.179366791429288
30
0
41
1
10
25.8154576801532
20
0.180543179427872
30
0
41
1
10
25.758637627059
20
0.185476938252606
30
0
41
1
10
25.7303513157672
20
0.189173625043964
30
0
41
1
10
25.6457704041948
20
0.20302740182035
30
0
41
1
10
25.5897683815304
20
0.21609289716406
30
0
41
1
10
25.4784356012314
20
0.248896684068143
30
0
41
1
10
25.4231153137633
20
0.268739055662451
30
0
41
1
10
25.3405498783441
20
0.302627931918636
30
0
41
1
10
25.3130862192003
20
0.314596556608791
30
0
41
1
10
25.258604208167
20
0.339704860208599
30
0
41
1
10
25.231547921267
20
0.352867485920001
30
0
41
1
10
25.2046830712224
20
0.366660715812685
30
0
0
SPLINE
5
CF
100
AcDbEntity
8
SK1
62
256
6
ByLayer
370
18
48
1
60
0
100
AcDbSpline
70
4
71
3
72
14
73
10
40
0
40
0
40
0
40
0
40
0.25
40
0.25
40
0.5
40
0.5
40
0.75
40
0.75
40
1
40
1
40
1
40
1
41
1
10
26.4169652091728
20
0.534671866060933
30
0
41
1
10
26.4143776956441
20
0.534437903943285
30
0
41
1
10
26.4118249772801
20
0.534027398794763
30
0
41
1
10
26.4068043736746
20
0.532774583182515
30
0
41
1
10
26.4043037960919
20
0.531918921697212
30
0
41
1
10
26.399634552932
20
0.529671793700146
30
0
41
1
10
26.3974211404493
20
0.528254097960883
30
0
41
1
10
26.3937398487184
20
0.524832078481211
30
0
41
1
10
26.3922553835118
20
0.522793709358922
30
0
41
1
10
26.3913964203441
20
0.52056515036
30
0
0
SPLINE
5
D0
100
AcDbEntity
8
SK1
62
256
6
ByLayer
370
18
48
1
60
0
100
AcDbSpline
70
4
71
3
72
12
73
8
40
0
40
0
40
0
40
0
40
0.249999999999991
40
0.249999999999991
40
0.499999999999981
40
0.499999999999981
40
1
40
1
40
1
40
1
41
1
10
26.946354435588
20
0.614662296058782
30
0
41
1
10
26.9033022333119
20
0.604576948777776
30
0
41
1
10
26.8598995538727
20
0.595618422326226
30
0
41
1
10
26.7725509613647
20
0.579447922502965
30
0
41
1
10
26.7286011196946
20
0.572248579997051
30
0
41
1
10
26.5960666895638
20
0.552852594257928
30
0
41
1
10
26.506816420829
20
0.542796182907097
30
0
41
1
10
26.4169652091728
20
0.534671866060904
30
0
0
SPLINE
5
D1
100
AcDbEntity
8
SK1
62
256
6
ByLayer
370
18
48
1
60
0
100
AcDbSpline
70
4
71
3
72
11
73
7
40
0
40
0
40
0
40
0
40
0.5
40
0.75
40
0.75
40
1
40
1
40
1
40
1
41
1
10
26.5818893114179
20
1.16715381985671
30
0
41
1
10
26.6420937637002
20
1.07760776185432
30
0
41
1
10
26.732794397282
20
0.941440372776952
30
0
41
1
10
26.8241121885737
20
0.802377492040847
30
0
41
1
10
26.8851308783125
20
0.709011312007647
30
0
41
1
10
26.9157286886205
20
0.661970972376565
30
0
41
1
10
26.9463544355721
20
0.614662296048067
30
0
0
SPLINE
5
D2
100
AcDbEntity
8
SK1
62
256
6
ByLayer
370
13
48
1
60
0
100
AcDbSpline
70
4
71
3
72
14
73
10
40
0
40
0
40
0
40
0
40
0.25
40
0.25
40
0.5
40
0.5
40
0.75
40
0.75
40
1
40
1
40
1
40
1
41
1
10
3.76348079088061
20
-0.153026743033735
30
0
41
1
10
3.822719148651
20
-0.217576486814295
30
0
41
1
10
3.88139320707015
20
-0.282233267452057
30
0
41
1
10
3.99760307111797
20
-0.412724670406192
30
0
41
1
10
4.05513783712018
20
-0.478599944522131
30
0
41
1
10
4.1698816128451
20
-0.612229382152634
30
0
41
1
10
4.22713624481466
20
-0.679985260444852
30
0
41
1
10
4.34234685022417
20
-0.816903984928331
30
0
41
1
10
4.4003093095435
20
-0.886030371715776
30
0
41
1
10
4.45873030573622
20
-0.955421615212117
30
0
0
SPLINE
5
D3
100
AcDbEntity
8
SK1
62
256
6
ByLayer
370
18
48
1
60
0
100
AcDbSpline
70
4
71
3
72
18
73
14
40
0
40
0
40
0
40
0
40
0.124999999999999
40
0.124999999999999
40
0.249999999999999
40
0.249999999999999
40
0.374999999999998
40
0.374999999999998
40
0.499999999999998
40
0.499999999999998
40
0.749999999999999
40
0.749999999999999
40
1
40
1
40
1
40
1
41
1
10
26.4864449614807
20
-1.1881698248699
30
0
41
1
10
26.4886892563296
20
-1.18488947283205
30
0
41
1
10
26.4905723379988
20
-1.18115063343083
30
0
41
1
10
26.4923771712356
20
-1.1739703584459
30
0
41
1
10
26.4922859049592
20
-1.17072706132743
30
0
41
1
10
26.4909318672288
20
-1.1653501922269
30
0
41
1
10
26.4897309686494
20
-1.16318909991563
30
0
41
1
10
26.4868634256962
20
-1.15947345542335
30
0
41
1
10
26.4851863169375
20
-1.15793137398191
30
0
41
1
10
26.4798409896985
20
-1.15394952368365
30
0
41
1
10
26.475810590875
20
-1.15208121518705
30
0
41
1
10
26.4672729223351
20
-1.1491477381193
30
0
41
1
10
26.4627741425988
20
-1.14811572476421
30
0
41
1
10
26.4581458725605
20
-1.14738399148504
30
0
0
SPLINE
5
D4
100
AcDbEntity
8
SK1
62
256
6
ByLayer
370
18
48
1
60
0
100
AcDbSpline
70
4
71
3
72
20
73
16
40
0
40
0
40
0
40
0
40
0.165135863678175
40
0.165135863678175
40
0.352577335762381
40
0.352577335762381
40
0.540018807846587
40
0.540018807846587
40
0.633739543888686
40
0.633739543888686
40
0.727460279930784
40
0.727460279930784
40
0.914901752014981
40
0.914901752014981
40
1
40
1
40
1
40
1
41
1
10
8.4968669411312
20
0.937974856547044
30
0
41
1
10
8.58784337298354
20
0.909644082169535
30
0
41
1
10
8.6786381099478
20
0.878602440418916
30
0
41
1
10
8.87257665080804
20
0.807102412761651
30
0
41
1
10
8.9757852672887
20
0.76602261287465
30
0
41
1
10
9.18273568631321
20
0.678061369508299
30
0
41
1
10
9.28647686506676
20
0.631190100879934
30
0
41
1
10
9.44286070251678
20
0.557010789207226
30
0
41
1
10
9.49514863509486
20
0.531629412963696
30
0
41
1
10
9.59925400847391
20
0.480114631413528
30
0
41
1
10
9.65117104750342
20
0.453930642933301
30
0
41
1
10
9.8066652554152
20
0.374382279680731
30
0
41
1
10
9.91001525789116
20
0.320082137302933
30
0
41
1
10
10.0600276905901
20
0.239593777563812
30
0
41
1
10
10.1068344751509
20
0.214250701760676
30
0
41
1
10
10.1536374473705
20
0.188751618977733
30
0
0
SPLINE
5
D5
100
AcDbEntity
8
SK1
62
256
6
ByLayer
370
13
48
1
60
0
100
AcDbSpline
70
4
71
3
72
14
73
10
40
0
40
0
40
0
40
0
40
0.247731752027138
40
0.247731752027138
40
0.701452110014405
40
0.701452110014405
40
0.928312289008038
40
0.928312289008038
40
1
40
1
40
1
40
1
41
1
10
10.1536374473483
20
0.188751618989841
30
0
41
1
10
10.209924940786
20
0.15808520216325
30
0
41
1
10
10.266206920199
20
0.127193142796358
30
0
41
1
10
10.4256990994395
20
0.0393555440361695
30
0
41
1
10
10.5290618523811
20
-0.0177932357686075
30
0
41
1
10
10.6847209028018
20
-0.103485020475261
30
0
41
1
10
10.7367096979368
20
-0.132041981548468
30
0
41
1
10
10.805300873236
20
-0.169541634664455
30
0
41
1
10
10.8217893706539
20
-0.178542887237569
30
0
41
1
10
10.8382829363161
20
-0.187531171028468
30
0
0
SPLINE
5
D6
100
AcDbEntity
8
SK1
62
256
6
ByLayer
370
18
48
1
60
0
100
AcDbSpline
70
4
71
3
72
30
73
26
40
0
40
0
40
0
40
0
40
0.0366992418823446
40
0.0366992418823446
40
0.144006893692953
40
0.144006893692953
40
0.251314545503561
40
0.251314545503561
40
0.35862219731417
40
0.35862219731417
40
0.465929849124778
40
0.465929849124778
40
0.519583675030082
40
0.519583675030082
40
0.573237500935386
40
0.573237500935386
40
0.680545152745995
40
0.680545152745995
40
0.787852804556603
40
0.787852804556603
40
0.895160456367211
40
0.895160456367211
40
0.948814282272512
40
0.948814282272512
40
1
40
1
40
1
40
1
41
1
10
10.8382829363302
20
-0.187531171036198
30
0
41
1
10
10.8739842755722
20
-0.206986865177413
30
0
41
1
10
10.9097093611958
20
-0.226381796332703
30
0
41
1
10
11.0494605256825
20
-0.301860356420349
30
0
41
1
10
11.1530323667589
20
-0.356938854084092
30
0
41
1
10
11.3596785136095
20
-0.463692494112195
30
0
41
1
10
11.462806429927
20
-0.515273701032498
30
0
41
1
10
11.6690507007754
20
-0.614256908787041
30
0
41
1
10
11.7721606220924
20
-0.661669704196783
30
0
41
1
10
11.9788467349608
20
-0.751546574462253
30
0
41
1
10
12.0824328669692
20
-0.793999991239957
30
0
41
1
10
12.2386669356311
20
-0.853188516626972
30
0
41
1
10
12.290956614114
20
-0.872179776743195
30
0
41
1
10
12.3951170212395
20
-0.908262296704663
30
0
41
1
10
12.4470663096561
20
-0.925401358015591
30
0
41
1
10
12.6025805292551
20
-0.974076607121674
30
0
41
1
10
12.7058163061572
20
-1.00282970664276
30
0
41
1
10
12.9120393193867
20
-1.05255726823765
30
0
41
1
10
13.0150938314363
20
-1.0736331005659
30
0
41
1
10
13.2214291530765
20
-1.10756927656237
30
0
41
1
10
13.3247146821719
20
-1.12045989925014
30
0
41
1
10
13.4802327418148
20
-1.13337246319324
30
0
41
1
10
13.5321740881646
20
-1.13660327980745
30
0
41
1
10
13.6339604975627
20
-1.1407891879885
30
0
41
1
10
13.6838060597609
20
-1.14184315744251
30
0
41
1
10
13.7335452466073
20
-1.14191635203156
30
0
0
SPLINE
5
D7
100
AcDbEntity
8
SK1
62
256
6
ByLayer
370
18
48
1
60
0
100
AcDbSpline
70
4
71
3
72
24
73
20
40
0
40
0
40
0
40
0
40
0.0348471027472627
40
0.0348471027472627
40
0.0876454153779203
40
0.0876454153779203
40
0.140443728008578
40
0.140443728008578
40
0.246040353269904
40
0.246040353269904
40
0.457233603792546
40
0.457233603792546
40
0.668426854315188
40
0.668426854315188
40
0.879620104837829
40
0.879620104837829
40
0.98521673009915
40
0.98521673009915
40
1
40
1
40
1
40
1
41
1
10
21.4513385167702
20
0.948713583572385
30
0
41
1
10
21.4684895400655
20
0.943320553322053
30
0
41
1
10
21.4856559051307
20
0.937823547237542
30
0
41
1
10
21.5288736611672
20
0.923737345131229
30
0
41
1
10
21.5549377041895
20
0.915015961795831
30
0
41
1
10
21.6069427603986
20
0.897179392242407
30
0
41
1
10
21.6329092955305
20
0.888055965761538
30
0
41
1
10
21.7107144083528
20
0.860093267749846
30
0
41
1
10
21.762459315104
20
0.840663173953885
30
0
41
1
10
21.9174197187403
20
0.780172175328943
30
0
41
1
10
22.0203507675853
20
0.736880678498864
30
0
41
1
10
22.2262216429278
20
0.645490627718601
30
0
41
1
10
22.3290654725935
20
0.597213125739557
30
0
41
1
10
22.5350463358323
20
0.496231278183188
30
0
41
1
10
22.6381840165207
20
0.443532652823848
30
0
41
1
10
22.7935748668875
20
0.361923606124236
30
0
41
1
10
22.845485398711
20
0.334291879934483
30
0
41
1
10
22.904832945738
20
0.302360385033779
30
0
41
1
10
22.912123372421
20
0.298431969916805
30
0
41
1
10
22.9194140260977
20
0.294497796627667
30
0
0
SPLINE
5
D8
100
AcDbEntity
8
SK1
62
256
6
ByLayer
370
13
48
1
60
0
100
AcDbSpline
70
4
71
3
72
14
73
10
40
0
40
0
40
0
40
0
40
0.0775533007584345
40
0.0775533007584345
40
0.18526548838717
40
0.18526548838717
40
0.616114238902154
40
0.616114238902154
40
1
40
1
40
1
40
1
41
1
10
22.9194140260462
20
0.294497796655492
30
0
41
1
10
22.9381618750107
20
0.284381106178188
30
0
41
1
10
22.956911224986
20
0.274226339412991
30
0
41
1
10
23.0016228621883
20
0.249929885718387
30
0
41
1
10
23.027580259742
20
0.235759345237312
30
0
41
1
10
23.15720393211
20
0.164728833708096
30
0
41
1
10
23.2603828286094
20
0.107339277620412
30
0
41
1
10
23.4550395092354
20
-0.0012941054847033
30
0
41
1
10
23.5465623098288
20
-0.0525322923919589
30
0
41
1
10
23.6380789283729
20
-0.103479291513111
30
0
0
SPLINE
5
D9
100
AcDbEntity
8
SK1
62
256
6
ByLayer
370
18
48
1
60
0
100
AcDbSpline
70
4
71
3
72
25
73
21
40
0
40
0
40
0
40
0
40
0.121747828423988
40
0.121747828423988
40
0.231529349870983
40
0.231529349870983
40
0.286420110594484
40
0.286420110594484
40
0.341310871317984
40
0.341310871317984
40
0.560873914211997
40
0.560873914211997
40
0.670655435659001
40
0.670655435659001
40
0.725546196382502
40
0.752991576744253
40
0.752991576744253
40
0.780436957106004
40
0.780436957106004
40
1
40
1
40
1
40
1
41
1
10
23.638078928507
20
-0.103479291587831
30
0
41
1
10
23.7519870729431
20
-0.166891579178497
30
0
41
1
10
23.8658856401013
20
-0.229852756431597
30
0
41
1
10
24.0831633499745
20
-0.347468909880888
30
0
41
1
10
24.1864725487676
20
-0.402339785413687
30
0
41
1
10
24.3422919161334
20
-0.482522805334128
30
0
41
1
10
24.394426963327
20
-0.508916033343411
30
0
41
1
10
24.4982644502471
20
-0.560400214527846
30
0
41
1
10
24.5500596799699
20
-0.585546175926311
30
0
41
1
10
24.8084858013233
20
-0.708172682954341
30
0
41
1
10
25.0134948140708
20
-0.796331918272699
30
0
41
1
10
25.3217395824196
20
-0.909496236849151
30
0
41
1
10
25.4246126855652
20
-0.944034224969784
30
0
41
1
10
25.5794971435934
20
-0.990534763654637
30
0
41
1
10
25.6570815206457
20
-1.01245942640841
30
0
41
1
10
25.7349654657961
20
-1.03229370860078
30
0
41
1
10
25.7869645435924
20
-1.04504006176521
30
0
41
1
10
25.8130142305813
20
-1.05117724036756
30
0
41
1
10
26.0469294461551
20
-1.10401650586451
30
0
41
1
10
26.2526552124429
20
-1.13430243962756
30
0
41
1
10
26.4581458725432
20
-1.14738399148487
30
0
0
SPLINE
5
DA
100
AcDbEntity
8
SK1
62
256
6
ByLayer
370
18
48
1
60
0
100
AcDbSpline
70
4
71
3
72
128
73
124
40
0
40
0
40
0
40
0
40
0.0047064479422186
40
0.0047064479422186
40
0.0223999252934206
40
0.0223999252934206
40
0.0400934026446226
40
0.0400934026446226
40
0.0577868799958246
40
0.0577868799958246
40
0.0754803573470266
40
0.0754803573470266
40
0.0931738346982287
40
0.0931738346982287
40
0.110867312049431
40
0.110867312049431
40
0.119714050725032
40
0.119714050725032
40
0.128560789400633
40
0.128560789400633
40
0.146254266751833
40
0.146254266751833
40
0.163947744103033
40
0.163947744103033
40
0.181641221454233
40
0.181641221454233
40
0.199334698805433
40
0.199334698805433
40
0.217028176156633
40
0.217028176156633
40
0.252415130859035
40
0.252415130859035
40
0.270108608210237
40
0.270108608210237
40
0.287802085561439
40
0.287802085561439
40
0.29664882423704
40
0.29664882423704
40
0.305495562912641
40
0.305495562912641
40
0.323189040263843
40
0.323189040263843
40
0.340882517615045
40
0.340882517615045
40
0.358575994966247
40
0.358575994966247
40
0.376269472317449
40
0.376269472317449
40
0.393962949668651
40
0.393962949668651
40
0.411656427019853
40
0.411656427019853
40
0.429349904371056
40
0.429349904371056
40
0.447043381722257
40
0.447043381722257
40
0.46473685907346
40
0.46473685907346
40
0.482430336424662
40
0.482430336424662
40
0.500123813775864
40
0.500123813775864
40
0.517817291127066
40
0.517817291127066
40
0.535510768478268
40
0.535510768478268
40
0.55320424582947
40
0.55320424582947
40
0.570897723180672
40
0.570897723180672
40
0.588591200531874
40
0.588591200531874
40
0.606284677883076
40
0.606284677883076
40
0.623978155234278
40
0.623978155234278
40
0.64167163258548
40
0.64167163258548
40
0.65051837126108
40
0.65051837126108
40
0.659365109936682
40
0.659365109936682
40
0.677058587287884
40
0.677058587287884
40
0.694752064639086
40
0.694752064639086
40
0.712445541990288
40
0.712445541990288
40
0.73013901934149
40
0.73013901934149
40
0.747832496692692
40
0.747832496692692
40
0.765525974043894
40
0.765525974043894
40
0.783219451395096
40
0.783219451395096
40
0.800912928746298
40
0.800912928746298
40
0.8186064060975
40
0.8186064060975
40
0.827453144773101
40
0.827453144773101
40
0.836299883448702
40
0.836299883448702
40
0.853993360799904
40
0.853993360799904
40
0.871686838151106
40
0.871686838151106
40
0.889380315502308
40
0.889380315502308
40
0.90707379285351
40
0.90707379285351
40
0.924767270204712
40
0.924767270204712
40
0.942460747555914
40
0.942460747555914
40
0.960154224907116
40
0.960154224907116
40
0.977847702258318
40
0.977847702258318
40
0.99554117960952
40
0.99554117960952
40
1
40
1
40
1
40
1
41
1
10
24.3704530567933
20
-0.76710048966163
30
0
41
1
10
24.3576295668647
20
-0.772424523061687
30
0
41
1
10
24.3448123886399
20
-0.777705433908267
30
0
41
1
10
24.283840631141
20
-0.802639508578125
30
0
41
1
10
24.2357709527382
20
-0.821756100550999
30
0
41
1
10
24.1394950185305
20
-0.858499102131248
30
0
41
1
10
24.091324005935
20
-0.876161367674854
30
0
41
1
10
23.9949802922679
20
-0.910107740896933
30
0
41
1
10
23.9468248344516
20
-0.92641198219502
30
0
41
1
10
23.8505590028088
20
-0.957619985488549
30
0
41
1
10
23.8023824206642
20
-0.972449713277285
30
0
41
1
10
23.7058470806925
20
-1.00038842465548
30
0
41
1
10
23.6575001686205
20
-1.01350886930393
30
0
41
1
10
23.5606721131608
20
-1.03798897037353
30
0
41
1
10
23.5122150705069
20
-1.04937835958793
30
0
41
1
10
23.4393646224155
20
-1.06517348829891
30
0
41
1
10
23.4150514261317
20
-1.07022205055247
30
0
41
1
10
23.3663374017086
20
-1.07987914264078
30
0
41
1
10
23.3419119472109
20
-1.08448995165548
30
0
41
1
10
23.2687014532814
20
-1.09764994974191
30
0
41
1
10
23.2199931015585
20
-1.10553239964136
30
0
41
1
10
23.1228411583771
20
-1.1194486737034
30
0
41
1
10
23.074418291611
20
-1.12548834198225
30
0
41
1
10
22.9777617583928
20
-1.13556983559852
30
0
41
1
10
22.9294643220082
20
-1.13958653472338
30
0
41
1
10
22.8329251483523
20
-1.14575112010451
30
0
41
1
10
22.7846899462457
20
-1.14790192948055
30
0
41
1
10
22.6883280495724
20
-1.15045787865248
30
0
41
1
10
22.6402285117393
20
-1.15086714954032
30
0
41
1
10
22.4956985953794
20
-1.14937953109046
30
0
41
1
10
22.3991333342118
20
-1.1448213104525
30
0
41
1
10
22.2542463781741
20
-1.13201209843638
30
0
41
1
10
22.2059287702985
20
-1.1267336776281
30
0
41
1
10
22.1090440883459
20
-1.11410764432731
30
0
41
1
10
22.0604598589316
20
-1.1067675341271
30
0
41
1
10
21.9874096525933
20
-1.09415592482276
30
0
41
1
10
21.9630309725378
20
-1.08969289274077
30
0
41
1
10
21.9142271394402
20
-1.08039135933572
30
0
41
1
10
21.8898003175588
20
-1.07554875174074
30
0
41
1
10
21.8166457451493
20
-1.06049598861495
30
0
41
1
10
21.7679575503068
20
-1.04976943099246
30
0
41
1
10
21.6706478622767
20
-1.02686580058597
30
0
41
1
10
21.6220533530586
20
-1.01465066046441
30
0
41
1
10
21.5251629875473
20
-0.988274531289591
30
0
41
1
10
21.4768816733158
20
-0.974071618566796
30
0
41
1
10
21.3804425571857
20
-0.943792032645263
30
0
41
1
10
21.3322476762772
20
-0.927818982764762
30
0
41
1
10
21.2357766481876
20
-0.894720883579396
30
0
41
1
10
21.1875164182748
20
-0.877553016358831
30
0
41
1
10
21.0910129470675
20
-0.841904615106671
30
0
41
1
10
21.042817033686
20
-0.823350551861807
30
0
41
1
10
20.9462884589615
20
-0.784922716373075
30
0
41
1
10
20.8979328708338
20
-0.765084211394623
30
0
41
1
10
20.8010994202686
20
-0.723932546979256
30
0
41
1
10
20.7526227985175
20
-0.702622065156731
30
0
41
1
10
20.6555388113617
20
-0.65889287267558
30
0
41
1
10
20.606925302602
20
-0.636494201783876
30
0
41
1
10
20.5093885150674
20
-0.590682226432619
30
0
41
1
10
20.4603746090158
20
-0.567238601542442
30
0
41
1
10
20.3627840492118
20
-0.519503101364762
30
0
41
1
10
20.3141633290472
20
-0.495153375193581
30
0
41
1
10
20.2172881082109
20
-0.445426716454108
30
0
41
1
10
20.1690358931018
20
-0.420033088046296
30
0
41
1
10
20.0725150646669
20
-0.368962792465339
30
0
41
1
10
20.0242456735307
20
-0.343303145020229
30
0
41
1
10
19.927747062975
20
-0.291662346581631
30
0
41
1
10
19.8795240502081
20
-0.265664487941507
30
0
41
1
10
19.7831860515668
20
-0.213193149381539
30
0
41
1
10
19.7350190397505
20
-0.186811886564101
30
0
41
1
10
19.6385487081687
20
-0.133994623584783
30
0
41
1
10
19.5902827895646
20
-0.107491987262847
30
0
41
1
10
19.4937593328429
20
-0.0541465407121962
30
0
41
1
10
19.445532122593
20
-0.0272462797354933
30
0
41
1
10
19.3489699861023
20
0.0267209410878309
30
0
41
1
10
19.3005825022502
20
0.0536914819378467
30
0
41
1
10
19.2035957927803
20
0.10762739586977
30
0
41
1
10
19.1549921002015
20
0.134574954266498
30
0
41
1
10
19.0819340837905
20
0.174930877561138
30
0
41
1
10
19.0575590975681
20
0.188379680113229
30
0
41
1
10
19.0087457408065
20
0.215243274269312
30
0
41
1
10
18.9843168001421
20
0.228651504890337
30
0
41
1
10
18.9111940947284
20
0.268593739114834
30
0
41
1
10
18.8625418698874
20
0.294851283544119
30
0
41
1
10
18.765267339227
20
0.346636340100616
30
0
41
1
10
18.7166712685929
20
0.372214905299813
30
0
41
1
10
18.6197064488919
20
0.42286020172881
30
0
41
1
10
18.5713178077122
20
0.447885602630777
30
0
41
1
10
18.4745332986893
20
0.496978357021874
30
0
41
1
10
18.4261304371766
20
0.521037597408338
30
0
41
1
10
18.3294059172573
20
0.568328256482204
30
0
41
1
10
18.2811064269693
20
0.591597236706349
30
0
41
1
10
18.1845458478592
20
0.637159358736255
30
0
41
1
10
18.1362653695488
20
0.65942095486821
30
0
41
1
10
18.0395638857656
20
0.702612999020829
30
0
41
1
10
17.9911624136735
20
0.723540153209285
30
0
41
1
10
17.8942204816653
20
0.764230250358764
30
0
41
1
10
17.8456973348749
20
0.784074944237773
30
0
41
1
10
17.7485077023968
20
0.822714738674847
30
0
41
1
10
17.6997758009714
20
0.841382970195241
30
0
41
1
10
17.6264376165547
20
0.868278173837126
30
0
41
1
10
17.6019301874356
20
0.877072994486156
30
0
41
1
10
17.5529809750962
20
0.894255644409725
30
0
41
1
10
17.5285434616916
20
0.902641839663033
30
0
41
1
10
17.4553638185967
20
0.927200228698013
30
0
41
1
10
17.4067906446431
20
0.942781177275748
30
0
41
1
10
17.3097700903147
20
0.972169186607857
30
0
41
1
10
17.2612990522555
20
0.986027710899947
30
0
41
1
10
17.1643628312435
20
1.01232309617095
30
0
41
1
10
17.1159227830137
20
1.02472397932885
30
0
41
1
10
17.0192162671569
20
1.04789035631632
30
0
41
1
10
16.9709745399285
20
1.05867975061398
30
0
41
1
10
16.8744303237358
20
1.0783689718395
30
0
41
1
10
16.8261263008198
20
1.08727534101863
30
0
41
1
10
16.7295202257622
20
1.10317800541537
30
0
41
1
10
16.6812162441291
20
1.1101689274999
30
0
41
1
10
16.5846377764581
20
1.12206630040615
30
0
41
1
10
16.5363733554208
20
1.1269770201252
30
0
41
1
10
16.4395291029435
20
1.13466143008685
30
0
41
1
10
16.3909878477479
20
1.13744710213646
30
0
41
1
10
16.293686502321
20
1.14159734453713
30
0
41
1
10
16.2449278411021
20
1.1429981692167
30
0
41
1
10
16.183765104764
20
1.14368609404192
30
0
41
1
10
16.1714455358394
20
1.14376886139146
30
0
41
1
10
16.1591221008869
20
1.14379518744573
30
0
0
SPLINE
5
DB
100
AcDbEntity
8
SK1
62
256
6
ByLayer
370
18
48
1
60
0
100
AcDbSpline
70
4
71
3
72
70
73
66
40
0
40
0
40
0
40
0
40
0.0039841068895697
40
0.0039841068895697
40
0.0341664066807914
40
0.0341664066807914
40
0.0643487064720135
40
0.0643487064720135
40
0.0945310062632357
40
0.0945310062632357
40
0.124713306054458
40
0.124713306054458
40
0.15489560584568
40
0.15489560584568
40
0.185077905636902
40
0.185077905636902
40
0.215260205428124
40
0.215260205428124
40
0.245442505219346
40
0.245442505219346
40
0.275624805010569
40
0.275624805010569
40
0.335989404593017
40
0.335989404593017
40
0.366171704384242
40
0.366171704384242
40
0.396354004175468
40
0.396354004175468
40
0.426536303966693
40
0.426536303966693
40
0.456718603757919
40
0.456718603757919
40
0.486900903549144
40
0.486900903549144
40
0.51708320334037
40
0.51708320334037
40
0.547265503131596
40
0.547265503131596
40
0.577447802922821
40
0.577447802922821
40
0.607630102714047
40
0.607630102714047
40
0.637812402505274
40
0.637812402505274
40
0.667994702296501
40
0.667994702296501
40
0.698177002087728
40
0.698177002087728
40
0.728359301878956
40
0.728359301878956
40
0.758541601670183
40
0.758541601670183
40
0.78872390146141
40
0.78872390146141
40
0.818906201252638
40
0.818906201252638
40
0.849088501043865
40
0.849088501043865
40
0.879270800835092
40
0.879270800835092
40
0.939635400417547
40
0.939635400417547
40
0.969817700208773
40
0.969817700208773
40
1
40
1
40
1
40
1
41
1
10
11.4159183704283
20
-0.76210083754242
30
0
41
1
10
11.4094918013745
20
-0.764741334878693
30
0
41
1
10
11.4030663332892
20
-0.767370646817653
30
0
41
1
10
11.3479739713059
20
-0.789822956421688
30
0
41
1
10
11.2994015784178
20
-0.809008405630493
30
0
41
1
10
11.2020551282269
20
-0.845667924467563
30
0
41
1
10
11.1532912178599
20
-0.863231736906471
30
0
41
1
10
11.0555735533909
20
-0.897162858115991
30
0
41
1
10
11.0066550609119
20
-0.913485574455962
30
0
41
1
10
10.9092369087311
20
-0.944727831453861
30
0
41
1
10
10.8606512585203
20
-0.959625151336979
30
0
41
1
10
10.7635289798503
20
-0.987684189515704
30
0
41
1
10
10.7150166598635
20
-1.00087658882467
30
0
41
1
10
10.6181563848341
20
-1.02557637990608
30
0
41
1
10
10.5698206229093
20
-1.03709256658144
30
0
41
1
10
10.4733148403842
20
-1.05834124866297
30
0
41
1
10
10.4251245990575
20
-1.06805269179489
30
0
41
1
10
10.3286808694787
20
-1.08530028669736
30
0
41
1
10
10.280459620217
20
-1.09285734074706
30
0
41
1
10
10.1839727633411
20
-1.10638169789311
30
0
41
1
10
10.1357256764382
20
-1.11237981680239
30
0
41
1
10
9.99088844583613
20
-1.12777374261466
30
0
41
1
10
9.89389841091236
20
-1.13447600127907
30
0
41
1
10
9.7479599298546
20
-1.13830403455083
30
0
41
1
10
9.69924904145427
20
-1.1384739097588
30
0
41
1
10
9.60153003757119
20
-1.1369688027921
30
0
41
1
10
9.55266822383146
20
-1.1353806707854
30
0
41
1
10
9.45508496734084
20
-1.13065643306015
30
0
41
1
10
9.4063588762894
20
-1.12748452407476
30
0
41
1
10
9.30918037021254
20
-1.11932852621933
30
0
41
1
10
9.26071487783372
20
-1.11434037780117
30
0
41
1
10
9.16385095765304
20
-1.10249862765565
30
0
41
1
10
9.11543192477976
20
-1.09566165138906
30
0
41
1
10
9.01869912312173
20
-1.08004058030448
30
0
41
1
10
8.97040997600629
20
-1.07123596463129
30
0
41
1
10
8.87392991882541
20
-1.05158792942584
30
0
41
1
10
8.82571616302795
20
-1.04076292917767
30
0
41
1
10
8.72913697152481
20
-1.01732928823037
30
0
41
1
10
8.68078154182516
20
-1.00474102083024
30
0
41
1
10
8.58395027613207
20
-0.97812269513139
30
0
41
1
10
8.53548900482889
20
-0.964061806455248
30
0
41
1
10
8.43848713088485
20
-0.934353299901261
30
0
41
1
10
8.38987575850399
20
-0.918776737649836
30
0
41
1
10
8.2923366495292
20
-0.886265451060012
30
0
41
1
10
8.24343544616201
20
-0.869294244286522
30
0
41
1
10
8.14547821327778
20
-0.833744219971351
30
0
41
1
10
8.09666670455664
20
-0.815278362792071
30
0
41
1
10
7.99924887352489
20
-0.777114924648146
30
0
41
1
10
7.95064046185223
20
-0.757422668186763
30
0
41
1
10
7.85360745824553
20
-0.716811562770204
30
0
41
1
10
7.80517168400945
20
-0.69590956655
30
0
41
1
10
7.70855541884976
20
-0.652733888314856
30
0
41
1
10
7.66037465175447
20
-0.63044959396359
30
0
41
1
10
7.56401772842972
20
-0.584905042041498
30
0
41
1
10
7.51582108166844
20
-0.56170320681025
30
0
41
1
10
7.41933596464889
20
-0.514774249435391
30
0
41
1
10
7.37107507010717
20
-0.490965887761945
30
0
41
1
10
7.27457936882129
20
-0.442471165261566
30
0
41
1
10
7.2263546501174
20
-0.417767917706641
30
0
41
1
10
7.08134532183652
20
-0.342934406825265
30
0
41
1
10
6.98429438997513
20
-0.291982747299954
30
0
41
1
10
6.83845821957863
20
-0.213180051205882
30
0
41
1
10
6.78974655205502
20
-0.18661708535663
30
0
41
1
10
6.691924142792
20
-0.13325686804663
30
0
41
1
10
6.64291391366299
20
-0.106415975941474
30
0
41
1
10
6.59398068878488
20
-0.0794943816872262
30
0
0
SPLINE
5
DC
100
AcDbEntity
8
SK1
62
256
6
ByLayer
370
18
48
1
60
0
100
AcDbSpline
70
4
71
3
72
11
73
7
40
0
40
0
40
0
40
0
40
0.5
40
0.75
40
0.75
40
1
40
1
40
1
40
1
41
1
10
26.5818893114179
20
-1.16715381985662
30
0
41
1
10
26.6420937637002
20
-1.07760776185427
30
0
41
1
10
26.732794397282
20
-0.941440372776896
30
0
41
1
10
26.8241121885737
20
-0.802377492040762
30
0
41
1
10
26.8851308783125
20
-0.709011312007561
30
0
41
1
10
26.9157286886205
20
-0.66197097237648
30
0
41
1
10
26.9463544355721
20
-0.614662296047982
30
0
0
SPLINE
5
DD
100
AcDbEntity
8
SK1
62
256
6
ByLayer
370
18
48
1
60
0
100
AcDbSpline
70
4
71
3
72
12
73
8
40
0
40
0
40
0
40
0
40
0.500000000000001
40
0.500000000000001
40
0.75
40
0.75
40
1
40
1
40
1
40
1
41
1
10
6.59398068876629
20
-0.0794943816769944
30
0
41
1
10
6.57175957892244
20
-0.0672689928009333
30
0
41
1
10
6.54946538493624
20
-0.0563065300642052
30
0
41
1
10
6.51613561522763
20
-0.041556196922528
30
0
41
1
10
6.50495556737209
20
-0.0368897820698351
30
0
41
1
10
6.48326968534988
20
-0.0283510264415554
30
0
41
1
10
6.47274038138579
20
-0.0244629417328213
30
0
41
1
10
6.4625515232897
20
-0.0209343781922939
30
0
0
SPLINE
5
DE
100
AcDbEntity
8
SK1
62
256
6
ByLayer
370
18
48
1
60
0
100
AcDbSpline
70
4
71
3
72
61
73
57
40
0
40
0
40
0
40
0
40
0.0245905295104634
40
0.0245905295104634
40
0.0726189656346052
40
0.0726189656346052
40
0.120647401758747
40
0.120647401758747
40
0.132654510789782
40
0.144661619820818
40
0.144661619820818
40
0.168675837882886
40
0.168675837882886
40
0.216704274007023
40
0.216704274007023
40
0.26473271013116
40
0.26473271013116
40
0.312761146255297
40
0.312761146255297
40
0.336775364317367
40
0.336775364317367
40
0.360789582379437
40
0.360789582379437
40
0.408818018503574
40
0.408818018503574
40
0.456846454627711
40
0.456846454627711
40
0.504874890751848
40
0.504874890751848
40
0.552903326875985
40
0.552903326875985
40
0.576917544938052
40
0.576917544938052
40
0.600931763000119
40
0.600931763000119
40
0.648960199124254
40
0.648960199124254
40
0.696988635248388
40
0.696988635248388
40
0.745017071372523
40
0.745017071372523
40
0.769031289434591
40
0.769031289434591
40
0.793045507496658
40
0.793045507496658
40
0.84107394362079
40
0.84107394362079
40
0.889102379744922
40
0.889102379744922
40
0.937130815869055
40
0.937130815869055
40
0.985159251993187
40
0.985159251993187
40
0.997166361024219
40
0.997166361024219
40
1
40
1
40
1
40
1
41
1
10
20.1163168390511
20
-1.18435995779055
30
0
41
1
10
20.0634609291969
20
-1.18429787825224
30
0
41
1
10
20.0106400203649
20
-1.18306965880635
30
0
41
1
10
19.8546903210955
20
-1.17600459765831
30
0
41
1
10
19.7515308218128
20
-1.16688556136529
30
0
41
1
10
19.5445143242638
20
-1.13986194281398
30
0
41
1
10
19.4406488420457
20
-1.12196782095208
30
0
41
1
10
19.3100443429943
20
-1.09417304788073
30
0
41
1
10
19.2576707606791
20
-1.0824981135724
30
0
41
1
10
19.2054571503242
20
-1.06981863881418
30
0
41
1
10
19.1272459812166
20
-1.05005991435914
30
0
41
1
10
19.0752536371578
20
-1.03589893186057
30
0
41
1
10
18.9196003100371
20
-0.990585431999904
30
0
41
1
10
18.8162433353854
20
-0.956622065789219
30
0
41
1
10
18.6098089944276
20
-0.881834353007719
30
0
41
1
10
18.5067307191985
20
-0.841006734837123
30
0
41
1
10
18.3001829639556
20
-0.753303683862327
30
0
41
1
10
18.1967007387081
20
-0.706450394302067
30
0
41
1
10
18.0407819019486
20
-0.632151352723156
30
0
41
1
10
17.9886905256224
20
-0.606719097521136
30
0
41
1
10
17.8842329499267
20
-0.554554661110075
30
0
41
1
10
17.8318337225451
20
-0.527780082031683
30
0
41
1
10
17.6754038805695
20
-0.446352838715057
30
0
41
1
10
17.5716721458751
20
-0.390475262023386
30
0
41
1
10
17.3646695755719
20
-0.276680157346476
30
0
41
1
10
17.2614100676951
20
-0.218744930905928
30
0
41
1
10
17.0550491848548
20
-0.101370663158718
30
0
41
1
10
16.951852054083
20
-0.0420984225987979
30
0
41
1
10
16.7447694942944
20
0.0764534019587586
30
0
41
1
10
16.6408920160981
20
0.135745535128365
30
0
41
1
10
16.484273192603
20
0.224189912647233
30
0
41
1
10
16.4318356215496
20
0.253598413307316
30
0
41
1
10
16.3274365770313
20
0.311630455830255
30
0
41
1
10
16.2753997575224
20
0.340322324713583
30
0
41
1
10
16.119620572307
20
0.425167493582023
30
0
41
1
10
16.016162963052
20
0.480011492850167
30
0
41
1
10
15.8094739385206
20
0.585429963321843
30
0
41
1
10
15.7062547901393
20
0.63602697697408
30
0
41
1
10
15.4996467865514
20
0.732343007757805
30
0
41
1
10
15.3961961858327
20
0.777968823598968
30
0
41
1
10
15.2403719377455
20
0.8419641122222
30
0
41
1
10
15.188323627013
20
0.862556855206321
30
0
41
1
10
15.0839423745956
20
0.902156336649512
30
0
41
1
10
15.03150859696
20
0.921196964592838
30
0
41
1
10
14.8748085521633
20
0.975370344615669
30
0
41
1
10
14.7709239440962
20
1.00764671377124
30
0
41
1
10
14.5638219365113
20
1.06423459124323
30
0
41
1
10
14.4605545096986
20
1.08849709342218
30
0
41
1
10
14.2539728880029
20
1.1286279917021
30
0
41
1
10
14.150658812839
20
1.1445066060071
30
0
41
1
10
13.9436143844662
20
1.16763611424352
30
0
41
1
10
13.8398164404797
20
1.17485451236982
30
0
41
1
10
13.7093593637765
20
1.17824241924163
30
0
41
1
10
13.6832328990456
20
1.17863828394147
30
0
41
1
10
13.6508917959906
20
1.17877606881794
30
0
41
1
10
13.6447145844304
20
1.17878649595141
30
0
41
1
10
13.6385366442976
20
1.17878106055795
30
0
0
SPLINE
5
DF
100
AcDbEntity
8
SK1
62
256
6
ByLayer
370
18
48
1
60
0
100
AcDbSpline
70
4
71
3
72
8
73
4
40
0
40
0
40
0
40
0
40
1
40
1
40
1
40
1
41
1
10
7.16183782667124
20
-1.17320480639205
30
0
41
1
10
6.9655187105613
20
-1.17307737187147
30
0
41
1
10
6.76872998266981
20
-1.15692457907534
30
0
41
1
10
6.56947558371203
20
-1.12483175566462
30
0
0
SPLINE
5
E0
100
AcDbEntity
8
SK1
62
256
6
ByLayer
370
18
48
1
60
0
100
AcDbSpline
70
4
71
3
72
18
73
14
40
0
40
0
40
0
40
0
40
0.24999999999997
40
0.24999999999997
40
0.49999999999994
40
0.49999999999994
40
0.624999999999955
40
0.624999999999955
40
0.74999999999997
40
0.74999999999997
40
0.874999999999985
40
0.874999999999985
40
1
40
1
40
1
40
1
41
1
10
6.5694755837105
20
-1.12483175566004
30
0
41
1
10
6.55923299077867
20
-1.12318203686866
30
0
41
1
10
6.5490821754488
20
-1.12145364673259
30
0
41
1
10
6.52908384119851
20
-1.11777297382375
30
0
41
1
10
6.51923332944477
20
-1.11582318855827
30
0
41
1
10
6.50497927523583
20
-1.11257453021528
30
0
41
1
10
6.50031688998197
20
-1.11143651790241
30
0
41
1
10
6.49126551347851
20
-1.10899699027792
30
0
41
1
10
6.48685060801125
20
-1.10768813242345
30
0
41
1
10
6.47859344370195
20
-1.10485952587038
30
0
41
1
10
6.47475103156063
20
-1.10334575566344
30
0
41
1
10
6.46802074692221
20
-1.09999215670965
30
0
41
1
10
6.4651301548457
20
-1.09815602891521
30
0
41
1
10
6.46331283518359
20
-1.09612709315215
30
0
0
SPLINE
5
E1
100
AcDbEntity
8
SK1
62
256
6
ByLayer
370
18
48
1
60
0
100
AcDbSpline
70
4
71
3
72
8
73
4
40
0
40
0
40
0
40
0
40
1
40
1
40
1
40
1
41
1
10
6.46331283518387
20
-1.09612709315204
30
0
41
1
10
6.46216427309958
20
-1.09484478782201
30
0
41
1
10
6.46148296587725
20
-1.09352013804681
30
0
41
1
10
6.46148873863109
20
-1.09213780168145
30
0
0
SPLINE
5
E2
100
AcDbEntity
8
SK1
62
256
6
ByLayer
370
18
48
1
60
0
100
AcDbSpline
70
4
71
3
72
32
73
28
40
0
40
0
40
0
40
0
40
0.125
40
0.125
40
0.187499999999999
40
0.187499999999999
40
0.218749999999999
40
0.218749999999999
40
0.249999999999999
40
0.249999999999999
40
0.374999999999999
40
0.499999999999998
40
0.499999999999998
40
0.531249999999998
40
0.531249999999998
40
0.562499999999998
40
0.624999999999998
40
0.624999999999998
40
0.749999999999998
40
0.749999999999998
40
0.781249999999999
40
0.781249999999999
40
0.812499999999999
40
0.812499999999999
40
0.874999999999999
40
0.874999999999999
40
1
40
1
40
1
40
1
41
1
10
6.46148873855509
20
-1.09213780167661
30
0
41
1
10
6.46157654532391
20
-1.07111170476031
30
0
41
1
10
6.46165207204282
20
-1.04629956144566
30
0
41
1
10
6.46175162942265
20
-1.00348690888714
30
0
41
1
10
6.46178251988346
20
-0.98827983434947
30
0
41
1
10
6.46182595886972
20
-0.964040938762906
30
0
41
1
10
6.46183995560068
20
-0.955723015731223
30
0
41
1
10
6.4618670726648
20
-0.938603509724402
30
0
41
1
10
6.46188021112852
20
-0.929787350127071
30
0
41
1
10
6.46194344386672
20
-0.884841038040975
30
0
41
1
10
6.46202978364977
20
-0.806991206955843
30
0
41
1
10
6.46209991631665
20
-0.717663962899991
30
0
41
1
10
6.46214214359225
20
-0.658132279476604
30
0
41
1
10
6.46215052381811
20
-0.646013939328782
30
0
41
1
10
6.46216708652597
20
-0.621564206296256
30
0
41
1
10
6.46219164363396
20
-0.584558160934904
30
0
41
1
10
6.46221569885373
20
-0.546574414031767
30
0
41
1
10
6.46226392467946
20
-0.469326713468604
30
0
41
1
10
6.46229627556593
20
-0.416128176682378
30
0
41
1
10
6.46233879389237
20
-0.347477244981832
30
0
41
1
10
6.46234739781738
20
-0.333638873454703
30
0
41
1
10
6.46236483724974
20
-0.305742811681739
30
0
41
1
10
6.46237368969273
20
-0.291658418117805
30
0
41
1
10
6.46240050515001
20
-0.249270861455557
30
0
41
1
10
6.46241867023679
20
-0.220926575582411
30
0
41
1
10
6.46247411186269
20
-0.135642978150003
30
0
41
1
10
6.46251238981313
20
-0.0784542410799531
30
0
41
1
10
6.46255152329371
20
-0.0209343781965288
30
0
0
SPLINE
5
E3
100
AcDbEntity
8
SK1
62
256
6
ByLayer
370
18
48
1
60
0
100
AcDbSpline
70
4
71
3
72
34
73
30
40
0
40
0
40
0
40
0
40
0.125000000000003
40
0.125000000000003
40
0.187500000000004
40
0.187500000000004
40
0.250000000000006
40
0.250000000000006
40
0.375000000000005
40
0.375000000000005
40
0.437500000000004
40
0.437500000000004
40
0.500000000000004
40
0.500000000000004
40
0.562500000000003
40
0.562500000000003
40
0.625000000000003
40
0.625000000000003
40
0.687500000000003
40
0.687500000000003
40
0.750000000000002
40
0.750000000000002
40
0.812500000000002
40
0.812500000000002
40
0.875000000000001
40
0.875000000000001
40
0.937500000000001
40
0.937500000000001
40
1
40
1
40
1
40
1
41
1
10
4.45873030573614
20
0.955421615212231
30
0
41
1
10
4.54288607605267
20
0.927726678990894
30
0
41
1
10
4.62680083848261
20
0.897961732318862
30
0
41
1
10
4.7521917372832
20
0.850167840234207
30
0
41
1
10
4.79390843437108
20
0.833709818628535
30
0
41
1
10
4.87717556319322
20
0.799729753323504
30
0
41
1
10
4.91874841152196
20
0.782234909194358
30
0
41
1
10
5.04355457467315
20
0.728614955859172
30
0
41
1
10
5.12674858764728
20
0.691199194087318
30
0
41
1
10
5.25131200940015
20
0.632251253860545
30
0
41
1
10
5.29281152276721
20
0.612150681687723
30
0
41
1
10
5.37597973035645
20
0.571373727265552
30
0
41
1
10
5.41762415177735
20
0.550662248637991
30
0
41
1
10
5.50099523242255
20
0.508533607479336
30
0
41
1
10
5.54272256804745
20
0.487117388358627
30
0
41
1
10
5.6262398080485
20
0.443532664656885
30
0
41
1
10
5.66802923291891
20
0.421361625290018
30
0
41
1
10
5.75180483425899
20
0.376481465172475
30
0
41
1
10
5.79380167587533
20
0.353792140031032
30
0
41
1
10
5.87804779858885
20
0.307975019052918
30
0
41
1
10
5.92019489827132
20
0.284870877217145
30
0
41
1
10
6.00412776801815
20
0.238354342609824
30
0
41
1
10
6.04596313939189
20
0.214907973732437
30
0
41
1
10
6.12951560975347
20
0.167900443425822
30
0
41
1
10
6.17124329376179
20
0.144358385593762
30
0
41
1
10
6.25465090311266
20
0.0972851125997352
30
0
41
1
10
6.29631639913347
20
0.0737276631000725
30
0
41
1
10
6.37951211290238
20
0.0264650836613782
30
0
41
1
10
6.42103684167387
20
0.0027502903387813
30
0
41
1
10
6.46255152329488
20
-0.0209343781966709
30
0
0
SPLINE
5
E4
100
AcDbEntity
8
SK1
62
256
6
ByLayer
370
18
48
1
60
0
100
AcDbSpline
70
4
71
3
72
10
73
6
40
0
40
0
40
0
40
0
40
0.5
40
0.5
40
1
40
1
40
1
40
1
41
1
10
4.45873030573617
20
0.955421615212174
30
0
41
1
10
4.45406221053543
20
0.956957844972408
30
0
41
1
10
4.44980014282709
20
0.958773898648531
30
0
41
1
10
4.44197914338463
20
0.962870736597921
30
0
41
1
10
4.43840912920894
20
0.965168303261521
30
0
41
1
10
4.43528991194793
20
0.967625572232294
30
0
0
SPLINE
5
E5
100
AcDbEntity
8
SK1
62
256
6
ByLayer
370
18
48
1
60
0
100
AcDbSpline
70
4
71
3
72
92
73
88
40
0
40
0
40
0
40
0
40
0.0369128891269051
40
0.0369128891269051
40
0.0583988585801759
40
0.0583988585801759
40
0.0798848280334467
40
0.0798848280334467
40
0.122856766939988
40
0.122856766939988
40
0.144342736393259
40
0.144342736393259
40
0.16582870584653
40
0.16582870584653
40
0.187314675299801
40
0.187314675299801
40
0.208800644753072
40
0.208800644753072
40
0.219543629479708
40
0.219543629479708
40
0.230286614206344
40
0.230286614206344
40
0.251772583659615
40
0.251772583659615
40
0.273258553112886
40
0.273258553112886
40
0.294744522566157
40
0.294744522566157
40
0.316230492019428
40
0.316230492019428
40
0.337716461472699
40
0.337716461472699
40
0.38068840037924
40
0.38068840037924
40
0.391431385105875
40
0.391431385105875
40
0.40217436983251
40
0.40217436983251
40
0.423660339285782
40
0.423660339285782
40
0.466632278192325
40
0.466632278192325
40
0.509604217098869
40
0.509604217098869
40
0.531090186552141
40
0.531090186552141
40
0.552576156005412
40
0.552576156005412
40
0.563319140732047
40
0.563319140732047
40
0.574062125458682
40
0.574062125458682
40
0.595548094911952
40
0.595548094911952
40
0.617034064365222
40
0.617034064365222
40
0.638520033818492
40
0.638520033818492
40
0.660006003271762
40
0.660006003271762
40
0.681491972725032
40
0.681491972725032
40
0.724463911631572
40
0.724463911631572
40
0.735206896358206
40
0.735206896358206
40
0.74594988108484
40
0.74594988108484
40
0.767435850538108
40
0.767435850538108
40
0.810407789444646
40
0.810407789444646
40
0.853379728351183
40
0.853379728351183
40
0.874865697804452
40
0.874865697804452
40
0.896351667257721
40
0.896351667257721
40
0.91783763671099
40
0.91783763671099
40
0.939323606164259
40
0.939323606164259
40
0.960809575617528
40
0.960809575617528
40
0.982295545070797
40
0.982295545070797
40
1
40
1
40
1
40
1
41
1
10
26.1776628106494
20
-1.18957658792053
30
0
41
1
10
26.0761034697388
20
-1.18948845770967
30
0
41
1
10
25.9743564712857
20
-1.1850772741665
30
0
41
1
10
25.8126117822161
20
-1.17117770648531
30
0
41
1
10
25.752887672584
20
-1.16457751809415
30
0
41
1
10
25.6331878730229
20
-1.14842622311298
30
0
41
1
10
25.5735597501588
20
-1.13891779779453
30
0
41
1
10
25.3951679837828
20
-1.10624529441711
30
0
41
1
10
25.2767827230848
20
-1.07901528820105
30
0
41
1
10
25.0996164644927
20
-1.03043937410615
30
0
41
1
10
25.0406143791529
20
-1.01296638499875
30
0
41
1
10
24.9225263232684
20
-0.97564801568501
30
0
41
1
10
24.8634644333654
20
-0.955783286994489
30
0
41
1
10
24.7453013479572
20
-0.913628028204784
30
0
41
1
10
24.6861788180945
20
-0.891355995424277
30
0
41
1
10
24.5676202779017
20
-0.844680335500698
30
0
41
1
10
24.5082002664074
20
-0.82026285801507
30
0
41
1
10
24.4188789843631
20
-0.781960387206396
30
0
41
1
10
24.3890719194014
20
-0.768914437571993
30
0
41
1
10
24.3293560728663
20
-0.742307119553175
30
0
41
1
10
24.2994115203665
20
-0.728729243411209
30
0
41
1
10
24.2096814144989
20
-0.687419196919791
30
0
41
1
10
24.150030729629
20
-0.65913496794451
30
0
41
1
10
24.0310972000301
20
-0.601052335932877
30
0
41
1
10
23.971821161102
20
-0.571241077381387
30
0
41
1
10
23.8534081790801
20
-0.51046980635877
30
0
41
1
10
23.7942595543299
20
-0.479530452704665
30
0
41
1
10
23.6760836450728
20
-0.41654479405662
30
0
41
1
10
23.6170729196062
20
-0.384469584683671
30
0
41
1
10
23.4990028119838
20
-0.319491973568972
30
0
41
1
10
23.4399333456412
20
-0.286607743077752
30
0
41
1
10
23.2625277046198
20
-0.186930547401374
30
0
41
1
10
23.1440802967829
20
-0.118956997475664
30
0
41
1
10
22.9950586666147
20
-0.0333575130748329
30
0
41
1
10
22.9652083631717
20
-0.0162023968197786
30
0
41
1
10
22.9054075188727
20
0.018165029700441
30
0
41
1
10
22.8754268547127
20
0.0353940718568708
30
0
41
1
10
22.785728694607
20
0.0869379865673636
30
0
41
1
10
22.7261631966985
20
0.121169690950637
30
0
41
1
10
22.5478272152743
20
0.222876966718672
30
0
41
1
10
22.4294507318373
20
0.289435777454884
30
0
41
1
10
22.1931766984417
20
0.419174067043883
30
0
41
1
10
22.0750925529839
20
0.48203780161424
30
0
41
1
10
21.8976767989854
20
0.572715664615345
30
0
41
1
10
21.8384887610394
20
0.602334100458705
30
0
41
1
10
21.7197960621924
20
0.660009134010153
30
0
41
1
10
21.6602990688386
20
0.688079737418491
30
0
41
1
10
21.5708405364173
20
0.729041311066936
30
0
41
1
10
21.5409852806856
20
0.742503681091762
30
0
41
1
10
21.4811691332833
20
0.768992273599423
30
0
41
1
10
21.4512019773688
20
0.782020287020202
30
0
41
1
10
21.3615319121224
20
0.820204617406318
30
0
41
1
10
21.3019105758661
20
0.844521605531725
30
0
41
1
10
21.1830146086477
20
0.890965005381645
30
0
41
1
10
21.1237502348962
20
0.913097606006573
30
0
41
1
10
21.0053421390436
20
0.954919923302441
30
0
41
1
10
20.9461829480514
20
0.974598423053294
30
0
41
1
10
20.827968288775
20
1.01153045421137
30
0
41
1
10
20.7689332644028
20
1.02879896223305
30
0
41
1
10
20.6508029431226
20
1.06074673453529
30
0
41
1
10
20.5916844908592
20
1.07541027868831
30
0
41
1
10
20.4141134508998
20
1.11542918623275
30
0
41
1
10
20.2955365879532
20
1.13685410808674
30
0
41
1
10
20.1462893037742
20
1.15645620512046
30
0
41
1
10
20.1163943535391
20
1.16002134377729
30
0
41
1
10
20.0565075073704
20
1.16643107302445
30
0
41
1
10
20.0265500668326
20
1.16927118992084
30
0
41
1
10
19.9369157815498
20
1.17666159034746
30
0
41
1
10
19.8773485150012
20
1.18009413437136
30
0
41
1
10
19.699029420857
20
1.18596100742056
30
0
41
1
10
19.580699998465
20
1.18397092294734
30
0
41
1
10
19.3442983777078
20
1.16841757098186
30
0
41
1
10
19.2261757799906
20
1.15487155809663
30
0
41
1
10
19.048590835763
20
1.12604151984138
30
0
41
1
10
18.9893343291444
20
1.1150061293439
30
0
41
1
10
18.8705047368513
20
1.09017164989905
30
0
41
1
10
18.8109341706178
20
1.07637595407053
30
0
41
1
10
18.6914757651848
20
1.04598224889895
30
0
41
1
10
18.6314711221052
20
1.02933720556769
30
0
41
1
10
18.5119774821778
20
0.99370545709931
30
0
41
1
10
18.452379763897
20
0.974715726985835
30
0
41
1
10
18.3335076107941
20
0.934399805460373
30
0
41
1
10
18.2742464293634
20
0.913054538907971
30
0
41
1
10
18.1558319688815
20
0.868278574562822
30
0
41
1
10
18.096660570292
20
0.844873631543692
30
0
41
1
10
17.9888087746525
20
0.800330908333194
30
0
41
1
10
17.9401306884081
20
0.779496280901526
30
0
41
1
10
17.8914398656703
20
0.758023043239604
30
0
0
SPLINE
5
E6
100
AcDbEntity
8
SK1
62
256
6
ByLayer
370
18
48
1
60
0
100
AcDbSpline
70
4
71
3
72
98
73
94
40
0
40
0
40
0
40
0
40
0.020064805867107
40
0.020064805867107
40
0.0308756165919648
40
0.0308756165919648
40
0.0416864273168226
40
0.0416864273168226
40
0.0633080487665383
40
0.0633080487665383
40
0.084929670216254
40
0.084929670216254
40
0.10655129166597
40
0.10655129166597
40
0.128172913115685
40
0.128172913115685
40
0.149794534565401
40
0.149794534565401
40
0.193037777464831
40
0.193037777464831
40
0.203848588189687
40
0.203848588189687
40
0.214659398914544
40
0.214659398914544
40
0.236281020364258
40
0.236281020364258
40
0.257902641813973
40
0.257902641813973
40
0.279524263263688
40
0.279524263263688
40
0.301145884713403
40
0.301145884713403
40
0.322767506163118
40
0.322767506163118
40
0.366010749062549
40
0.366010749062549
40
0.376821559787407
40
0.376821559787407
40
0.387632370512265
40
0.387632370512265
40
0.409253991961983
40
0.409253991961983
40
0.4308756134117
40
0.4308756134117
40
0.452497234861418
40
0.452497234861418
40
0.474118856311135
40
0.474118856311135
40
0.495740477760853
40
0.495740477760853
40
0.538983720660288
40
0.538983720660288
40
0.549794531385146
40
0.549794531385146
40
0.560605342110004
40
0.560605342110004
40
0.582226963559718
40
0.582226963559718
40
0.603848585009432
40
0.603848585009432
40
0.625470206459146
40
0.625470206459146
40
0.647091827908859
40
0.647091827908859
40
0.668713449358573
40
0.668713449358573
40
0.690335070808287
40
0.690335070808287
40
0.711956692258001
40
0.711956692258001
40
0.722767502982858
40
0.722767502982858
40
0.733578313707715
40
0.733578313707715
40
0.755199935157428
40
0.755199935157428
40
0.798443178056855
40
0.798443178056855
40
0.841686420956281
40
0.841686420956281
40
0.884929663855708
40
0.884929663855708
40
0.906551285305422
40
0.906551285305422
40
0.928172906755135
40
0.928172906755135
40
0.949794528204848
40
0.949794528204848
40
0.971416149654561
40
0.971416149654561
40
0.993037771104274
40
0.993037771104274
40
1
40
1
40
1
40
1
41
1
10
13.2142595044949
20
-1.17841643459772
30
0
41
1
10
13.1589804654008
20
-1.17835598236442
30
0
41
1
10
13.1035722135681
20
-1.17702660456098
30
0
41
1
10
13.0180490020322
20
-1.17300152887347
30
0
41
1
10
12.9880253741658
20
-1.17121555711103
30
0
41
1
10
12.9281267771497
20
-1.16691188903795
30
0
41
1
10
12.8982286838253
20
-1.16439371100051
30
0
41
1
10
12.8086549490789
20
-1.15576019656137
30
0
41
1
10
12.7490929391191
20
-1.14857019366147
30
0
41
1
10
12.6302368735183
20
-1.13138007056878
30
0
41
1
10
12.5709518193042
20
-1.12137240559122
30
0
41
1
10
12.4524892653729
20
-1.09864652988065
30
0
41
1
10
12.3932897353038
20
-1.0859453124452
30
0
41
1
10
12.2749374649048
20
-1.05789764060376
30
0
41
1
10
12.2158075881071
20
-1.04253030203674
30
0
41
1
10
12.0974517919009
20
-1.00924662941449
30
0
41
1
10
12.0381995397127
20
-0.991356792080865
30
0
41
1
10
11.8601557399687
20
-0.93399977815568
30
0
41
1
10
11.7412069703568
20
-0.890682322933174
30
0
41
1
10
11.5913380379621
20
-0.830997405368606
30
0
41
1
10
11.5612958683962
20
-0.818766577232793
30
0
41
1
10
11.5013935489599
20
-0.793842284215145
30
0
41
1
10
11.4715021754261
20
-0.781133075869917
30
0
41
1
10
11.3819611647401
20
-0.742331371743603
30
0
41
1
10
11.3224303984502
20
-0.715584785344646
30
0
41
1
10
11.2035415726634
20
-0.660582582963315
30
0
41
1
10
11.1442132821934
20
-0.63228417977794
30
0
41
1
10
11.0257477483594
20
-0.574159973723454
30
0
41
1
10
10.9665806999222
20
-0.544378738287918
30
0
41
1
10
10.8482043826589
20
-0.483661869592453
30
0
41
1
10
10.7890138599615
20
-0.452697668973713
30
0
41
1
10
10.6706024400426
20
-0.389594811812401
30
0
41
1
10
10.6113645735901
20
-0.357483022187893
30
0
41
1
10
10.433303267513
20
-0.259884794225172
30
0
41
1
10
10.3141550264058
20
-0.193104943326148
30
0
41
1
10
10.1642997486118
20
-0.108048592126664
30
0
41
1
10
10.1342761843335
20
-0.0909695802177168
30
0
41
1
10
10.0743796774262
20
-0.056901445967469
30
0
41
1
10
10.0444731112677
20
-0.0398869755501323
30
0
41
1
10
9.95487744928653
20
0.0110992177563105
30
0
41
1
10
9.89531893918033
20
0.0450259915554909
30
0
41
1
10
9.77647904197065
20
0.112636228659767
30
0
41
1
10
9.71718218576262
20
0.146290849906791
30
0
41
1
10
9.59866121521716
20
0.212995558239044
30
0
41
1
10
9.53944266078037
20
0.246056347110596
30
0
41
1
10
9.4210423570521
20
0.311515443479891
30
0
41
1
10
9.36187039072135
20
0.343930102931694
30
0
41
1
10
9.24343168787135
20
0.407866043324901
30
0
41
1
10
9.18414111774786
20
0.43934735424358
30
0
41
1
10
9.00596317435071
20
0.532172784097554
30
0
41
1
10
8.88688626646265
20
0.592085200211727
30
0
41
1
10
8.73685069179137
20
0.663117981328952
30
0
41
1
10
8.70681303470869
20
0.677133538247631
30
0
41
1
10
8.64691760881729
20
0.704674207631825
30
0
41
1
10
8.61702820993568
20
0.718217798949013
30
0
41
1
10
8.5274881606806
20
0.758103900458394
30
0
41
1
10
8.46795106755911
20
0.783680472187456
30
0
41
1
10
8.3490396264076
20
0.83264777438697
30
0
41
1
10
8.28969626097771
20
0.856081735128214
30
0
41
1
10
8.17119471189227
20
0.900807714832325
30
0
41
1
10
8.11200810456404
20
0.922062492604539
30
0
41
1
10
7.99356787293058
20
0.962154427062359
30
0
41
1
10
7.93433805054775
20
0.98102113540665
30
0
41
1
10
7.81586020348541
20
1.01638357575592
30
0
41
1
10
7.75658945108708
20
1.03285347757384
30
0
41
1
10
7.63777776699368
20
1.06317771878011
30
0
41
1
10
7.5782502191289
20
1.07704711392824
30
0
41
1
10
7.45893392715737
20
1.10215442613594
30
0
41
1
10
7.39914079521165
20
1.11338552553272
30
0
41
1
10
7.3091049825247
20
1.12812451836948
30
0
41
1
10
7.27908000638811
20
1.13267867246347
30
0
41
1
10
7.21917845707452
20
1.14104548269407
30
0
41
1
10
7.18927487065869
20
1.14486269893666
30
0
41
1
10
7.099694493127
20
1.15522083645277
30
0
41
1
10
7.04015048534578
20
1.16066776371062
30
0
41
1
10
6.86182718153529
20
1.17262595122239
30
0
41
1
10
6.74336770748445
20
1.17476234679873
30
0
41
1
10
6.50647099889244
20
1.16746406622391
30
0
41
1
10
6.38806890598156
20
1.15801570410176
30
0
41
1
10
6.15033518996111
20
1.12767995814573
30
0
41
1
10
6.03114134823451
20
1.1067258180073
30
0
41
1
10
5.85092216209176
20
1.06687511697984
30
0
41
1
10
5.79099780472043
20
1.05223908223667
30
0
41
1
10
5.67159577409308
20
1.02042996434636
30
0
41
1
10
5.61204585131819
20
1.00327449971238
30
0
41
1
10
5.49310514790176
20
0.966639086493643
30
0
41
1
10
5.43374541769072
20
0.947130269225767
30
0
41
1
10
5.31520327152404
20
0.905781453602657
30
0
41
1
10
5.25599119524199
20
0.883971334594776
30
0
41
1
10
5.13749041691867
20
0.83832395390786
30
0
41
1
10
5.07822747925272
20
0.81445905946066
30
0
41
1
10
4.99986733149765
20
0.781521082350878
30
0
41
1
10
4.98077771303502
20
0.773391810484327
30
0
41
1
10
4.96168105961209
20
0.765161101839993
30
0
0
SPLINE
5
E7
100
AcDbEntity
8
SK1
62
256
6
ByLayer
370
18
48
1
60
0
100
AcDbSpline
70
4
71
3
72
58
73
54
40
0
40
0
40
0
40
0
40
0.0244045306156496
40
0.0244045306156496
40
0.0488090612312992
40
0.0488090612312992
40
0.0976181224626009
40
0.0976181224626009
40
0.195236244925202
40
0.195236244925202
40
0.244045306156503
40
0.244045306156503
40
0.25624757146433
40
0.25624757146433
40
0.268449836772157
40
0.29285436738781
40
0.29285436738781
40
0.341663428619117
40
0.341663428619117
40
0.390472489850423
40
0.390472489850423
40
0.43928155108173
40
0.43928155108173
40
0.463686081697384
40
0.463686081697384
40
0.475888347005212
40
0.475888347005212
40
0.488090612313041
40
0.585708734775669
40
0.585708734775669
40
0.634517796006984
40
0.634517796006984
40
0.683326857238299
40
0.683326857238299
40
0.695529122546126
40
0.695529122546126
40
0.707731387853953
40
0.707731387853953
40
0.732135918469607
40
0.732135918469607
40
0.780944979700914
40
0.780944979700914
40
0.878563102163532
40
0.878563102163532
40
0.902967632779187
40
0.902967632779187
40
0.915169898087014
40
0.915169898087014
40
0.927372163394841
40
0.927372163394841
40
0.976181224626155
40
0.976181224626155
40
1
40
1
40
1
40
1
41
1
10
26.4864449614798
20
-1.18816982486916
30
0
41
1
10
26.4342932704195
20
-1.1865216694836
30
0
41
1
10
26.3821288332715
20
-1.18372342184401
30
0
41
1
10
26.2777009217259
20
-1.17584578830099
30
0
41
1
10
26.2255152448647
20
-1.17076995977644
30
0
41
1
10
26.0694829989862
20
-1.15227712457818
30
0
41
1
10
25.9659513621706
20
-1.13558071371969
30
0
41
1
10
25.656107685795
20
-1.07304924663953
30
0
41
1
10
25.4505026862461
20
-1.01477004882349
30
0
41
1
10
25.1400059070884
20
-0.905403663900017
30
0
41
1
10
25.0361729883974
20
-0.865276200112163
30
0
41
1
10
24.9055737098413
20
-0.810865354688673
30
0
41
1
10
24.8794184423496
20
-0.799772869194442
30
0
41
1
10
24.8272346265336
20
-0.777269481802108
30
0
41
1
10
24.7490680319352
20
-0.743002678847432
30
0
41
1
10
24.6711893752824
20
-0.707265799525004
30
0
41
1
10
24.5157097481576
20
-0.634005512091079
30
0
41
1
10
24.4124311466308
20
-0.58278003552698
30
0
41
1
10
24.2062244300416
20
-0.476191817035215
30
0
41
1
10
24.1032096519118
20
-0.420962800082322
30
0
41
1
10
23.8967522510279
20
-0.307622738608103
30
0
41
1
10
23.7933130292051
20
-0.249506930547398
30
0
41
1
10
23.637418035946
20
-0.160850162780719
30
0
41
1
10
23.5853303180975
20
-0.131050666625811
30
0
41
1
10
23.5069578733827
20
-0.0860733283092259
30
0
41
1
10
23.4808103798253
20
-0.0710441822551218
30
0
41
1
10
23.4286411881492
20
-0.041033700978943
30
0
41
1
10
23.1942182311048
20
0.0939326896209707
30
0
41
1
10
22.9624168498733
20
0.227444701292399
30
0
41
1
10
22.6530352025164
20
0.397888971853945
30
0
41
1
10
22.5498607931552
20
0.453449149789492
30
0
41
1
10
22.3427619280785
20
0.56095083624416
30
0
41
1
10
22.2388274721893
20
0.612878130867045
30
0
41
1
10
22.1081154818058
20
0.674975500951462
30
0
41
1
10
22.0819276561728
20
0.687253662528519
30
0
41
1
10
22.029694007949
20
0.71142956607747
30
0
41
1
10
22.0036257733705
20
0.723347623626893
30
0
41
1
10
21.9255478938518
20
0.758564976619738
30
0
41
1
10
21.8736383908325
20
0.781288271020316
30
0
41
1
10
21.7181750638094
20
0.847006643880718
30
0
41
1
10
21.6149007646229
20
0.887573890914155
30
0
41
1
10
21.3053950967911
20
0.998753139678087
30
0
41
1
10
21.0995653974159
20
1.05888545328949
30
0
41
1
10
20.8396926005776
20
1.11337256696876
30
0
41
1
10
20.7875868485235
20
1.12323863517793
30
0
41
1
10
20.7092202086469
20
1.13646015851074
30
0
41
1
10
20.6830431785199
20
1.14060775878229
30
0
41
1
10
20.6308185734228
20
1.14833756067094
30
0
41
1
10
20.604750235188
20
1.151922884985
30
0
41
1
10
20.4745818436975
20
1.16844056434167
30
0
41
1
10
20.3709712863323
20
1.17713367334278
30
0
41
1
10
20.2171056266892
20
1.18341890869078
30
0
41
1
10
20.166695578151
20
1.18441912104939
30
0
41
1
10
20.1163173262112
20
1.18435995836276
30
0
0
SPLINE
5
E8
100
AcDbEntity
8
SK1
62
256
6
ByLayer
370
18
48
1
60
0
100
AcDbSpline
70
4
71
3
72
64
73
60
40
0
40
0
40
0
40
0
40
0.0091858225212934
40
0.0091858225212934
40
0.0332323765340576
40
0.0332323765340576
40
0.0813254845595885
40
0.0813254845595885
40
0.12941859258512
40
0.12941859258512
40
0.177511700610651
40
0.177511700610651
40
0.201558254623418
40
0.201558254623418
40
0.213581531629801
40
0.213581531629801
40
0.225604808636185
40
0.225604808636185
40
0.273697916661723
40
0.273697916661723
40
0.321791024687262
40
0.321791024687262
40
0.3698841327128
40
0.3698841327128
40
0.417977240738338
40
0.417977240738338
40
0.430000517744724
40
0.430000517744724
40
0.442023794751109
40
0.442023794751109
40
0.466070348763879
40
0.466070348763879
40
0.51416345678942
40
0.51416345678942
40
0.562256564814961
40
0.562256564814961
40
0.610349672840502
40
0.610349672840502
40
0.634396226853272
40
0.634396226853272
40
0.658442780866043
40
0.658442780866043
40
0.706535888891581
40
0.706535888891581
40
0.75462899691712
40
0.75462899691712
40
0.802722104942658
40
0.802722104942658
40
0.850815212968196
40
0.850815212968196
40
0.874861766980966
40
0.874861766980966
40
0.898908320993735
40
0.898908320993735
40
0.947001429019274
40
0.947001429019274
40
0.995094537044814
40
0.995094537044814
40
1
40
1
40
1
40
1
41
1
10
13.6385366448247
20
-1.17878106055835
30
0
41
1
10
13.6185365143238
20
-1.17876346431132
30
0
41
1
10
13.5985287480837
20
-1.17857962228004
30
0
41
1
10
13.5262877534104
20
-1.17731534739582
30
0
41
1
10
13.4741813647215
20
-1.17526591769845
30
0
41
1
10
13.3182240673457
20
-1.1657698511961
30
0
41
1
10
13.2146806208669
20
-1.15498639206814
30
0
41
1
10
13.0078391834815
20
-1.12492878345009
30
0
41
1
10
12.9045356585466
20
-1.1056724919662
30
0
41
1
10
12.697934888171
20
-1.05880461730411
30
0
41
1
10
12.5945115037804
20
-1.03126408020012
30
0
41
1
10
12.4386982994046
20
-0.984148618126937
30
0
41
1
10
12.3866487722162
20
-0.967476452502922
30
0
41
1
10
12.3083733744066
20
-0.941032943830379
30
0
41
1
10
12.2822491427098
20
-0.931977973704022
30
0
41
1
10
12.2299345683626
20
-0.913382274274682
30
0
41
1
10
12.2037232910732
20
-0.903832231199601
30
0
41
1
10
12.0729768214735
20
-0.85508776303638
30
0
41
1
10
11.9690264349477
20
-0.812838255325062
30
0
41
1
10
11.7616876663554
20
-0.722924071650397
30
0
41
1
10
11.6582944174926
20
-0.675270953604411
30
0
41
1
10
11.4515543986667
20
-0.575381006515045
30
0
41
1
10
11.3482076895084
20
-0.523147897001138
30
0
41
1
10
11.1412263274107
20
-0.414577103179596
30
0
41
1
10
11.0375106958646
20
-0.358364737510357
30
0
41
1
10
10.9071432297478
20
-0.286394539559638
30
0
41
1
10
10.881034233682
20
-0.271914291111472
30
0
41
1
10
10.8287348571292
20
-0.24279829385668
30
0
41
1
10
10.8025171723115
20
-0.228147542169154
30
0
41
1
10
10.7239581203443
20
-0.184110414288995
30
0
41
1
10
10.6717356662912
20
-0.154653686378651
30
0
41
1
10
10.515423333839
20
-0.06615491442966
30
0
41
1
10
10.4116827213334
20
-0.006993402628126
30
0
41
1
10
10.2048004124978
20
0.11105928649954
30
0
41
1
10
10.1015517127134
20
0.169755798407436
30
0
41
1
10
9.89476820604065
20
0.28530893996458
30
0
41
1
10
9.79122848734781
20
0.342160042970818
30
0
41
1
10
9.63553150676105
20
0.425743572617051
30
0
41
1
10
9.58355183896913
20
0.453294168963197
30
0
41
1
10
9.47931564225684
20
0.507572607253081
30
0
41
1
10
9.42703259204737
20
0.534322591911234
30
0
41
1
10
9.26984460082463
20
0.613043998660544
30
0
41
1
10
9.16565151292613
20
0.662928777139115
30
0
41
1
10
8.95793379385213
20
0.75692780090705
30
0
41
1
10
8.85440791587061
20
0.801046201333889
30
0
41
1
10
8.64770647319017
20
0.883126370216104
30
0
41
1
10
8.54445982865008
20
0.920986504369779
30
0
41
1
10
8.33747598722695
20
0.989517368553919
30
0
41
1
10
8.2337532659036
20
1.02020612055051
30
0
41
1
10
8.07735764985335
20
1.06035802738253
30
0
41
1
10
8.02509010748179
20
1.07276181217466
30
0
41
1
10
7.92020773301607
20
1.09552763714342
30
0
41
1
10
7.86784732572158
20
1.10583397007491
30
0
41
1
10
7.71123271323484
20
1.13345893985564
30
0
41
1
10
7.60728704410738
20
1.14752116337317
30
0
41
1
10
7.40018129042116
20
1.16694820086721
30
0
41
1
10
7.29689599581622
20
1.1722460142106
30
0
41
1
10
7.18293699913519
20
1.17317222145624
30
0
41
1
10
7.17238809023095
20
1.17321165477267
30
0
41
1
10
7.1618378250742
20
1.17320480638759
30
0
0
SPLINE
5
E9
100
AcDbEntity
8
SK1
62
256
6
ByLayer
370
18
48
1
60
0
100
AcDbSpline
70
4
71
3
72
14
73
10
40
0
40
0
40
0
40
0
40
0.498784072436674
40
0.498784072436674
40
0.748176108655019
40
0.748176108655019
40
0.997568144873364
40
0.997568144873364
40
1
40
1
40
1
40
1
41
1
10
4.45873030573614
20
-0.955421615212231
30
0
41
1
10
4.54288607605267
20
-0.927726678990894
30
0
41
1
10
4.62680083848258
20
-0.897961732318862
30
0
41
1
10
4.75219173728317
20
-0.850167840234207
30
0
41
1
10
4.79390843437108
20
-0.833709818628506
30
0
41
1
10
4.87717556319322
20
-0.799729753323476
30
0
41
1
10
4.91874841152202
20
-0.782234909194358
30
0
41
1
10
4.96075613310654
20
-0.764187306301949
30
0
41
1
10
4.96116180006735
20
-0.764012981510859
30
0
41
1
10
4.96156746677175
20
-0.763838617017939
30
0
0
SPLINE
5
EA
100
AcDbEntity
8
SK1
62
256
6
ByLayer
370
18
48
1
60
0
100
AcDbSpline
70
4
71
3
72
10
73
6
40
0
40
0
40
0
40
0
40
0.5
40
0.5
40
1
40
1
40
1
40
1
41
1
10
4.4587303057362
20
-0.955421615212146
30
0
41
1
10
4.45406221053685
20
-0.956957844971924
30
0
41
1
10
4.44980014282959
20
-0.958773898647451
30
0
41
1
10
4.441979143389
20
-0.962870736595363
30
0
41
1
10
4.43840912920803
20
-0.965168303262232
30
0
41
1
10
4.43528991194793
20
-0.967625572232294
30
0
0
SPLINE
5
EB
100
AcDbEntity
8
SK1
62
256
6
ByLayer
370
18
48
1
60
0
100
AcDbSpline
70
4
71
3
72
20
73
16
40
0
40
0
40
0
40
0
40
0.125
40
0.125
40
0.25
40
0.25
40
0.375
40
0.375
40
0.5
40
0.5
40
0.625
40
0.625
40
0.75
40
0.75
40
1
40
1
40
1
40
1
41
1
10
3.69435970622513
20
-0.174472432498305
30
0
41
1
10
3.69542050602149
20
-0.171152072937559
30
0
41
1
10
3.69682699393533
20
-0.168000356144148
30
0
41
1
10
3.70039599906011
20
-0.162067431472877
30
0
41
1
10
3.70257868506934
20
-0.159286190930402
30
0
41
1
10
3.70751818784916
20
-0.154452494553084
30
0
41
1
10
3.7103434739949
20
-0.152330103954057
30
0
41
1
10
3.71642253948124
20
-0.148906643213252
30
0
41
1
10
3.71964586044862
20
-0.147604459140382
30
0
41
1
10
3.72644260912392
20
-0.145781263053351
30
0
41
1
10
3.72990279810759
20
-0.145292046540163
30
0
41
1
10
3.73688387988977
20
-0.145059497397199
30
0
41
1
10
3.74041592372223
20
-0.145324430434698
30
0
41
1
10
3.7507151011697
20
-0.147094411180802
30
0
41
1
10
3.75736648799307
20
-0.149584025631953
30
0
41
1
10
3.76348079088584
20
-0.153026743039447
30
0
0
SPLINE
5
EC
100
AcDbEntity
8
SK1
62
256
6
ByLayer
370
18
48
1
60
0
100
AcDbSpline
70
4
71
3
72
26
73
22
40
0
40
0
40
0
40
0
40
0.160797554806045
40
0.160797554806045
40
0.32159510961209
40
0.32159510961209
40
0.401993887015113
40
0.401993887015113
40
0.482392664418136
40
0.482392664418136
40
0.643190219224188
40
0.643190219224188
40
0.723588996627218
40
0.723588996627218
40
0.803987774030248
40
0.803987774030248
40
0.884386551433277
40
0.884386551433277
40
0.964785328836307
40
0.964785328836307
40
1
40
1
40
1
40
1
41
1
10
26.5818893114179
20
1.16715381985662
30
0
41
1
10
26.463723624174
20
1.18031630710212
30
0
41
1
10
26.3458276999572
20
1.18772282242315
30
0
41
1
10
26.1094927269267
20
1.19081873749536
30
0
41
1
10
25.991137948638
20
1.18651939434741
30
0
41
1
10
25.8126117822161
20
1.17117770648537
30
0
41
1
10
25.752887672584
20
1.16457751809421
30
0
41
1
10
25.6331878730229
20
1.14842622311303
30
0
41
1
10
25.5735597501587
20
1.13891779779459
30
0
41
1
10
25.3951679837827
20
1.10624529441716
30
0
41
1
10
25.2767827230848
20
1.07901528820111
30
0
41
1
10
25.0996164644927
20
1.03043937410621
30
0
41
1
10
25.0406143791529
20
1.01296638499881
30
0
41
1
10
24.9225263232684
20
0.975648015685067
30
0
41
1
10
24.8634644333654
20
0.955783286994546
30
0
41
1
10
24.7453013479572
20
0.91362802820484
30
0
41
1
10
24.6861788180945
20
0.891355995424334
30
0
41
1
10
24.5676202779017
20
0.844680335500755
30
0
41
1
10
24.5082002664074
20
0.820262858015127
30
0
41
1
10
24.422570925754
20
0.783543553884272
30
0
41
1
10
24.3964635495483
20
0.772145547178155
30
0
41
1
10
24.3703188162299
20
0.7605478059522
30
0
0
SPLINE
5
ED
100
AcDbEntity
8
SK1
62
256
6
ByLayer
370
18
48
1
60
0
100
AcDbSpline
70
4
71
3
72
94
73
90
40
0
40
0
40
0
40
0
40
0.0283266136680263
40
0.0283266136680263
40
0.0713762508744565
40
0.0713762508744565
40
0.0929010694776717
40
0.0929010694776717
40
0.114425888080887
40
0.114425888080887
40
0.135950706684102
40
0.135950706684102
40
0.157475525287317
40
0.157475525287317
40
0.179000343890532
40
0.179000343890532
40
0.200525162493747
40
0.200525162493747
40
0.222049981096962
40
0.222049981096962
40
0.243574799700177
40
0.243574799700177
40
0.286624436906609
40
0.286624436906609
40
0.308149255509826
40
0.308149255509826
40
0.329674074113042
40
0.329674074113042
40
0.351198892716257
40
0.351198892716257
40
0.372723711319474
40
0.372723711319474
40
0.39424852992269
40
0.39424852992269
40
0.415773348525906
40
0.415773348525906
40
0.45882298573234
40
0.45882298573234
40
0.469585395033947
40
0.469585395033947
40
0.480347804335554
40
0.480347804335554
40
0.501872622938768
40
0.501872622938768
40
0.523397441541982
40
0.523397441541982
40
0.544922260145196
40
0.544922260145196
40
0.56644707874841
40
0.56644707874841
40
0.587971897351624
40
0.587971897351624
40
0.631021534558051
40
0.631021534558051
40
0.641783943859658
40
0.641783943859658
40
0.652546353161265
40
0.652546353161265
40
0.674071171764479
40
0.674071171764479
40
0.695595990367693
40
0.695595990367693
40
0.717120808970907
40
0.717120808970907
40
0.760170446177338
40
0.760170446177338
40
0.803220083383768
40
0.803220083383768
40
0.813982492685374
40
0.813982492685374
40
0.82474490198698
40
0.82474490198698
40
0.846269720590192
40
0.846269720590192
40
0.867794539193405
40
0.867794539193405
40
0.889319357796617
40
0.889319357796617
40
0.910844176399829
40
0.910844176399829
40
0.932368995003041
40
0.932368995003041
40
0.975418632209466
40
0.975418632209466
40
0.986181041511072
40
0.986181041511072
40
0.996943450812679
40
0.996943450812679
40
1
40
1
40
1
40
1
41
1
10
19.6961142893879
20
-1.18399655877616
30
0
41
1
10
19.6181068772641
20
-1.18392295797167
30
0
41
1
10
19.540275190583
20
-1.18131129116003
30
0
41
1
10
19.3442983777078
20
-1.1684175709818
30
0
41
1
10
19.2261757799906
20
-1.1548715580966
30
0
41
1
10
19.048590835763
20
-1.12604151984135
30
0
41
1
10
18.9893343291444
20
-1.11500612934384
30
0
41
1
10
18.8705047368514
20
-1.09017164989902
30
0
41
1
10
18.8109341706178
20
-1.07637595407047
30
0
41
1
10
18.6914757651848
20
-1.04598224889892
30
0
41
1
10
18.6314711221052
20
-1.02933720556766
30
0
41
1
10
18.5119774821778
20
-0.993705457099281
30
0
41
1
10
18.4523797638969
20
-0.974715726985778
30
0
41
1
10
18.3335076107941
20
-0.934399805460345
30
0
41
1
10
18.2742464293634
20
-0.913054538907943
30
0
41
1
10
18.1558319688815
20
-0.868278574562794
30
0
41
1
10
18.096660570292
20
-0.844873631543663
30
0
41
1
10
17.9784020710232
20
-0.796032946333099
30
0
41
1
10
17.9193383018766
20
-0.770563604159321
30
0
41
1
10
17.8011372615441
20
-0.717790154006337
30
0
41
1
10
17.7419735514934
20
-0.690525430461719
30
0
41
1
10
17.5642360193435
20
-0.606180088030158
30
0
41
1
10
17.4455338642315
20
-0.54635240752819
30
0
41
1
10
17.2661679573568
20
-0.45263884706327
30
0
41
1
10
17.2061158618894
20
-0.42062661609441
30
0
41
1
10
17.0866666465076
20
-0.355902117937092
30
0
41
1
10
17.0271184698619
20
-0.323169742278537
30
0
41
1
10
16.9082476271692
20
-0.257191487088221
30
0
41
1
10
16.848934457211
20
-0.223928905037184
30
0
41
1
10
16.73048857625
20
-0.156971124146139
30
0
41
1
10
16.671366314526
20
-0.123257288064025
30
0
41
1
10
16.5531307017061
20
-0.0557015927798261
30
0
41
1
10
16.494003994356
20
-0.0218836258964075
30
0
41
1
10
16.3756995021922
20
0.0457729083883862
30
0
41
1
10
16.3165410890992
20
0.0796461231983301
30
0
41
1
10
16.1388320973765
20
0.18101799173715
30
0
41
1
10
16.019922338711
20
0.248043655384151
30
0
41
1
10
15.8704024481156
20
0.330534953906806
30
0
41
1
10
15.8404197516914
20
0.346983218509649
30
0
41
1
10
15.7805074604999
20
0.379617042501479
30
0
41
1
10
15.750603974809
20
0.395789799666801
30
0
41
1
10
15.6610133773289
20
0.443816311237583
30
0
41
1
10
15.6014370301702
20
0.475164583529306
30
0
41
1
10
15.4825800557911
20
0.536543599871038
30
0
41
1
10
15.423311687914
20
0.566591009506311
30
0
41
1
10
15.3048758001283
20
0.625065483424692
30
0
41
1
10
15.2456912155048
20
0.653469512012578
30
0
41
1
10
15.1273884116056
20
0.708625432130674
30
0
41
1
10
15.0682930263777
20
0.735407535632703
30
0
41
1
10
14.9500157433216
20
0.787090563811432
30
0
41
1
10
14.8908067928392
20
0.811957030351749
30
0
41
1
10
14.712911108999
20
0.88355446362155
30
0
41
1
10
14.5940842198261
20
0.92742677746125
30
0
41
1
10
14.4444023257115
20
0.976303830336519
30
0
41
1
10
14.4143806758319
20
0.985801635620845
30
0
41
1
10
14.354465159708
20
1.00414687992767
30
0
41
1
10
14.3245685758783
20
1.0129982823519
30
0
41
1
10
14.235014621519
20
1.03854960358788
30
0
41
1
10
14.1754784820727
20
1.05423345274392
30
0
41
1
10
14.0566023457659
20
1.08284611105773
30
0
41
1
10
13.9972868994914
20
1.09579579883359
30
0
41
1
10
13.8788461609131
20
1.11895937100479
30
0
41
1
10
13.8196952457063
20
1.12915495035307
30
0
41
1
10
13.6422203199161
20
1.15549127958258
30
0
41
1
10
13.523985860944
20
1.16743502959122
30
0
41
1
10
13.2867667454678
20
1.17971075946397
30
0
41
1
10
13.1677747977491
20
1.18004824343566
30
0
41
1
10
13.0180490020322
20
1.1730015288735
30
0
41
1
10
12.9880253741658
20
1.17121555711105
30
0
41
1
10
12.9281267771497
20
1.16691188903798
30
0
41
1
10
12.8982286838253
20
1.16439371100054
30
0
41
1
10
12.8086549490789
20
1.1557601965614
30
0
41
1
10
12.7490929391191
20
1.1485701936615
30
0
41
1
10
12.6302368735183
20
1.13138007056881
30
0
41
1
10
12.5709518193042
20
1.12137240559125
30
0
41
1
10
12.4524892653728
20
1.09864652988068
30
0
41
1
10
12.3932897353039
20
1.08594531244523
30
0
41
1
10
12.2749374649048
20
1.05789764060378
30
0
41
1
10
12.2158075881071
20
1.04253030203677
30
0
41
1
10
12.0974517919009
20
1.00924662941455
30
0
41
1
10
12.0381995397127
20
0.991356792080921
30
0
41
1
10
11.8601557399687
20
0.933999778155709
30
0
41
1
10
11.7412069703568
20
0.890682322933202
30
0
41
1
10
11.5913380379621
20
0.830997405368635
30
0
41
1
10
11.5612958683962
20
0.818766577232822
30
0
41
1
10
11.50139354896
20
0.793842284215174
30
0
41
1
10
11.4715021754262
20
0.781133075869946
30
0
41
1
10
11.4331785536716
20
0.764525916525031
30
0
41
1
10
11.424705227121
20
0.76083493847284
30
0
41
1
10
11.4162349720561
20
0.75712659616417
30
0
0
SPLINE
5
EE
100
AcDbEntity
8
SK1
62
256
6
ByLayer
370
18
48
1
60
0
100
AcDbSpline
70
4
71
3
72
34
73
30
40
0
40
0
40
0
40
0
40
0.0366088892857527
40
0.0366088892857527
40
0.157032778125033
40
0.157032778125033
40
0.277456666964314
40
0.277456666964314
40
0.337668611383955
40
0.337668611383955
40
0.397880555803596
40
0.397880555803596
40
0.458092500223236
40
0.458092500223236
40
0.518304444642877
40
0.518304444642877
40
0.578516389062518
40
0.578516389062518
40
0.638728333482159
40
0.638728333482159
40
0.6989402779018
40
0.6989402779018
40
0.75915222232144
40
0.75915222232144
40
0.819364166741081
40
0.819364166741081
40
0.879576111160722
40
0.879576111160722
40
1
40
1
40
1
40
1
41
1
10
6.73295897909637
20
-1.17283578413051
30
0
41
1
10
6.69693703351399
20
-1.1727972085738
30
0
41
1
10
6.66092767952884
20
-1.17222254597922
30
0
41
1
10
6.50647099889247
20
-1.16746406622391
30
0
41
1
10
6.38806890598158
20
-1.15801570410176
30
0
41
1
10
6.15033518996114
20
-1.12767995814573
30
0
41
1
10
6.03114134823454
20
-1.1067258180073
30
0
41
1
10
5.85092216209176
20
-1.06687511697984
30
0
41
1
10
5.79099780472046
20
-1.05223908223667
30
0
41
1
10
5.67159577409311
20
-1.02042996434636
30
0
41
1
10
5.61204585131819
20
-1.00327449971238
30
0
41
1
10
5.49310514790179
20
-0.966639086493643
30
0
41
1
10
5.43374541769074
20
-0.947130269225767
30
0
41
1
10
5.31520327152407
20
-0.905781453602657
30
0
41
1
10
5.25599119524199
20
-0.883971334594776
30
0
41
1
10
5.13749041691867
20
-0.83832395390786
30
0
41
1
10
5.07822747925272
20
-0.81445905946066
30
0
41
1
10
4.9596798776505
20
-0.764628650766241
30
0
41
1
10
4.90037452476929
20
-0.738686315321644
30
0
41
1
10
4.78147527212133
20
-0.685050631676376
30
0
41
1
10
4.72189542268652
20
-0.657341664511563
30
0
41
1
10
4.60248770232383
20
-0.600090799840473
30
0
41
1
10
4.54265035208482
20
-0.570559031381237
30
0
41
1
10
4.42248673489962
20
-0.510003125633176
30
0
41
1
10
4.36246836683671
20
-0.479124968143537
30
0
41
1
10
4.2426155385279
20
-0.416280912860231
30
0
41
1
10
4.18277402700713
20
-0.384293144057381
30
0
41
1
10
4.00327468618715
20
-0.287016015576768
30
0
41
1
10
3.88352496299007
20
-0.220618775723778
30
0
41
1
10
3.76348079087785
20
-0.153026743034957
30
0
0
SPLINE
5
EF
100
AcDbEntity
8
SK1
62
256
6
ByLayer
370
18
48
1
60
0
100
AcDbSpline
70
4
71
3
72
14
73
10
40
0
40
0
40
0
40
0
40
0.20683504893519
40
0.358911819653984
40
0.503728925740536
40
0.584308734114951
40
0.655469826345411
40
0.791870251841991
40
1
40
1
40
1
40
1
41
1
10
7.21492104920057
20
-1.13548386776225
30
0
41
1
10
7.38654453549213
20
-1.13595775440578
30
0
41
1
10
7.68444275636284
20
-1.13652300603567
30
0
41
1
10
8.10288106814602
20
-1.13709376831247
30
0
41
1
10
8.41638592528005
20
-1.13654311095266
30
0
41
1
10
8.6626914221311
20
-1.1371445719731
30
0
41
1
10
8.90200468686098
20
-1.13875119170655
30
0
41
1
10
9.24726121897336
20
-1.13825947505393
30
0
41
1
10
9.53341312110587
20
-1.13839950835435
30
0
41
1
10
9.7062775396135
20
-1.13822720247353
30
0
0
SPLINE
5
F0
100
AcDbEntity
8
SK1
62
256
6
ByLayer
370
18
48
1
60
0
100
AcDbSpline
70
4
71
3
72
15
73
11
40
0
40
0
40
0
40
0
40
0.215227970923751
40
0.396416931571153
40
0.51373118419383
40
0.560155089592325
40
0.600751212819491
40
0.65272652586946
40
0.790685119604399
40
1
40
1
40
1
40
1
41
1
10
20.1984777806932
20
-1.14876150827928
30
0
41
1
10
20.3752676186294
20
-1.1489148155714
30
0
41
1
10
20.7008926542904
20
-1.14931695261262
30
0
41
1
10
21.1229004002404
20
-1.14905389234519
30
0
41
1
10
21.4062428675078
20
-1.15020545935346
30
0
41
1
10
21.5740961462014
20
-1.15037745805364
30
0
41
1
10
21.6882753764333
20
-1.15009122250962
30
0
41
1
10
21.8776478110241
20
-1.14948901561164
30
0
41
1
10
22.2056135390349
20
-1.15191498056672
30
0
41
1
10
22.4908873453798
20
-1.15117639866469
30
0
41
1
10
22.6628330583136
20
-1.15056037985599
30
0
0
SPLINE
5
F1
100
AcDbEntity
8
SK1
62
256
6
ByLayer
370
18
48
1
60
0
100
AcDbSpline
70
4
71
3
72
16
73
12
40
0
40
0
40
0
40
0
40
0.214425038794203
40
0.356578521070547
40
0.448832932344736
40
0.555406415836707
40
0.631694747375286
40
0.70741101013274
40
0.796067238943905
40
0.936823268957631
40
1
40
1
40
1
40
1
41
1
10
16.1837268915469
20
1.14373412029534
30
0
41
1
10
16.0283818920643
20
1.14503119121682
30
0
41
1
10
15.7700510297945
20
1.14631953625511
30
0
41
1
10
15.4448905279784
20
1.14375337020613
30
0
41
1
10
15.1978578316499
20
1.14386434357451
30
0
41
1
10
14.9985434101049
20
1.1435086085348
30
0
41
1
10
14.8112128637419
20
1.14275168381138
30
0
41
1
10
14.6368598226037
20
1.14287490508047
30
0
41
1
10
14.4158057170481
20
1.14329585403229
30
0
41
1
10
14.2038397163323
20
1.14294339044579
30
0
41
1
10
14.0561078932818
20
1.1426759411093
30
0
41
1
10
14.0103424077781
20
1.14258694180287
30
0
0
SPLINE
5
F2
100
AcDbEntity
8
SK1
62
256
6
ByLayer
370
18
48
1
60
0
100
AcDbSpline
70
4
71
3
72
17
73
13
40
0
40
0
40
0
40
0
40
0.114666700739856
40
0.200180982773033
40
0.260472092536083
40
0.345348440298158
40
0.466628179032801
40
0.577750284409676
40
0.639939569909317
40
0.731097439479378
40
0.85120382514253
40
1
40
1
40
1
40
1
41
1
10
13.7203455741365
20
-1.1419025010957
30
0
41
1
10
13.8144902525106
20
-1.14197475599823
30
0
41
1
10
13.9788508847462
20
-1.14217005550699
30
0
41
1
10
14.1927366136428
20
-1.14307382258224
30
0
41
1
10
14.382156792357
20
-1.143231801902
30
0
41
1
10
14.6009460481793
20
-1.1429575708807
30
0
41
1
10
14.8614772349022
20
-1.14270734876626
30
0
41
1
10
15.1033730629725
20
-1.14394955112454
30
0
41
1
10
15.320541038211
20
-1.14361734366295
30
0
41
1
10
15.5450810361273
20
-1.14478542131892
30
0
41
1
10
15.8407404652396
20
-1.1455443932195
30
0
41
1
10
16.0615453094386
20
-1.14462638078476
30
0
41
1
10
16.1837268915468
20
-1.14373412029531
30
0
0
SPLINE
5
F3
100
AcDbEntity
8
SK1
62
256
6
ByLayer
370
18
48
1
60
0
100
AcDbSpline
70
4
71
3
72
15
73
11
40
0
40
0
40
0
40
0
40
0.195866712034909
40
0.328586758934934
40
0.456310651264942
40
0.60691557795214
40
0.711307105456787
40
0.791668841914912
40
0.937266094450523
40
1
40
1
40
1
40
1
41
1
10
22.6628330583135
20
1.15056037985602
30
0
41
1
10
22.5235747008441
20
1.15113455357064
30
0
41
1
10
22.2899551116055
20
1.15165167525757
30
0
41
1
10
21.9655271380481
20
1.14993533965696
30
0
41
1
10
21.6732818902605
20
1.15011340552454
30
0
41
1
10
21.4011746861796
20
1.15009788630923
30
0
41
1
10
21.1627386506141
20
1.14930348396621
30
0
41
1
10
20.9278770331371
20
1.14955147456919
30
0
41
1
10
20.7226363869737
20
1.14915126236758
30
0
41
1
10
20.5745330114267
20
1.14899691532506
30
0
41
1
10
20.5299357431551
20
1.14895856818399
30
0
0
SPLINE
5
F4
100
AcDbEntity
8
SK1
62
256
6
ByLayer
370
18
48
1
60
0
100
AcDbSpline
70
4
71
3
72
14
73
10
40
0
40
0
40
0
40
0
40
0.261838118294729
40
0.451652102895848
40
0.619163376830735
40
0.708912912477419
40
0.789086636801823
40
0.937068356672462
40
1
40
1
40
1
40
1
41
1
10
9.70627753961347
20
1.13822720247356
30
0
41
1
10
9.51896977726119
20
1.13862410321323
30
0
41
1
10
9.19587845795894
20
1.13881287396583
30
0
41
1
10
8.75295960054135
20
1.13781776760993
30
0
41
1
10
8.43314676527129
20
1.13653999323975
30
0
41
1
10
8.19175884796576
20
1.13684950548145
30
0
41
1
10
7.96435383119922
20
1.13703824094998
30
0
41
1
10
7.75608673950956
20
1.13656563167095
30
0
41
1
10
7.60526581139283
20
1.13627260622027
30
0
41
1
10
7.56027097067718
20
1.13618614415825
30
0
0
LINE
5
80
100
AcDbEntity
8
81
62
256
6
ByLayer
370
18
48
1
60
0
100
AcDbLine
10
27.25
20
0
30
0
11
37.25
21
0
31
0
39
0
210
0
220
0
230
1
0
LINE
5
81
100
AcDbEntity
8
4
62
256
6
ByLayer
370
13
48
0.05
60
0
100
AcDbLine
10
0
20
0
30
0
11
27.25
21
0
31
0
39
0
210
0
220
0
230
1
0
LINE
5
83
100
AcDbEntity
8
SK4
62
256
6
ByLayer
370
13
48
0.05
60
0
100
AcDbLine
10
-27.75
20
0
30
0
11
32.25
21
0
31
0
39
0
210
0
220
0
230
1
0
LINE
5
85
100
AcDbEntity
8
80
62
256
6
ByLayer
370
18
48
1
60
0
100
AcDbLine
10
0
20
0
30
0
11
-10
21
0
31
0
39
0
210
0
220
0
230
1
0
LINE
5
86
100
AcDbEntity
8
SK1
62
256
6
ByLayer
370
18
48
1
60
0
100
AcDbLine
10
27.238264
20
-0.028226
30
0
11
27.25
21
0
31
0
39
0
210
0
220
0
230
1
0
LINE
5
88
100
AcDbEntity
8
SK1
62
256
6
ByLayer
370
18
48
1
60
0
100
AcDbLine
10
27.209194
20
-0.08051
30
0
11
26.946354
21
-0.614662
31
0
39
0
210
0
220
0
230
1
0
LINE
5
89
100
AcDbEntity
8
SK1
62
256
6
ByLayer
370
18
48
1
60
0
100
AcDbLine
10
27.238264
20
-0.028226
30
0
11
27.232097
21
-0.038616
31
0
39
0
210
0
220
0
230
1
0
LINE
5
8A
100
AcDbEntity
8
SK1
62
256
6
ByLayer
370
18
48
1
60
0
100
AcDbLine
10
27.209194
20
0.08051
30
0
11
26.946354
21
0.614662
31
0
39
0
210
0
220
0
230
1
0
LINE
5
8B
100
AcDbEntity
8
SK1
62
256
6
ByLayer
370
13
48
1
60
0
100
AcDbLine
10
27.209194
20
0.08051
30
0
11
26.416965
21
0.534672
31
0
39
0
210
0
220
0
230
1
0
LINE
5
8C
100
AcDbEntity
8
SK1
62
256
6
ByLayer
370
18
48
1
60
0
100
AcDbLine
10
27.25
20
0
30
0
11
26.535045
21
-1.189884
31
0
39
0
210
0
220
0
230
1
0
LINE
5
8D
100
AcDbEntity
8
SK1
62
256
6
ByLayer
370
18
48
1
60
0
100
AcDbLine
10
27.25
20
0
30
0
11
27.238264
21
0.028226
31
0
39
0
210
0
220
0
230
1
0
LINE
5
8E
100
AcDbEntity
8
SK1
62
256
6
ByLayer
370
18
48
1
60
0
100
AcDbLine
10
26.10786
20
-0.730222
30
0
11
27.238264
21
0.028226
31
0
39
0
210
0
220
0
230
1
0
LINE
5
8F
100
AcDbEntity
8
SK1
62
256
6
ByLayer
370
18
48
1
60
0
100
AcDbLine
10
27.238264
20
0.028226
30
0
11
27.232097
21
0.038616
31
0
39
0
210
0
220
0
230
1
0
LINE
5
90
100
AcDbEntity
8
SK1
62
256
6
ByLayer
370
13
48
1
60
0
100
AcDbLine
10
27.232097
20
0.038616
30
0
11
26.391396
21
0.520565
31
0
39
0
210
0
220
0
230
1
0
LINE
5
91
100
AcDbEntity
8
SK1
62
256
6
ByLayer
370
18
48
1
60
0
100
AcDbLine
10
0.982
20
-1.167884
30
0
11
0.982
21
1.167884
31
0
39
0
210
0
220
0
230
1
0
LINE
5
92
100
AcDbEntity
8
SK1
62
256
6
ByLayer
370
18
48
1
60
0
100
AcDbLine
10
0.000391
20
-1.5
30
0
11
0.000391
21
1.5
31
0
39
0
210
0
220
0
230
1
0
LINE
5
93
100
AcDbEntity
8
SK1
62
256
6
ByLayer
370
18
48
1
60
0
100
AcDbLine
10
-22.75
20
-1.35
30
0
11
-22.75
21
1.35
31
0
39
0
210
0
220
0
230
1
0
LINE
5
94
100
AcDbEntity
8
SK1
62
256
6
ByLayer
370
18
48
1
60
0
100
AcDbLine
10
-22.663397
20
-1.5
30
0
11
-22.663397
21
1.5
31
0
39
0
210
0
220
0
230
1
0
LINE
5
95
100
AcDbEntity
8
SK1
62
256
6
ByLayer
370
18
48
1
60
0
100
AcDbLine
10
0.982
20
-1.167884
30
0
11
3.966161
21
-1.170454
31
0
39
0
210
0
220
0
230
1
0
LINE
5
96
100
AcDbEntity
8
SK1
62
256
6
ByLayer
370
18
48
1
60
0
100
AcDbLine
10
6.733034
20
-1.172836
30
0
11
7.161325
21
-1.173205
31
0
39
0
210
0
220
0
230
1
0
LINE
5
97
100
AcDbEntity
8
SK1
62
256
6
ByLayer
370
18
48
1
60
0
100
AcDbLine
10
13.214392
20
-1.178416
30
0
11
13.638514
21
-1.178781
31
0
39
0
210
0
220
0
230
1
0
LINE
5
98
100
AcDbEntity
8
SK1
62
256
6
ByLayer
370
18
48
1
60
0
100
AcDbLine
10
19.696195
20
-1.183997
30
0
11
20.116677
21
-1.184359
31
0
39
0
210
0
220
0
230
1
0
LINE
5
99
100
AcDbEntity
8
SK1
62
256
6
ByLayer
370
18
48
1
60
0
100
AcDbLine
10
26.177748
20
-1.189577
30
0
11
26.535045
21
-1.189884
31
0
39
0
210
0
220
0
230
1
0
LINE
5
9A
100
AcDbEntity
8
SK1
62
256
6
ByLayer
370
18
48
1
60
0
100
AcDbLine
10
26.535045
20
1.189884
30
0
11
26.177748
21
1.189577
31
0
39
0
210
0
220
0
230
1
0
LINE
5
9B
100
AcDbEntity
8
SK1
62
256
6
ByLayer
370
18
48
1
60
0
100
AcDbLine
10
20.116677
20
1.184359
30
0
11
19.696195
21
1.183997
31
0
39
0
210
0
220
0
230
1
0
LINE
5
9C
100
AcDbEntity
8
SK1
62
256
6
ByLayer
370
18
48
1
60
0
100
AcDbLine
10
13.638514
20
1.178781
30
0
11
13.214392
21
1.178416
31
0
39
0
210
0
220
0
230
1
0
LINE
5
9D
100
AcDbEntity
8
SK1
62
256
6
ByLayer
370
18
48
1
60
0
100
AcDbLine
10
7.161325
20
1.173205
30
0
11
6.733034
21
1.172836
31
0
39
0
210
0
220
0
230
1
0
LINE
5
9E
100
AcDbEntity
8
SK1
62
256
6
ByLayer
370
18
48
1
60
0
100
AcDbLine
10
3.966161
20
1.170454
30
0
11
0.982
21
1.167884
31
0
39
0
210
0
220
0
230
1
0
LINE
5
9F
100
AcDbEntity
8
SK1
62
256
6
ByLayer
370
18
48
1
60
0
100
AcDbLine
10
0.982
20
1.167884
30
0
11
0.000391
21
1.5
31
0
39
0
210
0
220
0
230
1
0
LINE
5
A0
100
AcDbEntity
8
SK1
62
256
6
ByLayer
370
18
48
1
60
0
100
AcDbLine
10
0.000391
20
-1.5
30
0
11
0.982
21
-1.167884
31
0
39
0
210
0
220
0
230
1
0
LINE
5
A1
100
AcDbEntity
8
SK1
62
256
6
ByLayer
370
18
48
1
60
0
100
AcDbLine
10
-22.663397
20
-1.5
30
0
11
0.000391
21
-1.5
31
0
39
0
210
0
220
0
230
1
0
LINE
5
A2
100
AcDbEntity
8
SK1
62
256
6
ByLayer
370
18
48
1
60
0
100
AcDbLine
10
0.000391
20
1.5
30
0
11
-22.663397
21
1.5
31
0
39
0
210
0
220
0
230
1
0
LINE
5
A3
100
AcDbEntity
8
SK1
62
256
6
ByLayer
370
18
48
1
60
0
100
AcDbLine
10
-22.75
20
-1.35
30
0
11
-22.663397
21
-1.5
31
0
39
0
210
0
220
0
230
1
0
LINE
5
A4
100
AcDbEntity
8
SK1
62
256
6
ByLayer
370
18
48
1
60
0
100
AcDbLine
10
-22.663397
20
1.5
30
0
11
-22.75
21
1.35
31
0
39
0
210
0
220
0
230
1
0
LINE
5
A5
100
AcDbEntity
8
2
62
256
6
ByLayer
370
13
48
1
60
0
100
AcDbLine
10
44.25
20
25.714031
30
0
11
44.25
21
-9.9405
31
0
39
0
210
0
220
0
230
1
0
LINE
5
A7
100
AcDbEntity
8
2
62
256
6
ByLayer
370
13
48
1
60
0
100
AcDbLine
10
28.8375
20
1.1905
30
0
11
46.25
21
1.1905
31
0
39
0
210
0
220
0
230
1
0
LINE
5
A8
100
AcDbEntity
8
2
62
256
6
ByLayer
370
13
48
1
60
0
100
AcDbLine
10
28.8375
20
-1.1905
30
0
11
46.25
21
-1.1905
31
0
39
0
210
0
220
0
230
1
0
LINE
5
A9
100
AcDbEntity
8
1
62
256
6
ByLayer
370
18
48
1
60
1
100
AcDbLine
10
44.25
20
1.1905
30
0
11
43.789216
21
4.690498
31
0
39
0
210
0
220
0
230
1
0
LINE
5
AA
100
AcDbEntity
8
1
62
256
6
ByLayer
370
18
48
1
60
1
100
AcDbLine
10
43.789216
20
4.690498
30
0
11
44.710784
21
4.690502
31
0
39
0
210
0
220
0
230
1
0
LINE
5
AB
100
AcDbEntity
8
1
62
256
6
ByLayer
370
18
48
1
60
1
100
AcDbLine
10
44.710784
20
4.690502
30
0
11
44.25
21
1.1905
31
0
39
0
210
0
220
0
230
1
0
LINE
5
AC
100
AcDbEntity
8
1
62
256
6
ByLayer
370
18
48
1
60
1
100
AcDbLine
10
44.25
20
-1.1905
30
0
11
44.710784
21
-4.690498
31
0
39
0
210
0
220
0
230
1
0
LINE
5
AD
100
AcDbEntity
8
1
62
256
6
ByLayer
370
18
48
1
60
1
100
AcDbLine
10
44.710784
20
-4.690498
30
0
11
43.789216
21
-4.690502
31
0
39
0
210
0
220
0
230
1
0
LINE
5
AE
100
AcDbEntity
8
1
62
256
6
ByLayer
370
18
48
1
60
1
100
AcDbLine
10
43.789216
20
-4.690502
30
0
11
44.25
21
-1.1905
31
0
39
0
210
0
220
0
230
1
0
LINE
5
AF
100
AcDbEntity
8
SK2
62
256
6
ByLayer
370
13
48
1
60
0
100
AcDbLine
10
-30.75
20
10.25
30
0
11
-30.75
21
-23.5
31
0
39
0
210
0
220
0
230
1
0
LINE
5
B1
100
AcDbEntity
8
SK2
62
256
6
ByLayer
370
13
48
1
60
0
100
AcDbLine
10
-24.3375
20
1.5
30
0
11
-32.75
21
1.5
31
0
39
0
210
0
220
0
230
1
0
LINE
5
B2
100
AcDbEntity
8
SK2
62
256
6
ByLayer
370
13
48
1
60
0
100
AcDbLine
10
-24.3375
20
-1.5
30
0
11
-32.75
21
-1.5
31
0
39
0
210
0
220
0
230
1
0
LINE
5
B3
100
AcDbEntity
8
1
62
256
6
ByLayer
370
18
48
1
60
1
100
AcDbLine
10
-30.75
20
1.5
30
0
11
-31.210784
21
4.999998
31
0
39
0
210
0
220
0
230
1
0
LINE
5
B4
100
AcDbEntity
8
1
62
256
6
ByLayer
370
18
48
1
60
1
100
AcDbLine
10
-31.210784
20
4.999998
30
0
11
-30.289216
21
5.000002
31
0
39
0
210
0
220
0
230
1
0
LINE
5
B5
100
AcDbEntity
8
1
62
256
6
ByLayer
370
18
48
1
60
1
100
AcDbLine
10
-30.289216
20
5.000002
30
0
11
-30.75
21
1.5
31
0
39
0
210
0
220
0
230
1
0
LINE
5
B6
100
AcDbEntity
8
1
62
256
6
ByLayer
370
18
48
1
60
1
100
AcDbLine
10
-30.75
20
-1.5
30
0
11
-30.289216
21
-4.999998
31
0
39
0
210
0
220
0
230
1
0
LINE
5
B7
100
AcDbEntity
8
1
62
256
6
ByLayer
370
18
48
1
60
1
100
AcDbLine
10
-30.289216
20
-4.999998
30
0
11
-31.210784
21
-5.000002
31
0
39
0
210
0
220
0
230
1
0
LINE
5
B8
100
AcDbEntity
8
1
62
256
6
ByLayer
370
18
48
1
60
1
100
AcDbLine
10
-31.210784
20
-5.000002
30
0
11
-30.75
21
-1.5
31
0
39
0
210
0
220
0
230
1
0
LINE
5
FA
100
AcDbEntity
8
1
62
256
6
ByLayer
370
18
48
1
60
1
100
AcDbLine
10
44.25
20
1.1905
30
0
11
43.789216
21
4.690498
31
0
39
0
210
0
220
0
230
1
0
LINE
5
FB
100
AcDbEntity
8
1
62
256
6
ByLayer
370
18
48
1
60
1
100
AcDbLine
10
43.789216
20
4.690498
30
0
11
44.710784
21
4.690502
31
0
39
0
210
0
220
0
230
1
0
LINE
5
FC
100
AcDbEntity
8
1
62
256
6
ByLayer
370
18
48
1
60
1
100
AcDbLine
10
44.710784
20
4.690502
30
0
11
44.25
21
1.1905
31
0
39
0
210
0
220
0
230
1
0
LINE
5
FE
100
AcDbEntity
8
1
62
256
6
ByLayer
370
18
48
1
60
1
100
AcDbLine
10
44.25
20
-1.1905
30
0
11
44.710784
21
-4.690498
31
0
39
0
210
0
220
0
230
1
0
LINE
5
FF
100
AcDbEntity
8
1
62
256
6
ByLayer
370
18
48
1
60
1
100
AcDbLine
10
44.710784
20
-4.690498
30
0
11
43.789216
21
-4.690502
31
0
39
0
210
0
220
0
230
1
0
LINE
5
100
100
AcDbEntity
8
1
62
256
6
ByLayer
370
18
48
1
60
1
100
AcDbLine
10
43.789216
20
-4.690502
30
0
11
44.25
21
-1.1905
31
0
39
0
210
0
220
0
230
1
0
LINE
5
104
100
AcDbEntity
8
1
62
256
6
ByLayer
370
18
48
1
60
1
100
AcDbLine
10
-30.75
20
1.5
30
0
11
-31.210784
21
4.999998
31
0
39
0
210
0
220
0
230
1
0
LINE
5
105
100
AcDbEntity
8
1
62
256
6
ByLayer
370
18
48
1
60
1
100
AcDbLine
10
-31.210784
20
4.999998
30
0
11
-30.289216
21
5.000002
31
0
39
0
210
0
220
0
230
1
0
LINE
5
106
100
AcDbEntity
8
1
62
256
6
ByLayer
370
18
48
1
60
1
100
AcDbLine
10
-30.289216
20
5.000002
30
0
11
-30.75
21
1.5
31
0
39
0
210
0
220
0
230
1
0
LINE
5
108
100
AcDbEntity
8
1
62
256
6
ByLayer
370
18
48
1
60
1
100
AcDbLine
10
-30.75
20
-1.5
30
0
11
-30.289216
21
-4.999998
31
0
39
0
210
0
220
0
230
1
0
LINE
5
109
100
AcDbEntity
8
1
62
256
6
ByLayer
370
18
48
1
60
1
100
AcDbLine
10
-30.289216
20
-4.999998
30
0
11
-31.210784
21
-5.000002
31
0
39
0
210
0
220
0
230
1
0
LINE
5
10A
100
AcDbEntity
8
1
62
256
6
ByLayer
370
18
48
1
60
1
100
AcDbLine
10
-31.210784
20
-5.000002
30
0
11
-30.75
21
-1.5
31
0
39
0
210
0
220
0
230
1
0
MTEXT
5
F5
100
AcDbEntity
8
2
62
256
6
ByLayer
370
18
48
1
60
0
100
AcDbMText
10
42.685366
20
10.684477
30
0
210
0
220
0
230
1
1
%%c
40
3.5
41
0
44
1.084337
50
90
71
7
72
5
7
iso_b_vert
0
MTEXT
5
F8
100
AcDbEntity
8
2
62
256
6
ByLayer
370
18
48
1
60
0
100
AcDbMText
10
42.685366
20
4.348
30
0
210
0
220
0
230
1
1
\W0.2969; 
40
3.5
41
0
44
1.084337
50
90
71
7
72
5
7
iso_b_vert
0
MTEXT
5
F9
100
AcDbEntity
8
2
62
256
6
ByLayer
370
18
48
1
60
0
100
AcDbMText
10
42.685366
20
17.657133
30
0
210
0
220
0
230
1
1
\W0.7346;2.38
40
3.5
41
0
44
1.084337
50
90
71
7
72
5
7
iso_b_vert
0
MTEXT
5
102
100
AcDbEntity
8
SK2
62
256
6
ByLayer
370
18
48
1
60
0
100
AcDbMText
10
-32.314634
20
-21.565156
30
0
210
0
220
0
230
1
1
%%c
40
3.5
41
0
44
1.084337
50
90
71
7
72
5
7
iso_b_vert
0
MTEXT
5
103
100
AcDbEntity
8
SK2
62
256
6
ByLayer
370
18
48
1
60
0
100
AcDbMText
10
-32.314634
20
-14.5925
30
0
210
0
220
0
230
1
1
\W0.7346;3.00
40
3.5
41
0
44
1.084337
50
90
71
7
72
5
7
iso_b_vert
0
MTEXT
5
10C
100
AcDbEntity
8
SK6
62
256
6
ByLayer
370
18
48
1
60
0
100
AcDbMText
10
-22.5645
20
-60.172062
30
0
210
0
220
0
230
1
1
\W0.7324;862.1-2381-190A0-GM X1DU
40
3.5
41
0
44
1.084337
50
0
71
7
72
5
7
iso_b_vert
0
HATCH
5
FD
100
AcDbEntity
8
2
62
256
6
ByLayer
370
13
48
1
60
0
100
AcDbHatch
10
0
20
0
30
0
210
0
220
0
230
1
2
ANSI31
70
0
71
0
91
1
92
5
93
3
72
1
10
44.25
20
1.19050000000001
11
43.7892162584472
21
4.69049830744683
72
1
10
43.7892162584472
20
4.69049830744683
11
44.7107837415528
21
4.6905016925532
72
1
10
44.7107837415528
20
4.6905016925532
11
44.25
21
1.19050000000001
97
0
75
0
76
1
52
0
41
0.0062
77
0
78
1
53
45
43
0
44
0
45
-0.0139193969876572
46
0.0139193969876572
79
0
47
0
98
1
10
0
20
0
0
HATCH
5
101
100
AcDbEntity
8
2
62
256
6
ByLayer
370
13
48
1
60
0
100
AcDbHatch
10
0
20
0
30
0
210
0
220
0
230
1
2
ANSI31
70
0
71
0
91
1
92
5
93
3
72
1
10
44.25
20
-1.19049999999999
11
44.7107837415528
21
-4.6904983074468
72
1
10
44.7107837415528
20
-4.6904983074468
11
43.7892162584472
21
-4.69050169255317
72
1
10
43.7892162584472
20
-4.69050169255317
11
44.25
21
-1.19049999999999
97
0
75
0
76
1
52
0
41
0.0062
77
0
78
1
53
45
43
0
44
0
45
-0.0139193969876572
46
0.0139193969876572
79
0
47
0
98
1
10
0
20
0
0
HATCH
5
107
100
AcDbEntity
8
SK2
62
256
6
ByLayer
370
13
48
1
60
0
100
AcDbHatch
10
0
20
0
30
0
210
0
220
0
230
1
2
ANSI31
70
0
71
0
91
1
92
5
93
3
72
1
10
-30.75
20
1.49999999999997
11
-31.2107837415528
21
4.99999830744679
72
1
10
-31.2107837415528
20
4.99999830744679
11
-30.2892162584472
21
5.00000169255316
72
1
10
-30.2892162584472
20
5.00000169255316
11
-30.75
21
1.49999999999997
97
0
75
0
76
1
52
0
41
0.0062
77
0
78
1
53
45
43
0
44
0
45
-0.0139193969876572
46
0.0139193969876572
79
0
47
0
98
1
10
0
20
0
0
HATCH
5
10B
100
AcDbEntity
8
SK2
62
256
6
ByLayer
370
13
48
1
60
0
100
AcDbHatch
10
0
20
0
30
0
210
0
220
0
230
1
2
ANSI31
70
0
71
0
91
1
92
5
93
3
72
1
10
-30.75
20
-1.50000000000003
11
-30.2892162584472
21
-4.99999830744684
72
1
10
-30.2892162584472
20
-4.99999830744684
11
-31.2107837415528
21
-5.00000169255321
72
1
10
-31.2107837415528
20
-5.00000169255321
11
-30.75
21
-1.50000000000003
97
0
75
0
76
1
52
0
41
0.0062
77
0
78
1
53
45
43
0
44
0
45
-0.0139193969876572
46
0.0139193969876572
79
0
47
0
98
1
10
0
20
0
0
DIMENSION
5
10F
100
AcDbEntity
8
2
62
256
6
ByLayer
370
18
48
1
60
0
100
AcDbDimension
2
_U0
10
26.535
20
22.0595
30
0
11
20.072699
21
22.0595
31
0
70
32
71
1
72
1
41
1
210
0
220
0
230
1
3
Standard
100
AcDbAlignedDimension
13
0
23
-1.5
33
0
14
26.535
24
-1.1905
34
0
50
0
100
AcDbRotatedDimension
1001
ACAD
1000
DSTYLE
1002
{
1070
   371
1070
    13
1070
   372
1070
    13
1070
   170
1070
     0
1070
   144
1040
1.0
1070
   277
1070
     2
1070
   284
1070
     8
1070
   278
1070
    46
1070
   146
1040
1.0
1070
   345
1005
16
1070
   347
1005
16
1070
   346
1005
16
1070
   344
1005
0
1070
   343
1005
0
1070
   172
1070
     1
1070
    76
1070
     0
1070
    75
1070
     0
1070
   282
1070
     0
1070
   281
1070
     0
1070
    71
1070
     0
1070
    74
1070
     0
1070
   279
1070
     0
1070
   173
1070
     1
1070
   340
1005
F6
1070
   271
1070
     2
1070
   272
1070
     2
1070
    77
1070
     1
1070
    73
1070
     1
1070
   171
1070
     3
1070
   274
1070
     4
1070
   177
1070
     2
1070
   176
1070
     2
1070
   178
1070
     2
1070
    78
1070
     8
1070
    48
1040
-0.1
1070
    41
1040
3.5
1070
   147
1040
1.75
1070
    42
1040
1.5875
1070
    44
1040
2.0
1070
   140
1040
3.5
1002
}
1001
ACAD_DSTYLE_DIM_LINETYPE
1070
   380
1005
16
1001
ACAD_DSTYLE_DIM_EXT1_LINETYPE
1070
   381
1005
16
1001
ACAD_DSTYLE_DIM_EXT2_LINETYPE
1070
   382
1005
16
0
DIMENSION
5
128
100
AcDbEntity
8
SK2
62
256
6
ByLayer
370
18
48
1
60
0
100
AcDbDimension
2
_U1
10
0
20
-23.25
30
0
11
-11.335068
21
-23.25
31
0
70
32
71
1
72
1
41
1
210
0
220
0
230
1
3
Standard
100
AcDbAlignedDimension
13
-22.75
23
-1.5
33
0
14
0
24
-1.5
34
0
50
0
100
AcDbRotatedDimension
1001
ACAD
1000
DSTYLE
1002
{
1070
   371
1070
    13
1070
   372
1070
    13
1070
   170
1070
     0
1070
   144
1040
1.0
1070
   277
1070
     2
1070
   284
1070
     8
1070
   278
1070
    46
1070
   146
1040
1.0
1070
   345
1005
16
1070
   347
1005
16
1070
   346
1005
16
1070
   344
1005
0
1070
   343
1005
0
1070
   172
1070
     1
1070
    76
1070
     0
1070
    75
1070
     0
1070
   282
1070
     0
1070
   281
1070
     0
1070
    71
1070
     0
1070
    74
1070
     0
1070
   279
1070
     0
1070
   173
1070
     1
1070
   340
1005
F6
1070
   271
1070
     2
1070
   272
1070
     2
1070
    77
1070
     1
1070
    73
1070
     1
1070
   171
1070
     3
1070
   274
1070
     4
1070
   177
1070
     2
1070
   176
1070
     2
1070
   178
1070
     2
1070
    78
1070
     8
1070
    48
1040
-0.1
1070
    41
1040
3.5
1070
   147
1040
1.75
1070
    42
1040
1.5875
1070
    44
1040
2.0
1070
   140
1040
3.5
1002
}
1001
ACAD_DSTYLE_DIM_LINETYPE
1070
   380
1005
16
1001
ACAD_DSTYLE_DIM_EXT1_LINETYPE
1070
   381
1005
16
1001
ACAD_DSTYLE_DIM_EXT2_LINETYPE
1070
   382
1005
16
0
DIMENSION
5
140
100
AcDbEntity
8
SK2
62
256
6
ByLayer
370
18
48
1
60
0
100
AcDbDimension
2
_U2
10
27.25
20
-16.4405
30
0
11
42.75
21
-16.4405
31
0
70
32
71
1
72
1
41
1
210
0
220
0
230
1
3
Standard
100
AcDbAlignedDimension
13
8.202
23
-1.1905
33
0
14
27.25
24
-1.1905
34
0
50
0
100
AcDbRotatedDimension
1001
ACAD
1000
DSTYLE
1002
{
1070
   371
1070
    13
1070
   372
1070
    13
1070
   170
1070
     0
1070
   144
1040
1.0
1070
   277
1070
     2
1070
   284
1070
     8
1070
   278
1070
    46
1070
   146
1040
1.0
1070
   345
1005
16
1070
   347
1005
16
1070
   346
1005
16
1070
   344
1005
0
1070
   343
1005
0
1070
   172
1070
     1
1070
    76
1070
     0
1070
    75
1070
     0
1070
   282
1070
     0
1070
   281
1070
     0
1070
    71
1070
     0
1070
    74
1070
     0
1070
   279
1070
     0
1070
   173
1070
     1
1070
   340
1005
F6
1070
   271
1070
     2
1070
   272
1070
     2
1070
    77
1070
     1
1070
    73
1070
     1
1070
   171
1070
     3
1070
   274
1070
     4
1070
   177
1070
     2
1070
   176
1070
     2
1070
   178
1070
     2
1070
    78
1070
     8
1070
    48
1040
-0.1
1070
    41
1040
3.5
1070
   147
1040
1.75
1070
    42
1040
1.5875
1070
    44
1040
2.0
1070
   140
1040
3.5
1002
}
1001
ACAD_DSTYLE_DIM_LINETYPE
1070
   380
1005
16
1001
ACAD_DSTYLE_DIM_EXT1_LINETYPE
1070
   381
1005
16
1001
ACAD_DSTYLE_DIM_EXT2_LINETYPE
1070
   382
1005
16
0
DIMENSION
5
159
100
AcDbEntity
8
SK2
62
256
6
ByLayer
370
18
48
1
60
0
100
AcDbDimension
2
_U3
10
27.25
20
-26.4405
30
0
11
43
21
-26.4405
31
0
70
32
71
1
72
1
41
1
210
0
220
0
230
1
3
Standard
100
AcDbAlignedDimension
13
4.078
23
-1.1905
33
0
14
27.25
24
-1.1905
34
0
50
0
100
AcDbRotatedDimension
1001
ACAD
1000
DSTYLE
1002
{
1070
   371
1070
    13
1070
   372
1070
    13
1070
   170
1070
     0
1070
   144
1040
1.0
1070
   277
1070
     2
1070
   284
1070
     8
1070
   278
1070
    46
1070
   146
1040
1.0
1070
   345
1005
16
1070
   347
1005
16
1070
   346
1005
16
1070
   344
1005
0
1070
   343
1005
0
1070
   172
1070
     1
1070
    76
1070
     0
1070
    75
1070
     0
1070
   282
1070
     0
1070
   281
1070
     0
1070
    71
1070
     0
1070
    74
1070
     0
1070
   279
1070
     0
1070
   173
1070
     1
1070
   340
1005
F6
1070
   271
1070
     2
1070
   272
1070
     2
1070
    77
1070
     1
1070
    73
1070
     1
1070
   171
1070
     3
1070
   274
1070
     4
1070
   177
1070
     2
1070
   176
1070
     2
1070
   178
1070
     2
1070
    78
1070
     8
1070
    48
1040
-0.1
1070
    41
1040
3.5
1070
   147
1040
1.75
1070
    42
1040
1.5875
1070
    44
1040
2.0
1070
   140
1040
3.5
1002
}
1001
ACAD_DSTYLE_DIM_LINETYPE
1070
   380
1005
16
1001
ACAD_DSTYLE_DIM_EXT1_LINETYPE
1070
   381
1005
16
1001
ACAD_DSTYLE_DIM_EXT2_LINETYPE
1070
   382
1005
16
0
DIMENSION
5
172
100
AcDbEntity
8
SK2
62
256
6
ByLayer
370
18
48
1
60
0
100
AcDbDimension
2
_U4
10
27.25
20
-36.509391
30
0
11
2.25
21
-36.509391
31
0
70
32
71
1
72
1
41
1
210
0
220
0
230
1
3
Standard
100
AcDbAlignedDimension
13
-22.75
23
1.5
33
0
14
27.25
24
1.1905
34
0
50
0
100
AcDbRotatedDimension
1001
ACAD
1000
DSTYLE
1002
{
1070
   371
1070
    13
1070
   372
1070
    13
1070
     3
1000

1070
   170
1070
     0
1070
   144
1040
1.0
1070
   277
1070
     2
1070
   284
1070
     8
1070
   278
1070
    46
1070
   146
1040
1.0
1070
   345
1005
16
1070
   347
1005
16
1070
   346
1005
16
1070
   344
1005
0
1070
   343
1005
0
1070
   172
1070
     1
1070
    76
1070
     0
1070
    75
1070
     0
1070
   282
1070
     0
1070
   281
1070
     0
1070
    71
1070
     0
1070
    74
1070
     0
1070
   279
1070
     0
1070
   173
1070
     1
1070
   340
1005
F6
1070
   271
1070
     2
1070
   272
1070
     2
1070
    77
1070
     1
1070
    73
1070
     1
1070
   171
1070
     3
1070
   274
1070
     4
1070
   177
1070
     2
1070
   176
1070
     2
1070
   178
1070
     2
1070
    78
1070
     8
1070
    48
1040
-0.1
1070
    41
1040
3.5
1070
   147
1040
1.75
1070
    42
1040
1.5875
1070
    44
1040
2.0
1070
   140
1040
3.5
1002
}
1001
ACAD_DSTYLE_DIM_LINETYPE
1070
   380
1005
16
1001
ACAD_DSTYLE_DIM_EXT1_LINETYPE
1070
   381
1005
16
1001
ACAD_DSTYLE_DIM_EXT2_LINETYPE
1070
   382
1005
16
0
ENDSEC
0
SECTION
2
OBJECTS
0
DICTIONARY
5
1fc
330
0
100
AcDbDictionary
280
0
281
1
3
ACAD_GROUP
350
1fd
3
ACAD_MLINESTYLE
350
1fe
0
DICTIONARY
5
1fd
330
0
100
AcDbDictionary
280
0
281
1
0
DICTIONARY
5
1fe
330
0
100
AcDbDictionary
280
0
281
1
3
Standard
350
18
0
MLINESTYLE
5
18
330
1fe
100
AcDbMlineStyle
2
Standard
70
0
3

62
256
51
90
52
90
71
2
49
-0.5
62
256
6
ByLayer
49
0.5
62
256
6
ByLayer
0
RASTERVARIABLES
5
1ea
330

100
AcDbRasterVariables
90
0
70
1
71
1
72
1
0
ENDSEC
0
EOF
