0
SECTION
2
HEADER
9
$ACADVER
1
AC1015
9
$DWGCODEPAGE
3
ANSI_1252
9
$HANDSEED
5
211
9
$ANGBASE
50
0
9
$ANGDIR
70
0
9
$ATTMODE
70
1
9
$AUNITS
70
0
9
$AUPREC
70
0
9
$CECOLOR
62
256
9
$CELTSCALE
40
1
9
$CELTYPE
6
ByLayer
9
$CELWEIGHT
370
18
9
$CLAYER
8
0
9
$CMLJUST
70
0
9
$CMLSCALE
40
1
9
$CMLSTYLE
2
Standard
9
$DIMSTYLE
2
Standard
9
$TEXTSIZE
40
0.2
9
$TEXTSTYLE
7
Standard
9
$LUNITS
70
2
9
$LUPREC
70
4
9
$EXTNAMES
290
1
9
$INSUNITS
70
4
9
$LTSCALE
40
1
9
$LWDISPLAY
290
1
9
$PDMODE
70
0
9
$PDSIZE
40
0
9
$PLINEGEN
70
0
0
ENDSEC
0
SECTION
2
CLASSES
0
CLASS
1
RASTERVARIABLES
2
AcDbRasterVariables
3
ISM
90
0
280
0
281
0
0
ENDSEC
0
SECTION
2
TABLES
0
TABLE
2
VPORT
5
207
100
AcDbSymbolTable
0
VPORT
5
1
100
AcDbSymbolTableRecord
100
AcDbViewportTableRecord
2
*Active
70
0
10
0
20
0
11
1
21
1
12
-1
22
1
13
0
23
0
14
0.5
24
0.5
15
10
25
10
16
0
26
0
36
1
17
0
27
0
37
0
0
ENDTAB
0
TABLE
2
LTYPE
5
208
100
AcDbSymbolTable
0
LTYPE
5
14
100
AcDbSymbolTableRecord
100
AcDbLinetypeTableRecord
70
0
2
ByBlock
3

72
65
73
0
40
0
0
LTYPE
5
15
100
AcDbSymbolTableRecord
100
AcDbLinetypeTableRecord
70
0
2
ByLayer
3

72
65
73
0
40
0
0
LTYPE
5
16
100
AcDbSymbolTableRecord
100
AcDbLinetypeTableRecord
70
0
2
Continuous
3
Solid line
72
65
73
0
40
0
0
LTYPE
5
6E
100
AcDbSymbolTableRecord
100
AcDbLinetypeTableRecord
70
0
2
CENTER
3
____ _ ____ _ ____ _ ____
72
65
73
4
40
47.5
49
22
74
0
49
-8.5
74
0
49
8.5
74
0
49
-8.5
74
0
0
LTYPE
5
6F
100
AcDbSymbolTableRecord
100
AcDbLinetypeTableRecord
70
0
2
DASHED
3
__ __ __ __ __ __ __ __ __
72
65
73
2
40
25.72
49
12.86
74
0
49
-12.86
74
0
0
ENDTAB
0
TABLE
2
LAYER
5
209
100
AcDbSymbolTable
0
LAYER
5
10
100
AcDbSymbolTableRecord
100
AcDbLayerTableRecord
2
0
70
0
62
7
6
Continuous
290
1
370
-3
390
0
0
LAYER
5
71
100
AcDbSymbolTableRecord
100
AcDbLayerTableRecord
2
80
70
0
62
-6
6
Continuous
290
1
370
-3
390
0
0
LAYER
5
73
100
AcDbSymbolTableRecord
100
AcDbLayerTableRecord
2
81
70
0
62
-3
6
Continuous
290
1
370
-3
390
0
0
LAYER
5
75
100
AcDbSymbolTableRecord
100
AcDbLayerTableRecord
2
1
70
0
62
4
6
Continuous
290
1
370
-3
390
0
0
LAYER
5
84
100
AcDbSymbolTableRecord
100
AcDbLayerTableRecord
2
4
70
0
62
-2
6
CENTER
290
1
370
-3
390
0
0
LAYER
5
A8
100
AcDbSymbolTableRecord
100
AcDbLayerTableRecord
2
2
70
0
62
7
6
Continuous
290
1
370
-3
390
0
0
LAYER
5
11A
100
AcDbSymbolTableRecord
100
AcDbLayerTableRecord
2
Defpoints
70
0
62
7
6
Continuous
290
0
370
-3
390
0
0
LAYER
5
1f3
100
AcDbSymbolTableRecord
100
AcDbLayerTableRecord
2
SK4
70
0
62
2
6
CENTER
290
1
370
-3
390
0
0
LAYER
5
1f4
100
AcDbSymbolTableRecord
100
AcDbLayerTableRecord
2
SK1
70
0
62
4
6
Continuous
290
1
370
-3
390
0
0
LAYER
5
1f5
100
AcDbSymbolTableRecord
100
AcDbLayerTableRecord
2
SK2
70
0
62
7
6
Continuous
290
1
370
-3
390
0
0
LAYER
5
1f6
100
AcDbSymbolTableRecord
100
AcDbLayerTableRecord
2
SK6
70
0
62
5
6
Continuous
290
1
370
-3
390
0
0
ENDTAB
0
TABLE
2
STYLE
5
20a
100
AcDbSymbolTable
0
STYLE
5
11
100
AcDbSymbolTableRecord
100
AcDbTextStyleTableRecord
2
Standard
3
txt
70
0
71
0
40
0
41
1
42
0
50
0
0
STYLE
5
FE
100
AcDbSymbolTableRecord
100
AcDbTextStyleTableRecord
2
iso_b_vert
3
simplex.shx
70
0
71
0
40
0
41
1
42
0
50
0
0
STYLE
5
FF
100
AcDbSymbolTableRecord
100
AcDbTextStyleTableRecord
2
DWGDirectTextStyle
3
simplex
70
0
71
0
40
0
41
1
42
0
50
0
0
ENDTAB
0
TABLE
2
DIMSTYLE
5
20b
100
AcDbSymbolTable
100
AcDbDimStyleTable
0
DIMSTYLE
105
27
100
AcDbSymbolTableRecord
100
AcDbDimStyleTableRecord
2
Standard
70
0
3
<>
41
0.18
42
0.0625
44
0.18
140
0.18
147
0.09
73
0
74
0
77
1
271
2
275
0
278
52
280
0
340
11
0
ENDTAB
0
TABLE
2
VIEW
5
20c
100
AcDbSymbolTable
0
ENDTAB
0
TABLE
2
UCS
5
20d
100
AcDbSymbolTable
0
ENDTAB
0
TABLE
2
APPID
5
20e
100
AcDbSymbolTable
0
APPID
5
12
100
AcDbSymbolTableRecord
100
AcDbRegAppTableRecord
2
ACAD
70
0
0
APPID
5
116
100
AcDbSymbolTableRecord
100
AcDbRegAppTableRecord
2
ACAD_DSTYLE_DIMBREAK
70
0
0
APPID
5
1B2
100
AcDbSymbolTableRecord
100
AcDbRegAppTableRecord
2
ACAD_DSTYLE_DIM_LINETYPE
70
0
0
APPID
5
1B3
100
AcDbSymbolTableRecord
100
AcDbRegAppTableRecord
2
ACAD_DSTYLE_DIM_EXT1_LINETYPE
70
0
0
APPID
5
1B4
100
AcDbSymbolTableRecord
100
AcDbRegAppTableRecord
2
ACAD_DSTYLE_DIM_EXT2_LINETYPE
70
0
0
APPID
5
1EF
100
AcDbSymbolTableRecord
100
AcDbRegAppTableRecord
2
ACAD_MLEADERVER
70
0
0
ENDTAB
0
TABLE
2
BLOCK_RECORD
5
20f
100
AcDbSymbolTable
0
BLOCK_RECORD
5
1F
100
AcDbSymbolTableRecord
100
AcDbBlockTableRecord
2
*Model_Space
340
0
70
0
0
BLOCK_RECORD
5
1B
100
AcDbSymbolTableRecord
100
AcDbBlockTableRecord
2
*Paper_Space
340
0
70
0
0
BLOCK_RECORD
5
23
100
AcDbSymbolTableRecord
100
AcDbBlockTableRecord
2
*Paper_Space0
340
0
70
0
0
BLOCK_RECORD
5
11B
100
AcDbSymbolTableRecord
100
AcDbBlockTableRecord
2
*D1
340
0
70
0
0
BLOCK_RECORD
5
127
100
AcDbSymbolTableRecord
100
AcDbBlockTableRecord
2
_U0
340
0
70
0
0
BLOCK_RECORD
5
133
100
AcDbSymbolTableRecord
100
AcDbBlockTableRecord
2
*D3
340
0
70
0
0
BLOCK_RECORD
5
13F
100
AcDbSymbolTableRecord
100
AcDbBlockTableRecord
2
_U1
340
0
70
0
0
BLOCK_RECORD
5
14B
100
AcDbSymbolTableRecord
100
AcDbBlockTableRecord
2
*D5
340
0
70
0
0
BLOCK_RECORD
5
158
100
AcDbSymbolTableRecord
100
AcDbBlockTableRecord
2
_U2
340
0
70
0
0
BLOCK_RECORD
5
164
100
AcDbSymbolTableRecord
100
AcDbBlockTableRecord
2
*D7
340
0
70
0
0
BLOCK_RECORD
5
171
100
AcDbSymbolTableRecord
100
AcDbBlockTableRecord
2
_U3
340
0
70
0
0
BLOCK_RECORD
5
17D
100
AcDbSymbolTableRecord
100
AcDbBlockTableRecord
2
*D9
340
0
70
0
0
BLOCK_RECORD
5
189
100
AcDbSymbolTableRecord
100
AcDbBlockTableRecord
2
_U4
340
0
70
0
0
ENDTAB
0
ENDSEC
0
SECTION
2
BLOCKS
0
BLOCK
5
20
100
AcDbEntity
8
0
100
AcDbBlockBegin
2
*Model_Space
70
0
10
0
20
0
30
0
3
*Model_Space
0
ENDBLK
5
21
100
AcDbEntity
8
0
100
AcDbBlockEnd
0
BLOCK
5
1C
100
AcDbEntity
8
0
100
AcDbBlockBegin
2
*Paper_Space
70
0
10
0
20
0
30
0
3
*Paper_Space
0
ENDBLK
5
1D
100
AcDbEntity
8
0
100
AcDbBlockEnd
0
BLOCK
5
24
100
AcDbEntity
8
0
100
AcDbBlockBegin
2
*Paper_Space0
70
0
10
0
20
0
30
0
3
*Paper_Space0
0
ENDBLK
5
25
100
AcDbEntity
8
0
100
AcDbBlockEnd
0
BLOCK
5
11C
100
AcDbEntity
8
0
100
AcDbBlockBegin
2
*D1
70
1
10
0
20
0
30
0
3
*D1
0
LINE
5
11E
100
AcDbEntity
8
0
62
256
6
ByLayer
370
-2
48
1
60
0
100
AcDbLine
10
0
20
0.0875
30
0
11
0
21
24.258
31
0
39
0
210
0
220
0
230
1
0
LINE
5
11F
100
AcDbEntity
8
0
62
256
6
ByLayer
370
-2
48
1
60
0
100
AcDbLine
10
30.84
20
0.5955
30
0
11
30.84
21
24.258
31
0
39
0
210
0
220
0
230
1
0
LINE
5
120
100
AcDbEntity
8
0
62
256
6
ByLayer
370
-2
48
1
60
0
100
AcDbLine
10
3.5
20
22.258
30
0
11
27.34
21
22.258
31
0
39
0
210
0
220
0
230
1
0
SOLID
5
121
100
AcDbEntity
8
0
62
256
6
ByLayer
370
-1
48
1
60
0
100
AcDbTrace
10
3.5
20
22.841333
30
0
11
3.5
21
21.674667
31
0
12
0
22
22.258
32
0
13
0
23
22.258
33
0
39
0
210
0
220
0
230
1
0
SOLID
5
122
100
AcDbEntity
8
0
62
256
6
ByLayer
370
-1
48
1
60
0
100
AcDbTrace
10
27.34
20
21.674667
30
0
11
27.34
21
22.841333
31
0
12
30.84
22
22.258
32
0
13
30.84
23
22.258
33
0
39
0
210
0
220
0
230
1
0
MTEXT
5
123
100
AcDbEntity
8
0
62
256
6
ByLayer
370
18
48
1
60
0
100
AcDbMText
10
22.421199
20
29.258
30
0
210
0
220
0
230
1
1
\A1;30.84
40
3.5
41
0
44
1
50
0
71
5
72
5
7
iso_b_vert
0
POINT
5
124
100
AcDbEntity
8
Defpoints
62
0
6
ByLayer
370
-1
48
1
60
0
100
AcDbPoint
10
0
20
-1.5
30
0
39
0
210
0
220
0
230
1
50
360
0
POINT
5
125
100
AcDbEntity
8
Defpoints
62
0
6
ByLayer
370
-1
48
1
60
0
100
AcDbPoint
10
30.84
20
-0.992
30
0
39
0
210
0
220
0
230
1
50
360
0
POINT
5
126
100
AcDbEntity
8
Defpoints
62
0
6
ByLayer
370
-1
48
1
60
0
100
AcDbPoint
10
30.84
20
22.258
30
0
39
0
210
0
220
0
230
1
50
360
0
ENDBLK
5
11D
100
AcDbEntity
8
0
100
AcDbBlockEnd
0
BLOCK
5
12E
100
AcDbEntity
8
0
100
AcDbBlockBegin
2
_U0
70
0
10
0
20
0
30
0
3
_U0
0
MTEXT
5
128
100
AcDbEntity
8
2
62
256
6
ByLayer
370
18
48
1
60
0
100
AcDbMText
10
17.0075
20
23.290634
30
0
210
0
220
0
230
1
1
\W0.7607;30.84
40
3.5
41
0
44
1.084337
50
0
71
7
72
5
7
iso_b_vert
0
LINE
5
129
100
AcDbEntity
8
2
62
256
6
ByLayer
370
13
48
1
60
0
100
AcDbLine
10
0
20
0.0875
30
0
11
0
21
24.258
31
0
39
0
210
0
220
0
230
1
0
LINE
5
12A
100
AcDbEntity
8
2
62
256
6
ByLayer
370
13
48
1
60
0
100
AcDbLine
10
30.84
20
0.5955
30
0
11
30.84
21
24.258
31
0
39
0
210
0
220
0
230
1
0
LINE
5
12B
100
AcDbEntity
8
2
62
256
6
ByLayer
370
13
48
1
60
0
100
AcDbLine
10
0
20
22.258
30
0
11
30.84
21
22.258
31
0
39
0
210
0
220
0
230
1
0
SOLID
5
12C
100
AcDbEntity
8
2
62
256
6
ByLayer
370
18
48
1
60
0
100
AcDbTrace
10
0
20
22.258
30
0
11
3.499998
21
22.718784
31
0
12
3.500002
22
21.797216
32
0
13
3.500002
23
21.797216
33
0
39
0
210
0
220
0
230
1
0
SOLID
5
12D
100
AcDbEntity
8
2
62
256
6
ByLayer
370
18
48
1
60
0
100
AcDbTrace
10
30.84
20
22.258
30
0
11
27.340002
21
21.797216
31
0
12
27.339998
22
22.718784
32
0
13
27.339998
23
22.718784
33
0
39
0
210
0
220
0
230
1
0
ENDBLK
5
12F
100
AcDbEntity
8
0
100
AcDbBlockEnd
0
BLOCK
5
134
100
AcDbEntity
8
0
100
AcDbBlockBegin
2
*D3
70
1
10
0
20
0
30
0
3
*D3
0
LINE
5
136
100
AcDbEntity
8
0
62
256
6
ByLayer
370
-2
48
1
60
0
100
AcDbLine
10
-18.564
20
-3.0875
30
0
11
-18.564
21
-25.25
31
0
39
0
210
0
220
0
230
1
0
LINE
5
137
100
AcDbEntity
8
0
62
256
6
ByLayer
370
-2
48
1
60
0
100
AcDbLine
10
0
20
-3.0875
30
0
11
0
21
-25.25
31
0
39
0
210
0
220
0
230
1
0
LINE
5
138
100
AcDbEntity
8
0
62
256
6
ByLayer
370
-2
48
1
60
0
100
AcDbLine
10
-15.064
20
-23.25
30
0
11
-3.5
21
-23.25
31
0
39
0
210
0
220
0
230
1
0
SOLID
5
139
100
AcDbEntity
8
0
62
256
6
ByLayer
370
-1
48
1
60
0
100
AcDbTrace
10
-15.064
20
-22.666667
30
0
11
-15.064
21
-23.833333
31
0
12
-18.564
22
-23.25
32
0
13
-18.564
23
-23.25
33
0
39
0
210
0
220
0
230
1
0
SOLID
5
13A
100
AcDbEntity
8
0
62
256
6
ByLayer
370
-1
48
1
60
0
100
AcDbTrace
10
-3.5
20
-23.833333
30
0
11
-3.5
21
-22.666667
31
0
12
0
22
-23.25
32
0
13
0
23
-23.25
33
0
39
0
210
0
220
0
230
1
0
MTEXT
5
13B
100
AcDbEntity
8
0
62
256
6
ByLayer
370
18
48
1
60
0
100
AcDbMText
10
-7.586501
20
-16.25
30
0
210
0
220
0
230
1
1
\A1;18.56
40
3.5
41
0
44
1
50
0
71
5
72
5
7
iso_b_vert
0
POINT
5
13C
100
AcDbEntity
8
Defpoints
62
0
6
ByLayer
370
-1
48
1
60
0
100
AcDbPoint
10
-18.564
20
-1.5
30
0
39
0
210
0
220
0
230
1
50
360
0
POINT
5
13D
100
AcDbEntity
8
Defpoints
62
0
6
ByLayer
370
-1
48
1
60
0
100
AcDbPoint
10
0
20
-1.5
30
0
39
0
210
0
220
0
230
1
50
360
0
POINT
5
13E
100
AcDbEntity
8
Defpoints
62
0
6
ByLayer
370
-1
48
1
60
0
100
AcDbPoint
10
0
20
-23.25
30
0
39
0
210
0
220
0
230
1
50
360
0
ENDBLK
5
135
100
AcDbEntity
8
0
100
AcDbBlockEnd
0
BLOCK
5
146
100
AcDbEntity
8
0
100
AcDbBlockBegin
2
_U1
70
0
10
0
20
0
30
0
3
_U1
0
MTEXT
5
140
100
AcDbEntity
8
SK2
62
256
6
ByLayer
370
18
48
1
60
0
100
AcDbMText
10
-12.3785
20
-22.217366
30
0
210
0
220
0
230
1
1
\W0.6864;18.56
40
3.5
41
0
44
1.084337
50
0
71
7
72
5
7
iso_b_vert
0
LINE
5
141
100
AcDbEntity
8
SK2
62
256
6
ByLayer
370
13
48
1
60
0
100
AcDbLine
10
-18.564
20
-3.0875
30
0
11
-18.564
21
-25.25
31
0
39
0
210
0
220
0
230
1
0
LINE
5
142
100
AcDbEntity
8
SK2
62
256
6
ByLayer
370
13
48
1
60
0
100
AcDbLine
10
0
20
-3.0875
30
0
11
0
21
-25.25
31
0
39
0
210
0
220
0
230
1
0
LINE
5
143
100
AcDbEntity
8
SK2
62
256
6
ByLayer
370
13
48
1
60
0
100
AcDbLine
10
-18.564
20
-23.25
30
0
11
0
21
-23.25
31
0
39
0
210
0
220
0
230
1
0
SOLID
5
144
100
AcDbEntity
8
SK2
62
256
6
ByLayer
370
18
48
1
60
0
100
AcDbTrace
10
-18.564
20
-23.25
30
0
11
-15.064002
21
-22.789216
31
0
12
-15.063998
22
-23.710784
32
0
13
-15.063998
23
-23.710784
33
0
39
0
210
0
220
0
230
1
0
SOLID
5
145
100
AcDbEntity
8
SK2
62
256
6
ByLayer
370
18
48
1
60
0
100
AcDbTrace
10
0
20
-23.25
30
0
11
-3.499998
21
-23.710784
31
0
12
-3.500002
22
-22.789216
32
0
13
-3.500002
23
-22.789216
33
0
39
0
210
0
220
0
230
1
0
ENDBLK
5
147
100
AcDbEntity
8
0
100
AcDbBlockEnd
0
BLOCK
5
14C
100
AcDbEntity
8
0
100
AcDbBlockBegin
2
*D5
70
1
10
0
20
0
30
0
3
*D5
0
LINE
5
14E
100
AcDbEntity
8
0
62
256
6
ByLayer
370
-2
48
1
60
0
100
AcDbLine
10
7.628
20
-2.5795
30
0
11
7.628
21
-18.242
31
0
39
0
210
0
220
0
230
1
0
LINE
5
14F
100
AcDbEntity
8
0
62
256
6
ByLayer
370
-2
48
1
60
0
100
AcDbLine
10
31.436
20
-2.5795
30
0
11
31.436
21
-18.242
31
0
39
0
210
0
220
0
230
1
0
LINE
5
150
100
AcDbEntity
8
0
62
256
6
ByLayer
370
-2
48
1
60
0
100
AcDbLine
10
31.436
20
-16.242
30
0
11
58.436
21
-16.242
31
0
39
0
210
0
220
0
230
1
0
LINE
5
151
100
AcDbEntity
8
0
62
256
6
ByLayer
370
-2
48
1
60
0
100
AcDbLine
10
11.128
20
-16.242
30
0
11
27.936
21
-16.242
31
0
39
0
210
0
220
0
230
1
0
SOLID
5
152
100
AcDbEntity
8
0
62
256
6
ByLayer
370
-1
48
1
60
0
100
AcDbTrace
10
11.128
20
-15.658667
30
0
11
11.128
21
-16.825333
31
0
12
7.628
22
-16.242
32
0
13
7.628
23
-16.242
33
0
39
0
210
0
220
0
230
1
0
SOLID
5
153
100
AcDbEntity
8
0
62
256
6
ByLayer
370
-1
48
1
60
0
100
AcDbTrace
10
27.936
20
-16.825333
30
0
11
27.936
21
-15.658667
31
0
12
31.436
22
-16.242
32
0
13
31.436
23
-16.242
33
0
39
0
210
0
220
0
230
1
0
MTEXT
5
154
100
AcDbEntity
8
0
62
256
6
ByLayer
370
18
48
1
60
0
100
AcDbMText
10
46.686
20
-9.242
30
0
210
0
220
0
230
1
1
\A1;23.81
40
3.5
41
0
44
1
50
0
71
5
72
5
7
iso_b_vert
0
POINT
5
155
100
AcDbEntity
8
Defpoints
62
0
6
ByLayer
370
-1
48
1
60
0
100
AcDbPoint
10
7.628
20
-0.992
30
0
39
0
210
0
220
0
230
1
50
360
0
POINT
5
156
100
AcDbEntity
8
Defpoints
62
0
6
ByLayer
370
-1
48
1
60
0
100
AcDbPoint
10
31.436
20
-0.992
30
0
39
0
210
0
220
0
230
1
50
360
0
POINT
5
157
100
AcDbEntity
8
Defpoints
62
0
6
ByLayer
370
-1
48
1
60
0
100
AcDbPoint
10
31.436
20
-16.242
30
0
39
0
210
0
220
0
230
1
50
360
0
ENDBLK
5
14D
100
AcDbEntity
8
0
100
AcDbBlockEnd
0
BLOCK
5
15F
100
AcDbEntity
8
0
100
AcDbBlockBegin
2
_U2
70
0
10
0
20
0
30
0
3
_U2
0
MTEXT
5
159
100
AcDbEntity
8
SK2
62
256
6
ByLayer
370
18
48
1
60
0
100
AcDbMText
10
41.6215
20
-15.209366
30
0
210
0
220
0
230
1
1
\W0.7373;23.81
40
3.5
41
0
44
1.084337
50
0
71
7
72
5
7
iso_b_vert
0
LINE
5
15A
100
AcDbEntity
8
SK2
62
256
6
ByLayer
370
13
48
1
60
0
100
AcDbLine
10
7.628
20
-2.5795
30
0
11
7.628
21
-18.242
31
0
39
0
210
0
220
0
230
1
0
LINE
5
15B
100
AcDbEntity
8
SK2
62
256
6
ByLayer
370
13
48
1
60
0
100
AcDbLine
10
31.436
20
-2.5795
30
0
11
31.436
21
-18.242
31
0
39
0
210
0
220
0
230
1
0
LINE
5
15C
100
AcDbEntity
8
SK2
62
256
6
ByLayer
370
13
48
1
60
0
100
AcDbLine
10
7.628
20
-16.242
30
0
11
51.390998
21
-16.242
31
0
39
0
210
0
220
0
230
1
0
SOLID
5
15D
100
AcDbEntity
8
SK2
62
256
6
ByLayer
370
18
48
1
60
0
100
AcDbTrace
10
7.628
20
-16.242
30
0
11
11.127998
21
-15.781216
31
0
12
11.128002
22
-16.702784
32
0
13
11.128002
23
-16.702784
33
0
39
0
210
0
220
0
230
1
0
SOLID
5
15E
100
AcDbEntity
8
SK2
62
256
6
ByLayer
370
18
48
1
60
0
100
AcDbTrace
10
31.436
20
-16.242
30
0
11
27.936002
21
-16.702784
31
0
12
27.935998
22
-15.781216
32
0
13
27.935998
23
-15.781216
33
0
39
0
210
0
220
0
230
1
0
ENDBLK
5
160
100
AcDbEntity
8
0
100
AcDbBlockEnd
0
BLOCK
5
165
100
AcDbEntity
8
0
100
AcDbBlockBegin
2
*D7
70
1
10
0
20
0
30
0
3
*D7
0
LINE
5
167
100
AcDbEntity
8
0
62
256
6
ByLayer
370
-2
48
1
60
0
100
AcDbLine
10
4.192
20
-2.5795
30
0
11
4.192
21
-28.242
31
0
39
0
210
0
220
0
230
1
0
LINE
5
168
100
AcDbEntity
8
0
62
256
6
ByLayer
370
-2
48
1
60
0
100
AcDbLine
10
31.436
20
-2.5795
30
0
11
31.436
21
-28.242
31
0
39
0
210
0
220
0
230
1
0
LINE
5
169
100
AcDbEntity
8
0
62
256
6
ByLayer
370
-2
48
1
60
0
100
AcDbLine
10
31.436
20
-26.242
30
0
11
59.602667
21
-26.242
31
0
39
0
210
0
220
0
230
1
0
LINE
5
16A
100
AcDbEntity
8
0
62
256
6
ByLayer
370
-2
48
1
60
0
100
AcDbLine
10
7.692
20
-26.242
30
0
11
27.936
21
-26.242
31
0
39
0
210
0
220
0
230
1
0
SOLID
5
16B
100
AcDbEntity
8
0
62
256
6
ByLayer
370
-1
48
1
60
0
100
AcDbTrace
10
7.692
20
-25.658667
30
0
11
7.692
21
-26.825333
31
0
12
4.192
22
-26.242
32
0
13
4.192
23
-26.242
33
0
39
0
210
0
220
0
230
1
0
SOLID
5
16C
100
AcDbEntity
8
0
62
256
6
ByLayer
370
-1
48
1
60
0
100
AcDbTrace
10
27.936
20
-26.825333
30
0
11
27.936
21
-25.658667
31
0
12
31.436
22
-26.242
32
0
13
31.436
23
-26.242
33
0
39
0
210
0
220
0
230
1
0
MTEXT
5
16D
100
AcDbEntity
8
0
62
256
6
ByLayer
370
18
48
1
60
0
100
AcDbMText
10
47.269333
20
-19.242
30
0
210
0
220
0
230
1
1
\A1;27.24
40
3.5
41
0
44
1
50
0
71
5
72
5
7
iso_b_vert
0
POINT
5
16E
100
AcDbEntity
8
Defpoints
62
0
6
ByLayer
370
-1
48
1
60
0
100
AcDbPoint
10
4.192
20
-0.992
30
0
39
0
210
0
220
0
230
1
50
360
0
POINT
5
16F
100
AcDbEntity
8
Defpoints
62
0
6
ByLayer
370
-1
48
1
60
0
100
AcDbPoint
10
31.436
20
-0.992
30
0
39
0
210
0
220
0
230
1
50
360
0
POINT
5
170
100
AcDbEntity
8
Defpoints
62
0
6
ByLayer
370
-1
48
1
60
0
100
AcDbPoint
10
31.436
20
-26.242
30
0
39
0
210
0
220
0
230
1
50
360
0
ENDBLK
5
166
100
AcDbEntity
8
0
100
AcDbBlockEnd
0
BLOCK
5
178
100
AcDbEntity
8
0
100
AcDbBlockBegin
2
_U3
70
0
10
0
20
0
30
0
3
_U3
0
MTEXT
5
172
100
AcDbEntity
8
SK2
62
256
6
ByLayer
370
18
48
1
60
0
100
AcDbMText
10
41.6215
20
-25.209366
30
0
210
0
220
0
230
1
1
\W0.7607;27.24
40
3.5
41
0
44
1.084337
50
0
71
7
72
5
7
iso_b_vert
0
LINE
5
173
100
AcDbEntity
8
SK2
62
256
6
ByLayer
370
13
48
1
60
0
100
AcDbLine
10
4.192
20
-2.5795
30
0
11
4.192
21
-28.242
31
0
39
0
210
0
220
0
230
1
0
LINE
5
174
100
AcDbEntity
8
SK2
62
256
6
ByLayer
370
13
48
1
60
0
100
AcDbLine
10
31.436
20
-2.5795
30
0
11
31.436
21
-28.242
31
0
39
0
210
0
220
0
230
1
0
LINE
5
175
100
AcDbEntity
8
SK2
62
256
6
ByLayer
370
13
48
1
60
0
100
AcDbLine
10
4.192
20
-26.242
30
0
11
52.634398
21
-26.242
31
0
39
0
210
0
220
0
230
1
0
SOLID
5
176
100
AcDbEntity
8
SK2
62
256
6
ByLayer
370
18
48
1
60
0
100
AcDbTrace
10
4.192
20
-26.242
30
0
11
7.691998
21
-25.781216
31
0
12
7.692002
22
-26.702784
32
0
13
7.692002
23
-26.702784
33
0
39
0
210
0
220
0
230
1
0
SOLID
5
177
100
AcDbEntity
8
SK2
62
256
6
ByLayer
370
18
48
1
60
0
100
AcDbTrace
10
31.436
20
-26.242
30
0
11
27.936002
21
-26.702784
31
0
12
27.935998
22
-25.781216
32
0
13
27.935998
23
-25.781216
33
0
39
0
210
0
220
0
230
1
0
ENDBLK
5
179
100
AcDbEntity
8
0
100
AcDbBlockEnd
0
BLOCK
5
17E
100
AcDbEntity
8
0
100
AcDbBlockBegin
2
*D9
70
1
10
0
20
0
30
0
3
*D9
0
LINE
5
180
100
AcDbEntity
8
0
62
256
6
ByLayer
370
-2
48
1
60
0
100
AcDbLine
10
-18.564
20
-0.0875
30
0
11
-18.564
21
-36.6
31
0
39
0
210
0
220
0
230
1
0
LINE
5
181
100
AcDbEntity
8
0
62
256
6
ByLayer
370
-2
48
1
60
0
100
AcDbLine
10
31.436
20
-0.5955
30
0
11
31.436
21
-36.6
31
0
39
0
210
0
220
0
230
1
0
LINE
5
182
100
AcDbEntity
8
0
62
256
6
ByLayer
370
-2
48
1
60
0
100
AcDbLine
10
-15.064
20
-34.6
30
0
11
27.936
21
-34.6
31
0
39
0
210
0
220
0
230
1
0
SOLID
5
183
100
AcDbEntity
8
0
62
256
6
ByLayer
370
-1
48
1
60
0
100
AcDbTrace
10
-15.064
20
-34.016667
30
0
11
-15.064
21
-35.183333
31
0
12
-18.564
22
-34.6
32
0
13
-18.564
23
-34.6
33
0
39
0
210
0
220
0
230
1
0
SOLID
5
184
100
AcDbEntity
8
0
62
256
6
ByLayer
370
-1
48
1
60
0
100
AcDbTrace
10
27.936
20
-35.183333
30
0
11
27.936
21
-34.016667
31
0
12
31.436
22
-34.6
32
0
13
31.436
23
-34.6
33
0
39
0
210
0
220
0
230
1
0
MTEXT
5
185
100
AcDbEntity
8
0
62
256
6
ByLayer
370
18
48
1
60
0
100
AcDbMText
10
6.436
20
-27.6
30
0
210
0
220
0
230
1
1
\A1;50
40
3.5
41
0
44
1
50
0
71
5
72
5
7
iso_b_vert
0
POINT
5
186
100
AcDbEntity
8
Defpoints
62
0
6
ByLayer
370
-1
48
1
60
0
100
AcDbPoint
10
-18.564
20
1.5
30
0
39
0
210
0
220
0
230
1
50
360
0
POINT
5
187
100
AcDbEntity
8
Defpoints
62
0
6
ByLayer
370
-1
48
1
60
0
100
AcDbPoint
10
31.436
20
0.992
30
0
39
0
210
0
220
0
230
1
50
360
0
POINT
5
188
100
AcDbEntity
8
Defpoints
62
0
6
ByLayer
370
-1
48
1
60
0
100
AcDbPoint
10
31.436
20
-34.6
30
0
39
0
210
0
220
0
230
1
50
360
0
ENDBLK
5
17F
100
AcDbEntity
8
0
100
AcDbBlockEnd
0
BLOCK
5
192
100
AcDbEntity
8
0
100
AcDbBlockBegin
2
_U4
70
0
10
0
20
0
30
0
3
_U4
0
MTEXT
5
18A
100
AcDbEntity
8
SK2
62
256
6
ByLayer
370
18
48
1
60
0
100
AcDbMText
10
1.206568
20
-33.567366
30
0
210
0
220
0
230
1
1
\W0.7468;50.00
40
3.5
41
0
44
1.084337
50
0
71
7
72
5
7
iso_b_vert
0
MTEXT
5
18B
100
AcDbEntity
8
SK2
62
256
6
ByLayer
370
18
48
1
60
0
100
AcDbMText
10
-2.661431
20
-33.567366
30
0
210
0
220
0
230
1
1
\W0.1790;(
40
3.5
41
0
44
1.084337
50
0
71
7
72
5
7
iso_b_vert
0
MTEXT
5
18C
100
AcDbEntity
8
SK2
62
256
6
ByLayer
370
18
48
1
60
0
100
AcDbMText
10
15.536432
20
-33.567366
30
0
210
0
220
0
230
1
1
\W0.1969;)
40
3.5
41
0
44
1.084337
50
0
71
7
72
5
7
iso_b_vert
0
LINE
5
18D
100
AcDbEntity
8
SK2
62
256
6
ByLayer
370
13
48
1
60
0
100
AcDbLine
10
-18.564
20
-0.0875
30
0
11
-18.564
21
-36.6
31
0
39
0
210
0
220
0
230
1
0
LINE
5
18E
100
AcDbEntity
8
SK2
62
256
6
ByLayer
370
13
48
1
60
0
100
AcDbLine
10
31.436
20
-0.5955
30
0
11
31.436
21
-36.6
31
0
39
0
210
0
220
0
230
1
0
LINE
5
18F
100
AcDbEntity
8
SK2
62
256
6
ByLayer
370
13
48
1
60
0
100
AcDbLine
10
-18.564
20
-34.6
30
0
11
31.436
21
-34.6
31
0
39
0
210
0
220
0
230
1
0
SOLID
5
190
100
AcDbEntity
8
SK2
62
256
6
ByLayer
370
18
48
1
60
0
100
AcDbTrace
10
-18.564
20
-34.6
30
0
11
-15.064002
21
-34.139216
31
0
12
-15.063998
22
-35.060784
32
0
13
-15.063998
23
-35.060784
33
0
39
0
210
0
220
0
230
1
0
SOLID
5
191
100
AcDbEntity
8
SK2
62
256
6
ByLayer
370
18
48
1
60
0
100
AcDbTrace
10
31.436
20
-34.6
30
0
11
27.936002
21
-35.060784
31
0
12
27.935998
22
-34.139216
32
0
13
27.935998
23
-34.139216
33
0
39
0
210
0
220
0
230
1
0
ENDBLK
5
193
100
AcDbEntity
8
0
100
AcDbBlockEnd
0
ENDSEC
0
SECTION
2
ENTITIES
0
ELLIPSE
5
BB
100
AcDbEntity
8
SK1
62
256
6
ByLayer
370
18
48
1
60
0
100
AcDbEllipse
10
31.416381
20
-0.046755
30
0
11
0.0237049370510222
21
0.0422353960886638
31
0
210
0
220
0
230
1
40
0.065341
41
1.21620760507546
42
2.26340515633707
0
ELLIPSE
5
BC
100
AcDbEntity
8
SK1
62
256
6
ByLayer
370
18
48
1
60
0
100
AcDbEllipse
10
31.416381
20
0.046755
30
0
11
0.0237049370557434
21
-0.0422353960966004
31
0
210
0
220
0
230
1
40
0.065341
41
-2.26340515626984
42
-1.21620760522081
0
ELLIPSE
5
BD
100
AcDbEntity
8
SK1
62
256
6
ByLayer
370
13
48
1
60
0
100
AcDbEllipse
10
6.227642
20
0.273174
30
0
11
-0.0286622817855274
21
-0.0409691786938306
31
0
210
0
220
0
230
1
40
0.321719
41
-1.06999641747726
42
-1.03503095850343
0
ELLIPSE
5
BE
100
AcDbEntity
8
SK1
62
256
6
ByLayer
370
13
48
1
60
0
100
AcDbEllipse
10
6.329378
20
0.210485
30
0
11
-0.0243786020898074
21
-0.0436541379498764
31
0
210
0
220
0
230
1
40
0.107387
41
0.136967667816382
42
1.38526877347765
0
ELLIPSE
5
BF
100
AcDbEntity
8
SK1
62
256
6
ByLayer
370
18
48
1
60
0
100
AcDbEllipse
10
4.497117
20
-0.000399
30
0
11
0.613929747914206
21
-0.94892177266209
31
0
210
0
220
0
230
1
40
0.340866
41
-3.10345075041113
42
-1.10147452094818
0
ELLIPSE
5
C0
100
AcDbEntity
8
SK1
62
256
6
ByLayer
370
18
48
1
60
0
100
AcDbEllipse
10
31.436285
20
0.000449
30
0
11
0.603906861664985
21
0.989978335798321
31
0
210
0
220
0
230
1
40
0.104823
41
-3.07784319591332
42
-2.88197980351893
0
ELLIPSE
5
C1
100
AcDbEntity
8
SK1
62
256
6
ByLayer
370
18
48
1
60
0
100
AcDbEllipse
10
31.436732
20
0.000449
30
0
11
0.877492982914161
21
0.89203139681797
31
0
210
0
220
0
230
1
40
0.494576
41
-2.74758153842589
42
-2.68938278154409
0
ELLIPSE
5
C2
100
AcDbEntity
8
SK1
62
256
6
ByLayer
370
18
48
1
60
0
100
AcDbEllipse
10
31.436285
20
-0.000449
30
0
11
0.603906859895979
21
-0.989978332785211
31
0
210
0
220
0
230
1
40
0.104823
41
2.88197980312091
42
3.07784319581429
0
POINT
5
70
100
AcDbEntity
8
80
62
256
6
ByLayer
370
18
48
1
60
0
100
AcDbPoint
10
0
20
0
30
0
39
0
210
0
220
0
230
1
50
360
0
POINT
5
72
100
AcDbEntity
8
81
62
256
6
ByLayer
370
18
48
1
60
0
100
AcDbPoint
10
31.436
20
0
30
0
39
0
210
0
220
0
230
1
50
360
0
POINT
5
74
100
AcDbEntity
8
1
62
256
6
ByLayer
370
18
48
1
60
0
100
AcDbPoint
10
-18.564
20
0
30
0
39
0
210
0
220
0
230
1
50
360
0
POINT
5
76
100
AcDbEntity
8
1
62
256
6
ByLayer
370
18
48
1
60
1
100
AcDbPoint
10
0
20
-1.5
30
0
39
0
210
0
220
0
230
1
50
360
0
POINT
5
77
100
AcDbEntity
8
1
62
256
6
ByLayer
370
18
48
1
60
1
100
AcDbPoint
10
30.84
20
-0.992
30
0
39
0
210
0
220
0
230
1
50
360
0
POINT
5
78
100
AcDbEntity
8
1
62
256
6
ByLayer
370
18
48
1
60
1
100
AcDbPoint
10
-18.564
20
-1.5
30
0
39
0
210
0
220
0
230
1
50
360
0
POINT
5
79
100
AcDbEntity
8
1
62
256
6
ByLayer
370
18
48
1
60
1
100
AcDbPoint
10
0
20
-1.5
30
0
39
0
210
0
220
0
230
1
50
360
0
POINT
5
7A
100
AcDbEntity
8
1
62
256
6
ByLayer
370
18
48
1
60
1
100
AcDbPoint
10
7.628
20
-0.992
30
0
39
0
210
0
220
0
230
1
50
360
0
POINT
5
7B
100
AcDbEntity
8
1
62
256
6
ByLayer
370
18
48
1
60
1
100
AcDbPoint
10
31.436
20
-0.992
30
0
39
0
210
0
220
0
230
1
50
360
0
POINT
5
7C
100
AcDbEntity
8
1
62
256
6
ByLayer
370
18
48
1
60
1
100
AcDbPoint
10
4.192
20
-0.992
30
0
39
0
210
0
220
0
230
1
50
360
0
POINT
5
7D
100
AcDbEntity
8
1
62
256
6
ByLayer
370
18
48
1
60
1
100
AcDbPoint
10
31.436
20
-0.992
30
0
39
0
210
0
220
0
230
1
50
360
0
POINT
5
7E
100
AcDbEntity
8
1
62
256
6
ByLayer
370
18
48
1
60
1
100
AcDbPoint
10
-18.564
20
1.5
30
0
39
0
210
0
220
0
230
1
50
360
0
POINT
5
7F
100
AcDbEntity
8
1
62
256
6
ByLayer
370
18
48
1
60
1
100
AcDbPoint
10
31.436
20
0.992
30
0
39
0
210
0
220
0
230
1
50
360
0
SPLINE
5
C3
100
AcDbEntity
8
SK1
62
256
6
ByLayer
370
13
48
1
60
0
100
AcDbSpline
70
4
71
3
72
8
73
4
40
0
40
0
40
0
40
0
40
1
40
1
40
1
40
1
41
1
10
6.20231874904326
20
0.261592690577942
30
0
41
1
10
6.20208472067392
20
0.261726740368317
30
0
41
1
10
6.20185106902389
20
0.261861081193871
30
0
41
1
10
6.20161779257529
20
0.261995712065271
30
0
0
SPLINE
5
C4
100
AcDbEntity
8
SK1
62
256
6
ByLayer
370
13
48
1
60
0
100
AcDbSpline
70
4
71
3
72
12
73
8
40
0
40
0
40
0
40
0
40
0.25
40
0.25
40
0.5
40
0.5
40
1
40
1
40
1
40
1
41
1
10
4.48630450896192
20
-0.616219343664625
30
0
41
1
10
4.43556920086536
20
-0.486664899539562
30
0
41
1
10
4.38469165158412
20
-0.357076451754068
30
0
41
1
10
4.28261652383998
20
-0.097825922624196
30
0
41
1
10
4.23141720755783
20
0.0318363570873714
30
0
41
1
10
4.07743976391853
20
0.420906989939113
30
0
41
1
10
3.97429887687741
20
0.680395657786221
30
0
41
1
10
3.87129961562422
20
0.939852841813178
30
0
0
SPLINE
5
C5
100
AcDbEntity
8
SK1
62
256
6
ByLayer
370
13
48
1
60
0
100
AcDbSpline
70
4
71
3
72
12
73
8
40
0
40
0
40
0
40
0
40
0.5
40
0.5
40
0.75
40
0.75
40
1
40
1
40
1
40
1
41
1
10
6.32948856791273
20
0.199859073178345
30
0
41
1
10
6.30721529750241
20
0.209302258941648
30
0
41
1
10
6.28540790773499
20
0.219040372464889
30
0
41
1
10
6.25351255647692
20
0.234387625732381
30
0
41
1
10
6.24301774668123
20
0.239627020080263
30
0
41
1
10
6.22233734974111
20
0.250411959144145
30
0
41
1
10
6.21214025689997
20
0.255967000525942
30
0
41
1
10
6.20231874904331
20
0.261592690578056
30
0
0
SPLINE
5
C6
100
AcDbEntity
8
SK1
62
256
6
ByLayer
370
18
48
1
60
0
100
AcDbSpline
70
4
71
3
72
22
73
18
40
0
40
0
40
0
40
0
40
0.250000000000014
40
0.250000000000014
40
0.375000000000021
40
0.375000000000021
40
0.437500000000019
40
0.437500000000019
40
0.500000000000016
40
0.500000000000016
40
0.625000000000012
40
0.625000000000012
40
0.68750000000001
40
0.68750000000001
40
0.750000000000007
40
0.750000000000007
40
1
40
1
40
1
40
1
41
1
10
30.7654288473203
20
-0.954292023439251
30
0
41
1
10
30.7273262412184
20
-0.947344826553689
30
0
41
1
10
30.691691081598
20
-0.935778402470078
30
0
41
1
10
30.6425974547305
20
-0.910268211917384
30
0
41
1
10
30.6269641049159
20
-0.900395973152484
30
0
41
1
10
30.604758135624
20
-0.883258658846501
30
0
41
1
10
30.5975849909542
20
-0.877169630897498
30
0
41
1
10
30.5838354445916
20
-0.864316372013946
30
0
41
1
10
30.5772407344811
20
-0.857538449674962
30
0
41
1
10
30.5583233730898
20
-0.836117464085504
30
0
41
1
10
30.5468643837423
20
-0.82039107948907
30
0
41
1
10
30.5315596722426
20
-0.794438620888627
30
0
41
1
10
30.5267727809789
20
-0.785393088192507
30
0
41
1
10
30.5178646497207
20
-0.766467073149727
30
0
41
1
10
30.5137288657305
20
-0.756543373736804
30
0
41
1
10
30.4950445217456
20
-0.705326637237874
30
0
41
1
10
30.486372493305
20
-0.659401742856772
30
0
41
1
10
30.484298261524
20
-0.608271000084869
30
0
0
SPLINE
5
C7
100
AcDbEntity
8
SK1
62
256
6
ByLayer
370
18
48
1
60
0
100
AcDbSpline
70
4
71
3
72
34
73
30
40
0
40
0
40
0
40
0
40
0.0312499999999985
40
0.0312499999999985
40
0.062499999999997
40
0.124999999999994
40
0.124999999999994
40
0.156249999999994
40
0.156249999999994
40
0.187499999999994
40
0.187499999999994
40
0.249999999999995
40
0.249999999999995
40
0.312499999999995
40
0.312499999999995
40
0.343749999999999
40
0.343749999999999
40
0.375000000000004
40
0.375000000000004
40
0.500000000000012
40
0.500000000000012
40
0.562500000000011
40
0.562500000000011
40
0.625000000000009
40
0.625000000000009
40
0.750000000000006
40
0.750000000000006
40
0.875000000000003
40
1
40
1
40
1
40
1
41
1
10
29.731738198741
20
0.305573660682853
30
0
41
1
10
29.7306181071078
20
0.29285553648532
30
0
41
1
10
29.7300028150279
20
0.279866541132378
30
0
41
1
10
29.7298331869272
20
0.253879759189175
30
0
41
1
10
29.7311499409046
20
0.214934795839014
30
0
41
1
10
29.7369910362157
20
0.17609122026937
30
0
41
1
10
29.7456724491871
20
0.137311294518497
30
0
41
1
10
29.7490404424546
20
0.124395278892251
30
0
41
1
10
29.7567042755092
20
0.0985840401241092
30
0
41
1
10
29.7609712532215
20
0.0857931326345067
30
0
41
1
10
29.7748652168853
20
0.0480434007345707
30
0
41
1
10
29.7856204989432
20
0.0235673301185955
30
0
41
1
10
29.8096595675813
20
-0.0242152566601135
30
0
41
1
10
29.8229455110537
20
-0.0475207751569542
30
0
41
1
10
29.8445346893053
20
-0.0817111017206571
30
0
41
1
10
29.8519839921436
20
-0.092938289149032
30
0
41
1
10
29.8672416174626
20
-0.11493494966544
30
0
41
1
10
29.8750654126421
20
-0.12572900332367
30
0
41
1
10
29.915069669861
20
-0.178771792278496
30
0
41
1
10
29.9498654277299
20
-0.218280570476338
30
0
41
1
10
30.0051328496402
20
-0.274323436945622
30
0
41
1
10
30.0240753176282
20
-0.292459612267692
30
0
41
1
10
30.0628859363447
20
-0.327762156373183
30
0
41
1
10
30.0826210497166
20
-0.344805025922
30
0
41
1
10
30.1425278948985
20
-0.394202006481294
30
0
41
1
10
30.183470261136
20
-0.424905732234407
30
0
41
1
10
30.2669694277228
20
-0.482732880981956
30
0
41
1
10
30.3520915334641
20
-0.536960865483877
30
0
41
1
10
30.4398514037043
20
-0.58533912503006
30
0
41
1
10
30.4842982615238
20
-0.608271000084869
30
0
0
SPLINE
5
C8
100
AcDbEntity
8
SK1
62
256
6
ByLayer
370
13
48
1
60
0
100
AcDbSpline
70
4
71
3
72
30
73
26
40
0
40
0
40
0
40
0
40
0.125
40
0.125
40
0.1875
40
0.1875
40
0.25
40
0.25
40
0.375
40
0.375
40
0.4375
40
0.4375
40
0.5
40
0.5
40
0.625
40
0.625
40
0.6875
40
0.6875
40
0.75
40
0.75
40
0.875
40
0.875
40
0.9375
40
0.9375
40
1
40
1
40
1
40
1
41
1
10
6.32934055058806
20
0.922134512747505
30
0
41
1
10
6.32931969108489
20
0.913721724119625
30
0
41
1
10
6.32930308047372
20
0.902053858317146
30
0
41
1
10
6.32928558679714
20
0.879624308106827
30
0
41
1
10
6.32928099073027
20
0.87130415952825
30
0
41
1
10
6.32927442282471
20
0.853227683317186
30
0
41
1
10
6.32927242804743
20
0.84345050626905
30
0
41
1
10
6.32927017680831
20
0.811934293647226
30
0
41
1
10
6.32927367759214
20
0.788022342748974
30
0
41
1
10
6.32928548517029
20
0.747718347022925
30
0
41
1
10
6.32929052573746
20
0.733510129960962
30
0
41
1
10
6.32930233050971
20
0.704035570907024
30
0
41
1
10
6.32930910503407
20
0.68872248720831
30
0
41
1
10
6.32933144469246
20
0.641088891413176
30
0
41
1
10
6.32934904871263
20
0.607082939127849
30
0
41
1
10
6.3293767973696
20
0.552666297523331
30
0
41
1
10
6.3293862656916
20
0.533957262986775
30
0
41
1
10
6.32940510445073
20
0.495365111444244
30
0
41
1
10
6.32941436926239
20
0.475691148129187
30
0
41
1
10
6.32944079197978
20
0.415713228930429
30
0
41
1
10
6.32945662426971
20
0.374394018840036
30
0
41
1
10
6.32947420857781
20
0.310434329344446
30
0
41
1
10
6.32947903982415
20
0.288782977889923
30
0
41
1
10
6.32948600319574
20
0.244804580878764
30
0
41
1
10
6.32948813415064
20
0.222425752609837
30
0
41
1
10
6.32948856791273
20
0.199859073178345
30
0
0
SPLINE
5
C9
100
AcDbEntity
8
SK1
62
256
6
ByLayer
370
18
48
1
60
0
100
AcDbSpline
70
4
71
3
72
34
73
30
40
0
40
0
40
0
40
0
40
0.0853242175227863
40
0.0853242175227863
40
0.170648435045573
40
0.170648435045573
40
0.255972652568359
40
0.255972652568359
40
0.341296870091145
40
0.341296870091145
40
0.426621087613931
40
0.426621087613931
40
0.469283196375328
40
0.469283196375328
40
0.511945305136725
40
0.511945305136725
40
0.597269522659519
40
0.597269522659519
40
0.682593740182312
40
0.682593740182312
40
0.767917957705106
40
0.767917957705106
40
0.8532421752279
40
0.8532421752279
40
0.938566392750693
40
0.938566392750693
40
0.981228501512094
40
0.981228501512094
40
1
40
1
40
1
40
1
41
1
10
29.7317381987409
20
0.305573660682853
30
0
41
1
10
29.6712361064444
20
0.337658483820434
30
0
41
1
10
29.6106261029008
20
0.369231440261956
30
0
41
1
10
29.4890451646456
20
0.431058553345224
30
0
41
1
10
29.4280615827791
20
0.461327375975003
30
0
41
1
10
29.3056200365882
20
0.520093831190053
30
0
41
1
10
29.2445267125165
20
0.548416135042004
30
0
41
1
10
29.1223660574756
20
0.602917878691983
30
0
41
1
10
29.0613147261846
20
0.629089360123743
30
0
41
1
10
28.9391184733784
20
0.679032983686284
30
0
41
1
10
28.8779722888768
20
0.70280557130792
30
0
41
1
10
28.7860882291601
20
0.736513891548327
30
0
41
1
10
28.7554303542978
20
0.747424056787906
30
0
41
1
10
28.6942946241132
20
0.768461392128529
30
0
41
1
10
28.6637851345697
20
0.77860026110946
30
0
41
1
10
28.5724062993517
20
0.807829834272212
30
0
41
1
10
28.5116885127094
20
0.82573391063849
30
0
41
1
10
28.3905209022971
20
0.858146473338678
30
0
41
1
10
28.3300635250031
20
0.872657268967799
30
0
41
1
10
28.209194888811
20
0.898153915977673
30
0
41
1
10
28.1487803223477
20
0.909162415995667
30
0
41
1
10
28.0277539988466
20
0.928272531208279
30
0
41
1
10
27.9671498228004
20
0.936365662557932
30
0
41
1
10
27.8456848353004
20
0.949174871453636
30
0
41
1
10
27.7848273141227
20
0.953890036183594
30
0
41
1
10
27.6932441542858
20
0.958082470130194
30
0
41
1
10
27.6626466414822
20
0.959005394621016
30
0
41
1
10
27.6185507106346
20
0.959544551210428
30
0
41
1
10
27.6050872578376
20
0.959600023335327
30
0
41
1
10
27.5916321025277
20
0.959550491537414
30
0
0
SPLINE
5
CA
100
AcDbEntity
8
SK1
62
256
6
ByLayer
370
18
48
1
60
0
100
AcDbSpline
70
4
71
3
72
95
73
91
40
0
40
0
40
0
40
0
40
0.0173077542839226
40
0.0173077542839226
40
0.0306624554735956
40
0.0306624554735956
40
0.0440171566632687
40
0.0440171566632687
40
0.0707265590426171
40
0.0707265590426171
40
0.0974359614219658
40
0.0974359614219658
40
0.11079066261164
40
0.11079066261164
40
0.124145363801314
40
0.124145363801314
40
0.150854766180663
40
0.150854766180663
40
0.164209467370337
40
0.164209467370337
40
0.177564168560011
40
0.177564168560011
40
0.20427357093936
40
0.20427357093936
40
0.230982973318708
40
0.230982973318708
40
0.257692375698057
40
0.257692375698057
40
0.271047076887731
40
0.271047076887731
40
0.284401778077405
40
0.284401778077405
40
0.3378205828361
40
0.3378205828361
40
0.351175284025774
40
0.351175284025774
40
0.364529985215447
40
0.364529985215447
40
0.391239387594797
40
0.391239387594797
40
0.417948789974146
40
0.417948789974146
40
0.444658192353496
40
0.444658192353496
40
0.471367594732846
40
0.471367594732846
40
0.498076997112196
40
0.498076997112196
40
0.524786399491545
40
0.524786399491545
40
0.538141100681219
40
0.538141100681219
40
0.551495801870893
40
0.57820520425024
40
0.57820520425024
40
0.604914606629587
40
0.604914606629587
40
0.631624009008934
40
0.631624009008934
40
0.658333411388282
40
0.658333411388282
40
0.685042813767629
40
0.685042813767629
40
0.711752216146976
40
0.711752216146976
40
0.738461618526323
40
0.738461618526323
40
0.76517102090567
40
0.76517102090567
40
0.778525722095344
40
0.778525722095344
40
0.791880423285018
40
0.791880423285018
40
0.818589825664363
40
0.818589825664363
40
0.845299228043708
40
0.845299228043708
40
0.872008630423053
40
0.872008630423053
40
0.898718032802398
40
0.898718032802398
40
0.91207273399207
40
0.91207273399207
40
0.925427435181743
40
0.925427435181743
40
0.952136837561086
40
0.952136837561086
40
0.978846239940428
40
0.978846239940428
40
1
40
1
40
1
40
1
41
1
10
23.6445236579807
20
-0.634961753038823
30
0
41
1
10
23.6052617069408
20
-0.651314553916933
30
0
41
1
10
23.5660298055459
20
-0.667143829971536
30
0
41
1
10
23.4965447418576
20
-0.694150735894112
30
0
41
1
10
23.4662873357484
20
-0.705565544017333
30
0
41
1
10
23.4057632883708
20
-0.727659367022369
30
0
41
1
10
23.3754973881438
20
-0.738331620348816
30
0
41
1
10
23.2846144878605
20
-0.769337424391523
30
0
41
1
10
23.2239021527423
20
-0.788721757573995
30
0
41
1
10
23.1021183841523
20
-0.824864350178359
30
0
41
1
10
23.0410637376097
20
-0.84154030999818
30
0
41
1
10
22.9491291253955
20
-0.864217142315511
30
0
41
1
10
22.9184333482105
20
-0.871385790928372
30
0
41
1
10
22.857169831907
20
-0.884829846493346
30
0
41
1
10
22.8265705065982
20
-0.891111484029267
30
0
41
1
10
22.7348554633033
20
-0.90853716912693
30
0
41
1
10
22.6738379465073
20
-0.918195589021508
30
0
41
1
10
22.5822893501255
20
-0.929799065798022
30
0
41
1
10
22.5517608474878
20
-0.933234008692494
30
0
41
1
10
22.4906448101211
20
-0.939377327300605
30
0
41
1
10
22.4600612342597
20
-0.942066769598881
30
0
41
1
10
22.3682281527606
20
-0.94893555890971
30
0
41
1
10
22.3068159037106
20
-0.951917853705766
30
0
41
1
10
22.184613626096
20
-0.95432610018301
30
0
41
1
10
22.1237180676251
20
-0.953781384658328
30
0
41
1
10
22.0023000385013
20
-0.948741310700342
30
0
41
1
10
21.941796608814
20
-0.944144408308546
30
0
41
1
10
21.8511387203692
20
-0.934308527972377
30
0
41
1
10
21.8209320963755
20
-0.930558245520643
30
0
41
1
10
21.7604939015328
20
-0.922342202614345
30
0
41
1
10
21.730262169946
20
-0.917882463029684
30
0
41
1
10
21.5790352008525
20
-0.893721215937234
30
0
41
1
10
21.4578483262528
20
-0.86842444024586
30
0
41
1
10
21.3055453306234
20
-0.827946868439653
30
0
41
1
10
21.2750413718976
20
-0.819409013477667
30
0
41
1
10
21.2139172651122
20
-0.801425024457359
30
0
41
1
10
21.1832626294284
20
-0.791955690233465
30
0
41
1
10
21.091376494528
20
-0.762369876619999
30
0
41
1
10
21.0302289861111
20
-0.741158277647486
30
0
41
1
10
20.907889814192
20
-0.696595267478813
30
0
41
1
10
20.8467119053476
20
-0.673164067314332
30
0
41
1
10
20.724272139718
20
-0.62387931773506
30
0
41
1
10
20.6630144980628
20
-0.598013738065021
30
0
41
1
10
20.5402912628615
20
-0.54366895697143
30
0
41
1
10
20.4790839630199
20
-0.515305565413144
30
0
41
1
10
20.3568937884516
20
-0.456338522116795
30
0
41
1
10
20.2958749013658
20
-0.425801391268379
30
0
41
1
10
20.1736120569853
20
-0.36384802157238
30
0
41
1
10
20.1123852185727
20
-0.33238659334981
30
0
41
1
10
20.0203881166402
20
-0.284319436117471
30
0
41
1
10
19.9896825083989
20
-0.268145838819947
30
0
41
1
10
19.9284476007122
20
-0.235637908477571
30
0
41
1
10
19.8367738753472
20
-0.18659434704557
30
0
41
1
10
19.7455848416152
20
-0.136808094623433
30
0
41
1
10
19.6243335416404
20
-0.0699575585220771
30
0
41
1
10
19.5638793848801
20
-0.0362917844973651
30
0
41
1
10
19.442953653267
20
0.0308835987075327
30
0
41
1
10
19.3824801820304
20
0.0643926971516464
30
0
41
1
10
19.2614413364432
20
0.131110759427742
30
0
41
1
10
19.2008817977503
20
0.164326259226897
30
0
41
1
10
19.0794406177254
20
0.23004757673641
30
0
41
1
10
19.0185584946649
20
0.262557317384847
30
0
41
1
10
18.8964046929111
20
0.326744766748106
30
0
41
1
10
18.8350227443648
20
0.358462059309545
30
0
41
1
10
18.712672876711
20
0.42024600487332
30
0
41
1
10
18.6516160374146
20
0.450376656487975
30
0
41
1
10
18.5296397068924
20
0.508653294447697
30
0
41
1
10
18.4687092801639
20
0.536752886844852
30
0
41
1
10
18.377147281585
20
0.577358411020327
30
0
41
1
10
18.3466002485642
20
0.590647365762294
30
0
41
1
10
18.2854473051346
20
0.616689363444465
30
0
41
1
10
18.254820601262
20
0.629450266171119
30
0
41
1
10
18.1630787887973
20
0.666700169472307
30
0
41
1
10
18.1020538099128
20
0.690147111937904
30
0
41
1
10
17.9799754880694
20
0.734484602889466
30
0
41
1
10
17.9189355126785
20
0.755384429500992
30
0
41
1
10
17.7967091690659
20
0.794567188820281
30
0
41
1
10
17.7355354649871
20
0.812808227689573
30
0
41
1
10
17.6129880779356
20
0.846092826658747
30
0
41
1
10
17.5519782654081
20
0.861055031914674
30
0
41
1
10
17.4608596412611
20
0.880638966173194
30
0
41
1
10
17.4305581866768
20
0.886656265837473
30
0
41
1
10
17.3700687246096
20
0.89763810465675
30
0
41
1
10
17.3398671162941
20
0.90264924731477
30
0
41
1
10
17.2492647043339
20
0.916640778189219
30
0
41
1
10
17.1888912063555
20
0.924484115028719
30
0
41
1
10
17.068104827352
20
0.937188924898294
30
0
41
1
10
17.0077032397238
20
0.942036244983001
30
0
41
1
10
16.8994172460533
20
0.947559334775747
30
0
41
1
10
16.8515395743962
20
0.948891254019486
30
0
41
1
10
16.8036054145341
20
0.948960364799831
30
0
0
SPLINE
5
CB
100
AcDbEntity
8
SK1
62
256
6
ByLayer
370
18
48
1
60
0
100
AcDbSpline
70
4
71
3
72
84
73
80
40
0
40
0
40
0
40
0
40
0.0176817668398587
40
0.0176817668398587
40
0.0457480020730031
40
0.0457480020730031
40
0.0738142373061471
40
0.0738142373061471
40
0.101880472539291
40
0.101880472539291
40
0.129946707772435
40
0.129946707772435
40
0.143979825389007
40
0.143979825389007
40
0.158012943005579
40
0.158012943005579
40
0.172046060622151
40
0.172046060622151
40
0.186079178238723
40
0.186079178238723
40
0.214145413471869
40
0.214145413471869
40
0.242211648705014
40
0.242211648705014
40
0.256244766321587
40
0.256244766321587
40
0.27027788393816
40
0.27027788393816
40
0.298344119171305
40
0.298344119171305
40
0.32641035440445
40
0.32641035440445
40
0.354476589637596
40
0.354476589637596
40
0.382542824870741
40
0.382542824870741
40
0.410609060103886
40
0.410609060103886
40
0.438675295337031
40
0.438675295337031
40
0.452708412953604
40
0.452708412953604
40
0.466741530570176
40
0.466741530570176
40
0.494807765803323
40
0.494807765803323
40
0.508840883419896
40
0.508840883419896
40
0.52287400103647
40
0.52287400103647
40
0.550940236269618
40
0.550940236269618
40
0.607072706735913
40
0.607072706735913
40
0.663205177202209
40
0.663205177202209
40
0.691271412435356
40
0.691271412435356
40
0.705304530051931
40
0.705304530051931
40
0.719337647668504
40
0.719337647668504
40
0.747403882901654
40
0.747403882901654
40
0.775470118134803
40
0.775470118134803
40
0.803536353367953
40
0.803536353367953
40
0.831602588601103
40
0.831602588601103
40
0.859668823834253
40
0.859668823834253
40
0.887735059067402
40
0.887735059067402
40
0.943867529533701
40
0.943867529533701
40
0.971933764766851
40
0.971933764766851
40
1
40
1
40
1
40
1
41
1
10
12.8502830316591
20
-0.630306282463437
30
0
41
1
10
12.8118417147182
20
-0.645994625141924
30
0
41
1
10
12.7734803713375
20
-0.661153745041617
30
0
41
1
10
12.6743062697065
20
-0.699063968839482
30
0
41
1
10
12.6135509256295
20
-0.721075440214975
30
0
41
1
10
12.4922204320256
20
-0.762076757742193
30
0
41
1
10
12.4316375642877
20
-0.781001992412001
30
0
41
1
10
12.3103128975693
20
-0.816189156009045
30
0
41
1
10
12.2495727074611
20
-0.832529055680737
30
0
41
1
10
12.1279153987308
20
-0.862261900685496
30
0
41
1
10
12.0669922240345
20
-0.875621529722423
30
0
41
1
10
11.9753623030321
20
-0.893085878844317
30
0
41
1
10
11.944778576526
20
-0.8984810753484
30
0
41
1
10
11.8835090893615
20
-0.90835416180559
30
0
41
1
10
11.8527925864573
20
-0.912832950416686
30
0
41
1
10
11.7913690692523
20
-0.920749513239997
30
0
41
1
10
11.7607099455142
20
-0.924170117017582
30
0
41
1
10
11.6994591577753
20
-0.929937755708636
30
0
41
1
10
11.6688551898512
20
-0.932330946557471
30
0
41
1
10
11.5769757205744
20
-0.938602610628294
30
0
41
1
10
11.5156981883901
20
-0.941330194675032
30
0
41
1
10
11.3930867914467
20
-0.943138319075132
30
0
41
1
10
11.3317355741481
20
-0.94227281588573
30
0
41
1
10
11.2395437408486
20
-0.938249414319898
30
0
41
1
10
11.2087984809253
20
-0.936457381788614
30
0
41
1
10
11.1474793014416
20
-0.931999181781009
30
0
41
1
10
11.1168747789715
20
-0.929332155521138
30
0
41
1
10
11.0251949056757
20
-0.920034894094897
30
0
41
1
10
10.9642549340633
20
-0.912109029673218
30
0
41
1
10
10.8426048239319
20
-0.892858343022624
30
0
41
1
10
10.781882404767
20
-0.88157838404382
30
0
41
1
10
10.6605327025256
20
-0.855470650991975
30
0
41
1
10
10.599944619627
20
-0.840346847303948
30
0
41
1
10
10.4785901280245
20
-0.807228940832431
30
0
41
1
10
10.4178053400606
20
-0.789428947708956
30
0
41
1
10
10.2959381850999
20
-0.751321694007913
30
0
41
1
10
10.2348686824096
20
-0.730952315319797
30
0
41
1
10
10.1123517071404
20
-0.687247612379025
30
0
41
1
10
10.0507770256962
20
-0.663865266389109
30
0
41
1
10
9.9587657289315
20
-0.626763003095306
30
0
41
1
10
9.92813303215334
20
-0.614047708540369
30
0
41
1
10
9.86692886552615
20
-0.587898693539842
30
0
41
1
10
9.83635396213339
20
-0.574476914915948
30
0
41
1
10
9.74461926361064
20
-0.533459916096319
30
0
41
1
10
9.68343257902094
20
-0.505179791522295
30
0
41
1
10
9.59149756496902
20
-0.461673185717046
30
0
41
1
10
9.56083036052519
20
-0.446974011433866
30
0
41
1
10
9.4994425858537
20
-0.417171071974508
30
0
41
1
10
9.46869104690964
20
-0.402051689940151
30
0
41
1
10
9.37663299928289
20
-0.356250718064871
30
0
41
1
10
9.31549600499287
20
-0.325110323320473
30
0
41
1
10
9.13267309602728
20
-0.230046579616186
30
0
41
1
10
9.01153615648497
20
-0.164554178570427
30
0
41
1
10
8.76917974167418
20
-0.0323318227736422
30
0
41
1
10
8.64799502458234
20
0.0344744177620839
30
0
41
1
10
8.46524130830105
20
0.133854145689042
30
0
41
1
10
8.40416999406892
20
0.166856582342206
30
0
41
1
10
8.31221927260202
20
0.215984301187746
30
0
41
1
10
8.28148118097576
20
0.232313444997715
30
0
41
1
10
8.22011338028017
20
0.264686762635677
30
0
41
1
10
8.18946609767909
20
0.280741954755968
30
0
41
1
10
8.09760976348599
20
0.328449471235103
30
0
41
1
10
8.03649045849932
20
0.359621085279031
30
0
41
1
10
7.91419659141152
20
0.420409030793962
30
0
41
1
10
7.8530152212488
20
0.45004514426995
30
0
41
1
10
7.73045118112549
20
0.507640906768046
30
0
41
1
10
7.66895503143939
20
0.535637494291251
30
0
41
1
10
7.5465250015406
20
0.589273738788108
30
0
41
1
10
7.48553324447144
20
0.614956616037176
30
0
41
1
10
7.36389013372306
20
0.663714021761791
30
0
41
1
10
7.30324179111463
20
0.686760416872517
30
0
41
1
10
7.1820888648229
20
0.730013250220367
30
0
41
1
10
7.12157479432537
20
0.750268674128534
30
0
41
1
10
6.93991142891275
20
0.806912647440384
30
0
41
1
10
6.81868647559884
20
0.839080813235455
30
0
41
1
10
6.63585472701609
20
0.877761057192942
30
0
41
1
10
6.57473709061975
20
0.889054875502154
30
0
41
1
10
6.45200943274747
20
0.908241601153065
30
0
41
1
10
6.3906583620907
20
0.916089485482928
30
0
41
1
10
6.32934055058848
20
0.922134512747675
30
0
0
SPLINE
5
CC
100
AcDbEntity
8
SK1
62
256
6
ByLayer
370
18
48
1
60
0
100
AcDbSpline
70
4
71
3
72
35
73
31
40
0
40
0
40
0
40
0
40
0.0625000000000194
40
0.0625000000000194
40
0.0937500000000291
40
0.0937500000000291
40
0.125000000000039
40
0.125000000000039
40
0.250000000000086
40
0.250000000000086
40
0.281250000000089
40
0.281250000000089
40
0.312500000000093
40
0.312500000000093
40
0.375000000000087
40
0.375000000000087
40
0.437500000000081
40
0.437500000000081
40
0.500000000000075
40
0.500000000000075
40
0.625000000000077
40
0.625000000000077
40
0.656250000000071
40
0.656250000000071
40
0.687500000000065
40
0.750000000000052
40
0.750000000000052
40
0.875000000000026
40
0.875000000000026
40
1
40
1
40
1
40
1
41
1
10
30.7205274140546
20
0.432784701267707
30
0
41
1
10
30.7117545332782
20
0.410074407794326
30
0
41
1
10
30.7017070145243
20
0.388254260539782
30
0
41
1
10
30.6844509373905
20
0.357049798821265
30
0
41
1
10
30.6783352053973
20
0.346902306660269
30
0
41
1
10
30.6653281723724
20
0.32714894267059
30
0
41
1
10
30.658403554347
20
0.317502650821154
30
0
41
1
10
30.6221903129191
20
0.271310077827508
30
0
41
1
10
30.5882911210566
20
0.240830158714971
30
0
41
1
10
30.5398421868763
20
0.210710222913718
30
0
41
1
10
30.529803934955
20
0.205073899185379
30
0
41
1
10
30.5094088119496
20
0.194765935488391
30
0
41
1
10
30.4990320718671
20
0.190078017520705
30
0
41
1
10
30.4674087831773
20
0.177296790759186
30
0
41
1
10
30.4456715154229
20
0.170479898322242
30
0
41
1
10
30.4010699783869
20
0.159777572700364
30
0
41
1
10
30.3781121262851
20
0.155893952042618
30
0
41
1
10
30.3321229451286
20
0.150803391747587
30
0
41
1
10
30.3089919836674
20
0.149571123160769
30
0
41
1
10
30.239240732069
20
0.149324762872055
30
0
41
1
10
30.1922675484207
20
0.153708414512494
30
0
41
1
10
30.1331050351521
20
0.163482498555567
30
0
41
1
10
30.1212405826229
20
0.165658755399363
30
0
41
1
10
30.0976293921668
20
0.170394565140725
30
0
41
1
10
30.0623291014796
20
0.178080430083867
30
0
41
1
10
30.0273618441651
20
0.187430533776762
30
0
41
1
10
29.9578274393237
20
0.208130175051736
30
0
41
1
10
29.9119956992374
20
0.224551123157028
30
0
41
1
10
29.8212135729292
20
0.261797332483752
30
0
41
1
10
29.7762698842988
20
0.282656062996097
30
0
41
1
10
29.7317381987409
20
0.305573660682882
30
0
0
SPLINE
5
CD
100
AcDbEntity
8
SK1
62
256
6
ByLayer
370
18
48
1
60
0
100
AcDbSpline
70
4
71
3
72
14
73
10
40
0
40
0
40
0
40
0
40
0.25
40
0.25
40
0.5
40
0.5
40
0.75
40
0.75
40
1
40
1
40
1
40
1
41
1
10
30.7460137766004
20
0.446938669520648
30
0
41
1
10
30.7434324899306
20
0.446698389773587
30
0
41
1
10
30.7408866728271
20
0.446280803758242
30
0
41
1
10
30.7358811442245
20
0.445013488919898
30
0
41
1
10
30.7333885568811
20
0.444150160490835
30
0
41
1
10
30.7287361409895
20
0.441890431678672
30
0
41
1
10
30.726532019383
20
0.440467958807801
30
0
41
1
10
30.7228655720913
20
0.437043681242756
30
0
41
1
10
30.7213862501863
20
0.435007964200906
30
0
41
1
10
30.7205274140528
20
0.432784701269071
30
0
0
SPLINE
5
CE
100
AcDbEntity
8
SK1
62
256
6
ByLayer
370
18
48
1
60
0
100
AcDbSpline
70
4
71
3
72
14
73
10
40
0
40
0
40
0
40
0
40
0.25
40
0.25
40
0.5
40
0.5
40
0.75
40
0.75
40
1
40
1
40
1
40
1
41
1
10
31.182138817325
20
0.513488779078727
30
0
41
1
10
31.1466790110968
20
0.505193317741004
30
0
41
1
10
31.1108048396551
20
0.49775483857141
30
0
41
1
10
31.0385622390538
20
0.484199536746047
30
0
41
1
10
31.002289537184
20
0.478139543464891
30
0
41
1
10
30.9294500311471
20
0.467413629364927
30
0
41
1
10
30.8928923639278
20
0.462704398556724
30
0
41
1
10
30.8195856000914
20
0.454193330232556
30
0
41
1
10
30.7828417112272
20
0.450366807479952
30
0
41
1
10
30.7460137766004
20
0.446938669520648
30
0
0
SPLINE
5
CF
100
AcDbEntity
8
SK1
62
256
6
ByLayer
370
18
48
1
60
0
100
AcDbSpline
70
4
71
3
72
10
73
6
40
0
40
0
40
0
40
0
40
0.5
40
0.5
40
1
40
1
40
1
40
1
41
1
10
30.8792543679941
20
0.972605320898907
30
0
41
1
10
30.9292531950041
20
0.898250941773483
30
0
41
1
10
30.9794965822141
20
0.822829495443131
30
0
41
1
10
31.0804955400522
20
0.669751839611308
30
0
41
1
10
31.131268456341
20
0.592068465709559
30
0
41
1
10
31.1821388173249
20
0.513488779078614
30
0
0
SPLINE
5
D0
100
AcDbEntity
8
SK1
62
256
6
ByLayer
370
18
48
1
60
0
100
AcDbSpline
70
4
71
3
72
14
73
10
40
0
40
0
40
0
40
0
40
0.500000000000063
40
0.500000000000063
40
0.625000000000047
40
0.625000000000047
40
0.750000000000032
40
0.750000000000032
40
1
40
1
40
1
40
1
41
1
10
6.32934055058806
20
0.922134512747704
30
0
41
1
10
6.30774257142445
20
0.924263753333889
30
0
41
1
10
6.28606599039384
20
0.928698360148132
30
0
41
1
10
6.25906603684419
20
0.937638246914105
30
0
41
1
10
6.25367110316603
20
0.939598243157945
30
0
41
1
10
6.24289750017013
20
0.943885336490041
30
0
41
1
10
6.23750919361112
20
0.946218484120635
30
0
41
1
10
6.22162459181826
20
0.953687090345511
30
0
41
1
10
6.2113296346989
20
0.959317921030646
30
0
41
1
10
6.20135636782462
20
0.965629961110267
30
0
0
SPLINE
5
D1
100
AcDbEntity
8
SK1
62
256
6
ByLayer
370
18
48
1
60
0
100
AcDbSpline
70
4
71
3
72
24
73
20
40
0
40
0
40
0
40
0
40
0.075252962785731
40
0.075252962785731
40
0.219970795608812
40
0.219970795608812
40
0.364688628431892
40
0.364688628431892
40
0.509406461254974
40
0.509406461254974
40
0.581765377666513
40
0.581765377666513
40
0.654124294078053
40
0.654124294078053
40
0.798842126901128
40
0.798842126901128
40
0.943559959724202
40
0.943559959724202
40
1
40
1
40
1
40
1
41
1
10
10.2487565213354
20
0.828101534734316
30
0
41
1
10
10.2817783939593
20
0.819499741635326
30
0
41
1
10
10.3147797416007
20
0.810435895476957
30
0
41
1
10
10.4112215193829
20
0.782629666674211
30
0
41
1
10
10.4746229943055
20
0.762658816623457
30
0
41
1
10
10.60172224951
20
0.719802530097382
30
0
41
1
10
10.6653680308125
20
0.696814444731615
30
0
41
1
10
10.7930720526568
20
0.648088894311201
30
0
41
1
10
10.8571133252797
20
0.6222715159291
30
0
41
1
10
10.9535412843765
20
0.581421603408842
30
0
41
1
10
10.9857092393228
20
0.567470771654314
30
0
41
1
10
11.0498319801425
20
0.539061291806291
30
0
41
1
10
11.0818278790545
20
0.52458534113353
30
0
41
1
10
11.1776520236546
20
0.480399523388797
30
0
41
1
10
11.2413126701258
20
0.449922377129013
30
0
41
1
10
11.3684097886287
20
0.387321720835928
30
0
41
1
10
11.4318528724089
20
0.355210315966019
30
0
41
1
10
11.5200235345967
20
0.309676759891033
30
0
41
1
10
11.5447583842569
20
0.296798243360286
30
0
41
1
10
11.5694979281438
20
0.283833380406349
30
0
0
SPLINE
5
D2
100
AcDbEntity
8
SK1
62
256
6
ByLayer
370
13
48
1
60
0
100
AcDbSpline
70
4
71
3
72
20
73
16
40
0
40
0
40
0
40
0
40
0.109123295123065
40
0.109123295123065
40
0.288014116069592
40
0.288014116069592
40
0.466904937016121
40
0.466904937016121
40
0.556350347489377
40
0.556350347489377
40
0.645795757962636
40
0.645795757962636
40
0.824686578909156
40
0.824686578909156
40
1
40
1
40
1
40
1
41
1
10
11.5694979281394
20
0.283833380408595
30
0
41
1
10
11.6081930161012
20
0.263555055363071
30
0
41
1
10
11.6468995880411
20
0.243065492023391
30
0
41
1
10
11.7491747884907
20
0.188596101243093
30
0
41
1
10
11.812790114882
20
0.154288938835862
30
0
41
1
10
11.9403299557495
20
0.0849238713808802
30
0
41
1
10
12.0042594592658
20
0.0498849373370831
30
0
41
1
10
12.1005260580856
20
-0.0029520164614496
30
0
41
1
10
12.1327060003009
20
-0.0206261159756593
30
0
41
1
10
12.1968619290954
20
-0.0558268404532214
30
0
41
1
10
12.228877215586
20
-0.0733744977257231
30
0
41
1
10
12.3247705117954
20
-0.125796817219708
30
0
41
1
10
12.388498455429
20
-0.160448069658798
30
0
41
1
10
12.5144338914027
20
-0.2281826638052
30
0
41
1
10
12.5766453221176
20
-0.261276497231847
30
0
41
1
10
12.6388286248735
20
-0.293782584778114
30
0
0
SPLINE
5
D3
100
AcDbEntity
8
SK1
62
256
6
ByLayer
370
18
48
1
60
0
100
AcDbSpline
70
4
71
3
72
28
73
24
40
0
40
0
40
0
40
0
40
0.0904577970293351
40
0.0904577970293351
40
0.267825621777412
40
0.267825621777412
40
0.312167577964436
40
0.312167577964436
40
0.35650953415146
40
0.35650953415146
40
0.445193446525506
40
0.445193446525506
40
0.622561271273598
40
0.622561271273598
40
0.79992909602169
40
0.79992909602169
40
0.84427105220871
40
0.84427105220871
40
0.888613008395731
40
0.888613008395731
40
0.977296920769774
40
0.977296920769774
40
1
40
1
40
1
40
1
41
1
10
12.6388277385647
20
-0.293782121463494
30
0
41
1
10
12.7035491294862
20
-0.327614990715858
30
0
41
1
10
12.7682400489597
20
-0.360811156588483
30
0
41
1
10
12.9599931817335
20
-0.456690657045158
30
0
41
1
10
13.0873132277004
20
-0.516972729092657
30
0
41
1
10
13.2476119711501
20
-0.587025138578866
30
0
41
1
10
13.2797753916332
20
-0.600789248371285
30
0
41
1
10
13.343981811876
20
-0.627638654682102
30
0
41
1
10
13.3760158270766
20
-0.640721261936534
30
0
41
1
10
13.4719448174868
20
-0.678904195248492
30
0
41
1
10
13.5356640577292
20
-0.702940020181217
30
0
41
1
10
13.7264183720308
20
-0.770469280152327
30
0
41
1
10
13.8531265321653
20
-0.809278869232543
30
0
41
1
10
14.1070136506097
20
-0.873196324743901
30
0
41
1
10
14.2342388269049
20
-0.898293518482035
30
0
41
1
10
14.3943786554682
20
-0.920371215907863
30
0
41
1
10
14.4264873164819
20
-0.924324289323522
30
0
41
1
10
14.4907301769564
20
-0.93126444695929
30
0
41
1
10
14.5227801932879
20
-0.934243205217086
30
0
41
1
10
14.618749803143
20
-0.941703408331307
30
0
41
1
10
14.6824841722328
20
-0.94470105167008
30
0
41
1
10
14.7623584221182
20
-0.946008015018549
30
0
41
1
10
14.778630299653
20
-0.946146465029699
30
0
41
1
10
14.7948959033503
20
-0.946157410100312
30
0
0
SPLINE
5
D4
100
AcDbEntity
8
SK1
62
256
6
ByLayer
370
18
48
1
60
0
100
AcDbSpline
70
4
71
3
72
18
73
14
40
0
40
0
40
0
40
0
40
0.124239570879473
40
0.124239570879473
40
0.413842868783749
40
0.413842868783749
40
0.558644517735896
40
0.558644517735896
40
0.70344616668804
40
0.70344616668804
40
0.99304946459233
40
0.99304946459233
40
1
40
1
40
1
40
1
41
1
10
21.0764921507434
20
0.828877234355843
30
0
41
1
10
21.1308853896843
20
0.814129950479696
30
0
41
1
10
21.1852457165285
20
0.798177095776964
30
0
41
1
10
21.3662802691392
20
0.740965141028312
30
0
41
1
10
21.4929272412422
20
0.694379680997457
30
0
41
1
10
21.6838995394617
20
0.615905516263382
30
0
41
1
10
21.7477723979307
20
0.588297035283119
30
0
41
1
10
21.8759508311207
20
0.530690945345526
30
0
41
1
10
21.9398115967353
20
0.50092764243368
30
0
41
1
10
22.1308492925007
20
0.408954583327756
30
0
41
1
10
22.2574618328462
20
0.344035648785905
30
0
41
1
10
22.3870708602897
20
0.275189872604329
30
0
41
1
10
22.3901085681231
20
0.273574935189288
30
0
41
1
10
22.3931462599821
20
0.271958666720167
30
0
0
SPLINE
5
D5
100
AcDbEntity
8
SK1
62
256
6
ByLayer
370
13
48
1
60
0
100
AcDbSpline
70
4
71
3
72
12
73
8
40
0
40
0
40
0
40
0
40
0.651970788891337
40
0.651970788891337
40
0.985972284338555
40
0.985972284338555
40
1
40
1
40
1
40
1
41
1
10
22.3931462602413
20
0.271958666582236
30
0
41
1
10
22.5166780379531
20
0.206230960637072
30
0
41
1
10
22.6401833980008
20
0.138302023498397
30
0
41
1
10
22.8281185200926
20
0.0343525752445828
30
0
41
1
10
22.8919659580094
20
-0.0011118721430705
30
0
41
1
10
22.9587623089855
20
-0.0381925432481296
30
0
41
1
10
22.9614542395035
20
-0.0396868817997245
30
0
41
1
10
22.9641457954654
20
-0.0411809595619559
30
0
0
SPLINE
5
D6
100
AcDbEntity
8
SK1
62
256
6
ByLayer
370
18
48
1
60
0
100
AcDbSpline
70
4
71
3
72
30
73
26
40
0
40
0
40
0
40
0
40
0.0695716082032931
40
0.0695716082032931
40
0.214814891536988
40
0.214814891536988
40
0.360058174870685
40
0.360058174870685
40
0.432679816537533
40
0.432679816537533
40
0.468990637370956
40
0.468990637370956
40
0.50530145820438
40
0.50530145820438
40
0.650544741538077
40
0.650544741538077
40
0.795788024871772
40
0.795788024871772
40
0.868409666538623
40
0.868409666538623
40
0.904720487372051
40
0.904720487372051
40
0.94103130820548
40
0.94103130820548
40
1
40
1
40
1
40
1
41
1
10
22.9641457954481
20
-0.0411809595523209
30
0
41
1
10
23.0255404911688
20
-0.0752610421867246
30
0
41
1
10
23.0867403048213
20
-0.109205435768274
30
0
41
1
10
23.2750416674583
20
-0.212846353756959
30
0
41
1
10
23.4016599770551
20
-0.281269507708743
30
0
41
1
10
23.6550092143329
20
-0.412166948966075
30
0
41
1
10
23.7815557666827
20
-0.474902825300489
30
0
41
1
10
23.9722478194191
20
-0.563209393390451
30
0
41
1
10
24.0359790655309
20
-0.591656377787075
30
0
41
1
10
24.1320591739005
20
-0.632449790681619
30
0
41
1
10
24.1641210115501
20
-0.645733422906403
30
0
41
1
10
24.228040814323
20
-0.671537354286386
30
0
41
1
10
24.259942060975
20
-0.68407364531285
30
0
41
1
10
24.4192000699665
20
-0.744850021021335
30
0
41
1
10
24.545791538555
20
-0.787382624039054
30
0
41
1
10
24.7987583459471
20
-0.859330425577014
30
0
41
1
10
24.9252214408309
20
-0.888589726394429
30
0
41
1
10
25.1160745558255
20
-0.921396264729594
30
0
41
1
10
25.179850092019
20
-0.930475525115384
30
0
41
1
10
25.2758764935346
20
-0.941215196012223
30
0
41
1
10
25.3079528676964
20
-0.944313336782074
30
0
41
1
10
25.3718771266536
20
-0.949504836596105
30
0
41
1
10
25.403771608207
20
-0.951603960136168
30
0
41
1
10
25.4873157776347
20
-0.95581284943097
30
0
41
1
10
25.5388799450329
20
-0.95712417733759
30
0
41
1
10
25.5903568448186
20
-0.957148523946586
30
0
0
SPLINE
5
D7
100
AcDbEntity
8
SK1
62
256
6
ByLayer
370
18
48
1
60
0
100
AcDbSpline
70
4
71
3
72
20
73
16
40
0
40
0
40
0
40
0
40
0.0624999999999861
40
0.0624999999999861
40
0.124999999999972
40
0.124999999999972
40
0.249999999999944
40
0.249999999999944
40
0.374999999999917
40
0.374999999999917
40
0.499999999999889
40
0.499999999999889
40
0.749999999999944
40
0.749999999999944
40
1
40
1
40
1
40
1
41
1
10
30.7958413499223
20
-0.989837865049935
30
0
41
1
10
30.7966155069541
20
-0.988189112541306
30
0
41
1
10
30.7972389375424
20
-0.986493770542637
30
0
41
1
10
30.7980815257034
20
-0.983200200425273
30
0
41
1
10
30.7983022864934
20
-0.981610884801682
30
0
41
1
10
30.7984277618641
20
-0.977114934578452
30
0
41
1
10
30.797812927405
20
-0.974586740315004
30
0
41
1
10
30.7959439923449
20
-0.970300282649703
30
0
41
1
10
30.7946799094775
20
-0.968507871835783
30
0
41
1
10
30.791828369743
20
-0.9653821805924
30
0
41
1
10
30.7902529817624
20
-0.964065699576594
30
0
41
1
10
30.7852485922504
20
-0.960574389113219
30
0
41
1
10
30.7815453910668
20
-0.958851063081482
30
0
41
1
10
30.7737280915216
20
-0.956081003704838
30
0
41
1
10
30.7696378683047
20
-0.955059448566942
30
0
41
1
10
30.7654288473189
20
-0.954292023438967
30
0
0
SPLINE
5
D8
100
AcDbEntity
8
SK1
62
256
6
ByLayer
370
13
48
1
60
0
100
AcDbSpline
70
4
71
3
72
10
73
6
40
0
40
0
40
0
40
0
40
0.962464424402855
40
0.962464424402855
40
1
40
1
40
1
40
1
41
1
10
6.32948856791273
20
0.199859073178317
30
0
41
1
10
6.45801959299578
20
0.131706985882232
30
0
41
1
10
6.58547864256448
20
0.0622006429815087
30
0
41
1
10
6.71752597901624
20
-0.010065272502402
30
0
41
1
10
6.72248191074533
20
-0.0127778447923106
30
0
41
1
10
6.72743735747002
20
-0.0154903432179481
30
0
0
SPLINE
5
D9
100
AcDbEntity
8
SK1
62
256
6
ByLayer
370
18
48
1
60
0
100
AcDbSpline
70
4
71
3
72
29
73
25
40
0
40
0
40
0
40
0
40
0.137836941662316
40
0.137836941662316
40
0.209552385484269
40
0.209552385484269
40
0.245410107395245
40
0.245410107395245
40
0.281267829306221
40
0.281267829306221
40
0.42469871695013
40
0.42469871695013
40
0.568129604594039
40
0.568129604594039
40
0.639845048415994
40
0.67570277032697
40
0.67570277032697
40
0.711560492237945
40
0.711560492237945
40
0.85499137988185
40
0.85499137988185
40
0.998422267525754
40
0.998422267525754
40
1
40
1
40
1
40
1
41
1
10
6.72743794583533
20
-0.0154906652757063
30
0
41
1
10
6.84954685623288
20
-0.0823302959818477
30
0
41
1
10
6.97136127510606
20
-0.14912507409278
30
0
41
1
10
7.15738191076508
20
-0.24825195946184
30
0
41
1
10
7.22120444946316
20
-0.281723609789594
30
0
41
1
10
7.3172549079591
20
-0.331101738408108
30
0
41
1
10
7.34932302521386
20
-0.347425391485899
30
0
41
1
10
7.4135791687861
20
-0.37976884280593
30
0
41
1
10
7.44580202496005
20
-0.395804461668973
30
0
41
1
10
7.60639743167505
20
-0.474689585575732
30
0
41
1
10
7.73375361786734
20
-0.533987965216113
30
0
41
1
10
7.98796465033112
20
-0.642697777289612
30
0
41
1
10
8.11494744814991
20
-0.69194981102055
30
0
41
1
10
8.3058894417421
20
-0.757024915110236
30
0
41
1
10
8.40149534780375
20
-0.787361285686416
30
0
41
1
10
8.4975106957632
20
-0.814136126255647
30
0
41
1
10
8.56163709161015
20
-0.831163687198853
30
0
41
1
10
8.59380139841861
20
-0.839277030440428
30
0
41
1
10
8.75443729085089
20
-0.877583524175577
30
0
41
1
10
8.88195352619951
20
-0.900877652727416
30
0
41
1
10
9.13633626453935
20
-0.932270225457728
30
0
41
1
10
9.26327066787147
20
-0.940411403417357
30
0
41
1
10
9.39186006562724
20
-0.940733050931868
30
0
41
1
10
9.39325918873516
20
-0.94073561178152
30
0
41
1
10
9.39465834898249
20
-0.940737233744755
30
0
0
SPLINE
5
DA
100
AcDbEntity
8
SK1
62
256
6
ByLayer
370
18
48
1
60
0
100
AcDbSpline
70
4
71
3
72
52
73
48
40
0
40
0
40
0
40
0
40
0.0128267495184218
40
0.0128267495184218
40
0.0333825785623287
40
0.0333825785623287
40
0.0744942366501421
40
0.0744942366501421
40
0.156717552825769
40
0.156717552825769
40
0.238940869001396
40
0.238940869001396
40
0.259496698045303
40
0.259496698045303
40
0.28005252708921
40
0.28005252708921
40
0.32116418517702
40
0.32116418517702
40
0.403387501352641
40
0.403387501352641
40
0.485610817528262
40
0.485610817528262
40
0.506166646572165
40
0.506166646572165
40
0.526722475616068
40
0.526722475616068
40
0.567834133703871
40
0.567834133703871
40
0.650057449879475
40
0.650057449879475
40
0.732280766055078
40
0.732280766055078
40
0.752836595098979
40
0.752836595098979
40
0.77339242414288
40
0.77339242414288
40
0.814504082230681
40
0.814504082230681
40
0.83505991127458
40
0.83505991127458
40
0.85561574031848
40
0.85561574031848
40
0.896727398406273
40
0.896727398406273
40
0.978950714581863
40
0.978950714581863
40
1
40
1
40
1
40
1
41
1
10
15.5448285118987
20
0.857843851729939
30
0
41
1
10
15.5648050392741
20
0.853192697150917
30
0
41
1
10
15.5848055802062
20
0.848361924787014
30
0
41
1
10
15.6369311697508
20
0.835326370160175
30
0
41
1
10
15.6690110464473
20
0.826865942654081
30
0
41
1
10
15.7650166365591
20
0.80027995916484
30
0
41
1
10
15.828796053209
20
0.780923847863136
30
0
41
1
10
16.0196812581322
20
0.718251505107048
30
0
41
1
10
16.1463525024731
20
0.670327011744149
30
0
41
1
10
16.3999833463072
20
0.564400828408225
30
0
41
1
10
16.5268990439289
20
0.506258872717751
30
0
41
1
10
16.6866562874109
20
0.428471152184528
30
0
41
1
10
16.7186674569197
20
0.412671821580545
30
0
41
1
10
16.7828265496285
20
0.380586964381905
30
0
41
1
10
16.8149629070865
20
0.364304546940758
30
0
41
1
10
16.9110411663216
20
0.315063185106794
30
0
41
1
10
16.9748405084916
20
0.281619579599891
30
0
41
1
10
17.1657525629142
20
0.179947504106309
30
0
41
1
10
17.2923725177143
20
0.110367450433415
30
0
41
1
10
17.5458546973725
20
-0.0295621935865711
30
0
41
1
10
17.6728079275902
20
-0.0997433539990027
30
0
41
1
10
17.8324339357367
20
-0.186498203738353
30
0
41
1
10
17.8644084040064
20
-0.203795857186265
30
0
41
1
10
17.9284791387209
20
-0.238241300694455
30
0
41
1
10
17.9606093106138
20
-0.255407397121843
30
0
41
1
10
18.0566969603895
20
-0.306343771387816
30
0
41
1
10
18.1204888373026
20
-0.339627743513063
30
0
41
1
10
18.311380189467
20
-0.436929776884796
30
0
41
1
10
18.438037581628
20
-0.498376158969449
30
0
41
1
10
18.6915196422473
20
-0.6121698498265
30
0
41
1
10
18.8183822204792
20
-0.664523232140198
30
0
41
1
10
18.9779021337809
20
-0.723107754962797
30
0
41
1
10
19.0098543267172
20
-0.734481236615437
30
0
41
1
10
19.0738802343345
20
-0.75650636414835
30
0
41
1
10
19.1059844485602
20
-0.767167571949102
30
0
41
1
10
19.202215712924
20
-0.79791987648747
30
0
41
1
10
19.2662847155283
20
-0.816788477832574
30
0
41
1
10
19.3624132400663
20
-0.842461407935104
30
0
41
1
10
19.3944615000803
20
-0.850583630270762
30
0
41
1
10
19.458598739376
20
-0.86594198163985
30
0
41
1
10
19.4907178204054
20
-0.873184784192773
30
0
41
1
10
19.5868507209966
20
-0.893484258200147
30
0
41
1
10
19.6506849107309
20
-0.905121034010733
30
0
41
1
10
19.8416176920971
20
-0.934195450021605
30
0
41
1
10
19.9681770917029
20
-0.94588221339211
30
0
41
1
10
20.1271746868107
20
-0.950965524369536
30
0
41
1
10
20.1595867011867
20
-0.951504040250114
30
0
41
1
10
20.192020161512
20
-0.951545592937634
30
0
0
SPLINE
5
DB
100
AcDbEntity
8
SK1
62
256
6
ByLayer
370
18
48
1
60
0
100
AcDbSpline
70
4
71
3
72
28
73
24
40
0
40
0
40
0
40
0
40
0.034247756234332
40
0.034247756234332
40
0.0858260505686799
40
0.0858260505686799
40
0.137404344903028
40
0.137404344903028
40
0.240560933571722
40
0.240560933571722
40
0.343717522240416
40
0.343717522240416
40
0.550030699577808
40
0.550030699577808
40
0.653187288246502
40
0.653187288246502
40
0.704765582580846
40
0.704765582580846
40
0.756343876915189
40
0.756343876915189
40
0.962657054252561
40
0.962657054252561
40
1
40
1
40
1
40
1
41
1
10
26.3235844740442
20
0.871774468876822
30
0
41
1
10
26.3447628489942
20
0.866887441342044
30
0
41
1
10
26.36596344467
20
0.86179269937864
30
0
41
1
10
26.4191569400024
20
0.848510465290246
30
0
41
1
10
26.4512179330129
20
0.84005153006251
30
0
41
1
10
26.5151326928621
20
0.8223144325558
30
0
41
1
10
26.5470207581687
20
0.813028427362582
30
0
41
1
10
26.6425155541784
20
0.783968017666723
30
0
41
1
10
26.7059823848971
20
0.763043875800605
30
0
41
1
10
26.8327744887562
20
0.718308701388224
30
0
41
1
10
26.8960769339243
20
0.694506134648719
30
0
41
1
10
27.0859557767661
20
0.61909243151274
30
0
41
1
10
27.2123473409344
20
0.563214900361515
30
0
41
1
10
27.4026871006088
20
0.472502949923751
30
0
41
1
10
27.4662848114309
20
0.441177508802951
30
0
41
1
10
27.5621354661017
20
0.392832583745275
30
0
41
1
10
27.5941953370127
20
0.376447628922534
30
0
41
1
10
27.6581895624108
20
0.343422272127071
30
0
41
1
10
27.6901347525492
20
0.326781339508926
30
0
41
1
10
27.849582426798
20
0.242897903067245
30
0
41
1
10
27.9762178917457
20
0.173566383821452
30
0
41
1
10
28.125521511911
20
0.0905845787333135
30
0
41
1
10
28.1483962401542
20
0.0778349593543339
30
0
41
1
10
28.1712701956886
20
0.0650661965513564
30
0
0
SPLINE
5
DC
100
AcDbEntity
8
SK1
62
256
6
ByLayer
370
13
48
1
60
0
100
AcDbSpline
70
4
71
3
72
32
73
28
40
0
40
0
40
0
40
0
40
0.0467811982836126
40
0.0467811982836126
40
0.120105721492573
40
0.120105721492573
40
0.193430244701534
40
0.193430244701534
40
0.230092506306011
40
0.230092506306011
40
0.266754767910488
40
0.266754767910488
40
0.413403814328391
40
0.413403814328391
40
0.486728337537342
40
0.486728337537342
40
0.560052860746292
40
0.560052860746292
40
0.633377383955244
40
0.633377383955244
40
0.706701907164195
40
0.706701907164195
40
0.780026430373147
40
0.780026430373147
40
0.853350953582097
40
0.853350953582097
40
1
40
1
40
1
40
1
41
1
10
28.1712693225275
20
0.0650666839697749
30
0
41
1
10
28.2115829395093
20
0.0425627059361204
30
0
41
1
10
28.251894156077
20
0.0199992652546825
30
0
41
1
10
28.3554797002219
20
-0.037905337927242
30
0
41
1
10
28.4188153609339
20
-0.0732148172751579
30
0
41
1
10
28.5457829286226
20
-0.143566043473982
30
0
41
1
10
28.6094121614555
20
-0.17861266563915
30
0
41
1
10
28.705206758723
20
-0.2307477870811
30
0
41
1
10
28.7372346782908
20
-0.24807385900715
30
0
41
1
10
28.8012495911778
20
-0.282443050679348
30
0
41
1
10
28.833185222874
20
-0.299458969718955
30
0
41
1
10
28.992559280809
20
-0.38360952112285
30
0
41
1
10
29.1190902028806
20
-0.447955987835513
30
0
41
1
10
29.3086250941207
20
-0.538193657425381
30
0
41
1
10
29.3717567253582
20
-0.567232013521618
30
0
41
1
10
29.4981718108533
20
-0.622888770678543
30
0
41
1
10
29.5614614487395
20
-0.649496861815521
30
0
41
1
10
29.6883227247615
20
-0.70007284902016
30
0
41
1
10
29.7518890200364
20
-0.724048330079825
30
0
41
1
10
29.8794667069398
20
-0.769095218800658
30
0
41
1
10
29.943627572676
20
-0.790202974851638
30
0
41
1
10
30.0710562252419
20
-0.828806469945818
30
0
41
1
10
30.1344638802629
20
-0.846367652898607
30
0
41
1
10
30.2610211193028
20
-0.87792649949327
30
0
41
1
10
30.3241969600024
20
-0.891918895900858
30
0
41
1
10
30.513530415578
20
-0.92831981078325
30
0
41
1
10
30.6393591518384
20
-0.945186026464938
30
0
41
1
10
30.7654288473158
20
-0.954292023439621
30
0
0
SPLINE
5
DD
100
AcDbEntity
8
SK1
62
256
6
ByLayer
370
18
48
1
60
0
100
AcDbSpline
70
4
71
3
72
104
73
100
40
0
40
0
40
0
40
0
40
0.0048056265013343
40
0.0048056265013343
40
0.0315036176564503
40
0.0315036176564503
40
0.0448526132340083
40
0.0448526132340083
40
0.0582016088115663
40
0.0582016088115663
40
0.0848995999666846
40
0.0848995999666846
40
0.111597591121803
40
0.111597591121803
40
0.138295582276921
40
0.138295582276921
40
0.164993573432039
40
0.164993573432039
40
0.191691564587158
40
0.191691564587158
40
0.205040560164718
40
0.205040560164718
40
0.218389555742278
40
0.218389555742278
40
0.231738551319839
40
0.231738551319839
40
0.245087546897399
40
0.245087546897399
40
0.271785538052519
40
0.271785538052519
40
0.28513453363008
40
0.28513453363008
40
0.29848352920764
40
0.29848352920764
40
0.325181520362758
40
0.325181520362758
40
0.351879511517877
40
0.351879511517877
40
0.378577502672995
40
0.378577502672995
40
0.405275493828113
40
0.405275493828113
40
0.431973484983232
40
0.431973484983232
40
0.45867147613835
40
0.45867147613835
40
0.472020471715909
40
0.472020471715909
40
0.485369467293468
40
0.485369467293468
40
0.512067458448587
40
0.512067458448587
40
0.538765449603705
40
0.538765449603705
40
0.552114445181264
40
0.552114445181264
40
0.565463440758823
40
0.565463440758823
40
0.592161431913942
40
0.592161431913942
40
0.61885942306906
40
0.61885942306906
40
0.645557414224178
40
0.645557414224178
40
0.672255405379297
40
0.672255405379297
40
0.698953396534415
40
0.698953396534415
40
0.712302392111973
40
0.712302392111973
40
0.725651387689531
40
0.725651387689531
40
0.752349378844645
40
0.752349378844645
40
0.779047369999758
40
0.779047369999758
40
0.805745361154872
40
0.805745361154872
40
0.819094356732429
40
0.819094356732429
40
0.832443352309986
40
0.832443352309986
40
0.859141343465102
40
0.859141343465102
40
0.885839334620218
40
0.885839334620218
40
0.899188330197776
40
0.899188330197776
40
0.912537325775334
40
0.912537325775334
40
0.93923531693045
40
0.93923531693045
40
0.952584312508008
40
0.952584312508008
40
0.965933308085566
40
0.965933308085566
40
0.992631299240684
40
0.992631299240684
40
1
40
1
40
1
40
1
41
1
10
29.0332053998443
20
-0.640460521104529
30
0
41
1
10
29.0222103546363
20
-0.645032472833122
30
0
41
1
10
29.011214235286
20
-0.649566256921077
30
0
41
1
10
28.9391184733784
20
-0.679032983686227
30
0
41
1
10
28.8779722888769
20
-0.702805571307863
30
0
41
1
10
28.7860882291601
20
-0.73651389154827
30
0
41
1
10
28.7554303542979
20
-0.747424056787821
30
0
41
1
10
28.6942946241132
20
-0.768461392128444
30
0
41
1
10
28.6637851345697
20
-0.778600261109403
30
0
41
1
10
28.5724062993517
20
-0.807829834272155
30
0
41
1
10
28.5116885127094
20
-0.825733910638434
30
0
41
1
10
28.3905209022972
20
-0.858146473338621
30
0
41
1
10
28.3300635250031
20
-0.872657268967743
30
0
41
1
10
28.2091948888111
20
-0.898153915977616
30
0
41
1
10
28.1487803223477
20
-0.90916241599561
30
0
41
1
10
28.0277539988466
20
-0.928272531208222
30
0
41
1
10
27.9671498228004
20
-0.936365662557876
30
0
41
1
10
27.8456848353004
20
-0.949174871453579
30
0
41
1
10
27.7848273141227
20
-0.953890036183537
30
0
41
1
10
27.6932441542858
20
-0.958082470130137
30
0
41
1
10
27.6626466414822
20
-0.959005394620959
30
0
41
1
10
27.6014024631901
20
-0.959754221137501
30
0
41
1
10
27.5708340347648
20
-0.959564227269254
30
0
41
1
10
27.5097553971732
20
-0.958155612334849
30
0
41
1
10
27.4792459368452
20
-0.956930825601205
30
0
41
1
10
27.4182230599142
20
-0.953676377263008
30
0
41
1
10
27.3877071089644
20
-0.951666294373325
30
0
41
1
10
27.2961206514741
20
-0.944517648495378
30
0
41
1
10
27.235013009814
20
-0.93825209386759
30
0
41
1
10
27.1432475007494
20
-0.926301125108779
30
0
41
1
10
27.112641711258
20
-0.921891191664116
30
0
41
1
10
27.0513806524673
20
-0.912171279182047
30
0
41
1
10
27.0207310398471
20
-0.906860744403673
30
0
41
1
10
26.9290842848879
20
-0.889608521021444
30
0
41
1
10
26.8682583289584
20
-0.876326737403247
30
0
41
1
10
26.7471201040587
20
-0.845661392960295
30
0
41
1
10
26.6867565752588
20
-0.828443522772574
30
0
41
1
10
26.5659287810224
20
-0.792006929858246
30
0
41
1
10
26.5055073493451
20
-0.772651639099593
30
0
41
1
10
26.3846465055289
20
-0.731358600898773
30
0
41
1
10
26.3242082636306
20
-0.709412772612041
30
0
41
1
10
26.2031998587871
20
-0.662730822189076
30
0
41
1
10
26.1426274389622
20
-0.637980994304598
30
0
41
1
10
26.0211792523444
20
-0.585744950824449
30
0
41
1
10
25.9603012699353
20
-0.558213484992876
30
0
41
1
10
25.8685805196499
20
-0.515318749865628
30
0
41
1
10
25.8379429916355
20
-0.500758565660107
30
0
41
1
10
25.7767843771743
20
-0.471220077304878
30
0
41
1
10
25.7462312061697
20
-0.456228085776445
30
0
41
1
10
25.6546128607228
20
-0.41065914085857
30
0
41
1
10
25.5935837482909
20
-0.379494113516358
30
0
41
1
10
25.471432885212
20
-0.316001592192436
30
0
41
1
10
25.4103101845091
20
-0.283694175839827
30
0
41
1
10
25.318472397141
20
-0.234525590523788
30
0
41
1
10
25.2878017943433
20
-0.217996961160679
30
0
41
1
10
25.2265868512472
20
-0.184809315745355
30
0
41
1
10
25.1960423693576
20
-0.16814951775558
30
0
41
1
10
25.10458428878
20
-0.118003699800937
30
0
41
1
10
25.0438443705871
20
-0.0843509432543499
30
0
41
1
10
24.9227390196521
20
-0.0168212389784799
30
0
41
1
10
24.8623943046497
20
0.0170718792751643
30
0
41
1
10
24.7416306163501
20
0.0843884507373502
30
0
41
1
10
24.6812145514794
20
0.117831489161944
30
0
41
1
10
24.5603043964731
20
0.184199056495828
30
0
41
1
10
24.4998029972731
20
0.217112974368774
30
0
41
1
10
24.378597445627
20
0.282176480858254
30
0
41
1
10
24.3179018531173
20
0.314339123842984
30
0
41
1
10
24.226570246843
20
0.36172176509595
30
0
41
1
10
24.1960778088251
20
0.377370734103977
30
0
41
1
10
24.1349673927242
20
0.40832644074996
30
0
41
1
10
24.1043220468709
20
0.423646950036357
30
0
41
1
10
24.012636326128
20
0.468847352806932
30
0
41
1
10
23.9516712930507
20
0.498062461397438
30
0
41
1
10
23.8299356563265
20
0.554532473477451
30
0
41
1
10
23.7691838003371
20
0.58177395958262
30
0
41
1
10
23.6478866301483
20
0.633944891735609
30
0
41
1
10
23.5873351480762
20
0.658863037657028
30
0
41
1
10
23.4965447418577
20
0.694150735894169
30
0
41
1
10
23.4662873357484
20
0.705565544017361
30
0
41
1
10
23.4057632883708
20
0.727659367022426
30
0
41
1
10
23.3754973881438
20
0.738331620348845
30
0
41
1
10
23.2846144878605
20
0.76933742439158
30
0
41
1
10
23.2239021527423
20
0.788721757574052
30
0
41
1
10
23.1021183841523
20
0.824864350178416
30
0
41
1
10
23.0410637376097
20
0.841540309998209
30
0
41
1
10
22.9491291253955
20
0.864217142315539
30
0
41
1
10
22.9184333482105
20
0.871385790928429
30
0
41
1
10
22.857169831907
20
0.884829846493403
30
0
41
1
10
22.8265705065982
20
0.891111484029324
30
0
41
1
10
22.7348554633033
20
0.908537169126987
30
0
41
1
10
22.6738379465073
20
0.918195589021536
30
0
41
1
10
22.5822893501255
20
0.929799065798051
30
0
41
1
10
22.5517608474878
20
0.933234008692523
30
0
41
1
10
22.4906448101211
20
0.939377327300633
30
0
41
1
10
22.4600612342597
20
0.942066769598938
30
0
41
1
10
22.3682281527605
20
0.948935558909767
30
0
41
1
10
22.3068159037105
20
0.951917853705794
30
0
41
1
10
22.2288507242603
20
0.953454317447921
30
0
41
1
10
22.2120023441398
20
0.953653436413788
30
0
41
1
10
22.1951692242997
20
0.953714572032482
30
0
0
SPLINE
5
DE
100
AcDbEntity
8
SK1
62
256
6
ByLayer
370
18
48
1
60
0
100
AcDbSpline
70
4
71
3
72
100
73
96
40
0
40
0
40
0
40
0
40
0.0042751298149094
40
0.0042751298149094
40
0.0309945230085315
40
0.0309945230085315
40
0.0577139162021538
40
0.0577139162021538
40
0.0844333093957756
40
0.0844333093957756
40
0.111152702589398
40
0.111152702589398
40
0.124512399186209
40
0.124512399186209
40
0.13787209578302
40
0.13787209578302
40
0.164591488976642
40
0.164591488976642
40
0.191310882170264
40
0.191310882170264
40
0.218030275363886
40
0.218030275363886
40
0.231389971960697
40
0.231389971960697
40
0.244749668557508
40
0.244749668557508
40
0.271469061751133
40
0.271469061751133
40
0.298188454944757
40
0.298188454944757
40
0.324907848138381
40
0.324907848138381
40
0.338267544735192
40
0.338267544735192
40
0.351627241332003
40
0.351627241332003
40
0.378346634525626
40
0.378346634525626
40
0.405066027719247
40
0.405066027719247
40
0.43178542091287
40
0.43178542091287
40
0.458504814106492
40
0.458504814106492
40
0.485224207300114
40
0.485224207300114
40
0.498583903896924
40
0.498583903896924
40
0.511943600493734
40
0.511943600493734
40
0.525303297090544
40
0.525303297090544
40
0.538662993687353
40
0.538662993687353
40
0.565382386880975
40
0.565382386880975
40
0.592101780074598
40
0.592101780074598
40
0.61882117326822
40
0.61882117326822
40
0.645540566461842
40
0.645540566461842
40
0.672259959655464
40
0.672259959655464
40
0.685619656252275
40
0.685619656252275
40
0.698979352849086
40
0.698979352849086
40
0.725698746042708
40
0.725698746042708
40
0.75241813923633
40
0.75241813923633
40
0.779137532429952
40
0.779137532429952
40
0.805856925623574
40
0.805856925623574
40
0.832576318817195
40
0.832576318817195
40
0.859295712010816
40
0.859295712010816
40
0.886015105204437
40
0.886015105204437
40
0.912734498398058
40
0.912734498398058
40
0.926094194994869
40
0.926094194994869
40
0.93945389159168
40
0.93945389159168
40
0.952813588188491
40
0.952813588188491
40
0.966173284785302
40
0.966173284785302
40
0.992892677978925
40
0.992892677978925
40
1
40
1
40
1
40
1
41
1
10
18.2536085671957
20
-0.629843854189431
30
0
41
1
10
18.2438164276039
20
-0.633884951040784
30
0
41
1
10
18.2340258520202
20
-0.637893552581261
30
0
41
1
10
18.1630787887973
20
-0.666700169472307
30
0
41
1
10
18.1020538099128
20
-0.690147111937904
30
0
41
1
10
17.9799754880694
20
-0.734484602889438
30
0
41
1
10
17.9189355126785
20
-0.755384429500964
30
0
41
1
10
17.7967091690659
20
-0.794567188820253
30
0
41
1
10
17.7355354649871
20
-0.812808227689573
30
0
41
1
10
17.6129880779356
20
-0.846092826658719
30
0
41
1
10
17.5519782654081
20
-0.861055031914646
30
0
41
1
10
17.4608596412611
20
-0.880638966173194
30
0
41
1
10
17.4305581866768
20
-0.886656265837473
30
0
41
1
10
17.3700687246096
20
-0.89763810465675
30
0
41
1
10
17.339867116294
20
-0.902649247314741
30
0
41
1
10
17.2492647043339
20
-0.916640778189191
30
0
41
1
10
17.1888912063555
20
-0.92448411502869
30
0
41
1
10
17.068104827352
20
-0.937188924898265
30
0
41
1
10
17.0077032397238
20
-0.942036244982972
30
0
41
1
10
16.8868481173451
20
-0.94820041885427
30
0
41
1
10
16.8263898843278
20
-0.949514362397707
30
0
41
1
10
16.7355440572381
20
-0.948368905385792
30
0
41
1
10
16.7052360265497
20
-0.947465627126149
30
0
41
1
10
16.6445389900735
20
-0.94461047043589
30
0
41
1
10
16.6141494179456
20
-0.942642854473291
30
0
41
1
10
16.5227990745276
20
-0.935480032329195
30
0
41
1
10
16.4615497818297
20
-0.929108697583501
30
0
41
1
10
16.3392099058852
20
-0.913377905695114
30
0
41
1
10
16.2780852734101
20
-0.904030715140891
30
0
41
1
10
16.1558818401028
20
-0.882056416276527
30
0
41
1
10
16.0947954213001
20
-0.869443155281601
30
0
41
1
10
16.0031207164361
20
-0.847728973559214
30
0
41
1
10
15.9725555151669
20
-0.840014367659109
30
0
41
1
10
15.911381471613
20
-0.823663304396263
30
0
41
1
10
15.8807498737907
20
-0.815031931851678
30
0
41
1
10
15.7889614180769
20
-0.788028827935335
30
0
41
1
10
15.7278521710922
20
-0.76862228551235
30
0
41
1
10
15.6057190827458
20
-0.72689720492275
30
0
41
1
10
15.5447162131954
20
-0.70444839064433
30
0
41
1
10
15.4225555514604
20
-0.657100139614101
30
0
41
1
10
15.3613769377061
20
-0.632320417361086
30
0
41
1
10
15.2387739573448
20
-0.580714040255856
30
0
41
1
10
15.1775698647597
20
-0.553924567031999
30
0
41
1
10
15.0552539277379
20
-0.498379911427662
30
0
41
1
10
14.9941446991446
20
-0.469640369593037
30
0
41
1
10
14.9024846768022
20
-0.424972101268764
30
0
41
1
10
14.8719327113295
20
-0.409817100669187
30
0
41
1
10
14.8108086723977
20
-0.378959297656252
30
0
41
1
10
14.7802359745868
20
-0.363253311361888
30
0
41
1
10
14.7190166381591
20
-0.331475983620777
30
0
41
1
10
14.6884387797265
20
-0.315440965584884
30
0
41
1
10
14.6273666722439
20
-0.283252268236424
30
0
41
1
10
14.5968571089336
20
-0.267094650225403
30
0
41
1
10
14.5054062144415
20
-0.218433878820008
30
0
41
1
10
14.4445415292927
20
-0.185744530063545
30
0
41
1
10
14.3229695259733
20
-0.119946079934124
30
0
41
1
10
14.2622627581033
20
-0.0868364301025792
30
0
41
1
10
14.1409291626043
20
-0.0203289829282198
30
0
41
1
10
14.0803060198531
20
0.0130780390179552
30
0
41
1
10
13.9589748375902
20
0.07989187430789
30
0
41
1
10
13.8982536725839
20
0.113269591217147
30
0
41
1
10
13.7764868808784
20
0.179553441630787
30
0
41
1
10
13.7154518149221
20
0.212483426424143
30
0
41
1
10
13.623550145087
20
0.261347927509462
30
0
41
1
10
13.5928351429551
20
0.27755459173224
30
0
41
1
10
13.5314910743474
20
0.309623260339748
30
0
41
1
10
13.5008352155104
20
0.325498875274121
30
0
41
1
10
13.4088677778134
20
0.372619480168339
30
0
41
1
10
13.3475670203633
20
0.403356777274979
30
0
41
1
10
13.2249556412389
20
0.463276205128409
30
0
41
1
10
13.1636476481693
20
0.492461043104868
30
0
41
1
10
13.040877757387
20
0.54890406661525
30
0
41
1
10
12.9792995947189
20
0.576211778413864
30
0
41
1
10
12.8569112199752
20
0.62801401550729
30
0
41
1
10
12.7959921811904
20
0.652548396108955
30
0
41
1
10
12.6743062697065
20
0.699063968839511
30
0
41
1
10
12.6135509256295
20
0.721075440215003
30
0
41
1
10
12.4922204320255
20
0.762076757742221
30
0
41
1
10
12.4316375642876
20
0.781001992412058
30
0
41
1
10
12.3103128975692
20
0.816189156009074
30
0
41
1
10
12.2495727074611
20
0.832529055680766
30
0
41
1
10
12.1279153987307
20
0.862261900685525
30
0
41
1
10
12.0669922240344
20
0.875621529722451
30
0
41
1
10
11.9753623030321
20
0.893085878844317
30
0
41
1
10
11.9447785765259
20
0.898481075348428
30
0
41
1
10
11.8835090893614
20
0.908354161805619
30
0
41
1
10
11.8527925864572
20
0.912832950416714
30
0
41
1
10
11.7913690692522
20
0.920749513240025
30
0
41
1
10
11.7607099455141
20
0.924170117017582
30
0
41
1
10
11.6994591577752
20
0.929937755708664
30
0
41
1
10
11.6688551898512
20
0.932330946557499
30
0
41
1
10
11.5769757205744
20
0.938602610628323
30
0
41
1
10
11.5156981883901
20
0.941330194675061
30
0
41
1
10
11.4380852580284
20
0.942474736183016
30
0
41
1
10
11.4217748054416
20
0.942590009410651
30
0
41
1
10
11.4054599184779
20
0.942579188232287
30
0
0
SPLINE
5
DF
100
AcDbEntity
8
SK1
62
256
6
ByLayer
370
18
48
1
60
0
100
AcDbSpline
70
4
71
3
72
18
73
14
40
0
40
0
40
0
40
0
40
0.0218456185482906
40
0.0218456185482906
40
0.184871348790242
40
0.184871348790242
40
0.347897079032195
40
0.347897079032195
40
0.673948539516098
40
0.673948539516098
40
0.836974269758049
40
0.836974269758049
40
1
40
1
40
1
40
1
41
1
10
7.44917144163693
20
-0.629465155879217
30
0
41
1
10
7.44101504949319
20
-0.632778357359769
30
0
41
1
10
7.43286184120052
20
-0.636068547190263
30
0
41
1
10
7.36389013372303
20
-0.663714021761791
30
0
41
1
10
7.30324179111463
20
-0.686760416872517
30
0
41
1
10
7.18208886482287
20
-0.730013250220367
30
0
41
1
10
7.12157479432537
20
-0.750268674128506
30
0
41
1
10
6.93991142891275
20
-0.806912647440384
30
0
41
1
10
6.81868647559887
20
-0.839080813235455
30
0
41
1
10
6.63585472701609
20
-0.877761057192942
30
0
41
1
10
6.57473709061972
20
-0.889054875502154
30
0
41
1
10
6.45200943274745
20
-0.908241601153065
30
0
41
1
10
6.3906583620907
20
-0.916089485482928
30
0
41
1
10
6.32934055058846
20
-0.922134512747675
30
0
0
SPLINE
5
E0
100
AcDbEntity
8
SK1
62
256
6
ByLayer
370
18
48
1
60
0
100
AcDbSpline
70
4
71
3
72
10
73
6
40
0
40
0
40
0
40
0
40
0.5
40
0.5
40
1
40
1
40
1
40
1
41
1
10
30.8792543679941
20
-0.972605320898822
30
0
41
1
10
30.9292531950041
20
-0.898250941773426
30
0
41
1
10
30.9794965822142
20
-0.822829495443074
30
0
41
1
10
31.0804955400522
20
-0.669751839611251
30
0
41
1
10
31.1312684563409
20
-0.592068465709474
30
0
41
1
10
31.1821388173249
20
-0.513488779078557
30
0
0
SPLINE
5
E1
100
AcDbEntity
8
SK1
62
256
6
ByLayer
370
13
48
1
60
0
100
AcDbSpline
70
4
71
3
72
14
73
10
40
0
40
0
40
0
40
0
40
0.25
40
0.25
40
0.5
40
0.5
40
0.75
40
0.75
40
1
40
1
40
1
40
1
41
1
10
3.9403206008642
20
0.94517950068132
30
0
41
1
10
3.98908906822476
20
0.813402824172243
30
0
41
1
10
4.03729984794359
20
0.681447227643702
30
0
41
1
10
4.13259623900626
20
0.417490485825482
30
0
41
1
10
4.17967964116019
20
0.285501714388118
30
0
41
1
10
4.27351979542587
20
0.0220322569849998
30
0
41
1
10
4.32032051469204
20
-0.109435857507322
30
0
41
1
10
4.41461058170904
20
-0.371623457360329
30
0
41
1
10
4.46210534325306
20
-0.502351835135585
30
0
41
1
10
4.5100528094915
20
-0.632810321445703
30
0
0
SPLINE
5
E2
100
AcDbEntity
8
SK1
62
256
6
ByLayer
370
18
48
1
60
0
100
AcDbSpline
70
4
71
3
72
14
73
10
40
0
40
0
40
0
40
0
40
0.49999999999997
40
0.49999999999997
40
0.624999999999962
40
0.624999999999962
40
0.749999999999955
40
0.749999999999955
40
1
40
1
40
1
40
1
41
1
10
6.32934055058809
20
-0.922134512747704
30
0
41
1
10
6.30774257142448
20
-0.924263753333889
30
0
41
1
10
6.28606599039384
20
-0.928698360148132
30
0
41
1
10
6.25906603684419
20
-0.937638246914076
30
0
41
1
10
6.25367110316603
20
-0.939598243157945
30
0
41
1
10
6.24289750017013
20
-0.943885336490041
30
0
41
1
10
6.23750919361112
20
-0.946218484120635
30
0
41
1
10
6.22162459181823
20
-0.953687090345483
30
0
41
1
10
6.21132963469887
20
-0.959317921030646
30
0
41
1
10
6.20135636782459
20
-0.965629961110295
30
0
0
SPLINE
5
E3
100
AcDbEntity
8
SK1
62
256
6
ByLayer
370
18
48
1
60
0
100
AcDbSpline
70
4
71
3
72
58
73
54
40
0
40
0
40
0
40
0
40
0.009132655703719
40
0.009132655703719
40
0.0799291218874254
40
0.0799291218874254
40
0.115327354979279
40
0.115327354979279
40
0.133026471525204
40
0.133026471525204
40
0.150725588071129
40
0.150725588071129
40
0.221522054254839
40
0.221522054254839
40
0.292318520438548
40
0.292318520438548
40
0.327716753530404
40
0.327716753530404
40
0.345415870076331
40
0.345415870076331
40
0.363114986622257
40
0.363114986622257
40
0.398513219714113
40
0.398513219714113
40
0.433911452805969
40
0.433911452805969
40
0.469309685897826
40
0.469309685897826
40
0.504707918989682
40
0.504707918989682
40
0.540106152081538
40
0.540106152081538
40
0.557805268627465
40
0.557805268627465
40
0.575504385173391
40
0.575504385173391
40
0.646300851357098
40
0.646300851357098
40
0.681699084448951
40
0.681699084448951
40
0.717097317540804
40
0.717097317540804
40
0.787893783724511
40
0.787893783724511
40
0.823292016816364
40
0.823292016816364
40
0.858690249908218
40
0.858690249908218
40
0.929486716091924
40
0.929486716091924
40
0.964884949183776
40
0.964884949183776
40
1
40
1
40
1
40
1
41
1
10
25.4963221645067
20
-0.987528680049479
30
0
41
1
10
25.479968694106
20
-0.987510560149047
30
0
41
1
10
25.4636188070325
20
-0.987357659330996
30
0
41
1
10
25.3205349224384
20
-0.984841929239934
30
0
41
1
10
25.1938552840344
20
-0.974544870558987
30
0
41
1
10
25.0028412082237
20
-0.947322216537003
30
0
41
1
10
24.9390281043037
20
-0.936277187875874
30
0
41
1
10
24.8430292346969
20
-0.916703884115748
30
0
41
1
10
24.8109668540716
20
-0.909688310149306
30
0
41
1
10
24.7467037779098
20
-0.894669227078822
30
0
41
1
10
24.7146073426477
20
-0.886686442052223
30
0
41
1
10
24.5545580179367
20
-0.844588332116047
30
0
41
1
10
24.4274867615499
20
-0.803886384331435
30
0
41
1
10
24.1736855400885
20
-0.710464274687638
30
0
41
1
10
24.0470243049795
20
-0.657682925023522
30
0
41
1
10
23.8564981217476
20
-0.570380686129425
30
0
41
1
10
23.7928269262428
20
-0.540025285045402
30
0
41
1
10
23.6969250499371
20
-0.492820206110281
30
0
41
1
10
23.6648922168935
20
-0.476806088353953
30
0
41
1
10
23.6006706118576
20
-0.444254366766074
30
0
41
1
10
23.5684653961962
20
-0.427707564540469
30
0
41
1
10
23.4721704447791
20
-0.377646975598623
30
0
41
1
10
23.408233864388
20
-0.343574015303716
30
0
41
1
10
23.280821360656
20
-0.274137539908565
30
0
41
1
10
23.2172856905561
20
-0.238876567518247
30
0
41
1
10
23.0904071641047
20
-0.167530428068773
30
0
41
1
10
23.0270468687056
20
-0.131475318587775
30
0
41
1
10
22.9002345678228
20
-0.0590426506967958
30
0
41
1
10
22.8367776097739
20
-0.022674296016902
30
0
41
1
10
22.7096232614999
20
0.0501197801382034
30
0
41
1
10
22.6459394031491
20
0.0865697416176658
30
0
41
1
10
22.5501502093021
20
0.141145721628504
30
0
41
1
10
22.5181660608837
20
0.159302165783487
30
0
41
1
10
22.4540586492236
20
0.195489945759704
30
0
41
1
10
22.4218869100689
20
0.213550629584603
30
0
41
1
10
22.2613183347774
20
0.303051182097278
30
0
41
1
10
22.1339471885862
20
0.371962240875774
30
0
41
1
10
21.9433790767878
20
0.469619098101504
30
0
41
1
10
21.8799449904479
20
0.501232866941336
30
0
41
1
10
21.7531812509055
20
0.562460381644456
30
0
41
1
10
21.6898310612471
20
0.592039459619627
30
0
41
1
10
21.499428516611
20
0.676999670096023
30
0
41
1
10
21.3719882481686
20
0.72856162159124
30
0
41
1
10
21.1789187247114
20
0.796653166384573
30
0
41
1
10
21.1148003289463
20
0.817600156085007
30
0
41
1
10
20.9870609899047
20
0.855973742638952
30
0
41
1
10
20.9234443355355
20
0.873417930868698
30
0
41
1
10
20.7329274277975
20
0.92018527727177
30
0
41
1
10
20.6062979903058
20
0.943898343863282
30
0
41
1
10
20.4156841215598
20
0.967679825669393
30
0
41
1
10
20.3520252984694
20
0.973644706231198
30
0
41
1
10
20.224901793743
20
0.981553724311965
30
0
41
1
10
20.1614611637889
20
0.983528235935097
30
0
41
1
10
20.0977559866257
20
0.983465590674001
30
0
0
SPLINE
5
E4
100
AcDbEntity
8
SK1
62
256
6
ByLayer
370
18
48
1
60
0
100
AcDbSpline
70
4
71
3
72
60
73
56
40
0
40
0
40
0
40
0
40
0.0637950893050824
40
0.0637950893050824
40
0.0992762105874986
40
0.0992762105874986
40
0.134757331869915
40
0.134757331869915
40
0.205719574434745
40
0.205719574434745
40
0.276681816999575
40
0.276681816999575
40
0.312162938281989
40
0.312162938281989
40
0.329903498923195
40
0.329903498923195
40
0.347644059564401
40
0.347644059564401
40
0.418606302129219
40
0.418606302129219
40
0.489568544694036
40
0.489568544694036
40
0.525049665976446
40
0.525049665976446
40
0.54279022661765
40
0.54279022661765
40
0.560530787258854
40
0.560530787258854
40
0.596011908541265
40
0.596011908541265
40
0.631493029823676
40
0.631493029823676
40
0.702455272388498
40
0.702455272388498
40
0.73793639367091
40
0.73793639367091
40
0.755676954312116
40
0.755676954312116
40
0.773417514953322
40
0.773417514953322
40
0.808898636235735
40
0.808898636235735
40
0.844379757518148
40
0.844379757518148
40
0.879860878800562
40
0.879860878800562
40
0.915342000082975
40
0.915342000082975
40
0.950823121365388
40
0.950823121365388
40
0.968563682006594
40
0.968563682006594
40
0.9863042426478
40
0.9863042426478
40
1
40
1
40
1
40
1
41
1
10
14.7004793366563
20
-0.979402901321862
30
0
41
1
10
14.5863448285416
20
-0.979346611504752
30
0
41
1
10
14.4720794930685
20
-0.97277756046725
30
0
41
1
10
14.293170434498
20
-0.952481300149117
30
0
41
1
10
14.2290131054383
20
-0.943227154226605
30
0
41
1
10
14.1001141125048
20
-0.920702561609147
30
0
41
1
10
14.0359471128855
20
-0.907519757860513
30
0
41
1
10
13.8441563779474
20
-0.862522752669321
30
0
41
1
10
13.7171027872907
20
-0.825308335532895
30
0
41
1
10
13.4632058448374
20
-0.737920624322072
30
0
41
1
10
13.3362343408547
20
-0.687877393825261
30
0
41
1
10
13.1445826987661
20
-0.604668237139947
30
0
41
1
10
13.0804984429602
20
-0.575578106078552
30
0
41
1
10
12.9839577904225
20
-0.530034254519023
30
0
41
1
10
12.9516933467047
20
-0.514523907467918
30
0
41
1
10
12.887408742463
20
-0.483069709687555
30
0
41
1
10
12.8553402014023
20
-0.467103956453286
30
0
41
1
10
12.6952862517589
20
-0.386217571870276
30
0
41
1
10
12.5681353259494
20
-0.318175240002034
30
0
41
1
10
12.3139845152469
20
-0.178272562692627
30
0
41
1
10
12.1869903552329
20
-0.106404866210511
30
0
41
1
10
11.9955405690052
20
0.0023776264138746
30
0
41
1
10
11.9315587456572
20
0.0387923037669395
30
0
41
1
10
11.8351820554718
20
0.0933689166039358
30
0
41
1
10
11.80294446944
20
0.111579249306942
30
0
41
1
10
11.7385375146743
20
0.147814551948699
30
0
41
1
10
11.7064017796899
20
0.165815774633671
30
0
41
1
10
11.6102058271997
20
0.219492314873662
30
0
41
1
10
11.5463708044488
20
0.254862569809973
30
0
41
1
10
11.4189435834411
20
0.324174840272377
30
0
41
1
10
11.3553738481519
20
0.358158286487111
30
0
41
1
10
11.1648044620643
20
0.457618474201212
30
0
41
1
10
11.0378724278427
20
0.520483805890308
30
0
41
1
10
10.8464620572388
20
0.607793292206736
30
0
41
1
10
10.7824829570175
20
0.635723565515889
30
0
41
1
10
10.6861719587569
20
0.675727011309419
30
0
41
1
10
10.6540247015209
20
0.688764220814988
30
0
41
1
10
10.5896067674878
20
0.714185188356112
30
0
41
1
10
10.5573927368045
20
0.726527649185499
30
0
41
1
10
10.4610644775461
20
0.762295098970839
30
0
41
1
10
10.3971754474425
20
0.784575059687512
30
0
41
1
10
10.2696177537835
20
0.825569409176836
30
0
41
1
10
10.2059668736436
20
0.844310266846861
30
0
41
1
10
10.0787345099386
20
0.878175774603164
30
0
41
1
10
10.0151415610778
20
0.893292843418664
30
0
41
1
10
9.88789136309614
20
0.919840050308153
30
0
41
1
10
9.82429964485138
20
0.931307701805167
30
0
41
1
10
9.69686876618013
20
0.950387957535213
30
0
41
1
10
9.63310322722754
20
0.958032944528185
30
0
41
1
10
9.53706899917484
20
0.966473467441716
30
0
41
1
10
9.50499644348506
20
0.968785140605064
30
0
41
1
10
9.44070396512339
20
0.972390714252327
30
0
41
1
10
9.40844168311941
20
0.973684598546015
30
0
41
1
10
9.35143981629483
20
0.975059157342884
30
0
41
1
10
9.32664122801015
20
0.975352189948694
30
0
41
1
10
9.30187410159184
20
0.975341973223948
30
0
0
SPLINE
5
E5
100
AcDbEntity
8
SK1
62
256
6
ByLayer
370
18
48
1
60
0
100
AcDbSpline
70
4
71
3
72
16
73
12
40
0
40
0
40
0
40
0
40
0.499999999999993
40
0.499999999999993
40
0.62499999999999
40
0.62499999999999
40
0.687499999999991
40
0.687499999999991
40
0.749999999999992
40
0.749999999999992
40
1
40
1
40
1
40
1
41
1
10
4.5100528094915
20
-0.632810321445703
30
0
41
1
10
4.79442502241287
20
-0.755074513967372
30
0
41
1
10
5.07320996918992
20
-0.848837802024462
30
0
41
1
10
5.42491552042006
20
-0.92105786957228
30
0
41
1
10
5.49540732274929
20
-0.933260968793149
30
0
41
1
10
5.60158870965986
20
-0.948017797066484
30
0
41
1
10
5.63705674445242
20
-0.952345658115576
30
0
41
1
10
5.70816920944233
20
-0.959792509770182
30
0
41
1
10
5.74366458720988
20
-0.962895303191203
30
0
41
1
10
5.92068157300861
20
-0.975299370057911
30
0
41
1
10
6.06110747337229
20
-0.975291427957075
30
0
41
1
10
6.20135636783044
20
-0.965629961120897
30
0
0
SPLINE
5
E6
100
AcDbEntity
8
SK1
62
256
6
ByLayer
370
18
48
1
60
0
100
AcDbSpline
70
4
71
3
72
10
73
6
40
0
40
0
40
0
40
0
40
0.5
40
0.5
40
1
40
1
40
1
40
1
41
1
10
4.51005280949153
20
-0.632810321445703
30
0
41
1
10
4.50531921338023
20
-0.630775139103775
30
0
41
1
10
4.50099982590964
20
-0.628346110674073
30
0
41
1
10
4.49307548416169
20
-0.622789296581914
30
0
41
1
10
4.48946092938945
20
-0.619638845722591
30
0
41
1
10
4.48630450896195
20
-0.616219343664653
30
0
0
SPLINE
5
E7
100
AcDbEntity
8
SK1
62
256
6
ByLayer
370
18
48
1
60
0
100
AcDbSpline
70
4
71
3
72
20
73
16
40
0
40
0
40
0
40
0
40
0.125000000000015
40
0.125000000000015
40
0.250000000000031
40
0.250000000000031
40
0.375000000000046
40
0.375000000000046
40
0.500000000000061
40
0.500000000000061
40
0.625000000000077
40
0.625000000000077
40
0.750000000000092
40
0.750000000000092
40
1
40
1
40
1
40
1
41
1
10
3.87129961562422
20
0.939852841813178
30
0
41
1
10
3.87233834004729
20
0.940702714515766
30
0
41
1
10
3.87372438329902
20
0.94149289651466
30
0
41
1
10
3.87725913082892
20
0.942955915974011
30
0
41
1
10
3.87942721236101
20
0.943628036625256
30
0
41
1
10
3.88434585270966
20
0.944780975779565
30
0
41
1
10
3.88716601486823
20
0.945278890711165
30
0
41
1
10
3.89323481481475
20
0.94607530052312
30
0
41
1
10
3.89645665743279
20
0.946374990109291
30
0
41
1
10
3.90325791059198
20
0.946795666735994
30
0
41
1
10
3.90671351605346
20
0.946908969262353
30
0
41
1
10
3.91370049159437
20
0.946969076577574
30
0
41
1
10
3.91723269918836
20
0.946913703977771
30
0
41
1
10
3.92753903792055
20
0.946526684425152
30
0
41
1
10
3.93419758841114
20
0.945972770214155
30
0
41
1
10
3.94032060087034
20
0.945179500664665
30
0
0
SPLINE
5
E8
100
AcDbEntity
8
SK1
62
256
6
ByLayer
370
18
48
1
60
0
100
AcDbSpline
70
4
71
3
72
117
73
113
40
0
40
0
40
0
40
0
40
0.0118177860518777
40
0.0118177860518777
40
0.0422758742789395
40
0.0422758742789395
40
0.0575049183924693
40
0.0575049183924693
40
0.0727339625059991
40
0.0727339625059991
40
0.0879630066195288
40
0.0879630066195288
40
0.103192050733059
40
0.103192050733059
40
0.133650138960118
40
0.133650138960118
40
0.148879183073648
40
0.148879183073648
40
0.164108227187178
40
0.164108227187178
40
0.179337271300708
40
0.179337271300708
40
0.194566315414237
40
0.194566315414237
40
0.209795359527767
40
0.209795359527767
40
0.225024403641297
40
0.225024403641297
40
0.240253447754826
40
0.240253447754826
40
0.255482491868356
40
0.255482491868356
40
0.285940580095418
40
0.285940580095418
40
0.301169624208949
40
0.301169624208949
40
0.31639866832248
40
0.31639866832248
40
0.331627712436011
40
0.331627712436011
40
0.346856756549542
40
0.346856756549542
40
0.377314844776604
40
0.377314844776604
40
0.392543888890133
40
0.392543888890133
40
0.407772933003663
40
0.407772933003663
40
0.423001977117193
40
0.423001977117193
40
0.438231021230723
40
0.438231021230723
40
0.46868910945778
40
0.46868910945778
40
0.499147197684838
40
0.499147197684838
40
0.529605285911895
40
0.529605285911895
40
0.544834330025424
40
0.544834330025424
40
0.560063374138952
40
0.560063374138952
40
0.575292418252481
40
0.575292418252481
40
0.590521462366009
40
0.590521462366009
40
0.605750506479538
40
0.605750506479538
40
0.620979550593067
40
0.620979550593067
40
0.651437638820124
40
0.651437638820124
40
0.681895727047181
40
0.681895727047181
40
0.69712477116071
40
0.69712477116071
40
0.712353815274238
40
0.712353815274238
40
0.727582859387767
40
0.727582859387767
40
0.742811903501296
40
0.742811903501296
40
0.773269991728353
40
0.773269991728353
40
0.788499035841882
40
0.788499035841882
40
0.80372807995541
40
0.80372807995541
40
0.818957124068939
40
0.818957124068939
40
0.834186168182467
40
0.834186168182467
40
0.849415212295996
40
0.849415212295996
40
0.864644256409525
40
0.864644256409525
40
0.879873300523053
40
0.879873300523053
40
0.895102344636582
40
0.895102344636582
40
0.910331388750111
40
0.910331388750111
40
0.925560432863639
40
0.925560432863639
40
0.940789476977168
40
0.940789476977168
40
0.956018521090696
40
0.971247565204225
40
0.971247565204225
40
0.986476609317754
40
0.986476609317754
40
1
40
1
40
1
40
1
41
1
10
30.5422227642852
20
-0.991326963042866
30
0
41
1
10
30.5151597366297
20
-0.991303933607497
30
0
41
1
10
30.4880852705959
20
-0.990909463949691
30
0
41
1
10
30.3910228859419
20
-0.988170786746451
30
0
41
1
10
30.3207302695391
20
-0.98376838825601
30
0
41
1
10
30.215059221501
20
-0.973375230752509
30
0
41
1
10
30.1797501681914
20
-0.969260727843476
30
0
41
1
10
30.1093142540247
20
-0.959859453869797
30
0
41
1
10
30.0741332188591
20
-0.954580080638578
30
0
41
1
10
30.0038847025507
20
-0.942875382089596
30
0
41
1
10
29.9688193564456
20
-0.936449009655604
30
0
41
1
10
29.8988578472061
20
-0.922420964871236
30
0
41
1
10
29.8639787101577
20
-0.914805095293588
30
0
41
1
10
29.7593873189441
20
-0.890322767152924
30
0
41
1
10
29.6895949917318
20
-0.871939705868954
30
0
41
1
10
29.5850659408233
20
-0.841124362747678
30
0
41
1
10
29.5502729881415
20
-0.830285305252431
30
0
41
1
10
29.4806676145073
20
-0.807570471288699
30
0
41
1
10
29.4458253739424
20
-0.795725408416899
30
0
41
1
10
29.3760089888811
20
-0.77112804769456
30
0
41
1
10
29.3410493196498
20
-0.758361654362801
30
0
41
1
10
29.2710803441195
20
-0.731826110264791
30
0
41
1
10
29.2360845918819
20
-0.718039225353436
30
0
41
1
10
29.1660128490679
20
-0.689471598942163
30
0
41
1
10
29.1309091918488
20
-0.674725317741348
30
0
41
1
10
29.0604565169689
20
-0.644454926986725
30
0
41
1
10
29.0250622699593
20
-0.628885526407686
30
0
41
1
10
28.9544484593006
20
-0.597020065483832
30
0
41
1
10
28.9192479352281
20
-0.580709938521323
30
0
41
1
10
28.8490637571242
20
-0.547327207496096
30
0
41
1
10
28.8140530891063
20
-0.530294270925936
30
0
41
1
10
28.7090285184889
20
-0.478545280362653
30
0
41
1
10
28.6391005589549
20
-0.443068182969569
30
0
41
1
10
28.534589132041
20
-0.388000021946027
30
0
41
1
10
28.4997984222833
20
-0.369360137847934
30
0
41
1
10
28.4301474726801
20
-0.331780948372312
30
0
41
1
10
28.3952950533188
20
-0.312829717167659
30
0
41
1
10
28.3255430357831
20
-0.274597193760513
30
0
41
1
10
28.290645552798
20
-0.255312781780645
30
0
41
1
10
28.2208893080556
20
-0.21626253443128
30
0
41
1
10
28.1860295371934
20
-0.196496748290741
30
0
41
1
10
28.0812137985479
20
-0.13698115201143
30
0
41
1
10
28.0110033795426
20
-0.0970559849051256
30
0
41
1
10
27.9054093616281
20
-0.0363773471628122
30
0
41
1
10
27.8701310595847
20
-0.0159772317700515
30
0
41
1
10
27.799555989234
20
0.0247683416943687
30
0
41
1
10
27.7643357867875
20
0.0450466830106677
30
0
41
1
10
27.6940053475568
20
0.0853789662592419
30
0
41
1
10
27.6588935178536
20
0.105430316638234
30
0
41
1
10
27.5888074491898
20
0.145364377931202
30
0
41
1
10
27.5538438684677
20
0.165265610534505
30
0
41
1
10
27.449085824208
20
0.224583834449163
30
0
41
1
10
27.3793589892197
20
0.263501661180072
30
0
41
1
10
27.239867596787
20
0.339663083273592
30
0
41
1
10
27.1702700469025
20
0.377185076093184
30
0
41
1
10
27.0308030229585
20
0.450149397225516
30
0
41
1
10
26.9608262406092
20
0.485428050519118
30
0
41
1
10
26.855683720003
20
0.536826049372053
30
0
41
1
10
26.8206320896934
20
0.553742038938225
30
0
41
1
10
26.7503203366279
20
0.586828043644289
30
0
41
1
10
26.7150427246372
20
0.602973394503039
30
0
41
1
10
26.6443038392164
20
0.63455762572832
30
0
41
1
10
26.6090069228109
20
0.649931926377263
30
0
41
1
10
26.5386453524535
20
0.679858193143787
30
0
41
1
10
26.5035601396563
20
0.694398536719888
30
0
41
1
10
26.4334894403296
20
0.722521611637291
30
0
41
1
10
26.3985019725471
20
0.736102135051596
30
0
41
1
10
26.3285476633604
20
0.762230367135771
30
0
41
1
10
26.2935911926929
20
0.774792387347901
30
0
41
1
10
26.1888795980442
20
0.811086321666011
30
0
41
1
10
26.1192738297719
20
0.833399491754477
30
0
41
1
10
25.9798405459758
20
0.873649761280461
30
0
41
1
10
25.9100259787196
20
0.891621277155735
30
0
41
1
10
25.8052437842357
20
0.915378726904635
30
0
41
1
10
25.7703052039801
20
0.922759205823809
30
0
41
1
10
25.7002664048204
20
0.936342322967249
30
0
41
1
10
25.6651564582095
20
0.942541668979118
30
0
41
1
10
25.5947840804664
20
0.953773186780438
30
0
41
1
10
25.5595234575653
20
0.958806468558777
30
0
41
1
10
25.488887183661
20
0.967701403817671
30
0
41
1
10
25.4535803209429
20
0.97155682470671
30
0
41
1
10
25.34798781481
20
0.981204576230908
30
0
41
1
10
25.2777141585961
20
0.985108951021346
30
0
41
1
10
25.1727678330211
20
0.987332503887842
30
0
41
1
10
25.1378709746972
20
0.987461002270294
30
0
41
1
10
25.0681222590314
20
0.98648720259817
30
0
41
1
10
25.033243984769
20
0.985387809291041
30
0
41
1
10
24.9634535502707
20
0.981990885153039
30
0
41
1
10
24.9285579178445
20
0.979692191124286
30
0
41
1
10
24.8588134274605
20
0.973881444278021
30
0
41
1
10
24.8239746254612
20
0.970364628146427
30
0
41
1
10
24.7542872804146
20
0.962113180621884
30
0
41
1
10
24.7194106523995
20
0.957388389682762
30
0
41
1
10
24.6494977848317
20
0.946793285300714
30
0
41
1
10
24.6144822829576
20
0.94091600572682
30
0
41
1
10
24.5443922065205
20
0.927963113222575
30
0
41
1
10
24.5093225889791
20
0.920883178009518
30
0
41
1
10
24.4391111348283
20
0.905498854195855
30
0
41
1
10
24.4039456709059
20
0.897208346937532
30
0
41
1
10
24.3333466803613
20
0.879540792715403
30
0
41
1
10
24.2979088103545
20
0.870144825075897
30
0
41
1
10
24.2273299431594
20
0.850328663062044
30
0
41
1
10
24.1921348345514
20
0.839891071704699
30
0
41
1
10
24.1219597347013
20
0.817928550138504
30
0
41
1
10
24.086961631088
20
0.806418791501955
30
0
41
1
10
24.0169530296508
20
0.782554763138592
30
0
41
1
10
23.9469585330945
20
0.757824224165745
30
0
41
1
10
23.8771051139132
20
0.731263251398872
30
0
41
1
10
23.8073775685542
20
0.703713475279955
30
0
41
1
10
23.7725724045619
20
0.689446256051269
30
0
41
1
10
23.7067772250187
20
0.661825355940096
30
0
41
1
10
23.6757947868525
20
0.648555549607067
30
0
41
1
10
23.6447946893718
20
0.634981216615813
30
0
0
SPLINE
5
E9
100
AcDbEntity
8
SK1
62
256
6
ByLayer
370
18
48
1
60
0
100
AcDbSpline
70
4
71
3
72
112
73
108
40
0
40
0
40
0
40
0
40
0.0149673242292605
40
0.0149673242292605
40
0.0302400963412064
40
0.0302400963412064
40
0.0455128684531525
40
0.0455128684531525
40
0.0607856405650984
40
0.0607856405650984
40
0.0913311847889923
40
0.0913311847889923
40
0.10660395690094
40
0.10660395690094
40
0.121876729012888
40
0.121876729012888
40
0.137149501124837
40
0.137149501124837
40
0.152422273236785
40
0.152422273236785
40
0.182967817460681
40
0.182967817460681
40
0.198240589572629
40
0.198240589572629
40
0.213513361684577
40
0.213513361684577
40
0.228786133796525
40
0.228786133796525
40
0.244058905908473
40
0.244058905908473
40
0.259331678020421
40
0.259331678020421
40
0.274604450132369
40
0.274604450132369
40
0.289877222244317
40
0.289877222244317
40
0.305149994356266
40
0.305149994356266
40
0.335695538580162
40
0.335695538580162
40
0.350968310692111
40
0.350968310692111
40
0.36624108280406
40
0.36624108280406
40
0.381513854916009
40
0.381513854916009
40
0.396786627027959
40
0.396786627027959
40
0.427332171251855
40
0.427332171251855
40
0.442604943363802
40
0.442604943363802
40
0.457877715475749
40
0.457877715475749
40
0.473150487587696
40
0.473150487587696
40
0.488423259699642
40
0.488423259699642
40
0.518968803923534
40
0.518968803923534
40
0.53424157603548
40
0.53424157603548
40
0.549514348147426
40
0.549514348147426
40
0.580059892371315
40
0.580059892371315
40
0.610605436595204
40
0.610605436595204
40
0.62587820870715
40
0.62587820870715
40
0.641150980819096
40
0.641150980819096
40
0.67169652504299
40
0.67169652504299
40
0.702242069266884
40
0.702242069266884
40
0.717514841378832
40
0.717514841378832
40
0.73278761349078
40
0.73278761349078
40
0.748060385602729
40
0.748060385602729
40
0.763333157714677
40
0.763333157714677
40
0.778605929826625
40
0.778605929826625
40
0.793878701938573
40
0.793878701938573
40
0.824424246162469
40
0.824424246162469
40
0.839697018274417
40
0.839697018274417
40
0.854969790386365
40
0.854969790386365
40
0.870242562498313
40
0.870242562498313
40
0.885515334610261
40
0.885515334610261
40
0.916060878834159
40
0.916060878834159
40
0.946606423058058
40
0.946606423058058
40
0.977151967281956
40
0.977151967281956
40
0.992424739393906
40
0.992424739393906
40
1
40
1
40
1
40
1
41
1
10
19.7411237167387
20
-0.983197122956284
30
0
41
1
10
19.7066522297158
20
-0.983161854664047
30
0
41
1
10
19.672126028584
20
-0.982527088178557
30
0
41
1
10
19.602097921998
20
-0.980038397246318
30
0
41
1
10
19.5666675759411
20
-0.978162841411972
30
0
41
1
10
19.4960989813065
20
-0.973194788830483
30
0
41
1
10
19.46090747553
20
-0.970100010611532
30
0
41
1
10
19.3907102951893
20
-0.96268697710812
30
0
41
1
10
19.3556979014703
20
-0.958368037956461
30
0
41
1
10
19.2506651634388
20
-0.943696027895953
30
0
41
1
10
19.1806661405034
20
-0.931650808788817
30
0
41
1
10
19.0759789267927
20
-0.910068520756738
30
0
41
1
10
19.0411409074538
20
-0.902277006095431
30
0
41
1
10
18.9713824739178
20
-0.885634524965496
30
0
41
1
10
18.9364498351128
20
-0.876796928085753
30
0
41
1
10
18.8665406098605
20
-0.858053180460445
30
0
41
1
10
18.8315676537946
20
-0.84814354693134
30
0
41
1
10
18.7616202106985
20
-0.827202055720761
30
0
41
1
10
18.7266601628936
20
-0.816153209486544
30
0
41
1
10
18.6215701681595
20
-0.781494928471517
30
0
41
1
10
18.5511179740319
20
-0.756520628069154
30
0
41
1
10
18.4450975936804
20
-0.715933927192424
30
0
41
1
10
18.4096982836643
20
-0.701838764432239
30
0
41
1
10
18.3391715711817
20
-0.672887342690643
30
0
41
1
10
18.3039577885994
20
-0.65804965937437
30
0
41
1
10
18.2335946636818
20
-0.627714923625405
30
0
41
1
10
18.1984575009548
20
-0.612201663640121
30
0
41
1
10
18.1283278455703
20
-0.580408665368651
30
0
41
1
10
18.0933525594059
20
-0.564102914240209
30
0
41
1
10
18.0234990736981
20
-0.530788273615684
30
0
41
1
10
17.9885892214702
20
-0.513826615510396
30
0
41
1
10
17.9187137050417
20
-0.479441652508143
30
0
41
1
10
17.8837668591376
20
-0.461990493647988
30
0
41
1
10
17.8139112795006
20
-0.426484259450177
30
0
41
1
10
17.7790114024876
20
-0.408414434934627
30
0
41
1
10
17.7092432113817
20
-0.371671206932916
30
0
41
1
10
17.6743498287426
20
-0.353037980784478
30
0
41
1
10
17.5694324298779
20
-0.296708156919436
30
0
41
1
10
17.499228453509
20
-0.258499215708497
30
0
41
1
10
17.3938349023595
20
-0.199637360039503
30
0
41
1
10
17.3586660102346
20
-0.179795886757091
30
0
41
1
10
17.2880680358716
20
-0.140003998523696
30
0
41
1
10
17.2525940641279
20
-0.119995381784037
30
0
41
1
10
17.1818481620974
20
-0.0799474660336443
30
0
41
1
10
17.1465638512786
20
-0.0598993513543462
30
0
41
1
10
17.0762122721211
20
-0.0196807398293686
30
0
41
1
10
17.0411373849801
20
0.0004747871649329
30
0
41
1
10
16.9359606070708
20
0.0606167021702788
30
0
41
1
10
16.8658802550923
20
0.100237588623202
30
0
41
1
10
16.7610746750916
20
0.159437222690315
30
0
41
1
10
16.7262094863107
20
0.179161066604564
30
0
41
1
10
16.6564285408849
20
0.218253061744576
30
0
41
1
10
16.6215016354669
20
0.237602571368484
30
0
41
1
10
16.5516057554049
20
0.275965495620824
30
0
41
1
10
16.5166384831065
20
0.29498187870476
30
0
41
1
10
16.4467026554194
20
0.33274631096873
30
0
41
1
10
16.4117458019403
20
0.351513659843704
30
0
41
1
10
16.3067264764681
20
0.407157333003141
30
0
41
1
10
16.2364354634091
20
0.443244659766009
30
0
41
1
10
16.1305631211895
20
0.495825573492169
30
0
41
1
10
16.0951760571513
20
0.513143698281027
30
0
41
1
10
16.0244266068392
20
0.547127482853625
30
0
41
1
10
15.9891415568597
20
0.563739881337625
30
0
41
1
10
15.8834449084009
20
0.612295842284311
30
0
41
1
10
15.8131592169282
20
0.642926358391378
30
0
41
1
10
15.673165611233
20
0.701076228781716
30
0
41
1
10
15.6033659721859
20
0.728450988642919
30
0
41
1
10
15.4985249837236
20
0.766479638456474
30
0
41
1
10
15.46357161524
20
0.778673698565768
30
0
41
1
10
15.3937155788483
20
0.802162172003762
30
0
41
1
10
15.3588330244494
20
0.813474272587371
30
0
41
1
10
15.2540390780531
20
0.845811777913099
30
0
41
1
10
15.1838916129498
20
0.865179408318994
30
0
41
1
10
15.0434373711043
20
0.899866909756838
30
0
41
1
10
14.9730753391894
20
0.915109424952362
30
0
41
1
10
14.866800024728
20
0.934392222378563
30
0
41
1
10
14.8313842314481
20
0.94021107858407
30
0
41
1
10
14.760808281485
20
0.95065372786172
30
0
41
1
10
14.7256165933895
20
0.955277771633178
30
0
41
1
10
14.6553633870148
20
0.963309259959715
30
0
41
1
10
14.6203013353917
20
0.966715967543678
30
0
41
1
10
14.5502136735774
20
0.972299429886135
30
0
41
1
10
14.5151872662372
20
0.974478406472002
30
0
41
1
10
14.4452068801185
20
0.977630865041647
30
0
41
1
10
14.4102541204879
20
0.978603613161454
30
0
41
1
10
14.3404128863829
20
0.979334638110743
30
0
41
1
10
14.3055302115316
20
0.979090853950424
30
0
41
1
10
14.200792990303
20
0.976535516944125
30
0
41
1
10
14.1307976544005
20
0.972430385674727
30
0
41
1
10
14.0257540717904
20
0.962627855166431
30
0
41
1
10
13.9907478184815
20
0.958740922864905
30
0
41
1
10
13.9205988467588
20
0.949762627005015
30
0
41
1
10
13.8854303254861
20
0.94468496215984
30
0
41
1
10
13.814924355672
20
0.933350982554913
30
0
41
1
10
13.7796019935351
20
0.927087004566062
30
0
41
1
10
13.7088428163985
20
0.913324777476731
30
0
41
1
10
13.6734195432281
20
0.905816231979543
30
0
41
1
10
13.5675646189153
20
0.88166258725937
30
0
41
1
10
13.4971573026876
20
0.863474435398615
30
0
41
1
10
13.356815359374
20
0.822939212348842
30
0
41
1
10
13.2870156651007
20
0.80043383011531
30
0
41
1
10
13.1471419181009
20
0.752016947261694
30
0
41
1
10
13.0772022563941
20
0.725992719588533
30
0
41
1
10
12.9724494090925
20
0.684002489117916
30
0
41
1
10
12.9375236284208
20
0.669551672313816
30
0
41
1
10
12.8851507053672
20
0.647404237171003
30
0
41
1
10
12.8677704273438
20
0.639969127663591
30
0
41
1
10
12.8503774272595
20
0.632437255415454
30
0
0
SPLINE
5
EA
100
AcDbEntity
8
SK1
62
256
6
ByLayer
370
18
48
1
60
0
100
AcDbSpline
70
4
71
3
72
88
73
84
40
0
40
0
40
0
40
0
40
0.0087734371006019
40
0.0087734371006019
40
0.0298633639708019
40
0.0298633639708019
40
0.0720432177112037
40
0.0720432177112037
40
0.0931331445814049
40
0.0931331445814049
40
0.114223071451606
40
0.114223071451606
40
0.135312998321807
40
0.135312998321807
40
0.156402925192008
40
0.156402925192008
40
0.19858277893241
40
0.19858277893241
40
0.21967270580261
40
0.21967270580261
40
0.24076263267281
40
0.24076263267281
40
0.26185255954301
40
0.26185255954301
40
0.28294248641321
40
0.28294248641321
40
0.325122340153609
40
0.325122340153609
40
0.346212267023808
40
0.346212267023808
40
0.367302193894007
40
0.367302193894007
40
0.388392120764207
40
0.388392120764207
40
0.409482047634406
40
0.409482047634406
40
0.451661901374806
40
0.451661901374806
40
0.472751828245006
40
0.472751828245006
40
0.493841755115205
40
0.493841755115205
40
0.514931681985405
40
0.514931681985405
40
0.536021608855605
40
0.536021608855605
40
0.557111535725804
40
0.557111535725804
40
0.578201462596003
40
0.578201462596003
40
0.599291389466203
40
0.599291389466203
40
0.620381316336402
40
0.620381316336402
40
0.662561170076802
40
0.662561170076802
40
0.683651096947003
40
0.683651096947003
40
0.704741023817205
40
0.704741023817205
40
0.725830950687406
40
0.725830950687406
40
0.746920877557607
40
0.746920877557607
40
0.789100731298007
40
0.789100731298007
40
0.810190658168206
40
0.810190658168206
40
0.831280585038406
40
0.831280585038406
40
0.852370511908606
40
0.852370511908606
40
0.873460438778805
40
0.873460438778805
40
0.894550365649005
40
0.894550365649005
40
0.915640292519204
40
0.915640292519204
40
0.936730219389404
40
0.936730219389404
40
0.957820146259603
40
0.957820146259603
40
1
40
1
40
1
40
1
41
1
10
8.94188302175527
20
-0.9750678945027
30
0
41
1
10
8.92715208582661
20
-0.97505985558675
30
0
41
1
10
8.9124296144492
20
-0.974944284756901
30
0
41
1
10
8.86239301880698
20
-0.974185177979876
30
0
41
1
10
8.82711550181264
20
-0.97303183842331
30
0
41
1
10
8.72143293150887
20
-0.967761087972576
30
0
41
1
10
8.65125488924721
20
-0.961821987086097
30
0
41
1
10
8.54627183675885
20
-0.949320785960879
30
0
41
1
10
8.5112963533966
20
-0.944564294942381
30
0
41
1
10
8.44130890208652
20
-0.933922883749744
30
0
41
1
10
8.40630969095943
20
-0.928033752985044
30
0
41
1
10
8.33633827714715
20
-0.91510164803762
30
0
41
1
10
8.30137355784055
20
-0.908053351269672
30
0
41
1
10
8.23146870098174
20
-0.892785931023582
30
0
41
1
10
8.19650477876903
20
-0.884580979433935
30
0
41
1
10
8.091363875936
20
-0.858426065206174
30
0
41
1
10
8.02106747852756
20
-0.838857589878728
30
0
41
1
10
7.91547620034268
20
-0.806067448584884
30
0
41
1
10
7.88023326338651
20
-0.794579395129574
30
0
41
1
10
7.80949582544091
20
-0.770651809540084
30
0
41
1
10
7.77395524338135
20
-0.758183133648203
30
0
41
1
10
7.70310003413701
20
-0.732369221491666
30
0
41
1
10
7.66776016379893
20
-0.719016257479467
30
0
41
1
10
7.59729757730094
20
-0.691365808843841
30
0
41
1
10
7.5621696560444
20
-0.677072549724443
30
0
41
1
10
7.45679620451941
20
-0.633196203520356
30
0
41
1
10
7.38657966161725
20
-0.602611493054837
30
0
41
1
10
7.2816221281748
20
-0.554308921285354
30
0
41
1
10
7.24670115787157
20
-0.537793690396455
30
0
41
1
10
7.17680250787481
20
-0.504211610714265
30
0
41
1
10
7.14181088331861
20
-0.487168157460303
30
0
41
1
10
7.07178354053255
20
-0.452522747374275
30
0
41
1
10
7.03675040612464
20
-0.434916825347329
30
0
41
1
10
6.96669695695502
20
-0.399048567303936
30
0
41
1
10
6.93169402282822
20
-0.380755670701689
30
0
41
1
10
6.82650596090568
20
-0.325202852294865
30
0
41
1
10
6.75601068335141
20
-0.287507655640184
30
0
41
1
10
6.64996207453649
20
-0.229523883125722
30
0
41
1
10
6.61454349630426
20
-0.209887259371015
30
0
41
1
10
6.54371142421149
20
-0.170359453077253
30
0
41
1
10
6.50835663389822
20
-0.150574268141241
30
0
41
1
10
6.43772259595468
20
-0.111043320419895
30
0
41
1
10
6.40245667927698
20
-0.0912725417381637
30
0
41
1
10
6.33207961377244
20
-0.0516214605638083
30
0
41
1
10
6.29698353746838
20
-0.0317137636143912
30
0
41
1
10
6.22690553403945
20
0.0081350224486698
30
0
41
1
10
6.19189567431951
20
0.0280251045062414
30
0
41
1
10
6.12183885842623
20
0.0675668026305232
30
0
41
1
10
6.08680571698881
20
0.0872437673845354
30
0
41
1
10
6.0167774147032
20
0.126496575390433
30
0
41
1
10
5.9817958038071
20
0.146096569920701
30
0
41
1
10
5.91189093668461
20
0.185228845882421
30
0
41
1
10
5.87693950473513
20
0.204710687173446
30
0
41
1
10
5.77186722004774
20
0.262514416330248
30
0
41
1
10
5.70161324767454
20
0.300348223316746
30
0
41
1
10
5.59616095261509
20
0.356448890868279
30
0
41
1
10
5.56097738129972
20
0.375003475660833
30
0
41
1
10
5.49038651760861
20
0.411548129525301
30
0
41
1
10
5.4549890547903
20
0.429555506465903
30
0
41
1
10
5.38400008880467
20
0.465057043486951
30
0
41
1
10
5.34850931211867
20
0.48251065918376
30
0
41
1
10
5.27785047382756
20
0.516830197247288
30
0
41
1
10
5.24263567859592
20
0.533695099306698
30
0
41
1
10
5.13704493903623
20
0.582966137686356
30
0
41
1
10
5.06673925120029
20
0.614099331373097
30
0
41
1
10
4.96164335627878
20
0.658607465510727
30
0
41
1
10
4.92667564019408
20
0.673078013749972
30
0
41
1
10
4.85672699608384
20
0.701099739122611
30
0
41
1
10
4.82174046610371
20
0.714645557025818
30
0
41
1
10
4.751732761358
20
0.740804314386821
30
0
41
1
10
4.71670981500378
20
0.753415732815625
30
0
41
1
10
4.64665987369679
20
0.777739931459251
30
0
41
1
10
4.61164165933437
20
0.789460935987961
30
0
41
1
10
4.5415372687286
20
0.811922374869994
30
0
41
1
10
4.50644654170733
20
0.822658338482483
30
0
41
1
10
4.43612436353524
20
0.843076808797036
30
0
41
1
10
4.40088445930144
20
0.852752820719786
30
0
41
1
10
4.33029001700652
20
0.871072921373667
30
0
41
1
10
4.29495125603717
20
0.879729309312296
30
0
41
1
10
4.2241398883196
20
0.895969879807382
30
0
41
1
10
4.18864687841736
20
0.90354987026231
30
0
41
1
10
4.08226848459921
20
0.924464821194192
30
0
41
1
10
4.01125969517707
20
0.935988955364536
30
0
41
1
10
3.9403206008615
20
0.945179500665802
30
0
0
SPLINE
5
EB
100
AcDbEntity
8
SK1
62
256
6
ByLayer
370
18
48
1
60
0
100
AcDbSpline
70
4
71
3
72
62
73
58
40
0
40
0
40
0
40
0
40
0.0177822033120934
40
0.0177822033120934
40
0.0355644066241868
40
0.0355644066241868
40
0.0711288132483764
40
0.0711288132483764
40
0.106693219872566
40
0.106693219872566
40
0.142257626496756
40
0.142257626496756
40
0.213386439745132
40
0.213386439745132
40
0.24895084636932
40
0.24895084636932
40
0.284515252993509
40
0.284515252993509
40
0.355644066241882
40
0.355644066241882
40
0.426772879490256
40
0.426772879490256
40
0.462337286114441
40
0.462337286114441
40
0.480119489426534
40
0.480119489426534
40
0.497901692738627
40
0.497901692738627
40
0.569030505987006
40
0.569030505987006
40
0.604594912611197
40
0.604594912611197
40
0.640159319235388
40
0.640159319235388
40
0.675723725859579
40
0.675723725859579
40
0.693505929171675
40
0.693505929171675
40
0.71128813248377
40
0.71128813248377
40
0.746852539107964
40
0.746852539107964
40
0.782416945732158
40
0.782416945732158
40
0.853545758980546
40
0.853545758980546
40
0.88911016560474
40
0.88911016560474
40
0.906892368916837
40
0.906892368916837
40
0.924674572228934
40
0.924674572228934
40
0.960238978853128
40
0.960238978853128
40
0.995803385477322
40
0.995803385477322
40
1
40
1
40
1
40
1
41
1
10
30.7958413499258
20
-0.989837865033877
30
0
41
1
10
30.7638284919504
20
-0.988731035264749
30
0
41
1
10
30.7318037945936
20
-0.987102644309829
30
0
41
1
10
30.6677068500777
20
-0.982812028599824
30
0
41
1
10
30.6356094957261
20
-0.980147205977971
30
0
41
1
10
30.5393860093757
20
-0.97063369065512
30
0
41
1
10
30.4754812486202
20
-0.962286350770512
30
0
41
1
10
30.3479635083674
20
-0.941794649473849
30
0
41
1
10
30.2843655960072
20
-0.929649291302525
30
0
41
1
10
30.1575374805294
20
-0.901545089871377
30
0
41
1
10
30.094298237893
20
-0.885578519045936
30
0
41
1
10
29.904454222932
20
-0.832421953413615
30
0
41
1
10
29.7777100492273
20
-0.790030015047165
30
0
41
1
10
29.5863868104898
20
-0.716914946583898
30
0
41
1
10
29.5224049607594
20
-0.690961862747002
30
0
41
1
10
29.3939210653226
20
-0.635928714466502
30
0
41
1
10
29.3300116398813
20
-0.60707875984005
30
0
41
1
10
29.1389080230021
20
-0.517215116514137
30
0
41
1
10
29.0122755536307
20
-0.452931814036674
30
0
41
1
10
28.7588852548639
20
-0.318368283814237
30
0
41
1
10
28.6321124381455
20
-0.248119595087132
30
0
41
1
10
28.4408194209463
20
-0.139986634832951
30
0
41
1
10
28.3768608574409
20
-0.103491860135449
30
0
41
1
10
28.2805486438419
20
-0.048192669991181
30
0
41
1
10
28.2484344257328
20
-0.0296903037184393
30
0
41
1
10
28.1844302027913
20
0.0072247685360765
30
0
41
1
10
28.1524980022061
20
0.0256593063110984
30
0
41
1
10
27.9930740022
20
0.117518407901514
30
0
41
1
10
27.8662476221799
20
0.189922841084893
30
0
41
1
10
27.6759881980266
20
0.295104314191661
30
0
41
1
10
27.6125751483588
20
0.329612242137614
30
0
41
1
10
27.4857358232809
20
0.397464265575309
30
0
41
1
10
27.4222530895372
20
0.430714162488641
30
0
41
1
10
27.2950416186754
20
0.495641174000582
30
0
41
1
10
27.2312314510921
20
0.527187242325084
30
0
41
1
10
27.1350487986049
20
0.5728676268416
30
0
41
1
10
27.1028765702183
20
0.58783767465394
30
0
41
1
10
27.0387332551745
20
0.617024484373502
30
0
41
1
10
27.0067219303519
20
0.631261008938822
30
0
41
1
10
26.9108311286466
20
0.672867150943716
30
0
41
1
10
26.8471089387885
20
0.699157732375369
30
0
41
1
10
26.7200517411582
20
0.748844935298138
30
0
41
1
10
26.6566612645337
20
0.772171340146173
30
0
41
1
10
26.4667428009841
20
0.837402687742411
30
0
41
1
10
26.3401717076919
20
0.874230576072307
30
0
41
1
10
26.1491433839553
20
0.918412276332958
30
0
41
1
10
26.0852652312595
20
0.931296755863457
30
0
41
1
10
25.9890968649788
20
0.947783707979369
30
0
41
1
10
25.9569381512874
20
0.952811685696418
30
0
41
1
10
25.8927147087559
20
0.961864859078474
30
0
41
1
10
25.8606899559079
20
0.965886654454522
30
0
41
1
10
25.7648010136702
20
0.976418383469536
30
0
41
1
10
25.7011080556513
20
0.981392674392879
30
0
41
1
10
25.5740234195054
20
0.987277169805765
30
0
41
1
10
25.5106377252322
20
0.988184355556854
30
0
41
1
10
25.4397927214823
20
0.986938744227217
30
0
41
1
10
25.4323155120814
20
0.986779187404636
30
0
41
1
10
25.4248383485026
20
0.986591587632773
30
0
0
SPLINE
5
EC
100
AcDbEntity
8
SK1
62
256
6
ByLayer
370
18
48
1
60
0
100
AcDbSpline
70
4
71
3
72
59
73
55
40
0
40
0
40
0
40
0
40
0.0002835836637244
40
0.0002835836637244
40
0.0180077955884875
40
0.0180077955884875
40
0.0357320075132505
40
0.0711804313627763
40
0.0711804313627763
40
0.142077279061828
40
0.142077279061828
40
0.21297412676088
40
0.21297412676088
40
0.230698338685643
40
0.230698338685643
40
0.248422550610406
40
0.248422550610406
40
0.283870974459929
40
0.283870974459929
40
0.354767822158977
40
0.354767822158977
40
0.425664669858026
40
0.425664669858026
40
0.46111309370755
40
0.46111309370755
40
0.496561517557075
40
0.496561517557075
40
0.567458365256124
40
0.567458365256124
40
0.602906789105648
40
0.602906789105648
40
0.638355212955173
40
0.638355212955173
40
0.656079424879934
40
0.656079424879934
40
0.673803636804694
40
0.673803636804694
40
0.709252060654216
40
0.709252060654216
40
0.780148908353255
40
0.780148908353255
40
0.851045756052296
40
0.851045756052296
40
0.868769967977055
40
0.868769967977055
40
0.886494179901813
40
0.886494179901813
40
0.92194260375133
40
0.92194260375133
40
0.957391027600847
40
0.957391027600847
40
0.992839451450364
40
0.992839451450364
40
1
40
1
40
1
40
1
41
1
10
20.0977559859036
20
-0.983465590673234
30
0
41
1
10
20.0972422412793
20
-0.98346508547607
30
0
41
1
10
20.0967284794504
20
-0.98346444779304
30
0
41
1
10
20.0641030844368
20
-0.983415539001697
30
0
41
1
10
20.0319189931824
20
-0.982847909296936
30
0
41
1
10
19.9677762435916
20
-0.980687780055234
30
0
41
1
10
19.8717532112584
20
-0.975911952214489
30
0
41
1
10
19.7761860296853
20
-0.966606093673732
30
0
41
1
10
19.5853519595612
20
-0.942166378897639
30
0
41
1
10
19.4585315669754
20
-0.918122644051664
30
0
41
1
10
19.2045121427921
20
-0.855270495859315
30
0
41
1
10
19.0772092798986
20
-0.816520346886847
30
0
41
1
10
18.9167306563387
20
-0.759597125190481
30
0
41
1
10
18.8845169878746
20
-0.747769727515561
30
0
41
1
10
18.8202244750764
20
-0.7234013928271
30
0
41
1
10
18.7881467697053
20
-0.710861972852285
30
0
41
1
10
18.6920864567799
20
-0.672230021028213
30
0
41
1
10
18.6282735288625
20
-0.64512876146074
30
0
41
1
10
18.4373136800935
20
-0.560103748675601
30
0
41
1
10
18.3105427513758
20
-0.49860256125757
30
0
41
1
10
18.0566546993325
20
-0.36813315487143
30
0
41
1
10
17.929491918129
20
-0.299230403079065
30
0
41
1
10
17.7371618012814
20
-0.192375316289002
30
0
41
1
10
17.6726374752837
20
-0.156085576031472
30
0
41
1
10
17.5443722403915
20
-0.0834741070581231
30
0
41
1
10
17.4804767434949
20
-0.0470832749092835
30
0
41
1
10
17.2893803962731
20
0.0621365136371139
30
0
41
1
10
17.1626300103135
20
0.134753838613847
30
0
41
1
10
16.9721505018078
20
0.241052517864318
30
0
41
1
10
16.9086055245259
20
0.276060853536706
30
0
41
1
10
16.7812333125347
20
0.344915583328515
30
0
41
1
10
16.7173956135362
20
0.378744671278099
30
0
41
1
10
16.6213569801926
20
0.428487238650035
30
0
41
1
10
16.5892980814282
20
0.444902647558536
30
0
41
1
10
16.5250323735297
20
0.477306573047826
30
0
41
1
10
16.492820559826
20
0.493297978693477
30
0
41
1
10
16.3965262405916
20
0.540281606610364
30
0
41
1
10
16.3325824695923
20
0.570380908882669
30
0
41
1
10
16.1412355457136
20
0.656705861142171
30
0
41
1
10
16.0143463574504
20
0.70899913419089
30
0
41
1
10
15.7604007920121
20
0.801269183423557
30
0
41
1
10
15.6333199985247
20
0.841229097444653
30
0
41
1
10
15.4735078139657
20
0.882434586444788
30
0
41
1
10
15.4414918872267
20
0.890233034803572
30
0
41
1
10
15.3773150720728
20
0.904906940629559
30
0
41
1
10
15.345104858203
20
0.911792120163256
30
0
41
1
10
15.248642212828
20
0.930946602438638
30
0
41
1
10
15.1845979810898
20
0.941714931462883
30
0
41
1
10
15.056846987638
20
0.959257768713798
30
0
41
1
10
14.9931310259857
20
0.966030282125701
30
0
41
1
10
14.8658981205972
20
0.975595770832683
30
0
41
1
10
14.802409239866
20
0.978392352683159
30
0
41
1
10
14.7261229039395
20
0.979333346936556
30
0
41
1
10
14.7133019455538
20
0.97940922528727
30
0
41
1
10
14.7004793359004
20
0.979402901321521
30
0
0
SPLINE
5
ED
100
AcDbEntity
8
SK1
62
256
6
ByLayer
370
18
48
1
60
0
100
AcDbSpline
70
4
71
3
72
31
73
27
40
0
40
0
40
0
40
0
40
0.103368699340904
40
0.103368699340904
40
0.23145888514935
40
0.23145888514935
40
0.295503978053573
40
0.295503978053573
40
0.327526524505682
40
0.327526524505682
40
0.359549070957792
40
0.359549070957792
40
0.487639256766237
40
0.487639256766237
40
0.551684349670459
40
0.551684349670459
40
0.61572944257468
40
0.61572944257468
40
0.743819628383123
40
0.743819628383123
40
0.775842174835234
40
0.775842174835234
40
0.807864721287344
40
0.871909814191563
40
0.871909814191563
40
1
40
1
40
1
40
1
41
1
10
9.30187410094629
20
-0.975341973223692
30
0
41
1
10
9.19831456500086
20
-0.975299253700996
30
0
41
1
10
9.09530509331969
20
-0.969954667529009
30
0
41
1
10
8.86526581691473
20
-0.946535866555365
30
0
41
1
10
8.73829200489564
20
-0.925728756442822
30
0
41
1
10
8.5473111468315
20
-0.883164456585291
30
0
41
1
10
8.48355216238349
20
-0.867088006069253
30
0
41
1
10
8.38756982082495
20
-0.840262469513306
30
0
41
1
10
8.35552006748176
20
-0.830867879600987
30
0
41
1
10
8.29128479699421
20
-0.811188675991957
30
0
41
1
10
8.25907437515076
20
-0.800895757050682
30
0
41
1
10
8.09789119539354
20
-0.747336079976378
30
0
41
1
10
7.96998705682952
20
-0.698391778533335
30
0
41
1
10
7.7790097223909
20
-0.616901106112408
30
0
41
1
10
7.71547208711303
20
-0.58841784264888
30
0
41
1
10
7.5883490548778
20
-0.529236781870196
30
0
41
1
10
7.52477277251398
20
-0.498527438348134
30
0
41
1
10
7.33371467975201
20
-0.403485375044198
30
0
41
1
10
7.20584519979482
20
-0.336358108522404
30
0
41
1
10
7.04484654573156
20
-0.248431115638994
30
0
41
1
10
7.01259946821247
20
-0.230655265964941
30
0
41
1
10
6.94827105243908
20
-0.194950452723845
30
0
41
1
10
6.85190675781385
20
-0.141099566303524
30
0
41
1
10
6.75577115923289
20
-0.0866444094301926
30
0
41
1
10
6.56343721542251
20
0.0224177139717483
30
0
41
1
10
6.43508788738654
20
0.0952513725934807
30
0
41
1
10
6.30586792048427
20
0.166882005822316
30
0
0
SPLINE
5
EE
100
AcDbEntity
8
SK1
62
256
6
ByLayer
370
18
48
1
60
0
100
AcDbSpline
70
4
71
3
72
20
73
16
40
0
40
0
40
0
40
0
40
0.25
40
0.25
40
0.500000000000001
40
0.500000000000001
40
0.625000000000001
40
0.625000000000001
40
0.750000000000001
40
0.750000000000001
40
0.875
40
0.875
40
0.9375
40
0.9375
40
1
40
1
40
1
40
1
41
1
10
6.30586792048427
20
0.166882005822316
30
0
41
1
10
6.29530578085152
20
0.172736927227135
30
0
41
1
10
6.2848647959843
20
0.178753486110793
30
0
41
1
10
6.26436394114896
20
0.191301960263843
30
0
41
1
10
6.25429902899981
20
0.19782711600655
30
0
41
1
10
6.23984257542114
20
0.208495991399218
30
0
41
1
10
6.23513293149858
20
0.212202406184986
30
0
41
1
10
6.22605810593046
20
0.220090432259781
30
0
41
1
10
6.22166379719451
20
0.224298790936359
30
0
41
1
10
6.21366507786965
20
0.233288687121274
30
0
41
1
10
6.20999925526104
20
0.238124849676126
30
0
41
1
10
6.2056725470658
20
0.245950714079811
30
0
41
1
10
6.20443022969224
20
0.248647060587246
30
0
41
1
10
6.20252206324943
20
0.254293595163261
30
0
41
1
10
6.20186973611362
20
0.257213829614756
30
0
41
1
10
6.20167651545469
20
0.260188660191005
30
0
0
SPLINE
5
EF
100
AcDbEntity
8
SK1
62
256
6
ByLayer
370
18
48
1
60
0
100
AcDbSpline
70
4
71
3
72
8
73
4
40
0
40
0
40
0
40
0
40
1
40
1
40
1
40
1
41
1
10
6.2016765154552
20
0.260188660191346
30
0
41
1
10
6.20163743873965
20
0.260790286378608
30
0
41
1
10
6.20161743206484
20
0.261393224545572
30
0
41
1
10
6.20161779257691
20
0.261995712076356
30
0
0
SPLINE
5
F0
100
AcDbEntity
8
SK1
62
256
6
ByLayer
370
18
48
1
60
0
100
AcDbSpline
70
4
71
3
72
30
73
26
40
0
40
0
40
0
40
0
40
0.125
40
0.125
40
0.1875
40
0.1875
40
0.25
40
0.25
40
0.375
40
0.5
40
0.5
40
0.53125
40
0.53125
40
0.5625
40
0.625
40
0.625
40
0.75
40
0.75
40
0.78125
40
0.78125
40
0.8125
40
0.8125
40
0.875
40
0.875
40
1
40
1
40
1
40
1
41
1
10
6.20161779257691
20
0.261995712067403
30
0
41
1
10
6.2016452628655
20
0.307904064437878
30
0
41
1
10
6.20165536356828
20
0.352538709317713
30
0
41
1
10
6.20165165033569
20
0.417602227164053
30
0
41
1
10
6.20164726049595
20
0.4389740666943
30
0
41
1
10
6.20163331561972
20
0.481073991059929
30
0
41
1
10
6.20162370547518
20
0.501886230572723
30
0
41
1
10
6.20158930543673
20
0.562545870734255
30
0
41
1
10
6.20152893703036
20
0.638789366166293
30
0
41
1
10
6.20145968024539
20
0.706043118364306
30
0
41
1
10
6.20141909878359
20
0.745170317310766
30
0
41
1
10
6.20141110428554
20
0.752860845112565
30
0
41
1
10
6.2013956325863
20
0.767827500630801
30
0
41
1
10
6.20137315840591
20
0.789694757553633
30
0
41
1
10
6.20135337726265
20
0.809841957551811
30
0
41
1
10
6.20131853642519
20
0.847881577687104
30
0
41
1
10
6.20130164765089
20
0.870246989422043
30
0
41
1
10
6.2012914419343
20
0.89440536219189
30
0
41
1
10
6.2012899426017
20
0.899046159304163
30
0
41
1
10
6.20128808867636
20
0.907940654884129
30
0
41
1
10
6.20128773540981
20
0.912202598039073
30
0
41
1
10
6.2012884684537
20
0.924324234269534
30
0
41
1
10
6.20129133799045
20
0.931522372677165
30
0
41
1
10
6.20130710869833
20
0.950537633482725
30
0
41
1
10
6.20132722281156
20
0.959789014059339
30
0
41
1
10
6.20135636782888
20
0.965629961120925
30
0
0
SPLINE
5
F1
100
AcDbEntity
8
SK1
62
256
6
ByLayer
370
18
48
1
60
0
100
AcDbSpline
70
4
71
3
72
8
73
4
40
0
40
0
40
0
40
0
40
1
40
1
40
1
40
1
41
1
10
5.98998510093438
20
0.972846896068972
30
0
41
1
10
6.06057186308908
20
0.972894944764192
30
0
41
1
10
6.13098639640529
20
0.970477608211525
30
0
41
1
10
6.20135636783047
20
0.965629961120897
30
0
0
SPLINE
5
F2
100
AcDbEntity
8
SK1
62
256
6
ByLayer
370
18
48
1
60
0
100
AcDbSpline
70
4
71
3
72
38
73
34
40
0
40
0
40
0
40
0
40
0.056844011044863
40
0.056844011044863
40
0.113688022089726
40
0.113688022089726
40
0.170532033134589
40
0.170532033134589
40
0.227376044179452
40
0.227376044179452
40
0.341064066269186
40
0.341064066269186
40
0.397908077314054
40
0.397908077314054
40
0.454752088358921
40
0.454752088358921
40
0.511596099403788
40
0.511596099403788
40
0.568440110448655
40
0.568440110448655
40
0.68212813253839
40
0.68212813253839
40
0.738972143583257
40
0.738972143583257
40
0.795816154628124
40
0.795816154628124
40
0.852660165672991
40
0.852660165672991
40
0.909504176717858
40
0.909504176717858
40
0.966348187762725
40
0.966348187762725
40
1
40
1
40
1
40
1
41
1
10
30.8792543679941
20
0.972605320898879
30
0
41
1
10
30.8444457689299
20
0.976503656849417
30
0
41
1
10
30.8096669556971
20
0.97980016958806
30
0
41
1
10
30.7400144128819
20
0.985156416079576
30
0
41
1
10
30.7051533568033
20
0.987222763268562
30
0
41
1
10
30.6354099014266
20
0.990148244817419
30
0
41
1
10
30.6005280527196
20
0.99100735733208
30
0
41
1
10
30.5307852140485
20
0.991500744007709
30
0
41
1
10
30.4959172752033
20
0.991130448964185
30
0
41
1
10
30.3910228859419
20
0.988170786746508
30
0
41
1
10
30.3207302695391
20
0.983768388256067
30
0
41
1
10
30.215059221501
20
0.973375230752566
30
0
41
1
10
30.1797501681914
20
0.969260727843533
30
0
41
1
10
30.1093142540247
20
0.959859453869854
30
0
41
1
10
30.0741332188591
20
0.954580080638635
30
0
41
1
10
30.0038847025507
20
0.942875382089653
30
0
41
1
10
29.9688193564455
20
0.936449009655661
30
0
41
1
10
29.898857847206
20
0.922420964871293
30
0
41
1
10
29.8639787101577
20
0.914805095293644
30
0
41
1
10
29.759387318944
20
0.890322767152981
30
0
41
1
10
29.6895949917318
20
0.871939705869011
30
0
41
1
10
29.5850659408233
20
0.841124362747735
30
0
41
1
10
29.5502729881415
20
0.830285305252488
30
0
41
1
10
29.4806676145073
20
0.807570471288756
30
0
41
1
10
29.4458253739424
20
0.795725408416956
30
0
41
1
10
29.3760089888811
20
0.771128047694617
30
0
41
1
10
29.3410493196498
20
0.758361654362858
30
0
41
1
10
29.2710803441196
20
0.731826110264848
30
0
41
1
10
29.2360845918819
20
0.718039225353493
30
0
41
1
10
29.166012849068
20
0.68947159894222
30
0
41
1
10
29.1309091918488
20
0.674725317741405
30
0
41
1
10
29.0748287649182
20
0.650630044712102
30
0
41
1
10
29.0539158286166
20
0.641517792342086
30
0
41
1
10
29.0329970044221
20
0.632268070295424
30
0
0
SPLINE
5
F3
100
AcDbEntity
8
SK1
62
256
6
ByLayer
370
18
48
1
60
0
100
AcDbSpline
70
4
71
3
72
116
73
112
40
0
40
0
40
0
40
0
40
0.0056173210578843
40
0.0056173210578843
40
0.0208817001511863
40
0.0208817001511863
40
0.0361460792444882
40
0.0361460792444882
40
0.0514104583377901
40
0.0514104583377901
40
0.066674837431092
40
0.066674837431092
40
0.0819392165243939
40
0.0819392165243939
40
0.0972035956176957
40
0.0972035956176957
40
0.112467974710998
40
0.112467974710998
40
0.1277323538043
40
0.1277323538043
40
0.142996732897602
40
0.142996732897602
40
0.158261111990903
40
0.158261111990903
40
0.173525491084205
40
0.188789870177507
40
0.188789870177507
40
0.204054249270809
40
0.204054249270809
40
0.234583007457413
40
0.234583007457413
40
0.249847386550714
40
0.249847386550714
40
0.265111765644015
40
0.265111765644015
40
0.280376144737315
40
0.280376144737315
40
0.295640523830616
40
0.295640523830616
40
0.326169282017218
40
0.326169282017218
40
0.356698040203819
40
0.356698040203819
40
0.38722679839042
40
0.38722679839042
40
0.402491177483721
40
0.402491177483721
40
0.417755556577022
40
0.417755556577022
40
0.433019935670323
40
0.433019935670323
40
0.448284314763624
40
0.448284314763624
40
0.463548693856924
40
0.463548693856924
40
0.478813072950225
40
0.478813072950225
40
0.509341831136824
40
0.509341831136824
40
0.524606210230125
40
0.524606210230125
40
0.539870589323426
40
0.555134968416727
40
0.555134968416727
40
0.570399347510028
40
0.570399347510028
40
0.585663726603329
40
0.585663726603329
40
0.600928105696629
40
0.600928105696629
40
0.61619248478993
40
0.61619248478993
40
0.631456863883231
40
0.631456863883231
40
0.646721242976532
40
0.646721242976532
40
0.661985622069833
40
0.661985622069833
40
0.692514380256434
40
0.692514380256434
40
0.723043138443036
40
0.723043138443036
40
0.753571896629638
40
0.753571896629638
40
0.784100654816239
40
0.784100654816239
40
0.79936503390954
40
0.79936503390954
40
0.814629413002841
40
0.814629413002841
40
0.829893792096142
40
0.829893792096142
40
0.845158171189442
40
0.845158171189442
40
0.875686929376042
40
0.875686929376042
40
0.89095130846934
40
0.89095130846934
40
0.906215687562639
40
0.906215687562639
40
0.921480066655937
40
0.921480066655937
40
0.936744445749236
40
0.936744445749236
40
0.96727320393583
40
0.96727320393583
40
0.982537583029128
40
0.982537583029128
40
0.997801962122425
40
0.997801962122425
40
1
40
1
40
1
40
1
41
1
10
25.1415103791217
20
-0.987261756158432
30
0
41
1
10
25.1286673264001
20
-0.987249122033575
30
0
41
1
10
25.115830448063
20
-0.987153282516488
30
0
41
1
10
25.0681222590315
20
-0.986487202598113
30
0
41
1
10
25.033243984769
20
-0.985387809291012
30
0
41
1
10
24.9634535502708
20
-0.981990885152982
30
0
41
1
10
24.9285579178446
20
-0.979692191124229
30
0
41
1
10
24.8588134274606
20
-0.973881444277993
30
0
41
1
10
24.8239746254613
20
-0.97036462814637
30
0
41
1
10
24.7542872804146
20
-0.962113180621856
30
0
41
1
10
24.7194106523996
20
-0.957388389682734
30
0
41
1
10
24.6494977848318
20
-0.946793285300686
30
0
41
1
10
24.6144822829576
20
-0.940916005726763
30
0
41
1
10
24.5443922065205
20
-0.927963113222546
30
0
41
1
10
24.5093225889792
20
-0.92088317800949
30
0
41
1
10
24.4391111348284
20
-0.905498854195827
30
0
41
1
10
24.403945670906
20
-0.897208346937504
30
0
41
1
10
24.3333466803614
20
-0.879540792715375
30
0
41
1
10
24.2979088103546
20
-0.870144825075897
30
0
41
1
10
24.2273299431595
20
-0.850328663062015
30
0
41
1
10
24.1921348345514
20
-0.839891071704699
30
0
41
1
10
24.1219597347013
20
-0.817928550138475
30
0
41
1
10
24.0869616310881
20
-0.806418791501926
30
0
41
1
10
24.0169530296509
20
-0.782554763138563
30
0
41
1
10
23.9469585330945
20
-0.757824224165716
30
0
41
1
10
23.8771051139132
20
-0.731263251398872
30
0
41
1
10
23.8073775685542
20
-0.703713475279955
30
0
41
1
10
23.772572404562
20
-0.689446256051269
30
0
41
1
10
23.6680249776566
20
-0.645557113176608
30
0
41
1
10
23.5981420442454
20
-0.614884342872102
30
0
41
1
10
23.4933618515079
20
-0.566311213460068
30
0
41
1
10
23.4584531872725
20
-0.549671268949453
30
0
41
1
10
23.3884882405228
20
-0.515754709649684
30
0
41
1
10
23.3534171937345
20
-0.498503065067439
30
0
41
1
10
23.2831141206253
20
-0.463393051018613
30
0
41
1
10
23.2478824640596
20
-0.445534788491727
30
0
41
1
10
23.177323177679
20
-0.409091930320585
30
0
41
1
10
23.1419575174563
20
-0.390439641458812
30
0
41
1
10
23.036155620973
20
-0.333987804233772
30
0
41
1
10
22.9657830080499
20
-0.295894314711632
30
0
41
1
10
22.8255979560637
20
-0.218390254979766
30
0
41
1
10
22.7558763970885
20
-0.178817571604753
30
0
41
1
10
22.616250829343
20
-0.0996600971460566
30
0
41
1
10
22.5464203966222
20
-0.0599483667594995
30
0
41
1
10
22.4418618264513
20
0.0001998362639597
30
0
41
1
10
22.4069959907004
20
0.020267816548909
30
0
41
1
10
22.3371231321443
20
0.0602347119003355
30
0
41
1
10
22.3021331451631
20
0.080163892135289
30
0
41
1
10
22.2320850804079
20
0.119983819293992
30
0
41
1
10
22.1970322011444
20
0.139883945723199
30
0
41
1
10
22.12686715911
20
0.179663503854215
30
0
41
1
10
22.09173870964
20
0.199513732191207
30
0
41
1
10
22.0212671079987
20
0.238913784729618
30
0
41
1
10
21.9858810140898
20
0.258507129897595
30
0
41
1
10
21.9151576139931
20
0.297275888605157
30
0
41
1
10
21.8798790267938
20
0.316430535393863
30
0
41
1
10
21.7743343060836
20
0.373286965513415
30
0
41
1
10
21.7043100869379
20
0.410285741696271
30
0
41
1
10
21.5993350661103
20
0.463734172371659
30
0
41
1
10
21.5643611590419
20
0.481223704059403
30
0
41
1
10
21.4945193510198
20
0.515661914089577
30
0
41
1
10
21.424782221244
20
0.549553826375217
30
0
41
1
10
21.3550733688381
20
0.582071228652666
30
0
41
1
10
21.2852914218253
20
0.613779881550016
30
0
41
1
10
21.2503585588123
20
0.629223667130447
30
0
41
1
10
21.1804576674547
20
0.659360005761869
30
0
41
1
10
21.1454986603663
20
0.674064411975849
30
0
41
1
10
21.0755757320526
20
0.702747091309078
30
0
41
1
10
21.0405814607283
20
0.716684424627971
30
0
41
1
10
20.9703748394771
20
0.743561741889067
30
0
41
1
10
20.9351871343229
20
0.756534225319456
30
0
41
1
10
20.8647009363692
20
0.781609488745033
30
0
41
1
10
20.8294068160039
20
0.793723037829807
30
0
41
1
10
20.7586803677212
20
0.817000824191553
30
0
41
1
10
20.723415714226
20
0.828102987843749
30
0
41
1
10
20.6529930890025
20
0.849162791993194
30
0
41
1
10
20.617823834205
20
0.859111557973506
30
0
41
1
10
20.512469567655
20
0.887278624246761
30
0
41
1
10
20.4425406117725
20
0.903895925656371
30
0
41
1
10
20.3028843455826
20
0.932514760476806
30
0
41
1
10
20.2330539637323
20
0.944467360471208
30
0
41
1
10
20.0934671435261
20
0.963741129366838
30
0
41
1
10
20.0237736947715
20
0.971059409980654
30
0
41
1
10
19.8838010921196
20
0.980774492912985
30
0
41
1
10
19.8135795429977
20
0.983220571007308
30
0
41
1
10
19.7080613709434
20
0.983187514207827
30
0
41
1
10
19.6728333655133
20
0.982552225842397
30
0
41
1
10
19.6020979219981
20
0.980038397246375
30
0
41
1
10
19.5666675759412
20
0.978162841412029
30
0
41
1
10
19.4960989813066
20
0.973194788830511
30
0
41
1
10
19.4609074755301
20
0.97010001061156
30
0
41
1
10
19.3907102951895
20
0.962686977108177
30
0
41
1
10
19.3556979014704
20
0.958368037956518
30
0
41
1
10
19.2506651634389
20
0.94369602789601
30
0
41
1
10
19.1806661405035
20
0.931650808788902
30
0
41
1
10
19.0759789267929
20
0.910068520756795
30
0
41
1
10
19.041140907454
20
0.902277006095488
30
0
41
1
10
18.9713824739179
20
0.885634524965553
30
0
41
1
10
18.9364498351129
20
0.87679692808581
30
0
41
1
10
18.8665406098606
20
0.858053180460502
30
0
41
1
10
18.8315676537947
20
0.848143546931396
30
0
41
1
10
18.7616202106987
20
0.827202055720846
30
0
41
1
10
18.7266601628937
20
0.8161532094866
30
0
41
1
10
18.6215701681597
20
0.781494928471574
30
0
41
1
10
18.551117974032
20
0.756520628069239
30
0
41
1
10
18.4450975936805
20
0.715933927192509
30
0
41
1
10
18.4096982836645
20
0.701838764432352
30
0
41
1
10
18.3391715711818
20
0.672887342690728
30
0
41
1
10
18.3039577885995
20
0.658049659374484
30
0
41
1
10
18.2637101565414
20
0.640698223030029
30
0
41
1
10
18.2586450075876
20
0.638506982354727
30
0
41
1
10
18.2535808626898
20
0.636308457961434
30
0
0
SPLINE
5
F4
100
AcDbEntity
8
SK1
62
256
6
ByLayer
370
18
48
1
60
0
100
AcDbSpline
70
4
71
3
72
111
73
107
40
0
40
0
40
0
40
0
40
0.010333916612279
40
0.010333916612279
40
0.0409074782581283
40
0.0409074782581283
40
0.0561942590810519
40
0.0561942590810519
40
0.0714810399039751
40
0.0714810399039751
40
0.0867678207268987
40
0.0867678207268987
40
0.102054601549822
40
0.102054601549822
40
0.132628163195669
40
0.132628163195669
40
0.163201724841516
40
0.163201724841516
40
0.193775286487363
40
0.193775286487363
40
0.209062067310288
40
0.209062067310288
40
0.224348848133213
40
0.224348848133213
40
0.239635628956137
40
0.239635628956137
40
0.254922409779062
40
0.254922409779062
40
0.270209190601987
40
0.270209190601987
40
0.285495971424911
40
0.285495971424911
40
0.300782752247836
40
0.300782752247836
40
0.316069533070761
40
0.331356313893686
40
0.331356313893686
40
0.34664309471661
40
0.34664309471661
40
0.377216656362459
40
0.377216656362459
40
0.392503437185383
40
0.392503437185383
40
0.407790218008307
40
0.407790218008307
40
0.423076998831231
40
0.423076998831231
40
0.438363779654155
40
0.438363779654155
40
0.453650560477078
40
0.453650560477078
40
0.468937341300002
40
0.468937341300002
40
0.499510902945851
40
0.499510902945851
40
0.530084464591699
40
0.530084464591699
40
0.545371245414624
40
0.545371245414624
40
0.560658026237548
40
0.560658026237548
40
0.575944807060473
40
0.575944807060473
40
0.591231587883398
40
0.591231587883398
40
0.606518368706323
40
0.606518368706323
40
0.621805149529247
40
0.621805149529247
40
0.652378711175098
40
0.652378711175098
40
0.682952272820948
40
0.682952272820948
40
0.698239053643873
40
0.698239053643873
40
0.713525834466799
40
0.713525834466799
40
0.744099396112649
40
0.744099396112649
40
0.774672957758499
40
0.774672957758499
40
0.789959738581424
40
0.789959738581424
40
0.805246519404349
40
0.805246519404349
40
0.835820081050198
40
0.835820081050198
40
0.851106861873123
40
0.851106861873123
40
0.866393642696048
40
0.866393642696048
40
0.881680423518973
40
0.881680423518973
40
0.896967204341897
40
0.896967204341897
40
0.927540765987747
40
0.927540765987747
40
0.942827546810672
40
0.942827546810672
40
0.958114327633597
40
0.958114327633597
40
0.973401108456521
40
0.973401108456521
40
0.988687889279446
40
0.988687889279446
40
1
40
1
40
1
40
1
41
1
10
14.3414006724624
20
-0.979132563769809
30
0
41
1
10
14.3178060328333
20
-0.979112844151757
30
0
41
1
10
14.2942187121705
20
-0.978814880494411
30
0
41
1
10
14.2007929903031
20
-0.976535516944125
30
0
41
1
10
14.1307976544008
20
-0.972430385674727
30
0
41
1
10
14.0257540717905
20
-0.962627855166431
30
0
41
1
10
13.9907478184817
20
-0.958740922864905
30
0
41
1
10
13.920598846759
20
-0.949762627005015
30
0
41
1
10
13.8854303254863
20
-0.94468496215984
30
0
41
1
10
13.8149243556723
20
-0.933350982554913
30
0
41
1
10
13.7796019935353
20
-0.927087004566062
30
0
41
1
10
13.7088428163987
20
-0.91332477747676
30
0
41
1
10
13.6734195432283
20
-0.905816231979571
30
0
41
1
10
13.5675646189154
20
-0.881662587259399
30
0
41
1
10
13.4971573026878
20
-0.863474435398643
30
0
41
1
10
13.3568153593742
20
-0.822939212348871
30
0
41
1
10
13.2870156651009
20
-0.800433830115367
30
0
41
1
10
13.1471419181011
20
-0.752016947261779
30
0
41
1
10
13.0772022563943
20
-0.725992719588589
30
0
41
1
10
12.9724494090927
20
-0.684002489118001
30
0
41
1
10
12.937523628421
20
-0.669551672313872
30
0
41
1
10
12.8675062463116
20
-0.639942757272991
30
0
41
1
10
12.8324323311655
20
-0.624763800854623
30
0
41
1
10
12.7622085339483
20
-0.593580988413095
30
0
41
1
10
12.7270616763841
20
-0.577572526622504
30
0
41
1
10
12.6567268597084
20
-0.544655154116185
30
0
41
1
10
12.621521723592
20
-0.527768883340372
30
0
41
1
10
12.5508429715542
20
-0.493436835020503
30
0
41
1
10
12.5153274805405
20
-0.475946326193139
30
0
41
1
10
12.4445304951341
20
-0.440487683912892
30
0
41
1
10
12.4092185874636
20
-0.422505041739072
30
0
41
1
10
12.3388213901389
20
-0.385943030040238
30
0
41
1
10
12.303730982961
20
-0.367371462345687
30
0
41
1
10
12.2335612317656
20
-0.329998451120986
30
0
41
1
10
12.1634012130052
20
-0.29239950944725
30
0
41
1
10
12.0933690743541
20
-0.254170781155921
30
0
41
1
10
12.0234531573523
20
-0.215535142223644
30
0
41
1
10
11.9885628206198
20
-0.195996531551344
30
0
41
1
10
11.8838151213112
20
-0.137208044681699
30
0
41
1
10
11.8138056745867
20
-0.0979241575994365
30
0
41
1
10
11.7087884286855
20
-0.038395099319473
30
0
41
1
10
11.6738075191052
20
-0.0184045485733293
30
0
41
1
10
11.6037357967097
20
0.0215862784272645
30
0
41
1
10
11.5686203796299
20
0.0415412841289253
30
0
41
1
10
11.4982243503212
20
0.0813578969890898
30
0
41
1
10
11.4629520619178
20
0.101234639480936
30
0
41
1
10
11.3923040913955
20
0.141011619657775
30
0
41
1
10
11.3568949605978
20
0.160968052969736
30
0
41
1
10
11.286133110586
20
0.200644712110119
30
0
41
1
10
11.2508238235482
20
0.220286839238099
30
0
41
1
10
11.1802835123749
20
0.259076471862187
30
0
41
1
10
11.1450569326925
20
0.278233057886013
30
0
41
1
10
11.0395748921576
20
0.335121112176893
30
0
41
1
10
10.9696522970699
20
0.372492119108614
30
0
41
1
10
10.8297017830591
20
0.444615481104535
30
0
41
1
10
10.7597168080552
20
0.479459523933315
30
0
41
1
10
10.6549214021664
20
0.530200802644401
30
0
41
1
10
10.6199944141472
20
0.546818274919048
30
0
41
1
10
10.5500296511927
20
0.579280977351033
30
0
41
1
10
10.5150012704937
20
0.595141141617773
30
0
41
1
10
10.4448510949495
20
0.626118359451908
30
0
41
1
10
10.4097343081172
20
0.64124277687398
30
0
41
1
10
10.3394413199564
20
0.670787271181069
30
0
41
1
10
10.3042564795221
20
0.685194457533868
30
0
41
1
10
10.2337166517319
20
0.713146234429814
30
0
41
1
10
10.1983629483154
20
0.726692851151654
30
0
41
1
10
10.1274326002188
20
0.75285430937214
30
0
41
1
10
10.0919955204996
20
0.765427807611246
30
0
41
1
10
9.98607098494475
20
0.801687925622701
30
0
41
1
10
9.91586531550595
20
0.823901541963721
30
0
41
1
10
9.77556102228624
20
0.863774166230115
30
0
41
1
10
9.70547677517803
20
0.881481780073187
30
0
41
1
10
9.60067782301766
20
0.90487956205186
30
0
41
1
10
9.56575425622748
20
0.912113268789909
30
0
41
1
10
9.49580117172692
20
0.925383525075858
30
0
41
1
10
9.46079647838553
20
0.931438197089079
30
0
41
1
10
9.35578342296799
20
0.947905734861223
30
0
41
1
10
9.28582272654003
20
0.956624754873729
30
0
41
1
10
9.14531833855742
20
0.969187259332443
30
0
41
1
10
9.07473762053439
20
0.973052054761894
30
0
41
1
10
8.96853222188815
20
0.975172594363272
30
0
41
1
10
8.93306611136035
20
0.975257361705076
30
0
41
1
10
8.86239301880727
20
0.974185177979905
30
0
41
1
10
8.82711550181293
20
0.973031838423339
30
0
41
1
10
8.72143293150916
20
0.967761087972605
30
0
41
1
10
8.6512548892475
20
0.961821987086125
30
0
41
1
10
8.5462718367591
20
0.949320785960907
30
0
41
1
10
8.51129635339683
20
0.94456429494241
30
0
41
1
10
8.44130890208677
20
0.933922883749773
30
0
41
1
10
8.40630969095969
20
0.928033752985101
30
0
41
1
10
8.33633827714741
20
0.915101648037677
30
0
41
1
10
8.3013735578408
20
0.908053351269729
30
0
41
1
10
8.23146870098199
20
0.892785931023639
30
0
41
1
10
8.19650477876928
20
0.884580979433991
30
0
41
1
10
8.09136387593628
20
0.858426065206231
30
0
41
1
10
8.02106747852781
20
0.838857589878813
30
0
41
1
10
7.91547620034297
20
0.806067448584997
30
0
41
1
10
7.8802332633868
20
0.794579395129688
30
0
41
1
10
7.80949582544119
20
0.770651809540198
30
0
41
1
10
7.77395524338161
20
0.758183133648316
30
0
41
1
10
7.70310003413729
20
0.73236922149178
30
0
41
1
10
7.66776016379922
20
0.719016257479581
30
0
41
1
10
7.59729757730122
20
0.691365808843955
30
0
41
1
10
7.56216965604469
20
0.677072549724585
30
0
41
1
10
7.50105330021756
20
0.651624371381814
30
0
41
1
10
7.4750658671006
20
0.640619046231706
30
0
41
1
10
7.44909363272075
20
0.629416781470667
30
0
0
SPLINE
5
F5
100
AcDbEntity
8
SK1
62
256
6
ByLayer
370
18
48
1
60
0
100
AcDbSpline
70
4
71
3
72
14
73
10
40
0
40
0
40
0
40
0
40
0.20009995574403
40
0.337357479518123
40
0.435549306720659
40
0.508791196309806
40
0.606897291605255
40
0.770175293391302
40
1
40
1
40
1
40
1
41
1
10
9.38342524410891
20
-0.940728480823992
30
0
41
1
10
9.51953581754114
20
-0.940737590146256
30
0
41
1
10
9.74902224329611
20
-0.940789572494907
30
0
41
1
10
10.0453393550852
20
-0.94203343658117
30
0
41
1
10
10.2553502714679
20
-0.941620715853389
30
0
41
1
10
10.4385291907576
20
-0.941100385859585
30
0
41
1
10
10.6661409860988
20
-0.942584179657786
30
0
41
1
10
11.0003785372108
20
-0.942571375909438
30
0
41
1
10
11.2677378251139
20
-0.942720247111652
30
0
41
1
10
11.4240321198232
20
-0.942581208207713
30
0
0
SPLINE
5
F6
100
AcDbEntity
8
SK1
62
256
6
ByLayer
370
18
48
1
60
0
100
AcDbSpline
70
4
71
3
72
14
73
10
40
0
40
0
40
0
40
0
40
0.200769620091612
40
0.338673989227365
40
0.437179170256602
40
0.510675850880627
40
0.608067705455145
40
0.770908905620618
40
1
40
1
40
1
40
1
41
1
10
20.1811571714222
20
-0.951533155469718
30
0
41
1
10
20.3175805676422
20
-0.951994601063177
30
0
41
1
10
20.5477223494783
20
-0.952513806744122
30
0
41
1
10
20.8448389940899
20
-0.951999556602459
30
0
41
1
10
21.0554582544901
20
-0.952109251854836
30
0
41
1
10
21.2382971789796
20
-0.952992268981575
30
0
41
1
10
21.4650350313264
20
-0.952678726373165
30
0
41
1
10
21.7976695332078
20
-0.95246774983633
30
0
41
1
10
22.0639310911602
20
-0.953062381140398
30
0
41
1
10
22.2195474290672
20
-0.953624363144002
30
0
0
SPLINE
5
F7
100
AcDbEntity
8
SK1
62
256
6
ByLayer
370
18
48
1
60
0
100
AcDbSpline
70
4
71
3
72
13
73
9
40
0
40
0
40
0
40
0
40
0.23587479354781
40
0.384971541570634
40
0.514583471495641
40
0.659642284966335
40
0.876258915720376
40
1
40
1
40
1
40
1
41
1
10
27.6175154598881
20
0.959643562815472
30
0
41
1
10
27.48117459588
20
0.958621034284192
30
0
41
1
10
27.2586227872026
20
0.957441149823381
30
0
41
1
10
26.9609649210809
20
0.959460088093635
30
0
41
1
10
26.7159738062232
20
0.957865102817749
30
0
41
1
10
26.4317567003984
20
0.957372912330214
30
0
41
1
10
26.1510230946251
20
0.957961809215448
30
0
41
1
10
25.9541749005217
20
0.957847696798609
30
0
41
1
10
25.8826084954721
20
0.957756580440304
30
0
0
SPLINE
5
F8
100
AcDbEntity
8
SK1
62
256
6
ByLayer
370
18
48
1
60
0
100
AcDbSpline
70
4
71
3
72
12
73
8
40
0
40
0
40
0
40
0
40
0.259988181288854
40
0.450738176665555
40
0.594095686064397
40
0.813163733132256
40
1
40
1
40
1
40
1
41
1
10
16.8216580776625
20
0.948948935944486
30
0
41
1
10
16.6677448949104
20
0.947616117888515
30
0
41
1
10
16.4008764042648
20
0.946017603576905
30
0
41
1
10
16.0493156383583
20
0.948310136237893
30
0
41
1
10
15.7215019652367
20
0.947046983447308
30
0
41
1
10
15.3961456268454
20
0.946354075043359
30
0
41
1
10
15.1556833565586
20
0.946130473110088
30
0
41
1
10
15.0449989930575
20
0.946094563201314
30
0
0
SPLINE
5
F9
100
AcDbEntity
8
SK1
62
256
6
ByLayer
370
18
48
1
60
0
100
AcDbSpline
70
4
71
3
72
13
73
9
40
0
40
0
40
0
40
0
40
0.225024506425336
40
0.367340452160025
40
0.470242442903369
40
0.577261886524244
40
0.751893844083715
40
1
40
1
40
1
40
1
41
1
10
14.7817080279299
20
-0.946138480677348
30
0
41
1
10
14.9347298492295
20
-0.946201645585745
30
0
41
1
10
15.1845240101401
20
-0.94640525501319
30
0
41
1
10
15.5043693564521
20
-0.946569525249117
30
0
41
1
10
15.7438299947149
20
-0.947193025443369
30
0
41
1
10
16.0051756184984
20
-0.94816795616714
30
0
41
1
10
16.3655885967122
20
-0.946275218894073
30
0
41
1
10
16.6529868684562
20
-0.947747803466939
30
0
41
1
10
16.8216580776625
20
-0.948948935944458
30
0
0
SPLINE
5
FA
100
AcDbEntity
8
SK1
62
256
6
ByLayer
370
18
48
1
60
0
100
AcDbSpline
70
4
71
3
72
14
73
10
40
0
40
0
40
0
40
0
40
0.220451273162691
40
0.351263470651077
40
0.450456705380971
40
0.521827929825549
40
0.630236567183641
40
0.789689104227857
40
1
40
1
40
1
40
1
41
1
10
25.5789348318909
20
-0.957128762871406
30
0
41
1
10
25.728734679702
20
-0.957413519039136
30
0
41
1
10
25.9674253117949
20
-0.957644350181425
30
0
41
1
10
26.27352233554
20
-0.958124613257638
30
0
41
1
10
26.4783191320971
20
-0.957493880035372
30
0
41
1
10
26.6678930450364
20
-0.957425167885077
30
0
41
1
10
26.8984083700426
20
-0.959770662718171
30
0
41
1
10
27.2233348605083
20
-0.957519558445171
30
0
41
1
10
27.4746012106435
20
-0.958805915418537
30
0
41
1
10
27.6175154598881
20
-0.959643562815444
30
0
0
SPLINE
5
FB
100
AcDbEntity
8
SK1
62
256
6
ByLayer
370
18
48
1
60
0
100
AcDbSpline
70
4
71
3
72
14
73
10
40
0
40
0
40
0
40
0
40
0.260395494881661
40
0.445488307062265
40
0.556188376997661
40
0.639728091079957
40
0.751693619168266
40
0.9084420800577
40
1
40
1
40
1
40
1
41
1
10
22.2195474290672
20
0.95362436314403
30
0
41
1
10
22.0639310911602
20
0.953062381140427
30
0
41
1
10
21.7976695332078
20
0.952467749836359
30
0
41
1
10
21.4650350313264
20
0.952678726373222
30
0
41
1
10
21.2382971789796
20
0.952992268981632
30
0
41
1
10
21.0554582544901
20
0.952109251854864
30
0
41
1
10
20.8448389940898
20
0.951999556602487
30
0
41
1
10
20.6294256207569
20
0.952372394542607
30
0
41
1
10
20.4809704327122
20
0.952247586340235
30
0
41
1
10
20.4262320354866
20
0.952160561167062
30
0
0
SPLINE
5
FC
100
AcDbEntity
8
SK1
62
256
6
ByLayer
370
18
48
1
60
0
100
AcDbSpline
70
4
71
3
72
14
73
10
40
0
40
0
40
0
40
0
40
0.254860744122111
40
0.435925494070054
40
0.544718812329278
40
0.625939333643299
40
0.734827723045891
40
0.887037444801276
40
1
40
1
40
1
40
1
41
1
10
11.4240321198232
20
0.942581208207713
30
0
41
1
10
11.2677378251139
20
0.942720247111652
30
0
41
1
10
11.0003785372108
20
0.942571375909438
30
0
41
1
10
10.6661409860988
20
0.942584179657786
30
0
41
1
10
10.4385291907576
20
0.941100385859585
30
0
41
1
10
10.2553502714679
20
0.941620715853389
30
0
41
1
10
10.0453393550851
20
0.942033436581198
30
0
41
1
10
9.81585387305495
20
0.941070114727466
30
0
41
1
10
9.65318520758387
20
0.940845146065499
30
0
41
1
10
9.58389101670002
20
0.940792973206072
30
0
0
LINE
5
80
100
AcDbEntity
8
SK4
62
256
6
ByLayer
370
13
48
0.05
60
0
100
AcDbLine
10
-23.564
20
0
30
0
11
36.436
21
0
31
0
39
0
210
0
220
0
230
1
0
LINE
5
82
100
AcDbEntity
8
80
62
256
6
ByLayer
370
18
48
1
60
0
100
AcDbLine
10
0
20
0
30
0
11
-10
21
0
31
0
39
0
210
0
220
0
230
1
0
LINE
5
83
100
AcDbEntity
8
4
62
256
6
ByLayer
370
13
48
0.05
60
0
100
AcDbLine
10
0
20
0
30
0
11
31.436
21
0
31
0
39
0
210
0
220
0
230
1
0
LINE
5
85
100
AcDbEntity
8
81
62
256
6
ByLayer
370
18
48
1
60
0
100
AcDbLine
10
31.436
20
0
30
0
11
41.436
21
0
31
0
39
0
210
0
220
0
230
1
0
LINE
5
86
100
AcDbEntity
8
SK1
62
256
6
ByLayer
370
18
48
1
60
0
100
AcDbLine
10
31.39912
20
-0.072532
30
0
11
31.182139
21
-0.513489
31
0
39
0
210
0
220
0
230
1
0
LINE
5
88
100
AcDbEntity
8
SK1
62
256
6
ByLayer
370
18
48
1
60
0
100
AcDbLine
10
31.426157
20
-0.023672
30
0
11
31.422023
21
-0.030638
31
0
39
0
210
0
220
0
230
1
0
LINE
5
89
100
AcDbEntity
8
SK1
62
256
6
ByLayer
370
18
48
1
60
0
100
AcDbLine
10
31.426157
20
-0.023672
30
0
11
31.436
21
0
31
0
39
0
210
0
220
0
230
1
0
LINE
5
8A
100
AcDbEntity
8
SK1
62
256
6
ByLayer
370
18
48
1
60
0
100
AcDbLine
10
31.39912
20
0.072532
30
0
11
31.182139
21
0.513489
31
0
39
0
210
0
220
0
230
1
0
LINE
5
8B
100
AcDbEntity
8
SK1
62
256
6
ByLayer
370
13
48
1
60
0
100
AcDbLine
10
31.39912
20
0.072532
30
0
11
30.746014
21
0.446939
31
0
39
0
210
0
220
0
230
1
0
LINE
5
8C
100
AcDbEntity
8
SK1
62
256
6
ByLayer
370
18
48
1
60
0
100
AcDbLine
10
31.436
20
0
30
0
11
30.840216
21
-0.991552
31
0
39
0
210
0
220
0
230
1
0
LINE
5
8D
100
AcDbEntity
8
SK1
62
256
6
ByLayer
370
18
48
1
60
0
100
AcDbLine
10
31.436
20
0
30
0
11
31.426157
21
0.023672
31
0
39
0
210
0
220
0
230
1
0
LINE
5
8E
100
AcDbEntity
8
SK1
62
256
6
ByLayer
370
18
48
1
60
0
100
AcDbLine
10
30.484298
20
-0.608271
30
0
11
31.426157
21
0.023672
31
0
39
0
210
0
220
0
230
1
0
LINE
5
8F
100
AcDbEntity
8
SK1
62
256
6
ByLayer
370
18
48
1
60
0
100
AcDbLine
10
31.426157
20
0.023672
30
0
11
31.422023
21
0.030638
31
0
39
0
210
0
220
0
230
1
0
LINE
5
90
100
AcDbEntity
8
SK1
62
256
6
ByLayer
370
13
48
1
60
0
100
AcDbLine
10
31.422023
20
0.030638
30
0
11
30.720527
21
0.432785
31
0
39
0
210
0
220
0
230
1
0
LINE
5
91
100
AcDbEntity
8
SK1
62
256
6
ByLayer
370
18
48
1
60
0
100
AcDbLine
10
1.612
20
-0.969551
30
0
11
1.612
21
0.969551
31
0
39
0
210
0
220
0
230
1
0
LINE
5
92
100
AcDbEntity
8
SK1
62
256
6
ByLayer
370
18
48
1
60
0
100
AcDbLine
10
0.00083
20
-1.5
30
0
11
0.00083
21
1.5
31
0
39
0
210
0
220
0
230
1
0
LINE
5
93
100
AcDbEntity
8
SK1
62
256
6
ByLayer
370
18
48
1
60
0
100
AcDbLine
10
-18.564
20
-1.35
30
0
11
-18.564
21
1.35
31
0
39
0
210
0
220
0
230
1
0
LINE
5
94
100
AcDbEntity
8
SK1
62
256
6
ByLayer
370
18
48
1
60
0
100
AcDbLine
10
-18.477397
20
-1.5
30
0
11
-18.477397
21
1.5
31
0
39
0
210
0
220
0
230
1
0
LINE
5
95
100
AcDbEntity
8
SK1
62
256
6
ByLayer
370
18
48
1
60
0
100
AcDbLine
10
1.612
20
-0.969551
30
0
11
5.989896
21
-0.972847
31
0
39
0
210
0
220
0
230
1
0
LINE
5
96
100
AcDbEntity
8
SK1
62
256
6
ByLayer
370
18
48
1
60
0
100
AcDbLine
10
8.941455
20
-0.975068
30
0
11
9.301355
21
-0.975339
31
0
39
0
210
0
220
0
230
1
0
LINE
5
97
100
AcDbEntity
8
SK1
62
256
6
ByLayer
370
18
48
1
60
0
100
AcDbLine
10
14.341466
20
-0.979133
30
0
11
14.699929
21
-0.979403
31
0
39
0
210
0
220
0
230
1
0
LINE
5
98
100
AcDbEntity
8
SK1
62
256
6
ByLayer
370
18
48
1
60
0
100
AcDbLine
10
19.741463
20
-0.983197
30
0
11
20.098225
21
-0.983466
31
0
39
0
210
0
220
0
230
1
0
LINE
5
99
100
AcDbEntity
8
SK1
62
256
6
ByLayer
370
18
48
1
60
0
100
AcDbLine
10
25.141764
20
-0.987262
30
0
11
25.496798
21
-0.98753
31
0
39
0
210
0
220
0
230
1
0
LINE
5
9A
100
AcDbEntity
8
SK1
62
256
6
ByLayer
370
18
48
1
60
0
100
AcDbLine
10
30.54239
20
-0.991327
30
0
11
30.840216
21
-0.991552
31
0
39
0
210
0
220
0
230
1
0
LINE
5
9B
100
AcDbEntity
8
SK1
62
256
6
ByLayer
370
18
48
1
60
0
100
AcDbLine
10
30.840216
20
0.991552
30
0
11
30.54239
21
0.991327
31
0
39
0
210
0
220
0
230
1
0
LINE
5
9C
100
AcDbEntity
8
SK1
62
256
6
ByLayer
370
18
48
1
60
0
100
AcDbLine
10
25.496798
20
0.98753
30
0
11
25.141764
21
0.987262
31
0
39
0
210
0
220
0
230
1
0
LINE
5
9D
100
AcDbEntity
8
SK1
62
256
6
ByLayer
370
18
48
1
60
0
100
AcDbLine
10
20.098225
20
0.983466
30
0
11
19.741463
21
0.983197
31
0
39
0
210
0
220
0
230
1
0
LINE
5
9E
100
AcDbEntity
8
SK1
62
256
6
ByLayer
370
18
48
1
60
0
100
AcDbLine
10
14.699929
20
0.979403
30
0
11
14.341466
21
0.979133
31
0
39
0
210
0
220
0
230
1
0
LINE
5
9F
100
AcDbEntity
8
SK1
62
256
6
ByLayer
370
18
48
1
60
0
100
AcDbLine
10
9.301355
20
0.975339
30
0
11
8.941455
21
0.975068
31
0
39
0
210
0
220
0
230
1
0
LINE
5
A0
100
AcDbEntity
8
SK1
62
256
6
ByLayer
370
18
48
1
60
0
100
AcDbLine
10
5.989896
20
0.972847
30
0
11
1.612
21
0.969551
31
0
39
0
210
0
220
0
230
1
0
LINE
5
A1
100
AcDbEntity
8
SK1
62
256
6
ByLayer
370
18
48
1
60
0
100
AcDbLine
10
1.612
20
0.969551
30
0
11
0.00083
21
1.5
31
0
39
0
210
0
220
0
230
1
0
LINE
5
A2
100
AcDbEntity
8
SK1
62
256
6
ByLayer
370
18
48
1
60
0
100
AcDbLine
10
0.00083
20
-1.5
30
0
11
1.612
21
-0.969551
31
0
39
0
210
0
220
0
230
1
0
LINE
5
A3
100
AcDbEntity
8
SK1
62
256
6
ByLayer
370
18
48
1
60
0
100
AcDbLine
10
-18.477397
20
-1.5
30
0
11
0.00083
21
-1.5
31
0
39
0
210
0
220
0
230
1
0
LINE
5
A4
100
AcDbEntity
8
SK1
62
256
6
ByLayer
370
18
48
1
60
0
100
AcDbLine
10
0.00083
20
1.5
30
0
11
-18.477397
21
1.5
31
0
39
0
210
0
220
0
230
1
0
LINE
5
A5
100
AcDbEntity
8
SK1
62
256
6
ByLayer
370
18
48
1
60
0
100
AcDbLine
10
-18.564
20
-1.35
30
0
11
-18.477397
21
-1.5
31
0
39
0
210
0
220
0
230
1
0
LINE
5
A6
100
AcDbEntity
8
SK1
62
256
6
ByLayer
370
18
48
1
60
0
100
AcDbLine
10
-18.477397
20
1.5
30
0
11
-18.564
21
1.35
31
0
39
0
210
0
220
0
230
1
0
LINE
5
A7
100
AcDbEntity
8
2
62
256
6
ByLayer
370
13
48
1
60
0
100
AcDbLine
10
48.436
20
24.640665
30
0
11
48.436
21
-9.742
31
0
39
0
210
0
220
0
230
1
0
LINE
5
A9
100
AcDbEntity
8
2
62
256
6
ByLayer
370
13
48
1
60
0
100
AcDbLine
10
33.0235
20
0.992
30
0
11
50.436
21
0.992
31
0
39
0
210
0
220
0
230
1
0
LINE
5
AA
100
AcDbEntity
8
2
62
256
6
ByLayer
370
13
48
1
60
0
100
AcDbLine
10
33.0235
20
-0.992
30
0
11
50.436
21
-0.992
31
0
39
0
210
0
220
0
230
1
0
LINE
5
AB
100
AcDbEntity
8
1
62
256
6
ByLayer
370
18
48
1
60
1
100
AcDbLine
10
48.436
20
0.992
30
0
11
47.975216
21
4.491998
31
0
39
0
210
0
220
0
230
1
0
LINE
5
AC
100
AcDbEntity
8
1
62
256
6
ByLayer
370
18
48
1
60
1
100
AcDbLine
10
47.975216
20
4.491998
30
0
11
48.896784
21
4.492002
31
0
39
0
210
0
220
0
230
1
0
LINE
5
AD
100
AcDbEntity
8
1
62
256
6
ByLayer
370
18
48
1
60
1
100
AcDbLine
10
48.896784
20
4.492002
30
0
11
48.436
21
0.992
31
0
39
0
210
0
220
0
230
1
0
LINE
5
AE
100
AcDbEntity
8
1
62
256
6
ByLayer
370
18
48
1
60
1
100
AcDbLine
10
48.436
20
-0.992
30
0
11
48.896784
21
-4.491998
31
0
39
0
210
0
220
0
230
1
0
LINE
5
AF
100
AcDbEntity
8
1
62
256
6
ByLayer
370
18
48
1
60
1
100
AcDbLine
10
48.896784
20
-4.491998
30
0
11
47.975216
21
-4.492002
31
0
39
0
210
0
220
0
230
1
0
LINE
5
B0
100
AcDbEntity
8
1
62
256
6
ByLayer
370
18
48
1
60
1
100
AcDbLine
10
47.975216
20
-4.492002
30
0
11
48.436
21
-0.992
31
0
39
0
210
0
220
0
230
1
0
LINE
5
B1
100
AcDbEntity
8
SK2
62
256
6
ByLayer
370
13
48
1
60
0
100
AcDbLine
10
-26.564
20
10.25
30
0
11
-26.564
21
-23.5
31
0
39
0
210
0
220
0
230
1
0
LINE
5
B3
100
AcDbEntity
8
SK2
62
256
6
ByLayer
370
13
48
1
60
0
100
AcDbLine
10
-20.1515
20
1.5
30
0
11
-28.564
21
1.5
31
0
39
0
210
0
220
0
230
1
0
LINE
5
B4
100
AcDbEntity
8
SK2
62
256
6
ByLayer
370
13
48
1
60
0
100
AcDbLine
10
-20.1515
20
-1.5
30
0
11
-28.564
21
-1.5
31
0
39
0
210
0
220
0
230
1
0
LINE
5
B5
100
AcDbEntity
8
1
62
256
6
ByLayer
370
18
48
1
60
1
100
AcDbLine
10
-26.564
20
1.5
30
0
11
-27.024784
21
4.999998
31
0
39
0
210
0
220
0
230
1
0
LINE
5
B6
100
AcDbEntity
8
1
62
256
6
ByLayer
370
18
48
1
60
1
100
AcDbLine
10
-27.024784
20
4.999998
30
0
11
-26.103216
21
5.000002
31
0
39
0
210
0
220
0
230
1
0
LINE
5
B7
100
AcDbEntity
8
1
62
256
6
ByLayer
370
18
48
1
60
1
100
AcDbLine
10
-26.103216
20
5.000002
30
0
11
-26.564
21
1.5
31
0
39
0
210
0
220
0
230
1
0
LINE
5
B8
100
AcDbEntity
8
1
62
256
6
ByLayer
370
18
48
1
60
1
100
AcDbLine
10
-26.564
20
-1.5
30
0
11
-26.103216
21
-4.999998
31
0
39
0
210
0
220
0
230
1
0
LINE
5
B9
100
AcDbEntity
8
1
62
256
6
ByLayer
370
18
48
1
60
1
100
AcDbLine
10
-26.103216
20
-4.999998
30
0
11
-27.024784
21
-5.000002
31
0
39
0
210
0
220
0
230
1
0
LINE
5
BA
100
AcDbEntity
8
1
62
256
6
ByLayer
370
18
48
1
60
1
100
AcDbLine
10
-27.024784
20
-5.000002
30
0
11
-26.564
21
-1.5
31
0
39
0
210
0
220
0
230
1
0
LINE
5
102
100
AcDbEntity
8
1
62
256
6
ByLayer
370
18
48
1
60
1
100
AcDbLine
10
48.436
20
0.992
30
0
11
47.975216
21
4.491998
31
0
39
0
210
0
220
0
230
1
0
LINE
5
103
100
AcDbEntity
8
1
62
256
6
ByLayer
370
18
48
1
60
1
100
AcDbLine
10
47.975216
20
4.491998
30
0
11
48.896784
21
4.492002
31
0
39
0
210
0
220
0
230
1
0
LINE
5
104
100
AcDbEntity
8
1
62
256
6
ByLayer
370
18
48
1
60
1
100
AcDbLine
10
48.896784
20
4.492002
30
0
11
48.436
21
0.992
31
0
39
0
210
0
220
0
230
1
0
LINE
5
106
100
AcDbEntity
8
1
62
256
6
ByLayer
370
18
48
1
60
1
100
AcDbLine
10
48.436
20
-0.992
30
0
11
48.896784
21
-4.491998
31
0
39
0
210
0
220
0
230
1
0
LINE
5
107
100
AcDbEntity
8
1
62
256
6
ByLayer
370
18
48
1
60
1
100
AcDbLine
10
48.896784
20
-4.491998
30
0
11
47.975216
21
-4.492002
31
0
39
0
210
0
220
0
230
1
0
LINE
5
108
100
AcDbEntity
8
1
62
256
6
ByLayer
370
18
48
1
60
1
100
AcDbLine
10
47.975216
20
-4.492002
30
0
11
48.436
21
-0.992
31
0
39
0
210
0
220
0
230
1
0
LINE
5
10C
100
AcDbEntity
8
1
62
256
6
ByLayer
370
18
48
1
60
1
100
AcDbLine
10
-26.564
20
1.5
30
0
11
-27.024784
21
4.999998
31
0
39
0
210
0
220
0
230
1
0
LINE
5
10D
100
AcDbEntity
8
1
62
256
6
ByLayer
370
18
48
1
60
1
100
AcDbLine
10
-27.024784
20
4.999998
30
0
11
-26.103216
21
5.000002
31
0
39
0
210
0
220
0
230
1
0
LINE
5
10E
100
AcDbEntity
8
1
62
256
6
ByLayer
370
18
48
1
60
1
100
AcDbLine
10
-26.103216
20
5.000002
30
0
11
-26.564
21
1.5
31
0
39
0
210
0
220
0
230
1
0
LINE
5
110
100
AcDbEntity
8
1
62
256
6
ByLayer
370
18
48
1
60
1
100
AcDbLine
10
-26.564
20
-1.5
30
0
11
-26.103216
21
-4.999998
31
0
39
0
210
0
220
0
230
1
0
LINE
5
111
100
AcDbEntity
8
1
62
256
6
ByLayer
370
18
48
1
60
1
100
AcDbLine
10
-26.103216
20
-4.999998
30
0
11
-27.024784
21
-5.000002
31
0
39
0
210
0
220
0
230
1
0
LINE
5
112
100
AcDbEntity
8
1
62
256
6
ByLayer
370
18
48
1
60
1
100
AcDbLine
10
-27.024784
20
-5.000002
30
0
11
-26.564
21
-1.5
31
0
39
0
210
0
220
0
230
1
0
MTEXT
5
FD
100
AcDbEntity
8
2
62
256
6
ByLayer
370
18
48
1
60
0
100
AcDbMText
10
46.871366
20
10.485977
30
0
210
0
220
0
230
1
1
%%c
40
3.5
41
0
44
1.084337
50
90
71
7
72
5
7
iso_b_vert
0
MTEXT
5
100
100
AcDbEntity
8
2
62
256
6
ByLayer
370
18
48
1
60
0
100
AcDbMText
10
46.871366
20
4.1495
30
0
210
0
220
0
230
1
1
\W0.2969; 
40
3.5
41
0
44
1.084337
50
90
71
7
72
5
7
iso_b_vert
0
MTEXT
5
101
100
AcDbEntity
8
2
62
256
6
ByLayer
370
18
48
1
60
0
100
AcDbMText
10
46.871366
20
17.458633
30
0
210
0
220
0
230
1
1
\W0.6563;1.98
40
3.5
41
0
44
1.084337
50
90
71
7
72
5
7
iso_b_vert
0
MTEXT
5
10A
100
AcDbEntity
8
SK2
62
256
6
ByLayer
370
18
48
1
60
0
100
AcDbMText
10
-28.128634
20
-21.565156
30
0
210
0
220
0
230
1
1
%%c
40
3.5
41
0
44
1.084337
50
90
71
7
72
5
7
iso_b_vert
0
MTEXT
5
10B
100
AcDbEntity
8
SK2
62
256
6
ByLayer
370
18
48
1
60
0
100
AcDbMText
10
-28.128634
20
-14.5925
30
0
210
0
220
0
230
1
1
\W0.7346;3.00
40
3.5
41
0
44
1.084337
50
90
71
7
72
5
7
iso_b_vert
0
MTEXT
5
114
100
AcDbEntity
8
SK6
62
256
6
ByLayer
370
18
48
1
60
0
100
AcDbMText
10
-18.3785
20
-59.217366
30
0
210
0
220
0
230
1
1
\W0.7478;862.1-1984-238A0-GM X1DU
40
3.5
41
0
44
1.084337
50
0
71
7
72
5
7
iso_b_vert
0
HATCH
5
105
100
AcDbEntity
8
2
62
256
6
ByLayer
370
13
48
1
60
0
100
AcDbHatch
10
0
20
0
30
0
210
0
220
0
230
1
2
ANSI31
70
0
71
0
91
1
92
5
93
3
72
1
10
48.436
20
0.992000000000019
11
47.9752162584472
21
4.49199830744683
72
1
10
47.9752162584472
20
4.49199830744683
11
48.8967837415528
21
4.4920016925532
72
1
10
48.8967837415528
20
4.4920016925532
11
48.436
21
0.992000000000019
97
0
75
0
76
1
52
0
41
0.0062
77
0
78
1
53
45
43
0
44
0
45
-0.0139193969876572
46
0.0139193969876572
79
0
47
0
98
1
10
0
20
0
0
HATCH
5
109
100
AcDbEntity
8
2
62
256
6
ByLayer
370
13
48
1
60
0
100
AcDbHatch
10
0
20
0
30
0
210
0
220
0
230
1
2
ANSI31
70
0
71
0
91
1
92
5
93
3
72
1
10
48.436
20
-0.991999999999962
11
48.8967837415528
21
-4.49199830744678
72
1
10
48.8967837415528
20
-4.49199830744678
11
47.9752162584472
21
-4.49200169255315
72
1
10
47.9752162584472
20
-4.49200169255315
11
48.436
21
-0.991999999999962
97
0
75
0
76
1
52
0
41
0.0062
77
0
78
1
53
45
43
0
44
0
45
-0.0139193969876572
46
0.0139193969876572
79
0
47
0
98
1
10
0
20
0
0
HATCH
5
10F
100
AcDbEntity
8
SK2
62
256
6
ByLayer
370
13
48
1
60
0
100
AcDbHatch
10
0
20
0
30
0
210
0
220
0
230
1
2
ANSI31
70
0
71
0
91
1
92
5
93
3
72
1
10
-26.564
20
1.49999999999997
11
-27.0247837415528
21
4.99999830744679
72
1
10
-27.0247837415528
20
4.99999830744679
11
-26.1032162584472
21
5.00000169255316
72
1
10
-26.1032162584472
20
5.00000169255316
11
-26.564
21
1.49999999999997
97
0
75
0
76
1
52
0
41
0.0062
77
0
78
1
53
45
43
0
44
0
45
-0.0139193969876572
46
0.0139193969876572
79
0
47
0
98
1
10
0
20
0
0
HATCH
5
113
100
AcDbEntity
8
SK2
62
256
6
ByLayer
370
13
48
1
60
0
100
AcDbHatch
10
0
20
0
30
0
210
0
220
0
230
1
2
ANSI31
70
0
71
0
91
1
92
5
93
3
72
1
10
-26.564
20
-1.50000000000003
11
-26.1032162584472
21
-4.99999830744684
72
1
10
-26.1032162584472
20
-4.99999830744684
11
-27.0247837415528
21
-5.00000169255321
72
1
10
-27.0247837415528
20
-5.00000169255321
11
-26.564
21
-1.50000000000003
97
0
75
0
76
1
52
0
41
0.0062
77
0
78
1
53
45
43
0
44
0
45
-0.0139193969876572
46
0.0139193969876572
79
0
47
0
98
1
10
0
20
0
0
DIMENSION
5
117
100
AcDbEntity
8
2
62
256
6
ByLayer
370
18
48
1
60
0
100
AcDbDimension
2
_U0
10
30.84
20
22.258
30
0
11
22.421199
21
22.258
31
0
70
32
71
1
72
1
41
1
210
0
220
0
230
1
3
Standard
100
AcDbAlignedDimension
13
0
23
-1.5
33
0
14
30.84
24
-0.992
34
0
50
0
100
AcDbRotatedDimension
1001
ACAD
1000
DSTYLE
1002
{
1070
   371
1070
    13
1070
   372
1070
    13
1070
   170
1070
     0
1070
   144
1040
1.0
1070
   277
1070
     2
1070
   284
1070
     8
1070
   278
1070
    46
1070
   146
1040
1.0
1070
   345
1005
16
1070
   347
1005
16
1070
   346
1005
16
1070
   344
1005
0
1070
   343
1005
0
1070
   172
1070
     1
1070
    76
1070
     0
1070
    75
1070
     0
1070
   282
1070
     0
1070
   281
1070
     0
1070
    71
1070
     0
1070
    74
1070
     0
1070
   279
1070
     0
1070
   173
1070
     1
1070
   340
1005
FE
1070
   271
1070
     2
1070
   272
1070
     2
1070
    77
1070
     1
1070
    73
1070
     1
1070
   171
1070
     3
1070
   274
1070
     4
1070
   177
1070
     2
1070
   176
1070
     2
1070
   178
1070
     2
1070
    78
1070
     8
1070
    48
1040
-0.1
1070
    41
1040
3.5
1070
   147
1040
1.75
1070
    42
1040
1.5875
1070
    44
1040
2.0
1070
   140
1040
3.5
1002
}
1001
ACAD_DSTYLE_DIM_LINETYPE
1070
   380
1005
16
1001
ACAD_DSTYLE_DIM_EXT1_LINETYPE
1070
   381
1005
16
1001
ACAD_DSTYLE_DIM_EXT2_LINETYPE
1070
   382
1005
16
0
DIMENSION
5
130
100
AcDbEntity
8
SK2
62
256
6
ByLayer
370
18
48
1
60
0
100
AcDbDimension
2
_U1
10
0
20
-23.25
30
0
11
-7.586501
21
-23.25
31
0
70
32
71
1
72
1
41
1
210
0
220
0
230
1
3
Standard
100
AcDbAlignedDimension
13
-18.564
23
-1.5
33
0
14
0
24
-1.5
34
0
50
0
100
AcDbRotatedDimension
1001
ACAD
1000
DSTYLE
1002
{
1070
   371
1070
    13
1070
   372
1070
    13
1070
   170
1070
     0
1070
   144
1040
1.0
1070
   277
1070
     2
1070
   284
1070
     8
1070
   278
1070
    46
1070
   146
1040
1.0
1070
   345
1005
16
1070
   347
1005
16
1070
   346
1005
16
1070
   344
1005
0
1070
   343
1005
0
1070
   172
1070
     1
1070
    76
1070
     0
1070
    75
1070
     0
1070
   282
1070
     0
1070
   281
1070
     0
1070
    71
1070
     0
1070
    74
1070
     0
1070
   279
1070
     0
1070
   173
1070
     1
1070
   340
1005
FE
1070
   271
1070
     2
1070
   272
1070
     2
1070
    77
1070
     1
1070
    73
1070
     1
1070
   171
1070
     3
1070
   274
1070
     4
1070
   177
1070
     2
1070
   176
1070
     2
1070
   178
1070
     2
1070
    78
1070
     8
1070
    48
1040
-0.1
1070
    41
1040
3.5
1070
   147
1040
1.75
1070
    42
1040
1.5875
1070
    44
1040
2.0
1070
   140
1040
3.5
1002
}
1001
ACAD_DSTYLE_DIM_LINETYPE
1070
   380
1005
16
1001
ACAD_DSTYLE_DIM_EXT1_LINETYPE
1070
   381
1005
16
1001
ACAD_DSTYLE_DIM_EXT2_LINETYPE
1070
   382
1005
16
0
DIMENSION
5
148
100
AcDbEntity
8
SK2
62
256
6
ByLayer
370
18
48
1
60
0
100
AcDbDimension
2
_U2
10
31.436
20
-16.242
30
0
11
46.686
21
-16.242
31
0
70
32
71
1
72
1
41
1
210
0
220
0
230
1
3
Standard
100
AcDbAlignedDimension
13
7.628
23
-0.992
33
0
14
31.436
24
-0.992
34
0
50
0
100
AcDbRotatedDimension
1001
ACAD
1000
DSTYLE
1002
{
1070
   371
1070
    13
1070
   372
1070
    13
1070
   170
1070
     0
1070
   144
1040
1.0
1070
   277
1070
     2
1070
   284
1070
     8
1070
   278
1070
    46
1070
   146
1040
1.0
1070
   345
1005
16
1070
   347
1005
16
1070
   346
1005
16
1070
   344
1005
0
1070
   343
1005
0
1070
   172
1070
     1
1070
    76
1070
     0
1070
    75
1070
     0
1070
   282
1070
     0
1070
   281
1070
     0
1070
    71
1070
     0
1070
    74
1070
     0
1070
   279
1070
     0
1070
   173
1070
     1
1070
   340
1005
FE
1070
   271
1070
     2
1070
   272
1070
     2
1070
    77
1070
     1
1070
    73
1070
     1
1070
   171
1070
     3
1070
   274
1070
     4
1070
   177
1070
     2
1070
   176
1070
     2
1070
   178
1070
     2
1070
    78
1070
     8
1070
    48
1040
-0.1
1070
    41
1040
3.5
1070
   147
1040
1.75
1070
    42
1040
1.5875
1070
    44
1040
2.0
1070
   140
1040
3.5
1002
}
1001
ACAD_DSTYLE_DIM_LINETYPE
1070
   380
1005
16
1001
ACAD_DSTYLE_DIM_EXT1_LINETYPE
1070
   381
1005
16
1001
ACAD_DSTYLE_DIM_EXT2_LINETYPE
1070
   382
1005
16
0
DIMENSION
5
161
100
AcDbEntity
8
SK2
62
256
6
ByLayer
370
18
48
1
60
0
100
AcDbDimension
2
_U3
10
31.436
20
-26.242
30
0
11
47.269333
21
-26.242
31
0
70
32
71
1
72
1
41
1
210
0
220
0
230
1
3
Standard
100
AcDbAlignedDimension
13
4.192
23
-0.992
33
0
14
31.436
24
-0.992
34
0
50
0
100
AcDbRotatedDimension
1001
ACAD
1000
DSTYLE
1002
{
1070
   371
1070
    13
1070
   372
1070
    13
1070
   170
1070
     0
1070
   144
1040
1.0
1070
   277
1070
     2
1070
   284
1070
     8
1070
   278
1070
    46
1070
   146
1040
1.0
1070
   345
1005
16
1070
   347
1005
16
1070
   346
1005
16
1070
   344
1005
0
1070
   343
1005
0
1070
   172
1070
     1
1070
    76
1070
     0
1070
    75
1070
     0
1070
   282
1070
     0
1070
   281
1070
     0
1070
    71
1070
     0
1070
    74
1070
     0
1070
   279
1070
     0
1070
   173
1070
     1
1070
   340
1005
FE
1070
   271
1070
     2
1070
   272
1070
     2
1070
    77
1070
     1
1070
    73
1070
     1
1070
   171
1070
     3
1070
   274
1070
     4
1070
   177
1070
     2
1070
   176
1070
     2
1070
   178
1070
     2
1070
    78
1070
     8
1070
    48
1040
-0.1
1070
    41
1040
3.5
1070
   147
1040
1.75
1070
    42
1040
1.5875
1070
    44
1040
2.0
1070
   140
1040
3.5
1002
}
1001
ACAD_DSTYLE_DIM_LINETYPE
1070
   380
1005
16
1001
ACAD_DSTYLE_DIM_EXT1_LINETYPE
1070
   381
1005
16
1001
ACAD_DSTYLE_DIM_EXT2_LINETYPE
1070
   382
1005
16
0
DIMENSION
5
17A
100
AcDbEntity
8
SK2
62
256
6
ByLayer
370
18
48
1
60
0
100
AcDbDimension
2
_U4
10
31.436
20
-34.6
30
0
11
6.436
21
-34.6
31
0
70
32
71
1
72
1
41
1
210
0
220
0
230
1
3
Standard
100
AcDbAlignedDimension
13
-18.564
23
1.5
33
0
14
31.436
24
0.992
34
0
50
0
100
AcDbRotatedDimension
1001
ACAD
1000
DSTYLE
1002
{
1070
   371
1070
    13
1070
   372
1070
    13
1070
     3
1000

1070
   170
1070
     0
1070
   144
1040
1.0
1070
   277
1070
     2
1070
   284
1070
     8
1070
   278
1070
    46
1070
   146
1040
1.0
1070
   345
1005
16
1070
   347
1005
16
1070
   346
1005
16
1070
   344
1005
0
1070
   343
1005
0
1070
   172
1070
     1
1070
    76
1070
     0
1070
    75
1070
     0
1070
   282
1070
     0
1070
   281
1070
     0
1070
    71
1070
     0
1070
    74
1070
     0
1070
   279
1070
     0
1070
   173
1070
     1
1070
   340
1005
FE
1070
   271
1070
     2
1070
   272
1070
     2
1070
    77
1070
     1
1070
    73
1070
     1
1070
   171
1070
     3
1070
   274
1070
     4
1070
   177
1070
     2
1070
   176
1070
     2
1070
   178
1070
     2
1070
    78
1070
     8
1070
    48
1040
-0.1
1070
    41
1040
3.5
1070
   147
1040
1.75
1070
    42
1040
1.5875
1070
    44
1040
2.0
1070
   140
1040
3.5
1002
}
1001
ACAD_DSTYLE_DIM_LINETYPE
1070
   380
1005
16
1001
ACAD_DSTYLE_DIM_EXT1_LINETYPE
1070
   381
1005
16
1001
ACAD_DSTYLE_DIM_EXT2_LINETYPE
1070
   382
1005
16
0
ENDSEC
0
SECTION
2
OBJECTS
0
DICTIONARY
5
204
330
0
100
AcDbDictionary
280
0
281
1
3
ACAD_GROUP
350
205
3
ACAD_MLINESTYLE
350
206
0
DICTIONARY
5
205
330
0
100
AcDbDictionary
280
0
281
1
0
DICTIONARY
5
206
330
0
100
AcDbDictionary
280
0
281
1
3
Standard
350
18
0
MLINESTYLE
5
18
330
206
100
AcDbMlineStyle
2
Standard
70
0
3

62
256
51
90
52
90
71
2
49
-0.5
62
256
6
ByLayer
49
0.5
62
256
6
ByLayer
0
RASTERVARIABLES
5
1f2
330

100
AcDbRasterVariables
90
0
70
1
71
1
72
1
0
ENDSEC
0
EOF
