0
SECTION
2
HEADER
9
$ACADVER
1
AC1015
9
$DWGCODEPAGE
3
ANSI_1252
9
$HANDSEED
5
1f4
9
$ANGBASE
50
0
9
$ANGDIR
70
0
9
$ATTMODE
70
1
9
$AUNITS
70
0
9
$AUPREC
70
0
9
$CECOLOR
62
256
9
$CELTSCALE
40
1
9
$CELTYPE
6
ByLayer
9
$CELWEIGHT
370
18
9
$CLAYER
8
0
9
$CMLJUST
70
0
9
$CMLSCALE
40
1
9
$CMLSTYLE
2
Standard
9
$DIMSTYLE
2
Standard
9
$TEXTSIZE
40
0.2
9
$TEXTSTYLE
7
Standard
9
$LUNITS
70
2
9
$LUPREC
70
4
9
$EXTNAMES
290
1
9
$INSUNITS
70
4
9
$LTSCALE
40
1
9
$LWDISPLAY
290
1
9
$PDMODE
70
0
9
$PDSIZE
40
0
9
$PLINEGEN
70
0
0
ENDSEC
0
SECTION
2
CLASSES
0
CLASS
1
RASTERVARIABLES
2
AcDbRasterVariables
3
ISM
90
0
280
0
281
0
0
ENDSEC
0
SECTION
2
TABLES
0
TABLE
2
VPORT
5
1ea
100
AcDbSymbolTable
0
VPORT
5
1
100
AcDbSymbolTableRecord
100
AcDbViewportTableRecord
2
*Active
70
0
10
0
20
0
11
1
21
1
12
-1
22
1
13
0
23
0
14
0.5
24
0.5
15
10
25
10
16
0
26
0
36
1
17
0
27
0
37
0
0
ENDTAB
0
TABLE
2
LTYPE
5
1eb
100
AcDbSymbolTable
0
LTYPE
5
14
100
AcDbSymbolTableRecord
100
AcDbLinetypeTableRecord
70
0
2
ByBlock
3

72
65
73
0
40
0
0
LTYPE
5
15
100
AcDbSymbolTableRecord
100
AcDbLinetypeTableRecord
70
0
2
ByLayer
3

72
65
73
0
40
0
0
LTYPE
5
16
100
AcDbSymbolTableRecord
100
AcDbLinetypeTableRecord
70
0
2
Continuous
3
Solid line
72
65
73
0
40
0
0
LTYPE
5
6E
100
AcDbSymbolTableRecord
100
AcDbLinetypeTableRecord
70
0
2
CENTER
3
____ _ ____ _ ____ _ ____
72
65
73
4
40
47.5
49
22
74
0
49
-8.5
74
0
49
8.5
74
0
49
-8.5
74
0
0
LTYPE
5
6F
100
AcDbSymbolTableRecord
100
AcDbLinetypeTableRecord
70
0
2
DASHED
3
__ __ __ __ __ __ __ __ __
72
65
73
2
40
25.72
49
12.86
74
0
49
-12.86
74
0
0
ENDTAB
0
TABLE
2
LAYER
5
1ec
100
AcDbSymbolTable
0
LAYER
5
10
100
AcDbSymbolTableRecord
100
AcDbLayerTableRecord
2
0
70
0
62
7
6
Continuous
290
1
370
-3
390
0
0
LAYER
5
71
100
AcDbSymbolTableRecord
100
AcDbLayerTableRecord
2
80
70
0
62
-6
6
Continuous
290
1
370
-3
390
0
0
LAYER
5
73
100
AcDbSymbolTableRecord
100
AcDbLayerTableRecord
2
81
70
0
62
-3
6
Continuous
290
1
370
-3
390
0
0
LAYER
5
75
100
AcDbSymbolTableRecord
100
AcDbLayerTableRecord
2
1
70
0
62
4
6
Continuous
290
1
370
-3
390
0
0
LAYER
5
84
100
AcDbSymbolTableRecord
100
AcDbLayerTableRecord
2
4
70
0
62
-2
6
CENTER
290
1
370
-3
390
0
0
LAYER
5
AC
100
AcDbSymbolTableRecord
100
AcDbLayerTableRecord
2
2
70
0
62
7
6
Continuous
290
1
370
-3
390
0
0
LAYER
5
F9
100
AcDbSymbolTableRecord
100
AcDbLayerTableRecord
2
Defpoints
70
0
62
7
6
Continuous
290
0
370
-3
390
0
0
LAYER
5
1d6
100
AcDbSymbolTableRecord
100
AcDbLayerTableRecord
2
SK4
70
0
62
2
6
CENTER
290
1
370
-3
390
0
0
LAYER
5
1d7
100
AcDbSymbolTableRecord
100
AcDbLayerTableRecord
2
SK1
70
0
62
4
6
Continuous
290
1
370
-3
390
0
0
LAYER
5
1d8
100
AcDbSymbolTableRecord
100
AcDbLayerTableRecord
2
SK2
70
0
62
7
6
Continuous
290
1
370
-3
390
0
0
LAYER
5
1d9
100
AcDbSymbolTableRecord
100
AcDbLayerTableRecord
2
SK6
70
0
62
5
6
Continuous
290
1
370
-3
390
0
0
ENDTAB
0
TABLE
2
STYLE
5
1ed
100
AcDbSymbolTable
0
STYLE
5
11
100
AcDbSymbolTableRecord
100
AcDbTextStyleTableRecord
2
Standard
3
txt
70
0
71
0
40
0
41
1
42
0
50
0
0
STYLE
5
DD
100
AcDbSymbolTableRecord
100
AcDbTextStyleTableRecord
2
iso_b_vert
3
simplex.shx
70
0
71
0
40
0
41
1
42
0
50
0
0
STYLE
5
DE
100
AcDbSymbolTableRecord
100
AcDbTextStyleTableRecord
2
DWGDirectTextStyle
3
simplex
70
0
71
0
40
0
41
1
42
0
50
0
0
ENDTAB
0
TABLE
2
DIMSTYLE
5
1ee
100
AcDbSymbolTable
100
AcDbDimStyleTable
0
DIMSTYLE
105
27
100
AcDbSymbolTableRecord
100
AcDbDimStyleTableRecord
2
Standard
70
0
3
<>
41
0.18
42
0.0625
44
0.18
140
0.18
147
0.09
73
0
74
0
77
1
271
2
275
0
278
52
280
0
340
11
0
ENDTAB
0
TABLE
2
VIEW
5
1ef
100
AcDbSymbolTable
0
ENDTAB
0
TABLE
2
UCS
5
1f0
100
AcDbSymbolTable
0
ENDTAB
0
TABLE
2
APPID
5
1f1
100
AcDbSymbolTable
0
APPID
5
12
100
AcDbSymbolTableRecord
100
AcDbRegAppTableRecord
2
ACAD
70
0
0
APPID
5
F5
100
AcDbSymbolTableRecord
100
AcDbRegAppTableRecord
2
ACAD_DSTYLE_DIMBREAK
70
0
0
APPID
5
195
100
AcDbSymbolTableRecord
100
AcDbRegAppTableRecord
2
ACAD_DSTYLE_DIM_LINETYPE
70
0
0
APPID
5
196
100
AcDbSymbolTableRecord
100
AcDbRegAppTableRecord
2
ACAD_DSTYLE_DIM_EXT1_LINETYPE
70
0
0
APPID
5
197
100
AcDbSymbolTableRecord
100
AcDbRegAppTableRecord
2
ACAD_DSTYLE_DIM_EXT2_LINETYPE
70
0
0
APPID
5
1D2
100
AcDbSymbolTableRecord
100
AcDbRegAppTableRecord
2
ACAD_MLEADERVER
70
0
0
ENDTAB
0
TABLE
2
BLOCK_RECORD
5
1f2
100
AcDbSymbolTable
0
BLOCK_RECORD
5
1F
100
AcDbSymbolTableRecord
100
AcDbBlockTableRecord
2
*Model_Space
340
0
70
0
0
BLOCK_RECORD
5
1B
100
AcDbSymbolTableRecord
100
AcDbBlockTableRecord
2
*Paper_Space
340
0
70
0
0
BLOCK_RECORD
5
23
100
AcDbSymbolTableRecord
100
AcDbBlockTableRecord
2
*Paper_Space0
340
0
70
0
0
BLOCK_RECORD
5
FA
100
AcDbSymbolTableRecord
100
AcDbBlockTableRecord
2
*D1
340
0
70
0
0
BLOCK_RECORD
5
108
100
AcDbSymbolTableRecord
100
AcDbBlockTableRecord
2
_U0
340
0
70
0
0
BLOCK_RECORD
5
114
100
AcDbSymbolTableRecord
100
AcDbBlockTableRecord
2
*D3
340
0
70
0
0
BLOCK_RECORD
5
120
100
AcDbSymbolTableRecord
100
AcDbBlockTableRecord
2
_U1
340
0
70
0
0
BLOCK_RECORD
5
12C
100
AcDbSymbolTableRecord
100
AcDbBlockTableRecord
2
*D5
340
0
70
0
0
BLOCK_RECORD
5
13A
100
AcDbSymbolTableRecord
100
AcDbBlockTableRecord
2
_U2
340
0
70
0
0
BLOCK_RECORD
5
146
100
AcDbSymbolTableRecord
100
AcDbBlockTableRecord
2
*D7
340
0
70
0
0
BLOCK_RECORD
5
154
100
AcDbSymbolTableRecord
100
AcDbBlockTableRecord
2
_U3
340
0
70
0
0
BLOCK_RECORD
5
160
100
AcDbSymbolTableRecord
100
AcDbBlockTableRecord
2
*D9
340
0
70
0
0
BLOCK_RECORD
5
16C
100
AcDbSymbolTableRecord
100
AcDbBlockTableRecord
2
_U4
340
0
70
0
0
ENDTAB
0
ENDSEC
0
SECTION
2
BLOCKS
0
BLOCK
5
20
100
AcDbEntity
8
0
100
AcDbBlockBegin
2
*Model_Space
70
0
10
0
20
0
30
0
3
*Model_Space
0
ENDBLK
5
21
100
AcDbEntity
8
0
100
AcDbBlockEnd
0
BLOCK
5
1C
100
AcDbEntity
8
0
100
AcDbBlockBegin
2
*Paper_Space
70
0
10
0
20
0
30
0
3
*Paper_Space
0
ENDBLK
5
1D
100
AcDbEntity
8
0
100
AcDbBlockEnd
0
BLOCK
5
24
100
AcDbEntity
8
0
100
AcDbBlockBegin
2
*Paper_Space0
70
0
10
0
20
0
30
0
3
*Paper_Space0
0
ENDBLK
5
25
100
AcDbEntity
8
0
100
AcDbBlockEnd
0
BLOCK
5
FB
100
AcDbEntity
8
0
100
AcDbBlockBegin
2
*D1
70
1
10
0
20
0
30
0
3
*D1
0
LINE
5
FD
100
AcDbEntity
8
0
62
256
6
ByLayer
370
-2
48
1
60
0
100
AcDbLine
10
0
20
0.0875
30
0
11
0
21
25.0515
31
0
39
0
210
0
220
0
230
1
0
LINE
5
FE
100
AcDbEntity
8
0
62
256
6
ByLayer
370
-2
48
1
60
0
100
AcDbLine
10
12.402
20
1.389
30
0
11
12.402
21
25.0515
31
0
39
0
210
0
220
0
230
1
0
LINE
5
FF
100
AcDbEntity
8
0
62
256
6
ByLayer
370
-2
48
1
60
0
100
AcDbLine
10
12.402
20
23.0515
30
0
11
40.235333
21
23.0515
31
0
39
0
210
0
220
0
230
1
0
LINE
5
100
100
AcDbEntity
8
0
62
256
6
ByLayer
370
-2
48
1
60
0
100
AcDbLine
10
-3.5
20
23.0515
30
0
11
-7
21
23.0515
31
0
39
0
210
0
220
0
230
1
0
LINE
5
101
100
AcDbEntity
8
0
62
256
6
ByLayer
370
-2
48
1
60
0
100
AcDbLine
10
15.902
20
23.0515
30
0
11
19.402
21
23.0515
31
0
39
0
210
0
220
0
230
1
0
SOLID
5
102
100
AcDbEntity
8
0
62
256
6
ByLayer
370
-1
48
1
60
0
100
AcDbTrace
10
-3.5
20
22.468167
30
0
11
-3.5
21
23.634833
31
0
12
0
22
23.0515
32
0
13
0
23
23.0515
33
0
39
0
210
0
220
0
230
1
0
SOLID
5
103
100
AcDbEntity
8
0
62
256
6
ByLayer
370
-1
48
1
60
0
100
AcDbTrace
10
15.902
20
23.634833
30
0
11
15.902
21
22.468167
31
0
12
12.402
22
23.0515
32
0
13
12.402
23
23.0515
33
0
39
0
210
0
220
0
230
1
0
MTEXT
5
104
100
AcDbEntity
8
0
62
256
6
ByLayer
370
18
48
1
60
0
100
AcDbMText
10
29.818667
20
30.0515
30
0
210
0
220
0
230
1
1
\A1;12.4
40
3.5
41
0
44
1
50
0
71
5
72
5
7
iso_b_vert
0
POINT
5
105
100
AcDbEntity
8
Defpoints
62
0
6
ByLayer
370
-1
48
1
60
0
100
AcDbPoint
10
0
20
-1.5
30
0
39
0
210
0
220
0
230
1
50
360
0
POINT
5
106
100
AcDbEntity
8
Defpoints
62
0
6
ByLayer
370
-1
48
1
60
0
100
AcDbPoint
10
12.402
20
-0.1985
30
0
39
0
210
0
220
0
230
1
50
360
0
POINT
5
107
100
AcDbEntity
8
Defpoints
62
0
6
ByLayer
370
-1
48
1
60
0
100
AcDbPoint
10
12.402
20
23.0515
30
0
39
0
210
0
220
0
230
1
50
360
0
ENDBLK
5
FC
100
AcDbEntity
8
0
100
AcDbBlockEnd
0
BLOCK
5
10F
100
AcDbEntity
8
0
100
AcDbBlockBegin
2
_U0
70
0
10
0
20
0
30
0
3
_U0
0
MTEXT
5
109
100
AcDbEntity
8
2
62
256
6
ByLayer
370
18
48
1
60
0
100
AcDbMText
10
9.782
20
24.084134
30
0
210
0
220
0
230
1
1
\W0.6756;12.4
40
3.5
41
0
44
1.084337
50
0
71
7
72
5
7
iso_b_vert
0
LINE
5
10A
100
AcDbEntity
8
2
62
256
6
ByLayer
370
13
48
1
60
0
100
AcDbLine
10
0
20
0.0875
30
0
11
0
21
25.0515
31
0
39
0
210
0
220
0
230
1
0
LINE
5
10B
100
AcDbEntity
8
2
62
256
6
ByLayer
370
13
48
1
60
0
100
AcDbLine
10
12.402
20
1.389
30
0
11
12.402
21
25.0515
31
0
39
0
210
0
220
0
230
1
0
LINE
5
10C
100
AcDbEntity
8
2
62
256
6
ByLayer
370
13
48
1
60
0
100
AcDbLine
10
0
20
23.0515
30
0
11
17.304565
21
23.0515
31
0
39
0
210
0
220
0
230
1
0
SOLID
5
10D
100
AcDbEntity
8
2
62
256
6
ByLayer
370
18
48
1
60
0
100
AcDbTrace
10
0
20
23.0515
30
0
11
3.499998
21
23.512284
31
0
12
3.500002
22
22.590716
32
0
13
3.500002
23
22.590716
33
0
39
0
210
0
220
0
230
1
0
SOLID
5
10E
100
AcDbEntity
8
2
62
256
6
ByLayer
370
18
48
1
60
0
100
AcDbTrace
10
12.402
20
23.0515
30
0
11
8.902002
21
22.590716
31
0
12
8.901998
22
23.512284
32
0
13
8.901998
23
23.512284
33
0
39
0
210
0
220
0
230
1
0
ENDBLK
5
110
100
AcDbEntity
8
0
100
AcDbBlockEnd
0
BLOCK
5
115
100
AcDbEntity
8
0
100
AcDbBlockBegin
2
*D3
70
1
10
0
20
0
30
0
3
*D3
0
LINE
5
117
100
AcDbEntity
8
0
62
256
6
ByLayer
370
-2
48
1
60
0
100
AcDbLine
10
-24.979
20
-3.0875
30
0
11
-24.979
21
-25.25
31
0
39
0
210
0
220
0
230
1
0
LINE
5
118
100
AcDbEntity
8
0
62
256
6
ByLayer
370
-2
48
1
60
0
100
AcDbLine
10
0
20
-3.0875
30
0
11
0
21
-25.25
31
0
39
0
210
0
220
0
230
1
0
LINE
5
119
100
AcDbEntity
8
0
62
256
6
ByLayer
370
-2
48
1
60
0
100
AcDbLine
10
-21.479
20
-23.25
30
0
11
-3.5
21
-23.25
31
0
39
0
210
0
220
0
230
1
0
SOLID
5
11A
100
AcDbEntity
8
0
62
256
6
ByLayer
370
-1
48
1
60
0
100
AcDbTrace
10
-21.479
20
-22.666667
30
0
11
-21.479
21
-23.833333
31
0
12
-24.979
22
-23.25
32
0
13
-24.979
23
-23.25
33
0
39
0
210
0
220
0
230
1
0
SOLID
5
11B
100
AcDbEntity
8
0
62
256
6
ByLayer
370
-1
48
1
60
0
100
AcDbTrace
10
-3.5
20
-23.833333
30
0
11
-3.5
21
-22.666667
31
0
12
0
22
-23.25
32
0
13
0
23
-23.25
33
0
39
0
210
0
220
0
230
1
0
MTEXT
5
11C
100
AcDbEntity
8
0
62
256
6
ByLayer
370
18
48
1
60
0
100
AcDbMText
10
-13.379801
20
-16.25
30
0
210
0
220
0
230
1
1
\A1;24.98
40
3.5
41
0
44
1
50
0
71
5
72
5
7
iso_b_vert
0
POINT
5
11D
100
AcDbEntity
8
Defpoints
62
0
6
ByLayer
370
-1
48
1
60
0
100
AcDbPoint
10
-24.979
20
-1.5
30
0
39
0
210
0
220
0
230
1
50
360
0
POINT
5
11E
100
AcDbEntity
8
Defpoints
62
0
6
ByLayer
370
-1
48
1
60
0
100
AcDbPoint
10
0
20
-1.5
30
0
39
0
210
0
220
0
230
1
50
360
0
POINT
5
11F
100
AcDbEntity
8
Defpoints
62
0
6
ByLayer
370
-1
48
1
60
0
100
AcDbPoint
10
0
20
-23.25
30
0
39
0
210
0
220
0
230
1
50
360
0
ENDBLK
5
116
100
AcDbEntity
8
0
100
AcDbBlockEnd
0
BLOCK
5
127
100
AcDbEntity
8
0
100
AcDbBlockBegin
2
_U1
70
0
10
0
20
0
30
0
3
_U1
0
MTEXT
5
121
100
AcDbEntity
8
SK2
62
256
6
ByLayer
370
18
48
1
60
0
100
AcDbMText
10
-18.7935
20
-22.217366
30
0
210
0
220
0
230
1
1
\W0.7694;24.98
40
3.5
41
0
44
1.084337
50
0
71
7
72
5
7
iso_b_vert
0
LINE
5
122
100
AcDbEntity
8
SK2
62
256
6
ByLayer
370
13
48
1
60
0
100
AcDbLine
10
-24.979
20
-3.0875
30
0
11
-24.979
21
-25.25
31
0
39
0
210
0
220
0
230
1
0
LINE
5
123
100
AcDbEntity
8
SK2
62
256
6
ByLayer
370
13
48
1
60
0
100
AcDbLine
10
0
20
-3.0875
30
0
11
0
21
-25.25
31
0
39
0
210
0
220
0
230
1
0
LINE
5
124
100
AcDbEntity
8
SK2
62
256
6
ByLayer
370
13
48
1
60
0
100
AcDbLine
10
-24.979
20
-23.25
30
0
11
0
21
-23.25
31
0
39
0
210
0
220
0
230
1
0
SOLID
5
125
100
AcDbEntity
8
SK2
62
256
6
ByLayer
370
18
48
1
60
0
100
AcDbTrace
10
-24.979
20
-23.25
30
0
11
-21.479002
21
-22.789216
31
0
12
-21.478998
22
-23.710784
32
0
13
-21.478998
23
-23.710784
33
0
39
0
210
0
220
0
230
1
0
SOLID
5
126
100
AcDbEntity
8
SK2
62
256
6
ByLayer
370
18
48
1
60
0
100
AcDbTrace
10
0
20
-23.25
30
0
11
-3.499998
21
-23.710784
31
0
12
-3.500002
22
-22.789216
32
0
13
-3.500002
23
-22.789216
33
0
39
0
210
0
220
0
230
1
0
ENDBLK
5
128
100
AcDbEntity
8
0
100
AcDbBlockEnd
0
BLOCK
5
12D
100
AcDbEntity
8
0
100
AcDbBlockBegin
2
*D5
70
1
10
0
20
0
30
0
3
*D5
0
LINE
5
12F
100
AcDbEntity
8
0
62
256
6
ByLayer
370
-2
48
1
60
0
100
AcDbLine
10
7.757
20
-1.786
30
0
11
7.757
21
-17.4485
31
0
39
0
210
0
220
0
230
1
0
LINE
5
130
100
AcDbEntity
8
0
62
256
6
ByLayer
370
-2
48
1
60
0
100
AcDbLine
10
12.521
20
-1.786
30
0
11
12.521
21
-17.4485
31
0
39
0
210
0
220
0
230
1
0
LINE
5
131
100
AcDbEntity
8
0
62
256
6
ByLayer
370
-2
48
1
60
0
100
AcDbLine
10
12.521
20
-15.4485
30
0
11
40.687667
21
-15.4485
31
0
39
0
210
0
220
0
230
1
0
LINE
5
132
100
AcDbEntity
8
0
62
256
6
ByLayer
370
-2
48
1
60
0
100
AcDbLine
10
4.257
20
-15.4485
30
0
11
0.757
21
-15.4485
31
0
39
0
210
0
220
0
230
1
0
LINE
5
133
100
AcDbEntity
8
0
62
256
6
ByLayer
370
-2
48
1
60
0
100
AcDbLine
10
16.021
20
-15.4485
30
0
11
19.521
21
-15.4485
31
0
39
0
210
0
220
0
230
1
0
SOLID
5
134
100
AcDbEntity
8
0
62
256
6
ByLayer
370
-1
48
1
60
0
100
AcDbTrace
10
4.257
20
-16.031833
30
0
11
4.257
21
-14.865167
31
0
12
7.757
22
-15.4485
32
0
13
7.757
23
-15.4485
33
0
39
0
210
0
220
0
230
1
0
SOLID
5
135
100
AcDbEntity
8
0
62
256
6
ByLayer
370
-1
48
1
60
0
100
AcDbTrace
10
16.021
20
-14.865167
30
0
11
16.021
21
-16.031833
31
0
12
12.521
22
-15.4485
32
0
13
12.521
23
-15.4485
33
0
39
0
210
0
220
0
230
1
0
MTEXT
5
136
100
AcDbEntity
8
0
62
256
6
ByLayer
370
18
48
1
60
0
100
AcDbMText
10
30.104333
20
-8.4485
30
0
210
0
220
0
230
1
1
\A1;4.76
40
3.5
41
0
44
1
50
0
71
5
72
5
7
iso_b_vert
0
POINT
5
137
100
AcDbEntity
8
Defpoints
62
0
6
ByLayer
370
-1
48
1
60
0
100
AcDbPoint
10
7.757
20
-0.1985
30
0
39
0
210
0
220
0
230
1
50
360
0
POINT
5
138
100
AcDbEntity
8
Defpoints
62
0
6
ByLayer
370
-1
48
1
60
0
100
AcDbPoint
10
12.521
20
-0.1985
30
0
39
0
210
0
220
0
230
1
50
360
0
POINT
5
139
100
AcDbEntity
8
Defpoints
62
0
6
ByLayer
370
-1
48
1
60
0
100
AcDbPoint
10
12.521
20
-15.4485
30
0
39
0
210
0
220
0
230
1
50
360
0
ENDBLK
5
12E
100
AcDbEntity
8
0
100
AcDbBlockEnd
0
BLOCK
5
141
100
AcDbEntity
8
0
100
AcDbBlockBegin
2
_U2
70
0
10
0
20
0
30
0
3
_U2
0
MTEXT
5
13B
100
AcDbEntity
8
SK2
62
256
6
ByLayer
370
18
48
1
60
0
100
AcDbMText
10
22.7065
20
-14.415866
30
0
210
0
220
0
230
1
1
\W0.7640;4.76
40
3.5
41
0
44
1.084337
50
0
71
7
72
5
7
iso_b_vert
0
LINE
5
13C
100
AcDbEntity
8
SK2
62
256
6
ByLayer
370
13
48
1
60
0
100
AcDbLine
10
7.757
20
-1.786
30
0
11
7.757
21
-17.4485
31
0
39
0
210
0
220
0
230
1
0
LINE
5
13D
100
AcDbEntity
8
SK2
62
256
6
ByLayer
370
13
48
1
60
0
100
AcDbLine
10
12.521
20
-1.786
30
0
11
12.521
21
-17.4485
31
0
39
0
210
0
220
0
230
1
0
LINE
5
13E
100
AcDbEntity
8
SK2
62
256
6
ByLayer
370
13
48
1
60
0
100
AcDbLine
10
31.103931
20
-15.4485
30
0
11
-0.993
21
-15.4485
31
0
39
0
210
0
220
0
230
1
0
SOLID
5
13F
100
AcDbEntity
8
SK2
62
256
6
ByLayer
370
18
48
1
60
0
100
AcDbTrace
10
7.757
20
-15.4485
30
0
11
4.257002
21
-15.909284
31
0
12
4.256998
22
-14.987716
32
0
13
4.256998
23
-14.987716
33
0
39
0
210
0
220
0
230
1
0
SOLID
5
140
100
AcDbEntity
8
SK2
62
256
6
ByLayer
370
18
48
1
60
0
100
AcDbTrace
10
12.521
20
-15.4485
30
0
11
16.020998
21
-14.987716
31
0
12
16.021002
22
-15.909284
32
0
13
16.021002
23
-15.909284
33
0
39
0
210
0
220
0
230
1
0
ENDBLK
5
142
100
AcDbEntity
8
0
100
AcDbBlockEnd
0
BLOCK
5
147
100
AcDbEntity
8
0
100
AcDbBlockBegin
2
*D7
70
1
10
0
20
0
30
0
3
*D7
0
LINE
5
149
100
AcDbEntity
8
0
62
256
6
ByLayer
370
-2
48
1
60
0
100
AcDbLine
10
7.069
20
-1.786
30
0
11
7.069
21
-27.4485
31
0
39
0
210
0
220
0
230
1
0
LINE
5
14A
100
AcDbEntity
8
0
62
256
6
ByLayer
370
-2
48
1
60
0
100
AcDbLine
10
12.521
20
-1.786
30
0
11
12.521
21
-27.4485
31
0
39
0
210
0
220
0
230
1
0
LINE
5
14B
100
AcDbEntity
8
0
62
256
6
ByLayer
370
-2
48
1
60
0
100
AcDbLine
10
12.521
20
-25.4485
30
0
11
40.687667
21
-25.4485
31
0
39
0
210
0
220
0
230
1
0
LINE
5
14C
100
AcDbEntity
8
0
62
256
6
ByLayer
370
-2
48
1
60
0
100
AcDbLine
10
3.569
20
-25.4485
30
0
11
0.069
21
-25.4485
31
0
39
0
210
0
220
0
230
1
0
LINE
5
14D
100
AcDbEntity
8
0
62
256
6
ByLayer
370
-2
48
1
60
0
100
AcDbLine
10
16.021
20
-25.4485
30
0
11
19.521
21
-25.4485
31
0
39
0
210
0
220
0
230
1
0
SOLID
5
14E
100
AcDbEntity
8
0
62
256
6
ByLayer
370
-1
48
1
60
0
100
AcDbTrace
10
3.569
20
-26.031833
30
0
11
3.569
21
-24.865167
31
0
12
7.069
22
-25.4485
32
0
13
7.069
23
-25.4485
33
0
39
0
210
0
220
0
230
1
0
SOLID
5
14F
100
AcDbEntity
8
0
62
256
6
ByLayer
370
-1
48
1
60
0
100
AcDbTrace
10
16.021
20
-24.865167
30
0
11
16.021
21
-26.031833
31
0
12
12.521
22
-25.4485
32
0
13
12.521
23
-25.4485
33
0
39
0
210
0
220
0
230
1
0
MTEXT
5
150
100
AcDbEntity
8
0
62
256
6
ByLayer
370
18
48
1
60
0
100
AcDbMText
10
30.104333
20
-18.4485
30
0
210
0
220
0
230
1
1
\A1;5.45
40
3.5
41
0
44
1
50
0
71
5
72
5
7
iso_b_vert
0
POINT
5
151
100
AcDbEntity
8
Defpoints
62
0
6
ByLayer
370
-1
48
1
60
0
100
AcDbPoint
10
7.069
20
-0.1985
30
0
39
0
210
0
220
0
230
1
50
360
0
POINT
5
152
100
AcDbEntity
8
Defpoints
62
0
6
ByLayer
370
-1
48
1
60
0
100
AcDbPoint
10
12.521
20
-0.1985
30
0
39
0
210
0
220
0
230
1
50
360
0
POINT
5
153
100
AcDbEntity
8
Defpoints
62
0
6
ByLayer
370
-1
48
1
60
0
100
AcDbPoint
10
12.521
20
-25.4485
30
0
39
0
210
0
220
0
230
1
50
360
0
ENDBLK
5
148
100
AcDbEntity
8
0
100
AcDbBlockEnd
0
BLOCK
5
15B
100
AcDbEntity
8
0
100
AcDbBlockBegin
2
_U3
70
0
10
0
20
0
30
0
3
_U3
0
MTEXT
5
155
100
AcDbEntity
8
SK2
62
256
6
ByLayer
370
18
48
1
60
0
100
AcDbMText
10
22.7065
20
-24.415866
30
0
210
0
220
0
230
1
1
\W0.7640;5.45
40
3.5
41
0
44
1.084337
50
0
71
7
72
5
7
iso_b_vert
0
LINE
5
156
100
AcDbEntity
8
SK2
62
256
6
ByLayer
370
13
48
1
60
0
100
AcDbLine
10
7.069
20
-1.786
30
0
11
7.069
21
-27.4485
31
0
39
0
210
0
220
0
230
1
0
LINE
5
157
100
AcDbEntity
8
SK2
62
256
6
ByLayer
370
13
48
1
60
0
100
AcDbLine
10
12.521
20
-1.786
30
0
11
12.521
21
-27.4485
31
0
39
0
210
0
220
0
230
1
0
LINE
5
158
100
AcDbEntity
8
SK2
62
256
6
ByLayer
370
13
48
1
60
0
100
AcDbLine
10
31.103931
20
-25.4485
30
0
11
-1.681
21
-25.4485
31
0
39
0
210
0
220
0
230
1
0
SOLID
5
159
100
AcDbEntity
8
SK2
62
256
6
ByLayer
370
18
48
1
60
0
100
AcDbTrace
10
7.069
20
-25.4485
30
0
11
3.569002
21
-25.909284
31
0
12
3.568998
22
-24.987716
32
0
13
3.568998
23
-24.987716
33
0
39
0
210
0
220
0
230
1
0
SOLID
5
15A
100
AcDbEntity
8
SK2
62
256
6
ByLayer
370
18
48
1
60
0
100
AcDbTrace
10
12.521
20
-25.4485
30
0
11
16.020998
21
-24.987716
31
0
12
16.021002
22
-25.909284
32
0
13
16.021002
23
-25.909284
33
0
39
0
210
0
220
0
230
1
0
ENDBLK
5
15C
100
AcDbEntity
8
0
100
AcDbBlockEnd
0
BLOCK
5
161
100
AcDbEntity
8
0
100
AcDbBlockBegin
2
*D9
70
1
10
0
20
0
30
0
3
*D9
0
LINE
5
163
100
AcDbEntity
8
0
62
256
6
ByLayer
370
-2
48
1
60
0
100
AcDbLine
10
-24.979
20
-0.0875
30
0
11
-24.979
21
-36.6
31
0
39
0
210
0
220
0
230
1
0
LINE
5
164
100
AcDbEntity
8
0
62
256
6
ByLayer
370
-2
48
1
60
0
100
AcDbLine
10
12.521
20
-1.389
30
0
11
12.521
21
-36.6
31
0
39
0
210
0
220
0
230
1
0
LINE
5
165
100
AcDbEntity
8
0
62
256
6
ByLayer
370
-2
48
1
60
0
100
AcDbLine
10
-21.479
20
-34.6
30
0
11
9.021
21
-34.6
31
0
39
0
210
0
220
0
230
1
0
SOLID
5
166
100
AcDbEntity
8
0
62
256
6
ByLayer
370
-1
48
1
60
0
100
AcDbTrace
10
-21.479
20
-34.016667
30
0
11
-21.479
21
-35.183333
31
0
12
-24.979
22
-34.6
32
0
13
-24.979
23
-34.6
33
0
39
0
210
0
220
0
230
1
0
SOLID
5
167
100
AcDbEntity
8
0
62
256
6
ByLayer
370
-1
48
1
60
0
100
AcDbTrace
10
9.021
20
-35.183333
30
0
11
9.021
21
-34.016667
31
0
12
12.521
22
-34.6
32
0
13
12.521
23
-34.6
33
0
39
0
210
0
220
0
230
1
0
MTEXT
5
168
100
AcDbEntity
8
0
62
256
6
ByLayer
370
18
48
1
60
0
100
AcDbMText
10
-6.229
20
-27.6
30
0
210
0
220
0
230
1
1
\A1;37.5
40
3.5
41
0
44
1
50
0
71
5
72
5
7
iso_b_vert
0
POINT
5
169
100
AcDbEntity
8
Defpoints
62
0
6
ByLayer
370
-1
48
1
60
0
100
AcDbPoint
10
-24.979
20
1.5
30
0
39
0
210
0
220
0
230
1
50
360
0
POINT
5
16A
100
AcDbEntity
8
Defpoints
62
0
6
ByLayer
370
-1
48
1
60
0
100
AcDbPoint
10
12.521
20
0.1985
30
0
39
0
210
0
220
0
230
1
50
360
0
POINT
5
16B
100
AcDbEntity
8
Defpoints
62
0
6
ByLayer
370
-1
48
1
60
0
100
AcDbPoint
10
12.521
20
-34.6
30
0
39
0
210
0
220
0
230
1
50
360
0
ENDBLK
5
162
100
AcDbEntity
8
0
100
AcDbBlockEnd
0
BLOCK
5
175
100
AcDbEntity
8
0
100
AcDbBlockBegin
2
_U4
70
0
10
0
20
0
30
0
3
_U4
0
MTEXT
5
16D
100
AcDbEntity
8
SK2
62
256
6
ByLayer
370
18
48
1
60
0
100
AcDbMText
10
-11.458432
20
-33.567366
30
0
210
0
220
0
230
1
1
\W0.7468;37.50
40
3.5
41
0
44
1.084337
50
0
71
7
72
5
7
iso_b_vert
0
MTEXT
5
16E
100
AcDbEntity
8
SK2
62
256
6
ByLayer
370
18
48
1
60
0
100
AcDbMText
10
-15.326431
20
-33.567366
30
0
210
0
220
0
230
1
1
\W0.1790;(
40
3.5
41
0
44
1.084337
50
0
71
7
72
5
7
iso_b_vert
0
MTEXT
5
16F
100
AcDbEntity
8
SK2
62
256
6
ByLayer
370
18
48
1
60
0
100
AcDbMText
10
2.871432
20
-33.567366
30
0
210
0
220
0
230
1
1
\W0.1969;)
40
3.5
41
0
44
1.084337
50
0
71
7
72
5
7
iso_b_vert
0
LINE
5
170
100
AcDbEntity
8
SK2
62
256
6
ByLayer
370
13
48
1
60
0
100
AcDbLine
10
-24.979
20
-0.0875
30
0
11
-24.979
21
-36.6
31
0
39
0
210
0
220
0
230
1
0
LINE
5
171
100
AcDbEntity
8
SK2
62
256
6
ByLayer
370
13
48
1
60
0
100
AcDbLine
10
12.521
20
-1.389
30
0
11
12.521
21
-36.6
31
0
39
0
210
0
220
0
230
1
0
LINE
5
172
100
AcDbEntity
8
SK2
62
256
6
ByLayer
370
13
48
1
60
0
100
AcDbLine
10
-24.979
20
-34.6
30
0
11
12.521
21
-34.6
31
0
39
0
210
0
220
0
230
1
0
SOLID
5
173
100
AcDbEntity
8
SK2
62
256
6
ByLayer
370
18
48
1
60
0
100
AcDbTrace
10
-24.979
20
-34.6
30
0
11
-21.479002
21
-34.139216
31
0
12
-21.478998
22
-35.060784
32
0
13
-21.478998
23
-35.060784
33
0
39
0
210
0
220
0
230
1
0
SOLID
5
174
100
AcDbEntity
8
SK2
62
256
6
ByLayer
370
18
48
1
60
0
100
AcDbTrace
10
12.521
20
-34.6
30
0
11
9.021002
21
-35.060784
31
0
12
9.020998
22
-34.139216
32
0
13
9.020998
23
-34.139216
33
0
39
0
210
0
220
0
230
1
0
ENDBLK
5
176
100
AcDbEntity
8
0
100
AcDbBlockEnd
0
ENDSEC
0
SECTION
2
ENTITIES
0
ELLIPSE
5
BF
100
AcDbEntity
8
SK1
62
256
6
ByLayer
370
18
48
1
60
0
100
AcDbEllipse
10
12.518135
20
-0.012706
30
0
11
0.0237049370459993
21
0.0422353960802974
31
0
210
0
220
0
230
1
40
0.065341
41
1.4163471629465
42
2.26340515638898
0
ELLIPSE
5
C0
100
AcDbEntity
8
SK1
62
256
6
ByLayer
370
18
48
1
60
0
100
AcDbEllipse
10
12.518135
20
0.012706
30
0
11
0.0237049370532304
21
-0.0422353960919942
31
0
210
0
220
0
230
1
40
0.065341
41
-2.26340515639638
42
-1.41634716318
0
ELLIPSE
5
C1
100
AcDbEntity
8
SK1
62
256
6
ByLayer
370
18
48
1
60
0
100
AcDbEllipse
10
12.502845
20
0.021471
30
0
11
0.0166403876794618
21
0.0187508473907745
31
0
210
0
220
0
230
1
40
0.93066
41
-1.8428257770333
42
-1.64268621537682
0
ELLIPSE
5
C2
100
AcDbEntity
8
SK1
62
256
6
ByLayer
370
18
48
1
60
0
100
AcDbEllipse
10
7.130321
20
-0.000366
30
0
11
0.112660393246513
21
-0.174053877957281
31
0
210
0
220
0
230
1
40
0.340194
41
-2.78398142622352
42
-1.24639061995936
0
ELLIPSE
5
C3
100
AcDbEntity
8
SK1
62
256
6
ByLayer
370
18
48
1
60
0
100
AcDbEllipse
10
12.521285
20
0.000449
30
0
11
0.120842884759029
21
0.198096462959261
31
0
210
0
220
0
230
1
40
0.104823
41
-3.07827313962945
42
-2.88167937171343
0
ELLIPSE
5
C4
100
AcDbEntity
8
SK1
62
256
6
ByLayer
370
18
48
1
60
0
100
AcDbEllipse
10
12.521732
20
0.000449
30
0
11
0.175589776905319
21
0.178497719363976
31
0
210
0
220
0
230
1
40
0.494574
41
2.71331069604259
42
-2.69174267215708
0
ELLIPSE
5
C5
100
AcDbEntity
8
SK1
62
256
6
ByLayer
370
18
48
1
60
0
100
AcDbEllipse
10
12.533534
20
-0.000376
30
0
11
0.362130923125905
21
-0.0738890205886487
31
0
210
0
220
0
230
1
40
0.508881
41
-3.10293801675396
42
-2.07608874225803
0
ELLIPSE
5
C6
100
AcDbEntity
8
SK1
62
256
6
ByLayer
370
18
48
1
60
0
100
AcDbEllipse
10
12.521285
20
-0.000449
30
0
11
0.120842884759029
21
-0.19809646295926
31
0
210
0
220
0
230
1
40
0.104823
41
2.88167937171343
42
3.07827313962946
0
POINT
5
70
100
AcDbEntity
8
80
62
256
6
ByLayer
370
18
48
1
60
0
100
AcDbPoint
10
0
20
0
30
0
39
0
210
0
220
0
230
1
50
360
0
POINT
5
72
100
AcDbEntity
8
81
62
256
6
ByLayer
370
18
48
1
60
0
100
AcDbPoint
10
12.521
20
0
30
0
39
0
210
0
220
0
230
1
50
360
0
POINT
5
74
100
AcDbEntity
8
1
62
256
6
ByLayer
370
18
48
1
60
0
100
AcDbPoint
10
-24.979
20
0
30
0
39
0
210
0
220
0
230
1
50
360
0
POINT
5
76
100
AcDbEntity
8
1
62
256
6
ByLayer
370
18
48
1
60
1
100
AcDbPoint
10
0
20
-1.5
30
0
39
0
210
0
220
0
230
1
50
360
0
POINT
5
77
100
AcDbEntity
8
1
62
256
6
ByLayer
370
18
48
1
60
1
100
AcDbPoint
10
12.402
20
-0.1985
30
0
39
0
210
0
220
0
230
1
50
360
0
POINT
5
78
100
AcDbEntity
8
1
62
256
6
ByLayer
370
18
48
1
60
1
100
AcDbPoint
10
-24.979
20
-1.5
30
0
39
0
210
0
220
0
230
1
50
360
0
POINT
5
79
100
AcDbEntity
8
1
62
256
6
ByLayer
370
18
48
1
60
1
100
AcDbPoint
10
0
20
-1.5
30
0
39
0
210
0
220
0
230
1
50
360
0
POINT
5
7A
100
AcDbEntity
8
1
62
256
6
ByLayer
370
18
48
1
60
1
100
AcDbPoint
10
7.757
20
-0.1985
30
0
39
0
210
0
220
0
230
1
50
360
0
POINT
5
7B
100
AcDbEntity
8
1
62
256
6
ByLayer
370
18
48
1
60
1
100
AcDbPoint
10
12.521
20
-0.1985
30
0
39
0
210
0
220
0
230
1
50
360
0
POINT
5
7C
100
AcDbEntity
8
1
62
256
6
ByLayer
370
18
48
1
60
1
100
AcDbPoint
10
7.069
20
-0.1985
30
0
39
0
210
0
220
0
230
1
50
360
0
POINT
5
7D
100
AcDbEntity
8
1
62
256
6
ByLayer
370
18
48
1
60
1
100
AcDbPoint
10
12.521
20
-0.1985
30
0
39
0
210
0
220
0
230
1
50
360
0
POINT
5
7E
100
AcDbEntity
8
1
62
256
6
ByLayer
370
18
48
1
60
1
100
AcDbPoint
10
-24.979
20
1.5
30
0
39
0
210
0
220
0
230
1
50
360
0
POINT
5
7F
100
AcDbEntity
8
1
62
256
6
ByLayer
370
18
48
1
60
1
100
AcDbPoint
10
12.521
20
0.1985
30
0
39
0
210
0
220
0
230
1
50
360
0
SPLINE
5
C7
100
AcDbEntity
8
SK1
62
256
6
ByLayer
370
13
48
1
60
0
100
AcDbSpline
70
4
71
3
72
10
73
6
40
0
40
0
40
0
40
0
40
0.5
40
0.5
40
1
40
1
40
1
40
1
41
1
10
7.11010783549543
20
-0.0921721081891178
30
0
41
1
10
7.09308092312892
20
-0.0519820486144909
30
0
41
1
10
7.07562693719763
20
-0.0117461626501552
30
0
41
1
10
7.04009013578613
20
0.068750130424263
30
0
41
1
10
7.02204781606599
20
0.109006539203477
30
0
41
1
10
7.00406194508213
20
0.149260864644418
30
0
0
SPLINE
5
C8
100
AcDbEntity
8
SK1
62
256
6
ByLayer
370
18
48
1
60
0
100
AcDbSpline
70
4
71
3
72
10
73
6
40
0
40
0
40
0
40
0
40
0.5
40
0.5
40
1
40
1
40
1
40
1
41
1
10
12.4661895338781
20
0.108971130379047
30
0
41
1
10
12.4554022965107
20
0.106154404405601
30
0
41
1
10
12.4444771097141
20
0.103690215494339
30
0
41
1
10
12.4223189309397
20
0.0995484500940904
30
0
41
1
10
12.4110838016446
20
0.097876335632975
30
0
41
1
10
12.399750872727
20
0.0964541532788985
30
0
0
SPLINE
5
C9
100
AcDbEntity
8
SK1
62
256
6
ByLayer
370
18
48
1
60
0
100
AcDbSpline
70
4
71
3
72
8
73
4
40
0
40
0
40
0
40
0
40
1
40
1
40
1
40
1
41
1
10
12.4098373731962
20
0.194249633518609
30
0
41
1
10
12.4284493221981
20
0.166583337855769
30
0
41
1
10
12.4472615580093
20
0.138131302698042
30
0
41
1
10
12.466189533879
20
0.108971130376546
30
0
0
SPLINE
5
CA
100
AcDbEntity
8
SK1
62
256
6
ByLayer
370
18
48
1
60
0
100
AcDbSpline
70
4
71
3
72
22
73
18
40
0
40
0
40
0
40
0
40
0.0624999999999843
40
0.0624999999999843
40
0.124999999999969
40
0.124999999999969
40
0.249999999999983
40
0.249999999999983
40
0.374999999999997
40
0.374999999999997
40
0.500000000000012
40
0.500000000000012
40
0.625000000000026
40
0.625000000000026
40
0.750000000000041
40
0.750000000000041
40
1
40
1
40
1
40
1
41
1
10
12.3748081086141
20
0.0819885561120657
30
0
41
1
10
12.3727937950685
20
0.077523010897977
30
0
41
1
10
12.370513041433
20
0.0732456763152527
30
0
41
1
10
12.3653470591934
20
0.0651180022586857
30
0
41
1
10
12.3624393454959
20
0.061248446383189
30
0
41
1
10
12.3530172211536
20
0.0507230573328172
30
0
41
1
10
12.3457237687145
20
0.0450067683133852
30
0
41
1
10
12.3291533819293
20
0.0363952183826086
30
0
41
1
10
12.3202819612204
20
0.0336735738066238
30
0
41
1
10
12.301690549781
20
0.0305233295572123
30
0
41
1
10
12.2922106661769
20
0.0301451055287885
30
0
41
1
10
12.2731759992777
20
0.0310214977990029
30
0
41
1
10
12.2635687727026
20
0.0322782469253298
30
0
41
1
10
12.2442963540633
20
0.03616796210693
30
0
41
1
10
12.2347982596221
20
0.0387823806048004
30
0
41
1
10
12.2066256556166
20
0.0481850907938508
30
0
41
1
10
12.1882576371677
20
0.0564592069769105
30
0
41
1
10
12.1702203444628
20
0.0663366336183628
30
0
0
SPLINE
5
CB
100
AcDbEntity
8
SK1
62
256
6
ByLayer
370
18
48
1
60
0
100
AcDbSpline
70
4
71
3
72
14
73
10
40
0
40
0
40
0
40
0
40
0.25
40
0.25
40
0.5
40
0.5
40
0.75
40
0.75
40
1
40
1
40
1
40
1
41
1
10
12.399750872727
20
0.0964541532788985
30
0
41
1
10
12.3972285296117
20
0.0961376215247753
30
0
41
1
10
12.3947503702938
20
0.0956325587707454
30
0
41
1
10
12.3898924952617
20
0.0941930300925833
30
0
41
1
10
12.3874794790974
20
0.093242689847699
30
0
41
1
10
12.3829812883923
20
0.0908660521932916
30
0
41
1
10
12.3808593377554
20
0.0894200892279855
30
0
41
1
10
12.3772564480736
20
0.0860486934392668
30
0
41
1
10
12.3757628032355
20
0.084105025023149
30
0
41
1
10
12.3748081086144
20
0.0819885561120657
30
0
0
SPLINE
5
CC
100
AcDbEntity
8
SK1
62
256
6
ByLayer
370
18
48
1
60
0
100
AcDbSpline
70
4
71
3
72
10
73
6
40
0
40
0
40
0
40
0
40
0.5
40
0.5
40
1
40
1
40
1
40
1
41
1
10
7.13947751428844
20
-0.113901331350434
30
0
41
1
10
7.1335140065944
20
-0.111502865266971
30
0
41
1
10
7.1281487212317
20
-0.108445459142132
30
0
41
1
10
7.11835194130794
20
-0.101122661840264
30
0
41
1
10
7.11397111966363
20
-0.0968686087021524
30
0
41
1
10
7.11010783549543
20
-0.0921721081891178
30
0
0
SPLINE
5
CD
100
AcDbEntity
8
SK1
62
256
6
ByLayer
370
18
48
1
60
0
100
AcDbSpline
70
4
71
3
72
20
73
16
40
0
40
0
40
0
40
0
40
0.12499999999997
40
0.12499999999997
40
0.24999999999994
40
0.24999999999994
40
0.37499999999991
40
0.37499999999991
40
0.49999999999988
40
0.49999999999988
40
0.62499999999985
40
0.62499999999985
40
0.74999999999982
40
0.74999999999982
40
1
40
1
40
1
40
1
41
1
10
7.00406194508216
20
0.149260864644304
30
0
41
1
10
7.00438485490773
20
0.151211278914815
30
0
41
1
10
7.00507133199991
20
0.153022994300528
30
0
41
1
10
7.00737728392932
20
0.156374422130256
30
0
41
1
10
7.00899764650907
20
0.157886232165282
30
0
41
1
10
7.01313227821873
20
0.160477432790884
30
0
41
1
10
7.01570427425588
20
0.161583500931499
30
0
41
1
10
7.02143754457319
20
0.16332420298059
30
0
41
1
10
7.02467696669953
20
0.163989108215361
30
0
41
1
10
7.03140695456858
20
0.164927953089034
30
0
41
1
10
7.03496658550455
20
0.165215272421534
30
0
41
1
10
7.04209163584017
20
0.165479478714218
30
0
41
1
10
7.0456943786651
20
0.165460028211783
30
0
41
1
10
7.05637880891197
20
0.165005784860369
30
0
41
1
10
7.06317626831463
20
0.164200383324754
30
0
41
1
10
7.06958621107359
20
0.162906604901139
30
0
0
SPLINE
5
CE
100
AcDbEntity
8
SK1
62
256
6
ByLayer
370
18
48
1
60
0
100
AcDbSpline
70
4
71
3
72
52
73
48
40
0
40
0
40
0
40
0
40
0.0137360631980386
40
0.0137360631980386
40
0.0716936373066177
40
0.0716936373066177
40
0.129651211415197
40
0.129651211415197
40
0.158629998469486
40
0.158629998469486
40
0.187608785523776
40
0.187608785523776
40
0.245566359632367
40
0.245566359632367
40
0.303523933740958
40
0.303523933740958
40
0.332502720795259
40
0.332502720795259
40
0.361481507849561
40
0.361481507849561
40
0.419439081958163
40
0.419439081958163
40
0.477396656066766
40
0.477396656066766
40
0.535354230175369
40
0.535354230175369
40
0.593311804283972
40
0.593311804283972
40
0.651269378392575
40
0.651269378392575
40
0.680248165446882
40
0.680248165446882
40
0.709226952501189
40
0.709226952501189
40
0.767184526609816
40
0.767184526609816
40
0.825142100718442
40
0.825142100718442
40
0.854120887772756
40
0.854120887772756
40
0.883099674827069
40
0.883099674827069
40
0.941057248935695
40
0.941057248935695
40
0.999014823044322
40
0.999014823044322
40
1
40
1
40
1
40
1
41
1
10
7.43855281666407
20
0.179381501609328
30
0
41
1
10
7.44481794559513
20
0.179421304959334
30
0
41
1
10
7.45107574578029
20
0.179371274686105
30
0
41
1
10
7.48370705898625
20
0.178643881975091
30
0
41
1
10
7.50999322349719
20
0.176456880192319
30
0
41
1
10
7.5627228179369
20
0.168997240999857
30
0
41
1
10
7.58915946987884
20
0.163728572790433
30
0
41
1
10
7.62911066268862
20
0.153564887918577
30
0
41
1
10
7.64245505714303
20
0.149805578355142
30
0
41
1
10
7.66898079691896
20
0.141676755394883
30
0
41
1
10
7.6822051700056
20
0.137305608733612
30
0
41
1
10
7.72179366506703
20
0.12332687878822
30
0
41
1
10
7.74805778612213
20
0.112829409669473
30
0
41
1
10
7.80066697752662
20
0.0899682939489708
30
0
41
1
10
7.8270296912591
20
0.0776379793860542
30
0
41
1
10
7.86683977451918
20
0.0580646802870319
30
0
41
1
10
7.88019260586432
20
0.0513397684685799
30
0
41
1
10
7.90675782699094
20
0.0377447418966597
30
0
41
1
10
7.91998576567289
20
0.0308666822814132
30
0
41
1
10
7.95958115949404
20
0.0101373094130963
30
0
41
1
10
7.98585375872705
20
-0.0038220979097616
30
0
41
1
10
8.03839161927789
20
-0.0315544900770703
30
0
41
1
10
8.06466724915265
20
-0.0453070029568892
30
0
41
1
10
8.1175888915248
20
-0.0718992622325061
30
0
41
1
10
8.14430790698418
20
-0.0848307487608508
30
0
41
1
10
8.19711785025675
20
-0.108751064813418
30
0
41
1
10
8.22338202638031
20
-0.119757853281101
30
0
41
1
10
8.27587565995242
20
-0.139540454757395
30
0
41
1
10
8.30209688292217
20
-0.148322007584739
30
0
41
1
10
8.3416518017317
20
-0.159479703274428
30
0
41
1
10
8.35487803845723
20
-0.16285996273362
30
0
41
1
10
8.38144140525625
20
-0.168905445917915
30
0
41
1
10
8.39474966211961
20
-0.171563827481179
30
0
41
1
10
8.43440763459773
20
-0.178339521496895
30
0
41
1
10
8.46064339969175
20
-0.18128203484855
30
0
41
1
10
8.51309901233759
20
-0.183946007831707
30
0
41
1
10
8.53929077119156
20
-0.183679552143701
30
0
41
1
10
8.57873839275888
20
-0.180846362947193
30
0
41
1
10
8.59191498673277
20
-0.179495818031313
30
0
41
1
10
8.61837643779674
20
-0.175988575474861
30
0
41
1
10
8.63169522182542
20
-0.173824643991452
30
0
41
1
10
8.67140971068022
20
-0.166210177818215
30
0
41
1
10
8.69766306197528
20
-0.159624757764504
30
0
41
1
10
8.75007005642703
20
-0.143809243114504
30
0
41
1
10
8.77622641791623
20
-0.134585978993812
30
0
41
1
10
8.80291888909133
20
-0.124032649186631
30
0
41
1
10
8.80336505438453
20
-0.123855922305978
30
0
41
1
10
8.80381124440245
20
-0.123678859458352
30
0
0
SPLINE
5
CF
100
AcDbEntity
8
SK1
62
256
6
ByLayer
370
18
48
1
60
0
100
AcDbSpline
70
4
71
3
72
48
73
44
40
0
40
0
40
0
40
0
40
0.0251359498070558
40
0.0251359498070558
40
0.0537646445552205
40
0.0537646445552205
40
0.16827942354789
40
0.16827942354789
40
0.196908118296058
40
0.196908118296058
40
0.225536813044226
40
0.225536813044226
40
0.282794202540561
40
0.282794202540561
40
0.340051592036895
40
0.340051592036895
40
0.39730898153323
40
0.39730898153323
40
0.5118237605259
40
0.5118237605259
40
0.540452455274062
40
0.540452455274062
40
0.569081150022223
40
0.569081150022223
40
0.626338539518535
40
0.626338539518535
40
0.683595929014847
40
0.683595929014847
40
0.712224623763008
40
0.712224623763008
40
0.74085331851117
40
0.74085331851117
40
0.798110708007494
40
0.798110708007494
40
0.855368097503817
40
0.855368097503817
40
0.883996792251978
40
0.883996792251978
40
0.91262548700014
40
0.91262548700014
40
0.969882876496475
40
0.969882876496475
40
1
40
1
40
1
40
1
41
1
10
9.59510385601678
20
0.187494007900767
30
0
41
1
10
9.60668770001917
20
0.187520837944106
30
0
41
1
10
9.61832051267501
20
0.187226566474692
30
0
41
1
10
9.64306712826621
20
0.185913784193446
30
0
41
1
10
9.65618876211556
20
0.184802714526569
30
0
41
1
10
9.72163206727674
20
0.177252713230047
30
0
41
1
10
9.77347928619628
20
0.16484163910809
30
0
41
1
10
9.8391630323581
20
0.14244842795685
30
0
41
1
10
9.85238711902917
20
0.137616741551597
30
0
41
1
10
9.87876809849513
20
0.127385619957039
30
0
41
1
10
9.89190001091279
20
0.121993448600165
30
0
41
1
10
9.931171838247
20
0.105070374197993
30
0
41
1
10
9.95719307503356
20
0.0927982737107982
30
0
41
1
10
10.0092881770911
20
0.0668866400234265
30
0
41
1
10
10.0353430476802
20
0.053217771118824
30
0
41
1
10
10.0877594547794
20
0.0249313394436399
30
0
41
1
10
10.1142420938044
20
0.0102770215538897
30
0
41
1
10
10.1928173752997
20
-0.0330982642434776
30
0
41
1
10
10.2445195960672
20
-0.0616394196217698
30
0
41
1
10
10.309913516065
20
-0.0939393778489261
30
0
41
1
10
10.3230279103348
20
-0.100235373980013
30
0
41
1
10
10.3493700223354
20
-0.112424033695618
30
0
41
1
10
10.3625260558854
20
-0.118282859490876
30
0
41
1
10
10.4018063331972
20
-0.134945214862313
30
0
41
1
10
10.4278342796055
20
-0.144889539899651
30
0
41
1
10
10.4798005618946
20
-0.16220533882003
30
0
41
1
10
10.5057565364986
20
-0.169549640352813
30
0
41
1
10
10.5449258699864
20
-0.178316266421632
30
0
41
1
10
10.5580156375607
20
-0.18086880702964
30
0
41
1
10
10.5843003643485
20
-0.185191742575256
30
0
41
1
10
10.5974790291123
20
-0.186956100378921
30
0
41
1
10
10.6367459921474
20
-0.190980798894742
30
0
41
1
10
10.6627481132205
20
-0.191995258019091
30
0
41
1
10
10.7146920568292
20
-0.190742886207403
30
0
41
1
10
10.7406079590327
20
-0.188466696079018
30
0
41
1
10
10.7796885966096
20
-0.182615428561917
30
0
41
1
10
10.7927527488722
20
-0.180262028881856
30
0
41
1
10
10.818984265307
20
-0.174752305092767
30
0
41
1
10
10.8321683901569
20
-0.171588167654562
30
0
41
1
10
10.8714463118711
20
-0.161042599972575
30
0
41
1
10
10.8974114543892
20
-0.152566814417725
30
0
41
1
10
10.9370029072063
20
-0.137799240199115
30
0
41
1
10
10.9506388863955
20
-0.132371746676512
30
0
41
1
10
10.9642850279693
20
-0.126632978767304
30
0
0
SPLINE
5
D0
100
AcDbEntity
8
SK1
62
256
6
ByLayer
370
18
48
1
60
0
100
AcDbSpline
70
4
71
3
72
16
73
12
40
0
40
0
40
0
40
0
40
0.0742446381742331
40
0.0742446381742331
40
0.259395710539393
40
0.259395710539393
40
0.444546782904555
40
0.444546782904555
40
0.629697855269716
40
0.629697855269716
40
1
40
1
40
1
40
1
41
1
10
11.7500432635003
20
0.195599239384506
30
0
41
1
10
11.7605054703818
20
0.195621356229282
30
0
41
1
10
11.7710059829419
20
0.195371073682651
30
0
41
1
10
11.8076622136951
20
0.193536958884636
30
0
41
1
10
11.8335747299856
20
0.190533664353609
30
0
41
1
10
11.8852730488471
20
0.181375012269569
30
0
41
1
10
11.911064234654
20
0.17522957856221
30
0
41
1
10
11.9627890939315
20
0.159983346362282
30
0
41
1
10
11.9887712473509
20
0.150852414260498
30
0
41
1
10
12.0672363164813
20
0.119629940550084
30
0
41
1
10
12.1185410472767
20
0.0942061754718395
30
0
41
1
10
12.1702203444627
20
0.0663366336183913
30
0
0
SPLINE
5
D1
100
AcDbEntity
8
SK1
62
256
6
ByLayer
370
18
48
1
60
0
100
AcDbSpline
70
4
71
3
72
22
73
18
40
0
40
0
40
0
40
0
40
0.112612646125381
40
0.112612646125381
40
0.225225292250763
40
0.225225292250763
40
0.337837938376144
40
0.337837938376144
40
0.450450584501525
40
0.450450584501525
40
0.675675876752288
40
0.675675876752288
40
0.788288522877691
40
0.788288522877691
40
0.900901169003094
40
0.900901169003094
40
1
40
1
40
1
40
1
41
1
10
12.4098373731951
20
0.194249633508406
30
0
41
1
10
12.3962199068202
20
0.195760266770634
30
0
41
1
10
12.3825802183718
20
0.196783082987679
30
0
41
1
10
12.3551700655524
20
0.197888327800058
30
0
41
1
10
12.3414153441271
20
0.197978403750682
30
0
41
1
10
12.3138783296876
20
0.19723821891975
30
0
41
1
10
12.3001128846385
20
0.19640367794338
30
0
41
1
10
12.2725588018736
20
0.193733439377013
30
0
41
1
10
12.2587303818871
20
0.191891532310223
30
0
41
1
10
12.2173231057701
20
0.185129110535257
30
0
41
1
10
12.1897077173854
20
0.179012038608079
30
0
41
1
10
12.1487315653704
20
0.16711625865824
30
0
41
1
10
12.1351381830646
20
0.162682536005178
30
0
41
1
10
12.107767101753
20
0.153191279888375
30
0
41
1
10
12.0940064233205
20
0.148126565773595
30
0
41
1
10
12.068040718873
20
0.137976926990518
30
0
41
1
10
12.0558497834385
20
0.132965239677532
30
0
41
1
10
12.0436498349747
20
0.127638114714131
30
0
0
SPLINE
5
D2
100
AcDbEntity
8
SK1
62
256
6
ByLayer
370
18
48
1
60
0
100
AcDbSpline
70
4
71
3
72
66
73
62
40
0
40
0
40
0
40
0
40
0.0056114135396128
40
0.0056114135396128
40
0.0357791405266062
40
0.0357791405266062
40
0.0659468675135995
40
0.0659468675135995
40
0.126282321487586
40
0.126282321487586
40
0.156450048474585
40
0.156450048474585
40
0.186617775461584
40
0.186617775461584
40
0.216785502448583
40
0.216785502448583
40
0.246953229435582
40
0.246953229435582
40
0.277120956422581
40
0.277120956422581
40
0.30728868340958
40
0.30728868340958
40
0.337456410396579
40
0.337456410396579
40
0.367624137383578
40
0.367624137383578
40
0.427959591357564
40
0.427959591357564
40
0.458127318344558
40
0.458127318344558
40
0.488295045331551
40
0.488295045331551
40
0.518462772318544
40
0.518462772318544
40
0.548630499305537
40
0.548630499305537
40
0.608965953279512
40
0.608965953279512
40
0.639133680266499
40
0.639133680266499
40
0.669301407253487
40
0.669301407253487
40
0.699469134240474
40
0.699469134240474
40
0.729636861227462
40
0.729636861227462
40
0.759804588214449
40
0.759804588214449
40
0.789972315201436
40
0.789972315201436
40
0.820140042188424
40
0.820140042188424
40
0.850307769175411
40
0.850307769175411
40
0.910643223149375
40
0.910643223149375
40
0.940810950136356
40
0.940810950136356
40
0.970978677123338
40
0.970978677123338
40
1
40
1
40
1
40
1
41
1
10
11.2603686461663
20
-0.193757797144571
30
0
41
1
10
11.2577946301197
20
-0.19375240467312
30
0
41
1
10
11.2552218757525
20
-0.193731292100381
30
0
41
1
10
11.2388279691584
20
-0.193497504747313
30
0
41
1
10
11.2250607566226
20
-0.192844894826521
30
0
41
1
10
11.1975999636159
20
-0.190601434852681
30
0
41
1
10
11.1839169948811
20
-0.189002245529423
30
0
41
1
10
11.1427130204364
20
-0.182863909291797
30
0
41
1
10
11.1149123081411
20
-0.177126595366019
30
0
41
1
10
11.0730804614287
20
-0.165779358334674
30
0
41
1
10
11.0592351449964
20
-0.161519624340059
30
0
41
1
10
11.0316335201923
20
-0.152304904756932
30
0
41
1
10
11.0178232741654
20
-0.14738818740355
30
0
41
1
10
10.9901654410882
20
-0.137009165506157
30
0
41
1
10
10.9763419617391
20
-0.131518886183727
30
0
41
1
10
10.9487782776649
20
-0.119833528379132
30
0
41
1
10
10.9350509771517
20
-0.113616116422662
30
0
41
1
10
10.9075822007943
20
-0.100575972560677
30
0
41
1
10
10.8937928920142
20
-0.0938264255640036
30
0
41
1
10
10.8660007649718
20
-0.0800637512130038
30
0
41
1
10
10.8519879911469
20
-0.073000820068529
30
0
41
1
10
10.8240257787493
20
-0.0584686106305696
30
0
41
1
10
10.8101403574571
20
-0.0510225367779924
30
0
41
1
10
10.7825571020815
20
-0.0357769459168935
30
0
41
1
10
10.7688305186925
20
-0.0280298581546958
30
0
41
1
10
10.7274437292416
20
-0.0051520513648882
30
0
41
1
10
10.6997093918267
20
0.0098572828121632
30
0
41
1
10
10.6583552744739
20
0.0328550744429776
30
0
41
1
10
10.6445975594796
20
0.0405758112272565
30
0
41
1
10
10.616841323131
20
0.0555857944264631
30
0
41
1
10
10.6027930036728
20
0.062888586098353
30
0
41
1
10
10.5748152814408
20
0.0770750873170698
30
0
41
1
10
10.560883115524
20
0.0839661068405348
30
0
41
1
10
10.5332124148859
20
0.0974691340832123
30
0
41
1
10
10.5194921533534
20
0.104102270516052
30
0
41
1
10
10.4782342178588
20
0.122935193427537
30
0
41
1
10
10.4504642132364
20
0.133935387590071
30
0
41
1
10
10.4088901488875
20
0.148828344802581
30
0
41
1
10
10.3950778140849
20
0.153548485426541
30
0
41
1
10
10.3673233456056
20
0.162201136400881
30
0
41
1
10
10.3533048868035
20
0.166097657983272
30
0
41
1
10
10.3253538814136
20
0.172932777539216
30
0
41
1
10
10.3114046045425
20
0.175906514869752
30
0
41
1
10
10.2836459805455
20
0.181044936024421
30
0
41
1
10
10.2698599573006
20
0.183217033515206
30
0
41
1
10
10.2423569580459
20
0.186654746509163
30
0
41
1
10
10.2285980148276
20
0.187901499727076
30
0
41
1
10
10.2009206985605
20
0.189459531679262
30
0
41
1
10
10.1870243545038
20
0.189783273932505
30
0
41
1
10
10.1591897775989
20
0.189537845873474
30
0
41
1
10
10.1452710772408
20
0.188966340179888
30
0
41
1
10
10.1174323895952
20
0.186839813199043
30
0
41
1
10
10.1034692434729
20
0.185280717122055
30
0
41
1
10
10.061656039465
20
0.179372420959368
30
0
41
1
10
10.0337748055982
20
0.173833685527256
30
0
41
1
10
9.9923707846732
20
0.162853617396138
30
0
41
1
10
9.97863733526415
20
0.158726623629377
30
0
41
1
10
9.951009821779
20
0.14982720821061
30
0
41
1
10
9.93712166165145
20
0.145059001385903
30
0
41
1
10
9.90975696251442
20
0.135078825090176
30
0
41
1
10
9.89628634063394
20
0.129891912798001
30
0
41
1
10
9.88281631462948
20
0.12431606615408
30
0
0
SPLINE
5
D3
100
AcDbEntity
8
SK1
62
256
6
ByLayer
370
18
48
1
60
0
100
AcDbSpline
70
4
71
3
72
70
73
66
40
0
40
0
40
0
40
0
40
0.0055732612270796
40
0.0055732612270796
40
0.0361955131269199
40
0.0361955131269199
40
0.0668177650267597
40
0.0668177650267597
40
0.0974400169265995
40
0.0974400169265995
40
0.128062268826439
40
0.128062268826439
40
0.158684520726279
40
0.158684520726279
40
0.189306772626119
40
0.189306772626119
40
0.219929024525959
40
0.219929024525959
40
0.250551276425799
40
0.250551276425799
40
0.281173528325639
40
0.281173528325639
40
0.311795780225478
40
0.311795780225478
40
0.342418032125318
40
0.342418032125318
40
0.373040284025158
40
0.373040284025158
40
0.403662535924998
40
0.403662535924998
40
0.434284787824838
40
0.434284787824838
40
0.464907039724678
40
0.464907039724678
40
0.495529291624517
40
0.495529291624517
40
0.526151543524357
40
0.526151543524357
40
0.556773795424197
40
0.556773795424197
40
0.618018299223889
40
0.618018299223889
40
0.64864055112374
40
0.64864055112374
40
0.679262803023592
40
0.679262803023592
40
0.709885054923443
40
0.709885054923443
40
0.740507306823295
40
0.740507306823295
40
0.801751810622986
40
0.801751810622986
40
0.832374062522838
40
0.832374062522838
40
0.86299631442269
40
0.86299631442269
40
0.893618566322541
40
0.893618566322541
40
0.924240818222393
40
0.924240818222393
40
0.954863070122244
40
0.954863070122244
40
0.985485322022096
40
0.985485322022096
40
1
40
1
40
1
40
1
41
1
10
9.09498893474384
20
-0.185612072616806
30
0
41
1
10
9.09243948394317
20
-0.185608564943209
30
0
41
1
10
9.08989195120517
20
-0.185590272841154
30
0
41
1
10
9.07336175759858
20
-0.18537637244745
30
0
41
1
10
9.05944623451759
20
-0.184747328078259
30
0
41
1
10
9.03172699605153
20
-0.182560845180717
30
0
41
1
10
9.01791723763745
20
-0.180996266573658
30
0
41
1
10
8.99013584708334
20
-0.17705367683547
30
0
41
1
10
8.97617965603979
20
-0.174681985316198
30
0
41
1
10
8.9482481201515
20
-0.169093392474537
30
0
41
1
10
8.93428292164248
20
-0.165863927293316
30
0
41
1
10
8.90631380474878
20
-0.158511370319388
30
0
41
1
10
8.8922750115382
20
-0.154358096685002
30
0
41
1
10
8.86422118622966
20
-0.145381734214453
30
0
41
1
10
8.85019869011327
20
-0.140604871037027
30
0
41
1
10
8.82219142058227
20
-0.130481284220309
30
0
41
1
10
8.80821957880858
20
-0.125117609438888
30
0
41
1
10
8.78039250873718
20
-0.113702943275143
30
0
41
1
10
8.76656370077819
20
-0.107606844142197
30
0
41
1
10
8.73883746981471
20
-0.0949851237265591
30
0
41
1
10
8.7249092747702
20
-0.0885140282493069
30
0
41
1
10
8.69692644183618
20
-0.0752781119376209
30
0
41
1
10
8.682894786009
20
-0.06847498304694
30
0
41
1
10
8.65481390348489
20
-0.0543629789652584
30
0
41
1
10
8.64073488524906
20
-0.0469946659374045
30
0
41
1
10
8.61271843790703
20
-0.0321084031479018
30
0
41
1
10
8.59873113907696
20
-0.0246757667009376
30
0
41
1
10
8.57072416974538
20
-0.0099683410667808
30
0
41
1
10
8.5567249450857
20
-0.0026530499003172
30
0
41
1
10
8.52881395790951
20
0.0120547586292901
30
0
41
1
10
8.51491062511909
20
0.0194630566203955
30
0
41
1
10
8.4871694157591
20
0.0343081507845113
30
0
41
1
10
8.47329560820975
20
0.0416757928418861
30
0
41
1
10
8.44532190886599
20
0.0558905079570025
30
0
41
1
10
8.43125333685211
20
0.0627977853839923
30
0
41
1
10
8.40306006714553
20
0.0764127084951838
30
0
41
1
10
8.38889533782194
20
0.0831375240306045
30
0
41
1
10
8.3608490520563
20
0.096252518031406
30
0
41
1
10
8.34692007929809
20
0.102608118161896
30
0
41
1
10
8.30499941806488
20
0.12042715774578
30
0
41
1
10
8.2769437275619
20
0.130840424445523
30
0
41
1
10
8.2352101519871
20
0.144976273769998
30
0
41
1
10
8.22135042400313
20
0.149410116598602
30
0
41
1
10
8.19342826969648
20
0.157366199054223
30
0
41
1
10
8.17935979291451
20
0.160893810705318
30
0
41
1
10
8.15110458306495
20
0.167172099325398
30
0
41
1
10
8.1368851311608
20
0.169926395653363
30
0
41
1
10
8.10874463851533
20
0.174619414088312
30
0
41
1
10
8.09480928089567
20
0.176564191023004
30
0
41
1
10
8.05296989571789
20
0.180949562979123
30
0
41
1
10
8.0249007828196
20
0.182009201456793
30
0
41
1
10
7.98301542288388
20
0.181031308514292
30
0
41
1
10
7.96911729097445
20
0.180249231759376
30
0
41
1
10
7.94122120123859
20
0.177764225839951
30
0
41
1
10
7.92718864039182
20
0.176079950839949
30
0
41
1
10
7.89893163637043
20
0.171888429426389
30
0
41
1
10
7.88468349097928
20
0.169372649764114
30
0
41
1
10
7.85643676189252
20
0.163503578131611
30
0
41
1
10
7.84243621382075
20
0.16011324792089
30
0
41
1
10
7.81453649534726
20
0.15251630009729
30
0
41
1
10
7.80059396130863
20
0.148354572271984
30
0
41
1
10
7.77261798045629
20
0.139471757396251
30
0
41
1
10
7.75860242745213
20
0.134734666290797
30
0
41
1
10
7.73795710180738
20
0.127255272706606
30
0
41
1
10
7.7313240188395
20
0.124768655360469
30
0
41
1
10
7.72469554077105
20
0.122199600041739
30
0
0
SPLINE
5
D4
100
AcDbEntity
8
SK1
62
256
6
ByLayer
370
18
48
1
60
0
100
AcDbSpline
70
4
71
3
72
8
73
4
40
0
40
0
40
0
40
0
40
1
40
1
40
1
40
1
41
1
10
12.4098373731962
20
-0.194249633518581
30
0
41
1
10
12.4284493221981
20
-0.166583337855712
30
0
41
1
10
12.4472615580093
20
-0.138131302698014
30
0
41
1
10
12.466189533879
20
-0.108971130376546
30
0
0
SPLINE
5
D5
100
AcDbEntity
8
SK1
62
256
6
ByLayer
370
18
48
1
60
0
100
AcDbSpline
70
4
71
3
72
68
73
64
40
0
40
0
40
0
40
0
40
0.0103279045015146
40
0.0103279045015146
40
0.0403507122317663
40
0.0403507122317663
40
0.070373519962018
40
0.070373519962018
40
0.130419135422521
40
0.130419135422521
40
0.160441943152767
40
0.160441943152767
40
0.190464750883013
40
0.190464750883013
40
0.220487558613259
40
0.220487558613259
40
0.250510366343505
40
0.250510366343505
40
0.280533174073751
40
0.280533174073751
40
0.310555981803998
40
0.310555981803998
40
0.340578789534243
40
0.340578789534243
40
0.370601597264489
40
0.370601597264489
40
0.400624404994736
40
0.400624404994736
40
0.430647212724981
40
0.430647212724981
40
0.460670020455227
40
0.460670020455227
40
0.490692828185473
40
0.490692828185473
40
0.520715635915719
40
0.520715635915719
40
0.550738443645965
40
0.550738443645965
40
0.580761251376211
40
0.580761251376211
40
0.610784059106457
40
0.610784059106457
40
0.670829674566949
40
0.670829674566949
40
0.700852482297201
40
0.700852482297201
40
0.730875290027452
40
0.730875290027452
40
0.760898097757704
40
0.760898097757704
40
0.790920905487956
40
0.790920905487956
40
0.820943713218208
40
0.820943713218208
40
0.850966520948459
40
0.850966520948459
40
0.911012136408963
40
0.911012136408963
40
0.941034944139215
40
0.941034944139215
40
0.971057751869466
40
0.971057751869466
40
1
40
1
40
1
40
1
41
1
10
12.3418496631485
20
-0.197826786762192
30
0
41
1
10
12.3371179922871
20
-0.197808481260637
30
0
41
1
10
12.3323832302844
20
-0.197735623848985
30
0
41
1
10
12.3138783296876
20
-0.197238218919722
30
0
41
1
10
12.3001128846385
20
-0.196403677943351
30
0
41
1
10
12.2725588018736
20
-0.193733439376956
30
0
41
1
10
12.2587303818871
20
-0.191891532310194
30
0
41
1
10
12.2173231057701
20
-0.1851291105352
30
0
41
1
10
12.1897077173854
20
-0.17901203860805
30
0
41
1
10
12.1487315653704
20
-0.167116258658183
30
0
41
1
10
12.1351381830647
20
-0.16268253600515
30
0
41
1
10
12.1077671017529
20
-0.153191279888347
30
0
41
1
10
12.0940064233206
20
-0.148126565773566
30
0
41
1
10
12.0663832946542
20
-0.137329062528948
30
0
41
1
10
12.0525242154176
20
-0.131593531827804
30
0
41
1
10
12.0247925639909
20
-0.119288559413178
30
0
41
1
10
12.0110012838792
20
-0.112758645187654
30
0
41
1
10
11.9834929038044
20
-0.0993511571520003
30
0
41
1
10
11.9697504432113
20
-0.0924686183392112
30
0
41
1
10
11.9422445897884
20
-0.0784355106923158
30
0
41
1
10
11.9284744543843
20
-0.0712975520022781
30
0
41
1
10
11.9010076463516
20
-0.0566017621035542
30
0
41
1
10
11.8873312458878
20
-0.0490071671647172
30
0
41
1
10
11.8599792761686
20
-0.0335004439740771
30
0
41
1
10
11.8462483108123
20
-0.0256861537964994
30
0
41
1
10
11.8185969474117
20
-0.0100896818134402
30
0
41
1
10
11.8046368938114
20
-0.0022903135904926
30
0
41
1
10
11.7768015866505
20
0.0133320208749126
30
0
41
1
10
11.7629948482815
20
0.0211810876851359
30
0
41
1
10
11.7355081036877
20
0.0367689567611365
30
0
41
1
10
11.7218092499963
20
0.0444732908513288
30
0
41
1
10
11.6943793735658
20
0.0594976070270263
30
0
41
1
10
11.6806433173696
20
0.0668101975867614
30
0
41
1
10
11.65311798994
20
0.0810304854294657
30
0
41
1
10
11.6393385940433
20
0.0879556894448967
30
0
41
1
10
11.6118198751516
20
0.101543797623265
30
0
41
1
10
11.5981214756549
20
0.108266245579074
30
0
41
1
10
11.5704871075162
20
0.120996573686995
30
0
41
1
10
11.5565015957761
20
0.127008581631259
30
0
41
1
10
11.5286900362104
20
0.138308882284747
30
0
41
1
10
11.5148376444892
20
0.143615698860373
30
0
41
1
10
11.4735004901804
20
0.158575127865618
30
0
41
1
10
11.4462422051393
20
0.1672153228279
30
0
41
1
10
11.4049576915218
20
0.177390067204613
30
0
41
1
10
11.3911341280013
20
0.180337782289797
30
0
41
1
10
11.3634828686063
20
0.185431219405473
30
0
41
1
10
11.3496525435764
20
0.187570762342204
30
0
41
1
10
11.3219478171999
20
0.190956554404437
30
0
41
1
10
11.3080646398031
20
0.192183620330411
30
0
41
1
10
11.2803430981165
20
0.193639330874106
30
0
41
1
10
11.2664735129642
20
0.193891747478546
30
0
41
1
10
11.2388279691584
20
0.193497504747342
30
0
41
1
10
11.2250607566226
20
0.19284489482655
30
0
41
1
10
11.1975999636159
20
0.190601434852709
30
0
41
1
10
11.1839169948811
20
0.189002245529451
30
0
41
1
10
11.1427130204364
20
0.182863909291825
30
0
41
1
10
11.1149123081411
20
0.177126595366047
30
0
41
1
10
11.0730804614288
20
0.165779358334703
30
0
41
1
10
11.0592351449965
20
0.161519624340087
30
0
41
1
10
11.0316335201923
20
0.15230490475696
30
0
41
1
10
11.0178232741654
20
0.147388187403578
30
0
41
1
10
10.9906631616429
20
0.137195942703158
30
0
41
1
10
10.9773370185088
20
0.13191370105443
30
0
41
1
10
10.9640483586699
20
0.126305696885851
30
0
0
SPLINE
5
D6
100
AcDbEntity
8
SK1
62
256
6
ByLayer
370
18
48
1
60
0
100
AcDbSpline
70
4
71
3
72
70
73
66
40
0
40
0
40
0
40
0
40
0.0013407448893891
40
0.0013407448893891
40
0.0318099790383071
40
0.0318099790383071
40
0.0622792131872251
40
0.0622792131872251
40
0.123217681485049
40
0.123217681485049
40
0.153686915633956
40
0.153686915633956
40
0.184156149782862
40
0.184156149782862
40
0.214625383931768
40
0.214625383931768
40
0.245094618080675
40
0.245094618080675
40
0.306033086378487
40
0.306033086378487
40
0.3365023205274
40
0.3365023205274
40
0.366971554676312
40
0.366971554676312
40
0.397440788825224
40
0.397440788825224
40
0.427910022974136
40
0.427910022974136
40
0.458379257123048
40
0.458379257123048
40
0.488848491271961
40
0.488848491271961
40
0.519317725420873
40
0.519317725420873
40
0.549786959569785
40
0.549786959569785
40
0.580256193718697
40
0.580256193718697
40
0.610725427867609
40
0.610725427867609
40
0.641194662016521
40
0.641194662016521
40
0.671663896165433
40
0.671663896165433
40
0.702133130314346
40
0.702133130314346
40
0.732602364463258
40
0.732602364463258
40
0.76307159861217
40
0.76307159861217
40
0.793540832761082
40
0.793540832761082
40
0.824010066909994
40
0.824010066909994
40
0.854479301058906
40
0.854479301058906
40
0.884948535207819
40
0.884948535207819
40
0.915417769356731
40
0.915417769356731
40
0.945887003505643
40
0.945887003505643
40
0.976356237654555
40
0.976356237654555
40
1
40
1
40
1
40
1
41
1
10
10.1749441584267
20
-0.189674165195242
30
0
41
1
10
10.1743318369429
20
-0.189670495065144
30
0
41
1
10
10.1737194717743
20
-0.189665959717303
30
0
41
1
10
10.1591897775989
20
-0.189537845873446
30
0
41
1
10
10.1452710772407
20
-0.18896634017986
30
0
41
1
10
10.1174323895952
20
-0.186839813199015
30
0
41
1
10
10.1034692434729
20
-0.185280717122055
30
0
41
1
10
10.061656039465
20
-0.179372420959339
30
0
41
1
10
10.0337748055981
20
-0.173833685527228
30
0
41
1
10
9.9923707846732
20
-0.16285361739611
30
0
41
1
10
9.97863733526415
20
-0.158726623629349
30
0
41
1
10
9.951009821779
20
-0.149827208210581
30
0
41
1
10
9.93712166165142
20
-0.145059001385874
30
0
41
1
10
9.90922694887777
20
-0.134885523877273
30
0
41
1
10
9.89522202094446
20
-0.12948166667249
30
0
41
1
10
9.86721805211022
20
-0.117825265504024
30
0
41
1
10
9.85327721565784
20
-0.111579100755705
30
0
41
1
10
9.81157464323974
20
-0.0923665440664365
30
0
41
1
10
9.78371996152643
20
-0.0790238737396578
30
0
41
1
10
9.74216290620012
20
-0.0577499695388326
30
0
41
1
10
9.72837740913715
20
-0.0503904967266351
30
0
41
1
10
9.70074054111916
20
-0.0354796765959691
30
0
41
1
10
9.686873024394
20
-0.0279595281178615
30
0
41
1
10
9.65897673898314
20
-0.0129180056988503
30
0
41
1
10
9.6449399716879
20
-0.0054112095406822
30
0
41
1
10
9.61677348140458
20
0.0097241148864953
30
0
41
1
10
9.60279349175337
20
0.0173206446280005
30
0
41
1
10
9.57502189917767
20
0.0325209595552565
30
0
41
1
10
9.56118131809092
20
0.0400288308142933
30
0
41
1
10
9.53342816461918
20
0.0545751364311684
30
0
41
1
10
9.51952531777462
20
0.0616344433693996
30
0
41
1
10
9.49172745949664
20
0.0754451629045718
30
0
41
1
10
9.47785935268666
20
0.0822424684203327
30
0
41
1
10
9.45015677758306
20
0.0955530982880362
30
0
41
1
10
9.43629668894485
20
0.102022081226295
30
0
41
1
10
9.40841773611029
20
0.114356970460847
30
0
41
1
10
9.39437256274491
20
0.120236316095657
30
0
41
1
10
9.36620961736938
20
0.131300864676575
30
0
41
1
10
9.35217627068559
20
0.136478507776587
30
0
41
1
10
9.32427796324467
20
0.146225416008406
30
0
41
1
10
9.31045369570842
20
0.150834064667038
30
0
41
1
10
9.28278230308683
20
0.159182630646399
30
0
41
1
10
9.26888906800821
20
0.162886134958626
30
0
41
1
10
9.24106904347178
20
0.169486701066631
30
0
41
1
10
9.22714544030225
20
0.172385606609595
30
0
41
1
10
9.1993285721224
20
0.177400397575951
30
0
41
1
10
9.18542576601999
20
0.179505035091324
30
0
41
1
10
9.15753834320475
20
0.182818439083661
30
0
41
1
10
9.14351228841289
20
0.184024054334827
30
0
41
1
10
9.11538508372513
20
0.185477185749477
30
0
41
1
10
9.10133161954309
20
0.185738301934549
30
0
41
1
10
9.07336175759917
20
0.185376372448218
30
0
41
1
10
9.05944623451762
20
0.184747328078288
30
0
41
1
10
9.03172699605156
20
0.182560845180745
30
0
41
1
10
9.01791723763745
20
0.180996266573686
30
0
41
1
10
8.99013584708331
20
0.177053676835499
30
0
41
1
10
8.97617965603976
20
0.174681985316198
30
0
41
1
10
8.94824812015148
20
0.169093392474537
30
0
41
1
10
8.93428292164251
20
0.165863927293344
30
0
41
1
10
8.90631380474878
20
0.158511370319417
30
0
41
1
10
8.89227501153817
20
0.15435809668503
30
0
41
1
10
8.86422118622966
20
0.145381734214482
30
0
41
1
10
8.85019869011325
20
0.140604871037055
30
0
41
1
10
8.825328401767
20
0.131615186307101
30
0
41
1
10
8.81448089257441
20
0.127505514854988
30
0
41
1
10
8.80366491676961
20
0.123194542291458
30
0
0
SPLINE
5
D7
100
AcDbEntity
8
SK1
62
256
6
ByLayer
370
18
48
1
60
0
100
AcDbSpline
70
4
71
3
72
52
73
48
40
0
40
0
40
0
40
0
40
0.0133639762534326
40
0.0133639762534326
40
0.0582110682419129
40
0.0582110682419129
40
0.103058160230393
40
0.103058160230393
40
0.147905252218874
40
0.147905252218874
40
0.192752344207354
40
0.192752344207354
40
0.237599436195834
40
0.237599436195834
40
0.282446528184315
40
0.282446528184315
40
0.327293620172795
40
0.327293620172795
40
0.372140712161275
40
0.372140712161275
40
0.416987804149756
40
0.416987804149756
40
0.461834896138236
40
0.461834896138236
40
0.506681988126716
40
0.506681988126716
40
0.551529080115197
40
0.551529080115197
40
0.596376172103677
40
0.596376172103677
40
0.641223264092157
40
0.641223264092157
40
0.686070356080638
40
0.686070356080638
40
0.730917448069118
40
0.730917448069118
40
0.775764540057598
40
0.775764540057598
40
0.820611632046079
40
0.820611632046079
40
0.865458724034559
40
0.865458724034559
40
0.910305816023039
40
0.910305816023039
40
0.95515290801152
40
0.95515290801152
40
1
40
1
40
1
40
1
41
1
10
8.00946724837917
20
-0.181534183252381
30
0
41
1
10
8.00530138062808
20
-0.181513545012393
30
0
41
1
10
8.00113767962671
20
-0.181454406871268
30
0
41
1
10
7.98301542288385
20
-0.181031308514264
30
0
41
1
10
7.96911729097442
20
-0.180249231759348
30
0
41
1
10
7.94122120123859
20
-0.177764225839923
30
0
41
1
10
7.92718864039182
20
-0.17607995083992
30
0
41
1
10
7.89893163637041
20
-0.17188842942636
30
0
41
1
10
7.88468349097926
20
-0.169372649764085
30
0
41
1
10
7.8564367618925
20
-0.163503578131582
30
0
41
1
10
7.84243621382075
20
-0.16011324792089
30
0
41
1
10
7.81453649534726
20
-0.152516300097261
30
0
41
1
10
7.80059396130861
20
-0.148354572271956
30
0
41
1
10
7.77261798045626
20
-0.139471757396223
30
0
41
1
10
7.75860242745213
20
-0.134734666290768
30
0
41
1
10
7.7305896067237
20
-0.12458617479993
30
0
41
1
10
7.71660915609345
20
-0.119149306736688
30
0
41
1
10
7.68867712222971
20
-0.107532137210825
30
0
41
1
10
7.67469699587969
20
-0.101389078145445
30
0
41
1
10
7.64648169197869
20
-0.0888214929210562
30
0
41
1
10
7.63223488359671
20
-0.0823429054917995
30
0
41
1
10
7.60391012456842
20
-0.0690949891102264
30
0
41
1
10
7.58982073669321
20
-0.06228228943462
30
0
41
1
10
7.56183814562508
20
-0.048179502140357
30
0
41
1
10
7.54792650593691
20
-0.0409230185399281
30
0
41
1
10
7.51997503123002
20
-0.0265556285684454
30
0
41
1
10
7.50596005686484
20
-0.0193981932474401
30
0
41
1
10
7.47790857886486
20
-0.005029267977676
30
0
41
1
10
7.46387943222425
20
0.0021965944877138
30
0
41
1
10
7.43587868605306
20
0.0168642887140606
30
0
41
1
10
7.42188655634533
20
0.0242666105461353
30
0
41
1
10
7.39370676993664
20
0.0387853950011277
30
0
41
1
10
7.37948519124717
20
0.0459390043254757
30
0
41
1
10
7.35113000793385
20
0.0597919332737717
30
0
41
1
10
7.33698509194585
20
0.066512206912023
30
0
41
1
10
7.30887132799327
20
0.079750702351447
30
0
41
1
10
7.2949211149203
20
0.0862949789638776
30
0
41
1
10
7.26700745208169
20
0.0988161804496315
30
0
41
1
10
7.25301822021552
20
0.10475452900593
30
0
41
1
10
7.22496060994169
20
0.115997429972623
30
0
41
1
10
7.21088868146018
20
0.121299584112933
30
0
41
1
10
7.18277933266828
20
0.131436344065548
30
0
41
1
10
7.16875406290998
20
0.136281082469878
30
0
41
1
10
7.14058455650982
20
0.145252575929334
30
0
41
1
10
7.12640281980953
20
0.149381554843529
30
0
41
1
10
7.0980113943032
20
0.156775859019717
30
0
41
1
10
7.08379476739231
20
0.160038759696619
30
0
41
1
10
7.06958621108257
20
0.162906604899319
30
0
0
SPLINE
5
D8
100
AcDbEntity
8
SK1
62
256
6
ByLayer
370
13
48
1
60
0
100
AcDbSpline
70
4
71
3
72
14
73
10
40
0
40
0
40
0
40
0
40
0.25
40
0.25
40
0.5
40
0.5
40
0.75
40
0.75
40
1
40
1
40
1
40
1
41
1
10
7.06958621108257
20
0.162906604899319
30
0
41
1
10
7.0765506317037
20
0.139708054500147
30
0
41
1
10
7.08301203560757
20
0.116380749146231
30
0
41
1
10
7.09497712896834
20
0.0696370207232064
30
0
41
1
10
7.1004765346384
20
0.0462439691497707
30
0
41
1
10
7.11118964724113
20
-0.0002631975689837
30
0
41
1
10
7.11643016189262
20
-0.0233498008146569
30
0
41
1
10
7.12746579607614
20
-0.0689947707278407
30
0
41
1
10
7.13327043896433
20
-0.0915647331851517
30
0
41
1
10
7.13947751428844
20
-0.113901331350434
30
0
0
SPLINE
5
D9
100
AcDbEntity
8
SK1
62
256
6
ByLayer
370
18
48
1
60
0
100
AcDbSpline
70
4
71
3
72
22
73
18
40
0
40
0
40
0
40
0
40
0.271259942304859
40
0.271259942304859
40
0.406889913457303
40
0.406889913457303
40
0.542519884609747
40
0.542519884609747
40
0.67814985576219
40
0.67814985576219
40
0.813779826914634
40
0.813779826914634
40
0.88159481249087
40
0.88159481249087
40
0.949409798067105
40
0.949409798067105
40
1
40
1
40
1
40
1
41
1
10
7.13947751428847
20
-0.113901331350462
30
0
41
1
10
7.19280433523886
20
-0.135348871615292
30
0
41
1
10
7.24526285560523
20
-0.152406831988571
30
0
41
1
10
7.32453508878075
20
-0.169329357659535
30
0
41
1
10
7.35106676867514
20
-0.173556833131727
30
0
41
1
10
7.40446503396709
20
-0.178817550028896
30
0
41
1
10
7.43094835334807
20
-0.179819939392161
30
0
41
1
10
7.48370705898628
20
-0.178643881975063
30
0
41
1
10
7.50999322349716
20
-0.176456880192291
30
0
41
1
10
7.5627228179369
20
-0.168997240999857
30
0
41
1
10
7.58915946987887
20
-0.163728572790404
30
0
41
1
10
7.62911066268862
20
-0.153564887918549
30
0
41
1
10
7.64245505714303
20
-0.149805578355114
30
0
41
1
10
7.66898079691896
20
-0.141676755394855
30
0
41
1
10
7.6822051700056
20
-0.137305608733612
30
0
41
1
10
7.70524571746532
20
-0.129169972604103
30
0
41
1
10
7.71507226215957
20
-0.125529973777816
30
0
41
1
10
7.72488972308125
20
-0.12173876186236
30
0
0
SPLINE
5
DA
100
AcDbEntity
8
SK1
62
256
6
ByLayer
370
18
48
1
60
0
100
AcDbSpline
70
4
71
3
72
46
73
42
40
0
40
0
40
0
40
0
40
0.0353739741800574
40
0.0353739741800574
40
0.064227338545782
40
0.064227338545782
40
0.0930807029115064
40
0.0930807029115064
40
0.150787431642955
40
0.150787431642955
40
0.208494160374404
40
0.208494160374404
40
0.237347524740128
40
0.237347524740128
40
0.266200889105852
40
0.266200889105852
40
0.381614346568762
40
0.381614346568762
40
0.43932107530021
40
0.43932107530021
40
0.497027804031659
40
0.497027804031659
40
0.612441261494568
40
0.612441261494568
40
0.641294625860299
40
0.641294625860299
40
0.670147990226029
40
0.670147990226029
40
0.727854718957501
40
0.727854718957501
40
0.785561447688973
40
0.785561447688973
40
0.814414812054703
40
0.814414812054703
40
0.843268176420434
40
0.843268176420434
40
0.958681633883355
40
0.958681633883355
40
0.987534998249085
40
0.987534998249085
40
1
40
1
40
1
40
1
41
1
10
8.51731410544406
20
0.183440882619863
30
0
41
1
10
8.53338763516192
20
0.183496787557431
30
0
41
1
10
8.54946837172986
20
0.182948581130887
30
0
41
1
10
8.57873839275891
20
0.180846362947222
30
0
41
1
10
8.59191498673277
20
0.179495818031313
30
0
41
1
10
8.61837643779677
20
0.175988575474889
30
0
41
1
10
8.63169522182545
20
0.173824643991452
30
0
41
1
10
8.67140971068022
20
0.166210177818243
30
0
41
1
10
8.69766306197528
20
0.159624757764533
30
0
41
1
10
8.75007005642703
20
0.143809243114532
30
0
41
1
10
8.77622641791623
20
0.13458597899384
30
0
41
1
10
8.81559591242586
20
0.119020568913356
30
0
41
1
10
8.82873966213774
20
0.113540406156147
30
0
41
1
10
8.85511584866822
20
0.102055747073251
30
0
41
1
10
8.86838107003109
20
0.0960366749038428
30
0
41
1
10
8.93463648476848
20
0.0649305078680698
30
0
41
1
10
8.98671379224788
20
0.0371967526793355
30
0
41
1
10
9.06531156333034
20
-0.005202931713967
30
0
41
1
10
9.09157980807589
20
-0.0194902893499318
30
0
41
1
10
9.14457701602515
20
-0.0477710989705997
30
0
41
1
10
9.17089715255912
20
-0.0615256789632497
30
0
41
1
10
9.24947706869875
20
-0.100666030150251
30
0
41
1
10
9.30145711597686
20
-0.124067085196543
30
0
41
1
10
9.36750734756149
20
-0.147401848101197
30
0
41
1
10
9.38076340115643
20
-0.151774046511235
30
0
41
1
10
9.4070958706503
20
-0.159774885092816
30
0
41
1
10
9.42021408890346
20
-0.163417379568614
30
0
41
1
10
9.45949668302012
20
-0.17322536552004
30
0
41
1
10
9.48557365254828
20
-0.17828718450582
30
0
41
1
10
9.53778223222238
20
-0.185278990466685
30
0
41
1
10
9.56392712716482
20
-0.187199758374447
30
0
41
1
10
9.60345362186905
20
-0.187596449870227
30
0
41
1
10
9.61671288340244
20
-0.187311849539554
30
0
41
1
10
9.64306712826621
20
-0.185913784193417
30
0
41
1
10
9.65618876211556
20
-0.184802714526541
30
0
41
1
10
9.72163206727674
20
-0.177252713230018
30
0
41
1
10
9.77347928619628
20
-0.164841639108062
30
0
41
1
10
9.8391630323581
20
-0.142448427956822
30
0
41
1
10
9.85238711902917
20
-0.137616741551568
30
0
41
1
10
9.87127605957477
20
-0.130291196730013
30
0
41
1
10
9.8769635778435
20
-0.12802958765127
30
0
41
1
10
9.88264155634278
20
-0.125718591527914
30
0
0
SPLINE
5
DB
100
AcDbEntity
8
SK1
62
256
6
ByLayer
370
18
48
1
60
0
100
AcDbSpline
70
4
71
3
72
50
73
46
40
0
40
0
40
0
40
0
40
0.0133500546501797
40
0.0133500546501797
40
0.0701585530391921
40
0.0701585530391921
40
0.0985628022336983
40
0.0985628022336983
40
0.126967051428204
40
0.126967051428204
40
0.183775549817228
40
0.183775549817228
40
0.240584048206252
40
0.240584048206252
40
0.268988297400758
40
0.268988297400758
40
0.297392546595264
40
0.297392546595264
40
0.411009543373288
40
0.411009543373288
40
0.439413792567786
40
0.439413792567786
40
0.467818041762284
40
0.467818041762284
40
0.52462654015129
40
0.52462654015129
40
0.581435038540296
40
0.581435038540296
40
0.609839287734794
40
0.609839287734794
40
0.638243536929291
40
0.638243536929291
40
0.751860533707303
40
0.751860533707303
40
0.780264782901815
40
0.780264782901815
40
0.808669032096327
40
0.808669032096327
40
0.865477530485339
40
0.865477530485339
40
0.922286028874351
40
0.922286028874351
40
0.979094527263363
40
0.979094527263363
40
1
40
1
40
1
40
1
41
1
10
10.6704028800099
20
0.191538355120144
30
0
41
1
10
10.6765115406665
20
0.191572775354558
30
0
41
1
10
10.6826166453495
20
0.191516226435255
30
0
41
1
10
10.7146920568292
20
0.190742886207431
30
0
41
1
10
10.7406079590327
20
0.188466696079018
30
0
41
1
10
10.7796885966096
20
0.182615428561945
30
0
41
1
10
10.7927527488722
20
0.180262028881884
30
0
41
1
10
10.818984265307
20
0.174752305092795
30
0
41
1
10
10.8321683901569
20
0.171588167654591
30
0
41
1
10
10.8714463118711
20
0.161042599972603
30
0
41
1
10
10.8974114543892
20
0.152566814417753
30
0
41
1
10
10.9493008019083
20
0.133212137180152
30
0
41
1
10
10.9752064406327
20
0.122315813823491
30
0
41
1
10
11.0142224106482
20
0.104410672093678
30
0
41
1
10
11.027256850926
20
0.0981863049852336
30
0
41
1
10
11.0534215631143
20
0.0852724653384485
30
0
41
1
10
11.0665928472961
20
0.0785736454371886
30
0
41
1
10
11.1320639144421
20
0.0444853635984828
30
0
41
1
10
11.1835600214442
20
0.0150218285558026
30
0
41
1
10
11.2485057094664
20
-0.0215339220273165
30
0
41
1
10
11.2615195128611
20
-0.0288387584011787
30
0
41
1
10
11.2876340158393
20
-0.0433685597317606
30
0
41
1
10
11.3007773020886
20
-0.0506132940563475
30
0
41
1
10
11.3400419703037
20
-0.0718602491137972
30
0
41
1
10
11.3660092558015
20
-0.0853979416659456
30
0
41
1
10
11.4178006252481
20
-0.110813387692019
30
0
41
1
10
11.4436222949875
20
-0.122690499658006
30
0
41
1
10
11.4825299969447
20
-0.13883752722694
30
0
41
1
10
11.4955266710177
20
-0.143944944655345
30
0
41
1
10
11.5216054025861
20
-0.153562622010611
30
0
41
1
10
11.5347256849122
20
-0.158085772293219
30
0
41
1
10
11.6001362165055
20
-0.178885770117347
30
0
41
1
10
11.6515881571853
20
-0.189573831128257
30
0
41
1
10
11.7163140165932
20
-0.194721328095653
30
0
41
1
10
11.7292835111078
20
-0.195337951863308
30
0
41
1
10
11.7553198155087
20
-0.195728200821236
30
0
41
1
10
11.7684155714585
20
-0.195500686355217
30
0
41
1
10
11.807662213695
20
-0.193536958884607
30
0
41
1
10
11.8335747299856
20
-0.19053366435358
30
0
41
1
10
11.8852730488471
20
-0.181375012269541
30
0
41
1
10
11.911064234654
20
-0.175229578562181
30
0
41
1
10
11.9627890939315
20
-0.159983346362253
30
0
41
1
10
11.9887712473509
20
-0.15085241426047
30
0
41
1
10
12.0245512937037
20
-0.136614976264326
30
0
41
1
10
12.0341422812365
20
-0.132628995377246
30
0
41
1
10
12.0437078289038
20
-0.128500454710149
30
0
0
LINE
5
80
100
AcDbEntity
8
SK4
62
256
6
ByLayer
370
13
48
0.05
60
0
100
AcDbLine
10
-29.979
20
0
30
0
11
17.521
21
0
31
0
39
0
210
0
220
0
230
1
0
LINE
5
82
100
AcDbEntity
8
81
62
256
6
ByLayer
370
18
48
1
60
0
100
AcDbLine
10
12.521
20
0
30
0
11
22.521
21
0
31
0
39
0
210
0
220
0
230
1
0
LINE
5
83
100
AcDbEntity
8
4
62
256
6
ByLayer
370
13
48
0.05
60
0
100
AcDbLine
10
0
20
0
30
0
11
12.521
21
0
31
0
39
0
210
0
220
0
230
1
0
LINE
5
85
100
AcDbEntity
8
80
62
256
6
ByLayer
370
18
48
1
60
0
100
AcDbLine
10
0
20
0
30
0
11
-10
21
0
31
0
39
0
210
0
220
0
230
1
0
LINE
5
86
100
AcDbEntity
8
SK1
62
256
6
ByLayer
370
18
48
1
60
0
100
AcDbLine
10
12.500875
20
-0.038483
30
0
11
12.46619
21
-0.108971
31
0
39
0
210
0
220
0
230
1
0
LINE
5
88
100
AcDbEntity
8
SK1
62
256
6
ByLayer
370
18
48
1
60
0
100
AcDbLine
10
12.519055
20
-0.004678
30
0
11
12.521
21
0
31
0
39
0
210
0
220
0
230
1
0
LINE
5
89
100
AcDbEntity
8
SK1
62
256
6
ByLayer
370
18
48
1
60
0
100
AcDbLine
10
12.500875
20
0.038483
30
0
11
12.46619
21
0.108971
31
0
39
0
210
0
220
0
230
1
0
LINE
5
8A
100
AcDbEntity
8
SK1
62
256
6
ByLayer
370
13
48
1
60
0
100
AcDbLine
10
12.500875
20
0.038483
30
0
11
12.399751
21
0.096454
31
0
39
0
210
0
220
0
230
1
0
LINE
5
8B
100
AcDbEntity
8
SK1
62
256
6
ByLayer
370
18
48
1
60
0
100
AcDbLine
10
12.521
20
0
30
0
11
12.401998
21
-0.198052
31
0
39
0
210
0
220
0
230
1
0
LINE
5
8C
100
AcDbEntity
8
SK1
62
256
6
ByLayer
370
18
48
1
60
0
100
AcDbLine
10
12.521
20
0
30
0
11
12.519055
21
0.004678
31
0
39
0
210
0
220
0
230
1
0
LINE
5
8D
100
AcDbEntity
8
SK1
62
256
6
ByLayer
370
18
48
1
60
0
100
AcDbLine
10
12.325338
20
-0.125861
30
0
11
12.515183
21
0.001516
31
0
39
0
210
0
220
0
230
1
0
LINE
5
8E
100
AcDbEntity
8
SK1
62
256
6
ByLayer
370
13
48
1
60
0
100
AcDbLine
10
12.515183
20
0.001516
30
0
11
12.374808
21
0.081989
31
0
39
0
210
0
220
0
230
1
0
LINE
5
8F
100
AcDbEntity
8
SK1
62
256
6
ByLayer
370
18
48
1
60
0
100
AcDbLine
10
5.078083
20
-0.635
30
0
11
5.078083
21
0.635
31
0
39
0
210
0
220
0
230
1
0
LINE
5
90
100
AcDbEntity
8
SK1
62
256
6
ByLayer
370
18
48
1
60
0
100
AcDbLine
10
6.553
20
-0.176052
30
0
11
6.553
21
0.176052
31
0
39
0
210
0
220
0
230
1
0
LINE
5
91
100
AcDbEntity
8
SK1
62
256
6
ByLayer
370
18
48
1
60
0
100
AcDbLine
10
-24.979
20
-1.35
30
0
11
-24.979
21
1.35
31
0
39
0
210
0
220
0
230
1
0
LINE
5
92
100
AcDbEntity
8
SK1
62
256
6
ByLayer
370
18
48
1
60
0
100
AcDbLine
10
-24.892397
20
-1.5
30
0
11
-24.892397
21
1.5
31
0
39
0
210
0
220
0
230
1
0
LINE
5
93
100
AcDbEntity
8
SK1
62
256
6
ByLayer
370
18
48
1
60
0
100
AcDbLine
10
-0.000831
20
-1.5
30
0
11
-0.000831
21
1.5
31
0
39
0
210
0
220
0
230
1
0
LINE
5
94
100
AcDbEntity
8
SK1
62
256
6
ByLayer
370
18
48
1
60
0
100
AcDbLine
10
2.779014
20
-0.635
30
0
11
2.779014
21
0.635
31
0
39
0
210
0
220
0
230
1
0
LINE
5
95
100
AcDbEntity
8
SK1
62
256
6
ByLayer
370
18
48
1
60
0
100
AcDbLine
10
6.553
20
-0.176052
30
0
11
7.438902
21
-0.179385
31
0
39
0
210
0
220
0
230
1
0
LINE
5
96
100
AcDbEntity
8
SK1
62
256
6
ByLayer
370
18
48
1
60
0
100
AcDbLine
10
8.009493
20
-0.181531
30
0
11
8.517088
21
-0.18344
31
0
39
0
210
0
220
0
230
1
0
LINE
5
97
100
AcDbEntity
8
SK1
62
256
6
ByLayer
370
18
48
1
60
0
100
AcDbLine
10
9.094564
20
-0.185612
30
0
11
9.59475
21
-0.187493
31
0
39
0
210
0
220
0
230
1
0
LINE
5
98
100
AcDbEntity
8
SK1
62
256
6
ByLayer
370
18
48
1
60
0
100
AcDbLine
10
10.175416
20
-0.189677
30
0
11
10.670668
21
-0.19154
31
0
39
0
210
0
220
0
230
1
0
LINE
5
99
100
AcDbEntity
8
SK1
62
256
6
ByLayer
370
18
48
1
60
0
100
AcDbLine
10
11.259905
20
-0.193757
30
0
11
11.749693
21
-0.195599
31
0
39
0
210
0
220
0
230
1
0
LINE
5
9A
100
AcDbEntity
8
SK1
62
256
6
ByLayer
370
18
48
1
60
0
100
AcDbLine
10
12.341884
20
-0.197826
30
0
11
12.401998
21
-0.198052
31
0
39
0
210
0
220
0
230
1
0
LINE
5
9B
100
AcDbEntity
8
SK1
62
256
6
ByLayer
370
18
48
1
60
0
100
AcDbLine
10
12.401998
20
0.198052
30
0
11
12.341884
21
0.197826
31
0
39
0
210
0
220
0
230
1
0
LINE
5
9C
100
AcDbEntity
8
SK1
62
256
6
ByLayer
370
18
48
1
60
0
100
AcDbLine
10
11.749693
20
0.195599
30
0
11
11.259905
21
0.193757
31
0
39
0
210
0
220
0
230
1
0
LINE
5
9D
100
AcDbEntity
8
SK1
62
256
6
ByLayer
370
18
48
1
60
0
100
AcDbLine
10
10.670668
20
0.19154
30
0
11
10.175416
21
0.189677
31
0
39
0
210
0
220
0
230
1
0
LINE
5
9E
100
AcDbEntity
8
SK1
62
256
6
ByLayer
370
18
48
1
60
0
100
AcDbLine
10
9.59475
20
0.187493
30
0
11
9.094564
21
0.185612
31
0
39
0
210
0
220
0
230
1
0
LINE
5
9F
100
AcDbEntity
8
SK1
62
256
6
ByLayer
370
18
48
1
60
0
100
AcDbLine
10
8.517088
20
0.18344
30
0
11
8.009493
21
0.181531
31
0
39
0
210
0
220
0
230
1
0
LINE
5
A0
100
AcDbEntity
8
SK1
62
256
6
ByLayer
370
18
48
1
60
0
100
AcDbLine
10
7.438902
20
0.179385
30
0
11
6.553
21
0.176052
31
0
39
0
210
0
220
0
230
1
0
LINE
5
A1
100
AcDbEntity
8
SK1
62
256
6
ByLayer
370
18
48
1
60
0
100
AcDbLine
10
2.779014
20
-0.635
30
0
11
5.078083
21
-0.635
31
0
39
0
210
0
220
0
230
1
0
LINE
5
A2
100
AcDbEntity
8
SK1
62
256
6
ByLayer
370
18
48
1
60
0
100
AcDbLine
10
5.078083
20
0.635
30
0
11
2.779014
21
0.635
31
0
39
0
210
0
220
0
230
1
0
LINE
5
A3
100
AcDbEntity
8
SK1
62
256
6
ByLayer
370
18
48
1
60
0
100
AcDbLine
10
6.553
20
0.176052
30
0
11
5.078083
21
0.635
31
0
39
0
210
0
220
0
230
1
0
LINE
5
A4
100
AcDbEntity
8
SK1
62
256
6
ByLayer
370
18
48
1
60
0
100
AcDbLine
10
5.078083
20
-0.635
30
0
11
6.553
21
-0.176052
31
0
39
0
210
0
220
0
230
1
0
LINE
5
A5
100
AcDbEntity
8
SK1
62
256
6
ByLayer
370
18
48
1
60
0
100
AcDbLine
10
-24.979
20
-1.35
30
0
11
-24.892397
21
-1.5
31
0
39
0
210
0
220
0
230
1
0
LINE
5
A6
100
AcDbEntity
8
SK1
62
256
6
ByLayer
370
18
48
1
60
0
100
AcDbLine
10
-24.892397
20
1.5
30
0
11
-24.979
21
1.35
31
0
39
0
210
0
220
0
230
1
0
LINE
5
A7
100
AcDbEntity
8
SK1
62
256
6
ByLayer
370
18
48
1
60
0
100
AcDbLine
10
-24.892397
20
-1.5
30
0
11
-0.000831
21
-1.5
31
0
39
0
210
0
220
0
230
1
0
LINE
5
A8
100
AcDbEntity
8
SK1
62
256
6
ByLayer
370
18
48
1
60
0
100
AcDbLine
10
-0.000831
20
1.5
30
0
11
-24.892397
21
1.5
31
0
39
0
210
0
220
0
230
1
0
LINE
5
A9
100
AcDbEntity
8
SK1
62
256
6
ByLayer
370
18
48
1
60
0
100
AcDbLine
10
2.779014
20
0.635
30
0
11
-0.000831
21
1.5
31
0
39
0
210
0
220
0
230
1
0
LINE
5
AA
100
AcDbEntity
8
SK1
62
256
6
ByLayer
370
18
48
1
60
0
100
AcDbLine
10
-0.000831
20
-1.5
30
0
11
2.779014
21
-0.635
31
0
39
0
210
0
220
0
230
1
0
LINE
5
AB
100
AcDbEntity
8
2
62
256
6
ByLayer
370
13
48
1
60
0
100
AcDbLine
10
29.521
20
25.090565
30
0
11
29.521
21
-8.9485
31
0
39
0
210
0
220
0
230
1
0
LINE
5
AD
100
AcDbEntity
8
2
62
256
6
ByLayer
370
13
48
1
60
0
100
AcDbLine
10
14.1085
20
0.1985
30
0
11
31.521
21
0.1985
31
0
39
0
210
0
220
0
230
1
0
LINE
5
AE
100
AcDbEntity
8
2
62
256
6
ByLayer
370
13
48
1
60
0
100
AcDbLine
10
14.1085
20
-0.1985
30
0
11
31.521
21
-0.1985
31
0
39
0
210
0
220
0
230
1
0
LINE
5
AF
100
AcDbEntity
8
1
62
256
6
ByLayer
370
18
48
1
60
1
100
AcDbLine
10
29.521
20
0.1985
30
0
11
29.060216
21
3.698498
31
0
39
0
210
0
220
0
230
1
0
LINE
5
B0
100
AcDbEntity
8
1
62
256
6
ByLayer
370
18
48
1
60
1
100
AcDbLine
10
29.060216
20
3.698498
30
0
11
29.981784
21
3.698502
31
0
39
0
210
0
220
0
230
1
0
LINE
5
B1
100
AcDbEntity
8
1
62
256
6
ByLayer
370
18
48
1
60
1
100
AcDbLine
10
29.981784
20
3.698502
30
0
11
29.521
21
0.1985
31
0
39
0
210
0
220
0
230
1
0
LINE
5
B2
100
AcDbEntity
8
1
62
256
6
ByLayer
370
18
48
1
60
1
100
AcDbLine
10
29.521
20
-0.1985
30
0
11
29.981784
21
-3.698498
31
0
39
0
210
0
220
0
230
1
0
LINE
5
B3
100
AcDbEntity
8
1
62
256
6
ByLayer
370
18
48
1
60
1
100
AcDbLine
10
29.981784
20
-3.698498
30
0
11
29.060216
21
-3.698502
31
0
39
0
210
0
220
0
230
1
0
LINE
5
B4
100
AcDbEntity
8
1
62
256
6
ByLayer
370
18
48
1
60
1
100
AcDbLine
10
29.060216
20
-3.698502
30
0
11
29.521
21
-0.1985
31
0
39
0
210
0
220
0
230
1
0
LINE
5
B5
100
AcDbEntity
8
SK2
62
256
6
ByLayer
370
13
48
1
60
0
100
AcDbLine
10
-32.979
20
10.25
30
0
11
-32.979
21
-23.5
31
0
39
0
210
0
220
0
230
1
0
LINE
5
B7
100
AcDbEntity
8
SK2
62
256
6
ByLayer
370
13
48
1
60
0
100
AcDbLine
10
-26.5665
20
1.5
30
0
11
-34.979
21
1.5
31
0
39
0
210
0
220
0
230
1
0
LINE
5
B8
100
AcDbEntity
8
SK2
62
256
6
ByLayer
370
13
48
1
60
0
100
AcDbLine
10
-26.5665
20
-1.5
30
0
11
-34.979
21
-1.5
31
0
39
0
210
0
220
0
230
1
0
LINE
5
B9
100
AcDbEntity
8
1
62
256
6
ByLayer
370
18
48
1
60
1
100
AcDbLine
10
-32.979
20
1.5
30
0
11
-33.439784
21
4.999998
31
0
39
0
210
0
220
0
230
1
0
LINE
5
BA
100
AcDbEntity
8
1
62
256
6
ByLayer
370
18
48
1
60
1
100
AcDbLine
10
-33.439784
20
4.999998
30
0
11
-32.518216
21
5.000002
31
0
39
0
210
0
220
0
230
1
0
LINE
5
BB
100
AcDbEntity
8
1
62
256
6
ByLayer
370
18
48
1
60
1
100
AcDbLine
10
-32.518216
20
5.000002
30
0
11
-32.979
21
1.5
31
0
39
0
210
0
220
0
230
1
0
LINE
5
BC
100
AcDbEntity
8
1
62
256
6
ByLayer
370
18
48
1
60
1
100
AcDbLine
10
-32.979
20
-1.5
30
0
11
-32.518216
21
-4.999998
31
0
39
0
210
0
220
0
230
1
0
LINE
5
BD
100
AcDbEntity
8
1
62
256
6
ByLayer
370
18
48
1
60
1
100
AcDbLine
10
-32.518216
20
-4.999998
30
0
11
-33.439784
21
-5.000002
31
0
39
0
210
0
220
0
230
1
0
LINE
5
BE
100
AcDbEntity
8
1
62
256
6
ByLayer
370
18
48
1
60
1
100
AcDbLine
10
-33.439784
20
-5.000002
30
0
11
-32.979
21
-1.5
31
0
39
0
210
0
220
0
230
1
0
LINE
5
E1
100
AcDbEntity
8
1
62
256
6
ByLayer
370
18
48
1
60
1
100
AcDbLine
10
29.521
20
0.1985
30
0
11
29.060216
21
3.698498
31
0
39
0
210
0
220
0
230
1
0
LINE
5
E2
100
AcDbEntity
8
1
62
256
6
ByLayer
370
18
48
1
60
1
100
AcDbLine
10
29.060216
20
3.698498
30
0
11
29.981784
21
3.698502
31
0
39
0
210
0
220
0
230
1
0
LINE
5
E3
100
AcDbEntity
8
1
62
256
6
ByLayer
370
18
48
1
60
1
100
AcDbLine
10
29.981784
20
3.698502
30
0
11
29.521
21
0.1985
31
0
39
0
210
0
220
0
230
1
0
LINE
5
E5
100
AcDbEntity
8
1
62
256
6
ByLayer
370
18
48
1
60
1
100
AcDbLine
10
29.521
20
-0.1985
30
0
11
29.981784
21
-3.698498
31
0
39
0
210
0
220
0
230
1
0
LINE
5
E6
100
AcDbEntity
8
1
62
256
6
ByLayer
370
18
48
1
60
1
100
AcDbLine
10
29.981784
20
-3.698498
30
0
11
29.060216
21
-3.698502
31
0
39
0
210
0
220
0
230
1
0
LINE
5
E7
100
AcDbEntity
8
1
62
256
6
ByLayer
370
18
48
1
60
1
100
AcDbLine
10
29.060216
20
-3.698502
30
0
11
29.521
21
-0.1985
31
0
39
0
210
0
220
0
230
1
0
LINE
5
EB
100
AcDbEntity
8
1
62
256
6
ByLayer
370
18
48
1
60
1
100
AcDbLine
10
-32.979
20
1.5
30
0
11
-33.439784
21
4.999998
31
0
39
0
210
0
220
0
230
1
0
LINE
5
EC
100
AcDbEntity
8
1
62
256
6
ByLayer
370
18
48
1
60
1
100
AcDbLine
10
-33.439784
20
4.999998
30
0
11
-32.518216
21
5.000002
31
0
39
0
210
0
220
0
230
1
0
LINE
5
ED
100
AcDbEntity
8
1
62
256
6
ByLayer
370
18
48
1
60
1
100
AcDbLine
10
-32.518216
20
5.000002
30
0
11
-32.979
21
1.5
31
0
39
0
210
0
220
0
230
1
0
LINE
5
EF
100
AcDbEntity
8
1
62
256
6
ByLayer
370
18
48
1
60
1
100
AcDbLine
10
-32.979
20
-1.5
30
0
11
-32.518216
21
-4.999998
31
0
39
0
210
0
220
0
230
1
0
LINE
5
F0
100
AcDbEntity
8
1
62
256
6
ByLayer
370
18
48
1
60
1
100
AcDbLine
10
-32.518216
20
-4.999998
30
0
11
-33.439784
21
-5.000002
31
0
39
0
210
0
220
0
230
1
0
LINE
5
F1
100
AcDbEntity
8
1
62
256
6
ByLayer
370
18
48
1
60
1
100
AcDbLine
10
-33.439784
20
-5.000002
30
0
11
-32.979
21
-1.5
31
0
39
0
210
0
220
0
230
1
0
MTEXT
5
DC
100
AcDbEntity
8
2
62
256
6
ByLayer
370
18
48
1
60
0
100
AcDbMText
10
27.956366
20
9.692477
30
0
210
0
220
0
230
1
1
%%c
40
3.5
41
0
44
1.084337
50
90
71
7
72
5
7
iso_b_vert
0
MTEXT
5
DF
100
AcDbEntity
8
2
62
256
6
ByLayer
370
18
48
1
60
0
100
AcDbMText
10
27.956366
20
3.356
30
0
210
0
220
0
230
1
1
\W0.2969; 
40
3.5
41
0
44
1.084337
50
90
71
7
72
5
7
iso_b_vert
0
MTEXT
5
E0
100
AcDbEntity
8
2
62
256
6
ByLayer
370
18
48
1
60
0
100
AcDbMText
10
27.956366
20
16.665133
30
0
210
0
220
0
230
1
1
\W0.7640;0.40
40
3.5
41
0
44
1.084337
50
90
71
7
72
5
7
iso_b_vert
0
MTEXT
5
E9
100
AcDbEntity
8
SK2
62
256
6
ByLayer
370
18
48
1
60
0
100
AcDbMText
10
-34.543634
20
-21.565156
30
0
210
0
220
0
230
1
1
%%c
40
3.5
41
0
44
1.084337
50
90
71
7
72
5
7
iso_b_vert
0
MTEXT
5
EA
100
AcDbEntity
8
SK2
62
256
6
ByLayer
370
18
48
1
60
0
100
AcDbMText
10
-34.543634
20
-14.5925
30
0
210
0
220
0
230
1
1
\W0.7346;3.00
40
3.5
41
0
44
1.084337
50
90
71
7
72
5
7
iso_b_vert
0
MTEXT
5
F3
100
AcDbEntity
8
SK6
62
256
6
ByLayer
370
18
48
1
60
0
100
AcDbMText
10
-37.2935
20
-59.217366
30
0
210
0
220
0
230
1
1
\W0.7692;862.3-0397-047A0-GM X1DU
40
3.5
41
0
44
1.084337
50
0
71
7
72
5
7
iso_b_vert
0
HATCH
5
E4
100
AcDbEntity
8
2
62
256
6
ByLayer
370
13
48
1
60
0
100
AcDbHatch
10
0
20
0
30
0
210
0
220
0
230
1
2
ANSI31
70
0
71
0
91
1
92
5
93
3
72
1
10
29.521
20
0.198500000000024
11
29.0602162584472
21
3.69849830744684
72
1
10
29.0602162584472
20
3.69849830744684
11
29.9817837415528
21
3.69850169255321
72
1
10
29.9817837415528
20
3.69850169255321
11
29.521
21
0.198500000000024
97
0
75
0
76
1
52
0
41
0.0062
77
0
78
1
53
45
43
0
44
0
45
-0.0139193969876572
46
0.0139193969876572
79
0
47
0
98
1
10
0
20
0
0
HATCH
5
E8
100
AcDbEntity
8
2
62
256
6
ByLayer
370
13
48
1
60
0
100
AcDbHatch
10
0
20
0
30
0
210
0
220
0
230
1
2
ANSI31
70
0
71
0
91
1
92
5
93
3
72
1
10
29.521
20
-0.198499999999967
11
29.9817837415528
21
-3.69849830744678
72
1
10
29.9817837415528
20
-3.69849830744678
11
29.0602162584472
21
-3.69850169255315
72
1
10
29.0602162584472
20
-3.69850169255315
11
29.521
21
-0.198499999999967
97
0
75
0
76
1
52
0
41
0.0062
77
0
78
1
53
45
43
0
44
0
45
-0.0139193969876572
46
0.0139193969876572
79
0
47
0
98
1
10
0
20
0
0
HATCH
5
EE
100
AcDbEntity
8
SK2
62
256
6
ByLayer
370
13
48
1
60
0
100
AcDbHatch
10
0
20
0
30
0
210
0
220
0
230
1
2
ANSI31
70
0
71
0
91
1
92
5
93
3
72
1
10
-32.979
20
1.49999999999997
11
-33.4397837415528
21
4.99999830744679
72
1
10
-33.4397837415528
20
4.99999830744679
11
-32.5182162584472
21
5.00000169255316
72
1
10
-32.5182162584472
20
5.00000169255316
11
-32.979
21
1.49999999999997
97
0
75
0
76
1
52
0
41
0.0062
77
0
78
1
53
45
43
0
44
0
45
-0.0139193969876572
46
0.0139193969876572
79
0
47
0
98
1
10
0
20
0
0
HATCH
5
F2
100
AcDbEntity
8
SK2
62
256
6
ByLayer
370
13
48
1
60
0
100
AcDbHatch
10
0
20
0
30
0
210
0
220
0
230
1
2
ANSI31
70
0
71
0
91
1
92
5
93
3
72
1
10
-32.979
20
-1.50000000000003
11
-32.5182162584472
21
-4.99999830744684
72
1
10
-32.5182162584472
20
-4.99999830744684
11
-33.4397837415528
21
-5.00000169255321
72
1
10
-33.4397837415528
20
-5.00000169255321
11
-32.979
21
-1.50000000000003
97
0
75
0
76
1
52
0
41
0.0062
77
0
78
1
53
45
43
0
44
0
45
-0.0139193969876572
46
0.0139193969876572
79
0
47
0
98
1
10
0
20
0
0
DIMENSION
5
F6
100
AcDbEntity
8
2
62
256
6
ByLayer
370
18
48
1
60
0
100
AcDbDimension
2
_U0
10
12.402
20
23.0515
30
0
11
29.818667
21
23.0515
31
0
70
32
71
1
72
1
41
1
210
0
220
0
230
1
3
Standard
100
AcDbAlignedDimension
13
0
23
-1.5
33
0
14
12.402
24
-0.1985
34
0
50
0
100
AcDbRotatedDimension
1001
ACAD
1000
DSTYLE
1002
{
1070
   371
1070
    13
1070
   372
1070
    13
1070
   170
1070
     0
1070
   144
1040
1.0
1070
   277
1070
     2
1070
   284
1070
     8
1070
   278
1070
    46
1070
   146
1040
1.0
1070
   345
1005
16
1070
   347
1005
16
1070
   346
1005
16
1070
   344
1005
0
1070
   343
1005
0
1070
   172
1070
     1
1070
    76
1070
     0
1070
    75
1070
     0
1070
   282
1070
     0
1070
   281
1070
     0
1070
    71
1070
     0
1070
    74
1070
     0
1070
   279
1070
     0
1070
   173
1070
     1
1070
   340
1005
DD
1070
   271
1070
     2
1070
   272
1070
     2
1070
    77
1070
     1
1070
    73
1070
     1
1070
   171
1070
     3
1070
   274
1070
     4
1070
   177
1070
     2
1070
   176
1070
     2
1070
   178
1070
     2
1070
    78
1070
     8
1070
    48
1040
-0.1
1070
    41
1040
3.5
1070
   147
1040
1.75
1070
    42
1040
1.5875
1070
    44
1040
2.0
1070
   140
1040
3.5
1002
}
1001
ACAD_DSTYLE_DIM_LINETYPE
1070
   380
1005
16
1001
ACAD_DSTYLE_DIM_EXT1_LINETYPE
1070
   381
1005
16
1001
ACAD_DSTYLE_DIM_EXT2_LINETYPE
1070
   382
1005
16
0
DIMENSION
5
111
100
AcDbEntity
8
SK2
62
256
6
ByLayer
370
18
48
1
60
0
100
AcDbDimension
2
_U1
10
0
20
-23.25
30
0
11
-13.379801
21
-23.25
31
0
70
32
71
1
72
1
41
1
210
0
220
0
230
1
3
Standard
100
AcDbAlignedDimension
13
-24.979
23
-1.5
33
0
14
0
24
-1.5
34
0
50
0
100
AcDbRotatedDimension
1001
ACAD
1000
DSTYLE
1002
{
1070
   371
1070
    13
1070
   372
1070
    13
1070
   170
1070
     0
1070
   144
1040
1.0
1070
   277
1070
     2
1070
   284
1070
     8
1070
   278
1070
    46
1070
   146
1040
1.0
1070
   345
1005
16
1070
   347
1005
16
1070
   346
1005
16
1070
   344
1005
0
1070
   343
1005
0
1070
   172
1070
     1
1070
    76
1070
     0
1070
    75
1070
     0
1070
   282
1070
     0
1070
   281
1070
     0
1070
    71
1070
     0
1070
    74
1070
     0
1070
   279
1070
     0
1070
   173
1070
     1
1070
   340
1005
DD
1070
   271
1070
     2
1070
   272
1070
     2
1070
    77
1070
     1
1070
    73
1070
     1
1070
   171
1070
     3
1070
   274
1070
     4
1070
   177
1070
     2
1070
   176
1070
     2
1070
   178
1070
     2
1070
    78
1070
     8
1070
    48
1040
-0.1
1070
    41
1040
3.5
1070
   147
1040
1.75
1070
    42
1040
1.5875
1070
    44
1040
2.0
1070
   140
1040
3.5
1002
}
1001
ACAD_DSTYLE_DIM_LINETYPE
1070
   380
1005
16
1001
ACAD_DSTYLE_DIM_EXT1_LINETYPE
1070
   381
1005
16
1001
ACAD_DSTYLE_DIM_EXT2_LINETYPE
1070
   382
1005
16
0
DIMENSION
5
129
100
AcDbEntity
8
SK2
62
256
6
ByLayer
370
18
48
1
60
0
100
AcDbDimension
2
_U2
10
12.521
20
-15.4485
30
0
11
30.104333
21
-15.4485
31
0
70
32
71
1
72
1
41
1
210
0
220
0
230
1
3
Standard
100
AcDbAlignedDimension
13
7.757
23
-0.1985
33
0
14
12.521
24
-0.1985
34
0
50
0
100
AcDbRotatedDimension
1001
ACAD
1000
DSTYLE
1002
{
1070
   371
1070
    13
1070
   372
1070
    13
1070
   170
1070
     0
1070
   144
1040
1.0
1070
   277
1070
     2
1070
   284
1070
     8
1070
   278
1070
    46
1070
   146
1040
1.0
1070
   345
1005
16
1070
   347
1005
16
1070
   346
1005
16
1070
   344
1005
0
1070
   343
1005
0
1070
   172
1070
     1
1070
    76
1070
     0
1070
    75
1070
     0
1070
   282
1070
     0
1070
   281
1070
     0
1070
    71
1070
     0
1070
    74
1070
     0
1070
   279
1070
     0
1070
   173
1070
     1
1070
   340
1005
DD
1070
   271
1070
     2
1070
   272
1070
     2
1070
    77
1070
     1
1070
    73
1070
     1
1070
   171
1070
     3
1070
   274
1070
     4
1070
   177
1070
     2
1070
   176
1070
     2
1070
   178
1070
     2
1070
    78
1070
     8
1070
    48
1040
-0.1
1070
    41
1040
3.5
1070
   147
1040
1.75
1070
    42
1040
1.5875
1070
    44
1040
2.0
1070
   140
1040
3.5
1002
}
1001
ACAD_DSTYLE_DIM_LINETYPE
1070
   380
1005
16
1001
ACAD_DSTYLE_DIM_EXT1_LINETYPE
1070
   381
1005
16
1001
ACAD_DSTYLE_DIM_EXT2_LINETYPE
1070
   382
1005
16
0
DIMENSION
5
143
100
AcDbEntity
8
SK2
62
256
6
ByLayer
370
18
48
1
60
0
100
AcDbDimension
2
_U3
10
12.521
20
-25.4485
30
0
11
30.104333
21
-25.4485
31
0
70
32
71
1
72
1
41
1
210
0
220
0
230
1
3
Standard
100
AcDbAlignedDimension
13
7.069
23
-0.1985
33
0
14
12.521
24
-0.1985
34
0
50
0
100
AcDbRotatedDimension
1001
ACAD
1000
DSTYLE
1002
{
1070
   371
1070
    13
1070
   372
1070
    13
1070
   170
1070
     0
1070
   144
1040
1.0
1070
   277
1070
     2
1070
   284
1070
     8
1070
   278
1070
    46
1070
   146
1040
1.0
1070
   345
1005
16
1070
   347
1005
16
1070
   346
1005
16
1070
   344
1005
0
1070
   343
1005
0
1070
   172
1070
     1
1070
    76
1070
     0
1070
    75
1070
     0
1070
   282
1070
     0
1070
   281
1070
     0
1070
    71
1070
     0
1070
    74
1070
     0
1070
   279
1070
     0
1070
   173
1070
     1
1070
   340
1005
DD
1070
   271
1070
     2
1070
   272
1070
     2
1070
    77
1070
     1
1070
    73
1070
     1
1070
   171
1070
     3
1070
   274
1070
     4
1070
   177
1070
     2
1070
   176
1070
     2
1070
   178
1070
     2
1070
    78
1070
     8
1070
    48
1040
-0.1
1070
    41
1040
3.5
1070
   147
1040
1.75
1070
    42
1040
1.5875
1070
    44
1040
2.0
1070
   140
1040
3.5
1002
}
1001
ACAD_DSTYLE_DIM_LINETYPE
1070
   380
1005
16
1001
ACAD_DSTYLE_DIM_EXT1_LINETYPE
1070
   381
1005
16
1001
ACAD_DSTYLE_DIM_EXT2_LINETYPE
1070
   382
1005
16
0
DIMENSION
5
15D
100
AcDbEntity
8
SK2
62
256
6
ByLayer
370
18
48
1
60
0
100
AcDbDimension
2
_U4
10
12.521
20
-34.6
30
0
11
-6.229
21
-34.6
31
0
70
32
71
1
72
1
41
1
210
0
220
0
230
1
3
Standard
100
AcDbAlignedDimension
13
-24.979
23
1.5
33
0
14
12.521
24
0.1985
34
0
50
0
100
AcDbRotatedDimension
1001
ACAD
1000
DSTYLE
1002
{
1070
   371
1070
    13
1070
   372
1070
    13
1070
     3
1000

1070
   170
1070
     0
1070
   144
1040
1.0
1070
   277
1070
     2
1070
   284
1070
     8
1070
   278
1070
    46
1070
   146
1040
1.0
1070
   345
1005
16
1070
   347
1005
16
1070
   346
1005
16
1070
   344
1005
0
1070
   343
1005
0
1070
   172
1070
     1
1070
    76
1070
     0
1070
    75
1070
     0
1070
   282
1070
     0
1070
   281
1070
     0
1070
    71
1070
     0
1070
    74
1070
     0
1070
   279
1070
     0
1070
   173
1070
     1
1070
   340
1005
DD
1070
   271
1070
     2
1070
   272
1070
     2
1070
    77
1070
     1
1070
    73
1070
     1
1070
   171
1070
     3
1070
   274
1070
     4
1070
   177
1070
     2
1070
   176
1070
     2
1070
   178
1070
     2
1070
    78
1070
     8
1070
    48
1040
-0.1
1070
    41
1040
3.5
1070
   147
1040
1.75
1070
    42
1040
1.5875
1070
    44
1040
2.0
1070
   140
1040
3.5
1002
}
1001
ACAD_DSTYLE_DIM_LINETYPE
1070
   380
1005
16
1001
ACAD_DSTYLE_DIM_EXT1_LINETYPE
1070
   381
1005
16
1001
ACAD_DSTYLE_DIM_EXT2_LINETYPE
1070
   382
1005
16
0
ENDSEC
0
SECTION
2
OBJECTS
0
DICTIONARY
5
1e7
330
0
100
AcDbDictionary
280
0
281
1
3
ACAD_GROUP
350
1e8
3
ACAD_MLINESTYLE
350
1e9
0
DICTIONARY
5
1e8
330
0
100
AcDbDictionary
280
0
281
1
0
DICTIONARY
5
1e9
330
0
100
AcDbDictionary
280
0
281
1
3
Standard
350
18
0
MLINESTYLE
5
18
330
1e9
100
AcDbMlineStyle
2
Standard
70
0
3

62
256
51
90
52
90
71
2
49
-0.5
62
256
6
ByLayer
49
0.5
62
256
6
ByLayer
0
RASTERVARIABLES
5
1d5
330

100
AcDbRasterVariables
90
0
70
1
71
1
72
1
0
ENDSEC
0
EOF
