0
SECTION
2
HEADER
9
$ACADVER
1
AC1015
9
$DWGCODEPAGE
3
ANSI_1252
9
$HANDSEED
5
1eb
9
$ANGBASE
50
0
9
$ANGDIR
70
0
9
$ATTMODE
70
1
9
$AUNITS
70
0
9
$AUPREC
70
0
9
$CECOLOR
62
256
9
$CELTSCALE
40
1
9
$CELTYPE
6
ByLayer
9
$CELWEIGHT
370
18
9
$CLAYER
8
0
9
$CMLJUST
70
0
9
$CMLSCALE
40
1
9
$CMLSTYLE
2
Standard
9
$DIMSTYLE
2
Standard
9
$TEXTSIZE
40
0.2
9
$TEXTSTYLE
7
Standard
9
$LUNITS
70
2
9
$LUPREC
70
4
9
$EXTNAMES
290
1
9
$INSUNITS
70
4
9
$LTSCALE
40
1
9
$LWDISPLAY
290
1
9
$PDMODE
70
0
9
$PDSIZE
40
0
9
$PLINEGEN
70
0
0
ENDSEC
0
SECTION
2
CLASSES
0
CLASS
1
RASTERVARIABLES
2
AcDbRasterVariables
3
ISM
90
0
280
0
281
0
0
ENDSEC
0
SECTION
2
TABLES
0
TABLE
2
VPORT
5
1e1
100
AcDbSymbolTable
0
VPORT
5
1
100
AcDbSymbolTableRecord
100
AcDbViewportTableRecord
2
*Active
70
0
10
0
20
0
11
1
21
1
12
-1
22
1
13
0
23
0
14
0.5
24
0.5
15
10
25
10
16
0
26
0
36
1
17
0
27
0
37
0
0
ENDTAB
0
TABLE
2
LTYPE
5
1e2
100
AcDbSymbolTable
0
LTYPE
5
14
100
AcDbSymbolTableRecord
100
AcDbLinetypeTableRecord
70
0
2
ByBlock
3

72
65
73
0
40
0
0
LTYPE
5
15
100
AcDbSymbolTableRecord
100
AcDbLinetypeTableRecord
70
0
2
ByLayer
3

72
65
73
0
40
0
0
LTYPE
5
16
100
AcDbSymbolTableRecord
100
AcDbLinetypeTableRecord
70
0
2
Continuous
3
Solid line
72
65
73
0
40
0
0
LTYPE
5
6E
100
AcDbSymbolTableRecord
100
AcDbLinetypeTableRecord
70
0
2
CENTER
3
____ _ ____ _ ____ _ ____
72
65
73
4
40
47.5
49
22
74
0
49
-8.5
74
0
49
8.5
74
0
49
-8.5
74
0
0
LTYPE
5
6F
100
AcDbSymbolTableRecord
100
AcDbLinetypeTableRecord
70
0
2
DASHED
3
__ __ __ __ __ __ __ __ __
72
65
73
2
40
25.72
49
12.86
74
0
49
-12.86
74
0
0
ENDTAB
0
TABLE
2
LAYER
5
1e3
100
AcDbSymbolTable
0
LAYER
5
10
100
AcDbSymbolTableRecord
100
AcDbLayerTableRecord
2
0
70
0
62
7
6
Continuous
290
1
370
-3
390
0
0
LAYER
5
71
100
AcDbSymbolTableRecord
100
AcDbLayerTableRecord
2
80
70
0
62
-6
6
Continuous
290
1
370
-3
390
0
0
LAYER
5
73
100
AcDbSymbolTableRecord
100
AcDbLayerTableRecord
2
81
70
0
62
-3
6
Continuous
290
1
370
-3
390
0
0
LAYER
5
75
100
AcDbSymbolTableRecord
100
AcDbLayerTableRecord
2
1
70
0
62
4
6
Continuous
290
1
370
-3
390
0
0
LAYER
5
81
100
AcDbSymbolTableRecord
100
AcDbLayerTableRecord
2
4
70
0
62
-2
6
CENTER
290
1
370
-3
390
0
0
LAYER
5
A8
100
AcDbSymbolTableRecord
100
AcDbLayerTableRecord
2
2
70
0
62
7
6
Continuous
290
1
370
-3
390
0
0
LAYER
5
F0
100
AcDbSymbolTableRecord
100
AcDbLayerTableRecord
2
Defpoints
70
0
62
7
6
Continuous
290
0
370
-3
390
0
0
LAYER
5
1cd
100
AcDbSymbolTableRecord
100
AcDbLayerTableRecord
2
SK4
70
0
62
2
6
CENTER
290
1
370
-3
390
0
0
LAYER
5
1ce
100
AcDbSymbolTableRecord
100
AcDbLayerTableRecord
2
SK1
70
0
62
4
6
Continuous
290
1
370
-3
390
0
0
LAYER
5
1cf
100
AcDbSymbolTableRecord
100
AcDbLayerTableRecord
2
SK2
70
0
62
7
6
Continuous
290
1
370
-3
390
0
0
LAYER
5
1d0
100
AcDbSymbolTableRecord
100
AcDbLayerTableRecord
2
SK6
70
0
62
5
6
Continuous
290
1
370
-3
390
0
0
ENDTAB
0
TABLE
2
STYLE
5
1e4
100
AcDbSymbolTable
0
STYLE
5
11
100
AcDbSymbolTableRecord
100
AcDbTextStyleTableRecord
2
Standard
3
txt
70
0
71
0
40
0
41
1
42
0
50
0
0
STYLE
5
D4
100
AcDbSymbolTableRecord
100
AcDbTextStyleTableRecord
2
iso_b_vert
3
simplex.shx
70
0
71
0
40
0
41
1
42
0
50
0
0
STYLE
5
D5
100
AcDbSymbolTableRecord
100
AcDbTextStyleTableRecord
2
DWGDirectTextStyle
3
simplex
70
0
71
0
40
0
41
1
42
0
50
0
0
ENDTAB
0
TABLE
2
DIMSTYLE
5
1e5
100
AcDbSymbolTable
100
AcDbDimStyleTable
0
DIMSTYLE
105
27
100
AcDbSymbolTableRecord
100
AcDbDimStyleTableRecord
2
Standard
70
0
3
<>
41
0.18
42
0.0625
44
0.18
140
0.18
147
0.09
73
0
74
0
77
1
271
2
275
0
278
52
280
0
340
11
0
ENDTAB
0
TABLE
2
VIEW
5
1e6
100
AcDbSymbolTable
0
ENDTAB
0
TABLE
2
UCS
5
1e7
100
AcDbSymbolTable
0
ENDTAB
0
TABLE
2
APPID
5
1e8
100
AcDbSymbolTable
0
APPID
5
12
100
AcDbSymbolTableRecord
100
AcDbRegAppTableRecord
2
ACAD
70
0
0
APPID
5
EC
100
AcDbSymbolTableRecord
100
AcDbRegAppTableRecord
2
ACAD_DSTYLE_DIMBREAK
70
0
0
APPID
5
18C
100
AcDbSymbolTableRecord
100
AcDbRegAppTableRecord
2
ACAD_DSTYLE_DIM_LINETYPE
70
0
0
APPID
5
18D
100
AcDbSymbolTableRecord
100
AcDbRegAppTableRecord
2
ACAD_DSTYLE_DIM_EXT1_LINETYPE
70
0
0
APPID
5
18E
100
AcDbSymbolTableRecord
100
AcDbRegAppTableRecord
2
ACAD_DSTYLE_DIM_EXT2_LINETYPE
70
0
0
APPID
5
1C9
100
AcDbSymbolTableRecord
100
AcDbRegAppTableRecord
2
ACAD_MLEADERVER
70
0
0
ENDTAB
0
TABLE
2
BLOCK_RECORD
5
1e9
100
AcDbSymbolTable
0
BLOCK_RECORD
5
1F
100
AcDbSymbolTableRecord
100
AcDbBlockTableRecord
2
*Model_Space
340
0
70
0
0
BLOCK_RECORD
5
1B
100
AcDbSymbolTableRecord
100
AcDbBlockTableRecord
2
*Paper_Space
340
0
70
0
0
BLOCK_RECORD
5
23
100
AcDbSymbolTableRecord
100
AcDbBlockTableRecord
2
*Paper_Space0
340
0
70
0
0
BLOCK_RECORD
5
F1
100
AcDbSymbolTableRecord
100
AcDbBlockTableRecord
2
*D1
340
0
70
0
0
BLOCK_RECORD
5
FF
100
AcDbSymbolTableRecord
100
AcDbBlockTableRecord
2
_U0
340
0
70
0
0
BLOCK_RECORD
5
10B
100
AcDbSymbolTableRecord
100
AcDbBlockTableRecord
2
*D3
340
0
70
0
0
BLOCK_RECORD
5
117
100
AcDbSymbolTableRecord
100
AcDbBlockTableRecord
2
_U1
340
0
70
0
0
BLOCK_RECORD
5
123
100
AcDbSymbolTableRecord
100
AcDbBlockTableRecord
2
*D5
340
0
70
0
0
BLOCK_RECORD
5
131
100
AcDbSymbolTableRecord
100
AcDbBlockTableRecord
2
_U2
340
0
70
0
0
BLOCK_RECORD
5
13D
100
AcDbSymbolTableRecord
100
AcDbBlockTableRecord
2
*D7
340
0
70
0
0
BLOCK_RECORD
5
14B
100
AcDbSymbolTableRecord
100
AcDbBlockTableRecord
2
_U3
340
0
70
0
0
BLOCK_RECORD
5
157
100
AcDbSymbolTableRecord
100
AcDbBlockTableRecord
2
*D9
340
0
70
0
0
BLOCK_RECORD
5
163
100
AcDbSymbolTableRecord
100
AcDbBlockTableRecord
2
_U4
340
0
70
0
0
ENDTAB
0
ENDSEC
0
SECTION
2
BLOCKS
0
BLOCK
5
20
100
AcDbEntity
8
0
100
AcDbBlockBegin
2
*Model_Space
70
0
10
0
20
0
30
0
3
*Model_Space
0
ENDBLK
5
21
100
AcDbEntity
8
0
100
AcDbBlockEnd
0
BLOCK
5
1C
100
AcDbEntity
8
0
100
AcDbBlockBegin
2
*Paper_Space
70
0
10
0
20
0
30
0
3
*Paper_Space
0
ENDBLK
5
1D
100
AcDbEntity
8
0
100
AcDbBlockEnd
0
BLOCK
5
24
100
AcDbEntity
8
0
100
AcDbBlockBegin
2
*Paper_Space0
70
0
10
0
20
0
30
0
3
*Paper_Space0
0
ENDBLK
5
25
100
AcDbEntity
8
0
100
AcDbBlockEnd
0
BLOCK
5
F2
100
AcDbEntity
8
0
100
AcDbBlockBegin
2
*D1
70
1
10
0
20
0
30
0
3
*D1
0
LINE
5
F4
100
AcDbEntity
8
0
62
256
6
ByLayer
370
-2
48
1
60
0
100
AcDbLine
10
0
20
0.0875
30
0
11
0
21
25.05
31
0
39
0
210
0
220
0
230
1
0
LINE
5
F5
100
AcDbEntity
8
0
62
256
6
ByLayer
370
-2
48
1
60
0
100
AcDbLine
10
9.646
20
1.3875
30
0
11
9.646
21
25.05
31
0
39
0
210
0
220
0
230
1
0
LINE
5
F6
100
AcDbEntity
8
0
62
256
6
ByLayer
370
-2
48
1
60
0
100
AcDbLine
10
9.646
20
23.05
30
0
11
37.812667
21
23.05
31
0
39
0
210
0
220
0
230
1
0
LINE
5
F7
100
AcDbEntity
8
0
62
256
6
ByLayer
370
-2
48
1
60
0
100
AcDbLine
10
-3.5
20
23.05
30
0
11
-7
21
23.05
31
0
39
0
210
0
220
0
230
1
0
LINE
5
F8
100
AcDbEntity
8
0
62
256
6
ByLayer
370
-2
48
1
60
0
100
AcDbLine
10
13.146
20
23.05
30
0
11
16.646
21
23.05
31
0
39
0
210
0
220
0
230
1
0
SOLID
5
F9
100
AcDbEntity
8
0
62
256
6
ByLayer
370
-1
48
1
60
0
100
AcDbTrace
10
-3.5
20
22.466667
30
0
11
-3.5
21
23.633333
31
0
12
0
22
23.05
32
0
13
0
23
23.05
33
0
39
0
210
0
220
0
230
1
0
SOLID
5
FA
100
AcDbEntity
8
0
62
256
6
ByLayer
370
-1
48
1
60
0
100
AcDbTrace
10
13.146
20
23.633333
30
0
11
13.146
21
22.466667
31
0
12
9.646
22
23.05
32
0
13
9.646
23
23.05
33
0
39
0
210
0
220
0
230
1
0
MTEXT
5
FB
100
AcDbEntity
8
0
62
256
6
ByLayer
370
18
48
1
60
0
100
AcDbMText
10
27.229333
20
30.05
30
0
210
0
220
0
230
1
1
\A1;9.65
40
3.5
41
0
44
1
50
0
71
5
72
5
7
iso_b_vert
0
POINT
5
FC
100
AcDbEntity
8
Defpoints
62
0
6
ByLayer
370
-1
48
1
60
0
100
AcDbPoint
10
0
20
-1.5
30
0
39
0
210
0
220
0
230
1
50
360
0
POINT
5
FD
100
AcDbEntity
8
Defpoints
62
0
6
ByLayer
370
-1
48
1
60
0
100
AcDbPoint
10
9.646
20
-0.2
30
0
39
0
210
0
220
0
230
1
50
360
0
POINT
5
FE
100
AcDbEntity
8
Defpoints
62
0
6
ByLayer
370
-1
48
1
60
0
100
AcDbPoint
10
9.646
20
23.05
30
0
39
0
210
0
220
0
230
1
50
360
0
ENDBLK
5
F3
100
AcDbEntity
8
0
100
AcDbBlockEnd
0
BLOCK
5
106
100
AcDbEntity
8
0
100
AcDbBlockBegin
2
_U0
70
0
10
0
20
0
30
0
3
_U0
0
MTEXT
5
100
100
AcDbEntity
8
2
62
256
6
ByLayer
370
18
48
1
60
0
100
AcDbMText
10
8.405
20
24.082634
30
0
210
0
220
0
230
1
1
\W0.7346;9.65
40
3.5
41
0
44
1.084337
50
0
71
7
72
5
7
iso_b_vert
0
LINE
5
101
100
AcDbEntity
8
2
62
256
6
ByLayer
370
13
48
1
60
0
100
AcDbLine
10
0
20
0.0875
30
0
11
0
21
25.05
31
0
39
0
210
0
220
0
230
1
0
LINE
5
102
100
AcDbEntity
8
2
62
256
6
ByLayer
370
13
48
1
60
0
100
AcDbLine
10
9.646
20
1.3875
30
0
11
9.646
21
25.05
31
0
39
0
210
0
220
0
230
1
0
LINE
5
103
100
AcDbEntity
8
2
62
256
6
ByLayer
370
13
48
1
60
0
100
AcDbLine
10
0
20
23.05
30
0
11
16.433898
21
23.05
31
0
39
0
210
0
220
0
230
1
0
SOLID
5
104
100
AcDbEntity
8
2
62
256
6
ByLayer
370
18
48
1
60
0
100
AcDbTrace
10
0
20
23.05
30
0
11
3.499998
21
23.510784
31
0
12
3.500002
22
22.589216
32
0
13
3.500002
23
22.589216
33
0
39
0
210
0
220
0
230
1
0
SOLID
5
105
100
AcDbEntity
8
2
62
256
6
ByLayer
370
18
48
1
60
0
100
AcDbTrace
10
9.646
20
23.05
30
0
11
6.146002
21
22.589216
31
0
12
6.145998
22
23.510784
32
0
13
6.145998
23
23.510784
33
0
39
0
210
0
220
0
230
1
0
ENDBLK
5
107
100
AcDbEntity
8
0
100
AcDbBlockEnd
0
BLOCK
5
10C
100
AcDbEntity
8
0
100
AcDbBlockBegin
2
*D3
70
1
10
0
20
0
30
0
3
*D3
0
LINE
5
10E
100
AcDbEntity
8
0
62
256
6
ByLayer
370
-2
48
1
60
0
100
AcDbLine
10
-27.734
20
-3.0875
30
0
11
-27.734
21
-25.25
31
0
39
0
210
0
220
0
230
1
0
LINE
5
10F
100
AcDbEntity
8
0
62
256
6
ByLayer
370
-2
48
1
60
0
100
AcDbLine
10
0
20
-3.0875
30
0
11
0
21
-25.25
31
0
39
0
210
0
220
0
230
1
0
LINE
5
110
100
AcDbEntity
8
0
62
256
6
ByLayer
370
-2
48
1
60
0
100
AcDbLine
10
-24.234
20
-23.25
30
0
11
-3.5
21
-23.25
31
0
39
0
210
0
220
0
230
1
0
SOLID
5
111
100
AcDbEntity
8
0
62
256
6
ByLayer
370
-1
48
1
60
0
100
AcDbTrace
10
-24.234
20
-22.666667
30
0
11
-24.234
21
-23.833333
31
0
12
-27.734
22
-23.25
32
0
13
-27.734
23
-23.25
33
0
39
0
210
0
220
0
230
1
0
SOLID
5
112
100
AcDbEntity
8
0
62
256
6
ByLayer
370
-1
48
1
60
0
100
AcDbTrace
10
-3.5
20
-23.833333
30
0
11
-3.5
21
-22.666667
31
0
12
0
22
-23.25
32
0
13
0
23
-23.25
33
0
39
0
210
0
220
0
230
1
0
MTEXT
5
113
100
AcDbEntity
8
0
62
256
6
ByLayer
370
18
48
1
60
0
100
AcDbMText
10
-16.319068
20
-16.25
30
0
210
0
220
0
230
1
1
\A1;27.73
40
3.5
41
0
44
1
50
0
71
5
72
5
7
iso_b_vert
0
POINT
5
114
100
AcDbEntity
8
Defpoints
62
0
6
ByLayer
370
-1
48
1
60
0
100
AcDbPoint
10
-27.734
20
-1.5
30
0
39
0
210
0
220
0
230
1
50
360
0
POINT
5
115
100
AcDbEntity
8
Defpoints
62
0
6
ByLayer
370
-1
48
1
60
0
100
AcDbPoint
10
0
20
-1.5
30
0
39
0
210
0
220
0
230
1
50
360
0
POINT
5
116
100
AcDbEntity
8
Defpoints
62
0
6
ByLayer
370
-1
48
1
60
0
100
AcDbPoint
10
0
20
-23.25
30
0
39
0
210
0
220
0
230
1
50
360
0
ENDBLK
5
10D
100
AcDbEntity
8
0
100
AcDbBlockEnd
0
BLOCK
5
11E
100
AcDbEntity
8
0
100
AcDbBlockBegin
2
_U1
70
0
10
0
20
0
30
0
3
_U1
0
MTEXT
5
118
100
AcDbEntity
8
SK2
62
256
6
ByLayer
370
18
48
1
60
0
100
AcDbMText
10
-21.5485
20
-22.217366
30
0
210
0
220
0
230
1
1
\W0.7468;27.73
40
3.5
41
0
44
1.084337
50
0
71
7
72
5
7
iso_b_vert
0
LINE
5
119
100
AcDbEntity
8
SK2
62
256
6
ByLayer
370
13
48
1
60
0
100
AcDbLine
10
-27.734
20
-3.0875
30
0
11
-27.734
21
-25.25
31
0
39
0
210
0
220
0
230
1
0
LINE
5
11A
100
AcDbEntity
8
SK2
62
256
6
ByLayer
370
13
48
1
60
0
100
AcDbLine
10
0
20
-3.0875
30
0
11
0
21
-25.25
31
0
39
0
210
0
220
0
230
1
0
LINE
5
11B
100
AcDbEntity
8
SK2
62
256
6
ByLayer
370
13
48
1
60
0
100
AcDbLine
10
-27.734
20
-23.25
30
0
11
0
21
-23.25
31
0
39
0
210
0
220
0
230
1
0
SOLID
5
11C
100
AcDbEntity
8
SK2
62
256
6
ByLayer
370
18
48
1
60
0
100
AcDbTrace
10
-27.734
20
-23.25
30
0
11
-24.234002
21
-22.789216
31
0
12
-24.233998
22
-23.710784
32
0
13
-24.233998
23
-23.710784
33
0
39
0
210
0
220
0
230
1
0
SOLID
5
11D
100
AcDbEntity
8
SK2
62
256
6
ByLayer
370
18
48
1
60
0
100
AcDbTrace
10
0
20
-23.25
30
0
11
-3.499998
21
-23.710784
31
0
12
-3.500002
22
-22.789216
32
0
13
-3.500002
23
-22.789216
33
0
39
0
210
0
220
0
230
1
0
ENDBLK
5
11F
100
AcDbEntity
8
0
100
AcDbBlockEnd
0
BLOCK
5
124
100
AcDbEntity
8
0
100
AcDbBlockBegin
2
*D5
70
1
10
0
20
0
30
0
3
*D5
0
LINE
5
126
100
AcDbEntity
8
0
62
256
6
ByLayer
370
-2
48
1
60
0
100
AcDbLine
10
7.766
20
-1.7875
30
0
11
7.766
21
-17.45
31
0
39
0
210
0
220
0
230
1
0
LINE
5
127
100
AcDbEntity
8
0
62
256
6
ByLayer
370
-2
48
1
60
0
100
AcDbLine
10
9.766
20
-1.7875
30
0
11
9.766
21
-17.45
31
0
39
0
210
0
220
0
230
1
0
LINE
5
128
100
AcDbEntity
8
0
62
256
6
ByLayer
370
-2
48
1
60
0
100
AcDbLine
10
9.766
20
-15.45
30
0
11
29.599333
21
-15.45
31
0
39
0
210
0
220
0
230
1
0
LINE
5
129
100
AcDbEntity
8
0
62
256
6
ByLayer
370
-2
48
1
60
0
100
AcDbLine
10
4.266
20
-15.45
30
0
11
0.766
21
-15.45
31
0
39
0
210
0
220
0
230
1
0
LINE
5
12A
100
AcDbEntity
8
0
62
256
6
ByLayer
370
-2
48
1
60
0
100
AcDbLine
10
13.266
20
-15.45
30
0
11
16.766
21
-15.45
31
0
39
0
210
0
220
0
230
1
0
SOLID
5
12B
100
AcDbEntity
8
0
62
256
6
ByLayer
370
-1
48
1
60
0
100
AcDbTrace
10
4.266
20
-16.033333
30
0
11
4.266
21
-14.866667
31
0
12
7.766
22
-15.45
32
0
13
7.766
23
-15.45
33
0
39
0
210
0
220
0
230
1
0
SOLID
5
12C
100
AcDbEntity
8
0
62
256
6
ByLayer
370
-1
48
1
60
0
100
AcDbTrace
10
13.266
20
-14.866667
30
0
11
13.266
21
-16.033333
31
0
12
9.766
22
-15.45
32
0
13
9.766
23
-15.45
33
0
39
0
210
0
220
0
230
1
0
MTEXT
5
12D
100
AcDbEntity
8
0
62
256
6
ByLayer
370
18
48
1
60
0
100
AcDbMText
10
23.182667
20
-8.45
30
0
210
0
220
0
230
1
1
\A1;2
40
3.5
41
0
44
1
50
0
71
5
72
5
7
iso_b_vert
0
POINT
5
12E
100
AcDbEntity
8
Defpoints
62
0
6
ByLayer
370
-1
48
1
60
0
100
AcDbPoint
10
7.766
20
-0.2
30
0
39
0
210
0
220
0
230
1
50
360
0
POINT
5
12F
100
AcDbEntity
8
Defpoints
62
0
6
ByLayer
370
-1
48
1
60
0
100
AcDbPoint
10
9.766
20
-0.2
30
0
39
0
210
0
220
0
230
1
50
360
0
POINT
5
130
100
AcDbEntity
8
Defpoints
62
0
6
ByLayer
370
-1
48
1
60
0
100
AcDbPoint
10
9.766
20
-15.45
30
0
39
0
210
0
220
0
230
1
50
360
0
ENDBLK
5
125
100
AcDbEntity
8
0
100
AcDbBlockEnd
0
BLOCK
5
138
100
AcDbEntity
8
0
100
AcDbBlockBegin
2
_U2
70
0
10
0
20
0
30
0
3
_U2
0
MTEXT
5
132
100
AcDbEntity
8
SK2
62
256
6
ByLayer
370
18
48
1
60
0
100
AcDbMText
10
19.9515
20
-14.417366
30
0
210
0
220
0
230
1
1
\W0.5404;2
40
3.5
41
0
44
1.084337
50
0
71
7
72
5
7
iso_b_vert
0
LINE
5
133
100
AcDbEntity
8
SK2
62
256
6
ByLayer
370
13
48
1
60
0
100
AcDbLine
10
7.766
20
-1.7875
30
0
11
7.766
21
-17.45
31
0
39
0
210
0
220
0
230
1
0
LINE
5
134
100
AcDbEntity
8
SK2
62
256
6
ByLayer
370
13
48
1
60
0
100
AcDbLine
10
9.766
20
-1.7875
30
0
11
9.766
21
-17.45
31
0
39
0
210
0
220
0
230
1
0
LINE
5
135
100
AcDbEntity
8
SK2
62
256
6
ByLayer
370
13
48
1
60
0
100
AcDbLine
10
21.331466
20
-15.45
30
0
11
-0.984
21
-15.45
31
0
39
0
210
0
220
0
230
1
0
SOLID
5
136
100
AcDbEntity
8
SK2
62
256
6
ByLayer
370
18
48
1
60
0
100
AcDbTrace
10
7.766
20
-15.45
30
0
11
4.266002
21
-15.910784
31
0
12
4.265998
22
-14.989216
32
0
13
4.265998
23
-14.989216
33
0
39
0
210
0
220
0
230
1
0
SOLID
5
137
100
AcDbEntity
8
SK2
62
256
6
ByLayer
370
18
48
1
60
0
100
AcDbTrace
10
9.766
20
-15.45
30
0
11
13.265998
21
-14.989216
31
0
12
13.266002
22
-15.910784
32
0
13
13.266002
23
-15.910784
33
0
39
0
210
0
220
0
230
1
0
ENDBLK
5
139
100
AcDbEntity
8
0
100
AcDbBlockEnd
0
BLOCK
5
13E
100
AcDbEntity
8
0
100
AcDbBlockBegin
2
*D7
70
1
10
0
20
0
30
0
3
*D7
0
LINE
5
140
100
AcDbEntity
8
0
62
256
6
ByLayer
370
-2
48
1
60
0
100
AcDbLine
10
7.073
20
-1.7875
30
0
11
7.073
21
-27.45
31
0
39
0
210
0
220
0
230
1
0
LINE
5
141
100
AcDbEntity
8
0
62
256
6
ByLayer
370
-2
48
1
60
0
100
AcDbLine
10
9.766
20
-1.7875
30
0
11
9.766
21
-27.45
31
0
39
0
210
0
220
0
230
1
0
LINE
5
142
100
AcDbEntity
8
0
62
256
6
ByLayer
370
-2
48
1
60
0
100
AcDbLine
10
9.766
20
-25.45
30
0
11
37.766
21
-25.45
31
0
39
0
210
0
220
0
230
1
0
LINE
5
143
100
AcDbEntity
8
0
62
256
6
ByLayer
370
-2
48
1
60
0
100
AcDbLine
10
3.573
20
-25.45
30
0
11
0.073
21
-25.45
31
0
39
0
210
0
220
0
230
1
0
LINE
5
144
100
AcDbEntity
8
0
62
256
6
ByLayer
370
-2
48
1
60
0
100
AcDbLine
10
13.266
20
-25.45
30
0
11
16.766
21
-25.45
31
0
39
0
210
0
220
0
230
1
0
SOLID
5
145
100
AcDbEntity
8
0
62
256
6
ByLayer
370
-1
48
1
60
0
100
AcDbTrace
10
3.573
20
-26.033333
30
0
11
3.573
21
-24.866667
31
0
12
7.073
22
-25.45
32
0
13
7.073
23
-25.45
33
0
39
0
210
0
220
0
230
1
0
SOLID
5
146
100
AcDbEntity
8
0
62
256
6
ByLayer
370
-1
48
1
60
0
100
AcDbTrace
10
13.266
20
-24.866667
30
0
11
13.266
21
-26.033333
31
0
12
9.766
22
-25.45
32
0
13
9.766
23
-25.45
33
0
39
0
210
0
220
0
230
1
0
MTEXT
5
147
100
AcDbEntity
8
0
62
256
6
ByLayer
370
18
48
1
60
0
100
AcDbMText
10
27.266
20
-18.45
30
0
210
0
220
0
230
1
1
\A1;2.69
40
3.5
41
0
44
1
50
0
71
5
72
5
7
iso_b_vert
0
POINT
5
148
100
AcDbEntity
8
Defpoints
62
0
6
ByLayer
370
-1
48
1
60
0
100
AcDbPoint
10
7.073
20
-0.2
30
0
39
0
210
0
220
0
230
1
50
360
0
POINT
5
149
100
AcDbEntity
8
Defpoints
62
0
6
ByLayer
370
-1
48
1
60
0
100
AcDbPoint
10
9.766
20
-0.2
30
0
39
0
210
0
220
0
230
1
50
360
0
POINT
5
14A
100
AcDbEntity
8
Defpoints
62
0
6
ByLayer
370
-1
48
1
60
0
100
AcDbPoint
10
9.766
20
-25.45
30
0
39
0
210
0
220
0
230
1
50
360
0
ENDBLK
5
13F
100
AcDbEntity
8
0
100
AcDbBlockEnd
0
BLOCK
5
152
100
AcDbEntity
8
0
100
AcDbBlockBegin
2
_U3
70
0
10
0
20
0
30
0
3
_U3
0
MTEXT
5
14C
100
AcDbEntity
8
SK2
62
256
6
ByLayer
370
18
48
1
60
0
100
AcDbMText
10
19.9515
20
-24.417366
30
0
210
0
220
0
230
1
1
\W0.7457;2.69
40
3.5
41
0
44
1.084337
50
0
71
7
72
5
7
iso_b_vert
0
LINE
5
14D
100
AcDbEntity
8
SK2
62
256
6
ByLayer
370
13
48
1
60
0
100
AcDbLine
10
7.073
20
-1.7875
30
0
11
7.073
21
-27.45
31
0
39
0
210
0
220
0
230
1
0
LINE
5
14E
100
AcDbEntity
8
SK2
62
256
6
ByLayer
370
13
48
1
60
0
100
AcDbLine
10
9.766
20
-1.7875
30
0
11
9.766
21
-27.45
31
0
39
0
210
0
220
0
230
1
0
LINE
5
14F
100
AcDbEntity
8
SK2
62
256
6
ByLayer
370
13
48
1
60
0
100
AcDbLine
10
27.980398
20
-25.45
30
0
11
-1.677
21
-25.45
31
0
39
0
210
0
220
0
230
1
0
SOLID
5
150
100
AcDbEntity
8
SK2
62
256
6
ByLayer
370
18
48
1
60
0
100
AcDbTrace
10
7.073
20
-25.45
30
0
11
3.573002
21
-25.910784
31
0
12
3.572998
22
-24.989216
32
0
13
3.572998
23
-24.989216
33
0
39
0
210
0
220
0
230
1
0
SOLID
5
151
100
AcDbEntity
8
SK2
62
256
6
ByLayer
370
18
48
1
60
0
100
AcDbTrace
10
9.766
20
-25.45
30
0
11
13.265998
21
-24.989216
31
0
12
13.266002
22
-25.910784
32
0
13
13.266002
23
-25.910784
33
0
39
0
210
0
220
0
230
1
0
ENDBLK
5
153
100
AcDbEntity
8
0
100
AcDbBlockEnd
0
BLOCK
5
158
100
AcDbEntity
8
0
100
AcDbBlockBegin
2
*D9
70
1
10
0
20
0
30
0
3
*D9
0
LINE
5
15A
100
AcDbEntity
8
0
62
256
6
ByLayer
370
-2
48
1
60
0
100
AcDbLine
10
-27.734
20
-0.0875
30
0
11
-27.734
21
-36.6
31
0
39
0
210
0
220
0
230
1
0
LINE
5
15B
100
AcDbEntity
8
0
62
256
6
ByLayer
370
-2
48
1
60
0
100
AcDbLine
10
9.766
20
-1.3875
30
0
11
9.766
21
-36.6
31
0
39
0
210
0
220
0
230
1
0
LINE
5
15C
100
AcDbEntity
8
0
62
256
6
ByLayer
370
-2
48
1
60
0
100
AcDbLine
10
-24.234
20
-34.6
30
0
11
6.266
21
-34.6
31
0
39
0
210
0
220
0
230
1
0
SOLID
5
15D
100
AcDbEntity
8
0
62
256
6
ByLayer
370
-1
48
1
60
0
100
AcDbTrace
10
-24.234
20
-34.016667
30
0
11
-24.234
21
-35.183333
31
0
12
-27.734
22
-34.6
32
0
13
-27.734
23
-34.6
33
0
39
0
210
0
220
0
230
1
0
SOLID
5
15E
100
AcDbEntity
8
0
62
256
6
ByLayer
370
-1
48
1
60
0
100
AcDbTrace
10
6.266
20
-35.183333
30
0
11
6.266
21
-34.016667
31
0
12
9.766
22
-34.6
32
0
13
9.766
23
-34.6
33
0
39
0
210
0
220
0
230
1
0
MTEXT
5
15F
100
AcDbEntity
8
0
62
256
6
ByLayer
370
18
48
1
60
0
100
AcDbMText
10
-8.984
20
-27.6
30
0
210
0
220
0
230
1
1
\A1;37.5
40
3.5
41
0
44
1
50
0
71
5
72
5
7
iso_b_vert
0
POINT
5
160
100
AcDbEntity
8
Defpoints
62
0
6
ByLayer
370
-1
48
1
60
0
100
AcDbPoint
10
-27.734
20
1.5
30
0
39
0
210
0
220
0
230
1
50
360
0
POINT
5
161
100
AcDbEntity
8
Defpoints
62
0
6
ByLayer
370
-1
48
1
60
0
100
AcDbPoint
10
9.766
20
0.2
30
0
39
0
210
0
220
0
230
1
50
360
0
POINT
5
162
100
AcDbEntity
8
Defpoints
62
0
6
ByLayer
370
-1
48
1
60
0
100
AcDbPoint
10
9.766
20
-34.6
30
0
39
0
210
0
220
0
230
1
50
360
0
ENDBLK
5
159
100
AcDbEntity
8
0
100
AcDbBlockEnd
0
BLOCK
5
16C
100
AcDbEntity
8
0
100
AcDbBlockBegin
2
_U4
70
0
10
0
20
0
30
0
3
_U4
0
MTEXT
5
164
100
AcDbEntity
8
SK2
62
256
6
ByLayer
370
18
48
1
60
0
100
AcDbMText
10
-14.213432
20
-33.567366
30
0
210
0
220
0
230
1
1
\W0.7468;37.50
40
3.5
41
0
44
1.084337
50
0
71
7
72
5
7
iso_b_vert
0
MTEXT
5
165
100
AcDbEntity
8
SK2
62
256
6
ByLayer
370
18
48
1
60
0
100
AcDbMText
10
-18.081431
20
-33.567366
30
0
210
0
220
0
230
1
1
\W0.1790;(
40
3.5
41
0
44
1.084337
50
0
71
7
72
5
7
iso_b_vert
0
MTEXT
5
166
100
AcDbEntity
8
SK2
62
256
6
ByLayer
370
18
48
1
60
0
100
AcDbMText
10
0.116432
20
-33.567366
30
0
210
0
220
0
230
1
1
\W0.1969;)
40
3.5
41
0
44
1.084337
50
0
71
7
72
5
7
iso_b_vert
0
LINE
5
167
100
AcDbEntity
8
SK2
62
256
6
ByLayer
370
13
48
1
60
0
100
AcDbLine
10
-27.734
20
-0.0875
30
0
11
-27.734
21
-36.6
31
0
39
0
210
0
220
0
230
1
0
LINE
5
168
100
AcDbEntity
8
SK2
62
256
6
ByLayer
370
13
48
1
60
0
100
AcDbLine
10
9.766
20
-1.3875
30
0
11
9.766
21
-36.6
31
0
39
0
210
0
220
0
230
1
0
LINE
5
169
100
AcDbEntity
8
SK2
62
256
6
ByLayer
370
13
48
1
60
0
100
AcDbLine
10
-27.734
20
-34.6
30
0
11
9.766
21
-34.6
31
0
39
0
210
0
220
0
230
1
0
SOLID
5
16A
100
AcDbEntity
8
SK2
62
256
6
ByLayer
370
18
48
1
60
0
100
AcDbTrace
10
-27.734
20
-34.6
30
0
11
-24.234002
21
-34.139216
31
0
12
-24.233998
22
-35.060784
32
0
13
-24.233998
23
-35.060784
33
0
39
0
210
0
220
0
230
1
0
SOLID
5
16B
100
AcDbEntity
8
SK2
62
256
6
ByLayer
370
18
48
1
60
0
100
AcDbTrace
10
9.766
20
-34.6
30
0
11
6.266002
21
-35.060784
31
0
12
6.265998
22
-34.139216
32
0
13
6.265998
23
-34.139216
33
0
39
0
210
0
220
0
230
1
0
ENDBLK
5
16D
100
AcDbEntity
8
0
100
AcDbBlockEnd
0
ENDSEC
0
SECTION
2
ENTITIES
0
ELLIPSE
5
BB
100
AcDbEntity
8
SK1
62
256
6
ByLayer
370
18
48
1
60
0
100
AcDbEllipse
10
9.763101
20
-0.012774
30
0
11
0.0237049370494253
21
0.0422353960862917
31
0
210
0
220
0
230
1
40
0.065341
41
1.41555457117196
42
2.26340515628891
0
ELLIPSE
5
BC
100
AcDbEntity
8
SK1
62
256
6
ByLayer
370
18
48
1
60
0
100
AcDbEllipse
10
9.763101
20
0.012774
30
0
11
0.023704937073551
21
-0.042235396125787
31
0
210
0
220
0
230
1
40
0.065341
41
-2.26340515618786
42
-1.41555457186009
0
ELLIPSE
5
BD
100
AcDbEntity
8
SK1
62
256
6
ByLayer
370
18
48
1
60
0
100
AcDbEllipse
10
9.747844
20
0.021521
30
0
11
0.0166403876676855
21
0.0187508473763884
31
0
210
0
220
0
230
1
40
0.93066
41
-1.84282577721682
42
-1.64347880723197
0
ELLIPSE
5
BE
100
AcDbEntity
8
SK1
62
256
6
ByLayer
370
18
48
1
60
0
100
AcDbEllipse
10
7.135098
20
0.000738
30
0
11
0.117183352917451
21
0.17761342560738
31
0
210
0
220
0
230
1
40
0.309817
41
2.56637254959989
42
-2.16142287810843
0
ELLIPSE
5
BF
100
AcDbEntity
8
SK1
62
256
6
ByLayer
370
18
48
1
60
0
100
AcDbEllipse
10
9.766543
20
0.000855
30
0
11
0.121757773232513
21
0.199596119531663
31
0
210
0
220
0
230
1
40
0.104822
41
-3.07875047846732
42
-2.88065322148929
0
ELLIPSE
5
C0
100
AcDbEntity
8
SK1
62
256
6
ByLayer
370
18
48
1
60
0
100
AcDbEllipse
10
9.767395
20
0.000855
30
0
11
0.176924023074779
21
0.179850684964197
31
0
210
0
220
0
230
1
40
0.494569
41
2.71302818284345
42
-2.69435962924348
0
ELLIPSE
5
C1
100
AcDbEntity
8
SK1
62
256
6
ByLayer
370
18
48
1
60
0
100
AcDbEllipse
10
9.780901
20
-0.000716
30
0
11
0.364974513043684
21
-0.0744659388945006
31
0
210
0
220
0
230
1
40
0.50885
41
-3.09887809817057
42
-2.08130257285056
0
ELLIPSE
5
C2
100
AcDbEntity
8
SK1
62
256
6
ByLayer
370
18
48
1
60
0
100
AcDbEllipse
10
7.135098
20
-0.000738
30
0
11
0.117183352917441
21
-0.177613425607389
31
0
210
0
220
0
230
1
40
0.309817
41
2.16142287810854
42
2.94298755871854
0
ELLIPSE
5
C3
100
AcDbEntity
8
SK1
62
256
6
ByLayer
370
18
48
1
60
0
100
AcDbEllipse
10
9.766543
20
-0.000855
30
0
11
0.121757773165623
21
-0.199596119420953
31
0
210
0
220
0
230
1
40
0.104822
41
2.88065322141608
42
3.07875047844883
0
POINT
5
70
100
AcDbEntity
8
80
62
256
6
ByLayer
370
18
48
1
60
0
100
AcDbPoint
10
0
20
0
30
0
39
0
210
0
220
0
230
1
50
360
0
POINT
5
72
100
AcDbEntity
8
81
62
256
6
ByLayer
370
18
48
1
60
0
100
AcDbPoint
10
9.766
20
0
30
0
39
0
210
0
220
0
230
1
50
360
0
POINT
5
74
100
AcDbEntity
8
1
62
256
6
ByLayer
370
18
48
1
60
0
100
AcDbPoint
10
-27.734
20
0
30
0
39
0
210
0
220
0
230
1
50
360
0
POINT
5
76
100
AcDbEntity
8
1
62
256
6
ByLayer
370
18
48
1
60
1
100
AcDbPoint
10
0
20
-1.5
30
0
39
0
210
0
220
0
230
1
50
360
0
POINT
5
77
100
AcDbEntity
8
1
62
256
6
ByLayer
370
18
48
1
60
1
100
AcDbPoint
10
9.646
20
-0.2
30
0
39
0
210
0
220
0
230
1
50
360
0
POINT
5
78
100
AcDbEntity
8
1
62
256
6
ByLayer
370
18
48
1
60
1
100
AcDbPoint
10
-27.734
20
-1.5
30
0
39
0
210
0
220
0
230
1
50
360
0
POINT
5
79
100
AcDbEntity
8
1
62
256
6
ByLayer
370
18
48
1
60
1
100
AcDbPoint
10
0
20
-1.5
30
0
39
0
210
0
220
0
230
1
50
360
0
POINT
5
7A
100
AcDbEntity
8
1
62
256
6
ByLayer
370
18
48
1
60
1
100
AcDbPoint
10
7.766
20
-0.2
30
0
39
0
210
0
220
0
230
1
50
360
0
POINT
5
7B
100
AcDbEntity
8
1
62
256
6
ByLayer
370
18
48
1
60
1
100
AcDbPoint
10
9.766
20
-0.2
30
0
39
0
210
0
220
0
230
1
50
360
0
POINT
5
7C
100
AcDbEntity
8
1
62
256
6
ByLayer
370
18
48
1
60
1
100
AcDbPoint
10
7.073
20
-0.2
30
0
39
0
210
0
220
0
230
1
50
360
0
POINT
5
7D
100
AcDbEntity
8
1
62
256
6
ByLayer
370
18
48
1
60
1
100
AcDbPoint
10
9.766
20
-0.2
30
0
39
0
210
0
220
0
230
1
50
360
0
POINT
5
7E
100
AcDbEntity
8
1
62
256
6
ByLayer
370
18
48
1
60
1
100
AcDbPoint
10
-27.734
20
1.5
30
0
39
0
210
0
220
0
230
1
50
360
0
POINT
5
7F
100
AcDbEntity
8
1
62
256
6
ByLayer
370
18
48
1
60
1
100
AcDbPoint
10
9.766
20
0.2
30
0
39
0
210
0
220
0
230
1
50
360
0
SPLINE
5
C4
100
AcDbEntity
8
SK1
62
256
6
ByLayer
370
13
48
1
60
0
100
AcDbSpline
70
4
71
3
72
10
73
6
40
0
40
0
40
0
40
0
40
0.5
40
0.5
40
1
40
1
40
1
40
1
41
1
10
7.11554619475086
20
-0.128326371748074
30
0
41
1
10
7.09811014678169
20
-0.126973821198675
30
0
41
1
10
7.08022311239918
20
-0.126520227510213
30
0
41
1
10
7.04378458363067
20
-0.127000225726619
30
0
41
1
10
7.02527725699113
20
-0.127839695022118
30
0
41
1
10
7.00683645918133
20
-0.128541482085382
30
0
0
SPLINE
5
C5
100
AcDbEntity
8
SK1
62
256
6
ByLayer
370
18
48
1
60
0
100
AcDbSpline
70
4
71
3
72
10
73
6
40
0
40
0
40
0
40
0
40
0.5
40
0.5
40
1
40
1
40
1
40
1
41
1
10
9.71088955606174
20
0.109580755517555
30
0
41
1
10
9.69990657312135
20
0.106786948686079
30
0
41
1
10
9.68877570687519
20
0.104454022957213
30
0
41
1
10
9.66632011195168
20
0.100392347410548
30
0
41
1
10
9.65499646493714
20
0.0986602265703027
30
0
41
1
10
9.6435968269744
20
0.0971649329487718
30
0
0
SPLINE
5
C6
100
AcDbEntity
8
SK1
62
256
6
ByLayer
370
18
48
1
60
0
100
AcDbSpline
70
4
71
3
72
8
73
4
40
0
40
0
40
0
40
0
40
1
40
1
40
1
40
1
41
1
10
9.65430441182917
20
0.195277299103736
30
0
41
1
10
9.6730007441696
20
0.167453868181383
30
0
41
1
10
9.6918891740988
20
0.138859634004461
30
0
41
1
10
9.71088955606248
20
0.109580755517555
30
0
0
SPLINE
5
C7
100
AcDbEntity
8
SK1
62
256
6
ByLayer
370
18
48
1
60
0
100
AcDbSpline
70
4
71
3
72
28
73
24
40
0
40
0
40
0
40
0
40
0.0625
40
0.0625
40
0.125
40
0.125
40
0.1875
40
0.1875
40
0.25
40
0.25
40
0.3125
40
0.3125
40
0.375
40
0.375
40
0.5
40
0.5
40
0.625
40
0.625
40
0.75
40
0.75
40
0.875
40
0.875
40
1
40
1
40
1
40
1
41
1
10
9.61888672268546
20
0.0825659587817995
30
0
41
1
10
9.61688460089661
20
0.0780706582086736
30
0
41
1
10
9.6145869269495
20
0.0737322301414736
30
0
41
1
10
9.60946032547031
20
0.0656459501837219
30
0
41
1
10
9.60661805524236
20
0.0618653843823438
30
0
41
1
10
9.60033443206319
20
0.0548681268223845
30
0
41
1
10
9.59686217466097
20
0.0516335277148698
30
0
41
1
10
9.58952687208424
20
0.0459477404385495
30
0
41
1
10
9.58564921395359
20
0.0434705444031636
30
0
41
1
10
9.57750171527013
20
0.0391990832793851
30
0
41
1
10
9.57320311444482
20
0.0373970686306677
30
0
41
1
10
9.56437340033594
20
0.0344798310827912
30
0
41
1
10
9.55987505371363
20
0.0333678242493534
30
0
41
1
10
9.54617240335784
20
0.0308937111223599
30
0
41
1
10
9.53672183085868
20
0.030376499151032
30
0
41
1
10
9.51759317087789
20
0.0310597546544784
30
0
41
1
10
9.50806684674407
20
0.0322540274877383
30
0
41
1
10
9.48907258372731
20
0.0359524212111069
30
0
41
1
10
9.4796048951892
20
0.0384621584803995
30
0
41
1
10
9.46072004944168
20
0.0446152816892322
30
0
41
1
10
9.45131178448912
20
0.0482589000823452
30
0
41
1
10
9.43280696947141
20
0.0563817534633131
30
0
41
1
10
9.4236712878384
20
0.0608721393857365
30
0
41
1
10
9.41464149994528
20
0.0657516772166673
30
0
0
SPLINE
5
C8
100
AcDbEntity
8
SK1
62
256
6
ByLayer
370
18
48
1
60
0
100
AcDbSpline
70
4
71
3
72
14
73
10
40
0
40
0
40
0
40
0
40
0.25
40
0.25
40
0.5
40
0.5
40
0.75
40
0.75
40
1
40
1
40
1
40
1
41
1
10
9.64359682697449
20
0.0971649329486013
30
0
41
1
10
9.64108942967934
20
0.0968360369613492
30
0
41
1
10
9.63862806569276
20
0.0963167361518344
30
0
41
1
10
9.63380717150687
20
0.0948466474467864
30
0
41
1
10
9.63141404483184
20
0.0938794539023036
30
0
41
1
10
9.62695720974691
20
0.091471731951259
30
0
41
1
10
9.62485905632883
20
0.0900126420723382
30
0
41
1
10
9.62129951212475
20
0.0866240347760936
30
0
41
1
10
9.61982769673881
20
0.0846786979893466
30
0
41
1
10
9.6188867226854
20
0.0825659587818279
30
0
0
SPLINE
5
C9
100
AcDbEntity
8
SK1
62
256
6
ByLayer
370
18
48
1
60
0
100
AcDbSpline
70
4
71
3
72
20
73
16
40
0
40
0
40
0
40
0
40
0.125
40
0.125
40
0.25
40
0.25
40
0.375
40
0.375
40
0.5
40
0.5
40
0.625
40
0.625
40
0.75
40
0.75
40
1
40
1
40
1
40
1
41
1
10
7.00683645917195
20
-0.128541482085751
30
0
41
1
10
7.00718547688794
20
-0.126018077875131
30
0
41
1
10
7.00790250816428
20
-0.123484646224995
30
0
41
1
10
7.01027452135486
20
-0.118458644763422
30
0
41
1
10
7.01192982191932
20
-0.116003394827771
30
0
41
1
10
7.01612878993248
20
-0.111543014024164
30
0
41
1
10
7.01873021608242
20
-0.109493786386338
30
0
41
1
10
7.02451301301997
20
-0.106145270031476
30
0
41
1
10
7.02777300627963
20
-0.1047939155861
30
0
41
1
10
7.03453771809367
20
-0.102878085369184
30
0
41
1
10
7.03811154928707
20
-0.102287474211039
30
0
41
1
10
7.04526284071423
20
-0.10180575668906
30
0
41
1
10
7.04887358493843
20
-0.101905798030515
30
0
41
1
10
7.05959145198503
20
-0.103086651363867
30
0
41
1
10
7.06639716751678
20
-0.104998608362507
30
0
41
1
10
7.07281122792094
20
-0.107683773840108
30
0
0
SPLINE
5
CA
100
AcDbEntity
8
SK1
62
256
6
ByLayer
370
18
48
1
60
0
100
AcDbSpline
70
4
71
3
72
38
73
34
40
0
40
0
40
0
40
0
40
0.0672947453874219
40
0.0672947453874219
40
0.134589490774844
40
0.134589490774844
40
0.201884236162266
40
0.201884236162266
40
0.235531608855984
40
0.235531608855984
40
0.269178981549703
40
0.269178981549703
40
0.336473726937155
40
0.336473726937155
40
0.403768472324608
40
0.403768472324608
40
0.47106321771206
40
0.47106321771206
40
0.538357963099513
40
0.538357963099513
40
0.605652708486965
40
0.605652708486965
40
0.672947453874418
40
0.672947453874418
40
0.74024219926187
40
0.74024219926187
40
0.807536944649323
40
0.807536944649323
40
0.874831690036775
40
0.874831690036775
40
0.942126435424228
40
0.942126435424228
40
1
40
1
40
1
40
1
41
1
10
7.14435587986299
20
0.10867917146544
30
0
41
1
10
7.16827697916108
20
0.098659712755591
30
0
41
1
10
7.19208209063754
20
0.0879917992901937
30
0
41
1
10
7.23951694865147
20
0.0654874904555811
30
0
41
1
10
7.26312794677185
20
0.0536116511354976
30
0
41
1
10
7.31046932434063
20
0.0292039469845236
30
0
41
1
10
7.33423213622589
20
0.0167390408610117
30
0
41
1
10
7.37008467238272
20
-0.0022245712283109
30
0
41
1
10
7.38208468400685
20
-0.0086136048108187
30
0
41
1
10
7.40599045597108
20
-0.0213601993393979
30
0
41
1
10
7.41791451231538
20
-0.027721784233222
30
0
41
1
10
7.45373346954071
20
-0.0465242029913782
30
0
41
1
10
7.47766363768312
20
-0.0587454110707881
30
0
41
1
10
7.52554743901834
20
-0.0824718924787646
30
0
41
1
10
7.54925258225336
20
-0.0938220500740954
30
0
41
1
10
7.59655708470535
20
-0.114909489828619
30
0
41
1
10
7.62018020422849
20
-0.124624837073554
30
0
41
1
10
7.6673804585063
20
-0.142386361002792
30
0
41
1
10
7.69093891253775
20
-0.150435646490877
30
0
41
1
10
7.73847545109462
20
-0.164231914564141
30
0
41
1
10
7.76246022212592
20
-0.170051417486633
30
0
41
1
10
7.81009588678634
20
-0.179195321924539
30
0
41
1
10
7.83383008809457
20
-0.182533183190856
30
0
41
1
10
7.88154443000383
20
-0.18653414110463
30
0
41
1
10
7.90542312597171
20
-0.187210293557172
30
0
41
1
10
7.95296866112122
20
-0.185884663181753
30
0
41
1
10
7.97674449956506
20
-0.183858673436902
30
0
41
1
10
8.02442731171436
20
-0.177240023990492
30
0
41
1
10
8.04819609405482
20
-0.172660242278994
30
0
41
1
10
8.09569077925661
20
-0.160989743430804
30
0
41
1
10
8.11950910258795
20
-0.153895174585699
30
0
41
1
10
8.16373543533427
20
-0.138881088785808
30
0
41
1
10
8.18415598296642
20
-0.131186227667769
30
0
41
1
10
8.20457395272555
20
-0.122751562659715
30
0
0
SPLINE
5
CB
100
AcDbEntity
8
SK1
62
256
6
ByLayer
370
18
48
1
60
0
100
AcDbSpline
70
4
71
3
72
22
73
18
40
0
40
0
40
0
40
0
40
0.0094924254011258
40
0.0094924254011258
40
0.17457702116758
40
0.17457702116758
40
0.339661616934034
40
0.339661616934034
40
0.42220391481728
40
0.42220391481728
40
0.504746212700526
40
0.504746212700526
40
0.669830808467017
40
0.669830808467017
40
0.834915404233508
40
0.834915404233508
40
1
40
1
40
1
40
1
41
1
10
8.98820318133627
20
0.194465485854693
30
0
41
1
10
8.98955364899371
20
0.194478681535372
30
0
41
1
10
8.99090368707849
20
0.194487437767407
30
0
41
1
10
9.01572479214391
20
0.194567043389611
30
0
41
1
10
9.03904053134096
20
0.193299731487684
30
0
41
1
10
9.08559729706695
20
0.188101846399093
30
0
41
1
10
9.10893298236323
20
0.184220109198066
30
0
41
1
10
9.14404325002772
20
0.176482158408874
30
0
41
1
10
9.15576436509639
20
0.173580565611047
30
0
41
1
10
9.17927192523925
20
0.167135207279188
30
0
41
1
10
9.19107499095006
20
0.163582505772695
30
0
41
1
10
9.22639288829095
20
0.152121650715088
30
0
41
1
10
9.24993350080027
20
0.143446252701153
30
0
41
1
10
9.29701716305718
20
0.124056035092536
30
0
41
1
10
9.32057634219845
20
0.113294060723405
30
0
41
1
10
9.36755433894552
20
0.0904415010637081
30
0
41
1
10
9.39107880954836
20
0.0784025757642439
30
0
41
1
10
9.41464149994528
20
0.0657516772166673
30
0
0
SPLINE
5
CC
100
AcDbEntity
8
SK1
62
256
6
ByLayer
370
18
48
1
60
0
100
AcDbSpline
70
4
71
3
72
10
73
6
40
0
40
0
40
0
40
0
40
0.5
40
0.5
40
1
40
1
40
1
40
1
41
1
10
7.14435587986253
20
0.108679171465582
30
0
41
1
10
7.13851840889387
20
0.111124222112011
30
0
41
1
10
7.13325974750876
20
0.114129738499088
30
0
41
1
10
7.12365351328171
20
0.12084557804539
30
0
41
1
10
7.11934513430222
20
0.124547290155334
30
0
41
1
10
7.11554619475038
20
0.128326371748102
30
0
0
SPLINE
5
CD
100
AcDbEntity
8
SK1
62
256
6
ByLayer
370
18
48
1
60
0
100
AcDbSpline
70
4
71
3
72
16
73
12
40
0
40
0
40
0
40
0
40
0.220994338427562
40
0.220994338427562
40
0.441988676855125
40
0.441988676855125
40
0.662983015282687
40
0.662983015282687
40
0.88397735371025
40
0.88397735371025
40
1
40
1
40
1
40
1
41
1
10
9.65430441182824
20
0.195277299092311
30
0
41
1
10
9.6278699853103
20
0.198071631001056
30
0
41
1
10
9.60159525736231
20
0.199186843953385
30
0
41
1
10
9.5487672245138
20
0.197929976098521
30
0
41
1
10
9.52214650000784
20
0.195597494489704
30
0
41
1
10
9.46860517719864
20
0.187457203625314
30
0
41
1
10
9.44201464512801
20
0.181664763746625
30
0
41
1
10
9.38853410043362
20
0.167127438330681
30
0
41
1
10
9.36165505469737
20
0.158307201884043
30
0
41
1
10
9.32116110555387
20
0.142916072493193
30
0
41
1
10
9.30725587956567
20
0.137285699751516
30
0
41
1
10
9.29335656389625
20
0.131370268218461
30
0
0
SPLINE
5
CE
100
AcDbEntity
8
SK1
62
256
6
ByLayer
370
18
48
1
60
0
100
AcDbSpline
70
4
71
3
72
48
73
44
40
0
40
0
40
0
40
0
40
0.0268950649426421
40
0.0268950649426421
40
0.0861350310850599
40
0.0861350310850599
40
0.145374997227478
40
0.145374997227478
40
0.204614963369895
40
0.204614963369895
40
0.263854929512313
40
0.263854929512313
40
0.323094895654731
40
0.323094895654731
40
0.382334861797149
40
0.382334861797149
40
0.441574827939567
40
0.441574827939567
40
0.500814794081984
40
0.500814794081984
40
0.560054760224402
40
0.560054760224402
40
0.61929472636682
40
0.61929472636682
40
0.678534692509238
40
0.678534692509238
40
0.708154675580447
40
0.708154675580447
40
0.737774658651656
40
0.737774658651656
40
0.797014624794061
40
0.797014624794061
40
0.856254590936468
40
0.856254590936468
40
0.885874574007671
40
0.885874574007671
40
0.915494557078874
40
0.915494557078874
40
0.945114540150076
40
0.945114540150076
40
0.97473452322128
40
0.97473452322128
40
1
40
1
40
1
40
1
41
1
10
8.49025001229245
20
-0.190920363103913
30
0
41
1
10
8.47814085740774
20
-0.190801105204145
30
0
41
1
10
8.46600565623501
20
-0.19033398909022
30
0
41
1
10
8.42697640626832
20
-0.18772145123279
30
0
41
1
10
8.39986785212812
20
-0.184216869797154
30
0
41
1
10
8.34600662875383
20
-0.173961915949746
30
0
41
1
10
8.3190451637596
20
-0.167244982265657
30
0
41
1
10
8.26490174240726
20
-0.151001039151197
30
0
41
1
10
8.23812993069689
20
-0.141462547085695
30
0
41
1
10
8.1847017561407
20
-0.120189436867804
30
0
41
1
10
8.15798628307047
20
-0.108551792935401
30
0
41
1
10
8.10443858263636
20
-0.0834885763050295
30
0
41
1
10
8.07766502885056
20
-0.0699412135624868
30
0
41
1
10
8.02339856917521
20
-0.0420376816771011
30
0
41
1
10
7.99634870264714
20
-0.0276659764928127
30
0
41
1
10
7.94231797817184
20
0.0014828781480389
30
0
41
1
10
7.91517173839026
20
0.0161658702385239
30
0
41
1
10
7.860965957844
20
0.0446233846550115
30
0
41
1
10
7.83396346802465
20
0.0586243673490117
30
0
41
1
10
7.7796796425614
20
0.0852894223169471
30
0
41
1
10
7.75252837641781
20
0.0977535517021124
30
0
41
1
10
7.6983194249126
20
0.120842582008606
30
0
41
1
10
7.671168589253
20
0.131488742976018
30
0
41
1
10
7.6168927913796
20
0.149875939177036
30
0
41
1
10
7.58973670256708
20
0.157690565517697
30
0
41
1
10
7.54898080178205
20
0.167316663535303
30
0
41
1
10
7.53539655427133
20
0.170141559319148
30
0
41
1
10
7.50822007143015
20
0.17494299749464
30
0
41
1
10
7.4946268898282
20
0.176936816622629
30
0
41
1
10
7.45384486145937
20
0.181718464462847
30
0
41
1
10
7.42661819165741
20
0.183298799966309
30
0
41
1
10
7.37227687844461
20
0.183032200335134
30
0
41
1
10
7.34506052839626
20
0.181236748615987
30
0
41
1
10
7.30416571125326
20
0.176080826459497
30
0
41
1
10
7.29055283722377
20
0.173939093641394
30
0
41
1
10
7.26337270057499
20
0.168881784173578
30
0
41
1
10
7.24977291433015
20
0.16597709468553
30
0
41
1
10
7.22252815077778
20
0.159461497569993
30
0
41
1
10
7.20888703177653
20
0.155848800888776
30
0
41
1
10
7.18158698535009
20
0.147887503821266
30
0
41
1
10
7.16794298512684
20
0.143541288063176
30
0
41
1
10
7.1427506794017
20
0.134922623650112
30
0
41
1
10
7.13116753063485
20
0.130736509773612
30
0
41
1
10
7.11958342142268
20
0.126355587571567
30
0
0
SPLINE
5
CF
100
AcDbEntity
8
SK1
62
256
6
ByLayer
370
18
48
1
60
0
100
AcDbSpline
70
4
71
3
72
8
73
4
40
0
40
0
40
0
40
0
40
1
40
1
40
1
40
1
41
1
10
9.65430441182914
20
-0.195277299103708
30
0
41
1
10
9.67300074416957
20
-0.167453868181383
30
0
41
1
10
9.6918891740988
20
-0.138859634004433
30
0
41
1
10
9.71088955606251
20
-0.109580755517555
30
0
0
SPLINE
5
D0
100
AcDbEntity
8
SK1
62
256
6
ByLayer
370
18
48
1
60
0
100
AcDbSpline
70
4
71
3
72
50
73
46
40
0
40
0
40
0
40
0
40
0.0072355248536308
40
0.0072355248536308
40
0.0653530983166508
40
0.0653530983166508
40
0.123470671779671
40
0.123470671779671
40
0.181588245242691
40
0.181588245242691
40
0.239705818705711
40
0.239705818705711
40
0.268764605437215
40
0.268764605437215
40
0.297823392168719
40
0.297823392168719
40
0.355940965631728
40
0.355940965631728
40
0.384999752363232
40
0.384999752363232
40
0.414058539094736
40
0.414058539094736
40
0.472176112557756
40
0.472176112557756
40
0.530293686020776
40
0.530293686020776
40
0.55935247275228
40
0.55935247275228
40
0.588411259483784
40
0.588411259483784
40
0.646528832946792
40
0.646528832946792
40
0.7046464064098
40
0.7046464064098
40
0.762763979872809
40
0.762763979872809
40
0.820881553335817
40
0.820881553335817
40
0.878999126798825
40
0.878999126798825
40
0.937116700261833
40
0.937116700261833
40
0.995234273724842
40
0.995234273724842
40
1
40
1
40
1
40
1
41
1
10
9.58504082207784
20
-0.198712172595492
30
0
41
1
10
9.581756069335
20
-0.198687861511104
30
0
41
1
10
9.57846973460593
20
-0.198636648827545
30
0
41
1
10
9.54876722451388
20
-0.197929976098493
30
0
41
1
10
9.52214650000784
20
-0.195597494489675
30
0
41
1
10
9.46860517719867
20
-0.187457203625286
30
0
41
1
10
9.44201464512807
20
-0.181664763746596
30
0
41
1
10
9.38853410043365
20
-0.167127438330681
30
0
41
1
10
9.36165505469742
20
-0.158307201884043
30
0
41
1
10
9.30854833362949
20
-0.138122151209387
30
0
41
1
10
9.28212327148725
20
-0.126825942786922
30
0
41
1
10
9.24237282666891
20
-0.108560294961478
30
0
41
1
10
9.22911770459029
20
-0.102233144326647
30
0
41
1
10
9.20261036043743
20
-0.0890711931260455
30
0
41
1
10
9.18934944993188
20
-0.0822477130601555
30
0
41
1
10
9.14938527924988
20
-0.0613007943332491
30
0
41
1
10
9.12241404196942
20
-0.0467057440068857
30
0
41
1
10
9.08221909883753
20
-0.0244570279031393
30
0
41
1
10
9.06885052146825
20
-0.0169405085889309
30
0
41
1
10
9.04208147588642
20
-0.0018680869286527
30
0
41
1
10
9.02865244852106
20
0.0056918632548388
30
0
41
1
10
8.98837322630993
20
0.0281421881840629
30
0
41
1
10
8.9616775116387
20
0.0426936548301171
30
0
41
1
10
8.90860487226107
20
0.071015076374465
30
0
41
1
10
8.88210696953243
20
0.0845612691913686
30
0
41
1
10
8.84215810728304
20
0.103546565269255
30
0
41
1
10
8.82881654877735
20
0.109666778580788
30
0
41
1
10
8.80207559198368
20
0.121470932140028
30
0
41
1
10
8.78865378126355
20
0.127157357266071
30
0
41
1
10
8.74829903534987
20
0.143293682622158
30
0
41
1
10
8.72144062790534
20
0.152701515325845
30
0
41
1
10
8.66759614312957
20
0.168661984355936
30
0
41
1
10
8.64066456653782
20
0.175297185624856
30
0
41
1
10
8.58716349832878
20
0.185051057443957
30
0
41
1
10
8.5604845783009
20
0.188264844369087
30
0
41
1
10
8.50725489490407
20
0.191420410080298
30
0
41
1
10
8.48066168199111
20
0.191315033362429
30
0
41
1
10
8.42697640626832
20
0.187721451232818
30
0
41
1
10
8.3998678521281
20
0.184216869797183
30
0
41
1
10
8.34600662875388
20
0.173961915949775
30
0
41
1
10
8.31904516375951
20
0.167244982265657
30
0
41
1
10
8.26490174240732
20
0.151001039151254
30
0
41
1
10
8.238129930697
20
0.141462547085752
30
0
41
1
10
8.20922524907593
20
0.129953778855395
30
0
41
1
10
8.2070346454145
20
0.129074834171888
30
0
41
1
10
8.20484400100978
20
0.128189216994457
30
0
0
SPLINE
5
D1
100
AcDbEntity
8
SK1
62
256
6
ByLayer
370
18
48
1
60
0
100
AcDbSpline
70
4
71
3
72
18
73
14
40
0
40
0
40
0
40
0
40
0.246514924104536
40
0.246514924104536
40
0.372095770087113
40
0.372095770087113
40
0.49767661606969
40
0.49767661606969
40
0.623257462052267
40
0.623257462052267
40
0.748838308034845
40
0.748838308034845
40
1
40
1
40
1
40
1
41
1
10
7.39793942692606
20
-0.18315639488165
30
0
41
1
10
7.37126979751557
20
-0.182965202684329
30
0
41
1
10
7.34455612896468
20
-0.181173155124497
30
0
41
1
10
7.30416571125312
20
-0.176080826459469
30
0
41
1
10
7.29055283722369
20
-0.173939093641366
30
0
41
1
10
7.26337270057493
20
-0.168881784173522
30
0
41
1
10
7.24977291433007
20
-0.165977094685502
30
0
41
1
10
7.22252815077769
20
-0.159461497569964
30
0
41
1
10
7.20888703177644
20
-0.15584880088872
30
0
41
1
10
7.18158698534995
20
-0.147887503821209
30
0
41
1
10
7.16794298512676
20
-0.143541288063119
30
0
41
1
10
7.12715646327874
20
-0.129587609181101
30
0
41
1
10
7.10004048942389
20
-0.119082960682221
30
0
41
1
10
7.07281122792102
20
-0.107683773840165
30
0
0
SPLINE
5
D2
100
AcDbEntity
8
SK1
62
256
6
ByLayer
370
18
48
1
60
0
100
AcDbSpline
70
4
71
3
72
56
73
52
40
0
40
0
40
0
40
0
40
0.0161284945211191
40
0.0161284945211191
40
0.0671684404213421
40
0.0671684404213421
40
0.118208386321565
40
0.118208386321565
40
0.169248332221788
40
0.169248332221788
40
0.220288278122011
40
0.220288278122011
40
0.245808251072128
40
0.245808251072128
40
0.271328224022245
40
0.271328224022245
40
0.373408115822714
40
0.373408115822714
40
0.424448061722949
40
0.424448061722949
40
0.475488007623183
40
0.475488007623183
40
0.501007980573301
40
0.501007980573301
40
0.526527953523418
40
0.526527953523418
40
0.577567899423664
40
0.577567899423664
40
0.62860784532391
40
0.62860784532391
40
0.654127818274027
40
0.654127818274027
40
0.679647791224144
40
0.679647791224144
40
0.73068773712439
40
0.73068773712439
40
0.756207710074513
40
0.756207710074513
40
0.781727683024636
40
0.781727683024636
40
0.832767628924882
40
0.832767628924882
40
0.883807574825128
40
0.883807574825128
40
0.909327547775256
40
0.909327547775256
40
0.934847520725385
40
0.934847520725385
40
0.985887466625654
40
0.985887466625654
40
1
40
1
40
1
40
1
41
1
10
7.90663177865679
20
0.186775178675987
30
0
41
1
10
7.91416104661604
20
0.186832672409508
30
0
41
1
10
7.92168375879004
20
0.186756926301541
30
0
41
1
10
7.95296866112159
20
0.185884663181753
30
0
41
1
10
7.97674449956546
20
0.183858673436902
30
0
41
1
10
8.02442731171473
20
0.177240023990464
30
0
41
1
10
8.04819609405516
20
0.172660242278965
30
0
41
1
10
8.09569077925696
20
0.160989743430747
30
0
41
1
10
8.1195091025883
20
0.153895174585614
30
0
41
1
10
8.16706426734936
20
0.137751007081448
30
0
41
1
10
8.19080371742572
20
0.128660998915251
30
0
41
1
10
8.22641612449303
20
0.113529887719977
30
0
41
1
10
8.23830209539258
20
0.108237045595501
30
0
41
1
10
8.26199195349065
20
0.0974069837156719
30
0
41
1
10
8.273809206675
20
0.0918446179711907
30
0
41
1
10
8.3327616043417
20
0.0633166606272368
30
0
41
1
10
8.37933367157191
20
0.037902694346343
30
0
41
1
10
8.45011063425162
20
-0.0009196402891405
30
0
41
1
10
8.47389651325838
20
-0.0141325706604221
30
0
41
1
10
8.52122765856097
20
-0.0402506287231574
30
0
41
1
10
8.54485103040889
20
-0.0530821518967457
30
0
41
1
10
8.58042255506061
20
-0.0716438211259742
30
0
41
1
10
8.59231188867523
20
-0.0777525027714603
30
0
41
1
10
8.61596377901185
20
-0.0896624454616415
30
0
41
1
10
8.62773622496928
20
-0.0954688975261888
30
0
41
1
10
8.66295304800937
20
-0.112347918182394
30
0
41
1
10
8.68634239398699
20
-0.122810647121725
30
0
41
1
10
8.73314541720569
20
-0.141919061938552
30
0
41
1
10
8.75649133505019
20
-0.150650030754889
30
0
41
1
10
8.79165626943603
20
-0.162175530525843
30
0
41
1
10
8.80342707698597
20
-0.165730773121226
30
0
41
1
10
8.82705613011089
20
-0.172278727192037
30
0
41
1
10
8.83892529575502
20
-0.175269389807624
30
0
41
1
10
8.87439323629636
20
-0.183294138726978
30
0
41
1
10
8.89793880007224
20
-0.18741173296695
30
0
41
1
10
8.93330931220342
20
-0.191592158010962
30
0
41
1
10
8.9451379745677
20
-0.19265185857401
30
0
41
1
10
8.96875014202919
20
-0.194081690544863
30
0
41
1
10
8.98051756324762
20
-0.194454127652932
30
0
41
1
10
9.01572479214403
20
-0.194567043389583
30
0
41
1
10
9.03904053134107
20
-0.193299731487656
30
0
41
1
10
9.08559729706707
20
-0.188101846399064
30
0
41
1
10
9.10893298236331
20
-0.184220109198009
30
0
41
1
10
9.14404325002781
20
-0.176482158408817
30
0
41
1
10
9.15576436509647
20
-0.17358056561099
30
0
41
1
10
9.17927192523931
20
-0.167135207279131
30
0
41
1
10
9.19107499095011
20
-0.163582505772638
30
0
41
1
10
9.226392888291
20
-0.152121650715031
30
0
41
1
10
9.24993350080032
20
-0.143446252701125
30
0
41
1
10
9.27998464285446
20
-0.131070448528618
30
0
41
1
10
9.28649528007256
20
-0.128308189022391
30
0
41
1
10
9.29300539331263
20
-0.125472875094033
30
0
0
LINE
5
80
100
AcDbEntity
8
4
62
256
6
ByLayer
370
13
48
0.05
60
0
100
AcDbLine
10
0
20
0
30
0
11
9.766
21
0
31
0
39
0
210
0
220
0
230
1
0
LINE
5
82
100
AcDbEntity
8
SK4
62
256
6
ByLayer
370
13
48
0.05
60
0
100
AcDbLine
10
-32.734
20
0
30
0
11
14.766
21
0
31
0
39
0
210
0
220
0
230
1
0
LINE
5
84
100
AcDbEntity
8
80
62
256
6
ByLayer
370
18
48
1
60
0
100
AcDbLine
10
0
20
0
30
0
11
-10
21
0
31
0
39
0
210
0
220
0
230
1
0
LINE
5
85
100
AcDbEntity
8
81
62
256
6
ByLayer
370
18
48
1
60
0
100
AcDbLine
10
9.766
20
0
30
0
11
19.766
21
0
31
0
39
0
210
0
220
0
230
1
0
LINE
5
86
100
AcDbEntity
8
SK1
62
256
6
ByLayer
370
18
48
1
60
0
100
AcDbLine
10
9.745841
20
-0.038551
30
0
11
9.71089
21
-0.109581
31
0
39
0
210
0
220
0
230
1
0
LINE
5
88
100
AcDbEntity
8
SK1
62
256
6
ByLayer
370
18
48
1
60
0
100
AcDbLine
10
9.76404
20
-0.004713
30
0
11
9.766
21
0
31
0
39
0
210
0
220
0
230
1
0
LINE
5
89
100
AcDbEntity
8
SK1
62
256
6
ByLayer
370
18
48
1
60
0
100
AcDbLine
10
9.745841
20
0.038551
30
0
11
9.71089
21
0.109581
31
0
39
0
210
0
220
0
230
1
0
LINE
5
8A
100
AcDbEntity
8
SK1
62
256
6
ByLayer
370
13
48
1
60
0
100
AcDbLine
10
9.745841
20
0.038551
30
0
11
9.643597
21
0.097165
31
0
39
0
210
0
220
0
230
1
0
LINE
5
8B
100
AcDbEntity
8
SK1
62
256
6
ByLayer
370
18
48
1
60
0
100
AcDbLine
10
9.766
20
0
30
0
11
9.646339
21
-0.199149
31
0
39
0
210
0
220
0
230
1
0
LINE
5
8C
100
AcDbEntity
8
SK1
62
256
6
ByLayer
370
18
48
1
60
0
100
AcDbLine
10
9.766
20
0
30
0
11
9.76404
21
0.004713
31
0
39
0
210
0
220
0
230
1
0
LINE
5
8D
100
AcDbEntity
8
SK1
62
256
6
ByLayer
370
18
48
1
60
0
100
AcDbLine
10
9.569507
20
-0.126368
30
0
11
9.760182
21
0.001566
31
0
39
0
210
0
220
0
230
1
0
LINE
5
8E
100
AcDbEntity
8
SK1
62
256
6
ByLayer
370
13
48
1
60
0
100
AcDbLine
10
9.760182
20
0.001566
30
0
11
9.618887
21
0.082566
31
0
39
0
210
0
220
0
230
1
0
LINE
5
8F
100
AcDbEntity
8
SK1
62
256
6
ByLayer
370
18
48
1
60
0
100
AcDbLine
10
5.064028
20
-0.635
30
0
11
5.064028
21
0.635
31
0
39
0
210
0
220
0
230
1
0
LINE
5
90
100
AcDbEntity
8
SK1
62
256
6
ByLayer
370
18
48
1
60
0
100
AcDbLine
10
6.553
20
-0.177146
30
0
11
6.553
21
0.177146
31
0
39
0
210
0
220
0
230
1
0
LINE
5
91
100
AcDbEntity
8
SK1
62
256
6
ByLayer
370
18
48
1
60
0
100
AcDbLine
10
-27.734
20
-1.35
30
0
11
-27.734
21
1.35
31
0
39
0
210
0
220
0
230
1
0
LINE
5
92
100
AcDbEntity
8
SK1
62
256
6
ByLayer
370
18
48
1
60
0
100
AcDbLine
10
-27.647397
20
-1.5
30
0
11
-27.647397
21
1.5
31
0
39
0
210
0
220
0
230
1
0
LINE
5
93
100
AcDbEntity
8
SK1
62
256
6
ByLayer
370
18
48
1
60
0
100
AcDbLine
10
-7.3E-05
20
-1.5
30
0
11
-7.3E-05
21
1.5
31
0
39
0
210
0
220
0
230
1
0
LINE
5
94
100
AcDbEntity
8
SK1
62
256
6
ByLayer
370
18
48
1
60
0
100
AcDbLine
10
2.812968
20
-0.635
30
0
11
2.812968
21
0.635
31
0
39
0
210
0
220
0
230
1
0
LINE
5
95
100
AcDbEntity
8
SK1
62
256
6
ByLayer
370
18
48
1
60
0
100
AcDbLine
10
6.553
20
-0.177146
30
0
11
7.031075
21
-0.180547
31
0
39
0
210
0
220
0
230
1
0
LINE
5
96
100
AcDbEntity
8
SK1
62
256
6
ByLayer
370
18
48
1
60
0
100
AcDbLine
10
7.397786
20
-0.183155
30
0
11
7.906612
21
-0.186774
31
0
39
0
210
0
220
0
230
1
0
LINE
5
97
100
AcDbEntity
8
SK1
62
256
6
ByLayer
370
18
48
1
60
0
100
AcDbLine
10
8.490512
20
-0.190928
30
0
11
8.98855
21
-0.19447
31
0
39
0
210
0
220
0
230
1
0
LINE
5
98
100
AcDbEntity
8
SK1
62
256
6
ByLayer
370
18
48
1
60
0
100
AcDbLine
10
9.584913
20
-0.198712
30
0
11
9.646339
21
-0.199149
31
0
39
0
210
0
220
0
230
1
0
LINE
5
99
100
AcDbEntity
8
SK1
62
256
6
ByLayer
370
18
48
1
60
0
100
AcDbLine
10
9.646339
20
0.199149
30
0
11
9.584913
21
0.198712
31
0
39
0
210
0
220
0
230
1
0
LINE
5
9A
100
AcDbEntity
8
SK1
62
256
6
ByLayer
370
18
48
1
60
0
100
AcDbLine
10
8.98855
20
0.19447
30
0
11
8.490512
21
0.190928
31
0
39
0
210
0
220
0
230
1
0
LINE
5
9B
100
AcDbEntity
8
SK1
62
256
6
ByLayer
370
18
48
1
60
0
100
AcDbLine
10
7.906612
20
0.186774
30
0
11
7.397786
21
0.183155
31
0
39
0
210
0
220
0
230
1
0
LINE
5
9C
100
AcDbEntity
8
SK1
62
256
6
ByLayer
370
18
48
1
60
0
100
AcDbLine
10
7.031075
20
0.180547
30
0
11
6.553
21
0.177146
31
0
39
0
210
0
220
0
230
1
0
LINE
5
9D
100
AcDbEntity
8
SK1
62
256
6
ByLayer
370
18
48
1
60
0
100
AcDbLine
10
2.812968
20
-0.635
30
0
11
5.064028
21
-0.635
31
0
39
0
210
0
220
0
230
1
0
LINE
5
9E
100
AcDbEntity
8
SK1
62
256
6
ByLayer
370
18
48
1
60
0
100
AcDbLine
10
5.064028
20
0.635
30
0
11
2.812968
21
0.635
31
0
39
0
210
0
220
0
230
1
0
LINE
5
9F
100
AcDbEntity
8
SK1
62
256
6
ByLayer
370
18
48
1
60
0
100
AcDbLine
10
6.553
20
0.177146
30
0
11
5.064028
21
0.635
31
0
39
0
210
0
220
0
230
1
0
LINE
5
A0
100
AcDbEntity
8
SK1
62
256
6
ByLayer
370
18
48
1
60
0
100
AcDbLine
10
5.064028
20
-0.635
30
0
11
6.553
21
-0.177146
31
0
39
0
210
0
220
0
230
1
0
LINE
5
A1
100
AcDbEntity
8
SK1
62
256
6
ByLayer
370
18
48
1
60
0
100
AcDbLine
10
-27.734
20
-1.35
30
0
11
-27.647397
21
-1.5
31
0
39
0
210
0
220
0
230
1
0
LINE
5
A2
100
AcDbEntity
8
SK1
62
256
6
ByLayer
370
18
48
1
60
0
100
AcDbLine
10
-27.647397
20
1.5
30
0
11
-27.734
21
1.35
31
0
39
0
210
0
220
0
230
1
0
LINE
5
A3
100
AcDbEntity
8
SK1
62
256
6
ByLayer
370
18
48
1
60
0
100
AcDbLine
10
-27.647397
20
-1.5
30
0
11
-7.3E-05
21
-1.5
31
0
39
0
210
0
220
0
230
1
0
LINE
5
A4
100
AcDbEntity
8
SK1
62
256
6
ByLayer
370
18
48
1
60
0
100
AcDbLine
10
-7.3E-05
20
1.5
30
0
11
-27.647397
21
1.5
31
0
39
0
210
0
220
0
230
1
0
LINE
5
A5
100
AcDbEntity
8
SK1
62
256
6
ByLayer
370
18
48
1
60
0
100
AcDbLine
10
2.812968
20
0.635
30
0
11
-7.3E-05
21
1.5
31
0
39
0
210
0
220
0
230
1
0
LINE
5
A6
100
AcDbEntity
8
SK1
62
256
6
ByLayer
370
18
48
1
60
0
100
AcDbLine
10
-7.3E-05
20
-1.5
30
0
11
2.812968
21
-0.635
31
0
39
0
210
0
220
0
230
1
0
LINE
5
A7
100
AcDbEntity
8
2
62
256
6
ByLayer
370
13
48
1
60
0
100
AcDbLine
10
26.766
20
25.092065
30
0
11
26.766
21
-8.95
31
0
39
0
210
0
220
0
230
1
0
LINE
5
A9
100
AcDbEntity
8
2
62
256
6
ByLayer
370
13
48
1
60
0
100
AcDbLine
10
11.3535
20
0.2
30
0
11
28.766
21
0.2
31
0
39
0
210
0
220
0
230
1
0
LINE
5
AA
100
AcDbEntity
8
2
62
256
6
ByLayer
370
13
48
1
60
0
100
AcDbLine
10
11.3535
20
-0.2
30
0
11
28.766
21
-0.2
31
0
39
0
210
0
220
0
230
1
0
LINE
5
AB
100
AcDbEntity
8
1
62
256
6
ByLayer
370
18
48
1
60
1
100
AcDbLine
10
26.766
20
0.2
30
0
11
26.305216
21
3.699998
31
0
39
0
210
0
220
0
230
1
0
LINE
5
AC
100
AcDbEntity
8
1
62
256
6
ByLayer
370
18
48
1
60
1
100
AcDbLine
10
26.305216
20
3.699998
30
0
11
27.226784
21
3.700002
31
0
39
0
210
0
220
0
230
1
0
LINE
5
AD
100
AcDbEntity
8
1
62
256
6
ByLayer
370
18
48
1
60
1
100
AcDbLine
10
27.226784
20
3.700002
30
0
11
26.766
21
0.2
31
0
39
0
210
0
220
0
230
1
0
LINE
5
AE
100
AcDbEntity
8
1
62
256
6
ByLayer
370
18
48
1
60
1
100
AcDbLine
10
26.766
20
-0.2
30
0
11
27.226784
21
-3.699998
31
0
39
0
210
0
220
0
230
1
0
LINE
5
AF
100
AcDbEntity
8
1
62
256
6
ByLayer
370
18
48
1
60
1
100
AcDbLine
10
27.226784
20
-3.699998
30
0
11
26.305216
21
-3.700002
31
0
39
0
210
0
220
0
230
1
0
LINE
5
B0
100
AcDbEntity
8
1
62
256
6
ByLayer
370
18
48
1
60
1
100
AcDbLine
10
26.305216
20
-3.700002
30
0
11
26.766
21
-0.2
31
0
39
0
210
0
220
0
230
1
0
LINE
5
B1
100
AcDbEntity
8
SK2
62
256
6
ByLayer
370
13
48
1
60
0
100
AcDbLine
10
-35.734
20
10.25
30
0
11
-35.734
21
-23.5
31
0
39
0
210
0
220
0
230
1
0
LINE
5
B3
100
AcDbEntity
8
SK2
62
256
6
ByLayer
370
13
48
1
60
0
100
AcDbLine
10
-29.3215
20
1.5
30
0
11
-37.734
21
1.5
31
0
39
0
210
0
220
0
230
1
0
LINE
5
B4
100
AcDbEntity
8
SK2
62
256
6
ByLayer
370
13
48
1
60
0
100
AcDbLine
10
-29.3215
20
-1.5
30
0
11
-37.734
21
-1.5
31
0
39
0
210
0
220
0
230
1
0
LINE
5
B5
100
AcDbEntity
8
1
62
256
6
ByLayer
370
18
48
1
60
1
100
AcDbLine
10
-35.734
20
1.5
30
0
11
-36.194784
21
4.999998
31
0
39
0
210
0
220
0
230
1
0
LINE
5
B6
100
AcDbEntity
8
1
62
256
6
ByLayer
370
18
48
1
60
1
100
AcDbLine
10
-36.194784
20
4.999998
30
0
11
-35.273216
21
5.000002
31
0
39
0
210
0
220
0
230
1
0
LINE
5
B7
100
AcDbEntity
8
1
62
256
6
ByLayer
370
18
48
1
60
1
100
AcDbLine
10
-35.273216
20
5.000002
30
0
11
-35.734
21
1.5
31
0
39
0
210
0
220
0
230
1
0
LINE
5
B8
100
AcDbEntity
8
1
62
256
6
ByLayer
370
18
48
1
60
1
100
AcDbLine
10
-35.734
20
-1.5
30
0
11
-35.273216
21
-4.999998
31
0
39
0
210
0
220
0
230
1
0
LINE
5
B9
100
AcDbEntity
8
1
62
256
6
ByLayer
370
18
48
1
60
1
100
AcDbLine
10
-35.273216
20
-4.999998
30
0
11
-36.194784
21
-5.000002
31
0
39
0
210
0
220
0
230
1
0
LINE
5
BA
100
AcDbEntity
8
1
62
256
6
ByLayer
370
18
48
1
60
1
100
AcDbLine
10
-36.194784
20
-5.000002
30
0
11
-35.734
21
-1.5
31
0
39
0
210
0
220
0
230
1
0
LINE
5
D8
100
AcDbEntity
8
1
62
256
6
ByLayer
370
18
48
1
60
1
100
AcDbLine
10
26.766
20
0.2
30
0
11
26.305216
21
3.699998
31
0
39
0
210
0
220
0
230
1
0
LINE
5
D9
100
AcDbEntity
8
1
62
256
6
ByLayer
370
18
48
1
60
1
100
AcDbLine
10
26.305216
20
3.699998
30
0
11
27.226784
21
3.700002
31
0
39
0
210
0
220
0
230
1
0
LINE
5
DA
100
AcDbEntity
8
1
62
256
6
ByLayer
370
18
48
1
60
1
100
AcDbLine
10
27.226784
20
3.700002
30
0
11
26.766
21
0.2
31
0
39
0
210
0
220
0
230
1
0
LINE
5
DC
100
AcDbEntity
8
1
62
256
6
ByLayer
370
18
48
1
60
1
100
AcDbLine
10
26.766
20
-0.2
30
0
11
27.226784
21
-3.699998
31
0
39
0
210
0
220
0
230
1
0
LINE
5
DD
100
AcDbEntity
8
1
62
256
6
ByLayer
370
18
48
1
60
1
100
AcDbLine
10
27.226784
20
-3.699998
30
0
11
26.305216
21
-3.700002
31
0
39
0
210
0
220
0
230
1
0
LINE
5
DE
100
AcDbEntity
8
1
62
256
6
ByLayer
370
18
48
1
60
1
100
AcDbLine
10
26.305216
20
-3.700002
30
0
11
26.766
21
-0.2
31
0
39
0
210
0
220
0
230
1
0
LINE
5
E2
100
AcDbEntity
8
1
62
256
6
ByLayer
370
18
48
1
60
1
100
AcDbLine
10
-35.734
20
1.5
30
0
11
-36.194784
21
4.999998
31
0
39
0
210
0
220
0
230
1
0
LINE
5
E3
100
AcDbEntity
8
1
62
256
6
ByLayer
370
18
48
1
60
1
100
AcDbLine
10
-36.194784
20
4.999998
30
0
11
-35.273216
21
5.000002
31
0
39
0
210
0
220
0
230
1
0
LINE
5
E4
100
AcDbEntity
8
1
62
256
6
ByLayer
370
18
48
1
60
1
100
AcDbLine
10
-35.273216
20
5.000002
30
0
11
-35.734
21
1.5
31
0
39
0
210
0
220
0
230
1
0
LINE
5
E6
100
AcDbEntity
8
1
62
256
6
ByLayer
370
18
48
1
60
1
100
AcDbLine
10
-35.734
20
-1.5
30
0
11
-35.273216
21
-4.999998
31
0
39
0
210
0
220
0
230
1
0
LINE
5
E7
100
AcDbEntity
8
1
62
256
6
ByLayer
370
18
48
1
60
1
100
AcDbLine
10
-35.273216
20
-4.999998
30
0
11
-36.194784
21
-5.000002
31
0
39
0
210
0
220
0
230
1
0
LINE
5
E8
100
AcDbEntity
8
1
62
256
6
ByLayer
370
18
48
1
60
1
100
AcDbLine
10
-36.194784
20
-5.000002
30
0
11
-35.734
21
-1.5
31
0
39
0
210
0
220
0
230
1
0
MTEXT
5
D3
100
AcDbEntity
8
2
62
256
6
ByLayer
370
18
48
1
60
0
100
AcDbMText
10
25.201366
20
9.693977
30
0
210
0
220
0
230
1
1
%%c
40
3.5
41
0
44
1.084337
50
90
71
7
72
5
7
iso_b_vert
0
MTEXT
5
D6
100
AcDbEntity
8
2
62
256
6
ByLayer
370
18
48
1
60
0
100
AcDbMText
10
25.201366
20
3.3575
30
0
210
0
220
0
230
1
1
\W0.2969; 
40
3.5
41
0
44
1.084337
50
90
71
7
72
5
7
iso_b_vert
0
MTEXT
5
D7
100
AcDbEntity
8
2
62
256
6
ByLayer
370
18
48
1
60
0
100
AcDbMText
10
25.201366
20
16.666633
30
0
210
0
220
0
230
1
1
\W0.7640;0.40
40
3.5
41
0
44
1.084337
50
90
71
7
72
5
7
iso_b_vert
0
MTEXT
5
E0
100
AcDbEntity
8
SK2
62
256
6
ByLayer
370
18
48
1
60
0
100
AcDbMText
10
-37.298634
20
-21.565156
30
0
210
0
220
0
230
1
1
%%c
40
3.5
41
0
44
1.084337
50
90
71
7
72
5
7
iso_b_vert
0
MTEXT
5
E1
100
AcDbEntity
8
SK2
62
256
6
ByLayer
370
18
48
1
60
0
100
AcDbMText
10
-37.298634
20
-14.5925
30
0
210
0
220
0
230
1
1
\W0.7346;3.00
40
3.5
41
0
44
1.084337
50
90
71
7
72
5
7
iso_b_vert
0
MTEXT
5
EA
100
AcDbEntity
8
SK6
62
256
6
ByLayer
370
18
48
1
60
0
100
AcDbMText
10
-40.0485
20
-59.217366
30
0
210
0
220
0
230
1
1
\W0.7692;862.3-0400-020A0-GM X1DU
40
3.5
41
0
44
1.084337
50
0
71
7
72
5
7
iso_b_vert
0
HATCH
5
DB
100
AcDbEntity
8
2
62
256
6
ByLayer
370
13
48
1
60
0
100
AcDbHatch
10
0
20
0
30
0
210
0
220
0
230
1
2
ANSI31
70
0
71
0
91
1
92
5
93
3
72
1
10
26.766
20
0.200000000000017
11
26.3052162584472
21
3.69999830744683
72
1
10
26.3052162584472
20
3.69999830744683
11
27.2267837415528
21
3.7000016925532
72
1
10
27.2267837415528
20
3.7000016925532
11
26.766
21
0.200000000000017
97
0
75
0
76
1
52
0
41
0.0062
77
0
78
1
53
45
43
0
44
0
45
-0.0139193969876572
46
0.0139193969876572
79
0
47
0
98
1
10
0
20
0
0
HATCH
5
DF
100
AcDbEntity
8
2
62
256
6
ByLayer
370
13
48
1
60
0
100
AcDbHatch
10
0
20
0
30
0
210
0
220
0
230
1
2
ANSI31
70
0
71
0
91
1
92
5
93
3
72
1
10
26.766
20
-0.199999999999989
11
27.2267837415528
21
-3.6999983074468
72
1
10
27.2267837415528
20
-3.6999983074468
11
26.3052162584472
21
-3.70000169255317
72
1
10
26.3052162584472
20
-3.70000169255317
11
26.766
21
-0.199999999999989
97
0
75
0
76
1
52
0
41
0.0062
77
0
78
1
53
45
43
0
44
0
45
-0.0139193969876572
46
0.0139193969876572
79
0
47
0
98
1
10
0
20
0
0
HATCH
5
E5
100
AcDbEntity
8
SK2
62
256
6
ByLayer
370
13
48
1
60
0
100
AcDbHatch
10
0
20
0
30
0
210
0
220
0
230
1
2
ANSI31
70
0
71
0
91
1
92
5
93
3
72
1
10
-35.734
20
1.49999999999997
11
-36.1947837415528
21
4.99999830744679
72
1
10
-36.1947837415528
20
4.99999830744679
11
-35.2732162584472
21
5.00000169255316
72
1
10
-35.2732162584472
20
5.00000169255316
11
-35.734
21
1.49999999999997
97
0
75
0
76
1
52
0
41
0.0062
77
0
78
1
53
45
43
0
44
0
45
-0.0139193969876572
46
0.0139193969876572
79
0
47
0
98
1
10
0
20
0
0
HATCH
5
E9
100
AcDbEntity
8
SK2
62
256
6
ByLayer
370
13
48
1
60
0
100
AcDbHatch
10
0
20
0
30
0
210
0
220
0
230
1
2
ANSI31
70
0
71
0
91
1
92
5
93
3
72
1
10
-35.734
20
-1.50000000000003
11
-35.2732162584472
21
-4.99999830744684
72
1
10
-35.2732162584472
20
-4.99999830744684
11
-36.1947837415528
21
-5.00000169255321
72
1
10
-36.1947837415528
20
-5.00000169255321
11
-35.734
21
-1.50000000000003
97
0
75
0
76
1
52
0
41
0.0062
77
0
78
1
53
45
43
0
44
0
45
-0.0139193969876572
46
0.0139193969876572
79
0
47
0
98
1
10
0
20
0
0
DIMENSION
5
ED
100
AcDbEntity
8
2
62
256
6
ByLayer
370
18
48
1
60
0
100
AcDbDimension
2
_U0
10
9.646
20
23.05
30
0
11
27.229333
21
23.05
31
0
70
32
71
1
72
1
41
1
210
0
220
0
230
1
3
Standard
100
AcDbAlignedDimension
13
0
23
-1.5
33
0
14
9.646
24
-0.2
34
0
50
0
100
AcDbRotatedDimension
1001
ACAD
1000
DSTYLE
1002
{
1070
   371
1070
    13
1070
   372
1070
    13
1070
   170
1070
     0
1070
   144
1040
1.0
1070
   277
1070
     2
1070
   284
1070
     8
1070
   278
1070
    46
1070
   146
1040
1.0
1070
   345
1005
16
1070
   347
1005
16
1070
   346
1005
16
1070
   344
1005
0
1070
   343
1005
0
1070
   172
1070
     1
1070
    76
1070
     0
1070
    75
1070
     0
1070
   282
1070
     0
1070
   281
1070
     0
1070
    71
1070
     0
1070
    74
1070
     0
1070
   279
1070
     0
1070
   173
1070
     1
1070
   340
1005
D4
1070
   271
1070
     2
1070
   272
1070
     2
1070
    77
1070
     1
1070
    73
1070
     1
1070
   171
1070
     3
1070
   274
1070
     4
1070
   177
1070
     2
1070
   176
1070
     2
1070
   178
1070
     2
1070
    78
1070
     8
1070
    48
1040
-0.1
1070
    41
1040
3.5
1070
   147
1040
1.75
1070
    42
1040
1.5875
1070
    44
1040
2.0
1070
   140
1040
3.5
1002
}
1001
ACAD_DSTYLE_DIM_LINETYPE
1070
   380
1005
16
1001
ACAD_DSTYLE_DIM_EXT1_LINETYPE
1070
   381
1005
16
1001
ACAD_DSTYLE_DIM_EXT2_LINETYPE
1070
   382
1005
16
0
DIMENSION
5
108
100
AcDbEntity
8
SK2
62
256
6
ByLayer
370
18
48
1
60
0
100
AcDbDimension
2
_U1
10
0
20
-23.25
30
0
11
-16.319068
21
-23.25
31
0
70
32
71
1
72
1
41
1
210
0
220
0
230
1
3
Standard
100
AcDbAlignedDimension
13
-27.734
23
-1.5
33
0
14
0
24
-1.5
34
0
50
0
100
AcDbRotatedDimension
1001
ACAD
1000
DSTYLE
1002
{
1070
   371
1070
    13
1070
   372
1070
    13
1070
   170
1070
     0
1070
   144
1040
1.0
1070
   277
1070
     2
1070
   284
1070
     8
1070
   278
1070
    46
1070
   146
1040
1.0
1070
   345
1005
16
1070
   347
1005
16
1070
   346
1005
16
1070
   344
1005
0
1070
   343
1005
0
1070
   172
1070
     1
1070
    76
1070
     0
1070
    75
1070
     0
1070
   282
1070
     0
1070
   281
1070
     0
1070
    71
1070
     0
1070
    74
1070
     0
1070
   279
1070
     0
1070
   173
1070
     1
1070
   340
1005
D4
1070
   271
1070
     2
1070
   272
1070
     2
1070
    77
1070
     1
1070
    73
1070
     1
1070
   171
1070
     3
1070
   274
1070
     4
1070
   177
1070
     2
1070
   176
1070
     2
1070
   178
1070
     2
1070
    78
1070
     8
1070
    48
1040
-0.1
1070
    41
1040
3.5
1070
   147
1040
1.75
1070
    42
1040
1.5875
1070
    44
1040
2.0
1070
   140
1040
3.5
1002
}
1001
ACAD_DSTYLE_DIM_LINETYPE
1070
   380
1005
16
1001
ACAD_DSTYLE_DIM_EXT1_LINETYPE
1070
   381
1005
16
1001
ACAD_DSTYLE_DIM_EXT2_LINETYPE
1070
   382
1005
16
0
DIMENSION
5
120
100
AcDbEntity
8
SK2
62
256
6
ByLayer
370
18
48
1
60
0
100
AcDbDimension
2
_U2
10
9.766
20
-15.45
30
0
11
23.182667
21
-15.45
31
0
70
32
71
1
72
1
41
1
210
0
220
0
230
1
3
Standard
100
AcDbAlignedDimension
13
7.766
23
-0.2
33
0
14
9.766
24
-0.2
34
0
50
0
100
AcDbRotatedDimension
1001
ACAD
1000
DSTYLE
1002
{
1070
   371
1070
    13
1070
   372
1070
    13
1070
   170
1070
     0
1070
   144
1040
1.0
1070
   277
1070
     2
1070
   284
1070
     8
1070
   278
1070
    46
1070
   146
1040
1.0
1070
   345
1005
16
1070
   347
1005
16
1070
   346
1005
16
1070
   344
1005
0
1070
   343
1005
0
1070
   172
1070
     1
1070
    76
1070
     0
1070
    75
1070
     0
1070
   282
1070
     0
1070
   281
1070
     0
1070
    71
1070
     0
1070
    74
1070
     0
1070
   279
1070
     0
1070
   173
1070
     1
1070
   340
1005
D4
1070
   271
1070
     2
1070
   272
1070
     2
1070
    77
1070
     1
1070
    73
1070
     1
1070
   171
1070
     3
1070
   274
1070
     4
1070
   177
1070
     2
1070
   176
1070
     2
1070
   178
1070
     2
1070
    78
1070
     8
1070
    48
1040
-0.1
1070
    41
1040
3.5
1070
   147
1040
1.75
1070
    42
1040
1.5875
1070
    44
1040
2.0
1070
   140
1040
3.5
1002
}
1001
ACAD_DSTYLE_DIM_LINETYPE
1070
   380
1005
16
1001
ACAD_DSTYLE_DIM_EXT1_LINETYPE
1070
   381
1005
16
1001
ACAD_DSTYLE_DIM_EXT2_LINETYPE
1070
   382
1005
16
0
DIMENSION
5
13A
100
AcDbEntity
8
SK2
62
256
6
ByLayer
370
18
48
1
60
0
100
AcDbDimension
2
_U3
10
9.766
20
-25.45
30
0
11
27.266
21
-25.45
31
0
70
32
71
1
72
1
41
1
210
0
220
0
230
1
3
Standard
100
AcDbAlignedDimension
13
7.073
23
-0.2
33
0
14
9.766
24
-0.2
34
0
50
0
100
AcDbRotatedDimension
1001
ACAD
1000
DSTYLE
1002
{
1070
   371
1070
    13
1070
   372
1070
    13
1070
   170
1070
     0
1070
   144
1040
1.0
1070
   277
1070
     2
1070
   284
1070
     8
1070
   278
1070
    46
1070
   146
1040
1.0
1070
   345
1005
16
1070
   347
1005
16
1070
   346
1005
16
1070
   344
1005
0
1070
   343
1005
0
1070
   172
1070
     1
1070
    76
1070
     0
1070
    75
1070
     0
1070
   282
1070
     0
1070
   281
1070
     0
1070
    71
1070
     0
1070
    74
1070
     0
1070
   279
1070
     0
1070
   173
1070
     1
1070
   340
1005
D4
1070
   271
1070
     2
1070
   272
1070
     2
1070
    77
1070
     1
1070
    73
1070
     1
1070
   171
1070
     3
1070
   274
1070
     4
1070
   177
1070
     2
1070
   176
1070
     2
1070
   178
1070
     2
1070
    78
1070
     8
1070
    48
1040
-0.1
1070
    41
1040
3.5
1070
   147
1040
1.75
1070
    42
1040
1.5875
1070
    44
1040
2.0
1070
   140
1040
3.5
1002
}
1001
ACAD_DSTYLE_DIM_LINETYPE
1070
   380
1005
16
1001
ACAD_DSTYLE_DIM_EXT1_LINETYPE
1070
   381
1005
16
1001
ACAD_DSTYLE_DIM_EXT2_LINETYPE
1070
   382
1005
16
0
DIMENSION
5
154
100
AcDbEntity
8
SK2
62
256
6
ByLayer
370
18
48
1
60
0
100
AcDbDimension
2
_U4
10
9.766
20
-34.6
30
0
11
-8.984
21
-34.6
31
0
70
32
71
1
72
1
41
1
210
0
220
0
230
1
3
Standard
100
AcDbAlignedDimension
13
-27.734
23
1.5
33
0
14
9.766
24
0.2
34
0
50
0
100
AcDbRotatedDimension
1001
ACAD
1000
DSTYLE
1002
{
1070
   371
1070
    13
1070
   372
1070
    13
1070
     3
1000

1070
   170
1070
     0
1070
   144
1040
1.0
1070
   277
1070
     2
1070
   284
1070
     8
1070
   278
1070
    46
1070
   146
1040
1.0
1070
   345
1005
16
1070
   347
1005
16
1070
   346
1005
16
1070
   344
1005
0
1070
   343
1005
0
1070
   172
1070
     1
1070
    76
1070
     0
1070
    75
1070
     0
1070
   282
1070
     0
1070
   281
1070
     0
1070
    71
1070
     0
1070
    74
1070
     0
1070
   279
1070
     0
1070
   173
1070
     1
1070
   340
1005
D4
1070
   271
1070
     2
1070
   272
1070
     2
1070
    77
1070
     1
1070
    73
1070
     1
1070
   171
1070
     3
1070
   274
1070
     4
1070
   177
1070
     2
1070
   176
1070
     2
1070
   178
1070
     2
1070
    78
1070
     8
1070
    48
1040
-0.1
1070
    41
1040
3.5
1070
   147
1040
1.75
1070
    42
1040
1.5875
1070
    44
1040
2.0
1070
   140
1040
3.5
1002
}
1001
ACAD_DSTYLE_DIM_LINETYPE
1070
   380
1005
16
1001
ACAD_DSTYLE_DIM_EXT1_LINETYPE
1070
   381
1005
16
1001
ACAD_DSTYLE_DIM_EXT2_LINETYPE
1070
   382
1005
16
0
ENDSEC
0
SECTION
2
OBJECTS
0
DICTIONARY
5
1de
330
0
100
AcDbDictionary
280
0
281
1
3
ACAD_GROUP
350
1df
3
ACAD_MLINESTYLE
350
1e0
0
DICTIONARY
5
1df
330
0
100
AcDbDictionary
280
0
281
1
0
DICTIONARY
5
1e0
330
0
100
AcDbDictionary
280
0
281
1
3
Standard
350
18
0
MLINESTYLE
5
18
330
1e0
100
AcDbMlineStyle
2
Standard
70
0
3

62
256
51
90
52
90
71
2
49
-0.5
62
256
6
ByLayer
49
0.5
62
256
6
ByLayer
0
RASTERVARIABLES
5
1cc
330

100
AcDbRasterVariables
90
0
70
1
71
1
72
1
0
ENDSEC
0
EOF
