0
SECTION
2
HEADER
9
$ACADVER
1
AC1015
9
$DWGCODEPAGE
3
ANSI_1252
9
$HANDSEED
5
1fc
9
$ANGBASE
50
0
9
$ANGDIR
70
0
9
$ATTMODE
70
1
9
$AUNITS
70
0
9
$AUPREC
70
0
9
$CECOLOR
62
256
9
$CELTSCALE
40
1
9
$CELTYPE
6
ByLayer
9
$CELWEIGHT
370
18
9
$CLAYER
8
0
9
$CMLJUST
70
0
9
$CMLSCALE
40
1
9
$CMLSTYLE
2
Standard
9
$DIMSTYLE
2
Standard
9
$TEXTSIZE
40
0.2
9
$TEXTSTYLE
7
Standard
9
$LUNITS
70
2
9
$LUPREC
70
4
9
$EXTNAMES
290
1
9
$INSUNITS
70
4
9
$LTSCALE
40
1
9
$LWDISPLAY
290
1
9
$PDMODE
70
0
9
$PDSIZE
40
0
9
$PLINEGEN
70
0
0
ENDSEC
0
SECTION
2
CLASSES
0
CLASS
1
RASTERVARIABLES
2
AcDbRasterVariables
3
ISM
90
0
280
0
281
0
0
ENDSEC
0
SECTION
2
TABLES
0
TABLE
2
VPORT
5
1f2
100
AcDbSymbolTable
0
VPORT
5
1
100
AcDbSymbolTableRecord
100
AcDbViewportTableRecord
2
*Active
70
0
10
0
20
0
11
1
21
1
12
-1
22
1
13
0
23
0
14
0.5
24
0.5
15
10
25
10
16
0
26
0
36
1
17
0
27
0
37
0
0
ENDTAB
0
TABLE
2
LTYPE
5
1f3
100
AcDbSymbolTable
0
LTYPE
5
14
100
AcDbSymbolTableRecord
100
AcDbLinetypeTableRecord
70
0
2
ByBlock
3

72
65
73
0
40
0
0
LTYPE
5
15
100
AcDbSymbolTableRecord
100
AcDbLinetypeTableRecord
70
0
2
ByLayer
3

72
65
73
0
40
0
0
LTYPE
5
16
100
AcDbSymbolTableRecord
100
AcDbLinetypeTableRecord
70
0
2
Continuous
3
Solid line
72
65
73
0
40
0
0
LTYPE
5
6E
100
AcDbSymbolTableRecord
100
AcDbLinetypeTableRecord
70
0
2
CENTER
3
____ _ ____ _ ____ _ ____
72
65
73
4
40
47.5
49
22
74
0
49
-8.5
74
0
49
8.5
74
0
49
-8.5
74
0
0
LTYPE
5
6F
100
AcDbSymbolTableRecord
100
AcDbLinetypeTableRecord
70
0
2
DASHED
3
__ __ __ __ __ __ __ __ __
72
65
73
2
40
25.72
49
12.86
74
0
49
-12.86
74
0
0
ENDTAB
0
TABLE
2
LAYER
5
1f4
100
AcDbSymbolTable
0
LAYER
5
10
100
AcDbSymbolTableRecord
100
AcDbLayerTableRecord
2
0
70
0
62
7
6
Continuous
290
1
370
-3
390
0
0
LAYER
5
71
100
AcDbSymbolTableRecord
100
AcDbLayerTableRecord
2
80
70
0
62
-6
6
Continuous
290
1
370
-3
390
0
0
LAYER
5
73
100
AcDbSymbolTableRecord
100
AcDbLayerTableRecord
2
81
70
0
62
-3
6
Continuous
290
1
370
-3
390
0
0
LAYER
5
75
100
AcDbSymbolTableRecord
100
AcDbLayerTableRecord
2
1
70
0
62
4
6
Continuous
290
1
370
-3
390
0
0
LAYER
5
81
100
AcDbSymbolTableRecord
100
AcDbLayerTableRecord
2
4
70
0
62
-2
6
CENTER
290
1
370
-3
390
0
0
LAYER
5
A4
100
AcDbSymbolTableRecord
100
AcDbLayerTableRecord
2
2
70
0
62
7
6
Continuous
290
1
370
-3
390
0
0
LAYER
5
104
100
AcDbSymbolTableRecord
100
AcDbLayerTableRecord
2
Defpoints
70
0
62
7
6
Continuous
290
0
370
-3
390
0
0
LAYER
5
1de
100
AcDbSymbolTableRecord
100
AcDbLayerTableRecord
2
SK4
70
0
62
2
6
CENTER
290
1
370
-3
390
0
0
LAYER
5
1df
100
AcDbSymbolTableRecord
100
AcDbLayerTableRecord
2
SK1
70
0
62
4
6
Continuous
290
1
370
-3
390
0
0
LAYER
5
1e0
100
AcDbSymbolTableRecord
100
AcDbLayerTableRecord
2
SK2
70
0
62
7
6
Continuous
290
1
370
-3
390
0
0
LAYER
5
1e1
100
AcDbSymbolTableRecord
100
AcDbLayerTableRecord
2
SK6
70
0
62
5
6
Continuous
290
1
370
-3
390
0
0
ENDTAB
0
TABLE
2
STYLE
5
1f5
100
AcDbSymbolTable
0
STYLE
5
11
100
AcDbSymbolTableRecord
100
AcDbTextStyleTableRecord
2
Standard
3
txt
70
0
71
0
40
0
41
1
42
0
50
0
0
STYLE
5
E8
100
AcDbSymbolTableRecord
100
AcDbTextStyleTableRecord
2
iso_b_vert
3
simplex.shx
70
0
71
0
40
0
41
1
42
0
50
0
0
STYLE
5
E9
100
AcDbSymbolTableRecord
100
AcDbTextStyleTableRecord
2
DWGDirectTextStyle
3
simplex
70
0
71
0
40
0
41
1
42
0
50
0
0
ENDTAB
0
TABLE
2
DIMSTYLE
5
1f6
100
AcDbSymbolTable
100
AcDbDimStyleTable
0
DIMSTYLE
105
27
100
AcDbSymbolTableRecord
100
AcDbDimStyleTableRecord
2
Standard
70
0
3
<>
41
0.18
42
0.0625
44
0.18
140
0.18
147
0.09
73
0
74
0
77
1
271
2
275
0
278
52
280
0
340
11
0
ENDTAB
0
TABLE
2
VIEW
5
1f7
100
AcDbSymbolTable
0
ENDTAB
0
TABLE
2
UCS
5
1f8
100
AcDbSymbolTable
0
ENDTAB
0
TABLE
2
APPID
5
1f9
100
AcDbSymbolTable
0
APPID
5
12
100
AcDbSymbolTableRecord
100
AcDbRegAppTableRecord
2
ACAD
70
0
0
APPID
5
100
100
AcDbSymbolTableRecord
100
AcDbRegAppTableRecord
2
ACAD_DSTYLE_DIMBREAK
70
0
0
APPID
5
19D
100
AcDbSymbolTableRecord
100
AcDbRegAppTableRecord
2
ACAD_DSTYLE_DIM_LINETYPE
70
0
0
APPID
5
19E
100
AcDbSymbolTableRecord
100
AcDbRegAppTableRecord
2
ACAD_DSTYLE_DIM_EXT1_LINETYPE
70
0
0
APPID
5
19F
100
AcDbSymbolTableRecord
100
AcDbRegAppTableRecord
2
ACAD_DSTYLE_DIM_EXT2_LINETYPE
70
0
0
APPID
5
1DA
100
AcDbSymbolTableRecord
100
AcDbRegAppTableRecord
2
ACAD_MLEADERVER
70
0
0
ENDTAB
0
TABLE
2
BLOCK_RECORD
5
1fa
100
AcDbSymbolTable
0
BLOCK_RECORD
5
1F
100
AcDbSymbolTableRecord
100
AcDbBlockTableRecord
2
*Model_Space
340
0
70
0
0
BLOCK_RECORD
5
1B
100
AcDbSymbolTableRecord
100
AcDbBlockTableRecord
2
*Paper_Space
340
0
70
0
0
BLOCK_RECORD
5
23
100
AcDbSymbolTableRecord
100
AcDbBlockTableRecord
2
*Paper_Space0
340
0
70
0
0
BLOCK_RECORD
5
105
100
AcDbSymbolTableRecord
100
AcDbBlockTableRecord
2
*D1
340
0
70
0
0
BLOCK_RECORD
5
111
100
AcDbSymbolTableRecord
100
AcDbBlockTableRecord
2
_U0
340
0
70
0
0
BLOCK_RECORD
5
11D
100
AcDbSymbolTableRecord
100
AcDbBlockTableRecord
2
*D3
340
0
70
0
0
BLOCK_RECORD
5
129
100
AcDbSymbolTableRecord
100
AcDbBlockTableRecord
2
_U1
340
0
70
0
0
BLOCK_RECORD
5
135
100
AcDbSymbolTableRecord
100
AcDbBlockTableRecord
2
*D5
340
0
70
0
0
BLOCK_RECORD
5
143
100
AcDbSymbolTableRecord
100
AcDbBlockTableRecord
2
_U2
340
0
70
0
0
BLOCK_RECORD
5
14F
100
AcDbSymbolTableRecord
100
AcDbBlockTableRecord
2
*D7
340
0
70
0
0
BLOCK_RECORD
5
15C
100
AcDbSymbolTableRecord
100
AcDbBlockTableRecord
2
_U3
340
0
70
0
0
BLOCK_RECORD
5
168
100
AcDbSymbolTableRecord
100
AcDbBlockTableRecord
2
*D9
340
0
70
0
0
BLOCK_RECORD
5
174
100
AcDbSymbolTableRecord
100
AcDbBlockTableRecord
2
_U4
340
0
70
0
0
ENDTAB
0
ENDSEC
0
SECTION
2
BLOCKS
0
BLOCK
5
20
100
AcDbEntity
8
0
100
AcDbBlockBegin
2
*Model_Space
70
0
10
0
20
0
30
0
3
*Model_Space
0
ENDBLK
5
21
100
AcDbEntity
8
0
100
AcDbBlockEnd
0
BLOCK
5
1C
100
AcDbEntity
8
0
100
AcDbBlockBegin
2
*Paper_Space
70
0
10
0
20
0
30
0
3
*Paper_Space
0
ENDBLK
5
1D
100
AcDbEntity
8
0
100
AcDbBlockEnd
0
BLOCK
5
24
100
AcDbEntity
8
0
100
AcDbBlockBegin
2
*Paper_Space0
70
0
10
0
20
0
30
0
3
*Paper_Space0
0
ENDBLK
5
25
100
AcDbEntity
8
0
100
AcDbBlockEnd
0
BLOCK
5
106
100
AcDbEntity
8
0
100
AcDbBlockBegin
2
*D1
70
1
10
0
20
0
30
0
3
*D1
0
LINE
5
108
100
AcDbEntity
8
0
62
256
6
ByLayer
370
-2
48
1
60
0
100
AcDbLine
10
0
20
0.0875
30
0
11
0
21
23.8
31
0
39
0
210
0
220
0
230
1
0
LINE
5
109
100
AcDbEntity
8
0
62
256
6
ByLayer
370
-2
48
1
60
0
100
AcDbLine
10
22.582
20
0.1375
30
0
11
22.582
21
23.8
31
0
39
0
210
0
220
0
230
1
0
LINE
5
10A
100
AcDbEntity
8
0
62
256
6
ByLayer
370
-2
48
1
60
0
100
AcDbLine
10
3.5
20
21.8
30
0
11
19.082
21
21.8
31
0
39
0
210
0
220
0
230
1
0
SOLID
5
10B
100
AcDbEntity
8
0
62
256
6
ByLayer
370
-1
48
1
60
0
100
AcDbTrace
10
3.5
20
22.383333
30
0
11
3.5
21
21.216667
31
0
12
0
22
21.8
32
0
13
0
23
21.8
33
0
39
0
210
0
220
0
230
1
0
SOLID
5
10C
100
AcDbEntity
8
0
62
256
6
ByLayer
370
-1
48
1
60
0
100
AcDbTrace
10
19.082
20
21.216667
30
0
11
19.082
21
22.383333
31
0
12
22.582
22
21.8
32
0
13
22.582
23
21.8
33
0
39
0
210
0
220
0
230
1
0
MTEXT
5
10D
100
AcDbEntity
8
0
62
256
6
ByLayer
370
18
48
1
60
0
100
AcDbMText
10
17.656432
20
28.8
30
0
210
0
220
0
230
1
1
\A1;22.58
40
3.5
41
0
44
1
50
0
71
5
72
5
7
iso_b_vert
0
POINT
5
10E
100
AcDbEntity
8
Defpoints
62
0
6
ByLayer
370
-1
48
1
60
0
100
AcDbPoint
10
0
20
-1.5
30
0
39
0
210
0
220
0
230
1
50
360
0
POINT
5
10F
100
AcDbEntity
8
Defpoints
62
0
6
ByLayer
370
-1
48
1
60
0
100
AcDbPoint
10
22.582
20
-1.45
30
0
39
0
210
0
220
0
230
1
50
360
0
POINT
5
110
100
AcDbEntity
8
Defpoints
62
0
6
ByLayer
370
-1
48
1
60
0
100
AcDbPoint
10
22.582
20
21.8
30
0
39
0
210
0
220
0
230
1
50
360
0
ENDBLK
5
107
100
AcDbEntity
8
0
100
AcDbBlockEnd
0
BLOCK
5
118
100
AcDbEntity
8
0
100
AcDbBlockBegin
2
_U0
70
0
10
0
20
0
30
0
3
_U0
0
MTEXT
5
112
100
AcDbEntity
8
2
62
256
6
ByLayer
370
18
48
1
60
0
100
AcDbMText
10
12.427
20
22.832634
30
0
210
0
220
0
230
1
1
\W0.7468;22.58
40
3.5
41
0
44
1.084337
50
0
71
7
72
5
7
iso_b_vert
0
LINE
5
113
100
AcDbEntity
8
2
62
256
6
ByLayer
370
13
48
1
60
0
100
AcDbLine
10
0
20
0.0875
30
0
11
0
21
23.8
31
0
39
0
210
0
220
0
230
1
0
LINE
5
114
100
AcDbEntity
8
2
62
256
6
ByLayer
370
13
48
1
60
0
100
AcDbLine
10
22.582
20
0.1375
30
0
11
22.582
21
23.8
31
0
39
0
210
0
220
0
230
1
0
LINE
5
115
100
AcDbEntity
8
2
62
256
6
ByLayer
370
13
48
1
60
0
100
AcDbLine
10
0
20
21.8
30
0
11
23.071364
21
21.8
31
0
39
0
210
0
220
0
230
1
0
SOLID
5
116
100
AcDbEntity
8
2
62
256
6
ByLayer
370
18
48
1
60
0
100
AcDbTrace
10
0
20
21.8
30
0
11
3.499998
21
22.260784
31
0
12
3.500002
22
21.339216
32
0
13
3.500002
23
21.339216
33
0
39
0
210
0
220
0
230
1
0
SOLID
5
117
100
AcDbEntity
8
2
62
256
6
ByLayer
370
18
48
1
60
0
100
AcDbTrace
10
22.582
20
21.8
30
0
11
19.082002
21
21.339216
31
0
12
19.081998
22
22.260784
32
0
13
19.081998
23
22.260784
33
0
39
0
210
0
220
0
230
1
0
ENDBLK
5
119
100
AcDbEntity
8
0
100
AcDbBlockEnd
0
BLOCK
5
11E
100
AcDbEntity
8
0
100
AcDbBlockBegin
2
*D3
70
1
10
0
20
0
30
0
3
*D3
0
LINE
5
120
100
AcDbEntity
8
0
62
256
6
ByLayer
370
-2
48
1
60
0
100
AcDbLine
10
-26.547
20
-3.0875
30
0
11
-26.547
21
-25.25
31
0
39
0
210
0
220
0
230
1
0
LINE
5
121
100
AcDbEntity
8
0
62
256
6
ByLayer
370
-2
48
1
60
0
100
AcDbLine
10
0
20
-3.0875
30
0
11
0
21
-25.25
31
0
39
0
210
0
220
0
230
1
0
LINE
5
122
100
AcDbEntity
8
0
62
256
6
ByLayer
370
-2
48
1
60
0
100
AcDbLine
10
-23.047
20
-23.25
30
0
11
-3.5
21
-23.25
31
0
39
0
210
0
220
0
230
1
0
SOLID
5
123
100
AcDbEntity
8
0
62
256
6
ByLayer
370
-1
48
1
60
0
100
AcDbTrace
10
-23.047
20
-22.666667
30
0
11
-23.047
21
-23.833333
31
0
12
-26.547
22
-23.25
32
0
13
-26.547
23
-23.25
33
0
39
0
210
0
220
0
230
1
0
SOLID
5
124
100
AcDbEntity
8
0
62
256
6
ByLayer
370
-1
48
1
60
0
100
AcDbTrace
10
-3.5
20
-23.833333
30
0
11
-3.5
21
-22.666667
31
0
12
0
22
-23.25
32
0
13
0
23
-23.25
33
0
39
0
210
0
220
0
230
1
0
MTEXT
5
125
100
AcDbEntity
8
0
62
256
6
ByLayer
370
18
48
1
60
0
100
AcDbMText
10
-15.132068
20
-16.25
30
0
210
0
220
0
230
1
1
\A1;26.55
40
3.5
41
0
44
1
50
0
71
5
72
5
7
iso_b_vert
0
POINT
5
126
100
AcDbEntity
8
Defpoints
62
0
6
ByLayer
370
-1
48
1
60
0
100
AcDbPoint
10
-26.547
20
-1.5
30
0
39
0
210
0
220
0
230
1
50
360
0
POINT
5
127
100
AcDbEntity
8
Defpoints
62
0
6
ByLayer
370
-1
48
1
60
0
100
AcDbPoint
10
0
20
-1.5
30
0
39
0
210
0
220
0
230
1
50
360
0
POINT
5
128
100
AcDbEntity
8
Defpoints
62
0
6
ByLayer
370
-1
48
1
60
0
100
AcDbPoint
10
0
20
-23.25
30
0
39
0
210
0
220
0
230
1
50
360
0
ENDBLK
5
11F
100
AcDbEntity
8
0
100
AcDbBlockEnd
0
BLOCK
5
130
100
AcDbEntity
8
0
100
AcDbBlockBegin
2
_U1
70
0
10
0
20
0
30
0
3
_U1
0
MTEXT
5
12A
100
AcDbEntity
8
SK2
62
256
6
ByLayer
370
18
48
1
60
0
100
AcDbMText
10
-20.3615
20
-22.217366
30
0
210
0
220
0
230
1
1
\W0.7468;26.55
40
3.5
41
0
44
1.084337
50
0
71
7
72
5
7
iso_b_vert
0
LINE
5
12B
100
AcDbEntity
8
SK2
62
256
6
ByLayer
370
13
48
1
60
0
100
AcDbLine
10
-26.547
20
-3.0875
30
0
11
-26.547
21
-25.25
31
0
39
0
210
0
220
0
230
1
0
LINE
5
12C
100
AcDbEntity
8
SK2
62
256
6
ByLayer
370
13
48
1
60
0
100
AcDbLine
10
0
20
-3.0875
30
0
11
0
21
-25.25
31
0
39
0
210
0
220
0
230
1
0
LINE
5
12D
100
AcDbEntity
8
SK2
62
256
6
ByLayer
370
13
48
1
60
0
100
AcDbLine
10
-26.547
20
-23.25
30
0
11
0
21
-23.25
31
0
39
0
210
0
220
0
230
1
0
SOLID
5
12E
100
AcDbEntity
8
SK2
62
256
6
ByLayer
370
18
48
1
60
0
100
AcDbTrace
10
-26.547
20
-23.25
30
0
11
-23.047002
21
-22.789216
31
0
12
-23.046998
22
-23.710784
32
0
13
-23.046998
23
-23.710784
33
0
39
0
210
0
220
0
230
1
0
SOLID
5
12F
100
AcDbEntity
8
SK2
62
256
6
ByLayer
370
18
48
1
60
0
100
AcDbTrace
10
0
20
-23.25
30
0
11
-3.499998
21
-23.710784
31
0
12
-3.500002
22
-22.789216
32
0
13
-3.500002
23
-22.789216
33
0
39
0
210
0
220
0
230
1
0
ENDBLK
5
131
100
AcDbEntity
8
0
100
AcDbBlockEnd
0
BLOCK
5
136
100
AcDbEntity
8
0
100
AcDbBlockBegin
2
*D5
70
1
10
0
20
0
30
0
3
*D5
0
LINE
5
138
100
AcDbEntity
8
0
62
256
6
ByLayer
370
-2
48
1
60
0
100
AcDbLine
10
8.953
20
-3.0375
30
0
11
8.953
21
-18.7
31
0
39
0
210
0
220
0
230
1
0
LINE
5
139
100
AcDbEntity
8
0
62
256
6
ByLayer
370
-2
48
1
60
0
100
AcDbLine
10
23.453
20
-3.0375
30
0
11
23.453
21
-18.7
31
0
39
0
210
0
220
0
230
1
0
LINE
5
13A
100
AcDbEntity
8
0
62
256
6
ByLayer
370
-2
48
1
60
0
100
AcDbLine
10
23.453
20
-16.7
30
0
11
51.119667
21
-16.7
31
0
39
0
210
0
220
0
230
1
0
LINE
5
13B
100
AcDbEntity
8
0
62
256
6
ByLayer
370
-2
48
1
60
0
100
AcDbLine
10
5.453
20
-16.7
30
0
11
1.953
21
-16.7
31
0
39
0
210
0
220
0
230
1
0
LINE
5
13C
100
AcDbEntity
8
0
62
256
6
ByLayer
370
-2
48
1
60
0
100
AcDbLine
10
26.953
20
-16.7
30
0
11
30.453
21
-16.7
31
0
39
0
210
0
220
0
230
1
0
SOLID
5
13D
100
AcDbEntity
8
0
62
256
6
ByLayer
370
-1
48
1
60
0
100
AcDbTrace
10
5.453
20
-17.283333
30
0
11
5.453
21
-16.116667
31
0
12
8.953
22
-16.7
32
0
13
8.953
23
-16.7
33
0
39
0
210
0
220
0
230
1
0
SOLID
5
13E
100
AcDbEntity
8
0
62
256
6
ByLayer
370
-1
48
1
60
0
100
AcDbTrace
10
26.953
20
-16.116667
30
0
11
26.953
21
-17.283333
31
0
12
23.453
22
-16.7
32
0
13
23.453
23
-16.7
33
0
39
0
210
0
220
0
230
1
0
MTEXT
5
13F
100
AcDbEntity
8
0
62
256
6
ByLayer
370
18
48
1
60
0
100
AcDbMText
10
40.786333
20
-9.7
30
0
210
0
220
0
230
1
1
\A1;14.5
40
3.5
41
0
44
1
50
0
71
5
72
5
7
iso_b_vert
0
POINT
5
140
100
AcDbEntity
8
Defpoints
62
0
6
ByLayer
370
-1
48
1
60
0
100
AcDbPoint
10
8.953
20
-1.45
30
0
39
0
210
0
220
0
230
1
50
360
0
POINT
5
141
100
AcDbEntity
8
Defpoints
62
0
6
ByLayer
370
-1
48
1
60
0
100
AcDbPoint
10
23.453
20
-1.45
30
0
39
0
210
0
220
0
230
1
50
360
0
POINT
5
142
100
AcDbEntity
8
Defpoints
62
0
6
ByLayer
370
-1
48
1
60
0
100
AcDbPoint
10
23.453
20
-16.7
30
0
39
0
210
0
220
0
230
1
50
360
0
ENDBLK
5
137
100
AcDbEntity
8
0
100
AcDbBlockEnd
0
BLOCK
5
14A
100
AcDbEntity
8
0
100
AcDbBlockBegin
2
_U2
70
0
10
0
20
0
30
0
3
_U2
0
MTEXT
5
144
100
AcDbEntity
8
SK2
62
256
6
ByLayer
370
18
48
1
60
0
100
AcDbMText
10
33.6385
20
-15.667366
30
0
210
0
220
0
230
1
1
\W0.6856;14.5
40
3.5
41
0
44
1.084337
50
0
71
7
72
5
7
iso_b_vert
0
LINE
5
145
100
AcDbEntity
8
SK2
62
256
6
ByLayer
370
13
48
1
60
0
100
AcDbLine
10
8.953
20
-3.0375
30
0
11
8.953
21
-18.7
31
0
39
0
210
0
220
0
230
1
0
LINE
5
146
100
AcDbEntity
8
SK2
62
256
6
ByLayer
370
13
48
1
60
0
100
AcDbLine
10
23.453
20
-3.0375
30
0
11
23.453
21
-18.7
31
0
39
0
210
0
220
0
230
1
0
LINE
5
147
100
AcDbEntity
8
SK2
62
256
6
ByLayer
370
13
48
1
60
0
100
AcDbLine
10
8.953
20
-16.7
30
0
11
41.161065
21
-16.7
31
0
39
0
210
0
220
0
230
1
0
SOLID
5
148
100
AcDbEntity
8
SK2
62
256
6
ByLayer
370
18
48
1
60
0
100
AcDbTrace
10
8.953
20
-16.7
30
0
11
12.452998
21
-16.239216
31
0
12
12.453002
22
-17.160784
32
0
13
12.453002
23
-17.160784
33
0
39
0
210
0
220
0
230
1
0
SOLID
5
149
100
AcDbEntity
8
SK2
62
256
6
ByLayer
370
18
48
1
60
0
100
AcDbTrace
10
23.453
20
-16.7
30
0
11
19.953002
21
-17.160784
31
0
12
19.952998
22
-16.239216
32
0
13
19.952998
23
-16.239216
33
0
39
0
210
0
220
0
230
1
0
ENDBLK
5
14B
100
AcDbEntity
8
0
100
AcDbBlockEnd
0
BLOCK
5
150
100
AcDbEntity
8
0
100
AcDbBlockBegin
2
*D7
70
1
10
0
20
0
30
0
3
*D7
0
LINE
5
152
100
AcDbEntity
8
0
62
256
6
ByLayer
370
-2
48
1
60
0
100
AcDbLine
10
3.93
20
-3.0375
30
0
11
3.93
21
-28.7
31
0
39
0
210
0
220
0
230
1
0
LINE
5
153
100
AcDbEntity
8
0
62
256
6
ByLayer
370
-2
48
1
60
0
100
AcDbLine
10
23.453
20
-3.0375
30
0
11
23.453
21
-28.7
31
0
39
0
210
0
220
0
230
1
0
LINE
5
154
100
AcDbEntity
8
0
62
256
6
ByLayer
370
-2
48
1
60
0
100
AcDbLine
10
23.453
20
-26.7
30
0
11
50.953
21
-26.7
31
0
39
0
210
0
220
0
230
1
0
LINE
5
155
100
AcDbEntity
8
0
62
256
6
ByLayer
370
-2
48
1
60
0
100
AcDbLine
10
7.43
20
-26.7
30
0
11
19.953
21
-26.7
31
0
39
0
210
0
220
0
230
1
0
SOLID
5
156
100
AcDbEntity
8
0
62
256
6
ByLayer
370
-1
48
1
60
0
100
AcDbTrace
10
7.43
20
-26.116667
30
0
11
7.43
21
-27.283333
31
0
12
3.93
22
-26.7
32
0
13
3.93
23
-26.7
33
0
39
0
210
0
220
0
230
1
0
SOLID
5
157
100
AcDbEntity
8
0
62
256
6
ByLayer
370
-1
48
1
60
0
100
AcDbTrace
10
19.953
20
-27.283333
30
0
11
19.953
21
-26.116667
31
0
12
23.453
22
-26.7
32
0
13
23.453
23
-26.7
33
0
39
0
210
0
220
0
230
1
0
MTEXT
5
158
100
AcDbEntity
8
0
62
256
6
ByLayer
370
18
48
1
60
0
100
AcDbMText
10
38.953
20
-19.7
30
0
210
0
220
0
230
1
1
\A1;19.52
40
3.5
41
0
44
1
50
0
71
5
72
5
7
iso_b_vert
0
POINT
5
159
100
AcDbEntity
8
Defpoints
62
0
6
ByLayer
370
-1
48
1
60
0
100
AcDbPoint
10
3.93
20
-1.45
30
0
39
0
210
0
220
0
230
1
50
360
0
POINT
5
15A
100
AcDbEntity
8
Defpoints
62
0
6
ByLayer
370
-1
48
1
60
0
100
AcDbPoint
10
23.453
20
-1.45
30
0
39
0
210
0
220
0
230
1
50
360
0
POINT
5
15B
100
AcDbEntity
8
Defpoints
62
0
6
ByLayer
370
-1
48
1
60
0
100
AcDbPoint
10
23.453
20
-26.7
30
0
39
0
210
0
220
0
230
1
50
360
0
ENDBLK
5
151
100
AcDbEntity
8
0
100
AcDbBlockEnd
0
BLOCK
5
163
100
AcDbEntity
8
0
100
AcDbBlockBegin
2
_U3
70
0
10
0
20
0
30
0
3
_U3
0
MTEXT
5
15D
100
AcDbEntity
8
SK2
62
256
6
ByLayer
370
18
48
1
60
0
100
AcDbMText
10
33.6385
20
-25.667366
30
0
210
0
220
0
230
1
1
\W0.6864;19.52
40
3.5
41
0
44
1.084337
50
0
71
7
72
5
7
iso_b_vert
0
LINE
5
15E
100
AcDbEntity
8
SK2
62
256
6
ByLayer
370
13
48
1
60
0
100
AcDbLine
10
3.93
20
-3.0375
30
0
11
3.93
21
-28.7
31
0
39
0
210
0
220
0
230
1
0
LINE
5
15F
100
AcDbEntity
8
SK2
62
256
6
ByLayer
370
13
48
1
60
0
100
AcDbLine
10
23.453
20
-3.0375
30
0
11
23.453
21
-28.7
31
0
39
0
210
0
220
0
230
1
0
LINE
5
160
100
AcDbEntity
8
SK2
62
256
6
ByLayer
370
13
48
1
60
0
100
AcDbLine
10
3.93
20
-26.7
30
0
11
43.407998
21
-26.7
31
0
39
0
210
0
220
0
230
1
0
SOLID
5
161
100
AcDbEntity
8
SK2
62
256
6
ByLayer
370
18
48
1
60
0
100
AcDbTrace
10
3.93
20
-26.7
30
0
11
7.429998
21
-26.239216
31
0
12
7.430002
22
-27.160784
32
0
13
7.430002
23
-27.160784
33
0
39
0
210
0
220
0
230
1
0
SOLID
5
162
100
AcDbEntity
8
SK2
62
256
6
ByLayer
370
18
48
1
60
0
100
AcDbTrace
10
23.453
20
-26.7
30
0
11
19.953002
21
-27.160784
31
0
12
19.952998
22
-26.239216
32
0
13
19.952998
23
-26.239216
33
0
39
0
210
0
220
0
230
1
0
ENDBLK
5
164
100
AcDbEntity
8
0
100
AcDbBlockEnd
0
BLOCK
5
169
100
AcDbEntity
8
0
100
AcDbBlockBegin
2
*D9
70
1
10
0
20
0
30
0
3
*D9
0
LINE
5
16B
100
AcDbEntity
8
0
62
256
6
ByLayer
370
-2
48
1
60
0
100
AcDbLine
10
-26.547
20
-0.0875
30
0
11
-26.547
21
-36.878867
31
0
39
0
210
0
220
0
230
1
0
LINE
5
16C
100
AcDbEntity
8
0
62
256
6
ByLayer
370
-2
48
1
60
0
100
AcDbLine
10
23.453
20
-0.1375
30
0
11
23.453
21
-36.878867
31
0
39
0
210
0
220
0
230
1
0
LINE
5
16D
100
AcDbEntity
8
0
62
256
6
ByLayer
370
-2
48
1
60
0
100
AcDbLine
10
-23.047
20
-34.878867
30
0
11
19.953
21
-34.878867
31
0
39
0
210
0
220
0
230
1
0
SOLID
5
16E
100
AcDbEntity
8
0
62
256
6
ByLayer
370
-1
48
1
60
0
100
AcDbTrace
10
-23.047
20
-34.295533
30
0
11
-23.047
21
-35.4622
31
0
12
-26.547
22
-34.878867
32
0
13
-26.547
23
-34.878867
33
0
39
0
210
0
220
0
230
1
0
SOLID
5
16F
100
AcDbEntity
8
0
62
256
6
ByLayer
370
-1
48
1
60
0
100
AcDbTrace
10
19.953
20
-35.4622
30
0
11
19.953
21
-34.295533
31
0
12
23.453
22
-34.878867
32
0
13
23.453
23
-34.878867
33
0
39
0
210
0
220
0
230
1
0
MTEXT
5
170
100
AcDbEntity
8
0
62
256
6
ByLayer
370
18
48
1
60
0
100
AcDbMText
10
-1.547
20
-27.878867
30
0
210
0
220
0
230
1
1
\A1;50
40
3.5
41
0
44
1
50
0
71
5
72
5
7
iso_b_vert
0
POINT
5
171
100
AcDbEntity
8
Defpoints
62
0
6
ByLayer
370
-1
48
1
60
0
100
AcDbPoint
10
-26.547
20
1.5
30
0
39
0
210
0
220
0
230
1
50
360
0
POINT
5
172
100
AcDbEntity
8
Defpoints
62
0
6
ByLayer
370
-1
48
1
60
0
100
AcDbPoint
10
23.453
20
1.45
30
0
39
0
210
0
220
0
230
1
50
360
0
POINT
5
173
100
AcDbEntity
8
Defpoints
62
0
6
ByLayer
370
-1
48
1
60
0
100
AcDbPoint
10
23.453
20
-34.878867
30
0
39
0
210
0
220
0
230
1
50
360
0
ENDBLK
5
16A
100
AcDbEntity
8
0
100
AcDbBlockEnd
0
BLOCK
5
17D
100
AcDbEntity
8
0
100
AcDbBlockBegin
2
_U4
70
0
10
0
20
0
30
0
3
_U4
0
MTEXT
5
175
100
AcDbEntity
8
SK2
62
256
6
ByLayer
370
18
48
1
60
0
100
AcDbMText
10
-6.776432
20
-33.846233
30
0
210
0
220
0
230
1
1
\W0.7468;50.00
40
3.5
41
0
44
1.084337
50
0
71
7
72
5
7
iso_b_vert
0
MTEXT
5
176
100
AcDbEntity
8
SK2
62
256
6
ByLayer
370
18
48
1
60
0
100
AcDbMText
10
-10.644431
20
-33.846233
30
0
210
0
220
0
230
1
1
\W0.1790;(
40
3.5
41
0
44
1.084337
50
0
71
7
72
5
7
iso_b_vert
0
MTEXT
5
177
100
AcDbEntity
8
SK2
62
256
6
ByLayer
370
18
48
1
60
0
100
AcDbMText
10
7.553432
20
-33.846233
30
0
210
0
220
0
230
1
1
\W0.1969;)
40
3.5
41
0
44
1.084337
50
0
71
7
72
5
7
iso_b_vert
0
LINE
5
178
100
AcDbEntity
8
SK2
62
256
6
ByLayer
370
13
48
1
60
0
100
AcDbLine
10
-26.547
20
-0.0875
30
0
11
-26.547
21
-36.878867
31
0
39
0
210
0
220
0
230
1
0
LINE
5
179
100
AcDbEntity
8
SK2
62
256
6
ByLayer
370
13
48
1
60
0
100
AcDbLine
10
23.453
20
-0.1375
30
0
11
23.453
21
-36.878867
31
0
39
0
210
0
220
0
230
1
0
LINE
5
17A
100
AcDbEntity
8
SK2
62
256
6
ByLayer
370
13
48
1
60
0
100
AcDbLine
10
-26.547
20
-34.878867
30
0
11
23.453
21
-34.878867
31
0
39
0
210
0
220
0
230
1
0
SOLID
5
17B
100
AcDbEntity
8
SK2
62
256
6
ByLayer
370
18
48
1
60
0
100
AcDbTrace
10
-26.547
20
-34.878867
30
0
11
-23.047002
21
-34.418083
31
0
12
-23.046998
22
-35.33965
32
0
13
-23.046998
23
-35.33965
33
0
39
0
210
0
220
0
230
1
0
SOLID
5
17C
100
AcDbEntity
8
SK2
62
256
6
ByLayer
370
18
48
1
60
0
100
AcDbTrace
10
23.453
20
-34.878867
30
0
11
19.953002
21
-35.33965
31
0
12
19.952998
22
-34.418083
32
0
13
19.952998
23
-34.418083
33
0
39
0
210
0
220
0
230
1
0
ENDBLK
5
17E
100
AcDbEntity
8
0
100
AcDbBlockEnd
0
ENDSEC
0
SECTION
2
ENTITIES
0
ELLIPSE
5
B7
100
AcDbEntity
8
SK1
62
256
6
ByLayer
370
18
48
1
60
0
100
AcDbEllipse
10
23.42445
20
-0.064904
30
0
11
0.0237049370537626
21
0.0422353960933923
31
0
210
0
220
0
230
1
40
0.065341
41
1.21620760514313
42
2.26340515627442
0
ELLIPSE
5
B8
100
AcDbEntity
8
SK1
62
256
6
ByLayer
370
13
48
1
60
0
100
AcDbEllipse
10
6.83806
20
-1.466265
30
0
11
0.0241730949879505
21
-0.043768270227455
31
0
210
0
220
0
230
1
40
0.462032
41
-3.09068136465353
42
-2.66337267764674
0
ELLIPSE
5
B9
100
AcDbEntity
8
SK1
62
256
6
ByLayer
370
18
48
1
60
0
100
AcDbEllipse
10
23.42445
20
0.064904
30
0
11
0.0237049370614722
21
-0.0422353961061978
31
0
210
0
220
0
230
1
40
0.065341
41
-2.26340515619404
42
-1.21620760540149
0
ELLIPSE
5
BA
100
AcDbEntity
8
SK1
62
256
6
ByLayer
370
13
48
1
60
0
100
AcDbEllipse
10
6.939079
20
-1.440961
30
0
11
-0.000446200731784908
21
-0.0499980090094291
31
0
210
0
220
0
230
1
40
0.496743
41
-3.12700455692975
42
-1.71474486731591
0
ELLIPSE
5
BB
100
AcDbEntity
8
SK1
62
256
6
ByLayer
370
18
48
1
60
0
100
AcDbEllipse
10
4.376159
20
0.000804
30
0
11
0.925334834791124
21
1.40232465730255
31
0
210
0
220
0
230
1
40
0.309569
41
2.23459369822525
42
-2.10781579099226
0
ELLIPSE
5
BC
100
AcDbEntity
8
SK1
62
256
6
ByLayer
370
18
48
1
60
0
100
AcDbEllipse
10
23.453543
20
0.000855
30
0
11
0.882726897086363
21
1.4470451566113
31
0
210
0
220
0
230
1
40
0.104823
41
-3.07787588764589
42
-2.88207351483154
0
ELLIPSE
5
BD
100
AcDbEntity
8
SK1
62
256
6
ByLayer
370
18
48
1
60
0
100
AcDbEllipse
10
23.454395
20
0.000855
30
0
11
1.28262635806508
21
1.30387676520062
31
0
210
0
220
0
230
1
40
0.494576
41
-2.739706713952
42
-2.68956229347004
0
ELLIPSE
5
BE
100
AcDbEntity
8
SK1
62
256
6
ByLayer
370
18
48
1
60
0
100
AcDbEllipse
10
4.376159
20
-0.000804
30
0
11
0.925334834791181
21
-1.40232465730264
31
0
210
0
220
0
230
1
40
0.309569
41
2.01593349985466
42
2.94053868204358
0
ELLIPSE
5
BF
100
AcDbEntity
8
SK1
62
256
6
ByLayer
370
18
48
1
60
0
100
AcDbEllipse
10
23.453543
20
-0.000855
30
0
11
0.882726897305644
21
-1.44704515698279
31
0
210
0
220
0
230
1
40
0.104823
41
2.88207351486511
42
3.07787588765429
0
POINT
5
70
100
AcDbEntity
8
80
62
256
6
ByLayer
370
18
48
1
60
0
100
AcDbPoint
10
0
20
0
30
0
39
0
210
0
220
0
230
1
50
360
0
POINT
5
72
100
AcDbEntity
8
81
62
256
6
ByLayer
370
18
48
1
60
0
100
AcDbPoint
10
23.453
20
0
30
0
39
0
210
0
220
0
230
1
50
360
0
POINT
5
74
100
AcDbEntity
8
1
62
256
6
ByLayer
370
18
48
1
60
0
100
AcDbPoint
10
-26.547
20
0
30
0
39
0
210
0
220
0
230
1
50
360
0
POINT
5
76
100
AcDbEntity
8
1
62
256
6
ByLayer
370
18
48
1
60
1
100
AcDbPoint
10
0
20
-1.5
30
0
39
0
210
0
220
0
230
1
50
360
0
POINT
5
77
100
AcDbEntity
8
1
62
256
6
ByLayer
370
18
48
1
60
1
100
AcDbPoint
10
22.582
20
-1.45
30
0
39
0
210
0
220
0
230
1
50
360
0
POINT
5
78
100
AcDbEntity
8
1
62
256
6
ByLayer
370
18
48
1
60
1
100
AcDbPoint
10
-26.547
20
-1.5
30
0
39
0
210
0
220
0
230
1
50
360
0
POINT
5
79
100
AcDbEntity
8
1
62
256
6
ByLayer
370
18
48
1
60
1
100
AcDbPoint
10
0
20
-1.5
30
0
39
0
210
0
220
0
230
1
50
360
0
POINT
5
7A
100
AcDbEntity
8
1
62
256
6
ByLayer
370
18
48
1
60
1
100
AcDbPoint
10
8.953
20
-1.45
30
0
39
0
210
0
220
0
230
1
50
360
0
POINT
5
7B
100
AcDbEntity
8
1
62
256
6
ByLayer
370
18
48
1
60
1
100
AcDbPoint
10
23.453
20
-1.45
30
0
39
0
210
0
220
0
230
1
50
360
0
POINT
5
7C
100
AcDbEntity
8
1
62
256
6
ByLayer
370
18
48
1
60
1
100
AcDbPoint
10
3.93
20
-1.45
30
0
39
0
210
0
220
0
230
1
50
360
0
POINT
5
7D
100
AcDbEntity
8
1
62
256
6
ByLayer
370
18
48
1
60
1
100
AcDbPoint
10
23.453
20
-1.45
30
0
39
0
210
0
220
0
230
1
50
360
0
POINT
5
7E
100
AcDbEntity
8
1
62
256
6
ByLayer
370
18
48
1
60
1
100
AcDbPoint
10
-26.547
20
1.5
30
0
39
0
210
0
220
0
230
1
50
360
0
POINT
5
7F
100
AcDbEntity
8
1
62
256
6
ByLayer
370
18
48
1
60
1
100
AcDbPoint
10
23.453
20
1.45
30
0
39
0
210
0
220
0
230
1
50
360
0
SPLINE
5
C0
100
AcDbEntity
8
SK1
62
256
6
ByLayer
370
13
48
1
60
0
100
AcDbSpline
70
4
71
3
72
8
73
4
40
0
40
0
40
0
40
0
40
1
40
1
40
1
40
1
41
1
10
3.69706251659537
20
-0.693429562801896
30
0
41
1
10
3.61943281719337
20
-0.674767332800513
30
0
41
1
10
3.54175356650913
20
-0.656199053386842
30
0
41
1
10
3.46411336792818
20
-0.637556767815113
30
0
0
SPLINE
5
C1
100
AcDbEntity
8
SK1
62
256
6
ByLayer
370
13
48
1
60
0
100
AcDbSpline
70
4
71
3
72
8
73
4
40
0
40
0
40
0
40
0
40
1
40
1
40
1
40
1
41
1
10
6.81288927430302
20
-1.42312209816097
30
0
41
1
10
6.80818185040627
20
-1.42575308142551
30
0
41
1
10
6.80362743235716
20
-1.42849125845459
30
0
41
1
10
6.79921496744794
20
-1.43132785230466
30
0
0
SPLINE
5
C2
100
AcDbEntity
8
SK1
62
256
6
ByLayer
370
18
48
1
60
0
100
AcDbSpline
70
4
71
3
72
10
73
6
40
0
40
0
40
0
40
0
40
0.5
40
0.5
40
1
40
1
40
1
40
1
41
1
10
6.93916291464038
20
-1.39096470901822
30
0
41
1
10
6.9171498890102
20
-1.39080459849146
30
0
41
1
10
6.89552947058391
20
-1.39340959990784
30
0
41
1
10
6.85319028586667
20
-1.40407324015956
30
0
41
1
10
6.83234024690384
20
-1.41225093284564
30
0
41
1
10
6.81288927430302
20
-1.42312209816097
30
0
0
SPLINE
5
C3
100
AcDbEntity
8
SK1
62
256
6
ByLayer
370
18
48
1
60
0
100
AcDbSpline
70
4
71
3
72
24
73
20
40
0
40
0
40
0
40
0
40
0.25000000000001
40
0.25000000000001
40
0.375000000000015
40
0.375000000000015
40
0.437500000000018
40
0.437500000000018
40
0.500000000000021
40
0.500000000000021
40
0.625000000000019
40
0.625000000000019
40
0.687500000000016
40
0.687500000000016
40
0.750000000000013
40
0.750000000000013
40
0.875000000000007
40
0.875000000000007
40
1
40
1
40
1
40
1
41
1
10
22.502692760151
20
-1.39961063994539
30
0
41
1
10
22.4434063148882
20
-1.39149701445456
30
0
41
1
10
22.3878927426388
20
-1.37617411664718
30
0
41
1
10
22.3112677122788
20
-1.34049175992726
30
0
41
1
10
22.2868410637351
20
-1.32646702538219
30
0
41
1
10
22.252101003293
20
-1.30179953748251
30
0
41
1
10
22.2408414129308
20
-1.2929650786987
30
0
41
1
10
22.2192609271612
20
-1.27423184015211
30
0
41
1
10
22.2089051529444
20
-1.26430998969985
30
0
41
1
10
22.1791841174446
20
-1.2328239446542
30
0
41
1
10
22.1611598778664
20
-1.20954598537122
30
0
41
1
10
22.1370616547762
20
-1.17087424204198
30
0
41
1
10
22.1295198138269
20
-1.15735631297724
30
0
41
1
10
22.1154780347808
20
-1.12898895043395
30
0
41
1
10
22.1089551125197
20
-1.11407211218062
30
0
41
1
10
22.0912950445587
20
-1.06783362164674
30
0
41
1
10
22.0820127757638
20
-1.03499950819142
30
0
41
1
10
22.0685003101646
20
-0.965258056784137
30
0
41
1
10
22.0642692690582
20
-0.928351399549456
30
0
41
1
10
22.0626882063331
20
-0.889308201727175
30
0
0
SPLINE
5
C4
100
AcDbEntity
8
SK1
62
256
6
ByLayer
370
18
48
1
60
0
100
AcDbSpline
70
4
71
3
72
38
73
34
40
0
40
0
40
0
40
0
40
0.0156250000000009
40
0.0156250000000009
40
0.0312500000000018
40
0.0312500000000018
40
0.0625000000000036
40
0.0625000000000036
40
0.125000000000007
40
0.125000000000007
40
0.15625000000001
40
0.15625000000001
40
0.187500000000013
40
0.187500000000013
40
0.250000000000019
40
0.250000000000019
40
0.312500000000024
40
0.312500000000024
40
0.343750000000027
40
0.343750000000027
40
0.37500000000003
40
0.37500000000003
40
0.500000000000035
40
0.500000000000035
40
0.562500000000034
40
0.562500000000034
40
0.625000000000033
40
0.625000000000033
40
0.750000000000022
40
0.750000000000022
40
0.875000000000011
40
0.875000000000011
40
1
40
1
40
1
40
1
41
1
10
20.9624073537086
20
0.446431241544644
30
0
41
1
10
20.9615840997762
20
0.437130562539949
30
0
41
1
10
20.9609446531483
20
0.427756848577218
30
0
41
1
10
20.9600435444146
20
0.40885930976907
30
0
41
1
10
20.9597832363222
20
0.399332801357929
30
0
41
1
10
20.9595797118244
20
0.37084412677504
30
0
41
1
10
20.9602069460104
20
0.351867303087431
30
0
41
1
10
20.9642915715971
20
0.294981952192529
30
0
41
1
10
20.9699476099872
20
0.257118457571096
30
0
41
1
10
20.9825760010898
20
0.20040809968603
30
0
41
1
10
20.9874773167254
20
0.181518817536983
30
0
41
1
10
20.9986333677857
20
0.143767973920348
30
0
41
1
10
21.0048488353871
20
0.125050645234808
30
0
41
1
10
21.0250874230034
20
0.0698161510330522
30
0
41
1
10
21.0407578009928
20
0.0339981677881269
30
0
41
1
10
21.0757825284772
20
-0.0359378619567963
30
0
41
1
10
21.0951385719418
20
-0.0700551267891569
30
0
41
1
10
21.1265932993969
20
-0.120114030403727
30
0
41
1
10
21.1374560129773
20
-0.136566413957297
30
0
41
1
10
21.1597033638152
20
-0.168792346140833
30
0
41
1
10
21.1711130515927
20
-0.184606041011875
30
0
41
1
10
21.2294659090959
20
-0.262309626964083
30
0
41
1
10
21.2802614410172
20
-0.320168569373919
30
0
41
1
10
21.3611197155641
20
-0.402075748947482
30
0
41
1
10
21.3888621552109
20
-0.428551852893605
30
0
41
1
10
21.4457403152726
20
-0.48004619078938
30
0
41
1
10
21.4746592666158
20
-0.504867570180352
30
0
41
1
10
21.5624595832639
20
-0.576802558905285
30
0
41
1
10
21.6224593620738
20
-0.621495193397323
30
0
41
1
10
21.7447329272427
20
-0.705818231659947
30
0
41
1
10
21.8070154469969
20
-0.745429193779216
30
0
41
1
10
21.9334840533351
20
-0.820413535565507
30
0
41
1
10
21.9976725431982
20
-0.855781565226778
30
0
41
1
10
22.062688206333
20
-0.889308201727204
30
0
0
SPLINE
5
C5
100
AcDbEntity
8
SK1
62
256
6
ByLayer
370
13
48
1
60
0
100
AcDbSpline
70
4
71
3
72
30
73
26
40
0
40
0
40
0
40
0
40
0.125
40
0.125
40
0.1875
40
0.1875
40
0.21875
40
0.21875
40
0.249999999999999
40
0.249999999999999
40
0.375
40
0.375
40
0.4375
40
0.4375
40
0.5
40
0.5
40
0.625
40
0.625
40
0.6875
40
0.6875
40
0.75
40
0.75
40
0.875
40
0.875
40
1
40
1
40
1
40
1
41
1
10
6.93905794791746
20
-0.506395251552675
30
0
41
1
10
6.93904642541031
20
-0.570041189924098
30
0
41
1
10
6.9390372477539
20
-0.631623517650837
30
0
41
1
10
6.93902765709197
20
-0.7208713081491
30
0
41
1
10
6.93902515319007
20
-0.750097562360679
30
0
41
1
10
6.93902249359004
20
-0.793128710756861
30
0
41
1
10
6.93902179205099
20
-0.807308796012222
30
0
41
1
10
6.93902076364472
20
-0.835181485067409
30
0
41
1
10
6.93902043518742
20
-0.848898449483556
30
0
41
1
10
6.93901970265975
20
-0.91639801254999
30
0
41
1
10
6.93902204321617
20
-0.966942608491848
30
0
41
1
10
6.9390294000944
20
-1.03758315621849
30
0
41
1
10
6.93903249162335
20
-1.06027095212727
30
0
41
1
10
6.93903981419052
20
-1.10384249471309
30
0
41
1
10
6.93904400326073
20
-1.12448486897807
30
0
41
1
10
6.93905780818764
20
-1.1830802274871
30
0
41
1
10
6.9390686723774
20
-1.21771901179477
30
0
41
1
10
6.9390859335517
20
-1.26309474510467
30
0
41
1
10
6.93909184579843
20
-1.27711848240034
30
0
41
1
10
6.93910369455284
20
-1.30291719131404
30
0
41
1
10
6.93910965126477
20
-1.31472404058329
30
0
41
1
10
6.93912680648916
20
-1.34620043917152
30
0
41
1
10
6.93913735821323
20
-1.3621156506658
30
0
41
1
10
6.93915410953517
20
-1.3840584087703
30
0
41
1
10
6.93916031954822
20
-1.39008684265113
30
0
41
1
10
6.93916291464041
20
-1.39096470901822
30
0
0
SPLINE
5
C6
100
AcDbEntity
8
SK1
62
256
6
ByLayer
370
18
48
1
60
0
100
AcDbSpline
70
4
71
3
72
26
73
22
40
0
40
0
40
0
40
0
40
0.0624999999999822
40
0.0624999999999822
40
0.124999999999964
40
0.124999999999964
40
0.187499999999947
40
0.187499999999947
40
0.249999999999929
40
0.249999999999929
40
0.312499999999911
40
0.312499999999911
40
0.374999999999893
40
0.374999999999893
40
0.499999999999914
40
0.499999999999914
40
0.624999999999935
40
0.624999999999935
40
0.749999999999956
40
0.749999999999956
40
1
40
1
40
1
40
1
41
1
10
22.5262039687823
20
-1.4472670077499
30
0
41
1
10
22.5276653620502
20
-1.445721288258
30
0
41
1
10
22.5290906334941
20
-1.44407643436301
30
0
41
1
10
22.5317514655665
20
-1.44059931795101
30
0
41
1
10
22.5330148454185
20
-1.43872703957774
30
0
41
1
10
22.535176611345
20
-1.43483209053238
30
0
41
1
10
22.5360838974748
20
-1.43277761295212
30
0
41
1
10
22.537316812111
20
-1.42877443568247
30
0
41
1
10
22.5376504605281
20
-1.42679805522616
30
0
41
1
10
22.5377704849365
20
-1.42317862334181
30
0
41
1
10
22.5375660773713
20
-1.42151060779364
30
0
41
1
10
22.5368152488705
20
-1.4185405169967
30
0
41
1
10
22.5362720107546
20
-1.41721695255768
30
0
41
1
10
22.5342968465005
20
-1.4135786528617
30
0
41
1
10
22.5325869147425
20
-1.41167814211511
30
0
41
1
10
22.528792365259
20
-1.40841813079564
30
0
41
1
10
22.5266846232372
20
-1.4070674410076
30
0
41
1
10
22.5222941203029
20
-1.40477370539381
30
0
41
1
10
22.5199986357358
20
-1.40382401962108
30
0
41
1
10
22.5128998648061
20
-1.40139264012655
30
0
41
1
10
22.507887827253
20
-1.40032160901552
30
0
41
1
10
22.5026927601611
20
-1.39961063994676
30
0
0
SPLINE
5
C7
100
AcDbEntity
8
SK1
62
256
6
ByLayer
370
18
48
1
60
0
100
AcDbSpline
70
4
71
3
72
8
73
4
40
0
40
0
40
0
40
0
40
1
40
1
40
1
40
1
41
1
10
6.93916291464038
20
-1.39096470901822
30
0
41
1
10
7.01362778605233
20
-1.39161062162242
30
0
41
1
10
7.08789384726671
20
-1.39039499099761
30
0
41
1
10
7.16202759054136
20
-1.38734875860749
30
0
0
SPLINE
5
C8
100
AcDbEntity
8
SK1
62
256
6
ByLayer
370
18
48
1
60
0
100
AcDbSpline
70
4
71
3
72
24
73
20
40
0
40
0
40
0
40
0
40
0.0368519875404433
40
0.0368519875404433
40
0.0962908814625336
40
0.0962908814625336
40
0.155729775384624
40
0.155729775384624
40
0.393485351072991
40
0.393485351072991
40
0.63124092676136
40
0.63124092676136
40
0.868996502449729
40
0.868996502449729
40
0.928435396371816
40
0.928435396371816
40
0.987874290293906
40
0.987874290293906
40
1
40
1
40
1
40
1
41
1
10
16.3522023010905
20
1.16074542106577
30
0
41
1
10
16.3774066362548
20
1.15290863017299
30
0
41
1
10
16.4026277246199
20
1.14489371229081
30
0
41
1
10
16.4685796769488
20
1.12349589549956
30
0
41
1
10
16.5093417188486
20
1.10983028956849
30
0
41
1
10
16.5909841981045
20
1.08158103402917
30
0
41
1
10
16.6319025507443
20
1.06698148454026
30
0
41
1
10
16.8359261276027
20
0.992030268896286
30
0
41
1
10
16.9979011649562
20
0.925693659996398
30
0
41
1
10
17.3208622647414
20
0.78273091788131
30
0
41
1
10
17.4820683111438
20
0.706392907728372
30
0
41
1
10
17.804847884387
20
0.545364461164411
30
0
41
1
10
17.9664492067998
20
0.460749798513689
30
0
41
1
10
18.1696313520311
20
0.351376065648651
30
0
41
1
10
18.2103275460652
20
0.32932102551743
30
0
41
1
10
18.2918789563975
20
0.284917238662843
30
0
41
1
10
18.3327827680151
20
0.262544278042952
30
0
41
1
10
18.381901782122
20
0.235557142461488
30
0
41
1
10
18.3902211724304
20
0.230982130578781
30
0
41
1
10
18.3985374631924
20
0.226404911405467
30
0
0
SPLINE
5
C9
100
AcDbEntity
8
SK1
62
256
6
ByLayer
370
13
48
1
60
0
100
AcDbSpline
70
4
71
3
72
12
73
8
40
0
40
0
40
0
40
0
40
0.284536782929038
40
0.284536782929038
40
0.918250035622098
40
0.918250035622098
40
1
40
1
40
1
40
1
41
1
10
18.3985374633185
20
0.22640491133609
30
0
41
1
10
18.4717522558755
20
0.186108081673353
30
0
41
1
10
18.5447268133202
20
0.14564017255671
30
0
41
1
10
18.7796753248273
20
0.0148841673687059
30
0
41
1
10
18.9409466295565
20
-0.0756386650433853
30
0
41
1
10
19.1228877916167
20
-0.176626732932846
30
0
41
1
10
19.1436752826275
20
-0.1881469350798
30
0
41
1
10
19.1644628002343
20
-0.199645679504073
30
0
0
SPLINE
5
CA
100
AcDbEntity
8
SK1
62
256
6
ByLayer
370
18
48
1
60
0
100
AcDbSpline
70
4
71
3
72
31
73
27
40
0
40
0
40
0
40
0
40
0.126764701342581
40
0.126764701342581
40
0.199534309564038
40
0.235919113674764
40
0.235919113674764
40
0.27230391778549
40
0.27230391778549
40
0.345073526006937
40
0.345073526006937
40
0.417843134228384
40
0.417843134228384
40
0.563382350671283
40
0.563382350671283
40
0.636151958892735
40
0.636151958892735
40
0.708921567114187
40
0.708921567114187
40
0.781691175335639
40
0.781691175335639
40
0.818075979446368
40
0.818075979446368
40
0.854460783557096
40
0.854460783557096
40
1
40
1
40
1
40
1
41
1
10
19.164461926329
20
-0.199645196097919
30
0
41
1
10
19.3048163653181
20
-0.277283129483948
30
0
41
1
10
19.4451720158442
20
-0.35394285774143
30
0
41
1
10
19.6667900295479
20
-0.471808552315821
30
0
41
1
10
19.788224231125
20
-0.535438794899051
30
0
41
1
10
19.9101573703665
20
-0.597436206262159
30
0
41
1
10
19.9915807188894
20
-0.6383619815484
30
0
41
1
10
20.0323945474202
20
-0.658639277429756
30
0
41
1
10
20.1548363308127
20
-0.718682812556295
30
0
41
1
10
20.2361296800259
20
-0.757504267605611
30
0
41
1
10
20.3983242332969
20
-0.832416841508802
30
0
41
1
10
20.4792364284863
20
-0.868492619910626
30
0
41
1
10
20.7215796403445
20
-0.972353453928491
30
0
41
1
10
20.8825838528814
20
-1.03582213602877
30
0
41
1
10
21.1242486344934
20
-1.12105550041161
30
0
41
1
10
21.2048229254527
20
-1.14780627874302
30
0
41
1
10
21.3662579080468
20
-1.19775793799079
30
0
41
1
10
21.4471311939327
20
-1.22094965354043
30
0
41
1
10
21.6093519949226
20
-1.26356426195017
30
0
41
1
10
21.6906908574395
20
-1.28299603469608
30
0
41
1
10
21.8131606401684
20
-1.30916404685215
30
0
41
1
10
21.8540035852945
20
-1.31737598825762
30
0
41
1
10
21.9354946234224
20
-1.33271522993363
30
0
41
1
10
21.9761806013703
20
-1.33985074066592
30
0
41
1
10
22.1793599347744
20
-1.37283823633675
30
0
41
1
10
22.3410839718016
20
-1.3906117362155
30
0
41
1
10
22.5026927601442
20
-1.39961063994582
30
0
0
SPLINE
5
CB
100
AcDbEntity
8
SK1
62
256
6
ByLayer
370
18
48
1
60
0
100
AcDbSpline
70
4
71
3
72
42
73
38
40
0
40
0
40
0
40
0
40
0.070821538667143
40
0.070821538667143
40
0.141643077334286
40
0.141643077334286
40
0.212464616001429
40
0.212464616001429
40
0.283286154668572
40
0.283286154668572
40
0.354107693335715
40
0.354107693335715
40
0.424929232002858
40
0.424929232002858
40
0.460340001336427
40
0.460340001336427
40
0.495750770669996
40
0.495750770669996
40
0.566572309337139
40
0.566572309337139
40
0.601983078670713
40
0.601983078670713
40
0.637393848004287
40
0.637393848004287
40
0.708215386671435
40
0.708215386671435
40
0.74362615600501
40
0.74362615600501
40
0.779036925338584
40
0.779036925338584
40
0.849858464005732
40
0.849858464005732
40
0.92068000267288
40
0.92068000267288
40
0.991501541340028
40
0.991501541340028
40
1
40
1
40
1
40
1
41
1
10
20.9624073537086
20
0.446431241544673
30
0
41
1
10
20.8891756666673
20
0.485192976836203
30
0
41
1
10
20.8159440628635
20
0.523359019790831
30
0
41
1
10
20.669487866272
20
0.598457057873588
30
0
41
1
10
20.5962441547514
20
0.635358208159062
30
0
41
1
10
20.4494845746185
20
0.707409700148588
30
0
41
1
10
20.3759389802857
20
0.742597263542081
30
0
41
1
10
20.2293400128604
20
0.810731094637134
30
0
41
1
10
20.1562086314844
20
0.843764526139267
30
0
41
1
10
20.0098496946049
20
0.907553875133999
30
0
41
1
10
19.9366312933718
20
0.938319216064826
30
0
41
1
10
19.790115557612
20
0.997493600060295
30
0
41
1
10
19.7168527624593
20
1.02594432002417
30
0
41
1
10
19.6068054843222
20
1.06664190791778
30
0
41
1
10
19.5700680362814
20
1.07987809636398
30
0
41
1
10
19.4966491818349
20
1.10559193577902
30
0
41
1
10
19.4599672051909
20
1.11807175432216
30
0
41
1
10
19.3499950548007
20
1.15433975240171
30
0
41
1
10
19.2768106910529
20
1.17692784875845
30
0
41
1
10
19.1670829937133
20
1.20860062230238
30
0
41
1
10
19.1305057597773
20
1.21878858068743
30
0
41
1
10
19.0572995864048
20
1.23845253043936
30
0
41
1
10
19.020675098407
20
1.24792704468055
30
0
41
1
10
18.910758596784
20
1.27519900242115
30
0
41
1
10
18.8374326533294
20
1.29181653473671
30
0
41
1
10
18.7273501086559
20
1.31417513637146
30
0
41
1
10
18.6906230068968
20
1.32120933315326
30
0
41
1
10
18.6172559296188
20
1.33439713816926
30
0
41
1
10
18.5805930011786
20
1.34056026018132
30
0
41
1
10
18.4706541539307
20
1.35770107712338
30
0
41
1
10
18.3974331315961
20
1.36728844554324
30
0
41
1
10
18.2511467007022
20
1.38245631514582
30
0
41
1
10
18.1780618125713
20
1.3882194191028
30
0
41
1
10
18.0315715056207
20
1.39686502654459
30
0
41
1
10
17.9582012002634
20
1.39969338865154
30
0
41
1
10
17.8759268474955
20
1.40090606357981
30
0
41
1
10
17.8671128674977
20
1.40101062382863
30
0
41
1
10
17.8583000150176
20
1.40108961815736
30
0
0
SPLINE
5
CC
100
AcDbEntity
8
SK1
62
256
6
ByLayer
370
18
48
1
60
0
100
AcDbSpline
70
4
71
3
72
58
73
54
40
0
40
0
40
0
40
0
40
0.0155795864292355
40
0.0155795864292355
40
0.0369800302025143
40
0.0369800302025143
40
0.0583804739757935
40
0.0583804739757935
40
0.101181361522348
40
0.101181361522348
40
0.143982249068903
40
0.143982249068903
40
0.186783136615458
40
0.186783136615458
40
0.208183580388734
40
0.208183580388734
40
0.22958402416201
40
0.22958402416201
40
0.272384911708565
40
0.272384911708565
40
0.31518579925512
40
0.31518579925512
40
0.357986686801675
40
0.357986686801675
40
0.40078757434823
40
0.40078757434823
40
0.443588461894785
40
0.443588461894785
40
0.48638934944134
40
0.48638934944134
40
0.529190236987895
40
0.529190236987895
40
0.57199112453445
40
0.57199112453445
40
0.614792012081005
40
0.614792012081005
40
0.65759289962756
40
0.65759289962756
40
0.700393787174115
40
0.700393787174115
40
0.74319467472067
40
0.74319467472067
40
0.785995562267225
40
0.785995562267225
40
0.82879644981378
40
0.82879644981378
40
0.871597337360335
40
0.871597337360335
40
0.91439822490689
40
0.91439822490689
40
0.957199112453445
40
0.957199112453445
40
1
40
1
40
1
40
1
41
1
10
12.0588862407981
20
-0.930477952690097
30
0
41
1
10
12.0322841055352
20
-0.941450822751648
30
0
41
1
10
12.0056759273947
20
-0.952248622076013
30
0
41
1
10
11.9424906462776
20
-0.977505243528867
30
0
41
1
10
11.9059029675187
20
-0.991837724614243
30
0
41
1
10
11.8326792756995
20
-1.01992891716162
30
0
41
1
10
11.7960224033628
20
-1.03368640533122
30
0
41
1
10
11.6861582246626
20
-1.07388346014025
30
0
41
1
10
11.613009112051
20
-1.09922708743923
30
0
41
1
10
11.4667315248446
20
-1.14707432242804
30
0
41
1
10
11.3936063907899
20
-1.16962395401333
30
0
41
1
10
11.2473680305329
20
-1.21199320508194
30
0
41
1
10
11.1742118632539
20
-1.23176425989266
30
0
41
1
10
11.0643149225685
20
-1.25909117598789
30
0
41
1
10
11.0276595284244
20
-1.26781254834842
30
0
41
1
10
10.9543040920416
20
-1.28444733930618
30
0
41
1
10
10.9175922403336
20
-1.29236547679207
30
0
41
1
10
10.8076531570054
20
-1.31476473559457
30
0
41
1
10
10.734542684597
20
-1.32786893183723
30
0
41
1
10
10.588460661864
20
-1.35003874779807
30
0
41
1
10
10.5154395518702
20
-1.3592019998155
30
0
41
1
10
10.3693169241833
20
-1.37449054758915
30
0
41
1
10
10.2962455023386
20
-1.38057098103656
30
0
41
1
10
10.1498398737527
20
-1.38948700623345
30
0
41
1
10
10.0764243757838
20
-1.39232994439692
30
0
41
1
10
9.92986142985177
20
-1.39443072758161
30
0
41
1
10
9.85673373130587
20
-1.39368969800307
30
0
41
1
10
9.7106063473077
20
-1.38833162027567
30
0
41
1
10
9.63759679068818
20
-1.38366024149531
30
0
41
1
10
9.4914589110856
20
-1.37087528249271
30
0
41
1
10
9.41835591231288
20
-1.36281620272587
30
0
41
1
10
9.27199006369955
20
-1.34343146100338
30
0
41
1
10
9.19862744234777
20
-1.3320865360869
30
0
41
1
10
9.0521556337512
20
-1.30613824837528
30
0
41
1
10
8.97900214627086
20
-1.29152140816584
30
0
41
1
10
8.83287527186266
20
-1.25880512272497
30
0
41
1
10
8.75988717326354
20
-1.24069153429298
30
0
41
1
10
8.61381611300209
20
-1.20110744142883
30
0
41
1
10
8.5406995632211
20
-1.17973783952346
30
0
41
1
10
8.39427807027838
20
-1.13436137074905
30
0
41
1
10
8.32092830652766
20
-1.11026330023887
30
0
41
1
10
8.17474137555772
20
-1.05961792835382
30
0
41
1
10
8.10180431647242
20
-1.03305146216658
30
0
41
1
10
7.95620990758195
20
-0.977406908592968
30
0
41
1
10
7.88358065892763
20
-0.948290435917897
30
0
41
1
10
7.73849280175554
20
-0.887603729115483
30
0
41
1
10
7.66602861002468
20
-0.85601154637709
30
0
41
1
10
7.52101360932824
20
-0.790900988904866
30
0
41
1
10
7.44849197012229
20
-0.757382883938448
30
0
41
1
10
7.30334141113605
20
-0.688593456512592
30
0
41
1
10
7.23069315087946
20
-0.653318638998286
30
0
41
1
10
7.08509878420662
20
-0.581111754294398
30
0
41
1
10
7.01215567923904
20
-0.544183768271552
30
0
41
1
10
6.93905794793091
20
-0.506395251528971
30
0
0
SPLINE
5
CD
100
AcDbEntity
8
SK1
62
256
6
ByLayer
370
18
48
1
60
0
100
AcDbSpline
70
4
71
3
72
39
73
35
40
0
40
0
40
0
40
0
40
0.0312500000000061
40
0.0312500000000061
40
0.0625000000000123
40
0.0625000000000123
40
0.125000000000025
40
0.156250000000028
40
0.156250000000028
40
0.187500000000031
40
0.187500000000031
40
0.250000000000037
40
0.250000000000037
40
0.312500000000044
40
0.312500000000044
40
0.343750000000043
40
0.343750000000043
40
0.375000000000042
40
0.43750000000004
40
0.43750000000004
40
0.500000000000037
40
0.500000000000037
40
0.531250000000041
40
0.531250000000041
40
0.562500000000045
40
0.625000000000043
40
0.625000000000043
40
0.750000000000029
40
0.750000000000029
40
0.812500000000021
40
0.812500000000021
40
0.875000000000014
40
0.875000000000014
40
1
40
1
40
1
40
1
41
1
10
22.4070501359121
20
0.635267184900016
30
0
41
1
10
22.4006738535027
20
0.618710784673709
30
0
41
1
10
22.3938108440656
20
0.602383594582818
30
0
41
1
10
22.3790082276846
20
0.570236207122178
30
0
41
1
10
22.3710678140984
20
0.55442911274281
30
0
41
1
10
22.3458762184653
20
0.508539174974715
30
0
41
1
10
22.3177896200436
20
0.465354865042144
30
0
41
1
10
22.2850133184108
20
0.426553484064584
30
0
41
1
10
22.2620771761496
20
0.401700178640539
30
0
41
1
10
22.2500279807618
20
0.389746648526227
30
0
41
1
10
22.2124441014732
20
0.3557054542635
30
0
41
1
10
22.1858201854981
20
0.33572247786563
30
0
41
1
10
22.1296786669183
20
0.300759870268706
30
0
41
1
10
22.1001620796374
20
0.285778483518243
30
0
41
1
10
22.0538694784107
20
0.266795154074515
30
0
41
1
10
22.0380743749406
20
0.261045750275372
30
0
41
1
10
22.0062944661387
20
0.250811315094467
30
0
41
1
10
21.9581780731728
20
0.237281341811837
30
0
41
1
10
21.9088286391296
20
0.228781728933797
30
0
41
1
10
21.8421013843248
20
0.221234853608621
30
0
41
1
10
21.8082757245819
20
0.219346340328826
30
0
41
1
10
21.7569267819054
20
0.219003997507599
30
0
41
1
10
21.7396917571938
20
0.219309993353164
30
0
41
1
10
21.7053281626063
20
0.220699844807513
30
0
41
1
10
21.6538307691537
20
0.22394948055711
30
0
41
1
10
21.6024662772464
20
0.230424461562194
30
0
41
1
10
21.4998928885879
20
0.247150512834054
30
0
41
1
10
21.4317141930609
20
0.263241433306405
30
0
41
1
10
21.3296892270926
20
0.293276980095641
30
0
41
1
10
21.2957221833484
20
0.304290597606496
30
0
41
1
10
21.2278672850471
20
0.328239649774446
30
0
41
1
10
21.1941601886445
20
0.341119036548236
30
0
41
1
10
21.0937557593294
20
0.382264500126951
30
0
41
1
10
21.0276982774427
20
0.412934793717511
30
0
41
1
10
20.9624073537086
20
0.446431241544673
30
0
0
SPLINE
5
CE
100
AcDbEntity
8
SK1
62
256
6
ByLayer
370
18
48
1
60
0
100
AcDbSpline
70
4
71
3
72
14
73
10
40
0
40
0
40
0
40
0
40
0.25
40
0.25
40
0.5
40
0.5
40
0.75
40
0.75
40
1
40
1
40
1
40
1
41
1
10
22.4326850601602
20
0.649335987119514
30
0
41
1
10
22.4300927606463
20
0.649106522503274
30
0
41
1
10
22.4275347293376
20
0.648701176153878
30
0
41
1
10
22.4225024783836
20
0.647459212552548
30
0
41
1
10
22.4199957345819
20
0.646609448748507
30
0
41
1
10
22.4153132892357
20
0.644372386270675
30
0
41
1
10
22.4130925100564
20
0.642958775028916
30
0
41
1
10
22.4093989057071
20
0.639539387169918
30
0
41
1
10
22.4079098577037
20
0.637499504175253
30
0
41
1
10
22.4070501359088
20
0.635267184901636
30
0
0
SPLINE
5
CF
100
AcDbEntity
8
SK1
62
256
6
ByLayer
370
18
48
1
60
0
100
AcDbSpline
70
4
71
3
72
12
73
8
40
0
40
0
40
0
40
0
40
0.500000000000015
40
0.500000000000015
40
0.750000000000008
40
0.750000000000008
40
1
40
1
40
1
40
1
41
1
10
23.084224497974
20
0.747021574540724
30
0
41
1
10
22.9780316845449
20
0.722179129591893
30
0
41
1
10
22.8702975207601
20
0.702841808100146
30
0
41
1
10
22.7071769184343
20
0.679262396074563
30
0
41
1
10
22.6525540453899
20
0.672293136917745
30
0
41
1
10
22.542914146584
20
0.659762383789456
30
0
41
1
10
22.487891015395
20
0.654222696107098
30
0
41
1
10
22.4326850601602
20
0.649335987119571
30
0
0
SPLINE
5
D0
100
AcDbEntity
8
SK1
62
256
6
ByLayer
370
18
48
1
60
0
100
AcDbSpline
70
4
71
3
72
10
73
6
40
0
40
0
40
0
40
0
40
0.5
40
0.5
40
1
40
1
40
1
40
1
41
1
10
22.6392997846485
20
1.42147853290499
30
0
41
1
10
22.7127498645717
20
1.31223875327058
30
0
41
1
10
22.7865543569141
20
1.20144778913772
30
0
41
1
10
22.9349125593718
20
0.976586700966266
30
0
41
1
10
23.0094979968295
20
0.862465096289554
30
0
41
1
10
23.084224497957
20
0.747021574528816
30
0
0
SPLINE
5
D1
100
AcDbEntity
8
SK1
62
256
6
ByLayer
370
18
48
1
60
0
100
AcDbSpline
70
4
71
3
72
12
73
8
40
0
40
0
40
0
40
0
40
0.5
40
0.5
40
0.75
40
0.75
40
1
40
1
40
1
40
1
41
1
10
6.93905794791746
20
-0.506395251522008
30
0
41
1
10
6.91535156659424
20
-0.494140028664759
30
0
41
1
10
6.89157772995063
20
-0.484147159160301
30
0
41
1
10
6.85602911114054
20
-0.47267490765384
30
0
41
1
10
6.84415000893196
20
-0.469442198845798
30
0
41
1
10
6.82124507526655
20
-0.464415082798666
30
0
41
1
10
6.8101286467579
20
-0.462585535463575
30
0
41
1
10
6.79938813307589
20
-0.461453952504485
30
0
0
SPLINE
5
D2
100
AcDbEntity
8
SK1
62
256
6
ByLayer
370
18
48
1
60
0
100
AcDbSpline
70
4
71
3
72
51
73
47
40
0
40
0
40
0
40
0
40
0.045216129699161
40
0.045216129699161
40
0.122907153119625
40
0.122907153119625
40
0.200598176540089
40
0.200598176540089
40
0.220020932395204
40
0.220020932395204
40
0.239443688250318
40
0.239443688250318
40
0.278289199960551
40
0.278289199960551
40
0.355980223381017
40
0.355980223381017
40
0.433671246801483
40
0.433671246801483
40
0.472516758511716
40
0.491939514366833
40
0.491939514366833
40
0.51136227022195
40
0.51136227022195
40
0.55020778193218
40
0.55020778193218
40
0.589053293642411
40
0.589053293642411
40
0.666744317062873
40
0.666744317062873
40
0.705589828773103
40
0.705589828773103
40
0.744435340483334
40
0.744435340483334
40
0.763858096338449
40
0.763858096338449
40
0.783280852193565
40
0.783280852193565
40
0.822126363903795
40
0.822126363903795
40
0.860971875614026
40
0.860971875614026
40
0.899817387324257
40
0.899817387324257
40
0.977508410744718
40
0.977508410744718
40
1
40
1
40
1
40
1
41
1
10
8.60368429637796
20
1.10886563836451
30
0
41
1
10
8.69834798523371
20
1.07724511588759
30
0
41
1
10
8.79272832952211
20
1.04338512296471
30
0
41
1
10
9.04875348132308
20
0.945520112367234
30
0
41
1
10
9.21004229955147
20
0.877398641826574
30
0
41
1
10
9.5330617502982
20
0.730983267605836
30
0
41
1
10
9.69492350000834
20
0.652968124924143
30
0
41
1
10
9.8983408116332
20
0.550107672021511
30
0
41
1
10
9.93907973912135
20
0.529272674365814
30
0
41
1
10
10.0206913077845
20
0.487112713291452
30
0
41
1
10
10.0616131790875
20
0.465761747260274
30
0
41
1
10
10.1842304844277
20
0.401230179428382
30
0
41
1
10
10.2656565505328
20
0.357630727044039
30
0
41
1
10
10.5092911408669
20
0.225671229183007
30
0
41
1
10
10.670921246679
20
0.136269724534117
30
0
41
1
10
10.9938951019588
20
-0.0430047131407321
30
0
41
1
10
11.1552439375466
20
-0.132868622399428
30
0
41
1
10
11.39809975184
20
-0.266097052106375
30
0
41
1
10
11.5197342950594
20
-0.332322106756351
30
0
41
1
10
11.6418710265899
20
-0.39761052045921
30
0
41
1
10
11.7234284328427
20
-0.440888854204417
30
0
41
1
10
11.7643122188965
20
-0.46242477909621
30
0
41
1
10
11.8869322525528
20
-0.526449967370667
30
0
41
1
10
11.9683556255781
20
-0.568214074742144
30
0
41
1
10
12.1308115743219
20
-0.649573493764365
30
0
41
1
10
12.2118610708233
20
-0.689162375518634
30
0
41
1
10
12.4546037630154
20
-0.804363419899062
30
0
41
1
10
12.6158686332739
20
-0.876487433289071
30
0
41
1
10
12.8580694102866
20
-0.976186374673972
30
0
41
1
10
12.9388660888421
20
-1.00795894437192
30
0
41
1
10
13.1007504665232
20
-1.06835734215946
30
0
41
1
10
13.1818737186647
20
-1.09698195055077
30
0
41
1
10
13.3038731298567
20
-1.13736909693793
30
0
41
1
10
13.3445930319401
20
-1.1504089755993
30
0
41
1
10
13.4261619951046
20
-1.17561618051465
30
0
41
1
10
13.4670502725752
20
-1.18779464389422
30
0
41
1
10
13.5896689910963
20
-1.22289854821176
30
0
41
1
10
13.6710875659407
20
-1.24432027577012
30
0
41
1
10
13.8334702966505
20
-1.28312488690301
30
0
41
1
10
13.9144449472716
20
-1.30051234848619
30
0
41
1
10
14.0762339529607
20
-1.33114606057191
30
0
41
1
10
14.1570317349661
20
-1.34438970711221
30
0
41
1
10
14.3992414815656
20
-1.377761642525
30
0
41
1
10
14.5604984707157
20
-1.39157005349674
30
0
41
1
10
14.7691029392031
20
-1.39815351377442
30
0
41
1
10
14.815980792721
20
-1.39890636877001
30
0
41
1
10
14.862928724628
20
-1.39893484401492
30
0
0
SPLINE
5
D3
100
AcDbEntity
8
SK1
62
256
6
ByLayer
370
18
48
1
60
0
100
AcDbSpline
70
4
71
3
72
120
73
116
40
0
40
0
40
0
40
0
40
0.0083701733454977
40
0.0083701733454977
40
0.0302817389581984
40
0.0302817389581984
40
0.041237521764548
40
0.041237521764548
40
0.0521933045708975
40
0.0521933045708975
40
0.0741048701835982
40
0.0741048701835982
40
0.0850606529899486
40
0.0850606529899486
40
0.096016435796299
40
0.096016435796299
40
0.117928001409
40
0.117928001409
40
0.128883784215349
40
0.128883784215349
40
0.139839567021699
40
0.139839567021699
40
0.161751132634398
40
0.161751132634398
40
0.183662698247097
40
0.183662698247097
40
0.205574263859796
40
0.205574263859796
40
0.227485829472495
40
0.227485829472495
40
0.249397395085194
40
0.249397395085194
40
0.260353177891544
40
0.260353177891544
40
0.271308960697894
40
0.271308960697894
40
0.293220526310594
40
0.293220526310594
40
0.315132091923295
40
0.315132091923295
40
0.337043657535996
40
0.337043657535996
40
0.358955223148696
40
0.358955223148696
40
0.380866788761397
40
0.380866788761397
40
0.402778354374098
40
0.402778354374098
40
0.424689919986798
40
0.424689919986798
40
0.446601485599499
40
0.446601485599499
40
0.457557268405849
40
0.457557268405849
40
0.4685130512122
40
0.4685130512122
40
0.4904246168249
40
0.4904246168249
40
0.512336182437601
40
0.512336182437601
40
0.534247748050302
40
0.534247748050302
40
0.545203530856653
40
0.545203530856653
40
0.556159313663004
40
0.556159313663004
40
0.578070879275705
40
0.578070879275705
40
0.599982444888405
40
0.599982444888405
40
0.621894010501106
40
0.621894010501106
40
0.643805576113807
40
0.643805576113807
40
0.665717141726507
40
0.665717141726507
40
0.687628707339208
40
0.687628707339208
40
0.709540272951909
40
0.709540272951909
40
0.720496055758258
40
0.720496055758258
40
0.731451838564608
40
0.731451838564608
40
0.753363404177307
40
0.753363404177307
40
0.775274969790006
40
0.775274969790006
40
0.786230752596356
40
0.786230752596356
40
0.797186535402705
40
0.797186535402705
40
0.808142318209055
40
0.808142318209055
40
0.819098101015404
40
0.819098101015404
40
0.841009666628105
40
0.841009666628105
40
0.862921232240806
40
0.862921232240806
40
0.884832797853506
40
0.884832797853506
40
0.895788580659856
40
0.895788580659856
40
0.906744363466206
40
0.906744363466206
40
0.928655929078905
40
0.928655929078905
40
0.950567494691604
40
0.950567494691604
40
0.972479060304303
40
0.972479060304303
40
0.994390625917002
40
0.994390625917002
40
1
40
1
40
1
40
1
41
1
10
19.9473092461038
20
-0.933486633149585
30
0
41
1
10
19.9193363784638
20
-0.945129995775289
30
0
41
1
10
19.8913577815126
20
-0.956604161102831
30
0
41
1
10
19.790115557612
20
-0.997493600060238
30
0
41
1
10
19.7168527624593
20
-1.02594432002414
30
0
41
1
10
19.6068054843223
20
-1.06664190791776
30
0
41
1
10
19.5700680362814
20
-1.07987809636393
30
0
41
1
10
19.4966491818349
20
-1.10559193577896
30
0
41
1
10
19.4599672051909
20
-1.1180717543221
30
0
41
1
10
19.3499950548007
20
-1.15433975240165
30
0
41
1
10
19.2768106910529
20
-1.17692784875842
30
0
41
1
10
19.1670829937133
20
-1.20860062230236
30
0
41
1
10
19.1305057597773
20
-1.21878858068737
30
0
41
1
10
19.0572995864048
20
-1.2384525304393
30
0
41
1
10
19.020675098407
20
-1.2479270446805
30
0
41
1
10
18.910758596784
20
-1.27519900242109
30
0
41
1
10
18.8374326533294
20
-1.29181653473668
30
0
41
1
10
18.7273501086559
20
-1.3141751363714
30
0
41
1
10
18.6906230068968
20
-1.32120933315323
30
0
41
1
10
18.6172559296188
20
-1.33439713816921
30
0
41
1
10
18.5805930011786
20
-1.34056026018126
30
0
41
1
10
18.4706541539307
20
-1.35770107712332
30
0
41
1
10
18.3974331315962
20
-1.36728844554318
30
0
41
1
10
18.2511467007022
20
-1.38245631514576
30
0
41
1
10
18.1780618125713
20
-1.38821941910277
30
0
41
1
10
18.0315715056207
20
-1.39686502654456
30
0
41
1
10
17.9582012002634
20
-1.39969338865151
30
0
41
1
10
17.8112824798344
20
-1.40185888303415
30
0
41
1
10
17.7378934380602
20
-1.40117994687901
30
0
41
1
10
17.5913890554177
20
-1.39606903100423
30
0
41
1
10
17.5182008138656
20
-1.39167480834669
30
0
41
1
10
17.4084904297889
20
-1.38187553763794
30
0
41
1
10
17.3719371295166
20
-1.37804870294698
30
0
41
1
10
17.2988449186657
20
-1.36935632629459
30
0
41
1
10
17.2623012342365
20
-1.36454226492904
30
0
41
1
10
17.1525598569158
20
-1.34922765143426
30
0
41
1
10
17.0792384535644
20
-1.33765290133002
30
0
41
1
10
16.9323679499129
20
-1.31128010278826
30
0
41
1
10
16.859152153188
20
-1.29657051170992
30
0
41
1
10
16.713169509674
20
-1.26396249383615
30
0
41
1
10
16.6403763589508
20
-1.24608426801385
30
0
41
1
10
16.4950090885136
20
-1.20721343277231
30
0
41
1
10
16.4224429178272
20
-1.18620142042965
30
0
41
1
10
16.2775586104362
20
-1.14084712534137
30
0
41
1
10
16.2052404726068
20
-1.11654395221555
30
0
41
1
10
16.0604355861829
20
-1.06555408219833
30
0
41
1
10
15.9879767186374
20
-1.03882475485841
30
0
41
1
10
15.8429664089839
20
-0.982605813178424
30
0
41
1
10
15.7704279910071
20
-0.953072274221796
30
0
41
1
10
15.6250222730079
20
-0.891917910800856
30
0
41
1
10
15.5521392710709
20
-0.860371134902095
30
0
41
1
10
15.4425070543016
20
-0.81145644146747
30
0
41
1
10
15.4059135367332
20
-0.794879992829436
30
0
41
1
10
15.3326315289486
20
-0.761130931137217
30
0
41
1
10
15.2959121965593
20
-0.743937607976136
30
0
41
1
10
15.1859045307588
20
-0.69163350581843
30
0
41
1
10
15.1127157392495
20
-0.655785631556626
30
0
41
1
10
14.9664359914384
20
-0.582466545042024
30
0
41
1
10
14.8933492249418
20
-0.544989073557247
30
0
41
1
10
14.747215031315
20
-0.468627912609179
30
0
41
1
10
14.674126190889
20
-0.429839290170833
30
0
41
1
10
14.5642773344213
20
-0.371155933159969
30
0
41
1
10
14.5276309087307
20
-0.351494633167874
30
0
41
1
10
14.4542768768638
20
-0.311953721327342
30
0
41
1
10
14.4175429977996
20
-0.292055631661015
30
0
41
1
10
14.3076228791788
20
-0.232160829060348
30
0
41
1
10
14.234652930956
20
-0.191901929476984
30
0
41
1
10
14.0890733457968
20
-0.111254617760977
30
0
41
1
10
14.0164703286339
20
-0.0708480204700948
30
0
41
1
10
13.8715039101076
20
0.0099356128276611
30
0
41
1
10
13.7991565473953
20
0.050340772626555
30
0
41
1
10
13.654476705077
20
0.13075190788112
30
0
41
1
10
13.5821265355584
20
0.170732067340055
30
0
41
1
10
13.4373818925841
20
0.250154458029925
30
0
41
1
10
13.3650189406246
20
0.289652172491429
30
0
41
1
10
13.2202481667805
20
0.368049121724738
30
0
41
1
10
13.147787734052
20
0.406855305270454
30
0
41
1
10
13.0025818451625
20
0.483385051228652
30
0
41
1
10
12.9298407103829
20
0.521114031904091
30
0
41
1
10
12.8204140098447
20
0.576862450726708
30
0
41
1
10
12.7838853441584
20
0.595303574714563
30
0
41
1
10
12.7106994347178
20
0.631858429329185
30
0
41
1
10
12.6740123836149
20
0.649982985532858
30
0
41
1
10
12.5640198485845
20
0.703682526371125
30
0
41
1
10
12.4907629356171
20
0.73859499794392
30
0
41
1
10
12.3444023229657
20
0.806499941706988
30
0
41
1
10
12.2713438668193
20
0.839547436390944
30
0
41
1
10
12.1617658451134
20
0.887259347071421
30
0
41
1
10
12.1252374434209
20
0.90284895456881
30
0
41
1
10
12.0521652218655
20
0.933360306820134
30
0
41
1
10
12.0156216333775
20
0.94827309286029
30
0
41
1
10
11.9424906462776
20
0.977505243528896
30
0
41
1
10
11.9059029675187
20
0.991837724614271
30
0
41
1
10
11.8326792756995
20
1.01992891716168
30
0
41
1
10
11.7960224033628
20
1.03368640533125
30
0
41
1
10
11.6861582246627
20
1.07388346014028
30
0
41
1
10
11.613009112051
20
1.09922708743926
30
0
41
1
10
11.4667315248446
20
1.1470743224281
30
0
41
1
10
11.3936063907899
20
1.16962395401336
30
0
41
1
10
11.2473680305329
20
1.21199320508197
30
0
41
1
10
11.1742118632539
20
1.23176425989269
30
0
41
1
10
11.0643149225685
20
1.25909117598792
30
0
41
1
10
11.0276595284244
20
1.26781254834845
30
0
41
1
10
10.9543040920416
20
1.28444733930624
30
0
41
1
10
10.9175922403336
20
1.2923654767921
30
0
41
1
10
10.8076531570054
20
1.31476473559459
30
0
41
1
10
10.734542684597
20
1.32786893183726
30
0
41
1
10
10.5884606618641
20
1.3500387477981
30
0
41
1
10
10.5154395518702
20
1.35920199981552
30
0
41
1
10
10.3693169241833
20
1.37449054758918
30
0
41
1
10
10.2962455023386
20
1.38057098103658
30
0
41
1
10
10.1498398737527
20
1.38948700623348
30
0
41
1
10
10.0764243757838
20
1.39232994439695
30
0
41
1
10
9.98438280130404
20
1.39364923687384
30
0
41
1
10
9.96563277759842
20
1.39380073462436
30
0
41
1
10
9.94689132563525
20
1.39383236988294
30
0
0
SPLINE
5
D4
100
AcDbEntity
8
SK1
62
256
6
ByLayer
370
18
48
1
60
0
100
AcDbSpline
70
4
71
3
72
10
73
6
40
0
40
0
40
0
40
0
40
0.5
40
0.5
40
1
40
1
40
1
40
1
41
1
10
22.6392997846484
20
-1.4214785329049
30
0
41
1
10
22.7127498645716
20
-1.31223875327049
30
0
41
1
10
22.7865543569141
20
-1.20144778913763
30
0
41
1
10
22.9349125593718
20
-0.97658670096618
30
0
41
1
10
23.0094979968294
20
-0.862465096289498
30
0
41
1
10
23.084224497957
20
-0.747021574528731
30
0
0
SPLINE
5
D5
100
AcDbEntity
8
SK1
62
256
6
ByLayer
370
18
48
1
60
0
100
AcDbSpline
70
4
71
3
72
68
73
64
40
0
40
0
40
0
40
0
40
0.0155360427962039
40
0.0155360427962039
40
0.0463005414588227
40
0.0463005414588227
40
0.0616827907901323
40
0.0616827907901323
40
0.0770650401214419
40
0.0770650401214419
40
0.107829538784061
40
0.107829538784061
40
0.13859403744668
40
0.13859403744668
40
0.20012303477192
40
0.20012303477192
40
0.230887533434539
40
0.230887533434539
40
0.261652032097159
40
0.261652032097159
40
0.277034281428469
40
0.277034281428469
40
0.292416530759779
40
0.292416530759779
40
0.323181029422397
40
0.323181029422397
40
0.353945528085015
40
0.353945528085015
40
0.384710026747633
40
0.384710026747633
40
0.446239024072869
40
0.446239024072869
40
0.477003522735486
40
0.477003522735486
40
0.492385772066796
40
0.492385772066796
40
0.507768021398105
40
0.507768021398105
40
0.569297018723343
40
0.569297018723343
40
0.630826016048581
40
0.630826016048581
40
0.692355013373818
40
0.692355013373818
40
0.707737262705129
40
0.707737262705129
40
0.723119512036439
40
0.723119512036439
40
0.753884010699058
40
0.753884010699058
40
0.815413008024294
40
0.815413008024294
40
0.87694200534953
40
0.87694200534953
40
0.907706504012148
40
0.907706504012148
40
0.923088753343456
40
0.923088753343456
40
0.938471002674764
40
0.938471002674764
40
0.969235501337382
40
0.969235501337382
40
1
40
1
40
1
40
1
41
1
10
14.8472784009835
20
-1.44072930785867
30
0
41
1
10
14.8063386296275
20
-1.44148593982115
30
0
41
1
10
14.7653657309312
20
-1.44166824109385
30
0
41
1
10
14.6431030414862
20
-1.44048216396473
30
0
41
1
10
14.5616490415614
20
-1.43742169885161
30
0
41
1
10
14.4389932032343
20
-1.4293908264921
30
0
41
1
10
14.3979767015284
20
-1.42613526477211
30
0
41
1
10
14.316038480981
20
-1.41849884890047
30
0
41
1
10
14.2751452529788
20
-1.41412242862873
30
0
41
1
10
14.1526567228052
20
-1.3993513386622
30
0
41
1
10
14.0712444582737
20
-1.38732078157182
30
0
41
1
10
13.9088271607997
20
-1.35899883477015
30
0
41
1
10
13.8278419024324
20
-1.34269120650771
30
0
41
1
10
13.5851254756764
20
-1.28762366236876
30
0
41
1
10
13.4235571371233
20
-1.24278358635689
30
0
41
1
10
13.1804740915304
20
-1.16436312423488
30
0
41
1
10
13.0993134939548
20
-1.13637936360024
30
0
41
1
10
12.936741988679
20
-1.07664637463356
30
0
41
1
10
12.8552712857816
20
-1.04496087496923
30
0
41
1
10
12.7326325530203
20
-0.99483666319486
30
0
41
1
10
12.6916422074167
20
-0.977677020541876
30
0
41
1
10
12.609673696514
20
-0.942597256822808
30
0
41
1
10
12.5687701819315
20
-0.924709973366589
30
0
41
1
10
12.4462558205183
20
-0.870079865711745
30
0
41
1
10
12.3648335773061
20
-0.832380195205019
30
0
41
1
10
12.2023313368693
20
-0.754703316416567
30
0
41
1
10
12.1212492721816
20
-0.71473026298284
30
0
41
1
10
11.9593578385069
20
-0.632625807690829
30
0
41
1
10
11.8785172251751
20
-0.59054161691239
30
0
41
1
10
11.6359238039707
20
-0.461825724123742
30
0
41
1
10
11.474129817713
20
-0.372684915536553
30
0
41
1
10
11.230273756169
20
-0.235751897885734
30
0
41
1
10
11.1487971992729
20
-0.189565055533166
30
0
41
1
10
11.026155300068
20
-0.119702102241206
30
0
41
1
10
10.9851919865667
20
-0.0963113434820002
30
0
41
1
10
10.9031439316185
20
-0.0494041511713874
30
0
41
1
10
10.8622027650551
20
-0.0259698075931283
30
0
41
1
10
10.6578517387746
20
0.0910037151698759
30
0
41
1
10
10.4955133540048
20
0.18396222328218
30
0
41
1
10
10.1716573394262
20
0.366118866536993
30
0
41
1
10
10.0100565119357
20
0.455169190645876
30
0
41
1
10
9.68598428073895
20
0.626644310047965
30
0
41
1
10
9.52351561052276
20
0.709082139897959
30
0
41
1
10
9.31922151384015
20
0.806826348627567
30
0
41
1
10
9.27829535401
20
0.826098697564873
30
0
41
1
10
9.19627049620425
20
0.864028275635775
30
0
41
1
10
9.15528663518981
20
0.882632146801086
30
0
41
1
10
9.03261208056009
20
0.937217992162658
30
0
41
1
10
8.95110072293255
20
0.972018770469077
30
0
41
1
10
8.70709342177165
20
1.071379158388
30
0
41
1
10
8.54510272022165
20
1.13089161924685
30
0
41
1
10
8.22148411329945
20
1.23546223524545
30
0
41
1
10
8.05970003892108
20
1.28033072312365
30
0
41
1
10
7.81581560328712
20
1.33534760212257
30
0
41
1
10
7.7343229214087
20
1.351644664096
30
0
41
1
10
7.61167068358398
20
1.37291189358862
30
0
41
1
10
7.57071946228317
20
1.37947217675534
30
0
41
1
10
7.48867064870447
20
1.39151589739637
30
0
41
1
10
7.44760947051003
20
1.39699399402096
30
0
41
1
10
7.32460108125582
20
1.41172858813113
30
0
41
1
10
7.24269081586272
20
1.41929774409633
30
0
41
1
10
7.0787494415971
20
1.42986031083475
30
0
41
1
10
6.9967273707091
20
1.43285923868655
30
0
41
1
10
6.91456380001674
20
1.4335689661998
30
0
0
SPLINE
5
D6
100
AcDbEntity
8
SK1
62
256
6
ByLayer
370
18
48
1
60
0
100
AcDbSpline
70
4
71
3
72
10
73
6
40
0
40
0
40
0
40
0
40
0.763465389976082
40
0.763465389976082
40
1
40
1
40
1
40
1
41
1
10
6.91456380001714
20
1.4335689661998
30
0
41
1
10
6.90475199051454
20
1.43365372044187
30
0
41
1
10
6.89498332919106
20
1.43370727783039
30
0
41
1
10
6.88230859953626
20
1.43373288652299
30
0
41
1
10
6.87931931365787
20
1.43373574787529
30
0
41
1
10
6.87634328490512
20
1.4337351213689
30
0
0
SPLINE
5
D7
100
AcDbEntity
8
SK1
62
256
6
ByLayer
370
18
48
1
60
0
100
AcDbSpline
70
4
71
3
72
18
73
14
40
0
40
0
40
0
40
0
40
0.125
40
0.125
40
0.25
40
0.25
40
0.374999999999999
40
0.374999999999999
40
0.499999999999999
40
0.499999999999999
40
0.75
40
0.75
40
1
40
1
40
1
40
1
41
1
10
3.46411336792818
20
-0.637556767815113
30
0
41
1
10
3.46519334091201
20
-0.634558200326637
30
0
41
1
10
3.46661746894409
20
-0.631710782026403
30
0
41
1
10
3.47021581859352
20
-0.62634957564714
30
0
41
1
10
3.47241091133927
20
-0.623834633366613
30
0
41
1
10
3.47736799173697
20
-0.619463084419834
30
0
41
1
10
3.48019730817248
20
-0.61754383185405
30
0
41
1
10
3.48628488162774
20
-0.614445719005857
30
0
41
1
10
3.4895092817197
20
-0.61326819246716
30
0
41
1
10
3.49969794847308
20
-0.610800039068579
30
0
41
1
10
3.50684197991137
20
-0.610686024985455
30
0
41
1
10
3.52056577267388
20
-0.61285581102598
30
0
41
1
10
3.52721035007409
20
-0.615132337990389
30
0
41
1
10
3.53331681706015
20
-0.618272511164633
30
0
0
SPLINE
5
D8
100
AcDbEntity
8
SK1
62
256
6
ByLayer
370
18
48
1
60
0
100
AcDbSpline
70
4
71
3
72
101
73
97
40
0
40
0
40
0
40
0
40
0.0098769785389079
40
0.0098769785389079
40
0.0394487781326464
40
0.0394487781326464
40
0.0542346779295157
40
0.0542346779295157
40
0.0690205777263849
40
0.0690205777263849
40
0.0838064775232542
40
0.0838064775232542
40
0.0985923773201235
40
0.0985923773201235
40
0.128164176913864
40
0.128164176913864
40
0.142950076710734
40
0.142950076710734
40
0.157735976507604
40
0.157735976507604
40
0.187307776101345
40
0.187307776101345
40
0.216879575695087
40
0.216879575695087
40
0.246451375288828
40
0.246451375288828
40
0.27602317488257
40
0.27602317488257
40
0.290809074679442
40
0.290809074679442
40
0.305594974476313
40
0.305594974476313
40
0.320380874273185
40
0.320380874273185
40
0.335166774070056
40
0.335166774070056
40
0.3647385736638
40
0.3647385736638
40
0.394310373257543
40
0.394310373257543
40
0.409096273054413
40
0.409096273054413
40
0.423882172851284
40
0.423882172851284
40
0.453453972445026
40
0.453453972445026
40
0.468239872241898
40
0.468239872241898
40
0.483025772038769
40
0.483025772038769
40
0.512597571632512
40
0.512597571632512
40
0.542169371226255
40
0.542169371226255
40
0.571741170819998
40
0.571741170819998
40
0.58652707061687
40
0.58652707061687
40
0.601312970413742
40
0.616098870210613
40
0.616098870210613
40
0.630884770007485
40
0.630884770007485
40
0.645670669804356
40
0.645670669804356
40
0.660456569601228
40
0.660456569601228
40
0.690028369194973
40
0.690028369194973
40
0.719600168788717
40
0.719600168788717
40
0.73438606858559
40
0.73438606858559
40
0.749171968382462
40
0.749171968382462
40
0.763957868179334
40
0.763957868179334
40
0.778743767976207
40
0.778743767976207
40
0.808315567569953
40
0.808315567569953
40
0.823101467366825
40
0.823101467366825
40
0.837887367163697
40
0.837887367163697
40
0.867459166757444
40
0.867459166757444
40
0.89703096635119
40
0.89703096635119
40
0.926602765944936
40
0.926602765944936
40
0.956174565538682
40
0.956174565538682
40
0.985746365132429
40
0.985746365132429
40
1
40
1
40
1
40
1
41
1
10
22.1464672733117
20
-1.44871587199685
30
0
41
1
10
22.1135232798016
20
-1.44868087337809
30
0
41
1
10
22.0805599800142
20
-1.44827206913413
30
0
41
1
10
21.9487701303013
20
-1.44514229732067
30
0
41
1
10
21.849769840633
20
-1.43945297518403
30
0
41
1
10
21.7008704819832
20
-1.42580460447451
30
0
41
1
10
21.6511474102877
20
-1.42040638406377
30
0
41
1
10
21.551428672859
20
-1.40793156393488
30
0
41
1
10
21.5013848619943
20
-1.40084372334979
30
0
41
1
10
21.4014684864397
20
-1.38504487478679
30
0
41
1
10
21.3515672383613
20
-1.37632954569148
30
0
41
1
10
21.2518847451529
20
-1.35726174593034
30
0
41
1
10
21.2020930564951
20
-1.34691297373601
30
0
41
1
10
21.0526559195813
20
-1.31356325590599
30
0
41
1
10
20.9529649782949
20
-1.28826563804054
30
0
41
1
10
20.8033465358816
20
-1.24569941461948
30
0
41
1
10
20.7534664153214
20
-1.23073094275563
30
0
41
1
10
20.6535640306372
20
-1.19933739475456
30
0
41
1
10
20.6035918363268
20
-1.18293816191934
30
0
41
1
10
20.4541114867623
20
-1.13188414749501
30
0
41
1
10
20.3548592616456
20
-1.09527751727811
30
0
41
1
10
20.1570199537356
20
-1.01714084193552
30
0
41
1
10
20.0582694194298
20
-0.975810518752013
30
0
41
1
10
19.8609229436059
20
-0.888933177505919
30
0
41
1
10
19.7624276584412
20
-0.843239452962138
30
0
41
1
10
19.5651264725755
20
-0.748272966436019
30
0
41
1
10
19.4662900079358
20
-0.699060198157611
30
0
41
1
10
19.317780836228
20
-0.622579131620626
30
0
41
1
10
19.2682407008508
20
-0.596630266836854
30
0
41
1
10
19.168954226781
20
-0.544027169119488
30
0
41
1
10
19.1192021085227
20
-0.517383876038451
30
0
41
1
10
19.0194632764365
20
-0.463436490749984
30
0
41
1
10
18.9694143684785
20
-0.436098642706014
30
0
41
1
10
18.8694634944759
20
-0.380949480769601
30
0
41
1
10
18.8195693160008
20
-0.353118900530944
30
0
41
1
10
18.6699872569001
20
-0.269103051042492
30
0
41
1
10
18.5703187196308
20
-0.212533468758153
30
0
41
1
10
18.3708754671785
20
-0.0986508989125809
30
0
41
1
10
18.2712248303648
20
-0.041119773444251
30
0
41
1
10
18.1212849163549
20
0.045069958023646
30
0
41
1
10
18.0712377880942
20
0.073785262878971
30
0
41
1
10
17.9713224736802
20
0.130999051564288
30
0
41
1
10
17.9214144794569
20
0.159523422919421
30
0
41
1
10
17.771836157438
20
0.244842749119016
30
0
41
1
10
17.6722391530654
20
0.301256139262478
30
0
41
1
10
17.5225973261346
20
0.38444664943313
30
0
41
1
10
17.4726858711844
20
0.411956489268732
30
0
41
1
10
17.3728256801209
20
0.466574757707548
30
0
41
1
10
17.3228608464189
20
0.493711764548323
30
0
41
1
10
17.1729084383683
20
0.574153970313546
30
0
41
1
10
17.0733293831283
20
0.626111352137428
30
0
41
1
10
16.8748592946663
20
0.726669109294221
30
0
41
1
10
16.7760319514891
20
0.775356564266673
30
0
41
1
10
16.5784807724625
20
0.868509733774545
30
0
41
1
10
16.4797617790319
20
0.912999653651696
30
0
41
1
10
16.3317994263218
20
0.976651674216953
30
0
41
1
10
16.2824869683188
20
0.997337481499358
30
0
41
1
10
16.1837550972198
20
1.03748533905741
30
0
41
1
10
16.0849281462812
20
1.07642697231805
30
0
41
1
10
15.9858963045613
20
1.11293718923491
30
0
41
1
10
15.8867619960574
20
1.14822012493968
30
0
41
1
10
15.8371467835463
20
1.16525025202265
30
0
41
1
10
15.7377117597631
20
1.19795587396308
30
0
41
1
10
15.6878869170623
20
1.21362688411065
30
0
41
1
10
15.5879826755717
20
1.24355668095714
30
0
41
1
10
15.5378808768601
20
1.25781649855187
30
0
41
1
10
15.3879388138573
20
1.29827511569266
30
0
41
1
10
15.2882822577931
20
1.32225928770973
30
0
41
1
10
15.0887935827449
20
1.36371170421734
30
0
41
1
10
14.9890244327769
20
1.38124309988206
30
0
41
1
10
14.8392728760834
20
1.40267510291159
30
0
41
1
10
14.7893243221611
20
1.4089984510972
30
0
41
1
10
14.6892640313649
20
1.41995850823639
30
0
41
1
10
14.6392581060036
20
1.42458649690755
30
0
41
1
10
14.5393302004753
20
1.43214064563244
30
0
41
1
10
14.4894011463883
20
1.43506987830969
30
0
41
1
10
14.3896381371365
20
1.43923607121383
30
0
41
1
10
14.3397990475347
20
1.44046967832259
30
0
41
1
10
14.1902164423756
20
1.44160676284659
30
0
41
1
10
14.0903892226223
20
1.43896195400191
30
0
41
1
10
13.9404457788763
20
1.42988248074306
30
0
41
1
10
13.8903824792809
20
1.42599142427301
30
0
41
1
10
13.7904830819917
20
1.41653543213619
30
0
41
1
10
13.7406392933374
20
1.41097648282226
30
0
41
1
10
13.5913421251286
20
1.39187781578946
30
0
41
1
10
13.4921275978425
20
1.37592500291282
30
0
41
1
10
13.2942945916392
20
1.33767974155259
30
0
41
1
10
13.1955301839535
20
1.31546738548326
30
0
41
1
10
12.9980293964556
20
1.26513656074908
30
0
41
1
10
12.8993824016924
20
1.23693995499207
30
0
41
1
10
12.7017757493962
20
1.17489863284882
30
0
41
1
10
12.602753706462
20
1.14112883630514
30
0
41
1
10
12.4042010981606
20
1.0681090622769
30
0
41
1
10
12.3046954254851
20
1.02881075099089
30
0
41
1
10
12.1563863689021
20
0.966971235260502
30
0
41
1
10
12.108114938279
20
0.946312179126039
30
0
41
1
10
12.0599274327921
20
0.925165462686664
30
0
0
SPLINE
5
D9
100
AcDbEntity
8
SK1
62
256
6
ByLayer
370
18
48
1
60
0
100
AcDbSpline
70
4
71
3
72
32
73
28
40
0
40
0
40
0
40
0
40
0.0439771238819797
40
0.0439771238819797
40
0.097089505888541
40
0.097089505888541
40
0.150201887895102
40
0.150201887895102
40
0.25642665190822
40
0.25642665190822
40
0.309539033914776
40
0.309539033914776
40
0.362651415921332
40
0.362651415921332
40
0.468876179934444
40
0.468876179934444
40
0.575100943947555
40
0.575100943947555
40
0.681325707960664
40
0.681325707960664
40
0.73443808996722
40
0.73443808996722
40
0.787550471973776
40
0.787550471973776
40
0.893775235986888
40
0.893775235986888
40
1
40
1
40
1
40
1
41
1
10
6.35665865232696
20
-1.43322468924603
30
0
41
1
10
6.31534856219906
20
-1.43317492497053
30
0
41
1
10
6.27396363541749
20
-1.4325440843821
30
0
41
1
10
6.18238805604071
20
-1.42985711465425
30
0
41
1
10
6.13227192464058
20
-1.42753650238137
30
0
41
1
10
6.03223063300314
20
-1.42120525144577
30
0
41
1
10
5.98226801714915
20
-1.41719290115267
30
0
41
1
10
5.83244549855448
20
-1.40264391775719
30
0
41
1
10
5.73261146669537
20
-1.38960998485675
30
0
41
1
10
5.58269315531143
20
-1.36517628972752
30
0
41
1
10
5.53270838803499
20
-1.35620951513792
30
0
41
1
10
5.43265813113376
20
-1.33665148655814
30
0
41
1
10
5.38255480808439
20
-1.32605139599087
30
0
41
1
10
5.23229273984734
20
-1.29193601964806
30
0
41
1
10
5.13230333994565
20
-1.2661718099146
30
0
41
1
10
4.93262834695221
20
-1.20870496617272
30
0
41
1
10
4.83289171738437
20
-1.17703326449674
30
0
41
1
10
4.6330659533312
20
-1.10837910329533
30
0
41
1
10
4.53305888700928
20
-1.07128405145355
30
0
41
1
10
4.38273688287706
20
-1.01177017103956
30
0
41
1
10
4.33269493517975
20
-0.991347924234702
30
0
41
1
10
4.23266549889522
20
-0.949443530498229
30
0
41
1
10
4.18268167361262
20
-0.927957609311733
30
0
41
1
10
4.03285927486505
20
-0.861855544302927
30
0
41
1
10
3.93315160505162
20
-0.81558435582582
30
0
41
1
10
3.73347051476176
20
-0.719511901603539
30
0
41
1
10
3.63346478411805
20
-0.669772332636882
30
0
41
1
10
3.53331681706021
20
-0.618272511164662
30
0
0
SPLINE
5
DA
100
AcDbEntity
8
SK1
62
256
6
ByLayer
370
18
48
1
60
0
100
AcDbSpline
70
4
71
3
72
63
73
59
40
0
40
0
40
0
40
0
40
0.0157005589101594
40
0.0157005589101594
40
0.0314011178203188
40
0.0314011178203188
40
0.0628022356406376
40
0.0628022356406376
40
0.125604471281275
40
0.125604471281275
40
0.157005589101593
40
0.157005589101593
40
0.188406706921911
40
0.188406706921911
40
0.219807824742229
40
0.219807824742229
40
0.251208942562546
40
0.251208942562546
40
0.282610060382864
40
0.282610060382864
40
0.314011178203182
40
0.314011178203182
40
0.376813413843815
40
0.376813413843815
40
0.392513972753975
40
0.392513972753975
40
0.408214531664134
40
0.439615649484453
40
0.439615649484453
40
0.502417885125093
40
0.502417885125093
40
0.565220120765732
40
0.565220120765732
40
0.596621238586052
40
0.596621238586052
40
0.612321797496213
40
0.612321797496213
40
0.628022356406374
40
0.628022356406374
40
0.690824592047013
40
0.690824592047013
40
0.753626827687653
40
0.753626827687653
40
0.785027945507972
40
0.785027945507972
40
0.816429063328292
40
0.816429063328292
40
0.832129622238453
40
0.832129622238453
40
0.847830181148614
40
0.847830181148614
40
0.879231298968935
40
0.879231298968935
40
0.942033534609579
40
0.942033534609579
40
0.973434652429902
40
0.973434652429902
40
1
40
1
40
1
40
1
41
1
10
22.5262039687823
20
-1.4472670077499
30
0
41
1
10
22.4853371665062
20
-1.44603744985343
30
0
41
1
10
22.4444619521123
20
-1.44422728129672
30
0
41
1
10
22.3626713021767
20
-1.43945255876338
30
0
41
1
10
22.321733449994
20
-1.43648546745089
30
0
41
1
10
22.1991471472794
20
-1.42589409857854
30
0
41
1
10
22.1176398337154
20
-1.41657804705716
30
0
41
1
10
21.8734832819454
20
-1.38211035473185
30
0
41
1
10
21.7112247117974
20
-1.35044239159302
30
0
41
1
10
21.4676878952175
20
-1.29060072899816
30
0
41
1
10
21.3864874419926
20
-1.26859236644148
30
0
41
1
10
21.2239134617092
20
-1.22050899291079
30
0
41
1
10
21.1425297499241
20
-1.19443812597936
30
0
41
1
10
20.9792463425688
20
-1.13849944360996
30
0
41
1
10
20.897212668623
20
-1.10856908109477
30
0
41
1
10
20.7338395303701
20
-1.04559177339644
30
0
41
1
10
20.652364325375
20
-1.01250450969377
30
0
41
1
10
20.4896544674187
20
-0.94340400857908
30
0
41
1
10
20.4084225210907
20
-0.90738874929778
30
0
41
1
10
20.246121181774
20
-0.832545996578489
30
0
41
1
10
20.1650474120835
20
-0.793720909608425
30
0
41
1
10
19.9215844187274
20
-0.673710223830909
30
0
41
1
10
19.7589651180933
20
-0.588981007449632
30
0
41
1
10
19.5543748920026
20
-0.478555294261383
30
0
41
1
10
19.5133514199674
20
-0.45622284351569
30
0
41
1
10
19.4315325807936
20
-0.411336392382026
30
0
41
1
10
19.3090375773976
20
-0.34361582254661
30
0
41
1
10
19.1871678324758
20
-0.27485454970676
30
0
41
1
10
18.9439264670303
20
-0.136539560905476
30
0
41
1
10
18.7824153882293
20
-0.0432984401812178
30
0
41
1
10
18.4591356168528
20
0.142486957949814
30
0
41
1
10
18.2973625985042
20
0.235023864086315
30
0
41
1
10
18.0536118726791
20
0.37171464464555
30
0
41
1
10
17.9721500936796
20
0.416873317839901
30
0
41
1
10
17.8494828528891
20
0.483725457862619
30
0
41
1
10
17.8084655302456
20
0.50588728883082
30
0
41
1
10
17.7266448335382
20
0.549660247373083
30
0
41
1
10
17.6858096046373
20
0.571289244019198
30
0
41
1
10
17.4819492998045
20
0.678067171422697
30
0
41
1
10
17.3198321206666
20
0.75906854465083
30
0
41
1
10
16.9965631251902
20
0.910915186375661
30
0
41
1
10
16.8351619250742
20
0.981376646871411
30
0
41
1
10
16.5922557119526
20
1.07737914576572
30
0
41
1
10
16.5111498418155
20
1.1077634569445
30
0
41
1
10
16.3485600770591
20
1.16514658886186
30
0
41
1
10
16.2670839345205
20
1.19215152266042
30
0
41
1
10
16.144413800533
20
1.22988613064007
30
0
41
1
10
16.1033909306218
20
1.24201636043154
30
0
41
1
10
16.0215167184801
20
1.26522603859291
30
0
41
1
10
15.9806598915748
20
1.27630964211434
30
0
41
1
10
15.8583054905335
20
1.30799115086657
30
0
41
1
10
15.7770319253291
20
1.32702344750388
30
0
41
1
10
15.5336908018094
20
1.37764758027893
30
0
41
1
10
15.3720708826919
20
1.40275782950309
30
0
41
1
10
15.129467603748
20
1.42719589734887
30
0
41
1
10
15.0485649098175
20
1.4331380179689
30
0
41
1
10
14.899082378606
20
1.43999867804519
30
0
41
1
10
14.8305354424984
20
1.441547383244
30
0
41
1
10
14.7618585808235
20
1.44147263121599
30
0
0
SPLINE
5
DB
100
AcDbEntity
8
SK1
62
256
6
ByLayer
370
18
48
1
60
0
100
AcDbSpline
70
4
71
3
72
12
73
8
40
0
40
0
40
0
40
0
40
0.160369453853047
40
0.160369453853047
40
0.580184726926522
40
0.580184726926522
40
1
40
1
40
1
40
1
41
1
10
7.50064489360369
20
-1.38966635647523
30
0
41
1
10
7.46929303186983
20
-1.39407000258978
30
0
41
1
10
7.43793281437206
20
-1.39815311496713
30
0
41
1
10
7.32460108125582
20
-1.4117285881311
30
0
41
1
10
7.24269081586272
20
-1.4192977440963
30
0
41
1
10
7.07874944159707
20
-1.42986031083473
30
0
41
1
10
6.99672737070907
20
-1.43285923868652
30
0
41
1
10
6.91456380001671
20
-1.43356896619977
30
0
0
SPLINE
5
DC
100
AcDbEntity
8
SK1
62
256
6
ByLayer
370
18
48
1
60
0
100
AcDbSpline
70
4
71
3
72
16
73
12
40
0
40
0
40
0
40
0
40
0.249999999999971
40
0.249999999999971
40
0.499999999999943
40
0.499999999999943
40
0.749999999999914
40
0.749999999999914
40
0.874999999999957
40
0.874999999999957
40
1
40
1
40
1
40
1
41
1
10
6.91456380001714
20
-1.43356896619977
30
0
41
1
10
6.90475199051454
20
-1.43365372044184
30
0
41
1
10
6.89498332919109
20
-1.43370727783039
30
0
41
1
10
6.87562989435361
20
-1.43374638053132
30
0
41
1
10
6.86604408916784
20
-1.43373263567943
30
0
41
1
10
6.8473590126199
20
-1.43361892441007
30
0
41
1
10
6.83823423511478
20
-1.43352038752295
30
0
41
1
10
6.82543249491781
20
-1.43326170129177
30
0
41
1
10
6.82136108920292
20
-1.43315738895987
30
0
41
1
10
6.81380220232234
20
-1.43289753929508
30
0
41
1
10
6.8103066347974
20
-1.43274257346846
30
0
41
1
10
6.80729259327615
20
-1.43254698775766
30
0
0
SPLINE
5
DD
100
AcDbEntity
8
SK1
62
256
6
ByLayer
370
18
48
1
60
0
100
AcDbSpline
70
4
71
3
72
10
73
6
40
0
40
0
40
0
40
0
40
0.5
40
0.5
40
1
40
1
40
1
40
1
41
1
10
6.80729259327615
20
-1.43254698775766
30
0
41
1
10
6.80494233949494
20
-1.43239447623679
30
0
41
1
10
6.80297622275879
20
-1.4322206847869
30
0
41
1
10
6.80010326483242
20
-1.43181490338426
30
0
41
1
10
6.79921312302827
20
-1.43158378679237
30
0
41
1
10
6.79921496744626
20
-1.43132785230469
30
0
0
SPLINE
5
DE
100
AcDbEntity
8
SK1
62
256
6
ByLayer
370
18
48
1
60
0
100
AcDbSpline
70
4
71
3
72
32
73
28
40
0
40
0
40
0
40
0
40
0.125
40
0.125
40
0.1875
40
0.1875
40
0.21875
40
0.21875
40
0.25
40
0.25
40
0.375
40
0.5
40
0.5
40
0.53125
40
0.53125
40
0.5625
40
0.625
40
0.625
40
0.75
40
0.75
40
0.78125
40
0.78125
40
0.8125
40
0.8125
40
0.875
40
0.875
40
1
40
1
40
1
40
1
41
1
10
6.79921496737111
20
-1.4313278523046
30
0
41
1
10
6.79924414512868
20
-1.42727909878505
30
0
41
1
10
6.79926305188778
20
-1.41802693731881
30
0
41
1
10
6.79928062596446
20
-1.39648110024407
30
0
41
1
10
6.79928468034174
20
-1.3880159575219
30
0
41
1
10
6.79928859954734
20
-1.37336281027149
30
0
41
1
10
6.79928954541896
20
-1.36815218643966
30
0
41
1
10
6.79929080572913
20
-1.35706912075517
30
0
41
1
10
6.79929111976705
20
-1.35118313372087
30
0
41
1
10
6.79929133891059
20
-1.32028477241616
30
0
41
1
10
6.79928322920881
20
-1.26146945161901
30
0
41
1
10
6.79927062062245
20
-1.18456057592076
30
0
41
1
10
6.79926465828757
20
-1.13066553653522
30
0
41
1
10
6.79926355840487
20
-1.11957007951042
30
0
41
1
10
6.79926163601445
20
-1.096909320365
30
0
41
1
10
6.79925916812269
20
-1.06224551260414
30
0
41
1
10
6.79925824187666
20
-1.02559840192464
30
0
41
1
10
6.79925910584211
20
-0.949709224798767
30
0
41
1
10
6.79926333472383
20
-0.895670534351837
30
0
41
1
10
6.79927484528523
20
-0.823763219682149
30
0
41
1
10
6.79927745612841
20
-0.80916269127917
30
0
41
1
10
6.79928332712899
20
-0.779517608227167
30
0
41
1
10
6.79928659332009
20
-0.764447924975627
30
0
41
1
10
6.79929736565464
20
-0.718738440735763
30
0
41
1
10
6.79930580725119
20
-0.687754150297991
30
0
41
1
10
6.79933487023177
20
-0.593309807554448
30
0
41
1
10
6.79935926590954
20
-0.528366172198503
30
0
41
1
10
6.79938813307569
20
-0.461453952504598
30
0
0
SPLINE
5
DF
100
AcDbEntity
8
SK1
62
256
6
ByLayer
370
18
48
1
60
0
100
AcDbSpline
70
4
71
3
72
24
73
20
40
0
40
0
40
0
40
0
40
0.125000000000003
40
0.125000000000003
40
0.250000000000002
40
0.250000000000002
40
0.375000000000002
40
0.375000000000002
40
0.500000000000002
40
0.500000000000002
40
0.625000000000001
40
0.625000000000001
40
0.687500000000001
40
0.687500000000001
40
0.750000000000001
40
0.750000000000001
40
0.875
40
0.875
40
1
40
1
40
1
40
1
41
1
10
4.39285576661172
20
0.844456239140555
30
0
41
1
10
4.49381181086491
20
0.797947612021261
30
0
41
1
10
4.59436811013666
20
0.749753584356171
30
0
41
1
10
4.79477275917202
20
0.65019850954792
30
0
41
1
10
4.89460010319036
20
0.598798745717971
30
0
41
1
10
5.09405100024674
20
0.493666466252307
30
0
41
1
10
5.19369429207526
20
0.439971390192937
30
0
41
1
10
5.39291146911367
20
0.330488380527214
30
0
41
1
10
5.49252307491977
20
0.27476090113251
30
0
41
1
10
5.69228185123055
20
0.162255019668777
30
0
41
1
10
5.79232966777278
20
0.105301026204501
30
0
41
1
10
5.94293714419794
20
0.0192978366978593
30
0
41
1
10
5.99323703607772
20
-0.0094503597380822
30
0
41
1
10
6.09410347114502
20
-0.0669783520309011
30
0
41
1
10
6.14466837318884
20
-0.0957675890799976
30
0
41
1
10
6.29598443578692
20
-0.18180655594702
30
0
41
1
10
6.39660280486098
20
-0.238876226588275
30
0
41
1
10
6.59791442408894
20
-0.351409171902077
30
0
41
1
10
6.6986080438887
20
-0.406875541172184
30
0
41
1
10
6.79938813307589
20
-0.461453952504627
30
0
0
SPLINE
5
E0
100
AcDbEntity
8
SK1
62
256
6
ByLayer
370
18
48
1
60
0
100
AcDbSpline
70
4
71
3
72
10
73
6
40
0
40
0
40
0
40
0
40
0.5
40
0.5
40
1
40
1
40
1
40
1
41
1
10
4.39285576661416
20
0.844456239141294
30
0
41
1
10
4.38821372614262
20
0.84659474338801
30
0
41
1
10
4.3839741238433
20
0.849125810758181
30
0
41
1
10
4.37619373856913
20
0.854858005445777
30
0
41
1
10
4.37264134495885
20
0.858083148529516
30
0
41
1
10
4.36953830337129
20
0.861551248183218
30
0
0
SPLINE
5
E1
100
AcDbEntity
8
SK1
62
256
6
ByLayer
370
18
48
1
60
0
100
AcDbSpline
70
4
71
3
72
32
73
28
40
0
40
0
40
0
40
0
40
0.110582754489789
40
0.110582754489789
40
0.221165508979577
40
0.221165508979577
40
0.331748263469365
40
0.331748263469365
40
0.387039640714263
40
0.387039640714263
40
0.44233101795916
40
0.44233101795916
40
0.497622395204057
40
0.497622395204057
40
0.552913772448954
40
0.552913772448954
40
0.663496526938754
40
0.663496526938754
40
0.718787904183654
40
0.718787904183654
40
0.774079281428554
40
0.774079281428554
40
0.884662035918348
40
0.884662035918348
40
0.995244790408142
40
0.995244790408142
40
1
40
1
40
1
40
1
41
1
10
22.6392997846488
20
1.42147853290518
30
0
41
1
10
22.5406241110296
20
1.43247152523662
30
0
41
1
10
22.4419959759824
20
1.44012780899186
30
0
41
1
10
22.2448483504698
20
1.44882091151314
30
0
41
1
10
22.1463561245285
20
1.44983460918553
30
0
41
1
10
21.948770130301
20
1.44514229732073
30
0
41
1
10
21.8497698406326
20
1.43945297518405
30
0
41
1
10
21.7008704819828
20
1.42580460447454
30
0
41
1
10
21.6511474102873
20
1.42040638406377
30
0
41
1
10
21.5514286728585
20
1.40793156393485
30
0
41
1
10
21.5013848619937
20
1.40084372334977
30
0
41
1
10
21.4014684864391
20
1.38504487478676
30
0
41
1
10
21.3515672383608
20
1.37632954569142
30
0
41
1
10
21.2518847451523
20
1.35726174593029
30
0
41
1
10
21.2020930564945
20
1.34691297373595
30
0
41
1
10
21.0526559195806
20
1.31356325590588
30
0
41
1
10
20.9529649782941
20
1.2882656380404
30
0
41
1
10
20.8033465358808
20
1.24569941461928
30
0
41
1
10
20.7534664153205
20
1.23073094275543
30
0
41
1
10
20.6535640306363
20
1.19933739475434
30
0
41
1
10
20.6035918363259
20
1.18293816191911
30
0
41
1
10
20.4541114867613
20
1.1318841474947
30
0
41
1
10
20.3548592616446
20
1.09527751727776
30
0
41
1
10
20.1570199537346
20
1.01714084193512
30
0
41
1
10
20.0582694194287
20
0.975810518751587
30
0
41
1
10
19.955353097416
20
0.930503925918032
30
0
41
1
10
19.9511103423709
20
0.928631833847817
30
0
41
1
10
19.9468678898823
20
0.926755608934656
30
0
0
SPLINE
5
E2
100
AcDbEntity
8
SK1
62
256
6
ByLayer
370
18
48
1
60
0
100
AcDbSpline
70
4
71
3
72
92
73
88
40
0
40
0
40
0
40
0
40
0.0261140708428655
40
0.0261140708428655
40
0.0410877176718441
40
0.0410877176718441
40
0.0560613645008227
40
0.0560613645008227
40
0.0860086581587801
40
0.0860086581587801
40
0.115955951816737
40
0.115955951816737
40
0.145903245474695
40
0.145903245474695
40
0.175850539132652
40
0.175850539132652
40
0.205797832790609
40
0.205797832790609
40
0.220771479619589
40
0.220771479619589
40
0.235745126448568
40
0.235745126448568
40
0.265692420106527
40
0.265692420106527
40
0.280666066935506
40
0.280666066935506
40
0.295639713764485
40
0.295639713764485
40
0.32558700742244
40
0.32558700742244
40
0.355534301080396
40
0.355534301080396
40
0.370507947909375
40
0.370507947909375
40
0.385481594738354
40
0.385481594738354
40
0.415428888396313
40
0.415428888396313
40
0.445376182054272
40
0.445376182054272
40
0.46034982888325
40
0.46034982888325
40
0.475323475712229
40
0.475323475712229
40
0.505270769370188
40
0.505270769370188
40
0.535218063028147
40
0.535218063028147
40
0.565165356686106
40
0.565165356686106
40
0.595112650344065
40
0.595112650344065
40
0.625059944002024
40
0.625059944002024
40
0.640033590831004
40
0.640033590831004
40
0.655007237659985
40
0.655007237659985
40
0.684954531317947
40
0.684954531317947
40
0.714901824975909
40
0.714901824975909
40
0.744849118633871
40
0.744849118633871
40
0.774796412291833
40
0.774796412291833
40
0.804743705949796
40
0.804743705949796
40
0.819717352778776
40
0.819717352778776
40
0.834690999607756
40
0.834690999607756
40
0.864638293265715
40
0.864638293265715
40
0.879611940094694
40
0.879611940094694
40
0.894585586923673
40
0.894585586923673
40
0.92453288058163
40
0.92453288058163
40
0.954480174239587
40
0.954480174239587
40
0.984427467897544
40
0.984427467897544
40
0.999401114726522
40
0.999401114726522
40
1
40
1
40
1
40
1
41
1
10
14.251640092963
20
-1.44097253172222
30
0
41
1
10
14.1646586662242
20
-1.44087385860249
30
0
41
1
10
14.077594151471
20
-1.43818717850351
30
0
41
1
10
13.9404457788724
20
-1.42988248074275
30
0
41
1
10
13.8903824792769
20
-1.42599142427264
30
0
41
1
10
13.7904830819878
20
-1.41653543213573
30
0
41
1
10
13.7406392933335
20
-1.41097648282175
30
0
41
1
10
13.5913421251246
20
-1.39187781578883
30
0
41
1
10
13.4921275978385
20
-1.37592500291211
30
0
41
1
10
13.2942945916351
20
-1.33767974155168
30
0
41
1
10
13.1955301839492
20
-1.31546738548224
30
0
41
1
10
12.9980293964512
20
-1.26513656074786
30
0
41
1
10
12.8993824016881
20
-1.23693995499076
30
0
41
1
10
12.7017757493918
20
-1.17489863284732
30
0
41
1
10
12.6027537064576
20
-1.14112883630355
30
0
41
1
10
12.4042010981561
20
-1.06810906227511
30
0
41
1
10
12.3046954254805
20
-1.02881075098901
30
0
41
1
10
12.1545851383908
20
-0.96622018724554
30
0
41
1
10
12.1045097461097
20
-0.944768499478812
30
0
41
1
10
12.0045492116026
20
-0.900820337089414
30
0
41
1
10
11.9546289891192
20
-0.878296383075536
30
0
41
1
10
11.8049516863296
20
-0.809208279326583
30
0
41
1
10
11.70522333259
20
-0.761205117372384
30
0
41
1
10
11.555423409514
20
-0.686733013502959
30
0
41
1
10
11.5054702370246
20
-0.661475944406959
30
0
41
1
10
11.405526266675
20
-0.610083977725282
30
0
41
1
10
11.3554819225993
20
-0.583925529331026
30
0
41
1
10
11.2054382259827
20
-0.504666294206572
30
0
41
1
10
11.1057977925093
20
-0.450908258407281
30
0
41
1
10
10.9072547144817
20
-0.341635976777894
30
0
41
1
10
10.8083383126703
20
-0.286144385511307
30
0
41
1
10
10.6600367120047
20
-0.202438184284091
30
0
41
1
10
10.6106169366843
20
-0.174454821839618
30
0
41
1
10
10.5118280466148
20
-0.118286100912229
30
0
41
1
10
10.4624709702445
20
-0.0900792444643344
30
0
41
1
10
10.3143711526894
20
-0.0053405371040753
30
0
41
1
10
10.2155414166217
20
0.0512048767425313
30
0
41
1
10
10.0174759236677
20
0.164021484164096
30
0
41
1
10
9.91828112226455
20
0.220366718485366
30
0
41
1
10
9.76892234479635
20
0.304214130399202
30
0
41
1
10
9.71903710561205
20
0.332043257043438
30
0
41
1
10
9.61900874507151
20
0.387353865328777
30
0
41
1
10
9.56888166620573
20
0.414835835477248
30
0
41
1
10
9.41885373564594
20
0.49636464506429
30
0
41
1
10
9.31905549116067
20
0.549615015359279
30
0
41
1
10
9.11938195462048
20
0.653082878206504
30
0
41
1
10
9.0195361426307
20
0.703352431922013
30
0
41
1
10
8.81964159962936
20
0.800652017451796
30
0
41
1
10
8.71939148663026
20
0.847597567639951
30
0
41
1
10
8.51939399345824
20
0.936876950853275
30
0
41
1
10
8.41960550607578
20
0.979399518245572
30
0
41
1
10
8.2199415487504
20
1.05955054471664
30
0
41
1
10
8.12001415060169
20
1.09712561055392
30
0
41
1
10
7.96993282484695
20
1.14966363156378
30
0
41
1
10
7.91981099575318
20
1.16655112935678
30
0
41
1
10
7.81983495425644
20
1.19882099474495
30
0
41
1
10
7.76995912543097
20
1.2142118687263
30
0
41
1
10
7.62055844718461
20
1.25808227093469
30
0
41
1
10
7.52130385928712
20
1.28430717580576
30
0
41
1
10
7.3232584838772
20
1.33062296999347
30
0
41
1
10
7.2244042718707
20
1.35066371102968
30
0
41
1
10
7.02672339659551
20
1.38438350892673
30
0
41
1
10
6.92798514913576
20
1.39810240866518
30
0
41
1
10
6.73017430819326
20
1.41897585744937
30
0
41
1
10
6.63104949369756
20
1.42612985484064
30
0
41
1
10
6.43231595419115
20
1.43378624991991
30
0
41
1
10
6.33267609519339
20
1.43426679914026
30
0
41
1
10
6.18238805603332
20
1.42985711465397
30
0
41
1
10
6.13227192463322
20
1.42753650238103
30
0
41
1
10
6.03223063299575
20
1.42120525144523
30
0
41
1
10
5.98226801714176
20
1.41719290115205
30
0
41
1
10
5.832445498547
20
1.40264391775631
30
0
41
1
10
5.73261146668784
20
1.3896099848557
30
0
41
1
10
5.58269315530382
20
1.36517628972624
30
0
41
1
10
5.53270838802737
20
1.35620951513655
30
0
41
1
10
5.43265813112609
20
1.33665148655658
30
0
41
1
10
5.38255480807669
20
1.32605139598923
30
0
41
1
10
5.23229273983958
20
1.29193601964616
30
0
41
1
10
5.13230333993786
20
1.26617180991252
30
0
41
1
10
4.93262834694437
20
1.20870496617033
30
0
41
1
10
4.83289171737644
20
1.17703326449418
30
0
41
1
10
4.63306595332318
20
1.10837910329244
30
0
41
1
10
4.53305888700118
20
1.07128405145048
30
0
41
1
10
4.3827368828689
20
1.01177017103629
30
0
41
1
10
4.33269493517159
20
0.991347924231377
30
0
41
1
10
4.28067983071762
20
0.969557724283732
30
0
41
1
10
4.27867949382454
20
0.968718867418318
30
0
41
1
10
4.27667920712631
20
0.967879155846958
30
0
0
SPLINE
5
E3
100
AcDbEntity
8
SK1
62
256
6
ByLayer
370
18
48
1
60
0
100
AcDbSpline
70
4
71
3
72
14
73
10
40
0
40
0
40
0
40
0
40
0.190887074257947
40
0.305002769264327
40
0.40669787939548
40
0.493755157115843
40
0.616615205932981
40
0.785222167304588
40
1
40
1
40
1
40
1
41
1
10
14.846767720867
20
-1.39892143597817
30
0
41
1
10
15.0383060706288
20
-1.39920334271406
30
0
41
1
10
15.3443392745938
20
-1.3995530548369
30
0
41
1
10
15.7524637770227
20
-1.39920266159743
30
0
41
1
10
16.0562781687999
20
-1.39967662430621
30
0
41
1
10
16.3689995989502
20
-1.40056851342712
30
0
41
1
10
16.748822773648
20
-1.4002573301118
30
0
41
1
10
17.2568087995855
20
-1.39991702639907
30
0
41
1
10
17.6415255586763
20
-1.40058693208002
30
0
41
1
10
17.8570528722339
20
-1.40117166948247
30
0
0
SPLINE
5
E4
100
AcDbEntity
8
SK1
62
256
6
ByLayer
370
18
48
1
60
0
100
AcDbSpline
70
4
71
3
72
15
73
11
40
0
40
0
40
0
40
0
40
0.233351757893733
40
0.390896049526343
40
0.479819785755254
40
0.560293975257368
40
0.6449412464757
40
0.751349882160851
40
0.916541343389502
40
1
40
1
40
1
40
1
41
1
10
9.96612415536978
20
1.39380330765135
30
0
41
1
10
9.7741074093866
20
1.39333766941354
30
0
41
1
10
9.4524492560553
20
1.39281670328097
30
0
41
1
10
9.05752971202483
20
1.39307736841042
30
0
41
1
10
8.78851951707188
20
1.39309206974781
30
0
41
1
10
8.57950258924402
20
1.39233016377744
30
0
41
1
10
8.35602693516392
20
1.39196449465439
30
0
41
1
10
8.06299877268802
20
1.39231527790608
30
0
41
1
10
7.77297314822138
20
1.39106574095601
30
0
41
1
10
7.56924894986736
20
1.3899915486792
30
0
41
1
10
7.50082355225257
20
1.38959840910769
30
0
0
SPLINE
5
E5
100
AcDbEntity
8
SK1
62
256
6
ByLayer
370
18
48
1
60
0
100
AcDbSpline
70
4
71
3
72
16
73
12
40
0
40
0
40
0
40
0
40
0.198341346491481
40
0.342826998636314
40
0.435897917716879
40
0.509935135459831
40
0.557255454163725
40
0.602999929392472
40
0.658100544564596
40
0.795897556280154
40
1
40
1
40
1
40
1
41
1
10
7.14805736192454
20
-1.38723355021926
30
0
41
1
10
7.33421611800131
20
-1.38868720904534
30
0
41
1
10
7.65591508385501
20
-1.39056222173127
30
0
41
1
10
8.06299854988163
20
-1.39231355670407
30
0
41
1
10
8.35602740516944
20
-1.39196812549406
30
0
41
1
10
8.55779619889498
20
-1.39228558983584
30
0
41
1
10
8.71499463040877
20
-1.39283761470654
30
0
41
1
10
8.85435943986738
20
-1.39308986068565
30
0
41
1
10
9.07887433833164
20
-1.39306327793696
30
0
41
1
10
9.45244616098955
20
-1.39281670650064
30
0
41
1
10
9.77410740938657
20
-1.39333766941351
30
0
41
1
10
9.96612415536973
20
-1.39380330765132
30
0
0
SPLINE
5
E6
100
AcDbEntity
8
SK1
62
256
6
ByLayer
370
18
48
1
60
0
100
AcDbSpline
70
4
71
3
72
16
73
12
40
0
40
0
40
0
40
0
40
0.169395054606612
40
0.298536739364659
40
0.387662670394394
40
0.464873411054587
40
0.533131253929419
40
0.599539959559725
40
0.702425823633809
40
0.856962065757145
40
1
40
1
40
1
40
1
41
1
10
17.8570528722339
20
1.40117166948252
30
0
41
1
10
17.6972461220984
20
1.40159703152852
30
0
41
1
10
17.4155677953591
20
1.40203786121921
30
0
41
1
10
17.0497289778434
20
1.3992927209822
30
0
41
1
10
16.7708040592194
20
1.40016990738513
30
0
41
1
10
16.5496050354987
20
1.40055963581031
30
0
41
1
10
16.349720776098
20
1.40044215938991
30
0
41
1
10
16.1255278139504
20
1.39982095740882
30
0
41
1
10
15.8199968521367
20
1.39926574338702
30
0
41
1
10
15.442016095595
20
1.39943586949155
30
0
41
1
10
15.1612359199375
20
1.39922701027604
30
0
41
1
10
15.0262807941489
20
1.39910054915535
30
0
0
LINE
5
80
100
AcDbEntity
8
4
62
256
6
ByLayer
370
13
48
0.05
60
0
100
AcDbLine
10
0
20
0
30
0
11
23.453
21
0
31
0
39
0
210
0
220
0
230
1
0
LINE
5
82
100
AcDbEntity
8
SK4
62
256
6
ByLayer
370
13
48
0.05
60
0
100
AcDbLine
10
-31.547
20
0
30
0
11
28.453
21
0
31
0
39
0
210
0
220
0
230
1
0
LINE
5
84
100
AcDbEntity
8
81
62
256
6
ByLayer
370
18
48
1
60
0
100
AcDbLine
10
23.453
20
0
30
0
11
33.453
21
0
31
0
39
0
210
0
220
0
230
1
0
LINE
5
85
100
AcDbEntity
8
80
62
256
6
ByLayer
370
18
48
1
60
0
100
AcDbLine
10
0
20
0
30
0
11
-10
21
0
31
0
39
0
210
0
220
0
230
1
0
LINE
5
86
100
AcDbEntity
8
SK1
62
256
6
ByLayer
370
18
48
1
60
0
100
AcDbLine
10
23.43885
20
-0.034032
30
0
11
23.453
21
0
31
0
39
0
210
0
220
0
230
1
0
LINE
5
88
100
AcDbEntity
8
SK1
62
256
6
ByLayer
370
18
48
1
60
0
100
AcDbLine
10
23.407189
20
-0.090682
30
0
11
23.084224
21
-0.747022
31
0
39
0
210
0
220
0
230
1
0
LINE
5
89
100
AcDbEntity
8
SK1
62
256
6
ByLayer
370
18
48
1
60
0
100
AcDbLine
10
23.43885
20
-0.034032
30
0
11
23.430092
21
-0.048787
31
0
39
0
210
0
220
0
230
1
0
LINE
5
8A
100
AcDbEntity
8
SK1
62
256
6
ByLayer
370
18
48
1
60
0
100
AcDbLine
10
23.407189
20
0.090682
30
0
11
23.084224
21
0.747022
31
0
39
0
210
0
220
0
230
1
0
LINE
5
8B
100
AcDbEntity
8
SK1
62
256
6
ByLayer
370
13
48
1
60
0
100
AcDbLine
10
23.407189
20
0.090682
30
0
11
22.432685
21
0.649336
31
0
39
0
210
0
220
0
230
1
0
LINE
5
8C
100
AcDbEntity
8
SK1
62
256
6
ByLayer
370
18
48
1
60
0
100
AcDbLine
10
23.453
20
0
30
0
11
22.582265
21
-1.449146
31
0
39
0
210
0
220
0
230
1
0
LINE
5
8D
100
AcDbEntity
8
SK1
62
256
6
ByLayer
370
18
48
1
60
0
100
AcDbLine
10
23.453
20
0
30
0
11
23.43885
21
0.034032
31
0
39
0
210
0
220
0
230
1
0
LINE
5
8E
100
AcDbEntity
8
SK1
62
256
6
ByLayer
370
18
48
1
60
0
100
AcDbLine
10
-26.547
20
-1.35
30
0
11
-26.547
21
1.35
31
0
39
0
210
0
220
0
230
1
0
LINE
5
8F
100
AcDbEntity
8
SK1
62
256
6
ByLayer
370
18
48
1
60
0
100
AcDbLine
10
-26.460397
20
-1.5
30
0
11
-26.460397
21
1.5
31
0
39
0
210
0
220
0
230
1
0
LINE
5
90
100
AcDbEntity
8
SK1
62
256
6
ByLayer
370
18
48
1
60
0
100
AcDbLine
10
0.00042
20
-1.5
30
0
11
0.00042
21
1.5
31
0
39
0
210
0
220
0
230
1
0
LINE
5
91
100
AcDbEntity
8
SK1
62
256
6
ByLayer
370
18
48
1
60
0
100
AcDbLine
10
22.062688
20
-0.889308
30
0
11
23.43885
21
0.034032
31
0
39
0
210
0
220
0
230
1
0
LINE
5
92
100
AcDbEntity
8
SK1
62
256
6
ByLayer
370
18
48
1
60
0
100
AcDbLine
10
23.43885
20
0.034032
30
0
11
23.430092
21
0.048787
31
0
39
0
210
0
220
0
230
1
0
LINE
5
93
100
AcDbEntity
8
SK1
62
256
6
ByLayer
370
13
48
1
60
0
100
AcDbLine
10
23.430092
20
0.048787
30
0
11
22.40705
21
0.635267
31
0
39
0
210
0
220
0
230
1
0
LINE
5
94
100
AcDbEntity
8
SK1
62
256
6
ByLayer
370
18
48
1
60
0
100
AcDbLine
10
0.159
20
-1.427145
30
0
11
0.159
21
1.427145
31
0
39
0
210
0
220
0
230
1
0
LINE
5
95
100
AcDbEntity
8
SK1
62
256
6
ByLayer
370
18
48
1
60
0
100
AcDbLine
10
-26.547
20
-1.35
30
0
11
-26.460397
21
-1.5
31
0
39
0
210
0
220
0
230
1
0
LINE
5
96
100
AcDbEntity
8
SK1
62
256
6
ByLayer
370
18
48
1
60
0
100
AcDbLine
10
-26.460397
20
1.5
30
0
11
-26.547
21
1.35
31
0
39
0
210
0
220
0
230
1
0
LINE
5
97
100
AcDbEntity
8
SK1
62
256
6
ByLayer
370
18
48
1
60
0
100
AcDbLine
10
0.159
20
1.427145
30
0
11
0.00042
21
1.5
31
0
39
0
210
0
220
0
230
1
0
LINE
5
98
100
AcDbEntity
8
SK1
62
256
6
ByLayer
370
18
48
1
60
0
100
AcDbLine
10
0.00042
20
-1.5
30
0
11
0.159
21
-1.427145
31
0
39
0
210
0
220
0
230
1
0
LINE
5
99
100
AcDbEntity
8
SK1
62
256
6
ByLayer
370
18
48
1
60
0
100
AcDbLine
10
-26.460397
20
-1.5
30
0
11
0.00042
21
-1.5
31
0
39
0
210
0
220
0
230
1
0
LINE
5
9A
100
AcDbEntity
8
SK1
62
256
6
ByLayer
370
18
48
1
60
0
100
AcDbLine
10
0.00042
20
1.5
30
0
11
-26.460397
21
1.5
31
0
39
0
210
0
220
0
230
1
0
LINE
5
9B
100
AcDbEntity
8
SK1
62
256
6
ByLayer
370
18
48
1
60
0
100
AcDbLine
10
0.159
20
-1.427145
30
0
11
3.556173
21
-1.430479
31
0
39
0
210
0
220
0
230
1
0
LINE
5
9C
100
AcDbEntity
8
SK1
62
256
6
ByLayer
370
18
48
1
60
0
100
AcDbLine
10
6.356727
20
-1.433226
30
0
11
6.913401
21
-1.433772
31
0
39
0
210
0
220
0
230
1
0
LINE
5
9D
100
AcDbEntity
8
SK1
62
256
6
ByLayer
370
18
48
1
60
0
100
AcDbLine
10
14.251887
20
-1.440972
30
0
11
14.762185
21
-1.441473
31
0
39
0
210
0
220
0
230
1
0
LINE
5
9E
100
AcDbEntity
8
SK1
62
256
6
ByLayer
370
18
48
1
60
0
100
AcDbLine
10
22.146764
20
-1.448718
30
0
11
22.582265
21
-1.449146
31
0
39
0
210
0
220
0
230
1
0
LINE
5
9F
100
AcDbEntity
8
SK1
62
256
6
ByLayer
370
18
48
1
60
0
100
AcDbLine
10
22.582265
20
1.449146
30
0
11
22.146764
21
1.448718
31
0
39
0
210
0
220
0
230
1
0
LINE
5
A0
100
AcDbEntity
8
SK1
62
256
6
ByLayer
370
18
48
1
60
0
100
AcDbLine
10
14.762185
20
1.441473
30
0
11
14.251887
21
1.440972
31
0
39
0
210
0
220
0
230
1
0
LINE
5
A1
100
AcDbEntity
8
SK1
62
256
6
ByLayer
370
18
48
1
60
0
100
AcDbLine
10
6.877423
20
1.433737
30
0
11
6.356727
21
1.433226
31
0
39
0
210
0
220
0
230
1
0
LINE
5
A2
100
AcDbEntity
8
SK1
62
256
6
ByLayer
370
18
48
1
60
0
100
AcDbLine
10
3.556173
20
1.430479
30
0
11
0.159
21
1.427145
31
0
39
0
210
0
220
0
230
1
0
LINE
5
A3
100
AcDbEntity
8
2
62
256
6
ByLayer
370
13
48
1
60
0
100
AcDbLine
10
40.453
20
25.973531
30
0
11
40.453
21
-10.2
31
0
39
0
210
0
220
0
230
1
0
LINE
5
A5
100
AcDbEntity
8
2
62
256
6
ByLayer
370
13
48
1
60
0
100
AcDbLine
10
25.0405
20
1.45
30
0
11
42.453
21
1.45
31
0
39
0
210
0
220
0
230
1
0
LINE
5
A6
100
AcDbEntity
8
2
62
256
6
ByLayer
370
13
48
1
60
0
100
AcDbLine
10
25.0405
20
-1.45
30
0
11
42.453
21
-1.45
31
0
39
0
210
0
220
0
230
1
0
LINE
5
A7
100
AcDbEntity
8
1
62
256
6
ByLayer
370
18
48
1
60
1
100
AcDbLine
10
40.453
20
1.45
30
0
11
39.992216
21
4.949998
31
0
39
0
210
0
220
0
230
1
0
LINE
5
A8
100
AcDbEntity
8
1
62
256
6
ByLayer
370
18
48
1
60
1
100
AcDbLine
10
39.992216
20
4.949998
30
0
11
40.913784
21
4.950002
31
0
39
0
210
0
220
0
230
1
0
LINE
5
A9
100
AcDbEntity
8
1
62
256
6
ByLayer
370
18
48
1
60
1
100
AcDbLine
10
40.913784
20
4.950002
30
0
11
40.453
21
1.45
31
0
39
0
210
0
220
0
230
1
0
LINE
5
AA
100
AcDbEntity
8
1
62
256
6
ByLayer
370
18
48
1
60
1
100
AcDbLine
10
40.453
20
-1.45
30
0
11
40.913784
21
-4.949998
31
0
39
0
210
0
220
0
230
1
0
LINE
5
AB
100
AcDbEntity
8
1
62
256
6
ByLayer
370
18
48
1
60
1
100
AcDbLine
10
40.913784
20
-4.949998
30
0
11
39.992216
21
-4.950002
31
0
39
0
210
0
220
0
230
1
0
LINE
5
AC
100
AcDbEntity
8
1
62
256
6
ByLayer
370
18
48
1
60
1
100
AcDbLine
10
39.992216
20
-4.950002
30
0
11
40.453
21
-1.45
31
0
39
0
210
0
220
0
230
1
0
LINE
5
AD
100
AcDbEntity
8
SK2
62
256
6
ByLayer
370
13
48
1
60
0
100
AcDbLine
10
-34.547
20
10.25
30
0
11
-34.547
21
-23.5
31
0
39
0
210
0
220
0
230
1
0
LINE
5
AF
100
AcDbEntity
8
SK2
62
256
6
ByLayer
370
13
48
1
60
0
100
AcDbLine
10
-28.1345
20
1.5
30
0
11
-36.547
21
1.5
31
0
39
0
210
0
220
0
230
1
0
LINE
5
B0
100
AcDbEntity
8
SK2
62
256
6
ByLayer
370
13
48
1
60
0
100
AcDbLine
10
-28.1345
20
-1.5
30
0
11
-36.547
21
-1.5
31
0
39
0
210
0
220
0
230
1
0
LINE
5
B1
100
AcDbEntity
8
1
62
256
6
ByLayer
370
18
48
1
60
1
100
AcDbLine
10
-34.547
20
1.5
30
0
11
-35.007784
21
4.999998
31
0
39
0
210
0
220
0
230
1
0
LINE
5
B2
100
AcDbEntity
8
1
62
256
6
ByLayer
370
18
48
1
60
1
100
AcDbLine
10
-35.007784
20
4.999998
30
0
11
-34.086216
21
5.000002
31
0
39
0
210
0
220
0
230
1
0
LINE
5
B3
100
AcDbEntity
8
1
62
256
6
ByLayer
370
18
48
1
60
1
100
AcDbLine
10
-34.086216
20
5.000002
30
0
11
-34.547
21
1.5
31
0
39
0
210
0
220
0
230
1
0
LINE
5
B4
100
AcDbEntity
8
1
62
256
6
ByLayer
370
18
48
1
60
1
100
AcDbLine
10
-34.547
20
-1.5
30
0
11
-34.086216
21
-4.999998
31
0
39
0
210
0
220
0
230
1
0
LINE
5
B5
100
AcDbEntity
8
1
62
256
6
ByLayer
370
18
48
1
60
1
100
AcDbLine
10
-34.086216
20
-4.999998
30
0
11
-35.007784
21
-5.000002
31
0
39
0
210
0
220
0
230
1
0
LINE
5
B6
100
AcDbEntity
8
1
62
256
6
ByLayer
370
18
48
1
60
1
100
AcDbLine
10
-35.007784
20
-5.000002
30
0
11
-34.547
21
-1.5
31
0
39
0
210
0
220
0
230
1
0
LINE
5
EC
100
AcDbEntity
8
1
62
256
6
ByLayer
370
18
48
1
60
1
100
AcDbLine
10
40.453
20
1.45
30
0
11
39.992216
21
4.949998
31
0
39
0
210
0
220
0
230
1
0
LINE
5
ED
100
AcDbEntity
8
1
62
256
6
ByLayer
370
18
48
1
60
1
100
AcDbLine
10
39.992216
20
4.949998
30
0
11
40.913784
21
4.950002
31
0
39
0
210
0
220
0
230
1
0
LINE
5
EE
100
AcDbEntity
8
1
62
256
6
ByLayer
370
18
48
1
60
1
100
AcDbLine
10
40.913784
20
4.950002
30
0
11
40.453
21
1.45
31
0
39
0
210
0
220
0
230
1
0
LINE
5
F0
100
AcDbEntity
8
1
62
256
6
ByLayer
370
18
48
1
60
1
100
AcDbLine
10
40.453
20
-1.45
30
0
11
40.913784
21
-4.949998
31
0
39
0
210
0
220
0
230
1
0
LINE
5
F1
100
AcDbEntity
8
1
62
256
6
ByLayer
370
18
48
1
60
1
100
AcDbLine
10
40.913784
20
-4.949998
30
0
11
39.992216
21
-4.950002
31
0
39
0
210
0
220
0
230
1
0
LINE
5
F2
100
AcDbEntity
8
1
62
256
6
ByLayer
370
18
48
1
60
1
100
AcDbLine
10
39.992216
20
-4.950002
30
0
11
40.453
21
-1.45
31
0
39
0
210
0
220
0
230
1
0
LINE
5
F6
100
AcDbEntity
8
1
62
256
6
ByLayer
370
18
48
1
60
1
100
AcDbLine
10
-34.547
20
1.5
30
0
11
-35.007784
21
4.999998
31
0
39
0
210
0
220
0
230
1
0
LINE
5
F7
100
AcDbEntity
8
1
62
256
6
ByLayer
370
18
48
1
60
1
100
AcDbLine
10
-35.007784
20
4.999998
30
0
11
-34.086216
21
5.000002
31
0
39
0
210
0
220
0
230
1
0
LINE
5
F8
100
AcDbEntity
8
1
62
256
6
ByLayer
370
18
48
1
60
1
100
AcDbLine
10
-34.086216
20
5.000002
30
0
11
-34.547
21
1.5
31
0
39
0
210
0
220
0
230
1
0
LINE
5
FA
100
AcDbEntity
8
1
62
256
6
ByLayer
370
18
48
1
60
1
100
AcDbLine
10
-34.547
20
-1.5
30
0
11
-34.086216
21
-4.999998
31
0
39
0
210
0
220
0
230
1
0
LINE
5
FB
100
AcDbEntity
8
1
62
256
6
ByLayer
370
18
48
1
60
1
100
AcDbLine
10
-34.086216
20
-4.999998
30
0
11
-35.007784
21
-5.000002
31
0
39
0
210
0
220
0
230
1
0
LINE
5
FC
100
AcDbEntity
8
1
62
256
6
ByLayer
370
18
48
1
60
1
100
AcDbLine
10
-35.007784
20
-5.000002
30
0
11
-34.547
21
-1.5
31
0
39
0
210
0
220
0
230
1
0
MTEXT
5
E7
100
AcDbEntity
8
2
62
256
6
ByLayer
370
18
48
1
60
0
100
AcDbMText
10
38.888366
20
10.943977
30
0
210
0
220
0
230
1
1
%%c
40
3.5
41
0
44
1.084337
50
90
71
7
72
5
7
iso_b_vert
0
MTEXT
5
EA
100
AcDbEntity
8
2
62
256
6
ByLayer
370
18
48
1
60
0
100
AcDbMText
10
38.888366
20
4.6075
30
0
210
0
220
0
230
1
1
\W0.2969; 
40
3.5
41
0
44
1.084337
50
90
71
7
72
5
7
iso_b_vert
0
MTEXT
5
EB
100
AcDbEntity
8
2
62
256
6
ByLayer
370
18
48
1
60
0
100
AcDbMText
10
38.888366
20
17.916633
30
0
210
0
220
0
230
1
1
\W0.7346;2.90
40
3.5
41
0
44
1.084337
50
90
71
7
72
5
7
iso_b_vert
0
MTEXT
5
F4
100
AcDbEntity
8
SK2
62
256
6
ByLayer
370
18
48
1
60
0
100
AcDbMText
10
-36.111634
20
-21.565156
30
0
210
0
220
0
230
1
1
%%c
40
3.5
41
0
44
1.084337
50
90
71
7
72
5
7
iso_b_vert
0
MTEXT
5
F5
100
AcDbEntity
8
SK2
62
256
6
ByLayer
370
18
48
1
60
0
100
AcDbMText
10
-36.111634
20
-14.5925
30
0
210
0
220
0
230
1
1
\W0.7346;3.00
40
3.5
41
0
44
1.084337
50
90
71
7
72
5
7
iso_b_vert
0
MTEXT
5
FE
100
AcDbEntity
8
SK6
62
256
6
ByLayer
370
18
48
1
60
0
100
AcDbMText
10
-26.3615
20
-58.19609
30
0
210
0
220
0
230
1
1
\W0.7478;862.1-2900-145A0-GM X1DU
40
3.5
41
0
44
1.084337
50
0
71
7
72
5
7
iso_b_vert
0
HATCH
5
EF
100
AcDbEntity
8
2
62
256
6
ByLayer
370
13
48
1
60
0
100
AcDbHatch
10
0
20
0
30
0
210
0
220
0
230
1
2
ANSI31
70
0
71
0
91
1
92
5
93
3
72
1
10
40.453
20
1.45000000000002
11
39.9922162584472
21
4.94999830744683
72
1
10
39.9922162584472
20
4.94999830744683
11
40.9137837415528
21
4.9500016925532
72
1
10
40.9137837415528
20
4.9500016925532
11
40.453
21
1.45000000000002
97
0
75
0
76
1
52
0
41
0.0062
77
0
78
1
53
45
43
0
44
0
45
-0.0139193969876572
46
0.0139193969876572
79
0
47
0
98
1
10
0
20
0
0
HATCH
5
F3
100
AcDbEntity
8
2
62
256
6
ByLayer
370
13
48
1
60
0
100
AcDbHatch
10
0
20
0
30
0
210
0
220
0
230
1
2
ANSI31
70
0
71
0
91
1
92
5
93
3
72
1
10
40.453
20
-1.44999999999999
11
40.9137837415528
21
-4.9499983074468
72
1
10
40.9137837415528
20
-4.9499983074468
11
39.9922162584472
21
-4.95000169255317
72
1
10
39.9922162584472
20
-4.95000169255317
11
40.453
21
-1.44999999999999
97
0
75
0
76
1
52
0
41
0.0062
77
0
78
1
53
45
43
0
44
0
45
-0.0139193969876572
46
0.0139193969876572
79
0
47
0
98
1
10
0
20
0
0
HATCH
5
F9
100
AcDbEntity
8
SK2
62
256
6
ByLayer
370
13
48
1
60
0
100
AcDbHatch
10
0
20
0
30
0
210
0
220
0
230
1
2
ANSI31
70
0
71
0
91
1
92
5
93
3
72
1
10
-34.547
20
1.49999999999997
11
-35.0077837415528
21
4.99999830744679
72
1
10
-35.0077837415528
20
4.99999830744679
11
-34.0862162584472
21
5.00000169255316
72
1
10
-34.0862162584472
20
5.00000169255316
11
-34.547
21
1.49999999999997
97
0
75
0
76
1
52
0
41
0.0062
77
0
78
1
53
45
43
0
44
0
45
-0.0139193969876572
46
0.0139193969876572
79
0
47
0
98
1
10
0
20
0
0
HATCH
5
FD
100
AcDbEntity
8
SK2
62
256
6
ByLayer
370
13
48
1
60
0
100
AcDbHatch
10
0
20
0
30
0
210
0
220
0
230
1
2
ANSI31
70
0
71
0
91
1
92
5
93
3
72
1
10
-34.547
20
-1.50000000000003
11
-34.0862162584472
21
-4.99999830744684
72
1
10
-34.0862162584472
20
-4.99999830744684
11
-35.0077837415528
21
-5.00000169255321
72
1
10
-35.0077837415528
20
-5.00000169255321
11
-34.547
21
-1.50000000000003
97
0
75
0
76
1
52
0
41
0.0062
77
0
78
1
53
45
43
0
44
0
45
-0.0139193969876572
46
0.0139193969876572
79
0
47
0
98
1
10
0
20
0
0
DIMENSION
5
101
100
AcDbEntity
8
2
62
256
6
ByLayer
370
18
48
1
60
0
100
AcDbDimension
2
_U0
10
22.582
20
21.8
30
0
11
17.656432
21
21.8
31
0
70
32
71
1
72
1
41
1
210
0
220
0
230
1
3
Standard
100
AcDbAlignedDimension
13
0
23
-1.5
33
0
14
22.582
24
-1.45
34
0
50
0
100
AcDbRotatedDimension
1001
ACAD
1000
DSTYLE
1002
{
1070
   371
1070
    13
1070
   372
1070
    13
1070
   170
1070
     0
1070
   144
1040
1.0
1070
   277
1070
     2
1070
   284
1070
     8
1070
   278
1070
    46
1070
   146
1040
1.0
1070
   345
1005
16
1070
   347
1005
16
1070
   346
1005
16
1070
   344
1005
0
1070
   343
1005
0
1070
   172
1070
     1
1070
    76
1070
     0
1070
    75
1070
     0
1070
   282
1070
     0
1070
   281
1070
     0
1070
    71
1070
     0
1070
    74
1070
     0
1070
   279
1070
     0
1070
   173
1070
     1
1070
   340
1005
E8
1070
   271
1070
     2
1070
   272
1070
     2
1070
    77
1070
     1
1070
    73
1070
     1
1070
   171
1070
     3
1070
   274
1070
     4
1070
   177
1070
     2
1070
   176
1070
     2
1070
   178
1070
     2
1070
    78
1070
     8
1070
    48
1040
-0.1
1070
    41
1040
3.5
1070
   147
1040
1.75
1070
    42
1040
1.5875
1070
    44
1040
2.0
1070
   140
1040
3.5
1002
}
1001
ACAD_DSTYLE_DIM_LINETYPE
1070
   380
1005
16
1001
ACAD_DSTYLE_DIM_EXT1_LINETYPE
1070
   381
1005
16
1001
ACAD_DSTYLE_DIM_EXT2_LINETYPE
1070
   382
1005
16
0
DIMENSION
5
11A
100
AcDbEntity
8
SK2
62
256
6
ByLayer
370
18
48
1
60
0
100
AcDbDimension
2
_U1
10
0
20
-23.25
30
0
11
-15.132068
21
-23.25
31
0
70
32
71
1
72
1
41
1
210
0
220
0
230
1
3
Standard
100
AcDbAlignedDimension
13
-26.547
23
-1.5
33
0
14
0
24
-1.5
34
0
50
0
100
AcDbRotatedDimension
1001
ACAD
1000
DSTYLE
1002
{
1070
   371
1070
    13
1070
   372
1070
    13
1070
   170
1070
     0
1070
   144
1040
1.0
1070
   277
1070
     2
1070
   284
1070
     8
1070
   278
1070
    46
1070
   146
1040
1.0
1070
   345
1005
16
1070
   347
1005
16
1070
   346
1005
16
1070
   344
1005
0
1070
   343
1005
0
1070
   172
1070
     1
1070
    76
1070
     0
1070
    75
1070
     0
1070
   282
1070
     0
1070
   281
1070
     0
1070
    71
1070
     0
1070
    74
1070
     0
1070
   279
1070
     0
1070
   173
1070
     1
1070
   340
1005
E8
1070
   271
1070
     2
1070
   272
1070
     2
1070
    77
1070
     1
1070
    73
1070
     1
1070
   171
1070
     3
1070
   274
1070
     4
1070
   177
1070
     2
1070
   176
1070
     2
1070
   178
1070
     2
1070
    78
1070
     8
1070
    48
1040
-0.1
1070
    41
1040
3.5
1070
   147
1040
1.75
1070
    42
1040
1.5875
1070
    44
1040
2.0
1070
   140
1040
3.5
1002
}
1001
ACAD_DSTYLE_DIM_LINETYPE
1070
   380
1005
16
1001
ACAD_DSTYLE_DIM_EXT1_LINETYPE
1070
   381
1005
16
1001
ACAD_DSTYLE_DIM_EXT2_LINETYPE
1070
   382
1005
16
0
DIMENSION
5
132
100
AcDbEntity
8
SK2
62
256
6
ByLayer
370
18
48
1
60
0
100
AcDbDimension
2
_U2
10
23.453
20
-16.7
30
0
11
40.786333
21
-16.7
31
0
70
32
71
1
72
1
41
1
210
0
220
0
230
1
3
Standard
100
AcDbAlignedDimension
13
8.953
23
-1.45
33
0
14
23.453
24
-1.45
34
0
50
0
100
AcDbRotatedDimension
1001
ACAD
1000
DSTYLE
1002
{
1070
   371
1070
    13
1070
   372
1070
    13
1070
   170
1070
     0
1070
   144
1040
1.0
1070
   277
1070
     2
1070
   284
1070
     8
1070
   278
1070
    46
1070
   146
1040
1.0
1070
   345
1005
16
1070
   347
1005
16
1070
   346
1005
16
1070
   344
1005
0
1070
   343
1005
0
1070
   172
1070
     1
1070
    76
1070
     0
1070
    75
1070
     0
1070
   282
1070
     0
1070
   281
1070
     0
1070
    71
1070
     0
1070
    74
1070
     0
1070
   279
1070
     0
1070
   173
1070
     1
1070
   340
1005
E8
1070
   271
1070
     2
1070
   272
1070
     2
1070
    77
1070
     1
1070
    73
1070
     1
1070
   171
1070
     3
1070
   274
1070
     4
1070
   177
1070
     2
1070
   176
1070
     2
1070
   178
1070
     2
1070
    78
1070
     8
1070
    48
1040
-0.1
1070
    41
1040
3.5
1070
   147
1040
1.75
1070
    42
1040
1.5875
1070
    44
1040
2.0
1070
   140
1040
3.5
1002
}
1001
ACAD_DSTYLE_DIM_LINETYPE
1070
   380
1005
16
1001
ACAD_DSTYLE_DIM_EXT1_LINETYPE
1070
   381
1005
16
1001
ACAD_DSTYLE_DIM_EXT2_LINETYPE
1070
   382
1005
16
0
DIMENSION
5
14C
100
AcDbEntity
8
SK2
62
256
6
ByLayer
370
18
48
1
60
0
100
AcDbDimension
2
_U3
10
23.453
20
-26.7
30
0
11
38.953
21
-26.7
31
0
70
32
71
1
72
1
41
1
210
0
220
0
230
1
3
Standard
100
AcDbAlignedDimension
13
3.93
23
-1.45
33
0
14
23.453
24
-1.45
34
0
50
0
100
AcDbRotatedDimension
1001
ACAD
1000
DSTYLE
1002
{
1070
   371
1070
    13
1070
   372
1070
    13
1070
   170
1070
     0
1070
   144
1040
1.0
1070
   277
1070
     2
1070
   284
1070
     8
1070
   278
1070
    46
1070
   146
1040
1.0
1070
   345
1005
16
1070
   347
1005
16
1070
   346
1005
16
1070
   344
1005
0
1070
   343
1005
0
1070
   172
1070
     1
1070
    76
1070
     0
1070
    75
1070
     0
1070
   282
1070
     0
1070
   281
1070
     0
1070
    71
1070
     0
1070
    74
1070
     0
1070
   279
1070
     0
1070
   173
1070
     1
1070
   340
1005
E8
1070
   271
1070
     2
1070
   272
1070
     2
1070
    77
1070
     1
1070
    73
1070
     1
1070
   171
1070
     3
1070
   274
1070
     4
1070
   177
1070
     2
1070
   176
1070
     2
1070
   178
1070
     2
1070
    78
1070
     8
1070
    48
1040
-0.1
1070
    41
1040
3.5
1070
   147
1040
1.75
1070
    42
1040
1.5875
1070
    44
1040
2.0
1070
   140
1040
3.5
1002
}
1001
ACAD_DSTYLE_DIM_LINETYPE
1070
   380
1005
16
1001
ACAD_DSTYLE_DIM_EXT1_LINETYPE
1070
   381
1005
16
1001
ACAD_DSTYLE_DIM_EXT2_LINETYPE
1070
   382
1005
16
0
DIMENSION
5
165
100
AcDbEntity
8
SK2
62
256
6
ByLayer
370
18
48
1
60
0
100
AcDbDimension
2
_U4
10
23.453
20
-34.878867
30
0
11
-1.547
21
-34.878867
31
0
70
32
71
1
72
1
41
1
210
0
220
0
230
1
3
Standard
100
AcDbAlignedDimension
13
-26.547
23
1.5
33
0
14
23.453
24
1.45
34
0
50
0
100
AcDbRotatedDimension
1001
ACAD
1000
DSTYLE
1002
{
1070
   371
1070
    13
1070
   372
1070
    13
1070
     3
1000

1070
   170
1070
     0
1070
   144
1040
1.0
1070
   277
1070
     2
1070
   284
1070
     8
1070
   278
1070
    46
1070
   146
1040
1.0
1070
   345
1005
16
1070
   347
1005
16
1070
   346
1005
16
1070
   344
1005
0
1070
   343
1005
0
1070
   172
1070
     1
1070
    76
1070
     0
1070
    75
1070
     0
1070
   282
1070
     0
1070
   281
1070
     0
1070
    71
1070
     0
1070
    74
1070
     0
1070
   279
1070
     0
1070
   173
1070
     1
1070
   340
1005
E8
1070
   271
1070
     2
1070
   272
1070
     2
1070
    77
1070
     1
1070
    73
1070
     1
1070
   171
1070
     3
1070
   274
1070
     4
1070
   177
1070
     2
1070
   176
1070
     2
1070
   178
1070
     2
1070
    78
1070
     8
1070
    48
1040
-0.1
1070
    41
1040
3.5
1070
   147
1040
1.75
1070
    42
1040
1.5875
1070
    44
1040
2.0
1070
   140
1040
3.5
1002
}
1001
ACAD_DSTYLE_DIM_LINETYPE
1070
   380
1005
16
1001
ACAD_DSTYLE_DIM_EXT1_LINETYPE
1070
   381
1005
16
1001
ACAD_DSTYLE_DIM_EXT2_LINETYPE
1070
   382
1005
16
0
ENDSEC
0
SECTION
2
OBJECTS
0
DICTIONARY
5
1ef
330
0
100
AcDbDictionary
280
0
281
1
3
ACAD_GROUP
350
1f0
3
ACAD_MLINESTYLE
350
1f1
0
DICTIONARY
5
1f0
330
0
100
AcDbDictionary
280
0
281
1
0
DICTIONARY
5
1f1
330
0
100
AcDbDictionary
280
0
281
1
3
Standard
350
18
0
MLINESTYLE
5
18
330
1f1
100
AcDbMlineStyle
2
Standard
70
0
3

62
256
51
90
52
90
71
2
49
-0.5
62
256
6
ByLayer
49
0.5
62
256
6
ByLayer
0
RASTERVARIABLES
5
1dd
330

100
AcDbRasterVariables
90
0
70
1
71
1
72
1
0
ENDSEC
0
EOF
