0
SECTION
2
HEADER
9
$ACADVER
1
AC1015
9
$DWGCODEPAGE
3
ANSI_1252
9
$HANDSEED
5
209
9
$ANGBASE
50
0
9
$ANGDIR
70
0
9
$ATTMODE
70
1
9
$AUNITS
70
0
9
$AUPREC
70
0
9
$CECOLOR
62
256
9
$CELTSCALE
40
1
9
$CELTYPE
6
ByLayer
9
$CELWEIGHT
370
18
9
$CLAYER
8
0
9
$CMLJUST
70
0
9
$CMLSCALE
40
1
9
$CMLSTYLE
2
Standard
9
$DIMSTYLE
2
Standard
9
$TEXTSIZE
40
0.2
9
$TEXTSTYLE
7
Standard
9
$LUNITS
70
2
9
$LUPREC
70
4
9
$EXTNAMES
290
1
9
$INSUNITS
70
4
9
$LTSCALE
40
1
9
$LWDISPLAY
290
1
9
$PDMODE
70
0
9
$PDSIZE
40
0
9
$PLINEGEN
70
0
0
ENDSEC
0
SECTION
2
CLASSES
0
CLASS
1
RASTERVARIABLES
2
AcDbRasterVariables
3
ISM
90
0
280
0
281
0
0
ENDSEC
0
SECTION
2
TABLES
0
TABLE
2
VPORT
5
1ff
100
AcDbSymbolTable
0
VPORT
5
1
100
AcDbSymbolTableRecord
100
AcDbViewportTableRecord
2
*Active
70
0
10
0
20
0
11
1
21
1
12
-1
22
1
13
0
23
0
14
0.5
24
0.5
15
10
25
10
16
0
26
0
36
1
17
0
27
0
37
0
0
ENDTAB
0
TABLE
2
LTYPE
5
200
100
AcDbSymbolTable
0
LTYPE
5
14
100
AcDbSymbolTableRecord
100
AcDbLinetypeTableRecord
70
0
2
ByBlock
3

72
65
73
0
40
0
0
LTYPE
5
15
100
AcDbSymbolTableRecord
100
AcDbLinetypeTableRecord
70
0
2
ByLayer
3

72
65
73
0
40
0
0
LTYPE
5
16
100
AcDbSymbolTableRecord
100
AcDbLinetypeTableRecord
70
0
2
Continuous
3
Solid line
72
65
73
0
40
0
0
LTYPE
5
6E
100
AcDbSymbolTableRecord
100
AcDbLinetypeTableRecord
70
0
2
CENTER
3
____ _ ____ _ ____ _ ____
72
65
73
4
40
47.5
49
22
74
0
49
-8.5
74
0
49
8.5
74
0
49
-8.5
74
0
0
LTYPE
5
6F
100
AcDbSymbolTableRecord
100
AcDbLinetypeTableRecord
70
0
2
DASHED
3
__ __ __ __ __ __ __ __ __
72
65
73
2
40
25.72
49
12.86
74
0
49
-12.86
74
0
0
ENDTAB
0
TABLE
2
LAYER
5
201
100
AcDbSymbolTable
0
LAYER
5
10
100
AcDbSymbolTableRecord
100
AcDbLayerTableRecord
2
0
70
0
62
7
6
Continuous
290
1
370
-3
390
0
0
LAYER
5
71
100
AcDbSymbolTableRecord
100
AcDbLayerTableRecord
2
80
70
0
62
-6
6
Continuous
290
1
370
-3
390
0
0
LAYER
5
73
100
AcDbSymbolTableRecord
100
AcDbLayerTableRecord
2
81
70
0
62
-3
6
Continuous
290
1
370
-3
390
0
0
LAYER
5
75
100
AcDbSymbolTableRecord
100
AcDbLayerTableRecord
2
1
70
0
62
4
6
Continuous
290
1
370
-3
390
0
0
LAYER
5
81
100
AcDbSymbolTableRecord
100
AcDbLayerTableRecord
2
4
70
0
62
-2
6
CENTER
290
1
370
-3
390
0
0
LAYER
5
A6
100
AcDbSymbolTableRecord
100
AcDbLayerTableRecord
2
2
70
0
62
7
6
Continuous
290
1
370
-3
390
0
0
LAYER
5
112
100
AcDbSymbolTableRecord
100
AcDbLayerTableRecord
2
Defpoints
70
0
62
7
6
Continuous
290
0
370
-3
390
0
0
LAYER
5
1eb
100
AcDbSymbolTableRecord
100
AcDbLayerTableRecord
2
SK4
70
0
62
2
6
CENTER
290
1
370
-3
390
0
0
LAYER
5
1ec
100
AcDbSymbolTableRecord
100
AcDbLayerTableRecord
2
SK1
70
0
62
4
6
Continuous
290
1
370
-3
390
0
0
LAYER
5
1ed
100
AcDbSymbolTableRecord
100
AcDbLayerTableRecord
2
SK2
70
0
62
7
6
Continuous
290
1
370
-3
390
0
0
LAYER
5
1ee
100
AcDbSymbolTableRecord
100
AcDbLayerTableRecord
2
SK6
70
0
62
5
6
Continuous
290
1
370
-3
390
0
0
ENDTAB
0
TABLE
2
STYLE
5
202
100
AcDbSymbolTable
0
STYLE
5
11
100
AcDbSymbolTableRecord
100
AcDbTextStyleTableRecord
2
Standard
3
txt
70
0
71
0
40
0
41
1
42
0
50
0
0
STYLE
5
F6
100
AcDbSymbolTableRecord
100
AcDbTextStyleTableRecord
2
iso_b_vert
3
simplex.shx
70
0
71
0
40
0
41
1
42
0
50
0
0
STYLE
5
F7
100
AcDbSymbolTableRecord
100
AcDbTextStyleTableRecord
2
DWGDirectTextStyle
3
simplex
70
0
71
0
40
0
41
1
42
0
50
0
0
ENDTAB
0
TABLE
2
DIMSTYLE
5
203
100
AcDbSymbolTable
100
AcDbDimStyleTable
0
DIMSTYLE
105
27
100
AcDbSymbolTableRecord
100
AcDbDimStyleTableRecord
2
Standard
70
0
3
<>
41
0.18
42
0.0625
44
0.18
140
0.18
147
0.09
73
0
74
0
77
1
271
2
275
0
278
52
280
0
340
11
0
ENDTAB
0
TABLE
2
VIEW
5
204
100
AcDbSymbolTable
0
ENDTAB
0
TABLE
2
UCS
5
205
100
AcDbSymbolTable
0
ENDTAB
0
TABLE
2
APPID
5
206
100
AcDbSymbolTable
0
APPID
5
12
100
AcDbSymbolTableRecord
100
AcDbRegAppTableRecord
2
ACAD
70
0
0
APPID
5
10E
100
AcDbSymbolTableRecord
100
AcDbRegAppTableRecord
2
ACAD_DSTYLE_DIMBREAK
70
0
0
APPID
5
1AA
100
AcDbSymbolTableRecord
100
AcDbRegAppTableRecord
2
ACAD_DSTYLE_DIM_LINETYPE
70
0
0
APPID
5
1AB
100
AcDbSymbolTableRecord
100
AcDbRegAppTableRecord
2
ACAD_DSTYLE_DIM_EXT1_LINETYPE
70
0
0
APPID
5
1AC
100
AcDbSymbolTableRecord
100
AcDbRegAppTableRecord
2
ACAD_DSTYLE_DIM_EXT2_LINETYPE
70
0
0
APPID
5
1E7
100
AcDbSymbolTableRecord
100
AcDbRegAppTableRecord
2
ACAD_MLEADERVER
70
0
0
ENDTAB
0
TABLE
2
BLOCK_RECORD
5
207
100
AcDbSymbolTable
0
BLOCK_RECORD
5
1F
100
AcDbSymbolTableRecord
100
AcDbBlockTableRecord
2
*Model_Space
340
0
70
0
0
BLOCK_RECORD
5
1B
100
AcDbSymbolTableRecord
100
AcDbBlockTableRecord
2
*Paper_Space
340
0
70
0
0
BLOCK_RECORD
5
23
100
AcDbSymbolTableRecord
100
AcDbBlockTableRecord
2
*Paper_Space0
340
0
70
0
0
BLOCK_RECORD
5
113
100
AcDbSymbolTableRecord
100
AcDbBlockTableRecord
2
*D1
340
0
70
0
0
BLOCK_RECORD
5
11F
100
AcDbSymbolTableRecord
100
AcDbBlockTableRecord
2
_U0
340
0
70
0
0
BLOCK_RECORD
5
12B
100
AcDbSymbolTableRecord
100
AcDbBlockTableRecord
2
*D3
340
0
70
0
0
BLOCK_RECORD
5
137
100
AcDbSymbolTableRecord
100
AcDbBlockTableRecord
2
_U1
340
0
70
0
0
BLOCK_RECORD
5
143
100
AcDbSymbolTableRecord
100
AcDbBlockTableRecord
2
*D5
340
0
70
0
0
BLOCK_RECORD
5
150
100
AcDbSymbolTableRecord
100
AcDbBlockTableRecord
2
_U2
340
0
70
0
0
BLOCK_RECORD
5
15C
100
AcDbSymbolTableRecord
100
AcDbBlockTableRecord
2
*D7
340
0
70
0
0
BLOCK_RECORD
5
169
100
AcDbSymbolTableRecord
100
AcDbBlockTableRecord
2
_U3
340
0
70
0
0
BLOCK_RECORD
5
175
100
AcDbSymbolTableRecord
100
AcDbBlockTableRecord
2
*D9
340
0
70
0
0
BLOCK_RECORD
5
181
100
AcDbSymbolTableRecord
100
AcDbBlockTableRecord
2
_U4
340
0
70
0
0
ENDTAB
0
ENDSEC
0
SECTION
2
BLOCKS
0
BLOCK
5
20
100
AcDbEntity
8
0
100
AcDbBlockBegin
2
*Model_Space
70
0
10
0
20
0
30
0
3
*Model_Space
0
ENDBLK
5
21
100
AcDbEntity
8
0
100
AcDbBlockEnd
0
BLOCK
5
1C
100
AcDbEntity
8
0
100
AcDbBlockBegin
2
*Paper_Space
70
0
10
0
20
0
30
0
3
*Paper_Space
0
ENDBLK
5
1D
100
AcDbEntity
8
0
100
AcDbBlockEnd
0
BLOCK
5
24
100
AcDbEntity
8
0
100
AcDbBlockBegin
2
*Paper_Space0
70
0
10
0
20
0
30
0
3
*Paper_Space0
0
ENDBLK
5
25
100
AcDbEntity
8
0
100
AcDbBlockEnd
0
BLOCK
5
114
100
AcDbEntity
8
0
100
AcDbBlockBegin
2
*D1
70
1
10
0
20
0
30
0
3
*D1
0
LINE
5
116
100
AcDbEntity
8
0
62
256
6
ByLayer
370
-2
48
1
60
0
100
AcDbLine
10
0
20
0.0875
30
0
11
0
21
23.85
31
0
39
0
210
0
220
0
230
1
0
LINE
5
117
100
AcDbEntity
8
0
62
256
6
ByLayer
370
-2
48
1
60
0
100
AcDbLine
10
30.367
20
0.1875
30
0
11
30.367
21
23.85
31
0
39
0
210
0
220
0
230
1
0
LINE
5
118
100
AcDbEntity
8
0
62
256
6
ByLayer
370
-2
48
1
60
0
100
AcDbLine
10
3.5
20
21.85
30
0
11
26.867
21
21.85
31
0
39
0
210
0
220
0
230
1
0
SOLID
5
119
100
AcDbEntity
8
0
62
256
6
ByLayer
370
-1
48
1
60
0
100
AcDbTrace
10
3.5
20
22.433333
30
0
11
3.5
21
21.266667
31
0
12
0
22
21.85
32
0
13
0
23
21.85
33
0
39
0
210
0
220
0
230
1
0
SOLID
5
11A
100
AcDbEntity
8
0
62
256
6
ByLayer
370
-1
48
1
60
0
100
AcDbTrace
10
26.867
20
21.266667
30
0
11
26.867
21
22.433333
31
0
12
30.367
22
21.85
32
0
13
30.367
23
21.85
33
0
39
0
210
0
220
0
230
1
0
MTEXT
5
11B
100
AcDbEntity
8
0
62
256
6
ByLayer
370
18
48
1
60
0
100
AcDbMText
10
21.597932
20
28.85
30
0
210
0
220
0
230
1
1
\A1;30.37
40
3.5
41
0
44
1
50
0
71
5
72
5
7
iso_b_vert
0
POINT
5
11C
100
AcDbEntity
8
Defpoints
62
0
6
ByLayer
370
-1
48
1
60
0
100
AcDbPoint
10
0
20
-1.5
30
0
39
0
210
0
220
0
230
1
50
360
0
POINT
5
11D
100
AcDbEntity
8
Defpoints
62
0
6
ByLayer
370
-1
48
1
60
0
100
AcDbPoint
10
30.367
20
-1.4
30
0
39
0
210
0
220
0
230
1
50
360
0
POINT
5
11E
100
AcDbEntity
8
Defpoints
62
0
6
ByLayer
370
-1
48
1
60
0
100
AcDbPoint
10
30.367
20
21.85
30
0
39
0
210
0
220
0
230
1
50
360
0
ENDBLK
5
115
100
AcDbEntity
8
0
100
AcDbBlockEnd
0
BLOCK
5
126
100
AcDbEntity
8
0
100
AcDbBlockBegin
2
_U0
70
0
10
0
20
0
30
0
3
_U0
0
MTEXT
5
120
100
AcDbEntity
8
2
62
256
6
ByLayer
370
18
48
1
60
0
100
AcDbMText
10
16.3685
20
22.882634
30
0
210
0
220
0
230
1
1
\W0.7468;30.37
40
3.5
41
0
44
1.084337
50
0
71
7
72
5
7
iso_b_vert
0
LINE
5
121
100
AcDbEntity
8
2
62
256
6
ByLayer
370
13
48
1
60
0
100
AcDbLine
10
0
20
0.0875
30
0
11
0
21
23.85
31
0
39
0
210
0
220
0
230
1
0
LINE
5
122
100
AcDbEntity
8
2
62
256
6
ByLayer
370
13
48
1
60
0
100
AcDbLine
10
30.367
20
0.1875
30
0
11
30.367
21
23.85
31
0
39
0
210
0
220
0
230
1
0
LINE
5
123
100
AcDbEntity
8
2
62
256
6
ByLayer
370
13
48
1
60
0
100
AcDbLine
10
0
20
21.85
30
0
11
30.367
21
21.85
31
0
39
0
210
0
220
0
230
1
0
SOLID
5
124
100
AcDbEntity
8
2
62
256
6
ByLayer
370
18
48
1
60
0
100
AcDbTrace
10
0
20
21.85
30
0
11
3.499998
21
22.310784
31
0
12
3.500002
22
21.389216
32
0
13
3.500002
23
21.389216
33
0
39
0
210
0
220
0
230
1
0
SOLID
5
125
100
AcDbEntity
8
2
62
256
6
ByLayer
370
18
48
1
60
0
100
AcDbTrace
10
30.367
20
21.85
30
0
11
26.867002
21
21.389216
31
0
12
26.866998
22
22.310784
32
0
13
26.866998
23
22.310784
33
0
39
0
210
0
220
0
230
1
0
ENDBLK
5
127
100
AcDbEntity
8
0
100
AcDbBlockEnd
0
BLOCK
5
12C
100
AcDbEntity
8
0
100
AcDbBlockBegin
2
*D3
70
1
10
0
20
0
30
0
3
*D3
0
LINE
5
12E
100
AcDbEntity
8
0
62
256
6
ByLayer
370
-2
48
1
60
0
100
AcDbLine
10
-18.792
20
-3.0875
30
0
11
-18.792
21
-25.25
31
0
39
0
210
0
220
0
230
1
0
LINE
5
12F
100
AcDbEntity
8
0
62
256
6
ByLayer
370
-2
48
1
60
0
100
AcDbLine
10
0
20
-3.0875
30
0
11
0
21
-25.25
31
0
39
0
210
0
220
0
230
1
0
LINE
5
130
100
AcDbEntity
8
0
62
256
6
ByLayer
370
-2
48
1
60
0
100
AcDbLine
10
-15.292
20
-23.25
30
0
11
-3.5
21
-23.25
31
0
39
0
210
0
220
0
230
1
0
SOLID
5
131
100
AcDbEntity
8
0
62
256
6
ByLayer
370
-1
48
1
60
0
100
AcDbTrace
10
-15.292
20
-22.666667
30
0
11
-15.292
21
-23.833333
31
0
12
-18.792
22
-23.25
32
0
13
-18.792
23
-23.25
33
0
39
0
210
0
220
0
230
1
0
SOLID
5
132
100
AcDbEntity
8
0
62
256
6
ByLayer
370
-1
48
1
60
0
100
AcDbTrace
10
-3.5
20
-23.833333
30
0
11
-3.5
21
-22.666667
31
0
12
0
22
-23.25
32
0
13
0
23
-23.25
33
0
39
0
210
0
220
0
230
1
0
MTEXT
5
133
100
AcDbEntity
8
0
62
256
6
ByLayer
370
18
48
1
60
0
100
AcDbMText
10
-7.814501
20
-16.25
30
0
210
0
220
0
230
1
1
\A1;18.79
40
3.5
41
0
44
1
50
0
71
5
72
5
7
iso_b_vert
0
POINT
5
134
100
AcDbEntity
8
Defpoints
62
0
6
ByLayer
370
-1
48
1
60
0
100
AcDbPoint
10
-18.792
20
-1.5
30
0
39
0
210
0
220
0
230
1
50
360
0
POINT
5
135
100
AcDbEntity
8
Defpoints
62
0
6
ByLayer
370
-1
48
1
60
0
100
AcDbPoint
10
0
20
-1.5
30
0
39
0
210
0
220
0
230
1
50
360
0
POINT
5
136
100
AcDbEntity
8
Defpoints
62
0
6
ByLayer
370
-1
48
1
60
0
100
AcDbPoint
10
0
20
-23.25
30
0
39
0
210
0
220
0
230
1
50
360
0
ENDBLK
5
12D
100
AcDbEntity
8
0
100
AcDbBlockEnd
0
BLOCK
5
13E
100
AcDbEntity
8
0
100
AcDbBlockBegin
2
_U1
70
0
10
0
20
0
30
0
3
_U1
0
MTEXT
5
138
100
AcDbEntity
8
SK2
62
256
6
ByLayer
370
18
48
1
60
0
100
AcDbMText
10
-12.6065
20
-22.217366
30
0
210
0
220
0
230
1
1
\W0.6944;18.79
40
3.5
41
0
44
1.084337
50
0
71
7
72
5
7
iso_b_vert
0
LINE
5
139
100
AcDbEntity
8
SK2
62
256
6
ByLayer
370
13
48
1
60
0
100
AcDbLine
10
-18.792
20
-3.0875
30
0
11
-18.792
21
-25.25
31
0
39
0
210
0
220
0
230
1
0
LINE
5
13A
100
AcDbEntity
8
SK2
62
256
6
ByLayer
370
13
48
1
60
0
100
AcDbLine
10
0
20
-3.0875
30
0
11
0
21
-25.25
31
0
39
0
210
0
220
0
230
1
0
LINE
5
13B
100
AcDbEntity
8
SK2
62
256
6
ByLayer
370
13
48
1
60
0
100
AcDbLine
10
-18.792
20
-23.25
30
0
11
0
21
-23.25
31
0
39
0
210
0
220
0
230
1
0
SOLID
5
13C
100
AcDbEntity
8
SK2
62
256
6
ByLayer
370
18
48
1
60
0
100
AcDbTrace
10
-18.792
20
-23.25
30
0
11
-15.292002
21
-22.789216
31
0
12
-15.291998
22
-23.710784
32
0
13
-15.291998
23
-23.710784
33
0
39
0
210
0
220
0
230
1
0
SOLID
5
13D
100
AcDbEntity
8
SK2
62
256
6
ByLayer
370
18
48
1
60
0
100
AcDbTrace
10
0
20
-23.25
30
0
11
-3.499998
21
-23.710784
31
0
12
-3.500002
22
-22.789216
32
0
13
-3.500002
23
-22.789216
33
0
39
0
210
0
220
0
230
1
0
ENDBLK
5
13F
100
AcDbEntity
8
0
100
AcDbBlockEnd
0
BLOCK
5
144
100
AcDbEntity
8
0
100
AcDbBlockBegin
2
*D5
70
1
10
0
20
0
30
0
3
*D5
0
LINE
5
146
100
AcDbEntity
8
0
62
256
6
ByLayer
370
-2
48
1
60
0
100
AcDbLine
10
8.808
20
-2.9875
30
0
11
8.808
21
-18.65
31
0
39
0
210
0
220
0
230
1
0
LINE
5
147
100
AcDbEntity
8
0
62
256
6
ByLayer
370
-2
48
1
60
0
100
AcDbLine
10
31.208
20
-2.9875
30
0
11
31.208
21
-18.65
31
0
39
0
210
0
220
0
230
1
0
LINE
5
148
100
AcDbEntity
8
0
62
256
6
ByLayer
370
-2
48
1
60
0
100
AcDbLine
10
31.208
20
-16.65
30
0
11
56.166132
21
-16.65
31
0
39
0
210
0
220
0
230
1
0
LINE
5
149
100
AcDbEntity
8
0
62
256
6
ByLayer
370
-2
48
1
60
0
100
AcDbLine
10
12.308
20
-16.65
30
0
11
27.708
21
-16.65
31
0
39
0
210
0
220
0
230
1
0
SOLID
5
14A
100
AcDbEntity
8
0
62
256
6
ByLayer
370
-1
48
1
60
0
100
AcDbTrace
10
12.308
20
-16.066667
30
0
11
12.308
21
-17.233333
31
0
12
8.808
22
-16.65
32
0
13
8.808
23
-16.65
33
0
39
0
210
0
220
0
230
1
0
SOLID
5
14B
100
AcDbEntity
8
0
62
256
6
ByLayer
370
-1
48
1
60
0
100
AcDbTrace
10
27.708
20
-17.233333
30
0
11
27.708
21
-16.066667
31
0
12
31.208
22
-16.65
32
0
13
31.208
23
-16.65
33
0
39
0
210
0
220
0
230
1
0
MTEXT
5
14C
100
AcDbEntity
8
0
62
256
6
ByLayer
370
18
48
1
60
0
100
AcDbMText
10
45.499466
20
-9.65
30
0
210
0
220
0
230
1
1
\A1;22.4
40
3.5
41
0
44
1
50
0
71
5
72
5
7
iso_b_vert
0
POINT
5
14D
100
AcDbEntity
8
Defpoints
62
0
6
ByLayer
370
-1
48
1
60
0
100
AcDbPoint
10
8.808
20
-1.4
30
0
39
0
210
0
220
0
230
1
50
360
0
POINT
5
14E
100
AcDbEntity
8
Defpoints
62
0
6
ByLayer
370
-1
48
1
60
0
100
AcDbPoint
10
31.208
20
-1.4
30
0
39
0
210
0
220
0
230
1
50
360
0
POINT
5
14F
100
AcDbEntity
8
Defpoints
62
0
6
ByLayer
370
-1
48
1
60
0
100
AcDbPoint
10
31.208
20
-16.65
30
0
39
0
210
0
220
0
230
1
50
360
0
ENDBLK
5
145
100
AcDbEntity
8
0
100
AcDbBlockEnd
0
BLOCK
5
157
100
AcDbEntity
8
0
100
AcDbBlockBegin
2
_U2
70
0
10
0
20
0
30
0
3
_U2
0
MTEXT
5
151
100
AcDbEntity
8
SK2
62
256
6
ByLayer
370
18
48
1
60
0
100
AcDbMText
10
41.3935
20
-15.617366
30
0
210
0
220
0
230
1
1
\W0.7528;22.4
40
3.5
41
0
44
1.084337
50
0
71
7
72
5
7
iso_b_vert
0
LINE
5
152
100
AcDbEntity
8
SK2
62
256
6
ByLayer
370
13
48
1
60
0
100
AcDbLine
10
8.808
20
-2.9875
30
0
11
8.808
21
-18.65
31
0
39
0
210
0
220
0
230
1
0
LINE
5
153
100
AcDbEntity
8
SK2
62
256
6
ByLayer
370
13
48
1
60
0
100
AcDbLine
10
31.208
20
-2.9875
30
0
11
31.208
21
-18.65
31
0
39
0
210
0
220
0
230
1
0
LINE
5
154
100
AcDbEntity
8
SK2
62
256
6
ByLayer
370
13
48
1
60
0
100
AcDbLine
10
8.808
20
-16.65
30
0
11
49.790931
21
-16.65
31
0
39
0
210
0
220
0
230
1
0
SOLID
5
155
100
AcDbEntity
8
SK2
62
256
6
ByLayer
370
18
48
1
60
0
100
AcDbTrace
10
8.808
20
-16.65
30
0
11
12.307998
21
-16.189216
31
0
12
12.308002
22
-17.110784
32
0
13
12.308002
23
-17.110784
33
0
39
0
210
0
220
0
230
1
0
SOLID
5
156
100
AcDbEntity
8
SK2
62
256
6
ByLayer
370
18
48
1
60
0
100
AcDbTrace
10
31.208
20
-16.65
30
0
11
27.708002
21
-17.110784
31
0
12
27.707998
22
-16.189216
32
0
13
27.707998
23
-16.189216
33
0
39
0
210
0
220
0
230
1
0
ENDBLK
5
158
100
AcDbEntity
8
0
100
AcDbBlockEnd
0
BLOCK
5
15D
100
AcDbEntity
8
0
100
AcDbBlockBegin
2
*D7
70
1
10
0
20
0
30
0
3
*D7
0
LINE
5
15F
100
AcDbEntity
8
0
62
256
6
ByLayer
370
-2
48
1
60
0
100
AcDbLine
10
3.958
20
-2.9875
30
0
11
3.958
21
-28.65
31
0
39
0
210
0
220
0
230
1
0
LINE
5
160
100
AcDbEntity
8
0
62
256
6
ByLayer
370
-2
48
1
60
0
100
AcDbLine
10
31.208
20
-2.9875
30
0
11
31.208
21
-28.65
31
0
39
0
210
0
220
0
230
1
0
LINE
5
161
100
AcDbEntity
8
0
62
256
6
ByLayer
370
-2
48
1
60
0
100
AcDbLine
10
31.208
20
-26.65
30
0
11
59.208
21
-26.65
31
0
39
0
210
0
220
0
230
1
0
LINE
5
162
100
AcDbEntity
8
0
62
256
6
ByLayer
370
-2
48
1
60
0
100
AcDbLine
10
7.458
20
-26.65
30
0
11
27.708
21
-26.65
31
0
39
0
210
0
220
0
230
1
0
SOLID
5
163
100
AcDbEntity
8
0
62
256
6
ByLayer
370
-1
48
1
60
0
100
AcDbTrace
10
7.458
20
-26.066667
30
0
11
7.458
21
-27.233333
31
0
12
3.958
22
-26.65
32
0
13
3.958
23
-26.65
33
0
39
0
210
0
220
0
230
1
0
SOLID
5
164
100
AcDbEntity
8
0
62
256
6
ByLayer
370
-1
48
1
60
0
100
AcDbTrace
10
27.708
20
-27.233333
30
0
11
27.708
21
-26.066667
31
0
12
31.208
22
-26.65
32
0
13
31.208
23
-26.65
33
0
39
0
210
0
220
0
230
1
0
MTEXT
5
165
100
AcDbEntity
8
0
62
256
6
ByLayer
370
18
48
1
60
0
100
AcDbMText
10
46.958
20
-19.65
30
0
210
0
220
0
230
1
1
\A1;27.25
40
3.5
41
0
44
1
50
0
71
5
72
5
7
iso_b_vert
0
POINT
5
166
100
AcDbEntity
8
Defpoints
62
0
6
ByLayer
370
-1
48
1
60
0
100
AcDbPoint
10
3.958
20
-1.4
30
0
39
0
210
0
220
0
230
1
50
360
0
POINT
5
167
100
AcDbEntity
8
Defpoints
62
0
6
ByLayer
370
-1
48
1
60
0
100
AcDbPoint
10
31.208
20
-1.4
30
0
39
0
210
0
220
0
230
1
50
360
0
POINT
5
168
100
AcDbEntity
8
Defpoints
62
0
6
ByLayer
370
-1
48
1
60
0
100
AcDbPoint
10
31.208
20
-26.65
30
0
39
0
210
0
220
0
230
1
50
360
0
ENDBLK
5
15E
100
AcDbEntity
8
0
100
AcDbBlockEnd
0
BLOCK
5
170
100
AcDbEntity
8
0
100
AcDbBlockBegin
2
_U3
70
0
10
0
20
0
30
0
3
_U3
0
MTEXT
5
16A
100
AcDbEntity
8
SK2
62
256
6
ByLayer
370
18
48
1
60
0
100
AcDbMText
10
41.3935
20
-25.617366
30
0
210
0
220
0
230
1
1
\W0.7468;27.25
40
3.5
41
0
44
1.084337
50
0
71
7
72
5
7
iso_b_vert
0
LINE
5
16B
100
AcDbEntity
8
SK2
62
256
6
ByLayer
370
13
48
1
60
0
100
AcDbLine
10
3.958
20
-2.9875
30
0
11
3.958
21
-28.65
31
0
39
0
210
0
220
0
230
1
0
LINE
5
16C
100
AcDbEntity
8
SK2
62
256
6
ByLayer
370
13
48
1
60
0
100
AcDbLine
10
31.208
20
-2.9875
30
0
11
31.208
21
-28.65
31
0
39
0
210
0
220
0
230
1
0
LINE
5
16D
100
AcDbEntity
8
SK2
62
256
6
ByLayer
370
13
48
1
60
0
100
AcDbLine
10
3.958
20
-26.65
30
0
11
52.037864
21
-26.65
31
0
39
0
210
0
220
0
230
1
0
SOLID
5
16E
100
AcDbEntity
8
SK2
62
256
6
ByLayer
370
18
48
1
60
0
100
AcDbTrace
10
3.958
20
-26.65
30
0
11
7.457998
21
-26.189216
31
0
12
7.458002
22
-27.110784
32
0
13
7.458002
23
-27.110784
33
0
39
0
210
0
220
0
230
1
0
SOLID
5
16F
100
AcDbEntity
8
SK2
62
256
6
ByLayer
370
18
48
1
60
0
100
AcDbTrace
10
31.208
20
-26.65
30
0
11
27.708002
21
-27.110784
31
0
12
27.707998
22
-26.189216
32
0
13
27.707998
23
-26.189216
33
0
39
0
210
0
220
0
230
1
0
ENDBLK
5
171
100
AcDbEntity
8
0
100
AcDbBlockEnd
0
BLOCK
5
176
100
AcDbEntity
8
0
100
AcDbBlockBegin
2
*D9
70
1
10
0
20
0
30
0
3
*D9
0
LINE
5
178
100
AcDbEntity
8
0
62
256
6
ByLayer
370
-2
48
1
60
0
100
AcDbLine
10
-18.792
20
-0.0875
30
0
11
-18.792
21
-39.109404
31
0
39
0
210
0
220
0
230
1
0
LINE
5
179
100
AcDbEntity
8
0
62
256
6
ByLayer
370
-2
48
1
60
0
100
AcDbLine
10
31.208
20
-0.1875
30
0
11
31.208
21
-39.109404
31
0
39
0
210
0
220
0
230
1
0
LINE
5
17A
100
AcDbEntity
8
0
62
256
6
ByLayer
370
-2
48
1
60
0
100
AcDbLine
10
-15.292
20
-37.109404
30
0
11
27.708
21
-37.109404
31
0
39
0
210
0
220
0
230
1
0
SOLID
5
17B
100
AcDbEntity
8
0
62
256
6
ByLayer
370
-1
48
1
60
0
100
AcDbTrace
10
-15.292
20
-36.52607
30
0
11
-15.292
21
-37.692737
31
0
12
-18.792
22
-37.109404
32
0
13
-18.792
23
-37.109404
33
0
39
0
210
0
220
0
230
1
0
SOLID
5
17C
100
AcDbEntity
8
0
62
256
6
ByLayer
370
-1
48
1
60
0
100
AcDbTrace
10
27.708
20
-37.692737
30
0
11
27.708
21
-36.52607
31
0
12
31.208
22
-37.109404
32
0
13
31.208
23
-37.109404
33
0
39
0
210
0
220
0
230
1
0
MTEXT
5
17D
100
AcDbEntity
8
0
62
256
6
ByLayer
370
18
48
1
60
0
100
AcDbMText
10
6.208
20
-30.109404
30
0
210
0
220
0
230
1
1
\A1;50
40
3.5
41
0
44
1
50
0
71
5
72
5
7
iso_b_vert
0
POINT
5
17E
100
AcDbEntity
8
Defpoints
62
0
6
ByLayer
370
-1
48
1
60
0
100
AcDbPoint
10
-18.792
20
1.5
30
0
39
0
210
0
220
0
230
1
50
360
0
POINT
5
17F
100
AcDbEntity
8
Defpoints
62
0
6
ByLayer
370
-1
48
1
60
0
100
AcDbPoint
10
31.208
20
1.4
30
0
39
0
210
0
220
0
230
1
50
360
0
POINT
5
180
100
AcDbEntity
8
Defpoints
62
0
6
ByLayer
370
-1
48
1
60
0
100
AcDbPoint
10
31.208
20
-37.109404
30
0
39
0
210
0
220
0
230
1
50
360
0
ENDBLK
5
177
100
AcDbEntity
8
0
100
AcDbBlockEnd
0
BLOCK
5
18A
100
AcDbEntity
8
0
100
AcDbBlockBegin
2
_U4
70
0
10
0
20
0
30
0
3
_U4
0
MTEXT
5
182
100
AcDbEntity
8
SK2
62
256
6
ByLayer
370
18
48
1
60
0
100
AcDbMText
10
0.978568
20
-36.07677
30
0
210
0
220
0
230
1
1
\W0.7468;50.00
40
3.5
41
0
44
1.084337
50
0
71
7
72
5
7
iso_b_vert
0
MTEXT
5
183
100
AcDbEntity
8
SK2
62
256
6
ByLayer
370
18
48
1
60
0
100
AcDbMText
10
-2.889431
20
-36.07677
30
0
210
0
220
0
230
1
1
\W0.1790;(
40
3.5
41
0
44
1.084337
50
0
71
7
72
5
7
iso_b_vert
0
MTEXT
5
184
100
AcDbEntity
8
SK2
62
256
6
ByLayer
370
18
48
1
60
0
100
AcDbMText
10
15.308432
20
-36.07677
30
0
210
0
220
0
230
1
1
\W0.1969;)
40
3.5
41
0
44
1.084337
50
0
71
7
72
5
7
iso_b_vert
0
LINE
5
185
100
AcDbEntity
8
SK2
62
256
6
ByLayer
370
13
48
1
60
0
100
AcDbLine
10
-18.792
20
-0.0875
30
0
11
-18.792
21
-39.109404
31
0
39
0
210
0
220
0
230
1
0
LINE
5
186
100
AcDbEntity
8
SK2
62
256
6
ByLayer
370
13
48
1
60
0
100
AcDbLine
10
31.208
20
-0.1875
30
0
11
31.208
21
-39.109404
31
0
39
0
210
0
220
0
230
1
0
LINE
5
187
100
AcDbEntity
8
SK2
62
256
6
ByLayer
370
13
48
1
60
0
100
AcDbLine
10
-18.792
20
-37.109404
30
0
11
31.208
21
-37.109404
31
0
39
0
210
0
220
0
230
1
0
SOLID
5
188
100
AcDbEntity
8
SK2
62
256
6
ByLayer
370
18
48
1
60
0
100
AcDbTrace
10
-18.792
20
-37.109404
30
0
11
-15.292002
21
-36.64862
31
0
12
-15.291998
22
-37.570187
32
0
13
-15.291998
23
-37.570187
33
0
39
0
210
0
220
0
230
1
0
SOLID
5
189
100
AcDbEntity
8
SK2
62
256
6
ByLayer
370
18
48
1
60
0
100
AcDbTrace
10
31.208
20
-37.109404
30
0
11
27.708002
21
-37.570187
31
0
12
27.707998
22
-36.64862
32
0
13
27.707998
23
-36.64862
33
0
39
0
210
0
220
0
230
1
0
ENDBLK
5
18B
100
AcDbEntity
8
0
100
AcDbBlockEnd
0
ENDSEC
0
SECTION
2
ENTITIES
0
ELLIPSE
5
B9
100
AcDbEntity
8
SK1
62
256
6
ByLayer
370
18
48
1
60
0
100
AcDbEllipse
10
31.180403
20
-0.062966
30
0
11
0.0237049370515789
21
0.0422353960896055
31
0
210
0
220
0
230
1
40
0.065341
41
1.2162076050907
42
2.26340515632575
0
ELLIPSE
5
BA
100
AcDbEntity
8
SK1
62
256
6
ByLayer
370
18
48
1
60
0
100
AcDbEllipse
10
31.180403
20
0.062966
30
0
11
0.0237049370553221
21
-0.0422353960959737
31
0
210
0
220
0
230
1
40
0.065341
41
-2.26340515625929
42
-1.21620760519667
0
ELLIPSE
5
BB
100
AcDbEntity
8
SK1
62
256
6
ByLayer
370
13
48
1
60
0
100
AcDbEllipse
10
6.771412
20
-1.314095
30
0
11
0.0158769948321992
21
-0.0474122456238715
31
0
210
0
220
0
230
1
40
0.572289
41
-2.74624056424971
42
-2.16052946226864
0
ELLIPSE
5
BC
100
AcDbEntity
8
SK1
62
256
6
ByLayer
370
13
48
1
60
0
100
AcDbEllipse
10
6.872236
20
-1.308507
30
0
11
-0.00924032566860233
21
-0.0491387462349028
31
0
210
0
220
0
230
1
40
0.467057
41
-2.76301645077792
42
-1.25663559658621
0
ELLIPSE
5
BD
100
AcDbEntity
8
SK1
62
256
6
ByLayer
370
18
48
1
60
0
100
AcDbEllipse
10
4.388598
20
-0.000412
30
0
11
0.754237339956789
21
-1.33282020472119
31
0
210
0
220
0
230
1
40
0.476193
41
2.27763396458365
42
2.87880318607029
0
ELLIPSE
5
BE
100
AcDbEntity
8
SK1
62
256
6
ByLayer
370
18
48
1
60
0
100
AcDbEllipse
10
31.208391
20
0.000616
30
0
11
0.85228789683854
21
1.39714682441641
31
0
210
0
220
0
230
1
40
0.104823
41
-3.07784024874793
42
-2.88203117048579
0
ELLIPSE
5
BF
100
AcDbEntity
8
SK1
62
256
6
ByLayer
370
18
48
1
60
0
100
AcDbEllipse
10
31.209005
20
0.000616
30
0
11
1.23839727525409
21
1.2589151897524
31
0
210
0
220
0
230
1
40
0.494576
41
-2.73979827054869
42
-2.68936658236336
0
ELLIPSE
5
C0
100
AcDbEntity
8
SK1
62
256
6
ByLayer
370
18
48
1
60
0
100
AcDbEllipse
10
4.388598
20
0.000412
30
0
11
0.754237339956783
21
1.3328202047212
31
0
210
0
220
0
230
1
40
0.476193
41
1.97553780798869
42
-2.27763396457658
0
ELLIPSE
5
C1
100
AcDbEntity
8
SK1
62
256
6
ByLayer
370
18
48
1
60
0
100
AcDbEllipse
10
31.208391
20
-0.000616
30
0
11
0.85228789775326
21
-1.39714682597866
31
0
210
0
220
0
230
1
40
0.104823
41
2.88203117063195
42
3.07784024878421
0
POINT
5
70
100
AcDbEntity
8
80
62
256
6
ByLayer
370
18
48
1
60
0
100
AcDbPoint
10
0
20
0
30
0
39
0
210
0
220
0
230
1
50
360
0
POINT
5
72
100
AcDbEntity
8
81
62
256
6
ByLayer
370
18
48
1
60
0
100
AcDbPoint
10
31.208
20
0
30
0
39
0
210
0
220
0
230
1
50
360
0
POINT
5
74
100
AcDbEntity
8
1
62
256
6
ByLayer
370
18
48
1
60
0
100
AcDbPoint
10
-18.792
20
0
30
0
39
0
210
0
220
0
230
1
50
360
0
POINT
5
76
100
AcDbEntity
8
1
62
256
6
ByLayer
370
18
48
1
60
1
100
AcDbPoint
10
0
20
-1.5
30
0
39
0
210
0
220
0
230
1
50
360
0
POINT
5
77
100
AcDbEntity
8
1
62
256
6
ByLayer
370
18
48
1
60
1
100
AcDbPoint
10
30.367
20
-1.4
30
0
39
0
210
0
220
0
230
1
50
360
0
POINT
5
78
100
AcDbEntity
8
1
62
256
6
ByLayer
370
18
48
1
60
1
100
AcDbPoint
10
-18.792
20
-1.5
30
0
39
0
210
0
220
0
230
1
50
360
0
POINT
5
79
100
AcDbEntity
8
1
62
256
6
ByLayer
370
18
48
1
60
1
100
AcDbPoint
10
0
20
-1.5
30
0
39
0
210
0
220
0
230
1
50
360
0
POINT
5
7A
100
AcDbEntity
8
1
62
256
6
ByLayer
370
18
48
1
60
1
100
AcDbPoint
10
8.808
20
-1.4
30
0
39
0
210
0
220
0
230
1
50
360
0
POINT
5
7B
100
AcDbEntity
8
1
62
256
6
ByLayer
370
18
48
1
60
1
100
AcDbPoint
10
31.208
20
-1.4
30
0
39
0
210
0
220
0
230
1
50
360
0
POINT
5
7C
100
AcDbEntity
8
1
62
256
6
ByLayer
370
18
48
1
60
1
100
AcDbPoint
10
3.958
20
-1.4
30
0
39
0
210
0
220
0
230
1
50
360
0
POINT
5
7D
100
AcDbEntity
8
1
62
256
6
ByLayer
370
18
48
1
60
1
100
AcDbPoint
10
31.208
20
-1.4
30
0
39
0
210
0
220
0
230
1
50
360
0
POINT
5
7E
100
AcDbEntity
8
1
62
256
6
ByLayer
370
18
48
1
60
1
100
AcDbPoint
10
-18.792
20
1.5
30
0
39
0
210
0
220
0
230
1
50
360
0
POINT
5
7F
100
AcDbEntity
8
1
62
256
6
ByLayer
370
18
48
1
60
1
100
AcDbPoint
10
31.208
20
1.4
30
0
39
0
210
0
220
0
230
1
50
360
0
SPLINE
5
C2
100
AcDbEntity
8
SK1
62
256
6
ByLayer
370
13
48
1
60
0
100
AcDbSpline
70
4
71
3
72
12
73
8
40
0
40
0
40
0
40
0
40
0.25
40
0.25
40
0.5
40
0.5
40
1
40
1
40
1
40
1
41
1
10
4.38139470772589
20
-1.13827861027397
30
0
41
1
10
4.30915747936029
20
-1.05862936029197
30
0
41
1
10
4.23677577838509
20
-0.979247844890125
30
0
41
1
10
4.09168313558774
20
-0.821094958529471
30
0
41
1
10
4.0189701132656
20
-0.742327243463052
30
0
41
1
10
3.80043738202005
20
-0.506758163714295
30
0
41
1
10
3.65424075298799
20
-0.350658900793434
30
0
41
1
10
3.50819257007387
20
-0.194283209206134
30
0
0
SPLINE
5
C3
100
AcDbEntity
8
SK1
62
256
6
ByLayer
370
13
48
1
60
0
100
AcDbSpline
70
4
71
3
72
8
73
4
40
0
40
0
40
0
40
0
40
1
40
1
40
1
40
1
41
1
10
6.74631013271758
20
-1.27383938591006
30
0
41
1
10
6.73903474166875
20
-1.2766114728567
30
0
41
1
10
6.73212246182979
20
-1.27955313083569
30
0
41
1
10
6.72553580802122
20
-1.28264177054183
30
0
0
SPLINE
5
C4
100
AcDbEntity
8
SK1
62
256
6
ByLayer
370
13
48
1
60
0
100
AcDbSpline
70
4
71
3
72
10
73
6
40
0
40
0
40
0
40
0
40
0.5
40
0.5
40
1
40
1
40
1
40
1
41
1
10
6.87233920357397
20
-1.26125253251874
30
0
41
1
10
6.85037161517988
20
-1.25805745599928
30
0
41
1
10
6.82879425464756
20
-1.25753886389796
30
0
41
1
10
6.78653954210111
20
-1.2616841636241
30
0
41
1
10
6.76572960992553
20
-1.26644013012898
30
0
41
1
10
6.74631013271758
20
-1.27383938591006
30
0
0
SPLINE
5
C5
100
AcDbEntity
8
SK1
62
256
6
ByLayer
370
13
48
1
60
0
100
AcDbSpline
70
4
71
3
72
31
73
27
40
0
40
0
40
0
40
0
40
0.125
40
0.125
40
0.1875
40
0.1875
40
0.25
40
0.25
40
0.375000000000001
40
0.375000000000001
40
0.437500000000001
40
0.468750000000001
40
0.468750000000001
40
0.500000000000001
40
0.500000000000001
40
0.625000000000001
40
0.625000000000001
40
0.750000000000001
40
0.750000000000001
40
0.781250000000001
40
0.781250000000001
40
0.812500000000001
40
0.812500000000001
40
0.875
40
0.875
40
1
40
1
40
1
40
1
41
1
10
6.87251537301273
20
-0.0687622021157495
30
0
41
1
10
6.87249628455024
20
-0.134998891880258
30
0
41
1
10
6.87247911397682
20
-0.20053003699158
30
0
41
1
10
6.87245700690019
20
-0.297522740752356
30
0
41
1
10
6.87245023596986
20
-0.329650129538237
30
0
41
1
10
6.87243793923028
20
-0.393491471876473
30
0
41
1
10
6.87243246741318
20
-0.424930855911754
30
0
41
1
10
6.87241802353347
20
-0.517554280677899
30
0
41
1
10
6.87241101718811
20
-0.577182543604692
30
0
41
1
10
6.8724036317999
20
-0.663486113295733
30
0
41
1
10
6.87240071307255
20
-0.705850017295035
30
0
41
1
10
6.87239873177148
20
-0.747010757686382
30
0
41
1
10
6.87239758860315
20
-0.774179362298327
30
0
41
1
10
6.87239710565723
20
-0.787646932954829
30
0
41
1
10
6.87239506399385
20
-0.853917457783751
30
0
41
1
10
6.87239463552407
20
-0.903726176671455
30
0
41
1
10
6.87239342651347
20
-0.996904337550205
30
0
41
1
10
6.87239264555112
20
-1.03971666161684
30
0
41
1
10
6.87238939128724
20
-1.08849206601806
30
0
41
1
10
6.87238862399423
20
-1.09801878004339
30
0
41
1
10
6.87238681219631
20
-1.11649858360172
30
0
41
1
10
6.87238576727276
20
-1.12546227464628
30
0
41
1
10
6.87238213822695
20
-1.15153402012609
30
0
41
1
10
6.87237906040608
20
-1.16782386143498
30
0
41
1
10
6.87236721858901
20
-1.21345229085384
30
0
41
1
10
6.8723558653777
20
-1.23956806050248
30
0
41
1
10
6.87233920357394
20
-1.26125253251874
30
0
0
SPLINE
5
C6
100
AcDbEntity
8
SK1
62
256
6
ByLayer
370
18
48
1
60
0
100
AcDbSpline
70
4
71
3
72
23
73
19
40
0
40
0
40
0
40
0
40
0.250000000000008
40
0.250000000000008
40
0.375000000000017
40
0.375000000000017
40
0.437500000000018
40
0.437500000000018
40
0.500000000000018
40
0.500000000000018
40
0.625000000000011
40
0.625000000000011
40
0.687500000000008
40
0.687500000000008
40
0.750000000000005
40
0.750000000000005
40
0.875000000000003
40
1
40
1
40
1
40
1
41
1
10
30.2883312648991
20
-1.35101028981734
30
0
41
1
10
30.2313275675276
20
-1.34302161213986
30
0
41
1
10
30.1779496300133
20
-1.32812137926604
30
0
41
1
10
30.1042723146059
20
-1.29359095965938
30
0
41
1
10
30.0807852287265
20
-1.280037297728
30
0
41
1
10
30.0473805866276
20
-1.25622604259019
30
0
41
1
10
30.0365496517511
20
-1.24769920685776
30
0
41
1
10
30.0157897974332
20
-1.22962486481407
30
0
41
1
10
30.0058274307297
20
-1.22005534925503
30
0
41
1
10
29.9772339646164
20
-1.18969755878018
30
0
41
1
10
29.9598914937936
20
-1.1672664214241
30
0
41
1
10
29.9367001860759
20
-1.1300214617435
30
0
41
1
10
29.9294413057317
20
-1.11700529271081
30
0
41
1
10
29.9159240749382
20
-1.08969738695888
30
0
41
1
10
29.9096430133281
20
-1.07534045534365
30
0
41
1
10
29.8926217482005
20
-1.03081237648118
30
0
41
1
10
29.874717027639
20
-0.967589725674486
30
0
41
1
10
29.8665157285554
20
-0.896564555532763
30
0
41
1
10
29.8649579729991
20
-0.85900722989939
30
0
0
SPLINE
5
C7
100
AcDbEntity
8
SK1
62
256
6
ByLayer
370
18
48
1
60
0
100
AcDbSpline
70
4
71
3
72
38
73
34
40
0
40
0
40
0
40
0
40
0.015624999999999
40
0.015624999999999
40
0.031249999999998
40
0.031249999999998
40
0.0624999999999958
40
0.0624999999999958
40
0.124999999999992
40
0.124999999999992
40
0.156249999999991
40
0.156249999999991
40
0.18749999999999
40
0.18749999999999
40
0.249999999999988
40
0.249999999999988
40
0.312499999999986
40
0.312499999999986
40
0.343749999999982
40
0.343749999999982
40
0.374999999999978
40
0.374999999999978
40
0.499999999999976
40
0.499999999999976
40
0.562499999999979
40
0.562499999999979
40
0.624999999999982
40
0.624999999999982
40
0.749999999999988
40
0.749999999999988
40
0.874999999999994
40
0.874999999999994
40
1
40
1
40
1
40
1
41
1
10
28.8022433030539
20
0.431457611271981
30
0
41
1
10
28.8014495108835
20
0.422473889751785
30
0
41
1
10
28.8008334431148
20
0.413419615728571
30
0
41
1
10
28.7999665478892
20
0.395166075672563
30
0
41
1
10
28.7997170737319
20
0.385965586851796
30
0
41
1
10
28.7995265681061
20
0.358451378008311
30
0
41
1
10
28.8001368349659
20
0.340123039347986
30
0
41
1
10
28.8040971143238
20
0.285179809477796
30
0
41
1
10
28.8095723552867
20
0.248606620975096
30
0
41
1
10
28.8217960457406
20
0.19382554149152
30
0
41
1
10
28.8265402022988
20
0.175578320884028
30
0
41
1
10
28.8373396198015
20
0.139109607068207
30
0
41
1
10
28.8433503376924
20
0.121047283018044
30
0
41
1
10
28.862931255311
20
0.0677222394662067
30
0
41
1
10
28.8780945715251
20
0.0331421040892508
30
0
41
1
10
28.9119991681537
20
-0.0343730105673217
30
0
41
1
10
28.9307434534172
20
-0.0673066082104015
30
0
41
1
10
28.961213079501
20
-0.115624998782351
30
0
41
1
10
28.971722772393
20
-0.131483696390802
30
0
41
1
10
28.9932549165194
20
-0.162559854125334
30
0
41
1
10
29.0042975105654
20
-0.177809281814348
30
0
41
1
10
29.0607672793025
20
-0.252744494291846
30
0
41
1
10
29.1099073173362
20
-0.308554556913322
30
0
41
1
10
29.1880070950979
20
-0.387687382042088
30
0
41
1
10
29.2147835409872
20
-0.413289205087324
30
0
41
1
10
29.2696601198557
20
-0.463111102666602
30
0
41
1
10
29.2975358067059
20
-0.487127812098038
30
0
41
1
10
29.3821959683719
20
-0.556777792970649
30
0
41
1
10
29.4400519371564
20
-0.600073259369083
30
0
41
1
10
29.5580011699884
20
-0.681705862030213
30
0
41
1
10
29.6181011890404
20
-0.720028027742075
30
0
41
1
10
29.7401815639117
20
-0.792505126251569
30
0
41
1
10
29.80216242446
20
-0.826658940460504
30
0
41
1
10
29.8649579729989
20
-0.85900722989939
30
0
0
SPLINE
5
C8
100
AcDbEntity
8
SK1
62
256
6
ByLayer
370
18
48
1
60
0
100
AcDbSpline
70
4
71
3
72
26
73
22
40
0
40
0
40
0
40
0
40
0.0625000000000189
40
0.0625000000000189
40
0.125000000000038
40
0.125000000000038
40
0.187500000000057
40
0.187500000000057
40
0.250000000000076
40
0.250000000000076
40
0.312500000000094
40
0.312500000000094
40
0.375000000000113
40
0.375000000000113
40
0.500000000000091
40
0.500000000000091
40
0.625000000000068
40
0.625000000000068
40
0.750000000000045
40
0.750000000000045
40
1
40
1
40
1
40
1
41
1
10
30.3127244223502
20
-1.39756380176865
30
0
41
1
10
30.3141429857522
20
-1.39599321621628
30
0
41
1
10
30.31550022335
20
-1.39434424243279
30
0
41
1
10
30.318031846404
20
-1.39082977169997
30
0
41
1
10
30.3192188700774
20
-1.38893644656721
30
0
41
1
10
30.3211814308812
20
-1.38505836566901
30
0
41
1
10
30.3219730866854
20
-1.38302444856967
30
0
41
1
10
30.3229719112105
20
-1.37913764075523
30
0
41
1
10
30.3231944323814
20
-1.37723268284992
30
0
41
1
10
30.3231400326084
20
-1.37378176102595
30
0
41
1
10
30.3228722064472
20
-1.37219932119618
30
0
41
1
10
30.3220353820037
20
-1.36937751359653
30
0
41
1
10
30.3214631669336
20
-1.36810868867116
30
0
41
1
10
30.319440811155
20
-1.36463373442754
30
0
41
1
10
30.3177400375914
20
-1.36280649533782
30
0
41
1
10
30.313976913728
20
-1.3596539642119
30
0
41
1
10
30.3118987595092
20
-1.35834163181843
30
0
41
1
10
30.3075771023355
20
-1.35610612396431
30
0
41
1
10
30.3053206220343
20
-1.35517614755926
30
0
41
1
10
30.2983465736928
20
-1.3527878909951
30
0
41
1
10
30.2934278337654
20
-1.35172453902885
30
0
41
1
10
30.2883312649003
20
-1.35101028981748
30
0
0
SPLINE
5
C9
100
AcDbEntity
8
SK1
62
256
6
ByLayer
370
18
48
1
60
0
100
AcDbSpline
70
4
71
3
72
22
73
18
40
0
40
0
40
0
40
0
40
0.0920863779654093
40
0.0920863779654093
40
0.297636218495692
40
0.297636218495692
40
0.503186059025975
40
0.503186059025975
40
0.554573519158544
40
0.554573519158544
40
0.605960979291111
40
0.605960979291111
40
0.708735899556253
40
0.708735899556253
40
0.914285740086531
40
0.914285740086531
40
1
40
1
40
1
40
1
41
1
10
9.27394147083416
20
1.0587914588954
30
0
41
1
10
9.32837498780836
20
1.0404219764977
30
0
41
1
10
9.3827942197029
20
1.0212635994516
30
0
41
1
10
9.55876302160382
20
0.956938728643593
30
0
41
1
10
9.68038489254101
20
0.908797846918986
30
0
41
1
10
9.9243325544403
20
0.805668959946701
30
0
41
1
10
10.0467009794892
20
0.750792906286222
30
0
41
1
10
10.2004435777775
20
0.678315605082076
30
0
41
1
10
10.2312611467317
20
0.663612880829248
30
0
41
1
10
10.2927797408498
20
0.633935548463512
30
0
41
1
10
10.3234924024418
20
0.618955822989363
30
0
41
1
10
10.4155066085208
20
0.573621903252558
30
0
41
1
10
10.4766727405018
20
0.542849805687752
30
0
41
1
10
10.6599069801647
20
0.449384031536596
30
0
41
1
10
10.7817598944062
20
0.385637705585936
30
0
41
1
10
10.9540930828722
20
0.29338239225234
30
0
41
1
10
11.0047750883688
20
0.266012400567803
30
0
41
1
10
11.0554516400165
20
0.238472623801613
30
0
0
SPLINE
5
CA
100
AcDbEntity
8
SK1
62
256
6
ByLayer
370
13
48
1
60
0
100
AcDbSpline
70
4
71
3
72
14
73
10
40
0
40
0
40
0
40
0
40
0.257168106329505
40
0.257168106329505
40
0.698279694193474
40
0.698279694193474
40
0.918835488125463
40
0.918835488125463
40
1
40
1
40
1
40
1
41
1
10
11.0554516400285
20
0.238472623795104
30
0
41
1
10
11.126301624572
20
0.199969752254418
30
0
41
1
10
11.1971409488381
20
0.16113501305054
30
0
41
1
10
11.3896627322601
20
0.0551655313924471
30
0
41
1
10
11.5115218715509
20
-0.0122186189248339
30
0
41
1
10
11.6950723017668
20
-0.113279772877803
30
0
41
1
10
11.7563807251932
20
-0.146967308954061
30
0
41
1
10
11.8404693861135
20
-0.192965771852386
30
0
41
1
10
11.8631273302768
20
-0.205339752665054
30
0
41
1
10
11.8857817706625
20
-0.21768729000857
30
0
0
SPLINE
5
CB
100
AcDbEntity
8
SK1
62
256
6
ByLayer
370
18
48
1
60
0
100
AcDbSpline
70
4
71
3
72
32
73
28
40
0
40
0
40
0
40
0
40
0.0070861126307626
40
0.0070861126307626
40
0.0339274296444693
40
0.0339274296444693
40
0.141292697699299
40
0.141292697699299
40
0.24865796575413
40
0.24865796575413
40
0.356023233808962
40
0.356023233808962
40
0.463388501863795
40
0.463388501863795
40
0.517071135891213
40
0.517071135891213
40
0.570753769918631
40
0.570753769918631
40
0.678119037973463
40
0.678119037973463
40
0.785484306028295
40
0.785484306028295
40
0.892849574083127
40
0.892849574083127
40
0.946532208110545
40
0.946532208110545
40
1
40
1
40
1
40
1
41
1
10
11.8857817706623
20
-0.217687290008541
30
0
41
1
10
11.8939078276267
20
-0.222116302163101
30
0
41
1
10
11.9020334337853
20
-0.226541912026562
30
0
41
1
10
11.9409265873247
20
-0.24770902292866
30
0
41
1
10
11.9716486960282
20
-0.264381448496437
30
0
41
1
10
12.1250489513222
20
-0.347328176065702
30
0
41
1
10
12.2470963824411
20
-0.412355114151722
30
0
41
1
10
12.4906130873546
20
-0.538447839180151
30
0
41
1
10
12.6121428916896
20
-0.599422170752661
30
0
41
1
10
12.8552403743649
20
-0.716446635002086
30
0
41
1
10
12.9767932347588
20
-0.772521508214169
30
0
41
1
10
13.220475607579
20
-0.878855349132181
30
0
41
1
10
13.3426141622878
20
-0.929107114636651
30
0
41
1
10
13.5268282108287
20
-0.999226873900426
30
0
41
1
10
13.5884593741211
20
-1.0217336127391
30
0
41
1
10
13.711210306035
20
-1.06450249374285
30
0
41
1
10
13.7724351684514
20
-1.08482178271223
30
0
41
1
10
13.9557201012737
20
-1.14255297741144
30
0
41
1
10
14.077400642192
20
-1.17669940038405
30
0
41
1
10
14.3204613166428
20
-1.23576223415139
30
0
41
1
10
14.4419207034798
20
-1.26082730682413
30
0
41
1
10
14.6851414613247
20
-1.30128348162313
30
0
41
1
10
14.8068977987444
20
-1.316699243204
30
0
41
1
10
14.9902325673485
20
-1.33225306327202
30
0
41
1
10
15.0514632423972
20
-1.33617047987207
30
0
41
1
10
15.1740349911777
20
-1.34142274218883
30
0
41
1
10
15.235392603579
20
-1.34278130300561
30
0
41
1
10
15.2965927122975
20
-1.34288256273862
30
0
0
SPLINE
5
CC
100
AcDbEntity
8
SK1
62
256
6
ByLayer
370
18
48
1
60
0
100
AcDbSpline
70
4
71
3
72
16
73
12
40
0
40
0
40
0
40
0
40
0.222384468763031
40
0.222384468763031
40
0.51461132123964
40
0.51461132123964
40
0.80683817371625
40
0.80683817371625
40
0.952951599954556
40
0.952951599954556
40
1
40
1
40
1
40
1
41
1
10
24.9003624330439
20
0.924338965411636
30
0
41
1
10
24.9929349837647
20
0.886736335941436
30
0
41
1
10
25.0853153274888
20
0.847226300802959
30
0
41
1
10
25.2989520898744
20
0.751778072995393
30
0
41
1
10
25.4201527857075
20
0.694564266345054
30
0
41
1
10
25.662866742545
20
0.574954170645896
30
0
41
1
10
25.7843805649893
20
0.512562523464794
30
0
41
1
10
25.9674510072629
20
0.416008802407475
30
0
41
1
10
26.0286096941942
20
0.383335299482837
30
0
41
1
10
26.1097190725795
20
0.339630642489397
30
0
41
1
10
26.1295010822739
20
0.328941127357638
30
0
41
1
10
26.1492735215239
20
0.318227578639551
30
0
0
SPLINE
5
CD
100
AcDbEntity
8
SK1
62
256
6
ByLayer
370
13
48
1
60
0
100
AcDbSpline
70
4
71
3
72
14
73
10
40
0
40
0
40
0
40
0
40
0.0396085660511094
40
0.0396085660511094
40
0.150868057790684
40
0.150868057790684
40
0.595906024749032
40
0.595906024749032
40
1
40
1
40
1
40
1
41
1
10
26.1492735220511
20
0.318227578353827
30
0
41
1
10
26.1602037084438
20
0.31230513838878
30
0
41
1
10
26.1711309702345
20
0.306375354076295
30
0
41
1
10
26.2127184807353
20
0.283774066736811
30
0
41
1
10
26.2433448939053
20
0.267059954478043
30
0
41
1
10
26.3962781163146
20
0.183284581808749
30
0
41
1
10
26.5179966967096
20
0.115623321898852
30
0
41
1
10
26.7496342874905
20
-0.0136091795023674
30
0
41
1
10
26.8596067445058
20
-0.075171670420076
30
0
41
1
10
26.9695723491231
20
-0.136330266122656
30
0
0
SPLINE
5
CE
100
AcDbEntity
8
SK1
62
256
6
ByLayer
370
18
48
1
60
0
100
AcDbSpline
70
4
71
3
72
27
73
23
40
0
40
0
40
0
40
0
40
0.0101189082772934
40
0.0101189082772934
40
0.120105696246484
40
0.120105696246484
40
0.230092484215675
40
0.230092484215675
40
0.28508587820027
40
0.28508587820027
40
0.340079272184866
40
0.340079272184866
40
0.560052848123247
40
0.560052848123247
40
0.670039636092437
40
0.670039636092437
40
0.725033030077033
40
0.752529727069331
40
0.752529727069331
40
0.780026424061628
40
0.780026424061628
40
1
40
1
40
1
40
1
41
1
10
26.9695723473935
20
-0.136330265160723
30
0
41
1
10
26.9807143868999
20
-0.142527034522317
30
0
41
1
10
26.9918563560572
20
-0.148719657358185
30
0
41
1
10
27.1241075158097
20
-0.222167605992638
30
0
41
1
10
27.2452444480674
20
-0.288873504145556
30
0
41
1
10
27.4882316597876
20
-0.419996257147972
30
0
41
1
10
27.6100799217113
20
-0.484416045910677
30
0
41
1
10
27.7938523008582
20
-0.578476967116558
30
0
41
1
10
27.8553328946137
20
-0.609427617472221
30
0
41
1
10
27.9777243229789
20
-0.66983310903143
30
0
41
1
10
28.0387518747396
20
-0.699349482315057
30
0
41
1
10
28.3432615833052
20
-0.843197956197344
30
0
41
1
10
28.5849200272541
20
-0.946303177321653
30
0
41
1
10
28.9483818553913
20
-1.07816605988126
30
0
41
1
10
29.0696898387232
20
-1.11832500901147
30
0
41
1
10
29.2523441554823
20
-1.17224262278458
30
0
41
1
10
29.3438429326062
20
-1.19762252855637
30
0
41
1
10
29.4357025125827
20
-1.22051364476755
30
0
41
1
10
29.4970339630249
20
-1.23520740768061
30
0
41
1
10
29.5277281080184
20
-1.24226600269554
30
0
41
1
10
29.803368583833
20
-1.30296242620483
30
0
41
1
10
30.0459152900613
20
-1.3371728557502
30
0
41
1
10
30.2883312648916
20
-1.35101028981779
30
0
0
SPLINE
5
CF
100
AcDbEntity
8
SK1
62
256
6
ByLayer
370
18
48
1
60
0
100
AcDbSpline
70
4
71
3
72
44
73
40
40
0
40
0
40
0
40
0
40
0.0567794757295594
40
0.0567794757295594
40
0.113558951459119
40
0.113558951459119
40
0.170338427188678
40
0.170338427188678
40
0.227117902918237
40
0.227117902918237
40
0.340676854377356
40
0.340676854377356
40
0.397456330106916
40
0.397456330106916
40
0.425846067971695
40
0.425846067971695
40
0.454235805836475
40
0.454235805836475
40
0.511015281566034
40
0.511015281566034
40
0.567794757295594
40
0.567794757295594
40
0.624574233025153
40
0.624574233025153
40
0.681353708754713
40
0.681353708754713
40
0.738133184484272
40
0.738133184484272
40
0.794912660213831
40
0.794912660213831
40
0.851692135943391
40
0.851692135943391
40
0.90847161167295
40
0.90847161167295
40
0.965251087402509
40
0.965251087402509
40
0.993640825267292
40
0.993640825267292
40
1
40
1
40
1
40
1
41
1
10
28.8022433030539
20
0.43145761127218
30
0
41
1
10
28.74524437722
20
0.461632328898531
30
0
41
1
10
28.688395018799
20
0.491512619539066
30
0
41
1
10
28.5747909820562
20
0.550327016750259
30
0
41
1
10
28.518009985412
20
0.579217937765605
30
0
41
1
10
28.4044159051323
20
0.635866183976503
30
0
41
1
10
28.3476218908435
20
0.663661387682339
30
0
41
1
10
28.2341325029027
20
0.718278151042341
30
0
41
1
10
28.1774586774559
20
0.745128567818199
30
0
41
1
10
28.0072656879682
20
0.82359151087843
30
0
41
1
10
27.8933977051588
20
0.872781060130535
30
0
41
1
10
27.7222655618831
20
0.942818341785028
30
0
41
1
10
27.6651728089574
20
0.965552541070878
30
0
41
1
10
27.5791864531735
20
0.998395686012657
30
0
41
1
10
27.550476069288
20
1.00914456287205
30
0
41
1
10
27.492966278038
20
1.03024807595648
30
0
41
1
10
27.4641564409633
20
1.04060600249505
30
0
41
1
10
27.3779181145635
20
1.07098309744433
30
0
41
1
10
27.3206031837138
20
1.09037034168111
30
0
41
1
10
27.2063422149788
20
1.12734292949557
30
0
41
1
10
27.1493183678588
20
1.14483901496564
30
0
41
1
10
27.0353962939499
20
1.17769306141224
30
0
41
1
10
26.9785103623775
20
1.19306185787636
30
0
41
1
10
26.8649324340487
20
1.22165446906726
30
0
41
1
10
26.8082658083948
20
1.23491461771644
30
0
41
1
10
26.6949883493892
20
1.25938367426102
30
0
41
1
10
26.6383495116293
20
1.27057326280732
30
0
41
1
10
26.5249165226845
20
1.2909395351935
30
0
41
1
10
26.4681581996239
20
1.3001341045175
30
0
41
1
10
26.3546221886055
20
1.31641914048734
30
0
41
1
10
26.2978692084744
20
1.32351678798662
30
0
41
1
10
26.1842334473476
20
1.33537929752217
30
0
41
1
10
26.1272718597262
20
1.34011154716077
30
0
41
1
10
26.0130948664838
20
1.34739516289042
30
0
41
1
10
25.9558805647853
20
1.34995114963729
30
0
41
1
10
25.8699133410782
20
1.35220943175403
30
0
41
1
10
25.8412406324427
20
1.35270075693427
30
0
41
1
10
25.8061024981521
20
1.35297190080053
30
0
41
1
10
25.7996698633231
20
1.35300789142752
30
0
41
1
10
25.7932359861428
20
1.35303022164905
30
0
0
SPLINE
5
D0
100
AcDbEntity
8
SK1
62
256
6
ByLayer
370
18
48
1
60
0
100
AcDbSpline
70
4
71
3
72
119
73
115
40
0
40
0
40
0
40
0
40
0.0127221259646971
40
0.0127221259646971
40
0.0304904269316081
40
0.0304904269316081
40
0.0393745774150637
40
0.0393745774150637
40
0.0482587278985194
40
0.0482587278985194
40
0.0660270288654304
40
0.0660270288654304
40
0.0837953298323415
40
0.0837953298323415
40
0.101563630799253
40
0.101563630799253
40
0.119331931766164
40
0.119331931766164
40
0.137100232733075
40
0.137100232733075
40
0.154868533699986
40
0.154868533699986
40
0.172636834666897
40
0.172636834666897
40
0.190405135633809
40
0.190405135633809
40
0.20817343660072
40
0.20817343660072
40
0.217057587084175
40
0.217057587084175
40
0.225941737567631
40
0.243710038534544
40
0.243710038534544
40
0.261478339501457
40
0.261478339501457
40
0.279246640468369
40
0.279246640468369
40
0.297014941435282
40
0.297014941435282
40
0.314783242402195
40
0.314783242402195
40
0.332551543369108
40
0.332551543369108
40
0.35031984433602
40
0.35031984433602
40
0.368088145302933
40
0.368088145302933
40
0.385856446269846
40
0.385856446269846
40
0.403624747236759
40
0.403624747236759
40
0.421393048203671
40
0.421393048203671
40
0.439161349170584
40
0.439161349170584
40
0.456929650137497
40
0.456929650137497
40
0.47469795110441
40
0.47469795110441
40
0.492466252071322
40
0.492466252071322
40
0.510234553038235
40
0.510234553038235
40
0.528002854005148
40
0.528002854005148
40
0.545771154972061
40
0.545771154972061
40
0.563539455938973
40
0.563539455938973
40
0.581307756905886
40
0.581307756905886
40
0.599076057872799
40
0.599076057872799
40
0.616844358839711
40
0.616844358839711
40
0.634612659806624
40
0.634612659806624
40
0.652380960773537
40
0.652380960773537
40
0.67014926174045
40
0.67014926174045
40
0.687917562707363
40
0.687917562707363
40
0.705685863674275
40
0.705685863674275
40
0.723454164641188
40
0.723454164641188
40
0.741222465608101
40
0.741222465608101
40
0.758990766575013
40
0.758990766575013
40
0.776759067541926
40
0.776759067541926
40
0.794527368508839
40
0.794527368508839
40
0.812295669475752
40
0.812295669475752
40
0.830063970442665
40
0.830063970442665
40
0.847832271409579
40
0.847832271409579
40
0.865600572376492
40
0.865600572376492
40
0.883368873343406
40
0.883368873343406
40
0.918905475277232
40
0.918905475277232
40
0.936673776244145
40
0.936673776244145
40
0.954442077211059
40
0.954442077211059
40
0.989978679144885
40
0.989978679144885
40
1
40
1
40
1
40
1
41
1
10
20.2017052213616
20
-0.900121617483421
30
0
41
1
10
20.1608140134935
20
-0.916985173906397
30
0
41
1
10
20.1198880870815
20
-0.933548918136893
30
0
41
1
10
20.0216698500669
20
-0.972426886086737
30
0
41
1
10
19.9642536743546
20
-0.994285715016474
30
0
41
1
10
19.8778467060117
20
-1.02577410643428
30
0
41
1
10
19.8490189846469
20
-1.03605035699587
30
0
41
1
10
19.791505314961
20
-1.05609790234433
30
0
41
1
10
19.7627932176627
20
-1.06587888452668
30
0
41
1
10
19.676817185801
20
-1.09450787175666
30
0
41
1
10
19.6197489975784
20
-1.11263031329426
30
0
41
1
10
19.5057097975205
20
-1.14678304346452
30
0
41
1
10
19.4487166434657
20
-1.16289703713292
30
0
41
1
10
19.3347307317432
20
-1.19347093205326
30
0
41
1
10
19.2777667227937
20
-1.2078795741605
30
0
41
1
10
19.1640365606126
20
-1.23478194535653
30
0
41
1
10
19.1072764029143
20
-1.24728947213697
30
0
41
1
10
18.9936694809743
20
-1.27011533107876
30
0
41
1
10
18.9368151680814
20
-1.2804381700829
30
0
41
1
10
18.8230986544409
20
-1.2988825025553
30
0
41
1
10
18.7662344017952
20
-1.30699353372737
30
0
41
1
10
18.6525253009222
20
-1.32081023454506
30
0
41
1
10
18.5956713087977
20
-1.32651838607137
30
0
41
1
10
18.4815842927447
20
-1.33548168977956
30
0
41
1
10
18.4243924260285
20
-1.33876931660177
30
0
41
1
10
18.309763437398
20
-1.34344365272693
30
0
41
1
10
18.2523485103513
20
-1.34483250042814
30
0
41
1
10
18.1660453921245
20
-1.34529824148663
30
0
41
1
10
18.1372552203974
20
-1.34518135915377
30
0
41
1
10
18.079756592712
20
-1.34440749102649
30
0
41
1
10
17.9935750325585
20
-1.34243756405914
30
0
41
1
10
17.9076150275629
20
-1.33807079165868
30
0
41
1
10
17.7932626967431
20
-1.33011364172313
30
0
41
1
10
17.736235307598
20
-1.32508276374909
30
0
41
1
10
17.6223809175804
20
-1.31260357752072
30
0
41
1
10
17.5655366814991
20
-1.30510988897083
30
0
41
1
10
17.4518453725686
20
-1.28785836615089
30
0
41
1
10
17.3950203426844
20
-1.2781067277665
30
0
41
1
10
17.2814692621405
20
-1.25660504238729
30
0
41
1
10
17.2247252531242
20
-1.24490049550204
30
0
41
1
10
17.1110904806471
20
-1.21969254130801
30
0
41
1
10
17.0541824748706
20
-1.20618612935178
30
0
41
1
10
16.9402453706157
20
-1.17700911538205
30
0
41
1
10
16.8832283038327
20
-1.16127537378847
30
0
41
1
10
16.7691266001281
20
-1.12733376180134
30
0
41
1
10
16.7120543083702
20
-1.10917473277061
30
0
41
1
10
16.5974579828902
20
-1.0713290501844
30
0
41
1
10
16.5399585029224
20
-1.0516320888436
30
0
41
1
10
16.4246444177654
20
-1.0108424910448
30
0
41
1
10
16.3670698692903
20
-0.989760056692404
30
0
41
1
10
16.2523845520266
20
-0.945911948354563
30
0
41
1
10
16.1951691881751
20
-0.923247765896207
30
0
41
1
10
16.0808488805026
20
-0.876597820328783
30
0
41
1
10
16.0237674425508
20
-0.852581415652253
30
0
41
1
10
15.9098308624209
20
-0.803021059165019
30
0
41
1
10
15.8530206420413
20
-0.777407959173587
30
0
41
1
10
15.739562348676
20
-0.724547728522509
30
0
41
1
10
15.6828832187978
20
-0.697330559446755
30
0
41
1
10
15.5693845538222
20
-0.64210931642387
30
0
41
1
10
15.5125754826044
20
-0.61409864942641
30
0
41
1
10
15.398891604801
20
-0.55740600266833
30
0
41
1
10
15.3420225401681
20
-0.52875776841077
30
0
41
1
10
15.2281738677982
20
-0.470597176413378
30
0
41
1
10
15.1711459362435
20
-0.44113643774719
30
0
41
1
10
15.0569017282835
20
-0.381157380646044
30
0
41
1
10
14.9997006279799
20
-0.350574861760634
30
0
41
1
10
14.8851104576175
20
-0.288462744384248
30
0
41
1
10
14.8277549973786
20
-0.256930296214449
30
0
41
1
10
14.7125610248381
20
-0.193781476663389
30
0
41
1
10
14.6549938686102
20
-0.16227375935145
30
0
41
1
10
14.5401228829079
20
-0.0992189333063607
30
0
41
1
10
14.4828008775923
20
-0.0676678896409442
30
0
41
1
10
14.3685034923324
20
-0.0043292216550128
30
0
41
1
10
14.3114931628654
20
0.0273786543959602
30
0
41
1
10
14.1975504141127
20
0.0904475516782668
30
0
41
1
10
14.1406220655838
20
0.121835920477679
30
0
41
1
10
14.026789889456
20
0.184316716122254
30
0
41
1
10
13.9699196954736
20
0.21546079780282
30
0
41
1
10
13.8562432748712
20
0.277466443079902
30
0
41
1
10
13.7994142114967
20
0.308285977810414
30
0
41
1
10
13.6855780896859
20
0.369174778862828
30
0
41
1
10
13.6285917294556
20
0.399282121426978
30
0
41
1
10
13.5146056450655
20
0.458983754792655
30
0
41
1
10
13.4576205955097
20
0.488598637491776
30
0
41
1
10
13.3433836023179
20
0.54699737215455
30
0
41
1
10
13.2861098424556
20
0.575751336297657
30
0
41
1
10
13.1712154320925
20
0.632287524959253
30
0
41
1
10
13.1135663049923
20
0.660118042851877
30
0
41
1
10
12.9982283729219
20
0.714868647336658
30
0
41
1
10
12.940717403403
20
0.741784259762397
30
0
41
1
10
12.8257321826627
20
0.794169372902076
30
0
41
1
10
12.7682247542706
20
0.819593830442329
30
0
41
1
10
12.6532562681835
20
0.868944359264049
30
0
41
1
10
12.5957919166809
20
0.892870485221493
30
0
41
1
10
12.4810238617523
20
0.939242418205851
30
0
41
1
10
12.4236978026822
20
0.961607901281724
30
0
41
1
10
12.3087598559654
20
1.0043925510692
30
0
41
1
10
12.251119098469
20
1.02493187710707
30
0
41
1
10
12.1358927013736
20
1.06439728609769
30
0
41
1
10
12.0784111387186
20
1.08327616922998
30
0
41
1
10
11.9638034159374
20
1.11936684646378
30
0
41
1
10
11.9065971761681
20
1.13648771416794
30
0
41
1
10
11.7922403944235
20
1.16872111855824
30
0
41
1
10
11.7351141849118
20
1.18385898488995
30
0
41
1
10
11.5640118432468
20
1.22634867743247
30
0
41
1
10
11.4504378439027
20
1.25092568316151
30
0
41
1
10
11.2798308346586
20
1.28039599487357
30
0
41
1
10
11.2229505786884
20
1.2890563544151
30
0
41
1
10
11.1091422175392
20
1.30453895034484
30
0
41
1
10
11.0522578837158
20
1.31134862225389
30
0
41
1
10
10.8813520431899
20
1.32853106941855
30
0
41
1
10
10.7668505605666
20
1.33568147176771
30
0
41
1
10
10.6196835951309
20
1.33824509618466
30
0
41
1
10
10.5872719758967
20
1.33837297847964
30
0
41
1
10
10.554815889013
20
1.33814031933255
30
0
0
SPLINE
5
D1
100
AcDbEntity
8
SK1
62
256
6
ByLayer
370
18
48
1
60
0
100
AcDbSpline
70
4
71
3
72
37
73
33
40
0
40
0
40
0
40
0
40
0.0312499999999995
40
0.0312499999999995
40
0.0624999999999991
40
0.0624999999999991
40
0.124999999999993
40
0.187499999999987
40
0.187499999999987
40
0.218749999999984
40
0.218749999999984
40
0.249999999999981
40
0.312499999999984
40
0.343749999999985
40
0.343749999999985
40
0.374999999999986
40
0.374999999999986
40
0.437499999999988
40
0.437499999999988
40
0.499999999999991
40
0.499999999999991
40
0.562499999999993
40
0.562499999999993
40
0.624999999999995
40
0.624999999999995
40
0.75
40
0.75
40
0.875000000000005
40
0.875000000000005
40
0.937500000000002
40
0.937500000000002
40
1
40
1
40
1
40
1
41
1
10
30.1981594418422
20
0.613175448850171
30
0
41
1
10
30.1919999120509
20
0.597166225491549
30
0
41
1
10
30.185379167237
20
0.581402254181796
30
0
41
1
10
30.1711216801403
20
0.550414570330446
30
0
41
1
10
30.1634517694783
20
0.535133944854721
30
0
41
1
10
30.1390431115109
20
0.490686046432842
30
0
41
1
10
30.1028337833764
20
0.43517124812854
30
0
41
1
10
30.0589183809778
20
0.387540464173384
30
0
41
1
10
30.0229728468464
20
0.35489583860516
30
0
41
1
10
30.0104465824164
20
0.344496978846877
30
0
41
1
10
29.9845498989153
20
0.324902340855118
30
0
41
1
10
29.9447071198519
20
0.297498931841403
30
0
41
1
10
29.8877761008268
20
0.268549123148858
30
0
41
1
10
29.8424451514827
20
0.252083772966813
30
0
41
1
10
29.8116618180282
20
0.24222834894681
30
0
41
1
10
29.7959725152509
20
0.237859971489172
30
0
41
1
10
29.7487565011662
20
0.226435188995765
30
0
41
1
10
29.7168811844756
20
0.22093349673446
30
0
41
1
10
29.652453154632
20
0.213529789757956
30
0
41
1
10
29.6198957582915
20
0.21165266145195
30
0
41
1
10
29.5541692024902
20
0.21114930750872
30
0
41
1
10
29.5209793041077
20
0.212528294098803
30
0
41
1
10
29.4541107062224
20
0.218311631848167
30
0
41
1
10
29.4208224380456
20
0.222650301401131
30
0
41
1
10
29.3212882099609
20
0.238941950907218
30
0
41
1
10
29.2553865723667
20
0.254306777800224
30
0
41
1
10
29.124375496942
20
0.292886240419818
30
0
41
1
10
29.059279092095
20
0.316230018357203
30
0
41
1
10
28.9621247636371
20
0.356103796980847
30
0
41
1
10
28.9298065942631
20
0.370187766257203
30
0
41
1
10
28.8656944893391
20
0.399735267891714
30
0
41
1
10
28.8338561744918
20
0.415225513639655
30
0
41
1
10
28.8022433030538
20
0.43145761127218
30
0
0
SPLINE
5
D2
100
AcDbEntity
8
SK1
62
256
6
ByLayer
370
18
48
1
60
0
100
AcDbSpline
70
4
71
3
72
14
73
10
40
0
40
0
40
0
40
0
40
0.25
40
0.25
40
0.5
40
0.5
40
0.75
40
0.75
40
1
40
1
40
1
40
1
41
1
10
30.2237750277976
20
0.627255337141889
30
0
41
1
10
30.2211839664609
20
0.627024870860907
30
0
41
1
10
30.2186272967472
20
0.626618377767358
30
0
41
1
10
30.2135980326065
20
0.625373915710242
30
0
41
1
10
30.2110928607527
20
0.62452274788771
30
0
41
1
10
30.2064138791796
20
0.622283023003206
30
0
41
1
10
30.2041950887139
20
0.620868157768086
30
0
41
1
10
30.2005053394587
20
0.61744731869149
30
0
41
1
10
30.1990181300223
20
0.615407263840808
30
0
41
1
10
30.1981594418394
20
0.613175448852047
30
0
0
SPLINE
5
D3
100
AcDbEntity
8
SK1
62
256
6
ByLayer
370
18
48
1
60
0
100
AcDbSpline
70
4
71
3
72
14
73
10
40
0
40
0
40
0
40
0
40
0.25
40
0.25
40
0.5
40
0.5
40
0.75
40
0.75
40
1
40
1
40
1
40
1
41
1
10
30.8517927269598
20
0.721479991311156
30
0
41
1
10
30.8007213590714
20
0.709550299966224
30
0
41
1
10
30.749230684255
20
0.698973882908888
30
0
41
1
10
30.6456107524284
20
0.679882013698318
30
0
41
1
10
30.5934827798421
20
0.671362416186639
30
0
41
1
10
30.4886628775169
20
0.656143340657451
30
0
41
1
10
30.4359751957349
20
0.649430152751961
30
0
41
1
10
30.3301840522307
20
0.637345668201931
30
0
41
1
10
30.2770738608446
20
0.631996090924702
30
0
41
1
10
30.2237750277976
20
0.627255337141918
30
0
0
SPLINE
5
D4
100
AcDbEntity
8
SK1
62
256
6
ByLayer
370
18
48
1
60
0
100
AcDbSpline
70
4
71
3
72
11
73
7
40
0
40
0
40
0
40
0
40
0.500000000000007
40
0.750000000000003
40
0.750000000000003
40
1
40
1
40
1
40
1
41
1
10
30.4222407800985
20
1.37265976786921
30
0
41
1
10
30.4931951922037
20
1.26712553671467
30
0
41
1
10
30.6000921874183
20
1.10664096020437
30
0
41
1
10
30.7077184916706
20
0.942734966187828
30
0
41
1
10
30.7796349607569
20
0.832687423903849
30
0
41
1
10
30.8156982907993
20
0.777240701111651
30
0
41
1
10
30.8517927269535
20
0.721479991306808
30
0
0
SPLINE
5
D5
100
AcDbEntity
8
SK1
62
256
6
ByLayer
370
13
48
1
60
0
100
AcDbSpline
70
4
71
3
72
14
73
10
40
0
40
0
40
0
40
0
40
0.25
40
0.25
40
0.5
40
0.5
40
0.75
40
0.75
40
1
40
1
40
1
40
1
41
1
10
3.57738160961156
20
-0.172960470704879
30
0
41
1
10
3.64762887210182
20
-0.250064942232797
30
0
41
1
10
3.71731005073966
20
-0.327276035749037
30
0
41
1
10
3.85552981350853
20
-0.482880821172529
30
0
41
1
10
3.92406734230829
20
-0.561315338676479
30
0
41
1
10
4.06081745628518
20
-0.720071318562447
30
0
41
1
10
4.1290756289184
20
-0.800393994881063
30
0
41
1
10
4.26629719722266
20
-0.962449805005861
30
0
41
1
10
4.3352667847187
20
-1.04414604079358
30
0
41
1
10
4.40469567604836
20
-1.12610628877886
30
0
0
SPLINE
5
D6
100
AcDbEntity
8
SK1
62
256
6
ByLayer
370
18
48
1
60
0
100
AcDbSpline
70
4
71
3
72
14
73
10
40
0
40
0
40
0
40
0
40
0.229779375888038
40
0.229779375888038
40
0.459558751776082
40
0.459558751776082
40
0.919117503552158
40
0.919117503552158
40
1
40
1
40
1
40
1
41
1
10
6.87233920357383
20
-1.26125253251871
30
0
41
1
10
6.93400974691247
20
-1.27243523212678
30
0
41
1
10
6.9955898894201
20
-1.28236402878721
30
0
41
1
10
7.11833654925402
20
-1.29967000209425
30
0
41
1
10
7.17954978468342
20
-1.30705620435745
30
0
41
1
10
7.36283661332214
20
-1.32542709430604
30
0
41
1
10
7.48455891911769
20
-1.33261890772266
30
0
41
1
10
7.62755405700932
20
-1.33516101342224
30
0
41
1
10
7.64894968660525
20
-1.33538487687881
30
0
41
1
10
7.67034274936856
20
-1.33545283897135
30
0
0
SPLINE
5
D7
100
AcDbEntity
8
SK1
62
256
6
ByLayer
370
18
48
1
60
0
100
AcDbSpline
70
4
71
3
72
22
73
18
40
0
40
0
40
0
40
0
40
0.0021086186556159
40
0.0021086186556159
40
0.212945663750887
40
0.212945663750887
40
0.423782708846159
40
0.423782708846159
40
0.47649197011998
40
0.47649197011998
40
0.5292012313938
40
0.5292012313938
40
0.634619753941441
40
0.634619753941441
40
0.845456799036712
40
0.845456799036712
40
1
40
1
40
1
40
1
41
1
10
16.7623893181338
20
1.10673518104264
30
0
41
1
10
16.7636040015196
20
1.10635423096002
30
0
41
1
10
16.7648186793893
20
1.10597285936578
30
0
41
1
10
16.8874863166872
20
1.06741626167951
30
0
41
1
10
17.0088416086697
20
1.02499231381569
30
0
41
1
10
17.2520684608851
20
0.932617964840347
30
0
41
1
10
17.3739602386673
20
0.882627641735553
30
0
41
1
10
17.5270759197772
20
0.815812335630199
30
0
41
1
10
17.5577364084625
20
0.802235414701016
30
0
41
1
10
17.6191430020409
20
0.774674891094236
30
0
41
1
10
17.6499174271263
20
0.760679319688876
30
0
41
1
10
17.742164269431
20
0.718203429822864
30
0
41
1
10
17.803490860241
20
0.689262290749298
30
0
41
1
10
17.9870338380031
20
0.60068812319426
30
0
41
1
10
18.1088180095371
20
0.539317784980653
30
0
41
1
10
18.3194057931279
20
0.429874418938283
30
0
41
1
10
18.4083685079952
20
0.382700869166825
30
0
41
1
10
18.4973500478368
20
0.334856824570011
30
0
0
SPLINE
5
D8
100
AcDbEntity
8
SK1
62
256
6
ByLayer
370
13
48
1
60
0
100
AcDbSpline
70
4
71
3
72
14
73
10
40
0
40
0
40
0
40
0
40
0.121143089334241
40
0.121143089334241
40
0.574863789312924
40
0.574863789312924
40
0.801724139302278
40
0.801724139302278
40
1
40
1
40
1
40
1
41
1
10
18.4973509286814
20
0.334856350953004
30
0
41
1
10
18.5297630149722
20
0.317428854800568
30
0
41
1
10
18.5621775990663
20
0.299912395710663
30
0
41
1
10
18.716036542227
20
0.216417569054641
30
0
41
1
10
18.8376115721732
20
0.149464764765867
30
0
41
1
10
19.0205717843341
20
0.048127894388756
30
0
41
1
10
19.0816549060451
20
0.0141917863423089
30
0
41
1
10
19.1963810819519
20
-0.0495540759355038
30
0
41
1
10
19.2500235582466
20
-0.0793626824262788
30
0
41
1
10
19.3037408665463
20
-0.109147204071917
30
0
0
SPLINE
5
D9
100
AcDbEntity
8
SK1
62
256
6
ByLayer
370
18
48
1
60
0
100
AcDbSpline
70
4
71
3
72
36
73
32
40
0
40
0
40
0
40
0
40
0.0063849376408502
40
0.0063849376408502
40
0.057058894934943
40
0.057058894934943
40
0.107732852229036
40
0.107732852229036
40
0.209080766817226
40
0.209080766817226
40
0.411776595993607
40
0.411776595993607
40
0.513124510581799
40
0.513124510581799
40
0.538461489228848
40
0.538461489228848
40
0.563798467875896
40
0.563798467875896
40
0.614472425169997
40
0.614472425169997
40
0.715820339758203
40
0.715820339758203
40
0.817168254346409
40
0.817168254346409
40
0.918516168934614
40
0.918516168934614
40
0.969190126228719
40
0.969190126228719
40
0.994527104875774
40
0.994527104875774
40
1
40
1
40
1
40
1
41
1
10
19.3037408665748
20
-0.109147204087719
30
0
41
1
10
19.3114850358176
20
-0.113441097131471
30
0
41
1
10
19.3192307603402
20
-0.11773448960497
30
0
41
1
10
19.3884625598751
20
-0.156095098855019
30
0
41
1
10
19.449925895624
20
-0.190042216236378
30
0
41
1
10
19.5729478418872
20
-0.257442378991755
30
0
41
1
10
19.6343471995915
20
-0.290829411462283
30
0
41
1
10
19.8179736593067
20
-0.389853198226689
30
0
41
1
10
19.9397657481975
20
-0.454393017370506
30
0
41
1
10
20.3042919032499
20
-0.642001699670601
30
0
41
1
10
20.5465451851565
20
-0.758339205316389
30
0
41
1
10
20.9119173094489
20
-0.914742413962585
30
0
41
1
10
21.0340547094042
20
-0.963838584064945
30
0
41
1
10
21.1876238217057
20
-1.02071305906259
30
0
41
1
10
21.2183596270082
20
-1.0318538948593
30
0
41
1
10
21.279701574507
20
-1.05358833870045
30
0
41
1
10
21.3103354118159
20
-1.06419259668598
30
0
41
1
10
21.4021366805916
20
-1.0951979395586
30
0
41
1
10
21.4631999569974
20
-1.11478713672867
30
0
41
1
10
21.646060593015
20
-1.17014554559682
30
0
41
1
10
21.7675402366532
20
-1.20255119123487
30
0
41
1
10
22.0101695888499
20
-1.25822585736387
30
0
41
1
10
22.1313276232595
20
-1.28148263469808
30
0
41
1
10
22.3741418742123
20
-1.31825747773308
30
0
41
1
10
22.4958118967899
20
-1.33181616395723
30
0
41
1
10
22.6790900928942
20
-1.34457882200465
30
0
41
1
10
22.740314975382
20
-1.347564407064
30
0
41
1
10
22.8324454534707
20
-1.35007791365425
30
0
41
1
10
22.8631943477224
20
-1.35058826286743
30
0
41
1
10
22.9004960629331
20
-1.35081091408549
30
0
41
1
10
22.9071201278224
20
-1.35083523697745
30
0
41
1
10
22.9137422214554
20
-1.35084436735977
30
0
0
SPLINE
5
DA
100
AcDbEntity
8
SK1
62
256
6
ByLayer
370
18
48
1
60
0
100
AcDbSpline
70
4
71
3
72
126
73
122
40
0
40
0
40
0
40
0
40
0.0049683780132753
40
0.0049683780132753
40
0.0227127176138954
40
0.0227127176138954
40
0.0315848874142054
40
0.0315848874142054
40
0.0404570572145154
40
0.0404570572145154
40
0.0582013968151355
40
0.0582013968151355
40
0.0759457364157556
40
0.0759457364157556
40
0.0936900760163757
40
0.0936900760163757
40
0.111434415616996
40
0.111434415616996
40
0.129178755217616
40
0.129178755217616
40
0.146923094818236
40
0.146923094818236
40
0.164667434418856
40
0.164667434418856
40
0.182411774019476
40
0.182411774019476
40
0.200156113620096
40
0.200156113620096
40
0.209028283420405
40
0.209028283420405
40
0.217900453220715
40
0.217900453220715
40
0.253389132421953
40
0.253389132421953
40
0.271133472022572
40
0.271133472022572
40
0.28887781162319
40
0.28887781162319
40
0.306622151223809
40
0.306622151223809
40
0.324366490824427
40
0.324366490824427
40
0.342110830425045
40
0.342110830425045
40
0.359855170025664
40
0.359855170025664
40
0.377599509626282
40
0.377599509626282
40
0.395343849226901
40
0.395343849226901
40
0.413088188827519
40
0.413088188827519
40
0.430832528428138
40
0.430832528428138
40
0.448576868028756
40
0.448576868028756
40
0.466321207629375
40
0.466321207629375
40
0.484065547229993
40
0.484065547229993
40
0.501809886830611
40
0.501809886830611
40
0.51955422643123
40
0.51955422643123
40
0.537298566031848
40
0.537298566031848
40
0.555042905632467
40
0.555042905632467
40
0.563915075432777
40
0.563915075432777
40
0.572787245233087
40
0.572787245233087
40
0.590531584833705
40
0.590531584833705
40
0.608275924434324
40
0.608275924434324
40
0.643764603635563
40
0.643764603635563
40
0.652636773435873
40
0.652636773435873
40
0.661508943236183
40
0.661508943236183
40
0.679253282836803
40
0.679253282836803
40
0.696997622437423
40
0.696997622437423
40
0.714741962038043
40
0.714741962038043
40
0.750230641239283
40
0.750230641239283
40
0.767974980839903
40
0.767974980839903
40
0.785719320440524
40
0.785719320440524
40
0.803463660041144
40
0.803463660041144
40
0.821207999641764
40
0.821207999641764
40
0.830080169442074
40
0.830080169442074
40
0.838952339242384
40
0.838952339242384
40
0.856696678843004
40
0.856696678843004
40
0.874441018443624
40
0.874441018443624
40
0.892185358044244
40
0.892185358044244
40
0.909929697644865
40
0.909929697644865
40
0.927674037245485
40
0.927674037245485
40
0.945418376846105
40
0.945418376846105
40
0.963162716446725
40
0.963162716446725
40
0.980907056047345
40
0.980907056047345
40
0.998651395647965
40
0.998651395647965
40
1
40
1
40
1
40
1
41
1
10
27.8272127997272
20
-0.8997137027159
30
0
41
1
10
27.811249723867
20
-0.906350092260539
30
0
41
1
10
27.7952818238267
20
-0.91293581705753
30
0
41
1
10
27.7222655618831
20
-0.942818341784999
30
0
41
1
10
27.6651728089574
20
-0.965552541070821
30
0
41
1
10
27.5791864531735
20
-0.998395686012628
30
0
41
1
10
27.550476069288
20
-1.009144562872
30
0
41
1
10
27.492966278038
20
-1.03024807595642
30
0
41
1
10
27.4641564409634
20
-1.040606002495
30
0
41
1
10
27.3779181145634
20
-1.0709830974443
30
0
41
1
10
27.3206031837138
20
-1.09037034168105
30
0
41
1
10
27.2063422149787
20
-1.12734292949548
30
0
41
1
10
27.1493183678588
20
-1.14483901496561
30
0
41
1
10
27.0353962939499
20
-1.17769306141221
30
0
41
1
10
26.9785103623775
20
-1.1930618578763
30
0
41
1
10
26.8649324340487
20
-1.2216544690672
30
0
41
1
10
26.8082658083948
20
-1.23491461771641
30
0
41
1
10
26.6949883493892
20
-1.25938367426096
30
0
41
1
10
26.6383495116293
20
-1.27057326280726
30
0
41
1
10
26.5249165226845
20
-1.29093953519344
30
0
41
1
10
26.4681581996239
20
-1.30013410451744
30
0
41
1
10
26.3546221886055
20
-1.31641914048731
30
0
41
1
10
26.2978692084744
20
-1.32351678798659
30
0
41
1
10
26.1842334473475
20
-1.33537929752211
30
0
41
1
10
26.1272718597262
20
-1.34011154716074
30
0
41
1
10
26.0130948664838
20
-1.34739516289039
30
0
41
1
10
25.9558805647853
20
-1.34995114963723
30
0
41
1
10
25.8699133410782
20
-1.352209431754
30
0
41
1
10
25.8412406324427
20
-1.35270075693421
30
0
41
1
10
25.7838251712383
20
-1.35314380408079
30
0
41
1
10
25.7550729725765
20
-1.35309367968603
30
0
41
1
10
25.6115295406068
20
-1.35147114220715
30
0
41
1
10
25.4970781000737
20
-1.3458438128169
30
0
41
1
10
25.3263612965213
20
-1.33040176043033
30
0
41
1
10
25.2695970147986
20
-1.32407229495803
30
0
41
1
10
25.1561257818251
20
-1.30902707727537
30
0
41
1
10
25.0994097141752
20
-1.30027243736814
30
0
41
1
10
24.9860243956694
20
-1.28066599564065
30
0
41
1
10
24.929371873178
20
-1.26986603017315
30
0
41
1
10
24.8160507674242
20
-1.24650898078696
30
0
41
1
10
24.7593595703261
20
-1.23395900999094
30
0
41
1
10
24.6457623557812
20
-1.2070692762511
30
0
41
1
10
24.588881411253
20
-1.19268683017032
30
0
41
1
10
24.4750541932887
20
-1.16164101876859
30
0
41
1
10
24.4181242113569
20
-1.14493453599988
30
0
41
1
10
24.3041126725799
20
-1.10919652231826
30
0
41
1
10
24.2469557120722
20
-1.09032068665997
30
0
41
1
10
24.1322389875969
20
-1.0511040751974
30
0
41
1
10
24.0746059024402
20
-1.03066330729732
30
0
41
1
10
23.959776597158
20
-0.988239573066352
30
0
41
1
10
23.902591905747
20
-0.966166374148941
30
0
41
1
10
23.7883971538394
20
-0.920545382395886
30
0
41
1
10
23.7313729732674
20
-0.897020613400514
30
0
41
1
10
23.6175643300419
20
-0.84832333101275
30
0
41
1
10
23.5607766229934
20
-0.823168486725478
30
0
41
1
10
23.4473282301856
20
-0.771686133109256
30
0
41
1
10
23.390656513345
20
-0.745373545475104
30
0
41
1
10
23.277231639059
20
-0.691873472630562
30
0
41
1
10
23.2204698903758
20
-0.66470736854555
30
0
41
1
10
23.1069306235086
20
-0.609306001914916
30
0
41
1
10
23.0501739514676
20
-0.581035557385633
30
0
41
1
10
22.9366904402399
20
-0.523215125521318
30
0
41
1
10
22.8799522451518
20
-0.493656994158755
30
0
41
1
10
22.7661685302568
20
-0.433936533879375
30
0
41
1
10
22.7091404563543
20
-0.403792481987864
30
0
41
1
10
22.5949044049659
20
-0.342652506167099
30
0
41
1
10
22.5376995010452
20
-0.31158606846941
30
0
41
1
10
22.4517385674371
20
-0.264331375262572
30
0
41
1
10
22.4230503622291
20
-0.24849158338651
30
0
41
1
10
22.3655557102308
20
-0.216798650327377
30
0
41
1
10
22.3367969835859
20
-0.200971719966816
30
0
41
1
10
22.2505232728868
20
-0.153483219963931
30
0
41
1
10
22.1930158035698
20
-0.121804825686269
30
0
41
1
10
22.0781297688111
20
-0.0582058674048369
30
0
41
1
10
22.0207903905325
20
-0.0262144937112225
30
0
41
1
10
21.8487401534089
20
0.0697166262917506
30
0
41
1
10
21.7337888789076
20
0.133236833584078
30
0
41
1
10
21.5900220920733
20
0.212523907720538
30
0
41
1
10
21.5612438497064
20
0.228390105716017
30
0
41
1
10
21.503807648273
20
0.259975504171905
30
0
41
1
10
21.4751420904088
20
0.275699008550475
30
0
41
1
10
21.3892515192724
20
0.322571664587343
30
0
41
1
10
21.3320941276891
20
0.353369437994274
30
0
41
1
10
21.2178310895826
20
0.414131247685219
30
0
41
1
10
21.1607627845696
20
0.444150912625048
30
0
41
1
10
21.0468461263721
20
0.503553321037714
30
0
41
1
10
20.9899729744221
20
0.532890331630199
30
0
41
1
10
20.8192912085098
20
0.619208887242735
30
0
41
1
10
20.7054487340297
20
0.674590780019173
30
0
41
1
10
20.5350410384244
20
0.754738663096276
30
0
41
1
10
20.4782492889996
20
0.780878542442792
30
0
41
1
10
20.3644214941906
20
0.831516670570721
30
0
41
1
10
20.3074247398685
20
0.856040838064644
30
0
41
1
10
20.1932714386967
20
0.903791508922637
30
0
41
1
10
20.1361432354103
20
0.927114602525535
30
0
41
1
10
20.0216698500668
20
0.972426886086794
30
0
41
1
10
19.9642536743545
20
0.994285715016531
30
0
41
1
10
19.8778467060116
20
1.02577410643434
30
0
41
1
10
19.8490189846469
20
1.03605035699593
30
0
41
1
10
19.7915053149609
20
1.05609790234439
30
0
41
1
10
19.7627932176627
20
1.06587888452671
30
0
41
1
10
19.676817185801
20
1.09450787175672
30
0
41
1
10
19.6197489975784
20
1.11263031329432
30
0
41
1
10
19.5057097975204
20
1.14678304346458
30
0
41
1
10
19.4487166434656
20
1.16289703713298
30
0
41
1
10
19.3347307317431
20
1.19347093205332
30
0
41
1
10
19.2777667227936
20
1.20787957416053
30
0
41
1
10
19.1640365606125
20
1.23478194535659
30
0
41
1
10
19.1072764029142
20
1.24728947213703
30
0
41
1
10
18.9936694809742
20
1.27011533107878
30
0
41
1
10
18.9368151680813
20
1.28043817008296
30
0
41
1
10
18.8230986544409
20
1.29888250255533
30
0
41
1
10
18.7662344017951
20
1.30699353372739
30
0
41
1
10
18.6525253009221
20
1.32081023454512
30
0
41
1
10
18.5956713087976
20
1.3265183860714
30
0
41
1
10
18.4815842927447
20
1.33548168977958
30
0
41
1
10
18.4243924260285
20
1.3387693166018
30
0
41
1
10
18.3097634373979
20
1.34344365272696
30
0
41
1
10
18.2523485103512
20
1.3448325004282
30
0
41
1
10
18.190440294874
20
1.34516659261857
30
0
41
1
10
18.186066972475
20
1.34518390317132
30
0
41
1
10
18.1816933534002
20
1.34519493342216
30
0
0
SPLINE
5
DB
100
AcDbEntity
8
SK1
62
256
6
ByLayer
370
18
48
1
60
0
100
AcDbSpline
70
4
71
3
72
70
73
66
40
0
40
0
40
0
40
0
40
0.0085325497830959
40
0.0085325497830959
40
0.0385770179714858
40
0.0385770179714858
40
0.0686214861598761
40
0.0686214861598761
40
0.0986659543482665
40
0.0986659543482665
40
0.128710422536657
40
0.128710422536657
40
0.158754890725047
40
0.158754890725047
40
0.218843827101827
40
0.218843827101827
40
0.248888295290217
40
0.248888295290217
40
0.278932763478607
40
0.278932763478607
40
0.339021699855388
40
0.339021699855388
40
0.36906616804378
40
0.36906616804378
40
0.399110636232171
40
0.399110636232171
40
0.429155104420562
40
0.429155104420562
40
0.459199572608953
40
0.459199572608953
40
0.489244040797344
40
0.489244040797344
40
0.519288508985735
40
0.519288508985735
40
0.549332977174126
40
0.549332977174126
40
0.579377445362517
40
0.579377445362517
40
0.609421913550909
40
0.609421913550909
40
0.6394663817393
40
0.6394663817393
40
0.654488615833495
40
0.654488615833495
40
0.669510849927691
40
0.669510849927691
40
0.699555318116082
40
0.699555318116082
40
0.759644254492864
40
0.759644254492864
40
0.789688722681256
40
0.789688722681256
40
0.819733190869648
40
0.819733190869648
40
0.84977765905804
40
0.84977765905804
40
0.879822127246432
40
0.879822127246432
40
0.909866595434824
40
0.909866595434824
40
0.939911063623216
40
0.939911063623216
40
0.969955531811608
40
0.969955531811608
40
1
40
1
40
1
40
1
41
1
10
12.5873166781477
20
-0.896122894331427
30
0
41
1
10
12.5710081928396
20
-0.902827247765828
30
0
41
1
10
12.5547048017804
20
-0.90947169833666
30
0
41
1
10
12.4810238617523
20
-0.939242418205851
30
0
41
1
10
12.4236978026822
20
-0.961607901281752
30
0
41
1
10
12.3087598559654
20
-1.00439255106923
30
0
41
1
10
12.2511190984689
20
-1.02493187710707
30
0
41
1
10
12.1358927013735
20
-1.06439728609769
30
0
41
1
10
12.0784111387186
20
-1.08327616922998
30
0
41
1
10
11.9638034159373
20
-1.11936684646378
30
0
41
1
10
11.906597176168
20
-1.13648771416794
30
0
41
1
10
11.7922403944235
20
-1.16872111855827
30
0
41
1
10
11.7351141849117
20
-1.18385898488995
30
0
41
1
10
11.5640118432467
20
-1.22634867743247
30
0
41
1
10
11.4504378439026
20
-1.25092568316148
30
0
41
1
10
11.2798308346586
20
-1.28039599487354
30
0
41
1
10
11.2229505786883
20
-1.2890563544151
30
0
41
1
10
11.1091422175392
20
-1.30453895034484
30
0
41
1
10
11.0522578837158
20
-1.31134862225389
30
0
41
1
10
10.8813520431899
20
-1.32853106941855
30
0
41
1
10
10.7668505605666
20
-1.33568147176771
30
0
41
1
10
10.5946583199525
20
-1.33868103237657
30
0
41
1
10
10.5371367901684
20
-1.33831012008477
30
0
41
1
10
10.4217899060703
20
-1.33566835851658
30
0
41
1
10
10.3641628507099
20
-1.33342273713023
30
0
41
1
10
10.2490972224238
20
-1.32701078392896
30
0
41
1
10
10.1916754157598
20
-1.32282961658987
30
0
41
1
10
10.0771149326259
20
-1.31233486654122
30
0
41
1
10
10.0199556655338
20
-1.30602194860722
30
0
41
1
10
9.90566271543767
20
-1.29124034573809
30
0
41
1
10
9.84852989264795
20
-1.28278627772519
30
0
41
1
10
9.73443021113511
20
-1.26351675057174
30
0
41
1
10
9.67749604050505
20
-1.25264523204339
30
0
41
1
10
9.56367465518704
20
-1.22852591023033
30
0
41
1
10
9.50675732311501
20
-1.21532757508629
30
0
41
1
10
9.39273165235818
20
-1.1869787673815
30
0
41
1
10
9.33564322622479
20
-1.17181641911458
30
0
41
1
10
9.2213601177227
20
-1.13958246967624
30
0
41
1
10
9.16419718518722
20
-1.12247250749994
30
0
41
1
10
9.04967483122854
20
-1.08644786531556
30
0
41
1
10
8.99224213785425
20
-1.06761610924238
30
0
41
1
10
8.90584022410849
20
-1.03818919717753
30
0
41
1
10
8.87700000308232
20
-1.02817810980568
30
0
41
1
10
8.81925062347966
20
-1.00772211422378
30
0
41
1
10
8.7903152227629
20
-0.997267421100531
30
0
41
1
10
8.70369333128801
20
-0.965285487582634
30
0
41
1
10
8.64618920494593
20
-0.94309331778976
30
0
41
1
10
8.47387967143482
20
-0.874563659210111
30
0
41
1
10
8.35935342205693
20
-0.826194543379302
30
0
41
1
10
8.18842886848813
20
-0.748907732127748
30
0
41
1
10
8.1315671174668
20
-0.722384951995735
30
0
41
1
10
8.01777775472323
20
-0.668420535157395
30
0
41
1
10
7.96084296994391
20
-0.641011134886128
30
0
41
1
10
7.84696731367492
20
-0.585242690958637
30
0
41
1
10
7.79004041166499
20
-0.556849062425073
30
0
41
1
10
7.67620030673376
20
-0.499022231856458
30
0
41
1
10
7.61926722700315
20
-0.469622902541971
30
0
41
1
10
7.50509866163085
20
-0.410337772477618
30
0
41
1
10
7.44790741835263
20
-0.380377857996706
30
0
41
1
10
7.33338008338959
20
-0.319687079460124
30
0
41
1
10
7.27606469253459
20
-0.288914154102798
30
0
41
1
10
7.16123043414208
20
-0.226634554608864
30
0
41
1
10
7.10362741183727
20
-0.195287841056683
30
0
41
1
10
6.98802321576892
20
-0.132199011508305
30
0
41
1
10
6.93024997756308
20
-0.100544309432536
30
0
41
1
10
6.87251537305951
20
-0.0687622020309675
30
0
0
SPLINE
5
DC
100
AcDbEntity
8
SK1
62
256
6
ByLayer
370
18
48
1
60
0
100
AcDbSpline
70
4
71
3
72
11
73
7
40
0
40
0
40
0
40
0
40
0.500000000000007
40
0.750000000000003
40
0.750000000000003
40
1
40
1
40
1
40
1
41
1
10
30.4222407800985
20
-1.37265976786915
30
0
41
1
10
30.4931951922037
20
-1.26712553671462
30
0
41
1
10
30.6000921874182
20
-1.10664096020429
30
0
41
1
10
30.7077184916706
20
-0.942734966187771
30
0
41
1
10
30.7796349607569
20
-0.832687423903792
30
0
41
1
10
30.8156982907992
20
-0.777240701111566
30
0
41
1
10
30.8517927269534
20
-0.721479991306751
30
0
0
SPLINE
5
DD
100
AcDbEntity
8
SK1
62
256
6
ByLayer
370
18
48
1
60
0
100
AcDbSpline
70
4
71
3
72
14
73
10
40
0
40
0
40
0
40
0
40
0.500000000000082
40
0.500000000000082
40
0.625000000000075
40
0.625000000000075
40
0.750000000000068
40
0.750000000000068
40
1
40
1
40
1
40
1
41
1
10
6.87251537301279
20
-0.0687622020052459
30
0
41
1
10
6.84749428610124
20
-0.054988437061894
30
0
41
1
10
6.82239089657523
20
-0.0427447683924527
30
0
41
1
10
6.79113004817438
20
-0.029211960133523
30
0
41
1
10
6.78485548139625
20
-0.0265842360522015
30
0
41
1
10
6.77252213430305
20
-0.0215896543719509
30
0
41
1
10
6.76645351415476
20
-0.0192176152618231
30
0
41
1
10
6.74855213411013
20
-0.0124638978928999
30
0
41
1
10
6.73702196213617
20
-0.0084420986717078
30
0
41
1
10
6.72594284783801
20
-0.0048934724880496
30
0
0
SPLINE
5
DE
100
AcDbEntity
8
SK1
62
256
6
ByLayer
370
18
48
1
60
0
100
AcDbSpline
70
4
71
3
72
63
73
59
40
0
40
0
40
0
40
0
40
0.0258901393323123
40
0.0258901393323123
40
0.0498181631135745
40
0.0498181631135745
40
0.0617821750042056
40
0.0617821750042056
40
0.0737461868948367
40
0.121602234457365
40
0.121602234457365
40
0.169458282019894
40
0.169458282019894
40
0.217314329582422
40
0.217314329582422
40
0.265170377144951
40
0.265170377144951
40
0.277134389035584
40
0.277134389035584
40
0.289098400926216
40
0.313026424707481
40
0.313026424707481
40
0.36088247227001
40
0.36088247227001
40
0.408738519832538
40
0.408738519832538
40
0.456594567395067
40
0.456594567395067
40
0.480522591176332
40
0.480522591176332
40
0.492486603066966
40
0.492486603066966
40
0.504450614957599
40
0.504450614957599
40
0.552306662520132
40
0.552306662520132
40
0.600162710082664
40
0.600162710082664
40
0.648018757645197
40
0.648018757645197
40
0.695874805207729
40
0.695874805207729
40
0.707838817098362
40
0.707838817098362
40
0.719802828988996
40
0.743730852770264
40
0.743730852770264
40
0.791586900332801
40
0.791586900332801
40
0.839442947895337
40
0.839442947895337
40
0.887298995457874
40
0.887298995457874
40
0.911227019239143
40
0.911227019239143
40
0.935155043020412
40
0.935155043020412
40
1
40
1
40
1
40
1
41
1
10
22.8162621034727
20
-1.39385730228483
30
0
41
1
10
22.7502883868766
20
-1.39380616271299
30
0
41
1
10
22.6842071837299
20
-1.39220934120232
30
0
41
1
10
22.5567596029159
20
-1.38612903161339
30
0
41
1
10
22.4954028208718
20
-1.38187414291841
30
0
41
1
10
22.4030930738882
20
-1.37346995578255
30
0
41
1
10
22.3722641496271
20
-1.37032917006638
30
0
41
1
10
22.3107618551996
20
-1.36340135586366
30
0
41
1
10
22.1572391089732
20
-1.34445628912934
30
0
41
1
10
22.0047535252277
20
-1.3174753708355
30
0
41
1
10
21.7612619763428
20
-1.26471556718693
30
0
41
1
10
21.6397404000941
20
-1.23356360947997
30
0
41
1
10
21.3965936454513
20
-1.16225734267689
30
0
41
1
10
21.274993470359
20
-1.1220788582105
30
0
41
1
10
21.0311423539565
20
-1.0331314775153
30
0
41
1
10
20.908837307784
20
-0.984417298850474
30
0
41
1
10
20.7549887755395
20
-0.918699844272311
30
0
41
1
10
20.7241451005674
20
-0.905303986174175
30
0
41
1
10
20.6625910922965
20
-0.878149647311716
30
0
41
1
10
20.5703908950005
20
-0.836844610692793
30
0
41
1
10
20.4785393327643
20
-0.793894002915607
30
0
41
1
10
20.2951862922751
20
-0.705992075279511
30
0
41
1
10
20.173440049457
20
-0.644690156508346
30
0
41
1
10
19.9303300890724
20
-0.517652899750942
30
0
41
1
10
19.8088837429556
20
-0.452049252915486
30
0
41
1
10
19.5654950888795
20
-0.317872571112645
30
0
41
1
10
19.4435754304765
20
-0.249264262105641
30
0
41
1
10
19.2599732658845
20
-0.144687229731119
30
0
41
1
10
19.1986330184516
20
-0.109584534724718
30
0
41
1
10
19.106336392965
20
-0.0566963576119974
30
0
41
1
10
19.0754915522574
20
-0.0390093343518458
30
0
41
1
10
19.0139077149107
20
-0.0036991854986184
30
0
41
1
10
18.983159798796
20
0.0139290190429051
30
0
41
1
10
18.8296107299552
20
0.101886150925821
30
0
41
1
10
18.7073942221159
20
0.171690474001707
30
0
41
1
10
18.4636977841128
20
0.309325456078625
30
0
41
1
10
18.342188302226
20
0.377100796189865
30
0
41
1
10
18.0991415810329
20
0.509360680850591
30
0
41
1
10
17.977532758051
20
0.573725552395729
30
0
41
1
10
17.7335167696052
20
0.697885333523828
30
0
41
1
10
17.6111289078542
20
0.757712521305109
30
0
41
1
10
17.4573152103303
20
0.82906797491583
30
0
41
1
10
17.4264773618492
20
0.843176921868633
30
0
41
1
10
17.3648620613297
20
0.870949768897106
30
0
41
1
10
17.272580760929
20
0.911920941561021
30
0
41
1
10
17.1806778235691
20
0.950783458901441
30
0
41
1
10
16.9972525139418
20
1.02557501789929
30
0
41
1
10
16.8754717931728
20
1.07151436413986
30
0
41
1
10
16.6321299899503
20
1.15478223632474
30
0
41
1
10
16.5106154450475
20
1.1921675104289
30
0
41
1
10
16.2673103143915
20
1.25783711858603
30
0
41
1
10
16.1454278726333
20
1.28604145439294
30
0
41
1
10
15.9617624543398
20
1.3209671075293
30
0
41
1
10
15.9003984237994
20
1.33137831361387
30
0
41
1
10
15.777336335596
20
1.34967856483547
30
0
41
1
10
15.7155754710526
20
1.35757235374632
30
0
41
1
10
15.4875261415137
20
1.38183831691083
30
0
41
1
10
15.3221502554431
20
1.38976977362202
30
0
41
1
10
15.1571944104974
20
1.38805775452732
30
0
0
SPLINE
5
DF
100
AcDbEntity
8
SK1
62
256
6
ByLayer
370
18
48
1
60
0
100
AcDbSpline
70
4
71
3
72
14
73
10
40
0
40
0
40
0
40
0
40
0.11571560619144
40
0.11571560619144
40
0.242041948164093
40
0.242041948164093
40
0.494694632109399
40
0.494694632109399
40
1
40
1
40
1
40
1
41
1
10
7.57980878624653
20
-1.38270141732411
30
0
41
1
10
7.55166820474605
20
-1.38267558537066
30
0
41
1
10
7.52349238199054
20
-1.38236941792726
30
0
41
1
10
7.46447398393502
20
-1.38113912589762
30
0
41
1
10
7.43360211461822
20
-1.3801597854023
30
0
41
1
10
7.34104113446855
20
-1.37621747422904
30
0
41
1
10
7.27938530530309
20
-1.37225198623952
30
0
41
1
10
7.09443267357855
20
-1.35640005634014
30
0
41
1
10
6.97113987172659
20
-1.34056530829935
30
0
41
1
10
6.84755293704453
20
-1.31958719788329
30
0
0
SPLINE
5
E0
100
AcDbEntity
8
SK1
62
256
6
ByLayer
370
18
48
1
60
0
100
AcDbSpline
70
4
71
3
72
13
73
9
40
0
40
0
40
0
40
0
40
0.25
40
0.5
40
0.5
40
0.75
40
0.75
40
1
40
1
40
1
40
1
41
1
10
6.84755293704453
20
-1.31958719788329
30
0
41
1
10
6.83801370262606
20
-1.31796797240909
30
0
41
1
10
6.81894845346937
20
-1.31466269266002
30
0
41
1
10
6.80008036860951
20
-1.31113794409447
30
0
41
1
10
6.78156823283481
20
-1.30736173581275
30
0
41
1
10
6.77248482295153
20
-1.30535164530494
30
0
41
1
10
6.75515577973397
20
-1.30079364131825
30
0
41
1
10
6.74698813946148
20
-1.29828617412036
30
0
41
1
10
6.74003223308162
20
-1.29527854326597
30
0
0
SPLINE
5
E1
100
AcDbEntity
8
SK1
62
256
6
ByLayer
370
18
48
1
60
0
100
AcDbSpline
70
4
71
3
72
12
73
8
40
0
40
0
40
0
40
0
40
0.5
40
0.5
40
0.75
40
0.75
40
1
40
1
40
1
40
1
41
1
10
6.74003223308165
20
-1.29527854326599
30
0
41
1
10
6.73596448910487
20
-1.29351971104137
30
0
41
1
10
6.73249908831977
20
-1.29161872448569
30
0
41
1
10
6.72858804325972
20
-1.28845805492764
30
0
41
1
10
6.72749456772621
20
-1.28733819394552
30
0
41
1
10
6.72597296968337
20
-1.28503768918998
30
0
41
1
10
6.72553378418442
20
-1.28385842519282
30
0
41
1
10
6.72553580801792
20
-1.2826417705422
30
0
0
SPLINE
5
E2
100
AcDbEntity
8
SK1
62
256
6
ByLayer
370
18
48
1
60
0
100
AcDbSpline
70
4
71
3
72
32
73
28
40
0
40
0
40
0
40
0
40
0.124999999999999
40
0.124999999999999
40
0.187499999999999
40
0.187499999999999
40
0.218749999999999
40
0.218749999999999
40
0.249999999999998
40
0.249999999999998
40
0.374999999999998
40
0.499999999999998
40
0.499999999999998
40
0.531249999999998
40
0.531249999999998
40
0.562499999999998
40
0.624999999999998
40
0.624999999999998
40
0.749999999999998
40
0.749999999999998
40
0.781249999999999
40
0.781249999999999
40
0.812499999999999
40
0.812499999999999
40
0.874999999999999
40
0.874999999999999
40
1
40
1
40
1
40
1
41
1
10
6.72553580802119
20
-1.28264177054183
30
0
41
1
10
6.72557818137747
20
-1.25716846192495
30
0
41
1
10
6.72561085009093
20
-1.22721629053765
30
0
41
1
10
6.72564947134757
20
-1.17567563998028
30
0
41
1
10
6.72566060917026
20
-1.15738883803823
30
0
41
1
10
6.72567520063211
20
-1.12827076152945
30
0
41
1
10
6.72567971176801
20
-1.11828313326447
30
0
41
1
10
6.72568810909249
20
-1.09773634023796
30
0
41
1
10
6.72569200053738
20
-1.08715807497194
30
0
41
1
10
6.7257099631338
20
-1.03324288460772
30
0
41
1
10
6.72572949286038
20
-0.94000200972414
30
0
41
1
10
6.72574194882836
20
-0.833276147286909
30
0
41
1
10
6.72575050752809
20
-0.762221799648216
30
0
41
1
10
6.72575226027928
20
-0.74776152753671
30
0
41
1
10
6.72575588355141
20
-0.718599794703891
30
0
41
1
10
6.72576149617294
20
-0.67447315027303
30
0
41
1
10
6.72576791812892
20
-0.629213639354418
30
0
41
1
10
6.72578245098345
20
-0.537211024951233
30
0
41
1
10
6.72579442452252
20
-0.473905869780282
30
0
41
1
10
6.72581371587839
20
-0.392277955264206
30
0
41
1
10
6.72581778772633
20
-0.375826908355862
30
0
41
1
10
6.72582638494183
20
-0.342670395939138
30
0
41
1
10
6.72583092038073
20
-0.325930054195453
30
0
41
1
10
6.72584515857525
20
-0.275605481560632
30
0
41
1
10
6.72585547745194
20
-0.241968196040062
30
0
41
1
10
6.72588889012687
20
-0.140800662400892
30
0
41
1
10
6.7259144785647
20
-0.0730160903649733
30
0
41
1
10
6.72594284783833
20
-0.004893472488277
30
0
0
SPLINE
5
E3
100
AcDbEntity
8
SK1
62
256
6
ByLayer
370
18
48
1
60
0
100
AcDbSpline
70
4
71
3
72
32
73
28
40
0
40
0
40
0
40
0
40
0.125000000000006
40
0.125000000000006
40
0.187500000000007
40
0.187500000000007
40
0.250000000000008
40
0.250000000000008
40
0.375000000000007
40
0.375000000000007
40
0.437500000000007
40
0.437500000000007
40
0.500000000000007
40
0.500000000000007
40
0.562500000000006
40
0.562500000000006
40
0.625000000000006
40
0.625000000000006
40
0.687500000000005
40
0.687500000000005
40
0.750000000000005
40
0.750000000000005
40
0.875000000000004
40
0.875000000000004
40
0.937500000000002
40
0.937500000000002
40
1
40
1
40
1
40
1
41
1
10
4.40469567604762
20
1.12610628877928
30
0
41
1
10
4.50217554583898
20
1.09391825944917
30
0
41
1
10
4.59938169934898
20
1.05936696063429
30
0
41
1
10
4.74464417481104
20
1.00395054761145
30
0
41
1
10
4.79297467195491
20
0.984878715552156
30
0
41
1
10
4.88944282074257
20
0.94551710699281
30
0
41
1
10
4.93759333465457
20
0.925241378199388
30
0
41
1
10
5.0821509062379
20
0.863122125305097
30
0
41
1
10
5.17852504957713
20
0.819819752609419
30
0
41
1
10
5.3228320789832
20
0.751656552138286
30
0
41
1
10
5.37088887757639
20
0.728389933007264
30
0
41
1
10
5.46718843567655
20
0.681184901628967
30
0
41
1
10
5.51541135861368
20
0.657219207109904
30
0
41
1
10
5.61195599753438
20
0.608490428412779
30
0
41
1
10
5.66027867458072
20
0.583728694381961
30
0
41
1
10
5.75699901931293
20
0.533355183188775
30
0
41
1
10
5.80538717859667
20
0.507725726776386
30
0
41
1
10
5.90236024656616
20
0.455804281335162
30
0
41
1
10
5.95095369713766
20
0.429527603829712
30
0
41
1
10
6.04844775237692
20
0.376506091074816
30
0
41
1
10
6.09733150800733
20
0.349730968891493
30
0
41
1
10
6.24332115702188
20
0.268946336800724
30
0
41
1
10
6.34002366429144
20
0.214187769777738
30
0
41
1
10
6.48498839878013
20
0.132225736428865
30
0
41
1
10
6.53327572701818
20
0.104898666033449
30
0
41
1
10
6.62971147943858
20
0.0501040102134311
30
0
41
1
10
6.67784524835955
20
0.0226102572524383
30
0
41
1
10
6.72594284783833
20
-0.004893472488277
30
0
0
SPLINE
5
E4
100
AcDbEntity
8
SK1
62
256
6
ByLayer
370
18
48
1
60
0
100
AcDbSpline
70
4
71
3
72
10
73
6
40
0
40
0
40
0
40
0
40
0.5
40
0.5
40
1
40
1
40
1
40
1
41
1
10
4.40469567604805
20
1.1261062887788
30
0
41
1
10
4.40005710886945
20
1.12763795205151
30
0
41
1
10
4.39582075829838
20
1.12944734097803
30
0
41
1
10
4.38804619858942
20
1.13353161936041
30
0
41
1
10
4.38449632431434
20
1.13582351011786
30
0
41
1
10
4.38139470771898
20
1.13827861026635
30
0
0
SPLINE
5
E5
100
AcDbEntity
8
SK1
62
256
6
ByLayer
370
18
48
1
60
0
100
AcDbSpline
70
4
71
3
72
102
73
98
40
0
40
0
40
0
40
0
40
0.0154361908979412
40
0.0154361908979412
40
0.0369350947262566
40
0.0369350947262566
40
0.0476845466404135
40
0.0476845466404135
40
0.0584339985545703
40
0.0584339985545703
40
0.0799329023828841
40
0.0799329023828841
40
0.122930710039513
40
0.122930710039513
40
0.165928517696142
40
0.165928517696142
40
0.187427421524458
40
0.187427421524458
40
0.208926325352773
40
0.208926325352773
40
0.219675777266932
40
0.219675777266932
40
0.23042522918109
40
0.23042522918109
40
0.251924133009407
40
0.251924133009407
40
0.273423036837724
40
0.273423036837724
40
0.294921940666041
40
0.294921940666041
40
0.316420844494358
40
0.316420844494358
40
0.337919748322675
40
0.337919748322675
40
0.359418652150992
40
0.359418652150992
40
0.380917555979309
40
0.380917555979309
40
0.391667007893468
40
0.391667007893468
40
0.402416459807628
40
0.402416459807628
40
0.423915363635946
40
0.423915363635946
40
0.445414267464265
40
0.445414267464265
40
0.466913171292583
40
0.466913171292583
40
0.488412075120902
40
0.488412075120902
40
0.509910978949221
40
0.509910978949221
40
0.531409882777539
40
0.531409882777539
40
0.552908786605858
40
0.552908786605858
40
0.563658238520018
40
0.563658238520018
40
0.574407690434178
40
0.574407690434178
40
0.595906594262498
40
0.595906594262498
40
0.617405498090818
40
0.617405498090818
40
0.638904401919138
40
0.638904401919138
40
0.660403305747459
40
0.660403305747459
40
0.681902209575779
40
0.681902209575779
40
0.703401113404099
40
0.703401113404099
40
0.724900017232419
40
0.724900017232419
40
0.73564946914658
40
0.73564946914658
40
0.746398921060741
40
0.746398921060741
40
0.767897824889062
40
0.767897824889062
40
0.810895632545704
40
0.810895632545704
40
0.853893440202346
40
0.853893440202346
40
0.875392344030666
40
0.875392344030666
40
0.896891247858987
40
0.896891247858987
40
0.918390151687307
40
0.918390151687307
40
0.939889055515627
40
0.939889055515627
40
0.961387959343947
40
0.961387959343947
40
0.982886863172267
40
0.982886863172267
40
1
40
1
40
1
40
1
41
1
10
29.9465505639759
20
-1.39907681785834
30
0
41
1
10
29.8965928880632
20
-1.39903457774653
30
0
41
1
10
29.8465916091203
20
-1.39810376809351
30
0
41
1
10
29.7268421646583
20
-1.39373447307293
30
0
41
1
10
29.6570420483309
20
-1.38944881602967
30
0
41
1
10
29.5519898760529
20
-1.38041436073806
30
0
41
1
10
29.5169157003863
20
-1.37696930293666
30
0
41
1
10
29.4466589871964
20
-1.369204068291
30
0
41
1
10
29.411450559325
20
-1.36488018229895
30
0
41
1
10
29.3058095312144
20
-1.35061226215825
30
0
41
1
10
29.2356479513001
20
-1.33941002894852
30
0
41
1
10
29.025728134071
20
-1.30092538997195
30
0
41
1
10
28.8864052545395
20
-1.26886500722543
30
0
41
1
10
28.608493228227
20
-1.19252195426949
30
0
41
1
10
28.4695627221931
20
-1.14853546901179
30
0
41
1
10
28.2609949547907
20
-1.07404609391659
30
0
41
1
10
28.1914204368586
20
-1.04781280809044
30
0
41
1
10
28.0519018231589
20
-0.992835251418228
30
0
41
1
10
27.9819770421076
20
-0.964073913963034
30
0
41
1
10
27.8768644801648
20
-0.91895626245369
30
0
41
1
10
27.8417874181747
20
-0.903589256800672
30
0
41
1
10
27.7715128618723
20
-0.872248612591648
30
0
41
1
10
27.736272801799
20
-0.856255291549218
30
0
41
1
10
27.630690774158
20
-0.807605407547044
30
0
41
1
10
27.560501914817
20
-0.774295907907657
30
0
41
1
10
27.4205600569843
20
-0.705888646918993
30
0
41
1
10
27.3508139539184
20
-0.67077737685301
30
0
41
1
10
27.2114767880066
20
-0.599214924350463
30
0
41
1
10
27.1418767124876
20
-0.562780574771381
30
0
41
1
10
27.0028210732586
20
-0.488604299971541
30
0
41
1
10
26.9333834876393
20
-0.450830820040608
30
0
41
1
10
26.7944476149214
20
-0.374313974465139
30
0
41
1
10
26.7249382703613
20
-0.335590649477638
30
0
41
1
10
26.5857642636076
20
-0.257338755096725
30
0
41
1
10
26.516105038825
20
-0.217800673215521
30
0
41
1
10
26.3765589762739
20
-0.138032472872595
30
0
41
1
10
26.3066429161893
20
-0.097853815598512
30
0
41
1
10
26.2014199485394
20
-0.0373786027516019
30
0
41
1
10
26.1662913006782
20
-0.0171787705710642
30
0
41
1
10
26.0959155123517
20
0.0232880276907395
30
0
41
1
10
26.060637379423
20
0.0435723989873509
30
0
41
1
10
25.955104719774
20
0.104248351044333
30
0
41
1
10
25.8850225944302
20
0.144542124508831
30
0
41
1
10
25.7451378617876
20
0.224349349831527
30
0
41
1
10
25.6753331482984
20
0.263861278976862
30
0
41
1
10
25.5359705587615
20
0.342069387138792
30
0
41
1
10
25.4664134252486
20
0.380765794930795
30
0
41
1
10
25.3274087577936
20
0.457108037290368
30
0
41
1
10
25.2579355482692
20
0.494710313460985
30
0
41
1
10
25.1189015424828
20
0.568541971227575
30
0
41
1
10
25.0493569897484
20
0.604799348243773
30
0
41
1
10
24.9102157778603
20
0.675988895989178
30
0
41
1
10
24.8405508523418
20
0.71081119514082
30
0
41
1
10
24.7008522295372
20
0.778626676903514
30
0
41
1
10
24.6308445180825
20
0.811661072945441
30
0
41
1
10
24.5255726821998
20
0.85985064570437
30
0
41
1
10
24.4904381434393
20
0.875685663226136
30
0
41
1
10
24.4200422960269
20
0.906838858589566
30
0
41
1
10
24.3847871439919
20
0.92215330617708
30
0
41
1
10
24.2792931022838
20
0.967036055275713
30
0
41
1
10
24.20915065745
20
0.995617657788273
30
0
41
1
10
24.0692740810505
20
1.05020174311804
30
0
41
1
10
23.9995501445463
20
1.0762090694796
30
0
41
1
10
23.8602369563767
20
1.12533995088404
30
0
41
1
10
23.7906308244677
20
1.14845207571616
30
0
41
1
10
23.6515433349617
20
1.19182319620799
30
0
41
1
10
23.5820855432472
20
1.21209884732698
30
0
41
1
10
23.4430897598414
20
1.24959228286366
30
0
41
1
10
23.3735345066954
20
1.26679948165278
30
0
41
1
10
23.2342307133302
20
1.29807679502798
30
0
41
1
10
23.1644813507306
20
1.31214811218274
30
0
41
1
10
23.0247829019649
20
1.33710478953969
30
0
41
1
10
22.9547837459774
20
1.34795682417211
30
0
41
1
10
22.84939474062
20
1.3616896964746
30
0
41
1
10
22.8142087448988
20
1.36584757021234
30
0
41
1
10
22.7437241370427
20
1.37331488556202
30
0
41
1
10
22.7084933622553
20
1.37661638004349
30
0
41
1
10
22.603053695497
20
1.38519345938536
30
0
41
1
10
22.5329819563912
20
1.38915166673567
30
0
41
1
10
22.3232093879482
20
1.39580702515204
30
0
41
1
10
22.1839998148068
20
1.39329276362241
30
0
41
1
10
21.9058658857364
20
1.37462991106341
30
0
41
1
10
21.766879244143
20
1.35850328595137
30
0
41
1
10
21.5579206310806
20
1.32427974477088
30
0
41
1
10
21.4881916582596
20
1.31119232294401
30
0
41
1
10
21.3483431549058
20
1.28177028787306
30
0
41
1
10
21.2782321961118
20
1.26543738885232
30
0
41
1
10
21.1376717380605
20
1.22943247617405
30
0
41
1
10
21.067077807493
20
1.20973313452089
30
0
41
1
10
20.926492040476
20
1.1676421380524
30
0
41
1
10
20.856392572882
20
1.1451970543776
30
0
41
1
10
20.716572145629
20
1.09755166401959
30
0
41
1
10
20.646862223663
20
1.07233448597711
30
0
41
1
10
20.5075568562848
20
1.01945504694334
30
0
41
1
10
20.4379428642797
20
0.9918200041418
30
0
41
1
10
20.3130059375252
20
0.940034013813658
30
0
41
1
10
20.257680881264
20
0.916298617029042
30
0
41
1
10
20.2023404342198
20
0.891861453834707
30
0
0
SPLINE
5
E6
100
AcDbEntity
8
SK1
62
256
6
ByLayer
370
18
48
1
60
0
100
AcDbSpline
70
4
71
3
72
100
73
96
40
0
40
0
40
0
40
0
40
0.021063133769695
40
0.021063133769695
40
0.0318758151503046
40
0.0318758151503046
40
0.0426884965309139
40
0.0426884965309139
40
0.0643138592921328
40
0.0643138592921328
40
0.0859392220533517
40
0.0859392220533517
40
0.107564584814571
40
0.107564584814571
40
0.129189947575789
40
0.129189947575789
40
0.150815310337008
40
0.150815310337008
40
0.172440673098227
40
0.172440673098227
40
0.194066035859446
40
0.194066035859446
40
0.204878717240056
40
0.204878717240056
40
0.215691398620667
40
0.215691398620667
40
0.237316761381887
40
0.237316761381887
40
0.258942124143109
40
0.258942124143109
40
0.28056748690433
40
0.28056748690433
40
0.302192849665551
40
0.302192849665551
40
0.323818212426772
40
0.323818212426772
40
0.367068937949214
40
0.367068937949214
40
0.388694300710435
40
0.388694300710435
40
0.410319663471656
40
0.410319663471656
40
0.431945026232876
40
0.431945026232876
40
0.453570388994097
40
0.453570388994097
40
0.475195751755318
40
0.475195751755318
40
0.496821114516538
40
0.496821114516538
40
0.518446477277759
40
0.518446477277759
40
0.54007184003898
40
0.54007184003898
40
0.583322565561421
40
0.583322565561421
40
0.604947928322642
40
0.604947928322642
40
0.626573291083863
40
0.626573291083863
40
0.648198653845083
40
0.648198653845083
40
0.669824016606304
40
0.669824016606304
40
0.691449379367525
40
0.691449379367525
40
0.702262060748135
40
0.702262060748135
40
0.713074742128746
40
0.713074742128746
40
0.734700104889967
40
0.734700104889967
40
0.756325467651187
40
0.756325467651187
40
0.799576193173629
40
0.799576193173629
40
0.821201555934851
40
0.821201555934851
40
0.842826918696073
40
0.842826918696073
40
0.864452281457294
40
0.864452281457294
40
0.875264962837905
40
0.875264962837905
40
0.886077644218516
40
0.886077644218516
40
0.929328369740962
40
0.929328369740962
40
0.950953732502184
40
0.950953732502184
40
0.972579095263407
40
0.972579095263407
40
0.99420445802463
40
0.99420445802463
40
1
40
1
40
1
40
1
41
1
10
14.7035380673786
20
-1.38791768120546
30
0
41
1
10
14.6352692338076
20
-1.38785123205821
30
0
41
1
10
14.5668304113136
20
-1.38613618919055
30
0
41
1
10
14.4629183949249
20
-1.38100873736903
30
0
41
1
10
14.4276085495136
20
-1.37882633613796
30
0
41
1
10
14.3571889880642
20
-1.37360341731394
30
0
41
1
10
14.3220371769204
20
-1.370561038418
30
0
41
1
10
14.2167138559253
20
-1.36016638150707
30
0
41
1
10
14.1466664023619
20
-1.35155323683898
30
0
41
1
10
14.0069213946879
20
-1.33099713896959
30
0
41
1
10
13.9372306268035
20
-1.31904225026091
30
0
41
1
10
13.7978611796287
20
-1.2920026920159
30
0
41
1
10
13.7282229579944
20
-1.27690105579902
30
0
41
1
10
13.5890125910667
20
-1.24356319821541
30
0
41
1
10
13.5194527827638
20
-1.22531336511241
30
0
41
1
10
13.3802052676702
20
-1.18581286432826
30
0
41
1
10
13.3104854712193
20
-1.1645946657363
30
0
41
1
10
13.1708125896527
20
-1.11925648739282
30
0
41
1
10
13.1008958834164
20
-1.095095854959
30
0
41
1
10
12.960711568851
20
-1.04394083752763
30
0
41
1
10
12.8904058239237
20
-1.01699319055137
30
0
41
1
10
12.7845510398126
20
-0.974582419143758
30
0
41
1
10
12.7492397974546
20
-0.960120340810505
30
0
41
1
10
12.6788260459535
20
-0.930650563124033
30
0
41
1
10
12.6436878752179
20
-0.915625497804228
30
0
41
1
10
12.5384214661247
20
-0.869763728159398
30
0
41
1
10
12.468424513454
20
-0.838164295301681
30
0
41
1
10
12.3286283151299
20
-0.773182427365072
30
0
41
1
10
12.2588652788203
20
-0.739747562634506
30
0
41
1
10
12.1195445085181
20
-0.671092535163496
30
0
41
1
10
12.0499504841419
20
-0.635926986829702
30
0
41
1
10
11.9107033227216
20
-0.564233758492747
30
0
41
1
10
11.8410736008438
20
-0.527670067473338
30
0
41
1
10
11.7017630418144
20
-0.453164825589454
30
0
41
1
10
11.6320599758118
20
-0.415258829970099
30
0
41
1
10
11.422520488915
20
-0.300057475392492
30
0
41
1
10
11.2822833935069
20
-0.221238003933848
30
0
41
1
10
11.0705836647818
20
-0.100776125432219
30
0
41
1
10
11.0001469066807
20
-0.0606007165311269
30
0
41
1
10
10.8597192401718
20
0.0194738767125671
30
0
41
1
10
10.7897038461609
20
0.059438950073627
30
0
41
1
10
10.6499802921984
20
0.139068402596308
30
0
41
1
10
10.5802536380884
20
0.178698550034113
30
0
41
1
10
10.4408643409687
20
0.257230007391314
30
0
41
1
10
10.3712046143505
20
0.296137743632841
30
0
41
1
10
10.2319502948315
20
0.373231014942434
30
0
41
1
10
10.1623842537864
20
0.41146381007664
30
0
41
1
10
10.023010356055
20
0.486675027958654
30
0
41
1
10
9.95322683689241
20
0.523696930745359
30
0
41
1
10
9.81344945013495
20
0.596539551012995
30
0
41
1
10
9.74346590638487
20
0.632376349116242
30
0
41
1
10
9.60312585493614
20
0.702565171802576
30
0
41
1
10
9.53272816773185
20
0.736872128996879
30
0
41
1
10
9.32078287091886
20
0.837114046078426
30
0
41
1
10
9.1806428913234
20
0.899741916916554
30
0
41
1
10
8.97094169577275
20
0.985897942782941
30
0
41
1
10
8.90117071876369
20
1.01338523728006
30
0
41
1
10
8.76182289841168
20
1.06582190896984
30
0
41
1
10
8.69221070437595
20
1.09072629265256
30
0
41
1
10
8.55289492097975
20
1.13768838378852
30
0
41
1
10
8.4832220404071
20
1.15978285964192
30
0
41
1
10
8.34383483628037
20
1.20116753013224
30
0
41
1
10
8.27409044754162
20
1.2204249116262
30
0
41
1
10
8.13426515872007
20
1.25585123856538
30
0
41
1
10
8.06420244438803
20
1.27203962873824
30
0
41
1
10
7.95886927503562
20
1.29399209507329
30
0
41
1
10
7.92371658450756
20
1.30091920918841
30
0
41
1
10
7.85329370822078
20
1.31396318365961
30
0
41
1
10
7.81799671972664
20
1.32008437413248
30
0
41
1
10
7.7120760881696
20
1.33717599669603
30
0
41
1
10
7.64169430755675
20
1.34683623715054
30
0
41
1
10
7.50132479466666
20
1.36272675898525
30
0
41
1
10
7.43133654845843
20
1.36895396250867
30
0
41
1
10
7.22170668728486
20
1.38247377716127
30
0
41
1
10
7.08241164856133
20
1.38461362559298
30
0
41
1
10
6.87343863599335
20
1.37758949492769
30
0
41
1
10
6.80379170042207
20
1.37353912637309
30
0
41
1
10
6.66434591359982
20
1.36203680602458
30
0
41
1
10
6.59452123994473
20
1.35459514092446
30
0
41
1
10
6.45463496791919
20
1.33632233336488
30
0
41
1
10
6.3846187522457
20
1.32546490155551
30
0
41
1
10
6.27924584274504
20
1.30667031077056
30
0
41
1
10
6.24406040998247
20
1.29999064353714
30
0
41
1
10
6.17356785030401
20
1.285797138817
30
0
41
1
10
6.13822248457558
20
1.27827465302656
30
0
41
1
10
5.96166326902792
20
1.23866741158372
30
0
41
1
10
5.82154016390356
20
1.20063615358109
30
0
41
1
10
5.61182277350235
20
1.13538665550342
30
0
41
1
10
5.54204268043051
20
1.1122292390115
30
0
41
1
10
5.40266254481389
20
1.06317715241977
30
0
41
1
10
5.33302562934051
20
1.0373206192094
30
0
41
1
10
5.19364596090381
20
0.983213958464404
30
0
41
1
10
5.1239362820333
20
0.954927281892424
30
0
41
1
10
5.03551284009788
20
0.917491417717713
30
0
41
1
10
5.01682030895984
20
0.909492665918521
30
0
41
1
10
4.99812150498781
20
0.901410733640574
30
0
0
SPLINE
5
E7
100
AcDbEntity
8
SK1
62
256
6
ByLayer
370
18
48
1
60
0
100
AcDbSpline
70
4
71
3
72
54
73
50
40
0
40
0
40
0
40
0
40
0.0241592592417396
40
0.0241592592417396
40
0.0483185184834793
40
0.0483185184834793
40
0.0966370369669606
40
0.0966370369669606
40
0.193274073933925
40
0.193274073933925
40
0.217433333175668
40
0.217433333175668
40
0.241592592417411
40
0.289911110900896
40
0.289911110900896
40
0.386548147867867
40
0.386548147867867
40
0.398627777488738
40
0.398627777488738
40
0.41070740710961
40
0.434866666351352
40
0.483185184834836
40
0.483185184834836
40
0.579822221801803
40
0.579822221801803
40
0.603981481043546
40
0.603981481043546
40
0.616061110664418
40
0.616061110664418
40
0.62814074028529
40
0.62814074028529
40
0.676459258768778
40
0.676459258768778
40
0.773096295735758
40
0.773096295735758
40
0.821414814219246
40
0.821414814219246
40
0.833494443840119
40
0.833494443840119
40
0.845574073460991
40
0.869733332702733
40
0.869733332702733
40
0.893892591944475
40
0.893892591944475
40
0.918051851186217
40
0.918051851186217
40
0.966370369669702
40
0.966370369669702
40
1
40
1
40
1
40
1
41
1
10
30.312724422345
20
-1.3975638017609
30
0
41
1
10
30.2512679805694
20
-1.39572227670004
30
0
41
1
10
30.1897236703005
20
-1.39251867490802
30
0
41
1
10
30.0668132527983
20
-1.3834405690171
30
0
41
1
10
30.0055001998589
20
-1.37757346308715
30
0
41
1
10
29.8218602707166
20
-1.3560926104839
30
0
41
1
10
29.6998425164329
20
-1.33660011745849
30
0
41
1
10
29.3341475873342
20
-1.26325668359811
30
0
41
1
10
29.0907833615776
20
-1.19453387939674
30
0
41
1
10
28.7835673501082
20
-1.0863500279394
30
0
41
1
10
28.7219163990414
20
-1.06357170778884
30
0
41
1
10
28.599100661003
20
-1.01619195661715
30
0
41
1
10
28.4153054745865
20
-0.942287691019459
30
0
41
1
10
28.2324024741789
20
-0.860447464914301
30
0
41
1
10
27.8667275866425
20
-0.687723474189823
30
0
41
1
10
27.6230838242688
20
-0.560570689037377
30
0
41
1
10
27.3460625841726
20
-0.408554215867213
30
0
41
1
10
27.3152719809106
20
-0.391553976885518
30
0
41
1
10
27.253830855942
20
-0.357448082635045
30
0
41
1
10
27.1618037400692
20
-0.306090062548407
30
0
41
1
10
26.9478935217236
20
-0.185077088735397
30
0
41
1
10
26.7655407578497
20
-0.0800529092537658
30
0
41
1
10
26.4010526035276
20
0.129755410918705
30
0
41
1
10
26.1582750713186
20
0.269178064327292
30
0
41
1
10
25.8523068118672
20
0.437994483128108
30
0
41
1
10
25.7909705744717
20
0.471453299151051
30
0
41
1
10
25.6986706281638
20
0.521040662480118
30
0
41
1
10
25.6678771267998
20
0.537457730271768
30
0
41
1
10
25.6064337662022
20
0.569936532787153
30
0
41
1
10
25.5757541913529
20
0.586014272738225
30
0
41
1
10
25.4225345644422
20
0.665551741884798
30
0
41
1
10
25.3005179447929
20
0.726443413970429
30
0
41
1
10
24.935297094891
20
0.899857918087918
30
0
41
1
10
24.6930403132975
20
1.00325668308176
30
0
41
1
10
24.3271823788257
20
1.13425816656374
30
0
41
1
10
24.2048638617563
20
1.17396531125092
30
0
41
1
10
24.0510374637716
20
1.21802154533569
30
0
41
1
10
24.0202255077227
20
1.22655031253154
30
0
41
1
10
23.95875213588
20
1.2429642253918
30
0
41
1
10
23.8666707343475
20
1.26664875415486
30
0
41
1
10
23.7749238833262
20
1.28751153615863
30
0
41
1
10
23.6528044040278
20
1.31280002238847
30
0
41
1
10
23.5918462768692
20
1.32417909957158
30
0
41
1
10
23.4701023598671
20
1.3444113404139
30
0
41
1
10
23.4093240391582
20
1.3532660630014
30
0
41
1
10
23.2270693792726
20
1.37596187627949
30
0
41
1
10
23.1056494110647
20
1.38592981801426
30
0
41
1
10
22.8992968280772
20
1.39395254931932
30
0
41
1
10
22.8144996325053
20
1.39471106790265
30
0
41
1
10
22.7294919841312
20
1.39289873405048
30
0
0
SPLINE
5
E8
100
AcDbEntity
8
SK1
62
256
6
ByLayer
370
18
48
1
60
0
100
AcDbSpline
70
4
71
3
72
60
73
56
40
0
40
0
40
0
40
0
40
0.0363399612175242
40
0.0363399612175242
40
0.0844724207713193
40
0.0844724207713193
40
0.132604880325114
40
0.132604880325114
40
0.156671110102011
40
0.156671110102011
40
0.180737339878908
40
0.180737339878908
40
0.228869799432701
40
0.228869799432701
40
0.277002258986494
40
0.277002258986494
40
0.325134718540287
40
0.325134718540287
40
0.349200948317185
40
0.349200948317185
40
0.373267178094082
40
0.373267178094082
40
0.421399637647877
40
0.421399637647877
40
0.517664556755464
40
0.517664556755464
40
0.565797016309259
40
0.565797016309259
40
0.577830131197706
40
0.577830131197706
40
0.589863246086154
40
0.589863246086154
40
0.613929475863049
40
0.613929475863049
40
0.662061935416839
40
0.662061935416839
40
0.71019439497063
40
0.71019439497063
40
0.75832685452442
40
0.75832685452442
40
0.782393084301315
40
0.782393084301315
40
0.794426199189763
40
0.794426199189763
40
0.80645931407821
40
0.80645931407821
40
0.854591773631999
40
0.854591773631999
40
0.902724233185788
40
0.902724233185788
40
0.950856692739577
40
0.950856692739577
40
0.998989152293366
40
0.998989152293366
40
1
40
1
40
1
40
1
41
1
10
15.1973766237526
20
-1.38828396226921
30
0
41
1
10
15.1054232101635
20
-1.38820299739726
30
0
41
1
10
15.0136199796262
20
-1.38512427198489
30
0
41
1
10
14.8002565184884
20
-1.37105990456126
30
0
41
1
10
14.6786348906501
20
-1.35783916702698
30
0
41
1
10
14.4346277397786
20
-1.32118809840941
30
0
41
1
10
14.312256535053
20
-1.29776330246872
30
0
41
1
10
14.1278200016495
20
-1.25492727767437
30
0
41
1
10
14.0660644670687
20
-1.23935193152533
30
0
41
1
10
13.943058765123
20
-1.20599392501577
30
0
41
1
10
13.8817191245298
20
-1.18819040847757
30
0
41
1
10
13.6980617130006
20
-1.13157689010447
30
0
41
1
10
13.576102260499
20
-1.0895751199935
30
0
41
1
10
13.3327211514481
20
-0.99759913604359
30
0
41
1
10
13.2112092851657
20
-0.947719800378849
30
0
41
1
10
12.9677677141727
20
-0.841192426659489
30
0
41
1
10
12.8458317758555
20
-0.784559099271064
30
0
41
1
10
12.6621686491183
20
-0.695129776132461
30
0
41
1
10
12.6008187343456
20
-0.664576989555911
30
0
41
1
10
12.4778113021784
20
-0.6020349154889
30
0
41
1
10
12.416042471741
20
-0.569962048035109
30
0
41
1
10
12.2314829768906
20
-0.47247228746923
30
0
41
1
10
12.1091569611809
20
-0.405760576791153
30
0
41
1
10
11.7430717833729
20
-0.202684808953336
30
0
41
1
10
11.5001220693464
20
-0.0635383241838383
30
0
41
1
10
11.1343161479673
20
0.145418981590268
30
0
41
1
10
11.0120485221513
20
0.214930090136079
30
0
41
1
10
10.8583125058039
20
0.300772008995608
30
0
41
1
10
10.8275205661456
20
0.317888636473128
30
0
41
1
10
10.7658367181549
20
0.351999590545233
30
0
41
1
10
10.7349504981908
20
0.368991988990217
30
0
41
1
10
10.6425286717687
20
0.419572109494823
30
0
41
1
10
10.5810992540105
20
0.452832166458478
30
0
41
1
10
10.3973609230762
20
0.55123869003242
30
0
41
1
10
10.2754257726133
20
0.614698308316463
30
0
41
1
10
10.0317804032619
20
0.736011089707034
30
0
41
1
10
9.91009075649444
20
0.793907997338778
30
0
41
1
10
9.66655982359285
20
0.903574461456373
30
0
41
1
10
9.54466910313778
20
0.955270714963035
30
0
41
1
10
9.36121790025302
20
1.02744693108457
30
0
41
1
10
9.29996694117776
20
1.0506125011475
30
0
41
1
10
9.20786136582808
20
1.08390457908976
30
0
41
1
10
9.17712064025861
20
1.09475844666702
30
0
41
1
10
9.11554570528006
20
1.11595743013251
30
0
41
1
10
9.08468956010171
20
1.12630920659535
30
0
41
1
10
8.93075939082877
20
1.17654517578202
30
0
41
1
10
8.80828780843146
20
1.21199111340016
30
0
41
1
10
8.56395586223908
20
1.27310956347893
30
0
41
1
10
8.4421015936081
20
1.29878993259388
30
0
41
1
10
8.19838929346483
20
1.34016993566539
30
0
41
1
10
8.07648938370244
20
1.35587211855921
30
0
41
1
10
7.83256332601081
20
1.37712112937172
30
0
41
1
10
7.71040495269298
20
1.38258981372104
30
0
41
1
10
7.5849689519803
20
1.382703797896
30
0
41
1
10
7.58238851740941
20
1.38270378602522
30
0
41
1
10
7.57980778644321
20
1.38270141640624
30
0
0
SPLINE
5
E9
100
AcDbEntity
8
SK1
62
256
6
ByLayer
370
18
48
1
60
0
100
AcDbSpline
70
4
71
3
72
14
73
10
40
0
40
0
40
0
40
0
40
0.489596027032946
40
0.489596027032946
40
0.734394040549419
40
0.734394040549419
40
0.979192054065891
40
0.979192054065891
40
1
40
1
40
1
40
1
41
1
10
4.40469567604765
20
-1.12610628877928
30
0
41
1
10
4.50217554583898
20
-1.09391825944917
30
0
41
1
10
4.59938169934898
20
-1.05936696063429
30
0
41
1
10
4.74464417481104
20
-1.00395054761145
30
0
41
1
10
4.79297467195491
20
-0.984878715552156
30
0
41
1
10
4.8894428207426
20
-0.94551710699281
30
0
41
1
10
4.93759333465459
20
-0.92524137819936
30
0
41
1
10
4.98987501230479
20
-0.902774905360047
30
0
41
1
10
4.99397083714788
20
-0.901011437137527
30
0
41
1
10
4.99806665318317
20
-0.899244536691498
30
0
0
SPLINE
5
EA
100
AcDbEntity
8
SK1
62
256
6
ByLayer
370
18
48
1
60
0
100
AcDbSpline
70
4
71
3
72
10
73
6
40
0
40
0
40
0
40
0
40
0.5
40
0.5
40
1
40
1
40
1
40
1
41
1
10
4.40469567604808
20
-1.12610628877877
30
0
41
1
10
4.40005710887118
20
-1.12763795205092
30
0
41
1
10
4.39582075830157
20
-1.1294473409767
30
0
41
1
10
4.38804619859496
20
-1.13353161935717
30
0
41
1
10
4.38449632431318
20
-1.13582351011877
30
0
41
1
10
4.38139470771898
20
-1.13827861026635
30
0
0
SPLINE
5
EB
100
AcDbEntity
8
SK1
62
256
6
ByLayer
370
18
48
1
60
0
100
AcDbSpline
70
4
71
3
72
20
73
16
40
0
40
0
40
0
40
0
40
0.124999999999985
40
0.124999999999985
40
0.249999999999969
40
0.249999999999969
40
0.374999999999954
40
0.374999999999954
40
0.499999999999939
40
0.499999999999939
40
0.624999999999923
40
0.624999999999923
40
0.749999999999908
40
0.749999999999908
40
1
40
1
40
1
40
1
41
1
10
3.50819257007387
20
-0.194283209206105
30
0
41
1
10
3.50926910537501
20
-0.190965109632685
30
0
41
1
10
3.51069008345004
20
-0.187817804790797
30
0
41
1
10
3.51428327952101
20
-0.181897049589139
30
0
41
1
10
3.51647622243871
20
-0.179122658137828
30
0
41
1
10
3.52143036370305
20
-0.174303271006835
30
0
41
1
10
3.52425915000552
20
-0.172189012078803
30
0
41
1
10
3.53034539722441
20
-0.168777875282245
30
0
41
1
10
3.53356972028195
20
-0.167481867107142
30
0
41
1
10
3.54036320272647
20
-0.165670089250597
30
0
41
1
10
3.54382636614716
20
-0.165184844139503
30
0
41
1
10
3.5508030953257
20
-0.164961126800364
30
0
41
1
10
3.55433460487686
20
-0.165230165071193
30
0
41
1
10
3.56462827299552
20
-0.167012251331471
30
0
41
1
10
3.57127384987646
20
-0.169509308312712
30
0
41
1
10
3.5773816096104
20
-0.1729604707036
30
0
0
SPLINE
5
EC
100
AcDbEntity
8
SK1
62
256
6
ByLayer
370
18
48
1
60
0
100
AcDbSpline
70
4
71
3
72
28
73
24
40
0
40
0
40
0
40
0
40
0.161238291939466
40
0.161238291939466
40
0.241857437909199
40
0.241857437909199
40
0.322476583878932
40
0.322476583878932
40
0.362786156863799
40
0.362786156863799
40
0.403095729848665
40
0.403095729848665
40
0.483714875818404
40
0.483714875818404
40
0.644953167757876
40
0.644953167757876
40
0.806191459697348
40
0.806191459697348
40
0.886810605667087
40
0.886810605667087
40
0.967429751636826
40
0.967429751636826
40
1
40
1
40
1
40
1
41
1
10
30.4222407800984
20
1.37265976786912
30
0
41
1
10
30.2831844798491
20
1.38816529442383
30
0
41
1
10
30.1444579607493
20
1.39689204585309
30
0
41
1
10
29.9358628690577
20
1.39962764703066
30
0
41
1
10
29.8662478875386
20
1.39882096623842
30
0
41
1
10
29.7268421646583
20
1.39373447307298
30
0
41
1
10
29.6570420483309
20
1.38944881602973
30
0
41
1
10
29.5519898760529
20
1.38041436073811
30
0
41
1
10
29.5169157003863
20
1.37696930293671
30
0
41
1
10
29.4466589871964
20
1.36920406829105
30
0
41
1
10
29.411450559325
20
1.364880182299
30
0
41
1
10
29.3058095312144
20
1.35061226215831
30
0
41
1
10
29.2356479513
20
1.33941002894858
30
0
41
1
10
29.025728134071
20
1.30092538997201
30
0
41
1
10
28.8864052545395
20
1.26886500722549
30
0
41
1
10
28.608493228227
20
1.19252195426955
30
0
41
1
10
28.4695627221931
20
1.14853546901185
30
0
41
1
10
28.2609949547907
20
1.07404609391665
30
0
41
1
10
28.1914204368586
20
1.0478128080905
30
0
41
1
10
28.0519018231589
20
0.992835251418285
30
0
41
1
10
27.9819770421076
20
0.964073913963091
30
0
41
1
10
27.883591585568
20
0.921843749844783
30
0
41
1
10
27.855255355025
20
0.90947801727566
30
0
41
1
10
27.8268824028106
20
0.896911191393087
30
0
0
SPLINE
5
ED
100
AcDbEntity
8
SK1
62
256
6
ByLayer
370
18
48
1
60
0
100
AcDbSpline
70
4
71
3
72
100
73
96
40
0
40
0
40
0
40
0
40
0.0288974749530942
40
0.0288974749530942
40
0.0719637989939141
40
0.0719637989939141
40
0.0934969610143241
40
0.0934969610143241
40
0.115030123034734
40
0.115030123034734
40
0.136563285055144
40
0.136563285055144
40
0.158096447075554
40
0.158096447075554
40
0.179629609095964
40
0.179629609095964
40
0.201162771116374
40
0.201162771116374
40
0.222695933136784
40
0.222695933136784
40
0.244229095157194
40
0.244229095157194
40
0.287295419198014
40
0.287295419198014
40
0.29806200020822
40
0.29806200020822
40
0.308828581218425
40
0.308828581218425
40
0.330361743238838
40
0.330361743238838
40
0.351894905259252
40
0.351894905259252
40
0.373428067279665
40
0.373428067279665
40
0.394961229300078
40
0.394961229300078
40
0.416494391320491
40
0.416494391320491
40
0.459560715361317
40
0.459560715361317
40
0.470327296371524
40
0.470327296371524
40
0.48109387738173
40
0.48109387738173
40
0.502627039402142
40
0.502627039402142
40
0.524160201422555
40
0.524160201422555
40
0.545693363442967
40
0.545693363442967
40
0.567226525463379
40
0.567226525463379
40
0.588759687483792
40
0.588759687483792
40
0.610292849504204
40
0.610292849504204
40
0.631826011524617
40
0.631826011524617
40
0.642592592534823
40
0.642592592534823
40
0.65335917354503
40
0.65335917354503
40
0.674892335565443
40
0.674892335565443
40
0.696425497585855
40
0.696425497585855
40
0.717958659606267
40
0.717958659606267
40
0.761024983647092
40
0.761024983647092
40
0.804091307687917
40
0.804091307687917
40
0.814857888698122
40
0.814857888698122
40
0.825624469708327
40
0.825624469708327
40
0.847157631728738
40
0.847157631728738
40
0.868690793749148
40
0.868690793749148
40
0.890223955769559
40
0.890223955769559
40
0.911757117789969
40
0.911757117789969
40
0.93329027981038
40
0.93329027981038
40
0.954823441830791
40
0.954823441830791
40
0.976356603851201
40
0.976356603851201
40
0.987123184861408
40
0.987123184861408
40
0.997889765871614
40
0.997889765871614
40
1
40
1
40
1
40
1
41
1
10
22.3252169048911
20
-1.39349691328658
30
0
41
1
10
22.2316247408722
20
-1.39341473804436
30
0
41
1
10
22.1382466915144
20
-1.39022271820588
30
0
41
1
10
21.9058658857364
20
-1.37462991106338
30
0
41
1
10
21.766879244143
20
-1.35850328595134
30
0
41
1
10
21.5579206310806
20
-1.32427974477082
30
0
41
1
10
21.4881916582596
20
-1.31119232294398
30
0
41
1
10
21.3483431549058
20
-1.281770287873
30
0
41
1
10
21.2782321961118
20
-1.26543738885229
30
0
41
1
10
21.1376717380605
20
-1.22943247617403
30
0
41
1
10
21.067077807493
20
-1.20973313452083
30
0
41
1
10
20.926492040476
20
-1.16764213805237
30
0
41
1
10
20.856392572882
20
-1.14519705437758
30
0
41
1
10
20.7165721456291
20
-1.09755166401956
30
0
41
1
10
20.646862223663
20
-1.07233448597708
30
0
41
1
10
20.5075568562848
20
-1.01945504694331
30
0
41
1
10
20.4379428642797
20
-0.991820004141772
30
0
41
1
10
20.2988149172838
20
-0.93415187747442
30
0
41
1
10
20.2293265367991
20
-0.904081309804894
30
0
41
1
10
20.0902499987238
20
-0.841791154673871
30
0
41
1
10
20.020632017154
20
-0.809616561349287
30
0
41
1
10
19.8114886503419
20
-0.710076337071399
30
0
41
1
10
19.6718020277154
20
-0.639478472664166
30
0
41
1
10
19.4958887598245
20
-0.547334787111311
30
0
41
1
10
19.460610511391
20
-0.528682736487099
30
0
41
1
10
19.3901040220901
20
-0.491077161442689
30
0
41
1
10
19.3549131784484
20
-0.472146130276741
30
0
41
1
10
19.2495372850035
20
-0.414952122433107
30
0
41
1
10
19.1795432867109
20
-0.37629775537863
30
0
41
1
10
19.0397301144015
20
-0.298536825399026
30
0
41
1
10
18.9699522720168
20
-0.259357750460111
30
0
41
1
10
18.8306192944066
20
-0.180465103628819
30
0
41
1
10
18.7610705641245
20
-0.14073998855855
30
0
41
1
10
18.621971163259
20
-0.0611533879995534
30
0
41
1
10
18.5524066085754
20
-0.0213167582248559
30
0
41
1
10
18.4132152565684
20
0.0583848962352818
30
0
41
1
10
18.3436113143581
20
0.0982907807899664
30
0
41
1
10
18.1345042298993
20
0.217693380289091
30
0
41
1
10
17.9945394055114
20
0.296576127351471
30
0
41
1
10
17.818588008244
20
0.393761345755024
30
0
41
1
10
17.7833086951539
20
0.413156024303817
30
0
41
1
10
17.7128621554808
20
0.451552745019825
30
0
41
1
10
17.67768544433
20
0.47055497068331
30
0
41
1
10
17.5722961748949
20
0.52698783792161
30
0
41
1
10
17.5022272094534
20
0.563850758554281
30
0
41
1
10
17.3624603791637
20
0.636067490763764
30
0
41
1
10
17.2927684048798
20
0.67142565788896
30
0
41
1
10
17.1534268258205
20
0.7401236069947
30
0
41
1
10
17.0838024276947
20
0.773507455311687
30
0
41
1
10
16.9446387288701
20
0.838344601719854
30
0
41
1
10
16.8751179476631
20
0.869821152447059
30
0
41
1
10
16.7359546584408
20
0.930537415388528
30
0
41
1
10
16.6662835404193
20
0.959741501487514
30
0
41
1
10
16.5267308207941
20
1.01579812761449
30
0
41
1
10
16.4568834239915
20
1.04269155905217
30
0
41
1
10
16.316854907817
20
1.09393733370021
30
0
41
1
10
16.2466369181645
20
1.11824794917493
30
0
41
1
10
16.1409280650946
20
1.15264199829386
30
0
41
1
10
16.1056026149376
20
1.16377528017443
30
0
41
1
10
16.0351561988864
20
1.18525892774235
30
0
41
1
10
16.0000037276238
20
1.19562189510884
30
0
41
1
10
15.8946991965633
20
1.22552571738561
30
0
41
1
10
15.8246836456997
20
1.24386731514468
30
0
41
1
10
15.6848797038106
20
1.27730912718937
30
0
41
1
10
15.6151208080376
20
1.29243345233601
30
0
41
1
10
15.4758121010574
20
1.319452480688
30
0
41
1
10
15.4062315260026
20
1.33132605384876
30
0
41
1
10
15.1974530101235
20
1.36193857712615
30
0
41
1
10
15.0583485113051
20
1.37572886702316
30
0
41
1
10
14.7792045350547
20
1.38960791425501
30
0
41
1
10
14.6391597740912
20
1.38970522129881
30
0
41
1
10
14.4629183949249
20
1.38100873736906
30
0
41
1
10
14.4276085495136
20
1.37882633613796
30
0
41
1
10
14.3571889880642
20
1.37360341731397
30
0
41
1
10
14.3220371769204
20
1.370561038418
30
0
41
1
10
14.2167138559254
20
1.36016638150707
30
0
41
1
10
14.1466664023619
20
1.35155323683898
30
0
41
1
10
14.0069213946879
20
1.33099713896962
30
0
41
1
10
13.9372306268035
20
1.31904225026093
30
0
41
1
10
13.7978611796287
20
1.29200269201593
30
0
41
1
10
13.7282229579943
20
1.27690105579904
30
0
41
1
10
13.5890125910667
20
1.24356319821544
30
0
41
1
10
13.5194527827638
20
1.22531336511244
30
0
41
1
10
13.3802052676702
20
1.18581286432828
30
0
41
1
10
13.3104854712193
20
1.16459466573633
30
0
41
1
10
13.1708125896527
20
1.11925648739285
30
0
41
1
10
13.1008958834164
20
1.09509585495903
30
0
41
1
10
12.960711568851
20
1.04394083752766
30
0
41
1
10
12.8904058239237
20
1.0169931905514
30
0
41
1
10
12.7845510398126
20
0.974582419143786
30
0
41
1
10
12.7492397974546
20
0.960120340810505
30
0
41
1
10
12.6788260459535
20
0.930650563124033
30
0
41
1
10
12.6436878752179
20
0.915625497804257
30
0
41
1
10
12.6017217181215
20
0.897341961335087
30
0
41
1
10
12.5948460990254
20
0.894335838231768
30
0
41
1
10
12.587972137911
20
0.891319997515723
30
0
0
SPLINE
5
EE
100
AcDbEntity
8
SK1
62
256
6
ByLayer
370
18
48
1
60
0
100
AcDbSpline
70
4
71
3
72
40
73
36
40
0
40
0
40
0
40
0
40
0.0399615056475806
40
0.0399615056475806
40
0.0999639115446062
40
0.0999639115446062
40
0.159966317441633
40
0.159966317441633
40
0.219968723338658
40
0.219968723338658
40
0.249969926287173
40
0.249969926287173
40
0.279971129235687
40
0.279971129235687
40
0.399975941029741
40
0.399975941029741
40
0.459978346926767
40
0.459978346926767
40
0.519980752823792
40
0.519980752823792
40
0.579983158720819
40
0.579983158720819
40
0.639985564617845
40
0.639985564617845
40
0.699987970514871
40
0.699987970514871
40
0.729989173463383
40
0.729989173463383
40
0.759990376411895
40
0.759990376411895
40
0.819992782308921
40
0.819992782308921
40
0.879995188205947
40
0.879995188205947
40
1
40
1
40
1
40
1
41
1
10
7.08228291157377
20
-1.38233741357473
30
0
41
1
10
7.03587784858826
20
-1.38229303041072
30
0
41
1
10
6.9894882034024
20
-1.38149022505124
30
0
41
1
10
6.87343863599338
20
-1.37758949492769
30
0
41
1
10
6.80379170042207
20
-1.37353912637309
30
0
41
1
10
6.66434591359982
20
-1.36203680602458
30
0
41
1
10
6.59452123994473
20
-1.35459514092446
30
0
41
1
10
6.45463496791919
20
-1.33632233336488
30
0
41
1
10
6.38461875224573
20
-1.32546490155551
30
0
41
1
10
6.27924584274504
20
-1.30667031077056
30
0
41
1
10
6.24406040998247
20
-1.29999064353714
30
0
41
1
10
6.17356785030401
20
-1.285797138817
30
0
41
1
10
6.13822248457558
20
-1.27827465302656
30
0
41
1
10
5.96166326902795
20
-1.23866741158375
30
0
41
1
10
5.82154016390356
20
-1.20063615358111
30
0
41
1
10
5.61182277350238
20
-1.13538665550345
30
0
41
1
10
5.54204268043054
20
-1.11222923901153
30
0
41
1
10
5.40266254481389
20
-1.06317715241977
30
0
41
1
10
5.33302562934051
20
-1.03732061920942
30
0
41
1
10
5.19364596090381
20
-0.983213958464404
30
0
41
1
10
5.1239362820333
20
-0.954927281892424
30
0
41
1
10
4.98446684972848
20
-0.895880058554241
30
0
41
1
10
4.91467915090149
20
-0.86515210094754
30
0
41
1
10
4.77474140356551
20
-0.801632336569241
30
0
41
1
10
4.70461215636627
20
-0.768815645769564
30
0
41
1
10
4.59918401582954
20
-0.717963566828132
30
0
41
1
10
4.56399957486005
20
-0.700744987230706
30
0
41
1
10
4.49350873530133
20
-0.665826674154061
30
0
41
1
10
4.45816927542836
20
-0.648110203807562
30
0
41
1
10
4.35221759982608
20
-0.594440932654464
30
0
41
1
10
4.28168922020268
20
-0.557974297088776
30
0
41
1
10
4.14080251586728
20
-0.48374517671283
30
0
41
1
10
4.07045452920244
20
-0.445964518552529
30
0
41
1
10
3.85940366131672
20
-0.331112843019326
30
0
41
1
10
3.7185759345119
20
-0.252741694119408
30
0
41
1
10
3.57738160961219
20
-0.172960470704595
30
0
0
SPLINE
5
EF
100
AcDbEntity
8
SK1
62
256
6
ByLayer
370
18
48
1
60
0
100
AcDbSpline
70
4
71
3
72
15
73
11
40
0
40
0
40
0
40
0
40
0.147086468576394
40
0.235150557217212
40
0.302230549864379
40
0.362772908562746
40
0.43091224364467
40
0.577095414912827
40
0.755244870427456
40
1
40
1
40
1
40
1
41
1
10
7.65107468741692
20
-1.33543047695895
30
0
41
1
10
7.79441118180026
20
-1.3355424277803
30
0
41
1
10
8.02362251699793
20
-1.33576642272274
30
0
41
1
10
8.31846698842992
20
-1.33670283535065
30
0
41
1
10
8.52876999853839
20
-1.33671560150359
30
0
41
1
10
8.71976814984848
20
-1.33652666484161
30
0
41
1
10
8.98787138791013
20
-1.33610698861401
30
0
41
1
10
9.37076346260542
20
-1.33716689931694
30
0
41
1
10
9.92591337699241
20
-1.33894334093122
30
0
41
1
10
10.3384759807661
20
-1.33874785766966
30
0
41
1
10
10.5772448751926
20
-1.33830058195636
30
0
0
SPLINE
5
F0
100
AcDbEntity
8
SK1
62
256
6
ByLayer
370
18
48
1
60
0
100
AcDbSpline
70
4
71
3
72
16
73
12
40
0
40
0
40
0
40
0
40
0.164148021473884
40
0.313616314472642
40
0.433043890261789
40
0.514109074815003
40
0.559979153252179
40
0.600415808621121
40
0.652466503378134
40
0.790533979715532
40
1
40
1
40
1
40
1
41
1
10
22.8991461231929
20
-1.35082776829216
30
0
41
1
10
23.0585583032123
20
-1.35083349845121
30
0
41
1
10
23.3631350101189
20
-1.35087111238082
30
0
41
1
10
23.7837517565414
20
-1.35210230208884
30
0
41
1
10
24.1236386344461
20
-1.35153383177567
30
0
41
1
10
24.3629253341857
20
-1.35242277332188
30
0
41
1
10
24.5254877582717
20
-1.35258167779776
30
0
41
1
10
24.6598697523066
20
-1.35236051819658
30
0
41
1
10
24.8838007378469
20
-1.3517744458251
30
0
41
1
10
25.2719011718702
20
-1.35430364557763
30
0
41
1
10
25.6094507667469
20
-1.35361971816215
30
0
41
1
10
25.8128996923799
20
-1.35303991077751
30
0
0
SPLINE
5
F1
100
AcDbEntity
8
SK1
62
256
6
ByLayer
370
18
48
1
60
0
100
AcDbSpline
70
4
71
3
72
16
73
12
40
0
40
0
40
0
40
0
40
0.182374080165078
40
0.319371362416395
40
0.448278334632022
40
0.543853127022859
40
0.617468112640254
40
0.676989576947695
40
0.758749041544174
40
0.854624052493574
40
1
40
1
40
1
40
1
41
1
10
18.1944086074509
20
1.34522421218017
30
0
41
1
10
18.0484656925586
20
1.34559546692739
30
0
41
1
10
17.7928927498073
20
1.34593528998914
30
0
41
1
10
17.4341669736054
20
1.34561858417828
30
0
41
1
10
17.1448985644008
20
1.34489952237652
30
0
41
1
10
16.9063492316371
20
1.34537278690811
30
0
41
1
10
16.7233276747653
20
1.34435755947311
30
0
41
1
10
16.5513630997537
20
1.34364880500837
30
0
41
1
10
16.3615808396415
20
1.34376013470359
30
0
41
1
10
16.1030996550112
20
1.34423893357786
30
0
41
1
10
15.9100477117613
20
1.34396348801701
30
0
41
1
10
15.7937197261941
20
1.34378800691351
30
0
0
SPLINE
5
F2
100
AcDbEntity
8
SK1
62
256
6
ByLayer
370
18
48
1
60
0
100
AcDbSpline
70
4
71
3
72
17
73
13
40
0
40
0
40
0
40
0
40
0.11448727925382
40
0.199878403362311
40
0.260068876626049
40
0.344128465266821
40
0.463768407234402
40
0.575237345800508
40
0.63832364955915
40
0.73017203519138
40
0.850754992355866
40
1
40
1
40
1
40
1
41
1
10
15.2813323545519
20
-1.34286209362259
30
0
41
1
10
15.3924893820468
20
-1.34292378495701
30
0
41
1
10
15.5865608508387
20
-1.3431053862144
30
0
41
1
10
15.8391003432448
20
-1.34402709431555
30
0
41
1
10
16.062088775404
20
-1.34416978844598
30
0
41
1
10
16.3183357845346
20
-1.34386913916373
30
0
41
1
10
16.6243784497575
20
-1.34353389859748
30
0
41
1
10
16.9100465785897
20
-1.3455085329239
30
0
41
1
10
17.168737105325
20
-1.3448832351805
30
0
41
1
10
17.4362726274853
20
-1.34559340822389
30
0
41
1
10
17.7874735498293
20
-1.34593802379439
30
0
41
1
10
18.049486153587
20
-1.34559412274717
30
0
41
1
10
18.1944086074509
20
-1.34522421218014
30
0
0
SPLINE
5
F3
100
AcDbEntity
8
SK1
62
256
6
ByLayer
370
18
48
1
60
0
100
AcDbSpline
70
4
71
3
72
15
73
11
40
0
40
0
40
0
40
0
40
0.200640559102034
40
0.335720284317472
40
0.466417987549931
40
0.621912766354949
40
0.729554982374899
40
0.81201361971212
40
0.961125300463889
40
1
40
1
40
1
40
1
41
1
10
25.8128996923799
20
1.35303991077754
30
0
41
1
10
25.6483532665324
20
1.35366351438793
30
0
41
1
10
25.373028299082
20
1.35421159342434
30
0
41
1
10
24.9905196932614
20
1.35210015766947
30
0
41
1
10
24.6450380665239
20
1.35242873220219
30
0
41
1
10
24.3220539462543
20
1.35220040543686
30
0
41
1
10
24.0386279916633
20
1.35168393211194
30
0
41
1
10
23.7604515209956
20
1.35197820295898
30
0
41
1
10
23.5386766488323
20
1.35128507026383
30
0
41
1
10
23.3845247132177
20
1.35104396223426
30
0
41
1
10
23.3526469821837
20
1.35100276766704
30
0
0
SPLINE
5
F4
100
AcDbEntity
8
SK1
62
256
6
ByLayer
370
18
48
1
60
0
100
AcDbSpline
70
4
71
3
72
16
73
12
40
0
40
0
40
0
40
0
40
0.194006118013329
40
0.344313165131731
40
0.470580470380843
40
0.578663594927234
40
0.647949275376936
40
0.709510171346976
40
0.777718687463707
40
0.867264326518235
40
1
40
1
40
1
40
1
41
1
10
10.5772448751926
20
1.33830058195636
30
0
41
1
10
10.3911160985258
20
1.33810691078776
30
0
41
1
10
10.0607851587106
20
1.33764138317883
30
0
41
1
10
9.60931133423725
20
1.33885563023071
30
0
41
1
10
9.24028646304069
20
1.33642647180966
30
0
41
1
10
8.94896292308479
20
1.33621571832987
30
0
41
1
10
8.71976841527652
20
1.33651763929083
30
0
41
1
10
8.52876992348234
20
1.3367181536893
30
0
41
1
10
8.3184670165013
20
1.33670188081774
30
0
41
1
10
8.03976505404461
20
1.33581813305332
30
0
41
1
10
7.82667014418905
20
1.33557651548591
30
0
41
1
10
7.69945127909094
20
1.33546958077906
30
0
0
LINE
5
80
100
AcDbEntity
8
4
62
256
6
ByLayer
370
13
48
0.05
60
0
100
AcDbLine
10
0
20
0
30
0
11
31.208
21
0
31
0
39
0
210
0
220
0
230
1
0
LINE
5
82
100
AcDbEntity
8
81
62
256
6
ByLayer
370
18
48
1
60
0
100
AcDbLine
10
31.208
20
0
30
0
11
41.208
21
0
31
0
39
0
210
0
220
0
230
1
0
LINE
5
83
100
AcDbEntity
8
80
62
256
6
ByLayer
370
18
48
1
60
0
100
AcDbLine
10
0
20
0
30
0
11
-10
21
0
31
0
39
0
210
0
220
0
230
1
0
LINE
5
84
100
AcDbEntity
8
SK4
62
256
6
ByLayer
370
13
48
0.05
60
0
100
AcDbLine
10
-23.792
20
0
30
0
11
36.208
21
0
31
0
39
0
210
0
220
0
230
1
0
LINE
5
86
100
AcDbEntity
8
SK1
62
256
6
ByLayer
370
18
48
1
60
0
100
AcDbLine
10
31.19431
20
-0.032926
30
0
11
31.208
21
0
31
0
39
0
210
0
220
0
230
1
0
LINE
5
88
100
AcDbEntity
8
SK1
62
256
6
ByLayer
370
18
48
1
60
0
100
AcDbLine
10
31.163143
20
-0.088743
30
0
11
30.851793
21
-0.72148
31
0
39
0
210
0
220
0
230
1
0
LINE
5
89
100
AcDbEntity
8
SK1
62
256
6
ByLayer
370
18
48
1
60
0
100
AcDbLine
10
31.19431
20
-0.032926
30
0
11
31.186046
21
-0.046849
31
0
39
0
210
0
220
0
230
1
0
LINE
5
8A
100
AcDbEntity
8
SK1
62
256
6
ByLayer
370
18
48
1
60
0
100
AcDbLine
10
31.163143
20
0.088743
30
0
11
30.851793
21
0.72148
31
0
39
0
210
0
220
0
230
1
0
LINE
5
8B
100
AcDbEntity
8
SK1
62
256
6
ByLayer
370
13
48
1
60
0
100
AcDbLine
10
31.163143
20
0.088743
30
0
11
30.223775
21
0.627255
31
0
39
0
210
0
220
0
230
1
0
LINE
5
8C
100
AcDbEntity
8
SK1
62
256
6
ByLayer
370
18
48
1
60
0
100
AcDbLine
10
31.208
20
0
30
0
11
30.367165
21
-1.399384
31
0
39
0
210
0
220
0
230
1
0
LINE
5
8D
100
AcDbEntity
8
SK1
62
256
6
ByLayer
370
18
48
1
60
0
100
AcDbLine
10
31.208
20
0
30
0
11
31.19431
21
0.032926
31
0
39
0
210
0
220
0
230
1
0
LINE
5
8E
100
AcDbEntity
8
SK1
62
256
6
ByLayer
370
18
48
1
60
0
100
AcDbLine
10
29.864958
20
-0.859007
30
0
11
31.19431
21
0.032926
31
0
39
0
210
0
220
0
230
1
0
LINE
5
8F
100
AcDbEntity
8
SK1
62
256
6
ByLayer
370
18
48
1
60
0
100
AcDbLine
10
31.19431
20
0.032926
30
0
11
31.186046
21
0.046849
31
0
39
0
210
0
220
0
230
1
0
LINE
5
90
100
AcDbEntity
8
SK1
62
256
6
ByLayer
370
13
48
1
60
0
100
AcDbLine
10
31.186046
20
0.046849
30
0
11
30.198159
21
0.613175
31
0
39
0
210
0
220
0
230
1
0
LINE
5
91
100
AcDbEntity
8
SK1
62
256
6
ByLayer
370
18
48
1
60
0
100
AcDbLine
10
-18.792
20
-1.35
30
0
11
-18.792
21
1.35
31
0
39
0
210
0
220
0
230
1
0
LINE
5
92
100
AcDbEntity
8
SK1
62
256
6
ByLayer
370
18
48
1
60
0
100
AcDbLine
10
-18.705397
20
-1.5
30
0
11
-18.705397
21
1.5
31
0
39
0
210
0
220
0
230
1
0
LINE
5
93
100
AcDbEntity
8
SK1
62
256
6
ByLayer
370
18
48
1
60
0
100
AcDbLine
10
-0.000159
20
-1.5
30
0
11
-0.000159
21
1.5
31
0
39
0
210
0
220
0
230
1
0
LINE
5
94
100
AcDbEntity
8
SK1
62
256
6
ByLayer
370
18
48
1
60
0
100
AcDbLine
10
0.317
20
-1.377384
30
0
11
0.317
21
1.377384
31
0
39
0
210
0
220
0
230
1
0
LINE
5
95
100
AcDbEntity
8
SK1
62
256
6
ByLayer
370
18
48
1
60
0
100
AcDbLine
10
-18.792
20
-1.35
30
0
11
-18.705397
21
-1.5
31
0
39
0
210
0
220
0
230
1
0
LINE
5
96
100
AcDbEntity
8
SK1
62
256
6
ByLayer
370
18
48
1
60
0
100
AcDbLine
10
-18.705397
20
1.5
30
0
11
-18.792
21
1.35
31
0
39
0
210
0
220
0
230
1
0
LINE
5
97
100
AcDbEntity
8
SK1
62
256
6
ByLayer
370
18
48
1
60
0
100
AcDbLine
10
0.317
20
1.377384
30
0
11
-0.000159
21
1.5
31
0
39
0
210
0
220
0
230
1
0
LINE
5
98
100
AcDbEntity
8
SK1
62
256
6
ByLayer
370
18
48
1
60
0
100
AcDbLine
10
-0.000159
20
-1.5
30
0
11
0.317
21
-1.377384
31
0
39
0
210
0
220
0
230
1
0
LINE
5
99
100
AcDbEntity
8
SK1
62
256
6
ByLayer
370
18
48
1
60
0
100
AcDbLine
10
-18.705397
20
-1.5
30
0
11
-0.000159
21
-1.5
31
0
39
0
210
0
220
0
230
1
0
LINE
5
9A
100
AcDbEntity
8
SK1
62
256
6
ByLayer
370
18
48
1
60
0
100
AcDbLine
10
-0.000159
20
1.5
30
0
11
-18.705397
21
1.5
31
0
39
0
210
0
220
0
230
1
0
LINE
5
9B
100
AcDbEntity
8
SK1
62
256
6
ByLayer
370
18
48
1
60
0
100
AcDbLine
10
0.317
20
-1.377384
30
0
11
3.825132
21
-1.379953
31
0
39
0
210
0
220
0
230
1
0
LINE
5
9C
100
AcDbEntity
8
SK1
62
256
6
ByLayer
370
18
48
1
60
0
100
AcDbLine
10
7.082504
20
-1.382337
30
0
11
7.579958
21
-1.382702
31
0
39
0
210
0
220
0
230
1
0
LINE
5
9D
100
AcDbEntity
8
SK1
62
256
6
ByLayer
370
18
48
1
60
0
100
AcDbLine
10
14.703737
20
-1.387917
30
0
11
15.197359
21
-1.388278
31
0
39
0
210
0
220
0
230
1
0
LINE
5
9E
100
AcDbEntity
8
SK1
62
256
6
ByLayer
370
18
48
1
60
0
100
AcDbLine
10
22.325588
20
-1.393497
30
0
11
22.816451
21
-1.393856
31
0
39
0
210
0
220
0
230
1
0
LINE
5
9F
100
AcDbEntity
8
SK1
62
256
6
ByLayer
370
18
48
1
60
0
100
AcDbLine
10
29.946905
20
-1.399077
30
0
11
30.367165
21
-1.399384
31
0
39
0
210
0
220
0
230
1
0
LINE
5
A0
100
AcDbEntity
8
SK1
62
256
6
ByLayer
370
18
48
1
60
0
100
AcDbLine
10
30.367165
20
1.399384
30
0
11
29.946905
21
1.399077
31
0
39
0
210
0
220
0
230
1
0
LINE
5
A1
100
AcDbEntity
8
SK1
62
256
6
ByLayer
370
18
48
1
60
0
100
AcDbLine
10
22.816451
20
1.393856
30
0
11
22.325588
21
1.393497
31
0
39
0
210
0
220
0
230
1
0
LINE
5
A2
100
AcDbEntity
8
SK1
62
256
6
ByLayer
370
18
48
1
60
0
100
AcDbLine
10
15.197359
20
1.388278
30
0
11
14.703737
21
1.387917
31
0
39
0
210
0
220
0
230
1
0
LINE
5
A3
100
AcDbEntity
8
SK1
62
256
6
ByLayer
370
18
48
1
60
0
100
AcDbLine
10
7.579958
20
1.382702
30
0
11
7.082504
21
1.382337
31
0
39
0
210
0
220
0
230
1
0
LINE
5
A4
100
AcDbEntity
8
SK1
62
256
6
ByLayer
370
18
48
1
60
0
100
AcDbLine
10
3.825132
20
1.379953
30
0
11
0.317
21
1.377384
31
0
39
0
210
0
220
0
230
1
0
LINE
5
A5
100
AcDbEntity
8
2
62
256
6
ByLayer
370
13
48
1
60
0
100
AcDbLine
10
48.208
20
25.923531
30
0
11
48.208
21
-10.15
31
0
39
0
210
0
220
0
230
1
0
LINE
5
A7
100
AcDbEntity
8
2
62
256
6
ByLayer
370
13
48
1
60
0
100
AcDbLine
10
32.7955
20
1.4
30
0
11
50.208
21
1.4
31
0
39
0
210
0
220
0
230
1
0
LINE
5
A8
100
AcDbEntity
8
2
62
256
6
ByLayer
370
13
48
1
60
0
100
AcDbLine
10
32.7955
20
-1.4
30
0
11
50.208
21
-1.4
31
0
39
0
210
0
220
0
230
1
0
LINE
5
A9
100
AcDbEntity
8
1
62
256
6
ByLayer
370
18
48
1
60
1
100
AcDbLine
10
48.208
20
1.4
30
0
11
47.747216
21
4.899998
31
0
39
0
210
0
220
0
230
1
0
LINE
5
AA
100
AcDbEntity
8
1
62
256
6
ByLayer
370
18
48
1
60
1
100
AcDbLine
10
47.747216
20
4.899998
30
0
11
48.668784
21
4.900002
31
0
39
0
210
0
220
0
230
1
0
LINE
5
AB
100
AcDbEntity
8
1
62
256
6
ByLayer
370
18
48
1
60
1
100
AcDbLine
10
48.668784
20
4.900002
30
0
11
48.208
21
1.4
31
0
39
0
210
0
220
0
230
1
0
LINE
5
AC
100
AcDbEntity
8
1
62
256
6
ByLayer
370
18
48
1
60
1
100
AcDbLine
10
48.208
20
-1.4
30
0
11
48.668784
21
-4.899998
31
0
39
0
210
0
220
0
230
1
0
LINE
5
AD
100
AcDbEntity
8
1
62
256
6
ByLayer
370
18
48
1
60
1
100
AcDbLine
10
48.668784
20
-4.899998
30
0
11
47.747216
21
-4.900002
31
0
39
0
210
0
220
0
230
1
0
LINE
5
AE
100
AcDbEntity
8
1
62
256
6
ByLayer
370
18
48
1
60
1
100
AcDbLine
10
47.747216
20
-4.900002
30
0
11
48.208
21
-1.4
31
0
39
0
210
0
220
0
230
1
0
LINE
5
AF
100
AcDbEntity
8
SK2
62
256
6
ByLayer
370
13
48
1
60
0
100
AcDbLine
10
-26.792
20
10.25
30
0
11
-26.792
21
-23.5
31
0
39
0
210
0
220
0
230
1
0
LINE
5
B1
100
AcDbEntity
8
SK2
62
256
6
ByLayer
370
13
48
1
60
0
100
AcDbLine
10
-20.3795
20
1.5
30
0
11
-28.792
21
1.5
31
0
39
0
210
0
220
0
230
1
0
LINE
5
B2
100
AcDbEntity
8
SK2
62
256
6
ByLayer
370
13
48
1
60
0
100
AcDbLine
10
-20.3795
20
-1.5
30
0
11
-28.792
21
-1.5
31
0
39
0
210
0
220
0
230
1
0
LINE
5
B3
100
AcDbEntity
8
1
62
256
6
ByLayer
370
18
48
1
60
1
100
AcDbLine
10
-26.792
20
1.5
30
0
11
-27.252784
21
4.999998
31
0
39
0
210
0
220
0
230
1
0
LINE
5
B4
100
AcDbEntity
8
1
62
256
6
ByLayer
370
18
48
1
60
1
100
AcDbLine
10
-27.252784
20
4.999998
30
0
11
-26.331216
21
5.000002
31
0
39
0
210
0
220
0
230
1
0
LINE
5
B5
100
AcDbEntity
8
1
62
256
6
ByLayer
370
18
48
1
60
1
100
AcDbLine
10
-26.331216
20
5.000002
30
0
11
-26.792
21
1.5
31
0
39
0
210
0
220
0
230
1
0
LINE
5
B6
100
AcDbEntity
8
1
62
256
6
ByLayer
370
18
48
1
60
1
100
AcDbLine
10
-26.792
20
-1.5
30
0
11
-26.331216
21
-4.999998
31
0
39
0
210
0
220
0
230
1
0
LINE
5
B7
100
AcDbEntity
8
1
62
256
6
ByLayer
370
18
48
1
60
1
100
AcDbLine
10
-26.331216
20
-4.999998
30
0
11
-27.252784
21
-5.000002
31
0
39
0
210
0
220
0
230
1
0
LINE
5
B8
100
AcDbEntity
8
1
62
256
6
ByLayer
370
18
48
1
60
1
100
AcDbLine
10
-27.252784
20
-5.000002
30
0
11
-26.792
21
-1.5
31
0
39
0
210
0
220
0
230
1
0
LINE
5
FA
100
AcDbEntity
8
1
62
256
6
ByLayer
370
18
48
1
60
1
100
AcDbLine
10
48.208
20
1.4
30
0
11
47.747216
21
4.899998
31
0
39
0
210
0
220
0
230
1
0
LINE
5
FB
100
AcDbEntity
8
1
62
256
6
ByLayer
370
18
48
1
60
1
100
AcDbLine
10
47.747216
20
4.899998
30
0
11
48.668784
21
4.900002
31
0
39
0
210
0
220
0
230
1
0
LINE
5
FC
100
AcDbEntity
8
1
62
256
6
ByLayer
370
18
48
1
60
1
100
AcDbLine
10
48.668784
20
4.900002
30
0
11
48.208
21
1.4
31
0
39
0
210
0
220
0
230
1
0
LINE
5
FE
100
AcDbEntity
8
1
62
256
6
ByLayer
370
18
48
1
60
1
100
AcDbLine
10
48.208
20
-1.4
30
0
11
48.668784
21
-4.899998
31
0
39
0
210
0
220
0
230
1
0
LINE
5
FF
100
AcDbEntity
8
1
62
256
6
ByLayer
370
18
48
1
60
1
100
AcDbLine
10
48.668784
20
-4.899998
30
0
11
47.747216
21
-4.900002
31
0
39
0
210
0
220
0
230
1
0
LINE
5
100
100
AcDbEntity
8
1
62
256
6
ByLayer
370
18
48
1
60
1
100
AcDbLine
10
47.747216
20
-4.900002
30
0
11
48.208
21
-1.4
31
0
39
0
210
0
220
0
230
1
0
LINE
5
104
100
AcDbEntity
8
1
62
256
6
ByLayer
370
18
48
1
60
1
100
AcDbLine
10
-26.792
20
1.5
30
0
11
-27.252784
21
4.999998
31
0
39
0
210
0
220
0
230
1
0
LINE
5
105
100
AcDbEntity
8
1
62
256
6
ByLayer
370
18
48
1
60
1
100
AcDbLine
10
-27.252784
20
4.999998
30
0
11
-26.331216
21
5.000002
31
0
39
0
210
0
220
0
230
1
0
LINE
5
106
100
AcDbEntity
8
1
62
256
6
ByLayer
370
18
48
1
60
1
100
AcDbLine
10
-26.331216
20
5.000002
30
0
11
-26.792
21
1.5
31
0
39
0
210
0
220
0
230
1
0
LINE
5
108
100
AcDbEntity
8
1
62
256
6
ByLayer
370
18
48
1
60
1
100
AcDbLine
10
-26.792
20
-1.5
30
0
11
-26.331216
21
-4.999998
31
0
39
0
210
0
220
0
230
1
0
LINE
5
109
100
AcDbEntity
8
1
62
256
6
ByLayer
370
18
48
1
60
1
100
AcDbLine
10
-26.331216
20
-4.999998
30
0
11
-27.252784
21
-5.000002
31
0
39
0
210
0
220
0
230
1
0
LINE
5
10A
100
AcDbEntity
8
1
62
256
6
ByLayer
370
18
48
1
60
1
100
AcDbLine
10
-27.252784
20
-5.000002
30
0
11
-26.792
21
-1.5
31
0
39
0
210
0
220
0
230
1
0
MTEXT
5
F5
100
AcDbEntity
8
2
62
256
6
ByLayer
370
18
48
1
60
0
100
AcDbMText
10
46.643366
20
10.893977
30
0
210
0
220
0
230
1
1
%%c
40
3.5
41
0
44
1.084337
50
90
71
7
72
5
7
iso_b_vert
0
MTEXT
5
F8
100
AcDbEntity
8
2
62
256
6
ByLayer
370
18
48
1
60
0
100
AcDbMText
10
46.643366
20
4.5575
30
0
210
0
220
0
230
1
1
\W0.2969; 
40
3.5
41
0
44
1.084337
50
90
71
7
72
5
7
iso_b_vert
0
MTEXT
5
F9
100
AcDbEntity
8
2
62
256
6
ByLayer
370
18
48
1
60
0
100
AcDbMText
10
46.643366
20
17.866633
30
0
210
0
220
0
230
1
1
\W0.7346;2.80
40
3.5
41
0
44
1.084337
50
90
71
7
72
5
7
iso_b_vert
0
MTEXT
5
102
100
AcDbEntity
8
SK2
62
256
6
ByLayer
370
18
48
1
60
0
100
AcDbMText
10
-28.356634
20
-21.565156
30
0
210
0
220
0
230
1
1
%%c
40
3.5
41
0
44
1.084337
50
90
71
7
72
5
7
iso_b_vert
0
MTEXT
5
103
100
AcDbEntity
8
SK2
62
256
6
ByLayer
370
18
48
1
60
0
100
AcDbMText
10
-28.356634
20
-14.5925
30
0
210
0
220
0
230
1
1
\W0.7346;3.00
40
3.5
41
0
44
1.084337
50
90
71
7
72
5
7
iso_b_vert
0
MTEXT
5
10C
100
AcDbEntity
8
SK6
62
256
6
ByLayer
370
18
48
1
60
0
100
AcDbMText
10
-18.6065
20
-60.362606
30
0
210
0
220
0
230
1
1
\W0.7585;862.1-2800-224A0-GM X1DU
40
3.5
41
0
44
1.084337
50
0
71
7
72
5
7
iso_b_vert
0
HATCH
5
FD
100
AcDbEntity
8
2
62
256
6
ByLayer
370
13
48
1
60
0
100
AcDbHatch
10
0
20
0
30
0
210
0
220
0
230
1
2
ANSI31
70
0
71
0
91
1
92
5
93
3
72
1
10
48.208
20
1.40000000000003
11
47.7472162584472
21
4.89999830744685
72
1
10
47.7472162584472
20
4.89999830744685
11
48.6687837415528
21
4.90000169255322
72
1
10
48.6687837415528
20
4.90000169255322
11
48.208
21
1.40000000000003
97
0
75
0
76
1
52
0
41
0.0062
77
0
78
1
53
45
43
0
44
0
45
-0.0139193969876572
46
0.0139193969876572
79
0
47
0
98
1
10
0
20
0
0
HATCH
5
101
100
AcDbEntity
8
2
62
256
6
ByLayer
370
13
48
1
60
0
100
AcDbHatch
10
0
20
0
30
0
210
0
220
0
230
1
2
ANSI31
70
0
71
0
91
1
92
5
93
3
72
1
10
48.208
20
-1.39999999999998
11
48.6687837415528
21
-4.89999830744679
72
1
10
48.6687837415528
20
-4.89999830744679
11
47.7472162584472
21
-4.90000169255316
72
1
10
47.7472162584472
20
-4.90000169255316
11
48.208
21
-1.39999999999998
97
0
75
0
76
1
52
0
41
0.0062
77
0
78
1
53
45
43
0
44
0
45
-0.0139193969876572
46
0.0139193969876572
79
0
47
0
98
1
10
0
20
0
0
HATCH
5
107
100
AcDbEntity
8
SK2
62
256
6
ByLayer
370
13
48
1
60
0
100
AcDbHatch
10
0
20
0
30
0
210
0
220
0
230
1
2
ANSI31
70
0
71
0
91
1
92
5
93
3
72
1
10
-26.792
20
1.49999999999997
11
-27.2527837415528
21
4.99999830744679
72
1
10
-27.2527837415528
20
4.99999830744679
11
-26.3312162584472
21
5.00000169255316
72
1
10
-26.3312162584472
20
5.00000169255316
11
-26.792
21
1.49999999999997
97
0
75
0
76
1
52
0
41
0.0062
77
0
78
1
53
45
43
0
44
0
45
-0.0139193969876572
46
0.0139193969876572
79
0
47
0
98
1
10
0
20
0
0
HATCH
5
10B
100
AcDbEntity
8
SK2
62
256
6
ByLayer
370
13
48
1
60
0
100
AcDbHatch
10
0
20
0
30
0
210
0
220
0
230
1
2
ANSI31
70
0
71
0
91
1
92
5
93
3
72
1
10
-26.792
20
-1.50000000000003
11
-26.3312162584472
21
-4.99999830744684
72
1
10
-26.3312162584472
20
-4.99999830744684
11
-27.2527837415528
21
-5.00000169255321
72
1
10
-27.2527837415528
20
-5.00000169255321
11
-26.792
21
-1.50000000000003
97
0
75
0
76
1
52
0
41
0.0062
77
0
78
1
53
45
43
0
44
0
45
-0.0139193969876572
46
0.0139193969876572
79
0
47
0
98
1
10
0
20
0
0
DIMENSION
5
10F
100
AcDbEntity
8
2
62
256
6
ByLayer
370
18
48
1
60
0
100
AcDbDimension
2
_U0
10
30.367
20
21.85
30
0
11
21.597932
21
21.85
31
0
70
32
71
1
72
1
41
1
210
0
220
0
230
1
3
Standard
100
AcDbAlignedDimension
13
0
23
-1.5
33
0
14
30.367
24
-1.4
34
0
50
0
100
AcDbRotatedDimension
1001
ACAD
1000
DSTYLE
1002
{
1070
   371
1070
    13
1070
   372
1070
    13
1070
   170
1070
     0
1070
   144
1040
1.0
1070
   277
1070
     2
1070
   284
1070
     8
1070
   278
1070
    46
1070
   146
1040
1.0
1070
   345
1005
16
1070
   347
1005
16
1070
   346
1005
16
1070
   344
1005
0
1070
   343
1005
0
1070
   172
1070
     1
1070
    76
1070
     0
1070
    75
1070
     0
1070
   282
1070
     0
1070
   281
1070
     0
1070
    71
1070
     0
1070
    74
1070
     0
1070
   279
1070
     0
1070
   173
1070
     1
1070
   340
1005
F6
1070
   271
1070
     2
1070
   272
1070
     2
1070
    77
1070
     1
1070
    73
1070
     1
1070
   171
1070
     3
1070
   274
1070
     4
1070
   177
1070
     2
1070
   176
1070
     2
1070
   178
1070
     2
1070
    78
1070
     8
1070
    48
1040
-0.1
1070
    41
1040
3.5
1070
   147
1040
1.75
1070
    42
1040
1.5875
1070
    44
1040
2.0
1070
   140
1040
3.5
1002
}
1001
ACAD_DSTYLE_DIM_LINETYPE
1070
   380
1005
16
1001
ACAD_DSTYLE_DIM_EXT1_LINETYPE
1070
   381
1005
16
1001
ACAD_DSTYLE_DIM_EXT2_LINETYPE
1070
   382
1005
16
0
DIMENSION
5
128
100
AcDbEntity
8
SK2
62
256
6
ByLayer
370
18
48
1
60
0
100
AcDbDimension
2
_U1
10
0
20
-23.25
30
0
11
-7.814501
21
-23.25
31
0
70
32
71
1
72
1
41
1
210
0
220
0
230
1
3
Standard
100
AcDbAlignedDimension
13
-18.792
23
-1.5
33
0
14
0
24
-1.5
34
0
50
0
100
AcDbRotatedDimension
1001
ACAD
1000
DSTYLE
1002
{
1070
   371
1070
    13
1070
   372
1070
    13
1070
   170
1070
     0
1070
   144
1040
1.0
1070
   277
1070
     2
1070
   284
1070
     8
1070
   278
1070
    46
1070
   146
1040
1.0
1070
   345
1005
16
1070
   347
1005
16
1070
   346
1005
16
1070
   344
1005
0
1070
   343
1005
0
1070
   172
1070
     1
1070
    76
1070
     0
1070
    75
1070
     0
1070
   282
1070
     0
1070
   281
1070
     0
1070
    71
1070
     0
1070
    74
1070
     0
1070
   279
1070
     0
1070
   173
1070
     1
1070
   340
1005
F6
1070
   271
1070
     2
1070
   272
1070
     2
1070
    77
1070
     1
1070
    73
1070
     1
1070
   171
1070
     3
1070
   274
1070
     4
1070
   177
1070
     2
1070
   176
1070
     2
1070
   178
1070
     2
1070
    78
1070
     8
1070
    48
1040
-0.1
1070
    41
1040
3.5
1070
   147
1040
1.75
1070
    42
1040
1.5875
1070
    44
1040
2.0
1070
   140
1040
3.5
1002
}
1001
ACAD_DSTYLE_DIM_LINETYPE
1070
   380
1005
16
1001
ACAD_DSTYLE_DIM_EXT1_LINETYPE
1070
   381
1005
16
1001
ACAD_DSTYLE_DIM_EXT2_LINETYPE
1070
   382
1005
16
0
DIMENSION
5
140
100
AcDbEntity
8
SK2
62
256
6
ByLayer
370
18
48
1
60
0
100
AcDbDimension
2
_U2
10
31.208
20
-16.65
30
0
11
45.499466
21
-16.65
31
0
70
32
71
1
72
1
41
1
210
0
220
0
230
1
3
Standard
100
AcDbAlignedDimension
13
8.808
23
-1.4
33
0
14
31.208
24
-1.4
34
0
50
0
100
AcDbRotatedDimension
1001
ACAD
1000
DSTYLE
1002
{
1070
   371
1070
    13
1070
   372
1070
    13
1070
   170
1070
     0
1070
   144
1040
1.0
1070
   277
1070
     2
1070
   284
1070
     8
1070
   278
1070
    46
1070
   146
1040
1.0
1070
   345
1005
16
1070
   347
1005
16
1070
   346
1005
16
1070
   344
1005
0
1070
   343
1005
0
1070
   172
1070
     1
1070
    76
1070
     0
1070
    75
1070
     0
1070
   282
1070
     0
1070
   281
1070
     0
1070
    71
1070
     0
1070
    74
1070
     0
1070
   279
1070
     0
1070
   173
1070
     1
1070
   340
1005
F6
1070
   271
1070
     2
1070
   272
1070
     2
1070
    77
1070
     1
1070
    73
1070
     1
1070
   171
1070
     3
1070
   274
1070
     4
1070
   177
1070
     2
1070
   176
1070
     2
1070
   178
1070
     2
1070
    78
1070
     8
1070
    48
1040
-0.1
1070
    41
1040
3.5
1070
   147
1040
1.75
1070
    42
1040
1.5875
1070
    44
1040
2.0
1070
   140
1040
3.5
1002
}
1001
ACAD_DSTYLE_DIM_LINETYPE
1070
   380
1005
16
1001
ACAD_DSTYLE_DIM_EXT1_LINETYPE
1070
   381
1005
16
1001
ACAD_DSTYLE_DIM_EXT2_LINETYPE
1070
   382
1005
16
0
DIMENSION
5
159
100
AcDbEntity
8
SK2
62
256
6
ByLayer
370
18
48
1
60
0
100
AcDbDimension
2
_U3
10
31.208
20
-26.65
30
0
11
46.958
21
-26.65
31
0
70
32
71
1
72
1
41
1
210
0
220
0
230
1
3
Standard
100
AcDbAlignedDimension
13
3.958
23
-1.4
33
0
14
31.208
24
-1.4
34
0
50
0
100
AcDbRotatedDimension
1001
ACAD
1000
DSTYLE
1002
{
1070
   371
1070
    13
1070
   372
1070
    13
1070
   170
1070
     0
1070
   144
1040
1.0
1070
   277
1070
     2
1070
   284
1070
     8
1070
   278
1070
    46
1070
   146
1040
1.0
1070
   345
1005
16
1070
   347
1005
16
1070
   346
1005
16
1070
   344
1005
0
1070
   343
1005
0
1070
   172
1070
     1
1070
    76
1070
     0
1070
    75
1070
     0
1070
   282
1070
     0
1070
   281
1070
     0
1070
    71
1070
     0
1070
    74
1070
     0
1070
   279
1070
     0
1070
   173
1070
     1
1070
   340
1005
F6
1070
   271
1070
     2
1070
   272
1070
     2
1070
    77
1070
     1
1070
    73
1070
     1
1070
   171
1070
     3
1070
   274
1070
     4
1070
   177
1070
     2
1070
   176
1070
     2
1070
   178
1070
     2
1070
    78
1070
     8
1070
    48
1040
-0.1
1070
    41
1040
3.5
1070
   147
1040
1.75
1070
    42
1040
1.5875
1070
    44
1040
2.0
1070
   140
1040
3.5
1002
}
1001
ACAD_DSTYLE_DIM_LINETYPE
1070
   380
1005
16
1001
ACAD_DSTYLE_DIM_EXT1_LINETYPE
1070
   381
1005
16
1001
ACAD_DSTYLE_DIM_EXT2_LINETYPE
1070
   382
1005
16
0
DIMENSION
5
172
100
AcDbEntity
8
SK2
62
256
6
ByLayer
370
18
48
1
60
0
100
AcDbDimension
2
_U4
10
31.208
20
-37.109404
30
0
11
6.208
21
-37.109404
31
0
70
32
71
1
72
1
41
1
210
0
220
0
230
1
3
Standard
100
AcDbAlignedDimension
13
-18.792
23
1.5
33
0
14
31.208
24
1.4
34
0
50
0
100
AcDbRotatedDimension
1001
ACAD
1000
DSTYLE
1002
{
1070
   371
1070
    13
1070
   372
1070
    13
1070
     3
1000

1070
   170
1070
     0
1070
   144
1040
1.0
1070
   277
1070
     2
1070
   284
1070
     8
1070
   278
1070
    46
1070
   146
1040
1.0
1070
   345
1005
16
1070
   347
1005
16
1070
   346
1005
16
1070
   344
1005
0
1070
   343
1005
0
1070
   172
1070
     1
1070
    76
1070
     0
1070
    75
1070
     0
1070
   282
1070
     0
1070
   281
1070
     0
1070
    71
1070
     0
1070
    74
1070
     0
1070
   279
1070
     0
1070
   173
1070
     1
1070
   340
1005
F6
1070
   271
1070
     2
1070
   272
1070
     2
1070
    77
1070
     1
1070
    73
1070
     1
1070
   171
1070
     3
1070
   274
1070
     4
1070
   177
1070
     2
1070
   176
1070
     2
1070
   178
1070
     2
1070
    78
1070
     8
1070
    48
1040
-0.1
1070
    41
1040
3.5
1070
   147
1040
1.75
1070
    42
1040
1.5875
1070
    44
1040
2.0
1070
   140
1040
3.5
1002
}
1001
ACAD_DSTYLE_DIM_LINETYPE
1070
   380
1005
16
1001
ACAD_DSTYLE_DIM_EXT1_LINETYPE
1070
   381
1005
16
1001
ACAD_DSTYLE_DIM_EXT2_LINETYPE
1070
   382
1005
16
0
ENDSEC
0
SECTION
2
OBJECTS
0
DICTIONARY
5
1fc
330
0
100
AcDbDictionary
280
0
281
1
3
ACAD_GROUP
350
1fd
3
ACAD_MLINESTYLE
350
1fe
0
DICTIONARY
5
1fd
330
0
100
AcDbDictionary
280
0
281
1
0
DICTIONARY
5
1fe
330
0
100
AcDbDictionary
280
0
281
1
3
Standard
350
18
0
MLINESTYLE
5
18
330
1fe
100
AcDbMlineStyle
2
Standard
70
0
3

62
256
51
90
52
90
71
2
49
-0.5
62
256
6
ByLayer
49
0.5
62
256
6
ByLayer
0
RASTERVARIABLES
5
1ea
330

100
AcDbRasterVariables
90
0
70
1
71
1
72
1
0
ENDSEC
0
EOF
