0
SECTION
2
HEADER
9
$ACADVER
1
AC1015
9
$DWGCODEPAGE
3
ANSI_1252
9
$HANDSEED
5
211
9
$ANGBASE
50
0
9
$ANGDIR
70
0
9
$ATTMODE
70
1
9
$AUNITS
70
0
9
$AUPREC
70
0
9
$CECOLOR
62
256
9
$CELTSCALE
40
1
9
$CELTYPE
6
ByLayer
9
$CELWEIGHT
370
18
9
$CLAYER
8
0
9
$CMLJUST
70
0
9
$CMLSCALE
40
1
9
$CMLSTYLE
2
Standard
9
$DIMSTYLE
2
Standard
9
$TEXTSIZE
40
0.2
9
$TEXTSTYLE
7
Standard
9
$LUNITS
70
2
9
$LUPREC
70
4
9
$EXTNAMES
290
1
9
$INSUNITS
70
4
9
$LTSCALE
40
1
9
$LWDISPLAY
290
1
9
$PDMODE
70
0
9
$PDSIZE
40
0
9
$PLINEGEN
70
0
0
ENDSEC
0
SECTION
2
CLASSES
0
CLASS
1
RASTERVARIABLES
2
AcDbRasterVariables
3
ISM
90
0
280
0
281
0
0
ENDSEC
0
SECTION
2
TABLES
0
TABLE
2
VPORT
5
207
100
AcDbSymbolTable
0
VPORT
5
1
100
AcDbSymbolTableRecord
100
AcDbViewportTableRecord
2
*Active
70
0
10
0
20
0
11
1
21
1
12
-1
22
1
13
0
23
0
14
0.5
24
0.5
15
10
25
10
16
0
26
0
36
1
17
0
27
0
37
0
0
ENDTAB
0
TABLE
2
LTYPE
5
208
100
AcDbSymbolTable
0
LTYPE
5
14
100
AcDbSymbolTableRecord
100
AcDbLinetypeTableRecord
70
0
2
ByBlock
3

72
65
73
0
40
0
0
LTYPE
5
15
100
AcDbSymbolTableRecord
100
AcDbLinetypeTableRecord
70
0
2
ByLayer
3

72
65
73
0
40
0
0
LTYPE
5
16
100
AcDbSymbolTableRecord
100
AcDbLinetypeTableRecord
70
0
2
Continuous
3
Solid line
72
65
73
0
40
0
0
LTYPE
5
6E
100
AcDbSymbolTableRecord
100
AcDbLinetypeTableRecord
70
0
2
CENTER
3
____ _ ____ _ ____ _ ____
72
65
73
4
40
47.5
49
22
74
0
49
-8.5
74
0
49
8.5
74
0
49
-8.5
74
0
0
LTYPE
5
6F
100
AcDbSymbolTableRecord
100
AcDbLinetypeTableRecord
70
0
2
DASHED
3
__ __ __ __ __ __ __ __ __
72
65
73
2
40
25.72
49
12.86
74
0
49
-12.86
74
0
0
ENDTAB
0
TABLE
2
LAYER
5
209
100
AcDbSymbolTable
0
LAYER
5
10
100
AcDbSymbolTableRecord
100
AcDbLayerTableRecord
2
0
70
0
62
7
6
Continuous
290
1
370
-3
390
0
0
LAYER
5
71
100
AcDbSymbolTableRecord
100
AcDbLayerTableRecord
2
80
70
0
62
-6
6
Continuous
290
1
370
-3
390
0
0
LAYER
5
73
100
AcDbSymbolTableRecord
100
AcDbLayerTableRecord
2
81
70
0
62
-3
6
Continuous
290
1
370
-3
390
0
0
LAYER
5
75
100
AcDbSymbolTableRecord
100
AcDbLayerTableRecord
2
1
70
0
62
4
6
Continuous
290
1
370
-3
390
0
0
LAYER
5
81
100
AcDbSymbolTableRecord
100
AcDbLayerTableRecord
2
4
70
0
62
-2
6
CENTER
290
1
370
-3
390
0
0
LAYER
5
A8
100
AcDbSymbolTableRecord
100
AcDbLayerTableRecord
2
2
70
0
62
7
6
Continuous
290
1
370
-3
390
0
0
LAYER
5
11A
100
AcDbSymbolTableRecord
100
AcDbLayerTableRecord
2
Defpoints
70
0
62
7
6
Continuous
290
0
370
-3
390
0
0
LAYER
5
1f3
100
AcDbSymbolTableRecord
100
AcDbLayerTableRecord
2
SK4
70
0
62
2
6
CENTER
290
1
370
-3
390
0
0
LAYER
5
1f4
100
AcDbSymbolTableRecord
100
AcDbLayerTableRecord
2
SK1
70
0
62
4
6
Continuous
290
1
370
-3
390
0
0
LAYER
5
1f5
100
AcDbSymbolTableRecord
100
AcDbLayerTableRecord
2
SK2
70
0
62
7
6
Continuous
290
1
370
-3
390
0
0
LAYER
5
1f6
100
AcDbSymbolTableRecord
100
AcDbLayerTableRecord
2
SK6
70
0
62
5
6
Continuous
290
1
370
-3
390
0
0
ENDTAB
0
TABLE
2
STYLE
5
20a
100
AcDbSymbolTable
0
STYLE
5
11
100
AcDbSymbolTableRecord
100
AcDbTextStyleTableRecord
2
Standard
3
txt
70
0
71
0
40
0
41
1
42
0
50
0
0
STYLE
5
FE
100
AcDbSymbolTableRecord
100
AcDbTextStyleTableRecord
2
iso_b_vert
3
simplex.shx
70
0
71
0
40
0
41
1
42
0
50
0
0
STYLE
5
FF
100
AcDbSymbolTableRecord
100
AcDbTextStyleTableRecord
2
DWGDirectTextStyle
3
simplex
70
0
71
0
40
0
41
1
42
0
50
0
0
ENDTAB
0
TABLE
2
DIMSTYLE
5
20b
100
AcDbSymbolTable
100
AcDbDimStyleTable
0
DIMSTYLE
105
27
100
AcDbSymbolTableRecord
100
AcDbDimStyleTableRecord
2
Standard
70
0
3
<>
41
0.18
42
0.0625
44
0.18
140
0.18
147
0.09
73
0
74
0
77
1
271
2
275
0
278
52
280
0
340
11
0
ENDTAB
0
TABLE
2
VIEW
5
20c
100
AcDbSymbolTable
0
ENDTAB
0
TABLE
2
UCS
5
20d
100
AcDbSymbolTable
0
ENDTAB
0
TABLE
2
APPID
5
20e
100
AcDbSymbolTable
0
APPID
5
12
100
AcDbSymbolTableRecord
100
AcDbRegAppTableRecord
2
ACAD
70
0
0
APPID
5
116
100
AcDbSymbolTableRecord
100
AcDbRegAppTableRecord
2
ACAD_DSTYLE_DIMBREAK
70
0
0
APPID
5
1B2
100
AcDbSymbolTableRecord
100
AcDbRegAppTableRecord
2
ACAD_DSTYLE_DIM_LINETYPE
70
0
0
APPID
5
1B3
100
AcDbSymbolTableRecord
100
AcDbRegAppTableRecord
2
ACAD_DSTYLE_DIM_EXT1_LINETYPE
70
0
0
APPID
5
1B4
100
AcDbSymbolTableRecord
100
AcDbRegAppTableRecord
2
ACAD_DSTYLE_DIM_EXT2_LINETYPE
70
0
0
APPID
5
1EF
100
AcDbSymbolTableRecord
100
AcDbRegAppTableRecord
2
ACAD_MLEADERVER
70
0
0
ENDTAB
0
TABLE
2
BLOCK_RECORD
5
20f
100
AcDbSymbolTable
0
BLOCK_RECORD
5
1F
100
AcDbSymbolTableRecord
100
AcDbBlockTableRecord
2
*Model_Space
340
0
70
0
0
BLOCK_RECORD
5
1B
100
AcDbSymbolTableRecord
100
AcDbBlockTableRecord
2
*Paper_Space
340
0
70
0
0
BLOCK_RECORD
5
23
100
AcDbSymbolTableRecord
100
AcDbBlockTableRecord
2
*Paper_Space0
340
0
70
0
0
BLOCK_RECORD
5
11B
100
AcDbSymbolTableRecord
100
AcDbBlockTableRecord
2
*D1
340
0
70
0
0
BLOCK_RECORD
5
127
100
AcDbSymbolTableRecord
100
AcDbBlockTableRecord
2
_U0
340
0
70
0
0
BLOCK_RECORD
5
133
100
AcDbSymbolTableRecord
100
AcDbBlockTableRecord
2
*D3
340
0
70
0
0
BLOCK_RECORD
5
13F
100
AcDbSymbolTableRecord
100
AcDbBlockTableRecord
2
_U1
340
0
70
0
0
BLOCK_RECORD
5
14B
100
AcDbSymbolTableRecord
100
AcDbBlockTableRecord
2
*D5
340
0
70
0
0
BLOCK_RECORD
5
158
100
AcDbSymbolTableRecord
100
AcDbBlockTableRecord
2
_U2
340
0
70
0
0
BLOCK_RECORD
5
164
100
AcDbSymbolTableRecord
100
AcDbBlockTableRecord
2
*D7
340
0
70
0
0
BLOCK_RECORD
5
171
100
AcDbSymbolTableRecord
100
AcDbBlockTableRecord
2
_U3
340
0
70
0
0
BLOCK_RECORD
5
17D
100
AcDbSymbolTableRecord
100
AcDbBlockTableRecord
2
*D9
340
0
70
0
0
BLOCK_RECORD
5
189
100
AcDbSymbolTableRecord
100
AcDbBlockTableRecord
2
_U4
340
0
70
0
0
ENDTAB
0
ENDSEC
0
SECTION
2
BLOCKS
0
BLOCK
5
20
100
AcDbEntity
8
0
100
AcDbBlockBegin
2
*Model_Space
70
0
10
0
20
0
30
0
3
*Model_Space
0
ENDBLK
5
21
100
AcDbEntity
8
0
100
AcDbBlockEnd
0
BLOCK
5
1C
100
AcDbEntity
8
0
100
AcDbBlockBegin
2
*Paper_Space
70
0
10
0
20
0
30
0
3
*Paper_Space
0
ENDBLK
5
1D
100
AcDbEntity
8
0
100
AcDbBlockEnd
0
BLOCK
5
24
100
AcDbEntity
8
0
100
AcDbBlockBegin
2
*Paper_Space0
70
0
10
0
20
0
30
0
3
*Paper_Space0
0
ENDBLK
5
25
100
AcDbEntity
8
0
100
AcDbBlockEnd
0
BLOCK
5
11C
100
AcDbEntity
8
0
100
AcDbBlockBegin
2
*D1
70
1
10
0
20
0
30
0
3
*D1
0
LINE
5
11E
100
AcDbEntity
8
0
62
256
6
ByLayer
370
-2
48
1
60
0
100
AcDbLine
10
0
20
0.0875
30
0
11
0
21
24.25
31
0
39
0
210
0
220
0
230
1
0
LINE
5
11F
100
AcDbEntity
8
0
62
256
6
ByLayer
370
-2
48
1
60
0
100
AcDbLine
10
31.05
20
0.5875
30
0
11
31.05
21
24.25
31
0
39
0
210
0
220
0
230
1
0
LINE
5
120
100
AcDbEntity
8
0
62
256
6
ByLayer
370
-2
48
1
60
0
100
AcDbLine
10
3.5
20
22.25
30
0
11
27.55
21
22.25
31
0
39
0
210
0
220
0
230
1
0
SOLID
5
121
100
AcDbEntity
8
0
62
256
6
ByLayer
370
-1
48
1
60
0
100
AcDbTrace
10
3.5
20
22.833333
30
0
11
3.5
21
21.666667
31
0
12
0
22
22.25
32
0
13
0
23
22.25
33
0
39
0
210
0
220
0
230
1
0
SOLID
5
122
100
AcDbEntity
8
0
62
256
6
ByLayer
370
-1
48
1
60
0
100
AcDbTrace
10
27.55
20
21.666667
30
0
11
27.55
21
22.833333
31
0
12
31.05
22
22.25
32
0
13
31.05
23
22.25
33
0
39
0
210
0
220
0
230
1
0
MTEXT
5
123
100
AcDbEntity
8
0
62
256
6
ByLayer
370
18
48
1
60
0
100
AcDbMText
10
21.896499
20
29.25
30
0
210
0
220
0
230
1
1
\A1;31.05
40
3.5
41
0
44
1
50
0
71
5
72
5
7
iso_b_vert
0
POINT
5
124
100
AcDbEntity
8
Defpoints
62
0
6
ByLayer
370
-1
48
1
60
0
100
AcDbPoint
10
0
20
-1.5
30
0
39
0
210
0
220
0
230
1
50
360
0
POINT
5
125
100
AcDbEntity
8
Defpoints
62
0
6
ByLayer
370
-1
48
1
60
0
100
AcDbPoint
10
31.05
20
-1
30
0
39
0
210
0
220
0
230
1
50
360
0
POINT
5
126
100
AcDbEntity
8
Defpoints
62
0
6
ByLayer
370
-1
48
1
60
0
100
AcDbPoint
10
31.05
20
22.25
30
0
39
0
210
0
220
0
230
1
50
360
0
ENDBLK
5
11D
100
AcDbEntity
8
0
100
AcDbBlockEnd
0
BLOCK
5
12E
100
AcDbEntity
8
0
100
AcDbBlockBegin
2
_U0
70
0
10
0
20
0
30
0
3
_U0
0
MTEXT
5
128
100
AcDbEntity
8
2
62
256
6
ByLayer
370
18
48
1
60
0
100
AcDbMText
10
17.1045
20
23.282634
30
0
210
0
220
0
230
1
1
\W0.6864;31.05
40
3.5
41
0
44
1.084337
50
0
71
7
72
5
7
iso_b_vert
0
LINE
5
129
100
AcDbEntity
8
2
62
256
6
ByLayer
370
13
48
1
60
0
100
AcDbLine
10
0
20
0.0875
30
0
11
0
21
24.25
31
0
39
0
210
0
220
0
230
1
0
LINE
5
12A
100
AcDbEntity
8
2
62
256
6
ByLayer
370
13
48
1
60
0
100
AcDbLine
10
31.05
20
0.5875
30
0
11
31.05
21
24.25
31
0
39
0
210
0
220
0
230
1
0
LINE
5
12B
100
AcDbEntity
8
2
62
256
6
ByLayer
370
13
48
1
60
0
100
AcDbLine
10
0
20
22.25
30
0
11
31.05
21
22.25
31
0
39
0
210
0
220
0
230
1
0
SOLID
5
12C
100
AcDbEntity
8
2
62
256
6
ByLayer
370
18
48
1
60
0
100
AcDbTrace
10
0
20
22.25
30
0
11
3.499998
21
22.710784
31
0
12
3.500002
22
21.789216
32
0
13
3.500002
23
21.789216
33
0
39
0
210
0
220
0
230
1
0
SOLID
5
12D
100
AcDbEntity
8
2
62
256
6
ByLayer
370
18
48
1
60
0
100
AcDbTrace
10
31.05
20
22.25
30
0
11
27.550002
21
21.789216
31
0
12
27.549998
22
22.710784
32
0
13
27.549998
23
22.710784
33
0
39
0
210
0
220
0
230
1
0
ENDBLK
5
12F
100
AcDbEntity
8
0
100
AcDbBlockEnd
0
BLOCK
5
134
100
AcDbEntity
8
0
100
AcDbBlockBegin
2
*D3
70
1
10
0
20
0
30
0
3
*D3
0
LINE
5
136
100
AcDbEntity
8
0
62
256
6
ByLayer
370
-2
48
1
60
0
100
AcDbLine
10
-18.349
20
-3.0875
30
0
11
-18.349
21
-25.25
31
0
39
0
210
0
220
0
230
1
0
LINE
5
137
100
AcDbEntity
8
0
62
256
6
ByLayer
370
-2
48
1
60
0
100
AcDbLine
10
0
20
-3.0875
30
0
11
0
21
-25.25
31
0
39
0
210
0
220
0
230
1
0
LINE
5
138
100
AcDbEntity
8
0
62
256
6
ByLayer
370
-2
48
1
60
0
100
AcDbLine
10
-14.849
20
-23.25
30
0
11
-3.5
21
-23.25
31
0
39
0
210
0
220
0
230
1
0
SOLID
5
139
100
AcDbEntity
8
0
62
256
6
ByLayer
370
-1
48
1
60
0
100
AcDbTrace
10
-14.849
20
-22.666667
30
0
11
-14.849
21
-23.833333
31
0
12
-18.349
22
-23.25
32
0
13
-18.349
23
-23.25
33
0
39
0
210
0
220
0
230
1
0
SOLID
5
13A
100
AcDbEntity
8
0
62
256
6
ByLayer
370
-1
48
1
60
0
100
AcDbTrace
10
-3.5
20
-23.833333
30
0
11
-3.5
21
-22.666667
31
0
12
0
22
-23.25
32
0
13
0
23
-23.25
33
0
39
0
210
0
220
0
230
1
0
MTEXT
5
13B
100
AcDbEntity
8
0
62
256
6
ByLayer
370
18
48
1
60
0
100
AcDbMText
10
-7.371501
20
-16.25
30
0
210
0
220
0
230
1
1
\A1;18.35
40
3.5
41
0
44
1
50
0
71
5
72
5
7
iso_b_vert
0
POINT
5
13C
100
AcDbEntity
8
Defpoints
62
0
6
ByLayer
370
-1
48
1
60
0
100
AcDbPoint
10
-18.349
20
-1.5
30
0
39
0
210
0
220
0
230
1
50
360
0
POINT
5
13D
100
AcDbEntity
8
Defpoints
62
0
6
ByLayer
370
-1
48
1
60
0
100
AcDbPoint
10
0
20
-1.5
30
0
39
0
210
0
220
0
230
1
50
360
0
POINT
5
13E
100
AcDbEntity
8
Defpoints
62
0
6
ByLayer
370
-1
48
1
60
0
100
AcDbPoint
10
0
20
-23.25
30
0
39
0
210
0
220
0
230
1
50
360
0
ENDBLK
5
135
100
AcDbEntity
8
0
100
AcDbBlockEnd
0
BLOCK
5
146
100
AcDbEntity
8
0
100
AcDbBlockBegin
2
_U1
70
0
10
0
20
0
30
0
3
_U1
0
MTEXT
5
140
100
AcDbEntity
8
SK2
62
256
6
ByLayer
370
18
48
1
60
0
100
AcDbMText
10
-12.1635
20
-22.217366
30
0
210
0
220
0
230
1
1
\W0.6864;18.35
40
3.5
41
0
44
1.084337
50
0
71
7
72
5
7
iso_b_vert
0
LINE
5
141
100
AcDbEntity
8
SK2
62
256
6
ByLayer
370
13
48
1
60
0
100
AcDbLine
10
-18.349
20
-3.0875
30
0
11
-18.349
21
-25.25
31
0
39
0
210
0
220
0
230
1
0
LINE
5
142
100
AcDbEntity
8
SK2
62
256
6
ByLayer
370
13
48
1
60
0
100
AcDbLine
10
0
20
-3.0875
30
0
11
0
21
-25.25
31
0
39
0
210
0
220
0
230
1
0
LINE
5
143
100
AcDbEntity
8
SK2
62
256
6
ByLayer
370
13
48
1
60
0
100
AcDbLine
10
-18.349
20
-23.25
30
0
11
0
21
-23.25
31
0
39
0
210
0
220
0
230
1
0
SOLID
5
144
100
AcDbEntity
8
SK2
62
256
6
ByLayer
370
18
48
1
60
0
100
AcDbTrace
10
-18.349
20
-23.25
30
0
11
-14.849002
21
-22.789216
31
0
12
-14.848998
22
-23.710784
32
0
13
-14.848998
23
-23.710784
33
0
39
0
210
0
220
0
230
1
0
SOLID
5
145
100
AcDbEntity
8
SK2
62
256
6
ByLayer
370
18
48
1
60
0
100
AcDbTrace
10
0
20
-23.25
30
0
11
-3.499998
21
-23.710784
31
0
12
-3.500002
22
-22.789216
32
0
13
-3.500002
23
-22.789216
33
0
39
0
210
0
220
0
230
1
0
ENDBLK
5
147
100
AcDbEntity
8
0
100
AcDbBlockEnd
0
BLOCK
5
14C
100
AcDbEntity
8
0
100
AcDbBlockBegin
2
*D5
70
1
10
0
20
0
30
0
3
*D5
0
LINE
5
14E
100
AcDbEntity
8
0
62
256
6
ByLayer
370
-2
48
1
60
0
100
AcDbLine
10
7.651
20
-2.5875
30
0
11
7.651
21
-18.25
31
0
39
0
210
0
220
0
230
1
0
LINE
5
14F
100
AcDbEntity
8
0
62
256
6
ByLayer
370
-2
48
1
60
0
100
AcDbLine
10
31.651
20
-2.5875
30
0
11
31.651
21
-18.25
31
0
39
0
210
0
220
0
230
1
0
LINE
5
150
100
AcDbEntity
8
0
62
256
6
ByLayer
370
-2
48
1
60
0
100
AcDbLine
10
31.651
20
-16.25
30
0
11
52.0924
21
-16.25
31
0
39
0
210
0
220
0
230
1
0
LINE
5
151
100
AcDbEntity
8
0
62
256
6
ByLayer
370
-2
48
1
60
0
100
AcDbLine
10
11.151
20
-16.25
30
0
11
28.151
21
-16.25
31
0
39
0
210
0
220
0
230
1
0
SOLID
5
152
100
AcDbEntity
8
0
62
256
6
ByLayer
370
-1
48
1
60
0
100
AcDbTrace
10
11.151
20
-15.666667
30
0
11
11.151
21
-16.833333
31
0
12
7.651
22
-16.25
32
0
13
7.651
23
-16.25
33
0
39
0
210
0
220
0
230
1
0
SOLID
5
153
100
AcDbEntity
8
0
62
256
6
ByLayer
370
-1
48
1
60
0
100
AcDbTrace
10
28.151
20
-16.833333
30
0
11
28.151
21
-15.666667
31
0
12
31.651
22
-16.25
32
0
13
31.651
23
-16.25
33
0
39
0
210
0
220
0
230
1
0
MTEXT
5
154
100
AcDbEntity
8
0
62
256
6
ByLayer
370
18
48
1
60
0
100
AcDbMText
10
43.925733
20
-9.25
30
0
210
0
220
0
230
1
1
\A1;24
40
3.5
41
0
44
1
50
0
71
5
72
5
7
iso_b_vert
0
POINT
5
155
100
AcDbEntity
8
Defpoints
62
0
6
ByLayer
370
-1
48
1
60
0
100
AcDbPoint
10
7.651
20
-1
30
0
39
0
210
0
220
0
230
1
50
360
0
POINT
5
156
100
AcDbEntity
8
Defpoints
62
0
6
ByLayer
370
-1
48
1
60
0
100
AcDbPoint
10
31.651
20
-1
30
0
39
0
210
0
220
0
230
1
50
360
0
POINT
5
157
100
AcDbEntity
8
Defpoints
62
0
6
ByLayer
370
-1
48
1
60
0
100
AcDbPoint
10
31.651
20
-16.25
30
0
39
0
210
0
220
0
230
1
50
360
0
ENDBLK
5
14D
100
AcDbEntity
8
0
100
AcDbBlockEnd
0
BLOCK
5
15F
100
AcDbEntity
8
0
100
AcDbBlockBegin
2
_U2
70
0
10
0
20
0
30
0
3
_U2
0
MTEXT
5
159
100
AcDbEntity
8
SK2
62
256
6
ByLayer
370
18
48
1
60
0
100
AcDbMText
10
41.8365
20
-15.217366
30
0
210
0
220
0
230
1
1
\W0.7167;24
40
3.5
41
0
44
1.084337
50
0
71
7
72
5
7
iso_b_vert
0
LINE
5
15A
100
AcDbEntity
8
SK2
62
256
6
ByLayer
370
13
48
1
60
0
100
AcDbLine
10
7.651
20
-2.5875
30
0
11
7.651
21
-18.25
31
0
39
0
210
0
220
0
230
1
0
LINE
5
15B
100
AcDbEntity
8
SK2
62
256
6
ByLayer
370
13
48
1
60
0
100
AcDbLine
10
31.651
20
-2.5875
30
0
11
31.651
21
-18.25
31
0
39
0
210
0
220
0
230
1
0
LINE
5
15C
100
AcDbEntity
8
SK2
62
256
6
ByLayer
370
13
48
1
60
0
100
AcDbLine
10
7.651
20
-16.25
30
0
11
46.200466
21
-16.25
31
0
39
0
210
0
220
0
230
1
0
SOLID
5
15D
100
AcDbEntity
8
SK2
62
256
6
ByLayer
370
18
48
1
60
0
100
AcDbTrace
10
7.651
20
-16.25
30
0
11
11.150998
21
-15.789216
31
0
12
11.151002
22
-16.710784
32
0
13
11.151002
23
-16.710784
33
0
39
0
210
0
220
0
230
1
0
SOLID
5
15E
100
AcDbEntity
8
SK2
62
256
6
ByLayer
370
18
48
1
60
0
100
AcDbTrace
10
31.651
20
-16.25
30
0
11
28.151002
21
-16.710784
31
0
12
28.150998
22
-15.789216
32
0
13
28.150998
23
-15.789216
33
0
39
0
210
0
220
0
230
1
0
ENDBLK
5
160
100
AcDbEntity
8
0
100
AcDbBlockEnd
0
BLOCK
5
165
100
AcDbEntity
8
0
100
AcDbBlockBegin
2
*D7
70
1
10
0
20
0
30
0
3
*D7
0
LINE
5
167
100
AcDbEntity
8
0
62
256
6
ByLayer
370
-2
48
1
60
0
100
AcDbLine
10
4.187
20
-2.5875
30
0
11
4.187
21
-28.25
31
0
39
0
210
0
220
0
230
1
0
LINE
5
168
100
AcDbEntity
8
0
62
256
6
ByLayer
370
-2
48
1
60
0
100
AcDbLine
10
31.651
20
-2.5875
30
0
11
31.651
21
-28.25
31
0
39
0
210
0
220
0
230
1
0
LINE
5
169
100
AcDbEntity
8
0
62
256
6
ByLayer
370
-2
48
1
60
0
100
AcDbLine
10
31.651
20
-26.25
30
0
11
59.651
21
-26.25
31
0
39
0
210
0
220
0
230
1
0
LINE
5
16A
100
AcDbEntity
8
0
62
256
6
ByLayer
370
-2
48
1
60
0
100
AcDbLine
10
7.687
20
-26.25
30
0
11
28.151
21
-26.25
31
0
39
0
210
0
220
0
230
1
0
SOLID
5
16B
100
AcDbEntity
8
0
62
256
6
ByLayer
370
-1
48
1
60
0
100
AcDbTrace
10
7.687
20
-25.666667
30
0
11
7.687
21
-26.833333
31
0
12
4.187
22
-26.25
32
0
13
4.187
23
-26.25
33
0
39
0
210
0
220
0
230
1
0
SOLID
5
16C
100
AcDbEntity
8
0
62
256
6
ByLayer
370
-1
48
1
60
0
100
AcDbTrace
10
28.151
20
-26.833333
30
0
11
28.151
21
-25.666667
31
0
12
31.651
22
-26.25
32
0
13
31.651
23
-26.25
33
0
39
0
210
0
220
0
230
1
0
MTEXT
5
16D
100
AcDbEntity
8
0
62
256
6
ByLayer
370
18
48
1
60
0
100
AcDbMText
10
47.401
20
-19.25
30
0
210
0
220
0
230
1
1
\A1;27.46
40
3.5
41
0
44
1
50
0
71
5
72
5
7
iso_b_vert
0
POINT
5
16E
100
AcDbEntity
8
Defpoints
62
0
6
ByLayer
370
-1
48
1
60
0
100
AcDbPoint
10
4.187
20
-1
30
0
39
0
210
0
220
0
230
1
50
360
0
POINT
5
16F
100
AcDbEntity
8
Defpoints
62
0
6
ByLayer
370
-1
48
1
60
0
100
AcDbPoint
10
31.651
20
-1
30
0
39
0
210
0
220
0
230
1
50
360
0
POINT
5
170
100
AcDbEntity
8
Defpoints
62
0
6
ByLayer
370
-1
48
1
60
0
100
AcDbPoint
10
31.651
20
-26.25
30
0
39
0
210
0
220
0
230
1
50
360
0
ENDBLK
5
166
100
AcDbEntity
8
0
100
AcDbBlockEnd
0
BLOCK
5
178
100
AcDbEntity
8
0
100
AcDbBlockBegin
2
_U3
70
0
10
0
20
0
30
0
3
_U3
0
MTEXT
5
172
100
AcDbEntity
8
SK2
62
256
6
ByLayer
370
18
48
1
60
0
100
AcDbMText
10
41.8365
20
-25.217366
30
0
210
0
220
0
230
1
1
\W0.7694;27.46
40
3.5
41
0
44
1.084337
50
0
71
7
72
5
7
iso_b_vert
0
LINE
5
173
100
AcDbEntity
8
SK2
62
256
6
ByLayer
370
13
48
1
60
0
100
AcDbLine
10
4.187
20
-2.5875
30
0
11
4.187
21
-28.25
31
0
39
0
210
0
220
0
230
1
0
LINE
5
174
100
AcDbEntity
8
SK2
62
256
6
ByLayer
370
13
48
1
60
0
100
AcDbLine
10
31.651
20
-2.5875
30
0
11
31.651
21
-28.25
31
0
39
0
210
0
220
0
230
1
0
LINE
5
175
100
AcDbEntity
8
SK2
62
256
6
ByLayer
370
13
48
1
60
0
100
AcDbLine
10
4.187
20
-26.25
30
0
11
52.849398
21
-26.25
31
0
39
0
210
0
220
0
230
1
0
SOLID
5
176
100
AcDbEntity
8
SK2
62
256
6
ByLayer
370
18
48
1
60
0
100
AcDbTrace
10
4.187
20
-26.25
30
0
11
7.686998
21
-25.789216
31
0
12
7.687002
22
-26.710784
32
0
13
7.687002
23
-26.710784
33
0
39
0
210
0
220
0
230
1
0
SOLID
5
177
100
AcDbEntity
8
SK2
62
256
6
ByLayer
370
18
48
1
60
0
100
AcDbTrace
10
31.651
20
-26.25
30
0
11
28.151002
21
-26.710784
31
0
12
28.150998
22
-25.789216
32
0
13
28.150998
23
-25.789216
33
0
39
0
210
0
220
0
230
1
0
ENDBLK
5
179
100
AcDbEntity
8
0
100
AcDbBlockEnd
0
BLOCK
5
17E
100
AcDbEntity
8
0
100
AcDbBlockBegin
2
*D9
70
1
10
0
20
0
30
0
3
*D9
0
LINE
5
180
100
AcDbEntity
8
0
62
256
6
ByLayer
370
-2
48
1
60
0
100
AcDbLine
10
-18.349
20
-0.0875
30
0
11
-18.349
21
-36.6
31
0
39
0
210
0
220
0
230
1
0
LINE
5
181
100
AcDbEntity
8
0
62
256
6
ByLayer
370
-2
48
1
60
0
100
AcDbLine
10
31.651
20
-0.5875
30
0
11
31.651
21
-36.6
31
0
39
0
210
0
220
0
230
1
0
LINE
5
182
100
AcDbEntity
8
0
62
256
6
ByLayer
370
-2
48
1
60
0
100
AcDbLine
10
-14.849
20
-34.6
30
0
11
28.151
21
-34.6
31
0
39
0
210
0
220
0
230
1
0
SOLID
5
183
100
AcDbEntity
8
0
62
256
6
ByLayer
370
-1
48
1
60
0
100
AcDbTrace
10
-14.849
20
-34.016667
30
0
11
-14.849
21
-35.183333
31
0
12
-18.349
22
-34.6
32
0
13
-18.349
23
-34.6
33
0
39
0
210
0
220
0
230
1
0
SOLID
5
184
100
AcDbEntity
8
0
62
256
6
ByLayer
370
-1
48
1
60
0
100
AcDbTrace
10
28.151
20
-35.183333
30
0
11
28.151
21
-34.016667
31
0
12
31.651
22
-34.6
32
0
13
31.651
23
-34.6
33
0
39
0
210
0
220
0
230
1
0
MTEXT
5
185
100
AcDbEntity
8
0
62
256
6
ByLayer
370
18
48
1
60
0
100
AcDbMText
10
6.651
20
-27.6
30
0
210
0
220
0
230
1
1
\A1;50
40
3.5
41
0
44
1
50
0
71
5
72
5
7
iso_b_vert
0
POINT
5
186
100
AcDbEntity
8
Defpoints
62
0
6
ByLayer
370
-1
48
1
60
0
100
AcDbPoint
10
-18.349
20
1.5
30
0
39
0
210
0
220
0
230
1
50
360
0
POINT
5
187
100
AcDbEntity
8
Defpoints
62
0
6
ByLayer
370
-1
48
1
60
0
100
AcDbPoint
10
31.651
20
1
30
0
39
0
210
0
220
0
230
1
50
360
0
POINT
5
188
100
AcDbEntity
8
Defpoints
62
0
6
ByLayer
370
-1
48
1
60
0
100
AcDbPoint
10
31.651
20
-34.6
30
0
39
0
210
0
220
0
230
1
50
360
0
ENDBLK
5
17F
100
AcDbEntity
8
0
100
AcDbBlockEnd
0
BLOCK
5
192
100
AcDbEntity
8
0
100
AcDbBlockBegin
2
_U4
70
0
10
0
20
0
30
0
3
_U4
0
MTEXT
5
18A
100
AcDbEntity
8
SK2
62
256
6
ByLayer
370
18
48
1
60
0
100
AcDbMText
10
1.421568
20
-33.567366
30
0
210
0
220
0
230
1
1
\W0.7468;50.00
40
3.5
41
0
44
1.084337
50
0
71
7
72
5
7
iso_b_vert
0
MTEXT
5
18B
100
AcDbEntity
8
SK2
62
256
6
ByLayer
370
18
48
1
60
0
100
AcDbMText
10
-2.446431
20
-33.567366
30
0
210
0
220
0
230
1
1
\W0.1790;(
40
3.5
41
0
44
1.084337
50
0
71
7
72
5
7
iso_b_vert
0
MTEXT
5
18C
100
AcDbEntity
8
SK2
62
256
6
ByLayer
370
18
48
1
60
0
100
AcDbMText
10
15.751432
20
-33.567366
30
0
210
0
220
0
230
1
1
\W0.1969;)
40
3.5
41
0
44
1.084337
50
0
71
7
72
5
7
iso_b_vert
0
LINE
5
18D
100
AcDbEntity
8
SK2
62
256
6
ByLayer
370
13
48
1
60
0
100
AcDbLine
10
-18.349
20
-0.0875
30
0
11
-18.349
21
-36.6
31
0
39
0
210
0
220
0
230
1
0
LINE
5
18E
100
AcDbEntity
8
SK2
62
256
6
ByLayer
370
13
48
1
60
0
100
AcDbLine
10
31.651
20
-0.5875
30
0
11
31.651
21
-36.6
31
0
39
0
210
0
220
0
230
1
0
LINE
5
18F
100
AcDbEntity
8
SK2
62
256
6
ByLayer
370
13
48
1
60
0
100
AcDbLine
10
-18.349
20
-34.6
30
0
11
31.651
21
-34.6
31
0
39
0
210
0
220
0
230
1
0
SOLID
5
190
100
AcDbEntity
8
SK2
62
256
6
ByLayer
370
18
48
1
60
0
100
AcDbTrace
10
-18.349
20
-34.6
30
0
11
-14.849002
21
-34.139216
31
0
12
-14.848998
22
-35.060784
32
0
13
-14.848998
23
-35.060784
33
0
39
0
210
0
220
0
230
1
0
SOLID
5
191
100
AcDbEntity
8
SK2
62
256
6
ByLayer
370
18
48
1
60
0
100
AcDbTrace
10
31.651
20
-34.6
30
0
11
28.151002
21
-35.060784
31
0
12
28.150998
22
-34.139216
32
0
13
28.150998
23
-34.139216
33
0
39
0
210
0
220
0
230
1
0
ENDBLK
5
193
100
AcDbEntity
8
0
100
AcDbBlockEnd
0
ENDSEC
0
SECTION
2
ENTITIES
0
ELLIPSE
5
BB
100
AcDbEntity
8
SK1
62
256
6
ByLayer
370
18
48
1
60
0
100
AcDbEllipse
10
31.631221
20
-0.04708
30
0
11
0.0237049370491124
21
0.0422353960854517
31
0
210
0
220
0
230
1
40
0.065341
41
1.21620760501781
42
2.26340515636665
0
ELLIPSE
5
BC
100
AcDbEntity
8
SK1
62
256
6
ByLayer
370
18
48
1
60
0
100
AcDbEllipse
10
31.631221
20
0.04708
30
0
11
0.0237049370484519
21
-0.0422353960842802
31
0
210
0
220
0
230
1
40
0.065341
41
-2.26340515638597
42
-1.21620760500455
0
ELLIPSE
5
BD
100
AcDbEntity
8
SK1
62
256
6
ByLayer
370
13
48
1
60
0
100
AcDbEllipse
10
6.238096
20
0.275428
30
0
11
-0.0286855150040844
21
-0.0409529147796643
31
0
210
0
220
0
230
1
40
0.321709
41
-1.06961183272064
42
-0.998014388655214
0
ELLIPSE
5
BE
100
AcDbEntity
8
SK1
62
256
6
ByLayer
370
13
48
1
60
0
100
AcDbEllipse
10
6.339782
20
0.212665
30
0
11
-0.0244135851942238
21
-0.0436345832793712
31
0
210
0
220
0
230
1
40
0.107327
41
0.125126773193858
42
1.38467006772756
0
ELLIPSE
5
BF
100
AcDbEntity
8
SK1
62
256
6
ByLayer
370
18
48
1
60
0
100
AcDbEllipse
10
4.494575
20
-0.000399
30
0
11
0.619025567904697
21
-0.956742566828522
31
0
210
0
220
0
230
1
40
0.340781
41
-3.10412031924978
42
-1.10137643279838
0
ELLIPSE
5
C0
100
AcDbEntity
8
SK1
62
256
6
ByLayer
370
18
48
1
60
0
100
AcDbEllipse
10
31.651285
20
0.000449
30
0
11
0.608777076437954
21
0.997962029172348
31
0
210
0
220
0
230
1
40
0.104823
41
-3.07784233299263
42
-2.88198029433212
0
ELLIPSE
5
C1
100
AcDbEntity
8
SK1
62
256
6
ByLayer
370
18
48
1
60
0
100
AcDbEllipse
10
31.651732
20
0.000449
30
0
11
0.884569514574881
21
0.89922516581043
31
0
210
0
220
0
230
1
40
0.494576
41
-2.74730358750303
42
-2.68937803383576
0
ELLIPSE
5
C2
100
AcDbEntity
8
SK1
62
256
6
ByLayer
370
18
48
1
60
0
100
AcDbEllipse
10
31.651285
20
-0.000449
30
0
11
0.60877707611146
21
-0.997962028614309
31
0
210
0
220
0
230
1
40
0.104823
41
2.88198029425903
42
3.07784233297455
0
POINT
5
70
100
AcDbEntity
8
80
62
256
6
ByLayer
370
18
48
1
60
0
100
AcDbPoint
10
0
20
0
30
0
39
0
210
0
220
0
230
1
50
360
0
POINT
5
72
100
AcDbEntity
8
81
62
256
6
ByLayer
370
18
48
1
60
0
100
AcDbPoint
10
31.651
20
0
30
0
39
0
210
0
220
0
230
1
50
360
0
POINT
5
74
100
AcDbEntity
8
1
62
256
6
ByLayer
370
18
48
1
60
0
100
AcDbPoint
10
-18.349
20
0
30
0
39
0
210
0
220
0
230
1
50
360
0
POINT
5
76
100
AcDbEntity
8
1
62
256
6
ByLayer
370
18
48
1
60
1
100
AcDbPoint
10
0
20
-1.5
30
0
39
0
210
0
220
0
230
1
50
360
0
POINT
5
77
100
AcDbEntity
8
1
62
256
6
ByLayer
370
18
48
1
60
1
100
AcDbPoint
10
31.05
20
-1
30
0
39
0
210
0
220
0
230
1
50
360
0
POINT
5
78
100
AcDbEntity
8
1
62
256
6
ByLayer
370
18
48
1
60
1
100
AcDbPoint
10
-18.349
20
-1.5
30
0
39
0
210
0
220
0
230
1
50
360
0
POINT
5
79
100
AcDbEntity
8
1
62
256
6
ByLayer
370
18
48
1
60
1
100
AcDbPoint
10
0
20
-1.5
30
0
39
0
210
0
220
0
230
1
50
360
0
POINT
5
7A
100
AcDbEntity
8
1
62
256
6
ByLayer
370
18
48
1
60
1
100
AcDbPoint
10
7.651
20
-1
30
0
39
0
210
0
220
0
230
1
50
360
0
POINT
5
7B
100
AcDbEntity
8
1
62
256
6
ByLayer
370
18
48
1
60
1
100
AcDbPoint
10
31.651
20
-1
30
0
39
0
210
0
220
0
230
1
50
360
0
POINT
5
7C
100
AcDbEntity
8
1
62
256
6
ByLayer
370
18
48
1
60
1
100
AcDbPoint
10
4.187
20
-1
30
0
39
0
210
0
220
0
230
1
50
360
0
POINT
5
7D
100
AcDbEntity
8
1
62
256
6
ByLayer
370
18
48
1
60
1
100
AcDbPoint
10
31.651
20
-1
30
0
39
0
210
0
220
0
230
1
50
360
0
POINT
5
7E
100
AcDbEntity
8
1
62
256
6
ByLayer
370
18
48
1
60
1
100
AcDbPoint
10
-18.349
20
1.5
30
0
39
0
210
0
220
0
230
1
50
360
0
POINT
5
7F
100
AcDbEntity
8
1
62
256
6
ByLayer
370
18
48
1
60
1
100
AcDbPoint
10
31.651
20
1
30
0
39
0
210
0
220
0
230
1
50
360
0
SPLINE
5
C3
100
AcDbEntity
8
SK1
62
256
6
ByLayer
370
13
48
1
60
0
100
AcDbSpline
70
4
71
3
72
8
73
4
40
0
40
0
40
0
40
0
40
1
40
1
40
1
40
1
41
1
10
6.21275909484189
20
0.263844597041697
30
0
41
1
10
6.21224809398856
20
0.264137721752462
30
0
41
1
10
6.21173889099222
20
0.264432234189826
30
0
41
1
10
6.21123147013631
20
0.264728124082069
30
0
0
SPLINE
5
C4
100
AcDbEntity
8
SK1
62
256
6
ByLayer
370
13
48
1
60
0
100
AcDbSpline
70
4
71
3
72
12
73
8
40
0
40
0
40
0
40
0
40
0.25
40
0.25
40
0.5
40
0.5
40
1
40
1
40
1
40
1
41
1
10
4.4838307540991
20
-0.621333071598883
30
0
41
1
10
4.43267438631986
20
-0.490693178551822
30
0
41
1
10
4.38137571062609
20
-0.360019195432557
30
0
41
1
10
4.27845812008147
20
-0.0985973669243094
30
0
41
1
10
4.2268374627026
20
0.0321506818414719
30
0
41
1
10
4.07159568351921
20
0.424478936601616
30
0
41
1
10
3.96761149591023
20
0.686139758302602
30
0
41
1
10
3.86376911430824
20
0.947768966227386
30
0
0
SPLINE
5
C5
100
AcDbEntity
8
SK1
62
256
6
ByLayer
370
13
48
1
60
0
100
AcDbSpline
70
4
71
3
72
12
73
8
40
0
40
0
40
0
40
0
40
0.499999999999967
40
0.499999999999967
40
0.749999999999984
40
0.749999999999984
40
1
40
1
40
1
40
1
41
1
10
6.33986616218152
20
0.202015635227355
30
0
41
1
10
6.31760343538809
20
0.211476897003848
30
0
41
1
10
6.29580703465777
20
0.221233478024743
30
0
41
1
10
6.2639276898519
20
0.236605535075285
30
0
41
1
10
6.25343814398173
20
0.24185272986864
30
0
41
1
10
6.23276802446975
20
0.25265190007184
30
0
41
1
10
6.22257593331761
20
0.258213377602431
30
0
41
1
10
6.21275909484189
20
0.263844597041839
30
0
0
SPLINE
5
C6
100
AcDbEntity
8
SK1
62
256
6
ByLayer
370
18
48
1
60
0
100
AcDbSpline
70
4
71
3
72
22
73
18
40
0
40
0
40
0
40
0
40
0.249999999999984
40
0.249999999999984
40
0.374999999999976
40
0.374999999999976
40
0.437499999999972
40
0.437499999999972
40
0.499999999999968
40
0.499999999999968
40
0.624999999999969
40
0.624999999999969
40
0.687499999999974
40
0.687499999999974
40
0.74999999999998
40
0.74999999999998
40
1
40
1
40
1
40
1
41
1
10
30.9755245667353
20
-0.962079688566007
30
0
41
1
10
30.9370524743462
20
-0.955110252791286
30
0
41
1
10
30.9010708334405
20
-0.94347666382339
30
0
41
1
10
30.8514977641678
20
-0.917787035888551
30
0
41
1
10
30.8357113603649
20
-0.907841778343027
30
0
41
1
10
30.8132873305578
20
-0.890572431508133
30
0
41
1
10
30.8060427687192
20
-0.884435001607613
30
0
41
1
10
30.7921567073631
20
-0.871478452057175
30
0
41
1
10
30.7854964529829
20
-0.864645351072966
30
0
41
1
10
30.7663908690787
20
-0.843047877825143
30
0
41
1
10
30.7548175755395
20
-0.827189279401267
30
0
41
1
10
30.7393598178585
20
-0.801014533024926
30
0
41
1
10
30.7345249878556
20
-0.791890899148626
30
0
41
1
10
30.725527530019
20
-0.772800155654608
30
0
41
1
10
30.7213501970097
20
-0.762789405514411
30
0
41
1
10
30.7024780909981
20
-0.711120479455957
30
0
41
1
10
30.6937187651054
20
-0.664782059195261
30
0
41
1
10
30.6916249167314
20
-0.613182143507458
30
0
0
SPLINE
5
C7
100
AcDbEntity
8
SK1
62
256
6
ByLayer
370
18
48
1
60
0
100
AcDbSpline
70
4
71
3
72
34
73
30
40
0
40
0
40
0
40
0
40
0.0312499999999985
40
0.0312499999999985
40
0.0624999999999969
40
0.124999999999994
40
0.124999999999994
40
0.156249999999992
40
0.156249999999992
40
0.187499999999991
40
0.187499999999991
40
0.249999999999988
40
0.249999999999988
40
0.312499999999985
40
0.312499999999985
40
0.343749999999983
40
0.343749999999983
40
0.374999999999982
40
0.374999999999982
40
0.499999999999985
40
0.499999999999985
40
0.562499999999987
40
0.562499999999987
40
0.624999999999989
40
0.624999999999989
40
0.749999999999993
40
0.749999999999993
40
0.874999999999996
40
1
40
1
40
1
40
1
41
1
10
29.932982496979
20
0.308044130826346
30
0
41
1
10
29.9318532023972
20
0.295223141197056
30
0
41
1
10
29.9312328067462
20
0.28212899194051
30
0
41
1
10
29.9310615759133
20
0.255932468852876
30
0
41
1
10
29.9323886282629
20
0.216673088782272
30
0
41
1
10
29.9382766589957
20
0.177515659326474
30
0
41
1
10
29.9470280748758
20
0.138422234532442
30
0
41
1
10
29.9504232533714
20
0.125401778461992
30
0
41
1
10
29.9581490021684
20
0.0993817749417758
30
0
41
1
10
29.962450416681
20
0.0864875717225004
30
0
41
1
10
29.97645661601
20
0.0484327626576828
30
0
41
1
10
29.9872988314922
20
0.0237588534454858
30
0
41
1
10
30.0115322899102
20
-0.0244100110455463
30
0
41
1
10
30.0249257070815
20
-0.0479039607159848
30
0
41
1
10
30.0466895741158
20
-0.0823707610120721
30
0
41
1
10
30.0541990599051
20
-0.0936885890344001
30
0
41
1
10
30.069580023967
20
-0.115862948652648
30
0
41
1
10
30.0774670687225
20
-0.126744208110353
30
0
41
1
10
30.1177947485453
20
-0.18021556281019
30
0
41
1
10
30.1528718753145
20
-0.220043652697115
30
0
41
1
10
30.2085862565212
20
-0.276539579213448
30
0
41
1
10
30.2276819233005
20
-0.294822392808214
30
0
41
1
10
30.266806443318
20
-0.330410407970589
30
0
41
1
10
30.2867008804135
20
-0.347590843785753
30
0
41
1
10
30.3470917726445
20
-0.397386846499273
30
0
41
1
10
30.3883649796177
20
-0.42833852973402
30
0
41
1
10
30.4725390610197
20
-0.486632247122486
30
0
41
1
10
30.5583494023456
20
-0.541297260065647
30
0
41
1
10
30.6468187874299
20
-0.590065359098418
30
0
41
1
10
30.6916249167313
20
-0.613182143507458
30
0
0
SPLINE
5
C8
100
AcDbEntity
8
SK1
62
256
6
ByLayer
370
13
48
1
60
0
100
AcDbSpline
70
4
71
3
72
30
73
26
40
0
40
0
40
0
40
0
40
0.124999999999999
40
0.124999999999999
40
0.187499999999999
40
0.187499999999999
40
0.249999999999999
40
0.249999999999999
40
0.374999999999999
40
0.374999999999999
40
0.437499999999999
40
0.437499999999999
40
0.499999999999999
40
0.499999999999999
40
0.624999999999999
40
0.624999999999999
40
0.687499999999999
40
0.687499999999999
40
0.749999999999999
40
0.749999999999999
40
0.875
40
0.875
40
0.9375
40
0.9375
40
1
40
1
40
1
40
1
41
1
10
6.33999068820083
20
0.929859852381952
30
0
41
1
10
6.33997661874963
20
0.92142312576334
30
0
41
1
10
6.33996363126906
20
0.909699608600306
30
0
41
1
10
6.33994641116939
20
0.887143470564155
30
0
41
1
10
6.33994103874991
20
0.878771871874932
30
0
41
1
10
6.33993122695509
20
0.860577295013144
30
0
41
1
10
6.33992676839131
20
0.850734286453758
30
0
41
1
10
6.33991471881245
20
0.819001597907516
30
0
41
1
10
6.3399084677138
20
0.794920105651926
30
0
41
1
10
6.33990145896573
20
0.754327422304641
30
0
41
1
10
6.33989951274654
20
0.740008815272461
30
0
41
1
10
6.33989634550636
20
0.710297076602416
30
0
41
1
10
6.33989511456764
20
0.694860745466826
30
0
41
1
10
6.33989223068713
20
0.646844849843689
30
0
41
1
10
6.33989139949787
20
0.612567340037202
30
0
41
1
10
6.33989059951489
20
0.557722519403455
30
0
41
1
10
6.33989040442739
20
0.538867268487707
30
0
41
1
10
6.33988991437448
20
0.499976279558666
30
0
41
1
10
6.33988962021567
20
0.480121658434939
30
0
41
1
10
6.33988820671829
20
0.419636905153425
30
0
41
1
10
6.33988656315438
20
0.377973001085024
30
0
41
1
10
6.33988140218457
20
0.313488631730479
30
0
41
1
10
6.33987923090649
20
0.291661105732487
30
0
41
1
10
6.33987368132321
20
0.247328171071189
30
0
41
1
10
6.33987029293834
20
0.224770818406455
30
0
41
1
10
6.33986616218152
20
0.202015635227355
30
0
0
SPLINE
5
C9
100
AcDbEntity
8
SK1
62
256
6
ByLayer
370
18
48
1
60
0
100
AcDbSpline
70
4
71
3
72
34
73
30
40
0
40
0
40
0
40
0
40
0.0853387814028513
40
0.0853387814028513
40
0.170677562805703
40
0.170677562805703
40
0.256016344208554
40
0.256016344208554
40
0.341355125611405
40
0.341355125611405
40
0.426693907014257
40
0.426693907014257
40
0.469363297715678
40
0.469363297715678
40
0.5120326884171
40
0.5120326884171
40
0.597371469819937
40
0.597371469819937
40
0.682710251222774
40
0.682710251222774
40
0.76804903262561
40
0.76804903262561
40
0.853387814028447
40
0.853387814028447
40
0.938726595431283
40
0.938726595431283
40
0.981395986132701
40
0.981395986132701
40
1
40
1
40
1
40
1
41
1
10
29.932982496979
20
0.308044130826346
30
0
41
1
10
29.8719872030336
20
0.340390414208599
30
0
41
1
10
29.8108831176002
20
0.372220653461056
30
0
41
1
10
29.6883109876255
20
0.434551378486248
30
0
41
1
10
29.6268299854554
20
0.465066765949416
30
0
41
1
10
29.5033905432622
20
0.524311231093719
30
0
41
1
10
29.4417992997682
20
0.552863794825839
30
0
41
1
10
29.3186429398641
20
0.607808324535227
30
0
41
1
10
29.257093949271
20
0.634192245459587
30
0
41
1
10
29.1339015703446
20
0.684540983814088
30
0
41
1
10
29.0722568791829
20
0.708506218872742
30
0
41
1
10
28.979623636369
20
0.742487401412063
30
0
41
1
10
28.9487159784998
20
0.75348574912735
30
0
41
1
10
28.8870821590495
20
0.774692988275291
30
0
41
1
10
28.8563240962202
20
0.784913676957643
30
0
41
1
10
28.7642007492732
20
0.814378908071745
30
0
41
1
10
28.7029882483213
20
0.832427011245272
30
0
41
1
10
28.5808332378955
20
0.865099471622443
30
0
41
1
10
28.5198831560267
20
0.879726188630315
30
0
41
1
10
28.3980294051208
20
0.905425481841888
30
0
41
1
10
28.3371222745811
20
0.916521075898089
30
0
41
1
10
28.2151090401587
20
0.935782006547157
30
0
41
1
10
28.1540106864208
20
0.943938413389787
30
0
41
1
10
28.0315550354627
20
0.956846008327631
30
0
41
1
10
27.9702010937213
20
0.961596293182225
30
0
41
1
10
27.8778707112565
20
0.965817425646549
30
0
41
1
10
27.8470231324259
20
0.966745929437508
30
0
41
1
10
27.8026916208881
20
0.967284743727021
30
0
41
1
10
27.7892418380328
20
0.967340141304732
30
0
41
1
10
27.7758002815137
20
0.9672915503387
30
0
0
SPLINE
5
CA
100
AcDbEntity
8
SK1
62
256
6
ByLayer
370
18
48
1
60
0
100
AcDbSpline
70
4
71
3
72
95
73
91
40
0
40
0
40
0
40
0
40
0.0174154629233519
40
0.0174154629233519
40
0.0307708777157765
40
0.0307708777157765
40
0.0441262925082011
40
0.0441262925082011
40
0.0708371220930479
40
0.0708371220930479
40
0.0975479516778946
40
0.0975479516778946
40
0.110903366470318
40
0.110903366470318
40
0.124258781262741
40
0.124258781262741
40
0.150969610847591
40
0.150969610847591
40
0.164325025640015
40
0.164325025640015
40
0.17768044043244
40
0.17768044043244
40
0.204391270017288
40
0.204391270017288
40
0.231102099602138
40
0.231102099602138
40
0.257812929186987
40
0.257812929186987
40
0.271168343979411
40
0.271168343979411
40
0.284523758771836
40
0.284523758771836
40
0.337945417941536
40
0.337945417941536
40
0.351300832733963
40
0.351300832733963
40
0.36465624752639
40
0.36465624752639
40
0.391367077111244
40
0.391367077111244
40
0.418077906696098
40
0.418077906696098
40
0.444788736280951
40
0.444788736280951
40
0.471499565865805
40
0.471499565865805
40
0.498210395450659
40
0.498210395450659
40
0.524921225035512
40
0.524921225035512
40
0.538276639827941
40
0.538276639827941
40
0.551632054620368
40
0.578342884205225
40
0.578342884205225
40
0.605053713790081
40
0.605053713790081
40
0.631764543374936
40
0.631764543374936
40
0.658475372959793
40
0.658475372959793
40
0.685186202544648
40
0.685186202544648
40
0.711897032129505
40
0.711897032129505
40
0.738607861714361
40
0.738607861714361
40
0.765318691299217
40
0.765318691299217
40
0.778674106091645
40
0.778674106091645
40
0.792029520884073
40
0.792029520884073
40
0.818740350468929
40
0.818740350468929
40
0.845451180053785
40
0.845451180053785
40
0.872162009638641
40
0.872162009638641
40
0.898872839223497
40
0.898872839223497
40
0.912228254015923
40
0.912228254015923
40
0.92558366880835
40
0.92558366880835
40
0.952294498393204
40
0.952294498393204
40
0.979005327978058
40
0.979005327978058
40
1
40
1
40
1
40
1
41
1
10
23.7968900125715
20
-0.640000608260152
30
0
41
1
10
23.7570638143034
20
-0.656590313662434
30
0
41
1
10
23.7172683086556
20
-0.672645781725208
30
0
41
1
10
23.6469731728857
20
-0.699958393220612
30
0
41
1
10
23.6164691735399
20
-0.711462107776043
30
0
41
1
10
23.5554517226072
20
-0.733727344620945
30
0
41
1
10
23.524938954761
20
-0.744482242079073
30
0
41
1
10
23.4333142945126
20
-0.775728649236271
30
0
41
1
10
23.3721060500467
20
-0.795263854206638
30
0
41
1
10
23.2493274342844
20
-0.831684019773689
30
0
41
1
10
23.1877738920408
20
-0.848486483553359
30
0
41
1
10
23.0950874637549
20
-0.871333274293193
30
0
41
1
10
23.0641422527101
20
-0.878554871393419
30
0
41
1
10
23.0023804248455
20
-0.892097147919912
30
0
41
1
10
22.9715321732918
20
-0.898424076509599
30
0
41
1
10
22.8790708779255
20
-0.915973324853667
30
0
41
1
10
22.8175567170239
20
-0.925696318878067
30
0
41
1
10
22.7252617170161
20
-0.937376281934576
30
0
41
1
10
22.6944840662429
20
-0.940834211570689
30
0
41
1
10
22.6328692626982
20
-0.947017123904658
30
0
41
1
10
22.6020360771345
20
-0.94972311096177
30
0
41
1
10
22.509453320772
20
-0.956631260885359
30
0
41
1
10
22.4475412948083
20
-0.959625972280122
30
0
41
1
10
22.3243465104171
20
-0.962028726610868
30
0
41
1
10
22.2629561953575
20
-0.961466517948082
30
0
41
1
10
22.1405515125488
20
-0.956356709034196
30
0
41
1
10
22.0795562463439
20
-0.95170654168993
30
0
41
1
10
21.9881601857048
20
-0.941769442668402
30
0
41
1
10
21.9577073745546
20
-0.937982373870369
30
0
41
1
10
21.8967762804374
20
-0.929688449762239
30
0
41
1
10
21.8662979419747
20
-0.925186907618723
30
0
41
1
10
21.7138373970324
20
-0.900799908926416
30
0
41
1
10
21.5916612349197
20
-0.875271187819635
30
0
41
1
10
21.4381130026518
20
-0.83442827502023
30
0
41
1
10
21.4073595251372
20
-0.825813600890029
30
0
41
1
10
21.3457351479569
20
-0.807668334789099
30
0
41
1
10
21.3148293867274
20
-0.798114190908905
30
0
41
1
10
21.2221961535184
20
-0.768268751644911
30
0
41
1
10
21.1605505591048
20
-0.746874841490609
30
0
41
1
10
21.0372145831749
20
-0.701929236437024
30
0
41
1
10
20.9755379499276
20
-0.678297071782112
30
0
41
1
10
20.8520997351735
20
-0.628589644436886
30
0
41
1
10
20.7903423386439
20
-0.60250216696295
30
0
41
1
10
20.6666169784144
20
-0.5476916470775
30
0
41
1
10
20.6049150560912
20
-0.519087638963384
30
0
41
1
10
20.4817308398054
20
-0.459621134133357
30
0
41
1
10
20.4202143983554
20
-0.428829007036739
30
0
41
1
10
20.2969535675546
20
-0.366361869332337
30
0
41
1
10
20.2352270119951
20
-0.334638759167802
30
0
41
1
10
20.1424787022431
20
-0.286171634261763
30
0
41
1
10
20.1115237510463
20
-0.269864162087543
30
0
41
1
10
20.0497923319943
20
-0.237087754380099
30
0
41
1
10
19.957375123475
20
-0.187639460236994
30
0
41
1
10
19.8654460089863
20
-0.137443303681493
30
0
41
1
10
19.7432100223809
20
-0.0700434396993614
30
0
41
1
10
19.6822640772343
20
-0.0361024705565285
30
0
41
1
10
19.5603530865474
20
0.0316195316638073
30
0
41
1
10
19.499386494396
20
0.0654006602871391
30
0
41
1
10
19.3773604219101
20
0.132659934148762
30
0
41
1
10
19.3163063998942
20
0.166143940934148
30
0
41
1
10
19.1938723748902
20
0.232394570458808
30
0
41
1
10
19.1324922378522
20
0.265165744062529
30
0
41
1
10
19.0093387073748
20
0.329868288272252
30
0
41
1
10
18.9474559297613
20
0.361838265275026
30
0
41
1
10
18.8241117637329
20
0.424110073400783
30
0
41
1
10
18.7625584741196
20
0.454477814689284
30
0
41
1
10
18.6395896247301
20
0.51320870119514
30
0
41
1
10
18.5781623361718
20
0.541526065297973
30
0
41
1
10
18.4858525206316
20
0.582446975178669
30
0
41
1
10
18.4550559514792
20
0.59583900098022
30
0
41
1
10
18.393403336503
20
0.622081973834895
30
0
41
1
10
18.3625268971688
20
0.634940565031201
30
0
41
1
10
18.2700399069163
20
0.672472372016756
30
0
41
1
10
18.208518300015
20
0.696095899060481
30
0
41
1
10
18.0854453975029
20
0.740766823104735
30
0
41
1
10
18.0239075328277
20
0.761823613500894
30
0
41
1
10
17.9006838591676
20
0.801296078193872
30
0
41
1
10
17.83901087979
20
0.819669365806391
30
0
41
1
10
17.7154623750732
20
0.853189749380959
30
0
41
1
10
17.653963241748
20
0.868253285205299
30
0
41
1
10
17.5621069970074
20
0.887963256843392
30
0
41
1
10
17.5315605663919
20
0.894016440729246
30
0
41
1
10
17.4705805200771
20
0.905065390797319
30
0
41
1
10
17.4401331455525
20
0.910108664824463
30
0
41
1
10
17.3487931848679
20
0.924188524400392
30
0
41
1
10
17.2879278147464
20
0.932078656781982
30
0
41
1
10
17.1661570387532
20
0.944851681563478
30
0
41
1
10
17.1052632592011
20
0.949719228398067
30
0
41
1
10
16.9964595477553
20
0.95523120974471
30
0
41
1
10
16.9485568844105
20
0.956554468427044
30
0
41
1
10
16.9005980716347
20
0.956623787856273
30
0
0
SPLINE
5
CB
100
AcDbEntity
8
SK1
62
256
6
ByLayer
370
18
48
1
60
0
100
AcDbSpline
70
4
71
3
72
86
73
82
40
0
40
0
40
0
40
0
40
0.0179022795366444
40
0.0179022795366444
40
0.0459622144070279
40
0.0459622144070279
40
0.0740221492774113
40
0.0740221492774113
40
0.102082084147794
40
0.102082084147794
40
0.130142019018178
40
0.130142019018178
40
0.14417198645337
40
0.14417198645337
40
0.158201953888561
40
0.158201953888561
40
0.172231921323753
40
0.172231921323753
40
0.186261888758945
40
0.186261888758945
40
0.214321823629328
40
0.214321823629328
40
0.242381758499712
40
0.242381758499712
40
0.256411725934904
40
0.256411725934904
40
0.270441693370097
40
0.270441693370097
40
0.298501628240481
40
0.298501628240481
40
0.326561563110866
40
0.326561563110866
40
0.35462149798125
40
0.35462149798125
40
0.382681432851635
40
0.382681432851635
40
0.41074136772202
40
0.41074136772202
40
0.438801302592404
40
0.438801302592404
40
0.452831270027596
40
0.452831270027596
40
0.466861237462788
40
0.466861237462788
40
0.49492117233317
40
0.49492117233317
40
0.508951139768361
40
0.508951139768361
40
0.522981107203552
40
0.522981107203552
40
0.551041042073933
40
0.551041042073933
40
0.607160911814694
40
0.607160911814694
40
0.663280781555455
40
0.663280781555455
40
0.691340716425835
40
0.691340716425835
40
0.705370683861024
40
0.705370683861024
40
0.719400651296214
40
0.719400651296214
40
0.747460586166592
40
0.747460586166592
40
0.775520521036971
40
0.775520521036971
40
0.80358045590735
40
0.80358045590735
40
0.831640390777728
40
0.831640390777728
40
0.859700325648107
40
0.859700325648107
40
0.887760260518486
40
0.887760260518486
40
0.915820195388864
40
0.915820195388864
40
0.943880130259243
40
0.943880130259243
40
0.971940065129621
40
0.971940065129621
40
1
40
1
40
1
40
1
41
1
10
12.915430948852
20
-0.635381028209366
30
0
41
1
10
12.8761843912222
20
-0.651398549382577
30
0
41
1
10
12.8370204655534
20
-0.666868825279096
30
0
41
1
10
12.7365501945143
20
-0.705243195403199
30
0
41
1
10
12.6753015306262
20
-0.727412909882275
30
0
41
1
10
12.5529850519189
20
-0.768700352485553
30
0
41
1
10
12.491908420392
20
-0.787755858129003
30
0
41
1
10
12.3695926453499
20
-0.823187823823019
30
0
41
1
10
12.3083559973038
20
-0.839640505261656
30
0
41
1
10
12.1857037159145
20
-0.869567569287852
30
0
41
1
10
12.1242816919144
20
-0.883009730406201
30
0
41
1
10
12.0319004130655
20
-0.900574527462538
30
0
41
1
10
12.0010657415322
20
-0.905999385275265
30
0
41
1
10
11.9392930253575
20
-0.915922601977059
30
0
41
1
10
11.9083219861696
20
-0.920422087993956
30
0
41
1
10
11.8464018395474
20
-0.928368321067438
30
0
41
1
10
11.8154949589055
20
-0.931797321819261
30
0
41
1
10
11.7537471789056
20
-0.937578923426457
30
0
41
1
10
11.7228935327526
20
-0.939980170751824
30
0
41
1
10
11.6302646662838
20
-0.946268585935712
30
0
41
1
10
11.5684884400925
20
-0.948987949718997
30
0
41
1
10
11.4448768229889
20
-0.950751251688757
30
0
41
1
10
11.3830244944087
20
-0.949847575012683
30
0
41
1
10
11.2900785020926
20
-0.945745013374363
30
0
41
1
10
11.2590860914676
20
-0.94392316774551
30
0
41
1
10
11.1972719100291
20
-0.939398514377558
30
0
41
1
10
11.1664201222611
20
-0.936694803618565
30
0
41
1
10
11.0739989931285
20
-0.927277114210085
30
0
41
1
10
11.0125657479969
20
-0.919257093441786
30
0
41
1
10
10.8899293257295
20
-0.899790766912787
30
0
41
1
10
10.8287135193784
20
-0.888391698013209
30
0
41
1
10
10.7063779710889
20
-0.862005667096724
30
0
41
1
10
10.6452969531651
20
-0.846723094808311
30
0
41
1
10
10.5229509033174
20
-0.813285950221285
30
0
41
1
10
10.4616682724019
20
-0.795321975981636
30
0
41
1
10
10.3388032084665
20
-0.756856755523359
30
0
41
1
10
10.2772333631925
20
-0.736295762112377
30
0
41
1
10
10.1537108464162
20
-0.692181035024959
30
0
41
1
10
10.0916332916058
20
-0.668581534605124
30
0
41
1
10
9.99887702348676
20
-0.631139193446103
30
0
41
1
10
9.9679963190095
20
-0.618306938461075
30
0
41
1
10
9.90629589554541
20
-0.591919291262712
30
0
41
1
10
9.87547243805329
20
-0.57837722464987
30
0
41
1
10
9.78299055099066
20
-0.536997781028987
30
0
41
1
10
9.72130377734914
20
-0.50847411677654
30
0
41
1
10
9.62861751845247
20
-0.464590567027216
30
0
41
1
10
9.59769965090305
20
-0.449763967439679
30
0
41
1
10
9.5358098251298
20
-0.419702750641477
30
0
41
1
10
9.50480722839279
20
-0.404452701314199
30
0
41
1
10
9.41200674283223
20
-0.358261433918869
30
0
41
1
10
9.35037643765008
20
-0.326856108120893
30
0
41
1
10
9.16607642473016
20
-0.230986927736382
30
0
41
1
10
9.04395600683696
20
-0.164948838852297
30
0
41
1
10
8.7996263327546
20
-0.0316340563449273
30
0
41
1
10
8.67745100801938
20
0.0357173404891853
30
0
41
1
10
8.49319938365613
20
0.135901172704735
30
0
41
1
10
8.43162676806705
20
0.169169406777684
30
0
41
1
10
8.33891997201377
20
0.218690939265429
30
0
41
1
10
8.30793047652531
20
0.235149820022116
30
0
41
1
10
8.2460659919509
20
0.267776733466747
30
0
41
1
10
8.21517055706011
20
0.283957344517631
30
0
41
1
10
8.12256971483956
20
0.332035775374976
30
0
41
1
10
8.0609537716426
20
0.363447117060218
30
0
41
1
10
7.93766300181051
20
0.424700729524886
30
0
41
1
10
7.8759818702699
20
0.454563080230969
30
0
41
1
10
7.75241551258918
20
0.512594840772323
30
0
41
1
10
7.69041832780053
20
0.540800240586464
30
0
41
1
10
7.56700190913679
20
0.594827069532869
30
0
41
1
10
7.50551917474257
20
0.620694445921856
30
0
41
1
10
7.38289630443117
20
0.669794920093892
30
0
41
1
10
7.32176003373874
20
0.692997755515023
30
0
41
1
10
7.19962787905302
20
0.736550207328207
30
0
41
1
10
7.13862056699787
20
0.756956626761053
30
0
41
1
10
7.01652362489139
20
0.795018389338907
30
0
41
1
10
6.95544336861642
20
0.812630827904883
30
0
41
1
10
6.83311139712367
20
0.844743916652675
30
0
41
1
10
6.77185450533199
20
0.859269202986411
30
0
41
1
10
6.64897815415279
20
0.885228802154813
30
0
41
1
10
6.587363437612
20
0.89664913618077
30
0
41
1
10
6.46364570509138
20
0.915976937092381
30
0
41
1
10
6.40179780198864
20
0.923834042024339
30
0
41
1
10
6.33999068820083
20
0.929859852381952
30
0
0
SPLINE
5
CC
100
AcDbEntity
8
SK1
62
256
6
ByLayer
370
18
48
1
60
0
100
AcDbSpline
70
4
71
3
72
38
73
34
40
0
40
0
40
0
40
0
40
0.0312500000000041
40
0.0312500000000041
40
0.0625000000000082
40
0.0625000000000082
40
0.125000000000016
40
0.156250000000021
40
0.156250000000021
40
0.187500000000025
40
0.187500000000025
40
0.250000000000033
40
0.250000000000033
40
0.312500000000041
40
0.312500000000041
40
0.343750000000045
40
0.343750000000045
40
0.375000000000049
40
0.375000000000049
40
0.437500000000044
40
0.437500000000044
40
0.500000000000039
40
0.500000000000039
40
0.531250000000037
40
0.531250000000037
40
0.562500000000034
40
0.62500000000003
40
0.62500000000003
40
0.75000000000002
40
0.75000000000002
40
0.87500000000001
40
0.87500000000001
40
1
40
1
40
1
40
1
41
1
10
30.9297653965481
20
0.436321267192341
30
0
41
1
10
30.9253567259272
20
0.424905977084706
30
0
41
1
10
30.920605307513
20
0.413649619335217
30
0
41
1
10
30.910337406316
20
0.39149166464486
30
0
41
1
10
30.9048448456937
20
0.380646426109962
30
0
41
1
10
30.8873941531516
20
0.349138407962414
30
0
41
1
10
30.8679164268741
20
0.319505779168764
30
0
41
1
10
30.8451993393302
20
0.292870171853963
30
0
41
1
10
30.8293094519596
20
0.275802516326024
30
0
41
1
10
30.8209550418595
20
0.267581170958152
30
0
41
1
10
30.7950259773872
20
0.244242044800842
30
0
41
1
10
30.7766841850808
20
0.230488696591266
30
0
41
1
10
30.7379822142312
20
0.206434851325724
30
0
41
1
10
30.7176133125806
20
0.196149276880106
30
0
41
1
10
30.685623697068
20
0.183177928835988
30
0
41
1
10
30.6747217319194
20
0.179264781907619
30
0
41
1
10
30.6527947495803
20
0.172305707117658
30
0
41
1
10
30.641728594691
20
0.169241927835941
30
0
41
1
10
30.6082507507758
20
0.161181994434571
30
0
41
1
10
30.5855611251566
20
0.157311402430537
30
0
41
1
10
30.5395499730334
20
0.152129232652555
30
0
41
1
10
30.5162262715946
20
0.150826462729555
30
0
41
1
10
30.4808033462265
20
0.150643541743392
30
0
41
1
10
30.4689185818425
20
0.150880168161677
30
0
41
1
10
30.445227271516
20
0.151895657743239
30
0
41
1
10
30.4097236660092
20
0.154229997791816
30
0
41
1
10
30.3743107347354
20
0.158768966818116
30
0
41
1
10
30.3035884410923
20
0.170365051427751
30
0
41
1
10
30.2565768160052
20
0.181416317253792
30
0
41
1
10
30.1627859698309
20
0.2091694574153
30
0
41
1
10
30.1158759859075
20
0.225910781772342
30
0
41
1
10
30.0235495491176
20
0.263735136389272
30
0
41
1
10
29.977992206809
20
0.284880417296279
30
0
41
1
10
29.932982496979
20
0.308044130826346
30
0
0
SPLINE
5
CD
100
AcDbEntity
8
SK1
62
256
6
ByLayer
370
18
48
1
60
0
100
AcDbSpline
70
4
71
3
72
14
73
10
40
0
40
0
40
0
40
0
40
0.25
40
0.25
40
0.5
40
0.5
40
0.75
40
0.75
40
1
40
1
40
1
40
1
41
1
10
30.9552536986745
20
0.450474123540516
30
0
41
1
10
30.9526722459812
20
0.450234023208054
30
0
41
1
10
30.9501262416475
20
0.449816645706591
30
0
41
1
10
30.9451203020211
20
0.448549758881597
30
0
41
1
10
30.9426274950766
20
0.447686657283555
30
0
41
1
10
30.9379746255153
20
0.445427273701767
30
0
41
1
10
30.9357702586811
20
0.444004912304024
30
0
41
1
10
30.9321034933831
20
0.440580603904692
30
0
41
1
10
30.9306241181615
20
0.438544739347918
30
0
41
1
10
30.9297653965457
20
0.436321267193421
30
0
0
SPLINE
5
CE
100
AcDbEntity
8
SK1
62
256
6
ByLayer
370
18
48
1
60
0
100
AcDbSpline
70
4
71
3
72
14
73
10
40
0
40
0
40
0
40
0
40
0.25
40
0.25
40
0.5
40
0.5
40
0.75
40
0.75
40
1
40
1
40
1
40
1
41
1
10
31.3951317040113
20
0.517567703145801
30
0
41
1
10
31.3593667373121
20
0.509202577177291
30
0
41
1
10
31.3231835882099
20
0.501702492603073
30
0
41
1
10
31.2503192873589
20
0.488034732682053
30
0
41
1
10
31.2137344823338
20
0.481924718306971
30
0
41
1
10
31.1402681494931
20
0.471111705244823
30
0
41
1
10
31.1033958856824
20
0.466364778013428
30
0
41
1
10
31.0294583957004
20
0.457785922590603
30
0
41
1
10
30.9923984513871
20
0.453928948608109
30
0
41
1
10
30.9552536986745
20
0.450474123540516
30
0
0
SPLINE
5
CF
100
AcDbEntity
8
SK1
62
256
6
ByLayer
370
18
48
1
60
0
100
AcDbSpline
70
4
71
3
72
10
73
6
40
0
40
0
40
0
40
0
40
0.5
40
0.5
40
1
40
1
40
1
40
1
41
1
10
31.0897620591859
20
0.980452626969765
30
0
41
1
10
31.1401710661395
20
0.905488293119902
30
0
41
1
10
31.1908266857395
20
0.82944792453884
30
0
41
1
10
31.2926543838315
20
0.675113743712728
30
0
41
1
10
31.343843928114
20
0.596792584058846
30
0
41
1
10
31.3951317040113
20
0.517567703145687
30
0
0
SPLINE
5
D0
100
AcDbEntity
8
SK1
62
256
6
ByLayer
370
18
48
1
60
0
100
AcDbSpline
70
4
71
3
72
14
73
10
40
0
40
0
40
0
40
0
40
0.500000000000001
40
0.500000000000001
40
0.625000000000001
40
0.625000000000001
40
0.750000000000001
40
0.750000000000001
40
1
40
1
40
1
40
1
41
1
10
6.33999068820083
20
0.929859852381981
30
0
41
1
10
6.31827089746986
20
0.931977397304081
30
0
41
1
10
6.29647031314894
20
0.936428919549854
30
0
41
1
10
6.26931427795873
20
0.945435177998746
30
0
41
1
10
6.2638880781841
20
0.947410773346235
30
0
41
1
10
6.25305190494402
20
0.951734264973567
30
0
41
1
10
6.24763539260672
20
0.954086990680878
30
0
41
1
10
6.23167304284326
20
0.961618276590855
30
0
41
1
10
6.22133041315931
20
0.967298571624383
30
0
41
1
10
6.21131405518429
20
0.973668427415419
30
0
0
SPLINE
5
D1
100
AcDbEntity
8
SK1
62
256
6
ByLayer
370
18
48
1
60
0
100
AcDbSpline
70
4
71
3
72
24
73
20
40
0
40
0
40
0
40
0
40
0.0721649140526632
40
0.0721649140526632
40
0.215349316667166
40
0.215349316667166
40
0.358533719281669
40
0.358533719281669
40
0.501718121896175
40
0.501718121896175
40
0.573310323203424
40
0.573310323203424
40
0.644902524510674
40
0.644902524510674
40
0.788086927125173
40
0.788086927125173
40
0.93127132973967
40
0.93127132973967
40
1
40
1
40
1
40
1
41
1
10
10.2942556445606
20
0.834266447193187
30
0
41
1
10
10.3265216729549
20
0.825841283940434
30
0
41
1
10
10.3587687661876
20
0.816978716644087
30
0
41
1
10
10.4549755027002
20
0.789262818983843
30
0
41
1
10
10.5188951231444
20
0.769141692319266
30
0
41
1
10
10.6470324579241
20
0.725957557250268
30
0
41
1
10
10.7111990563993
20
0.702791745552531
30
0
41
1
10
10.8399479760494
20
0.653686164407986
30
0
41
1
10
10.9045145552303
20
0.627667917094698
30
0
41
1
10
11.0017342248007
20
0.58649651058488
30
0
41
1
10
11.0341630430995
20
0.572436979717338
30
0
41
1
10
11.0988077446874
20
0.543804828806202
30
0
41
1
10
11.131064198781
20
0.529215132003088
30
0
41
1
10
11.227669025728
20
0.484681353152041
30
0
41
1
10
11.2918487547755
20
0.453963118186181
30
0
41
1
10
11.4199823580509
20
0.390863701001137
30
0
41
1
10
11.4839428849172
20
0.35849477471092
30
0
41
1
10
11.5785887389134
20
0.309622612952893
30
0
41
1
10
11.6092790403825
20
0.293614496364768
30
0
41
1
10
11.6399794794745
20
0.277479934687506
30
0
0
SPLINE
5
D2
100
AcDbEntity
8
SK1
62
256
6
ByLayer
370
13
48
1
60
0
100
AcDbSpline
70
4
71
3
72
14
73
10
40
0
40
0
40
0
40
0
40
0.189090620590815
40
0.189090620590815
40
0.552727196200955
40
0.552727196200955
40
0.91636377181109
40
0.91636377181109
40
1
40
1
40
1
40
1
41
1
10
11.6399794794691
20
0.277479934690462
30
0
41
1
10
11.6732381423772
20
0.260000902993624
30
0
41
1
10
11.7065087028077
20
0.242373475239049
30
0
41
1
10
11.8038548760043
20
0.190529314371474
30
0
41
1
10
11.8679908954548
20
0.155943713243147
30
0
41
1
10
11.9965745710443
20
0.0860110489291799
30
0
41
1
10
12.0610277269678
20
0.0506842819265501
30
0
41
1
10
12.1406134784745
20
0.0070008230883332
30
0
41
1
10
12.1555145564714
20
-0.001180719992135
30
0
41
1
10
12.1704159361648
20
-0.0093620910621155
30
0
0
SPLINE
5
D3
100
AcDbEntity
8
SK1
62
256
6
ByLayer
370
18
48
1
60
0
100
AcDbSpline
70
4
71
3
72
34
73
30
40
0
40
0
40
0
40
0
40
0.0192472547359238
40
0.0192472547359238
40
0.0548902521936822
40
0.0548902521936822
40
0.126176247109193
40
0.126176247109193
40
0.268748236940213
40
0.268748236940213
40
0.411320226771232
40
0.411320226771232
40
0.44696322422899
40
0.44696322422899
40
0.482606221686747
40
0.482606221686747
40
0.553892216602262
40
0.553892216602262
40
0.696464206433294
40
0.696464206433294
40
0.839036196264325
40
0.839036196264325
40
0.874679193722083
40
0.874679193722083
40
0.91032219117984
40
0.91032219117984
40
0.981608186095356
40
0.981608186095356
40
1
40
1
40
1
40
1
41
1
10
12.1704159361687
20
-0.0093620910642471
30
0
41
1
10
12.1879089315009
20
-0.0189663484473215
30
0
41
1
10
12.2054023425959
20
-0.0285703687856653
30
0
41
1
10
12.255204820695
20
-0.0558976429705922
30
0
41
1
10
12.2874809093028
20
-0.0735897183630527
30
0
41
1
10
12.3841554792293
20
-0.126444159274229
30
0
41
1
10
12.4484027800215
20
-0.161381931738021
30
0
41
1
10
12.6407701516055
20
-0.264860366270796
30
0
41
1
10
12.7685106644699
20
-0.332038159917033
30
0
41
1
10
13.0245627871835
20
-0.460096994635819
30
0
41
1
10
13.1529234039119
20
-0.520889614803906
30
0
41
1
10
13.314535029224
20
-0.591537421480808
30
0
41
1
10
13.3469620980238
20
-0.605418748009441
30
0
41
1
10
13.4116922093014
20
-0.632496029185461
30
0
41
1
10
13.4439875407585
20
-0.6456898448088
30
0
41
1
10
13.5406991905644
20
-0.684197879879378
30
0
41
1
10
13.6049385251567
20
-0.708439008614221
30
0
41
1
10
13.797249839529
20
-0.776547563329359
30
0
41
1
10
13.9249918776656
20
-0.815694897196352
30
0
41
1
10
14.1809525321249
20
-0.880174486204282
30
0
41
1
10
14.3092168694326
20
-0.905497516699825
30
0
41
1
10
14.4706667800063
20
-0.927780356049908
30
0
41
1
10
14.5030386448374
20
-0.93177069650713
30
0
41
1
10
14.5678059907659
20
-0.938777160643724
30
0
41
1
10
14.6001176804422
20
-0.941785010600569
30
0
41
1
10
14.6968709020963
20
-0.949320286049584
30
0
41
1
10
14.7611258491869
20
-0.952351670021869
30
0
41
1
10
14.8417805311236
20
-0.953682311416514
30
0
41
1
10
14.8583133636971
20
-0.953824185920951
30
0
41
1
10
14.8748397680598
20
-0.953835484763204
30
0
0
SPLINE
5
D4
100
AcDbEntity
8
SK1
62
256
6
ByLayer
370
18
48
1
60
0
100
AcDbSpline
70
4
71
3
72
20
73
16
40
0
40
0
40
0
40
0
40
0.124175128036924
40
0.124175128036924
40
0.410954530168318
40
0.410954530168318
40
0.482649380701169
40
0.482649380701169
40
0.554344231234022
40
0.554344231234022
40
0.697733932299737
40
0.697733932299737
40
0.984513334431164
40
0.984513334431164
40
1
40
1
40
1
40
1
41
1
10
21.2058177362771
20
0.83594897436123
30
0
41
1
10
21.2611654763427
20
0.820961919123135
30
0
41
1
10
21.316480076748
20
0.804736837851891
30
0
41
1
10
21.4995046442579
20
0.746884074206918
30
0
41
1
10
21.6271911115434
20
0.699908439476673
30
0
41
1
10
21.7876471352557
20
0.633964393894985
30
0
41
1
10
21.8197813607978
20
0.62041513241914
30
0
41
1
10
21.8841714079588
20
0.592643868723655
30
0
41
1
10
21.9164534002657
20
0.578409813125063
30
0
41
1
10
22.013364281401
20
0.534848988985544
30
0
41
1
10
22.077742042963
20
0.504839984307011
30
0
41
1
10
22.2703297787165
20
0.412108813759375
30
0
41
1
10
22.3979733707168
20
0.346654286867221
30
0
41
1
10
22.5324703748668
20
0.275206268820512
30
0
41
1
10
22.539361226736
20
0.271538711268875
30
0
41
1
10
22.5462520835514
20
0.267864488559894
30
0
0
SPLINE
5
D5
100
AcDbEntity
8
SK1
62
256
6
ByLayer
370
13
48
1
60
0
100
AcDbSpline
70
4
71
3
72
12
73
8
40
0
40
0
40
0
40
0
40
0.64705929563423
40
0.64705929563423
40
0.989056704392956
40
0.989056704392956
40
1
40
1
40
1
40
1
41
1
10
22.5462512012345
20
0.267864959013537
30
0
41
1
10
22.6669643366097
20
0.20350041241295
30
0
41
1
10
22.7876789881013
20
0.13709048735862
30
0
41
1
10
22.9733110444402
20
0.0344107288057103
30
0
41
1
10
23.0376855078942
20
-0.0013474168351308
30
0
41
1
10
23.104388022857
20
-0.038376357285415
30
0
41
1
10
23.1064559644987
20
-0.0395243251308273
30
0
41
1
10
23.1085236668438
20
-0.0406721312673994
30
0
0
SPLINE
5
D6
100
AcDbEntity
8
SK1
62
256
6
ByLayer
370
18
48
1
60
0
100
AcDbSpline
70
4
71
3
72
30
73
26
40
0
40
0
40
0
40
0
40
0.0702672728721566
40
0.0702672728721566
40
0.215447316309217
40
0.215447316309217
40
0.360627359746279
40
0.360627359746279
40
0.433217381464812
40
0.433217381464812
40
0.469512392324076
40
0.469512392324076
40
0.505807403183339
40
0.505807403183339
40
0.650987446620401
40
0.650987446620401
40
0.796167490057461
40
0.796167490057461
40
0.868757511775989
40
0.868757511775989
40
0.905052522635253
40
0.905052522635253
40
0.941347533494517
40
0.941347533494517
40
1
40
1
40
1
40
1
41
1
10
23.1085236670068
20
-0.0406721313579226
30
0
41
1
10
23.1710753324376
20
-0.0753953039669852
30
0
41
1
10
23.2334080008858
20
-0.109970485486116
30
0
41
1
10
23.4238799696477
20
-0.214803618586075
30
0
41
1
10
23.5515288994646
20
-0.283781161081095
30
0
41
1
10
23.8069474402383
20
-0.415738550786699
30
0
41
1
10
23.9345317134613
20
-0.478980756454291
30
0
41
1
10
24.126793663338
20
-0.567996722393332
30
0
41
1
10
24.1910503961069
20
-0.596671710742186
30
0
41
1
10
24.2879238477466
20
-0.637791523333306
30
0
41
1
10
24.3202438039375
20
-0.651178383621499
30
0
41
1
10
24.3846821105265
20
-0.67718397549757
30
0
41
1
10
24.4168423513697
20
-0.689818130455023
30
0
41
1
10
24.5773941977248
20
-0.751068321919917
30
0
41
1
10
24.7050169118836
20
-0.793929783385352
30
0
41
1
10
24.9600515058013
20
-0.866424227667466
30
0
41
1
10
25.0875508291961
20
-0.895899771855738
30
0
41
1
10
25.2799723556774
20
-0.928939169800486
30
0
41
1
10
25.3442728628583
20
-0.938080356089017
30
0
41
1
10
25.441091150164
20
-0.948888353934365
30
0
41
1
10
25.4734280291066
20
-0.952004727406489
30
0
41
1
10
25.5378713345205
20
-0.957224501423156
30
0
41
1
10
25.5700249707975
20
-0.959333682439109
30
0
41
1
10
25.6539914810488
20
-0.963545375334434
30
0
41
1
10
25.7057130701331
20
-0.964845770684349
30
0
41
1
10
25.7573516097684
20
-0.96486769978722
30
0
0
SPLINE
5
D7
100
AcDbEntity
8
SK1
62
256
6
ByLayer
370
18
48
1
60
0
100
AcDbSpline
70
4
71
3
72
20
73
16
40
0
40
0
40
0
40
0
40
0.0625000000000001
40
0.0625000000000001
40
0.125
40
0.125
40
0.25
40
0.25
40
0.375
40
0.375
40
0.5
40
0.5
40
0.75
40
0.75
40
1
40
1
40
1
40
1
41
1
10
31.0058814272439
20
-0.997840337585473
30
0
41
1
10
31.0066722105875
20
-0.996188801019002
30
0
41
1
10
31.0073142583995
20
-0.994487840894237
30
0
41
1
10
31.0081931014989
20
-0.99117500079555
30
0
41
1
10
31.0084307477797
20
-0.989574350816866
30
0
41
1
10
31.008598226718
20
-0.985037128151276
30
0
41
1
10
31.0079975711581
20
-0.982483697129879
30
0
41
1
10
31.0061433186883
20
-0.978160048892534
30
0
41
1
10
31.0048783332861
20
-0.976351758129397
30
0
41
1
10
31.0020260036314
20
-0.973207254758933
30
0
41
1
10
31.0004474901458
20
-0.971883508158214
30
0
41
1
10
30.995428810072
20
-0.96837411446117
30
0
41
1
10
30.9917074837542
20
-0.966642927674229
30
0
41
1
10
30.9838551019563
20
-0.963865861463177
30
0
41
1
10
30.9797513056035
20
-0.962845386068267
30
0
41
1
10
30.9755245667329
20
-0.962079688565552
30
0
0
SPLINE
5
D8
100
AcDbEntity
8
SK1
62
256
6
ByLayer
370
13
48
1
60
0
100
AcDbSpline
70
4
71
3
72
10
73
6
40
0
40
0
40
0
40
0
40
0.644330728127763
40
0.644330728127763
40
1
40
1
40
1
40
1
41
1
10
6.33986616218152
20
0.202015635227355
30
0
41
1
10
6.40461628452675
20
0.167605154638125
30
0
41
1
10
6.46909497622863
20
0.132847328602708
30
0
41
1
10
6.56887424385505
20
0.0786049718908259
30
0
41
1
10
6.60430516288082
20
0.0592535074131604
30
0
41
1
10
6.63970354465945
20
0.0398891663650431
30
0
0
SPLINE
5
D9
100
AcDbEntity
8
SK1
62
256
6
ByLayer
370
18
48
1
60
0
100
AcDbSpline
70
4
71
3
72
33
73
29
40
0
40
0
40
0
40
0
40
0.0309476474394089
40
0.0309476474394089
40
0.100027498470689
40
0.100027498470689
40
0.16910734950197
40
0.16910734950197
40
0.238187200533251
40
0.238187200533251
40
0.27272712604889
40
0.27272712604889
40
0.307267051564529
40
0.307267051564529
40
0.445426753627082
40
0.445426753627082
40
0.583586455689635
40
0.583586455689635
40
0.652666306720911
40
0.687206232236548
40
0.687206232236548
40
0.721746157752185
40
0.721746157752185
40
0.859905859814741
40
0.859905859814741
40
0.998065561877296
40
0.998065561877296
40
1
40
1
40
1
40
1
41
1
10
6.63970428025007
20
0.0398887639673262
30
0
41
1
10
6.66843338872889
20
0.0241727837770327
30
0
41
1
10
6.69714106553886
20
0.0084483221994276
30
0
41
1
10
6.78990250104775
20
-0.042323029160741
30
0
41
1
10
6.85393332094444
20
-0.0772879163313291
30
0
41
1
10
6.98205334282437
20
-0.146795415312141
30
0
41
1
10
7.04613543570903
20
-0.181350926456645
30
0
41
1
10
7.17456226519195
20
-0.249663199625246
30
0
41
1
10
7.23891673421011
20
-0.283402631295388
30
0
41
1
10
7.33575872455037
20
-0.333196632872159
30
0
41
1
10
7.36809011629288
20
-0.349660412242827
30
0
41
1
10
7.43287496902417
20
-0.382281127175702
30
0
41
1
10
7.46536100901281
20
-0.398453485569007
30
0
41
1
10
7.62725897763357
20
-0.478008335823574
30
0
41
1
10
7.75565141615084
20
-0.537815486702556
30
0
41
1
10
8.01193074713004
20
-0.647475380640572
30
0
41
1
10
8.13994875309282
20
-0.697166712306057
30
0
41
1
10
8.33245383696146
20
-0.762830309085672
30
0
41
1
10
8.42884348424573
20
-0.793443819180709
30
0
41
1
10
8.52564756762763
20
-0.82046781651394
30
0
41
1
10
8.59030104197163
20
-0.837654870497857
30
0
41
1
10
8.62273072734138
20
-0.845844962613626
30
0
41
1
10
8.78467003434903
20
-0.884511863672287
30
0
41
1
10
8.91322282078767
20
-0.908037451173584
30
0
41
1
10
9.16967655744074
20
-0.939767084857721
30
0
41
1
10
9.29764668760649
20
-0.948016505048486
30
0
41
1
10
9.42767345722879
20
-0.948382425451797
30
0
41
1
10
9.42946894334364
20
-0.948385944406027
30
0
41
1
10
9.43126449106492
20
-0.948387929376423
30
0
0
SPLINE
5
DA
100
AcDbEntity
8
SK1
62
256
6
ByLayer
370
18
48
1
60
0
100
AcDbSpline
70
4
71
3
72
52
73
48
40
0
40
0
40
0
40
0
40
0.0122582826484728
40
0.0122582826484728
40
0.0328259498080052
40
0.0328259498080052
40
0.0739612841270689
40
0.0739612841270689
40
0.156231952765194
40
0.156231952765194
40
0.23850262140332
40
0.23850262140332
40
0.259070288562851
40
0.259070288562851
40
0.279637955722383
40
0.279637955722383
40
0.320773290041449
40
0.320773290041449
40
0.403043958679578
40
0.403043958679578
40
0.485314627317707
40
0.485314627317707
40
0.505882294477242
40
0.505882294477242
40
0.526449961636777
40
0.526449961636777
40
0.567585295955842
40
0.567585295955842
40
0.649855964593971
40
0.649855964593971
40
0.732126633232101
40
0.732126633232101
40
0.752694300391631
40
0.752694300391631
40
0.773261967551162
40
0.773261967551162
40
0.814397301870223
40
0.814397301870223
40
0.834964969029754
40
0.834964969029754
40
0.855532636189285
40
0.855532636189285
40
0.896667970508346
40
0.896667970508346
40
0.978938639146464
40
0.978938639146464
40
1
40
1
40
1
40
1
41
1
10
15.633224258621
20
0.86425589119014
30
0
41
1
10
15.6524625346198
20
0.859763338519372
30
0
41
1
10
15.6717230559655
20
0.855105603126333
30
0
41
1
10
15.72336876275
20
0.842194458726851
30
0
41
1
10
15.7557107369837
20
0.833667470466878
30
0
41
1
10
15.852500790033
20
0.806871733373498
30
0
41
1
10
15.9168013016319
20
0.787362093227216
30
0
41
1
10
16.1092461335181
20
0.724190592048558
30
0
41
1
10
16.2369520306348
20
0.67588141978527
30
0
41
1
10
16.4926543835378
20
0.569100479552105
30
0
41
1
10
16.6206067763723
20
0.510488035190349
30
0
41
1
10
16.7816683331535
20
0.432065684777115
30
0
41
1
10
16.8139408696071
20
0.416137505669667
30
0
41
1
10
16.8786239670485
20
0.383791415823595
30
0
41
1
10
16.9110233494829
20
0.367376007483614
30
0
41
1
10
17.0078876265091
20
0.317732372361945
30
0
41
1
10
17.0722087002867
20
0.284015277813978
30
0
41
1
10
17.2646814117566
20
0.181511072490849
30
0
41
1
10
17.3923359710614
20
0.111361082695907
30
0
41
1
10
17.64788829345
20
-0.0297156438436446
30
0
41
1
10
17.7758770737166
20
-0.100473941601848
30
0
41
1
10
17.9368055229998
20
-0.187941089298846
30
0
41
1
10
17.9690408600136
20
-0.205380783617471
30
0
41
1
10
18.0336343245758
20
-0.240109046092073
30
0
41
1
10
18.0660272388687
20
-0.257416339232833
30
0
41
1
10
18.1629021055518
20
-0.308772315938597
30
0
41
1
10
18.2272164591603
20
-0.3423301956459
30
0
41
1
10
18.4196698315415
20
-0.440433320099743
30
0
41
1
10
18.5473622740313
20
-0.502385526442851
30
0
41
1
10
18.8029140437478
20
-0.61711430720726
30
0
41
1
10
18.9308116439597
20
-0.669897609414591
30
0
41
1
10
19.0916321273651
20
-0.728961984575363
30
0
41
1
10
19.1238447742986
20
-0.740428568378405
30
0
41
1
10
19.188392478207
20
-0.762633860977417
30
0
41
1
10
19.2207583691403
20
-0.773382229587213
30
0
41
1
10
19.3177775650048
20
-0.80438684071737
30
0
41
1
10
19.3823717853832
20
-0.823410254434691
30
0
41
1
10
19.4792888236086
20
-0.849293569699512
30
0
41
1
10
19.5116000528662
20
-0.857482277949345
30
0
41
1
10
19.5762637231121
20
-0.872966168303833
30
0
41
1
10
19.6086450443064
20
-0.880267689584429
30
0
41
1
10
19.7055531343762
20
-0.900729746489901
30
0
41
1
10
19.7699034742473
20
-0.912460071439511
30
0
41
1
10
19.9623838215882
20
-0.941767996969105
30
0
41
1
10
20.0899740094902
20
-0.953548087637699
30
0
41
1
10
20.2502722241488
20
-0.958668189961173
30
0
41
1
10
20.2829495455704
20
-0.959209941755404
30
0
41
1
10
20.3156487468189
20
-0.959250518224536
30
0
0
SPLINE
5
DB
100
AcDbEntity
8
SK1
62
256
6
ByLayer
370
18
48
1
60
0
100
AcDbSpline
70
4
71
3
72
28
73
24
40
0
40
0
40
0
40
0
40
0.0344685302569102
40
0.0344685302569102
40
0.0860681276309834
40
0.0860681276309834
40
0.137667725005058
40
0.137667725005058
40
0.240866919753206
40
0.240866919753206
40
0.344066114501353
40
0.344066114501353
40
0.550464503997639
40
0.550464503997639
40
0.653663698745782
40
0.653663698745782
40
0.705263296119849
40
0.705263296119849
40
0.756862893493918
40
0.756862893493918
40
0.963261282990187
40
0.963261282990187
40
1
40
1
40
1
40
1
41
1
10
26.4969731926773
20
0.878723353197046
30
0
41
1
10
26.5184543373638
20
0.87376391505623
30
0
41
1
10
26.5399582299364
20
0.868592505150247
30
0
41
1
10
26.5937189729162
20
0.855156206441109
30
0
41
1
10
26.6260423164482
20
0.846620628548322
30
0
41
1
10
26.6904765739359
20
0.828724886062787
30
0
41
1
10
26.7226239996243
20
0.819356275654087
30
0
41
1
10
26.8188959931544
20
0.790038547717046
30
0
41
1
10
26.8828799831155
20
0.768930209403663
30
0
41
1
10
27.0107054761137
20
0.723802476483229
30
0
41
1
10
27.0745244774691
20
0.699792590921788
30
0
41
1
10
27.2659538103536
20
0.62372458745611
30
0
41
1
10
27.393379886294
20
0.567366689809006
30
0
41
1
10
27.5852823737883
20
0.475881895359066
30
0
41
1
10
27.649403144478
20
0.444290508335939
30
0
41
1
10
27.7460424297289
20
0.395534854674622
30
0
41
1
10
27.7783658760757
20
0.379011023404615
30
0
41
1
10
27.8428808874157
20
0.345709326509763
30
0
41
1
10
27.8750861273277
20
0.32892933049888
30
0
41
1
10
28.0358318562922
20
0.2443452037474
30
0
41
1
10
28.1634999904293
20
0.174438223241225
30
0
41
1
10
28.3136411030621
20
0.0909852640747317
30
0
41
1
10
28.3363204587157
20
0.0783444675301155
30
0
41
1
10
28.3589990233384
20
0.0656849374397552
30
0
0
SPLINE
5
DC
100
AcDbEntity
8
SK1
62
256
6
ByLayer
370
13
48
1
60
0
100
AcDbSpline
70
4
71
3
72
32
73
28
40
0
40
0
40
0
40
0
40
0.0472003670378494
40
0.0472003670378494
40
0.120492646496471
40
0.120492646496471
40
0.193784925955093
40
0.193784925955093
40
0.230431065684404
40
0.230431065684404
40
0.267077205413715
40
0.267077205413715
40
0.413661764330971
40
0.413661764330971
40
0.486954043789599
40
0.486954043789599
40
0.560246323248227
40
0.560246323248227
40
0.633538602706855
40
0.633538602706855
40
0.706830882165483
40
0.706830882165483
40
0.78012316162411
40
0.78012316162411
40
0.853415441082738
40
0.853415441082738
40
1
40
1
40
1
40
1
41
1
10
28.3589990242791
20
0.0656849369146073
30
0
41
1
10
28.4000246329667
20
0.042783799372728
30
0
41
1
10
28.4410476530108
20
0.0198213564040941
30
0
41
1
10
28.5458640789925
20
-0.0387708828953635
30
0
41
1
10
28.6097186707559
20
-0.0743688692688238
30
0
41
1
10
28.7377272575504
20
-0.145293557641793
30
0
41
1
10
28.8018786694071
20
-0.180624967277367
30
0
41
1
10
28.8984602825287
20
-0.233182086147565
30
0
41
1
10
28.9307525840367
20
-0.250648719022678
30
0
41
1
10
28.9952888907831
20
-0.285292236946532
30
0
41
1
10
29.0274847254212
20
-0.3024436557439
30
0
41
1
10
29.188157812684
20
-0.387262652008303
30
0
41
1
10
29.3157218014347
20
-0.452114626469779
30
0
41
1
10
29.5068063634285
20
-0.543052730137617
30
0
41
1
10
29.5704546019478
20
-0.572314913123591
30
0
41
1
10
29.6979046902049
20
-0.628397773413326
30
0
41
1
10
29.7617126075185
20
-0.655208278722114
30
0
41
1
10
29.8896132678168
20
-0.706165845205817
30
0
41
1
10
29.9537007678596
20
-0.730320348064311
30
0
41
1
10
30.0823254901279
20
-0.775699142580407
30
0
41
1
10
30.1470114479494
20
-0.796959380948834
30
0
41
1
10
30.2754792380669
20
-0.835835480158295
30
0
41
1
10
30.3394041800504
20
-0.8535178916826
30
0
41
1
10
30.4669949584076
20
-0.885288748205483
30
0
41
1
10
30.5306870794636
20
-0.899371962067562
30
0
41
1
10
30.7215668506139
20
-0.935998406444838
30
0
41
1
10
30.8484233122108
20
-0.952951911956916
30
0
41
1
10
30.975524566728
20
-0.962079688566604
30
0
0
SPLINE
5
DD
100
AcDbEntity
8
SK1
62
256
6
ByLayer
370
18
48
1
60
0
100
AcDbSpline
70
4
71
3
72
104
73
100
40
0
40
0
40
0
40
0
40
0.0048062053105941
40
0.0048062053105941
40
0.0315070497211085
40
0.0315070497211085
40
0.0448574719263668
40
0.0448574719263668
40
0.0582078941316251
40
0.0582078941316251
40
0.0849087385421417
40
0.0849087385421417
40
0.111609582952658
40
0.111609582952658
40
0.138310427363175
40
0.138310427363175
40
0.165011271773691
40
0.165011271773691
40
0.191712116184208
40
0.191712116184208
40
0.205062538389465
40
0.205062538389465
40
0.218412960594723
40
0.218412960594723
40
0.23176338279998
40
0.23176338279998
40
0.245113805005237
40
0.245113805005237
40
0.271814649415749
40
0.271814649415749
40
0.285165071621005
40
0.285165071621005
40
0.298515493826261
40
0.298515493826261
40
0.325216338236773
40
0.325216338236773
40
0.351917182647285
40
0.351917182647285
40
0.378618027057797
40
0.378618027057797
40
0.405318871468309
40
0.405318871468309
40
0.432019715878821
40
0.432019715878821
40
0.458720560289333
40
0.458720560289333
40
0.472070982494589
40
0.472070982494589
40
0.485421404699846
40
0.485421404699846
40
0.51212224911036
40
0.51212224911036
40
0.538823093520874
40
0.538823093520874
40
0.55217351572613
40
0.55217351572613
40
0.565523937931386
40
0.565523937931386
40
0.592224782341898
40
0.592224782341898
40
0.61892562675241
40
0.61892562675241
40
0.645626471162922
40
0.645626471162922
40
0.672327315573434
40
0.672327315573434
40
0.699028159983947
40
0.699028159983947
40
0.712378582189202
40
0.712378582189202
40
0.725729004394459
40
0.725729004394459
40
0.752429848804968
40
0.752429848804968
40
0.779130693215478
40
0.779130693215478
40
0.805831537625988
40
0.805831537625988
40
0.819181959831243
40
0.819181959831243
40
0.832532382036498
40
0.832532382036498
40
0.859233226447005
40
0.859233226447005
40
0.885934070857513
40
0.885934070857513
40
0.899284493062766
40
0.899284493062766
40
0.91263491526802
40
0.91263491526802
40
0.939335759678528
40
0.939335759678528
40
0.952686181883781
40
0.952686181883781
40
0.966036604089035
40
0.966036604089035
40
0.992737448499545
40
0.992737448499545
40
1
40
1
40
1
40
1
41
1
10
29.2287559287859
20
-0.645655440344456
30
0
41
1
10
29.2176711047299
20
-0.65026455084967
30
0
41
1
10
29.2065851969075
20
-0.654835177916283
30
0
41
1
10
29.1339015703446
20
-0.68454098381406
30
0
41
1
10
29.0722568791829
20
-0.708506218872685
30
0
41
1
10
28.979623636369
20
-0.742487401412006
30
0
41
1
10
28.9487159784997
20
-0.753485749127293
30
0
41
1
10
28.8870821590494
20
-0.774692988275262
30
0
41
1
10
28.8563240962202
20
-0.784913676957586
30
0
41
1
10
28.7642007492732
20
-0.814378908071689
30
0
41
1
10
28.7029882483213
20
-0.832427011245215
30
0
41
1
10
28.5808332378954
20
-0.865099471622415
30
0
41
1
10
28.5198831560267
20
-0.879726188630258
30
0
41
1
10
28.3980294051208
20
-0.905425481841831
30
0
41
1
10
28.3371222745811
20
-0.916521075898032
30
0
41
1
10
28.2151090401587
20
-0.9357820065471
30
0
41
1
10
28.1540106864207
20
-0.943938413389759
30
0
41
1
10
28.0315550354626
20
-0.956846008327602
30
0
41
1
10
27.9702010937212
20
-0.961596293182168
30
0
41
1
10
27.8778707112565
20
-0.965817425646492
30
0
41
1
10
27.8470231324259
20
-0.966745929437451
30
0
41
1
10
27.785280240889
20
-0.967496365212867
30
0
41
1
10
27.754462887462
20
-0.967302412951796
30
0
41
1
10
27.6928867398352
20
-0.965877762672989
30
0
41
1
10
27.6621286856251
20
-0.964640846063162
30
0
41
1
10
27.6006084571666
20
-0.961356160463339
30
0
41
1
10
27.5698438009743
20
-0.959328005994394
30
0
41
1
10
27.4775107676404
20
-0.952115623862227
30
0
41
1
10
27.4159048826452
20
-0.945795098627229
30
0
41
1
10
27.323391156135
20
-0.933740282755565
30
0
41
1
10
27.2925358071933
20
-0.929292172410584
30
0
41
1
10
27.2307751686573
20
-0.919488416694264
30
0
41
1
10
27.199876212402
20
-0.914132318025764
30
0
41
1
10
27.1074836571519
20
-0.896732539915547
30
0
41
1
10
27.0461628300902
20
-0.883336969006479
30
0
41
1
10
26.9240386278458
20
-0.852410734697116
30
0
41
1
10
26.8631833243014
20
-0.835048467977373
30
0
41
1
10
26.7413707502441
20
-0.798307741943233
30
0
41
1
10
26.6804568775957
20
-0.77879079778802
30
0
41
1
10
26.5586109058903
20
-0.737152640033457
30
0
41
1
10
26.4976799973548
20
-0.715023301995984
30
0
41
1
10
26.3756847983534
20
-0.667951381387667
30
0
41
1
10
26.3146182367359
20
-0.642995012007134
30
0
41
1
10
26.1921789495099
20
-0.590323757667875
30
0
41
1
10
26.1308039302315
20
-0.56256307207056
30
0
41
1
10
26.0383340313072
20
-0.519312765804585
30
0
41
1
10
26.0074470855458
20
-0.504632240261003
30
0
41
1
10
25.9457904944604
20
-0.474849605046842
30
0
41
1
10
25.914988500732
20
-0.45973379184656
30
0
41
1
10
25.8226238785349
20
-0.413788744553614
30
0
41
1
10
25.7610974461265
20
-0.382366838121129
30
0
41
1
10
25.6379507622021
20
-0.318351842049509
30
0
41
1
10
25.5763295714815
20
-0.28577904429298
30
0
41
1
10
25.4837426278191
20
-0.236206484010239
30
0
41
1
10
25.4528218056997
20
-0.219542086961042
30
0
41
1
10
25.391109209669
20
-0.186082865203787
30
0
41
1
10
25.3603163957714
20
-0.169286771340268
30
0
41
1
10
25.2681146444597
20
-0.118730883839504
30
0
41
1
10
25.2068806709708
20
-0.0848031794201631
30
0
41
1
10
25.084790229099
20
-0.0167219935444223
30
0
41
1
10
25.0239542414547
20
0.0174472134481789
30
0
41
1
10
24.9022062408357
20
0.0853106746114349
30
0
41
1
10
24.8412975907247
20
0.119025229425148
30
0
41
1
10
24.7194015895334
20
0.185931332303198
30
0
41
1
10
24.6584067235211
20
0.219112043690274
30
0
41
1
10
24.5362122192059
20
0.284702257510304
30
0
41
1
10
24.4750211896501
20
0.317124866277936
30
0
41
1
10
24.3829435385958
20
0.364889454612069
30
0
41
1
10
24.3522019436579
20
0.380664382676002
30
0
41
1
10
24.290591997556
20
0.41186899145552
30
0
41
1
10
24.2596970026252
20
0.427312121797939
30
0
41
1
10
24.1672658800044
20
0.472873306832213
30
0
41
1
10
24.1058046587801
20
0.502321537843898
30
0
41
1
10
23.9830785085512
20
0.559240742442256
30
0
41
1
10
23.9218323230306
20
0.586698279020283
30
0
41
1
10
23.7995478574094
20
0.639281197733425
30
0
41
1
10
23.7385032915357
20
0.664395099353527
30
0
41
1
10
23.6469731728857
20
0.699958393220669
30
0
41
1
10
23.6164691735398
20
0.7114621077761
30
0
41
1
10
23.5554517226071
20
0.733727344621002
30
0
41
1
10
23.524938954761
20
0.74448224207913
30
0
41
1
10
23.4333142945125
20
0.775728649236328
30
0
41
1
10
23.3721060500466
20
0.795263854206695
30
0
41
1
10
23.2493274342843
20
0.831684019773746
30
0
41
1
10
23.1877738920407
20
0.848486483553387
30
0
41
1
10
23.0950874637548
20
0.871333274293249
30
0
41
1
10
23.06414225271
20
0.878554871393476
30
0
41
1
10
23.0023804248454
20
0.892097147919969
30
0
41
1
10
22.9715321732917
20
0.898424076509656
30
0
41
1
10
22.8790708779255
20
0.915973324853724
30
0
41
1
10
22.8175567170239
20
0.925696318878124
30
0
41
1
10
22.7252617170161
20
0.937376281934604
30
0
41
1
10
22.6944840662429
20
0.940834211570746
30
0
41
1
10
22.6328692626982
20
0.947017123904715
30
0
41
1
10
22.6020360771344
20
0.949723110961799
30
0
41
1
10
22.509453320772
20
0.956631260885416
30
0
41
1
10
22.4475412948083
20
0.959625972280151
30
0
41
1
10
22.3691895922906
20
0.961154120516909
30
0
41
1
10
22.3524506020336
20
0.961350417263418
30
0
41
1
10
22.3357265474222
20
0.961411629305644
30
0
0
SPLINE
5
DE
100
AcDbEntity
8
SK1
62
256
6
ByLayer
370
18
48
1
60
0
100
AcDbSpline
70
4
71
3
72
100
73
96
40
0
40
0
40
0
40
0
40
0.004382387979026
40
0.004382387979026
40
0.0311046377864365
40
0.0311046377864365
40
0.0578268875938469
40
0.0578268875938469
40
0.084549137401257
40
0.084549137401257
40
0.111271387208667
40
0.111271387208667
40
0.124632512112372
40
0.124632512112372
40
0.137993637016076
40
0.137993637016076
40
0.164715886823486
40
0.164715886823486
40
0.191438136630897
40
0.191438136630897
40
0.218160386438307
40
0.218160386438307
40
0.231521511342013
40
0.231521511342013
40
0.24488263624572
40
0.24488263624572
40
0.271604886053132
40
0.271604886053132
40
0.298327135860545
40
0.298327135860545
40
0.325049385667958
40
0.325049385667958
40
0.338410510571664
40
0.338410510571664
40
0.351771635475371
40
0.351771635475371
40
0.378493885282783
40
0.378493885282783
40
0.405216135090196
40
0.405216135090196
40
0.431938384897609
40
0.431938384897609
40
0.458660634705021
40
0.458660634705021
40
0.485382884512434
40
0.485382884512434
40
0.498744009416141
40
0.498744009416141
40
0.512105134319849
40
0.512105134319849
40
0.525466259223557
40
0.525466259223557
40
0.538827384127264
40
0.538827384127264
40
0.565549633934682
40
0.565549633934682
40
0.592271883742099
40
0.592271883742099
40
0.618994133549517
40
0.618994133549517
40
0.645716383356934
40
0.645716383356934
40
0.672438633164352
40
0.672438633164352
40
0.685799758068062
40
0.685799758068062
40
0.699160882971772
40
0.699160882971772
40
0.725883132779194
40
0.725883132779194
40
0.752605382586616
40
0.752605382586616
40
0.779327632394038
40
0.779327632394038
40
0.80604988220146
40
0.80604988220146
40
0.832772132008882
40
0.832772132008882
40
0.859494381816304
40
0.859494381816304
40
0.886216631623727
40
0.886216631623727
40
0.912938881431149
40
0.912938881431149
40
0.92630000633486
40
0.92630000633486
40
0.939661131238571
40
0.939661131238571
40
0.953022256142282
40
0.953022256142282
40
0.966383381045993
40
0.966383381045993
40
0.993105630853414
40
0.993105630853414
40
1
40
1
40
1
40
1
41
1
10
18.3620450797898
20
-0.635031597633258
30
0
41
1
10
18.3519265447576
20
-0.639206889453931
30
0
41
1
10
18.3418096706274
20
-0.643347746902975
30
0
41
1
10
18.2700399069163
20
-0.672472372016756
30
0
41
1
10
18.208518300015
20
-0.696095899060481
30
0
41
1
10
18.0854453975028
20
-0.740766823104707
30
0
41
1
10
18.0239075328276
20
-0.761823613500894
30
0
41
1
10
17.9006838591675
20
-0.801296078193872
30
0
41
1
10
17.83901087979
20
-0.819669365806391
30
0
41
1
10
17.7154623750731
20
-0.853189749380959
30
0
41
1
10
17.653963241748
20
-0.86825328520527
30
0
41
1
10
17.5621069970074
20
-0.887963256843392
30
0
41
1
10
17.5315605663919
20
-0.894016440729217
30
0
41
1
10
17.4705805200771
20
-0.90506539079729
30
0
41
1
10
17.4401331455524
20
-0.910108664824463
30
0
41
1
10
17.3487931848678
20
-0.924188524400364
30
0
41
1
10
17.2879278147464
20
-0.932078656781954
30
0
41
1
10
17.1661570387532
20
-0.944851681563449
30
0
41
1
10
17.1052632592011
20
-0.949719228398038
30
0
41
1
10
16.9834224946459
20
-0.9558916650968
30
0
41
1
10
16.9224708168433
20
-0.957193299992497
30
0
41
1
10
16.8308826323837
20
-0.956001085802342
30
0
41
1
10
16.8003267746634
20
-0.955077796994715
30
0
41
1
10
16.739132971278
20
-0.952173877023995
30
0
41
1
10
16.7084943971812
20
-0.950178013101294
30
0
41
1
10
16.6163950087555
20
-0.94292592632749
30
0
41
1
10
16.5546439141047
20
-0.936484367844741
30
0
41
1
10
16.4313084928718
20
-0.920587821715912
30
0
41
1
10
16.3696863355117
20
-0.91114520282369
30
0
41
1
10
16.2464875808005
20
-0.888950400301439
30
0
41
1
10
16.1849033025642
20
-0.876212282987581
30
0
41
1
10
16.0924807788446
20
-0.854285228792264
30
0
41
1
10
16.0616661286319
20
-0.846495115121854
30
0
41
1
10
15.9999922689312
20
-0.829987484691543
30
0
41
1
10
15.9691106453549
20
-0.821274965799887
30
0
41
1
10
15.8765765081826
20
-0.794022763098411
30
0
41
1
10
15.8149699276634
20
-0.774440881857913
30
0
41
1
10
15.6918429867179
20
-0.732336399704678
30
0
41
1
10
15.6303432122831
20
-0.709683943024544
30
0
41
1
10
15.507184904116
20
-0.661917791969699
30
0
41
1
10
15.4455026941514
20
-0.636921849424994
30
0
41
1
10
15.3219036062678
20
-0.584868180752949
30
0
41
1
10
15.2602019391061
20
-0.557846783171613
30
0
41
1
10
15.1368907134321
20
-0.501822262223612
30
0
41
1
10
15.0752838607542
20
-0.472835069213005
30
0
41
1
10
14.9828768469834
20
-0.427780493294279
30
0
41
1
10
14.9520757750572
20
-0.4124943010209
30
0
41
1
10
14.8904529010688
20
-0.381369474001986
30
0
41
1
10
14.8596302801025
20
-0.365528804605248
30
0
41
1
10
14.7979098231322
20
-0.333481743142528
30
0
41
1
10
14.7670865704515
20
-0.31731455956637
30
0
41
1
10
14.705518766292
20
-0.284859520697694
30
0
41
1
10
14.6747614046363
20
-0.268568506908309
30
0
41
1
10
14.5825679058945
20
-0.219505558069358
30
0
41
1
10
14.5212087548056
20
-0.18654631145958
30
0
41
1
10
14.3986486266667
20
-0.120205143210995
30
0
41
1
10
14.3374481341882
20
-0.0868228154607493
30
0
41
1
10
14.2151269494622
20
-0.0197686279153402
30
0
41
1
10
14.1540100130977
20
0.0139126742050166
30
0
41
1
10
14.0316883311419
20
0.0812711831769377
30
0
41
1
10
13.9704704285613
20
0.114919116581092
30
0
41
1
10
13.847706284347
20
0.181737700531272
30
0
41
1
10
13.7861708366397
20
0.214932780503489
30
0
41
1
10
13.6935143244804
20
0.264188152585945
30
0
41
1
10
13.6625485870488
20
0.280523159831802
30
0
41
1
10
13.6007058482001
20
0.312843936362498
30
0
41
1
10
13.5698003658458
20
0.32884415657702
30
0
41
1
10
13.4770839088697
20
0.376333940885445
30
0
41
1
10
13.4152837240123
20
0.407311079396948
30
0
41
1
10
13.2916729145385
20
0.467695721530617
30
0
41
1
10
13.2298646669025
20
0.497105532873888
30
0
41
1
10
13.1060916172501
20
0.553979710644086
30
0
41
1
10
13.044013063499
20
0.581492246784023
30
0
41
1
10
12.9206370882455
20
0.633674528504457
30
0
41
1
10
12.8592244084589
20
0.658388084514172
30
0
41
1
10
12.7365501945143
20
0.705243195403227
30
0
41
1
10
12.6753015306262
20
0.727412909882304
30
0
41
1
10
12.5529850519188
20
0.768700352485581
30
0
41
1
10
12.491908420392
20
0.787755858129032
30
0
41
1
10
12.3695926453499
20
0.823187823823048
30
0
41
1
10
12.3083559973038
20
0.839640505261684
30
0
41
1
10
12.1857037159145
20
0.869567569287881
30
0
41
1
10
12.1242816919143
20
0.883009730406229
30
0
41
1
10
12.0319004130655
20
0.900574527462567
30
0
41
1
10
12.0010657415321
20
0.905999385275294
30
0
41
1
10
11.9392930253574
20
0.915922601977087
30
0
41
1
10
11.9083219861695
20
0.920422087993984
30
0
41
1
10
11.8464018395474
20
0.928368321067438
30
0
41
1
10
11.8154949589054
20
0.931797321819261
30
0
41
1
10
11.7537471789055
20
0.937578923426486
30
0
41
1
10
11.7228935327526
20
0.939980170751852
30
0
41
1
10
11.6302646662838
20
0.946268585935741
30
0
41
1
10
11.5684884400925
20
0.948987949719026
30
0
41
1
10
11.4907366665628
20
0.950097067604759
30
0
41
1
10
11.474787605
20
0.950205694965945
30
0
41
1
10
11.458834328048
20
0.950194692164757
30
0
0
SPLINE
5
DF
100
AcDbEntity
8
SK1
62
256
6
ByLayer
370
18
48
1
60
0
100
AcDbSpline
70
4
71
3
72
20
73
16
40
0
40
0
40
0
40
0
40
0.0234378858161267
40
0.0234378858161267
40
0.186198238180106
40
0.186198238180106
40
0.348958590544084
40
0.348958590544084
40
0.511718942908063
40
0.511718942908063
40
0.674479295272043
40
0.674479295272043
40
0.83723964763602
40
0.83723964763602
40
1
40
1
40
1
40
1
41
1
10
7.47070554436462
20
-0.634557373378129
30
0
41
1
10
7.46186928274062
20
-0.63814678242187
30
0
41
1
10
7.45303673507337
20
-0.641709389275547
30
0
41
1
10
7.38289630443117
20
-0.669794920093892
30
0
41
1
10
7.32176003373874
20
-0.692997755515023
30
0
41
1
10
7.19962787905302
20
-0.736550207328207
30
0
41
1
10
7.1386205669979
20
-0.756956626761053
30
0
41
1
10
7.01652362489139
20
-0.795018389338907
30
0
41
1
10
6.95544336861644
20
-0.812630827904883
30
0
41
1
10
6.83311139712367
20
-0.844743916652675
30
0
41
1
10
6.77185450533199
20
-0.859269202986411
30
0
41
1
10
6.64897815415279
20
-0.885228802154813
30
0
41
1
10
6.587363437612
20
-0.89664913618077
30
0
41
1
10
6.46364570509141
20
-0.915976937092381
30
0
41
1
10
6.40179780198866
20
-0.923834042024339
30
0
41
1
10
6.33999068820083
20
-0.929859852381952
30
0
0
SPLINE
5
E0
100
AcDbEntity
8
SK1
62
256
6
ByLayer
370
18
48
1
60
0
100
AcDbSpline
70
4
71
3
72
10
73
6
40
0
40
0
40
0
40
0
40
0.5
40
0.5
40
1
40
1
40
1
40
1
41
1
10
31.0897620591859
20
-0.980452626969679
30
0
41
1
10
31.1401710661395
20
-0.905488293119845
30
0
41
1
10
31.1908266857395
20
-0.829447924538783
30
0
41
1
10
31.2926543838315
20
-0.675113743712643
30
0
41
1
10
31.343843928114
20
-0.596792584058761
30
0
41
1
10
31.3951317040112
20
-0.517567703145602
30
0
0
SPLINE
5
E1
100
AcDbEntity
8
SK1
62
256
6
ByLayer
370
13
48
1
60
0
100
AcDbSpline
70
4
71
3
72
14
73
10
40
0
40
0
40
0
40
0
40
0.25
40
0.25
40
0.5
40
0.5
40
0.75
40
0.75
40
1
40
1
40
1
40
1
41
1
10
3.93279530786447
20
0.953079858466964
30
0
41
1
10
3.98198429459063
20
0.82021839407173
30
0
41
1
10
4.03061547155792
20
0.687177925800256
30
0
41
1
10
4.12675232226459
20
0.421051732837611
30
0
41
1
10
4.17425579261862
20
0.287978386717668
30
0
41
1
10
4.26893602662668
20
0.0223405409047075
30
0
41
1
10
4.31615676921379
20
-0.110211353063704
30
0
41
1
10
4.41128711529151
20
-0.374565814019832
30
0
41
1
10
4.45920213885225
20
-0.50637731961578
30
0
41
1
10
4.50756995619767
20
-0.63791879855296
30
0
0
SPLINE
5
E2
100
AcDbEntity
8
SK1
62
256
6
ByLayer
370
18
48
1
60
0
100
AcDbSpline
70
4
71
3
72
14
73
10
40
0
40
0
40
0
40
0
40
0.5
40
0.5
40
0.625
40
0.625
40
0.75
40
0.75
40
1
40
1
40
1
40
1
41
1
10
6.33999068820083
20
-0.929859852381952
30
0
41
1
10
6.31827089746986
20
-0.931977397304081
30
0
41
1
10
6.29647031314892
20
-0.936428919549854
30
0
41
1
10
6.2693142779587
20
-0.945435177998746
30
0
41
1
10
6.26388807818407
20
-0.947410773346235
30
0
41
1
10
6.25305190494402
20
-0.951734264973567
30
0
41
1
10
6.2476353926067
20
-0.95408699068085
30
0
41
1
10
6.23167304284323
20
-0.961618276590826
30
0
41
1
10
6.22133041315931
20
-0.967298571624383
30
0
41
1
10
6.21131405518429
20
-0.973668427415419
30
0
0
SPLINE
5
E3
100
AcDbEntity
8
SK1
62
256
6
ByLayer
370
18
48
1
60
0
100
AcDbSpline
70
4
71
3
72
56
73
52
40
0
40
0
40
0
40
0
40
0.0091340066578662
40
0.0091340066578662
40
0.0799404861418596
40
0.0799404861418596
40
0.115343725883858
40
0.115343725883858
40
0.150746965625856
40
0.150746965625856
40
0.221553445109849
40
0.221553445109849
40
0.292359924593843
40
0.292359924593843
40
0.327763164335839
40
0.327763164335839
40
0.345464784206838
40
0.345464784206838
40
0.363166404077836
40
0.363166404077836
40
0.398569643819833
40
0.398569643819833
40
0.43397288356183
40
0.43397288356183
40
0.469376123303826
40
0.469376123303826
40
0.504779363045823
40
0.504779363045823
40
0.540182602787819
40
0.540182602787819
40
0.557884222658818
40
0.557884222658818
40
0.575585842529817
40
0.575585842529817
40
0.64639232201381
40
0.64639232201381
40
0.681795561755805
40
0.681795561755805
40
0.717198801497801
40
0.717198801497801
40
0.788005280981788
40
0.788005280981788
40
0.823408520723782
40
0.823408520723782
40
0.858811760465776
40
0.858811760465776
40
0.929618239949764
40
0.929618239949764
40
0.965021479691758
40
0.965021479691758
40
1
40
1
40
1
40
1
41
1
10
25.663106112321
20
-0.995528470837968
30
0
41
1
10
25.6466196770602
20
-0.995510084983749
30
0
41
1
10
25.6301367147321
20
-0.995355813430706
30
0
41
1
10
25.4858878683725
20
-0.992818397186255
30
0
41
1
10
25.3581692093356
20
-0.982435694919161
30
0
41
1
10
25.1655768356885
20
-0.954981904957776
30
0
41
1
10
25.1012349593107
20
-0.943842369075696
30
0
41
1
10
24.9721700887625
20
-0.917520713539972
30
0
41
1
10
24.9072295796992
20
-0.902319521673718
30
0
41
1
10
24.7136358269825
20
-0.851388049396235
30
0
41
1
10
24.58554060656
20
-0.81035267553824
30
0
41
1
10
24.3296785265652
20
-0.716158115621113
30
0
41
1
10
24.2019819258705
20
-0.662935740813111
30
0
41
1
10
24.0098811078137
20
-0.574903486433982
30
0
41
1
10
23.9456814751422
20
-0.544293387978001
30
0
41
1
10
23.848980719409
20
-0.496689932967456
30
0
41
1
10
23.8166805336499
20
-0.48054033303265
30
0
41
1
10
23.7519218874408
20
-0.4477124789492
30
0
41
1
10
23.7194588726458
20
-0.431031097401927
30
0
41
1
10
23.622396331029
20
-0.380565025273228
30
0
41
1
10
23.5579488834689
20
-0.34621365653328
30
0
41
1
10
23.429512252754
20
-0.276211212475488
30
0
41
1
10
23.3654637585792
20
-0.240661880050197
30
0
41
1
10
23.2375561343658
20
-0.168731544023274
30
0
41
1
10
23.1736796325152
20
-0.13238046600091
30
0
41
1
10
23.0458297798712
20
-0.0593512591024705
30
0
41
1
10
22.9818515571755
20
-0.0226822031390554
30
0
41
1
10
22.8536485871751
20
0.0507162591296719
30
0
41
1
10
22.7894378220883
20
0.0874707292606445
30
0
41
1
10
22.6928517033037
20
0.142502359417818
30
0
41
1
10
22.6606007736818
20
0.160810407017721
30
0
41
1
10
22.5959575487444
20
0.197300898777257
30
0
41
1
10
22.5635158658075
20
0.215513091575303
30
0
41
1
10
22.4016702218881
20
0.305724994226296
30
0
41
1
10
22.2732768375372
20
0.375187497154343
30
0
41
1
10
22.0811663970925
20
0.473630526272842
30
0
41
1
10
22.0172171460482
20
0.505500190375585
30
0
41
1
10
21.8894185077322
20
0.56722287589696
30
0
41
1
10
21.8255483647868
20
0.597040931586179
30
0
41
1
10
21.6335755032226
20
0.682687520828381
30
0
41
1
10
21.5050488272973
20
0.734676545880603
30
0
41
1
10
21.3103993798422
20
0.803304229608074
30
0
41
1
10
21.2457862848278
20
0.824405831376851
30
0
41
1
10
21.1170254729795
20
0.863072640972291
30
0
41
1
10
21.0528975330135
20
0.880649546796803
30
0
41
1
10
20.8608406942255
20
0.927769536528075
30
0
41
1
10
20.7331777168889
20
0.951658235257923
30
0
41
1
10
20.5409950746254
20
0.975605455394941
30
0
41
1
10
20.4768103191669
20
0.981609328164097
30
0
41
1
10
20.3488894505402
20
0.989545809103475
30
0
41
1
10
20.2851783080055
20
0.991524852422486
30
0
41
1
10
20.2211999178766
20
0.991465616807176
30
0
0
SPLINE
5
E4
100
AcDbEntity
8
SK1
62
256
6
ByLayer
370
18
48
1
60
0
100
AcDbSpline
70
4
71
3
72
60
73
56
40
0
40
0
40
0
40
0
40
0.0640124727483802
40
0.0640124727483802
40
0.0994961169528849
40
0.0994961169528849
40
0.134979761157389
40
0.134979761157389
40
0.205947049566398
40
0.205947049566398
40
0.276914337975407
40
0.276914337975407
40
0.31239798217991
40
0.31239798217991
40
0.330139804282161
40
0.330139804282161
40
0.347881626384412
40
0.347881626384412
40
0.41884891479342
40
0.41884891479342
40
0.489816203202428
40
0.489816203202428
40
0.525299847406932
40
0.525299847406932
40
0.543041669509183
40
0.543041669509183
40
0.560783491611435
40
0.560783491611435
40
0.596267135815939
40
0.596267135815939
40
0.631750780020443
40
0.631750780020443
40
0.702718068429452
40
0.702718068429452
40
0.738201712633956
40
0.738201712633956
40
0.75594353473621
40
0.75594353473621
40
0.773685356838462
40
0.773685356838462
40
0.809169001042967
40
0.809169001042967
40
0.844652645247471
40
0.844652645247471
40
0.880136289451975
40
0.880136289451975
40
0.915619933656479
40
0.915619933656479
40
0.951103577860984
40
0.951103577860984
40
0.968845399963236
40
0.968845399963236
40
0.986587222065489
40
0.986587222065489
40
1
40
1
40
1
40
1
41
1
10
14.7803575354218
20
-0.987402888344377
30
0
41
1
10
14.664906661939
20
-0.987350975283107
30
0
41
1
10
14.5493148464672
20
-0.980687935417478
30
0
41
1
10
14.36852700416
20
-0.960113327273234
30
0
41
1
10
14.3038130569283
20
-0.950754596944194
30
0
41
1
10
14.173865892326
20
-0.927997382486552
30
0
41
1
10
14.1092092352461
20
-0.914689115346192
30
0
41
1
10
13.9158931847063
20
-0.869263947314437
30
0
41
1
10
13.7878175284756
20
-0.831705975905408
30
0
41
1
10
13.5318529214154
20
-0.743523096863271
30
0
41
1
10
13.4038348590183
20
-0.693029571277776
30
0
41
1
10
13.21058659184
20
-0.6090705896614
30
0
41
1
10
13.1459654433832
20
-0.579718424797932
30
0
41
1
10
13.0486118284747
20
-0.533763033214626
30
0
41
1
10
13.0160924714115
20
-0.518120697842733
30
0
41
1
10
12.9513017868986
20
-0.48640073430613
30
0
41
1
10
12.9189799388274
20
-0.470300316666169
30
0
41
1
10
12.7576575851293
20
-0.388732514290808
30
0
41
1
10
12.6294859628945
20
-0.32011910774014
30
0
41
1
10
12.3732718724493
20
-0.179037920667184
30
0
41
1
10
12.2452348907877
20
-0.106563188483989
30
0
41
1
10
12.0521932408599
20
0.0031388477422922
30
0
41
1
10
11.9876761598231
20
0.0398614738403751
30
0
41
1
10
11.8904884777715
20
0.0949003016083907
30
0
41
1
10
11.8579746231106
20
0.113267289480859
30
0
41
1
10
11.7930619082218
20
0.149787692384791
30
0
41
1
10
11.760673143417
20
0.167930845290158
30
0
41
1
10
11.6637186161134
20
0.222032869901
30
0
41
1
10
11.5993762836678
20
0.257682163261165
30
0
41
1
10
11.4709294512467
20
0.327540569142371
30
0
41
1
10
11.4068480241527
20
0.361792104591672
30
0
41
1
10
11.2147341680392
20
0.462035043973515
30
0
41
1
10
11.0867599873038
20
0.525393820315657
30
0
41
1
10
10.8937608422763
20
0.61338756724092
30
0
41
1
10
10.8292471589404
20
0.641535572703418
30
0
41
1
10
10.7321289638437
20
0.681852351713786
30
0
41
1
10
10.6997119204491
20
0.694991988460032
30
0
41
1
10
10.6347502110963
20
0.720609951075147
30
0
41
1
10
10.6022962081324
20
0.733034190940856
30
0
41
1
10
10.5052109118124
20
0.769054681559368
30
0
41
1
10
10.4408156483539
20
0.791489936583787
30
0
41
1
10
10.3122391122442
20
0.832765578030092
30
0
41
1
10
10.2480767635178
20
0.85163359895293
30
0
41
1
10
10.1198159259763
20
0.885724534734351
30
0
41
1
10
10.0557053361142
20
0.900939495907693
30
0
41
1
10
9.92741644105334
20
0.927653857213386
30
0
41
1
10
9.86330223913268
20
0.939189569193871
30
0
41
1
10
9.73481760383868
20
0.95837235568149
30
0
41
1
10
9.67052092989752
20
0.966051712825788
30
0
41
1
10
9.57368005685083
20
0.974516690643071
30
0
41
1
10
9.5413372800233
20
0.976832109910475
30
0
41
1
10
9.47650142461941
20
0.980436093811591
30
0
41
1
10
9.44397601677619
20
0.981724040195388
30
0
41
1
10
9.38704553651147
20
0.98306841136224
30
0
41
1
10
9.36256926266273
20
0.98335169278792
30
0
41
1
10
9.33812303743164
20
0.98334186724918
30
0
0
SPLINE
5
E5
100
AcDbEntity
8
SK1
62
256
6
ByLayer
370
18
48
1
60
0
100
AcDbSpline
70
4
71
3
72
16
73
12
40
0
40
0
40
0
40
0
40
0.499999999999991
40
0.499999999999991
40
0.62499999999999
40
0.62499999999999
40
0.687499999999991
40
0.687499999999991
40
0.749999999999993
40
0.749999999999993
40
1
40
1
40
1
40
1
41
1
10
4.50756995619767
20
-0.637918798552988
30
0
41
1
10
4.79403385936516
20
-0.761115765896051
30
0
41
1
10
5.07487176579977
20
-0.855620317168359
30
0
41
1
10
5.42915852498317
20
-0.928470318997569
30
0
41
1
10
5.5001672000904
20
-0.940784664352293
30
0
41
1
10
5.60712610044436
20
-0.955685063559343
30
0
41
1
10
5.64285371274062
20
-0.960056880883656
30
0
41
1
10
5.71448633416225
20
-0.967583688711329
30
0
41
1
10
5.75024639827777
20
-0.970722779176441
30
0
41
1
10
5.92857116971169
20
-0.983285816206688
30
0
41
1
10
6.07003314489987
20
-0.98333718659714
30
0
41
1
10
6.21131405519034
20
-0.97366842742619
30
0
0
SPLINE
5
E6
100
AcDbEntity
8
SK1
62
256
6
ByLayer
370
18
48
1
60
0
100
AcDbSpline
70
4
71
3
72
10
73
6
40
0
40
0
40
0
40
0
40
0.5
40
0.5
40
1
40
1
40
1
40
1
41
1
10
4.50756995619767
20
-0.63791879855296
30
0
41
1
10
4.50283829292192
20
-0.635883894470425
30
0
41
1
10
4.49852058464944
20
-0.633455453523879
30
0
41
1
10
4.49059927334241
20
-0.627900423699543
30
0
41
1
10
4.48698602558051
20
-0.624751155570095
30
0
41
1
10
4.48383075409913
20
-0.62133307159894
30
0
0
SPLINE
5
E7
100
AcDbEntity
8
SK1
62
256
6
ByLayer
370
18
48
1
60
0
100
AcDbSpline
70
4
71
3
72
20
73
16
40
0
40
0
40
0
40
0
40
0.125000000000015
40
0.125000000000015
40
0.250000000000031
40
0.250000000000031
40
0.375000000000046
40
0.375000000000046
40
0.500000000000061
40
0.500000000000061
40
0.625000000000077
40
0.625000000000077
40
0.750000000000092
40
0.750000000000092
40
1
40
1
40
1
40
1
41
1
10
3.86376911430827
20
0.947768966227358
30
0
41
1
10
3.86480889460034
20
0.948616428013139
30
0
41
1
10
3.86619592122088
20
0.949404426394892
30
0
41
1
10
3.86973233371467
20
0.950863488231931
30
0
41
1
10
3.8719011327359
20
0.951533853674334
30
0
41
1
10
3.87682081930819
20
0.952683838068111
30
0
41
1
10
3.87964126372259
20
0.953180502740707
30
0
41
1
10
3.8857106102565
20
0.953974960361506
30
0
41
1
10
3.88893255481094
20
0.954273915049356
30
0
41
1
10
3.89573366230206
20
0.954693515101525
30
0
41
1
10
3.89918950231365
20
0.954806512070292
30
0
41
1
10
3.90617624184304
20
0.954866323353798
30
0
41
1
10
3.90970845934396
20
0.954810976980497
30
0
41
1
10
3.92001448305263
20
0.954424493213367
30
0
41
1
10
3.92667270812603
20
0.953871544389585
30
0
41
1
10
3.93279530787001
20
0.953079858451986
30
0
0
SPLINE
5
E8
100
AcDbEntity
8
SK1
62
256
6
ByLayer
370
18
48
1
60
0
100
AcDbSpline
70
4
71
3
72
117
73
113
40
0
40
0
40
0
40
0
40
0.0118184369113122
40
0.0118184369113122
40
0.0422783827579602
40
0.0422783827579602
40
0.057508355681283
40
0.057508355681283
40
0.0727383286046058
40
0.0727383286046058
40
0.0879683015279287
40
0.0879683015279287
40
0.103198274451252
40
0.103198274451252
40
0.1336582202979
40
0.1336582202979
40
0.148888193221222
40
0.148888193221222
40
0.164118166144545
40
0.164118166144545
40
0.179348139067868
40
0.179348139067868
40
0.194578111991191
40
0.194578111991191
40
0.209808084914514
40
0.209808084914514
40
0.225038057837837
40
0.225038057837837
40
0.240268030761159
40
0.240268030761159
40
0.255498003684482
40
0.255498003684482
40
0.285957949531128
40
0.285957949531128
40
0.301187922454449
40
0.301187922454449
40
0.316417895377771
40
0.316417895377771
40
0.331647868301093
40
0.331647868301093
40
0.346877841224415
40
0.346877841224415
40
0.377337787071058
40
0.377337787071058
40
0.392567759994378
40
0.392567759994378
40
0.407797732917699
40
0.407797732917699
40
0.42302770584102
40
0.42302770584102
40
0.43825767876434
40
0.43825767876434
40
0.468717624610979
40
0.468717624610979
40
0.499177570457618
40
0.499177570457618
40
0.529637516304257
40
0.529637516304257
40
0.544867489227578
40
0.544867489227578
40
0.560097462150898
40
0.560097462150898
40
0.575327435074219
40
0.575327435074219
40
0.590557407997539
40
0.590557407997539
40
0.60578738092086
40
0.60578738092086
40
0.621017353844181
40
0.621017353844181
40
0.651477299690822
40
0.651477299690822
40
0.681937245537463
40
0.681937245537463
40
0.697167218460785
40
0.697167218460785
40
0.712397191384106
40
0.712397191384106
40
0.727627164307428
40
0.727627164307428
40
0.74285713723075
40
0.74285713723075
40
0.773317083077393
40
0.773317083077393
40
0.788547056000715
40
0.788547056000715
40
0.803777028924036
40
0.803777028924036
40
0.819007001847358
40
0.819007001847358
40
0.83423697477068
40
0.83423697477068
40
0.849466947694002
40
0.849466947694002
40
0.864696920617323
40
0.864696920617323
40
0.879926893540645
40
0.879926893540645
40
0.895156866463967
40
0.895156866463967
40
0.910386839387288
40
0.910386839387288
40
0.92561681231061
40
0.92561681231061
40
0.940846785233932
40
0.940846785233932
40
0.956076758157253
40
0.971306731080575
40
0.971306731080575
40
0.986536704003897
40
0.986536704003897
40
1
40
1
40
1
40
1
41
1
10
30.7499958138803
20
-0.999326950981583
30
0
41
1
10
30.7227134238988
20
-0.999303700037331
30
0
41
1
10
30.6954195352822
20
-0.998905973939316
30
0
41
1
10
30.59757008251
20
-0.996144774698678
30
0
41
1
10
30.5267069598815
20
-0.99170631448456
30
0
41
1
10
30.420178301574
20
-0.981228133357092
30
0
41
1
10
30.3845828780841
20
-0.977079935845637
30
0
41
1
10
30.3135758297769
20
-0.967601725477209
30
0
41
1
10
30.2781094892281
20
-0.962279170630325
30
0
41
1
10
30.2072912621145
20
-0.950478761430162
30
0
41
1
10
30.1719415274138
20
-0.943999851423911
30
0
41
1
10
30.1014126362003
20
-0.929857114541278
30
0
41
1
10
30.0662506327258
20
-0.922178981327818
30
0
41
1
10
29.9608110734509
20
-0.897496452196833
30
0
41
1
10
29.8904529252797
20
-0.878962920311011
30
0
41
1
10
29.7850758322246
20
-0.847895888452342
30
0
41
1
10
29.7500006478885
20
-0.836968259864165
30
0
41
1
10
29.6798306614857
20
-0.814067784588048
30
0
41
1
10
29.6447057739377
20
-0.802125928254895
30
0
41
1
10
29.5743230437086
20
-0.777327522169742
30
0
41
1
10
29.5390797848593
20
-0.764456769896299
30
0
41
1
10
29.4685431835602
20
-0.737704330141867
30
0
41
1
10
29.4332635004585
20
-0.723804769091061
30
0
41
1
10
29.3626231434727
20
-0.695003763264026
30
0
41
1
10
29.3272346352366
20
-0.680136991182337
30
0
41
1
10
29.2562104378528
20
-0.649618963807853
30
0
41
1
10
29.2205290283173
20
-0.633922165201909
30
0
41
1
10
29.1493428593274
20
-0.601796684723269
30
0
41
1
10
29.1138569793858
20
-0.585353525316037
30
0
41
1
10
29.0431038031091
20
-0.551698575044924
30
0
41
1
10
29.0078092477459
20
-0.534526813784083
30
0
41
1
10
28.901933292504
20
-0.482355677708682
30
0
41
1
10
28.8314387212994
20
-0.446588708871928
30
0
41
1
10
28.7260797273534
20
-0.391071740054883
30
0
41
1
10
28.6910067528628
20
-0.37228012422014
30
0
41
1
10
28.6207910585677
20
-0.334394417226605
30
0
41
1
10
28.585656198628
20
-0.315288336151241
30
0
41
1
10
28.5153386183241
20
-0.276743873296624
30
0
41
1
10
28.4801580730103
20
-0.257302278573974
30
0
41
1
10
28.40983593043
20
-0.217933853904867
30
0
41
1
10
28.3746932165208
20
-0.198007246539078
30
0
41
1
10
28.2690268158915
20
-0.138007189560568
30
0
41
1
10
28.1982470651679
20
-0.097756056144533
30
0
41
1
10
28.0917960464369
20
-0.0365831632059894
30
0
41
1
10
28.0562308545996
20
-0.0160170399344395
30
0
41
1
10
27.9850840416493
20
0.0250593441548119
30
0
41
1
10
27.9495787662277
20
0.0455028050059809
30
0
41
1
10
27.8786788343713
20
0.0861630678196263
30
0
41
1
10
27.8432824243544
20
0.106376994109667
30
0
41
1
10
27.7726282487078
20
0.146634752723287
30
0
41
1
10
27.7373812859405
20
0.166697357599332
30
0
41
1
10
27.631774344285
20
0.226496893574904
30
0
41
1
10
27.5614827375102
20
0.265730962038077
30
0
41
1
10
27.4208605319605
20
0.342509679842664
30
0
41
1
10
27.3506988429771
20
0.380335898610866
30
0
41
1
10
27.2101006692674
20
0.453890748948624
30
0
41
1
10
27.1395560901413
20
0.48945453842299
30
0
41
1
10
27.0335602592078
20
0.541267644163412
30
0
41
1
10
26.9982239704489
20
0.558319954268029
30
0
41
1
10
26.9273412468353
20
0.591672627058301
30
0
41
1
10
26.8917773249259
20
0.607948340374122
30
0
41
1
10
26.8204644637352
20
0.639787740091435
30
0
41
1
10
26.78488289919
20
0.655285516258459
30
0
41
1
10
26.7139518999041
20
0.68545219201954
30
0
41
1
10
26.6785825812283
20
0.700109064242554
30
0
41
1
10
26.6079443228591
20
0.728457237932702
30
0
41
1
10
26.5726733675431
20
0.742146292538251
30
0
41
1
10
26.5021523554915
20
0.768483340530622
30
0
41
1
10
26.4669127713678
20
0.781145767930042
30
0
41
1
10
26.3613526674844
20
0.817729068774071
30
0
41
1
10
26.291182584394
20
0.840219530548012
30
0
41
1
10
26.1506192343687
20
0.880789055940909
30
0
41
1
10
26.0802384148556
20
0.898902260979412
30
0
41
1
10
25.9746061804442
20
0.922845945544822
30
0
41
1
10
25.9393843268992
20
0.930284195503077
30
0
41
1
10
25.8687772267007
20
0.943972925379967
30
0
41
1
10
25.833382198661
20
0.950220122776841
30
0
41
1
10
25.762438401634
20
0.961537794284112
30
0
41
1
10
25.7268914353085
20
0.966609374154274
30
0
41
1
10
25.6556816874926
20
0.975571317563237
30
0
41
1
10
25.6200898878192
20
0.979455194578065
30
0
41
1
10
25.5136432195515
20
0.98917267474846
30
0
41
1
10
25.4428005996486
20
0.9931028940033
30
0
41
1
10
25.3370045841513
20
0.995335566556832
30
0
41
1
10
25.3018253196772
20
0.995462092771163
30
0
41
1
10
25.2315118362383
20
0.994474273203963
30
0
41
1
10
25.1963509290186
20
0.993362884770647
30
0
41
1
10
25.1259949870435
20
0.989932198068118
30
0
41
1
10
25.0908165733648
20
0.98761172059119
30
0
41
1
10
25.0205068797328
20
0.981747441130153
30
0
41
1
10
24.9853858300373
20
0.978198801069027
30
0
41
1
10
24.9151335663236
20
0.969873787880374
30
0
41
1
10
24.8799739891859
20
0.965107379249417
30
0
41
1
10
24.8094939705595
20
0.954419633299665
30
0
41
1
10
24.7741943818568
20
0.948491281627611
30
0
41
1
10
24.7035354758045
20
0.935426450124197
30
0
41
1
10
24.6681812937588
20
0.928285527916671
30
0
41
1
10
24.5973999377593
20
0.912769191156343
30
0
41
1
10
24.5619488093594
20
0.904407883133359
30
0
41
1
10
24.4907761732795
20
0.886589881830162
30
0
41
1
10
24.4550515247703
20
0.877114361920889
30
0
41
1
10
24.3839021355569
20
0.857130878764735
30
0
41
1
10
24.3484226049058
20
0.846605215745114
30
0
41
1
10
24.2776801612123
20
0.824457842224206
30
0
41
1
10
24.2423988564349
20
0.812851571832425
30
0
41
1
10
24.1718236465756
20
0.788787719323608
30
0
41
1
10
24.1012627136679
20
0.763850176100362
30
0
41
1
10
24.0308437357129
20
0.737067421110197
30
0
41
1
10
23.9605517460305
20
0.709287564933675
30
0
41
1
10
23.9254646541903
20
0.694901448751239
30
0
41
1
10
23.8592766178099
20
0.667109972543642
30
0
41
1
10
23.828183877733
20
0.653791400081843
30
0
41
1
10
23.7970734113413
20
0.640168644374711
30
0
0
SPLINE
5
E9
100
AcDbEntity
8
SK1
62
256
6
ByLayer
370
18
48
1
60
0
100
AcDbSpline
70
4
71
3
72
112
73
108
40
0
40
0
40
0
40
0
40
0.0150283943637586
40
0.0150283943637586
40
0.0303011663750226
40
0.0303011663750226
40
0.0455739383862863
40
0.0455739383862863
40
0.0608467103975503
40
0.0608467103975503
40
0.0913922544200802
40
0.0913922544200802
40
0.106665026431345
40
0.106665026431345
40
0.12193779844261
40
0.12193779844261
40
0.137210570453875
40
0.137210570453875
40
0.15248334246514
40
0.15248334246514
40
0.18302888648767
40
0.18302888648767
40
0.198301658498937
40
0.198301658498937
40
0.213574430510203
40
0.213574430510203
40
0.228847202521469
40
0.228847202521469
40
0.244119974532735
40
0.244119974532735
40
0.259392746544002
40
0.259392746544002
40
0.274665518555268
40
0.274665518555268
40
0.289938290566534
40
0.289938290566534
40
0.3052110625778
40
0.3052110625778
40
0.335756606600335
40
0.335756606600335
40
0.351029378611603
40
0.351029378611603
40
0.366302150622871
40
0.366302150622871
40
0.38157492263414
40
0.38157492263414
40
0.396847694645408
40
0.396847694645408
40
0.427393238667943
40
0.427393238667943
40
0.44266601067921
40
0.44266601067921
40
0.457938782690476
40
0.457938782690476
40
0.473211554701742
40
0.473211554701742
40
0.488484326713008
40
0.488484326713008
40
0.519029870735538
40
0.519029870735538
40
0.534302642746803
40
0.534302642746803
40
0.549575414758068
40
0.549575414758068
40
0.580120958780596
40
0.580120958780596
40
0.610666502803123
40
0.610666502803123
40
0.625939274814387
40
0.625939274814387
40
0.641212046825652
40
0.641212046825652
40
0.671757590848177
40
0.671757590848177
40
0.702303134870703
40
0.702303134870703
40
0.717575906881967
40
0.717575906881967
40
0.732848678893231
40
0.732848678893231
40
0.748121450904495
40
0.748121450904495
40
0.763394222915759
40
0.763394222915759
40
0.778666994927023
40
0.778666994927023
40
0.793939766938287
40
0.793939766938287
40
0.824485310960815
40
0.824485310960815
40
0.83975808297208
40
0.83975808297208
40
0.855030854983345
40
0.855030854983345
40
0.87030362699461
40
0.87030362699461
40
0.885576399005875
40
0.885576399005875
40
0.916121943028407
40
0.916121943028407
40
0.94666748705094
40
0.94666748705094
40
0.977213031073472
40
0.977213031073472
40
0.992485803084739
40
0.992485803084739
40
1
40
1
40
1
40
1
41
1
10
19.8617839337092
20
-0.991197171367645
30
0
41
1
10
19.8268911015321
20
-0.991160913544689
30
0
41
1
10
19.7919426004992
20
-0.990515219432751
30
0
41
1
10
19.7212019790207
20
-0.987989808268878
30
0
41
1
10
19.6854872698184
20
-0.986093373207382
30
0
41
1
10
19.6143497653436
20
-0.981073629388675
30
0
41
1
10
19.578874476817
20
-0.977948042059325
30
0
41
1
10
19.5081112092093
20
-0.970463340706971
30
0
41
1
10
19.4728162351273
20
-0.966103609255981
30
0
41
1
10
19.3669347556261
20
-0.951295698302602
30
0
41
1
10
19.2963697927532
20
-0.93914158665379
30
0
41
1
10
19.1908363658106
20
-0.917366586520444
30
0
41
1
10
19.1557165028644
20
-0.909506002308007
30
0
41
1
10
19.0853929089551
20
-0.892717214424948
30
0
41
1
10
19.0501771211885
20
-0.883802307173681
30
0
41
1
10
18.9797012914411
20
-0.864894982694153
30
0
41
1
10
18.9444447865936
20
-0.854899153624785
30
0
41
1
10
18.8739302051076
20
-0.833775836011
30
0
41
1
10
18.8386866419111
20
-0.822631237162568
30
0
41
1
10
18.7327430045214
20
-0.787674378261954
30
0
41
1
10
18.6617177209541
20
-0.762486228141938
30
0
41
1
10
18.5548352265695
20
-0.72155160554081
30
0
41
1
10
18.5191506071769
20
-0.707336617054267
30
0
41
1
10
18.4480557975678
20
-0.678141104017101
30
0
41
1
10
18.4125579682783
20
-0.663178880872891
30
0
41
1
10
18.3416274823973
20
-0.632589214718422
30
0
41
1
10
18.3062069345541
20
-0.616945659774188
30
0
41
1
10
18.2355116010094
20
-0.584885696529199
30
0
41
1
10
18.2002542908528
20
-0.56844286653444
30
0
41
1
10
18.129836602307
20
-0.534849462152863
30
0
41
1
10
18.0946443051212
20
-0.517746537372972
30
0
41
1
10
18.0242036337705
20
-0.48307473208763
30
0
41
1
10
17.9889741275454
20
-0.465477918859051
30
0
41
1
10
17.918553385551
20
-0.429675366594239
30
0
41
1
10
17.883371218528
20
-0.41145452800302
30
0
41
1
10
17.8130379163913
20
-0.374405274001219
30
0
41
1
10
17.7778614303221
20
-0.355617509447455
30
0
41
1
10
17.6720927620036
20
-0.298820119686951
30
0
41
1
10
17.6013191374904
20
-0.26029346322764
30
0
41
1
10
17.4950693868504
20
-0.200942816276353
30
0
41
1
10
17.4596142666783
20
-0.180937323709628
30
0
41
1
10
17.3884413890209
20
-0.140816715245904
30
0
41
1
10
17.3526789914912
20
-0.120642859066976
30
0
41
1
10
17.2813639952861
20
-0.0802675195656377
30
0
41
1
10
17.2457958622514
20
-0.0600553148995573
30
0
41
1
10
17.1748780199053
20
-0.01950792981512
30
0
41
1
10
17.1395203822908
20
0.0008117101635889
30
0
41
1
10
17.033495044948
20
0.0614426498496528
30
0
41
1
10
16.9628489723172
20
0.101385909399141
30
0
41
1
10
16.8571972010318
20
0.161067832254076
30
0
41
1
10
16.8220501728563
20
0.180951899304858
30
0
41
1
10
16.7517043001364
20
0.220360348949924
30
0
41
1
10
16.7164944928017
20
0.239866426740122
30
0
41
1
10
16.6460325346722
20
0.278540206858423
30
0
41
1
10
16.6107820242198
20
0.297710768385968
30
0
41
1
10
16.5402794755735
20
0.335781276484454
30
0
41
1
10
16.5050391219795
20
0.354700485567605
30
0
41
1
10
16.3991669959214
20
0.410793039575822
30
0
41
1
10
16.3283045738322
20
0.447171054544043
30
0
41
1
10
16.2215706741407
20
0.500174816889654
30
0
41
1
10
16.1858934602806
20
0.517633248738093
30
0
41
1
10
16.1145754700403
20
0.551885856466981
30
0
41
1
10
16.079006671634
20
0.568629445587675
30
0
41
1
10
15.972459469606
20
0.617568255405303
30
0
41
1
10
15.9016076514241
20
0.648439839008006
30
0
41
1
10
15.7604854080629
20
0.707045926684856
30
0
41
1
10
15.6901217407204
20
0.73463377528401
30
0
41
1
10
15.5844328304089
20
0.772957379872224
30
0
41
1
10
15.5491967021426
20
0.785245874376528
30
0
41
1
10
15.4787755336933
20
0.808915956067636
30
0
41
1
10
15.443610531514
20
0.820315100571861
30
0
41
1
10
15.337966489789
20
0.852899465794479
30
0
41
1
10
15.2672499140303
20
0.872414174888092
30
0
41
1
10
15.1256549772793
20
0.907361672859537
30
0
41
1
10
15.054719978272
20
0.922715839527001
30
0
41
1
10
14.9475780577053
20
0.942136255744941
30
0
41
1
10
14.9118811453295
20
0.947994788789401
30
0
41
1
10
14.8407381539947
20
0.958508241014982
30
0
41
1
10
14.8052634354212
20
0.963162745094053
30
0
41
1
10
14.7344448578183
20
0.971245229019104
30
0
41
1
10
14.6991004044619
20
0.974672440306279
30
0
41
1
10
14.6284477061084
20
0.980286876177928
30
0
41
1
10
14.5931388714478
20
0.982476391474194
30
0
41
1
10
14.5225938760463
20
0.985640019911102
30
0
41
1
10
14.487358856243
20
0.986613391300523
30
0
41
1
10
14.4169534722016
20
0.98733566209566
30
0
41
1
10
14.3817888659183
20
0.987082459345174
30
0
41
1
10
14.2762037438792
20
0.984483980398892
30
0
41
1
10
14.2056408120738
20
0.980330567718738
30
0
41
1
10
14.0997453941785
20
0.970425006867856
30
0
41
1
10
14.0644551675699
20
0.966498508965543
30
0
41
1
10
13.9937358948828
20
0.957431443800914
30
0
41
1
10
13.958280973997
20
0.952304692831035
30
0
41
1
10
13.8872010471817
20
0.940862496298962
30
0
41
1
10
13.8515910723633
20
0.934539379545498
30
0
41
1
10
13.7802553518999
20
0.920648482665996
30
0
41
1
10
13.7445485081612
20
0.913071279977004
30
0
41
1
10
13.6378438178037
20
0.888699391785451
30
0
41
1
10
13.5668697288359
20
0.870349811678636
30
0
41
1
10
13.4253984756843
20
0.829456487678357
30
0
41
1
10
13.3550361538403
20
0.806754078143086
30
0
41
1
10
13.2140323375565
20
0.757916894813434
30
0
41
1
10
13.1435276796512
20
0.731666901174634
30
0
41
1
10
13.0379267595072
20
0.689314514469885
30
0
41
1
10
13.0027175939375
20
0.674739815967229
30
0
41
1
10
12.9500605904072
20
0.652462418709206
30
0
41
1
10
12.9326805602908
20
0.645024831024614
30
0
41
1
10
12.9152878655866
20
0.637491252160515
30
0
0
SPLINE
5
EA
100
AcDbEntity
8
SK1
62
256
6
ByLayer
370
18
48
1
60
0
100
AcDbSpline
70
4
71
3
72
88
73
84
40
0
40
0
40
0
40
0
40
0.0089406398405339
40
0.0089406398405339
40
0.0300270092056308
40
0.0300270092056308
40
0.0721997479358241
40
0.0721997479358241
40
0.0932861173009204
40
0.0932861173009204
40
0.114372486666017
40
0.114372486666017
40
0.135458856031113
40
0.135458856031113
40
0.15654522539621
40
0.15654522539621
40
0.198717964126402
40
0.198717964126402
40
0.219804333491499
40
0.219804333491499
40
0.240890702856596
40
0.240890702856596
40
0.261977072221692
40
0.261977072221692
40
0.283063441586788
40
0.283063441586788
40
0.325236180316981
40
0.325236180316981
40
0.346322549682077
40
0.346322549682077
40
0.367408919047173
40
0.367408919047173
40
0.388495288412269
40
0.388495288412269
40
0.409581657777364
40
0.409581657777364
40
0.451754396507556
40
0.451754396507556
40
0.47284076587265
40
0.47284076587265
40
0.493927135237745
40
0.493927135237745
40
0.51501350460284
40
0.51501350460284
40
0.536099873967934
40
0.536099873967934
40
0.557186243333029
40
0.557186243333029
40
0.578272612698124
40
0.578272612698124
40
0.599358982063219
40
0.599358982063219
40
0.620445351428313
40
0.620445351428313
40
0.662618090158503
40
0.662618090158503
40
0.683704459523597
40
0.683704459523597
40
0.704790828888691
40
0.704790828888691
40
0.725877198253785
40
0.725877198253785
40
0.746963567618879
40
0.746963567618879
40
0.789136306349066
40
0.789136306349066
40
0.81022267571416
40
0.81022267571416
40
0.831309045079253
40
0.831309045079253
40
0.852395414444346
40
0.852395414444346
40
0.87348178380944
40
0.87348178380944
40
0.894568153174533
40
0.894568153174533
40
0.915654522539627
40
0.915654522539627
40
0.93674089190472
40
0.93674089190472
40
0.957827261269814
40
0.957827261269814
40
1
40
1
40
1
40
1
41
1
10
8.97561492568329
20
-0.983068154801259
30
0
41
1
10
8.96048002078177
20
-0.983060234047684
30
0
41
1
10
8.94535412922542
20
-0.982939692332167
30
0
41
1
10
8.89463235545136
20
-0.982157051421268
30
0
41
1
10
8.85907222142558
20
-0.980985279900068
30
0
41
1
10
8.75254271942626
20
-0.975644596632094
30
0
41
1
10
8.68180168627563
20
-0.969639116726597
30
0
41
1
10
8.57597391616719
20
-0.957009246960979
30
0
41
1
10
8.54071640927566
20
-0.952205215524685
30
0
41
1
10
8.47016431483519
20
-0.941459482402593
30
0
41
1
10
8.43488255809066
20
-0.935513526264998
30
0
41
1
10
8.36434595297399
20
-0.922458118114122
30
0
41
1
10
8.32909879461204
20
-0.915343189953575
30
0
41
1
10
8.25862811436573
20
-0.899933149763484
30
0
41
1
10
8.22338042189105
20
-0.891652513179679
30
0
41
1
10
8.11738562133266
20
-0.865257772159822
30
0
41
1
10
8.04651811760675
20
-0.845511051531247
30
0
41
1
10
7.94006665703958
20
-0.812424919933761
30
0
41
1
10
7.90453595434786
20
-0.800833878678134
30
0
41
1
10
7.83322007591369
20
-0.776692729465992
30
0
41
1
10
7.79739063160161
20
-0.764113561171285
30
0
41
1
10
7.72596971217271
20
-0.738075167221325
30
0
41
1
10
7.6903475718193
20
-0.724606209423143
30
0
41
1
10
7.61932172877744
20
-0.696716039016849
30
0
41
1
10
7.58391237375452
20
-0.682299608293874
30
0
41
1
10
7.47769276209863
20
-0.63804727850399
30
0
41
1
10
7.40691191590932
20
-0.607200372988018
30
0
41
1
10
7.30110966418437
20
-0.558483983042692
30
0
41
1
10
7.26590719140407
20
-0.541827668227285
30
0
41
1
10
7.19544367282037
20
-0.507960197524227
30
0
41
1
10
7.16016885922224
20
-0.490772202047566
30
0
41
1
10
7.0895746731494
20
-0.455832403049982
30
0
41
1
10
7.05425779824753
20
-0.438076764191266
30
0
41
1
10
6.98363662207137
20
-0.401903224556804
30
0
41
1
10
6.94834974052745
20
-0.383454662217048
30
0
41
1
10
6.84230592121159
20
-0.327431880226357
30
0
41
1
10
6.7712354627769
20
-0.289418821621979
30
0
41
1
10
6.66432110219719
20
-0.230943613842356
30
0
41
1
10
6.62860901880663
20
-0.211137876315149
30
0
41
1
10
6.55721234638258
20
-0.171285297668277
30
0
41
1
10
6.52157497016836
20
-0.151338440012268
30
0
41
1
10
6.45037633166561
20
-0.111483396768449
30
0
41
1
10
6.41482835227353
20
-0.0915503010236591
30
0
41
1
10
6.34388806608115
20
-0.0515733235972959
30
0
41
1
10
6.30851107022411
20
-0.0315016253019564
30
0
41
1
10
6.23787060972217
20
0.0086736579651188
30
0
41
1
10
6.20257898429694
20
0.0287258465656919
30
0
41
1
10
6.13195808040606
20
0.068590480208826
30
0
41
1
10
6.09664261497369
20
0.0884282602238784
30
0
41
1
10
6.0260496743395
20
0.128002371313272
30
0
41
1
10
5.99078602941364
20
0.147763345093097
30
0
41
1
10
5.92031618693926
20
0.18721558488042
30
0
41
1
10
5.88508144628682
20
0.206855775193446
30
0
41
1
10
5.7791567730539
20
0.265129743545941
30
0
41
1
10
5.70833239404141
20
0.303272593415471
30
0
41
1
10
5.60202154041059
20
0.359830426714836
30
0
41
1
10
5.56655077872372
20
0.378535450777178
30
0
41
1
10
5.49538284051798
20
0.415375921368991
30
0
41
1
10
5.4596956918933
20
0.433529015286041
30
0
41
1
10
5.38812525716457
20
0.469317921631983
30
0
41
1
10
5.35235740846434
20
0.486906393411459
30
0
41
1
10
5.28113561726508
20
0.521496209137695
30
0
41
1
10
5.24563954729061
20
0.53849315812684
30
0
41
1
10
5.13920356491701
20
0.588148548921737
30
0
41
1
10
5.06833418613661
20
0.619524969057551
30
0
41
1
10
4.962394271281
20
0.664380341417314
30
0
41
1
10
4.9271452189775
20
0.678963322761149
30
0
41
1
10
4.85663258989575
20
0.707201714582055
30
0
41
1
10
4.82136355921787
20
0.72085197794118
30
0
41
1
10
4.75078999929934
20
0.747212060795363
30
0
41
1
10
4.71548367426337
20
0.759920334887084
30
0
41
1
10
4.64486648637973
20
0.784430951212613
30
0
41
1
10
4.60956437760672
20
0.7962414615304
30
0
41
1
10
4.53889050345558
20
0.818873220421239
30
0
41
1
10
4.50351423521872
20
0.829690060988611
30
0
41
1
10
4.4326189876308
20
0.850261342394333
30
0
41
1
10
4.39709148431791
20
0.860009245822681
30
0
41
1
10
4.32592066784838
20
0.878464772411547
30
0
41
1
10
4.2902931783492
20
0.887184692800076
30
0
41
1
10
4.21890197299402
20
0.903542689866015
30
0
41
1
10
4.18312256372636
20
0.911175577056213
30
0
41
1
10
4.07588783532083
20
0.932233485008567
30
0
41
1
10
4.00430639981863
20
0.943833079592594
30
0
41
1
10
3.93279530786202
20
0.953079858453009
30
0
0
SPLINE
5
EB
100
AcDbEntity
8
SK1
62
256
6
ByLayer
370
18
48
1
60
0
100
AcDbSpline
70
4
71
3
72
62
73
58
40
0
40
0
40
0
40
0
40
0.0177556803373585
40
0.0177556803373585
40
0.035511360674717
40
0.035511360674717
40
0.0710227213494311
40
0.0710227213494311
40
0.106534082024145
40
0.106534082024145
40
0.142045442698859
40
0.142045442698859
40
0.213068164048287
40
0.213068164048287
40
0.248579524723001
40
0.248579524723001
40
0.284090885397716
40
0.284090885397716
40
0.355113606747141
40
0.355113606747141
40
0.426136328096566
40
0.426136328096566
40
0.461647688771279
40
0.461647688771279
40
0.479403369108637
40
0.479403369108637
40
0.497159049445994
40
0.497159049445994
40
0.568181770795429
40
0.568181770795429
40
0.603693131470147
40
0.603693131470147
40
0.639204492144865
40
0.639204492144865
40
0.674715852819584
40
0.674715852819584
40
0.692471533156943
40
0.692471533156943
40
0.710227213494302
40
0.710227213494302
40
0.74573857416902
40
0.74573857416902
40
0.781249934843739
40
0.781249934843739
40
0.852272656193173
40
0.852272656193173
40
0.88778401686789
40
0.88778401686789
40
0.905539697205247
40
0.905539697205247
40
0.923295377542604
40
0.923295377542604
40
0.958806738217318
40
0.958806738217318
40
0.994318098892032
40
0.994318098892032
40
1
40
1
40
1
40
1
41
1
10
31.0058814272438
20
-0.997840337585473
30
0
41
1
10
30.9736059297961
20
-0.996729780275956
30
0
41
1
10
30.941318286014
20
-0.995093319471266
30
0
41
1
10
30.8766946492678
20
-0.990777867439391
30
0
41
1
10
30.8443304718491
20
-0.988095936623012
30
0
41
1
10
30.7473352943709
20
-0.978521238447001
30
0
41
1
10
30.6829165201124
20
-0.970116732674228
30
0
41
1
10
30.5543699333896
20
-0.949478825648498
30
0
41
1
10
30.4902572168137
20
-0.93724447372324
30
0
41
1
10
30.3623985221068
20
-0.908930331394828
30
0
41
1
10
30.2986435636801
20
-0.89284267521623
30
0
41
1
10
30.1072465634542
20
-0.839276694692217
30
0
41
1
10
29.9794588713009
20
-0.79655100923182
30
0
41
1
10
29.7865504838035
20
-0.722847039663293
30
0
41
1
10
29.722021559238
20
-0.696676370773304
30
0
41
1
10
29.5924967510329
20
-0.641206187226942
30
0
41
1
10
29.5280808311496
20
-0.612132330866814
30
0
41
1
10
29.3354367653961
20
-0.521558286093409
30
0
41
1
10
29.207776078874
20
-0.456761289422502
30
0
41
1
10
28.9523146730154
20
-0.3211078518504
30
0
41
1
10
28.8244989921999
20
-0.250282951730299
30
0
41
1
10
28.6316210107083
20
-0.141252982667964
30
0
41
1
10
28.5671306534267
20
-0.104453809836826
30
0
41
1
10
28.4700142310232
20
-0.0486917119773693
30
0
41
1
10
28.4376491841947
20
-0.0300445367303723
30
0
41
1
10
28.3731324987712
20
0.0071665370242329
30
0
41
1
10
28.3409440891392
20
0.0257491554296791
30
0
41
1
10
28.1802385544273
20
0.118348022042142
30
0
41
1
10
28.0523853641333
20
0.191342224183586
30
0
41
1
10
27.8605749247832
20
0.297389424989746
30
0
41
1
10
27.7966432162725
20
0.33218301399171
30
0
41
1
10
27.6687617839771
20
0.400597842485098
30
0
41
1
10
27.6047555154293
20
0.434124717369485
30
0
41
1
10
27.4764894925767
20
0.499592541811524
30
0
41
1
10
27.4121483813698
20
0.531402516004192
30
0
41
1
10
27.3151626831914
20
0.577466854670035
30
0
41
1
10
27.2827290598165
20
0.592559369369184
30
0
41
1
10
27.2180731448459
20
0.62198147760526
30
0
41
1
10
27.1858055433578
20
0.636333138752263
30
0
41
1
10
27.089145726122
20
0.678276778245021
30
0
41
1
10
27.0249109334907
20
0.704782223414355
30
0
41
1
10
26.8968269521125
20
0.754876179282888
30
0
41
1
10
26.8329222812059
20
0.778394468585617
30
0
41
1
10
26.6414551296349
20
0.844162286134463
30
0
41
1
10
26.5138442060764
20
0.881296534276686
30
0
41
1
10
26.3212355443757
20
0.925847628024371
30
0
41
1
10
26.2568272304227
20
0.938840254011552
30
0
41
1
10
26.1598575008682
20
0.955465261026461
30
0
41
1
10
26.1274269094634
20
0.960535646044406
30
0
41
1
10
26.0626915538178
20
0.969660746887826
30
0
41
1
10
26.0304108810199
20
0.973714502722714
30
0
41
1
10
25.933753861086
20
0.984329994556134
30
0
41
1
10
25.8695486795216
20
0.989344072251953
30
0
41
1
10
25.7414379710147
20
0.995275419822889
30
0
41
1
10
25.6775383099725
20
0.996189633461796
30
0
41
1
10
25.6034333225219
20
0.994886086128588
30
0
41
1
10
25.5932121247456
20
0.994654217339757
30
0
41
1
10
25.5829908651209
20
0.99437039195243
30
0
0
SPLINE
5
EC
100
AcDbEntity
8
SK1
62
256
6
ByLayer
370
18
48
1
60
0
100
AcDbSpline
70
4
71
3
72
59
73
55
40
0
40
0
40
0
40
0
40
0.000425474114547
40
0.000425474114547
40
0.0181509405712153
40
0.0181509405712153
40
0.0358764070278837
40
0.0713273399412198
40
0.0713273399412198
40
0.14222920576789
40
0.14222920576789
40
0.213131071594559
40
0.213131071594559
40
0.230856538051226
40
0.230856538051226
40
0.248582004507892
40
0.248582004507892
40
0.284032937421226
40
0.284032937421226
40
0.354934803247893
40
0.354934803247893
40
0.425836669074561
40
0.425836669074561
40
0.461287601987896
40
0.461287601987896
40
0.49673853490123
40
0.49673853490123
40
0.5676404007279
40
0.5676404007279
40
0.603091333641235
40
0.603091333641235
40
0.63854226655457
40
0.63854226655457
40
0.656267733011238
40
0.656267733011238
40
0.673993199467905
40
0.673993199467905
40
0.70944413238124
40
0.70944413238124
40
0.780345998207909
40
0.780345998207909
40
0.851247864034578
40
0.851247864034578
40
0.868973330491246
40
0.868973330491246
40
0.886698796947913
40
0.886698796947913
40
0.922149729861245
40
0.922149729861245
40
0.957600662774577
40
0.957600662774577
40
0.993051595687909
40
0.993051595687909
40
1
40
1
40
1
40
1
41
1
10
20.2212009180783
20
-0.991465617733098
30
0
41
1
10
20.2204237403686
20
-0.991464898426273
30
0
41
1
10
20.2196465232234
20
-0.991463878347304
30
0
41
1
10
20.1864883550303
20
-0.991407524586975
30
0
41
1
10
20.1540497969192
20
-0.990828651559951
30
0
41
1
10
20.0893971019495
20
-0.98863832410396
30
0
41
1
10
19.9926088070109
20
-0.983805135153602
30
0
41
1
10
19.8962744804114
20
-0.974405862954171
30
0
41
1
10
19.7039016308041
20
-0.949731485554281
30
0
41
1
10
19.5760506721803
20
-0.925466802514961
30
0
41
1
10
19.3199449025848
20
-0.862046309730317
30
0
41
1
10
19.1915864809513
20
-0.822948814065114
30
0
41
1
10
19.0297638461001
20
-0.765514834395418
30
0
41
1
10
18.9972808288849
20
-0.753581608248197
30
0
41
1
10
18.932478923573
20
-0.729006759598747
30
0
41
1
10
18.9001464383534
20
-0.716361176790343
30
0
41
1
10
18.80332127103
20
-0.677402345101257
30
0
41
1
10
18.7389978167266
20
-0.650071900339952
30
0
41
1
10
18.5465027565733
20
-0.564327531227406
30
0
41
1
10
18.4187021397367
20
-0.50230631647355
30
0
41
1
10
18.1627319876199
20
-0.370728141745388
30
0
41
1
10
18.034515043654
20
-0.301239434599268
30
0
41
1
10
17.8405750924722
20
-0.193469747556463
30
0
41
1
10
17.7755255093257
20
-0.156878596407097
30
0
41
1
10
17.6462419268603
20
-0.0836799662578755
30
0
41
1
10
17.5818368607443
20
-0.0469936292259945
30
0
41
1
10
17.3892083651703
20
0.0631140778081658
30
0
41
1
10
17.2614295965499
20
0.136321215661269
30
0
41
1
10
17.0693899628032
20
0.243488437864073
30
0
41
1
10
17.0053218525889
20
0.278783282621504
30
0
41
1
10
16.8768958050364
20
0.34820243342898
30
0
41
1
10
16.8125273204669
20
0.382309286604226
30
0
41
1
10
16.7156866719028
20
0.432461625792087
30
0
41
1
10
16.6833591068498
20
0.449011883774972
30
0
41
1
10
16.6185530978865
20
0.481681456273378
30
0
41
1
10
16.58608743038
20
0.497795088296414
30
0
41
1
10
16.4890308345655
20
0.545138985147531
30
0
41
1
10
16.424578047395
20
0.575469298272708
30
0
41
1
10
16.2317000707473
20
0.662457238357149
30
0
41
1
10
16.103784740851
20
0.715152173390607
30
0
41
1
10
15.847763168324
20
0.808124700243837
30
0
41
1
10
15.7196334827642
20
0.848386440105855
30
0
41
1
10
15.5584861734578
20
0.88989218903825
30
0
41
1
10
15.5262019472407
20
0.897746785688781
30
0
41
1
10
15.4614857591229
20
0.912524883735529
30
0
41
1
10
15.4290040112522
20
0.919458082970237
30
0
41
1
10
15.331779850322
20
0.938733990751246
30
0
41
1
10
15.2672272650562
20
0.949568042730078
30
0
41
1
10
15.1384566930723
20
0.96721084424874
30
0
41
1
10
15.0742293721306
20
0.974017608874505
30
0
41
1
10
14.9459707669935
20
0.983619377301011
30
0
41
1
10
14.8819677442638
20
0.986417850263564
30
0
41
1
10
14.8054428431286
20
0.987336128787859
30
0
41
1
10
14.7929010209052
20
0.987408528594528
30
0
41
1
10
14.7803575349535
20
0.987402888351568
30
0
0
SPLINE
5
ED
100
AcDbEntity
8
SK1
62
256
6
ByLayer
370
18
48
1
60
0
100
AcDbSpline
70
4
71
3
72
34
73
30
40
0
40
0
40
0
40
0
40
0.103827998869454
40
0.103827998869454
40
0.23185257045954
40
0.23185257045954
40
0.295864856254584
40
0.295864856254584
40
0.327870999152104
40
0.327870999152104
40
0.359877142049626
40
0.359877142049626
40
0.487901713639701
40
0.487901713639701
40
0.551913999434738
40
0.551913999434738
40
0.615926285229775
40
0.615926285229775
40
0.74395085681985
40
0.74395085681985
40
0.775956999717369
40
0.775956999717369
40
0.807963142614888
40
0.807963142614888
40
0.871975428409926
40
0.871975428409926
40
0.935987714204963
40
0.935987714204963
40
1
40
1
40
1
40
1
41
1
10
9.33812303718068
20
-0.983341867249095
30
0
41
1
10
9.23322377381695
20
-0.983299705648363
30
0
41
1
10
9.12887779145251
20
-0.977860606443329
30
0
41
1
10
8.89647421779313
20
-0.954085733403673
30
0
41
1
10
8.76846520694266
20
-0.933046272993721
30
0
41
1
10
8.57590620298981
20
-0.890035267632129
30
0
41
1
10
8.51161620021742
20
-0.873794104152921
30
0
41
1
10
8.41482938727341
20
-0.846697481690057
30
0
41
1
10
8.38251015485224
20
-0.837208513389839
30
0
41
1
10
8.31773305113995
20
-0.817332530911187
30
0
41
1
10
8.28523712465773
20
-0.806932750140049
30
0
41
1
10
8.12279376940853
20
-0.752877848189343
30
0
41
1
10
7.99387774740569
20
-0.703487688580481
30
0
41
1
10
7.80136740410228
20
-0.621262591962733
30
0
41
1
10
7.73731512759153
20
-0.592525123621755
30
0
41
1
10
7.60915552706524
20
-0.532816843653137
30
0
41
1
10
7.54505734542241
20
-0.501834417565874
30
0
41
1
10
7.35242058484624
20
-0.405947172093164
30
0
41
1
10
7.22350632625651
20
-0.338172389927735
30
0
41
1
10
7.06105026891754
20
-0.249634132782631
30
0
41
1
10
7.02852853859787
20
-0.231758044406604
30
0
41
1
10
6.96363410439807
20
-0.195859211687065
30
0
41
1
10
6.93122553208426
20
-0.177818485157928
30
0
41
1
10
6.83407504293552
20
-0.123494638918345
30
0
41
1
10
6.76941383364507
20
-0.0870002634771367
30
0
41
1
10
6.64016782293129
20
-0.0136939845846484
30
0
41
1
10
6.5755719251232
20
0.0230984962023513
30
0
41
1
10
6.44610463080491
20
0.0963752439070618
30
0
41
1
10
6.38123573157367
20
0.132863743048887
30
0
41
1
10
6.31614345254496
20
0.16904489298588
30
0
0
SPLINE
5
EE
100
AcDbEntity
8
SK1
62
256
6
ByLayer
370
18
48
1
60
0
100
AcDbSpline
70
4
71
3
72
20
73
16
40
0
40
0
40
0
40
0
40
0.250000000000009
40
0.250000000000009
40
0.500000000000017
40
0.500000000000017
40
0.625000000000022
40
0.625000000000022
40
0.750000000000026
40
0.750000000000026
40
0.87500000000003
40
0.87500000000003
40
0.937500000000015
40
0.937500000000015
40
1
40
1
40
1
40
1
41
1
10
6.31614345254496
20
0.169044892985852
30
0
41
1
10
6.30566550413002
20
0.17486899729272
30
0
41
1
10
6.29530147242548
20
0.180845036781704
30
0
41
1
10
6.27493590631781
20
0.193288019569081
30
0
41
1
10
6.26492984438835
20
0.199748891071579
30
0
41
1
10
6.25053289081339
20
0.210283822741616
30
0
41
1
10
6.24583820830063
20
0.2139392402608
30
0
41
1
10
6.2367757737579
20
0.221702247641105
30
0
41
1
10
6.23237857671299
20
0.225836427546227
30
0
41
1
10
6.2243201457523
20
0.234653830794997
30
0
41
1
10
6.22061012832063
20
0.239373535252326
30
0
41
1
10
6.21609189459502
20
0.247042829024423
30
0
41
1
10
6.21477355416019
20
0.249678782853863
30
0
41
1
10
6.21265835958832
20
0.255172306831241
30
0
41
1
10
6.21185829954092
20
0.258051619121744
30
0
41
1
10
6.21147715722569
20
0.2609877695987
30
0
0
SPLINE
5
EF
100
AcDbEntity
8
SK1
62
256
6
ByLayer
370
18
48
1
60
0
100
AcDbSpline
70
4
71
3
72
8
73
4
40
0
40
0
40
0
40
0
40
1
40
1
40
1
40
1
41
1
10
6.21147715722566
20
0.260987769598984
30
0
41
1
10
6.21131615671408
20
0.262228045763607
30
0
41
1
10
6.21123038143617
20
0.263479519004676
30
0
41
1
10
6.21123147016147
20
0.264728124061662
30
0
0
SPLINE
5
F0
100
AcDbEntity
8
SK1
62
256
6
ByLayer
370
18
48
1
60
0
100
AcDbSpline
70
4
71
3
72
30
73
26
40
0
40
0
40
0
40
0
40
0.125
40
0.125
40
0.1875
40
0.1875
40
0.25
40
0.25
40
0.375
40
0.5
40
0.5
40
0.53125
40
0.53125
40
0.5625
40
0.625
40
0.625
40
0.750000000000001
40
0.750000000000001
40
0.781250000000001
40
0.781250000000001
40
0.812500000000001
40
0.812500000000001
40
0.875
40
0.875
40
1
40
1
40
1
40
1
41
1
10
6.21123147016147
20
0.264728124079227
30
0
41
1
10
6.21127182983059
20
0.311014617081383
30
0
41
1
10
6.21129879745916
20
0.35601445412135
30
0
41
1
10
6.21132427068844
20
0.421606549706382
30
0
41
1
10
6.21133025933733
20
0.443151366817233
30
0
41
1
10
6.21133803793603
20
0.485590688618714
30
0
41
1
10
6.21133982259832
20
0.50657001682265
30
0
41
1
10
6.21134010462632
20
0.567713334058254
30
0
41
1
10
6.21132725776155
20
0.644558667791642
30
0
41
1
10
6.21130280311488
20
0.712330516434605
30
0
41
1
10
6.21128790643562
20
0.751754302130848
30
0
41
1
10
6.21128494065124
20
0.759502703637196
30
0
41
1
10
6.21127918471319
20
0.774581156823388
30
0
41
1
10
6.2112707978639
20
0.796610922381603
30
0
41
1
10
6.21126353894437
20
0.816905299002599
30
0
41
1
10
6.21125140921683
20
0.855219114481059
30
0
41
1
10
6.21124654232258
20
0.877740559572743
30
0
41
1
10
6.21124679396888
20
0.902059755683695
30
0
41
1
10
6.21124715824266
20
0.906730997508873
30
0
41
1
10
6.21124856133861
20
0.915682885853926
30
0
41
1
10
6.21124960360723
20
0.919971829169327
30
0
41
1
10
6.21125377783355
20
0.932167926283114
30
0
41
1
10
6.21125795190147
20
0.939408085940272
30
0
41
1
10
6.21127474215197
20
0.958527055645192
30
0
41
1
10
6.21129166855451
20
0.967817891228236
30
0
41
1
10
6.21131405518886
20
0.97366842742619
30
0
0
SPLINE
5
F1
100
AcDbEntity
8
SK1
62
256
6
ByLayer
370
18
48
1
60
0
100
AcDbSpline
70
4
71
3
72
8
73
4
40
0
40
0
40
0
40
0
40
1
40
1
40
1
40
1
41
1
10
5.99968782692127
20
0.980847028710969
30
0
41
1
10
6.07035899776446
20
0.980894513979194
30
0
41
1
10
6.14085904091553
20
0.978490116103075
30
0
41
1
10
6.21131405519034
20
0.973668427426162
30
0
0
SPLINE
5
F2
100
AcDbEntity
8
SK1
62
256
6
ByLayer
370
18
48
1
60
0
100
AcDbSpline
70
4
71
3
72
38
73
34
40
0
40
0
40
0
40
0
40
0.0568440182916736
40
0.0568440182916736
40
0.113688036583347
40
0.113688036583347
40
0.170532054875021
40
0.170532054875021
40
0.227376073166695
40
0.227376073166695
40
0.34106410975005
40
0.34106410975005
40
0.397908128041732
40
0.397908128041732
40
0.454752146333414
40
0.454752146333414
40
0.511596164625096
40
0.511596164625096
40
0.568440182916778
40
0.568440182916778
40
0.68212821950015
40
0.68212821950015
40
0.738972237791837
40
0.738972237791837
40
0.795816256083523
40
0.795816256083523
40
0.852660274375209
40
0.852660274375209
40
0.909504292666895
40
0.909504292666895
40
0.966348310958581
40
0.966348310958581
40
1
40
1
40
1
40
1
41
1
10
31.0897620591859
20
0.980452626969736
30
0
41
1
10
31.0546711095271
20
0.984382799262164
30
0
41
1
10
31.0196103342765
20
0.98770626661323
30
0
41
1
10
30.9493928054364
20
0.993106220778145
30
0
41
1
10
30.9142488719785
20
0.99518939888921
30
0
41
1
10
30.8439394767525
20
0.998138696069049
30
0
41
1
10
30.8087745710821
20
0.999004792978866
30
0
41
1
10
30.7384659519787
20
0.999502141856539
30
0
41
1
10
30.7033152235777
20
0.999128781199971
30
0
41
1
10
30.5975700825101
20
0.996144774698735
30
0
41
1
10
30.5267069598816
20
0.991706314484617
30
0
41
1
10
30.4201783015742
20
0.981228133357178
30
0
41
1
10
30.3845828780843
20
0.977079935845723
30
0
41
1
10
30.3135758297772
20
0.967601725477294
30
0
41
1
10
30.2781094892283
20
0.962279170630438
30
0
41
1
10
30.2072912621147
20
0.950478761430276
30
0
41
1
10
30.171941527414
20
0.943999851424024
30
0
41
1
10
30.1014126362006
20
0.929857114541392
30
0
41
1
10
30.0662506327261
20
0.92217898132796
30
0
41
1
10
29.9608110734512
20
0.897496452196975
30
0
41
1
10
29.89045292528
20
0.878962920311182
30
0
41
1
10
29.785075832225
20
0.847895888452513
30
0
41
1
10
29.7500006478889
20
0.836968259864335
30
0
41
1
10
29.6798306614861
20
0.814067784588246
30
0
41
1
10
29.6447057739381
20
0.802125928255094
30
0
41
1
10
29.5743230437091
20
0.777327522169969
30
0
41
1
10
29.5390797848598
20
0.764456769896526
30
0
41
1
10
29.4685431835607
20
0.737704330142122
30
0
41
1
10
29.433263500459
20
0.723804769091316
30
0
41
1
10
29.3626231434732
20
0.69500376326431
30
0
41
1
10
29.3272346352371
20
0.680136991182593
30
0
41
1
10
29.2706993552448
20
0.655844633282356
30
0
41
1
10
29.2496168364824
20
0.646657860940053
30
0
41
1
10
29.2285284333266
20
0.637332566171835
30
0
0
SPLINE
5
F3
100
AcDbEntity
8
SK1
62
256
6
ByLayer
370
18
48
1
60
0
100
AcDbSpline
70
4
71
3
72
116
73
112
40
0
40
0
40
0
40
0
40
0.0056176467991148
40
0.0056176467991148
40
0.0208829574348996
40
0.0208829574348996
40
0.0361482680706843
40
0.0361482680706843
40
0.0514135787064691
40
0.0514135787064691
40
0.0666788893422539
40
0.0666788893422539
40
0.0819441999780385
40
0.0819441999780385
40
0.0972095106138234
40
0.0972095106138234
40
0.112474821249608
40
0.112474821249608
40
0.127740131885393
40
0.127740131885393
40
0.143005442521178
40
0.143005442521178
40
0.158270753156963
40
0.158270753156963
40
0.173536063792747
40
0.188801374428532
40
0.188801374428532
40
0.204066685064317
40
0.204066685064317
40
0.234597306335884
40
0.234597306335884
40
0.249862616971667
40
0.249862616971667
40
0.265127927607449
40
0.265127927607449
40
0.280393238243232
40
0.280393238243232
40
0.295658548879014
40
0.295658548879014
40
0.326189170150577
40
0.326189170150577
40
0.35671979142214
40
0.35671979142214
40
0.387250412693703
40
0.387250412693703
40
0.402515723329483
40
0.402515723329483
40
0.417781033965263
40
0.417781033965263
40
0.433046344601043
40
0.433046344601043
40
0.448311655236823
40
0.448311655236823
40
0.463576965872604
40
0.463576965872604
40
0.478842276508384
40
0.478842276508384
40
0.509372897779944
40
0.509372897779944
40
0.524638208415723
40
0.524638208415723
40
0.539903519051503
40
0.555168829687282
40
0.555168829687282
40
0.570434140323061
40
0.570434140323061
40
0.58569945095884
40
0.58569945095884
40
0.600964761594619
40
0.600964761594619
40
0.616230072230398
40
0.616230072230398
40
0.631495382866177
40
0.631495382866177
40
0.646760693501956
40
0.646760693501956
40
0.662026004137735
40
0.662026004137735
40
0.692556625409294
40
0.692556625409294
40
0.723087246680852
40
0.723087246680852
40
0.75361786795241
40
0.75361786795241
40
0.784148489223968
40
0.784148489223968
40
0.799413799859747
40
0.799413799859747
40
0.814679110495527
40
0.814679110495527
40
0.829944421131305
40
0.829944421131305
40
0.845209731767085
40
0.845209731767085
40
0.875740353038643
40
0.875740353038643
40
0.891005663674421
40
0.891005663674421
40
0.906270974310199
40
0.906270974310199
40
0.921536284945977
40
0.921536284945977
40
0.936801595581755
40
0.936801595581755
40
0.967332216853311
40
0.967332216853311
40
0.98259752748909
40
0.98259752748909
40
0.997862838124869
40
0.997862838124869
40
1
40
1
40
1
40
1
41
1
10
25.3054940246489
20
-0.995261530159667
30
0
41
1
10
25.2925470475078
20
-0.995247679098128
30
0
41
1
10
25.2796062876661
20
-0.995149942191887
30
0
41
1
10
25.23151183624
20
-0.994474273203963
30
0
41
1
10
25.1963509290203
20
-0.993362884770676
30
0
41
1
10
25.1259949870452
20
-0.989932198068175
30
0
41
1
10
25.0908165733665
20
-0.987611720591275
30
0
41
1
10
25.0205068797346
20
-0.981747441130267
30
0
41
1
10
24.985385830039
20
-0.978198801069198
30
0
41
1
10
24.9151335663254
20
-0.969873787880573
30
0
41
1
10
24.8799739891877
20
-0.965107379249645
30
0
41
1
10
24.8094939705613
20
-0.954419633299921
30
0
41
1
10
24.7741943818586
20
-0.948491281627895
30
0
41
1
10
24.7035354758064
20
-0.93542645012451
30
0
41
1
10
24.6681812937607
20
-0.928285527917012
30
0
41
1
10
24.5973999377613
20
-0.912769191156741
30
0
41
1
10
24.5619488093613
20
-0.904407883133786
30
0
41
1
10
24.4907761732815
20
-0.886589881830616
30
0
41
1
10
24.4550515247722
20
-0.877114361921372
30
0
41
1
10
24.3839021355589
20
-0.857130878765275
30
0
41
1
10
24.3484226049078
20
-0.846605215745683
30
0
41
1
10
24.2776801612143
20
-0.824457842224831
30
0
41
1
10
24.2423988564369
20
-0.81285157183305
30
0
41
1
10
24.1718236465775
20
-0.788787719324262
30
0
41
1
10
24.10126271367
20
-0.763850176101073
30
0
41
1
10
24.030843735715
20
-0.737067421110936
30
0
41
1
10
23.9605517460326
20
-0.709287564934471
30
0
41
1
10
23.9254646541924
20
-0.694901448752063
30
0
41
1
10
23.8200696915531
20
-0.650647505641302
30
0
41
1
10
23.7496202796993
20
-0.619719790255971
30
0
41
1
10
23.6439906559422
20
-0.57074289138788
30
0
41
1
10
23.6087988300604
20
-0.553964840261443
30
0
41
1
10
23.5382659388008
20
-0.519767365426901
30
0
41
1
10
23.5029101654093
20
-0.502372852403141
30
0
41
1
10
23.4320363178572
20
-0.466971987287593
30
0
41
1
10
23.3965185202455
20
-0.448965898916811
30
0
41
1
10
23.3253861660921
20
-0.412221239294382
30
0
41
1
10
23.2897336328429
20
-0.393414675671352
30
0
41
1
10
23.1830768236607
20
-0.336499647188248
30
0
41
1
10
23.1121352976492
20
-0.298093872256942
30
0
41
1
10
22.9708171358531
20
-0.219953748262213
30
0
41
1
10
22.9005312163099
20
-0.180057557212393
30
0
41
1
10
22.7597754827162
20
-0.100252307826963
30
0
41
1
10
22.689379816714
20
-0.0602153285219629
30
0
41
1
10
22.5839737549781
20
0.0004238351895367
30
0
41
1
10
22.5488250025153
20
0.0206551358620857
30
0
41
1
10
22.4783853747878
20
0.0609478349573465
30
0
41
1
10
22.4431116166581
20
0.0810396422848498
30
0
41
1
10
22.3724953492516
20
0.121184481235133
30
0
41
1
10
22.3371581237767
20
0.14124704614224
30
0
41
1
10
22.2664233446963
20
0.181350465705179
30
0
41
1
10
22.2310093931934
20
0.201361917000611
30
0
41
1
10
22.1599652376358
20
0.241082501025829
30
0
41
1
10
22.1242908586375
20
0.260835755884699
30
0
41
1
10
22.0529965412992
20
0.299916993324587
30
0
41
1
10
22.0174330567869
20
0.319225893084933
30
0
41
1
10
21.9110359888452
20
0.376540298469479
30
0
41
1
10
21.8404460807145
20
0.413836915879756
30
0
41
1
10
21.734622092244
20
0.467714379722906
30
0
41
1
10
21.6993652824749
20
0.485344248786419
30
0
41
1
10
21.6289586314887
20
0.520058966616034
30
0
41
1
10
21.5586573129428
20
0.55422266763847
30
0
41
1
10
21.4883836974683
20
0.586999766777922
30
0
41
1
10
21.4180361268448
20
0.618961247303531
30
0
41
1
10
21.382820044808
20
0.634528076763672
30
0
41
1
10
21.3123524127473
20
0.664904438835521
30
0
41
1
10
21.2771100532945
20
0.679726037486631
30
0
41
1
10
21.2066196873822
20
0.708636321425814
30
0
41
1
10
21.1713410346221
20
0.722683701824849
30
0
41
1
10
21.1005642013698
20
0.749773504848406
30
0
41
1
10
21.0650908428859
20
0.762848638002993
30
0
41
1
10
20.994032285009
20
0.788121920034314
30
0
41
1
10
20.9584491305894
20
0.80033165799577
30
0
41
1
10
20.8871524642091
20
0.823790257143173
30
0
41
1
10
20.8516032812358
20
0.834978285996698
30
0
41
1
10
20.7806121506255
20
0.856200380783434
30
0
41
1
10
20.7451588397219
20
0.866225522868035
30
0
41
1
10
20.6389538699714
20
0.894608394962177
30
0
41
1
10
20.568459850361
20
0.911351734543501
30
0
41
1
10
20.427674154324
20
0.94018459616774
30
0
41
1
10
20.3572787882019
20
0.952224953214568
30
0
41
1
10
20.2165612379224
20
0.971635723257691
30
0
41
1
10
20.1463031627545
20
0.979003420736092
30
0
41
1
10
20.0051944877916
20
0.988776536315868
30
0
41
1
10
19.9344028903827
20
0.991231865190571
30
0
41
1
10
19.8280276648896
20
0.99118175242964
30
0
41
1
10
19.7925131206747
20
0.990535586768942
30
0
41
1
10
19.721201979024
20
0.987989808269077
30
0
41
1
10
19.6854872698217
20
0.986093373207609
30
0
41
1
10
19.6143497653469
20
0.981073629388987
30
0
41
1
10
19.5788744768203
20
0.977948042059666
30
0
41
1
10
19.5081112092126
20
0.970463340707397
30
0
41
1
10
19.4728162351306
20
0.966103609256436
30
0
41
1
10
19.3669347556295
20
0.951295698303198
30
0
41
1
10
19.2963697927567
20
0.939141586654472
30
0
41
1
10
19.190836365814
20
0.917366586521212
30
0
41
1
10
19.1557165028678
20
0.909506002308859
30
0
41
1
10
19.0853929089586
20
0.892717214425858
30
0
41
1
10
19.050177121192
20
0.883802307174619
30
0
41
1
10
18.9797012914446
20
0.864894982695176
30
0
41
1
10
18.9444447865971
20
0.854899153625837
30
0
41
1
10
18.8739302051112
20
0.833775836012137
30
0
41
1
10
18.8386866419146
20
0.822631237163733
30
0
41
1
10
18.732743004525
20
0.787674378263233
30
0
41
1
10
18.6617177209577
20
0.762486228143302
30
0
41
1
10
18.5548352265732
20
0.721551605542288
30
0
41
1
10
18.5191506071806
20
0.707336617055773
30
0
41
1
10
18.4480557975716
20
0.678141104018692
30
0
41
1
10
18.412557968282
20
0.663178880874483
30
0
41
1
10
18.3721275486141
20
0.645742752744781
30
0
41
1
10
18.3671632479257
20
0.643594622626097
30
0
41
1
10
18.3621999006206
20
0.641439553976539
30
0
0
SPLINE
5
F4
100
AcDbEntity
8
SK1
62
256
6
ByLayer
370
18
48
1
60
0
100
AcDbSpline
70
4
71
3
72
111
73
107
40
0
40
0
40
0
40
0
40
0.0104555277703193
40
0.0104555277703193
40
0.041027218544948
40
0.041027218544948
40
0.0563130639322612
40
0.0563130639322612
40
0.0715989093195744
40
0.0715989093195744
40
0.0868847547068877
40
0.0868847547068877
40
0.102170600094201
40
0.102170600094201
40
0.13274229086883
40
0.13274229086883
40
0.163313981643459
40
0.163313981643459
40
0.193885672418088
40
0.193885672418088
40
0.209171517805401
40
0.209171517805401
40
0.224457363192714
40
0.224457363192714
40
0.239743208580027
40
0.239743208580027
40
0.255029053967339
40
0.255029053967339
40
0.270314899354651
40
0.270314899354651
40
0.285600744741963
40
0.285600744741963
40
0.300886590129276
40
0.300886590129276
40
0.316172435516588
40
0.3314582809039
40
0.3314582809039
40
0.346744126291213
40
0.346744126291213
40
0.377315817065836
40
0.377315817065836
40
0.392601662453147
40
0.392601662453147
40
0.407887507840459
40
0.407887507840459
40
0.42317335322777
40
0.42317335322777
40
0.438459198615082
40
0.438459198615082
40
0.453745044002393
40
0.453745044002393
40
0.469030889389705
40
0.469030889389705
40
0.499602580164328
40
0.499602580164328
40
0.530174270938951
40
0.530174270938951
40
0.545460116326262
40
0.545460116326262
40
0.560745961713573
40
0.560745961713573
40
0.576031807100884
40
0.576031807100884
40
0.591317652488195
40
0.591317652488195
40
0.606603497875506
40
0.606603497875506
40
0.621889343262817
40
0.621889343262817
40
0.652461034037439
40
0.652461034037439
40
0.683032724812061
40
0.683032724812061
40
0.698318570199372
40
0.698318570199372
40
0.713604415586684
40
0.713604415586684
40
0.744176106361308
40
0.744176106361308
40
0.774747797135933
40
0.774747797135933
40
0.790033642523245
40
0.790033642523245
40
0.805319487910557
40
0.805319487910557
40
0.835891178685181
40
0.835891178685181
40
0.851177024072493
40
0.851177024072493
40
0.866462869459806
40
0.866462869459806
40
0.881748714847118
40
0.881748714847118
40
0.897034560234431
40
0.897034560234431
40
0.927606251009056
40
0.927606251009056
40
0.942892096396368
40
0.942892096396368
40
0.95817794178368
40
0.95817794178368
40
0.973463787170993
40
0.973463787170993
40
0.988749632558305
40
0.988749632558305
40
1
40
1
40
1
40
1
41
1
10
14.4187933251191
20
-0.987132890639714
30
0
41
1
10
14.3947264458161
20
-0.987114431090305
30
0
41
1
10
14.3706672550003
20
-0.986808753435952
30
0
41
1
10
14.2762037438841
20
-0.984483980399119
30
0
41
1
10
14.2056408120787
20
-0.980330567719051
30
0
41
1
10
14.0997453941834
20
-0.970425006868368
30
0
41
1
10
14.0644551675749
20
-0.966498508966112
30
0
41
1
10
13.9937358948877
20
-0.957431443801596
30
0
41
1
10
13.9582809740021
20
-0.952304692831774
30
0
41
1
10
13.8872010471868
20
-0.940862496299786
30
0
41
1
10
13.8515910723684
20
-0.934539379546408
30
0
41
1
10
13.780255351905
20
-0.920648482667019
30
0
41
1
10
13.7445485081663
20
-0.913071279978112
30
0
41
1
10
13.6378438178088
20
-0.888699391786702
30
0
41
1
10
13.566869728841
20
-0.870349811679972
30
0
41
1
10
13.4253984756894
20
-0.829456487679948
30
0
41
1
10
13.3550361538455
20
-0.806754078144792
30
0
41
1
10
13.2140323375617
20
-0.757916894815338
30
0
41
1
10
13.1435276796564
20
-0.731666901176624
30
0
41
1
10
13.0379267595125
20
-0.689314514472017
30
0
41
1
10
13.0027175939427
20
-0.674739815969389
30
0
41
1
10
12.9321317769079
20
-0.644877344095931
30
0
41
1
10
12.8967730381432
20
-0.629568412460458
30
0
41
1
10
12.8259788228539
20
-0.598118499493637
30
0
41
1
10
12.7905465114579
20
-0.581972696414596
30
0
41
1
10
12.7196397230493
20
-0.548773596307456
30
0
41
1
10
12.6841476385767
20
-0.531743591934372
30
0
41
1
10
12.6128921714483
20
-0.497119893811657
30
0
41
1
10
12.5770884911401
20
-0.47948145092812
30
0
41
1
10
12.5057239165499
20
-0.44372646648398
30
0
41
1
10
12.4701288528057
20
-0.425593438916792
30
0
41
1
10
12.3991669511487
20
-0.388725661872201
30
0
41
1
10
12.3637945379484
20
-0.369999477418787
30
0
41
1
10
12.2930597651785
20
-0.332316652936527
30
0
41
1
10
12.2223344045259
20
-0.294406181614107
30
0
41
1
10
12.1517381466356
20
-0.255859266730994
30
0
41
1
10
12.0812586354591
20
-0.216902268056117
30
0
41
1
10
12.0460866719193
20
-0.197201537158548
30
0
41
1
10
11.9404917519099
20
-0.137927354478592
30
0
41
1
10
11.8699151423711
20
-0.0983192640758546
30
0
41
1
10
11.7640469531052
20
-0.0382972927301068
30
0
41
1
10
11.7287824449177
20
-0.018141166761751
30
0
41
1
10
11.6581412169625
20
0.0221790170932366
30
0
41
1
10
11.6227398905814
20
0.0422977858019635
30
0
41
1
10
11.5517708218963
20
0.0824420881666299
30
0
41
1
10
11.5162113142786
20
0.102482596072718
30
0
41
1
10
11.4449877813438
20
0.142587527619923
30
0
41
1
10
11.4092876526689
20
0.162709992973134
30
0
41
1
10
11.3379592005662
20
0.202705953338779
30
0
41
1
10
11.3023666606635
20
0.222505540363329
30
0
41
1
10
11.2312603672953
20
0.261606661026832
30
0
41
1
10
11.195750927535
20
0.280917035243448
30
0
41
1
10
11.0894217912288
20
0.338262456399747
30
0
41
1
10
11.0189366652974
20
0.375933184061836
30
0
41
1
10
10.8778573411902
20
0.448632609806339
30
0
41
1
10
10.8073075643968
20
0.483755510011065
30
0
41
1
10
10.7016645524919
20
0.534901151943274
30
0
41
1
10
10.6664545248051
20
0.551650431145902
30
0
41
1
10
10.5959224313793
20
0.584370500761764
30
0
41
1
10
10.5606097948646
20
0.600356272641818
30
0
41
1
10
10.4898898730832
20
0.631578445841058
30
0
41
1
10
10.4544877584382
20
0.646822438754015
30
0
41
1
10
10.3836230836991
20
0.676599974857197
30
0
41
1
10
10.3481516996272
20
0.6911203750862
30
0
41
1
10
10.2770367343306
20
0.719291076682964
30
0
41
1
10
10.2413944272803
20
0.732943393842334
30
0
41
1
10
10.1698844809777
20
0.759308300944781
30
0
41
1
10
10.134168959837
20
0.771975498315271
30
0
41
1
10
10.0273966573274
20
0.808510646087342
30
0
41
1
10
9.95662763135283
20
0.830890845927854
30
0
41
1
10
9.81519442836492
20
0.871058753441986
30
0
41
1
10
9.74454628416683
20
0.888896711322985
30
0
41
1
10
9.63890162791213
20
0.912462706545313
30
0
41
1
10
9.60369546103001
20
0.919747470344646
30
0
41
1
10
9.53317635938731
20
0.933110428090174
30
0
41
1
10
9.49788839146206
20
0.939206802939509
30
0
41
1
10
9.39202503514784
20
0.955785344533894
30
0
41
1
10
9.32149660440993
20
0.964559224870101
30
0
41
1
10
9.17984845325338
20
0.977190381756145
30
0
41
1
10
9.10869250769338
20
0.98106949723703
30
0
41
1
10
9.00161966249803
20
0.983180140029674
30
0
41
1
10
8.96587075614764
20
0.983256265479838
30
0
41
1
10
8.89463235545784
20
0.982157051421467
30
0
41
1
10
8.85907222143209
20
0.980985279900324
30
0
41
1
10
8.75254271943277
20
0.975644596632577
30
0
41
1
10
8.68180168628217
20
0.969639116727251
30
0
41
1
10
8.57597391617372
20
0.957009246961832
30
0
41
1
10
8.5407164092822
20
0.952205215525623
30
0
41
1
10
8.47016431484178
20
0.941459482403673
30
0
41
1
10
8.43488255809723
20
0.935513526266163
30
0
41
1
10
8.36434595298059
20
0.922458118115401
30
0
41
1
10
8.32909879461866
20
0.915343189954967
30
0
41
1
10
8.25862811437239
20
0.899933149764991
30
0
41
1
10
8.2233804218977
20
0.89165251318127
30
0
41
1
10
8.11738562133939
20
0.865257772161613
30
0
41
1
10
8.04651811761349
20
0.845511051533208
30
0
41
1
10
7.94006665704637
20
0.81242491993595
30
0
41
1
10
7.90453595435466
20
0.800833878680379
30
0
41
1
10
7.83322007592054
20
0.77669272946838
30
0
41
1
10
7.79739063160849
20
0.76411356117373
30
0
41
1
10
7.72596971217959
20
0.738075167223883
30
0
41
1
10
7.69034757182618
20
0.724606209425787
30
0
41
1
10
7.61932172878431
20
0.696716039019606
30
0
41
1
10
7.58391237376134
20
0.682299608296688
30
0
41
1
10
7.52244665934614
20
0.656692274371608
30
0
41
1
10
7.49639184661638
20
0.645653524528342
30
0
41
1
10
7.47035205243071
20
0.634418362239217
30
0
0
SPLINE
5
F5
100
AcDbEntity
8
SK1
62
256
6
ByLayer
370
18
48
1
60
0
100
AcDbSpline
70
4
71
3
72
14
73
10
40
0
40
0
40
0
40
0
40
0.199743617118535
40
0.336843328300398
40
0.435002992819246
40
0.508219601675013
40
0.606360221321371
40
0.769829016172024
40
1
40
1
40
1
40
1
41
1
10
9.41985936406468
20
-0.948379283274875
30
0
41
1
10
9.55687121410568
20
-0.948382720640666
30
0
41
1
10
9.78793639923285
20
-0.948427624857089
30
0
41
1
10
10.0863713657999
20
-0.949676129571031
30
0
41
1
10
10.298001926061
20
-0.949258622084102
30
0
41
1
10
10.4827167708779
20
-0.948728391050622
30
0
41
1
10
10.7123827285468
20
-0.950209574870286
30
0
41
1
10
11.0498224271824
20
-0.950202578990741
30
0
41
1
10
11.3198038077517
20
-0.950342857210302
30
0
41
1
10
11.4776539356244
20
-0.950196412515822
30
0
0
SPLINE
5
F6
100
AcDbEntity
8
SK1
62
256
6
ByLayer
370
18
48
1
60
0
100
AcDbSpline
70
4
71
3
72
14
73
10
40
0
40
0
40
0
40
0
40
0.200775832028794
40
0.338665077774793
40
0.437142836381185
40
0.510618289390495
40
0.607999319643611
40
0.770859783144952
40
1
40
1
40
1
40
1
41
1
10
20.3046458969752
20
-0.959238217071203
30
0
41
1
10
20.4422238366329
20
-0.959700631219363
30
0
41
1
10
20.6742999898319
20
-0.960219413833869
30
0
41
1
10
20.9738972326463
20
-0.959700331861711
30
0
41
1
10
21.1862484280414
20
-0.959804359334271
30
0
41
1
10
21.3705893117857
20
-0.960692432903812
30
0
41
1
10
21.599230756554
20
-0.960376877009423
30
0
41
1
10
21.934709293433
20
-0.960157988506865
30
0
41
1
10
22.2032635151582
20
-0.960755474115444
30
0
41
1
10
22.3602261606355
20
-0.961320793155039
30
0
0
SPLINE
5
F7
100
AcDbEntity
8
SK1
62
256
6
ByLayer
370
18
48
1
60
0
100
AcDbSpline
70
4
71
3
72
13
73
9
40
0
40
0
40
0
40
0
40
0.235112581950378
40
0.383758005185248
40
0.513050907999135
40
0.657815979799421
40
0.873912094046137
40
1
40
1
40
1
40
1
41
1
10
27.8017175647439
20
0.96738461767751
30
0
41
1
10
27.6643045345616
20
0.966353228123893
30
0
41
1
10
27.4399845090811
20
0.965163743038175
30
0
41
1
10
27.1399079886186
20
0.967201625872121
30
0
41
1
10
26.8928111530946
20
0.965595214939839
30
0
41
1
10
26.6060913394607
20
0.965101228304292
30
0
41
1
10
26.3213350696508
20
0.965698338583849
30
0
41
1
10
26.1212265134762
20
0.965579728885359
30
0
41
1
10
26.0474906679569
20
0.965484425400973
30
0
0
SPLINE
5
F8
100
AcDbEntity
8
SK1
62
256
6
ByLayer
370
18
48
1
60
0
100
AcDbSpline
70
4
71
3
72
12
73
8
40
0
40
0
40
0
40
0
40
0.260433770936701
40
0.451068626173558
40
0.594456635560324
40
0.813639945286119
40
1
40
1
40
1
40
1
41
1
10
16.9188070523988
20
0.956611917953325
30
0
41
1
10
16.7634172722481
20
0.955271373928611
30
0
41
1
10
16.4942528846152
20
0.953666996413631
30
0
41
1
10
16.1397107523385
20
0.955980731209564
30
0
41
1
10
15.8093048115263
20
0.954712235269426
30
0
41
1
10
15.4815904578913
20
0.954021659217489
30
0
41
1
10
15.2394552640715
20
0.953801238302844
30
0
41
1
10
15.1281859740513
20
0.953767116961728
30
0
0
SPLINE
5
F9
100
AcDbEntity
8
SK1
62
256
6
ByLayer
370
18
48
1
60
0
100
AcDbSpline
70
4
71
3
72
13
73
9
40
0
40
0
40
0
40
0
40
0.224825147601422
40
0.367063966876959
40
0.469936604324792
40
0.576951790714225
40
0.751684298578417
40
1
40
1
40
1
40
1
41
1
10
14.8616828725254
20
-0.953816876400538
30
0
41
1
10
15.0158557167764
20
-0.953878631571968
30
0
41
1
10
15.2675626868278
20
-0.954079908345108
30
0
41
1
10
15.5898883865492
20
-0.954232842971265
30
0
41
1
10
15.8312906487353
20
-0.954858871304225
30
0
41
1
10
16.0948869468582
20
-0.955838788290748
30
0
41
1
10
16.4585384958833
20
-0.953927987616424
30
0
41
1
10
16.7485708835824
20
-0.955405860271725
30
0
41
1
10
16.9188070523989
20
-0.956611917953296
30
0
0
SPLINE
5
FA
100
AcDbEntity
8
SK1
62
256
6
ByLayer
370
18
48
1
60
0
100
AcDbSpline
70
4
71
3
72
14
73
10
40
0
40
0
40
0
40
0
40
0.220669012454434
40
0.351506002834155
40
0.450633660578114
40
0.521926152245266
40
0.630271095915552
40
0.789690825309277
40
1
40
1
40
1
40
1
41
1
10
25.7459454497193
20
-0.964861427765584
30
0
41
1
10
25.8971576272813
20
-0.965147049217506
30
0
41
1
10
26.1380271711246
20
-0.965377430215256
30
0
41
1
10
26.4468266473665
20
-0.965858518791265
30
0
41
1
10
26.6532685957149
20
-0.965222391797312
30
0
41
1
10
26.8442987366132
20
-0.965152198311955
30
0
41
1
10
27.0766380434979
20
-0.967515387839001
30
0
41
1
10
27.4042374682889
20
-0.965244366870536
30
0
41
1
10
27.6575992203719
20
-0.96654051149838
30
0
41
1
10
27.801717564744
20
-0.967384617677453
30
0
0
SPLINE
5
FB
100
AcDbEntity
8
SK1
62
256
6
ByLayer
370
18
48
1
60
0
100
AcDbSpline
70
4
71
3
72
14
73
10
40
0
40
0
40
0
40
0
40
0.260432840206265
40
0.445534406614535
40
0.556214315358558
40
0.639723972351034
40
0.751650384585125
40
0.908370529117969
40
1
40
1
40
1
40
1
41
1
10
22.3602261606355
20
0.961320793155096
30
0
41
1
10
22.2032635151588
20
0.960755474115501
30
0
41
1
10
21.9347092934348
20
0.960157988506893
30
0
41
1
10
21.5992307565569
20
0.960376877009423
30
0
41
1
10
21.3705893117891
20
0.960692432903841
30
0
41
1
10
21.1862484280449
20
0.959804359334328
30
0
41
1
10
20.9738972326494
20
0.959700331861711
30
0
41
1
10
20.756649433969
20
0.960076735244911
30
0
41
1
10
20.606905772607
20
0.959952827709486
30
0
41
1
10
20.5516587692007
20
0.959865853724864
30
0
0
SPLINE
5
FC
100
AcDbEntity
8
SK1
62
256
6
ByLayer
370
18
48
1
60
0
100
AcDbSpline
70
4
71
3
72
14
73
10
40
0
40
0
40
0
40
0
40
0.255094551006233
40
0.436264210762883
40
0.545031775152721
40
0.626176486148294
40
0.734965157643509
40
0.886910414536679
40
1
40
1
40
1
40
1
41
1
10
11.4776539356245
20
0.950196412515822
30
0
41
1
10
11.3198038077519
20
0.950342857210302
30
0
41
1
10
11.0498224271829
20
0.950202578990769
30
0
41
1
10
10.7123827285476
20
0.950209574870286
30
0
41
1
10
10.4827167708788
20
0.948728391050622
30
0
41
1
10
10.2980019260619
20
0.949258622084102
30
0
41
1
10
10.0863713658007
20
0.949676129571031
30
0
41
1
10
9.85496597649924
20
0.948708043549829
30
0
41
1
10
9.69091693699434
20
0.948486329156225
30
0
41
1
10
9.6209198091031
20
0.948436196423387
30
0
0
LINE
5
80
100
AcDbEntity
8
4
62
256
6
ByLayer
370
13
48
0.05
60
0
100
AcDbLine
10
0
20
0
30
0
11
31.651
21
0
31
0
39
0
210
0
220
0
230
1
0
LINE
5
82
100
AcDbEntity
8
81
62
256
6
ByLayer
370
18
48
1
60
0
100
AcDbLine
10
31.651
20
0
30
0
11
41.651
21
0
31
0
39
0
210
0
220
0
230
1
0
LINE
5
83
100
AcDbEntity
8
80
62
256
6
ByLayer
370
18
48
1
60
0
100
AcDbLine
10
0
20
0
30
0
11
-10
21
0
31
0
39
0
210
0
220
0
230
1
0
LINE
5
84
100
AcDbEntity
8
SK4
62
256
6
ByLayer
370
13
48
0.05
60
0
100
AcDbLine
10
-23.349
20
0
30
0
11
36.651
21
0
31
0
39
0
210
0
220
0
230
1
0
LINE
5
86
100
AcDbEntity
8
SK1
62
256
6
ByLayer
370
18
48
1
60
0
100
AcDbLine
10
31.61396
20
-0.072857
30
0
11
31.395132
21
-0.517568
31
0
39
0
210
0
220
0
230
1
0
LINE
5
88
100
AcDbEntity
8
SK1
62
256
6
ByLayer
370
18
48
1
60
0
100
AcDbLine
10
31.64108
20
-0.023858
30
0
11
31.636863
21
-0.030963
31
0
39
0
210
0
220
0
230
1
0
LINE
5
89
100
AcDbEntity
8
SK1
62
256
6
ByLayer
370
18
48
1
60
0
100
AcDbLine
10
31.64108
20
-0.023858
30
0
11
31.651
21
0
31
0
39
0
210
0
220
0
230
1
0
LINE
5
8A
100
AcDbEntity
8
SK1
62
256
6
ByLayer
370
18
48
1
60
0
100
AcDbLine
10
31.61396
20
0.072857
30
0
11
31.395132
21
0.517568
31
0
39
0
210
0
220
0
230
1
0
LINE
5
8B
100
AcDbEntity
8
SK1
62
256
6
ByLayer
370
13
48
1
60
0
100
AcDbLine
10
31.61396
20
0.072857
30
0
11
30.955254
21
0.450474
31
0
39
0
210
0
220
0
230
1
0
LINE
5
8C
100
AcDbEntity
8
SK1
62
256
6
ByLayer
370
18
48
1
60
0
100
AcDbLine
10
31.651
20
0
30
0
11
31.050409
21
-0.999552
31
0
39
0
210
0
220
0
230
1
0
LINE
5
8D
100
AcDbEntity
8
SK1
62
256
6
ByLayer
370
18
48
1
60
0
100
AcDbLine
10
31.651
20
0
30
0
11
31.64108
21
0.023858
31
0
39
0
210
0
220
0
230
1
0
LINE
5
8E
100
AcDbEntity
8
SK1
62
256
6
ByLayer
370
18
48
1
60
0
100
AcDbLine
10
30.691625
20
-0.613182
30
0
11
31.64108
21
0.023858
31
0
39
0
210
0
220
0
230
1
0
LINE
5
8F
100
AcDbEntity
8
SK1
62
256
6
ByLayer
370
18
48
1
60
0
100
AcDbLine
10
31.64108
20
0.023858
30
0
11
31.636863
21
0.030963
31
0
39
0
210
0
220
0
230
1
0
LINE
5
90
100
AcDbEntity
8
SK1
62
256
6
ByLayer
370
13
48
1
60
0
100
AcDbLine
10
31.636863
20
0.030963
30
0
11
30.929765
21
0.436321
31
0
39
0
210
0
220
0
230
1
0
LINE
5
91
100
AcDbEntity
8
SK1
62
256
6
ByLayer
370
18
48
1
60
0
100
AcDbLine
10
1.586
20
-0.977551
30
0
11
1.586
21
0.977551
31
0
39
0
210
0
220
0
230
1
0
LINE
5
92
100
AcDbEntity
8
SK1
62
256
6
ByLayer
370
18
48
1
60
0
100
AcDbLine
10
0.000203
20
-1.5
30
0
11
0.000203
21
1.5
31
0
39
0
210
0
220
0
230
1
0
LINE
5
93
100
AcDbEntity
8
SK1
62
256
6
ByLayer
370
18
48
1
60
0
100
AcDbLine
10
-18.349
20
-1.35
30
0
11
-18.349
21
1.35
31
0
39
0
210
0
220
0
230
1
0
LINE
5
94
100
AcDbEntity
8
SK1
62
256
6
ByLayer
370
18
48
1
60
0
100
AcDbLine
10
-18.262397
20
-1.5
30
0
11
-18.262397
21
1.5
31
0
39
0
210
0
220
0
230
1
0
LINE
5
95
100
AcDbEntity
8
SK1
62
256
6
ByLayer
370
18
48
1
60
0
100
AcDbLine
10
1.586
20
-0.977551
30
0
11
5.999592
21
-0.980847
31
0
39
0
210
0
220
0
230
1
0
LINE
5
96
100
AcDbEntity
8
SK1
62
256
6
ByLayer
370
18
48
1
60
0
100
AcDbLine
10
8.975137
20
-0.983069
30
0
11
9.337574
21
-0.983339
31
0
39
0
210
0
220
0
230
1
0
LINE
5
97
100
AcDbEntity
8
SK1
62
256
6
ByLayer
370
18
48
1
60
0
100
AcDbLine
10
14.418672
20
-0.987133
30
0
11
14.7797
21
-0.987403
31
0
39
0
210
0
220
0
230
1
0
LINE
5
98
100
AcDbEntity
8
SK1
62
256
6
ByLayer
370
18
48
1
60
0
100
AcDbLine
10
19.862198
20
-0.991198
30
0
11
20.221539
21
-0.991466
31
0
39
0
210
0
220
0
230
1
0
LINE
5
99
100
AcDbEntity
8
SK1
62
256
6
ByLayer
370
18
48
1
60
0
100
AcDbLine
10
25.306027
20
-0.995262
30
0
11
25.663632
21
-0.995529
31
0
39
0
210
0
220
0
230
1
0
LINE
5
9A
100
AcDbEntity
8
SK1
62
256
6
ByLayer
370
18
48
1
60
0
100
AcDbLine
10
30.750187
20
-0.999327
30
0
11
31.050409
21
-0.999552
31
0
39
0
210
0
220
0
230
1
0
LINE
5
9B
100
AcDbEntity
8
SK1
62
256
6
ByLayer
370
18
48
1
60
0
100
AcDbLine
10
31.050409
20
0.999552
30
0
11
30.750187
21
0.999327
31
0
39
0
210
0
220
0
230
1
0
LINE
5
9C
100
AcDbEntity
8
SK1
62
256
6
ByLayer
370
18
48
1
60
0
100
AcDbLine
10
25.663632
20
0.995529
30
0
11
25.306027
21
0.995262
31
0
39
0
210
0
220
0
230
1
0
LINE
5
9D
100
AcDbEntity
8
SK1
62
256
6
ByLayer
370
18
48
1
60
0
100
AcDbLine
10
20.221539
20
0.991466
30
0
11
19.862198
21
0.991198
31
0
39
0
210
0
220
0
230
1
0
LINE
5
9E
100
AcDbEntity
8
SK1
62
256
6
ByLayer
370
18
48
1
60
0
100
AcDbLine
10
14.7797
20
0.987403
30
0
11
14.418672
21
0.987133
31
0
39
0
210
0
220
0
230
1
0
LINE
5
9F
100
AcDbEntity
8
SK1
62
256
6
ByLayer
370
18
48
1
60
0
100
AcDbLine
10
9.337574
20
0.983339
30
0
11
8.975137
21
0.983069
31
0
39
0
210
0
220
0
230
1
0
LINE
5
A0
100
AcDbEntity
8
SK1
62
256
6
ByLayer
370
18
48
1
60
0
100
AcDbLine
10
5.999592
20
0.980847
30
0
11
1.586
21
0.977551
31
0
39
0
210
0
220
0
230
1
0
LINE
5
A1
100
AcDbEntity
8
SK1
62
256
6
ByLayer
370
18
48
1
60
0
100
AcDbLine
10
1.586
20
0.977551
30
0
11
0.000203
21
1.5
31
0
39
0
210
0
220
0
230
1
0
LINE
5
A2
100
AcDbEntity
8
SK1
62
256
6
ByLayer
370
18
48
1
60
0
100
AcDbLine
10
0.000203
20
-1.5
30
0
11
1.586
21
-0.977551
31
0
39
0
210
0
220
0
230
1
0
LINE
5
A3
100
AcDbEntity
8
SK1
62
256
6
ByLayer
370
18
48
1
60
0
100
AcDbLine
10
-18.262397
20
-1.5
30
0
11
0.000203
21
-1.5
31
0
39
0
210
0
220
0
230
1
0
LINE
5
A4
100
AcDbEntity
8
SK1
62
256
6
ByLayer
370
18
48
1
60
0
100
AcDbLine
10
0.000203
20
1.5
30
0
11
-18.262397
21
1.5
31
0
39
0
210
0
220
0
230
1
0
LINE
5
A5
100
AcDbEntity
8
SK1
62
256
6
ByLayer
370
18
48
1
60
0
100
AcDbLine
10
-18.349
20
-1.35
30
0
11
-18.262397
21
-1.5
31
0
39
0
210
0
220
0
230
1
0
LINE
5
A6
100
AcDbEntity
8
SK1
62
256
6
ByLayer
370
18
48
1
60
0
100
AcDbLine
10
-18.262397
20
1.5
30
0
11
-18.349
21
1.35
31
0
39
0
210
0
220
0
230
1
0
LINE
5
A7
100
AcDbEntity
8
2
62
256
6
ByLayer
370
13
48
1
60
0
100
AcDbLine
10
48.651
20
25.523531
30
0
11
48.651
21
-9.75
31
0
39
0
210
0
220
0
230
1
0
LINE
5
A9
100
AcDbEntity
8
2
62
256
6
ByLayer
370
13
48
1
60
0
100
AcDbLine
10
33.2385
20
1
30
0
11
50.651
21
1
31
0
39
0
210
0
220
0
230
1
0
LINE
5
AA
100
AcDbEntity
8
2
62
256
6
ByLayer
370
13
48
1
60
0
100
AcDbLine
10
33.2385
20
-1
30
0
11
50.651
21
-1
31
0
39
0
210
0
220
0
230
1
0
LINE
5
AB
100
AcDbEntity
8
1
62
256
6
ByLayer
370
18
48
1
60
1
100
AcDbLine
10
48.651
20
1
30
0
11
48.190216
21
4.499998
31
0
39
0
210
0
220
0
230
1
0
LINE
5
AC
100
AcDbEntity
8
1
62
256
6
ByLayer
370
18
48
1
60
1
100
AcDbLine
10
48.190216
20
4.499998
30
0
11
49.111784
21
4.500002
31
0
39
0
210
0
220
0
230
1
0
LINE
5
AD
100
AcDbEntity
8
1
62
256
6
ByLayer
370
18
48
1
60
1
100
AcDbLine
10
49.111784
20
4.500002
30
0
11
48.651
21
1
31
0
39
0
210
0
220
0
230
1
0
LINE
5
AE
100
AcDbEntity
8
1
62
256
6
ByLayer
370
18
48
1
60
1
100
AcDbLine
10
48.651
20
-1
30
0
11
49.111784
21
-4.499998
31
0
39
0
210
0
220
0
230
1
0
LINE
5
AF
100
AcDbEntity
8
1
62
256
6
ByLayer
370
18
48
1
60
1
100
AcDbLine
10
49.111784
20
-4.499998
30
0
11
48.190216
21
-4.500002
31
0
39
0
210
0
220
0
230
1
0
LINE
5
B0
100
AcDbEntity
8
1
62
256
6
ByLayer
370
18
48
1
60
1
100
AcDbLine
10
48.190216
20
-4.500002
30
0
11
48.651
21
-1
31
0
39
0
210
0
220
0
230
1
0
LINE
5
B1
100
AcDbEntity
8
SK2
62
256
6
ByLayer
370
13
48
1
60
0
100
AcDbLine
10
-26.349
20
10.25
30
0
11
-26.349
21
-23.5
31
0
39
0
210
0
220
0
230
1
0
LINE
5
B3
100
AcDbEntity
8
SK2
62
256
6
ByLayer
370
13
48
1
60
0
100
AcDbLine
10
-19.9365
20
1.5
30
0
11
-28.349
21
1.5
31
0
39
0
210
0
220
0
230
1
0
LINE
5
B4
100
AcDbEntity
8
SK2
62
256
6
ByLayer
370
13
48
1
60
0
100
AcDbLine
10
-19.9365
20
-1.5
30
0
11
-28.349
21
-1.5
31
0
39
0
210
0
220
0
230
1
0
LINE
5
B5
100
AcDbEntity
8
1
62
256
6
ByLayer
370
18
48
1
60
1
100
AcDbLine
10
-26.349
20
1.5
30
0
11
-26.809784
21
4.999998
31
0
39
0
210
0
220
0
230
1
0
LINE
5
B6
100
AcDbEntity
8
1
62
256
6
ByLayer
370
18
48
1
60
1
100
AcDbLine
10
-26.809784
20
4.999998
30
0
11
-25.888216
21
5.000002
31
0
39
0
210
0
220
0
230
1
0
LINE
5
B7
100
AcDbEntity
8
1
62
256
6
ByLayer
370
18
48
1
60
1
100
AcDbLine
10
-25.888216
20
5.000002
30
0
11
-26.349
21
1.5
31
0
39
0
210
0
220
0
230
1
0
LINE
5
B8
100
AcDbEntity
8
1
62
256
6
ByLayer
370
18
48
1
60
1
100
AcDbLine
10
-26.349
20
-1.5
30
0
11
-25.888216
21
-4.999998
31
0
39
0
210
0
220
0
230
1
0
LINE
5
B9
100
AcDbEntity
8
1
62
256
6
ByLayer
370
18
48
1
60
1
100
AcDbLine
10
-25.888216
20
-4.999998
30
0
11
-26.809784
21
-5.000002
31
0
39
0
210
0
220
0
230
1
0
LINE
5
BA
100
AcDbEntity
8
1
62
256
6
ByLayer
370
18
48
1
60
1
100
AcDbLine
10
-26.809784
20
-5.000002
30
0
11
-26.349
21
-1.5
31
0
39
0
210
0
220
0
230
1
0
LINE
5
102
100
AcDbEntity
8
1
62
256
6
ByLayer
370
18
48
1
60
1
100
AcDbLine
10
48.651
20
1
30
0
11
48.190216
21
4.499998
31
0
39
0
210
0
220
0
230
1
0
LINE
5
103
100
AcDbEntity
8
1
62
256
6
ByLayer
370
18
48
1
60
1
100
AcDbLine
10
48.190216
20
4.499998
30
0
11
49.111784
21
4.500002
31
0
39
0
210
0
220
0
230
1
0
LINE
5
104
100
AcDbEntity
8
1
62
256
6
ByLayer
370
18
48
1
60
1
100
AcDbLine
10
49.111784
20
4.500002
30
0
11
48.651
21
1
31
0
39
0
210
0
220
0
230
1
0
LINE
5
106
100
AcDbEntity
8
1
62
256
6
ByLayer
370
18
48
1
60
1
100
AcDbLine
10
48.651
20
-1
30
0
11
49.111784
21
-4.499998
31
0
39
0
210
0
220
0
230
1
0
LINE
5
107
100
AcDbEntity
8
1
62
256
6
ByLayer
370
18
48
1
60
1
100
AcDbLine
10
49.111784
20
-4.499998
30
0
11
48.190216
21
-4.500002
31
0
39
0
210
0
220
0
230
1
0
LINE
5
108
100
AcDbEntity
8
1
62
256
6
ByLayer
370
18
48
1
60
1
100
AcDbLine
10
48.190216
20
-4.500002
30
0
11
48.651
21
-1
31
0
39
0
210
0
220
0
230
1
0
LINE
5
10C
100
AcDbEntity
8
1
62
256
6
ByLayer
370
18
48
1
60
1
100
AcDbLine
10
-26.349
20
1.5
30
0
11
-26.809784
21
4.999998
31
0
39
0
210
0
220
0
230
1
0
LINE
5
10D
100
AcDbEntity
8
1
62
256
6
ByLayer
370
18
48
1
60
1
100
AcDbLine
10
-26.809784
20
4.999998
30
0
11
-25.888216
21
5.000002
31
0
39
0
210
0
220
0
230
1
0
LINE
5
10E
100
AcDbEntity
8
1
62
256
6
ByLayer
370
18
48
1
60
1
100
AcDbLine
10
-25.888216
20
5.000002
30
0
11
-26.349
21
1.5
31
0
39
0
210
0
220
0
230
1
0
LINE
5
110
100
AcDbEntity
8
1
62
256
6
ByLayer
370
18
48
1
60
1
100
AcDbLine
10
-26.349
20
-1.5
30
0
11
-25.888216
21
-4.999998
31
0
39
0
210
0
220
0
230
1
0
LINE
5
111
100
AcDbEntity
8
1
62
256
6
ByLayer
370
18
48
1
60
1
100
AcDbLine
10
-25.888216
20
-4.999998
30
0
11
-26.809784
21
-5.000002
31
0
39
0
210
0
220
0
230
1
0
LINE
5
112
100
AcDbEntity
8
1
62
256
6
ByLayer
370
18
48
1
60
1
100
AcDbLine
10
-26.809784
20
-5.000002
30
0
11
-26.349
21
-1.5
31
0
39
0
210
0
220
0
230
1
0
MTEXT
5
FD
100
AcDbEntity
8
2
62
256
6
ByLayer
370
18
48
1
60
0
100
AcDbMText
10
47.086366
20
10.493977
30
0
210
0
220
0
230
1
1
%%c
40
3.5
41
0
44
1.084337
50
90
71
7
72
5
7
iso_b_vert
0
MTEXT
5
100
100
AcDbEntity
8
2
62
256
6
ByLayer
370
18
48
1
60
0
100
AcDbMText
10
47.086366
20
4.1575
30
0
210
0
220
0
230
1
1
\W0.2969; 
40
3.5
41
0
44
1.084337
50
90
71
7
72
5
7
iso_b_vert
0
MTEXT
5
101
100
AcDbEntity
8
2
62
256
6
ByLayer
370
18
48
1
60
0
100
AcDbMText
10
47.086366
20
17.466633
30
0
210
0
220
0
230
1
1
\W0.7346;2.00
40
3.5
41
0
44
1.084337
50
90
71
7
72
5
7
iso_b_vert
0
MTEXT
5
10A
100
AcDbEntity
8
SK2
62
256
6
ByLayer
370
18
48
1
60
0
100
AcDbMText
10
-27.913634
20
-21.565156
30
0
210
0
220
0
230
1
1
%%c
40
3.5
41
0
44
1.084337
50
90
71
7
72
5
7
iso_b_vert
0
MTEXT
5
10B
100
AcDbEntity
8
SK2
62
256
6
ByLayer
370
18
48
1
60
0
100
AcDbMText
10
-27.913634
20
-14.5925
30
0
210
0
220
0
230
1
1
\W0.7346;3.00
40
3.5
41
0
44
1.084337
50
90
71
7
72
5
7
iso_b_vert
0
MTEXT
5
114
100
AcDbEntity
8
SK6
62
256
6
ByLayer
370
18
48
1
60
0
100
AcDbMText
10
-18.1635
20
-59.217366
30
0
210
0
220
0
230
1
1
\W0.7585;862.1-2000-240A0-GM X1DU
40
3.5
41
0
44
1.084337
50
0
71
7
72
5
7
iso_b_vert
0
HATCH
5
105
100
AcDbEntity
8
2
62
256
6
ByLayer
370
13
48
1
60
0
100
AcDbHatch
10
0
20
0
30
0
210
0
220
0
230
1
2
ANSI31
70
0
71
0
91
1
92
5
93
3
72
1
10
48.651
20
1.00000000000003
11
48.1902162584472
21
4.49999830744684
72
1
10
48.1902162584472
20
4.49999830744684
11
49.1117837415528
21
4.50000169255321
72
1
10
49.1117837415528
20
4.50000169255321
11
48.651
21
1.00000000000003
97
0
75
0
76
1
52
0
41
0.0062
77
0
78
1
53
45
43
0
44
0
45
-0.0139193969876572
46
0.0139193969876572
79
0
47
0
98
1
10
0
20
0
0
HATCH
5
109
100
AcDbEntity
8
2
62
256
6
ByLayer
370
13
48
1
60
0
100
AcDbHatch
10
0
20
0
30
0
210
0
220
0
230
1
2
ANSI31
70
0
71
0
91
1
92
5
93
3
72
1
10
48.651
20
-0.999999999999972
11
49.1117837415528
21
-4.49999830744679
72
1
10
49.1117837415528
20
-4.49999830744679
11
48.1902162584472
21
-4.50000169255316
72
1
10
48.1902162584472
20
-4.50000169255316
11
48.651
21
-0.999999999999972
97
0
75
0
76
1
52
0
41
0.0062
77
0
78
1
53
45
43
0
44
0
45
-0.0139193969876572
46
0.0139193969876572
79
0
47
0
98
1
10
0
20
0
0
HATCH
5
10F
100
AcDbEntity
8
SK2
62
256
6
ByLayer
370
13
48
1
60
0
100
AcDbHatch
10
0
20
0
30
0
210
0
220
0
230
1
2
ANSI31
70
0
71
0
91
1
92
5
93
3
72
1
10
-26.349
20
1.49999999999997
11
-26.8097837415528
21
4.99999830744679
72
1
10
-26.8097837415528
20
4.99999830744679
11
-25.8882162584472
21
5.00000169255316
72
1
10
-25.8882162584472
20
5.00000169255316
11
-26.349
21
1.49999999999997
97
0
75
0
76
1
52
0
41
0.0062
77
0
78
1
53
45
43
0
44
0
45
-0.0139193969876572
46
0.0139193969876572
79
0
47
0
98
1
10
0
20
0
0
HATCH
5
113
100
AcDbEntity
8
SK2
62
256
6
ByLayer
370
13
48
1
60
0
100
AcDbHatch
10
0
20
0
30
0
210
0
220
0
230
1
2
ANSI31
70
0
71
0
91
1
92
5
93
3
72
1
10
-26.349
20
-1.50000000000003
11
-25.8882162584472
21
-4.99999830744684
72
1
10
-25.8882162584472
20
-4.99999830744684
11
-26.8097837415528
21
-5.00000169255321
72
1
10
-26.8097837415528
20
-5.00000169255321
11
-26.349
21
-1.50000000000003
97
0
75
0
76
1
52
0
41
0.0062
77
0
78
1
53
45
43
0
44
0
45
-0.0139193969876572
46
0.0139193969876572
79
0
47
0
98
1
10
0
20
0
0
DIMENSION
5
117
100
AcDbEntity
8
2
62
256
6
ByLayer
370
18
48
1
60
0
100
AcDbDimension
2
_U0
10
31.05
20
22.25
30
0
11
21.896499
21
22.25
31
0
70
32
71
1
72
1
41
1
210
0
220
0
230
1
3
Standard
100
AcDbAlignedDimension
13
0
23
-1.5
33
0
14
31.05
24
-1
34
0
50
0
100
AcDbRotatedDimension
1001
ACAD
1000
DSTYLE
1002
{
1070
   371
1070
    13
1070
   372
1070
    13
1070
   170
1070
     0
1070
   144
1040
1.0
1070
   277
1070
     2
1070
   284
1070
     8
1070
   278
1070
    46
1070
   146
1040
1.0
1070
   345
1005
16
1070
   347
1005
16
1070
   346
1005
16
1070
   344
1005
0
1070
   343
1005
0
1070
   172
1070
     1
1070
    76
1070
     0
1070
    75
1070
     0
1070
   282
1070
     0
1070
   281
1070
     0
1070
    71
1070
     0
1070
    74
1070
     0
1070
   279
1070
     0
1070
   173
1070
     1
1070
   340
1005
FE
1070
   271
1070
     2
1070
   272
1070
     2
1070
    77
1070
     1
1070
    73
1070
     1
1070
   171
1070
     3
1070
   274
1070
     4
1070
   177
1070
     2
1070
   176
1070
     2
1070
   178
1070
     2
1070
    78
1070
     8
1070
    48
1040
-0.1
1070
    41
1040
3.5
1070
   147
1040
1.75
1070
    42
1040
1.5875
1070
    44
1040
2.0
1070
   140
1040
3.5
1002
}
1001
ACAD_DSTYLE_DIM_LINETYPE
1070
   380
1005
16
1001
ACAD_DSTYLE_DIM_EXT1_LINETYPE
1070
   381
1005
16
1001
ACAD_DSTYLE_DIM_EXT2_LINETYPE
1070
   382
1005
16
0
DIMENSION
5
130
100
AcDbEntity
8
SK2
62
256
6
ByLayer
370
18
48
1
60
0
100
AcDbDimension
2
_U1
10
0
20
-23.25
30
0
11
-7.371501
21
-23.25
31
0
70
32
71
1
72
1
41
1
210
0
220
0
230
1
3
Standard
100
AcDbAlignedDimension
13
-18.349
23
-1.5
33
0
14
0
24
-1.5
34
0
50
0
100
AcDbRotatedDimension
1001
ACAD
1000
DSTYLE
1002
{
1070
   371
1070
    13
1070
   372
1070
    13
1070
   170
1070
     0
1070
   144
1040
1.0
1070
   277
1070
     2
1070
   284
1070
     8
1070
   278
1070
    46
1070
   146
1040
1.0
1070
   345
1005
16
1070
   347
1005
16
1070
   346
1005
16
1070
   344
1005
0
1070
   343
1005
0
1070
   172
1070
     1
1070
    76
1070
     0
1070
    75
1070
     0
1070
   282
1070
     0
1070
   281
1070
     0
1070
    71
1070
     0
1070
    74
1070
     0
1070
   279
1070
     0
1070
   173
1070
     1
1070
   340
1005
FE
1070
   271
1070
     2
1070
   272
1070
     2
1070
    77
1070
     1
1070
    73
1070
     1
1070
   171
1070
     3
1070
   274
1070
     4
1070
   177
1070
     2
1070
   176
1070
     2
1070
   178
1070
     2
1070
    78
1070
     8
1070
    48
1040
-0.1
1070
    41
1040
3.5
1070
   147
1040
1.75
1070
    42
1040
1.5875
1070
    44
1040
2.0
1070
   140
1040
3.5
1002
}
1001
ACAD_DSTYLE_DIM_LINETYPE
1070
   380
1005
16
1001
ACAD_DSTYLE_DIM_EXT1_LINETYPE
1070
   381
1005
16
1001
ACAD_DSTYLE_DIM_EXT2_LINETYPE
1070
   382
1005
16
0
DIMENSION
5
148
100
AcDbEntity
8
SK2
62
256
6
ByLayer
370
18
48
1
60
0
100
AcDbDimension
2
_U2
10
31.651
20
-16.25
30
0
11
43.925733
21
-16.25
31
0
70
32
71
1
72
1
41
1
210
0
220
0
230
1
3
Standard
100
AcDbAlignedDimension
13
7.651
23
-1
33
0
14
31.651
24
-1
34
0
50
0
100
AcDbRotatedDimension
1001
ACAD
1000
DSTYLE
1002
{
1070
   371
1070
    13
1070
   372
1070
    13
1070
   170
1070
     0
1070
   144
1040
1.0
1070
   277
1070
     2
1070
   284
1070
     8
1070
   278
1070
    46
1070
   146
1040
1.0
1070
   345
1005
16
1070
   347
1005
16
1070
   346
1005
16
1070
   344
1005
0
1070
   343
1005
0
1070
   172
1070
     1
1070
    76
1070
     0
1070
    75
1070
     0
1070
   282
1070
     0
1070
   281
1070
     0
1070
    71
1070
     0
1070
    74
1070
     0
1070
   279
1070
     0
1070
   173
1070
     1
1070
   340
1005
FE
1070
   271
1070
     2
1070
   272
1070
     2
1070
    77
1070
     1
1070
    73
1070
     1
1070
   171
1070
     3
1070
   274
1070
     4
1070
   177
1070
     2
1070
   176
1070
     2
1070
   178
1070
     2
1070
    78
1070
     8
1070
    48
1040
-0.1
1070
    41
1040
3.5
1070
   147
1040
1.75
1070
    42
1040
1.5875
1070
    44
1040
2.0
1070
   140
1040
3.5
1002
}
1001
ACAD_DSTYLE_DIM_LINETYPE
1070
   380
1005
16
1001
ACAD_DSTYLE_DIM_EXT1_LINETYPE
1070
   381
1005
16
1001
ACAD_DSTYLE_DIM_EXT2_LINETYPE
1070
   382
1005
16
0
DIMENSION
5
161
100
AcDbEntity
8
SK2
62
256
6
ByLayer
370
18
48
1
60
0
100
AcDbDimension
2
_U3
10
31.651
20
-26.25
30
0
11
47.401
21
-26.25
31
0
70
32
71
1
72
1
41
1
210
0
220
0
230
1
3
Standard
100
AcDbAlignedDimension
13
4.187
23
-1
33
0
14
31.651
24
-1
34
0
50
0
100
AcDbRotatedDimension
1001
ACAD
1000
DSTYLE
1002
{
1070
   371
1070
    13
1070
   372
1070
    13
1070
   170
1070
     0
1070
   144
1040
1.0
1070
   277
1070
     2
1070
   284
1070
     8
1070
   278
1070
    46
1070
   146
1040
1.0
1070
   345
1005
16
1070
   347
1005
16
1070
   346
1005
16
1070
   344
1005
0
1070
   343
1005
0
1070
   172
1070
     1
1070
    76
1070
     0
1070
    75
1070
     0
1070
   282
1070
     0
1070
   281
1070
     0
1070
    71
1070
     0
1070
    74
1070
     0
1070
   279
1070
     0
1070
   173
1070
     1
1070
   340
1005
FE
1070
   271
1070
     2
1070
   272
1070
     2
1070
    77
1070
     1
1070
    73
1070
     1
1070
   171
1070
     3
1070
   274
1070
     4
1070
   177
1070
     2
1070
   176
1070
     2
1070
   178
1070
     2
1070
    78
1070
     8
1070
    48
1040
-0.1
1070
    41
1040
3.5
1070
   147
1040
1.75
1070
    42
1040
1.5875
1070
    44
1040
2.0
1070
   140
1040
3.5
1002
}
1001
ACAD_DSTYLE_DIM_LINETYPE
1070
   380
1005
16
1001
ACAD_DSTYLE_DIM_EXT1_LINETYPE
1070
   381
1005
16
1001
ACAD_DSTYLE_DIM_EXT2_LINETYPE
1070
   382
1005
16
0
DIMENSION
5
17A
100
AcDbEntity
8
SK2
62
256
6
ByLayer
370
18
48
1
60
0
100
AcDbDimension
2
_U4
10
31.651
20
-34.6
30
0
11
6.651
21
-34.6
31
0
70
32
71
1
72
1
41
1
210
0
220
0
230
1
3
Standard
100
AcDbAlignedDimension
13
-18.349
23
1.5
33
0
14
31.651
24
1
34
0
50
0
100
AcDbRotatedDimension
1001
ACAD
1000
DSTYLE
1002
{
1070
   371
1070
    13
1070
   372
1070
    13
1070
     3
1000

1070
   170
1070
     0
1070
   144
1040
1.0
1070
   277
1070
     2
1070
   284
1070
     8
1070
   278
1070
    46
1070
   146
1040
1.0
1070
   345
1005
16
1070
   347
1005
16
1070
   346
1005
16
1070
   344
1005
0
1070
   343
1005
0
1070
   172
1070
     1
1070
    76
1070
     0
1070
    75
1070
     0
1070
   282
1070
     0
1070
   281
1070
     0
1070
    71
1070
     0
1070
    74
1070
     0
1070
   279
1070
     0
1070
   173
1070
     1
1070
   340
1005
FE
1070
   271
1070
     2
1070
   272
1070
     2
1070
    77
1070
     1
1070
    73
1070
     1
1070
   171
1070
     3
1070
   274
1070
     4
1070
   177
1070
     2
1070
   176
1070
     2
1070
   178
1070
     2
1070
    78
1070
     8
1070
    48
1040
-0.1
1070
    41
1040
3.5
1070
   147
1040
1.75
1070
    42
1040
1.5875
1070
    44
1040
2.0
1070
   140
1040
3.5
1002
}
1001
ACAD_DSTYLE_DIM_LINETYPE
1070
   380
1005
16
1001
ACAD_DSTYLE_DIM_EXT1_LINETYPE
1070
   381
1005
16
1001
ACAD_DSTYLE_DIM_EXT2_LINETYPE
1070
   382
1005
16
0
ENDSEC
0
SECTION
2
OBJECTS
0
DICTIONARY
5
204
330
0
100
AcDbDictionary
280
0
281
1
3
ACAD_GROUP
350
205
3
ACAD_MLINESTYLE
350
206
0
DICTIONARY
5
205
330
0
100
AcDbDictionary
280
0
281
1
0
DICTIONARY
5
206
330
0
100
AcDbDictionary
280
0
281
1
3
Standard
350
18
0
MLINESTYLE
5
18
330
206
100
AcDbMlineStyle
2
Standard
70
0
3

62
256
51
90
52
90
71
2
49
-0.5
62
256
6
ByLayer
49
0.5
62
256
6
ByLayer
0
RASTERVARIABLES
5
1f2
330

100
AcDbRasterVariables
90
0
70
1
71
1
72
1
0
ENDSEC
0
EOF
