0
SECTION
2
HEADER
9
$ACADVER
1
AC1015
9
$DWGCODEPAGE
3
ANSI_1252
9
$HANDSEED
5
20d
9
$ANGBASE
50
0
9
$ANGDIR
70
0
9
$ATTMODE
70
1
9
$AUNITS
70
0
9
$AUPREC
70
0
9
$CECOLOR
62
256
9
$CELTSCALE
40
1
9
$CELTYPE
6
ByLayer
9
$CELWEIGHT
370
18
9
$CLAYER
8
0
9
$CMLJUST
70
0
9
$CMLSCALE
40
1
9
$CMLSTYLE
2
Standard
9
$DIMSTYLE
2
Standard
9
$TEXTSIZE
40
0.2
9
$TEXTSTYLE
7
Standard
9
$LUNITS
70
2
9
$LUPREC
70
4
9
$EXTNAMES
290
1
9
$INSUNITS
70
4
9
$LTSCALE
40
1
9
$LWDISPLAY
290
1
9
$PDMODE
70
0
9
$PDSIZE
40
0
9
$PLINEGEN
70
0
0
ENDSEC
0
SECTION
2
CLASSES
0
CLASS
1
RASTERVARIABLES
2
AcDbRasterVariables
3
ISM
90
0
280
0
281
0
0
ENDSEC
0
SECTION
2
TABLES
0
TABLE
2
VPORT
5
203
100
AcDbSymbolTable
0
VPORT
5
1
100
AcDbSymbolTableRecord
100
AcDbViewportTableRecord
2
*Active
70
0
10
0
20
0
11
1
21
1
12
-1
22
1
13
0
23
0
14
0.5
24
0.5
15
10
25
10
16
0
26
0
36
1
17
0
27
0
37
0
0
ENDTAB
0
TABLE
2
LTYPE
5
204
100
AcDbSymbolTable
0
LTYPE
5
14
100
AcDbSymbolTableRecord
100
AcDbLinetypeTableRecord
70
0
2
ByBlock
3

72
65
73
0
40
0
0
LTYPE
5
15
100
AcDbSymbolTableRecord
100
AcDbLinetypeTableRecord
70
0
2
ByLayer
3

72
65
73
0
40
0
0
LTYPE
5
16
100
AcDbSymbolTableRecord
100
AcDbLinetypeTableRecord
70
0
2
Continuous
3
Solid line
72
65
73
0
40
0
0
LTYPE
5
6E
100
AcDbSymbolTableRecord
100
AcDbLinetypeTableRecord
70
0
2
CENTER
3
____ _ ____ _ ____ _ ____
72
65
73
4
40
47.5
49
22
74
0
49
-8.5
74
0
49
8.5
74
0
49
-8.5
74
0
0
LTYPE
5
6F
100
AcDbSymbolTableRecord
100
AcDbLinetypeTableRecord
70
0
2
DASHED
3
__ __ __ __ __ __ __ __ __
72
65
73
2
40
25.72
49
12.86
74
0
49
-12.86
74
0
0
ENDTAB
0
TABLE
2
LAYER
5
205
100
AcDbSymbolTable
0
LAYER
5
10
100
AcDbSymbolTableRecord
100
AcDbLayerTableRecord
2
0
70
0
62
7
6
Continuous
290
1
370
-3
390
0
0
LAYER
5
71
100
AcDbSymbolTableRecord
100
AcDbLayerTableRecord
2
80
70
0
62
-6
6
Continuous
290
1
370
-3
390
0
0
LAYER
5
73
100
AcDbSymbolTableRecord
100
AcDbLayerTableRecord
2
81
70
0
62
-3
6
Continuous
290
1
370
-3
390
0
0
LAYER
5
75
100
AcDbSymbolTableRecord
100
AcDbLayerTableRecord
2
1
70
0
62
4
6
Continuous
290
1
370
-3
390
0
0
LAYER
5
81
100
AcDbSymbolTableRecord
100
AcDbLayerTableRecord
2
4
70
0
62
-2
6
CENTER
290
1
370
-3
390
0
0
LAYER
5
A8
100
AcDbSymbolTableRecord
100
AcDbLayerTableRecord
2
2
70
0
62
7
6
Continuous
290
1
370
-3
390
0
0
LAYER
5
116
100
AcDbSymbolTableRecord
100
AcDbLayerTableRecord
2
Defpoints
70
0
62
7
6
Continuous
290
0
370
-3
390
0
0
LAYER
5
1ef
100
AcDbSymbolTableRecord
100
AcDbLayerTableRecord
2
SK4
70
0
62
2
6
CENTER
290
1
370
-3
390
0
0
LAYER
5
1f0
100
AcDbSymbolTableRecord
100
AcDbLayerTableRecord
2
SK1
70
0
62
4
6
Continuous
290
1
370
-3
390
0
0
LAYER
5
1f1
100
AcDbSymbolTableRecord
100
AcDbLayerTableRecord
2
SK2
70
0
62
7
6
Continuous
290
1
370
-3
390
0
0
LAYER
5
1f2
100
AcDbSymbolTableRecord
100
AcDbLayerTableRecord
2
SK6
70
0
62
5
6
Continuous
290
1
370
-3
390
0
0
ENDTAB
0
TABLE
2
STYLE
5
206
100
AcDbSymbolTable
0
STYLE
5
11
100
AcDbSymbolTableRecord
100
AcDbTextStyleTableRecord
2
Standard
3
txt
70
0
71
0
40
0
41
1
42
0
50
0
0
STYLE
5
FA
100
AcDbSymbolTableRecord
100
AcDbTextStyleTableRecord
2
iso_b_vert
3
simplex.shx
70
0
71
0
40
0
41
1
42
0
50
0
0
STYLE
5
FB
100
AcDbSymbolTableRecord
100
AcDbTextStyleTableRecord
2
DWGDirectTextStyle
3
simplex
70
0
71
0
40
0
41
1
42
0
50
0
0
ENDTAB
0
TABLE
2
DIMSTYLE
5
207
100
AcDbSymbolTable
100
AcDbDimStyleTable
0
DIMSTYLE
105
27
100
AcDbSymbolTableRecord
100
AcDbDimStyleTableRecord
2
Standard
70
0
3
<>
41
0.18
42
0.0625
44
0.18
140
0.18
147
0.09
73
0
74
0
77
1
271
2
275
0
278
52
280
0
340
11
0
ENDTAB
0
TABLE
2
VIEW
5
208
100
AcDbSymbolTable
0
ENDTAB
0
TABLE
2
UCS
5
209
100
AcDbSymbolTable
0
ENDTAB
0
TABLE
2
APPID
5
20a
100
AcDbSymbolTable
0
APPID
5
12
100
AcDbSymbolTableRecord
100
AcDbRegAppTableRecord
2
ACAD
70
0
0
APPID
5
112
100
AcDbSymbolTableRecord
100
AcDbRegAppTableRecord
2
ACAD_DSTYLE_DIMBREAK
70
0
0
APPID
5
1AE
100
AcDbSymbolTableRecord
100
AcDbRegAppTableRecord
2
ACAD_DSTYLE_DIM_LINETYPE
70
0
0
APPID
5
1AF
100
AcDbSymbolTableRecord
100
AcDbRegAppTableRecord
2
ACAD_DSTYLE_DIM_EXT1_LINETYPE
70
0
0
APPID
5
1B0
100
AcDbSymbolTableRecord
100
AcDbRegAppTableRecord
2
ACAD_DSTYLE_DIM_EXT2_LINETYPE
70
0
0
APPID
5
1EB
100
AcDbSymbolTableRecord
100
AcDbRegAppTableRecord
2
ACAD_MLEADERVER
70
0
0
ENDTAB
0
TABLE
2
BLOCK_RECORD
5
20b
100
AcDbSymbolTable
0
BLOCK_RECORD
5
1F
100
AcDbSymbolTableRecord
100
AcDbBlockTableRecord
2
*Model_Space
340
0
70
0
0
BLOCK_RECORD
5
1B
100
AcDbSymbolTableRecord
100
AcDbBlockTableRecord
2
*Paper_Space
340
0
70
0
0
BLOCK_RECORD
5
23
100
AcDbSymbolTableRecord
100
AcDbBlockTableRecord
2
*Paper_Space0
340
0
70
0
0
BLOCK_RECORD
5
117
100
AcDbSymbolTableRecord
100
AcDbBlockTableRecord
2
*D1
340
0
70
0
0
BLOCK_RECORD
5
123
100
AcDbSymbolTableRecord
100
AcDbBlockTableRecord
2
_U0
340
0
70
0
0
BLOCK_RECORD
5
12F
100
AcDbSymbolTableRecord
100
AcDbBlockTableRecord
2
*D3
340
0
70
0
0
BLOCK_RECORD
5
13B
100
AcDbSymbolTableRecord
100
AcDbBlockTableRecord
2
_U1
340
0
70
0
0
BLOCK_RECORD
5
147
100
AcDbSymbolTableRecord
100
AcDbBlockTableRecord
2
*D5
340
0
70
0
0
BLOCK_RECORD
5
154
100
AcDbSymbolTableRecord
100
AcDbBlockTableRecord
2
_U2
340
0
70
0
0
BLOCK_RECORD
5
160
100
AcDbSymbolTableRecord
100
AcDbBlockTableRecord
2
*D7
340
0
70
0
0
BLOCK_RECORD
5
16D
100
AcDbSymbolTableRecord
100
AcDbBlockTableRecord
2
_U3
340
0
70
0
0
BLOCK_RECORD
5
179
100
AcDbSymbolTableRecord
100
AcDbBlockTableRecord
2
*D9
340
0
70
0
0
BLOCK_RECORD
5
185
100
AcDbSymbolTableRecord
100
AcDbBlockTableRecord
2
_U4
340
0
70
0
0
ENDTAB
0
ENDSEC
0
SECTION
2
BLOCKS
0
BLOCK
5
20
100
AcDbEntity
8
0
100
AcDbBlockBegin
2
*Model_Space
70
0
10
0
20
0
30
0
3
*Model_Space
0
ENDBLK
5
21
100
AcDbEntity
8
0
100
AcDbBlockEnd
0
BLOCK
5
1C
100
AcDbEntity
8
0
100
AcDbBlockBegin
2
*Paper_Space
70
0
10
0
20
0
30
0
3
*Paper_Space
0
ENDBLK
5
1D
100
AcDbEntity
8
0
100
AcDbBlockEnd
0
BLOCK
5
24
100
AcDbEntity
8
0
100
AcDbBlockBegin
2
*Paper_Space0
70
0
10
0
20
0
30
0
3
*Paper_Space0
0
ENDBLK
5
25
100
AcDbEntity
8
0
100
AcDbBlockEnd
0
BLOCK
5
118
100
AcDbEntity
8
0
100
AcDbBlockBegin
2
*D1
70
1
10
0
20
0
30
0
3
*D1
0
LINE
5
11A
100
AcDbEntity
8
0
62
256
6
ByLayer
370
-2
48
1
60
0
100
AcDbLine
10
0
20
0.0875
30
0
11
0
21
24.35
31
0
39
0
210
0
220
0
230
1
0
LINE
5
11B
100
AcDbEntity
8
0
62
256
6
ByLayer
370
-2
48
1
60
0
100
AcDbLine
10
28.42
20
0.6875
30
0
11
28.42
21
24.35
31
0
39
0
210
0
220
0
230
1
0
LINE
5
11C
100
AcDbEntity
8
0
62
256
6
ByLayer
370
-2
48
1
60
0
100
AcDbLine
10
3.5
20
22.35
30
0
11
24.92
21
22.35
31
0
39
0
210
0
220
0
230
1
0
SOLID
5
11D
100
AcDbEntity
8
0
62
256
6
ByLayer
370
-1
48
1
60
0
100
AcDbTrace
10
3.5
20
22.933333
30
0
11
3.5
21
21.766667
31
0
12
0
22
22.35
32
0
13
0
23
22.35
33
0
39
0
210
0
220
0
230
1
0
SOLID
5
11E
100
AcDbEntity
8
0
62
256
6
ByLayer
370
-1
48
1
60
0
100
AcDbTrace
10
24.92
20
21.766667
30
0
11
24.92
21
22.933333
31
0
12
28.42
22
22.35
32
0
13
28.42
23
22.35
33
0
39
0
210
0
220
0
230
1
0
MTEXT
5
11F
100
AcDbEntity
8
0
62
256
6
ByLayer
370
18
48
1
60
0
100
AcDbMText
10
21.301199
20
29.35
30
0
210
0
220
0
230
1
1
\A1;28.42
40
3.5
41
0
44
1
50
0
71
5
72
5
7
iso_b_vert
0
POINT
5
120
100
AcDbEntity
8
Defpoints
62
0
6
ByLayer
370
-1
48
1
60
0
100
AcDbPoint
10
0
20
-1.5
30
0
39
0
210
0
220
0
230
1
50
360
0
POINT
5
121
100
AcDbEntity
8
Defpoints
62
0
6
ByLayer
370
-1
48
1
60
0
100
AcDbPoint
10
28.42
20
-0.9
30
0
39
0
210
0
220
0
230
1
50
360
0
POINT
5
122
100
AcDbEntity
8
Defpoints
62
0
6
ByLayer
370
-1
48
1
60
0
100
AcDbPoint
10
28.42
20
22.35
30
0
39
0
210
0
220
0
230
1
50
360
0
ENDBLK
5
119
100
AcDbEntity
8
0
100
AcDbBlockEnd
0
BLOCK
5
12A
100
AcDbEntity
8
0
100
AcDbBlockBegin
2
_U0
70
0
10
0
20
0
30
0
3
_U0
0
MTEXT
5
124
100
AcDbEntity
8
2
62
256
6
ByLayer
370
18
48
1
60
0
100
AcDbMText
10
15.8875
20
23.382634
30
0
210
0
220
0
230
1
1
\W0.7694;28.42
40
3.5
41
0
44
1.084337
50
0
71
7
72
5
7
iso_b_vert
0
LINE
5
125
100
AcDbEntity
8
2
62
256
6
ByLayer
370
13
48
1
60
0
100
AcDbLine
10
0
20
0.0875
30
0
11
0
21
24.35
31
0
39
0
210
0
220
0
230
1
0
LINE
5
126
100
AcDbEntity
8
2
62
256
6
ByLayer
370
13
48
1
60
0
100
AcDbLine
10
28.42
20
0.6875
30
0
11
28.42
21
24.35
31
0
39
0
210
0
220
0
230
1
0
LINE
5
127
100
AcDbEntity
8
2
62
256
6
ByLayer
370
13
48
1
60
0
100
AcDbLine
10
0
20
22.35
30
0
11
28.42
21
22.35
31
0
39
0
210
0
220
0
230
1
0
SOLID
5
128
100
AcDbEntity
8
2
62
256
6
ByLayer
370
18
48
1
60
0
100
AcDbTrace
10
0
20
22.35
30
0
11
3.499998
21
22.810784
31
0
12
3.500002
22
21.889216
32
0
13
3.500002
23
21.889216
33
0
39
0
210
0
220
0
230
1
0
SOLID
5
129
100
AcDbEntity
8
2
62
256
6
ByLayer
370
18
48
1
60
0
100
AcDbTrace
10
28.42
20
22.35
30
0
11
24.920002
21
21.889216
31
0
12
24.919998
22
22.810784
32
0
13
24.919998
23
22.810784
33
0
39
0
210
0
220
0
230
1
0
ENDBLK
5
12B
100
AcDbEntity
8
0
100
AcDbBlockEnd
0
BLOCK
5
130
100
AcDbEntity
8
0
100
AcDbBlockBegin
2
*D3
70
1
10
0
20
0
30
0
3
*D3
0
LINE
5
132
100
AcDbEntity
8
0
62
256
6
ByLayer
370
-2
48
1
60
0
100
AcDbLine
10
-21.039
20
-3.0875
30
0
11
-21.039
21
-25.25
31
0
39
0
210
0
220
0
230
1
0
LINE
5
133
100
AcDbEntity
8
0
62
256
6
ByLayer
370
-2
48
1
60
0
100
AcDbLine
10
0
20
-3.0875
30
0
11
0
21
-25.25
31
0
39
0
210
0
220
0
230
1
0
LINE
5
134
100
AcDbEntity
8
0
62
256
6
ByLayer
370
-2
48
1
60
0
100
AcDbLine
10
-17.539
20
-23.25
30
0
11
-3.5
21
-23.25
31
0
39
0
210
0
220
0
230
1
0
SOLID
5
135
100
AcDbEntity
8
0
62
256
6
ByLayer
370
-1
48
1
60
0
100
AcDbTrace
10
-17.539
20
-22.666667
30
0
11
-17.539
21
-23.833333
31
0
12
-21.039
22
-23.25
32
0
13
-21.039
23
-23.25
33
0
39
0
210
0
220
0
230
1
0
SOLID
5
136
100
AcDbEntity
8
0
62
256
6
ByLayer
370
-1
48
1
60
0
100
AcDbTrace
10
-3.5
20
-23.833333
30
0
11
-3.5
21
-22.666667
31
0
12
0
22
-23.25
32
0
13
0
23
-23.25
33
0
39
0
210
0
220
0
230
1
0
MTEXT
5
137
100
AcDbEntity
8
0
62
256
6
ByLayer
370
18
48
1
60
0
100
AcDbMText
10
-9.877234
20
-16.25
30
0
210
0
220
0
230
1
1
\A1;21.04
40
3.5
41
0
44
1
50
0
71
5
72
5
7
iso_b_vert
0
POINT
5
138
100
AcDbEntity
8
Defpoints
62
0
6
ByLayer
370
-1
48
1
60
0
100
AcDbPoint
10
-21.039
20
-1.5
30
0
39
0
210
0
220
0
230
1
50
360
0
POINT
5
139
100
AcDbEntity
8
Defpoints
62
0
6
ByLayer
370
-1
48
1
60
0
100
AcDbPoint
10
0
20
-1.5
30
0
39
0
210
0
220
0
230
1
50
360
0
POINT
5
13A
100
AcDbEntity
8
Defpoints
62
0
6
ByLayer
370
-1
48
1
60
0
100
AcDbPoint
10
0
20
-23.25
30
0
39
0
210
0
220
0
230
1
50
360
0
ENDBLK
5
131
100
AcDbEntity
8
0
100
AcDbBlockEnd
0
BLOCK
5
142
100
AcDbEntity
8
0
100
AcDbBlockBegin
2
_U1
70
0
10
0
20
0
30
0
3
_U1
0
MTEXT
5
13C
100
AcDbEntity
8
SK2
62
256
6
ByLayer
370
18
48
1
60
0
100
AcDbMText
10
-14.8535
20
-22.217366
30
0
210
0
220
0
230
1
1
\W0.7010;21.04
40
3.5
41
0
44
1.084337
50
0
71
7
72
5
7
iso_b_vert
0
LINE
5
13D
100
AcDbEntity
8
SK2
62
256
6
ByLayer
370
13
48
1
60
0
100
AcDbLine
10
-21.039
20
-3.0875
30
0
11
-21.039
21
-25.25
31
0
39
0
210
0
220
0
230
1
0
LINE
5
13E
100
AcDbEntity
8
SK2
62
256
6
ByLayer
370
13
48
1
60
0
100
AcDbLine
10
0
20
-3.0875
30
0
11
0
21
-25.25
31
0
39
0
210
0
220
0
230
1
0
LINE
5
13F
100
AcDbEntity
8
SK2
62
256
6
ByLayer
370
13
48
1
60
0
100
AcDbLine
10
-21.039
20
-23.25
30
0
11
0
21
-23.25
31
0
39
0
210
0
220
0
230
1
0
SOLID
5
140
100
AcDbEntity
8
SK2
62
256
6
ByLayer
370
18
48
1
60
0
100
AcDbTrace
10
-21.039
20
-23.25
30
0
11
-17.539002
21
-22.789216
31
0
12
-17.538998
22
-23.710784
32
0
13
-17.538998
23
-23.710784
33
0
39
0
210
0
220
0
230
1
0
SOLID
5
141
100
AcDbEntity
8
SK2
62
256
6
ByLayer
370
18
48
1
60
0
100
AcDbTrace
10
0
20
-23.25
30
0
11
-3.499998
21
-23.710784
31
0
12
-3.500002
22
-22.789216
32
0
13
-3.500002
23
-22.789216
33
0
39
0
210
0
220
0
230
1
0
ENDBLK
5
143
100
AcDbEntity
8
0
100
AcDbBlockEnd
0
BLOCK
5
148
100
AcDbEntity
8
0
100
AcDbBlockBegin
2
*D5
70
1
10
0
20
0
30
0
3
*D5
0
LINE
5
14A
100
AcDbEntity
8
0
62
256
6
ByLayer
370
-2
48
1
60
0
100
AcDbLine
10
7.361
20
-2.4875
30
0
11
7.361
21
-18.15
31
0
39
0
210
0
220
0
230
1
0
LINE
5
14B
100
AcDbEntity
8
0
62
256
6
ByLayer
370
-2
48
1
60
0
100
AcDbLine
10
28.961
20
-2.4875
30
0
11
28.961
21
-18.15
31
0
39
0
210
0
220
0
230
1
0
LINE
5
14C
100
AcDbEntity
8
0
62
256
6
ByLayer
370
-2
48
1
60
0
100
AcDbLine
10
28.961
20
-16.15
30
0
11
53.627667
21
-16.15
31
0
39
0
210
0
220
0
230
1
0
LINE
5
14D
100
AcDbEntity
8
0
62
256
6
ByLayer
370
-2
48
1
60
0
100
AcDbLine
10
10.861
20
-16.15
30
0
11
25.461
21
-16.15
31
0
39
0
210
0
220
0
230
1
0
SOLID
5
14E
100
AcDbEntity
8
0
62
256
6
ByLayer
370
-1
48
1
60
0
100
AcDbTrace
10
10.861
20
-15.566667
30
0
11
10.861
21
-16.733333
31
0
12
7.361
22
-16.15
32
0
13
7.361
23
-16.15
33
0
39
0
210
0
220
0
230
1
0
SOLID
5
14F
100
AcDbEntity
8
0
62
256
6
ByLayer
370
-1
48
1
60
0
100
AcDbTrace
10
25.461
20
-16.733333
30
0
11
25.461
21
-15.566667
31
0
12
28.961
22
-16.15
32
0
13
28.961
23
-16.15
33
0
39
0
210
0
220
0
230
1
0
MTEXT
5
150
100
AcDbEntity
8
0
62
256
6
ByLayer
370
18
48
1
60
0
100
AcDbMText
10
43.044333
20
-9.15
30
0
210
0
220
0
230
1
1
\A1;21.6
40
3.5
41
0
44
1
50
0
71
5
72
5
7
iso_b_vert
0
POINT
5
151
100
AcDbEntity
8
Defpoints
62
0
6
ByLayer
370
-1
48
1
60
0
100
AcDbPoint
10
7.361
20
-0.9
30
0
39
0
210
0
220
0
230
1
50
360
0
POINT
5
152
100
AcDbEntity
8
Defpoints
62
0
6
ByLayer
370
-1
48
1
60
0
100
AcDbPoint
10
28.961
20
-0.9
30
0
39
0
210
0
220
0
230
1
50
360
0
POINT
5
153
100
AcDbEntity
8
Defpoints
62
0
6
ByLayer
370
-1
48
1
60
0
100
AcDbPoint
10
28.961
20
-16.15
30
0
39
0
210
0
220
0
230
1
50
360
0
ENDBLK
5
149
100
AcDbEntity
8
0
100
AcDbBlockEnd
0
BLOCK
5
15B
100
AcDbEntity
8
0
100
AcDbBlockBegin
2
_U2
70
0
10
0
20
0
30
0
3
_U2
0
MTEXT
5
155
100
AcDbEntity
8
SK2
62
256
6
ByLayer
370
18
48
1
60
0
100
AcDbMText
10
39.1465
20
-15.117366
30
0
210
0
220
0
230
1
1
\W0.6563;21.6
40
3.5
41
0
44
1.084337
50
0
71
7
72
5
7
iso_b_vert
0
LINE
5
156
100
AcDbEntity
8
SK2
62
256
6
ByLayer
370
13
48
1
60
0
100
AcDbLine
10
7.361
20
-2.4875
30
0
11
7.361
21
-18.15
31
0
39
0
210
0
220
0
230
1
0
LINE
5
157
100
AcDbEntity
8
SK2
62
256
6
ByLayer
370
13
48
1
60
0
100
AcDbLine
10
28.961
20
-2.4875
30
0
11
28.961
21
-18.15
31
0
39
0
210
0
220
0
230
1
0
LINE
5
158
100
AcDbEntity
8
SK2
62
256
6
ByLayer
370
13
48
1
60
0
100
AcDbLine
10
7.361
20
-16.15
30
0
11
46.300532
21
-16.15
31
0
39
0
210
0
220
0
230
1
0
SOLID
5
159
100
AcDbEntity
8
SK2
62
256
6
ByLayer
370
18
48
1
60
0
100
AcDbTrace
10
7.361
20
-16.15
30
0
11
10.860998
21
-15.689216
31
0
12
10.861002
22
-16.610784
32
0
13
10.861002
23
-16.610784
33
0
39
0
210
0
220
0
230
1
0
SOLID
5
15A
100
AcDbEntity
8
SK2
62
256
6
ByLayer
370
18
48
1
60
0
100
AcDbTrace
10
28.961
20
-16.15
30
0
11
25.461002
21
-16.610784
31
0
12
25.460998
22
-15.689216
32
0
13
25.460998
23
-15.689216
33
0
39
0
210
0
220
0
230
1
0
ENDBLK
5
15C
100
AcDbEntity
8
0
100
AcDbBlockEnd
0
BLOCK
5
161
100
AcDbEntity
8
0
100
AcDbBlockBegin
2
*D7
70
1
10
0
20
0
30
0
3
*D7
0
LINE
5
163
100
AcDbEntity
8
0
62
256
6
ByLayer
370
-2
48
1
60
0
100
AcDbLine
10
4.243
20
-2.4875
30
0
11
4.243
21
-28.15
31
0
39
0
210
0
220
0
230
1
0
LINE
5
164
100
AcDbEntity
8
0
62
256
6
ByLayer
370
-2
48
1
60
0
100
AcDbLine
10
28.961
20
-2.4875
30
0
11
28.961
21
-28.15
31
0
39
0
210
0
220
0
230
1
0
LINE
5
165
100
AcDbEntity
8
0
62
256
6
ByLayer
370
-2
48
1
60
0
100
AcDbLine
10
28.961
20
-26.15
30
0
11
56.961
21
-26.15
31
0
39
0
210
0
220
0
230
1
0
LINE
5
166
100
AcDbEntity
8
0
62
256
6
ByLayer
370
-2
48
1
60
0
100
AcDbLine
10
7.743
20
-26.15
30
0
11
25.461
21
-26.15
31
0
39
0
210
0
220
0
230
1
0
SOLID
5
167
100
AcDbEntity
8
0
62
256
6
ByLayer
370
-1
48
1
60
0
100
AcDbTrace
10
7.743
20
-25.566667
30
0
11
7.743
21
-26.733333
31
0
12
4.243
22
-26.15
32
0
13
4.243
23
-26.15
33
0
39
0
210
0
220
0
230
1
0
SOLID
5
168
100
AcDbEntity
8
0
62
256
6
ByLayer
370
-1
48
1
60
0
100
AcDbTrace
10
25.461
20
-26.733333
30
0
11
25.461
21
-25.566667
31
0
12
28.961
22
-26.15
32
0
13
28.961
23
-26.15
33
0
39
0
210
0
220
0
230
1
0
MTEXT
5
169
100
AcDbEntity
8
0
62
256
6
ByLayer
370
18
48
1
60
0
100
AcDbMText
10
44.711
20
-19.15
30
0
210
0
220
0
230
1
1
\A1;24.72
40
3.5
41
0
44
1
50
0
71
5
72
5
7
iso_b_vert
0
POINT
5
16A
100
AcDbEntity
8
Defpoints
62
0
6
ByLayer
370
-1
48
1
60
0
100
AcDbPoint
10
4.243
20
-0.9
30
0
39
0
210
0
220
0
230
1
50
360
0
POINT
5
16B
100
AcDbEntity
8
Defpoints
62
0
6
ByLayer
370
-1
48
1
60
0
100
AcDbPoint
10
28.961
20
-0.9
30
0
39
0
210
0
220
0
230
1
50
360
0
POINT
5
16C
100
AcDbEntity
8
Defpoints
62
0
6
ByLayer
370
-1
48
1
60
0
100
AcDbPoint
10
28.961
20
-26.15
30
0
39
0
210
0
220
0
230
1
50
360
0
ENDBLK
5
162
100
AcDbEntity
8
0
100
AcDbBlockEnd
0
BLOCK
5
174
100
AcDbEntity
8
0
100
AcDbBlockBegin
2
_U3
70
0
10
0
20
0
30
0
3
_U3
0
MTEXT
5
16E
100
AcDbEntity
8
SK2
62
256
6
ByLayer
370
18
48
1
60
0
100
AcDbMText
10
39.1465
20
-25.117366
30
0
210
0
220
0
230
1
1
\W0.7694;24.72
40
3.5
41
0
44
1.084337
50
0
71
7
72
5
7
iso_b_vert
0
LINE
5
16F
100
AcDbEntity
8
SK2
62
256
6
ByLayer
370
13
48
1
60
0
100
AcDbLine
10
4.243
20
-2.4875
30
0
11
4.243
21
-28.15
31
0
39
0
210
0
220
0
230
1
0
LINE
5
170
100
AcDbEntity
8
SK2
62
256
6
ByLayer
370
13
48
1
60
0
100
AcDbLine
10
28.961
20
-2.4875
30
0
11
28.961
21
-28.15
31
0
39
0
210
0
220
0
230
1
0
LINE
5
171
100
AcDbEntity
8
SK2
62
256
6
ByLayer
370
13
48
1
60
0
100
AcDbLine
10
4.243
20
-26.15
30
0
11
50.159398
21
-26.15
31
0
39
0
210
0
220
0
230
1
0
SOLID
5
172
100
AcDbEntity
8
SK2
62
256
6
ByLayer
370
18
48
1
60
0
100
AcDbTrace
10
4.243
20
-26.15
30
0
11
7.742998
21
-25.689216
31
0
12
7.743002
22
-26.610784
32
0
13
7.743002
23
-26.610784
33
0
39
0
210
0
220
0
230
1
0
SOLID
5
173
100
AcDbEntity
8
SK2
62
256
6
ByLayer
370
18
48
1
60
0
100
AcDbTrace
10
28.961
20
-26.15
30
0
11
25.461002
21
-26.610784
31
0
12
25.460998
22
-25.689216
32
0
13
25.460998
23
-25.689216
33
0
39
0
210
0
220
0
230
1
0
ENDBLK
5
175
100
AcDbEntity
8
0
100
AcDbBlockEnd
0
BLOCK
5
17A
100
AcDbEntity
8
0
100
AcDbBlockBegin
2
*D9
70
1
10
0
20
0
30
0
3
*D9
0
LINE
5
17C
100
AcDbEntity
8
0
62
256
6
ByLayer
370
-2
48
1
60
0
100
AcDbLine
10
-21.039
20
-0.0875
30
0
11
-21.039
21
-36.6
31
0
39
0
210
0
220
0
230
1
0
LINE
5
17D
100
AcDbEntity
8
0
62
256
6
ByLayer
370
-2
48
1
60
0
100
AcDbLine
10
28.961
20
-0.6875
30
0
11
28.961
21
-36.6
31
0
39
0
210
0
220
0
230
1
0
LINE
5
17E
100
AcDbEntity
8
0
62
256
6
ByLayer
370
-2
48
1
60
0
100
AcDbLine
10
-17.539
20
-34.6
30
0
11
25.461
21
-34.6
31
0
39
0
210
0
220
0
230
1
0
SOLID
5
17F
100
AcDbEntity
8
0
62
256
6
ByLayer
370
-1
48
1
60
0
100
AcDbTrace
10
-17.539
20
-34.016667
30
0
11
-17.539
21
-35.183333
31
0
12
-21.039
22
-34.6
32
0
13
-21.039
23
-34.6
33
0
39
0
210
0
220
0
230
1
0
SOLID
5
180
100
AcDbEntity
8
0
62
256
6
ByLayer
370
-1
48
1
60
0
100
AcDbTrace
10
25.461
20
-35.183333
30
0
11
25.461
21
-34.016667
31
0
12
28.961
22
-34.6
32
0
13
28.961
23
-34.6
33
0
39
0
210
0
220
0
230
1
0
MTEXT
5
181
100
AcDbEntity
8
0
62
256
6
ByLayer
370
18
48
1
60
0
100
AcDbMText
10
3.961
20
-27.6
30
0
210
0
220
0
230
1
1
\A1;50
40
3.5
41
0
44
1
50
0
71
5
72
5
7
iso_b_vert
0
POINT
5
182
100
AcDbEntity
8
Defpoints
62
0
6
ByLayer
370
-1
48
1
60
0
100
AcDbPoint
10
-21.039
20
1.5
30
0
39
0
210
0
220
0
230
1
50
360
0
POINT
5
183
100
AcDbEntity
8
Defpoints
62
0
6
ByLayer
370
-1
48
1
60
0
100
AcDbPoint
10
28.961
20
0.9
30
0
39
0
210
0
220
0
230
1
50
360
0
POINT
5
184
100
AcDbEntity
8
Defpoints
62
0
6
ByLayer
370
-1
48
1
60
0
100
AcDbPoint
10
28.961
20
-34.6
30
0
39
0
210
0
220
0
230
1
50
360
0
ENDBLK
5
17B
100
AcDbEntity
8
0
100
AcDbBlockEnd
0
BLOCK
5
18E
100
AcDbEntity
8
0
100
AcDbBlockBegin
2
_U4
70
0
10
0
20
0
30
0
3
_U4
0
MTEXT
5
186
100
AcDbEntity
8
SK2
62
256
6
ByLayer
370
18
48
1
60
0
100
AcDbMText
10
-1.268432
20
-33.567366
30
0
210
0
220
0
230
1
1
\W0.7468;50.00
40
3.5
41
0
44
1.084337
50
0
71
7
72
5
7
iso_b_vert
0
MTEXT
5
187
100
AcDbEntity
8
SK2
62
256
6
ByLayer
370
18
48
1
60
0
100
AcDbMText
10
-5.136431
20
-33.567366
30
0
210
0
220
0
230
1
1
\W0.1790;(
40
3.5
41
0
44
1.084337
50
0
71
7
72
5
7
iso_b_vert
0
MTEXT
5
188
100
AcDbEntity
8
SK2
62
256
6
ByLayer
370
18
48
1
60
0
100
AcDbMText
10
13.061432
20
-33.567366
30
0
210
0
220
0
230
1
1
\W0.1969;)
40
3.5
41
0
44
1.084337
50
0
71
7
72
5
7
iso_b_vert
0
LINE
5
189
100
AcDbEntity
8
SK2
62
256
6
ByLayer
370
13
48
1
60
0
100
AcDbLine
10
-21.039
20
-0.0875
30
0
11
-21.039
21
-36.6
31
0
39
0
210
0
220
0
230
1
0
LINE
5
18A
100
AcDbEntity
8
SK2
62
256
6
ByLayer
370
13
48
1
60
0
100
AcDbLine
10
28.961
20
-0.6875
30
0
11
28.961
21
-36.6
31
0
39
0
210
0
220
0
230
1
0
LINE
5
18B
100
AcDbEntity
8
SK2
62
256
6
ByLayer
370
13
48
1
60
0
100
AcDbLine
10
-21.039
20
-34.6
30
0
11
28.961
21
-34.6
31
0
39
0
210
0
220
0
230
1
0
SOLID
5
18C
100
AcDbEntity
8
SK2
62
256
6
ByLayer
370
18
48
1
60
0
100
AcDbTrace
10
-21.039
20
-34.6
30
0
11
-17.539002
21
-34.139216
31
0
12
-17.538998
22
-35.060784
32
0
13
-17.538998
23
-35.060784
33
0
39
0
210
0
220
0
230
1
0
SOLID
5
18D
100
AcDbEntity
8
SK2
62
256
6
ByLayer
370
18
48
1
60
0
100
AcDbTrace
10
28.961
20
-34.6
30
0
11
25.461002
21
-35.060784
31
0
12
25.460998
22
-34.139216
32
0
13
25.460998
23
-34.139216
33
0
39
0
210
0
220
0
230
1
0
ENDBLK
5
18F
100
AcDbEntity
8
0
100
AcDbBlockEnd
0
ENDSEC
0
SECTION
2
ENTITIES
0
ELLIPSE
5
BB
100
AcDbEntity
8
SK1
62
256
6
ByLayer
370
18
48
1
60
0
100
AcDbEllipse
10
28.943231
20
-0.042994
30
0
11
0.0237049370518353
21
0.0422353960900195
31
0
210
0
220
0
230
1
40
0.065341
41
1.21620760510467
42
2.26340515633029
0
ELLIPSE
5
BC
100
AcDbEntity
8
SK1
62
256
6
ByLayer
370
18
48
1
60
0
100
AcDbEllipse
10
28.943231
20
0.042994
30
0
11
0.0237049370482564
21
-0.0422353960840008
31
0
210
0
220
0
230
1
40
0.065341
41
-2.26340515637883
42
-1.21620760499249
0
ELLIPSE
5
BD
100
AcDbEntity
8
SK1
62
256
6
ByLayer
370
13
48
1
60
0
100
AcDbEllipse
10
6.206107
20
0.183847
30
0
11
-0.0245126983335618
21
-0.0435789814062674
31
0
210
0
220
0
230
1
40
0.103274
41
0.255555671873033
42
1.39430930361394
0
ELLIPSE
5
BE
100
AcDbEntity
8
SK1
62
256
6
ByLayer
370
18
48
1
60
0
100
AcDbEllipse
10
4.519854
20
-0.000398
30
0
11
0.555898827891378
21
-0.859099891046302
31
0
210
0
220
0
230
1
40
0.34065
41
-3.09681582531666
42
-1.10469144449516
0
ELLIPSE
5
BF
100
AcDbEntity
8
SK1
62
256
6
ByLayer
370
18
48
1
60
0
100
AcDbEllipse
10
28.961285
20
0.000449
30
0
11
0.547899395217895
21
0.898165867704426
31
0
210
0
220
0
230
1
40
0.104823
41
-3.07785420535311
42
-2.88196470144725
0
ELLIPSE
5
C0
100
AcDbEntity
8
SK1
62
256
6
ByLayer
370
18
48
1
60
0
100
AcDbEllipse
10
28.961732
20
0.000449
30
0
11
0.796112660726147
21
0.809302678648975
31
0
210
0
220
0
230
1
40
0.494576
41
-2.75135696576189
42
-2.68944322254161
0
ELLIPSE
5
C1
100
AcDbEntity
8
SK1
62
256
6
ByLayer
370
18
48
1
60
0
100
AcDbEllipse
10
28.961285
20
-0.000449
30
0
11
0.547899394774336
21
-0.898165866949074
31
0
210
0
220
0
230
1
40
0.104823
41
2.88196470133724
42
3.07785420532568
0
POINT
5
70
100
AcDbEntity
8
80
62
256
6
ByLayer
370
18
48
1
60
0
100
AcDbPoint
10
0
20
0
30
0
39
0
210
0
220
0
230
1
50
360
0
POINT
5
72
100
AcDbEntity
8
81
62
256
6
ByLayer
370
18
48
1
60
0
100
AcDbPoint
10
28.961
20
0
30
0
39
0
210
0
220
0
230
1
50
360
0
POINT
5
74
100
AcDbEntity
8
1
62
256
6
ByLayer
370
18
48
1
60
0
100
AcDbPoint
10
-21.039
20
0
30
0
39
0
210
0
220
0
230
1
50
360
0
POINT
5
76
100
AcDbEntity
8
1
62
256
6
ByLayer
370
18
48
1
60
1
100
AcDbPoint
10
0
20
-1.5
30
0
39
0
210
0
220
0
230
1
50
360
0
POINT
5
77
100
AcDbEntity
8
1
62
256
6
ByLayer
370
18
48
1
60
1
100
AcDbPoint
10
28.42
20
-0.9
30
0
39
0
210
0
220
0
230
1
50
360
0
POINT
5
78
100
AcDbEntity
8
1
62
256
6
ByLayer
370
18
48
1
60
1
100
AcDbPoint
10
-21.039
20
-1.5
30
0
39
0
210
0
220
0
230
1
50
360
0
POINT
5
79
100
AcDbEntity
8
1
62
256
6
ByLayer
370
18
48
1
60
1
100
AcDbPoint
10
0
20
-1.5
30
0
39
0
210
0
220
0
230
1
50
360
0
POINT
5
7A
100
AcDbEntity
8
1
62
256
6
ByLayer
370
18
48
1
60
1
100
AcDbPoint
10
7.361
20
-0.9
30
0
39
0
210
0
220
0
230
1
50
360
0
POINT
5
7B
100
AcDbEntity
8
1
62
256
6
ByLayer
370
18
48
1
60
1
100
AcDbPoint
10
28.961
20
-0.9
30
0
39
0
210
0
220
0
230
1
50
360
0
POINT
5
7C
100
AcDbEntity
8
1
62
256
6
ByLayer
370
18
48
1
60
1
100
AcDbPoint
10
4.243
20
-0.9
30
0
39
0
210
0
220
0
230
1
50
360
0
POINT
5
7D
100
AcDbEntity
8
1
62
256
6
ByLayer
370
18
48
1
60
1
100
AcDbPoint
10
28.961
20
-0.9
30
0
39
0
210
0
220
0
230
1
50
360
0
POINT
5
7E
100
AcDbEntity
8
1
62
256
6
ByLayer
370
18
48
1
60
1
100
AcDbPoint
10
-21.039
20
1.5
30
0
39
0
210
0
220
0
230
1
50
360
0
POINT
5
7F
100
AcDbEntity
8
1
62
256
6
ByLayer
370
18
48
1
60
1
100
AcDbPoint
10
28.961
20
0.9
30
0
39
0
210
0
220
0
230
1
50
360
0
SPLINE
5
C2
100
AcDbEntity
8
SK1
62
256
6
ByLayer
370
13
48
1
60
0
100
AcDbSpline
70
4
71
3
72
12
73
8
40
0
40
0
40
0
40
0
40
0.249999999999999
40
0.249999999999999
40
0.499999999999999
40
0.499999999999999
40
1
40
1
40
1
40
1
41
1
10
4.50824637593456
20
-0.555652606905625
30
0
41
1
10
4.46235433792853
20
-0.438683847580563
30
0
41
1
10
4.41632091157814
20
-0.321681490747892
30
0
41
1
10
4.32393674964894
20
-0.0876045860728993
30
0
41
1
10
4.27758431659026
20
0.0294701551323442
30
0
41
1
10
4.1381515102328
20
0.38077601865993
30
0
41
1
10
4.0447122777002
20
0.615085411860889
30
0
41
1
10
3.95141237958316
20
0.849364271345877
30
0
0
SPLINE
5
C3
100
AcDbEntity
8
SK1
62
256
6
ByLayer
370
13
48
1
60
0
100
AcDbSpline
70
4
71
3
72
12
73
8
40
0
40
0
40
0
40
0
40
0.5
40
0.5
40
0.75
40
0.75
40
1
40
1
40
1
40
1
41
1
10
6.20623410926021
20
0.173704013384111
30
0
41
1
10
6.18552876038234
20
0.182499906159933
30
0
41
1
10
6.16521809137319
20
0.191521252329721
30
0
41
1
10
6.13544820251525
20
0.205658639354027
30
0
41
1
10
6.12564163628659
20
0.210472091546677
30
0
41
1
10
6.10629013689345
20
0.220350593788453
30
0
41
1
10
6.09670280229471
20
0.225439841018471
30
0
41
1
10
6.08740390651536
20
0.230605146072463
30
0
0
SPLINE
5
C4
100
AcDbEntity
8
SK1
62
256
6
ByLayer
370
18
48
1
60
0
100
AcDbSpline
70
4
71
3
72
20
73
16
40
0
40
0
40
0
40
0
40
0.249999999999989
40
0.249999999999989
40
0.374999999999991
40
0.374999999999991
40
0.499999999999992
40
0.499999999999992
40
0.624999999999994
40
0.624999999999994
40
0.687499999999995
40
0.687499999999995
40
0.749999999999996
40
0.749999999999996
40
1
40
1
40
1
40
1
41
1
10
28.3468962174803
20
-0.864703879529884
30
0
41
1
10
28.3130722519388
20
-0.858029665972765
30
0
41
1
10
28.2814452383433
20
-0.847260540098887
30
0
41
1
10
28.2378899524326
20
-0.823865138712989
30
0
41
1
10
28.2240231819329
20
-0.814852041953145
30
0
41
1
10
28.1977675443182
20
-0.7940711751761
30
0
41
1
10
28.1855498759626
20
-0.782427547809391
30
0
41
1
10
28.1632125015945
20
-0.756628589910974
30
0
41
1
10
28.1530649972621
20
-0.742453090110814
30
0
41
1
10
28.1395111504617
20
-0.719106325653456
30
0
41
1
10
28.135271722495
20
-0.710976044464587
30
0
41
1
10
28.1273815366315
20
-0.693979908352162
30
0
41
1
10
28.123719000852
20
-0.685078694949539
30
0
41
1
10
28.1071518076655
20
-0.639126173919692
30
0
41
1
10
28.0993939614459
20
-0.59787742887076
30
0
41
1
10
28.0975303750789
20
-0.551816750932574
30
0
0
SPLINE
5
C5
100
AcDbEntity
8
SK1
62
256
6
ByLayer
370
18
48
1
60
0
100
AcDbSpline
70
4
71
3
72
34
73
30
40
0
40
0
40
0
40
0
40
0.0312499999999973
40
0.0312499999999973
40
0.0624999999999944
40
0.124999999999988
40
0.124999999999988
40
0.156249999999984
40
0.156249999999984
40
0.187499999999981
40
0.187499999999981
40
0.249999999999974
40
0.249999999999974
40
0.312499999999968
40
0.312499999999968
40
0.343749999999964
40
0.343749999999964
40
0.374999999999961
40
0.374999999999961
40
0.499999999999969
40
0.499999999999969
40
0.562499999999973
40
0.562499999999973
40
0.624999999999977
40
0.624999999999977
40
0.749999999999984
40
0.749999999999984
40
0.874999999999992
40
1
40
1
40
1
40
1
41
1
10
27.414847360302
20
0.277205302713924
30
0
41
1
10
27.4138320153143
20
0.265670733391318
30
0
41
1
10
27.4132742487641
20
0.253892167917229
30
0
41
1
10
27.413120910148
20
0.230313097016051
30
0
41
1
10
27.4143166898979
20
0.194978925961891
30
0
41
1
10
27.4196163335634
20
0.159743870489422
30
0
41
1
10
27.4274903381369
20
0.124570990392755
30
0
41
1
10
27.4305447991187
20
0.112857077284616
30
0
41
1
10
27.4374943939395
20
0.0894495548061798
30
0
41
1
10
27.4413666430488
20
0.0778405940979781
30
0
41
1
10
27.453971164635
20
0.0435922314889012
30
0
41
1
10
27.4637275167634
20
0.0213887588301702
30
0
41
1
10
27.485531524875
20
-0.0219536325491561
30
0
41
1
10
27.4975811491485
20
-0.0430916367898533
30
0
41
1
10
27.517159475759
20
-0.0740999264653226
30
0
41
1
10
27.5239191281949
20
-0.0842886291534626
30
0
41
1
10
27.5377611447811
20
-0.104245683134394
30
0
41
1
10
27.5448588604106
20
-0.114038503318113
30
0
41
1
10
27.5811495996433
20
-0.162159590151106
30
0
41
1
10
27.6127122749679
20
-0.197997521858298
30
0
41
1
10
27.6628398128893
20
-0.248829133250012
30
0
41
1
10
27.6800199146827
20
-0.265278097769794
30
0
41
1
10
27.7152181937612
20
-0.29729526924396
30
0
41
1
10
27.7331291524316
20
-0.312763165970125
30
0
41
1
10
27.7874809798181
20
-0.357580221909899
30
0
41
1
10
27.8246259017684
20
-0.385437067859954
30
0
41
1
10
27.9003772827918
20
-0.437905875795934
30
0
41
1
10
27.977597738396
20
-0.487113065210622
30
0
41
1
10
28.0572097457304
20
-0.531010565437612
30
0
41
1
10
28.0975303750746
20
-0.551816750931437
30
0
0
SPLINE
5
C6
100
AcDbEntity
8
SK1
62
256
6
ByLayer
370
13
48
1
60
0
100
AcDbSpline
70
4
71
3
72
29
73
25
40
0
40
0
40
0
40
0
40
0.0625
40
0.0625
40
0.125
40
0.125
40
0.1875
40
0.1875
40
0.25
40
0.25
40
0.375
40
0.375
40
0.4375
40
0.4375
40
0.5
40
0.5
40
0.625
40
0.625
40
0.6875
40
0.6875
40
0.75
40
0.75
40
0.875
40
1
40
1
40
1
40
1
41
1
10
6.20656793642792
20
0.834607507002687
30
0
41
1
10
6.20655477101064
20
0.830470225104108
30
0
41
1
10
6.20654205897
20
0.825582345553016
30
0
41
1
10
6.20651785195281
20
0.814359938344666
30
0
41
1
10
6.20650633651556
20
0.808019178832922
30
0
41
1
10
6.20648460384865
20
0.793869794809723
30
0
41
1
10
6.20647443193079
20
0.786084962814726
30
0
41
1
10
6.20645562777909
20
0.769240289124724
30
0
41
1
10
6.20644697080849
20
0.760164885135197
30
0
41
1
10
6.20642313504811
20
0.731009338070919
30
0
41
1
10
6.20641011973828
20
0.709010036788754
30
0
41
1
10
6.20639402146031
20
0.672102189988067
30
0
41
1
10
6.20638920474423
20
0.659097855870158
30
0
41
1
10
6.20638052895512
20
0.631967955335625
30
0
41
1
10
6.20637668259198
20
0.617903027116711
30
0
41
1
10
6.20636607975084
20
0.574246148635154
30
0
41
1
10
6.20636028301715
20
0.543199599713091
30
0
41
1
10
6.20635099151292
20
0.493725563442382
30
0
41
1
10
6.20634778966158
20
0.476748302255828
30
0
41
1
10
6.20634067720454
20
0.44179988225963
30
0
41
1
10
6.20633675234876
20
0.423784095282656
30
0
41
1
10
6.20632330013532
20
0.369097162922486
30
0
41
1
10
6.20630082361626
20
0.293976829299481
30
0
41
1
10
6.20626086046829
20
0.214544264808069
30
0
41
1
10
6.20623410926021
20
0.173704013384111
30
0
0
SPLINE
5
C7
100
AcDbEntity
8
SK1
62
256
6
ByLayer
370
18
48
1
60
0
100
AcDbSpline
70
4
71
3
72
33
73
29
40
0
40
0
40
0
40
0
40
0.0851353844297151
40
0.0851353844297151
40
0.17027076885943
40
0.17027076885943
40
0.255406153289146
40
0.255406153289146
40
0.340541537718861
40
0.340541537718861
40
0.425676922148576
40
0.425676922148576
40
0.468244614363437
40
0.468244614363437
40
0.510812306578299
40
0.595947691008022
40
0.595947691008022
40
0.681083075437746
40
0.681083075437746
40
0.766218459867469
40
0.766218459867469
40
0.851353844297192
40
0.851353844297192
40
0.936489228726916
40
0.936489228726916
40
0.979056920941773
40
0.979056920941773
40
1
40
1
40
1
40
1
41
1
10
27.4148473603019
20
0.277205302713952
30
0
41
1
10
27.3600064906008
20
0.306289462403612
30
0
41
1
10
27.3050700098888
20
0.334909106854667
30
0
41
1
10
27.1948742853893
20
0.390952055696999
30
0
41
1
10
27.1396234960495
20
0.418379260467788
30
0
41
1
10
27.0286164462317
20
0.471668467447813
30
0
41
1
10
26.9732262532242
20
0.497353501935123
30
0
41
1
10
26.8624775712792
20
0.546779491318887
30
0
41
1
10
26.8071315114366
20
0.570514469639448
30
0
41
1
10
26.6963592275113
20
0.615810710570827
30
0
41
1
10
26.6409318136613
20
0.63737223121629
30
0
41
1
10
26.5576446995399
20
0.667947058576573
30
0
41
1
10
26.5298465829048
20
0.677846762867944
30
0
41
1
10
26.474412025013
20
0.696937499072419
30
0
41
1
10
26.3914205011065
20
0.724541191446008
30
0
41
1
10
26.3088435432363
20
0.748916627738794
30
0
41
1
10
26.1989879224103
20
0.778339592329957
30
0
41
1
10
26.1441799928336
20
0.79151700705529
30
0
41
1
10
26.0346067069265
20
0.81467517576607
30
0
41
1
10
25.9798400621096
20
0.824675868486452
30
0
41
1
10
25.8701344823532
20
0.842041617029651
30
0
41
1
10
25.8152011269899
20
0.849401800171051
30
0
41
1
10
25.7051064507188
20
0.861066731416457
30
0
41
1
10
25.6499481263825
20
0.865370693016928
30
0
41
1
10
25.5669463391261
20
0.869220919326381
30
0
41
1
10
25.5392294059609
20
0.870075170557556
30
0
41
1
10
25.4978015202629
20
0.870612589515787
30
0
41
1
10
25.4841522818345
20
0.870666312266195
30
0
41
1
10
25.4705123679973
20
0.8706016026768
30
0
0
SPLINE
5
C8
100
AcDbEntity
8
SK1
62
256
6
ByLayer
370
18
48
1
60
0
100
AcDbSpline
70
4
71
3
72
90
73
86
40
0
40
0
40
0
40
0
40
0.0037322769042926
40
0.0037322769042926
40
0.017062054529001
40
0.017062054529001
40
0.0437216097784175
40
0.0437216097784175
40
0.0703811650278341
40
0.0703811650278341
40
0.0970407202772506
40
0.0970407202772506
40
0.123700275526667
40
0.123700275526667
40
0.150359830776084
40
0.150359830776084
40
0.163689608400791
40
0.163689608400791
40
0.177019386025498
40
0.177019386025498
40
0.203678941274912
40
0.203678941274912
40
0.230338496524326
40
0.230338496524326
40
0.25699805177374
40
0.25699805177374
40
0.270327829398448
40
0.270327829398448
40
0.283657607023156
40
0.283657607023156
40
0.336976717521989
40
0.336976717521989
40
0.363636272771406
40
0.363636272771406
40
0.390295828020823
40
0.390295828020823
40
0.443614938519656
40
0.443614938519656
40
0.456944716144362
40
0.456944716144362
40
0.470274493769068
40
0.470274493769068
40
0.496934049018481
40
0.496934049018481
40
0.523593604267894
40
0.523593604267894
40
0.550253159517306
40
0.550253159517306
40
0.576912714766719
40
0.576912714766719
40
0.603572270016132
40
0.603572270016132
40
0.630231825265544
40
0.630231825265544
40
0.656891380514957
40
0.656891380514957
40
0.68355093576437
40
0.68355093576437
40
0.696880713389074
40
0.696880713389074
40
0.710210491013779
40
0.710210491013779
40
0.73687004626319
40
0.73687004626319
40
0.7635296015126
40
0.7635296015126
40
0.79018915676201
40
0.79018915676201
40
0.81684871201142
40
0.81684871201142
40
0.84350826726083
40
0.84350826726083
40
0.87016782251024
40
0.87016782251024
40
0.896827377759651
40
0.896827377759651
40
0.910157155384356
40
0.910157155384356
40
0.92348693300906
40
0.92348693300906
40
0.95014648825847
40
0.95014648825847
40
0.976806043507881
40
0.976806043507881
40
1
40
1
40
1
40
1
41
1
10
21.8926901048998
20
-0.575881090286344
30
0
41
1
10
21.8849441404263
20
-0.57910900945771
30
0
41
1
10
21.8771945381023
20
-0.582316513916652
30
0
41
1
10
21.8417495201536
20
-0.596883324188525
30
0
41
1
10
21.8139651893521
20
-0.60801168674962
30
0
41
1
10
21.7307805792183
20
-0.640369299762796
30
0
41
1
10
21.6756331970909
20
-0.660501505371059
30
0
41
1
10
21.5656299380241
20
-0.698040678202972
30
0
41
1
10
21.5107250776054
20
-0.715569701632603
30
0
41
1
10
21.4009920648572
20
-0.74816298332513
30
0
41
1
10
21.3461965036826
20
-0.763147635100353
30
0
41
1
10
21.2366515092943
20
-0.790261731197603
30
0
41
1
10
21.1818941531384
20
-0.802410098310503
30
0
41
1
10
21.0723115529857
20
-0.823429731482662
30
0
41
1
10
21.0174943150973
20
-0.832245870540874
30
0
41
1
10
20.9350665481952
20
-0.842888552442815
30
0
41
1
10
20.9075525312989
20
-0.846041599350372
30
0
41
1
10
20.8524238433379
20
-0.851702733694367
30
0
41
1
10
20.8248114800591
20
-0.854194087565247
30
0
41
1
10
20.7418240842293
20
-0.860599186332877
30
0
41
1
10
20.6862133335883
20
-0.863447497996759
30
0
41
1
10
20.5753238717517
20
-0.865937085633874
30
0
41
1
10
20.519959473619
20
-0.865603067988275
30
0
41
1
10
20.4093264395539
20
-0.861338865426376
30
0
41
1
10
20.3540707335844
20
-0.857316581213667
30
0
41
1
10
20.2710941685631
20
-0.848517202517883
30
0
41
1
10
20.2434174470019
20
-0.845137638119468
30
0
41
1
10
20.1879943911175
20
-0.837693343912321
30
0
41
1
10
20.1602279824384
20
-0.833636427376547
30
0
41
1
10
20.0216879541996
20
-0.811693020937639
30
0
41
1
10
19.9115180581372
20
-0.788753316895821
30
0
41
1
10
19.7469069779374
20
-0.745235994059499
30
0
41
1
10
19.6921404579587
20
-0.729188290007841
30
0
41
1
10
19.5826290648871
20
-0.694132656990632
30
0
41
1
10
19.5278670633504
20
-0.675232250406651
30
0
41
1
10
19.363268814594
20
-0.615577752803887
30
0
41
1
10
19.2531724650199
20
-0.571645249217994
30
0
41
1
10
19.1145843333998
20
-0.510631321488887
30
0
41
1
10
19.0867855316431
20
-0.498110451702814
30
0
41
1
10
19.031304345392
20
-0.472565432444014
30
0
41
1
10
19.0036014555264
20
-0.459532732875886
30
0
41
1
10
18.9205788302715
20
-0.419670487619754
30
0
41
1
10
18.8653337996038
20
-0.392104528718164
30
0
41
1
10
18.7546816672541
20
-0.336132960479233
30
0
41
1
10
18.6992807517747
20
-0.307724845630531
30
0
41
1
10
18.5883237602749
20
-0.249878684528625
30
0
41
1
10
18.5326668356535
20
-0.220381250626076
30
0
41
1
10
18.4219237870385
20
-0.160842223247414
30
0
41
1
10
18.3667709336129
20
-0.130777751587431
30
0
41
1
10
18.2568195177765
20
-0.0702330300406118
30
0
41
1
10
18.2020326362733
20
-0.0397357194959227
30
0
41
1
10
18.0925041728556
20
0.0211358672123936
30
0
41
1
10
18.0377544203854
20
0.0515012265184396
30
0
41
1
10
17.9282112975111
20
0.111943152465756
30
0
41
1
10
17.8734305758999
20
0.142035200642965
30
0
41
1
10
17.7636324351158
20
0.201588543214797
30
0
41
1
10
17.708607876167
20
0.231045443740072
30
0
41
1
10
17.6258375395494
20
0.274664876229707
30
0
41
1
10
17.598208300494
20
0.289108967403536
30
0
41
1
10
17.5428543595941
20
0.317770326320357
30
0
41
1
10
17.5151011862803
20
0.332002578071496
30
0
41
1
10
17.4318973753293
20
0.374190718591222
30
0
41
1
10
17.376573389658
20
0.401604387699649
30
0
41
1
10
17.2660696720102
20
0.454700355197701
30
0
41
1
10
17.2108802045391
20
0.480366629498377
30
0
41
1
10
17.1004105099499
20
0.529733831814838
30
0
41
1
10
17.0451226445935
20
0.553488987763984
30
0
41
1
10
16.9343068402447
20
0.598940223287457
30
0
41
1
10
16.8789465090509
20
0.620441351362985
30
0
41
1
10
16.768353099953
20
0.661054415522159
30
0
41
1
10
16.713080313067
20
0.68019797232111
30
0
41
1
10
16.6024410915076
20
0.716145581132537
30
0
41
1
10
16.5470846779851
20
0.732916647709231
30
0
41
1
10
16.4362413842704
20
0.763600799877821
30
0
41
1
10
16.380728112326
20
0.777523533368651
30
0
41
1
10
16.2977541000427
20
0.795860924126288
30
0
41
1
10
16.2701281989525
20
0.801541926677857
30
0
41
1
10
16.2149343463173
20
0.811909675457855
30
0
41
1
10
16.1873589590097
20
0.816622255155067
30
0
41
1
10
16.1045822338419
20
0.829780355192895
30
0
41
1
10
16.0493431881062
20
0.837200063569753
30
0
41
1
10
15.9386613423591
20
0.849304691708852
30
0
41
1
10
15.8831482869855
20
0.853996784961794
30
0
41
1
10
15.7795664899946
20
0.859720946023515
30
0
41
1
10
15.7314588401837
20
0.861153894535164
30
0
41
1
10
15.6834002632596
20
0.861183564555603
30
0
0
SPLINE
5
C9
100
AcDbEntity
8
SK1
62
256
6
ByLayer
370
18
48
1
60
0
100
AcDbSpline
70
4
71
3
72
78
73
74
40
0
40
0
40
0
40
0
40
0.0141399954015513
40
0.0141399954015513
40
0.0423074241043656
40
0.0423074241043656
40
0.0704748528071803
40
0.0704748528071803
40
0.0986422815099946
40
0.0986422815099946
40
0.154977138915627
40
0.154977138915627
40
0.169060853267034
40
0.169060853267034
40
0.183144567618441
40
0.183144567618441
40
0.211311996321255
40
0.211311996321255
40
0.23947942502407
40
0.23947942502407
40
0.267646853726885
40
0.267646853726885
40
0.295814282429699
40
0.295814282429699
40
0.309897996781105
40
0.309897996781105
40
0.323981711132511
40
0.323981711132511
40
0.352149139835323
40
0.352149139835323
40
0.380316568538137
40
0.380316568538137
40
0.40848399724095
40
0.40848399724095
40
0.436651425943762
40
0.436651425943762
40
0.450735140295169
40
0.450735140295169
40
0.464818854646575
40
0.464818854646575
40
0.49298628334939
40
0.49298628334939
40
0.549321140755017
40
0.549321140755017
40
0.563404855106423
40
0.563404855106423
40
0.577488569457829
40
0.577488569457829
40
0.605655998160641
40
0.605655998160641
40
0.661990855566262
40
0.661990855566262
40
0.718325712971885
40
0.718325712971885
40
0.73240942732329
40
0.73240942732329
40
0.746493141674695
40
0.746493141674695
40
0.774660570377507
40
0.774660570377507
40
0.83099542778313
40
0.83099542778313
40
0.859162856485942
40
0.859162856485942
40
0.887330285188753
40
0.887330285188753
40
0.915497713891565
40
0.915497713891565
40
0.943665142594377
40
0.943665142594377
40
0.971832571297188
40
0.971832571297188
40
1
40
1
40
1
40
1
41
1
10
12.1040873978339
20
-0.569859614394858
30
0
41
1
10
12.0766164735299
20
-0.581107780923332
30
0
41
1
10
12.049143062512
20
-0.592077154082318
30
0
41
1
10
11.9668785320448
20
-0.624071327165638
30
0
41
1
10
11.912023298505
20
-0.64433087578081
30
0
41
1
10
11.8020837504616
20
-0.682403700098661
30
0
41
1
10
11.7469971415175
20
-0.700131648757178
30
0
41
1
10
11.6363942068797
20
-0.733129739232908
30
0
41
1
10
11.5807921263902
20
-0.748517767529648
30
0
41
1
10
11.4144201967536
20
-0.79060508488709
30
0
41
1
10
11.3038579540417
20
-0.813123567254877
30
0
41
1
10
11.1655619694931
20
-0.832231256186788
30
0
41
1
10
11.1378959369796
20
-0.835589057042824
30
0
41
1
10
11.0825257864635
20
-0.841284817515742
30
0
41
1
10
11.0547973069598
20
-0.843602937218805
30
0
41
1
10
10.9716818698337
20
-0.849655379299122
30
0
41
1
10
10.9163083267877
20
-0.852624458605334
30
0
41
1
10
10.8058467745565
20
-0.855548379640339
30
0
41
1
10
10.7507286789289
20
-0.855585198649976
30
0
41
1
10
10.6406719573643
20
-0.852592134130759
30
0
41
1
10
10.5857465989019
20
-0.849528603089908
30
0
41
1
10
10.476014919464
20
-0.839835035614044
30
0
41
1
10
10.4212022654003
20
-0.833191204247555
30
0
41
1
10
10.3389398572197
20
-0.820460700077064
30
0
41
1
10
10.3115037937159
20
-0.815810913252534
30
0
41
1
10
10.2565614258774
20
-0.805925623521119
30
0
41
1
10
10.2290609133766
20
-0.800649252778783
30
0
41
1
10
10.1464679545113
20
-0.78355826162894
30
0
41
1
10
10.0912705588245
20
-0.770555258680048
30
0
41
1
10
9.9804540750518
20
-0.741796897171838
30
0
41
1
10
9.92474325775058
20
-0.726003197347524
30
0
41
1
10
9.8135153751748
20
-0.692231974501027
30
0
41
1
10
9.75794683342789
20
-0.674242184293121
30
0
41
1
10
9.64689137819261
20
-0.635718618168426
30
0
41
1
10
9.59140161833028
20
-0.615185156914151
30
0
41
1
10
9.50812392569
20
-0.582356143011424
30
0
41
1
10
9.48035752241742
20
-0.571076608094586
30
0
41
1
10
9.42479242061245
20
-0.547819253258098
30
0
41
1
10
9.39697871529103
20
-0.53581784910574
30
0
41
1
10
9.3135430850019
20
-0.498997449608908
30
0
41
1
10
9.25801952872791
20
-0.473507570536953
30
0
41
1
10
9.09136188116986
20
-0.395309005723078
30
0
41
1
10
8.98029664770439
20
-0.340450044897608
30
0
41
1
10
8.84103544646393
20
-0.268651273830926
30
0
41
1
10
8.81313430084305
20
-0.25411541635296
30
0
41
1
10
8.75749091272263
20
-0.224864318228526
30
0
41
1
10
8.72973021900182
20
-0.210141618401508
30
0
41
1
10
8.64659324437255
20
-0.165752480568216
30
0
41
1
10
8.5913593362489
20
-0.13587007957463
30
0
41
1
10
8.42599086817799
20
-0.0457979771376529
30
0
41
1
10
8.31619969835467
20
0.0148326329873498
30
0
41
1
10
8.09617184616246
20
0.134791150420028
30
0
41
1
10
7.98598065537095
20
0.194209671496992
30
0
41
1
10
7.84743785815971
20
0.266651087245293
30
0
41
1
10
7.81968901748246
20
0.281047482864011
30
0
41
1
10
7.76408428177328
20
0.309606162462728
30
0
41
1
10
7.73619966405983
20
0.323781334496204
30
0
41
1
10
7.65266274531842
20
0.365737984545064
30
0
41
1
10
7.59705975144135
20
0.392984492877105
30
0
41
1
10
7.43027511700649
20
0.472364927619651
30
0
41
1
10
7.31912308753982
20
0.522151475484208
30
0
41
1
10
7.15180056454375
20
0.590435630344587
30
0
41
1
10
7.0961655925912
20
0.611996319608039
30
0
41
1
10
6.98505234284391
20
0.652443152881688
30
0
41
1
10
6.92954633587937
20
0.671382060373986
30
0
41
1
10
6.81841188907921
20
0.706913740726009
30
0
41
1
10
6.76279291341604
20
0.72346869184625
30
0
41
1
10
6.65137793539733
20
0.753863654612502
30
0
41
1
10
6.59554499429163
20
0.767716119834375
30
0
41
1
10
6.48422955750129
20
0.792301544300273
30
0
41
1
10
6.42866946362398
20
0.803056659847869
30
0
41
1
10
6.31761514869444
20
0.821299300806317
30
0
41
1
10
6.2621253684629
20
0.828774375802539
30
0
41
1
10
6.20656793644133
20
0.834607507007746
30
0
0
SPLINE
5
CA
100
AcDbEntity
8
SK1
62
256
6
ByLayer
370
18
48
1
60
0
100
AcDbSpline
70
4
71
3
72
38
73
34
40
0
40
0
40
0
40
0
40
0.0312500000000016
40
0.0312500000000016
40
0.0625000000000031
40
0.0625000000000031
40
0.125000000000006
40
0.156250000000008
40
0.156250000000008
40
0.187500000000009
40
0.187500000000009
40
0.250000000000012
40
0.250000000000012
40
0.312500000000015
40
0.312500000000015
40
0.343750000000017
40
0.343750000000017
40
0.375000000000018
40
0.375000000000018
40
0.437500000000021
40
0.437500000000021
40
0.500000000000024
40
0.500000000000024
40
0.531250000000026
40
0.531250000000026
40
0.562500000000027
40
0.62500000000003
40
0.62500000000003
40
0.75000000000002
40
0.75000000000002
40
0.87500000000001
40
0.87500000000001
40
1
40
1
40
1
40
1
41
1
10
28.3117661960362
20
0.392112178588718
30
0
41
1
10
28.3077907697951
20
0.381849723442684
30
0
41
1
10
28.3035067966558
20
0.371730773910684
30
0
41
1
10
28.2942504907531
20
0.351813031915583
30
0
41
1
10
28.2892991754349
20
0.342063824089252
30
0
41
1
10
28.2735710180895
20
0.31374359884984
30
0
41
1
10
28.2560202318297
20
0.287113722300035
30
0
41
1
10
28.2355583271296
20
0.263183685092969
30
0
41
1
10
28.2212476779392
20
0.247851125059157
30
0
41
1
10
28.2137246819466
20
0.240466474870999
30
0
41
1
10
28.1903756798029
20
0.219501866715518
30
0
41
1
10
28.1738621617512
20
0.207150284181154
30
0
41
1
10
28.1390238683885
20
0.185553103964708
30
0
41
1
10
28.1206912857224
20
0.176320894511434
30
0
41
1
10
28.0919046682108
20
0.16468083198842
30
0
41
1
10
28.082094188108
20
0.161169565118485
30
0
41
1
10
28.0623632923237
20
0.15492620141913
30
0
41
1
10
28.0524059495966
20
0.152178096500592
30
0
41
1
10
28.0222838576817
20
0.144950357291464
30
0
41
1
10
28.0018703381331
20
0.141482040644348
30
0
41
1
10
27.9604777260684
20
0.136844611799802
30
0
41
1
10
27.9394966322849
20
0.135683635286028
30
0
41
1
10
27.9076335649855
20
0.135533423789411
30
0
41
1
10
27.8969416049803
20
0.135750731648812
30
0
41
1
10
27.875627912269
20
0.136672595711985
30
0
41
1
10
27.843688017477
20
0.138784198806604
30
0
41
1
10
27.8118314244083
20
0.142876951005149
30
0
41
1
10
27.7482133777964
20
0.153325140762718
30
0
41
1
10
27.7059268025674
20
0.163274293249884
30
0
41
1
10
27.6215671244187
20
0.188249569740037
30
0
41
1
10
27.5793726403736
20
0.203312155988385
30
0
41
1
10
27.4963179408935
20
0.237344198867959
30
0
41
1
10
27.4553361104194
20
0.256367560213022
30
0
41
1
10
27.4148473603019
20
0.277205302713952
30
0
0
SPLINE
5
CB
100
AcDbEntity
8
SK1
62
256
6
ByLayer
370
18
48
1
60
0
100
AcDbSpline
70
4
71
3
72
14
73
10
40
0
40
0
40
0
40
0
40
0.25
40
0.25
40
0.5
40
0.5
40
0.75
40
0.75
40
1
40
1
40
1
40
1
41
1
10
28.3372260355696
20
0.40628135170013
30
0
41
1
10
28.3346469768074
20
0.406038696139206
30
0
41
1
10
28.3321036694003
20
0.405618352567359
30
0
41
1
10
28.3271036504813
20
0.404345364677312
30
0
41
1
10
28.3246140055158
20
0.403479022842021
30
0
41
1
10
28.319967684991
20
0.401214652733046
30
0
41
1
10
28.3177668732808
20
0.399790643725822
30
0
41
1
10
28.3141048389662
20
0.396366600821011
30
0
41
1
10
28.3126263867609
20
0.394332737647886
30
0
41
1
10
28.3117661960341
20
0.392112178589656
30
0
0
SPLINE
5
CC
100
AcDbEntity
8
SK1
62
256
6
ByLayer
370
18
48
1
60
0
100
AcDbSpline
70
4
71
3
72
14
73
10
40
0
40
0
40
0
40
0
40
0.25
40
0.25
40
0.5
40
0.5
40
0.75
40
0.75
40
1
40
1
40
1
40
1
41
1
10
28.7302231504332
20
0.466576010752931
30
0
41
1
10
28.6982696295497
20
0.45908425913612
30
0
41
1
10
28.6659450002538
20
0.452361312284239
30
0
41
1
10
28.6008462203207
20
0.440097770839429
30
0
41
1
10
28.5681610066215
20
0.434607738380635
30
0
41
1
10
28.5025250259031
20
0.424882356449785
30
0
41
1
10
28.4695823816131
20
0.420608628809276
30
0
41
1
10
28.4035238460283
20
0.412879728796753
30
0
41
1
10
28.3704123586421
20
0.409403748893567
30
0
41
1
10
28.3372260355695
20
0.406281351700159
30
0
0
SPLINE
5
CD
100
AcDbEntity
8
SK1
62
256
6
ByLayer
370
18
48
1
60
0
100
AcDbSpline
70
4
71
3
72
10
73
6
40
0
40
0
40
0
40
0
40
0.5
40
0.5
40
1
40
1
40
1
40
1
41
1
10
28.4559179243443
20
0.882359819138628
30
0
41
1
10
28.5011999844194
20
0.81501959419478
30
0
41
1
10
28.5467027700508
20
0.746715112963415
30
0
41
1
10
28.6381704921317
20
0.608087209695555
30
0
41
1
10
28.6841531324333
20
0.537736163243579
30
0
41
1
10
28.7302231504332
20
0.466576010752817
30
0
0
SPLINE
5
CE
100
AcDbEntity
8
SK1
62
256
6
ByLayer
370
18
48
1
60
0
100
AcDbSpline
70
4
71
3
72
12
73
8
40
0
40
0
40
0
40
0
40
0.500000000000035
40
0.500000000000035
40
0.750000000000017
40
0.750000000000017
40
1
40
1
40
1
40
1
41
1
10
6.20656793642794
20
0.834607507009139
30
0
41
1
10
6.18663140043165
20
0.836700700052916
30
0
41
1
10
6.16662129464714
20
0.840724680030092
30
0
41
1
10
6.13669370850621
20
0.850135938366009
30
0
41
1
10
6.12672064979441
20
0.853845057932915
30
0
41
1
10
6.10689830762846
20
0.862522249380277
30
0
41
1
10
6.09722219555493
20
0.867413872345423
30
0
41
1
10
6.08780301758711
20
0.872880526373024
30
0
0
SPLINE
5
CF
100
AcDbEntity
8
SK1
62
256
6
ByLayer
370
18
48
1
60
0
100
AcDbSpline
70
4
71
3
72
22
73
18
40
0
40
0
40
0
40
0
40
0.205577011060687
40
0.205577011060687
40
0.332319723597558
40
0.332319723597558
40
0.45906243613443
40
0.45906243613443
40
0.585805148671301
40
0.585805148671301
40
0.649176504939737
40
0.649176504939737
40
0.712547861208173
40
0.712547861208173
40
0.966033286281929
40
0.966033286281929
40
1
40
1
40
1
40
1
41
1
10
9.74169910613747
20
0.752933935010788
30
0
41
1
10
9.83540954158192
20
0.72874708315419
30
0
41
1
10
9.92868968852386
20
0.700536678913153
30
0
41
1
10
10.07939201369
20
0.649120489159969
30
0
41
1
10
10.1368644955708
20
0.62815941366236
30
0
41
1
10
10.2519388657713
20
0.583668025986071
30
0
41
1
10
10.309546075586
20
0.56015478949962
30
0
41
1
10
10.4251117206277
20
0.510927141171464
30
0
41
1
10
10.483046950666
20
0.485108745849715
30
0
41
1
10
10.5702894343073
20
0.444744745433269
30
0
41
1
10
10.5994503861474
20
0.431006453239974
30
0
41
1
10
10.6575815443397
20
0.403177410886997
30
0
41
1
10
10.6865890172664
20
0.38906976397638
30
0
41
1
10
10.8313897832839
20
0.31766657620949
30
0
41
1
10
10.9464312541763
20
0.257691153090832
30
0
41
1
10
11.0769237823745
20
0.188176338248525
30
0
41
1
10
11.0923414543623
20
0.179932149398809
30
0
41
1
10
11.1077587037519
20
0.171660905938836
30
0
0
SPLINE
5
D0
100
AcDbEntity
8
SK1
62
256
6
ByLayer
370
13
48
1
60
0
100
AcDbSpline
70
4
71
3
72
12
73
8
40
0
40
0
40
0
40
0
40
0.568987148712028
40
0.568987148712028
40
0.89750213841768
40
0.89750213841768
40
1
40
1
40
1
40
1
41
1
10
11.1077595848643
20
0.171660433228311
30
0
41
1
10
11.207397270366
20
0.118205524553616
30
0
41
1
10
11.3070173064157
20
0.0636206278260261
30
0
41
1
10
11.4647758210811
20
-0.02301359169698
30
0
41
1
10
11.522654250166
20
-0.0548321808448122
30
0
41
1
10
11.5988833031051
20
-0.096501697778649
30
0
41
1
10
11.6170487182442
20
-0.106413681889507
30
0
41
1
10
11.6352116951554
20
-0.116301185236239
30
0
0
SPLINE
5
D1
100
AcDbEntity
8
SK1
62
256
6
ByLayer
370
18
48
1
60
0
100
AcDbSpline
70
4
71
3
72
30
73
26
40
0
40
0
40
0
40
0
40
0.0145714955202172
40
0.0145714955202172
40
0.053325179667387
40
0.053325179667387
40
0.20833991625608
40
0.20833991625608
40
0.363354652844775
40
0.363354652844775
40
0.440862021139126
40
0.440862021139126
40
0.479615705286302
40
0.479615705286302
40
0.518369389433476
40
0.518369389433476
40
0.67338412602217
40
0.67338412602217
40
0.828398862610865
40
0.828398862610865
40
0.905906230905209
40
0.905906230905209
40
0.983413599199551
40
0.983413599199551
40
1
40
1
40
1
40
1
41
1
10
11.6352108168181
20
-0.116300707089891
30
0
41
1
10
11.6461551310692
20
-0.122258538368499
30
0
41
1
10
11.6570985602815
20
-0.12820748131557
30
0
41
1
10
11.6971113275862
20
-0.149923686261928
30
0
41
1
10
11.7261315852965
20
-0.165607080976258
30
0
41
1
10
11.8709843635526
20
-0.243441926890966
30
0
41
1
10
11.9860785536114
20
-0.303805470851842
30
0
41
1
10
12.2160895801627
20
-0.418482709214629
30
0
41
1
10
12.331051019984
20
-0.47270424024822
30
0
41
1
10
12.5041891084591
20
-0.548118022647373
30
0
41
1
10
12.5620207304519
20
-0.572266432890615
30
0
41
1
10
12.6490719871365
20
-0.606796492639745
30
0
41
1
10
12.6781753448622
20
-0.618037380204981
30
0
41
1
10
12.7363314550867
20
-0.639852410361982
30
0
41
1
10
12.7653450754845
20
-0.650414198837694
30
0
41
1
10
12.910161007253
20
-0.701426389355532
30
0
41
1
10
13.0252643641131
20
-0.736390180685873
30
0
41
1
10
13.2552210928948
20
-0.793750627447565
30
0
41
1
10
13.3701271132335
20
-0.816122019203902
30
0
41
1
10
13.5431575175921
20
-0.83964152234131
30
0
41
1
10
13.6009482862107
20
-0.845806778603389
30
0
41
1
10
13.7169243276255
20
-0.854637431321891
30
0
41
1
10
13.7752203018829
20
-0.857288092554995
30
0
41
1
10
13.8455713255964
20
-0.858311939978847
30
0
41
1
10
13.85796361982
20
-0.858410489400256
30
0
41
1
10
13.8703480450002
20
-0.858427489536666
30
0
0
SPLINE
5
D2
100
AcDbEntity
8
SK1
62
256
6
ByLayer
370
18
48
1
60
0
100
AcDbSpline
70
4
71
3
72
20
73
16
40
0
40
0
40
0
40
0
40
0.0372893379566142
40
0.0372893379566142
40
0.333234775512779
40
0.333234775512779
40
0.481207494290855
40
0.481207494290855
40
0.555193853679899
40
0.555193853679899
40
0.629180213068945
40
0.629180213068945
40
0.92512565062511
40
0.92512565062511
40
1
40
1
40
1
40
1
41
1
10
19.6730052889798
20
0.722812811655189
30
0
41
1
10
19.6874780558866
20
0.718442908425999
30
0
41
1
10
19.7019474218087
20
0.71397812374255
30
0
41
1
10
19.8312260133443
20
0.673227969798916
30
0
41
1
10
19.9458807648298
20
0.631135592419412
30
0
41
1
10
20.11858224554
20
0.560298463723171
30
0
41
1
10
20.1762720660518
20
0.535408218656215
30
0
41
1
10
20.2631884098068
20
0.496425507448464
30
0
41
1
10
20.2922642061275
20
0.483138823313141
30
0
41
1
10
20.3502883148112
20
0.456167891049887
30
0
41
1
10
20.3792475723707
20
0.442475168382828
30
0
41
1
10
20.5237932553789
20
0.372990080118768
30
0
41
1
10
20.6386405438859
20
0.314169063750654
30
0
41
1
10
20.7823574716371
20
0.237892019166054
30
0
41
1
10
20.8113663079913
20
0.222357424040808
30
0
41
1
10
20.8403777073028
20
0.206711711655799
30
0
0
SPLINE
5
D3
100
AcDbEntity
8
SK1
62
256
6
ByLayer
370
13
48
1
60
0
100
AcDbSpline
70
4
71
3
72
16
73
12
40
0
40
0
40
0
40
0
40
0.279356528573839
40
0.279356528573839
40
0.466342286609207
40
0.466342286609207
40
0.559835165626892
40
0.559835165626892
40
0.653328044644574
40
0.653328044644574
40
1
40
1
40
1
40
1
41
1
10
20.8403777070654
20
0.206711711783896
30
0
41
1
10
20.9260356349799
20
0.160516790635796
30
0
41
1
10
21.0117159057747
20
0.113353191794943
30
0
41
1
10
21.1553174197686
20
0.0339466575833285
30
0
41
1
10
21.2130333005382
20
0.0018913137941468
30
0
41
1
10
21.2999094387181
20
-0.0463421629168579
30
0
41
1
10
21.3289569637376
20
-0.0624668125985863
30
0
41
1
10
21.3869778849126
20
-0.0946106358775296
30
0
41
1
10
21.4159253355781
20
-0.110615354136627
30
0
41
1
10
21.5519777669359
20
-0.18554149348023
30
0
41
1
10
21.6585035074716
20
-0.243226794422469
30
0
41
1
10
21.7649391031056
20
-0.29864059626567
30
0
0
SPLINE
5
D4
100
AcDbEntity
8
SK1
62
256
6
ByLayer
370
18
48
1
60
0
100
AcDbSpline
70
4
71
3
72
26
73
22
40
0
40
0
40
0
40
0
40
0.0132629085049095
40
0.0132629085049095
40
0.194948980228943
40
0.194948980228943
40
0.28579201609096
40
0.28579201609096
40
0.331213534021969
40
0.331213534021969
40
0.376635051952978
40
0.376635051952978
40
0.558321123677002
40
0.558321123677002
40
0.740007195401029
40
0.740007195401029
40
0.830850231263038
40
0.830850231263038
40
0.921693267125046
40
0.921693267125046
40
1
40
1
40
1
40
1
41
1
10
21.7649391028271
20
-0.29864059612072
30
0
41
1
10
21.7733206433371
20
-0.303004296274082
30
0
41
1
10
21.7817016248428
20
-0.307353910466617
30
0
41
1
10
21.9048877327826
20
-0.371074233697641
30
0
41
1
10
22.0194635991174
20
-0.427980458356018
30
0
41
1
10
22.191947117102
20
-0.508080830207007
30
0
41
1
10
22.2495668241872
20
-0.533884454742434
30
0
41
1
10
22.3363956885914
20
-0.570886323443915
30
0
41
1
10
22.3654216122736
20
-0.58296130058099
30
0
41
1
10
22.4234787434664
20
-0.606498393342576
30
0
41
1
10
22.4524472310055
20
-0.617932687694179
30
0
41
1
10
22.5970329435533
20
-0.673364513299674
30
0
41
1
10
22.7118617192847
20
-0.712156946813224
30
0
41
1
10
22.941113523596
20
-0.777853658528556
30
0
41
1
10
23.0556271329888
20
-0.804619475429519
30
0
41
1
10
23.2282955887957
20
-0.83473846230541
30
0
41
1
10
23.2859680938349
20
-0.843101920521605
30
0
41
1
10
23.4016947064316
20
-0.856372627047108
30
0
41
1
10
23.4598672867155
20
-0.861276448168724
30
0
41
1
10
23.5675055132239
20
-0.867016967994147
30
0
41
1
10
23.6171725162257
20
-0.86835041888591
30
0
41
1
10
23.666735348657
20
-0.868368350692265
30
0
0
SPLINE
5
D5
100
AcDbEntity
8
SK1
62
256
6
ByLayer
370
18
48
1
60
0
100
AcDbSpline
70
4
71
3
72
18
73
14
40
0
40
0
40
0
40
0
40
0.125
40
0.125
40
0.25
40
0.25
40
0.375
40
0.375
40
0.5
40
0.5
40
0.75
40
0.75
40
1
40
1
40
1
40
1
41
1
10
28.3777335762534
20
-0.897790807445176
30
0
41
1
10
28.3788788739002
20
-0.894609509663894
30
0
41
1
10
28.3793036502376
20
-0.891488319585307
30
0
41
1
10
28.378911318899
20
-0.886087271778393
30
0
41
1
10
28.3781734951244
20
-0.88385499567093
30
0
41
1
10
28.3761675373811
20
-0.879948988703319
30
0
41
1
10
28.3749161354003
20
-0.878322127036142
30
0
41
1
10
28.3721317347786
20
-0.875438097352969
30
0
41
1
10
28.3705859853008
20
-0.874182943491576
30
0
41
1
10
28.3657273289504
20
-0.870861490524902
30
0
41
1
10
28.3621883839501
20
-0.869206223542335
30
0
41
1
10
28.3547780090595
20
-0.866515587568074
30
0
41
1
10
28.3508993069079
20
-0.865493777262969
30
0
41
1
10
28.3468962174777
20
-0.864703879529372
30
0
0
SPLINE
5
D6
100
AcDbEntity
8
SK1
62
256
6
ByLayer
370
13
48
1
60
0
100
AcDbSpline
70
4
71
3
72
14
73
10
40
0
40
0
40
0
40
0
40
0.134120207176114
40
0.134120207176114
40
0.268240414352228
40
0.268240414352228
40
0.53648082870446
40
0.53648082870446
40
1
40
1
40
1
40
1
41
1
10
6.20623410926024
20
0.173704013384082
30
0
41
1
10
6.23538738681825
20
0.158217395128901
30
0
41
1
10
6.2645454192498
20
0.142628193554685
30
0
41
1
10
6.32288562129852
20
0.111270349732962
30
0
41
1
10
6.35209180223529
20
0.0954878689988732
30
0
41
1
10
6.43945250369407
20
0.0480913362236208
30
0
41
1
10
6.49742679613698
20
0.0163892612970074
30
0
41
1
10
6.65511622834416
20
-0.0699079829092284
30
0
41
1
10
6.75447517315664
20
-0.124394331787244
30
0
41
1
10
6.8538871114234
20
-0.177667765050899
30
0
0
SPLINE
5
D7
100
AcDbEntity
8
SK1
62
256
6
ByLayer
370
18
48
1
60
0
100
AcDbSpline
70
4
71
3
72
29
73
25
40
0
40
0
40
0
40
0
40
0.0222514793534342
40
0.0222514793534342
40
0.104057754184258
40
0.104057754184258
40
0.185864029015081
40
0.226767166430493
40
0.226767166430493
40
0.267670303845905
40
0.267670303845905
40
0.349476578676728
40
0.349476578676728
40
0.431282853507552
40
0.431282853507552
40
0.513089128338375
40
0.513089128338375
40
0.676701678000025
40
0.676701678000025
40
0.758507952830851
40
0.758507952830851
40
0.840314227661677
40
0.840314227661677
40
1
40
1
40
1
40
1
41
1
10
6.85388691759837
20
-0.17766766118288
30
0
41
1
10
6.86953522337194
20
-0.18605336427953
30
0
41
1
10
6.88518484218173
20
-0.194409014370649
30
0
41
1
10
6.95838608630015
20
-0.233324292682369
30
0
41
1
10
7.01599110177426
20
-0.263443262866417
30
0
41
1
10
7.13137633589793
20
-0.322585675525289
30
0
41
1
10
7.21804384426753
20
-0.366124372332251
30
0
41
1
10
7.30507398576344
20
-0.40813859820932
30
0
41
1
10
7.36319599883012
20
-0.435771488488285
30
0
41
1
10
7.39234295811264
20
-0.449416037902438
30
0
41
1
10
7.47971249068255
20
-0.489610538333721
30
0
41
1
10
7.53769818043975
20
-0.515355330881022
30
0
41
1
10
7.65341351578147
20
-0.56444868541513
30
0
41
1
10
7.71115860036991
20
-0.587779357095684
30
0
41
1
10
7.82649244456775
20
-0.631858167476366
30
0
41
1
10
7.88407107510872
20
-0.65261391316713
30
0
41
1
10
8.05676802213222
20
-0.710803683232655
30
0
41
1
10
8.17182009176528
20
-0.74416092288115
30
0
41
1
10
8.34545211027961
20
-0.784934687000145
30
0
41
1
10
8.40353066390333
20
-0.796973145659081
30
0
41
1
10
8.52020784024288
20
-0.817737345209281
30
0
41
1
10
8.57831099159745
20
-0.826378610975212
30
0
41
1
10
8.74927158908889
20
-0.846720908002766
30
0
41
1
10
8.86160888266815
20
-0.85346900329273
30
0
41
1
10
8.97383489414315
20
-0.853523717084983
30
0
0
SPLINE
5
D8
100
AcDbEntity
8
SK1
62
256
6
ByLayer
370
18
48
1
60
0
100
AcDbSpline
70
4
71
3
72
54
73
50
40
0
40
0
40
0
40
0
40
0.0224383320254782
40
0.0224383320254782
40
0.0432145310088127
40
0.0432145310088127
40
0.0639907299921478
40
0.0639907299921478
40
0.147095525925488
40
0.147095525925488
40
0.230200321858829
40
0.230200321858829
40
0.271752719825499
40
0.271752719825499
40
0.292528918808836
40
0.292528918808836
40
0.313305117792173
40
0.313305117792173
40
0.396409913725533
40
0.396409913725533
40
0.479514709658892
40
0.479514709658892
40
0.521067107625573
40
0.521067107625573
40
0.541843306608914
40
0.541843306608914
40
0.562619505592255
40
0.562619505592255
40
0.60417190355894
40
0.60417190355894
40
0.645724301525626
40
0.645724301525626
40
0.728829097458997
40
0.728829097458997
40
0.770381495425683
40
0.770381495425683
40
0.791157694409026
40
0.791157694409026
40
0.811933893392368
40
0.811933893392368
40
0.853486291359054
40
0.853486291359054
40
0.874262490342398
40
0.874262490342398
40
0.895038689325743
40
0.895038689325743
40
0.978143485259114
40
0.978143485259114
40
1
40
1
40
1
40
1
41
1
10
14.6037073768784
20
0.765973125512744
30
0
41
1
10
14.6348790992217
20
0.75821051980941
30
0
41
1
10
14.6660999327144
20
0.74997849021409
30
0
41
1
10
14.7263543689846
20
0.733236452173628
30
0
41
1
10
14.7553766224333
20
0.72479056348007
30
0
41
1
10
14.8135453245761
20
0.707109169102267
30
0
41
1
10
14.8426226713384
20
0.697893291986816
30
0
41
1
10
14.9876046956658
20
0.650135194939423
30
0
41
1
10
15.102722699971
20
0.606428143824644
30
0
41
1
10
15.3325796433881
20
0.510193965632965
30
0
41
1
10
15.4472734194671
20
0.457537824222328
30
0
41
1
10
15.6200272395009
20
0.373352485223961
30
0
41
1
10
15.6777438498524
20
0.344444337948744
30
0
41
1
10
15.7646027478796
20
0.299904986450798
30
0
41
1
10
15.7936039069176
20
0.284866534368831
30
0
41
1
10
15.8517214512608
20
0.254437814329009
30
0
41
1
10
15.8808296315645
20
0.239050953829093
30
0
41
1
10
16.0258778015856
20
0.161771272549203
30
0
41
1
10
16.1409946944962
20
0.0984785453615018
30
0
41
1
10
16.3708065401539
20
-0.0284087964700461
30
0
41
1
10
16.4855912965496
20
-0.0918378646607323
30
0
41
1
10
16.6582837270285
20
-0.185680170006435
30
0
41
1
10
16.7159446064945
20
-0.216724252276066
30
0
41
1
10
16.8026989636696
20
-0.262717693106708
30
0
41
1
10
16.8316613891657
20
-0.277952488468827
30
0
41
1
10
16.8896985450372
20
-0.308185401192532
30
0
41
1
10
16.9187982642291
20
-0.323195750696328
30
0
41
1
10
17.0058309572367
20
-0.367541214913359
30
0
41
1
10
17.0636657841856
20
-0.39623180300606
30
0
41
1
10
17.1790299679153
20
-0.451765683308196
30
0
41
1
10
17.2365574146368
20
-0.478601188461028
30
0
41
1
10
17.4089283287806
20
-0.55591939324006
30
0
41
1
10
17.5235771878794
20
-0.603240628278002
30
0
41
1
10
17.6961712987409
20
-0.666626856698286
30
0
41
1
10
17.7538057535103
20
-0.686491280978885
30
0
41
1
10
17.8405218375515
20
-0.71422676164994
30
0
41
1
10
17.8694712140302
20
-0.723127322453649
30
0
41
1
10
17.9274791705531
20
-0.740201082377268
30
0
41
1
10
17.9565618625863
20
-0.748378638003857
30
0
41
1
10
18.0437471962555
20
-0.771700339878095
30
0
41
1
10
18.1018390428839
20
-0.785659777193132
30
0
41
1
10
18.1890681876271
20
-0.804124099329442
30
0
41
1
10
18.2181599556979
20
-0.809863756155323
30
0
41
1
10
18.276171524416
20
-0.820452397570818
30
0
41
1
10
18.3051166142892
20
-0.825305178126797
30
0
41
1
10
18.4495952274532
20
-0.847365307013689
30
0
41
1
10
18.564388552432
20
-0.858001682372645
30
0
41
1
10
18.7092584698465
20
-0.862709231546518
30
0
41
1
10
18.7394224573612
20
-0.863215618170983
30
0
41
1
10
18.7695996170986
20
-0.86324855765389
30
0
0
SPLINE
5
D9
100
AcDbEntity
8
SK1
62
256
6
ByLayer
370
18
48
1
60
0
100
AcDbSpline
70
4
71
3
72
48
73
44
40
0
40
0
40
0
40
0
40
0.0398045750264359
40
0.0398045750264359
40
0.0834498216161407
40
0.0834498216161407
40
0.127095068205846
40
0.127095068205846
40
0.214385561385259
40
0.214385561385259
40
0.258030807974966
40
0.258030807974966
40
0.279853431269822
40
0.279853431269822
40
0.301676054564678
40
0.301676054564678
40
0.388966547744095
40
0.388966547744095
40
0.432611794333802
40
0.432611794333802
40
0.476257040923509
40
0.476257040923509
40
0.519902287513216
40
0.541724910808068
40
0.541724910808068
40
0.563547534102919
40
0.563547534102919
40
0.650838027282337
40
0.650838027282337
40
0.694483273872048
40
0.694483273872048
40
0.738128520461758
40
0.738128520461758
40
0.78177376705147
40
0.803596390346323
40
0.803596390346323
40
0.825419013641176
40
0.825419013641176
40
0.869064260230884
40
0.869064260230884
40
0.91270950682059
40
0.91270950682059
40
1
40
1
40
1
40
1
41
1
10
24.3949944225012
20
0.775622230488153
30
0
41
1
10
24.4477521853161
20
0.762346003875962
30
0
41
1
10
24.5007343658617
20
0.747654001878402
30
0
41
1
10
24.6112333291241
20
0.7143410113095
30
0
41
1
10
24.6688228869432
20
0.695511969722077
30
0
41
1
10
24.7838373847494
20
0.655252158707611
30
0
41
1
10
24.8412360784732
20
0.633817486089043
30
0
41
1
10
25.0133447979358
20
0.565897402766154
30
0
41
1
10
25.1278143652705
20
0.515547783455105
30
0
41
1
10
25.3000459434014
20
0.433786384416436
30
0
41
1
10
25.3575662097463
20
0.405548187918072
30
0
41
1
10
25.444228466808
20
0.361985846494832
30
0
41
1
10
25.4731685776027
20
0.347243767912801
30
0
41
1
10
25.5311848024617
20
0.317391321711455
30
0
41
1
10
25.5602187963018
20
0.302308189167661
30
0
41
1
10
25.7049499404494
20
0.226371268924225
30
0
41
1
10
25.8198102816926
20
0.163599580310006
30
0
41
1
10
25.9916729171605
20
0.0681602872504641
30
0
41
1
10
26.0488836267283
20
0.0361233790920323
30
0
41
1
10
26.1634182297486
20
-0.027910459410549
30
0
41
1
10
26.220753953835
20
-0.0598859264851512
30
0
41
1
10
26.3356523686904
20
-0.123590808312201
30
0
41
1
10
26.4219906156066
20
-0.171195506316792
30
0
41
1
10
26.5087514924367
20
-0.218218506326707
30
0
41
1
10
26.5667063022465
20
-0.24940093523287
30
0
41
1
10
26.5957419646311
20
-0.264909377168124
30
0
41
1
10
26.7404039010946
20
-0.341497827073454
30
0
41
1
10
26.8551652082156
20
-0.400086283268593
30
0
41
1
10
27.0269434663074
20
-0.482298343302603
30
0
41
1
10
27.0841387468949
20
-0.508763546439155
30
0
41
1
10
27.1986267368117
20
-0.559508290636018
30
0
41
1
10
27.2559268578762
20
-0.583776072952304
30
0
41
1
10
27.3707431502376
20
-0.629927734957903
30
0
41
1
10
27.4570075191407
20
-0.662767623869115
30
0
41
1
10
27.5436729681308
20
-0.692673089155164
30
0
41
1
10
27.6015589996132
20
-0.711925965040479
30
0
41
1
10
27.6305894714793
20
-0.721219822175669
30
0
41
1
10
27.7173622175735
20
-0.74787827889611
30
0
41
1
10
27.7749125492574
20
-0.764072394842003
30
0
41
1
10
27.889733546212
20
-0.793231208964841
30
0
41
1
10
27.9470300678873
20
-0.806190193033359
30
0
41
1
10
28.1187061338261
20
-0.840012554989158
30
0
41
1
10
28.2327349107286
20
-0.855861269305308
30
0
41
1
10
28.3468962174731
20
-0.864703879530509
30
0
0
SPLINE
5
DA
100
AcDbEntity
8
SK1
62
256
6
ByLayer
370
18
48
1
60
0
100
AcDbSpline
70
4
71
3
72
95
73
91
40
0
40
0
40
0
40
0
40
0.0046940169076398
40
0.0046940169076398
40
0.0313649498648878
40
0.0313649498648878
40
0.0447004163435131
40
0.0447004163435131
40
0.0580358828221383
40
0.0847068157793889
40
0.0847068157793889
40
0.111377748736639
40
0.111377748736639
40
0.13804868169389
40
0.13804868169389
40
0.164719614651141
40
0.164719614651141
40
0.191390547608391
40
0.191390547608391
40
0.204726014087017
40
0.204726014087017
40
0.218061480565642
40
0.218061480565642
40
0.244732413522895
40
0.244732413522895
40
0.271403346480148
40
0.271403346480148
40
0.284738812958776
40
0.284738812958776
40
0.298074279437404
40
0.298074279437404
40
0.324745212394662
40
0.324745212394662
40
0.35141614535192
40
0.35141614535192
40
0.378087078309178
40
0.378087078309178
40
0.404758011266437
40
0.404758011266437
40
0.431428944223695
40
0.431428944223695
40
0.458099877180953
40
0.458099877180953
40
0.471435343659582
40
0.471435343659582
40
0.484770810138211
40
0.484770810138211
40
0.511441743095469
40
0.511441743095469
40
0.538112676052728
40
0.538112676052728
40
0.564783609009986
40
0.564783609009986
40
0.591454541967244
40
0.591454541967244
40
0.618125474924502
40
0.618125474924502
40
0.64479640788176
40
0.64479640788176
40
0.671467340839018
40
0.671467340839018
40
0.698138273796277
40
0.698138273796277
40
0.724809206753535
40
0.724809206753535
40
0.751480139710793
40
0.751480139710793
40
0.778151072668051
40
0.778151072668051
40
0.791486539146682
40
0.791486539146682
40
0.804822005625312
40
0.804822005625312
40
0.831492938582573
40
0.831492938582573
40
0.858163871539834
40
0.858163871539834
40
0.884834804497094
40
0.884834804497094
40
0.911505737454355
40
0.911505737454355
40
0.938176670411616
40
0.938176670411616
40
0.951512136890246
40
0.951512136890246
40
0.964847603368877
40
0.964847603368877
40
0.991518536326138
40
0.991518536326138
40
1
40
1
40
1
40
1
41
1
10
26.7809854812402
20
-0.581104150651015
30
0
41
1
10
26.7712397704096
20
-0.585156900443451
30
0
41
1
10
26.7614931907158
20
-0.589176578046079
30
0
41
1
10
26.6963592275113
20
-0.61581071057077
30
0
41
1
10
26.6409318136613
20
-0.637372231216233
30
0
41
1
10
26.5576446995399
20
-0.667947058576516
30
0
41
1
10
26.5298465829048
20
-0.677846762867887
30
0
41
1
10
26.4744120250131
20
-0.696937499072362
30
0
41
1
10
26.3914205011065
20
-0.724541191445951
30
0
41
1
10
26.3088435432362
20
-0.748916627738737
30
0
41
1
10
26.1989879224103
20
-0.7783395923299
30
0
41
1
10
26.1441799928336
20
-0.791517007055234
30
0
41
1
10
26.0346067069265
20
-0.814675175766013
30
0
41
1
10
25.9798400621096
20
-0.824675868486395
30
0
41
1
10
25.8701344823531
20
-0.842041617029594
30
0
41
1
10
25.8152011269899
20
-0.849401800170995
30
0
41
1
10
25.7051064507188
20
-0.8610667314164
30
0
41
1
10
25.6499481263825
20
-0.865370693016899
30
0
41
1
10
25.5669463391261
20
-0.869220919326324
30
0
41
1
10
25.539229405961
20
-0.870075170557499
30
0
41
1
10
25.4836958499308
20
-0.870795573863774
30
0
41
1
10
25.4559781065104
20
-0.870645591374625
30
0
41
1
10
25.3729078782236
20
-0.868792612139686
30
0
41
1
10
25.3176227438222
20
-0.865739108651269
30
0
41
1
10
25.2069155186348
20
-0.857161669638117
30
0
41
1
10
25.1515187421353
20
-0.851514886764392
30
0
41
1
10
25.068331893714
20
-0.840735324153968
30
0
41
1
10
25.0405878651431
20
-0.836756357629895
30
0
41
1
10
24.9850563794953
20
-0.827983785278377
30
0
41
1
10
24.9572609820917
20
-0.823187486282194
30
0
41
1
10
24.8741502217379
20
-0.807601141507604
30
0
41
1
10
24.8189907167335
20
-0.7956030844162
30
0
41
1
10
24.7091446306876
20
-0.767891120804904
30
0
41
1
10
24.6544147574856
20
-0.752314262687349
30
0
41
1
10
24.5448697526501
20
-0.719338758516102
30
0
41
1
10
24.4900891559075
20
-0.701826295816574
30
0
41
1
10
24.3805209733511
20
-0.664462418413137
30
0
41
1
10
24.3257334387011
20
-0.644604085099502
30
0
41
1
10
24.2160425155558
20
-0.602364637569309
30
0
41
1
10
24.1611384232358
20
-0.579969333579527
30
0
41
1
10
24.0510635254693
20
-0.532695999872288
30
0
41
1
10
23.9958910011649
20
-0.507779121781368
30
0
41
1
10
23.9127713324132
20
-0.468945622049688
30
0
41
1
10
23.8849924699338
20
-0.455757487072674
30
0
41
1
10
23.8295375980922
20
-0.429001215288679
30
0
41
1
10
23.8018347535165
20
-0.415420836151185
30
0
41
1
10
23.7187664030478
20
-0.374141056992187
30
0
41
1
10
23.6634366299748
20
-0.345907440012581
30
0
41
1
10
23.5526997519025
20
-0.288383603519009
30
0
41
1
10
23.4972917914165
20
-0.259110721849169
30
0
41
1
10
23.3862964085469
20
-0.199712088853971
30
0
41
1
10
23.3306842699229
20
-0.169556012097559
30
0
41
1
10
23.2198024025391
20
-0.108778609317028
30
0
41
1
10
23.1644583932171
20
-0.0781212080492253
30
0
41
1
10
23.0538493126006
20
-0.0164497913944217
30
0
41
1
10
22.9985922639487
20
0.0145894973119027
30
0
41
1
10
22.887815203504
20
0.0763504176191532
30
0
41
1
10
22.8322150333077
20
0.107131623145335
30
0
41
1
10
22.7215032565155
20
0.167901742489391
30
0
41
1
10
22.6663200163004
20
0.197917798099979
30
0
41
1
10
22.5562232778379
20
0.257007629408719
30
0
41
1
10
22.5013198111938
20
0.286090923481851
30
0
41
1
10
22.3916785828578
20
0.342960635986401
30
0
41
1
10
22.3369522551688
20
0.370716528914727
30
0
41
1
10
22.2273992982728
20
0.424744833554371
30
0
41
1
10
22.1725590760527
20
0.451047290687484
30
0
41
1
10
22.062647754161
20
0.502083276128303
30
0
41
1
10
22.0075860762055
20
0.526808706274267
30
0
41
1
10
21.9247743736794
20
0.562473669820037
30
0
41
1
10
21.8971325581525
20
0.574122601991206
30
0
41
1
10
21.8417495201536
20
0.596883324188553
30
0
41
1
10
21.8139651893521
20
0.608011686749649
30
0
41
1
10
21.7307805792184
20
0.640369299762824
30
0
41
1
10
21.6756331970909
20
0.660501505371087
30
0
41
1
10
21.5656299380241
20
0.698040678203
30
0
41
1
10
21.5107250776054
20
0.715569701632631
30
0
41
1
10
21.4009920648572
20
0.748162983325187
30
0
41
1
10
21.3461965036826
20
0.763147635100381
30
0
41
1
10
21.2366515092944
20
0.79026173119766
30
0
41
1
10
21.1818941531384
20
0.802410098310531
30
0
41
1
10
21.0723115529857
20
0.823429731482719
30
0
41
1
10
21.0174943150973
20
0.83224587054093
30
0
41
1
10
20.9350665481953
20
0.842888552442872
30
0
41
1
10
20.9075525312989
20
0.846041599350428
30
0
41
1
10
20.8524238433379
20
0.851702733694424
30
0
41
1
10
20.8248114800591
20
0.854194087565276
30
0
41
1
10
20.7418240842294
20
0.860599186332905
30
0
41
1
10
20.6862133335883
20
0.863447497996816
30
0
41
1
10
20.6131369558152
20
0.865088141243319
30
0
41
1
10
20.595513432738
20
0.865324330912557
30
0
41
1
10
20.577896989836
20
0.865393809326321
30
0
0
SPLINE
5
DB
100
AcDbEntity
8
SK1
62
256
6
ByLayer
370
18
48
1
60
0
100
AcDbSpline
70
4
71
3
72
92
73
88
40
0
40
0
40
0
40
0
40
0.0016531746652973
40
0.0016531746652973
40
0.0283169951066331
40
0.0283169951066331
40
0.054980815547969
40
0.054980815547969
40
0.0816446359893052
40
0.0816446359893052
40
0.108308456430641
40
0.108308456430641
40
0.121640366651309
40
0.121640366651309
40
0.134972276871977
40
0.134972276871977
40
0.161636097313313
40
0.161636097313313
40
0.188299917754649
40
0.188299917754649
40
0.214963738195985
40
0.214963738195985
40
0.241627558637321
40
0.241627558637321
40
0.25495946885799
40
0.25495946885799
40
0.268291379078659
40
0.268291379078659
40
0.294955199519998
40
0.294955199519998
40
0.321619019961337
40
0.321619019961337
40
0.348282840402675
40
0.348282840402675
40
0.374946660844014
40
0.374946660844014
40
0.401610481285352
40
0.401610481285352
40
0.428274301726691
40
0.428274301726691
40
0.44160621194736
40
0.44160621194736
40
0.454938122168029
40
0.454938122168029
40
0.481601942609365
40
0.481601942609365
40
0.494933852830033
40
0.494933852830033
40
0.508265763050701
40
0.508265763050701
40
0.534929583492037
40
0.534929583492037
40
0.561593403933373
40
0.561593403933373
40
0.588257224374709
40
0.588257224374709
40
0.601589134595376
40
0.601589134595376
40
0.614921044816043
40
0.614921044816043
40
0.641584865257376
40
0.641584865257376
40
0.66824868569871
40
0.66824868569871
40
0.694912506140043
40
0.694912506140043
40
0.721576326581376
40
0.721576326581376
40
0.774903967464043
40
0.774903967464043
40
0.801567787905375
40
0.801567787905375
40
0.828231608346707
40
0.828231608346707
40
0.854895428788039
40
0.854895428788039
40
0.881559249229371
40
0.881559249229371
40
0.934886890112033
40
0.934886890112033
40
0.948218800332698
40
0.948218800332698
40
0.961550710553363
40
0.961550710553363
40
0.988214530994695
40
0.988214530994695
40
1
40
1
40
1
40
1
41
1
10
17.0000193548554
20
-0.571975746318486
30
0
41
1
10
16.9965849348261
20
-0.573392640954836
30
0
41
1
10
16.9931500693384
20
-0.574805602055278
30
0
41
1
10
16.9343068402447
20
-0.598940223287428
30
0
41
1
10
16.8789465090509
20
-0.620441351362956
30
0
41
1
10
16.768353099953
20
-0.661054415522102
30
0
41
1
10
16.7130803130669
20
-0.680197972321082
30
0
41
1
10
16.6024410915076
20
-0.71614558113248
30
0
41
1
10
16.5470846779851
20
-0.732916647709203
30
0
41
1
10
16.4362413842703
20
-0.763600799877793
30
0
41
1
10
16.380728112326
20
-0.777523533368623
30
0
41
1
10
16.2977541000426
20
-0.795860924126259
30
0
41
1
10
16.2701281989525
20
-0.801541926677828
30
0
41
1
10
16.2149343463173
20
-0.811909675457798
30
0
41
1
10
16.1873589590097
20
-0.816622255155039
30
0
41
1
10
16.1045822338419
20
-0.829780355192867
30
0
41
1
10
16.0493431881062
20
-0.837200063569725
30
0
41
1
10
15.9386613423591
20
-0.849304691708824
30
0
41
1
10
15.8831482869855
20
-0.853996784961765
30
0
41
1
10
15.7723659351212
20
-0.860118864741111
30
0
41
1
10
15.7170843776613
20
-0.861554647071927
30
0
41
1
10
15.6066375457671
20
-0.860649950735791
30
0
41
1
10
15.5514892245579
20
-0.858214603214151
30
0
41
1
10
15.4686605717741
20
-0.852006605135756
30
0
41
1
10
15.4410274313637
20
-0.849563588094128
30
0
41
1
10
15.3856946403185
20
-0.843997600140142
30
0
41
1
10
15.35797421259
20
-0.840862641512672
30
0
41
1
10
15.2749710934409
20
-0.830451890936018
30
0
41
1
10
15.2197839825739
20
-0.822189218741073
30
0
41
1
10
15.1096899206248
20
-0.802795242473451
30
0
41
1
10
15.0547754821845
20
-0.791674311063929
30
0
41
1
10
14.9451708508957
20
-0.76622571344717
30
0
41
1
10
14.8904959560951
20
-0.751808147532671
30
0
41
1
10
14.781140163324
20
-0.720133510492161
30
0
41
1
10
14.7264399665079
20
-0.702993856030503
30
0
41
1
10
14.6168894859105
20
-0.666127415357749
30
0
41
1
10
14.5620548312646
20
-0.646269347144965
30
0
41
1
10
14.4520664913244
20
-0.604128465100132
30
0
41
1
10
14.3969013697256
20
-0.581975851750627
30
0
41
1
10
14.313832661317
20
-0.547337221535656
30
0
41
1
10
14.2860883670882
20
-0.535538518944065
30
0
41
1
10
14.2306963700661
20
-0.511517482775275
30
0
41
1
10
14.2030220087159
20
-0.499285181107155
30
0
41
1
10
14.1200438773975
20
-0.461929954038823
30
0
41
1
10
14.0647856215463
20
-0.436159413283889
30
0
41
1
10
13.9819388663332
20
-0.396132044669031
30
0
41
1
10
13.9543305935489
20
-0.382555462524692
30
0
41
1
10
13.8991108659328
20
-0.354916811461635
30
0
41
1
10
13.8715008678538
20
-0.340842319133628
30
0
41
1
10
13.7886025364883
20
-0.298050440524264
30
0
41
1
10
13.7331835893756
20
-0.26881535105511
30
0
41
1
10
13.6224677155348
20
-0.210034472378766
30
0
41
1
10
13.5671337857283
20
-0.18037607442659
30
0
41
1
10
13.4564569645183
20
-0.12058334995973
30
0
41
1
10
13.4011163598094
20
-0.0904456375047289
30
0
41
1
10
13.3180398343053
20
-0.0449571882854514
30
0
41
1
10
13.2903365713654
20
-0.0297468919212633
30
0
41
1
10
13.2348892824267
20
0.0007457477513242
30
0
41
1
10
13.2071244958552
20
0.0160411956525195
30
0
41
1
10
13.1239753198363
20
0.0618511355166049
30
0
41
1
10
13.068680500132
20
0.09229776288214
30
0
41
1
10
12.9581060366366
20
0.15263686880553
30
0
41
1
10
12.9028378378266
20
0.182539157103207
30
0
41
1
10
12.7922505271336
20
0.241562072950671
30
0
41
1
10
12.7369112300114
20
0.270671480151037
30
0
41
1
10
12.6259566116034
20
0.32782910447338
30
0
41
1
10
12.5706269633694
20
0.355737986722744
30
0
41
1
10
12.4050872315528
20
0.43719480975011
30
0
41
1
10
12.2953543897269
20
0.48853091855463
30
0
41
1
10
12.1311051665612
20
0.559071785622365
30
0
41
1
10
12.0764186586661
20
0.5814691783321
30
0
41
1
10
11.9668785320448
20
0.624071327165638
30
0
41
1
10
11.912023298505
20
0.644330875780838
30
0
41
1
10
11.8020837504616
20
0.682403700098689
30
0
41
1
10
11.7469971415175
20
0.700131648757207
30
0
41
1
10
11.6363942068797
20
0.733129739232936
30
0
41
1
10
11.5807921263902
20
0.748517767529677
30
0
41
1
10
11.4144201967536
20
0.790605084887119
30
0
41
1
10
11.3038579540416
20
0.813123567254905
30
0
41
1
10
11.1655619694931
20
0.832231256186788
30
0
41
1
10
11.1378959369796
20
0.835589057042853
30
0
41
1
10
11.0825257864635
20
0.841284817515771
30
0
41
1
10
11.0547973069598
20
0.843602937218833
30
0
41
1
10
10.9716818698337
20
0.849655379299151
30
0
41
1
10
10.9163083267877
20
0.852624458605362
30
0
41
1
10
10.8366654225795
20
0.854732608981692
30
0
41
1
10
10.8122753084234
20
0.855100374642518
30
0
41
1
10
10.7879052267966
20
0.855180371952798
30
0
0
SPLINE
5
DC
100
AcDbEntity
8
SK1
62
256
6
ByLayer
370
18
48
1
60
0
100
AcDbSpline
70
4
71
3
72
20
73
16
40
0
40
0
40
0
40
0
40
0.0019956261603007
40
0.0019956261603007
40
0.168329688466919
40
0.168329688466919
40
0.334663750773534
40
0.334663750773534
40
0.500997813080152
40
0.500997813080152
40
0.667331875386767
40
0.667331875386767
40
0.833665937693385
40
0.833665937693385
40
1
40
1
40
1
40
1
41
1
10
7.20958218159839
20
-0.566854532526605
30
0
41
1
10
7.20891304822376
20
-0.567127923422646
30
0
41
1
10
7.20824390068077
20
-0.567401161125474
30
0
41
1
10
7.15180056454375
20
-0.590435630344587
30
0
41
1
10
7.09616559259118
20
-0.611996319608039
30
0
41
1
10
6.98505234284391
20
-0.652443152881688
30
0
41
1
10
6.92954633587937
20
-0.671382060373986
30
0
41
1
10
6.81841188907919
20
-0.706913740726009
30
0
41
1
10
6.76279291341604
20
-0.723468691846222
30
0
41
1
10
6.65137793539736
20
-0.753863654612474
30
0
41
1
10
6.59554499429166
20
-0.767716119834375
30
0
41
1
10
6.48422955750129
20
-0.792301544300273
30
0
41
1
10
6.42866946362398
20
-0.80305665984784
30
0
41
1
10
6.31761514869444
20
-0.821299300806317
30
0
41
1
10
6.2621253684629
20
-0.82877437580251
30
0
41
1
10
6.20656793644133
20
-0.834607507007746
30
0
0
SPLINE
5
DD
100
AcDbEntity
8
SK1
62
256
6
ByLayer
370
18
48
1
60
0
100
AcDbSpline
70
4
71
3
72
10
73
6
40
0
40
0
40
0
40
0
40
0.5
40
0.5
40
1
40
1
40
1
40
1
41
1
10
28.4559179243443
20
-0.882359819138571
30
0
41
1
10
28.5011999844194
20
-0.815019594194723
30
0
41
1
10
28.5467027700508
20
-0.746715112963386
30
0
41
1
10
28.6381704921317
20
-0.608087209695526
30
0
41
1
10
28.6841531324332
20
-0.537736163243522
30
0
41
1
10
28.7302231504332
20
-0.46657601075276
30
0
0
SPLINE
5
DE
100
AcDbEntity
8
SK1
62
256
6
ByLayer
370
13
48
1
60
0
100
AcDbSpline
70
4
71
3
72
14
73
10
40
0
40
0
40
0
40
0
40
0.25
40
0.25
40
0.5
40
0.5
40
0.75
40
0.75
40
1
40
1
40
1
40
1
41
1
10
4.02036665417668
20
0.854839076443426
30
0
41
1
10
4.06429881376516
20
0.735632583759667
30
0
41
1
10
4.10767483421924
20
0.616248449884893
30
0
41
1
10
4.19330592891029
20
0.377433951067673
30
0
41
1
10
4.2355587863338
20
0.258015825189574
30
0
41
1
10
4.319738491007
20
0.0196831739423544
30
0
41
1
10
4.36170919851475
20
-0.0992193322592527
30
0
41
1
10
4.44633626018856
20
-0.336280721499719
30
0
41
1
10
4.48899807045962
20
-0.454448350227779
30
0
41
1
10
4.5321114065417
20
-0.572346945293504
30
0
0
SPLINE
5
DF
100
AcDbEntity
8
SK1
62
256
6
ByLayer
370
18
48
1
60
0
100
AcDbSpline
70
4
71
3
72
12
73
8
40
0
40
0
40
0
40
0
40
0.500000000000035
40
0.500000000000035
40
0.750000000000017
40
0.750000000000017
40
1
40
1
40
1
40
1
41
1
10
6.20656793642794
20
-0.834607507009139
30
0
41
1
10
6.18663140043165
20
-0.836700700052916
30
0
41
1
10
6.16662129464714
20
-0.840724680030092
30
0
41
1
10
6.13669370850621
20
-0.850135938366009
30
0
41
1
10
6.12672064979444
20
-0.853845057932887
30
0
41
1
10
6.10689830762846
20
-0.862522249380248
30
0
41
1
10
6.09722219555493
20
-0.867413872345423
30
0
41
1
10
6.08780301758713
20
-0.872880526373024
30
0
0
SPLINE
5
E0
100
AcDbEntity
8
SK1
62
256
6
ByLayer
370
18
48
1
60
0
100
AcDbSpline
70
4
71
3
72
60
73
56
40
0
40
0
40
0
40
0
40
0.0091911030145377
40
0.0091911030145377
40
0.0798924637846574
40
0.0798924637846574
40
0.115243144169717
40
0.115243144169717
40
0.132918484362247
40
0.132918484362247
40
0.150593824554777
40
0.150593824554777
40
0.221295185324894
40
0.221295185324894
40
0.29199654609501
40
0.29199654609501
40
0.362697906865126
40
0.362697906865126
40
0.398048587250186
40
0.398048587250186
40
0.433399267635246
40
0.433399267635246
40
0.468749948020306
40
0.468749948020306
40
0.504100628405366
40
0.504100628405366
40
0.539451308790426
40
0.539451308790426
40
0.574801989175486
40
0.574801989175486
40
0.592477329368014
40
0.592477329368014
40
0.610152669560542
40
0.610152669560542
40
0.645503349945599
40
0.645503349945599
40
0.680854030330656
40
0.680854030330656
40
0.716204710715712
40
0.716204710715712
40
0.786906071485822
40
0.786906071485822
40
0.804581411678351
40
0.804581411678351
40
0.822256751870879
40
0.822256751870879
40
0.857607432255939
40
0.857607432255939
40
0.928308793026062
40
0.928308793026062
40
0.963659473411123
40
0.963659473411123
40
0.999010153796185
40
0.999010153796185
40
1
40
1
40
1
40
1
41
1
10
23.5759506485902
20
-0.895532037990421
30
0
41
1
10
23.5610059290462
20
-0.89551580487867
30
0
41
1
10
23.5460663548332
20
-0.895375503069005
30
0
41
1
10
23.4162313567318
20
-0.893080111774907
30
0
41
1
10
23.3014841439419
20
-0.88374066815669
30
0
41
1
10
23.1286130435206
20
-0.859136253244458
30
0
41
1
10
23.0708815389838
20
-0.849164659838351
30
0
41
1
10
22.9840842504476
20
-0.831504372285849
30
0
41
1
10
22.9551025181221
20
-0.825176518384524
30
0
41
1
10
22.8970283455211
20
-0.811635354699604
30
0
41
1
10
22.8678950935353
20
-0.804407042101218
30
0
41
1
10
22.7224847017486
20
-0.766232177620196
30
0
41
1
10
22.6071474763784
20
-0.729329491515188
30
0
41
1
10
22.3769859291137
20
-0.644724827185343
30
0
41
1
10
22.262212538614
20
-0.596984393860282
30
0
41
1
10
22.0323024016386
20
-0.491729905242067
30
0
41
1
10
21.9168665709848
20
-0.434618856583768
30
0
41
1
10
21.7419049986592
20
-0.343791571626099
30
0
41
1
10
21.6838021625847
20
-0.31289190962778
30
0
41
1
10
21.5681240708803
20
-0.249931682064897
30
0
41
1
10
21.5104675218434
20
-0.217971936734472
30
0
41
1
10
21.3953920060787
20
-0.153318851581474
30
0
41
1
10
21.3379550753875
20
-0.120656725897391
30
0
41
1
10
21.2230537078906
20
-0.0550677232966166
30
0
41
1
10
21.1655836519824
20
-0.0221510832519982
30
0
41
1
10
21.0504782935271
20
0.0437007788927133
30
0
41
1
10
20.9928516966492
20
0.076651471222732
30
0
41
1
10
20.8773510333405
20
0.142429623087281
30
0
41
1
10
20.8194328279068
20
0.175177676285443
30
0
41
1
10
20.7321560152722
20
0.223824968764546
30
0
41
1
10
20.7029897478999
20
0.239966345337052
30
0
41
1
10
20.6448633529173
20
0.271855523269011
30
0
41
1
10
20.6158582988424
20
0.287628435547674
30
0
41
1
10
20.52898231597
20
0.334380807313494
30
0
41
1
10
20.4712483653379
20
0.364790559171524
30
0
41
1
10
20.3559927461975
20
0.423873978544123
30
0
41
1
10
20.2984688101965
20
0.452545874954865
30
0
41
1
10
20.1835815093898
20
0.508073378662345
30
0
41
1
10
20.1262007607276
20
0.534898680944508
30
0
41
1
10
19.9538346348446
20
0.611942338336377
30
0
41
1
10
19.8385820697035
20
0.658675435500214
30
0
41
1
10
19.6932194931955
20
0.710108612761076
30
0
41
1
10
19.664037099028
20
0.720059305760572
30
0
41
1
10
19.6057686184933
20
0.739159432988515
30
0
41
1
10
19.576697390322
20
0.748307139286311
30
0
41
1
10
19.4896661237902
20
0.774550072356391
30
0
41
1
10
19.4319068359332
20
0.790459273026045
30
0
41
1
10
19.2590412113192
20
0.833139486991598
30
0
41
1
10
19.1442709363494
20
0.854803332482732
30
0
41
1
10
18.9716727993547
20
0.876626612219411
30
0
41
1
10
18.9140566246445
20
0.882124483863095
30
0
41
1
10
18.7985911642064
20
0.889524882078575
30
0
41
1
10
18.7407662901098
20
0.891427726343096
30
0
41
1
10
18.681112764302
20
0.891470798705029
30
0
41
1
10
18.6794876257189
20
0.891470499351499
30
0
41
1
10
18.6778622115336
20
0.891468728264414
30
0
0
SPLINE
5
E1
100
AcDbEntity
8
SK1
62
256
6
ByLayer
370
18
48
1
60
0
100
AcDbSpline
70
4
71
3
72
58
73
54
40
0
40
0
40
0
40
0
40
0.0259482391856249
40
0.0259482391856249
40
0.0613966593724733
40
0.0613966593724733
40
0.0968450795593222
40
0.0968450795593222
40
0.114569289652745
40
0.114569289652745
40
0.132293499746167
40
0.132293499746167
40
0.203190340119864
40
0.203190340119864
40
0.274087180493562
40
0.274087180493562
40
0.309535600680412
40
0.309535600680412
40
0.327259810773836
40
0.327259810773836
40
0.344984020867262
40
0.344984020867262
40
0.415880861240958
40
0.415880861240958
40
0.486777701614655
40
0.486777701614655
40
0.522226121801503
40
0.522226121801503
40
0.539950331894927
40
0.539950331894927
40
0.557674541988352
40
0.557674541988352
40
0.593122962175206
40
0.593122962175206
40
0.628571382362059
40
0.628571382362059
40
0.699468222735765
40
0.699468222735765
40
0.734916642922618
40
0.734916642922618
40
0.770365063109473
40
0.770365063109473
40
0.805813483296328
40
0.805813483296328
40
0.841261903483182
40
0.841261903483182
40
0.876710323670037
40
0.876710323670037
40
0.912158743856891
40
0.912158743856891
40
0.983055584230601
40
0.983055584230601
40
1
40
1
40
1
40
1
41
1
10
13.7806278598469
20
-0.88740564225381
30
0
41
1
10
13.7385238709702
20
-0.887370669974331
30
0
41
1
10
13.6964209012417
20
-0.886359632167199
30
0
41
1
10
13.5966831614125
20
-0.881668853239631
30
0
41
1
10
13.5390194617251
20
-0.877148993922162
30
0
41
1
10
13.4233814535536
20
-0.864507623045711
30
0
41
1
10
13.3654029877221
20
-0.856388141526793
30
0
41
1
10
13.2780897604386
20
-0.841513125895347
30
0
41
1
10
13.2488993527793
20
-0.836098673464562
30
0
41
1
10
13.1905266208568
20
-0.824389878256682
30
0
41
1
10
13.1614128936133
20
-0.818109344701213
30
0
41
1
10
13.0161340670617
20
-0.784645035105967
30
0
41
1
10
12.9007874311518
20
-0.751323165211858
30
0
41
1
10
12.6705918405316
20
-0.672966159077106
30
0
41
1
10
12.555629270612
20
-0.62804212862801
30
0
41
1
10
12.3823084658182
20
-0.55337443886674
30
0
41
1
10
12.3243900591197
20
-0.52727164270425
30
0
41
1
10
12.2371867873738
20
-0.486425753750979
30
0
41
1
10
12.2080660576344
20
-0.472526451886665
30
0
41
1
10
12.1497060088117
20
-0.444169410072106
30
0
41
1
10
12.120491497478
20
-0.429720826010339
30
0
41
1
10
11.9749428964553
20
-0.356619966790248
30
0
41
1
10
11.8594656815164
20
-0.295125256900945
30
0
41
1
10
11.6289604943922
20
-0.168700321999722
30
0
41
1
10
11.5139412613519
20
-0.103756443514271
30
0
41
1
10
11.3407762279694
20
-0.0054858564542712
30
0
41
1
10
11.2829436504149
20
0.0274048994426153
30
0
41
1
10
11.1958804891236
20
0.0766776039343142
30
0
41
1
10
11.166807289261
20
0.0930916692148003
30
0
41
1
10
11.1085334985082
20
0.125858047855416
30
0
41
1
10
11.0792858244134
20
0.14223116020338
30
0
41
1
10
10.9917565905574
20
0.191008129514358
30
0
41
1
10
10.9337122287696
20
0.223148838449049
30
0
41
1
10
10.8179240456868
20
0.286129763493619
30
0
41
1
10
10.7601886016503
20
0.316987264730443
30
0
41
1
10
10.5872040842227
20
0.407265372896006
30
0
41
1
10
10.4721702812659
20
0.464379904853615
30
0
41
1
10
10.2990315547918
20
0.543863333760697
30
0
41
1
10
10.2412758640974
20
0.569405975342988
30
0
41
1
10
10.1254022145638
20
0.618156445952479
30
0
41
1
10
10.0672841940861
20
0.641366291493625
30
0
41
1
10
9.95052860053784
20
0.685203486900605
30
0
41
1
10
9.89235935311513
20
0.705638950439095
30
0
41
1
10
9.77639297161889
20
0.743283844409291
30
0
41
1
10
9.7185686996074
20
0.760514414541603
30
0
41
1
10
9.60307409357839
20
0.791708616208012
30
0
41
1
10
9.54539937739082
20
0.805668953646745
30
0
41
1
10
9.43005364804324
20
0.830243534301218
30
0
41
1
10
9.37244837329848
20
0.840898608220243
30
0
41
1
10
9.19942823601355
20
0.867659707091605
30
0
41
1
10
9.0840054467873
20
0.878628909492704
30
0
41
1
10
8.93961460607719
20
0.882953397091796
30
0
41
1
10
8.91167528216988
20
0.883361838850163
30
0
41
1
10
8.88381391578648
20
0.883343413223827
30
0
0
SPLINE
5
E2
100
AcDbEntity
8
SK1
62
256
6
ByLayer
370
18
48
1
60
0
100
AcDbSpline
70
4
71
3
72
16
73
12
40
0
40
0
40
0
40
0
40
0.500000000000005
40
0.500000000000005
40
0.625000000000005
40
0.625000000000005
40
0.687500000000005
40
0.687500000000005
40
0.750000000000005
40
0.750000000000005
40
1
40
1
40
1
40
1
41
1
10
4.5321114065417
20
-0.572346945293532
30
0
41
1
10
4.79368865721261
20
-0.684667224707539
30
0
41
1
10
5.05007528091286
20
-0.770497721893577
30
0
41
1
10
5.37368438238164
20
-0.835812676436177
30
0
41
1
10
5.43855377805335
20
-0.846783951534377
30
0
41
1
10
5.53628502621345
20
-0.859927684731048
30
0
41
1
10
5.56896211606144
20
-0.863760088920287
30
0
41
1
10
5.63435717705462
20
-0.87028342094257
30
0
41
1
10
5.66697006964304
20
-0.872964813604284
30
0
41
1
10
5.82969266746011
20
-0.883487018691
30
0
41
1
10
5.95880342285557
20
-0.882669377465248
30
0
41
1
10
6.08780301758696
20
-0.872880526375212
30
0
0
SPLINE
5
E3
100
AcDbEntity
8
SK1
62
256
6
ByLayer
370
18
48
1
60
0
100
AcDbSpline
70
4
71
3
72
10
73
6
40
0
40
0
40
0
40
0
40
0.5
40
0.5
40
1
40
1
40
1
40
1
41
1
10
4.53211140654173
20
-0.572346945293532
30
0
41
1
10
4.52735299886072
20
-0.570303703081436
30
0
41
1
10
4.52301206524925
20
-0.567861795403388
30
0
41
1
10
4.51504884499388
20
-0.562269991720399
30
0
41
1
10
4.51141753760152
20
-0.559097572051854
30
0
41
1
10
4.50824637593456
20
-0.555652606905653
30
0
0
SPLINE
5
E4
100
AcDbEntity
8
SK1
62
256
6
ByLayer
370
18
48
1
60
0
100
AcDbSpline
70
4
71
3
72
20
73
16
40
0
40
0
40
0
40
0
40
0.125
40
0.125
40
0.25
40
0.25
40
0.375
40
0.375
40
0.5
40
0.5
40
0.625
40
0.625
40
0.75
40
0.75
40
1
40
1
40
1
40
1
41
1
10
3.95141237958316
20
0.849364271345848
30
0
41
1
10
3.95243751488937
20
0.850236699764537
30
0
41
1
10
3.95381089398668
20
0.851046948687099
30
0
41
1
10
3.95732419971256
20
0.852545777714511
30
0
41
1
10
3.95948304036111
20
0.853233395701494
30
0
41
1
10
3.96438823160173
20
0.854412035497376
30
0
41
1
10
3.96720476081464
20
0.854920623327644
30
0
41
1
10
3.9732665861678
20
0.855733415959975
30
0
41
1
10
3.97648715516309
20
0.856039235322299
30
0
41
1
10
3.98329038267048
20
0.856469100920265
30
0
41
1
10
3.98674295770067
20
0.856585075371612
30
0
41
1
10
3.9937330712898
20
0.856648381688643
30
0
41
1
10
3.99726511514189
20
0.856593339352969
30
0
41
1
10
4.00757563703314
20
0.856203918061254
30
0
41
1
10
4.01423832803385
20
0.855643930712944
30
0
41
1
10
4.02036665417668
20
0.854839076443454
30
0
0
SPLINE
5
E5
100
AcDbEntity
8
SK1
62
256
6
ByLayer
370
18
48
1
60
0
100
AcDbSpline
70
4
71
3
72
113
73
109
40
0
40
0
40
0
40
0
40
0.0117538916774428
40
0.0117538916774428
40
0.0422045633992798
40
0.0422045633992798
40
0.0574298992601971
40
0.0574298992601971
40
0.0726552351211143
40
0.0726552351211143
40
0.0878805709820316
40
0.0878805709820316
40
0.103105906842949
40
0.103105906842949
40
0.133556578564784
40
0.133556578564784
40
0.164007250286618
40
0.164007250286618
40
0.179232586147535
40
0.179232586147535
40
0.194457922008453
40
0.194457922008453
40
0.20968325786937
40
0.20968325786937
40
0.224908593730287
40
0.224908593730287
40
0.240133929591204
40
0.240133929591204
40
0.255359265452122
40
0.255359265452122
40
0.285809937173954
40
0.285809937173954
40
0.30103527303487
40
0.30103527303487
40
0.316260608895786
40
0.316260608895786
40
0.331485944756702
40
0.331485944756702
40
0.346711280617618
40
0.346711280617618
40
0.37716195233945
40
0.37716195233945
40
0.392387288200365
40
0.392387288200365
40
0.40761262406128
40
0.40761262406128
40
0.422837959922194
40
0.422837959922194
40
0.438063295783109
40
0.438063295783109
40
0.468513967504941
40
0.468513967504941
40
0.498964639226773
40
0.498964639226773
40
0.529415310948605
40
0.529415310948605
40
0.559865982670437
40
0.559865982670437
40
0.575091318531355
40
0.575091318531355
40
0.590316654392272
40
0.590316654392272
40
0.605541990253189
40
0.605541990253189
40
0.620767326114107
40
0.620767326114107
40
0.651217997835939
40
0.651217997835939
40
0.666443333696853
40
0.666443333696853
40
0.681668669557768
40
0.681668669557768
40
0.712119341279598
40
0.712119341279598
40
0.727344677140514
40
0.727344677140514
40
0.742570013001429
40
0.742570013001429
40
0.773020684723262
40
0.773020684723262
40
0.788246020584178
40
0.788246020584178
40
0.803471356445094
40
0.803471356445094
40
0.81869669230601
40
0.81869669230601
40
0.833922028166926
40
0.833922028166926
40
0.849147364027842
40
0.849147364027842
40
0.864372699888758
40
0.864372699888758
40
0.879598035749674
40
0.879598035749674
40
0.89482337161059
40
0.89482337161059
40
0.910048707471506
40
0.910048707471506
40
0.925274043332422
40
0.925274043332422
40
0.940499379193338
40
0.940499379193338
40
0.955724715054254
40
0.97095005091517
40
0.97095005091517
40
0.986175386776086
40
0.986175386776086
40
1
40
1
40
1
40
1
41
1
10
28.1499006260328
20
-0.899326803366421
30
0
41
1
10
28.1254852051453
20
-0.899302551260888
30
0
41
1
10
28.1010594753174
20
-0.898945133134134
30
0
41
1
10
28.0131668006172
20
-0.896466408295794
30
0
41
1
10
27.9494217495275
20
-0.892476330957948
30
0
41
1
10
27.8535936503166
20
-0.883057539400909
30
0
41
1
10
27.8215734229539
20
-0.879328640158235
30
0
41
1
10
27.7576970399192
20
-0.870807813405321
30
0
41
1
10
27.725792338915
20
-0.866022823653168
30
0
41
1
10
27.6620853843961
20
-0.855414513004973
30
0
41
1
10
27.6302851576101
20
-0.849590205465887
30
0
41
1
10
27.5668378472574
20
-0.83687667724837
30
0
41
1
10
27.535206303858
20
-0.829974548285492
30
0
41
1
10
27.4403555199476
20
-0.807785175432713
30
0
41
1
10
27.3770640990574
20
-0.791122910176881
30
0
41
1
10
27.2506696906995
20
-0.753886759817675
30
0
41
1
10
27.1876525178522
20
-0.733196756312594
30
0
41
1
10
27.0926830221436
20
-0.699756452490846
30
0
41
1
10
27.0609797062454
20
-0.688186055518798
30
0
41
1
10
26.9975276849189
20
-0.664137306217725
30
0
41
1
10
26.9657909907084
20
-0.651643255981924
30
0
41
1
10
26.9022465572812
20
-0.625752785953097
30
0
41
1
10
26.8704139762559
20
-0.612387206182405
30
0
41
1
10
26.8065264413
20
-0.584951258824645
30
0
41
1
10
26.7744307166153
20
-0.570840129638498
30
0
41
1
10
26.7103882461067
20
-0.541957552885719
30
0
41
1
10
26.6784626233473
20
-0.52717549952493
30
0
41
1
10
26.6148095526699
20
-0.496918141858345
30
0
41
1
10
26.5830579906552
20
-0.481478206767633
30
0
41
1
10
26.4878105177115
20
-0.434568665435165
30
0
41
1
10
26.4243915158753
20
-0.402411132720289
30
0
41
1
10
26.3296070613294
20
-0.352498163941277
30
0
41
1
10
26.2980551245563
20
-0.335602142212935
30
0
41
1
10
26.2348901702488
20
-0.301535828236325
30
0
41
1
10
26.203283678868
20
-0.284355643530546
30
0
41
1
10
26.1400271498391
20
-0.24969779850224
30
0
41
1
10
26.1083787425742
20
-0.232217803109791
30
0
41
1
10
26.0451154677465
20
-0.196824683170803
30
0
41
1
10
26.0135010368064
20
-0.178909290001627
30
0
41
1
10
25.9184499025962
20
-0.124954636771434
30
0
41
1
10
25.8547853808984
20
-0.0887513896353767
30
0
41
1
10
25.7590026913036
20
-0.0337943610237232
30
0
41
1
10
25.7269980391019
20
-0.0153352098885478
30
0
41
1
10
25.6629839945319
20
0.0216020477704149
30
0
41
1
10
25.63106072503
20
0.0400271086261057
30
0
41
1
10
25.567303164244
20
0.0766516781671953
30
0
41
1
10
25.535458939216
20
0.0948337375519372
30
0
41
1
10
25.4718865011336
20
0.131029387935825
30
0
41
1
10
25.4401731030869
20
0.149068957035354
30
0
41
1
10
25.3451627991794
20
0.202854575510685
30
0
41
1
10
25.2819297653244
20
0.238151673744227
30
0
41
1
10
25.1554228974961
20
0.3072148075982
30
0
41
1
10
25.0923035128622
20
0.341238857287181
30
0
41
1
10
24.965826528719
20
0.407413556460909
30
0
41
1
10
24.9023806933677
20
0.439429842912801
30
0
41
1
10
24.7752653204243
20
0.501607748585968
30
0
41
1
10
24.711545930059
20
0.531683663786083
30
0
41
1
10
24.6153437659254
20
0.57468432114635
30
0
41
1
10
24.5833176857336
20
0.588637315120735
30
0
41
1
10
24.5194958926199
20
0.615794644820426
30
0
41
1
10
24.4876722593354
20
0.628990722688002
30
0
41
1
10
24.4241170807263
20
0.654516374925919
30
0
41
1
10
24.3923840593716
20
0.666844315147699
30
0
41
1
10
24.3289372818432
20
0.690563856536585
30
0
41
1
10
24.2972321061696
20
0.701967530865005
30
0
41
1
10
24.2022587898415
20
0.73491567530985
30
0
41
1
10
24.1391316985323
20
0.755179504369181
30
0
41
1
10
24.0442837940776
20
0.782593923687983
30
0
41
1
10
24.0126371458214
20
0.791235426844992
30
0
41
1
10
23.9493517019197
20
0.807582583798165
30
0
41
1
10
23.9177165862317
20
0.815288941731694
30
0
41
1
10
23.8227169990367
20
0.836898118226117
30
0
41
1
10
23.7592139915361
20
0.849260517691022
30
0
41
1
10
23.6634854999716
20
0.864593506404589
30
0
41
1
10
23.631511915287
20
0.869178575969357
30
0
41
1
10
23.5674602227709
20
0.877287107935103
30
0
41
1
10
23.53542822142
20
0.880806894955157
30
0
41
1
10
23.4396481548614
20
0.889626982766458
30
0
41
1
10
23.3759070171547
20
0.893214999764211
30
0
41
1
10
23.2807125208528
20
0.895304771291819
30
0
41
1
10
23.2490585221764
20
0.895446388688924
30
0
41
1
10
23.1857969637034
20
0.894613985316937
30
0
41
1
10
23.1541651051444
20
0.893642310378084
30
0
41
1
10
23.0908677122719
20
0.890613175499766
30
0
41
1
10
23.0592178516253
20
0.888554773247876
30
0
41
1
10
22.9959607147498
20
0.883339072915192
30
0
41
1
10
22.9643618560658
20
0.880177750187642
30
0
41
1
10
22.9011610570983
20
0.872750213315868
30
0
41
1
10
22.8695340172162
20
0.868492447108082
30
0
41
1
10
22.8061333639403
20
0.858939604412257
30
0
41
1
10
22.7743787017911
20
0.853638359938799
30
0
41
1
10
22.7108153093248
20
0.841951471788974
30
0
41
1
10
22.6790104007116
20
0.835562422330838
30
0
41
1
10
22.6153401385452
20
0.821672946372729
30
0
41
1
10
22.583454231424
20
0.814184187762351
30
0
41
1
10
22.5194395224389
20
0.798222469545379
30
0
41
1
10
22.4872961644851
20
0.789730304856874
30
0
41
1
10
22.4232701857175
20
0.771816510203394
30
0
41
1
10
22.391341600335
20
0.762381016655553
30
0
41
1
10
22.3276822684764
20
0.742522694313976
30
0
41
1
10
22.2959368637734
20
0.732111732089493
30
0
41
1
10
22.2324375661319
20
0.710521634997207
30
0
41
1
10
22.1689505311474
20
0.688147006982547
30
0
41
1
10
22.1055885035536
20
0.664118508436644
30
0
41
1
10
22.0423404946172
20
0.639195397833078
30
0
41
1
10
22.0107724206975
20
0.626284917588634
30
0
41
1
10
21.9504695412513
20
0.601019023491972
30
0
41
1
10
21.9217373070152
20
0.588731655546411
30
0
41
1
10
21.8929884892886
20
0.5761560217924
30
0
0
SPLINE
5
E6
100
AcDbEntity
8
SK1
62
256
6
ByLayer
370
18
48
1
60
0
100
AcDbSpline
70
4
71
3
72
113
73
109
40
0
40
0
40
0
40
0
40
0.0143058264644648
40
0.0143058264644648
40
0.0295898027581409
40
0.0295898027581409
40
0.044873779051817
40
0.044873779051817
40
0.0601577553454932
40
0.0601577553454932
40
0.0907257079328456
40
0.0907257079328456
40
0.106009684226522
40
0.106009684226522
40
0.121293660520198
40
0.121293660520198
40
0.136577636813875
40
0.136577636813875
40
0.151861613107551
40
0.151861613107551
40
0.182429565694903
40
0.182429565694903
40
0.197713541988581
40
0.197713541988581
40
0.212997518282258
40
0.212997518282258
40
0.228281494575936
40
0.228281494575936
40
0.243565470869613
40
0.243565470869613
40
0.25884944716329
40
0.25884944716329
40
0.274133423456968
40
0.274133423456968
40
0.289417399750645
40
0.289417399750645
40
0.304701376044323
40
0.304701376044323
40
0.33526932863168
40
0.33526932863168
40
0.350553304925359
40
0.350553304925359
40
0.365837281219038
40
0.365837281219038
40
0.381121257512716
40
0.381121257512716
40
0.396405233806395
40
0.396405233806395
40
0.426973186393753
40
0.426973186393753
40
0.442257162687431
40
0.442257162687431
40
0.45754113898111
40
0.45754113898111
40
0.488109091568467
40
0.488109091568467
40
0.503393067862145
40
0.503393067862145
40
0.518677044155822
40
0.518677044155822
40
0.5339610204495
40
0.5339610204495
40
0.549244996743177
40
0.549244996743177
40
0.579812949330532
40
0.579812949330532
40
0.610380901917887
40
0.610380901917887
40
0.625664878211563
40
0.625664878211563
40
0.640948854505239
40
0.640948854505239
40
0.656232830798915
40
0.656232830798915
40
0.671516807092591
40
0.671516807092591
40
0.702084759679941
40
0.702084759679941
40
0.717368735973615
40
0.717368735973615
40
0.732652712267288
40
0.747936688560962
40
0.747936688560962
40
0.763220664854635
40
0.763220664854635
40
0.793788617441985
40
0.793788617441985
40
0.824356570029335
40
0.824356570029335
40
0.839640546323012
40
0.839640546323012
40
0.854924522616688
40
0.854924522616688
40
0.870208498910364
40
0.870208498910364
40
0.88549247520404
40
0.88549247520404
40
0.900776451497716
40
0.900776451497716
40
0.916060427791392
40
0.916060427791392
40
0.946628380378742
40
0.946628380378742
40
0.977196332966092
40
0.977196332966092
40
0.992480309259767
40
0.992480309259767
40
1
40
1
40
1
40
1
41
1
10
18.3500543332226
20
-0.891196711568142
30
0
41
1
10
18.3201949030667
20
-0.891161626159686
30
0
41
1
10
18.2902907635533
20
-0.890631643956226
30
0
41
1
10
18.2282111614991
20
-0.888514686081777
30
0
41
1
10
18.1960557091413
20
-0.886859464314909
30
0
41
1
10
18.1320233298424
20
-0.882446628187552
30
0
41
1
10
18.1000912048226
20
-0.879686881984043
30
0
41
1
10
18.0363984308643
20
-0.873058486056522
30
0
41
1
10
18.0046339861227
20
-0.869188338892968
30
0
41
1
10
17.9093535766773
20
-0.856018968160754
30
0
41
1
10
17.8458523998259
20
-0.845187881481735
30
0
41
1
10
17.7508823204569
20
-0.825762593627189
30
0
41
1
10
17.7192808091834
20
-0.818745310634
30
0
41
1
10
17.6560122101126
20
-0.803744798837073
30
0
41
1
10
17.6243310851813
20
-0.795775658909577
30
0
41
1
10
17.5609254993096
20
-0.778873554803766
30
0
41
1
10
17.5292054929369
20
-0.769936611235806
30
0
41
1
10
17.4657647455523
20
-0.751048164843382
30
0
41
1
10
17.4340578963823
20
-0.741080680272717
30
0
41
1
10
17.3387628739833
20
-0.709795710293292
30
0
41
1
10
17.2748846531546
20
-0.68724113436312
30
0
41
1
10
17.1787505624405
20
-0.650596878449505
30
0
41
1
10
17.1466331665839
20
-0.637864692093814
30
0
41
1
10
17.0826366095929
20
-0.61168830515237
30
0
41
1
10
17.0506883657847
20
-0.598266021436444
30
0
41
1
10
16.9868467594454
20
-0.570830530901674
30
0
41
1
10
16.9549657936974
20
-0.556800861447101
30
0
41
1
10
16.8913340346214
20
-0.528050790553976
30
0
41
1
10
16.8595977037272
20
-0.513308569601719
30
0
41
1
10
16.7962244625912
20
-0.483172715466168
30
0
41
1
10
16.7645591278085
20
-0.467821255871741
30
0
41
1
10
16.7011754461279
20
-0.436706116899217
30
0
41
1
10
16.6694748712347
20
-0.420916208470089
30
0
41
1
10
16.6061077681881
20
-0.38879309340993
30
0
41
1
10
16.5744478691573
20
-0.372448841638032
30
0
41
1
10
16.5111653000211
20
-0.339202898492317
30
0
41
1
10
16.4795212068518
20
-0.322335306205218
30
0
41
1
10
16.3843759430645
20
-0.271343959299031
30
0
41
1
10
16.3207081552129
20
-0.236767016192715
30
0
41
1
10
16.2251333361412
20
-0.183501053727497
30
0
41
1
10
16.193246576685
20
-0.165537603715222
30
0
41
1
10
16.1292419415261
20
-0.129507217730208
30
0
41
1
10
16.0970821280172
20
-0.111392658270006
30
0
41
1
10
16.0328791894497
20
-0.0751024633755151
30
0
41
1
10
16.0008575547251
20
-0.0569382630938549
30
0
41
1
10
15.9370124736557
20
-0.0204994255508097
30
0
41
1
10
15.9051854098763
20
-0.002232325624675
30
0
41
1
10
15.8097598239515
20
0.0522907377772128
30
0
41
1
10
15.7461819854275
20
0.0882111014800842
30
0
41
1
10
15.6510918947794
20
0.141856153446724
30
0
41
1
10
15.6194609476935
20
0.159731902518814
30
0
41
1
10
15.5561656742836
20
0.195179009082437
30
0
41
1
10
15.5244888830355
20
0.212729224807845
30
0
41
1
10
15.4293932889785
20
0.264903504587892
30
0
41
1
10
15.3659559976376
20
0.29913282825828
30
0
41
1
10
15.2707035461156
20
0.349569029843764
30
0
41
1
10
15.2389208251971
20
0.366202627326231
30
0
41
1
10
15.1752148311837
20
0.398983532239811
30
0
41
1
10
15.1432812605925
20
0.415114221980247
30
0
41
1
10
15.07927920878
20
0.446898526596129
30
0
41
1
10
15.0472158595115
20
0.462585956686439
30
0
41
1
10
14.9830014340884
20
0.493448416251311
30
0
41
1
10
14.9509794305827
20
0.508539849887683
30
0
41
1
10
14.8550622230847
20
0.552653683366515
30
0
41
1
10
14.7912812836454
20
0.580479649645326
30
0
41
1
10
14.6642538616702
20
0.633316636714852
30
0
41
1
10
14.6009311197964
20
0.658204441497162
30
0
41
1
10
14.5058297381609
20
0.692789600856486
30
0
41
1
10
14.4741324139275
20
0.70388944590448
30
0
41
1
10
14.4107774971766
20
0.725263976948099
30
0
41
1
10
14.3791095824713
20
0.735526157452028
30
0
41
1
10
14.3157204452249
20
0.75512196580155
30
0
41
1
10
14.2839969299625
20
0.764453618131824
30
0
41
1
10
14.2204387141011
20
0.782138022640225
30
0
41
1
10
14.1886146928229
20
0.790501883199539
30
0
41
1
10
14.0930884151002
20
0.814208017777787
30
0
41
1
10
14.0292946359653
20
0.828117342872304
30
0
41
1
10
13.9329549570699
20
0.845743384200773
30
0
41
1
10
13.900787168517
20
0.851076884143311
30
0
41
1
10
13.8367281877307
20
0.860651046802587
30
0
41
1
10
13.7728482659237
20
0.869143495389153
30
0
41
1
10
13.7092147506986
20
0.875431563996443
30
0
41
1
10
13.6456148925902
20
0.880603274189838
30
0
41
1
10
13.6138275636796
20
0.882633081113937
30
0
41
1
10
13.5186050132355
20
0.887089572901715
30
0
41
1
10
13.4553376620834
20
0.887866300316546
30
0
41
1
10
13.3286203550853
20
0.885006606495324
30
0
41
1
10
13.2651366221912
20
0.8814018390363
30
0
41
1
10
13.1698689864493
20
0.872696128998285
30
0
41
1
10
13.1381210294476
20
0.869234511416352
30
0
41
1
10
13.0745140509506
20
0.861217669158776
30
0
41
1
10
13.0426306514962
20
0.856674596390917
30
0
41
1
10
12.9787063805168
20
0.846525366349425
30
0
41
1
10
12.9466807598286
20
0.840911919937611
30
0
41
1
10
12.8825295653743
20
0.828569719866351
30
0
41
1
10
12.8503777070548
20
0.821824812898768
30
0
41
1
10
12.7863216413037
20
0.80733953588026
30
0
41
1
10
12.7543492960063
20
0.799607768475965
30
0
41
1
10
12.690461786952
20
0.783232747891446
30
0
41
1
10
12.6585586780563
20
0.774580784559959
30
0
41
1
10
12.563033682732
20
0.747189205714335
30
0
41
1
10
12.4996974107469
20
0.726897090428309
30
0
41
1
10
12.3728031571024
20
0.683210251854064
30
0
41
1
10
12.3093479752079
20
0.65973521954308
30
0
41
1
10
12.2143282791594
20
0.62183750095511
30
0
41
1
10
12.1826547504637
20
0.608787062792231
30
0
41
1
10
12.1352877916956
20
0.588838417895005
30
0
41
1
10
12.1196538960648
20
0.582178585728258
30
0
41
1
10
12.1040086919853
20
0.575433116786144
30
0
0
SPLINE
5
E7
100
AcDbEntity
8
SK1
62
256
6
ByLayer
370
18
48
1
60
0
100
AcDbSpline
70
4
71
3
72
82
73
78
40
0
40
0
40
0
40
0
40
0.0074336597570816
40
0.0074336597570816
40
0.0285520925282082
40
0.0285520925282082
40
0.0707889580704613
40
0.0707889580704613
40
0.113025823612714
40
0.113025823612714
40
0.13414425638384
40
0.13414425638384
40
0.155262689154966
40
0.155262689154966
40
0.197499554697217
40
0.197499554697217
40
0.218617987468342
40
0.218617987468342
40
0.239736420239468
40
0.239736420239468
40
0.260854853010594
40
0.260854853010594
40
0.281973285781719
40
0.281973285781719
40
0.324210151323969
40
0.324210151323969
40
0.345328584095094
40
0.345328584095094
40
0.366447016866219
40
0.366447016866219
40
0.387565449637344
40
0.387565449637344
40
0.408683882408469
40
0.408683882408469
40
0.450920747950719
40
0.450920747950719
40
0.472039180721844
40
0.472039180721844
40
0.49315761349297
40
0.49315761349297
40
0.514276046264095
40
0.514276046264095
40
0.535394479035221
40
0.535394479035221
40
0.556512911806347
40
0.556512911806347
40
0.577631344577472
40
0.577631344577472
40
0.598749777348598
40
0.598749777348598
40
0.619868210119723
40
0.619868210119723
40
0.662105075661973
40
0.662105075661973
40
0.683223508433099
40
0.683223508433099
40
0.704341941204224
40
0.704341941204224
40
0.72546037397535
40
0.72546037397535
40
0.746578806746475
40
0.746578806746475
40
0.788815672288729
40
0.788815672288729
40
0.809934105059856
40
0.809934105059856
40
0.831052537830982
40
0.831052537830982
40
0.873289403373237
40
0.873289403373237
40
0.915526268915492
40
0.915526268915492
40
0.93664470168662
40
0.93664470168662
40
0.957763134457747
40
0.957763134457747
40
1
40
1
40
1
40
1
41
1
10
8.55188523443292
20
-0.883067471396174
30
0
41
1
10
8.5405737568916
20
-0.883059793307609
30
0
41
1
10
8.52926619783759
20
-0.882982345977638
30
0
41
1
10
8.48588458699359
20
-0.882416379078819
30
0
41
1
10
8.45385199872675
20
-0.881437716650993
30
0
41
1
10
8.35790104764641
20
-0.876859433346112
30
0
41
1
10
8.2942541352844
20
-0.871589757908282
30
0
41
1
10
8.1671841045532
20
-0.856750402060271
30
0
41
1
10
8.10366876928174
20
-0.847230605231232
30
0
41
1
10
8.00844365213158
20
-0.82984832592598
30
0
41
1
10
7.97672198789093
20
-0.823528327261954
30
0
41
1
10
7.91331024713782
20
-0.809826761204647
30
0
41
1
10
7.88160164785069
20
-0.802455539314565
30
0
41
1
10
7.78625647351902
20
-0.778948120409382
30
0
41
1
10
7.7225084213002
20
-0.76135713303583
30
0
41
1
10
7.62677712111437
20
-0.731861636938646
30
0
41
1
10
7.59483230991927
20
-0.721521440779497
30
0
41
1
10
7.53072362784116
20
-0.699976987590048
30
0
41
1
10
7.4985204048111
20
-0.688752749822299
30
0
41
1
10
7.43417109786876
20
-0.665459711685656
30
0
41
1
10
7.40207711722996
20
-0.653410661977773
30
0
41
1
10
7.33808956280694
20
-0.628459147500848
30
0
41
1
10
7.30619649107595
20
-0.615553797225772
30
0
41
1
10
7.2105473010165
20
-0.575917634648391
30
0
41
1
10
7.14681400728111
20
-0.548294639207512
30
0
41
1
10
7.05155684588649
20
-0.504675435642696
30
0
41
1
10
7.01986777209189
20
-0.489758285695814
30
0
41
1
10
6.95645356522175
20
-0.459410263213243
30
0
41
1
10
6.92471262710473
20
-0.444005234497041
30
0
41
1
10
6.86119038517279
20
-0.412699650855814
30
0
41
1
10
6.82941282195944
20
-0.396793384515831
30
0
41
1
10
6.76587209107063
20
-0.36439290443343
30
0
41
1
10
6.73412548789577
20
-0.347869860138843
30
0
41
1
10
6.63875010292745
20
-0.29766206496808
30
0
41
1
10
6.5748491738604
20
-0.263583551593257
30
0
41
1
10
6.47872074008222
20
-0.211199995686314
30
0
41
1
10
6.44665330287449
20
-0.193485690006469
30
0
41
1
10
6.38237297703495
20
-0.157710619674475
30
0
41
1
10
6.35024295744509
20
-0.139763944645153
30
0
41
1
10
6.28610106758455
20
-0.103948209710808
30
0
41
1
10
6.25407788056589
20
-0.0860391067181183
30
0
41
1
10
6.1901745899502
20
-0.0501279570094653
30
0
41
1
10
6.15830664783542
20
-0.0321036999184514
30
0
41
1
10
6.09469059172457
20
0.0039933446506382
30
0
41
1
10
6.0629174985749
20
0.0220202105775797
30
0
41
1
10
5.99933991980549
20
0.0578492087175277
30
0
41
1
10
5.96754898324329
20
0.0756763353941494
30
0
41
1
10
5.90400346011705
20
0.111230769984331
30
0
41
1
10
5.87225921937363
20
0.128976599301552
30
0
41
1
10
5.80883780266336
20
0.164420738164012
30
0
41
1
10
5.7771369570527
20
0.182076432899748
30
0
41
1
10
5.68184405412572
20
0.234456219484883
30
0
41
1
10
5.61813235461588
20
0.26872220340411
30
0
41
1
10
5.52252132126935
20
0.319534887614253
30
0
41
1
10
5.49062889347044
20
0.336347926793621
30
0
41
1
10
5.42665099867213
20
0.369467429083954
30
0
41
1
10
5.39457259908957
20
0.385786464601978
30
0
41
1
10
5.33024450498692
20
0.417955927247988
30
0
41
1
10
5.29798332995935
20
0.433816350062813
30
0
41
1
10
5.23379737691306
20
0.46498116692527
30
0
41
1
10
5.20181581370312
20
0.480303045097088
30
0
41
1
10
5.1059409921192
20
0.525081446135005
30
0
41
1
10
5.04211273950304
20
0.553366787152498
30
0
41
1
10
4.94671118019596
20
0.593799143269564
30
0
41
1
10
4.9149737806801
20
0.606947701377663
30
0
41
1
10
4.85150022927348
20
0.632419132321502
30
0
41
1
10
4.81975687980099
20
0.644734298614395
30
0
41
1
10
4.72448712681819
20
0.680407843677159
30
0
41
1
10
4.66095511545373
20
0.702539406214896
30
0
41
1
10
4.53380773177861
20
0.743407946285515
30
0
41
1
10
4.47007640016318
20
0.762020136282842
30
0
41
1
10
4.37409206603343
20
0.78705170895185
30
0
41
1
10
4.34206108377782
20
0.79493881103005
30
0
41
1
10
4.27789113895099
20
0.809749659877951
30
0
41
1
10
4.24571100073257
20
0.816673661858658
30
0
41
1
10
4.14916924701575
20
0.835815779588444
30
0
41
1
10
4.08473759382679
20
0.846385018288089
30
0
41
1
10
4.0203666541766
20
0.854839076443454
30
0
0
SPLINE
5
E8
100
AcDbEntity
8
SK1
62
256
6
ByLayer
370
18
48
1
60
0
100
AcDbSpline
70
4
71
3
72
60
73
56
40
0
40
0
40
0
40
0
40
0.0360490297885449
40
0.0360490297885449
40
0.0540735446828158
40
0.0540735446828158
40
0.0720980595770866
40
0.0720980595770866
40
0.108147089365628
40
0.108147089365628
40
0.14419611915417
40
0.14419611915417
40
0.216294178731254
40
0.216294178731254
40
0.252343208519795
40
0.252343208519795
40
0.270367723414066
40
0.270367723414066
40
0.288392238308337
40
0.288392238308337
40
0.360490297885427
40
0.360490297885427
40
0.432588357462517
40
0.432588357462517
40
0.46863738725106
40
0.46863738725106
40
0.48666190214533
40
0.48666190214533
40
0.5046864170396
40
0.5046864170396
40
0.576784476616677
40
0.576784476616677
40
0.612833506405214
40
0.612833506405214
40
0.64888253619375
40
0.64888253619375
40
0.684931565982287
40
0.684931565982287
40
0.720980595770824
40
0.720980595770824
40
0.757029625559361
40
0.757029625559361
40
0.793078655347898
40
0.793078655347898
40
0.865176714924968
40
0.865176714924968
40
0.901225744713505
40
0.901225744713505
40
0.919250259607772
40
0.919250259607772
40
0.937274774502039
40
0.937274774502039
40
0.973323804290575
40
0.973323804290575
40
1
40
1
40
1
40
1
41
1
10
28.3777335762533
20
-0.897790807445489
30
0
41
1
10
28.3197451278163
20
-0.895655420944792
30
0
41
1
10
28.261723794026
20
-0.891633492392316
30
0
41
1
10
28.1745097958153
20
-0.882826723598157
30
0
41
1
10
28.145421548971
20
-0.879429063663139
30
0
41
1
10
28.0873998120363
20
-0.871756540056083
30
0
41
1
10
28.0584359201312
20
-0.867479616008637
30
0
41
1
10
27.9716617850938
20
-0.853359825802556
30
0
41
1
10
27.9139780573732
20
-0.842229296558713
30
0
41
1
10
27.7989885915527
20
-0.816521833668588
30
0
41
1
10
27.7416729661935
20
-0.801938965071571
30
0
41
1
10
27.5696662325207
20
-0.753464154237975
30
0
41
1
10
27.4549080877415
20
-0.714891198892218
30
0
41
1
10
27.2817910522363
20
-0.648517739402791
30
0
41
1
10
27.2239163727108
20
-0.624980600144539
30
0
41
1
10
27.1367887726006
20
-0.587574435059224
30
0
41
1
10
27.1076630948754
20
-0.574737159548079
30
0
41
1
10
27.0496217501287
20
-0.548540582818617
30
0
41
1
10
27.020669944414
20
-0.535167738803494
30
0
41
1
10
26.8761658227745
20
-0.467070407863957
30
0
41
1
10
26.7613527732209
20
-0.408683377314162
30
0
41
1
10
26.5317821380895
20
-0.286639993988814
30
0
41
1
10
26.4170093791457
20
-0.223014881985193
30
0
41
1
10
26.2439626609803
20
-0.125200543026836
30
0
41
1
10
26.1861275940635
20
-0.0922084905111262
30
0
41
1
10
26.0990776506991
20
-0.0422380942792131
30
0
41
1
10
26.0699739678559
20
-0.0254729979559443
30
0
41
1
10
26.011835886588
20
0.0080544809684682
30
0
41
1
10
25.9828373131617
20
0.0247936973954097
30
0
41
1
10
25.8380911707745
20
0.108180523174468
30
0
41
1
10
25.7230386635969
20
0.173821453865258
30
0
41
1
10
25.5505823708709
20
0.269062233363996
30
0
41
1
10
25.4931260293795
20
0.300288451552859
30
0
41
1
10
25.3782600899898
20
0.361669163157842
30
0
41
1
10
25.3207955766585
20
0.391732278972427
30
0
41
1
10
25.2057118202982
20
0.450431739857123
30
0
41
1
10
25.1480106564448
20
0.478936890915151
30
0
41
1
10
25.0320927193055
20
0.533941700108414
30
0
41
1
10
24.973727273416
20
0.56051054718148
30
0
41
1
10
24.8576158854179
20
0.610823330509191
30
0
41
1
10
24.7997679427064
20
0.634646957677205
30
0
41
1
10
24.6844824331766
20
0.679658342901718
30
0
41
1
10
24.6269900857817
20
0.700776531856235
30
0
41
1
10
24.4548443356103
20
0.759826986382279
30
0
41
1
10
24.3402186285917
20
0.793116213967835
30
0
41
1
10
24.1673625159311
20
0.833020675519776
30
0
41
1
10
24.1095836754624
20
0.844650837796735
30
0
41
1
10
24.0226387396461
20
0.859533214109945
30
0
41
1
10
23.9936116746118
20
0.864066523219094
30
0
41
1
10
23.9354563618228
20
0.872258093212821
30
0
41
1
10
23.9063166899955
20
0.875916773467424
30
0
41
1
10
23.8192211919729
20
0.88547650057555
30
0
41
1
10
23.7613959377126
20
0.889985268929252
30
0
41
1
10
23.6610634544924
20
0.89461937921439
30
0
41
1
10
23.6184865977687
20
0.895578228803203
30
0
41
1
10
23.5759514219826
20
0.895532038830453
30
0
0
SPLINE
5
E9
100
AcDbEntity
8
SK1
62
256
6
ByLayer
370
18
48
1
60
0
100
AcDbSpline
70
4
71
3
72
59
73
55
40
0
40
0
40
0
40
0
40
0.0344192360782212
40
0.0344192360782212
40
0.0698300017508479
40
0.0698300017508479
40
0.140651533096098
40
0.140651533096098
40
0.211473064441349
40
0.211473064441349
40
0.229178447277662
40
0.229178447277662
40
0.246883830113975
40
0.246883830113975
40
0.282294595786602
40
0.282294595786602
40
0.317705361459229
40
0.317705361459229
40
0.353116127131855
40
0.353116127131855
40
0.388526892804481
40
0.388526892804481
40
0.423937658477109
40
0.44164304131342
40
0.44164304131342
40
0.459348424149732
40
0.459348424149732
40
0.494759189822359
40
0.494759189822359
40
0.530169955494985
40
0.530169955494985
40
0.565580721167612
40
0.565580721167612
40
0.636402252512865
40
0.636402252512865
40
0.671813018185492
40
0.671813018185492
40
0.689518401021804
40
0.689518401021804
40
0.707223783858116
40
0.707223783858116
40
0.778045315203363
40
0.778045315203363
40
0.84886684654861
40
0.84886684654861
40
0.884277612221232
40
0.884277612221232
40
0.901982995057543
40
0.901982995057543
40
0.919688377893854
40
0.919688377893854
40
0.990509909239098
40
0.990509909239098
40
1
40
1
40
1
40
1
41
1
10
18.6778622068302
20
-0.891468728259241
30
0
41
1
10
18.6214387083648
20
-0.89140724787444
30
0
41
1
10
18.5646831055625
20
-0.889572308604755
30
0
41
1
10
18.4501715845866
20
-0.882321868504931
30
0
41
1
10
18.392318200135
20
-0.876814556897415
30
0
41
1
10
18.2191187405343
20
-0.855012037514285
30
0
41
1
10
18.1041202957827
20
-0.833464602133176
30
0
41
1
10
17.8740524928489
20
-0.77706368378594
30
0
41
1
10
17.7588711643515
20
-0.742275360015014
30
0
41
1
10
17.61385956115
20
-0.691167571508743
30
0
41
1
10
17.5848062774228
20
-0.68056391730579
30
0
41
1
10
17.526576143028
20
-0.65860704769679
30
0
41
1
10
17.4973816363268
20
-0.647245780683932
30
0
41
1
10
17.4101128638934
20
-0.612283658670947
30
0
41
1
10
17.3521839853547
20
-0.587738035864845
30
0
41
1
10
17.2366201867519
20
-0.536490173444236
30
0
41
1
10
17.1789788724651
20
-0.509797459492148
30
0
41
1
10
17.0638048471253
20
-0.454553774064152
30
0
41
1
10
17.0062647312871
20
-0.426016034798664
30
0
41
1
10
16.8912445405097
20
-0.367158129301146
30
0
41
1
10
16.8337455759696
20
-0.336864469945226
30
0
41
1
10
16.7184927311633
20
-0.274991856000384
30
0
41
1
10
16.6318814216836
20
-0.227592828687676
30
0
41
1
10
16.5448159890142
20
-0.179021349694352
30
0
41
1
10
16.4866487483903
20
-0.146416922158039
30
0
41
1
10
16.457462051561
20
-0.12997971564775
30
0
41
1
10
16.3700035963055
20
-0.0805563906030784
30
0
41
1
10
16.3119434489185
20
-0.0475449117262201
30
0
41
1
10
16.1962441536322
20
0.0184871932560782
30
0
41
1
10
16.138594271864
20
0.0514866778691214
30
0
41
1
10
16.02341940548
20
0.116963761303737
30
0
41
1
10
15.965905870154
20
0.149462535391422
30
0
41
1
10
15.793324225981
20
0.245782671896023
30
0
41
1
10
15.6781795957282
20
0.308369836763376
30
0
41
1
10
15.5045293118514
20
0.398407106181736
30
0
41
1
10
15.4465105385689
20
0.42781068943782
30
0
41
1
10
15.3590458264795
20
0.470603464912358
30
0
41
1
10
15.3298930478104
20
0.484620065498177
30
0
41
1
10
15.2717549050941
20
0.51204024153617
30
0
41
1
10
15.242740588542
20
0.525457684387987
30
0
41
1
10
15.0978967129131
20
0.591034973900662
30
0
41
1
10
14.9827692183468
20
0.638692039510943
30
0
41
1
10
14.7526356283011
20
0.722828516334033
30
0
41
1
10
14.6375943670469
20
0.759279751817786
30
0
41
1
10
14.4642187931513
20
0.804512787495554
30
0
41
1
10
14.4062669328375
20
0.817991357332915
30
0
41
1
10
14.318924720122
20
0.835642845348985
30
0
41
1
10
14.2897094970135
20
0.841105657054868
30
0
41
1
10
14.2314616206947
20
0.851104085280014
30
0
41
1
10
14.2023954978311
20
0.855647482262953
30
0
41
1
10
14.0572991927742
20
0.876091141609948
30
0
41
1
10
13.9419349104166
20
0.885192404122932
30
0
41
1
10
13.811458257239
20
0.887300414511088
30
0
41
1
10
13.7960429873769
20
0.887418446349699
30
0
41
1
10
13.7806278541254
20
0.887405642249036
30
0
0
SPLINE
5
EA
100
AcDbEntity
8
SK1
62
256
6
ByLayer
370
18
48
1
60
0
100
AcDbSpline
70
4
71
3
72
40
73
36
40
0
40
0
40
0
40
0
40
0.0014172122371571
40
0.0014172122371571
40
0.0336295602295104
40
0.0336295602295104
40
0.0980542562142151
40
0.0980542562142151
40
0.226903648183623
40
0.226903648183623
40
0.291328344168325
40
0.291328344168325
40
0.355753040153028
40
0.355753040153028
40
0.387965388145377
40
0.387965388145377
40
0.420177736137728
40
0.420177736137728
40
0.484602432122424
40
0.484602432122424
40
0.549027128107121
40
0.549027128107121
40
0.613451824091817
40
0.613451824091817
40
0.677876520076514
40
0.677876520076514
40
0.74230121606121
40
0.74230121606121
40
0.774513564053559
40
0.774513564053559
40
0.806725912045908
40
0.806725912045908
40
0.871150608030604
40
0.871150608030604
40
1
40
1
40
1
40
1
41
1
10
8.88381390986171
20
-0.883343413219819
30
0
41
1
10
8.88253171151456
20
-0.883342565257635
30
0
41
1
10
8.88124967827375
20
-0.883340813232707
30
0
41
1
10
8.85083212956147
20
-0.883277783334023
30
0
41
1
10
8.821751033341
20
-0.882752413120159
30
0
41
1
10
8.73463351737018
20
-0.879806169933744
30
0
41
1
10
8.67672499412774
20
-0.876016139304028
30
0
41
1
10
8.50329036213023
20
-0.85933968870745
30
0
41
1
10
8.38801646571275
20
-0.841191286419075
30
0
41
1
10
8.21505756627275
20
-0.803683520819874
30
0
41
1
10
8.1573819909076
20
-0.789463834222545
30
0
41
1
10
8.04169361582308
20
-0.757777593347868
30
0
41
1
10
7.9836895223105
20
-0.740307126134581
30
0
41
1
10
7.89631046261371
20
-0.711754593450706
30
0
41
1
10
7.86708886331172
20
-0.701834314072272
30
0
41
1
10
7.80865213317267
20
-0.681282364782732
30
0
41
1
10
7.77949397077884
20
-0.670673038860201
30
0
41
1
10
7.69217603761629
20
-0.637885740003611
30
0
41
1
10
7.63418183503134
20
-0.614738828741508
30
0
41
1
10
7.51855781854951
20
-0.565977937417586
30
0
41
1
10
7.46090903453842
20
-0.540385768751975
30
0
41
1
10
7.34565001698428
20
-0.487200071255842
30
0
41
1
10
7.28804722274876
20
-0.459597659273413
30
0
41
1
10
7.17272180990486
20
-0.402649413049289
30
0
41
1
10
7.11499814335505
20
-0.373305489979032
30
0
41
1
10
6.99927078719614
20
-0.313130095387749
30
0
41
1
10
6.94127414033099
20
-0.282288961621532
30
0
41
1
10
6.85404256759421
20
-0.234923437725001
30
0
41
1
10
6.82492370854368
20
-0.218954239472481
30
0
41
1
10
6.76656708178169
20
-0.18670999768591
30
0
41
1
10
6.73734954510999
20
-0.170446083244826
30
0
41
1
10
6.6498816867348
20
-0.121518048718883
30
0
41
1
10
6.59168419652383
20
-0.0886452964825821
30
0
41
1
10
6.41709711165748
20
0.0101341167288069
30
0
41
1
10
6.30067228632868
20
0.0761295845201175
30
0
41
1
10
6.18352825968998
20
0.141043883997412
30
0
0
SPLINE
5
EB
100
AcDbEntity
8
SK1
62
256
6
ByLayer
370
18
48
1
60
0
100
AcDbSpline
70
4
71
3
72
20
73
16
40
0
40
0
40
0
40
0
40
0.249999999999978
40
0.249999999999978
40
0.499999999999956
40
0.499999999999956
40
0.624999999999976
40
0.624999999999976
40
0.749999999999995
40
0.749999999999995
40
0.875000000000015
40
0.875000000000015
40
0.937500000000007
40
0.937500000000007
40
1
40
1
40
1
40
1
41
1
10
6.1835282596891
20
0.141043883997895
30
0
41
1
10
6.1735783606932
20
0.146557530247918
30
0
41
1
10
6.16378834639212
20
0.152276648145261
30
0
41
1
10
6.14464758876883
20
0.164280745315722
30
0
41
1
10
6.13529126992199
20
0.170558583650688
30
0
41
1
10
6.12190663319569
20
0.180821265153298
30
0
41
1
10
6.11755559561627
20
0.184386040261472
30
0
41
1
10
6.10919408018657
20
0.191960285267328
30
0
41
1
10
6.10516531292143
20
0.195979075883173
30
0
41
1
10
6.09774766848352
20
0.204713006147045
30
0
41
1
10
6.09440747237602
20
0.20935027367824
30
0
41
1
10
6.09052373840674
20
0.21694418293157
30
0
41
1
10
6.08944023975275
20
0.219546374050964
30
0
41
1
10
6.08787594200319
20
0.224954272348725
30
0
41
1
10
6.08739865878874
20
0.227773110557081
30
0
41
1
10
6.08740390651508
20
0.230605146072463
30
0
0
SPLINE
5
EC
100
AcDbEntity
8
SK1
62
256
6
ByLayer
370
18
48
1
60
0
100
AcDbSpline
70
4
71
3
72
27
73
23
40
0
40
0
40
0
40
0
40
0.125
40
0.125
40
0.187500000000001
40
0.187500000000001
40
0.250000000000001
40
0.250000000000001
40
0.375000000000001
40
0.375000000000001
40
0.437500000000001
40
0.437500000000001
40
0.500000000000001
40
0.500000000000001
40
0.625000000000001
40
0.75
40
0.75
40
0.8125
40
0.8125
40
0.875
40
0.875
40
1
40
1
40
1
40
1
41
1
10
6.08740390644726
20
0.230605146072549
30
0
41
1
10
6.08748084809224
20
0.272128170986718
30
0
41
1
10
6.08753770741666
20
0.312608493015119
30
0
41
1
10
6.0876001554777
20
0.37176505845062
30
0
41
1
10
6.08761716839783
20
0.391236860022815
30
0
41
1
10
6.08764469281866
20
0.429584149056296
30
0
41
1
10
6.08765507797258
20
0.448267528560621
30
0
41
1
10
6.0876784057491
20
0.502888448357368
30
0
41
1
10
6.08768356890548
20
0.537404110723799
30
0
41
1
10
6.08768374168275
20
0.586354867865282
30
0
41
1
10
6.08768252335528
20
0.602199477168398
30
0
41
1
10
6.08767874396722
20
0.632925299802679
30
0
41
1
10
6.08767617141672
20
0.647859907011878
30
0
41
1
10
6.08766829527224
20
0.690559300480629
30
0
41
1
10
6.08765755086847
20
0.742176641304724
30
0
41
1
10
6.0876615102809
20
0.783462760616089
30
0
41
1
10
6.08767421232665
20
0.81041202749654
30
0
41
1
10
6.08768005206918
20
0.818679424964444
30
0
41
1
10
6.08769513860952
20
0.833616997462883
30
0
41
1
10
6.08770439799758
20
0.840318901419352
30
0
41
1
10
6.08773752765742
20
0.85816050508376
30
0
41
1
10
6.08776681893295
20
0.86704810039106
30
0
41
1
10
6.08780301756192
20
0.872880526375241
30
0
0
SPLINE
5
ED
100
AcDbEntity
8
SK1
62
256
6
ByLayer
370
18
48
1
60
0
100
AcDbSpline
70
4
71
3
72
8
73
4
40
0
40
0
40
0
40
0
40
1
40
1
40
1
40
1
41
1
10
5.87597957280613
20
0.880848086026788
30
0
41
1
10
5.94672475992212
20
0.880902214776711
30
0
41
1
10
6.01728049991837
20
0.878231972830463
30
0
41
1
10
6.08780301758694
20
0.872880526375241
30
0
0
SPLINE
5
EE
100
AcDbEntity
8
SK1
62
256
6
ByLayer
370
18
48
1
60
0
100
AcDbSpline
70
4
71
3
72
36
73
32
40
0
40
0
40
0
40
0
40
0.0568181665519479
40
0.0568181665519479
40
0.113636333103896
40
0.113636333103896
40
0.170454499655844
40
0.170454499655844
40
0.227272666207792
40
0.227272666207792
40
0.340908999311697
40
0.340908999311697
40
0.397727165863645
40
0.397727165863645
40
0.454545332415593
40
0.454545332415593
40
0.511363498967541
40
0.511363498967541
40
0.568181665519488
40
0.568181665519488
40
0.681817998623375
40
0.681817998623375
40
0.795454331727261
40
0.795454331727261
40
0.852272498279205
40
0.852272498279205
40
0.909090664831148
40
0.909090664831148
40
0.965908831383091
40
0.965908831383091
40
1
40
1
40
1
40
1
41
1
10
28.4559179243444
20
0.8823598191386
30
0
41
1
10
28.4243518758679
20
0.885892987923711
30
0
41
1
10
28.3928131564988
20
0.888880780910881
30
0
41
1
10
28.3296490162244
20
0.893735176715495
30
0
41
1
10
28.298035147955
20
0.895607821844408
30
0
41
1
10
28.2347879448113
20
0.898259026137623
30
0
41
1
10
28.2031550915254
20
0.899037565006068
30
0
41
1
10
28.1399086476545
20
0.89948463557343
30
0
41
1
10
28.1082888953085
20
0.899149015232041
30
0
41
1
10
28.0131668006171
20
0.896466408295851
30
0
41
1
10
27.9494217495275
20
0.892476330958004
30
0
41
1
10
27.8535936503166
20
0.883057539400966
30
0
41
1
10
27.8215734229539
20
0.87932864015832
30
0
41
1
10
27.7576970399192
20
0.870807813405406
30
0
41
1
10
27.7257923389151
20
0.866022823653225
30
0
41
1
10
27.6620853843961
20
0.85541451300503
30
0
41
1
10
27.6302851576101
20
0.849590205465944
30
0
41
1
10
27.5668378472575
20
0.836876677248426
30
0
41
1
10
27.535206303858
20
0.829974548285549
30
0
41
1
10
27.4403555199477
20
0.807785175432798
30
0
41
1
10
27.3770640990574
20
0.791122910176966
30
0
41
1
10
27.2506696906995
20
0.753886759817732
30
0
41
1
10
27.1876525178522
20
0.733196756312651
30
0
41
1
10
27.0926830221437
20
0.699756452490931
30
0
41
1
10
27.0609797062454
20
0.688186055518855
30
0
41
1
10
26.9975276849189
20
0.664137306217782
30
0
41
1
10
26.9657909907085
20
0.651643255982009
30
0
41
1
10
26.9022465572812
20
0.625752785953182
30
0
41
1
10
26.870413976256
20
0.612387206182461
30
0
41
1
10
26.8193037972333
20
0.590438383425777
30
0
41
1
10
26.8000826802318
20
0.582065996134304
30
0
41
1
10
26.7808557714038
20
0.573565678155376
30
0
0
SPLINE
5
EF
100
AcDbEntity
8
SK1
62
256
6
ByLayer
370
18
48
1
60
0
100
AcDbSpline
70
4
71
3
72
110
73
106
40
0
40
0
40
0
40
0
40
0.0052489627813747
40
0.0052489627813747
40
0.0205077518745336
40
0.0205077518745336
40
0.0357665409676926
40
0.0357665409676926
40
0.0510253300608515
40
0.0510253300608515
40
0.0662841191540105
40
0.0662841191540105
40
0.0815429082471693
40
0.0815429082471693
40
0.0968016973403282
40
0.0968016973403282
40
0.112060486433487
40
0.112060486433487
40
0.127319275526646
40
0.127319275526646
40
0.142578064619805
40
0.142578064619805
40
0.157836853712964
40
0.157836853712964
40
0.173095642806123
40
0.188354431899282
40
0.188354431899282
40
0.203613220992441
40
0.203613220992441
40
0.234130799178759
40
0.234130799178759
40
0.249389588271916
40
0.249389588271916
40
0.264648377365074
40
0.264648377365074
40
0.279907166458231
40
0.279907166458231
40
0.295165955551389
40
0.295165955551389
40
0.325683533737704
40
0.325683533737704
40
0.35620111192402
40
0.35620111192402
40
0.386718690110335
40
0.386718690110335
40
0.401977479203492
40
0.401977479203492
40
0.41723626829665
40
0.41723626829665
40
0.447753846482966
40
0.447753846482966
40
0.463012635576123
40
0.463012635576123
40
0.478271424669281
40
0.478271424669281
40
0.508789002855593
40
0.508789002855593
40
0.52404779194875
40
0.52404779194875
40
0.539306581041906
40
0.554565370135063
40
0.554565370135063
40
0.569824159228219
40
0.569824159228219
40
0.600341737414532
40
0.600341737414532
40
0.630859315600845
40
0.630859315600845
40
0.646118104694002
40
0.646118104694002
40
0.66137689378716
40
0.66137689378716
40
0.691894471973473
40
0.691894471973473
40
0.722412050159786
40
0.722412050159786
40
0.752929628346098
40
0.752929628346098
40
0.783447206532411
40
0.783447206532411
40
0.798705995625567
40
0.798705995625567
40
0.813964784718722
40
0.813964784718722
40
0.829223573811877
40
0.829223573811877
40
0.844482362905032
40
0.844482362905032
40
0.874999941091342
40
0.874999941091342
40
0.890258730184498
40
0.890258730184498
40
0.905517519277653
40
0.905517519277653
40
0.920776308370808
40
0.920776308370808
40
0.936035097463964
40
0.936035097463964
40
0.966552675650274
40
0.966552675650274
40
0.981811464743429
40
0.981811464743429
40
0.997070253836584
40
0.997070253836584
40
1
40
1
40
1
40
1
41
1
10
23.2500807822881
20
-0.89526179236762
30
0
41
1
10
23.2391922151682
20
-0.895250521900152
30
0
41
1
10
23.228308605238
20
-0.895173358728101
30
0
41
1
10
23.1857969637034
20
-0.894613985316909
30
0
41
1
10
23.1541651051445
20
-0.893642310378056
30
0
41
1
10
23.0908677122719
20
-0.890613175499738
30
0
41
1
10
23.0592178516253
20
-0.888554773247819
30
0
41
1
10
22.9959607147498
20
-0.883339072915163
30
0
41
1
10
22.9643618560659
20
-0.880177750187613
30
0
41
1
10
22.9011610570984
20
-0.87275021331584
30
0
41
1
10
22.8695340172162
20
-0.868492447108054
30
0
41
1
10
22.8061333639403
20
-0.858939604412228
30
0
41
1
10
22.7743787017912
20
-0.85363835993877
30
0
41
1
10
22.7108153093248
20
-0.841951471788946
30
0
41
1
10
22.6790104007116
20
-0.83556242233081
30
0
41
1
10
22.6153401385452
20
-0.821672946372701
30
0
41
1
10
22.583454231424
20
-0.814184187762294
30
0
41
1
10
22.5194395224389
20
-0.798222469545351
30
0
41
1
10
22.4872961644851
20
-0.789730304856846
30
0
41
1
10
22.4232701857175
20
-0.771816510203365
30
0
41
1
10
22.391341600335
20
-0.762381016655524
30
0
41
1
10
22.3276822684765
20
-0.742522694313948
30
0
41
1
10
22.2959368637734
20
-0.732111732089464
30
0
41
1
10
22.232437566132
20
-0.710521634997178
30
0
41
1
10
22.168950597755
20
-0.688146912016464
30
0
41
1
10
22.1055885035536
20
-0.664118508436616
30
0
41
1
10
22.0423404946173
20
-0.639195397833049
30
0
41
1
10
22.0107724206975
20
-0.626284917588606
30
0
41
1
10
21.9159565994787
20
-0.586558680307661
30
0
41
1
10
21.8525780471468
20
-0.558795860456343
30
0
41
1
10
21.757547466288
20
-0.514837500612316
30
0
41
1
10
21.725888086514
20
-0.49977730353632
30
0
41
1
10
21.6624424289163
20
-0.469070976278402
30
0
41
1
10
21.6306412601943
20
-0.453449606833118
30
0
41
1
10
21.5668911160224
20
-0.421661575258725
30
0
41
1
10
21.5349430171613
20
-0.405494208339576
30
0
41
1
10
21.470958368002
20
-0.372506156487532
30
0
41
1
10
21.4388856136767
20
-0.35562213538654
30
0
41
1
10
21.3429032967184
20
-0.30447896211291
30
0
41
1
10
21.2790687197719
20
-0.269958728737265
30
0
41
1
10
21.1518980431827
20
-0.19974642716025
30
0
41
1
10
21.0886534346968
20
-0.163891433052385
30
0
41
1
10
20.9620125284231
20
-0.0921531740686703
30
0
41
1
10
20.8986715631984
20
-0.0561748109358007
30
0
41
1
10
20.8038376771829
20
-0.0016718457465288
30
0
41
1
10
20.7722192411712
20
0.0165200128489857
30
0
41
1
10
20.7088549640945
20
0.0527496996542141
30
0
41
1
10
20.6771239654757
20
0.0708139037884337
30
0
41
1
10
20.581827143924
20
0.12493126666206
30
0
41
1
10
20.5182193806353
20
0.16102094201716
30
0
41
1
10
20.4224063044165
20
0.214663437024882
30
0
41
1
10
20.390353687154
20
0.23246329120559
30
0
41
1
10
20.3261983466561
20
0.267649104149143
30
0
41
1
10
20.2941837805573
20
0.285010674005804
30
0
41
1
10
20.1984196018862
20
0.336571650255138
30
0
41
1
10
20.1348996430536
20
0.370148890646448
30
0
41
1
10
20.0396767970862
20
0.418652313001104
30
0
41
1
10
20.0079510962762
20
0.434521745056401
30
0
41
1
10
19.9445947106528
20
0.465767698014417
30
0
41
1
10
19.8813365730085
20
0.496522634040161
30
0
41
1
10
19.8181111444877
20
0.526039458897742
30
0
41
1
10
19.7548227138139
20
0.554826224891173
30
0
41
1
10
19.7231401808733
20
0.568846321032339
30
0
41
1
10
19.628064083841
20
0.60990918243013
30
0
41
1
10
19.5646858259054
20
0.636003644043484
30
0
41
1
10
19.4373957415411
20
0.684878516454546
30
0
41
1
10
19.3734729248382
20
0.707660523286535
30
0
41
1
10
19.2772658254745
20
0.739398041480968
30
0
41
1
10
19.2452534544078
20
0.749503325106616
30
0
41
1
10
19.1813621334028
20
0.768667399051054
30
0
41
1
10
19.1494568084145
20
0.777723736073739
30
0
41
1
10
19.0538756445551
20
0.803364883069037
30
0
41
1
10
18.9904324733021
20
0.818498665069029
30
0
41
1
10
18.8637455254294
20
0.844592478442337
30
0
41
1
10
18.8003888655642
20
0.855498823274331
30
0
41
1
10
18.6738452413238
20
0.873154548557579
30
0
41
1
10
18.6106106286884
20
0.87985622123756
30
0
41
1
10
18.4836455575274
20
0.888823204792885
30
0
41
1
10
18.4199682485928
20
0.89112731437973
30
0
41
1
10
18.3242837356403
20
0.891231793246334
30
0
41
1
10
18.2923429283698
20
0.890701624212625
30
0
41
1
10
18.2282111614991
20
0.888514686081805
30
0
41
1
10
18.1960557091414
20
0.886859464314938
30
0
41
1
10
18.1320233298424
20
0.88244662818758
30
0
41
1
10
18.1000912048226
20
0.879686881984071
30
0
41
1
10
18.0363984308644
20
0.87305848605655
30
0
41
1
10
18.0046339861227
20
0.869188338893025
30
0
41
1
10
17.9093535766774
20
0.856018968160811
30
0
41
1
10
17.845852399826
20
0.845187881481763
30
0
41
1
10
17.7508823204569
20
0.825762593627218
30
0
41
1
10
17.7192808091835
20
0.818745310634029
30
0
41
1
10
17.6560122101126
20
0.80374479883713
30
0
41
1
10
17.6243310851814
20
0.795775658909605
30
0
41
1
10
17.5609254993096
20
0.778873554803823
30
0
41
1
10
17.5292054929369
20
0.769936611235863
30
0
41
1
10
17.4657647455523
20
0.751048164843439
30
0
41
1
10
17.4340578963823
20
0.741080680272773
30
0
41
1
10
17.3387628739833
20
0.709795710293349
30
0
41
1
10
17.2748846531546
20
0.687241134363177
30
0
41
1
10
17.1787505624406
20
0.650596878449562
30
0
41
1
10
17.1466331665839
20
0.637864692093842
30
0
41
1
10
17.082636609593
20
0.611688305152427
30
0
41
1
10
17.0506883657847
20
0.598266021436501
30
0
41
1
10
17.0126386456972
20
0.58191441634429
30
0
41
1
10
17.0065111974049
20
0.579269057285757
30
0
41
1
10
17.0003853964568
20
0.576611962281987
30
0
0
SPLINE
5
F0
100
AcDbEntity
8
SK1
62
256
6
ByLayer
370
18
48
1
60
0
100
AcDbSpline
70
4
71
3
72
114
73
110
40
0
40
0
40
0
40
0
40
0.0095558715799498
40
0.0095558715799498
40
0.0401837451915652
40
0.0401837451915652
40
0.055497681997373
40
0.055497681997373
40
0.0708116188031807
40
0.0708116188031807
40
0.0861255556089889
40
0.0861255556089889
40
0.101439492414797
40
0.101439492414797
40
0.116753429220604
40
0.116753429220604
40
0.132067366026412
40
0.132067366026412
40
0.162695239638025
40
0.162695239638025
40
0.193323113249638
40
0.193323113249638
40
0.208637050055445
40
0.208637050055445
40
0.223950986861251
40
0.223950986861251
40
0.239264923667058
40
0.239264923667058
40
0.254578860472864
40
0.254578860472864
40
0.269892797278671
40
0.269892797278671
40
0.285206734084477
40
0.285206734084477
40
0.300520670890284
40
0.300520670890284
40
0.315834607696091
40
0.315834607696091
40
0.331148544501897
40
0.331148544501897
40
0.346462481307703
40
0.346462481307703
40
0.377090354919317
40
0.377090354919317
40
0.392404291725122
40
0.392404291725122
40
0.407718228530927
40
0.407718228530927
40
0.423032165336732
40
0.423032165336732
40
0.438346102142537
40
0.438346102142537
40
0.453660038948343
40
0.453660038948343
40
0.468973975754148
40
0.468973975754148
40
0.484287912559953
40
0.484287912559953
40
0.499601849365758
40
0.499601849365758
40
0.530229722977369
40
0.530229722977369
40
0.56085759658898
40
0.56085759658898
40
0.576171533394786
40
0.576171533394786
40
0.591485470200591
40
0.591485470200591
40
0.606799407006396
40
0.606799407006396
40
0.622113343812201
40
0.622113343812201
40
0.652741217423812
40
0.652741217423812
40
0.668055154229617
40
0.668055154229617
40
0.683369091035422
40
0.683369091035422
40
0.698683027841227
40
0.698683027841227
40
0.713996964647033
40
0.713996964647033
40
0.744624838258643
40
0.744624838258643
40
0.775252711870253
40
0.775252711870253
40
0.790566648676058
40
0.790566648676058
40
0.805880585481863
40
0.805880585481863
40
0.836508459093472
40
0.836508459093472
40
0.867136332705081
40
0.867136332705081
40
0.882450269510885
40
0.882450269510885
40
0.897764206316689
40
0.897764206316689
40
0.928392079928297
40
0.928392079928297
40
0.943706016734101
40
0.943706016734101
40
0.959019953539905
40
0.959019953539905
40
0.974333890345708
40
0.974333890345708
40
0.989647827151513
40
0.989647827151513
40
1
40
1
40
1
40
1
41
1
10
13.4512651730928
20
-0.887130773454771
30
0
41
1
10
13.4315058172999
20
-0.887113879897299
30
0
41
1
10
13.4117468567868
20
-0.886882564475513
30
0
41
1
10
13.3286203550853
20
-0.885006606495296
30
0
41
1
10
13.2651366221912
20
-0.881401839036272
30
0
41
1
10
13.1698689864493
20
-0.872696128998285
30
0
41
1
10
13.1381210294476
20
-0.869234511416352
30
0
41
1
10
13.0745140509506
20
-0.861217669158748
30
0
41
1
10
13.0426306514962
20
-0.856674596390889
30
0
41
1
10
12.9787063805168
20
-0.846525366349397
30
0
41
1
10
12.9466807598287
20
-0.840911919937582
30
0
41
1
10
12.8825295653743
20
-0.828569719866351
30
0
41
1
10
12.8503777070548
20
-0.82182481289874
30
0
41
1
10
12.7863216413038
20
-0.80733953588026
30
0
41
1
10
12.7543492960064
20
-0.799607768475965
30
0
41
1
10
12.6904617869521
20
-0.783232747891446
30
0
41
1
10
12.6585586780563
20
-0.774580784559959
30
0
41
1
10
12.5630336827321
20
-0.747189205714335
30
0
41
1
10
12.499697410747
20
-0.726897090428281
30
0
41
1
10
12.3728031571025
20
-0.683210251854064
30
0
41
1
10
12.3093479752079
20
-0.65973521954308
30
0
41
1
10
12.2143282791594
20
-0.62183750095511
30
0
41
1
10
12.1826547504638
20
-0.608787062792231
30
0
41
1
10
12.1191600963943
20
-0.58204622192244
30
0
41
1
10
12.0873538428178
20
-0.568338666432595
30
0
41
1
10
12.0236731146679
20
-0.540181623465685
30
0
41
1
10
11.9918001832955
20
-0.52572979103428
30
0
41
1
10
11.9280237204926
20
-0.49600822141474
30
0
41
1
10
11.8961082710907
20
-0.48075324631202
30
0
41
1
10
11.8320418534259
20
-0.44973022877798
30
0
41
1
10
11.7998458570779
20
-0.433926249409126
30
0
41
1
10
11.7355750212174
20
-0.401845330097984
30
0
41
1
10
11.7035180698561
20
-0.38557816470427
30
0
41
1
10
11.6396109349907
20
-0.352506494443503
30
0
41
1
10
11.6077614416251
20
-0.335700071664178
30
0
41
1
10
11.5440843356384
20
-0.301865039182132
30
0
41
1
10
11.5122512280043
20
-0.284846571404358
30
0
41
1
10
11.4486428262005
20
-0.250530880271697
30
0
41
1
10
11.4168680650187
20
-0.233232723622706
30
0
41
1
10
11.353424473975
20
-0.198273173881176
30
0
41
1
10
11.3217672383181
20
-0.180590880556508
30
0
41
1
10
11.226746334852
20
-0.127362111135767
30
0
41
1
10
11.1632488329681
20
-0.0917879130320216
30
0
41
1
10
11.0679945486505
20
-0.0379109348920963
30
0
41
1
10
11.036266420121
20
-0.0198205269070968
30
0
41
1
10
10.9727265011631
20
0.0163905231227091
30
0
41
1
10
10.9408904139945
20
0.034466606394858
30
0
41
1
10
10.8770661244733
20
0.0705222102842242
30
0
41
1
10
10.8450872582465
20
0.088518699595852
30
0
41
1
10
10.7810373254636
20
0.124527693833983
30
0
41
1
10
10.7489727236668
20
0.142568851241322
30
0
41
1
10
10.6847256486727
20
0.178558631781271
30
0
41
1
10
10.6526734607743
20
0.196383328030379
30
0
41
1
10
10.5886411053755
20
0.231577487326177
30
0
41
1
10
10.5566664450236
20
0.248958000702629
30
0
41
1
10
10.4928352242344
20
0.283358008244306
30
0
41
1
10
10.4609953309632
20
0.300406235473048
30
0
41
1
10
10.3974450879734
20
0.33415706828302
30
0
41
1
10
10.3657113901562
20
0.35081918448401
30
0
41
1
10
10.2704779392467
20
0.39991580740093
30
0
41
1
10
10.2069775276137
20
0.431523646964223
30
0
41
1
10
10.0801681829442
20
0.492835872845575
30
0
41
1
10
10.0168115905448
20
0.522452221536213
30
0
41
1
10
9.92140352797131
20
0.56465699083131
30
0
41
1
10
9.88955162701583
20
0.578376327088762
30
0
41
1
10
9.82580876311343
20
0.605193288695034
30
0
41
1
10
9.79390928832916
20
0.618277844524982
30
0
41
1
10
9.72996327870243
20
0.643669710570151
30
0
41
1
10
9.69791803611392
20
0.655979067000288
30
0
41
1
10
9.63363036725931
20
0.67975501863944
30
0
41
1
10
9.60142237947727
20
0.691213176905791
30
0
41
1
10
9.5052444242076
20
0.724224248923861
30
0
41
1
10
9.44151391385924
20
0.744463217542318
30
0
41
1
10
9.3460138695161
20
0.771729971817365
30
0
41
1
10
9.31419211757293
20
0.780304932722061
30
0
41
1
10
9.25063336541166
20
0.796491520773486
30
0
41
1
10
9.21890334498679
20
0.804106622195377
30
0
41
1
10
9.15547586108855
20
0.81832518775866
30
0
41
1
10
9.1237772087961
20
0.824927760604766
30
0
41
1
10
9.06034104368868
20
0.837079365965337
30
0
41
1
10
9.0285947767432
20
0.842625034212745
30
0
41
1
10
8.93334257357444
20
0.857716043696882
30
0
41
1
10
8.86989217384715
20
0.865732724011934
30
0
41
1
10
8.74250279887545
20
0.877361523113677
30
0
41
1
10
8.67851684952979
20
0.880988064207941
30
0
41
1
10
8.58225033757881
20
0.883108036310517
30
0
41
1
10
8.55005863176504
20
0.883253609057107
30
0
41
1
10
8.48588458699362
20
0.882416379078819
30
0
41
1
10
8.45385199872675
20
0.881437716651021
30
0
41
1
10
8.35790104764644
20
0.876859433346141
30
0
41
1
10
8.2942541352844
20
0.871589757908282
30
0
41
1
10
8.1671841045532
20
0.856750402060271
30
0
41
1
10
8.10366876928174
20
0.84723060523126
30
0
41
1
10
8.00844365213158
20
0.82984832592598
30
0
41
1
10
7.97672198789093
20
0.823528327261954
30
0
41
1
10
7.91331024713784
20
0.809826761204675
30
0
41
1
10
7.88160164785072
20
0.802455539314593
30
0
41
1
10
7.78625647351905
20
0.77894812040941
30
0
41
1
10
7.72250842130023
20
0.761357133035858
30
0
41
1
10
7.6267771211144
20
0.731861636938675
30
0
41
1
10
7.5948323099193
20
0.721521440779526
30
0
41
1
10
7.53072362784118
20
0.699976987590048
30
0
41
1
10
7.49852040481116
20
0.688752749822328
30
0
41
1
10
7.43417109786878
20
0.665459711685685
30
0
41
1
10
7.40207711722999
20
0.653410661977802
30
0
41
1
10
7.33808956280697
20
0.628459147500877
30
0
41
1
10
7.30619649107598
20
0.615553797225772
30
0
41
1
10
7.2527605777303
20
0.593410436184001
30
0
41
1
10
7.23121147867255
20
0.584342164963374
30
0
41
1
10
7.20967368677452
20
0.575126982942692
30
0
0
SPLINE
5
F1
100
AcDbEntity
8
SK1
62
256
6
ByLayer
370
18
48
1
60
0
100
AcDbSpline
70
4
71
3
72
11
73
7
40
0
40
0
40
0
40
0
40
0.29964566207074
40
0.484168558569894
40
0.677220937738255
40
1
40
1
40
1
40
1
41
1
10
8.96211842754798
20
-0.853517530439092
30
0
41
1
10
9.14613928892072
20
-0.854217810093388
30
0
41
1
10
9.44347889111361
20
-0.855054758068917
30
0
41
1
10
9.85934530858248
20
-0.853822093292422
30
0
41
1
10
10.2894706190681
20
-0.855687360018578
30
0
41
1
10
10.6062673100617
20
-0.855416625308891
30
0
41
1
10
10.804506129668
20
-0.855115559700977
30
0
0
SPLINE
5
F2
100
AcDbEntity
8
SK1
62
256
6
ByLayer
370
18
48
1
60
0
100
AcDbSpline
70
4
71
3
72
11
73
7
40
0
40
0
40
0
40
0
40
0.299624262508345
40
0.484319425148064
40
0.676932137133278
40
1
40
1
40
1
40
1
41
1
10
18.7588915571081
20
-0.8632328425401
30
0
41
1
10
18.9428259906003
20
-0.863401857763137
30
0
41
1
10
19.2401406104701
20
-0.863652731681839
30
0
41
1
10
19.6556669086279
20
-0.86456149092075
30
0
41
1
10
20.0856388453336
20
-0.864174815602837
30
0
41
1
10
20.4022212788323
20
-0.864800421316033
30
0
41
1
10
20.600561774944
20
-0.865309962884396
30
0
0
SPLINE
5
F3
100
AcDbEntity
8
SK1
62
256
6
ByLayer
370
18
48
1
60
0
100
AcDbSpline
70
4
71
3
72
11
73
7
40
0
40
0
40
0
40
0
40
0.384031351609966
40
0.613121722735231
40
0.832709847478762
40
1
40
1
40
1
40
1
41
1
10
25.4968334249988
20
0.870697165192354
30
0
41
1
10
25.2986112298526
20
0.870816946283838
30
0
41
1
10
24.9821509179441
20
0.870831123713572
30
0
41
1
10
24.5523440120847
20
0.868183668339299
30
0
41
1
10
24.2344603218022
20
0.869324669017175
30
0
41
1
10
24.0347890065813
20
0.869220545231741
30
0
41
1
10
23.9484473755787
20
0.869082687321594
30
0
0
SPLINE
5
F4
100
AcDbEntity
8
SK1
62
256
6
ByLayer
370
18
48
1
60
0
100
AcDbSpline
70
4
71
3
72
12
73
8
40
0
40
0
40
0
40
0
40
0.202486091755278
40
0.367621826619316
40
0.586999270917922
40
0.797834394171736
40
1
40
1
40
1
40
1
41
1
10
15.7020932888326
20
0.86117154521412
30
0
41
1
10
15.5930225941704
20
0.86026623985498
30
0
41
1
10
15.3949997055397
20
0.859142007140122
30
0
41
1
10
15.0788078451576
20
0.860120173590275
30
0
41
1
10
14.7581115024275
20
0.859715966127794
30
0
41
1
10
14.4174994795136
20
0.858651256398872
30
0
41
1
10
14.1950445609884
20
0.858419202282363
30
0
41
1
10
14.0861518686414
20
0.858382988605285
30
0
0
SPLINE
5
F5
100
AcDbEntity
8
SK1
62
256
6
ByLayer
370
18
48
1
60
0
100
AcDbSpline
70
4
71
3
72
12
73
8
40
0
40
0
40
0
40
0
40
0.300299427033629
40
0.485201779727111
40
0.677595745934828
40
0.822419745934907
40
1
40
1
40
1
40
1
41
1
10
13.859521140289
20
-0.858408110543564
30
0
41
1
10
14.0439568838126
20
-0.858315023908489
30
0
41
1
10
14.341957287553
20
-0.858415121144276
30
0
41
1
10
14.7581115024276
20
-0.859715966127766
30
0
41
1
10
15.0788078451577
20
-0.860120173590246
30
0
41
1
10
15.3949997055398
20
-0.859142007140093
30
0
41
1
10
15.5930225941704
20
-0.860266239854951
30
0
41
1
10
15.7020932888326
20
-0.861171545214063
30
0
0
SPLINE
5
F6
100
AcDbEntity
8
SK1
62
256
6
ByLayer
370
18
48
1
60
0
100
AcDbSpline
70
4
71
3
72
11
73
7
40
0
40
0
40
0
40
0
40
0.299509032695104
40
0.484230635755279
40
0.676945704702351
40
1
40
1
40
1
40
1
41
1
10
23.6561872938236
20
-0.868348602837756
30
0
41
1
10
23.8399526518985
20
-0.868923577266031
30
0
41
1
10
24.1370509879988
20
-0.869674306696908
30
0
41
1
10
24.5523440120847
20
-0.868183668339242
30
0
41
1
10
24.9821509179442
20
-0.870831123713515
30
0
41
1
10
25.2986112298527
20
-0.87081694628381
30
0
41
1
10
25.4968334249988
20
-0.870697165192297
30
0
0
SPLINE
5
F7
100
AcDbEntity
8
SK1
62
256
6
ByLayer
370
18
48
1
60
0
100
AcDbSpline
70
4
71
3
72
11
73
7
40
0
40
0
40
0
40
0
40
0.370139046975233
40
0.590815548243125
40
0.802420908410449
40
1
40
1
40
1
40
1
41
1
10
20.600561774944
20
0.865309962884425
30
0
41
1
10
20.4022212788323
20
0.864800421316062
30
0
41
1
10
20.0856388453337
20
0.864174815602865
30
0
41
1
10
19.6556669086281
20
0.864561490920778
30
0
41
1
10
19.3182033167602
20
0.86382345542637
30
0
41
1
10
19.0989610830357
20
0.863561136949386
30
0
41
1
10
18.9930963463866
20
0.86345332825988
30
0
0
SPLINE
5
F8
100
AcDbEntity
8
SK1
62
256
6
ByLayer
370
18
48
1
60
0
100
AcDbSpline
70
4
71
3
72
11
73
7
40
0
40
0
40
0
40
0
40
0.36683346886974
40
0.586234545964581
40
0.795941996424272
40
1
40
1
40
1
40
1
41
1
10
10.804506129668
20
0.855115559700977
30
0
41
1
10
10.6062673100617
20
0.855416625308891
30
0
41
1
10
10.2894706190682
20
0.855687360018607
30
0
41
1
10
9.85934530858262
20
0.85382209329245
30
0
41
1
10
9.51722580952168
20
0.85483616569195
30
0
41
1
10
9.29364285378483
20
0.854527292583043
30
0
41
1
10
9.18337625043418
20
0.85424103540015
30
0
0
LINE
5
80
100
AcDbEntity
8
4
62
256
6
ByLayer
370
13
48
0.05
60
0
100
AcDbLine
10
0
20
0
30
0
11
28.961
21
0
31
0
39
0
210
0
220
0
230
1
0
LINE
5
82
100
AcDbEntity
8
81
62
256
6
ByLayer
370
18
48
1
60
0
100
AcDbLine
10
28.961
20
0
30
0
11
38.961
21
0
31
0
39
0
210
0
220
0
230
1
0
LINE
5
83
100
AcDbEntity
8
SK4
62
256
6
ByLayer
370
13
48
0.05
60
0
100
AcDbLine
10
-26.039
20
0
30
0
11
33.961
21
0
31
0
39
0
210
0
220
0
230
1
0
LINE
5
85
100
AcDbEntity
8
80
62
256
6
ByLayer
370
18
48
1
60
0
100
AcDbLine
10
0
20
0
30
0
11
-10
21
0
31
0
39
0
210
0
220
0
230
1
0
LINE
5
86
100
AcDbEntity
8
SK1
62
256
6
ByLayer
370
18
48
1
60
0
100
AcDbLine
10
28.925971
20
-0.068772
30
0
11
28.730223
21
-0.466576
31
0
39
0
210
0
220
0
230
1
0
LINE
5
88
100
AcDbEntity
8
SK1
62
256
6
ByLayer
370
18
48
1
60
0
100
AcDbLine
10
28.95205
20
-0.021526
30
0
11
28.948874
21
-0.026877
31
0
39
0
210
0
220
0
230
1
0
LINE
5
89
100
AcDbEntity
8
SK1
62
256
6
ByLayer
370
18
48
1
60
0
100
AcDbLine
10
28.95205
20
-0.021526
30
0
11
28.961
21
0
31
0
39
0
210
0
220
0
230
1
0
LINE
5
8A
100
AcDbEntity
8
SK1
62
256
6
ByLayer
370
18
48
1
60
0
100
AcDbLine
10
28.925971
20
0.068772
30
0
11
28.730223
21
0.466576
31
0
39
0
210
0
220
0
230
1
0
LINE
5
8B
100
AcDbEntity
8
SK1
62
256
6
ByLayer
370
13
48
1
60
0
100
AcDbLine
10
28.925971
20
0.068772
30
0
11
28.337226
21
0.406281
31
0
39
0
210
0
220
0
230
1
0
LINE
5
8C
100
AcDbEntity
8
SK1
62
256
6
ByLayer
370
18
48
1
60
0
100
AcDbLine
10
28.961
20
0
30
0
11
28.420495
21
-0.899552
31
0
39
0
210
0
220
0
230
1
0
LINE
5
8D
100
AcDbEntity
8
SK1
62
256
6
ByLayer
370
18
48
1
60
0
100
AcDbLine
10
28.961
20
0
30
0
11
28.95205
21
0.021526
31
0
39
0
210
0
220
0
230
1
0
LINE
5
8E
100
AcDbEntity
8
SK1
62
256
6
ByLayer
370
18
48
1
60
0
100
AcDbLine
10
28.09753
20
-0.551817
30
0
11
28.95205
21
0.021526
31
0
39
0
210
0
220
0
230
1
0
LINE
5
8F
100
AcDbEntity
8
SK1
62
256
6
ByLayer
370
18
48
1
60
0
100
AcDbLine
10
28.95205
20
0.021526
30
0
11
28.948874
21
0.026877
31
0
39
0
210
0
220
0
230
1
0
LINE
5
90
100
AcDbEntity
8
SK1
62
256
6
ByLayer
370
13
48
1
60
0
100
AcDbLine
10
28.948874
20
0.026877
30
0
11
28.311766
21
0.392112
31
0
39
0
210
0
220
0
230
1
0
LINE
5
91
100
AcDbEntity
8
SK1
62
256
6
ByLayer
370
18
48
1
60
0
100
AcDbLine
10
1.902
20
-0.877551
30
0
11
1.902
21
0.877551
31
0
39
0
210
0
220
0
230
1
0
LINE
5
92
100
AcDbEntity
8
SK1
62
256
6
ByLayer
370
18
48
1
60
0
100
AcDbLine
10
-0.000957
20
-1.5
30
0
11
-0.000957
21
1.5
31
0
39
0
210
0
220
0
230
1
0
LINE
5
93
100
AcDbEntity
8
SK1
62
256
6
ByLayer
370
18
48
1
60
0
100
AcDbLine
10
-21.039
20
-1.35
30
0
11
-21.039
21
1.35
31
0
39
0
210
0
220
0
230
1
0
LINE
5
94
100
AcDbEntity
8
SK1
62
256
6
ByLayer
370
18
48
1
60
0
100
AcDbLine
10
-20.952397
20
-1.5
30
0
11
-20.952397
21
1.5
31
0
39
0
210
0
220
0
230
1
0
LINE
5
95
100
AcDbEntity
8
SK1
62
256
6
ByLayer
370
18
48
1
60
0
100
AcDbLine
10
1.902
20
-0.877551
30
0
11
5.875895
21
-0.880848
31
0
39
0
210
0
220
0
230
1
0
LINE
5
96
100
AcDbEntity
8
SK1
62
256
6
ByLayer
370
18
48
1
60
0
100
AcDbLine
10
8.551598
20
-0.883068
30
0
11
8.883479
21
-0.883343
31
0
39
0
210
0
220
0
230
1
0
LINE
5
97
100
AcDbEntity
8
SK1
62
256
6
ByLayer
370
18
48
1
60
0
100
AcDbLine
10
13.451216
20
-0.887133
30
0
11
13.780579
21
-0.887406
31
0
39
0
210
0
220
0
230
1
0
LINE
5
98
100
AcDbEntity
8
SK1
62
256
6
ByLayer
370
18
48
1
60
0
100
AcDbLine
10
18.350528
20
-0.891197
30
0
11
18.678204
21
-0.891469
31
0
39
0
210
0
220
0
230
1
0
LINE
5
99
100
AcDbEntity
8
SK1
62
256
6
ByLayer
370
18
48
1
60
0
100
AcDbLine
10
23.250241
20
-0.895262
30
0
11
23.576096
21
-0.895533
31
0
39
0
210
0
220
0
230
1
0
LINE
5
9A
100
AcDbEntity
8
SK1
62
256
6
ByLayer
370
18
48
1
60
0
100
AcDbLine
10
28.150218
20
-0.899327
30
0
11
28.420495
21
-0.899552
31
0
39
0
210
0
220
0
230
1
0
LINE
5
9B
100
AcDbEntity
8
SK1
62
256
6
ByLayer
370
18
48
1
60
0
100
AcDbLine
10
28.420495
20
0.899552
30
0
11
28.150218
21
0.899327
31
0
39
0
210
0
220
0
230
1
0
LINE
5
9C
100
AcDbEntity
8
SK1
62
256
6
ByLayer
370
18
48
1
60
0
100
AcDbLine
10
23.576096
20
0.895533
30
0
11
23.250241
21
0.895262
31
0
39
0
210
0
220
0
230
1
0
LINE
5
9D
100
AcDbEntity
8
SK1
62
256
6
ByLayer
370
18
48
1
60
0
100
AcDbLine
10
18.678204
20
0.891469
30
0
11
18.350528
21
0.891197
31
0
39
0
210
0
220
0
230
1
0
LINE
5
9E
100
AcDbEntity
8
SK1
62
256
6
ByLayer
370
18
48
1
60
0
100
AcDbLine
10
13.780579
20
0.887406
30
0
11
13.451216
21
0.887133
31
0
39
0
210
0
220
0
230
1
0
LINE
5
9F
100
AcDbEntity
8
SK1
62
256
6
ByLayer
370
18
48
1
60
0
100
AcDbLine
10
8.883479
20
0.883343
30
0
11
8.551598
21
0.883068
31
0
39
0
210
0
220
0
230
1
0
LINE
5
A0
100
AcDbEntity
8
SK1
62
256
6
ByLayer
370
18
48
1
60
0
100
AcDbLine
10
5.875895
20
0.880848
30
0
11
1.902
21
0.877551
31
0
39
0
210
0
220
0
230
1
0
LINE
5
A1
100
AcDbEntity
8
SK1
62
256
6
ByLayer
370
18
48
1
60
0
100
AcDbLine
10
1.902
20
0.877551
30
0
11
-0.000957
21
1.5
31
0
39
0
210
0
220
0
230
1
0
LINE
5
A2
100
AcDbEntity
8
SK1
62
256
6
ByLayer
370
18
48
1
60
0
100
AcDbLine
10
-0.000957
20
-1.5
30
0
11
1.902
21
-0.877551
31
0
39
0
210
0
220
0
230
1
0
LINE
5
A3
100
AcDbEntity
8
SK1
62
256
6
ByLayer
370
18
48
1
60
0
100
AcDbLine
10
-20.952397
20
-1.5
30
0
11
-0.000957
21
-1.5
31
0
39
0
210
0
220
0
230
1
0
LINE
5
A4
100
AcDbEntity
8
SK1
62
256
6
ByLayer
370
18
48
1
60
0
100
AcDbLine
10
-0.000957
20
1.5
30
0
11
-20.952397
21
1.5
31
0
39
0
210
0
220
0
230
1
0
LINE
5
A5
100
AcDbEntity
8
SK1
62
256
6
ByLayer
370
18
48
1
60
0
100
AcDbLine
10
-21.039
20
-1.35
30
0
11
-20.952397
21
-1.5
31
0
39
0
210
0
220
0
230
1
0
LINE
5
A6
100
AcDbEntity
8
SK1
62
256
6
ByLayer
370
18
48
1
60
0
100
AcDbLine
10
-20.952397
20
1.5
30
0
11
-21.039
21
1.35
31
0
39
0
210
0
220
0
230
1
0
LINE
5
A7
100
AcDbEntity
8
2
62
256
6
ByLayer
370
13
48
1
60
0
100
AcDbLine
10
45.961
20
24.548665
30
0
11
45.961
21
-9.65
31
0
39
0
210
0
220
0
230
1
0
LINE
5
A9
100
AcDbEntity
8
2
62
256
6
ByLayer
370
13
48
1
60
0
100
AcDbLine
10
30.5485
20
0.9
30
0
11
47.961
21
0.9
31
0
39
0
210
0
220
0
230
1
0
LINE
5
AA
100
AcDbEntity
8
2
62
256
6
ByLayer
370
13
48
1
60
0
100
AcDbLine
10
30.5485
20
-0.9
30
0
11
47.961
21
-0.9
31
0
39
0
210
0
220
0
230
1
0
LINE
5
AB
100
AcDbEntity
8
1
62
256
6
ByLayer
370
18
48
1
60
1
100
AcDbLine
10
45.961
20
0.9
30
0
11
45.500216
21
4.399998
31
0
39
0
210
0
220
0
230
1
0
LINE
5
AC
100
AcDbEntity
8
1
62
256
6
ByLayer
370
18
48
1
60
1
100
AcDbLine
10
45.500216
20
4.399998
30
0
11
46.421784
21
4.400002
31
0
39
0
210
0
220
0
230
1
0
LINE
5
AD
100
AcDbEntity
8
1
62
256
6
ByLayer
370
18
48
1
60
1
100
AcDbLine
10
46.421784
20
4.400002
30
0
11
45.961
21
0.9
31
0
39
0
210
0
220
0
230
1
0
LINE
5
AE
100
AcDbEntity
8
1
62
256
6
ByLayer
370
18
48
1
60
1
100
AcDbLine
10
45.961
20
-0.9
30
0
11
46.421784
21
-4.399998
31
0
39
0
210
0
220
0
230
1
0
LINE
5
AF
100
AcDbEntity
8
1
62
256
6
ByLayer
370
18
48
1
60
1
100
AcDbLine
10
46.421784
20
-4.399998
30
0
11
45.500216
21
-4.400002
31
0
39
0
210
0
220
0
230
1
0
LINE
5
B0
100
AcDbEntity
8
1
62
256
6
ByLayer
370
18
48
1
60
1
100
AcDbLine
10
45.500216
20
-4.400002
30
0
11
45.961
21
-0.9
31
0
39
0
210
0
220
0
230
1
0
LINE
5
B1
100
AcDbEntity
8
SK2
62
256
6
ByLayer
370
13
48
1
60
0
100
AcDbLine
10
-29.039
20
10.25
30
0
11
-29.039
21
-23.5
31
0
39
0
210
0
220
0
230
1
0
LINE
5
B3
100
AcDbEntity
8
SK2
62
256
6
ByLayer
370
13
48
1
60
0
100
AcDbLine
10
-22.6265
20
1.5
30
0
11
-31.039
21
1.5
31
0
39
0
210
0
220
0
230
1
0
LINE
5
B4
100
AcDbEntity
8
SK2
62
256
6
ByLayer
370
13
48
1
60
0
100
AcDbLine
10
-22.6265
20
-1.5
30
0
11
-31.039
21
-1.5
31
0
39
0
210
0
220
0
230
1
0
LINE
5
B5
100
AcDbEntity
8
1
62
256
6
ByLayer
370
18
48
1
60
1
100
AcDbLine
10
-29.039
20
1.5
30
0
11
-29.499784
21
4.999998
31
0
39
0
210
0
220
0
230
1
0
LINE
5
B6
100
AcDbEntity
8
1
62
256
6
ByLayer
370
18
48
1
60
1
100
AcDbLine
10
-29.499784
20
4.999998
30
0
11
-28.578216
21
5.000002
31
0
39
0
210
0
220
0
230
1
0
LINE
5
B7
100
AcDbEntity
8
1
62
256
6
ByLayer
370
18
48
1
60
1
100
AcDbLine
10
-28.578216
20
5.000002
30
0
11
-29.039
21
1.5
31
0
39
0
210
0
220
0
230
1
0
LINE
5
B8
100
AcDbEntity
8
1
62
256
6
ByLayer
370
18
48
1
60
1
100
AcDbLine
10
-29.039
20
-1.5
30
0
11
-28.578216
21
-4.999998
31
0
39
0
210
0
220
0
230
1
0
LINE
5
B9
100
AcDbEntity
8
1
62
256
6
ByLayer
370
18
48
1
60
1
100
AcDbLine
10
-28.578216
20
-4.999998
30
0
11
-29.499784
21
-5.000002
31
0
39
0
210
0
220
0
230
1
0
LINE
5
BA
100
AcDbEntity
8
1
62
256
6
ByLayer
370
18
48
1
60
1
100
AcDbLine
10
-29.499784
20
-5.000002
30
0
11
-29.039
21
-1.5
31
0
39
0
210
0
220
0
230
1
0
LINE
5
FE
100
AcDbEntity
8
1
62
256
6
ByLayer
370
18
48
1
60
1
100
AcDbLine
10
45.961
20
0.9
30
0
11
45.500216
21
4.399998
31
0
39
0
210
0
220
0
230
1
0
LINE
5
FF
100
AcDbEntity
8
1
62
256
6
ByLayer
370
18
48
1
60
1
100
AcDbLine
10
45.500216
20
4.399998
30
0
11
46.421784
21
4.400002
31
0
39
0
210
0
220
0
230
1
0
LINE
5
100
100
AcDbEntity
8
1
62
256
6
ByLayer
370
18
48
1
60
1
100
AcDbLine
10
46.421784
20
4.400002
30
0
11
45.961
21
0.9
31
0
39
0
210
0
220
0
230
1
0
LINE
5
102
100
AcDbEntity
8
1
62
256
6
ByLayer
370
18
48
1
60
1
100
AcDbLine
10
45.961
20
-0.9
30
0
11
46.421784
21
-4.399998
31
0
39
0
210
0
220
0
230
1
0
LINE
5
103
100
AcDbEntity
8
1
62
256
6
ByLayer
370
18
48
1
60
1
100
AcDbLine
10
46.421784
20
-4.399998
30
0
11
45.500216
21
-4.400002
31
0
39
0
210
0
220
0
230
1
0
LINE
5
104
100
AcDbEntity
8
1
62
256
6
ByLayer
370
18
48
1
60
1
100
AcDbLine
10
45.500216
20
-4.400002
30
0
11
45.961
21
-0.9
31
0
39
0
210
0
220
0
230
1
0
LINE
5
108
100
AcDbEntity
8
1
62
256
6
ByLayer
370
18
48
1
60
1
100
AcDbLine
10
-29.039
20
1.5
30
0
11
-29.499784
21
4.999998
31
0
39
0
210
0
220
0
230
1
0
LINE
5
109
100
AcDbEntity
8
1
62
256
6
ByLayer
370
18
48
1
60
1
100
AcDbLine
10
-29.499784
20
4.999998
30
0
11
-28.578216
21
5.000002
31
0
39
0
210
0
220
0
230
1
0
LINE
5
10A
100
AcDbEntity
8
1
62
256
6
ByLayer
370
18
48
1
60
1
100
AcDbLine
10
-28.578216
20
5.000002
30
0
11
-29.039
21
1.5
31
0
39
0
210
0
220
0
230
1
0
LINE
5
10C
100
AcDbEntity
8
1
62
256
6
ByLayer
370
18
48
1
60
1
100
AcDbLine
10
-29.039
20
-1.5
30
0
11
-28.578216
21
-4.999998
31
0
39
0
210
0
220
0
230
1
0
LINE
5
10D
100
AcDbEntity
8
1
62
256
6
ByLayer
370
18
48
1
60
1
100
AcDbLine
10
-28.578216
20
-4.999998
30
0
11
-29.499784
21
-5.000002
31
0
39
0
210
0
220
0
230
1
0
LINE
5
10E
100
AcDbEntity
8
1
62
256
6
ByLayer
370
18
48
1
60
1
100
AcDbLine
10
-29.499784
20
-5.000002
30
0
11
-29.039
21
-1.5
31
0
39
0
210
0
220
0
230
1
0
MTEXT
5
F9
100
AcDbEntity
8
2
62
256
6
ByLayer
370
18
48
1
60
0
100
AcDbMText
10
44.396366
20
10.393977
30
0
210
0
220
0
230
1
1
%%c
40
3.5
41
0
44
1.084337
50
90
71
7
72
5
7
iso_b_vert
0
MTEXT
5
FC
100
AcDbEntity
8
2
62
256
6
ByLayer
370
18
48
1
60
0
100
AcDbMText
10
44.396366
20
4.0575
30
0
210
0
220
0
230
1
1
\W0.2969; 
40
3.5
41
0
44
1.084337
50
90
71
7
72
5
7
iso_b_vert
0
MTEXT
5
FD
100
AcDbEntity
8
2
62
256
6
ByLayer
370
18
48
1
60
0
100
AcDbMText
10
44.396366
20
17.366633
30
0
210
0
220
0
230
1
1
\W0.6563;1.80
40
3.5
41
0
44
1.084337
50
90
71
7
72
5
7
iso_b_vert
0
MTEXT
5
106
100
AcDbEntity
8
SK2
62
256
6
ByLayer
370
18
48
1
60
0
100
AcDbMText
10
-30.603634
20
-21.565156
30
0
210
0
220
0
230
1
1
%%c
40
3.5
41
0
44
1.084337
50
90
71
7
72
5
7
iso_b_vert
0
MTEXT
5
107
100
AcDbEntity
8
SK2
62
256
6
ByLayer
370
18
48
1
60
0
100
AcDbMText
10
-30.603634
20
-14.5925
30
0
210
0
220
0
230
1
1
\W0.7346;3.00
40
3.5
41
0
44
1.084337
50
90
71
7
72
5
7
iso_b_vert
0
MTEXT
5
110
100
AcDbEntity
8
SK6
62
256
6
ByLayer
370
18
48
1
60
0
100
AcDbMText
10
-20.8535
20
-59.217366
30
0
210
0
220
0
230
1
1
\W0.7324;862.1-1800-216A0-GM X1DU
40
3.5
41
0
44
1.084337
50
0
71
7
72
5
7
iso_b_vert
0
HATCH
5
101
100
AcDbEntity
8
2
62
256
6
ByLayer
370
13
48
1
60
0
100
AcDbHatch
10
0
20
0
30
0
210
0
220
0
230
1
2
ANSI31
70
0
71
0
91
1
92
5
93
3
72
1
10
45.961
20
0.900000000000034
11
45.5002162584472
21
4.39999830744685
72
1
10
45.5002162584472
20
4.39999830744685
11
46.4217837415528
21
4.40000169255322
72
1
10
46.4217837415528
20
4.40000169255322
11
45.961
21
0.900000000000034
97
0
75
0
76
1
52
0
41
0.0062
77
0
78
1
53
45
43
0
44
0
45
-0.0139193969876572
46
0.0139193969876572
79
0
47
0
98
1
10
0
20
0
0
HATCH
5
105
100
AcDbEntity
8
2
62
256
6
ByLayer
370
13
48
1
60
0
100
AcDbHatch
10
0
20
0
30
0
210
0
220
0
230
1
2
ANSI31
70
0
71
0
91
1
92
5
93
3
72
1
10
45.961
20
-0.899999999999977
11
46.4217837415528
21
-4.39999830744679
72
1
10
46.4217837415528
20
-4.39999830744679
11
45.5002162584472
21
-4.40000169255316
72
1
10
45.5002162584472
20
-4.40000169255316
11
45.961
21
-0.899999999999977
97
0
75
0
76
1
52
0
41
0.0062
77
0
78
1
53
45
43
0
44
0
45
-0.0139193969876572
46
0.0139193969876572
79
0
47
0
98
1
10
0
20
0
0
HATCH
5
10B
100
AcDbEntity
8
SK2
62
256
6
ByLayer
370
13
48
1
60
0
100
AcDbHatch
10
0
20
0
30
0
210
0
220
0
230
1
2
ANSI31
70
0
71
0
91
1
92
5
93
3
72
1
10
-29.039
20
1.49999999999997
11
-29.4997837415528
21
4.99999830744679
72
1
10
-29.4997837415528
20
4.99999830744679
11
-28.5782162584472
21
5.00000169255316
72
1
10
-28.5782162584472
20
5.00000169255316
11
-29.039
21
1.49999999999997
97
0
75
0
76
1
52
0
41
0.0062
77
0
78
1
53
45
43
0
44
0
45
-0.0139193969876572
46
0.0139193969876572
79
0
47
0
98
1
10
0
20
0
0
HATCH
5
10F
100
AcDbEntity
8
SK2
62
256
6
ByLayer
370
13
48
1
60
0
100
AcDbHatch
10
0
20
0
30
0
210
0
220
0
230
1
2
ANSI31
70
0
71
0
91
1
92
5
93
3
72
1
10
-29.039
20
-1.50000000000003
11
-28.5782162584472
21
-4.99999830744684
72
1
10
-28.5782162584472
20
-4.99999830744684
11
-29.4997837415528
21
-5.00000169255321
72
1
10
-29.4997837415528
20
-5.00000169255321
11
-29.039
21
-1.50000000000003
97
0
75
0
76
1
52
0
41
0.0062
77
0
78
1
53
45
43
0
44
0
45
-0.0139193969876572
46
0.0139193969876572
79
0
47
0
98
1
10
0
20
0
0
DIMENSION
5
113
100
AcDbEntity
8
2
62
256
6
ByLayer
370
18
48
1
60
0
100
AcDbDimension
2
_U0
10
28.42
20
22.35
30
0
11
21.301199
21
22.35
31
0
70
32
71
1
72
1
41
1
210
0
220
0
230
1
3
Standard
100
AcDbAlignedDimension
13
0
23
-1.5
33
0
14
28.42
24
-0.9
34
0
50
0
100
AcDbRotatedDimension
1001
ACAD
1000
DSTYLE
1002
{
1070
   371
1070
    13
1070
   372
1070
    13
1070
   170
1070
     0
1070
   144
1040
1.0
1070
   277
1070
     2
1070
   284
1070
     8
1070
   278
1070
    46
1070
   146
1040
1.0
1070
   345
1005
16
1070
   347
1005
16
1070
   346
1005
16
1070
   344
1005
0
1070
   343
1005
0
1070
   172
1070
     1
1070
    76
1070
     0
1070
    75
1070
     0
1070
   282
1070
     0
1070
   281
1070
     0
1070
    71
1070
     0
1070
    74
1070
     0
1070
   279
1070
     0
1070
   173
1070
     1
1070
   340
1005
FA
1070
   271
1070
     2
1070
   272
1070
     2
1070
    77
1070
     1
1070
    73
1070
     1
1070
   171
1070
     3
1070
   274
1070
     4
1070
   177
1070
     2
1070
   176
1070
     2
1070
   178
1070
     2
1070
    78
1070
     8
1070
    48
1040
-0.1
1070
    41
1040
3.5
1070
   147
1040
1.75
1070
    42
1040
1.5875
1070
    44
1040
2.0
1070
   140
1040
3.5
1002
}
1001
ACAD_DSTYLE_DIM_LINETYPE
1070
   380
1005
16
1001
ACAD_DSTYLE_DIM_EXT1_LINETYPE
1070
   381
1005
16
1001
ACAD_DSTYLE_DIM_EXT2_LINETYPE
1070
   382
1005
16
0
DIMENSION
5
12C
100
AcDbEntity
8
SK2
62
256
6
ByLayer
370
18
48
1
60
0
100
AcDbDimension
2
_U1
10
0
20
-23.25
30
0
11
-9.877234
21
-23.25
31
0
70
32
71
1
72
1
41
1
210
0
220
0
230
1
3
Standard
100
AcDbAlignedDimension
13
-21.039
23
-1.5
33
0
14
0
24
-1.5
34
0
50
0
100
AcDbRotatedDimension
1001
ACAD
1000
DSTYLE
1002
{
1070
   371
1070
    13
1070
   372
1070
    13
1070
   170
1070
     0
1070
   144
1040
1.0
1070
   277
1070
     2
1070
   284
1070
     8
1070
   278
1070
    46
1070
   146
1040
1.0
1070
   345
1005
16
1070
   347
1005
16
1070
   346
1005
16
1070
   344
1005
0
1070
   343
1005
0
1070
   172
1070
     1
1070
    76
1070
     0
1070
    75
1070
     0
1070
   282
1070
     0
1070
   281
1070
     0
1070
    71
1070
     0
1070
    74
1070
     0
1070
   279
1070
     0
1070
   173
1070
     1
1070
   340
1005
FA
1070
   271
1070
     2
1070
   272
1070
     2
1070
    77
1070
     1
1070
    73
1070
     1
1070
   171
1070
     3
1070
   274
1070
     4
1070
   177
1070
     2
1070
   176
1070
     2
1070
   178
1070
     2
1070
    78
1070
     8
1070
    48
1040
-0.1
1070
    41
1040
3.5
1070
   147
1040
1.75
1070
    42
1040
1.5875
1070
    44
1040
2.0
1070
   140
1040
3.5
1002
}
1001
ACAD_DSTYLE_DIM_LINETYPE
1070
   380
1005
16
1001
ACAD_DSTYLE_DIM_EXT1_LINETYPE
1070
   381
1005
16
1001
ACAD_DSTYLE_DIM_EXT2_LINETYPE
1070
   382
1005
16
0
DIMENSION
5
144
100
AcDbEntity
8
SK2
62
256
6
ByLayer
370
18
48
1
60
0
100
AcDbDimension
2
_U2
10
28.961
20
-16.15
30
0
11
43.044333
21
-16.15
31
0
70
32
71
1
72
1
41
1
210
0
220
0
230
1
3
Standard
100
AcDbAlignedDimension
13
7.361
23
-0.9
33
0
14
28.961
24
-0.9
34
0
50
0
100
AcDbRotatedDimension
1001
ACAD
1000
DSTYLE
1002
{
1070
   371
1070
    13
1070
   372
1070
    13
1070
   170
1070
     0
1070
   144
1040
1.0
1070
   277
1070
     2
1070
   284
1070
     8
1070
   278
1070
    46
1070
   146
1040
1.0
1070
   345
1005
16
1070
   347
1005
16
1070
   346
1005
16
1070
   344
1005
0
1070
   343
1005
0
1070
   172
1070
     1
1070
    76
1070
     0
1070
    75
1070
     0
1070
   282
1070
     0
1070
   281
1070
     0
1070
    71
1070
     0
1070
    74
1070
     0
1070
   279
1070
     0
1070
   173
1070
     1
1070
   340
1005
FA
1070
   271
1070
     2
1070
   272
1070
     2
1070
    77
1070
     1
1070
    73
1070
     1
1070
   171
1070
     3
1070
   274
1070
     4
1070
   177
1070
     2
1070
   176
1070
     2
1070
   178
1070
     2
1070
    78
1070
     8
1070
    48
1040
-0.1
1070
    41
1040
3.5
1070
   147
1040
1.75
1070
    42
1040
1.5875
1070
    44
1040
2.0
1070
   140
1040
3.5
1002
}
1001
ACAD_DSTYLE_DIM_LINETYPE
1070
   380
1005
16
1001
ACAD_DSTYLE_DIM_EXT1_LINETYPE
1070
   381
1005
16
1001
ACAD_DSTYLE_DIM_EXT2_LINETYPE
1070
   382
1005
16
0
DIMENSION
5
15D
100
AcDbEntity
8
SK2
62
256
6
ByLayer
370
18
48
1
60
0
100
AcDbDimension
2
_U3
10
28.961
20
-26.15
30
0
11
44.711
21
-26.15
31
0
70
32
71
1
72
1
41
1
210
0
220
0
230
1
3
Standard
100
AcDbAlignedDimension
13
4.243
23
-0.9
33
0
14
28.961
24
-0.9
34
0
50
0
100
AcDbRotatedDimension
1001
ACAD
1000
DSTYLE
1002
{
1070
   371
1070
    13
1070
   372
1070
    13
1070
   170
1070
     0
1070
   144
1040
1.0
1070
   277
1070
     2
1070
   284
1070
     8
1070
   278
1070
    46
1070
   146
1040
1.0
1070
   345
1005
16
1070
   347
1005
16
1070
   346
1005
16
1070
   344
1005
0
1070
   343
1005
0
1070
   172
1070
     1
1070
    76
1070
     0
1070
    75
1070
     0
1070
   282
1070
     0
1070
   281
1070
     0
1070
    71
1070
     0
1070
    74
1070
     0
1070
   279
1070
     0
1070
   173
1070
     1
1070
   340
1005
FA
1070
   271
1070
     2
1070
   272
1070
     2
1070
    77
1070
     1
1070
    73
1070
     1
1070
   171
1070
     3
1070
   274
1070
     4
1070
   177
1070
     2
1070
   176
1070
     2
1070
   178
1070
     2
1070
    78
1070
     8
1070
    48
1040
-0.1
1070
    41
1040
3.5
1070
   147
1040
1.75
1070
    42
1040
1.5875
1070
    44
1040
2.0
1070
   140
1040
3.5
1002
}
1001
ACAD_DSTYLE_DIM_LINETYPE
1070
   380
1005
16
1001
ACAD_DSTYLE_DIM_EXT1_LINETYPE
1070
   381
1005
16
1001
ACAD_DSTYLE_DIM_EXT2_LINETYPE
1070
   382
1005
16
0
DIMENSION
5
176
100
AcDbEntity
8
SK2
62
256
6
ByLayer
370
18
48
1
60
0
100
AcDbDimension
2
_U4
10
28.961
20
-34.6
30
0
11
3.961
21
-34.6
31
0
70
32
71
1
72
1
41
1
210
0
220
0
230
1
3
Standard
100
AcDbAlignedDimension
13
-21.039
23
1.5
33
0
14
28.961
24
0.9
34
0
50
0
100
AcDbRotatedDimension
1001
ACAD
1000
DSTYLE
1002
{
1070
   371
1070
    13
1070
   372
1070
    13
1070
     3
1000

1070
   170
1070
     0
1070
   144
1040
1.0
1070
   277
1070
     2
1070
   284
1070
     8
1070
   278
1070
    46
1070
   146
1040
1.0
1070
   345
1005
16
1070
   347
1005
16
1070
   346
1005
16
1070
   344
1005
0
1070
   343
1005
0
1070
   172
1070
     1
1070
    76
1070
     0
1070
    75
1070
     0
1070
   282
1070
     0
1070
   281
1070
     0
1070
    71
1070
     0
1070
    74
1070
     0
1070
   279
1070
     0
1070
   173
1070
     1
1070
   340
1005
FA
1070
   271
1070
     2
1070
   272
1070
     2
1070
    77
1070
     1
1070
    73
1070
     1
1070
   171
1070
     3
1070
   274
1070
     4
1070
   177
1070
     2
1070
   176
1070
     2
1070
   178
1070
     2
1070
    78
1070
     8
1070
    48
1040
-0.1
1070
    41
1040
3.5
1070
   147
1040
1.75
1070
    42
1040
1.5875
1070
    44
1040
2.0
1070
   140
1040
3.5
1002
}
1001
ACAD_DSTYLE_DIM_LINETYPE
1070
   380
1005
16
1001
ACAD_DSTYLE_DIM_EXT1_LINETYPE
1070
   381
1005
16
1001
ACAD_DSTYLE_DIM_EXT2_LINETYPE
1070
   382
1005
16
0
ENDSEC
0
SECTION
2
OBJECTS
0
DICTIONARY
5
200
330
0
100
AcDbDictionary
280
0
281
1
3
ACAD_GROUP
350
201
3
ACAD_MLINESTYLE
350
202
0
DICTIONARY
5
201
330
0
100
AcDbDictionary
280
0
281
1
0
DICTIONARY
5
202
330
0
100
AcDbDictionary
280
0
281
1
3
Standard
350
18
0
MLINESTYLE
5
18
330
202
100
AcDbMlineStyle
2
Standard
70
0
3

62
256
51
90
52
90
71
2
49
-0.5
62
256
6
ByLayer
49
0.5
62
256
6
ByLayer
0
RASTERVARIABLES
5
1ee
330

100
AcDbRasterVariables
90
0
70
1
71
1
72
1
0
ENDSEC
0
EOF
