0
SECTION
2
HEADER
9
$ACADVER
1
AC1015
9
$DWGCODEPAGE
3
ANSI_1252
9
$HANDSEED
5
1fb
9
$ANGBASE
50
0
9
$ANGDIR
70
0
9
$ATTMODE
70
1
9
$AUNITS
70
0
9
$AUPREC
70
0
9
$CECOLOR
62
256
9
$CELTSCALE
40
1
9
$CELTYPE
6
ByLayer
9
$CELWEIGHT
370
18
9
$CLAYER
8
0
9
$CMLJUST
70
0
9
$CMLSCALE
40
1
9
$CMLSTYLE
2
Standard
9
$DIMSTYLE
2
Standard
9
$TEXTSIZE
40
0.2
9
$TEXTSTYLE
7
Standard
9
$LUNITS
70
2
9
$LUPREC
70
4
9
$EXTNAMES
290
1
9
$INSUNITS
70
4
9
$LTSCALE
40
1
9
$LWDISPLAY
290
1
9
$PDMODE
70
0
9
$PDSIZE
40
0
9
$PLINEGEN
70
0
0
ENDSEC
0
SECTION
2
CLASSES
0
CLASS
1
RASTERVARIABLES
2
AcDbRasterVariables
3
ISM
90
0
280
0
281
0
0
ENDSEC
0
SECTION
2
TABLES
0
TABLE
2
VPORT
5
1f1
100
AcDbSymbolTable
0
VPORT
5
1
100
AcDbSymbolTableRecord
100
AcDbViewportTableRecord
2
*Active
70
0
10
0
20
0
11
1
21
1
12
-1
22
1
13
0
23
0
14
0.5
24
0.5
15
10
25
10
16
0
26
0
36
1
17
0
27
0
37
0
0
ENDTAB
0
TABLE
2
LTYPE
5
1f2
100
AcDbSymbolTable
0
LTYPE
5
14
100
AcDbSymbolTableRecord
100
AcDbLinetypeTableRecord
70
0
2
ByBlock
3

72
65
73
0
40
0
0
LTYPE
5
15
100
AcDbSymbolTableRecord
100
AcDbLinetypeTableRecord
70
0
2
ByLayer
3

72
65
73
0
40
0
0
LTYPE
5
16
100
AcDbSymbolTableRecord
100
AcDbLinetypeTableRecord
70
0
2
Continuous
3
Solid line
72
65
73
0
40
0
0
LTYPE
5
6E
100
AcDbSymbolTableRecord
100
AcDbLinetypeTableRecord
70
0
2
CENTER
3
____ _ ____ _ ____ _ ____
72
65
73
4
40
47.5
49
22
74
0
49
-8.5
74
0
49
8.5
74
0
49
-8.5
74
0
0
LTYPE
5
6F
100
AcDbSymbolTableRecord
100
AcDbLinetypeTableRecord
70
0
2
DASHED
3
__ __ __ __ __ __ __ __ __
72
65
73
2
40
25.72
49
12.86
74
0
49
-12.86
74
0
0
ENDTAB
0
TABLE
2
LAYER
5
1f3
100
AcDbSymbolTable
0
LAYER
5
10
100
AcDbSymbolTableRecord
100
AcDbLayerTableRecord
2
0
70
0
62
7
6
Continuous
290
1
370
-3
390
0
0
LAYER
5
71
100
AcDbSymbolTableRecord
100
AcDbLayerTableRecord
2
80
70
0
62
-6
6
Continuous
290
1
370
-3
390
0
0
LAYER
5
73
100
AcDbSymbolTableRecord
100
AcDbLayerTableRecord
2
81
70
0
62
-3
6
Continuous
290
1
370
-3
390
0
0
LAYER
5
75
100
AcDbSymbolTableRecord
100
AcDbLayerTableRecord
2
1
70
0
62
4
6
Continuous
290
1
370
-3
390
0
0
LAYER
5
82
100
AcDbSymbolTableRecord
100
AcDbLayerTableRecord
2
4
70
0
62
-2
6
CENTER
290
1
370
-3
390
0
0
LAYER
5
A4
100
AcDbSymbolTableRecord
100
AcDbLayerTableRecord
2
2
70
0
62
7
6
Continuous
290
1
370
-3
390
0
0
LAYER
5
101
100
AcDbSymbolTableRecord
100
AcDbLayerTableRecord
2
Defpoints
70
0
62
7
6
Continuous
290
0
370
-3
390
0
0
LAYER
5
1dd
100
AcDbSymbolTableRecord
100
AcDbLayerTableRecord
2
SK4
70
0
62
2
6
CENTER
290
1
370
-3
390
0
0
LAYER
5
1de
100
AcDbSymbolTableRecord
100
AcDbLayerTableRecord
2
SK1
70
0
62
4
6
Continuous
290
1
370
-3
390
0
0
LAYER
5
1df
100
AcDbSymbolTableRecord
100
AcDbLayerTableRecord
2
SK2
70
0
62
7
6
Continuous
290
1
370
-3
390
0
0
LAYER
5
1e0
100
AcDbSymbolTableRecord
100
AcDbLayerTableRecord
2
SK6
70
0
62
5
6
Continuous
290
1
370
-3
390
0
0
ENDTAB
0
TABLE
2
STYLE
5
1f4
100
AcDbSymbolTable
0
STYLE
5
11
100
AcDbSymbolTableRecord
100
AcDbTextStyleTableRecord
2
Standard
3
txt
70
0
71
0
40
0
41
1
42
0
50
0
0
STYLE
5
E5
100
AcDbSymbolTableRecord
100
AcDbTextStyleTableRecord
2
iso_b_vert
3
simplex.shx
70
0
71
0
40
0
41
1
42
0
50
0
0
STYLE
5
E6
100
AcDbSymbolTableRecord
100
AcDbTextStyleTableRecord
2
DWGDirectTextStyle
3
simplex
70
0
71
0
40
0
41
1
42
0
50
0
0
ENDTAB
0
TABLE
2
DIMSTYLE
5
1f5
100
AcDbSymbolTable
100
AcDbDimStyleTable
0
DIMSTYLE
105
27
100
AcDbSymbolTableRecord
100
AcDbDimStyleTableRecord
2
Standard
70
0
3
<>
41
0.18
42
0.0625
44
0.18
140
0.18
147
0.09
73
0
74
0
77
1
271
2
275
0
278
52
280
0
340
11
0
ENDTAB
0
TABLE
2
VIEW
5
1f6
100
AcDbSymbolTable
0
ENDTAB
0
TABLE
2
UCS
5
1f7
100
AcDbSymbolTable
0
ENDTAB
0
TABLE
2
APPID
5
1f8
100
AcDbSymbolTable
0
APPID
5
12
100
AcDbSymbolTableRecord
100
AcDbRegAppTableRecord
2
ACAD
70
0
0
APPID
5
FD
100
AcDbSymbolTableRecord
100
AcDbRegAppTableRecord
2
ACAD_DSTYLE_DIMBREAK
70
0
0
APPID
5
19C
100
AcDbSymbolTableRecord
100
AcDbRegAppTableRecord
2
ACAD_DSTYLE_DIM_LINETYPE
70
0
0
APPID
5
19D
100
AcDbSymbolTableRecord
100
AcDbRegAppTableRecord
2
ACAD_DSTYLE_DIM_EXT1_LINETYPE
70
0
0
APPID
5
19E
100
AcDbSymbolTableRecord
100
AcDbRegAppTableRecord
2
ACAD_DSTYLE_DIM_EXT2_LINETYPE
70
0
0
APPID
5
1D9
100
AcDbSymbolTableRecord
100
AcDbRegAppTableRecord
2
ACAD_MLEADERVER
70
0
0
ENDTAB
0
TABLE
2
BLOCK_RECORD
5
1f9
100
AcDbSymbolTable
0
BLOCK_RECORD
5
1F
100
AcDbSymbolTableRecord
100
AcDbBlockTableRecord
2
*Model_Space
340
0
70
0
0
BLOCK_RECORD
5
1B
100
AcDbSymbolTableRecord
100
AcDbBlockTableRecord
2
*Paper_Space
340
0
70
0
0
BLOCK_RECORD
5
23
100
AcDbSymbolTableRecord
100
AcDbBlockTableRecord
2
*Paper_Space0
340
0
70
0
0
BLOCK_RECORD
5
102
100
AcDbSymbolTableRecord
100
AcDbBlockTableRecord
2
*D1
340
0
70
0
0
BLOCK_RECORD
5
10F
100
AcDbSymbolTableRecord
100
AcDbBlockTableRecord
2
_U0
340
0
70
0
0
BLOCK_RECORD
5
11B
100
AcDbSymbolTableRecord
100
AcDbBlockTableRecord
2
*D3
340
0
70
0
0
BLOCK_RECORD
5
127
100
AcDbSymbolTableRecord
100
AcDbBlockTableRecord
2
_U1
340
0
70
0
0
BLOCK_RECORD
5
133
100
AcDbSymbolTableRecord
100
AcDbBlockTableRecord
2
*D5
340
0
70
0
0
BLOCK_RECORD
5
141
100
AcDbSymbolTableRecord
100
AcDbBlockTableRecord
2
_U2
340
0
70
0
0
BLOCK_RECORD
5
14D
100
AcDbSymbolTableRecord
100
AcDbBlockTableRecord
2
*D7
340
0
70
0
0
BLOCK_RECORD
5
15B
100
AcDbSymbolTableRecord
100
AcDbBlockTableRecord
2
_U3
340
0
70
0
0
BLOCK_RECORD
5
167
100
AcDbSymbolTableRecord
100
AcDbBlockTableRecord
2
*D9
340
0
70
0
0
BLOCK_RECORD
5
173
100
AcDbSymbolTableRecord
100
AcDbBlockTableRecord
2
_U4
340
0
70
0
0
ENDTAB
0
ENDSEC
0
SECTION
2
BLOCKS
0
BLOCK
5
20
100
AcDbEntity
8
0
100
AcDbBlockBegin
2
*Model_Space
70
0
10
0
20
0
30
0
3
*Model_Space
0
ENDBLK
5
21
100
AcDbEntity
8
0
100
AcDbBlockEnd
0
BLOCK
5
1C
100
AcDbEntity
8
0
100
AcDbBlockBegin
2
*Paper_Space
70
0
10
0
20
0
30
0
3
*Paper_Space
0
ENDBLK
5
1D
100
AcDbEntity
8
0
100
AcDbBlockEnd
0
BLOCK
5
24
100
AcDbEntity
8
0
100
AcDbBlockBegin
2
*Paper_Space0
70
0
10
0
20
0
30
0
3
*Paper_Space0
0
ENDBLK
5
25
100
AcDbEntity
8
0
100
AcDbBlockEnd
0
BLOCK
5
103
100
AcDbEntity
8
0
100
AcDbBlockBegin
2
*D1
70
1
10
0
20
0
30
0
3
*D1
0
LINE
5
105
100
AcDbEntity
8
0
62
256
6
ByLayer
370
-2
48
1
60
0
100
AcDbLine
10
0
20
0.0875
30
0
11
0
21
24.4
31
0
39
0
210
0
220
0
230
1
0
LINE
5
106
100
AcDbEntity
8
0
62
256
6
ByLayer
370
-2
48
1
60
0
100
AcDbLine
10
15.206
20
0.7375
30
0
11
15.206
21
24.4
31
0
39
0
210
0
220
0
230
1
0
LINE
5
107
100
AcDbEntity
8
0
62
256
6
ByLayer
370
-2
48
1
60
0
100
AcDbLine
10
-3.5
20
22.4
30
0
11
-7
21
22.4
31
0
39
0
210
0
220
0
230
1
0
LINE
5
108
100
AcDbEntity
8
0
62
256
6
ByLayer
370
-2
48
1
60
0
100
AcDbLine
10
18.706
20
22.4
30
0
11
22.206
21
22.4
31
0
39
0
210
0
220
0
230
1
0
SOLID
5
109
100
AcDbEntity
8
0
62
256
6
ByLayer
370
-1
48
1
60
0
100
AcDbTrace
10
-3.5
20
21.816667
30
0
11
-3.5
21
22.983333
31
0
12
0
22
22.4
32
0
13
0
23
22.4
33
0
39
0
210
0
220
0
230
1
0
SOLID
5
10A
100
AcDbEntity
8
0
62
256
6
ByLayer
370
-1
48
1
60
0
100
AcDbTrace
10
18.706
20
22.983333
30
0
11
18.706
21
21.816667
31
0
12
15.206
22
22.4
32
0
13
15.206
23
22.4
33
0
39
0
210
0
220
0
230
1
0
MTEXT
5
10B
100
AcDbEntity
8
0
62
256
6
ByLayer
370
18
48
1
60
0
100
AcDbMText
10
13.685066
20
29.4
30
0
210
0
220
0
230
1
1
\A1;15.21
40
3.5
41
0
44
1
50
0
71
5
72
5
7
iso_b_vert
0
POINT
5
10C
100
AcDbEntity
8
Defpoints
62
0
6
ByLayer
370
-1
48
1
60
0
100
AcDbPoint
10
0
20
-1.5
30
0
39
0
210
0
220
0
230
1
50
360
0
POINT
5
10D
100
AcDbEntity
8
Defpoints
62
0
6
ByLayer
370
-1
48
1
60
0
100
AcDbPoint
10
15.206
20
-0.85
30
0
39
0
210
0
220
0
230
1
50
360
0
POINT
5
10E
100
AcDbEntity
8
Defpoints
62
0
6
ByLayer
370
-1
48
1
60
0
100
AcDbPoint
10
15.206
20
22.4
30
0
39
0
210
0
220
0
230
1
50
360
0
ENDBLK
5
104
100
AcDbEntity
8
0
100
AcDbBlockEnd
0
BLOCK
5
116
100
AcDbEntity
8
0
100
AcDbBlockBegin
2
_U0
70
0
10
0
20
0
30
0
3
_U0
0
MTEXT
5
110
100
AcDbEntity
8
2
62
256
6
ByLayer
370
18
48
1
60
0
100
AcDbMText
10
9.3305
20
23.432634
30
0
210
0
220
0
230
1
1
\W0.6725;15.21
40
3.5
41
0
44
1.084337
50
0
71
7
72
5
7
iso_b_vert
0
LINE
5
111
100
AcDbEntity
8
2
62
256
6
ByLayer
370
13
48
1
60
0
100
AcDbLine
10
0
20
0.0875
30
0
11
0
21
24.4
31
0
39
0
210
0
220
0
230
1
0
LINE
5
112
100
AcDbEntity
8
2
62
256
6
ByLayer
370
13
48
1
60
0
100
AcDbLine
10
15.206
20
0.7375
30
0
11
15.206
21
24.4
31
0
39
0
210
0
220
0
230
1
0
LINE
5
113
100
AcDbEntity
8
2
62
256
6
ByLayer
370
13
48
1
60
0
100
AcDbLine
10
0
20
22.4
30
0
11
18.225131
21
22.4
31
0
39
0
210
0
220
0
230
1
0
SOLID
5
114
100
AcDbEntity
8
2
62
256
6
ByLayer
370
18
48
1
60
0
100
AcDbTrace
10
0
20
22.4
30
0
11
3.499998
21
22.860784
31
0
12
3.500002
22
21.939216
32
0
13
3.500002
23
21.939216
33
0
39
0
210
0
220
0
230
1
0
SOLID
5
115
100
AcDbEntity
8
2
62
256
6
ByLayer
370
18
48
1
60
0
100
AcDbTrace
10
15.206
20
22.4
30
0
11
11.706002
21
21.939216
31
0
12
11.705998
22
22.860784
32
0
13
11.705998
23
22.860784
33
0
39
0
210
0
220
0
230
1
0
ENDBLK
5
117
100
AcDbEntity
8
0
100
AcDbBlockEnd
0
BLOCK
5
11C
100
AcDbEntity
8
0
100
AcDbBlockBegin
2
*D3
70
1
10
0
20
0
30
0
3
*D3
0
LINE
5
11E
100
AcDbEntity
8
0
62
256
6
ByLayer
370
-2
48
1
60
0
100
AcDbLine
10
-21.783
20
-3.0875
30
0
11
-21.783
21
-25.25
31
0
39
0
210
0
220
0
230
1
0
LINE
5
11F
100
AcDbEntity
8
0
62
256
6
ByLayer
370
-2
48
1
60
0
100
AcDbLine
10
0
20
-3.0875
30
0
11
0
21
-25.25
31
0
39
0
210
0
220
0
230
1
0
LINE
5
120
100
AcDbEntity
8
0
62
256
6
ByLayer
370
-2
48
1
60
0
100
AcDbLine
10
-18.283
20
-23.25
30
0
11
-3.5
21
-23.25
31
0
39
0
210
0
220
0
230
1
0
SOLID
5
121
100
AcDbEntity
8
0
62
256
6
ByLayer
370
-1
48
1
60
0
100
AcDbTrace
10
-18.283
20
-22.666667
30
0
11
-18.283
21
-23.833333
31
0
12
-21.783
22
-23.25
32
0
13
-21.783
23
-23.25
33
0
39
0
210
0
220
0
230
1
0
SOLID
5
122
100
AcDbEntity
8
0
62
256
6
ByLayer
370
-1
48
1
60
0
100
AcDbTrace
10
-3.5
20
-23.833333
30
0
11
-3.5
21
-22.666667
31
0
12
0
22
-23.25
32
0
13
0
23
-23.25
33
0
39
0
210
0
220
0
230
1
0
MTEXT
5
123
100
AcDbEntity
8
0
62
256
6
ByLayer
370
18
48
1
60
0
100
AcDbMText
10
-10.805501
20
-16.25
30
0
210
0
220
0
230
1
1
\A1;21.78
40
3.5
41
0
44
1
50
0
71
5
72
5
7
iso_b_vert
0
POINT
5
124
100
AcDbEntity
8
Defpoints
62
0
6
ByLayer
370
-1
48
1
60
0
100
AcDbPoint
10
-21.783
20
-1.5
30
0
39
0
210
0
220
0
230
1
50
360
0
POINT
5
125
100
AcDbEntity
8
Defpoints
62
0
6
ByLayer
370
-1
48
1
60
0
100
AcDbPoint
10
0
20
-1.5
30
0
39
0
210
0
220
0
230
1
50
360
0
POINT
5
126
100
AcDbEntity
8
Defpoints
62
0
6
ByLayer
370
-1
48
1
60
0
100
AcDbPoint
10
0
20
-23.25
30
0
39
0
210
0
220
0
230
1
50
360
0
ENDBLK
5
11D
100
AcDbEntity
8
0
100
AcDbBlockEnd
0
BLOCK
5
12E
100
AcDbEntity
8
0
100
AcDbBlockBegin
2
_U1
70
0
10
0
20
0
30
0
3
_U1
0
MTEXT
5
128
100
AcDbEntity
8
SK2
62
256
6
ByLayer
370
18
48
1
60
0
100
AcDbMText
10
-15.5975
20
-22.217366
30
0
210
0
220
0
230
1
1
\W0.6864;21.78
40
3.5
41
0
44
1.084337
50
0
71
7
72
5
7
iso_b_vert
0
LINE
5
129
100
AcDbEntity
8
SK2
62
256
6
ByLayer
370
13
48
1
60
0
100
AcDbLine
10
-21.783
20
-3.0875
30
0
11
-21.783
21
-25.25
31
0
39
0
210
0
220
0
230
1
0
LINE
5
12A
100
AcDbEntity
8
SK2
62
256
6
ByLayer
370
13
48
1
60
0
100
AcDbLine
10
0
20
-3.0875
30
0
11
0
21
-25.25
31
0
39
0
210
0
220
0
230
1
0
LINE
5
12B
100
AcDbEntity
8
SK2
62
256
6
ByLayer
370
13
48
1
60
0
100
AcDbLine
10
-21.783
20
-23.25
30
0
11
0
21
-23.25
31
0
39
0
210
0
220
0
230
1
0
SOLID
5
12C
100
AcDbEntity
8
SK2
62
256
6
ByLayer
370
18
48
1
60
0
100
AcDbTrace
10
-21.783
20
-23.25
30
0
11
-18.283002
21
-22.789216
31
0
12
-18.282998
22
-23.710784
32
0
13
-18.282998
23
-23.710784
33
0
39
0
210
0
220
0
230
1
0
SOLID
5
12D
100
AcDbEntity
8
SK2
62
256
6
ByLayer
370
18
48
1
60
0
100
AcDbTrace
10
0
20
-23.25
30
0
11
-3.499998
21
-23.710784
31
0
12
-3.500002
22
-22.789216
32
0
13
-3.500002
23
-22.789216
33
0
39
0
210
0
220
0
230
1
0
ENDBLK
5
12F
100
AcDbEntity
8
0
100
AcDbBlockEnd
0
BLOCK
5
134
100
AcDbEntity
8
0
100
AcDbBlockBegin
2
*D5
70
1
10
0
20
0
30
0
3
*D5
0
LINE
5
136
100
AcDbEntity
8
0
62
256
6
ByLayer
370
-2
48
1
60
0
100
AcDbLine
10
7.217
20
-2.4375
30
0
11
7.217
21
-18.1
31
0
39
0
210
0
220
0
230
1
0
LINE
5
137
100
AcDbEntity
8
0
62
256
6
ByLayer
370
-2
48
1
60
0
100
AcDbLine
10
15.717
20
-2.4375
30
0
11
15.717
21
-18.1
31
0
39
0
210
0
220
0
230
1
0
LINE
5
138
100
AcDbEntity
8
0
62
256
6
ByLayer
370
-2
48
1
60
0
100
AcDbLine
10
15.717
20
-16.1
30
0
11
40.550333
21
-16.1
31
0
39
0
210
0
220
0
230
1
0
LINE
5
139
100
AcDbEntity
8
0
62
256
6
ByLayer
370
-2
48
1
60
0
100
AcDbLine
10
3.717
20
-16.1
30
0
11
0.217
21
-16.1
31
0
39
0
210
0
220
0
230
1
0
LINE
5
13A
100
AcDbEntity
8
0
62
256
6
ByLayer
370
-2
48
1
60
0
100
AcDbLine
10
19.217
20
-16.1
30
0
11
22.717
21
-16.1
31
0
39
0
210
0
220
0
230
1
0
SOLID
5
13B
100
AcDbEntity
8
0
62
256
6
ByLayer
370
-1
48
1
60
0
100
AcDbTrace
10
3.717
20
-16.683333
30
0
11
3.717
21
-15.516667
31
0
12
7.217
22
-16.1
32
0
13
7.217
23
-16.1
33
0
39
0
210
0
220
0
230
1
0
SOLID
5
13C
100
AcDbEntity
8
0
62
256
6
ByLayer
370
-1
48
1
60
0
100
AcDbTrace
10
19.217
20
-15.516667
30
0
11
19.217
21
-16.683333
31
0
12
15.717
22
-16.1
32
0
13
15.717
23
-16.1
33
0
39
0
210
0
220
0
230
1
0
MTEXT
5
13D
100
AcDbEntity
8
0
62
256
6
ByLayer
370
18
48
1
60
0
100
AcDbMText
10
31.633667
20
-9.1
30
0
210
0
220
0
230
1
1
\A1;8.5
40
3.5
41
0
44
1
50
0
71
5
72
5
7
iso_b_vert
0
POINT
5
13E
100
AcDbEntity
8
Defpoints
62
0
6
ByLayer
370
-1
48
1
60
0
100
AcDbPoint
10
7.217
20
-0.85
30
0
39
0
210
0
220
0
230
1
50
360
0
POINT
5
13F
100
AcDbEntity
8
Defpoints
62
0
6
ByLayer
370
-1
48
1
60
0
100
AcDbPoint
10
15.717
20
-0.85
30
0
39
0
210
0
220
0
230
1
50
360
0
POINT
5
140
100
AcDbEntity
8
Defpoints
62
0
6
ByLayer
370
-1
48
1
60
0
100
AcDbPoint
10
15.717
20
-16.1
30
0
39
0
210
0
220
0
230
1
50
360
0
ENDBLK
5
135
100
AcDbEntity
8
0
100
AcDbBlockEnd
0
BLOCK
5
148
100
AcDbEntity
8
0
100
AcDbBlockBegin
2
_U2
70
0
10
0
20
0
30
0
3
_U2
0
MTEXT
5
142
100
AcDbEntity
8
SK2
62
256
6
ByLayer
370
18
48
1
60
0
100
AcDbMText
10
25.9025
20
-15.067366
30
0
210
0
220
0
230
1
1
\W0.7121;8.5
40
3.5
41
0
44
1.084337
50
0
71
7
72
5
7
iso_b_vert
0
LINE
5
143
100
AcDbEntity
8
SK2
62
256
6
ByLayer
370
13
48
1
60
0
100
AcDbLine
10
7.217
20
-2.4375
30
0
11
7.217
21
-18.1
31
0
39
0
210
0
220
0
230
1
0
LINE
5
144
100
AcDbEntity
8
SK2
62
256
6
ByLayer
370
13
48
1
60
0
100
AcDbLine
10
15.717
20
-2.4375
30
0
11
15.717
21
-18.1
31
0
39
0
210
0
220
0
230
1
0
LINE
5
145
100
AcDbEntity
8
SK2
62
256
6
ByLayer
370
13
48
1
60
0
100
AcDbLine
10
7.217
20
-16.1
30
0
11
31.315932
21
-16.1
31
0
39
0
210
0
220
0
230
1
0
SOLID
5
146
100
AcDbEntity
8
SK2
62
256
6
ByLayer
370
18
48
1
60
0
100
AcDbTrace
10
7.217
20
-16.1
30
0
11
10.716998
21
-15.639216
31
0
12
10.717002
22
-16.560784
32
0
13
10.717002
23
-16.560784
33
0
39
0
210
0
220
0
230
1
0
SOLID
5
147
100
AcDbEntity
8
SK2
62
256
6
ByLayer
370
18
48
1
60
0
100
AcDbTrace
10
15.717
20
-16.1
30
0
11
12.217002
21
-16.560784
31
0
12
12.216998
22
-15.639216
32
0
13
12.216998
23
-15.639216
33
0
39
0
210
0
220
0
230
1
0
ENDBLK
5
149
100
AcDbEntity
8
0
100
AcDbBlockEnd
0
BLOCK
5
14E
100
AcDbEntity
8
0
100
AcDbBlockBegin
2
*D7
70
1
10
0
20
0
30
0
3
*D7
0
LINE
5
150
100
AcDbEntity
8
0
62
256
6
ByLayer
370
-2
48
1
60
0
100
AcDbLine
10
4.273
20
-2.4375
30
0
11
4.273
21
-28.1
31
0
39
0
210
0
220
0
230
1
0
LINE
5
151
100
AcDbEntity
8
0
62
256
6
ByLayer
370
-2
48
1
60
0
100
AcDbLine
10
15.717
20
-2.4375
30
0
11
15.717
21
-28.1
31
0
39
0
210
0
220
0
230
1
0
LINE
5
152
100
AcDbEntity
8
0
62
256
6
ByLayer
370
-2
48
1
60
0
100
AcDbLine
10
15.717
20
-26.1
30
0
11
46.883667
21
-26.1
31
0
39
0
210
0
220
0
230
1
0
LINE
5
153
100
AcDbEntity
8
0
62
256
6
ByLayer
370
-2
48
1
60
0
100
AcDbLine
10
0.773
20
-26.1
30
0
11
-2.727
21
-26.1
31
0
39
0
210
0
220
0
230
1
0
LINE
5
154
100
AcDbEntity
8
0
62
256
6
ByLayer
370
-2
48
1
60
0
100
AcDbLine
10
19.217
20
-26.1
30
0
11
22.717
21
-26.1
31
0
39
0
210
0
220
0
230
1
0
SOLID
5
155
100
AcDbEntity
8
0
62
256
6
ByLayer
370
-1
48
1
60
0
100
AcDbTrace
10
0.773
20
-26.683333
30
0
11
0.773
21
-25.516667
31
0
12
4.273
22
-26.1
32
0
13
4.273
23
-26.1
33
0
39
0
210
0
220
0
230
1
0
SOLID
5
156
100
AcDbEntity
8
0
62
256
6
ByLayer
370
-1
48
1
60
0
100
AcDbTrace
10
19.217
20
-25.516667
30
0
11
19.217
21
-26.683333
31
0
12
15.717
22
-26.1
32
0
13
15.717
23
-26.1
33
0
39
0
210
0
220
0
230
1
0
MTEXT
5
157
100
AcDbEntity
8
0
62
256
6
ByLayer
370
18
48
1
60
0
100
AcDbMText
10
34.800333
20
-19.1
30
0
210
0
220
0
230
1
1
\A1;11.44
40
3.5
41
0
44
1
50
0
71
5
72
5
7
iso_b_vert
0
POINT
5
158
100
AcDbEntity
8
Defpoints
62
0
6
ByLayer
370
-1
48
1
60
0
100
AcDbPoint
10
4.273
20
-0.85
30
0
39
0
210
0
220
0
230
1
50
360
0
POINT
5
159
100
AcDbEntity
8
Defpoints
62
0
6
ByLayer
370
-1
48
1
60
0
100
AcDbPoint
10
15.717
20
-0.85
30
0
39
0
210
0
220
0
230
1
50
360
0
POINT
5
15A
100
AcDbEntity
8
Defpoints
62
0
6
ByLayer
370
-1
48
1
60
0
100
AcDbPoint
10
15.717
20
-26.1
30
0
39
0
210
0
220
0
230
1
50
360
0
ENDBLK
5
14F
100
AcDbEntity
8
0
100
AcDbBlockEnd
0
BLOCK
5
162
100
AcDbEntity
8
0
100
AcDbBlockBegin
2
_U3
70
0
10
0
20
0
30
0
3
_U3
0
MTEXT
5
15C
100
AcDbEntity
8
SK2
62
256
6
ByLayer
370
18
48
1
60
0
100
AcDbMText
10
25.9025
20
-25.067366
30
0
210
0
220
0
230
1
1
\W0.6674;11.44
40
3.5
41
0
44
1.084337
50
0
71
7
72
5
7
iso_b_vert
0
LINE
5
15D
100
AcDbEntity
8
SK2
62
256
6
ByLayer
370
13
48
1
60
0
100
AcDbLine
10
4.273
20
-2.4375
30
0
11
4.273
21
-28.1
31
0
39
0
210
0
220
0
230
1
0
LINE
5
15E
100
AcDbEntity
8
SK2
62
256
6
ByLayer
370
13
48
1
60
0
100
AcDbLine
10
15.717
20
-2.4375
30
0
11
15.717
21
-28.1
31
0
39
0
210
0
220
0
230
1
0
LINE
5
15F
100
AcDbEntity
8
SK2
62
256
6
ByLayer
370
13
48
1
60
0
100
AcDbLine
10
4.273
20
-26.1
30
0
11
35.534198
21
-26.1
31
0
39
0
210
0
220
0
230
1
0
SOLID
5
160
100
AcDbEntity
8
SK2
62
256
6
ByLayer
370
18
48
1
60
0
100
AcDbTrace
10
4.273
20
-26.1
30
0
11
7.772998
21
-25.639216
31
0
12
7.773002
22
-26.560784
32
0
13
7.773002
23
-26.560784
33
0
39
0
210
0
220
0
230
1
0
SOLID
5
161
100
AcDbEntity
8
SK2
62
256
6
ByLayer
370
18
48
1
60
0
100
AcDbTrace
10
15.717
20
-26.1
30
0
11
12.217002
21
-26.560784
31
0
12
12.216998
22
-25.639216
32
0
13
12.216998
23
-25.639216
33
0
39
0
210
0
220
0
230
1
0
ENDBLK
5
163
100
AcDbEntity
8
0
100
AcDbBlockEnd
0
BLOCK
5
168
100
AcDbEntity
8
0
100
AcDbBlockBegin
2
*D9
70
1
10
0
20
0
30
0
3
*D9
0
LINE
5
16A
100
AcDbEntity
8
0
62
256
6
ByLayer
370
-2
48
1
60
0
100
AcDbLine
10
-21.783
20
-0.0875
30
0
11
-21.783
21
-36.6
31
0
39
0
210
0
220
0
230
1
0
LINE
5
16B
100
AcDbEntity
8
0
62
256
6
ByLayer
370
-2
48
1
60
0
100
AcDbLine
10
15.717
20
-0.7375
30
0
11
15.717
21
-36.6
31
0
39
0
210
0
220
0
230
1
0
LINE
5
16C
100
AcDbEntity
8
0
62
256
6
ByLayer
370
-2
48
1
60
0
100
AcDbLine
10
-18.283
20
-34.6
30
0
11
12.217
21
-34.6
31
0
39
0
210
0
220
0
230
1
0
SOLID
5
16D
100
AcDbEntity
8
0
62
256
6
ByLayer
370
-1
48
1
60
0
100
AcDbTrace
10
-18.283
20
-34.016667
30
0
11
-18.283
21
-35.183333
31
0
12
-21.783
22
-34.6
32
0
13
-21.783
23
-34.6
33
0
39
0
210
0
220
0
230
1
0
SOLID
5
16E
100
AcDbEntity
8
0
62
256
6
ByLayer
370
-1
48
1
60
0
100
AcDbTrace
10
12.217
20
-35.183333
30
0
11
12.217
21
-34.016667
31
0
12
15.717
22
-34.6
32
0
13
15.717
23
-34.6
33
0
39
0
210
0
220
0
230
1
0
MTEXT
5
16F
100
AcDbEntity
8
0
62
256
6
ByLayer
370
18
48
1
60
0
100
AcDbMText
10
-3.033
20
-27.6
30
0
210
0
220
0
230
1
1
\A1;37.5
40
3.5
41
0
44
1
50
0
71
5
72
5
7
iso_b_vert
0
POINT
5
170
100
AcDbEntity
8
Defpoints
62
0
6
ByLayer
370
-1
48
1
60
0
100
AcDbPoint
10
-21.783
20
1.5
30
0
39
0
210
0
220
0
230
1
50
360
0
POINT
5
171
100
AcDbEntity
8
Defpoints
62
0
6
ByLayer
370
-1
48
1
60
0
100
AcDbPoint
10
15.717
20
0.85
30
0
39
0
210
0
220
0
230
1
50
360
0
POINT
5
172
100
AcDbEntity
8
Defpoints
62
0
6
ByLayer
370
-1
48
1
60
0
100
AcDbPoint
10
15.717
20
-34.6
30
0
39
0
210
0
220
0
230
1
50
360
0
ENDBLK
5
169
100
AcDbEntity
8
0
100
AcDbBlockEnd
0
BLOCK
5
17C
100
AcDbEntity
8
0
100
AcDbBlockBegin
2
_U4
70
0
10
0
20
0
30
0
3
_U4
0
MTEXT
5
174
100
AcDbEntity
8
SK2
62
256
6
ByLayer
370
18
48
1
60
0
100
AcDbMText
10
-8.262432
20
-33.567366
30
0
210
0
220
0
230
1
1
\W0.7468;37.50
40
3.5
41
0
44
1.084337
50
0
71
7
72
5
7
iso_b_vert
0
MTEXT
5
175
100
AcDbEntity
8
SK2
62
256
6
ByLayer
370
18
48
1
60
0
100
AcDbMText
10
-12.130431
20
-33.567366
30
0
210
0
220
0
230
1
1
\W0.1790;(
40
3.5
41
0
44
1.084337
50
0
71
7
72
5
7
iso_b_vert
0
MTEXT
5
176
100
AcDbEntity
8
SK2
62
256
6
ByLayer
370
18
48
1
60
0
100
AcDbMText
10
6.067432
20
-33.567366
30
0
210
0
220
0
230
1
1
\W0.1969;)
40
3.5
41
0
44
1.084337
50
0
71
7
72
5
7
iso_b_vert
0
LINE
5
177
100
AcDbEntity
8
SK2
62
256
6
ByLayer
370
13
48
1
60
0
100
AcDbLine
10
-21.783
20
-0.0875
30
0
11
-21.783
21
-36.6
31
0
39
0
210
0
220
0
230
1
0
LINE
5
178
100
AcDbEntity
8
SK2
62
256
6
ByLayer
370
13
48
1
60
0
100
AcDbLine
10
15.717
20
-0.7375
30
0
11
15.717
21
-36.6
31
0
39
0
210
0
220
0
230
1
0
LINE
5
179
100
AcDbEntity
8
SK2
62
256
6
ByLayer
370
13
48
1
60
0
100
AcDbLine
10
-21.783
20
-34.6
30
0
11
15.717
21
-34.6
31
0
39
0
210
0
220
0
230
1
0
SOLID
5
17A
100
AcDbEntity
8
SK2
62
256
6
ByLayer
370
18
48
1
60
0
100
AcDbTrace
10
-21.783
20
-34.6
30
0
11
-18.283002
21
-34.139216
31
0
12
-18.282998
22
-35.060784
32
0
13
-18.282998
23
-35.060784
33
0
39
0
210
0
220
0
230
1
0
SOLID
5
17B
100
AcDbEntity
8
SK2
62
256
6
ByLayer
370
18
48
1
60
0
100
AcDbTrace
10
15.717
20
-34.6
30
0
11
12.217002
21
-35.060784
31
0
12
12.216998
22
-34.139216
32
0
13
12.216998
23
-34.139216
33
0
39
0
210
0
220
0
230
1
0
ENDBLK
5
17D
100
AcDbEntity
8
0
100
AcDbBlockEnd
0
ENDSEC
0
SECTION
2
ENTITIES
0
ELLIPSE
5
B7
100
AcDbEntity
8
SK1
62
256
6
ByLayer
370
18
48
1
60
0
100
AcDbEllipse
10
15.700245
20
-0.040933
30
0
11
0.0237049370471633
21
0.0422353960821623
31
0
210
0
220
0
230
1
40
0.065341
41
1.21620760496336
42
2.26340515640183
0
ELLIPSE
5
B8
100
AcDbEntity
8
SK1
62
256
6
ByLayer
370
18
48
1
60
0
100
AcDbEllipse
10
15.700245
20
0.040933
30
0
11
0.0237049370484068
21
-0.0422353960843079
31
0
210
0
220
0
230
1
40
0.065341
41
-2.26340515636978
42
-1.21620760499072
0
ELLIPSE
5
B9
100
AcDbEntity
8
SK1
62
256
6
ByLayer
370
18
48
1
60
0
100
AcDbEllipse
10
4.534831
20
0.000797
30
0
11
0.537496328600974
21
0.814479893561094
31
0
210
0
220
0
230
1
40
0.309392
41
2.26712774602546
42
-2.11913510745896
0
ELLIPSE
5
BA
100
AcDbEntity
8
SK1
62
256
6
ByLayer
370
18
48
1
60
0
100
AcDbEllipse
10
15.717543
20
0.000855
30
0
11
0.517460962782131
21
0.848268429877142
31
0
210
0
220
0
230
1
40
0.104823
41
-3.07797496450505
42
-2.88195139583868
0
ELLIPSE
5
BB
100
AcDbEntity
8
SK1
62
256
6
ByLayer
370
18
48
1
60
0
100
AcDbEllipse
10
15.718395
20
0.000855
30
0
11
0.75188603419537
21
0.764342499823388
31
0
210
0
220
0
230
1
40
0.494576
41
-2.7548483220334
42
-2.69010632245811
0
ELLIPSE
5
BC
100
AcDbEntity
8
SK1
62
256
6
ByLayer
370
18
48
1
60
0
100
AcDbEllipse
10
4.534831
20
-0.000797
30
0
11
0.537496328600933
21
-0.814479893561029
31
0
210
0
220
0
230
1
40
0.309392
41
2.02887299341922
42
2.94092815674117
0
ELLIPSE
5
BD
100
AcDbEntity
8
SK1
62
256
6
ByLayer
370
18
48
1
60
0
100
AcDbEllipse
10
15.717543
20
-0.000855
30
0
11
0.517460963641866
21
-0.848268431340352
31
0
210
0
220
0
230
1
40
0.104823
41
2.8819513960643
42
3.07797496456116
0
ELLIPSE
5
BE
100
AcDbEntity
8
SK1
62
256
6
ByLayer
370
13
48
1
60
0
100
AcDbEllipse
10
6.139947
20
-0.865285
30
0
11
0.000838977697034963
21
-0.0499929606687169
31
0
210
0
220
0
230
1
40
0.506172
41
3.10578829341346
42
-2.30982045091147
0
POINT
5
70
100
AcDbEntity
8
80
62
256
6
ByLayer
370
18
48
1
60
0
100
AcDbPoint
10
0
20
0
30
0
39
0
210
0
220
0
230
1
50
360
0
POINT
5
72
100
AcDbEntity
8
81
62
256
6
ByLayer
370
18
48
1
60
0
100
AcDbPoint
10
15.717
20
0
30
0
39
0
210
0
220
0
230
1
50
360
0
POINT
5
74
100
AcDbEntity
8
1
62
256
6
ByLayer
370
18
48
1
60
0
100
AcDbPoint
10
-21.783
20
0
30
0
39
0
210
0
220
0
230
1
50
360
0
POINT
5
76
100
AcDbEntity
8
1
62
256
6
ByLayer
370
18
48
1
60
1
100
AcDbPoint
10
0
20
-1.5
30
0
39
0
210
0
220
0
230
1
50
360
0
POINT
5
77
100
AcDbEntity
8
1
62
256
6
ByLayer
370
18
48
1
60
1
100
AcDbPoint
10
15.206
20
-0.85
30
0
39
0
210
0
220
0
230
1
50
360
0
POINT
5
78
100
AcDbEntity
8
1
62
256
6
ByLayer
370
18
48
1
60
1
100
AcDbPoint
10
-21.783
20
-1.5
30
0
39
0
210
0
220
0
230
1
50
360
0
POINT
5
79
100
AcDbEntity
8
1
62
256
6
ByLayer
370
18
48
1
60
1
100
AcDbPoint
10
0
20
-1.5
30
0
39
0
210
0
220
0
230
1
50
360
0
POINT
5
7A
100
AcDbEntity
8
1
62
256
6
ByLayer
370
18
48
1
60
1
100
AcDbPoint
10
7.217
20
-0.85
30
0
39
0
210
0
220
0
230
1
50
360
0
POINT
5
7B
100
AcDbEntity
8
1
62
256
6
ByLayer
370
18
48
1
60
1
100
AcDbPoint
10
15.717
20
-0.85
30
0
39
0
210
0
220
0
230
1
50
360
0
POINT
5
7C
100
AcDbEntity
8
1
62
256
6
ByLayer
370
18
48
1
60
1
100
AcDbPoint
10
4.273
20
-0.85
30
0
39
0
210
0
220
0
230
1
50
360
0
POINT
5
7D
100
AcDbEntity
8
1
62
256
6
ByLayer
370
18
48
1
60
1
100
AcDbPoint
10
15.717
20
-0.85
30
0
39
0
210
0
220
0
230
1
50
360
0
POINT
5
7E
100
AcDbEntity
8
1
62
256
6
ByLayer
370
18
48
1
60
1
100
AcDbPoint
10
-21.783
20
1.5
30
0
39
0
210
0
220
0
230
1
50
360
0
POINT
5
7F
100
AcDbEntity
8
1
62
256
6
ByLayer
370
18
48
1
60
1
100
AcDbPoint
10
15.717
20
0.85
30
0
39
0
210
0
220
0
230
1
50
360
0
SPLINE
5
BF
100
AcDbEntity
8
SK1
62
256
6
ByLayer
370
13
48
1
60
0
100
AcDbSpline
70
4
71
3
72
8
73
4
40
0
40
0
40
0
40
0
40
1
40
1
40
1
40
1
41
1
10
4.20352464619151
20
-0.436633492580853
30
0
41
1
10
4.13471240935701
20
-0.422216206203871
30
0
41
1
10
4.06568741949704
20
-0.408206076398784
30
0
41
1
10
3.99674744301646
20
-0.39403336676537
30
0
0
SPLINE
5
C0
100
AcDbEntity
8
SK1
62
256
6
ByLayer
370
18
48
1
60
0
100
AcDbSpline
70
4
71
3
72
9
73
5
40
0
40
0
40
0
40
0
40
0.5
40
1
40
1
40
1
40
1
41
1
10
6.14001429436971
20
-0.815309302148478
30
0
41
1
10
6.12387215907924
20
-0.81550811950919
30
0
41
1
10
6.09205918231299
20
-0.8188113256831
30
0
41
1
10
6.06132057478061
20
-0.827714124203169
30
0
41
1
10
6.04627344207807
20
-0.83364751299743
30
0
0
SPLINE
5
C1
100
AcDbEntity
8
SK1
62
256
6
ByLayer
370
18
48
1
60
0
100
AcDbSpline
70
4
71
3
72
20
73
16
40
0
40
0
40
0
40
0
40
0.25000000000002
40
0.25000000000002
40
0.375000000000022
40
0.375000000000022
40
0.500000000000024
40
0.500000000000024
40
0.625000000000026
40
0.625000000000026
40
0.687500000000023
40
0.687500000000023
40
0.750000000000019
40
0.750000000000019
40
1
40
1
40
1
40
1
41
1
10
15.1336106760342
20
-0.815962173103031
30
0
41
1
10
15.1021151933486
20
-0.809421467158273
30
0
41
1
10
15.0726729041401
20
-0.799058420556122
30
0
41
1
10
15.0321426250743
20
-0.776750165078397
30
0
41
1
10
15.019241956959
20
-0.768179540177215
30
0
41
1
10
14.9948236368449
20
-0.748463589650612
30
0
41
1
10
14.9835029783283
20
-0.737472785190278
30
0
41
1
10
14.9627754402812
20
-0.713122408319236
30
0
41
1
10
14.953362410918
20
-0.699759299048679
30
0
41
1
10
14.9407965066187
20
-0.677773408641997
30
0
41
1
10
14.9368673855622
20
-0.670120523870082
30
0
41
1
10
14.929557767834
20
-0.654129264528109
30
0
41
1
10
14.9261669114059
20
-0.645758128290964
30
0
41
1
10
14.9108532122517
20
-0.602610824111849
30
0
41
1
10
14.9037074009052
20
-0.56392712593555
30
0
41
1
10
14.9020329215474
20
-0.520778762893258
30
0
0
SPLINE
5
C2
100
AcDbEntity
8
SK1
62
256
6
ByLayer
370
18
48
1
60
0
100
AcDbSpline
70
4
71
3
72
35
73
31
40
0
40
0
40
0
40
0
40
0.0312499999999934
40
0.0312499999999934
40
0.0624999999999869
40
0.124999999999974
40
0.124999999999974
40
0.156249999999967
40
0.156249999999967
40
0.187499999999961
40
0.187499999999961
40
0.249999999999954
40
0.249999999999954
40
0.312499999999947
40
0.312499999999947
40
0.343749999999944
40
0.343749999999944
40
0.37499999999994
40
0.37499999999994
40
0.499999999999961
40
0.499999999999961
40
0.562499999999971
40
0.562499999999971
40
0.624999999999981
40
0.624999999999981
40
0.749999999999988
40
0.749999999999988
40
0.874999999999994
40
0.874999999999994
40
1
40
1
40
1
40
1
41
1
10
14.2577642464826
20
0.261299364092196
30
0
41
1
10
14.256814966753
20
0.250416817024586
30
0
41
1
10
14.2562927522811
20
0.239310944235683
30
0
41
1
10
14.2561470563969
20
0.217048290929796
30
0
41
1
10
14.2572623924862
20
0.183691875144547
30
0
41
1
10
14.2622161861882
20
0.150443556411517
30
0
41
1
10
14.2695777385026
20
0.117263043979307
30
0
41
1
10
14.2724335818324
20
0.106214193916799
30
0
41
1
10
14.2789319299841
20
0.0841386474259878
30
0
41
1
10
14.2825651804812
20
0.0731545691707538
30
0
41
1
10
14.294386142454
20
0.0407879659849186
30
0
41
1
10
14.3035414693264
20
0.0198090322530788
30
0
41
1
10
14.3240213458438
20
-0.021129811866814
30
0
41
1
10
14.3353488064286
20
-0.0410883547993137
30
0
41
1
10
14.3537723028691
20
-0.0703533232262998
30
0
41
1
10
14.3601503838086
20
-0.079988978629757
30
0
41
1
10
14.3732091595347
20
-0.0988456913848665
30
0
41
1
10
14.3799072108115
20
-0.108094936888023
30
0
41
1
10
14.4141630116336
20
-0.153528200106848
30
0
41
1
10
14.4439826849942
20
-0.187310184428498
30
0
41
1
10
14.4913602683335
20
-0.235171058907326
30
0
41
1
10
14.5076009766766
20
-0.250648741673842
30
0
41
1
10
14.5408759548252
20
-0.280761390436396
30
0
41
1
10
14.5578250173696
20
-0.295317188408006
30
0
41
1
10
14.6092305130892
20
-0.337476566082415
30
0
41
1
10
14.6443510972977
20
-0.36368761224287
30
0
41
1
10
14.7159232186456
20
-0.413143026038426
30
0
41
1
10
14.7523785551614
20
-0.436378924908098
30
0
41
1
10
14.8264041710546
20
-0.480365528042285
30
0
41
1
10
14.8639758397233
20
-0.501113135592419
30
0
41
1
10
14.9020329215474
20
-0.520778762893258
30
0
0
SPLINE
5
C3
100
AcDbEntity
8
SK1
62
256
6
ByLayer
370
13
48
1
60
0
100
AcDbSpline
70
4
71
3
72
25
73
21
40
0
40
0
40
0
40
0
40
0.125
40
0.125
40
0.25
40
0.375000000000001
40
0.375000000000001
40
0.437500000000001
40
0.437500000000001
40
0.500000000000001
40
0.500000000000001
40
0.625000000000001
40
0.625000000000001
40
0.687500000000001
40
0.687500000000001
40
0.750000000000001
40
0.750000000000001
40
0.875
40
0.875
40
1
40
1
40
1
40
1
41
1
10
6.13998195851829
20
-0.349793609074936
30
0
41
1
10
6.13997696383603
20
-0.385548652626994
30
0
41
1
10
6.13997213184075
20
-0.419972100090348
30
0
41
1
10
6.13996354226441
20
-0.485970999819216
30
0
41
1
10
6.13995618253421
20
-0.54797451726688
30
0
41
1
10
6.13995229194776
20
-0.602303631507937
30
0
41
1
10
6.13995098155539
20
-0.640106355313748
30
0
41
1
10
6.13995081379701
20
-0.652259924350346
30
0
41
1
10
6.1399510520435
20
-0.675245172270621
30
0
41
1
10
6.13995145492939
20
-0.686094656786111
30
0
41
1
10
6.13995351144564
20
-0.716757062665181
30
0
41
1
10
6.13995601605342
20
-0.734693518372751
30
0
41
1
10
6.1399614040844
20
-0.757833776628587
30
0
41
1
10
6.13996347118922
20
-0.764917401222164
30
0
41
1
10
6.13996812595127
20
-0.777793723909952
30
0
41
1
10
6.13997071346077
20
-0.783572483669758
30
0
41
1
10
6.13997905589221
20
-0.798690335806668
30
0
41
1
10
6.13998542957316
20
-0.805933402645678
30
0
41
1
10
6.13999923525779
20
-0.814855714426898
30
0
41
1
10
6.14000667381799
20
-0.816534983596966
30
0
41
1
10
6.14001429436971
20
-0.815309302148478
30
0
0
SPLINE
5
C4
100
AcDbEntity
8
SK1
62
256
6
ByLayer
370
18
48
1
60
0
100
AcDbSpline
70
4
71
3
72
36
73
32
40
0
40
0
40
0
40
0
40
0.0690989656172449
40
0.0690989656172449
40
0.13819793123449
40
0.13819793123449
40
0.207296896851735
40
0.207296896851735
40
0.27639586246898
40
0.27639586246898
40
0.345494828086225
40
0.345494828086225
40
0.41459379370347
40
0.41459379370347
40
0.483692759320715
40
0.483692759320715
40
0.55279172493796
40
0.55279172493796
40
0.621890690555205
40
0.621890690555205
40
0.69098965617245
40
0.69098965617245
40
0.760088621789695
40
0.760088621789695
40
0.82918758740694
40
0.82918758740694
40
0.898286553024184
40
0.898286553024184
40
0.967385518641429
40
0.967385518641429
40
1
40
1
40
1
40
1
41
1
10
14.2577642464826
20
0.261299364092224
30
0
41
1
10
14.2155754147915
20
0.283645121348059
30
0
41
1
10
14.1733852278304
20
0.305632902578282
30
0
41
1
10
14.0889568707115
20
0.348895782902758
30
0
41
1
10
14.0467239793013
20
0.370165323856156
30
0
41
1
10
13.962130987821
20
0.41179056680204
30
0
41
1
10
13.9197302391454
20
0.432144722091323
30
0
41
1
10
13.8351552883026
20
0.471644753638913
30
0
41
1
10
13.7929660014776
20
0.49084752109593
30
0
41
1
10
13.7086222541017
20
0.527828800952108
30
0
41
1
10
13.6664622971016
20
0.545594817047686
30
0
41
1
10
13.5820743281587
20
0.579797806676083
30
0
41
1
10
13.5398518327409
20
0.596256763569301
30
0
41
1
10
13.4552986341907
20
0.627790305713745
30
0
41
1
10
13.4129445257504
20
0.642860680006095
30
0
41
1
10
13.3283988903916
20
0.671282058582136
30
0
41
1
10
13.2861665373521
20
0.684654780517377
30
0
41
1
10
13.2018154867386
20
0.709648243689628
30
0
41
1
10
13.1596704875166
20
0.721222218601014
30
0
41
1
10
13.0752938985206
20
0.742436899035084
30
0
41
1
10
13.0330691731339
20
0.752122564165546
30
0
41
1
10
12.9485029938813
20
0.769803251112847
30
0
41
1
10
12.9061666760372
20
0.777775675857811
30
0
41
1
10
12.821650111868
20
0.791797466434673
30
0
41
1
10
12.7794157215358
20
0.797854267091594
30
0
41
1
10
12.6949629861901
20
0.808012333795602
30
0
41
1
10
12.6527776844861
20
0.812124851126327
30
0
41
1
10
12.5683613341109
20
0.818219734415237
30
0
41
1
10
12.5261157914969
20
0.820196755986132
30
0
41
1
10
12.4638477441241
20
0.821260763171153
30
0
41
1
10
12.4438871225586
20
0.821333629326233
30
0
41
1
10
12.4239329875589
20
0.821184352974484
30
0
0
SPLINE
5
C5
100
AcDbEntity
8
SK1
62
256
6
ByLayer
370
18
48
1
60
0
100
AcDbSpline
70
4
71
3
72
48
73
44
40
0
40
0
40
0
40
0
40
0.0380411294824625
40
0.0380411294824625
40
0.0817665326878074
40
0.0817665326878074
40
0.125491935893152
40
0.125491935893152
40
0.169217339098497
40
0.169217339098497
40
0.212942742303841
40
0.212942742303841
40
0.300393548714528
40
0.300393548714528
40
0.34411895191987
40
0.34411895191987
40
0.387844355125211
40
0.387844355125211
40
0.431569758330553
40
0.431569758330553
40
0.475295161535895
40
0.475295161535895
40
0.519020564741237
40
0.519020564741237
40
0.562745967946579
40
0.562745967946579
40
0.606471371151921
40
0.606471371151921
40
0.650196774357263
40
0.650196774357263
40
0.693922177562605
40
0.693922177562605
40
0.737647580767946
40
0.737647580767946
40
0.781372983973288
40
0.781372983973288
40
0.82509838717863
40
0.82509838717863
40
0.868823790383972
40
0.868823790383972
40
0.912549193589314
40
0.912549193589314
40
1
40
1
40
1
40
1
41
1
10
9.04342015961839
20
-0.543082471573769
30
0
41
1
10
9.00659334694717
20
-0.55834272622036
30
0
41
1
10
8.96980897887639
20
-0.573036099369432
30
0
41
1
10
8.89080846048219
20
-0.603479811442782
30
0
41
1
10
8.84859583093504
20
-0.619029708834063
30
0
41
1
10
8.76409858709275
20
-0.648494906954085
30
0
41
1
10
8.72181002240256
20
-0.662417355712392
30
0
41
1
10
8.63714176399247
20
-0.688735088828025
30
0
41
1
10
8.59474748916188
20
-0.701154372132891
30
0
41
1
10
8.51002166289229
20
-0.724323801711648
30
0
41
1
10
8.46766684880652
20
-0.735104917866494
30
0
41
1
10
8.34070100980043
20
-0.764715524293877
30
0
41
1
10
8.25624844490332
20
-0.780783927302252
30
0
41
1
10
8.12918056415324
20
-0.798078064865223
30
0
41
1
10
8.08678846373147
20
-0.802664914399514
30
0
41
1
10
8.00225987447081
20
-0.809652462505227
30
0
41
1
10
7.96002630566517
20
-0.812134621989884
30
0
41
1
10
7.87544833303963
20
-0.815492484997463
30
0
41
1
10
7.83311624707741
20
-0.816314988334369
30
0
41
1
10
7.74842266976543
20
-0.816118539108686
30
0
41
1
10
7.70605834579632
20
-0.815094935618276
30
0
41
1
10
7.62117386040001
20
-0.811088773352566
30
0
41
1
10
7.57875310760565
20
-0.808115138320687
30
0
41
1
10
7.49404152826759
20
-0.800147461900082
30
0
41
1
10
7.45176151338288
20
-0.795140679400191
30
0
41
1
10
7.36719073899283
20
-0.783044976484092
30
0
41
1
10
7.32489501469055
20
-0.77597046826736
30
0
41
1
10
7.2402645306245
20
-0.75957208253152
30
0
41
1
10
7.19789665077582
20
-0.750167202724583
30
0
41
1
10
7.11320003206399
20
-0.729485514380059
30
0
41
1
10
7.0708889787206
20
-0.7183007732813
30
0
41
1
10
6.98620816264716
20
-0.694550057507428
30
0
41
1
10
6.94385052919566
20
-0.681941725492521
30
0
41
1
10
6.85915610477647
20
-0.655115444205165
30
0
41
1
10
6.81680048368912
20
-0.640915705454944
30
0
41
1
10
6.73196578840432
20
-0.610971419852461
30
0
41
1
10
6.68944031943909
20
-0.595202794482816
30
0
41
1
10
6.60470583135799
20
-0.562066385355024
30
0
41
1
10
6.56245699080532
20
-0.544689326890477
30
0
41
1
10
6.47799738068781
20
-0.508723609038498
30
0
41
1
10
6.43578187070852
20
-0.490147518514931
30
0
41
1
10
6.30911485316454
20
-0.432777418771138
30
0
41
1
10
6.22471223537835
20
-0.392249329011122
30
0
41
1
10
6.13998195851929
20
-0.349793609073288
30
0
0
SPLINE
5
C6
100
AcDbEntity
8
SK1
62
256
6
ByLayer
370
18
48
1
60
0
100
AcDbSpline
70
4
71
3
72
36
73
32
40
0
40
0
40
0
40
0
40
0.0312499999999994
40
0.0312499999999994
40
0.0624999999999988
40
0.0624999999999988
40
0.124999999999998
40
0.156250000000002
40
0.156250000000002
40
0.187500000000007
40
0.187500000000007
40
0.250000000000004
40
0.250000000000004
40
0.312500000000001
40
0.312500000000001
40
0.34375
40
0.34375
40
0.374999999999999
40
0.374999999999999
40
0.500000000000009
40
0.500000000000009
40
0.531250000000011
40
0.531250000000011
40
0.562500000000014
40
0.625000000000019
40
0.625000000000019
40
0.750000000000013
40
0.750000000000013
40
0.875000000000006
40
0.875000000000006
40
1
40
1
40
1
40
1
41
1
10
15.1036906396315
20
0.370037793748509
30
0
41
1
10
15.0999244363853
20
0.360371910733278
30
0
41
1
10
15.0958722100581
20
0.350840619055759
30
0
41
1
10
15.0871349649337
20
0.332075803226161
30
0
41
1
10
15.0824577113186
20
0.322866491133027
30
0
41
1
10
15.0676213521217
20
0.296125612537821
30
0
41
1
10
15.0510906960202
20
0.270967280669168
30
0
41
1
10
15.0318153400573
20
0.248372617412173
30
0
41
1
10
15.0183298409566
20
0.233902870614628
30
0
41
1
10
15.0112410999997
20
0.226940050278415
30
0
41
1
10
14.9891872691981
20
0.207160258327804
30
0
41
1
10
14.9735711031202
20
0.195552485249237
30
0
41
1
10
14.940652264107
20
0.175251283839401
30
0
41
1
10
14.9233501468209
20
0.166556895326039
30
0
41
1
10
14.8962200866724
20
0.155549010982952
30
0
41
1
10
14.8869725357541
20
0.152220070856373
30
0
41
1
10
14.8683712050503
20
0.146297790440116
30
0
41
1
10
14.8589839203342
20
0.143689650277167
30
0
41
1
10
14.8116488652017
20
0.1322734933172
30
0
41
1
10
14.7725206025522
20
0.128276338565058
30
0
41
1
10
14.7224441149876
20
0.12803234594918
30
0
41
1
10
14.71236418574
20
0.128228281507546
30
0
41
1
10
14.6922682227532
20
0.129071784850794
30
0
41
1
10
14.6621519066025
20
0.131013927662508
30
0
41
1
10
14.6321119579155
20
0.134827055953792
30
0
41
1
10
14.5721213098152
20
0.14463989948888
30
0
41
1
10
14.532245489204
20
0.154071415708899
30
0
41
1
10
14.4526828731236
20
0.177565521139428
30
0
41
1
10
14.4128818712398
20
0.191674817296047
30
0
41
1
10
14.3345865287215
20
0.223764643712457
30
0
41
1
10
14.2959523054923
20
0.241707422281621
30
0
41
1
10
14.2577642464826
20
0.261299364092224
30
0
0
SPLINE
5
C7
100
AcDbEntity
8
SK1
62
256
6
ByLayer
370
18
48
1
60
0
100
AcDbSpline
70
4
71
3
72
14
73
10
40
0
40
0
40
0
40
0
40
0.25
40
0.25
40
0.5
40
0.5
40
0.75
40
0.75
40
1
40
1
40
1
40
1
41
1
10
15.1291950020861
20
0.384181443185241
30
0
41
1
10
15.1266134481111
20
0.383940638833479
30
0
41
1
10
15.1240674657946
20
0.383522219492448
30
0
41
1
10
15.1190616304219
20
0.382253372057931
30
0
41
1
10
15.1165689530394
20
0.381389328862042
30
0
41
1
10
15.1119158352374
20
0.379129997412804
30
0
41
1
10
15.1097110063225
20
0.37770874804059
30
0
41
1
10
15.1060396279659
20
0.374289572283345
30
0
41
1
10
15.1045556209211
20
0.372257750409176
30
0
41
1
10
15.1036906396291
20
0.37003779374956
30
0
0
SPLINE
5
C8
100
AcDbEntity
8
SK1
62
256
6
ByLayer
370
18
48
1
60
0
100
AcDbSpline
70
4
71
3
72
10
73
6
40
0
40
0
40
0
40
0
40
0.5
40
0.5
40
1
40
1
40
1
40
1
41
1
10
15.4987704183646
20
0.441077025349443
30
0
41
1
10
15.4385300382083
20
0.42683221117511
30
0
41
1
10
15.377424786893
20
0.415625859358528
30
0
41
1
10
15.2540579171556
20
0.397275700634822
30
0
41
1
10
15.1918270973393
20
0.390023692173145
30
0
41
1
10
15.129195002086
20
0.38418144318527
30
0
0
SPLINE
5
C9
100
AcDbEntity
8
SK1
62
256
6
ByLayer
370
18
48
1
60
0
100
AcDbSpline
70
4
71
3
72
10
73
6
40
0
40
0
40
0
40
0
40
0.5
40
0.5
40
1
40
1
40
1
40
1
41
1
10
15.2402543231731
20
0.832907148836085
30
0
41
1
10
15.2829344413363
20
0.769428149704567
30
0
41
1
10
15.3258185703072
20
0.705055863415055
30
0
41
1
10
15.4120179190388
20
0.574423705217953
30
0
41
1
10
15.4553532242998
20
0.508131462796285
30
0
41
1
10
15.4987704183555
20
0.441077025342366
30
0
0
SPLINE
5
CA
100
AcDbEntity
8
SK1
62
256
6
ByLayer
370
18
48
1
60
0
100
AcDbSpline
70
4
71
3
72
10
73
6
40
0
40
0
40
0
40
0
40
0.5
40
0.5
40
1
40
1
40
1
40
1
41
1
10
6.13998195851832
20
-0.349793609072776
30
0
41
1
10
6.12442916748287
20
-0.34200058673261
30
0
41
1
10
6.10884120886911
20
-0.335240134695226
30
0
41
1
10
6.07772752598558
20
-0.323717679641845
30
0
41
1
10
6.06215586356845
20
-0.31894251247391
30
0
41
1
10
6.04679535538273
20
-0.315214502323499
30
0
0
SPLINE
5
CB
100
AcDbEntity
8
SK1
62
256
6
ByLayer
370
18
48
1
60
0
100
AcDbSpline
70
4
71
3
72
96
73
92
40
0
40
0
40
0
40
0
40
0.0065554716273914
40
0.0065554716273914
40
0.0281906581546014
40
0.0281906581546014
40
0.0498258446818114
40
0.0498258446818114
40
0.0714610312090214
40
0.0714610312090214
40
0.0930962177362315
40
0.0930962177362315
40
0.114731404263442
40
0.114731404263442
40
0.136366590790651
40
0.136366590790651
40
0.158001777317861
40
0.158001777317861
40
0.179636963845072
40
0.179636963845072
40
0.201272150372281
40
0.201272150372281
40
0.222907336899492
40
0.222907336899492
40
0.244542523426702
40
0.244542523426702
40
0.266177709953912
40
0.266177709953912
40
0.287812896481122
40
0.287812896481122
40
0.309448083008332
40
0.309448083008332
40
0.331083269535542
40
0.331083269535542
40
0.352718456062752
40
0.352718456062752
40
0.374353642589962
40
0.374353642589962
40
0.395988829117172
40
0.395988829117172
40
0.417624015644382
40
0.417624015644382
40
0.439259202171592
40
0.439259202171592
40
0.460894388698802
40
0.460894388698802
40
0.482529575226012
40
0.482529575226012
40
0.504164761753222
40
0.504164761753222
40
0.525799948280432
40
0.525799948280432
40
0.547435134807642
40
0.547435134807642
40
0.569070321334852
40
0.569070321334852
40
0.590705507862062
40
0.590705507862062
40
0.612340694389272
40
0.612340694389272
40
0.633975880916482
40
0.633975880916482
40
0.655611067443692
40
0.655611067443692
40
0.677246253970902
40
0.677246253970902
40
0.698881440498112
40
0.698881440498112
40
0.720516627025322
40
0.720516627025322
40
0.763787000079742
40
0.763787000079742
40
0.785422186606951
40
0.785422186606951
40
0.807057373134161
40
0.807057373134161
40
0.82869255966137
40
0.82869255966137
40
0.85032774618858
40
0.85032774618858
40
0.871962932715789
40
0.871962932715789
40
0.893598119242998
40
0.893598119242998
40
0.936868492297416
40
0.936868492297416
40
0.958503678824624
40
0.958503678824624
40
0.980138865351833
40
0.980138865351833
40
1
40
1
40
1
40
1
41
1
10
13.6626146096368
20
-0.546966329486679
30
0
41
1
10
13.6498347826148
20
-0.552271780799657
30
0
41
1
10
13.6370531096413
20
-0.557514550941988
30
0
41
1
10
13.5820743281587
20
-0.579797806676055
30
0
41
1
10
13.5398518327408
20
-0.596256763569272
30
0
41
1
10
13.4552986341907
20
-0.627790305713745
30
0
41
1
10
13.4129445257504
20
-0.642860680006066
30
0
41
1
10
13.3283988903916
20
-0.671282058582108
30
0
41
1
10
13.2861665373521
20
-0.684654780517349
30
0
41
1
10
13.2018154867386
20
-0.709648243689628
30
0
41
1
10
13.1596704875166
20
-0.721222218600985
30
0
41
1
10
13.0752938985206
20
-0.742436899035056
30
0
41
1
10
13.0330691731339
20
-0.752122564165518
30
0
41
1
10
12.9485029938812
20
-0.769803251112819
30
0
41
1
10
12.9061666760372
20
-0.777775675857811
30
0
41
1
10
12.8216501118679
20
-0.791797466434645
30
0
41
1
10
12.7794157215358
20
-0.797854267091566
30
0
41
1
10
12.6949629861901
20
-0.808012333795574
30
0
41
1
10
12.652777684486
20
-0.812124851126299
30
0
41
1
10
12.5683613341108
20
-0.818219734415209
30
0
41
1
10
12.5261157914969
20
-0.820196755986103
30
0
41
1
10
12.4415122746092
20
-0.821642421197168
30
0
41
1
10
12.3992359553506
20
-0.821160893455954
30
0
41
1
10
12.3147497765304
20
-0.818667198474827
30
0
41
1
10
12.2724916506893
20
-0.816609397721066
30
0
41
1
10
12.1879271226541
20
-0.810682387090196
30
0
41
1
10
12.1456245019506
20
-0.806815197559274
30
0
41
1
10
12.0610342870413
20
-0.797047440128722
30
0
41
1
10
12.0187155350362
20
-0.791152141048542
30
0
41
1
10
11.9339446391214
20
-0.77721155520203
30
0
41
1
10
11.8916491080617
20
-0.76916348500967
30
0
41
1
10
11.8072248721571
20
-0.750703601667169
30
0
41
1
10
11.7650817440259
20
-0.740355927530175
30
0
41
1
10
11.6806834890371
20
-0.718333258168855
30
0
41
1
10
11.6384280562852
20
-0.706660138809724
30
0
41
1
10
11.5538035431651
20
-0.681782636907514
30
0
41
1
10
11.511424654272
20
-0.668531354127623
30
0
41
1
10
11.4267507347943
20
-0.640357101645122
30
0
41
1
10
11.3844704920967
20
-0.625487386095159
30
0
41
1
10
11.3000064541789
20
-0.593993210306337
30
0
41
1
10
11.2578436268498
20
-0.577288782855646
30
0
41
1
10
11.1735411901938
20
-0.542318865487431
30
0
41
1
10
11.1313637430465
20
-0.524165621714218
30
0
41
1
10
11.0468257499314
20
-0.486925734819891
30
0
41
1
10
11.0044332425427
20
-0.467774541356675
30
0
41
1
10
10.9198225033188
20
-0.428431344026905
30
0
41
1
10
10.8775840208019
20
-0.408242651901048
30
0
41
1
10
10.7930879876215
20
-0.367033818570292
30
0
41
1
10
10.7508488922743
20
-0.345980815541424
30
0
41
1
10
10.6663946765537
20
-0.302856579878522
30
0
41
1
10
10.6241818373962
20
-0.280784362210767
30
0
41
1
10
10.5396433469178
20
-0.235890871193135
30
0
41
1
10
10.4972908298131
20
-0.213066281537067
30
0
41
1
10
10.4127251624457
20
-0.167155870659855
30
0
41
1
10
10.3704902669284
20
-0.144003261035095
30
0
41
1
10
10.286078786427
20
-0.0973559468902465
30
0
41
1
10
10.243881835965
20
-0.0738921346243728
30
0
41
1
10
10.1593876692334
20
-0.0269221308017222
30
0
41
1
10
10.1170891722774
20
-0.0034254167310337
30
0
41
1
10
10.0324096557899
20
0.0436240383015161
30
0
41
1
10
9.99004020497611
20
0.067140027940269
30
0
41
1
10
9.90544907927568
20
0.11381823760729
30
0
41
1
10
9.86318817164323
20
0.137003797713817
30
0
41
1
10
9.77877122530438
20
0.183085324266187
30
0
41
1
10
9.73662312081666
20
0.20599380070243
30
0
41
1
10
9.65224062485177
20
0.251140269786703
30
0
41
1
10
9.61000771833324
20
0.273388375656481
30
0
41
1
10
9.52535393372736
20
0.317219248528033
30
0
41
1
10
9.48304577087265
20
0.338771561937193
30
0
41
1
10
9.35616202384927
20
0.402156730875021
30
0
41
1
10
9.27155420880638
20
0.442639647746546
30
0
41
1
10
9.14464914409325
20
0.499963167708216
30
0
41
1
10
9.10227605375727
20
0.518467422719681
30
0
41
1
10
9.01758698479512
20
0.553939801386804
30
0
41
1
10
8.97530096387368
20
0.570919703004336
30
0
41
1
10
8.89080846048222
20
0.603479811442782
30
0
41
1
10
8.84859583093504
20
0.619029708834091
30
0
41
1
10
8.76409858709275
20
0.648494906954113
30
0
41
1
10
8.72181002240256
20
0.662417355712421
30
0
41
1
10
8.63714176399247
20
0.688735088828054
30
0
41
1
10
8.59474748916188
20
0.701154372132891
30
0
41
1
10
8.51002166289229
20
0.724323801711677
30
0
41
1
10
8.46766684880654
20
0.735104917866494
30
0
41
1
10
8.34070100980045
20
0.764715524293905
30
0
41
1
10
8.25624844490329
20
0.780783927302252
30
0
41
1
10
8.12918056415324
20
0.798078064865223
30
0
41
1
10
8.08678846373147
20
0.802664914399543
30
0
41
1
10
8.00225987447081
20
0.809652462505255
30
0
41
1
10
7.96002630566514
20
0.812134621989884
30
0
41
1
10
7.87891596460068
20
0.815354815207343
30
0
41
1
10
7.84005828861777
20
0.816174341921879
30
0
41
1
10
7.80118625998523
20
0.816222389747452
30
0
0
SPLINE
5
CC
100
AcDbEntity
8
SK1
62
256
6
ByLayer
370
18
48
1
60
0
100
AcDbSpline
70
4
71
3
72
10
73
6
40
0
40
0
40
0
40
0
40
0.5
40
0.5
40
1
40
1
40
1
40
1
41
1
10
15.2402543231731
20
-0.832907148836057
30
0
41
1
10
15.2829344413363
20
-0.769428149704538
30
0
41
1
10
15.3258185703072
20
-0.705055863415026
30
0
41
1
10
15.4120179190388
20
-0.574423705217896
30
0
41
1
10
15.4553532242998
20
-0.508131462796229
30
0
41
1
10
15.4987704183555
20
-0.441077025342281
30
0
0
SPLINE
5
CD
100
AcDbEntity
8
SK1
62
256
6
ByLayer
370
18
48
1
60
0
100
AcDbSpline
70
4
71
3
72
16
73
12
40
0
40
0
40
0
40
0
40
0.298363123723163
40
0.298363123723163
40
0.596726247446326
40
0.596726247446326
40
0.745907809307907
40
0.745907809307907
40
0.895089371169489
40
0.895089371169489
40
1
40
1
40
1
40
1
41
1
10
6.12067817250539
20
0.831925700782875
30
0
41
1
10
6.11278599578569
20
0.832222872016814
30
0
41
1
10
6.10506471721703
20
0.832503405743012
30
0
41
1
10
6.09003381460869
20
0.833007852815427
30
0
41
1
10
6.0827068007869
20
0.833232628789176
30
0
41
1
10
6.07236533747269
20
0.833502815950595
30
0
41
1
10
6.06902352931942
20
0.833581810547713
30
0
41
1
10
6.06264163681379
20
0.833711226371179
30
0
41
1
10
6.05958228578734
20
0.833761966146824
30
0
41
1
10
6.05485722588486
20
0.833813352554785
30
0
41
1
10
6.05303739767524
20
0.833824529431041
30
0
41
1
10
6.051456129732
20
0.833822177760879
30
0
0
SPLINE
5
CE
100
AcDbEntity
8
SK1
62
256
6
ByLayer
370
18
48
1
60
0
100
AcDbSpline
70
4
71
3
72
20
73
16
40
0
40
0
40
0
40
0
40
0.125
40
0.125
40
0.25
40
0.25
40
0.375
40
0.375
40
0.5
40
0.5
40
0.625
40
0.625
40
0.75
40
0.75
40
1
40
1
40
1
40
1
41
1
10
3.99674744301646
20
-0.39403336676537
30
0
41
1
10
3.9977654868608
20
-0.391063190810542
30
0
41
1
10
3.99913241510529
20
-0.388231786457567
30
0
41
1
10
4.00263500908008
20
-0.382882554085711
30
0
41
1
10
4.00478937518616
20
-0.380366748790038
30
0
41
1
10
4.00968828817577
20
-0.375982227054152
30
0
41
1
10
4.01250325326049
20
-0.374049302172722
30
0
41
1
10
4.01856240489786
20
-0.370930480787052
30
0
41
1
10
4.02178350508032
20
-0.369738981745684
30
0
41
1
10
4.02858747479473
20
-0.368064774347857
30
0
41
1
10
4.03204007362262
20
-0.367613308715079
30
0
41
1
10
4.03903340984351
20
-0.367383819727934
30
0
41
1
10
4.04256639421561
20
-0.367614977625948
30
0
41
1
10
4.05288197235581
20
-0.369191421586692
30
0
41
1
10
4.0595486893792
20
-0.371428715059778
30
0
41
1
10
4.06568086781357
20
-0.374517293790319
30
0
0
SPLINE
5
CF
100
AcDbEntity
8
SK1
62
256
6
ByLayer
370
18
48
1
60
0
100
AcDbSpline
70
4
71
3
72
90
73
86
40
0
40
0
40
0
40
0
40
0.0097170422337183
40
0.0097170422337183
40
0.0392521602389745
40
0.0392521602389745
40
0.0540197192416013
40
0.0540197192416013
40
0.0687872782442281
40
0.0687872782442281
40
0.0983223962494817
40
0.0983223962494817
40
0.127857514254735
40
0.127857514254735
40
0.142625073257362
40
0.142625073257362
40
0.157392632259989
40
0.157392632259989
40
0.186927750265245
40
0.186927750265245
40
0.216462868270501
40
0.216462868270501
40
0.245997986275758
40
0.245997986275758
40
0.275533104281014
40
0.275533104281014
40
0.30506822228627
40
0.30506822228627
40
0.319835781288897
40
0.319835781288897
40
0.334603340291524
40
0.334603340291524
40
0.364138458296774
40
0.364138458296774
40
0.393673576302025
40
0.393673576302025
40
0.408441135304651
40
0.408441135304651
40
0.423208694307276
40
0.423208694307276
40
0.45274381231253
40
0.45274381231253
40
0.482278930317784
40
0.482278930317784
40
0.511814048323037
40
0.511814048323037
40
0.541349166328291
40
0.541349166328291
40
0.600419402338798
40
0.600419402338798
40
0.629954520344053
40
0.629954520344053
40
0.644722079346681
40
0.644722079346681
40
0.659489638349308
40
0.659489638349308
40
0.689024756354563
40
0.689024756354563
40
0.718559874359818
40
0.718559874359818
40
0.733327433362447
40
0.733327433362447
40
0.748094992365075
40
0.748094992365075
40
0.777630110370333
40
0.777630110370333
40
0.807165228375591
40
0.807165228375591
40
0.836700346380848
40
0.836700346380848
40
0.866235464386106
40
0.866235464386106
40
0.895770582391363
40
0.895770582391363
40
0.910538141393991
40
0.910538141393991
40
0.925305700396618
40
0.925305700396618
40
0.954840818401876
40
0.954840818401876
40
0.984375936407133
40
0.984375936407133
40
0.999143495409762
40
0.999143495409762
40
1
40
1
40
1
40
1
41
1
10
14.9512630566502
20
-0.848717044024085
30
0
41
1
10
14.9322908584115
20
-0.848687246001049
30
0
41
1
10
14.9133076127525
20
-0.848446252072876
30
0
41
1
10
14.8365476923432
20
-0.846617391831558
30
0
41
1
10
14.7786680930631
20
-0.843295112764821
30
0
41
1
10
14.6916186664502
20
-0.835335251953666
30
0
41
1
10
14.6625504312752
20
-0.832187832493247
30
0
41
1
10
14.6042549610608
20
-0.824916421902373
30
0
41
1
10
14.574997871385
20
-0.820785669831054
30
0
41
1
10
14.4873598954751
20
-0.806974027926174
30
0
41
1
10
14.4291132550884
20
-0.79583782577393
30
0
41
1
10
14.3126130299386
20
-0.769927586905283
30
0
41
1
10
14.2543290701193
20
-0.755184352965642
30
0
41
1
10
14.1668284703932
20
-0.730408208755051
30
0
41
1
10
14.1376518322067
20
-0.721702031383302
30
0
41
1
10
14.0792359082341
20
-0.70342544475389
30
0
41
1
10
14.0500142008909
20
-0.693859662307943
30
0
41
1
10
13.9626108590869
20
-0.664085901492541
30
0
41
1
10
13.9045449800902
20
-0.642775042183899
30
0
41
1
10
13.7888337005365
20
-0.597255626433025
30
0
41
1
10
13.7310891384158
20
-0.573165109193894
30
0
41
1
10
13.6156692368782
20
-0.522563170047846
30
0
41
1
10
13.558034659173
20
-0.495994648235779
30
0
41
1
10
13.4426777545033
20
-0.440649177501058
30
0
41
1
10
13.3849021508191
20
-0.411955119056984
30
0
41
1
10
13.2691112802239
20
-0.352579352237939
30
0
41
1
10
13.211116387403
20
-0.321856931031931
30
0
41
1
10
13.1236590658394
20
-0.274717409008986
30
0
41
1
10
13.0944050602058
20
-0.25879610667846
30
0
41
1
10
13.0359246943361
20
-0.22666356336137
30
0
41
1
10
13.0067261151191
20
-0.21045937283165
30
0
41
1
10
12.9192082781157
20
-0.16151326471342
30
0
41
1
10
12.8609484785819
20
-0.128468997484731
30
0
41
1
10
12.7442981936985
20
-0.0620791398968095
30
0
41
1
10
12.6860118683375
20
-0.0285518170938985
30
0
41
1
10
12.5983432191132
20
0.0217202579324294
30
0
41
1
10
12.5690661991635
20
0.0384790432087527
30
0
41
1
10
12.5106078405277
20
0.0718626834693907
30
0
41
1
10
12.4814050331909
20
0.0885002035739717
30
0
41
1
10
12.3938677404658
20
0.13823669992351
30
0
41
1
10
12.3356016815754
20
0.171153942764675
30
0
41
1
10
12.2189564252912
20
0.23599461005432
30
0
41
1
10
12.1605783692423
20
0.267921015595931
30
0
41
1
10
12.0435608594457
20
0.330526586770532
30
0
41
1
10
11.9852609413375
20
0.360972365504097
30
0
41
1
10
11.8690792589007
20
0.41977214164308
30
0
41
1
10
11.8112121877939
20
0.448219441668726
30
0
41
1
10
11.6378375566058
20
0.530055312032573
30
0
41
1
10
11.5225825233734
20
0.57998493507921
30
0
41
1
10
11.3490235845691
20
0.64639323095497
30
0
41
1
10
11.2910698430265
20
0.667130210201435
30
0
41
1
10
11.2038567829938
20
0.695950532902316
30
0
41
1
10
11.1747359324935
20
0.705173236451742
30
0
41
1
10
11.1163589407258
20
0.72280651680893
30
0
41
1
10
11.0870660259659
20
0.731224443096636
30
0
41
1
10
10.9993080290407
20
0.755122262257743
30
0
41
1
10
10.9409372380021
20
0.769278289222655
30
0
41
1
10
10.8242172015894
20
0.793881183650086
30
0
41
1
10
10.7658438411502
20
0.804318569930274
30
0
41
1
10
10.678224001041
20
0.817147593222188
30
0
41
1
10
10.6490046880143
20
0.820949904654611
30
0
41
1
10
10.5904919752468
20
0.827580887799741
30
0
41
1
10
10.5612079728998
20
0.830407908234491
30
0
41
1
10
10.4736386930346
20
0.837387107470022
30
0
41
1
10
10.4155063894622
20
0.840058340929687
30
0
41
1
10
10.2995345941262
20
0.841491866814238
30
0
41
1
10
10.2416770461728
20
0.840255551713568
30
0
41
1
10
10.1260856028349
20
0.833931620943247
30
0
41
1
10
10.0683634613411
20
0.828837683030656
30
0
41
1
10
9.95280953622478
20
0.814848783335293
30
0
41
1
10
9.89496150443227
20
0.805964750516324
30
0
41
1
10
9.77900541347046
20
0.784445093567541
30
0
41
1
10
9.72089225326337
20
0.771807075341343
30
0
41
1
10
9.6333156786755
20
0.750125748619098
30
0
41
1
10
9.60403216694283
20
0.742436764440782
30
0
41
1
10
9.54545745585207
20
0.726163104411228
30
0
41
1
10
9.51621386769699
20
0.717592875189837
30
0
41
1
10
9.42854000275321
20
0.690653525745091
30
0
41
1
10
9.37015806246444
20
0.671065893277074
30
0
41
1
10
9.25335136865149
20
0.628840690360533
30
0
41
1
10
9.19493790118997
20
0.606188695251006
30
0
41
1
10
9.10711925790633
20
0.570109173336846
30
0
41
1
10
9.07779475865163
20
0.557720880535356
30
0
41
1
10
9.04681894681423
20
0.544290692942724
30
0
41
1
10
9.04512097844375
20
0.543553402844964
30
0
41
1
10
9.04342312025423
20
0.542815063355675
30
0
0
SPLINE
5
D0
100
AcDbEntity
8
SK1
62
256
6
ByLayer
370
18
48
1
60
0
100
AcDbSpline
70
4
71
3
72
26
73
22
40
0
40
0
40
0
40
0
40
0.0313205100599298
40
0.0313205100599298
40
0.138951564497715
40
0.138951564497715
40
0.246582618935501
40
0.246582618935501
40
0.354213673373287
40
0.354213673373287
40
0.408029200592179
40
0.408029200592179
40
0.461844727811072
40
0.461844727811072
40
0.569475782248857
40
0.569475782248857
40
0.784737891124429
40
0.784737891124429
40
0.892368945562215
40
0.892368945562215
40
1
40
1
40
1
40
1
41
1
10
5.6905732240462
20
-0.833217989048194
30
0
41
1
10
5.67353213965899
20
-0.833184966867691
30
0
41
1
10
5.65648440657625
20
-0.832984972399885
30
0
41
1
10
5.5808126605036
20
-0.831355531333713
30
0
41
1
10
5.52207169283918
20
-0.828106848080779
30
0
41
1
10
5.4049512663249
20
-0.817713817372123
30
0
41
1
10
5.34645591287043
20
-0.810577140540858
30
0
41
1
10
5.22939438517687
20
-0.792532063216441
30
0
41
1
10
5.17087103551839
20
-0.781600535862282
30
0
41
1
10
5.08288907515813
20
-0.762434340189969
30
0
41
1
10
5.05349996757775
20
-0.755581334519945
30
0
41
1
10
4.99490841447593
20
-0.741044844990597
30
0
41
1
10
4.96568028308474
20
-0.733351584593635
30
0
41
1
10
4.87818568721943
20
-0.709018699917067
30
0
41
1
10
4.82009790864697
20
-0.691132911099658
30
0
41
1
10
4.6461332301281
20
-0.63298483320051
30
0
41
1
10
4.53054636723161
20
-0.588266473206261
30
0
41
1
10
4.35685307404557
20
-0.51342358058929
30
0
41
1
10
4.29890434871064
20
-0.487173827667704
30
0
41
1
10
4.18262196555503
20
-0.432452755118589
30
0
41
1
10
4.12426505870661
20
-0.404024244357771
30
0
41
1
10
4.06568086780439
20
-0.374517293785686
30
0
0
SPLINE
5
D1
100
AcDbEntity
8
SK1
62
256
6
ByLayer
370
18
48
1
60
0
100
AcDbSpline
70
4
71
3
72
20
73
16
40
0
40
0
40
0
40
0
40
0.250000000000047
40
0.250000000000047
40
0.500000000000094
40
0.500000000000094
40
0.62500000000008
40
0.62500000000008
40
0.750000000000067
40
0.750000000000067
40
0.875000000000054
40
0.875000000000054
40
0.937500000000027
40
0.937500000000027
40
1
40
1
40
1
40
1
41
1
10
6.12067817250539
20
-0.831925700782847
30
0
41
1
10
6.11278599578569
20
-0.832222872016814
30
0
41
1
10
6.10506471721703
20
-0.832503405743012
30
0
41
1
10
6.09003381460869
20
-0.833007852815427
30
0
41
1
10
6.0827068007869
20
-0.833232628789176
30
0
41
1
10
6.07236533747269
20
-0.833502815950595
30
0
41
1
10
6.0690235293194
20
-0.833581810547685
30
0
41
1
10
6.06264163681379
20
-0.833711226371179
30
0
41
1
10
6.05958228578734
20
-0.833761966146824
30
0
41
1
10
6.0540339703179
20
-0.833822305699783
30
0
41
1
10
6.05152485033165
20
-0.833832174615964
30
0
41
1
10
6.04862231411906
20
-0.833801479585418
30
0
41
1
10
6.04780875413746
20
-0.833783715561651
30
0
41
1
10
6.04663051265064
20
-0.833729794612566
30
0
41
1
10
6.04626926357494
20
-0.833693332993363
30
0
41
1
10
6.04627344209109
20
-0.833647512992258
30
0
0
SPLINE
5
D2
100
AcDbEntity
8
SK1
62
256
6
ByLayer
370
18
48
1
60
0
100
AcDbSpline
70
4
71
3
72
25
73
21
40
0
40
0
40
0
40
0
40
0.125
40
0.125
40
0.1875
40
0.1875
40
0.25
40
0.25
40
0.375
40
0.375
40
0.5
40
0.5
40
0.625
40
0.75
40
0.75
40
0.8125
40
0.8125
40
0.875
40
0.875
40
1
40
1
40
1
40
1
41
1
10
6.04627344207464
20
-0.833647512992115
30
0
41
1
10
6.04634710721513
20
-0.832839729330658
30
0
41
1
10
6.04640566045239
20
-0.82910303201794
30
0
41
1
10
6.04647590934201
20
-0.819139872269545
30
0
41
1
10
6.04649639000712
20
-0.815089624304392
30
0
41
1
10
6.04653228829184
20
-0.805501470942801
30
0
41
1
10
6.04654768649598
20
-0.79995465800414
30
0
41
1
10
6.04658699963611
20
-0.781342092481765
30
0
41
1
10
6.04660438767311
20
-0.766246371219978
30
0
41
1
10
6.04662934679661
20
-0.730792101024662
30
0
41
1
10
6.04663689673856
20
-0.710425298718377
30
0
41
1
10
6.04664894728705
20
-0.66423681366706
30
0
41
1
10
6.04665779566349
20
-0.613710556409899
30
0
41
1
10
6.04667207864281
20
-0.554859975556127
30
0
41
1
10
6.04668811584637
20
-0.507530767885328
30
0
41
1
10
6.04669437225974
20
-0.49115001622215
30
0
41
1
10
6.04670886351639
20
-0.457741164241014
30
0
41
1
10
6.0467170947382
20
-0.440701599005933
30
0
41
1
10
6.04674501123799
20
-0.388600327093002
30
0
41
1
10
6.04676796918943
20
-0.352561081005831
30
0
41
1
10
6.04679535538273
20
-0.315214502323499
30
0
0
SPLINE
5
D3
100
AcDbEntity
8
SK1
62
256
6
ByLayer
370
18
48
1
60
0
100
AcDbSpline
70
4
71
3
72
24
73
20
40
0
40
0
40
0
40
0
40
0.125
40
0.125
40
0.25
40
0.25
40
0.375
40
0.375
40
0.5
40
0.5
40
0.625
40
0.625
40
0.6875
40
0.6875
40
0.75
40
0.75
40
0.875
40
0.875
40
1
40
1
40
1
40
1
41
1
10
4.5469914993275
20
0.491192363561169
30
0
41
1
10
4.60988276679404
20
0.462529619553465
30
0
41
1
10
4.67251137634096
20
0.432749200685834
30
0
41
1
10
4.79730080665294
20
0.37108216323702
30
0
41
1
10
4.85946227327815
20
0.339192470112266
30
0
41
1
10
4.98371324606956
20
0.273968210265792
30
0
41
1
10
5.04577307170618
20
0.240586594858598
30
0
41
1
10
5.16990093202347
20
0.172519548635648
30
0
41
1
10
5.23203115560477
20
0.137942206169811
30
0
41
1
10
5.35662489971151
20
0.068049789116202
30
0
41
1
10
5.41903278614097
20
0.0326312327261746
30
0
41
1
10
5.51312030222766
20
-0.0206580863218164
30
0
41
1
10
5.54460740494619
20
-0.0384634037016554
30
0
41
1
10
5.60750075210939
20
-0.0739796427847352
30
0
41
1
10
5.63890200226689
20
-0.0916965480461727
30
0
41
1
10
5.73302783222934
20
-0.144620442095203
30
0
41
1
10
5.79569867129101
20
-0.179557807238808
30
0
41
1
10
5.92116428875778
20
-0.248254582435209
30
0
41
1
10
5.98389122426391
20
-0.282133695987625
30
0
41
1
10
6.0467953553829
20
-0.315214502323642
30
0
0
SPLINE
5
D4
100
AcDbEntity
8
SK1
62
256
6
ByLayer
370
18
48
1
60
0
100
AcDbSpline
70
4
71
3
72
10
73
6
40
0
40
0
40
0
40
0
40
0.5
40
0.5
40
1
40
1
40
1
40
1
41
1
10
4.54699149932753
20
0.49119236356114
30
0
41
1
10
4.54223863547912
20
0.493358484952552
30
0
41
1
10
4.53790265204356
20
0.495931252485292
30
0
41
1
10
4.52994826247732
20
0.501755371961877
30
0
41
1
10
4.526320578368
20
0.505029674541078
30
0
41
1
10
4.52315123102389
20
0.508537839079196
30
0
0
SPLINE
5
D5
100
AcDbEntity
8
SK1
62
256
6
ByLayer
370
18
48
1
60
0
100
AcDbSpline
70
4
71
3
72
30
73
26
40
0
40
0
40
0
40
0
40
0.110338742307249
40
0.110338742307249
40
0.220677484614498
40
0.220677484614498
40
0.331016226921747
40
0.331016226921747
40
0.386185598075367
40
0.386185598075367
40
0.441354969228987
40
0.441354969228987
40
0.551693711536216
40
0.551693711536216
40
0.662032453843446
40
0.662032453843446
40
0.717201824997056
40
0.717201824997056
40
0.772371196150665
40
0.772371196150665
40
0.882709938457885
40
0.882709938457885
40
0.993048680765105
40
0.993048680765105
40
1
40
1
40
1
40
1
41
1
10
15.2402543231732
20
0.832907148836085
30
0
41
1
10
15.1825663021214
20
0.839299370656278
30
0
41
1
10
15.124905051919
20
0.843747647306003
30
0
41
1
10
15.0096451205379
20
0.848789473634895
30
0
41
1
10
14.9520630318077
20
0.849369627770443
30
0
41
1
10
14.8365476923432
20
0.846617391831586
30
0
41
1
10
14.7786680930631
20
0.843295112764849
30
0
41
1
10
14.6916186664502
20
0.835335251953694
30
0
41
1
10
14.6625504312751
20
0.832187832493247
30
0
41
1
10
14.6042549610608
20
0.824916421902373
30
0
41
1
10
14.5749978713849
20
0.820785669831054
30
0
41
1
10
14.487359895475
20
0.806974027926174
30
0
41
1
10
14.4291132550883
20
0.795837825773958
30
0
41
1
10
14.3126130299385
20
0.769927586905283
30
0
41
1
10
14.2543290701192
20
0.755184352965671
30
0
41
1
10
14.1668284703931
20
0.730408208755051
30
0
41
1
10
14.1376518322065
20
0.721702031383273
30
0
41
1
10
14.0792359082339
20
0.70342544475389
30
0
41
1
10
14.0500142008908
20
0.693859662307943
30
0
41
1
10
13.9626108590868
20
0.664085901492513
30
0
41
1
10
13.9045449800901
20
0.642775042183871
30
0
41
1
10
13.7888337005363
20
0.597255626432997
30
0
41
1
10
13.7310891384156
20
0.573165109193837
30
0
41
1
10
13.6697434720093
20
0.546270183474718
30
0
41
1
10
13.6661080555257
20
0.544671196444938
30
0
41
1
10
13.6624729083787
20
0.543067219373455
30
0
0
SPLINE
5
D6
100
AcDbEntity
8
SK1
62
256
6
ByLayer
370
18
48
1
60
0
100
AcDbSpline
70
4
71
3
72
82
73
78
40
0
40
0
40
0
40
0
40
0.0235804403169212
40
0.0235804403169212
40
0.0534668728614714
40
0.0534668728614714
40
0.0833533054060217
40
0.0833533054060217
40
0.113239737950572
40
0.113239737950572
40
0.128182954222848
40
0.128182954222848
40
0.143126170495125
40
0.143126170495125
40
0.173012603039678
40
0.173012603039678
40
0.202899035584231
40
0.202899035584231
40
0.217842251856508
40
0.217842251856508
40
0.232785468128785
40
0.232785468128785
40
0.262671900673341
40
0.262671900673341
40
0.292558333217896
40
0.292558333217896
40
0.307501549490175
40
0.307501549490175
40
0.322444765762452
40
0.322444765762452
40
0.352331198307008
40
0.352331198307008
40
0.412104063396118
40
0.412104063396118
40
0.441990495940672
40
0.441990495940672
40
0.456933712212948
40
0.456933712212948
40
0.471876928485225
40
0.471876928485225
40
0.501763361029778
40
0.501763361029778
40
0.531649793574331
40
0.531649793574331
40
0.546593009846608
40
0.546593009846608
40
0.561536226118886
40
0.561536226118886
40
0.59142265866344
40
0.59142265866344
40
0.621309091207994
40
0.621309091207994
40
0.651195523752548
40
0.651195523752548
40
0.681081956297102
40
0.681081956297102
40
0.710968388841656
40
0.710968388841656
40
0.740854821386211
40
0.740854821386211
40
0.770741253930765
40
0.770741253930765
40
0.80062768647532
40
0.80062768647532
40
0.830514119019874
40
0.830514119019874
40
0.860400551564429
40
0.860400551564429
40
0.890286984108983
40
0.890286984108983
40
0.905230200381261
40
0.905230200381261
40
0.920173416653538
40
0.920173416653538
40
0.950059849198094
40
0.950059849198094
40
1
40
1
40
1
40
1
41
1
10
10.3208321983514
20
-0.8409682139864
30
0
41
1
10
10.2751216358022
20
-0.840884414916303
30
0
41
1
10
10.229482235999
20
-0.839588381782391
30
0
41
1
10
10.1260856028343
20
-0.83393162094319
30
0
41
1
10
10.0683634613405
20
-0.828837683030599
30
0
41
1
10
9.95280953622418
20
-0.814848783335179
30
0
41
1
10
9.89496150443168
20
-0.80596475051621
30
0
41
1
10
9.77900541346986
20
-0.784445093567399
30
0
41
1
10
9.72089225326275
20
-0.771807075341172
30
0
41
1
10
9.63331567867485
20
-0.750125748618927
30
0
41
1
10
9.60403216694218
20
-0.742436764440583
30
0
41
1
10
9.54545745585142
20
-0.726163104411029
30
0
41
1
10
9.51621386769637
20
-0.717592875189638
30
0
41
1
10
9.42854000275256
20
-0.690653525744864
30
0
41
1
10
9.37015806246379
20
-0.671065893276818
30
0
41
1
10
9.25335136865081
20
-0.628840690360278
30
0
41
1
10
9.19493790118929
20
-0.606188695250722
30
0
41
1
10
9.10711925790565
20
-0.570109173336533
30
0
41
1
10
9.0777947586509
20
-0.557720880535044
30
0
41
1
10
9.01923929691154
20
-0.532332979812281
30
0
41
1
10
8.98999503835705
20
-0.519326038825
30
0
41
1
10
8.90232552558365
20
-0.479419675722227
30
0
41
1
10
8.84395697640969
20
-0.451642460180437
30
0
41
1
10
8.72709484934134
20
-0.394165747302082
30
0
41
1
10
8.66863252995478
20
-0.364420289013083
30
0
41
1
10
8.58074880895308
20
-0.318503095297672
30
0
41
1
10
8.55145234749068
20
-0.303003234513369
30
0
41
1
10
8.49302764980277
20
-0.271791649401337
30
0
41
1
10
8.46386909652907
20
-0.25606385558109
30
0
41
1
10
8.37656386496224
20
-0.208499380780182
30
0
41
1
10
8.31858988203848
20
-0.176277222312621
30
0
41
1
10
8.14487187459417
20
-0.0789378313281475
30
0
41
1
10
8.0294048756694
20
-0.0130186659667686
30
0
41
1
10
7.85561292542033
20
0.0854097142797343
30
0
41
1
10
7.79760166501714
20
0.118176621241531
30
0
41
1
10
7.7102903374402
20
0.166951989060124
30
0
41
1
10
7.68113565325604
20
0.183144609586719
30
0
41
1
10
7.62268847917602
20
0.215333193574509
30
0
41
1
10
7.59336459234225
20
0.231348413496818
30
0
41
1
10
7.50542736724734
20
0.278960286565137
30
0
41
1
10
7.44695571388573
20
0.310071844941717
30
0
41
1
10
7.33002381573544
20
0.370560083811938
30
0
41
1
10
7.27156458934505
20
0.399941881500638
30
0
41
1
10
7.18383219574685
20
0.44263096987666
30
0
41
1
10
7.15457110044991
20
0.456614663924768
30
0
41
1
10
7.09597881200006
20
0.484034236665565
30
0
41
1
10
7.06662293162432
20
0.497480760008528
30
0
41
1
10
6.97882771914257
20
0.536770207071811
30
0
41
1
10
6.92055736877475
20
0.5616365637363
30
0
41
1
10
6.80431872537469
20
0.608485579907097
30
0
41
1
10
6.74635002045545
20
0.630469735656249
30
0
41
1
10
6.63057050661311
20
0.671413583588929
30
0
41
1
10
6.57275829488771
20
0.6903674463085
30
0
41
1
10
6.4570027591046
20
0.724952049115046
30
0
41
1
10
6.39906612743738
20
0.740594911434499
30
0
41
1
10
6.28298298473447
20
0.768472805345738
30
0
41
1
10
6.22480478637783
20
0.780679050064322
30
0
41
1
10
6.10794376345592
20
0.80142039667976
30
0
41
1
10
6.04919710180826
20
0.809995070318735
30
0
41
1
10
5.93205017061979
20
0.823178997237562
30
0
41
1
10
5.87354936280599
20
0.827814383685734
30
0
41
1
10
5.75654950570393
20
0.833166434901329
30
0
41
1
10
5.69804242830526
20
0.833879842027642
30
0
41
1
10
5.58081266050249
20
0.831355531333656
30
0
41
1
10
5.5220716928381
20
0.828106848080722
30
0
41
1
10
5.40495126632379
20
0.81771381737201
30
0
41
1
10
5.34645591286929
20
0.810577140540715
30
0
41
1
10
5.22939438517577
20
0.792532063216242
30
0
41
1
10
5.17087103551722
20
0.781600535862054
30
0
41
1
10
5.08288907515697
20
0.762434340189714
30
0
41
1
10
5.05349996757658
20
0.755581334519661
30
0
41
1
10
4.99490841447476
20
0.741044844990284
30
0
41
1
10
4.96568028308357
20
0.73335158459335
30
0
41
1
10
4.87818568721826
20
0.709018699916726
30
0
41
1
10
4.82009790864581
20
0.691132911099288
30
0
41
1
10
4.66521150784138
20
0.639361789649911
30
0
41
1
10
4.56858528926912
20
0.602817838784119
30
0
41
1
10
4.47188210832195
20
0.562570992278239
30
0
0
SPLINE
5
D7
100
AcDbEntity
8
SK1
62
256
6
ByLayer
370
18
48
1
60
0
100
AcDbSpline
70
4
71
3
72
18
73
14
40
0
40
0
40
0
40
0
40
0.125000000000029
40
0.125000000000029
40
0.250000000000059
40
0.250000000000059
40
0.375000000000088
40
0.375000000000088
40
0.500000000000118
40
0.500000000000118
40
0.750000000000059
40
0.750000000000059
40
1
40
1
40
1
40
1
41
1
10
15.1646232214425
20
-0.847292877192899
30
0
41
1
10
15.1654757761756
20
-0.844231875454994
30
0
41
1
10
15.1656194295202
20
-0.841343345075558
30
0
41
1
10
15.1649090350945
20
-0.836408881311769
30
0
41
1
10
15.1640961505246
20
-0.834321739414548
30
0
41
1
10
15.162038754607
20
-0.830701408038266
30
0
41
1
10
15.16077362251
20
-0.829144115059563
30
0
41
1
10
15.1580387681691
20
-0.826424081292402
30
0
41
1
10
15.1565551060216
20
-0.825246013661683
30
0
41
1
10
15.1518694867084
20
-0.822079095012242
30
0
41
1
10
15.1484250378047
20
-0.820447232766298
30
0
41
1
10
15.1412265605558
20
-0.817786117954256
30
0
41
1
10
15.1374733653033
20
-0.816764342572981
30
0
41
1
10
15.1336106760325
20
-0.81596217310269
30
0
0
SPLINE
5
D8
100
AcDbEntity
8
SK1
62
256
6
ByLayer
370
18
48
1
60
0
100
AcDbSpline
70
4
71
3
72
12
73
8
40
0
40
0
40
0
40
0
40
0.577034143477644
40
0.577034143477644
40
0.865551215216469
40
0.865551215216469
40
1
40
1
40
1
40
1
41
1
10
6.14001429436939
20
-0.815309302148478
30
0
41
1
10
6.18716930012903
20
-0.814567099513226
30
0
41
1
10
6.23430219063545
20
-0.81254179657131
30
0
41
1
10
6.30506414335375
20
-0.807624991177619
30
0
41
1
10
6.3286627920275
20
-0.80567394621545
30
0
41
1
10
6.36329005388052
20
-0.802363985440337
30
0
41
1
10
6.37430510093373
20
-0.801244689966978
30
0
41
1
10
6.38531884004317
20
-0.800059399083636
30
0
0
SPLINE
5
D9
100
AcDbEntity
8
SK1
62
256
6
ByLayer
370
18
48
1
60
0
100
AcDbSpline
70
4
71
3
72
28
73
24
40
0
40
0
40
0
40
0
40
0.0281319115254744
40
0.0281319115254744
40
0.0736526808768716
40
0.0736526808768716
40
0.164694219579666
40
0.164694219579666
40
0.346777296985265
40
0.346777296985265
40
0.39229806633667
40
0.39229806633667
40
0.437818835688075
40
0.437818835688075
40
0.528860374390874
40
0.528860374390874
40
0.710943451796483
40
0.710943451796483
40
0.893026529202092
40
0.893026529202092
40
0.984068067904897
40
0.984068067904897
40
1
40
1
40
1
40
1
41
1
10
11.2294227485426
20
0.772078944399738
30
0
41
1
10
11.2439551394409
20
0.769341259448737
30
0
41
1
10
11.2585014707994
20
0.766487985197301
30
0
41
1
10
11.2966286383899
20
0.758718590909382
30
0
41
1
10
11.3202575044154
20
0.753613113239254
30
0
41
1
10
11.3910818421477
20
0.737462725703267
30
0
41
1
10
11.4382429842542
20
0.725573258733732
30
0
41
1
10
11.5796091170789
20
0.68660240507333
30
0
41
1
10
11.6737192459198
20
0.656246513491908
30
0
41
1
10
11.7916996559888
20
0.61329678414279
30
0
41
1
10
11.8153102593578
20
0.604457745648148
30
0
41
1
10
11.8624122688771
20
0.586372389870434
30
0
41
1
10
11.8859255978997
20
0.577118208513895
30
0
41
1
10
11.9563865322873
20
0.548768968062319
30
0
41
1
10
12.0032485446096
20
0.529078318079655
30
0
41
1
10
12.1435378152282
20
0.467713306065917
30
0
41
1
10
12.2366788468897
20
0.423772370826072
30
0
41
1
10
12.4229891954811
20
0.331153885536907
30
0
41
1
10
12.5163096207631
20
0.282739526598647
30
0
41
1
10
12.6569705613379
20
0.207520045670663
30
0
41
1
10
12.7039755744003
20
0.182027270193743
30
0
41
1
10
12.7593967731464
20
0.151666878064077
30
0
41
1
10
12.7676561920416
20
0.147134363873335
30
0
41
1
10
12.775915755883
20
0.142594601526781
30
0
0
SPLINE
5
DA
100
AcDbEntity
8
SK1
62
256
6
ByLayer
370
13
48
1
60
0
100
AcDbSpline
70
4
71
3
72
38
73
34
40
0
40
0
40
0
40
0
40
0.0193163484246126
40
0.0193163484246126
40
0.0490340348359882
40
0.0490340348359882
40
0.167904780481484
40
0.167904780481484
40
0.286775526126979
40
0.286775526126979
40
0.346210898949727
40
0.346210898949727
40
0.405646271772475
40
0.405646271772475
40
0.465081644595223
40
0.465081644595223
40
0.494799331006597
40
0.494799331006597
40
0.524517017417971
40
0.524517017417971
40
0.583952390240725
40
0.583952390240725
40
0.64338776306348
40
0.64338776306348
40
0.762258508708989
40
0.762258508708989
40
0.881129254354498
40
0.881129254354498
40
0.940564627177252
40
0.940564627177252
40
0.970282313588626
40
0.970282313588626
40
1
40
1
40
1
40
1
41
1
10
12.7759166322648
20
0.142594119834826
30
0
41
1
10
12.7912560295836
20
0.134163017723068
30
0
41
1
10
12.8065959261977
20
0.125706916631543
30
0
41
1
10
12.8454525337662
20
0.104236195020974
30
0
41
1
10
12.8689556675135
20
0.0912016331859888
30
0
41
1
10
12.9862773033973
20
0.0259876159958026
30
0
41
1
10
13.0795539078619
20
-0.0262498038433989
30
0
41
1
10
13.2656272185171
20
-0.129579502221475
30
0
41
1
10
13.3583886542468
20
-0.180733418212867
30
0
41
1
10
13.4977160495061
20
-0.25563664256336
30
0
41
1
10
13.544187690389
20
-0.280302260466868
30
0
41
1
10
13.6373477512723
20
-0.32876296372666
30
0
41
1
10
13.6840422510148
20
-0.352548350182872
30
0
41
1
10
13.7777065782074
20
-0.399120116181109
30
0
41
1
10
13.8246721708112
20
-0.421912613977014
30
0
41
1
10
13.8953943115313
20
-0.455233583219893
30
0
41
1
10
13.9190141820224
20
-0.466194722089142
30
0
41
1
10
13.9660908937871
20
-0.487683429302308
30
0
41
1
10
13.9895813714036
20
-0.498227007549559
30
0
41
1
10
14.0599295633817
20
-0.529234540180369
30
0
41
1
10
14.1066605112893
20
-0.549077231321206
30
0
41
1
10
14.1999508397024
20
-0.58696983701202
30
0
41
1
10
14.2465199395188
20
-0.605015058248853
30
0
41
1
10
14.3860741361079
20
-0.65627137901015
30
0
41
1
10
14.4788648386263
20
-0.686613223272815
30
0
41
1
10
14.6647420471435
20
-0.738919355186823
30
0
41
1
10
14.7578321411364
20
-0.760889791620997
30
0
41
1
10
14.8982545131898
20
-0.786923918872134
30
0
41
1
10
14.9451925765206
20
-0.794447125334102
30
0
41
1
10
15.0158644984998
20
-0.803917143874571
30
0
41
1
10
15.0394634580442
20
-0.806770153374487
30
0
41
1
10
15.086567690751
20
-0.811839357675581
30
0
41
1
10
15.1100973278729
20
-0.814059005944529
30
0
41
1
10
15.1336106760293
20
-0.815962173103458
30
0
0
SPLINE
5
DB
100
AcDbEntity
8
SK1
62
256
6
ByLayer
370
18
48
1
60
0
100
AcDbSpline
70
4
71
3
72
60
73
56
40
0
40
0
40
0
40
0
40
0.062384978681111
40
0.062384978681111
40
0.124769957362222
40
0.124769957362222
40
0.187154936043333
40
0.187154936043333
40
0.218347425383888
40
0.218347425383888
40
0.249539914724444
40
0.249539914724444
40
0.280732404065
40
0.280732404065
40
0.311924893405555
40
0.311924893405555
40
0.343117382746111
40
0.343117382746111
40
0.374309872086666
40
0.374309872086666
40
0.436694850767777
40
0.436694850767777
40
0.499079829448888
40
0.499079829448888
40
0.514676074119166
40
0.514676074119166
40
0.530272318789443
40
0.530272318789443
40
0.561464808129999
40
0.561464808129999
40
0.592657297470555
40
0.592657297470555
40
0.62384978681111
40
0.62384978681111
40
0.686234765492221
40
0.686234765492221
40
0.717427254832776
40
0.717427254832776
40
0.733023499503054
40
0.733023499503054
40
0.748619744173332
40
0.748619744173332
40
0.811004722854436
40
0.811004722854436
40
0.842197212194988
40
0.842197212194988
40
0.873389701535541
40
0.873389701535541
40
0.935774680216645
40
0.935774680216645
40
0.966967169557197
40
0.966967169557197
40
0.998159658897749
40
0.998159658897749
40
1
40
1
40
1
40
1
41
1
10
15.1646232214414
20
-0.847292877196338
30
0
41
1
10
15.0700996170201
20
-0.843569400134641
30
0
41
1
10
14.9756030530866
20
-0.834518059133785
30
0
41
1
10
14.7860005441471
20
-0.806191154605557
30
0
41
1
10
14.691877139491
20
-0.787065311945327
30
0
41
1
10
14.5042333197927
20
-0.739743320494938
30
0
41
1
10
14.4107127362376
20
-0.711539121424636
30
0
41
1
10
14.2702271627218
20
-0.663096606831317
30
0
41
1
10
14.2233656666979
20
-0.645927832158463
30
0
41
1
10
14.1295618189643
20
-0.609538170786209
30
0
41
1
10
14.0826193013508
20
-0.590313176195849
30
0
41
1
10
13.9884536255493
20
-0.550014868032008
30
0
41
1
10
13.9412290974843
20
-0.528945448743571
30
0
41
1
10
13.846381408341
20
-0.48509434357365
30
0
41
1
10
13.7990516662404
20
-0.462447308979563
30
0
41
1
10
13.7047191364355
20
-0.41603782639649
30
0
41
1
10
13.6576705925534
20
-0.392263023612429
30
0
41
1
10
13.5638058985037
20
-0.343587306280796
30
0
41
1
10
13.516998028523
20
-0.318671376605494
30
0
41
1
10
13.3766550327864
20
-0.242671123717571
30
0
41
1
10
13.2831748224034
20
-0.190379544198606
30
0
41
1
10
13.0955086930092
20
-0.0840560284625838
30
0
41
1
10
13.0013396846466
20
-0.0299987464162541
30
0
41
1
10
12.8828122820832
20
0.0380373480471405
30
0
41
1
10
12.8590565091774
20
0.0516650773417666
30
0
41
1
10
12.8116934886715
20
0.0787801541120814
30
0
41
1
10
12.7880548598913
20
0.0922858117029079
30
0
41
1
10
12.7172433644152
20
0.132606668257864
30
0
41
1
10
12.6701724788102
20
0.159221531736449
30
0
41
1
10
12.5762068733829
20
0.21176300794292
30
0
41
1
10
12.5293131710326
20
0.237691571969947
30
0
41
1
10
12.4356249434019
20
0.288734652607531
30
0
41
1
10
12.3888085170108
20
0.313813292791622
30
0
41
1
10
12.2484920832306
20
0.387792291716067
30
0
41
1
10
12.1548752328886
20
0.435020107751256
30
0
41
1
10
12.0136067806029
20
0.501559166447748
30
0
41
1
10
11.9663734500018
20
0.523018429238448
30
0
41
1
10
11.8952825398417
20
0.554077722052597
30
0
41
1
10
11.8715159750878
20
0.564258302558557
30
0
41
1
10
11.8241033648454
20
0.584148440662915
30
0
41
1
10
11.8004489536809
20
0.593858579007502
30
0
41
1
10
11.6823695928381
20
0.641157096733394
30
0
41
1
10
11.5884628339021
20
0.67491488673997
30
0
41
1
10
11.4477925036988
20
0.718947785304863
30
0
41
1
10
11.4009296167065
20
0.732522012165447
30
0
41
1
10
11.3072162404027
20
0.757433926462369
30
0
41
1
10
11.2603859298014
20
0.76878613938436
30
0
41
1
10
11.1197710136407
20
0.799329926810515
30
0
41
1
10
11.0257437074502
20
0.814928329822465
30
0
41
1
10
10.8836128375879
20
0.83071285647614
30
0
41
1
10
10.8359827160651
20
0.834705110942224
30
0
41
1
10
10.741267711569
20
0.840050344958911
30
0
41
1
10
10.6940807887578
20
0.841420972181851
30
0
41
1
10
10.6442383607767
20
0.841504278310396
30
0
41
1
10
10.641461886274
20
0.841504418696076
30
0
41
1
10
10.6386857715467
20
0.84150006202654
30
0
0
SPLINE
5
DC
100
AcDbEntity
8
SK1
62
256
6
ByLayer
370
18
48
1
60
0
100
AcDbSpline
70
4
71
3
72
29
73
25
40
0
40
0
40
0
40
0
40
0.0189968908916741
40
0.0189968908916741
40
0.161295031670503
40
0.161295031670503
40
0.303593172449331
40
0.303593172449331
40
0.445891313228159
40
0.445891313228159
40
0.481465848422866
40
0.481465848422866
40
0.517040383617572
40
0.517040383617572
40
0.588189454006989
40
0.588189454006989
40
0.730487594785825
40
0.730487594785825
40
0.872785735564661
40
0.872785735564661
40
0.94393480595408
40
0.97950934114879
40
0.97950934114879
40
1
40
1
40
1
40
1
41
1
10
6.38531870439851
20
0.800059413681623
30
0
41
1
10
6.39793967379615
20
0.798701154423469
30
0
41
1
10
6.41055892571177
20
0.797256232983273
30
0
41
1
10
6.51757010368354
20
0.784266960817291
30
0
41
1
10
6.61134164624514
20
0.767978798711965
30
0
41
1
10
6.79846231693566
20
0.726541751748385
30
0
41
1
10
6.8917818147217
20
0.701373577031575
30
0
41
1
10
7.07859149251451
20
0.642690462907694
30
0
41
1
10
7.17207094705981
20
0.609113352527913
30
0
41
1
10
7.28969726250236
20
0.56260610533019
30
0
41
1
10
7.31326404623286
20
0.553081872394614
30
0
41
1
10
7.36048585977008
20
0.533590163944751
30
0
41
1
10
7.38416520595828
20
0.523611911915907
30
0
41
1
10
7.45502006600194
20
0.493155649063283
30
0
41
1
10
7.50208964669667
20
0.472125256006677
30
0
41
1
10
7.64293514815972
20
0.407091351010479
30
0
41
1
10
7.73633528312467
20
0.361121675083041
30
0
41
1
10
7.92294613802974
20
0.265324355264681
30
0
41
1
10
8.01616711318511
20
0.215521779231352
30
0
41
1
10
8.15653178902983
20
0.139027201927973
30
0
41
1
10
8.22686581048785
20
0.100363847539086
30
0
41
1
10
8.29751444924017
20
0.0612401018341302
30
0
41
1
10
8.33469302126471
20
0.0406258757828368
30
0
41
1
10
8.34830355746362
20
0.0330742067368988
30
0
41
1
10
8.36191379447268
20
0.0255211599223912
30
0
0
SPLINE
5
DD
100
AcDbEntity
8
SK1
62
256
6
ByLayer
370
13
48
1
60
0
100
AcDbSpline
70
4
71
3
72
12
73
8
40
0
40
0
40
0
40
0
40
0.0603637931194632
40
0.0603637931194632
40
0.629839783775141
40
0.629839783775141
40
1
40
1
40
1
40
1
41
1
10
8.36191466886959
20
0.0255206746729186
30
0
41
1
10
8.37193333937813
20
0.0199607797216288
30
0
41
1
10
8.38195184750197
20
0.0144001383979173
30
0
41
1
10
8.48638885644937
20
-0.0435602339615571
30
0
41
1
10
8.58021590117252
20
-0.0955756340698599
30
0
41
1
10
8.73450620106115
20
-0.179903759437792
30
0
41
1
10
8.79514594901968
20
-0.212746385454579
30
0
41
1
10
8.85578160876574
20
-0.244973571620363
30
0
0
SPLINE
5
DE
100
AcDbEntity
8
SK1
62
256
6
ByLayer
370
18
48
1
60
0
100
AcDbSpline
70
4
71
3
72
30
73
26
40
0
40
0
40
0
40
0
40
0.0527702299661244
40
0.0527702299661244
40
0.203542937601745
40
0.203542937601745
40
0.241236114510652
40
0.241236114510652
40
0.278929291419559
40
0.278929291419559
40
0.35431564523737
40
0.35431564523737
40
0.50508835287299
40
0.50508835287299
40
0.655861060508611
40
0.655861060508611
40
0.731247414326426
40
0.731247414326426
40
0.768940591235333
40
0.768940591235333
40
0.80663376814424
40
0.80663376814424
40
0.957406475779894
40
0.957406475779894
40
1
40
1
40
1
40
1
41
1
10
8.85578160876028
20
-0.244973571617521
30
0
41
1
10
8.88843137216364
20
-0.262326561720641
30
0
41
1
10
8.92107995024233
20
-0.279501112948623
30
0
41
1
10
9.04708865515829
20
-0.34491451895687
30
0
41
1
10
9.14066349280589
20
-0.39150271893368
30
0
41
1
10
9.25821539287273
20
-0.446849293566373
30
0
41
1
10
9.2817570736546
20
-0.457771734264782
30
0
41
1
10
9.32891599490378
20
-0.479301389492719
30
0
41
1
10
9.35256196347495
20
-0.489921087499027
30
0
41
1
10
9.42334867039352
20
-0.521149310306129
30
0
41
1
10
9.47036246859653
20
-0.54114462728694
30
0
41
1
10
9.61110966158651
20
-0.598444391756402
30
0
41
1
10
9.70459527213151
20
-0.633010883369053
30
0
41
1
10
9.89126063779653
20
-0.693984752921097
30
0
41
1
10
9.98447541430147
20
-0.720439032648954
30
0
41
1
10
10.1247821930964
20
-0.753591671838308
30
0
41
1
10
10.1716411404608
20
-0.763558724485932
30
0
41
1
10
10.2421416702182
20
-0.776784417582945
30
0
41
1
10
10.2656761419258
20
-0.780904721220821
30
0
41
1
10
10.3128253363354
20
-0.788547110913726
30
0
41
1
10
10.336469944721
20
-0.792073102243933
30
0
41
1
10
10.4544548408697
20
-0.808127783803485
30
0
41
1
10
10.5481740152204
20
-0.81597929681476
30
0
41
1
10
10.6680380231357
20
-0.81963855697046
30
0
41
1
10
10.6944247310144
20
-0.820051212436994
30
0
41
1
10
10.7208021675724
20
-0.820071401437076
30
0
0
SPLINE
5
DF
100
AcDbEntity
8
SK1
62
256
6
ByLayer
370
18
48
1
60
0
100
AcDbSpline
70
4
71
3
72
52
73
48
40
0
40
0
40
0
40
0
40
0.0607683415197392
40
0.0607683415197392
40
0.123383785418429
40
0.123383785418429
40
0.154691507367773
40
0.154691507367773
40
0.185999229317116
40
0.185999229317116
40
0.248614673215803
40
0.248614673215803
40
0.31123011711449
40
0.31123011711449
40
0.373845561013177
40
0.373845561013177
40
0.389499421987848
40
0.389499421987848
40
0.405153282962519
40
0.405153282962519
40
0.436461004911862
40
0.436461004911862
40
0.499076448810547
40
0.499076448810547
40
0.561691892709232
40
0.561691892709232
40
0.592999614658576
40
0.592999614658576
40
0.608653475633246
40
0.608653475633246
40
0.624307336607917
40
0.624307336607917
40
0.686922780506599
40
0.686922780506599
40
0.749538224405281
40
0.749538224405281
40
0.780845946354621
40
0.780845946354621
40
0.81215366830396
40
0.81215366830396
40
0.8434613902533
40
0.8434613902533
40
0.87476911220264
40
0.87476911220264
40
0.93738455610132
40
0.93738455610132
40
1
40
1
40
1
40
1
41
1
10
10.6386859401253
20
-0.84150006229109
30
0
41
1
10
10.5473556078694
20
-0.841356739883224
30
0
41
1
10
10.4564146677469
20
-0.836346169462672
30
0
41
1
10
10.2717429093528
20
-0.816561445148039
30
0
41
1
10
10.1780005632272
20
-0.8015131750183
30
0
41
1
10
10.0368835415552
20
-0.771524077172359
30
0
41
1
10
9.98975042051836
20
-0.760293828565239
30
0
41
1
10
9.89513790731101
20
-0.735443731463988
30
0
41
1
10
9.84754178119294
20
-0.721781151260984
30
0
41
1
10
9.70535868073216
20
-0.677723916823879
30
0
41
1
10
9.61110284827859
20
-0.64432318266168
30
0
41
1
10
9.42332883405533
20
-0.570033868370473
30
0
41
1
10
9.32973783020478
20
-0.529206843422287
30
0
41
1
10
9.14206705098758
20
-0.441675050254645
30
0
41
1
10
9.04796189004787
20
-0.395031843152907
30
0
41
1
10
8.92972144166535
20
-0.333451822162914
30
0
41
1
10
8.90604278000768
20
-0.320971094130073
30
0
41
1
10
8.85859753294696
20
-0.295720340088877
30
0
41
1
10
8.83480857667485
20
-0.28293891088984
30
0
41
1
10
8.76363381384348
20
-0.244422060006741
30
0
41
1
10
8.71634041370189
20
-0.218455610199811
30
0
41
1
10
8.57478189604862
20
-0.139955094177651
30
0
41
1
10
8.48080033952627
20
-0.086888111291529
30
0
41
1
10
8.29310615399015
20
0.019794262458305
30
0
41
1
10
8.19938755727259
20
0.0733991300876937
30
0
41
1
10
8.05830880594829
20
0.152960756792339
30
0
41
1
10
8.01120400883761
20
0.179349184108759
30
0
41
1
10
7.94032266208359
20
0.218543252705984
30
0
41
1
10
7.91665833431074
20
0.23154344084378
30
0
41
1
10
7.86924164093875
20
0.257390437942775
30
0
41
1
10
7.84546118788609
20
0.270252190978965
30
0
41
1
10
7.72665094098437
20
0.333924148663073
30
0
41
1
10
7.63229015040034
20
0.382583115133315
30
0
41
1
10
7.44405747818979
20
0.474154645684365
30
0
41
1
10
7.35017129803103
20
0.5170580931144
30
0
41
1
10
7.20933139167377
20
0.576588696464228
30
0
41
1
10
7.16239970669648
20
0.595645572162084
30
0
41
1
10
7.06835570186695
20
0.631893413880846
30
0
41
1
10
7.02123598488831
20
0.649077223144047
30
0
41
1
10
6.92669820585309
20
0.681432738402009
30
0
41
1
10
6.8792816873746
20
0.696606199329608
30
0
41
1
10
6.78404929350182
20
0.724809416944083
30
0
41
1
10
6.73650061177051
20
0.737754998670397
30
0
41
1
10
6.59419851028852
20
0.773038636627433
30
0
41
1
10
6.49970643024415
20
0.79185485602369
30
0
41
1
10
6.31053782456416
20
0.819495338581618
30
0
41
1
10
6.21595234707598
20
0.828338256529349
30
0
41
1
10
6.12067817250537
20
0.831925700782875
30
0
0
SPLINE
5
E0
100
AcDbEntity
8
SK1
62
256
6
ByLayer
370
18
48
1
60
0
100
AcDbSpline
70
4
71
3
72
11
73
7
40
0
40
0
40
0
40
0
40
0.300458942234952
40
0.485128943598348
40
0.677584314972258
40
1
40
1
40
1
40
1
41
1
10
10.7104911316154
20
-0.820056141841405
30
0
41
1
10
10.8835726476341
20
-0.820340536609535
30
0
41
1
10
11.1630391559312
20
-0.820770750493807
30
0
41
1
10
11.5533663933987
20
-0.820242440815036
30
0
41
1
10
11.956385042885
20
-0.821887504372626
30
0
41
1
10
12.2530087118841
20
-0.821642696327359
30
0
41
1
10
12.4387601485938
20
-0.821308758702401
30
0
0
SPLINE
5
E1
100
AcDbEntity
8
SK1
62
256
6
ByLayer
370
18
48
1
60
0
100
AcDbSpline
70
4
71
2
72
6
73
3
40
0
40
0
40
0
40
1
40
1
40
1
41
1
10
7.81273289462376
20
0.816213947389713
30
0
41
1
10
7.09119597844057
20
0.821410769203283
30
0
41
1
10
6.38160799647991
20
0.799393240117865
30
0
0
SPLINE
5
E2
100
AcDbEntity
8
SK1
62
256
6
ByLayer
370
18
48
1
60
0
100
AcDbSpline
70
4
71
2
72
6
73
3
40
0
40
0
40
0
40
1
40
1
40
1
41
1
10
6.38160799647997
20
-0.799393240117837
30
0
41
1
10
7.08847353038735
20
-0.822905272513339
30
0
41
1
10
7.81273289462374
20
-0.816213947389713
30
0
0
SPLINE
5
E3
100
AcDbEntity
8
SK1
62
256
6
ByLayer
370
18
48
1
60
0
100
AcDbSpline
70
4
71
3
72
11
73
7
40
0
40
0
40
0
40
0
40
0.369345598119225
40
0.589814227755643
40
0.801364270993668
40
1
40
1
40
1
40
1
41
1
10
12.4387601485937
20
0.821308758702401
30
0
41
1
10
12.2530087118841
20
0.821642696327388
30
0
41
1
10
11.956385042885
20
0.821887504372626
30
0
41
1
10
11.5533663933986
20
0.820242440815065
30
0
41
1
10
11.2362343111685
20
0.820671680520633
30
0
41
1
10
11.0299650288696
20
0.820510434955679
30
0
41
1
10
10.9300777776022
20
0.820385223220995
30
0
0
LINE
5
80
100
AcDbEntity
8
81
62
256
6
ByLayer
370
18
48
1
60
0
100
AcDbLine
10
15.717
20
0
30
0
11
25.717
21
0
31
0
39
0
210
0
220
0
230
1
0
LINE
5
81
100
AcDbEntity
8
4
62
256
6
ByLayer
370
13
48
0.05
60
0
100
AcDbLine
10
0
20
0
30
0
11
15.717
21
0
31
0
39
0
210
0
220
0
230
1
0
LINE
5
83
100
AcDbEntity
8
SK4
62
256
6
ByLayer
370
13
48
0.05
60
0
100
AcDbLine
10
-26.783
20
0
30
0
11
20.717
21
0
31
0
39
0
210
0
220
0
230
1
0
LINE
5
85
100
AcDbEntity
8
80
62
256
6
ByLayer
370
18
48
1
60
0
100
AcDbLine
10
0
20
0
30
0
11
-10
21
0
31
0
39
0
210
0
220
0
230
1
0
LINE
5
86
100
AcDbEntity
8
SK1
62
256
6
ByLayer
370
18
48
1
60
0
100
AcDbLine
10
15.682985
20
-0.06671
30
0
11
15.49877
21
-0.441077
31
0
39
0
210
0
220
0
230
1
0
LINE
5
88
100
AcDbEntity
8
SK1
62
256
6
ByLayer
370
18
48
1
60
0
100
AcDbLine
10
15.708539
20
-0.020349
30
0
11
15.705888
21
-0.024816
31
0
39
0
210
0
220
0
230
1
0
LINE
5
89
100
AcDbEntity
8
SK1
62
256
6
ByLayer
370
18
48
1
60
0
100
AcDbLine
10
15.708539
20
-0.020349
30
0
11
15.717
21
0
31
0
39
0
210
0
220
0
230
1
0
LINE
5
8A
100
AcDbEntity
8
SK1
62
256
6
ByLayer
370
18
48
1
60
0
100
AcDbLine
10
15.682985
20
0.06671
30
0
11
15.49877
21
0.441077
31
0
39
0
210
0
220
0
230
1
0
LINE
5
8B
100
AcDbEntity
8
SK1
62
256
6
ByLayer
370
13
48
1
60
0
100
AcDbLine
10
15.682985
20
0.06671
30
0
11
15.129195
21
0.384181
31
0
39
0
210
0
220
0
230
1
0
LINE
5
8C
100
AcDbEntity
8
SK1
62
256
6
ByLayer
370
18
48
1
60
0
100
AcDbLine
10
15.717
20
0
30
0
11
15.206782
21
-0.849146
31
0
39
0
210
0
220
0
230
1
0
LINE
5
8D
100
AcDbEntity
8
SK1
62
256
6
ByLayer
370
18
48
1
60
0
100
AcDbLine
10
15.717
20
0
30
0
11
15.708539
21
0.020349
31
0
39
0
210
0
220
0
230
1
0
LINE
5
8E
100
AcDbEntity
8
SK1
62
256
6
ByLayer
370
18
48
1
60
0
100
AcDbLine
10
14.902033
20
-0.520779
30
0
11
15.708539
21
0.020349
31
0
39
0
210
0
220
0
230
1
0
LINE
5
8F
100
AcDbEntity
8
SK1
62
256
6
ByLayer
370
18
48
1
60
0
100
AcDbLine
10
15.708539
20
0.020349
30
0
11
15.705888
21
0.024816
31
0
39
0
210
0
220
0
230
1
0
LINE
5
90
100
AcDbEntity
8
SK1
62
256
6
ByLayer
370
13
48
1
60
0
100
AcDbLine
10
15.705888
20
0.024816
30
0
11
15.103691
21
0.370038
31
0
39
0
210
0
220
0
230
1
0
LINE
5
91
100
AcDbEntity
8
SK1
62
256
6
ByLayer
370
18
48
1
60
0
100
AcDbLine
10
2.062
20
-0.827145
30
0
11
2.062
21
0.827145
31
0
39
0
210
0
220
0
230
1
0
LINE
5
92
100
AcDbEntity
8
SK1
62
256
6
ByLayer
370
18
48
1
60
0
100
AcDbLine
10
0.000463
20
-1.5
30
0
11
0.000463
21
1.5
31
0
39
0
210
0
220
0
230
1
0
LINE
5
93
100
AcDbEntity
8
SK1
62
256
6
ByLayer
370
18
48
1
60
0
100
AcDbLine
10
-21.783
20
-1.35
30
0
11
-21.783
21
1.35
31
0
39
0
210
0
220
0
230
1
0
LINE
5
94
100
AcDbEntity
8
SK1
62
256
6
ByLayer
370
18
48
1
60
0
100
AcDbLine
10
-21.696397
20
-1.5
30
0
11
-21.696397
21
1.5
31
0
39
0
210
0
220
0
230
1
0
LINE
5
95
100
AcDbEntity
8
SK1
62
256
6
ByLayer
370
18
48
1
60
0
100
AcDbLine
10
2.062
20
-0.827145
30
0
11
4.058358
21
-0.830486
31
0
39
0
210
0
220
0
230
1
0
LINE
5
96
100
AcDbEntity
8
SK1
62
256
6
ByLayer
370
18
48
1
60
0
100
AcDbLine
10
5.690657
20
-0.833218
30
0
11
6.051638
21
-0.833822
31
0
39
0
210
0
220
0
230
1
0
LINE
5
97
100
AcDbEntity
8
SK1
62
256
6
ByLayer
370
18
48
1
60
0
100
AcDbLine
10
10.32096
20
-0.840968
30
0
11
10.638603
21
-0.8415
31
0
39
0
210
0
220
0
230
1
0
LINE
5
98
100
AcDbEntity
8
SK1
62
256
6
ByLayer
370
18
48
1
60
0
100
AcDbLine
10
14.951164
20
-0.848718
30
0
11
15.206782
21
-0.849146
31
0
39
0
210
0
220
0
230
1
0
LINE
5
99
100
AcDbEntity
8
SK1
62
256
6
ByLayer
370
18
48
1
60
0
100
AcDbLine
10
15.206782
20
0.849146
30
0
11
14.951164
21
0.848718
31
0
39
0
210
0
220
0
230
1
0
LINE
5
9A
100
AcDbEntity
8
SK1
62
256
6
ByLayer
370
18
48
1
60
0
100
AcDbLine
10
10.638603
20
0.8415
30
0
11
10.32096
21
0.840968
31
0
39
0
210
0
220
0
230
1
0
LINE
5
9B
100
AcDbEntity
8
SK1
62
256
6
ByLayer
370
18
48
1
60
0
100
AcDbLine
10
6.051638
20
0.833822
30
0
11
5.690657
21
0.833218
31
0
39
0
210
0
220
0
230
1
0
LINE
5
9C
100
AcDbEntity
8
SK1
62
256
6
ByLayer
370
18
48
1
60
0
100
AcDbLine
10
4.058358
20
0.830486
30
0
11
2.062
21
0.827145
31
0
39
0
210
0
220
0
230
1
0
LINE
5
9D
100
AcDbEntity
8
SK1
62
256
6
ByLayer
370
18
48
1
60
0
100
AcDbLine
10
2.062
20
0.827145
30
0
11
0.000463
21
1.5
31
0
39
0
210
0
220
0
230
1
0
LINE
5
9E
100
AcDbEntity
8
SK1
62
256
6
ByLayer
370
18
48
1
60
0
100
AcDbLine
10
0.000463
20
-1.5
30
0
11
2.062
21
-0.827145
31
0
39
0
210
0
220
0
230
1
0
LINE
5
9F
100
AcDbEntity
8
SK1
62
256
6
ByLayer
370
18
48
1
60
0
100
AcDbLine
10
-21.696397
20
-1.5
30
0
11
0.000463
21
-1.5
31
0
39
0
210
0
220
0
230
1
0
LINE
5
A0
100
AcDbEntity
8
SK1
62
256
6
ByLayer
370
18
48
1
60
0
100
AcDbLine
10
0.000463
20
1.5
30
0
11
-21.696397
21
1.5
31
0
39
0
210
0
220
0
230
1
0
LINE
5
A1
100
AcDbEntity
8
SK1
62
256
6
ByLayer
370
18
48
1
60
0
100
AcDbLine
10
-21.783
20
-1.35
30
0
11
-21.696397
21
-1.5
31
0
39
0
210
0
220
0
230
1
0
LINE
5
A2
100
AcDbEntity
8
SK1
62
256
6
ByLayer
370
18
48
1
60
0
100
AcDbLine
10
-21.696397
20
1.5
30
0
11
-21.783
21
1.35
31
0
39
0
210
0
220
0
230
1
0
LINE
5
A3
100
AcDbEntity
8
2
62
256
6
ByLayer
370
13
48
1
60
0
100
AcDbLine
10
32.717
20
24.498665
30
0
11
32.717
21
-9.6
31
0
39
0
210
0
220
0
230
1
0
LINE
5
A5
100
AcDbEntity
8
2
62
256
6
ByLayer
370
13
48
1
60
0
100
AcDbLine
10
17.3045
20
0.85
30
0
11
34.717
21
0.85
31
0
39
0
210
0
220
0
230
1
0
LINE
5
A6
100
AcDbEntity
8
2
62
256
6
ByLayer
370
13
48
1
60
0
100
AcDbLine
10
17.3045
20
-0.85
30
0
11
34.717
21
-0.85
31
0
39
0
210
0
220
0
230
1
0
LINE
5
A7
100
AcDbEntity
8
1
62
256
6
ByLayer
370
18
48
1
60
1
100
AcDbLine
10
32.717
20
0.85
30
0
11
32.256216
21
4.349998
31
0
39
0
210
0
220
0
230
1
0
LINE
5
A8
100
AcDbEntity
8
1
62
256
6
ByLayer
370
18
48
1
60
1
100
AcDbLine
10
32.256216
20
4.349998
30
0
11
33.177784
21
4.350002
31
0
39
0
210
0
220
0
230
1
0
LINE
5
A9
100
AcDbEntity
8
1
62
256
6
ByLayer
370
18
48
1
60
1
100
AcDbLine
10
33.177784
20
4.350002
30
0
11
32.717
21
0.85
31
0
39
0
210
0
220
0
230
1
0
LINE
5
AA
100
AcDbEntity
8
1
62
256
6
ByLayer
370
18
48
1
60
1
100
AcDbLine
10
32.717
20
-0.85
30
0
11
33.177784
21
-4.349998
31
0
39
0
210
0
220
0
230
1
0
LINE
5
AB
100
AcDbEntity
8
1
62
256
6
ByLayer
370
18
48
1
60
1
100
AcDbLine
10
33.177784
20
-4.349998
30
0
11
32.256216
21
-4.350002
31
0
39
0
210
0
220
0
230
1
0
LINE
5
AC
100
AcDbEntity
8
1
62
256
6
ByLayer
370
18
48
1
60
1
100
AcDbLine
10
32.256216
20
-4.350002
30
0
11
32.717
21
-0.85
31
0
39
0
210
0
220
0
230
1
0
LINE
5
AD
100
AcDbEntity
8
SK2
62
256
6
ByLayer
370
13
48
1
60
0
100
AcDbLine
10
-29.783
20
10.25
30
0
11
-29.783
21
-23.5
31
0
39
0
210
0
220
0
230
1
0
LINE
5
AF
100
AcDbEntity
8
SK2
62
256
6
ByLayer
370
13
48
1
60
0
100
AcDbLine
10
-23.3705
20
1.5
30
0
11
-31.783
21
1.5
31
0
39
0
210
0
220
0
230
1
0
LINE
5
B0
100
AcDbEntity
8
SK2
62
256
6
ByLayer
370
13
48
1
60
0
100
AcDbLine
10
-23.3705
20
-1.5
30
0
11
-31.783
21
-1.5
31
0
39
0
210
0
220
0
230
1
0
LINE
5
B1
100
AcDbEntity
8
1
62
256
6
ByLayer
370
18
48
1
60
1
100
AcDbLine
10
-29.783
20
1.5
30
0
11
-30.243784
21
4.999998
31
0
39
0
210
0
220
0
230
1
0
LINE
5
B2
100
AcDbEntity
8
1
62
256
6
ByLayer
370
18
48
1
60
1
100
AcDbLine
10
-30.243784
20
4.999998
30
0
11
-29.322216
21
5.000002
31
0
39
0
210
0
220
0
230
1
0
LINE
5
B3
100
AcDbEntity
8
1
62
256
6
ByLayer
370
18
48
1
60
1
100
AcDbLine
10
-29.322216
20
5.000002
30
0
11
-29.783
21
1.5
31
0
39
0
210
0
220
0
230
1
0
LINE
5
B4
100
AcDbEntity
8
1
62
256
6
ByLayer
370
18
48
1
60
1
100
AcDbLine
10
-29.783
20
-1.5
30
0
11
-29.322216
21
-4.999998
31
0
39
0
210
0
220
0
230
1
0
LINE
5
B5
100
AcDbEntity
8
1
62
256
6
ByLayer
370
18
48
1
60
1
100
AcDbLine
10
-29.322216
20
-4.999998
30
0
11
-30.243784
21
-5.000002
31
0
39
0
210
0
220
0
230
1
0
LINE
5
B6
100
AcDbEntity
8
1
62
256
6
ByLayer
370
18
48
1
60
1
100
AcDbLine
10
-30.243784
20
-5.000002
30
0
11
-29.783
21
-1.5
31
0
39
0
210
0
220
0
230
1
0
LINE
5
E9
100
AcDbEntity
8
1
62
256
6
ByLayer
370
18
48
1
60
1
100
AcDbLine
10
32.717
20
0.85
30
0
11
32.256216
21
4.349998
31
0
39
0
210
0
220
0
230
1
0
LINE
5
EA
100
AcDbEntity
8
1
62
256
6
ByLayer
370
18
48
1
60
1
100
AcDbLine
10
32.256216
20
4.349998
30
0
11
33.177784
21
4.350002
31
0
39
0
210
0
220
0
230
1
0
LINE
5
EB
100
AcDbEntity
8
1
62
256
6
ByLayer
370
18
48
1
60
1
100
AcDbLine
10
33.177784
20
4.350002
30
0
11
32.717
21
0.85
31
0
39
0
210
0
220
0
230
1
0
LINE
5
ED
100
AcDbEntity
8
1
62
256
6
ByLayer
370
18
48
1
60
1
100
AcDbLine
10
32.717
20
-0.85
30
0
11
33.177784
21
-4.349998
31
0
39
0
210
0
220
0
230
1
0
LINE
5
EE
100
AcDbEntity
8
1
62
256
6
ByLayer
370
18
48
1
60
1
100
AcDbLine
10
33.177784
20
-4.349998
30
0
11
32.256216
21
-4.350002
31
0
39
0
210
0
220
0
230
1
0
LINE
5
EF
100
AcDbEntity
8
1
62
256
6
ByLayer
370
18
48
1
60
1
100
AcDbLine
10
32.256216
20
-4.350002
30
0
11
32.717
21
-0.85
31
0
39
0
210
0
220
0
230
1
0
LINE
5
F3
100
AcDbEntity
8
1
62
256
6
ByLayer
370
18
48
1
60
1
100
AcDbLine
10
-29.783
20
1.5
30
0
11
-30.243784
21
4.999998
31
0
39
0
210
0
220
0
230
1
0
LINE
5
F4
100
AcDbEntity
8
1
62
256
6
ByLayer
370
18
48
1
60
1
100
AcDbLine
10
-30.243784
20
4.999998
30
0
11
-29.322216
21
5.000002
31
0
39
0
210
0
220
0
230
1
0
LINE
5
F5
100
AcDbEntity
8
1
62
256
6
ByLayer
370
18
48
1
60
1
100
AcDbLine
10
-29.322216
20
5.000002
30
0
11
-29.783
21
1.5
31
0
39
0
210
0
220
0
230
1
0
LINE
5
F7
100
AcDbEntity
8
1
62
256
6
ByLayer
370
18
48
1
60
1
100
AcDbLine
10
-29.783
20
-1.5
30
0
11
-29.322216
21
-4.999998
31
0
39
0
210
0
220
0
230
1
0
LINE
5
F8
100
AcDbEntity
8
1
62
256
6
ByLayer
370
18
48
1
60
1
100
AcDbLine
10
-29.322216
20
-4.999998
30
0
11
-30.243784
21
-5.000002
31
0
39
0
210
0
220
0
230
1
0
LINE
5
F9
100
AcDbEntity
8
1
62
256
6
ByLayer
370
18
48
1
60
1
100
AcDbLine
10
-30.243784
20
-5.000002
30
0
11
-29.783
21
-1.5
31
0
39
0
210
0
220
0
230
1
0
MTEXT
5
E4
100
AcDbEntity
8
2
62
256
6
ByLayer
370
18
48
1
60
0
100
AcDbMText
10
31.152366
20
10.343977
30
0
210
0
220
0
230
1
1
%%c
40
3.5
41
0
44
1.084337
50
90
71
7
72
5
7
iso_b_vert
0
MTEXT
5
E7
100
AcDbEntity
8
2
62
256
6
ByLayer
370
18
48
1
60
0
100
AcDbMText
10
31.152366
20
4.0075
30
0
210
0
220
0
230
1
1
\W0.2969; 
40
3.5
41
0
44
1.084337
50
90
71
7
72
5
7
iso_b_vert
0
MTEXT
5
E8
100
AcDbEntity
8
2
62
256
6
ByLayer
370
18
48
1
60
0
100
AcDbMText
10
31.152366
20
17.316633
30
0
210
0
220
0
230
1
1
\W0.6563;1.70
40
3.5
41
0
44
1.084337
50
90
71
7
72
5
7
iso_b_vert
0
MTEXT
5
F1
100
AcDbEntity
8
SK2
62
256
6
ByLayer
370
18
48
1
60
0
100
AcDbMText
10
-31.347634
20
-21.565156
30
0
210
0
220
0
230
1
1
%%c
40
3.5
41
0
44
1.084337
50
90
71
7
72
5
7
iso_b_vert
0
MTEXT
5
F2
100
AcDbEntity
8
SK2
62
256
6
ByLayer
370
18
48
1
60
0
100
AcDbMText
10
-31.347634
20
-14.5925
30
0
210
0
220
0
230
1
1
\W0.7346;3.00
40
3.5
41
0
44
1.084337
50
90
71
7
72
5
7
iso_b_vert
0
MTEXT
5
FB
100
AcDbEntity
8
SK6
62
256
6
ByLayer
370
18
48
1
60
0
100
AcDbMText
10
-34.0975
20
-58.847467
30
0
210
0
220
0
230
1
1
\W0.7431;862.1-1700-085A0-GM X1DU
40
3.5
41
0
44
1.084337
50
0
71
7
72
5
7
iso_b_vert
0
HATCH
5
EC
100
AcDbEntity
8
2
62
256
6
ByLayer
370
13
48
1
60
0
100
AcDbHatch
10
0
20
0
30
0
210
0
220
0
230
1
2
ANSI31
70
0
71
0
91
1
92
5
93
3
72
1
10
32.717
20
0.850000000000023
11
32.2562162584472
21
4.34999830744684
72
1
10
32.2562162584472
20
4.34999830744684
11
33.1777837415528
21
4.35000169255321
72
1
10
33.1777837415528
20
4.35000169255321
11
32.717
21
0.850000000000023
97
0
75
0
76
1
52
0
41
0.0062
77
0
78
1
53
45
43
0
44
0
45
-0.0139193969876572
46
0.0139193969876572
79
0
47
0
98
1
10
0
20
0
0
HATCH
5
F0
100
AcDbEntity
8
2
62
256
6
ByLayer
370
13
48
1
60
0
100
AcDbHatch
10
0
20
0
30
0
210
0
220
0
230
1
2
ANSI31
70
0
71
0
91
1
92
5
93
3
72
1
10
32.717
20
-0.849999999999966
11
33.1777837415528
21
-4.34999830744678
72
1
10
33.1777837415528
20
-4.34999830744678
11
32.2562162584472
21
-4.35000169255315
72
1
10
32.2562162584472
20
-4.35000169255315
11
32.717
21
-0.849999999999966
97
0
75
0
76
1
52
0
41
0.0062
77
0
78
1
53
45
43
0
44
0
45
-0.0139193969876572
46
0.0139193969876572
79
0
47
0
98
1
10
0
20
0
0
HATCH
5
F6
100
AcDbEntity
8
SK2
62
256
6
ByLayer
370
13
48
1
60
0
100
AcDbHatch
10
0
20
0
30
0
210
0
220
0
230
1
2
ANSI31
70
0
71
0
91
1
92
5
93
3
72
1
10
-29.783
20
1.49999999999997
11
-30.2437837415528
21
4.99999830744679
72
1
10
-30.2437837415528
20
4.99999830744679
11
-29.3222162584472
21
5.00000169255316
72
1
10
-29.3222162584472
20
5.00000169255316
11
-29.783
21
1.49999999999997
97
0
75
0
76
1
52
0
41
0.0062
77
0
78
1
53
45
43
0
44
0
45
-0.0139193969876572
46
0.0139193969876572
79
0
47
0
98
1
10
0
20
0
0
HATCH
5
FA
100
AcDbEntity
8
SK2
62
256
6
ByLayer
370
13
48
1
60
0
100
AcDbHatch
10
0
20
0
30
0
210
0
220
0
230
1
2
ANSI31
70
0
71
0
91
1
92
5
93
3
72
1
10
-29.783
20
-1.50000000000003
11
-29.3222162584472
21
-4.99999830744684
72
1
10
-29.3222162584472
20
-4.99999830744684
11
-30.2437837415528
21
-5.00000169255321
72
1
10
-30.2437837415528
20
-5.00000169255321
11
-29.783
21
-1.50000000000003
97
0
75
0
76
1
52
0
41
0.0062
77
0
78
1
53
45
43
0
44
0
45
-0.0139193969876572
46
0.0139193969876572
79
0
47
0
98
1
10
0
20
0
0
DIMENSION
5
FE
100
AcDbEntity
8
2
62
256
6
ByLayer
370
18
48
1
60
0
100
AcDbDimension
2
_U0
10
15.206
20
22.4
30
0
11
13.685066
21
22.4
31
0
70
32
71
1
72
1
41
1
210
0
220
0
230
1
3
Standard
100
AcDbAlignedDimension
13
0
23
-1.5
33
0
14
15.206
24
-0.85
34
0
50
0
100
AcDbRotatedDimension
1001
ACAD
1000
DSTYLE
1002
{
1070
   371
1070
    13
1070
   372
1070
    13
1070
   170
1070
     0
1070
   144
1040
1.0
1070
   277
1070
     2
1070
   284
1070
     8
1070
   278
1070
    46
1070
   146
1040
1.0
1070
   345
1005
16
1070
   347
1005
16
1070
   346
1005
16
1070
   344
1005
0
1070
   343
1005
0
1070
   172
1070
     1
1070
    76
1070
     0
1070
    75
1070
     0
1070
   282
1070
     0
1070
   281
1070
     0
1070
    71
1070
     0
1070
    74
1070
     0
1070
   279
1070
     0
1070
   173
1070
     1
1070
   340
1005
E5
1070
   271
1070
     2
1070
   272
1070
     2
1070
    77
1070
     1
1070
    73
1070
     1
1070
   171
1070
     3
1070
   274
1070
     4
1070
   177
1070
     2
1070
   176
1070
     2
1070
   178
1070
     2
1070
    78
1070
     8
1070
    48
1040
-0.1
1070
    41
1040
3.5
1070
   147
1040
1.75
1070
    42
1040
1.5875
1070
    44
1040
2.0
1070
   140
1040
3.5
1002
}
1001
ACAD_DSTYLE_DIM_LINETYPE
1070
   380
1005
16
1001
ACAD_DSTYLE_DIM_EXT1_LINETYPE
1070
   381
1005
16
1001
ACAD_DSTYLE_DIM_EXT2_LINETYPE
1070
   382
1005
16
0
DIMENSION
5
118
100
AcDbEntity
8
SK2
62
256
6
ByLayer
370
18
48
1
60
0
100
AcDbDimension
2
_U1
10
0
20
-23.25
30
0
11
-10.805501
21
-23.25
31
0
70
32
71
1
72
1
41
1
210
0
220
0
230
1
3
Standard
100
AcDbAlignedDimension
13
-21.783
23
-1.5
33
0
14
0
24
-1.5
34
0
50
0
100
AcDbRotatedDimension
1001
ACAD
1000
DSTYLE
1002
{
1070
   371
1070
    13
1070
   372
1070
    13
1070
   170
1070
     0
1070
   144
1040
1.0
1070
   277
1070
     2
1070
   284
1070
     8
1070
   278
1070
    46
1070
   146
1040
1.0
1070
   345
1005
16
1070
   347
1005
16
1070
   346
1005
16
1070
   344
1005
0
1070
   343
1005
0
1070
   172
1070
     1
1070
    76
1070
     0
1070
    75
1070
     0
1070
   282
1070
     0
1070
   281
1070
     0
1070
    71
1070
     0
1070
    74
1070
     0
1070
   279
1070
     0
1070
   173
1070
     1
1070
   340
1005
E5
1070
   271
1070
     2
1070
   272
1070
     2
1070
    77
1070
     1
1070
    73
1070
     1
1070
   171
1070
     3
1070
   274
1070
     4
1070
   177
1070
     2
1070
   176
1070
     2
1070
   178
1070
     2
1070
    78
1070
     8
1070
    48
1040
-0.1
1070
    41
1040
3.5
1070
   147
1040
1.75
1070
    42
1040
1.5875
1070
    44
1040
2.0
1070
   140
1040
3.5
1002
}
1001
ACAD_DSTYLE_DIM_LINETYPE
1070
   380
1005
16
1001
ACAD_DSTYLE_DIM_EXT1_LINETYPE
1070
   381
1005
16
1001
ACAD_DSTYLE_DIM_EXT2_LINETYPE
1070
   382
1005
16
0
DIMENSION
5
130
100
AcDbEntity
8
SK2
62
256
6
ByLayer
370
18
48
1
60
0
100
AcDbDimension
2
_U2
10
15.717
20
-16.1
30
0
11
31.633667
21
-16.1
31
0
70
32
71
1
72
1
41
1
210
0
220
0
230
1
3
Standard
100
AcDbAlignedDimension
13
7.217
23
-0.85
33
0
14
15.717
24
-0.85
34
0
50
0
100
AcDbRotatedDimension
1001
ACAD
1000
DSTYLE
1002
{
1070
   371
1070
    13
1070
   372
1070
    13
1070
   170
1070
     0
1070
   144
1040
1.0
1070
   277
1070
     2
1070
   284
1070
     8
1070
   278
1070
    46
1070
   146
1040
1.0
1070
   345
1005
16
1070
   347
1005
16
1070
   346
1005
16
1070
   344
1005
0
1070
   343
1005
0
1070
   172
1070
     1
1070
    76
1070
     0
1070
    75
1070
     0
1070
   282
1070
     0
1070
   281
1070
     0
1070
    71
1070
     0
1070
    74
1070
     0
1070
   279
1070
     0
1070
   173
1070
     1
1070
   340
1005
E5
1070
   271
1070
     2
1070
   272
1070
     2
1070
    77
1070
     1
1070
    73
1070
     1
1070
   171
1070
     3
1070
   274
1070
     4
1070
   177
1070
     2
1070
   176
1070
     2
1070
   178
1070
     2
1070
    78
1070
     8
1070
    48
1040
-0.1
1070
    41
1040
3.5
1070
   147
1040
1.75
1070
    42
1040
1.5875
1070
    44
1040
2.0
1070
   140
1040
3.5
1002
}
1001
ACAD_DSTYLE_DIM_LINETYPE
1070
   380
1005
16
1001
ACAD_DSTYLE_DIM_EXT1_LINETYPE
1070
   381
1005
16
1001
ACAD_DSTYLE_DIM_EXT2_LINETYPE
1070
   382
1005
16
0
DIMENSION
5
14A
100
AcDbEntity
8
SK2
62
256
6
ByLayer
370
18
48
1
60
0
100
AcDbDimension
2
_U3
10
15.717
20
-26.1
30
0
11
34.800333
21
-26.1
31
0
70
32
71
1
72
1
41
1
210
0
220
0
230
1
3
Standard
100
AcDbAlignedDimension
13
4.273
23
-0.85
33
0
14
15.717
24
-0.85
34
0
50
0
100
AcDbRotatedDimension
1001
ACAD
1000
DSTYLE
1002
{
1070
   371
1070
    13
1070
   372
1070
    13
1070
   170
1070
     0
1070
   144
1040
1.0
1070
   277
1070
     2
1070
   284
1070
     8
1070
   278
1070
    46
1070
   146
1040
1.0
1070
   345
1005
16
1070
   347
1005
16
1070
   346
1005
16
1070
   344
1005
0
1070
   343
1005
0
1070
   172
1070
     1
1070
    76
1070
     0
1070
    75
1070
     0
1070
   282
1070
     0
1070
   281
1070
     0
1070
    71
1070
     0
1070
    74
1070
     0
1070
   279
1070
     0
1070
   173
1070
     1
1070
   340
1005
E5
1070
   271
1070
     2
1070
   272
1070
     2
1070
    77
1070
     1
1070
    73
1070
     1
1070
   171
1070
     3
1070
   274
1070
     4
1070
   177
1070
     2
1070
   176
1070
     2
1070
   178
1070
     2
1070
    78
1070
     8
1070
    48
1040
-0.1
1070
    41
1040
3.5
1070
   147
1040
1.75
1070
    42
1040
1.5875
1070
    44
1040
2.0
1070
   140
1040
3.5
1002
}
1001
ACAD_DSTYLE_DIM_LINETYPE
1070
   380
1005
16
1001
ACAD_DSTYLE_DIM_EXT1_LINETYPE
1070
   381
1005
16
1001
ACAD_DSTYLE_DIM_EXT2_LINETYPE
1070
   382
1005
16
0
DIMENSION
5
164
100
AcDbEntity
8
SK2
62
256
6
ByLayer
370
18
48
1
60
0
100
AcDbDimension
2
_U4
10
15.717
20
-34.6
30
0
11
-3.033
21
-34.6
31
0
70
32
71
1
72
1
41
1
210
0
220
0
230
1
3
Standard
100
AcDbAlignedDimension
13
-21.783
23
1.5
33
0
14
15.717
24
0.85
34
0
50
0
100
AcDbRotatedDimension
1001
ACAD
1000
DSTYLE
1002
{
1070
   371
1070
    13
1070
   372
1070
    13
1070
     3
1000

1070
   170
1070
     0
1070
   144
1040
1.0
1070
   277
1070
     2
1070
   284
1070
     8
1070
   278
1070
    46
1070
   146
1040
1.0
1070
   345
1005
16
1070
   347
1005
16
1070
   346
1005
16
1070
   344
1005
0
1070
   343
1005
0
1070
   172
1070
     1
1070
    76
1070
     0
1070
    75
1070
     0
1070
   282
1070
     0
1070
   281
1070
     0
1070
    71
1070
     0
1070
    74
1070
     0
1070
   279
1070
     0
1070
   173
1070
     1
1070
   340
1005
E5
1070
   271
1070
     2
1070
   272
1070
     2
1070
    77
1070
     1
1070
    73
1070
     1
1070
   171
1070
     3
1070
   274
1070
     4
1070
   177
1070
     2
1070
   176
1070
     2
1070
   178
1070
     2
1070
    78
1070
     8
1070
    48
1040
-0.1
1070
    41
1040
3.5
1070
   147
1040
1.75
1070
    42
1040
1.5875
1070
    44
1040
2.0
1070
   140
1040
3.5
1002
}
1001
ACAD_DSTYLE_DIM_LINETYPE
1070
   380
1005
16
1001
ACAD_DSTYLE_DIM_EXT1_LINETYPE
1070
   381
1005
16
1001
ACAD_DSTYLE_DIM_EXT2_LINETYPE
1070
   382
1005
16
0
ENDSEC
0
SECTION
2
OBJECTS
0
DICTIONARY
5
1ee
330
0
100
AcDbDictionary
280
0
281
1
3
ACAD_GROUP
350
1ef
3
ACAD_MLINESTYLE
350
1f0
0
DICTIONARY
5
1ef
330
0
100
AcDbDictionary
280
0
281
1
0
DICTIONARY
5
1f0
330
0
100
AcDbDictionary
280
0
281
1
3
Standard
350
18
0
MLINESTYLE
5
18
330
1f0
100
AcDbMlineStyle
2
Standard
70
0
3

62
256
51
90
52
90
71
2
49
-0.5
62
256
6
ByLayer
49
0.5
62
256
6
ByLayer
0
RASTERVARIABLES
5
1dc
330

100
AcDbRasterVariables
90
0
70
1
71
1
72
1
0
ENDSEC
0
EOF
