0
SECTION
2
HEADER
9
$ACADVER
1
AC1015
9
$DWGCODEPAGE
3
ANSI_1252
9
$HANDSEED
5
20b
9
$ANGBASE
50
0
9
$ANGDIR
70
0
9
$ATTMODE
70
1
9
$AUNITS
70
0
9
$AUPREC
70
0
9
$CECOLOR
62
256
9
$CELTSCALE
40
1
9
$CELTYPE
6
ByLayer
9
$CELWEIGHT
370
18
9
$CLAYER
8
0
9
$CMLJUST
70
0
9
$CMLSCALE
40
1
9
$CMLSTYLE
2
Standard
9
$DIMSTYLE
2
Standard
9
$TEXTSIZE
40
0.2
9
$TEXTSTYLE
7
Standard
9
$LUNITS
70
2
9
$LUPREC
70
4
9
$EXTNAMES
290
1
9
$INSUNITS
70
4
9
$LTSCALE
40
1
9
$LWDISPLAY
290
1
9
$PDMODE
70
0
9
$PDSIZE
40
0
9
$PLINEGEN
70
0
0
ENDSEC
0
SECTION
2
CLASSES
0
CLASS
1
RASTERVARIABLES
2
AcDbRasterVariables
3
ISM
90
0
280
0
281
0
0
ENDSEC
0
SECTION
2
TABLES
0
TABLE
2
VPORT
5
201
100
AcDbSymbolTable
0
VPORT
5
1
100
AcDbSymbolTableRecord
100
AcDbViewportTableRecord
2
*Active
70
0
10
0
20
0
11
1
21
1
12
-1
22
1
13
0
23
0
14
0.5
24
0.5
15
10
25
10
16
0
26
0
36
1
17
0
27
0
37
0
0
ENDTAB
0
TABLE
2
LTYPE
5
202
100
AcDbSymbolTable
0
LTYPE
5
14
100
AcDbSymbolTableRecord
100
AcDbLinetypeTableRecord
70
0
2
ByBlock
3

72
65
73
0
40
0
0
LTYPE
5
15
100
AcDbSymbolTableRecord
100
AcDbLinetypeTableRecord
70
0
2
ByLayer
3

72
65
73
0
40
0
0
LTYPE
5
16
100
AcDbSymbolTableRecord
100
AcDbLinetypeTableRecord
70
0
2
Continuous
3
Solid line
72
65
73
0
40
0
0
LTYPE
5
6E
100
AcDbSymbolTableRecord
100
AcDbLinetypeTableRecord
70
0
2
CENTER
3
____ _ ____ _ ____ _ ____
72
65
73
4
40
47.5
49
22
74
0
49
-8.5
74
0
49
8.5
74
0
49
-8.5
74
0
0
LTYPE
5
6F
100
AcDbSymbolTableRecord
100
AcDbLinetypeTableRecord
70
0
2
DASHED
3
__ __ __ __ __ __ __ __ __
72
65
73
2
40
25.72
49
12.86
74
0
49
-12.86
74
0
0
ENDTAB
0
TABLE
2
LAYER
5
203
100
AcDbSymbolTable
0
LAYER
5
10
100
AcDbSymbolTableRecord
100
AcDbLayerTableRecord
2
0
70
0
62
7
6
Continuous
290
1
370
-3
390
0
0
LAYER
5
71
100
AcDbSymbolTableRecord
100
AcDbLayerTableRecord
2
80
70
0
62
-6
6
Continuous
290
1
370
-3
390
0
0
LAYER
5
73
100
AcDbSymbolTableRecord
100
AcDbLayerTableRecord
2
81
70
0
62
-3
6
Continuous
290
1
370
-3
390
0
0
LAYER
5
75
100
AcDbSymbolTableRecord
100
AcDbLayerTableRecord
2
1
70
0
62
4
6
Continuous
290
1
370
-3
390
0
0
LAYER
5
85
100
AcDbSymbolTableRecord
100
AcDbLayerTableRecord
2
4
70
0
62
-2
6
CENTER
290
1
370
-3
390
0
0
LAYER
5
AA
100
AcDbSymbolTableRecord
100
AcDbLayerTableRecord
2
2
70
0
62
7
6
Continuous
290
1
370
-3
390
0
0
LAYER
5
112
100
AcDbSymbolTableRecord
100
AcDbLayerTableRecord
2
Defpoints
70
0
62
7
6
Continuous
290
0
370
-3
390
0
0
LAYER
5
1ed
100
AcDbSymbolTableRecord
100
AcDbLayerTableRecord
2
SK4
70
0
62
2
6
CENTER
290
1
370
-3
390
0
0
LAYER
5
1ee
100
AcDbSymbolTableRecord
100
AcDbLayerTableRecord
2
SK1
70
0
62
4
6
Continuous
290
1
370
-3
390
0
0
LAYER
5
1ef
100
AcDbSymbolTableRecord
100
AcDbLayerTableRecord
2
SK2
70
0
62
7
6
Continuous
290
1
370
-3
390
0
0
LAYER
5
1f0
100
AcDbSymbolTableRecord
100
AcDbLayerTableRecord
2
SK6
70
0
62
5
6
Continuous
290
1
370
-3
390
0
0
ENDTAB
0
TABLE
2
STYLE
5
204
100
AcDbSymbolTable
0
STYLE
5
11
100
AcDbSymbolTableRecord
100
AcDbTextStyleTableRecord
2
Standard
3
txt
70
0
71
0
40
0
41
1
42
0
50
0
0
STYLE
5
F6
100
AcDbSymbolTableRecord
100
AcDbTextStyleTableRecord
2
iso_b_vert
3
simplex.shx
70
0
71
0
40
0
41
1
42
0
50
0
0
STYLE
5
F7
100
AcDbSymbolTableRecord
100
AcDbTextStyleTableRecord
2
DWGDirectTextStyle
3
simplex
70
0
71
0
40
0
41
1
42
0
50
0
0
ENDTAB
0
TABLE
2
DIMSTYLE
5
205
100
AcDbSymbolTable
100
AcDbDimStyleTable
0
DIMSTYLE
105
27
100
AcDbSymbolTableRecord
100
AcDbDimStyleTableRecord
2
Standard
70
0
3
<>
41
0.18
42
0.0625
44
0.18
140
0.18
147
0.09
73
0
74
0
77
1
271
2
275
0
278
52
280
0
340
11
0
ENDTAB
0
TABLE
2
VIEW
5
206
100
AcDbSymbolTable
0
ENDTAB
0
TABLE
2
UCS
5
207
100
AcDbSymbolTable
0
ENDTAB
0
TABLE
2
APPID
5
208
100
AcDbSymbolTable
0
APPID
5
12
100
AcDbSymbolTableRecord
100
AcDbRegAppTableRecord
2
ACAD
70
0
0
APPID
5
10E
100
AcDbSymbolTableRecord
100
AcDbRegAppTableRecord
2
ACAD_DSTYLE_DIMBREAK
70
0
0
APPID
5
1AC
100
AcDbSymbolTableRecord
100
AcDbRegAppTableRecord
2
ACAD_DSTYLE_DIM_LINETYPE
70
0
0
APPID
5
1AD
100
AcDbSymbolTableRecord
100
AcDbRegAppTableRecord
2
ACAD_DSTYLE_DIM_EXT1_LINETYPE
70
0
0
APPID
5
1AE
100
AcDbSymbolTableRecord
100
AcDbRegAppTableRecord
2
ACAD_DSTYLE_DIM_EXT2_LINETYPE
70
0
0
APPID
5
1E9
100
AcDbSymbolTableRecord
100
AcDbRegAppTableRecord
2
ACAD_MLEADERVER
70
0
0
ENDTAB
0
TABLE
2
BLOCK_RECORD
5
209
100
AcDbSymbolTable
0
BLOCK_RECORD
5
1F
100
AcDbSymbolTableRecord
100
AcDbBlockTableRecord
2
*Model_Space
340
0
70
0
0
BLOCK_RECORD
5
1B
100
AcDbSymbolTableRecord
100
AcDbBlockTableRecord
2
*Paper_Space
340
0
70
0
0
BLOCK_RECORD
5
23
100
AcDbSymbolTableRecord
100
AcDbBlockTableRecord
2
*Paper_Space0
340
0
70
0
0
BLOCK_RECORD
5
113
100
AcDbSymbolTableRecord
100
AcDbBlockTableRecord
2
*D1
340
0
70
0
0
BLOCK_RECORD
5
11F
100
AcDbSymbolTableRecord
100
AcDbBlockTableRecord
2
_U0
340
0
70
0
0
BLOCK_RECORD
5
12B
100
AcDbSymbolTableRecord
100
AcDbBlockTableRecord
2
*D3
340
0
70
0
0
BLOCK_RECORD
5
137
100
AcDbSymbolTableRecord
100
AcDbBlockTableRecord
2
_U1
340
0
70
0
0
BLOCK_RECORD
5
143
100
AcDbSymbolTableRecord
100
AcDbBlockTableRecord
2
*D5
340
0
70
0
0
BLOCK_RECORD
5
151
100
AcDbSymbolTableRecord
100
AcDbBlockTableRecord
2
_U2
340
0
70
0
0
BLOCK_RECORD
5
15D
100
AcDbSymbolTableRecord
100
AcDbBlockTableRecord
2
*D7
340
0
70
0
0
BLOCK_RECORD
5
16B
100
AcDbSymbolTableRecord
100
AcDbBlockTableRecord
2
_U3
340
0
70
0
0
BLOCK_RECORD
5
177
100
AcDbSymbolTableRecord
100
AcDbBlockTableRecord
2
*D9
340
0
70
0
0
BLOCK_RECORD
5
183
100
AcDbSymbolTableRecord
100
AcDbBlockTableRecord
2
_U4
340
0
70
0
0
ENDTAB
0
ENDSEC
0
SECTION
2
BLOCKS
0
BLOCK
5
20
100
AcDbEntity
8
0
100
AcDbBlockBegin
2
*Model_Space
70
0
10
0
20
0
30
0
3
*Model_Space
0
ENDBLK
5
21
100
AcDbEntity
8
0
100
AcDbBlockEnd
0
BLOCK
5
1C
100
AcDbEntity
8
0
100
AcDbBlockBegin
2
*Paper_Space
70
0
10
0
20
0
30
0
3
*Paper_Space
0
ENDBLK
5
1D
100
AcDbEntity
8
0
100
AcDbBlockEnd
0
BLOCK
5
24
100
AcDbEntity
8
0
100
AcDbBlockBegin
2
*Paper_Space0
70
0
10
0
20
0
30
0
3
*Paper_Space0
0
ENDBLK
5
25
100
AcDbEntity
8
0
100
AcDbBlockEnd
0
BLOCK
5
114
100
AcDbEntity
8
0
100
AcDbBlockBegin
2
*D1
70
1
10
0
20
0
30
0
3
*D1
0
LINE
5
116
100
AcDbEntity
8
0
62
256
6
ByLayer
370
-2
48
1
60
0
100
AcDbLine
10
0
20
0.0875
30
0
11
0
21
24.7
31
0
39
0
210
0
220
0
230
1
0
LINE
5
117
100
AcDbEntity
8
0
62
256
6
ByLayer
370
-2
48
1
60
0
100
AcDbLine
10
18.359
20
1.0375
30
0
11
18.359
21
24.7
31
0
39
0
210
0
220
0
230
1
0
LINE
5
118
100
AcDbEntity
8
0
62
256
6
ByLayer
370
-2
48
1
60
0
100
AcDbLine
10
3.5
20
22.7
30
0
11
14.859
21
22.7
31
0
39
0
210
0
220
0
230
1
0
SOLID
5
119
100
AcDbEntity
8
0
62
256
6
ByLayer
370
-1
48
1
60
0
100
AcDbTrace
10
3.5
20
23.283333
30
0
11
3.5
21
22.116667
31
0
12
0
22
22.7
32
0
13
0
23
22.7
33
0
39
0
210
0
220
0
230
1
0
SOLID
5
11A
100
AcDbEntity
8
0
62
256
6
ByLayer
370
-1
48
1
60
0
100
AcDbTrace
10
14.859
20
22.116667
30
0
11
14.859
21
23.283333
31
0
12
18.359
22
22.7
32
0
13
18.359
23
22.7
33
0
39
0
210
0
220
0
230
1
0
MTEXT
5
11B
100
AcDbEntity
8
0
62
256
6
ByLayer
370
18
48
1
60
0
100
AcDbMText
10
17.763999
20
29.7
30
0
210
0
220
0
230
1
1
\A1;18.36
40
3.5
41
0
44
1
50
0
71
5
72
5
7
iso_b_vert
0
POINT
5
11C
100
AcDbEntity
8
Defpoints
62
0
6
ByLayer
370
-1
48
1
60
0
100
AcDbPoint
10
0
20
-1.5
30
0
39
0
210
0
220
0
230
1
50
360
0
POINT
5
11D
100
AcDbEntity
8
Defpoints
62
0
6
ByLayer
370
-1
48
1
60
0
100
AcDbPoint
10
18.359
20
-0.55
30
0
39
0
210
0
220
0
230
1
50
360
0
POINT
5
11E
100
AcDbEntity
8
Defpoints
62
0
6
ByLayer
370
-1
48
1
60
0
100
AcDbPoint
10
18.359
20
22.7
30
0
39
0
210
0
220
0
230
1
50
360
0
ENDBLK
5
115
100
AcDbEntity
8
0
100
AcDbBlockEnd
0
BLOCK
5
126
100
AcDbEntity
8
0
100
AcDbBlockBegin
2
_U0
70
0
10
0
20
0
30
0
3
_U0
0
MTEXT
5
120
100
AcDbEntity
8
2
62
256
6
ByLayer
370
18
48
1
60
0
100
AcDbMText
10
12.972
20
23.732634
30
0
210
0
220
0
230
1
1
\W0.6864;18.36
40
3.5
41
0
44
1.084337
50
0
71
7
72
5
7
iso_b_vert
0
LINE
5
121
100
AcDbEntity
8
2
62
256
6
ByLayer
370
13
48
1
60
0
100
AcDbLine
10
0
20
0.0875
30
0
11
0
21
24.7
31
0
39
0
210
0
220
0
230
1
0
LINE
5
122
100
AcDbEntity
8
2
62
256
6
ByLayer
370
13
48
1
60
0
100
AcDbLine
10
18.359
20
1.0375
30
0
11
18.359
21
24.7
31
0
39
0
210
0
220
0
230
1
0
LINE
5
123
100
AcDbEntity
8
2
62
256
6
ByLayer
370
13
48
1
60
0
100
AcDbLine
10
0
20
22.7
30
0
11
22.741498
21
22.7
31
0
39
0
210
0
220
0
230
1
0
SOLID
5
124
100
AcDbEntity
8
2
62
256
6
ByLayer
370
18
48
1
60
0
100
AcDbTrace
10
0
20
22.7
30
0
11
3.499998
21
23.160784
31
0
12
3.500002
22
22.239216
32
0
13
3.500002
23
22.239216
33
0
39
0
210
0
220
0
230
1
0
SOLID
5
125
100
AcDbEntity
8
2
62
256
6
ByLayer
370
18
48
1
60
0
100
AcDbTrace
10
18.359
20
22.7
30
0
11
14.859002
21
22.239216
31
0
12
14.858998
22
23.160784
32
0
13
14.858998
23
23.160784
33
0
39
0
210
0
220
0
230
1
0
ENDBLK
5
127
100
AcDbEntity
8
0
100
AcDbBlockEnd
0
BLOCK
5
12C
100
AcDbEntity
8
0
100
AcDbBlockBegin
2
*D3
70
1
10
0
20
0
30
0
3
*D3
0
LINE
5
12E
100
AcDbEntity
8
0
62
256
6
ByLayer
370
-2
48
1
60
0
100
AcDbLine
10
-18.811
20
-3.0875
30
0
11
-18.811
21
-25.25
31
0
39
0
210
0
220
0
230
1
0
LINE
5
12F
100
AcDbEntity
8
0
62
256
6
ByLayer
370
-2
48
1
60
0
100
AcDbLine
10
0
20
-3.0875
30
0
11
0
21
-25.25
31
0
39
0
210
0
220
0
230
1
0
LINE
5
130
100
AcDbEntity
8
0
62
256
6
ByLayer
370
-2
48
1
60
0
100
AcDbLine
10
-15.311
20
-23.25
30
0
11
-3.5
21
-23.25
31
0
39
0
210
0
220
0
230
1
0
SOLID
5
131
100
AcDbEntity
8
0
62
256
6
ByLayer
370
-1
48
1
60
0
100
AcDbTrace
10
-15.311
20
-22.666667
30
0
11
-15.311
21
-23.833333
31
0
12
-18.811
22
-23.25
32
0
13
-18.811
23
-23.25
33
0
39
0
210
0
220
0
230
1
0
SOLID
5
132
100
AcDbEntity
8
0
62
256
6
ByLayer
370
-1
48
1
60
0
100
AcDbTrace
10
-3.5
20
-23.833333
30
0
11
-3.5
21
-22.666667
31
0
12
0
22
-23.25
32
0
13
0
23
-23.25
33
0
39
0
210
0
220
0
230
1
0
MTEXT
5
133
100
AcDbEntity
8
0
62
256
6
ByLayer
370
18
48
1
60
0
100
AcDbMText
10
-8.270934
20
-16.25
30
0
210
0
220
0
230
1
1
\A1;18.81
40
3.5
41
0
44
1
50
0
71
5
72
5
7
iso_b_vert
0
POINT
5
134
100
AcDbEntity
8
Defpoints
62
0
6
ByLayer
370
-1
48
1
60
0
100
AcDbPoint
10
-18.811
20
-1.5
30
0
39
0
210
0
220
0
230
1
50
360
0
POINT
5
135
100
AcDbEntity
8
Defpoints
62
0
6
ByLayer
370
-1
48
1
60
0
100
AcDbPoint
10
0
20
-1.5
30
0
39
0
210
0
220
0
230
1
50
360
0
POINT
5
136
100
AcDbEntity
8
Defpoints
62
0
6
ByLayer
370
-1
48
1
60
0
100
AcDbPoint
10
0
20
-23.25
30
0
39
0
210
0
220
0
230
1
50
360
0
ENDBLK
5
12D
100
AcDbEntity
8
0
100
AcDbBlockEnd
0
BLOCK
5
13E
100
AcDbEntity
8
0
100
AcDbBlockBegin
2
_U1
70
0
10
0
20
0
30
0
3
_U1
0
MTEXT
5
138
100
AcDbEntity
8
SK2
62
256
6
ByLayer
370
18
48
1
60
0
100
AcDbMText
10
-12.6255
20
-22.217366
30
0
210
0
220
0
230
1
1
\W0.6725;18.81
40
3.5
41
0
44
1.084337
50
0
71
7
72
5
7
iso_b_vert
0
LINE
5
139
100
AcDbEntity
8
SK2
62
256
6
ByLayer
370
13
48
1
60
0
100
AcDbLine
10
-18.811
20
-3.0875
30
0
11
-18.811
21
-25.25
31
0
39
0
210
0
220
0
230
1
0
LINE
5
13A
100
AcDbEntity
8
SK2
62
256
6
ByLayer
370
13
48
1
60
0
100
AcDbLine
10
0
20
-3.0875
30
0
11
0
21
-25.25
31
0
39
0
210
0
220
0
230
1
0
LINE
5
13B
100
AcDbEntity
8
SK2
62
256
6
ByLayer
370
13
48
1
60
0
100
AcDbLine
10
-18.811
20
-23.25
30
0
11
0
21
-23.25
31
0
39
0
210
0
220
0
230
1
0
SOLID
5
13C
100
AcDbEntity
8
SK2
62
256
6
ByLayer
370
18
48
1
60
0
100
AcDbTrace
10
-18.811
20
-23.25
30
0
11
-15.311002
21
-22.789216
31
0
12
-15.310998
22
-23.710784
32
0
13
-15.310998
23
-23.710784
33
0
39
0
210
0
220
0
230
1
0
SOLID
5
13D
100
AcDbEntity
8
SK2
62
256
6
ByLayer
370
18
48
1
60
0
100
AcDbTrace
10
0
20
-23.25
30
0
11
-3.499998
21
-23.710784
31
0
12
-3.500002
22
-22.789216
32
0
13
-3.500002
23
-22.789216
33
0
39
0
210
0
220
0
230
1
0
ENDBLK
5
13F
100
AcDbEntity
8
0
100
AcDbBlockEnd
0
BLOCK
5
144
100
AcDbEntity
8
0
100
AcDbBlockBegin
2
*D5
70
1
10
0
20
0
30
0
3
*D5
0
LINE
5
146
100
AcDbEntity
8
0
62
256
6
ByLayer
370
-2
48
1
60
0
100
AcDbLine
10
9.889
20
-2.1375
30
0
11
9.889
21
-17.8
31
0
39
0
210
0
220
0
230
1
0
LINE
5
147
100
AcDbEntity
8
0
62
256
6
ByLayer
370
-2
48
1
60
0
100
AcDbLine
10
18.689
20
-2.1375
30
0
11
18.689
21
-17.8
31
0
39
0
210
0
220
0
230
1
0
LINE
5
148
100
AcDbEntity
8
0
62
256
6
ByLayer
370
-2
48
1
60
0
100
AcDbLine
10
18.689
20
-15.8
30
0
11
43.522333
21
-15.8
31
0
39
0
210
0
220
0
230
1
0
LINE
5
149
100
AcDbEntity
8
0
62
256
6
ByLayer
370
-2
48
1
60
0
100
AcDbLine
10
6.389
20
-15.8
30
0
11
2.889
21
-15.8
31
0
39
0
210
0
220
0
230
1
0
LINE
5
14A
100
AcDbEntity
8
0
62
256
6
ByLayer
370
-2
48
1
60
0
100
AcDbLine
10
22.189
20
-15.8
30
0
11
25.689
21
-15.8
31
0
39
0
210
0
220
0
230
1
0
SOLID
5
14B
100
AcDbEntity
8
0
62
256
6
ByLayer
370
-1
48
1
60
0
100
AcDbTrace
10
6.389
20
-16.383333
30
0
11
6.389
21
-15.216667
31
0
12
9.889
22
-15.8
32
0
13
9.889
23
-15.8
33
0
39
0
210
0
220
0
230
1
0
SOLID
5
14C
100
AcDbEntity
8
0
62
256
6
ByLayer
370
-1
48
1
60
0
100
AcDbTrace
10
22.189
20
-15.216667
30
0
11
22.189
21
-16.383333
31
0
12
18.689
22
-15.8
32
0
13
18.689
23
-15.8
33
0
39
0
210
0
220
0
230
1
0
MTEXT
5
14D
100
AcDbEntity
8
0
62
256
6
ByLayer
370
18
48
1
60
0
100
AcDbMText
10
34.605667
20
-8.8
30
0
210
0
220
0
230
1
1
\A1;8.8
40
3.5
41
0
44
1
50
0
71
5
72
5
7
iso_b_vert
0
POINT
5
14E
100
AcDbEntity
8
Defpoints
62
0
6
ByLayer
370
-1
48
1
60
0
100
AcDbPoint
10
9.889
20
-0.55
30
0
39
0
210
0
220
0
230
1
50
360
0
POINT
5
14F
100
AcDbEntity
8
Defpoints
62
0
6
ByLayer
370
-1
48
1
60
0
100
AcDbPoint
10
18.689
20
-0.55
30
0
39
0
210
0
220
0
230
1
50
360
0
POINT
5
150
100
AcDbEntity
8
Defpoints
62
0
6
ByLayer
370
-1
48
1
60
0
100
AcDbPoint
10
18.689
20
-15.8
30
0
39
0
210
0
220
0
230
1
50
360
0
ENDBLK
5
145
100
AcDbEntity
8
0
100
AcDbBlockEnd
0
BLOCK
5
158
100
AcDbEntity
8
0
100
AcDbBlockBegin
2
_U2
70
0
10
0
20
0
30
0
3
_U2
0
MTEXT
5
152
100
AcDbEntity
8
SK2
62
256
6
ByLayer
370
18
48
1
60
0
100
AcDbMText
10
28.8745
20
-14.767366
30
0
210
0
220
0
230
1
1
\W0.7121;8.8
40
3.5
41
0
44
1.084337
50
0
71
7
72
5
7
iso_b_vert
0
LINE
5
153
100
AcDbEntity
8
SK2
62
256
6
ByLayer
370
13
48
1
60
0
100
AcDbLine
10
9.889
20
-2.1375
30
0
11
9.889
21
-17.8
31
0
39
0
210
0
220
0
230
1
0
LINE
5
154
100
AcDbEntity
8
SK2
62
256
6
ByLayer
370
13
48
1
60
0
100
AcDbLine
10
18.689
20
-2.1375
30
0
11
18.689
21
-17.8
31
0
39
0
210
0
220
0
230
1
0
LINE
5
155
100
AcDbEntity
8
SK2
62
256
6
ByLayer
370
13
48
1
60
0
100
AcDbLine
10
9.889
20
-15.8
30
0
11
34.287932
21
-15.8
31
0
39
0
210
0
220
0
230
1
0
SOLID
5
156
100
AcDbEntity
8
SK2
62
256
6
ByLayer
370
18
48
1
60
0
100
AcDbTrace
10
9.889
20
-15.8
30
0
11
13.388998
21
-15.339216
31
0
12
13.389002
22
-16.260784
32
0
13
13.389002
23
-16.260784
33
0
39
0
210
0
220
0
230
1
0
SOLID
5
157
100
AcDbEntity
8
SK2
62
256
6
ByLayer
370
18
48
1
60
0
100
AcDbTrace
10
18.689
20
-15.8
30
0
11
15.189002
21
-16.260784
31
0
12
15.188998
22
-15.339216
32
0
13
15.188998
23
-15.339216
33
0
39
0
210
0
220
0
230
1
0
ENDBLK
5
159
100
AcDbEntity
8
0
100
AcDbBlockEnd
0
BLOCK
5
15E
100
AcDbEntity
8
0
100
AcDbBlockBegin
2
*D7
70
1
10
0
20
0
30
0
3
*D7
0
LINE
5
160
100
AcDbEntity
8
0
62
256
6
ByLayer
370
-2
48
1
60
0
100
AcDbLine
10
7.984
20
-2.1375
30
0
11
7.984
21
-27.8
31
0
39
0
210
0
220
0
230
1
0
LINE
5
161
100
AcDbEntity
8
0
62
256
6
ByLayer
370
-2
48
1
60
0
100
AcDbLine
10
18.689
20
-2.1375
30
0
11
18.689
21
-27.8
31
0
39
0
210
0
220
0
230
1
0
LINE
5
162
100
AcDbEntity
8
0
62
256
6
ByLayer
370
-2
48
1
60
0
100
AcDbLine
10
18.689
20
-25.8
30
0
11
48.689
21
-25.8
31
0
39
0
210
0
220
0
230
1
0
LINE
5
163
100
AcDbEntity
8
0
62
256
6
ByLayer
370
-2
48
1
60
0
100
AcDbLine
10
4.484
20
-25.8
30
0
11
0.984
21
-25.8
31
0
39
0
210
0
220
0
230
1
0
LINE
5
164
100
AcDbEntity
8
0
62
256
6
ByLayer
370
-2
48
1
60
0
100
AcDbLine
10
22.189
20
-25.8
30
0
11
25.689
21
-25.8
31
0
39
0
210
0
220
0
230
1
0
SOLID
5
165
100
AcDbEntity
8
0
62
256
6
ByLayer
370
-1
48
1
60
0
100
AcDbTrace
10
4.484
20
-26.383333
30
0
11
4.484
21
-25.216667
31
0
12
7.984
22
-25.8
32
0
13
7.984
23
-25.8
33
0
39
0
210
0
220
0
230
1
0
SOLID
5
166
100
AcDbEntity
8
0
62
256
6
ByLayer
370
-1
48
1
60
0
100
AcDbTrace
10
22.189
20
-25.216667
30
0
11
22.189
21
-26.383333
31
0
12
18.689
22
-25.8
32
0
13
18.689
23
-25.8
33
0
39
0
210
0
220
0
230
1
0
MTEXT
5
167
100
AcDbEntity
8
0
62
256
6
ByLayer
370
18
48
1
60
0
100
AcDbMText
10
37.189
20
-18.8
30
0
210
0
220
0
230
1
1
\A1;10.71
40
3.5
41
0
44
1
50
0
71
5
72
5
7
iso_b_vert
0
POINT
5
168
100
AcDbEntity
8
Defpoints
62
0
6
ByLayer
370
-1
48
1
60
0
100
AcDbPoint
10
7.984
20
-0.55
30
0
39
0
210
0
220
0
230
1
50
360
0
POINT
5
169
100
AcDbEntity
8
Defpoints
62
0
6
ByLayer
370
-1
48
1
60
0
100
AcDbPoint
10
18.689
20
-0.55
30
0
39
0
210
0
220
0
230
1
50
360
0
POINT
5
16A
100
AcDbEntity
8
Defpoints
62
0
6
ByLayer
370
-1
48
1
60
0
100
AcDbPoint
10
18.689
20
-25.8
30
0
39
0
210
0
220
0
230
1
50
360
0
ENDBLK
5
15F
100
AcDbEntity
8
0
100
AcDbBlockEnd
0
BLOCK
5
172
100
AcDbEntity
8
0
100
AcDbBlockBegin
2
_U3
70
0
10
0
20
0
30
0
3
_U3
0
MTEXT
5
16C
100
AcDbEntity
8
SK2
62
256
6
ByLayer
370
18
48
1
60
0
100
AcDbMText
10
28.8745
20
-24.767366
30
0
210
0
220
0
230
1
1
\W0.6563;10.7
40
3.5
41
0
44
1.084337
50
0
71
7
72
5
7
iso_b_vert
0
LINE
5
16D
100
AcDbEntity
8
SK2
62
256
6
ByLayer
370
13
48
1
60
0
100
AcDbLine
10
7.984
20
-2.1375
30
0
11
7.984
21
-27.8
31
0
39
0
210
0
220
0
230
1
0
LINE
5
16E
100
AcDbEntity
8
SK2
62
256
6
ByLayer
370
13
48
1
60
0
100
AcDbLine
10
18.689
20
-2.1375
30
0
11
18.689
21
-27.8
31
0
39
0
210
0
220
0
230
1
0
LINE
5
16F
100
AcDbEntity
8
SK2
62
256
6
ByLayer
370
13
48
1
60
0
100
AcDbLine
10
7.984
20
-25.8
30
0
11
36.028532
21
-25.8
31
0
39
0
210
0
220
0
230
1
0
SOLID
5
170
100
AcDbEntity
8
SK2
62
256
6
ByLayer
370
18
48
1
60
0
100
AcDbTrace
10
7.984
20
-25.8
30
0
11
11.483998
21
-25.339216
31
0
12
11.484002
22
-26.260784
32
0
13
11.484002
23
-26.260784
33
0
39
0
210
0
220
0
230
1
0
SOLID
5
171
100
AcDbEntity
8
SK2
62
256
6
ByLayer
370
18
48
1
60
0
100
AcDbTrace
10
18.689
20
-25.8
30
0
11
15.189002
21
-26.260784
31
0
12
15.188998
22
-25.339216
32
0
13
15.188998
23
-25.339216
33
0
39
0
210
0
220
0
230
1
0
ENDBLK
5
173
100
AcDbEntity
8
0
100
AcDbBlockEnd
0
BLOCK
5
178
100
AcDbEntity
8
0
100
AcDbBlockBegin
2
*D9
70
1
10
0
20
0
30
0
3
*D9
0
LINE
5
17A
100
AcDbEntity
8
0
62
256
6
ByLayer
370
-2
48
1
60
0
100
AcDbLine
10
-18.811
20
-0.0875
30
0
11
-18.811
21
-36.67507
31
0
39
0
210
0
220
0
230
1
0
LINE
5
17B
100
AcDbEntity
8
0
62
256
6
ByLayer
370
-2
48
1
60
0
100
AcDbLine
10
18.689
20
-1.0375
30
0
11
18.689
21
-36.67507
31
0
39
0
210
0
220
0
230
1
0
LINE
5
17C
100
AcDbEntity
8
0
62
256
6
ByLayer
370
-2
48
1
60
0
100
AcDbLine
10
-15.311
20
-34.67507
30
0
11
15.189
21
-34.67507
31
0
39
0
210
0
220
0
230
1
0
SOLID
5
17D
100
AcDbEntity
8
0
62
256
6
ByLayer
370
-1
48
1
60
0
100
AcDbTrace
10
-15.311
20
-34.091737
30
0
11
-15.311
21
-35.258404
31
0
12
-18.811
22
-34.67507
32
0
13
-18.811
23
-34.67507
33
0
39
0
210
0
220
0
230
1
0
SOLID
5
17E
100
AcDbEntity
8
0
62
256
6
ByLayer
370
-1
48
1
60
0
100
AcDbTrace
10
15.189
20
-35.258404
30
0
11
15.189
21
-34.091737
31
0
12
18.689
22
-34.67507
32
0
13
18.689
23
-34.67507
33
0
39
0
210
0
220
0
230
1
0
MTEXT
5
17F
100
AcDbEntity
8
0
62
256
6
ByLayer
370
18
48
1
60
0
100
AcDbMText
10
-0.061
20
-27.67507
30
0
210
0
220
0
230
1
1
\A1;37.5
40
3.5
41
0
44
1
50
0
71
5
72
5
7
iso_b_vert
0
POINT
5
180
100
AcDbEntity
8
Defpoints
62
0
6
ByLayer
370
-1
48
1
60
0
100
AcDbPoint
10
-18.811
20
1.5
30
0
39
0
210
0
220
0
230
1
50
360
0
POINT
5
181
100
AcDbEntity
8
Defpoints
62
0
6
ByLayer
370
-1
48
1
60
0
100
AcDbPoint
10
18.689
20
0.55
30
0
39
0
210
0
220
0
230
1
50
360
0
POINT
5
182
100
AcDbEntity
8
Defpoints
62
0
6
ByLayer
370
-1
48
1
60
0
100
AcDbPoint
10
18.689
20
-34.67507
30
0
39
0
210
0
220
0
230
1
50
360
0
ENDBLK
5
179
100
AcDbEntity
8
0
100
AcDbBlockEnd
0
BLOCK
5
18C
100
AcDbEntity
8
0
100
AcDbBlockBegin
2
_U4
70
0
10
0
20
0
30
0
3
_U4
0
MTEXT
5
184
100
AcDbEntity
8
SK2
62
256
6
ByLayer
370
18
48
1
60
0
100
AcDbMText
10
-5.290432
20
-33.642437
30
0
210
0
220
0
230
1
1
\W0.7468;37.50
40
3.5
41
0
44
1.084337
50
0
71
7
72
5
7
iso_b_vert
0
MTEXT
5
185
100
AcDbEntity
8
SK2
62
256
6
ByLayer
370
18
48
1
60
0
100
AcDbMText
10
-9.158431
20
-33.642437
30
0
210
0
220
0
230
1
1
\W0.1790;(
40
3.5
41
0
44
1.084337
50
0
71
7
72
5
7
iso_b_vert
0
MTEXT
5
186
100
AcDbEntity
8
SK2
62
256
6
ByLayer
370
18
48
1
60
0
100
AcDbMText
10
9.039432
20
-33.642437
30
0
210
0
220
0
230
1
1
\W0.1969;)
40
3.5
41
0
44
1.084337
50
0
71
7
72
5
7
iso_b_vert
0
LINE
5
187
100
AcDbEntity
8
SK2
62
256
6
ByLayer
370
13
48
1
60
0
100
AcDbLine
10
-18.811
20
-0.0875
30
0
11
-18.811
21
-36.67507
31
0
39
0
210
0
220
0
230
1
0
LINE
5
188
100
AcDbEntity
8
SK2
62
256
6
ByLayer
370
13
48
1
60
0
100
AcDbLine
10
18.689
20
-1.0375
30
0
11
18.689
21
-36.67507
31
0
39
0
210
0
220
0
230
1
0
LINE
5
189
100
AcDbEntity
8
SK2
62
256
6
ByLayer
370
13
48
1
60
0
100
AcDbLine
10
-18.811
20
-34.67507
30
0
11
18.689
21
-34.67507
31
0
39
0
210
0
220
0
230
1
0
SOLID
5
18A
100
AcDbEntity
8
SK2
62
256
6
ByLayer
370
18
48
1
60
0
100
AcDbTrace
10
-18.811
20
-34.67507
30
0
11
-15.311002
21
-34.214287
31
0
12
-15.310998
22
-35.135854
32
0
13
-15.310998
23
-35.135854
33
0
39
0
210
0
220
0
230
1
0
SOLID
5
18B
100
AcDbEntity
8
SK2
62
256
6
ByLayer
370
18
48
1
60
0
100
AcDbTrace
10
18.689
20
-34.67507
30
0
11
15.189002
21
-35.135854
31
0
12
15.188998
22
-34.214287
32
0
13
15.188998
23
-34.214287
33
0
39
0
210
0
220
0
230
1
0
ENDBLK
5
18D
100
AcDbEntity
8
0
100
AcDbBlockEnd
0
ENDSEC
0
SECTION
2
ENTITIES
0
ELLIPSE
5
BD
100
AcDbEntity
8
SK1
62
256
6
ByLayer
370
18
48
1
60
0
100
AcDbEllipse
10
18.678472
20
-0.028278
30
0
11
0.0237049370445502
21
0.0422353960776829
31
0
210
0
220
0
230
1
40
0.065341
41
1.24094609479443
42
2.26340515645281
0
ELLIPSE
5
BE
100
AcDbEntity
8
SK1
62
256
6
ByLayer
370
18
48
1
60
0
100
AcDbEllipse
10
18.678472
20
0.028278
30
0
11
0.0237049370514562
21
-0.0422353960894791
31
0
210
0
220
0
230
1
40
0.065341
41
-2.26340515631372
42
-1.2409460949685
0
ELLIPSE
5
BF
100
AcDbEntity
8
SK1
62
256
6
ByLayer
370
18
48
1
60
0
100
AcDbEllipse
10
18.670695
20
0.032734
30
0
11
0.0166450737823257
21
0.0187431141455058
31
0
210
0
220
0
230
1
40
0.930579
41
-1.84248153529813
42
-1.81774057061179
0
ELLIPSE
5
C0
100
AcDbEntity
8
SK1
62
256
6
ByLayer
370
13
48
1
60
0
100
AcDbEllipse
10
9.28049
20
-0.558982
30
0
11
-0.00696101772543841
21
-0.0495130713269348
31
0
210
0
220
0
230
1
40
0.501672
41
-2.87171553232942
42
-2.32374638259587
0
ELLIPSE
5
C1
100
AcDbEntity
8
SK1
62
256
6
ByLayer
370
18
48
1
60
0
100
AcDbEllipse
10
8.153465
20
-0.000403
30
0
11
0.289877268034543
21
-0.512102462456582
31
0
210
0
220
0
230
1
40
0.475996
41
2.30826617711557
42
2.87949504743648
0
ELLIPSE
5
C2
100
AcDbEntity
8
SK1
62
256
6
ByLayer
370
18
48
1
60
0
100
AcDbEllipse
10
18.689391
20
0.000616
30
0
11
0.334827769139496
21
0.548879709870648
31
0
210
0
220
0
230
1
40
0.104823
41
-3.07800210874649
42
-2.88135561313785
0
ELLIPSE
5
C3
100
AcDbEntity
8
SK1
62
256
6
ByLayer
370
18
48
1
60
0
100
AcDbEllipse
10
18.690005
20
0.000616
30
0
11
0.486514859619194
21
0.494574755624303
31
0
210
0
220
0
230
1
40
0.494576
41
-2.78457682205211
42
-2.69025533331201
0
ELLIPSE
5
C4
100
AcDbEntity
8
SK1
62
256
6
ByLayer
370
18
48
1
60
0
100
AcDbEllipse
10
8.153465
20
0.000403
30
0
11
0.28987726803464
21
0.512102462456734
31
0
210
0
220
0
230
1
40
0.475996
41
2.05148440770252
42
-2.30826617711571
0
ELLIPSE
5
C5
100
AcDbEntity
8
SK1
62
256
6
ByLayer
370
18
48
1
60
0
100
AcDbEllipse
10
18.689391
20
-0.000616
30
0
11
0.334827769379232
21
-0.548879710271226
31
0
210
0
220
0
230
1
40
0.104823
41
2.88135561323367
42
3.07800210877078
0
POINT
5
70
100
AcDbEntity
8
80
62
256
6
ByLayer
370
18
48
1
60
0
100
AcDbPoint
10
0
20
0
30
0
39
0
210
0
220
0
230
1
50
360
0
POINT
5
72
100
AcDbEntity
8
81
62
256
6
ByLayer
370
18
48
1
60
0
100
AcDbPoint
10
18.689
20
0
30
0
39
0
210
0
220
0
230
1
50
360
0
POINT
5
74
100
AcDbEntity
8
1
62
256
6
ByLayer
370
18
48
1
60
0
100
AcDbPoint
10
-18.811
20
0
30
0
39
0
210
0
220
0
230
1
50
360
0
POINT
5
76
100
AcDbEntity
8
1
62
256
6
ByLayer
370
18
48
1
60
1
100
AcDbPoint
10
0
20
-1.5
30
0
39
0
210
0
220
0
230
1
50
360
0
POINT
5
77
100
AcDbEntity
8
1
62
256
6
ByLayer
370
18
48
1
60
1
100
AcDbPoint
10
18.359
20
-0.55
30
0
39
0
210
0
220
0
230
1
50
360
0
POINT
5
78
100
AcDbEntity
8
1
62
256
6
ByLayer
370
18
48
1
60
1
100
AcDbPoint
10
-18.811
20
-1.5
30
0
39
0
210
0
220
0
230
1
50
360
0
POINT
5
79
100
AcDbEntity
8
1
62
256
6
ByLayer
370
18
48
1
60
1
100
AcDbPoint
10
0
20
-1.5
30
0
39
0
210
0
220
0
230
1
50
360
0
POINT
5
7A
100
AcDbEntity
8
1
62
256
6
ByLayer
370
18
48
1
60
1
100
AcDbPoint
10
9.889
20
-0.55
30
0
39
0
210
0
220
0
230
1
50
360
0
POINT
5
7B
100
AcDbEntity
8
1
62
256
6
ByLayer
370
18
48
1
60
1
100
AcDbPoint
10
18.689
20
-0.55
30
0
39
0
210
0
220
0
230
1
50
360
0
POINT
5
7C
100
AcDbEntity
8
1
62
256
6
ByLayer
370
18
48
1
60
1
100
AcDbPoint
10
7.984
20
-0.55
30
0
39
0
210
0
220
0
230
1
50
360
0
POINT
5
7D
100
AcDbEntity
8
1
62
256
6
ByLayer
370
18
48
1
60
1
100
AcDbPoint
10
18.689
20
-0.55
30
0
39
0
210
0
220
0
230
1
50
360
0
POINT
5
7E
100
AcDbEntity
8
1
62
256
6
ByLayer
370
18
48
1
60
1
100
AcDbPoint
10
-18.811
20
1.5
30
0
39
0
210
0
220
0
230
1
50
360
0
POINT
5
7F
100
AcDbEntity
8
1
62
256
6
ByLayer
370
18
48
1
60
1
100
AcDbPoint
10
18.689
20
0.55
30
0
39
0
210
0
220
0
230
1
50
360
0
SPLINE
5
C6
100
AcDbEntity
8
SK1
62
256
6
ByLayer
370
13
48
1
60
0
100
AcDbSpline
70
4
71
3
72
12
73
8
40
0
40
0
40
0
40
0
40
0.25
40
0.25
40
0.5
40
0.5
40
1
40
1
40
1
40
1
41
1
10
8.13896997743021
20
-0.446072447210014
30
0
41
1
10
8.11148983600592
20
-0.417465569953066
30
0
41
1
10
8.0838708374059
20
-0.389119054808134
30
0
41
1
10
8.02832599851709
20
-0.333011689364696
30
0
41
1
10
8.00039879037823
20
-0.305254085079184
30
0
41
1
10
7.91625935154994
20
-0.222665696442732
30
0
41
1
10
7.85970907852067
20
-0.168483267633093
30
0
41
1
10
7.80329346151123
20
-0.114043204736475
30
0
0
SPLINE
5
C7
100
AcDbEntity
8
SK1
62
256
6
ByLayer
370
13
48
1
60
0
100
AcDbSpline
70
4
71
3
72
8
73
4
40
0
40
0
40
0
40
0
40
1
40
1
40
1
40
1
41
1
10
9.28057699322179
20
-0.510329905145653
30
0
41
1
10
9.25967757480069
20
-0.508174939076895
30
0
41
1
10
9.23912380840628
20
-0.508378188600034
30
0
41
1
10
9.21904674328451
20
-0.510810206078048
30
0
0
SPLINE
5
C8
100
AcDbEntity
8
SK1
62
256
6
ByLayer
370
13
48
1
60
0
100
AcDbSpline
70
4
71
3
72
28
73
24
40
0
40
0
40
0
40
0
40
0.125
40
0.125
40
0.1875
40
0.1875
40
0.25
40
0.25
40
0.375
40
0.375
40
0.4375
40
0.4375
40
0.5
40
0.5
40
0.625
40
0.625
40
0.75
40
0.75
40
0.8125
40
0.8125
40
0.875
40
0.875
40
1
40
1
40
1
40
1
41
1
10
9.28042489133898
20
-0.110251351054217
30
0
41
1
10
9.28042105216946
20
-0.134397580656866
30
0
41
1
10
9.28041749024666
20
-0.158156042380369
30
0
41
1
10
9.28041344311009
20
-0.192857831131335
30
0
41
1
10
9.28041230439376
20
-0.20431449418075
30
0
41
1
10
9.28041059256958
20
-0.226808738413411
30
0
41
1
10
9.28041002061758
20
-0.237815898418688
30
0
41
1
10
9.28040929845136
20
-0.27013529282587
30
0
41
1
10
9.28041014468161
20
-0.290748768826177
30
0
41
1
10
9.28041390397985
20
-0.320277552539778
30
0
41
1
10
9.28041557127571
20
-0.329887738320167
30
0
41
1
10
9.28041981014115
20
-0.34863354625108
30
0
41
1
10
9.28042239185558
20
-0.357794473375577
30
0
41
1
10
9.28043150578657
20
-0.38428406539478
30
0
41
1
10
9.28043940805495
20
-0.400666834420519
30
0
41
1
10
9.28045894094132
20
-0.430834236906151
30
0
41
1
10
9.28047046143544
20
-0.444451436621762
30
0
41
1
10
9.28049015515421
20
-0.462685862357546
30
0
41
1
10
9.28049712260687
20
-0.468394313783449
30
0
41
1
10
9.28051165266433
20
-0.478966318294198
30
0
41
1
10
9.28051923132199
20
-0.483845852763835
30
0
41
1
10
9.28054277402865
20
-0.497276644667522
30
0
41
1
10
9.28055955081985
20
-0.504626207947979
30
0
41
1
10
9.2805769932219
20
-0.510329905145653
30
0
0
SPLINE
5
C9
100
AcDbEntity
8
SK1
62
256
6
ByLayer
370
18
48
1
60
0
100
AcDbSpline
70
4
71
3
72
19
73
15
40
0
40
0
40
0
40
0
40
0.249999999999967
40
0.249999999999967
40
0.374999999999963
40
0.374999999999963
40
0.49999999999996
40
0.624999999999956
40
0.624999999999956
40
0.687499999999961
40
0.687499999999961
40
0.749999999999967
40
0.749999999999967
40
1
40
1
40
1
40
1
41
1
10
18.2917325471027
20
-0.522953946386735
30
0
41
1
10
18.2738283170876
20
-0.517544917914847
30
0
41
1
10
18.2571018754606
20
-0.509972279974193
30
0
41
1
10
18.234122362463
20
-0.494736956678935
30
0
41
1
10
18.2267812761023
20
-0.488972328124703
30
0
41
1
10
18.2131068646467
20
-0.47617008734963
30
0
41
1
10
18.2004415516317
20
-0.462122350914541
30
0
41
1
10
18.1899125089285
20
-0.445437889172041
30
0
41
1
10
18.1828862039171
20
-0.431850142884258
30
0
41
1
10
18.1806894657753
20
-0.427141476894832
30
0
41
1
10
18.1766023882388
20
-0.417345967432055
30
0
41
1
10
18.1747099684353
20
-0.41224834173903
30
0
41
1
10
18.1661665854598
20
-0.386121804616607
30
0
41
1
10
18.1621373929833
20
-0.362966132353762
30
0
41
1
10
18.1610839973159
20
-0.337419182335708
30
0
0
SPLINE
5
CA
100
AcDbEntity
8
SK1
62
256
6
ByLayer
370
18
48
1
60
0
100
AcDbSpline
70
4
71
3
72
30
73
26
40
0
40
0
40
0
40
0
40
0.0624999999999865
40
0.0624999999999865
40
0.124999999999973
40
0.124999999999973
40
0.156249999999966
40
0.156249999999966
40
0.187499999999959
40
0.187499999999959
40
0.249999999999956
40
0.249999999999956
40
0.312499999999952
40
0.312499999999952
40
0.374999999999949
40
0.374999999999949
40
0.499999999999959
40
0.499999999999959
40
0.562499999999964
40
0.562499999999964
40
0.624999999999969
40
0.624999999999969
40
0.74999999999998
40
0.74999999999998
40
1
40
1
40
1
40
1
41
1
10
17.7435165111421
20
0.170038246450474
30
0
41
1
10
17.7422522914942
20
0.155957564018223
30
0
41
1
10
17.7421282378543
20
0.141358995725682
30
0
41
1
10
17.7441676514106
20
0.112527714156329
30
0
41
1
10
17.7463033729559
20
0.0981561857830116
30
0
41
1
10
17.7510718104198
20
0.0766607468270024
30
0
41
1
10
17.7529225759485
20
0.0695059283041815
30
0
41
1
10
17.7571336164067
20
0.0552164304969267
30
0
41
1
10
17.759496534375
20
0.0480826130021228
30
0
41
1
10
17.7671808258144
20
0.0270819101942266
30
0
41
1
10
17.7731308006141
20
0.0134812889054103
30
0
41
1
10
17.7864246694032
20
-0.0130460987234358
30
0
41
1
10
17.7937698391
20
-0.0259722483549183
30
0
41
1
10
17.8096765282023
20
-0.0512365341399459
30
0
41
1
10
17.8182102402289
20
-0.0635184075538007
30
0
41
1
10
17.8448576389701
20
-0.0989037840060689
30
0
41
1
10
17.8641641525569
20
-0.120826536996674
30
0
41
1
10
17.894819605449
20
-0.151876480027823
30
0
41
1
10
17.9053254888363
20
-0.161915587089766
30
0
41
1
10
17.9268466530678
20
-0.181442795993377
30
0
41
1
10
17.9378514295199
20
-0.190918549591061
30
0
41
1
10
17.9711923326119
20
-0.218327045184822
30
0
41
1
10
17.9939717530228
20
-0.235360642698396
30
0
41
1
10
18.0636006330485
20
-0.283565977366294
30
0
41
1
10
18.1117126075328
20
-0.31190530681198
30
0
41
1
10
18.1610839973123
20
-0.337419182334628
30
0
0
SPLINE
5
CB
100
AcDbEntity
8
SK1
62
256
6
ByLayer
370
18
48
1
60
0
100
AcDbSpline
70
4
71
3
72
32
73
28
40
0
40
0
40
0
40
0
40
0.110901641888958
40
0.110901641888958
40
0.16635246283343
40
0.16635246283343
40
0.221803283777903
40
0.221803283777903
40
0.332704925666848
40
0.332704925666848
40
0.443606567555792
40
0.443606567555792
40
0.499057388500264
40
0.499057388500264
40
0.554508209444737
40
0.554508209444737
40
0.665409851333668
40
0.665409851333668
40
0.7763114932226
40
0.7763114932226
40
0.831762314167066
40
0.831762314167066
40
0.887213135111531
40
0.887213135111531
40
0.998114777000449
40
0.998114777000449
40
1
40
1
40
1
40
1
41
1
10
17.7435165111422
20
0.170038246450702
30
0
41
1
10
17.6992642522491
20
0.193330281950125
30
0
41
1
10
17.6551370853042
20
0.215841885493404
30
0
41
1
10
17.589252541766
20
0.248615980886484
30
0
41
1
10
17.5673500809072
20
0.259385209042392
30
0
41
1
10
17.523689970578
20
0.280652960751041
30
0
41
1
10
17.501919944816
20
0.291129914023799
30
0
41
1
10
17.4365084266707
20
0.321677188999985
30
0
41
1
10
17.3926984271445
20
0.340788933556013
30
0
41
1
10
17.3047850582516
20
0.376747236687862
30
0
41
1
10
17.2607032895017
20
0.393620286292077
30
0
41
1
10
17.1944803650424
20
0.417291446398963
30
0
41
1
10
17.1723896791982
20
0.424908322616545
30
0
41
1
10
17.1282202997429
20
0.439608784617434
30
0
41
1
10
17.1061297607503
20
0.446617201618608
30
0
41
1
10
17.0399785362646
20
0.466191658129418
30
0
41
1
10
16.9959743523373
20
0.477397529766506
30
0
41
1
10
16.9081113048693
20
0.496548932009603
30
0
41
1
10
16.8642377839548
20
0.504612416135529
30
0
41
1
10
16.7986202533516
20
0.514685007554959
30
0
41
1
10
16.7767858349009
20
0.517687949739639
30
0
41
1
10
16.7331788388227
20
0.522913549617186
30
0
41
1
10
16.7113571303418
20
0.52511520219349
30
0
41
1
10
16.6456275900735
20
0.530411138830772
30
0
41
1
10
16.6015844968028
20
0.532250202346262
30
0
41
1
10
16.5566269920803
20
0.532319720038856
30
0
41
1
10
16.5558754833496
20
0.532320367168666
30
0
41
1
10
16.5551239270383
20
0.532320498313538
30
0
0
SPLINE
5
CC
100
AcDbEntity
8
SK1
62
256
6
ByLayer
370
18
48
1
60
0
100
AcDbSpline
70
4
71
3
72
96
73
92
40
0
40
0
40
0
40
0
40
0.014923180978991
40
0.014923180978991
40
0.0497906880066602
40
0.0497906880066602
40
0.0672244415204968
40
0.0672244415204968
40
0.0846581950343334
40
0.0846581950343334
40
0.119525702062007
40
0.119525702062007
40
0.136959455575841
40
0.136959455575841
40
0.154393209089676
40
0.154393209089676
40
0.171826962603511
40
0.171826962603511
40
0.189260716117345
40
0.189260716117345
40
0.224128223145019
40
0.224128223145019
40
0.241561976658856
40
0.241561976658856
40
0.258995730172692
40
0.258995730172692
40
0.276429483686529
40
0.276429483686529
40
0.293863237200366
40
0.293863237200366
40
0.311296990714203
40
0.311296990714203
40
0.32873074422804
40
0.32873074422804
40
0.346164497741876
40
0.346164497741876
40
0.363598251255713
40
0.363598251255713
40
0.398465758283391
40
0.398465758283391
40
0.433333265311069
40
0.433333265311069
40
0.450767018824907
40
0.450767018824907
40
0.468200772338746
40
0.468200772338746
40
0.485634525852585
40
0.485634525852585
40
0.503068279366423
40
0.503068279366423
40
0.520502032880262
40
0.520502032880262
40
0.537935786394101
40
0.537935786394101
40
0.572803293421781
40
0.572803293421781
40
0.590237046935622
40
0.590237046935622
40
0.607670800449463
40
0.607670800449463
40
0.642538307477145
40
0.642538307477145
40
0.659972060990985
40
0.659972060990985
40
0.677405814504825
40
0.677405814504825
40
0.712273321532502
40
0.712273321532502
40
0.74714082856018
40
0.74714082856018
40
0.764574582074018
40
0.764574582074018
40
0.782008335587856
40
0.782008335587856
40
0.816875842615533
40
0.816875842615533
40
0.834309596129372
40
0.834309596129372
40
0.851743349643211
40
0.851743349643211
40
0.886610856670891
40
0.886610856670891
40
0.92147836369857
40
0.92147836369857
40
0.938912117212411
40
0.938912117212411
40
0.95634587072625
40
0.95634587072625
40
0.99121337775393
40
0.99121337775393
40
1
40
1
40
1
40
1
41
1
10
14.3672794197093
20
-0.353067465526351
30
0
41
1
10
14.3483604008155
20
-0.360826099009756
30
0
41
1
10
14.3294614530448
20
-0.368349107628489
30
0
41
1
10
14.2664746063055
20
-0.392730070898892
30
0
41
1
10
14.2224631043279
20
-0.408640409635126
30
0
41
1
10
14.1568098664572
20
-0.430772501309491
30
0
41
1
10
14.1350126153458
20
-0.437875882904564
30
0
41
1
10
14.091299888765
20
-0.451220844074356
30
0
41
1
10
14.0694026826684
20
-0.457490763291133
30
0
41
1
10
14.0035540423071
20
-0.475150486758679
30
0
41
1
10
13.9594305641391
20
-0.485471007438264
30
0
41
1
10
13.8930702624474
20
-0.498533437423248
30
0
41
1
10
13.8709215765767
20
-0.502481432799812
30
0
41
1
10
13.8265821397256
20
-0.509588456720991
30
0
41
1
10
13.8043493138423
20
-0.51275126134081
30
0
41
1
10
13.7600509979619
20
-0.518312797532133
30
0
41
1
10
13.737978091575
20
-0.520711590422962
30
0
41
1
10
13.6938813853907
20
-0.524605334916544
30
0
41
1
10
13.6718422214344
20
-0.526095826631632
30
0
41
1
10
13.605690781273
20
-0.529253773173252
30
0
41
1
10
13.561608275914
20
-0.529621580157539
30
0
41
1
10
13.4956342755485
20
-0.527701352822419
30
0
41
1
10
13.4736643164826
20
-0.526652498228827
30
0
41
1
10
13.4297887503794
20
-0.523747166014374
30
0
41
1
10
13.4078967133369
20
-0.521898008130933
30
0
41
1
10
13.3641206041257
20
-0.517314489019554
30
0
41
1
10
13.342223354414
20
-0.514559706730125
30
0
41
1
10
13.2982423256109
20
-0.508169120459797
30
0
41
1
10
13.2761725871058
20
-0.504543787918465
30
0
41
1
10
13.2319104322873
20
-0.496529767984214
30
0
41
1
10
13.2097192247885
20
-0.492152870660107
30
0
41
1
10
13.1652326516698
20
-0.48270869792043
30
0
41
1
10
13.1428971904856
20
-0.477604140716863
30
0
41
1
10
13.0984345016791
20
-0.466556802971922
30
0
41
1
10
13.0762901096016
20
-0.460626167281759
30
0
41
1
10
13.032184160783
20
-0.447955070064381
30
0
41
1
10
13.0102483684383
20
-0.441185769536588
30
0
41
1
10
12.9444478178859
20
-0.41994584427394
30
0
41
1
10
12.9004720016256
20
-0.404693643087256
30
0
41
1
10
12.8125218521651
20
-0.371916955910876
30
0
41
1
10
12.7685388176061
20
-0.354371659635092
30
0
41
1
10
12.7026609110455
20
-0.326035124931764
30
0
41
1
10
12.6807218785567
20
-0.316265618143205
30
0
41
1
10
12.6368929176006
20
-0.29608791739858
30
0
41
1
10
12.6149649393518
20
-0.285740893140712
30
0
41
1
10
12.5709184582375
20
-0.264770592979374
30
0
41
1
10
12.5488056817044
20
-0.254135702352954
30
0
41
1
10
12.5044360433329
20
-0.23243652601721
30
0
41
1
10
12.4821374304682
20
-0.221343267107415
30
0
41
1
10
12.4375848551932
20
-0.198778979201762
30
0
41
1
10
12.4153673059743
20
-0.187357230127759
30
0
41
1
10
12.3710174960911
20
-0.164308014076624
30
0
41
1
10
12.3488932758789
20
-0.152664541972967
30
0
41
1
10
12.2827293035119
20
-0.117268368772926
30
0
41
1
10
12.2390089858612
20
-0.0928494817051728
30
0
41
1
10
12.1731438308094
20
-0.056528235060199
30
0
41
1
10
12.1511762896827
20
-0.0444078984092471
30
0
41
1
10
12.1071862428299
20
-0.020212875729186
30
0
41
1
10
12.0851631700827
20
-0.0081403605747994
30
0
41
1
10
12.0190525739963
20
0.0280855833717624
30
0
41
1
10
11.9749295977548
20
0.0522607882549551
30
0
41
1
10
11.908808330215
20
0.0888402405445561
30
0
41
1
10
11.8867817514914
20
0.101091689445184
30
0
41
1
10
11.8425819953522
20
0.125384388927614
30
0
41
1
10
11.8203607440262
20
0.137410096401197
30
0
41
1
10
11.7535823186141
20
0.172837024067945
30
0
41
1
10
11.7091428709473
20
0.19555490053358
30
0
41
1
10
11.620714921388
20
0.239651845542483
30
0
41
1
10
11.576718899524
20
0.261043465798622
30
0
41
1
10
11.5110500328892
20
0.292212286553251
30
0
41
1
10
11.4891846524372
20
0.302394634972956
30
0
41
1
10
11.4453398101325
20
0.322079056155786
30
0
41
1
10
11.4233771842776
20
0.331608403054304
30
0
41
1
10
11.3573887658103
20
0.359268214863903
30
0
41
1
10
11.3132593267999
20
0.376470906042556
30
0
41
1
10
11.2469284572298
20
0.400692569663335
30
0
41
1
10
11.2247941726755
20
0.408503076908517
30
0
41
1
10
11.180505237193
20
0.423582213608455
30
0
41
1
10
11.1583771935741
20
0.430878809643445
30
0
41
1
10
11.0918312247441
20
0.451703730829536
30
0
41
1
10
11.0475451998286
20
0.463739647952565
30
0
41
1
10
10.9590809383228
20
0.484671350997559
30
0
41
1
10
10.914894998551
20
0.493667305285527
30
0
41
1
10
10.8488613356788
20
0.504827710642331
30
0
41
1
10
10.8268921647103
20
0.508147900303044
30
0
41
1
10
10.7830612139855
20
0.513942101528471
30
0
41
1
10
10.7612274706722
20
0.516431774950007
30
0
41
1
10
10.6955247350143
20
0.522588327982703
30
0
41
1
10
10.6514403473323
20
0.525041309426427
30
0
41
1
10
10.5960414857113
20
0.526098105606195
30
0
41
1
10
10.584879915928
20
0.526201094294237
30
0
41
1
10
10.5737082870586
20
0.526192794043794
30
0
0
SPLINE
5
CD
100
AcDbEntity
8
SK1
62
256
6
ByLayer
370
18
48
1
60
0
100
AcDbSpline
70
4
71
3
72
30
73
26
40
0
40
0
40
0
40
0
40
0.0625000000000052
40
0.0625000000000052
40
0.12500000000001
40
0.187500000000016
40
0.187500000000016
40
0.218750000000009
40
0.218750000000009
40
0.250000000000002
40
0.31250000000001
40
0.31250000000001
40
0.375000000000018
40
0.375000000000018
40
0.500000000000009
40
0.500000000000009
40
0.562500000000018
40
0.562500000000018
40
0.625000000000026
40
0.625000000000026
40
0.750000000000018
40
0.750000000000018
40
0.875000000000009
40
0.875000000000009
40
1
40
1
40
1
40
1
41
1
10
18.2911688186563
20
0.237425654132721
30
0
41
1
10
18.2862001330526
20
0.224958196844113
30
0
41
1
10
18.2804501490666
20
0.212787607879619
30
0
41
1
10
18.2675464819016
20
0.189923130270898
30
0
41
1
10
18.2532240729129
20
0.168436881653122
30
0
41
1
10
18.2358670393069
20
0.149898602584187
30
0
41
1
10
18.2216145595467
20
0.137194340276551
30
0
41
1
10
18.2166517406408
20
0.133159779070581
30
0
41
1
10
18.2065023170493
20
0.125648565344591
30
0
41
1
10
18.1908753155127
20
0.115152955267206
30
0
41
1
10
18.174075536741
20
0.106902403835051
30
0
41
1
10
18.1506987068835
20
0.0977721879693831
30
0
41
1
10
18.1384464331244
20
0.094153836489312
30
0
41
1
10
18.1014068340553
20
0.0858517374449832
30
0
41
1
10
18.0761172109208
20
0.0833590963845268
30
0
41
1
10
18.0374858469797
20
0.0831740655914928
30
0
41
1
10
18.0244548132124
20
0.0837099024384997
30
0
41
1
10
17.9983522048381
20
0.0858551414960971
30
0
41
1
10
17.9853472452869
20
0.0874555359376359
30
0
41
1
10
17.9464568397774
20
0.0936742253291243
30
0
41
1
10
17.9206943861446
20
0.0996931627147717
30
0
41
1
10
17.8694676724716
20
0.115126880262636
30
0
41
1
10
17.8439981646926
20
0.124658423334665
30
0
41
1
10
17.793305553779
20
0.145800250688012
30
0
41
1
10
17.7682622216403
20
0.157409333190032
30
0
41
1
10
17.7435165111422
20
0.17003824645073
30
0
0
SPLINE
5
CE
100
AcDbEntity
8
SK1
62
256
6
ByLayer
370
18
48
1
60
0
100
AcDbSpline
70
4
71
3
72
14
73
10
40
0
40
0
40
0
40
0
40
0.25
40
0.25
40
0.5
40
0.5
40
0.75
40
0.75
40
1
40
1
40
1
40
1
41
1
10
18.3165481396688
20
0.251640986132401
30
0
41
1
10
18.3139783147961
20
0.251386497479615
30
0
41
1
10
18.3114456186079
20
0.250952312765293
30
0
41
1
10
18.3064688887729
20
0.249651707439028
30
0
41
1
10
18.3039918058012
20
0.248771152780932
30
0
41
1
10
18.2993702737159
20
0.246487903038428
30
0
41
1
10
18.297182346227
20
0.245059917082273
30
0
41
1
10
18.2935297529043
20
0.241646501260874
30
0
41
1
10
18.2920465800483
20
0.239628138563347
30
0
41
1
10
18.291168818655
20
0.237425654133318
30
0
0
SPLINE
5
CF
100
AcDbEntity
8
SK1
62
256
6
ByLayer
370
18
48
1
60
0
100
AcDbSpline
70
4
71
3
72
12
73
8
40
0
40
0
40
0
40
0
40
0.499999999999957
40
0.499999999999957
40
0.749999999999978
40
0.749999999999978
40
1
40
1
40
1
40
1
41
1
10
18.5460287215613
20
0.288134537232509
30
0
41
1
10
18.5087002073242
20
0.279202309836563
30
0
41
1
10
18.4708034921722
20
0.272033606494517
30
0
41
1
10
18.413363149167
20
0.263128090660587
30
0
41
1
10
18.3941062732716
20
0.260501286685752
30
0
41
1
10
18.3554411325465
20
0.255717544271704
30
0
41
1
10
18.3360297626931
20
0.253570242888401
30
0
41
1
10
18.3165481396688
20
0.251640986132401
30
0
0
SPLINE
5
D0
100
AcDbEntity
8
SK1
62
256
6
ByLayer
370
18
48
1
60
0
100
AcDbSpline
70
4
71
3
72
8
73
4
40
0
40
0
40
0
40
0
40
1
40
1
40
1
40
1
41
1
10
18.3806416606242
20
0.538813471760221
30
0
41
1
10
18.4352902658132
20
0.45751601133739
30
0
41
1
10
18.4904361024204
20
0.373964749011407
30
0
41
1
10
18.5460287215463
20
0.288134537222391
30
0
0
SPLINE
5
D1
100
AcDbEntity
8
SK1
62
256
6
ByLayer
370
13
48
1
60
0
100
AcDbSpline
70
4
71
3
72
14
73
10
40
0
40
0
40
0
40
0
40
0.25
40
0.25
40
0.5
40
0.5
40
0.75
40
0.75
40
1
40
1
40
1
40
1
41
1
10
7.87194664657611
20
-0.0916756726392975
30
0
41
1
10
7.8975177390713
20
-0.117900847058479
30
0
41
1
10
7.92253365555965
20
-0.144232020773273
30
0
41
1
10
7.97143824609182
20
-0.198043364056446
30
0
41
1
10
7.99532329447504
20
-0.225562391379896
30
0
41
1
10
8.04273911088885
20
-0.282443546554276
30
0
41
1
10
8.06631675925274
20
-0.311811378713855
30
0
41
1
10
8.11417615703996
20
-0.371970598377402
30
0
41
1
10
8.1384621986646
20
-0.40272059235113
30
0
41
1
10
8.16320776045845
20
-0.43373444961415
30
0
0
SPLINE
5
D2
100
AcDbEntity
8
SK1
62
256
6
ByLayer
370
13
48
1
60
0
100
AcDbSpline
70
4
71
3
72
12
73
8
40
0
40
0
40
0
40
0
40
0.307313952385305
40
0.307313952385305
40
0.614627904770613
40
0.614627904770613
40
1
40
1
40
1
40
1
41
1
10
9.2805769932219
20
-0.510329905145682
30
0
41
1
10
9.30424675008405
20
-0.513372200456871
30
0
41
1
10
9.32796148623075
20
-0.515945526552315
30
0
41
1
10
9.37522438597958
20
-0.520119608064334
30
0
41
1
10
9.39879555772256
20
-0.521723923171379
30
0
41
1
10
9.45182658154536
20
-0.524264140770811
30
0
41
1
10
9.48126207110346
20
-0.524928758624981
30
0
41
1
10
9.5106570544753
20
-0.524849597565833
30
0
0
SPLINE
5
D3
100
AcDbEntity
8
SK1
62
256
6
ByLayer
370
18
48
1
60
0
100
AcDbSpline
70
4
71
3
72
24
73
20
40
0
40
0
40
0
40
0
40
0.0231225034658726
40
0.0231225034658726
40
0.139904009131041
40
0.139904009131041
40
0.373467020461378
40
0.373467020461378
40
0.431857773293972
40
0.431857773293972
40
0.490248526126566
40
0.490248526126566
40
0.607030031791754
40
0.607030031791754
40
0.840593043122117
40
0.840593043122117
40
0.957374548787305
40
0.957374548787305
40
1
40
1
40
1
40
1
41
1
10
12.493599910863
20
0.527645926883849
30
0
41
1
10
12.5029380356943
20
0.527669106707549
30
0
41
1
10
12.5122679545566
20
0.527615520430714
30
0
41
1
10
12.5686406284218
20
0.526824280983647
30
0
41
1
10
12.6155113329957
20
0.524230438334627
30
0
41
1
10
12.7559027935527
20
0.510916036276683
30
0
41
1
10
12.8492089444003
20
0.494575089806062
30
0
41
1
10
12.9665919544534
20
0.465343360954108
30
0
41
1
10
12.990103784956
20
0.459049816547235
30
0
41
1
10
13.0372272667745
20
0.445574403840851
30
0
41
1
10
13.0608764385065
20
0.438381295344669
30
0
41
1
10
13.1317344163988
20
0.415599453386193
30
0
41
1
10
13.1786837492581
20
0.398841352006599
30
0
41
1
10
13.3192729015789
20
0.344819881467288
30
0
41
1
10
13.4125791621354
20
0.3035903023343
30
0
41
1
10
13.5531131354913
20
0.235756649794297
30
0
41
1
10
13.6000467167222
20
0.212110577434487
30
0
41
1
10
13.6643924589849
20
0.178651903626644
30
0
41
1
10
13.6816490449325
20
0.169578303838648
30
0
41
1
10
13.698889618391
20
0.160428590414682
30
0
0
SPLINE
5
D4
100
AcDbEntity
8
SK1
62
256
6
ByLayer
370
13
48
1
60
0
100
AcDbSpline
70
4
71
3
72
16
73
12
40
0
40
0
40
0
40
0
40
0.0338256965263185
40
0.0338256965263185
40
0.159107656215708
40
0.159107656215708
40
0.660235494973269
40
0.660235494973269
40
0.910799414352064
40
0.910799414352064
40
1
40
1
40
1
40
1
41
1
10
13.6988896183598
20
0.160428590431224
30
0
41
1
10
13.7052661571034
20
0.157044509137194
30
0
41
1
10
13.7116405054368
20
0.153650015965411
30
0
41
1
10
13.7415977160755
20
0.137646239295378
30
0
41
1
10
13.7651233722256
20
0.124933233610676
30
0
41
1
10
13.8825772524571
20
0.0610655549144212
30
0
41
1
10
13.9759255603036
20
0.0089003376241124
30
0
41
1
10
14.1162674512772
20
-0.0686799108871696
30
0
41
1
10
14.1630914008947
20
-0.0944466777526429
30
0
41
1
10
14.2268144395124
20
-0.128946394792052
30
0
41
1
10
14.2435656522029
20
-0.137962518502519
30
0
41
1
10
14.2603443253379
20
-0.146926589976005
30
0
0
SPLINE
5
D5
100
AcDbEntity
8
SK1
62
256
6
ByLayer
370
18
48
1
60
0
100
AcDbSpline
70
4
71
3
72
26
73
22
40
0
40
0
40
0
40
0
40
0.016572761033507
40
0.016572761033507
40
0.0741167996080893
40
0.0741167996080893
40
0.304292953906416
40
0.304292953906416
40
0.41938103105558
40
0.41938103105558
40
0.534469108204743
40
0.534469108204743
40
0.649557185353907
40
0.649557185353907
40
0.76464526250307
40
0.76464526250307
40
0.879733339652234
40
0.879733339652234
40
0.994821416801398
40
0.994821416801398
40
1
40
1
40
1
40
1
41
1
10
14.2603443253372
20
-0.146926589975578
30
0
41
1
10
14.2671312491777
20
-0.150552530471714
30
0
41
1
10
14.2739226660376
20
-0.154169954291916
30
0
41
1
10
14.3043171121655
20
-0.170306550994127
30
0
41
1
10
14.3279945072998
20
-0.182735078829523
30
0
41
1
10
14.4459908281661
20
-0.243800386636167
30
0
41
1
10
14.5397055958161
20
-0.289431705701986
30
0
41
1
10
14.680738968312
20
-0.350889798592959
30
0
41
1
10
14.7278139535031
20
-0.370217991075009
30
0
41
1
10
14.8223738649321
20
-0.406120210748725
30
0
41
1
10
14.8694437249578
20
-0.422549180515489
30
0
41
1
10
14.963224269719
20
-0.452159785583405
30
0
41
1
10
15.0099510377589
20
-0.465338919786063
30
0
41
1
10
15.1033175356402
20
-0.488206542419647
30
0
41
1
10
15.1499561546242
20
-0.497906636332146
30
0
41
1
10
15.2434474011985
20
-0.51372424722706
30
0
41
1
10
15.2903238777096
20
-0.519861744477424
30
0
41
1
10
15.3844627814374
20
-0.528227112546205
30
0
41
1
10
15.4318354842339
20
-0.530469744243334
30
0
41
1
10
15.480969525382
20
-0.530789288898148
30
0
41
1
10
15.4830848711127
20
-0.530799267469746
30
0
41
1
10
15.4851998970255
20
-0.530805456713409
30
0
0
SPLINE
5
D6
100
AcDbEntity
8
SK1
62
256
6
ByLayer
370
18
48
1
60
0
100
AcDbSpline
70
4
71
3
72
14
73
10
40
0
40
0
40
0
40
0
40
0.25
40
0.25
40
0.5
40
0.5
40
0.75
40
0.75
40
1
40
1
40
1
40
1
41
1
10
18.319652010642
20
-0.546864194742142
30
0
41
1
10
18.3191505419679
20
-0.542759401406272
30
0
41
1
10
18.317492423476
20
-0.539655009655604
30
0
41
1
10
18.3135315681878
20
-0.534513010688727
30
0
41
1
10
18.3111853291031
20
-0.532477301656144
30
0
41
1
10
18.3061195001899
20
-0.528952206274852
30
0
41
1
10
18.303382593674
20
-0.527476049739363
30
0
41
1
10
18.2977075993566
20
-0.524935538949393
30
0
41
1
10
18.2947608333145
20
-0.523868818811678
30
0
41
1
10
18.2917325471007
20
-0.522953946386082
30
0
0
SPLINE
5
D7
100
AcDbEntity
8
SK1
62
256
6
ByLayer
370
13
48
1
60
0
100
AcDbSpline
70
4
71
3
72
30
73
26
40
0
40
0
40
0
40
0
40
0.032291384163959
40
0.032291384163959
40
0.205436607731816
40
0.205436607731816
40
0.248722913623782
40
0.248722913623782
40
0.292009219515748
40
0.292009219515748
40
0.378581831299679
40
0.378581831299679
40
0.551727054867538
40
0.551727054867538
40
0.638299666651467
40
0.638299666651467
40
0.681585972543429
40
0.681585972543429
40
0.724872278435391
40
0.724872278435391
40
0.898017502003234
40
0.898017502003234
40
0.984590113787156
40
0.984590113787156
40
1
40
1
40
1
40
1
41
1
10
9.51065728815675
20
0.524849596936491
30
0
41
1
10
9.5281441293823
20
0.524802502308233
30
0
41
1
10
9.54561663563496
20
0.524492186909271
30
0
41
1
10
9.65672175005611
20
0.5208498525555
30
0
41
1
10
9.75011381324171
20
0.510138902933647
30
0
41
1
10
9.86775964137976
20
0.487574272554013
30
0
41
1
10
9.89133257784047
20
0.482602821336798
30
0
41
1
10
9.93859573365401
20
0.471746950082121
30
0
41
1
10
9.96230536646164
20
0.465854245522877
30
0
41
1
10
10.0331389969352
20
0.446973821265402
30
0
41
1
10
10.0801349568968
20
0.432754543439813
30
0
41
1
10
10.2207979361157
20
0.385677819930294
30
0
41
1
10
10.3141072414309
20
0.348312580310619
30
0
41
1
10
10.4548520135437
20
0.285285349220999
30
0
41
1
10
10.5018864961164
20
0.263103260172159
30
0
41
1
10
10.5727988923278
20
0.228280250808041
30
0
41
1
10
10.596492745307
20
0.216420914968239
30
0
41
1
10
10.6436818168886
20
0.192428043556134
30
0
41
1
10
10.6672214854779
20
0.180273005306873
30
0
41
1
10
10.7847213658694
20
0.118844005789725
30
0
41
1
10
10.878046168883
20
0.0675315255146245
30
0
41
1
10
11.0184939506589
20
-0.0099983492323759
30
0
41
1
10
11.0653819452123
20
-0.0359423567308568
30
0
41
1
10
11.1208308193802
20
-0.0663883866279775
30
0
41
1
10
11.1292153999603
20
-0.0709852121755716
30
0
41
1
10
11.1376067825645
20
-0.0755770139145113
30
0
0
SPLINE
5
D8
100
AcDbEntity
8
SK1
62
256
6
ByLayer
370
18
48
1
60
0
100
AcDbSpline
70
4
71
3
72
24
73
20
40
0
40
0
40
0
40
0
40
0.0334580595029931
40
0.0334580595029931
40
0.0854114959446489
40
0.0854114959446489
40
0.293225241711259
40
0.293225241711259
40
0.501038987477869
40
0.501038987477869
40
0.604945860361174
40
0.604945860361174
40
0.708852733244479
40
0.708852733244479
40
0.812759606127785
40
0.812759606127785
40
0.91666647901109
40
0.91666647901109
40
1
40
1
40
1
40
1
41
1
10
11.137606782559
20
-0.0755770139113849
30
0
41
1
10
11.1527867585797
20
-0.0838835640445552
30
0
41
1
10
11.1679889939922
20
-0.0921736739353776
30
0
41
1
10
11.2068649499292
20
-0.113274154386659
30
0
41
1
10
11.2305346226724
20
-0.126027495216675
30
0
41
1
10
11.3484294680692
20
-0.188909579072941
30
0
41
1
10
11.4418687932525
20
-0.236748875679922
30
0
41
1
10
11.6289278867648
20
-0.324380918650348
30
0
41
1
10
11.7225260757705
20
-0.364213651829232
30
0
41
1
10
11.864481265713
20
-0.415701118281504
30
0
41
1
10
11.9116103637639
20
-0.431317663616369
30
0
41
1
10
12.0054615492987
20
-0.459204521356384
30
0
41
1
10
12.0522219155843
20
-0.471480867060706
30
0
41
1
10
12.1456836388858
20
-0.492554173885196
30
0
41
1
10
12.192368226845
20
-0.501364340249154
30
0
41
1
10
12.2860099263168
20
-0.515274722593631
30
0
41
1
10
12.332936334142
20
-0.520390344599377
30
0
41
1
10
12.4178160747257
20
-0.526198642624934
30
0
41
1
10
12.4557753105889
20
-0.527552035707629
30
0
41
1
10
12.4935999110679
20
-0.527645926884333
30
0
0
SPLINE
5
D9
100
AcDbEntity
8
SK1
62
256
6
ByLayer
370
18
48
1
60
0
100
AcDbSpline
70
4
71
3
72
28
73
24
40
0
40
0
40
0
40
0
40
0.110507195705446
40
0.110507195705446
40
0.226221136642207
40
0.226221136642207
40
0.341935077578969
40
0.341935077578969
40
0.399792048047343
40
0.399792048047343
40
0.457649018515718
40
0.457649018515718
40
0.573362959452453
40
0.573362959452453
40
0.689076900389189
40
0.689076900389189
40
0.804790841325925
40
0.804790841325925
40
0.920504782262661
40
0.920504782262661
40
0.978361752731035
40
0.978361752731035
40
1
40
1
40
1
40
1
41
1
10
15.4851998973063
20
0.530805456714262
30
0
41
1
10
15.5300888984813
20
0.53093681631097
30
0
41
1
10
15.5748338370924
20
0.529361265640944
30
0
41
1
10
15.6662493307881
20
0.52247395523608
30
0
41
1
10
15.71290887898
20
0.517016930535192
30
0
41
1
10
15.8062899651906
20
0.502445958841435
30
0
41
1
10
15.8530396186784
20
0.493391679402492
30
0
41
1
10
15.9234213991378
20
0.477079269068724
30
0
41
1
10
15.9469228027771
20
0.471188426819168
30
0
41
1
10
15.994034340685
20
0.458525049632499
30
0
41
1
10
16.0176837697505
20
0.451741366673389
30
0
41
1
10
16.0885432036589
20
0.430180208180076
30
0
41
1
10
16.1355070572202
20
0.414231016033085
30
0
41
1
10
16.2291468091874
20
0.379478065315226
30
0
41
1
10
16.2758408202859
20
0.360706301212247
30
0
41
1
10
16.3692247717225
20
0.320789777973175
30
0
41
1
10
16.4159001527743
20
0.299622445055604
30
0
41
1
10
16.5094879968109
20
0.255193391415162
30
0
41
1
10
16.5564188940294
20
0.231960802011827
30
0
41
1
10
16.6271398481917
20
0.19574955768968
30
0
41
1
10
16.650811173788
20
0.183426770665761
30
0
41
1
10
16.6832346105173
20
0.166314881908591
30
0
41
1
10
16.6920508734141
20
0.161638425596749
30
0
41
1
10
16.7008587022642
20
0.156944785178581
30
0
0
SPLINE
5
DA
100
AcDbEntity
8
SK1
62
256
6
ByLayer
370
13
48
1
60
0
100
AcDbSpline
70
4
71
3
72
32
73
28
40
0
40
0
40
0
40
0
40
0.0276674783531341
40
0.0276674783531341
40
0.11606134395739
40
0.11606134395739
40
0.204455209561646
40
0.204455209561646
40
0.292849075165902
40
0.292849075165902
40
0.33704600796803
40
0.33704600796803
40
0.381242940770158
40
0.381242940770158
40
0.469636806374414
40
0.469636806374414
40
0.55803067197867
40
0.55803067197867
40
0.646424537582926
40
0.646424537582926
40
0.734818403187182
40
0.734818403187182
40
0.779015335989315
40
0.779015335989315
40
0.823212268791448
40
0.823212268791448
40
1
40
1
40
1
40
1
41
1
10
16.7008587021927
20
0.156944785216666
30
0
41
1
10
16.7156015005194
20
0.149088434318088
30
0
41
1
10
16.7303206691516
20
0.141183938654962
30
0
41
1
10
16.7919825938342
20
0.107853027284989
30
0
41
1
10
16.8387431810669
20
0.082047790868188
30
0
41
1
10
16.9320997443769
20
0.0300324228762463
30
0
41
1
10
16.9786857862996
20
0.0038043980879365
30
0
41
1
10
17.0720376015938
20
-0.0484288331980167
30
0
41
1
10
17.1188267559
20
-0.0743915003461382
30
0
41
1
10
17.1892698377767
20
-0.112942696687867
30
0
41
1
10
17.2127918598162
20
-0.125731698714645
30
0
41
1
10
17.2599441939122
20
-0.151138958958001
30
0
41
1
10
17.2836121919848
20
-0.163774989136613
30
0
41
1
10
17.3543322415657
20
-0.201076573570191
30
0
41
1
10
17.4012220676691
20
-0.225201300374351
30
0
41
1
10
17.4947218326177
20
-0.27160103561954
30
0
41
1
10
17.5413268400806
20
-0.293884845868888
30
0
41
1
10
17.634568346629
20
-0.336158072667672
30
0
41
1
10
17.6812181189837
20
-0.356126398005529
30
0
41
1
10
17.7747807582416
20
-0.393420696283954
30
0
41
1
10
17.8216821760275
20
-0.410762783555498
30
0
41
1
10
17.8923915399034
20
-0.434560000736525
30
0
41
1
10
17.9160377077345
20
-0.442125176375782
30
0
41
1
10
17.9631687941216
20
-0.45637696165349
30
0
41
1
10
17.9866918828713
20
-0.463077229369105
30
0
41
1
10
18.1041799067107
20
-0.494400833120579
30
0
41
1
10
18.1977960703675
20
-0.512488969445343
30
0
41
1
10
18.2917325470964
20
-0.522953946387474
30
0
0
SPLINE
5
DB
100
AcDbEntity
8
SK1
62
256
6
ByLayer
370
18
48
1
60
0
100
AcDbSpline
70
4
71
3
72
94
73
90
40
0
40
0
40
0
40
0
40
0.0342382902808347
40
0.0342382902808347
40
0.0517067588131315
40
0.0517067588131315
40
0.0691752273454282
40
0.0691752273454282
40
0.104112164410018
40
0.104112164410018
40
0.139049101474607
40
0.139049101474607
40
0.156517570006902
40
0.156517570006902
40
0.173986038539196
40
0.173986038539196
40
0.208922975603786
40
0.208922975603786
40
0.226391444136082
40
0.226391444136082
40
0.243859912668379
40
0.243859912668379
40
0.261328381200676
40
0.261328381200676
40
0.278796849732973
40
0.278796849732973
40
0.313733786797562
40
0.313733786797562
40
0.348670723862151
40
0.348670723862151
40
0.366139192394446
40
0.366139192394446
40
0.383607660926741
40
0.383607660926741
40
0.401076129459035
40
0.401076129459035
40
0.41854459799133
40
0.41854459799133
40
0.436013066523625
40
0.436013066523625
40
0.453481535055919
40
0.453481535055919
40
0.470950003588214
40
0.470950003588214
40
0.488418472120509
40
0.488418472120509
40
0.523355409185094
40
0.523355409185094
40
0.540823877717384
40
0.540823877717384
40
0.558292346249675
40
0.558292346249675
40
0.575760814781965
40
0.575760814781965
40
0.593229283314255
40
0.593229283314255
40
0.628166220378832
40
0.628166220378832
40
0.64563468891112
40
0.64563468891112
40
0.663103157443409
40
0.663103157443409
40
0.698040094507989
40
0.698040094507989
40
0.73297703157257
40
0.73297703157257
40
0.750445500104863
40
0.750445500104863
40
0.767913968637155
40
0.767913968637155
40
0.802850905701745
40
0.802850905701745
40
0.837787842766334
40
0.837787842766334
40
0.855256311298626
40
0.855256311298626
40
0.872724779830919
40
0.872724779830919
40
0.9076617168955
40
0.9076617168955
40
0.925130185427792
40
0.925130185427792
40
0.942598653960085
40
0.942598653960085
40
0.960067122492377
40
0.960067122492377
40
0.97753559102467
40
0.97753559102467
40
1
40
1
40
1
40
1
41
1
10
17.3461045391306
20
-0.359845365384587
30
0
41
1
10
17.303021992825
20
-0.377421633053388
30
0
41
1
10
17.2598204333791
20
-0.393935860223536
30
0
41
1
10
17.1944803650424
20
-0.417291446398934
30
0
41
1
10
17.1723896791982
20
-0.424908322616517
30
0
41
1
10
17.1282202997429
20
-0.439608784617405
30
0
41
1
10
17.1061297607503
20
-0.446617201618579
30
0
41
1
10
17.0399785362646
20
-0.46619165812939
30
0
41
1
10
16.9959743523373
20
-0.477397529766478
30
0
41
1
10
16.9081113048693
20
-0.496548932009574
30
0
41
1
10
16.8642377839548
20
-0.504612416135501
30
0
41
1
10
16.7986202533516
20
-0.514685007554931
30
0
41
1
10
16.7767858349009
20
-0.51768794973961
30
0
41
1
10
16.7331788388226
20
-0.522913549617158
30
0
41
1
10
16.7113571303419
20
-0.525115202193462
30
0
41
1
10
16.6456275900736
20
-0.530411138830743
30
0
41
1
10
16.6015844968028
20
-0.532250202346233
30
0
41
1
10
16.5352754311077
20
-0.532352735911502
30
0
41
1
10
16.5131310508778
20
-0.531941489987133
30
0
41
1
10
16.4687709898081
20
-0.530170520672556
30
0
41
1
10
16.446563434032
20
-0.528800345964783
30
0
41
1
10
16.4024482235954
20
-0.525115705855598
30
0
41
1
10
16.3805028380341
20
-0.522806070841909
30
0
41
1
10
16.3366442153133
20
-0.517419289331002
30
0
41
1
10
16.3147116778994
20
-0.514355821993291
30
0
41
1
10
16.2487810910703
20
-0.50426089537396
30
0
41
1
10
16.2047589740527
20
-0.496224428979559
30
0
41
1
10
16.1169189834536
20
-0.476618673202324
30
0
41
1
10
16.0730818840136
20
-0.465098954327885
30
0
41
1
10
16.0074714491223
20
-0.445580762052771
30
0
41
1
10
15.9856080290237
20
-0.438718172844745
30
0
41
1
10
15.9416984762717
20
-0.424384507893535
30
0
41
1
10
15.9196659357743
20
-0.41690150673503
30
0
41
1
10
15.8754681076916
20
-0.401187840141603
30
0
41
1
10
15.853303721611
20
-0.392931546695081
30
0
41
1
10
15.8088389464947
20
-0.375768444185127
30
0
41
1
10
15.7865628710779
20
-0.366899734042505
30
0
41
1
10
15.7421850002627
20
-0.348716154991053
30
0
41
1
10
15.720049128247
20
-0.339380066584738
30
0
41
1
10
15.6759337634173
20
-0.320116562723768
30
0
41
1
10
15.6539858474381
20
-0.310139068965554
30
0
41
1
10
15.6101904477039
20
-0.289622603653754
30
0
41
1
10
15.5883052432174
20
-0.279138327861943
30
0
41
1
10
15.5444840558572
20
-0.257839663146711
30
0
41
1
10
15.5225518050985
20
-0.247031267713538
30
0
41
1
10
15.4566745549043
20
-0.214283461739797
30
0
41
1
10
15.4126544114876
20
-0.191998921771898
30
0
41
1
10
15.3466645884245
20
-0.157395362791277
30
0
41
1
10
15.3246765327857
20
-0.145658384326794
30
0
41
1
10
15.2807224954561
20
-0.121724091595667
30
0
41
1
10
15.258780314098
20
-0.109476514308426
30
0
41
1
10
15.2147584818016
20
-0.0848685943588237
30
0
41
1
10
15.192633312064
20
-0.0726032285398617
30
0
41
1
10
15.148205505533
20
-0.0480471763181072
30
0
41
1
10
15.1259160896472
20
-0.0357609863694108
30
0
41
1
10
15.0593003023745
20
0.0009409906360531
30
0
41
1
10
15.0150671442155
20
0.025285971963882
30
0
41
1
10
14.9490988188207
20
0.0618128602621368
30
0
41
1
10
14.9271786674431
20
0.0740033506320117
30
0
41
1
10
14.8834746193549
20
0.0984150491490539
30
0
41
1
10
14.861654284093
20
0.110569848506628
30
0
41
1
10
14.7960368682057
20
0.146440939494624
30
0
41
1
10
14.7521208079185
20
0.169629389783211
30
0
41
1
10
14.6641250384026
20
0.214794002496262
30
0
41
1
10
14.6200075661002
20
0.23671566350967
30
0
41
1
10
14.5538414896148
20
0.268979803164598
30
0
41
1
10
14.5318057145773
20
0.279658921535145
30
0
41
1
10
14.4876122603909
20
0.300578819074076
30
0
41
1
10
14.4654028226546
20
0.31080813594474
30
0
41
1
10
14.398912867769
20
0.340332536710889
30
0
41
1
10
14.354691676977
20
0.35858298668677
30
0
41
1
10
14.2664746063055
20
0.392730070898921
30
0
41
1
10
14.2224631043279
20
0.408640409635154
30
0
41
1
10
14.1568098664572
20
0.430772501309519
30
0
41
1
10
14.1350126153458
20
0.437875882904592
30
0
41
1
10
14.091299888765
20
0.451220844074385
30
0
41
1
10
14.0694026826684
20
0.457490763291162
30
0
41
1
10
14.0035540423071
20
0.475150486758707
30
0
41
1
10
13.9594305641391
20
0.485471007438292
30
0
41
1
10
13.8930702624474
20
0.498533437423276
30
0
41
1
10
13.8709215765767
20
0.50248143279984
30
0
41
1
10
13.8265821397256
20
0.509588456721019
30
0
41
1
10
13.8043493138423
20
0.512751261340838
30
0
41
1
10
13.7600509979619
20
0.518312797532133
30
0
41
1
10
13.737978091575
20
0.520711590422991
30
0
41
1
10
13.6938813853907
20
0.524605334916544
30
0
41
1
10
13.6718422214344
20
0.526095826631661
30
0
41
1
10
13.6214348764892
20
0.528502179392149
30
0
41
1
10
13.5930856416668
20
0.529137522166593
30
0
41
1
10
13.5647656724635
20
0.529078305592037
30
0
0
SPLINE
5
DC
100
AcDbEntity
8
SK1
62
256
6
ByLayer
370
18
48
1
60
0
100
AcDbSpline
70
4
71
3
72
50
73
46
40
0
40
0
40
0
40
0
40
0.0514731943033717
40
0.0514731943033717
40
0.0830907544932587
40
0.0830907544932587
40
0.114708314683146
40
0.114708314683146
40
0.17794343506292
40
0.17794343506292
40
0.241178555442694
40
0.241178555442694
40
0.272796115632581
40
0.272796115632581
40
0.304413675822468
40
0.304413675822468
40
0.367648796202243
40
0.367648796202243
40
0.430883916582017
40
0.430883916582017
40
0.462501476771904
40
0.462501476771904
40
0.494119036961791
40
0.494119036961791
40
0.557354157341561
40
0.557354157341561
40
0.620589277721332
40
0.620589277721332
40
0.652206837911219
40
0.652206837911219
40
0.683824398101106
40
0.683824398101106
40
0.74705951848088
40
0.74705951848088
40
0.778677078670769
40
0.778677078670769
40
0.810294638860658
40
0.810294638860658
40
0.841912199050547
40
0.841912199050547
40
0.873529759240436
40
0.873529759240436
40
0.936764879620218
40
0.936764879620218
40
1
40
1
40
1
40
1
41
1
10
11.3768190089888
20
-0.350990723668502
30
0
41
1
10
11.3409691909586
20
-0.365631224307975
30
0
41
1
10
11.3050341635279
20
-0.379474441791302
30
0
41
1
10
11.2469284572297
20
-0.400692569663335
30
0
41
1
10
11.2247941726755
20
-0.408503076908517
30
0
41
1
10
11.180505237193
20
-0.423582213608455
30
0
41
1
10
11.1583771935741
20
-0.430878809643445
30
0
41
1
10
11.0918312247441
20
-0.451703730829536
30
0
41
1
10
11.0475451998286
20
-0.463739647952565
30
0
41
1
10
10.9590809383228
20
-0.48467135099753
30
0
41
1
10
10.914894998551
20
-0.493667305285499
30
0
41
1
10
10.8488613356788
20
-0.504827710642331
30
0
41
1
10
10.8268921647103
20
-0.508147900303044
30
0
41
1
10
10.7830612139855
20
-0.513942101528471
30
0
41
1
10
10.7612274706722
20
-0.516431774950007
30
0
41
1
10
10.6955247350143
20
-0.522588327982703
30
0
41
1
10
10.6514403473323
20
-0.525041309426427
30
0
41
1
10
10.5629437845085
20
-0.526729481832461
30
0
41
1
10
10.5185224502492
20
-0.525845786681771
30
0
41
1
10
10.4517180861448
20
-0.521781632907221
30
0
41
1
10
10.4294988054966
20
-0.519986828728634
30
0
41
1
10
10.385275398663
20
-0.515580130682025
30
0
41
1
10
10.3632300018213
20
-0.512976345446845
30
0
41
1
10
10.2970230104628
20
-0.504043821529052
30
0
41
1
10
10.2528319861816
20
-0.496566469618642
30
0
41
1
10
10.1646301258124
20
-0.478289426933458
30
0
41
1
10
10.1205536834008
20
-0.467615030425719
30
0
41
1
10
10.0546530412034
20
-0.449319549776476
30
0
41
1
10
10.0327289454577
20
-0.442816677800579
30
0
41
1
10
9.98882250797706
20
-0.429082840923996
30
0
41
1
10
9.96681376284135
20
-0.421881351430159
30
0
41
1
10
9.90057080990579
20
-0.399303918507115
30
0
41
1
10
9.85614067028291
20
-0.3829539021269
30
0
41
1
10
9.78914103108551
20
-0.356607747923846
30
0
41
1
10
9.76680522206036
20
-0.347541407682684
30
0
41
1
10
9.72232433858284
20
-0.328843719035177
30
0
41
1
10
9.70015346544758
20
-0.319203586671648
30
0
41
1
10
9.65600984041345
20
-0.299227509268235
30
0
41
1
10
9.63402189761248
20
-0.288909279575336
30
0
41
1
10
9.58999929313231
20
-0.267957683974174
30
0
41
1
10
9.56795542373951
20
-0.257342910000517
30
0
41
1
10
9.50174146229745
20
-0.225114465931483
30
0
41
1
10
9.45748413052823
20
-0.203153639473356
30
0
41
1
10
9.36892656313927
20
-0.157894419030868
30
0
41
1
10
9.32464594213965
20
-0.134540976386461
30
0
41
1
10
9.2804248913387
20
-0.110251351054615
30
0
0
SPLINE
5
DD
100
AcDbEntity
8
SK1
62
256
6
ByLayer
370
18
48
1
60
0
100
AcDbSpline
70
4
71
3
72
8
73
4
40
0
40
0
40
0
40
0
40
1
40
1
40
1
40
1
41
1
10
18.3806416606242
20
-0.538813471760136
30
0
41
1
10
18.4352902658131
20
-0.457516011337305
30
0
41
1
10
18.4904361024204
20
-0.373964749011378
30
0
41
1
10
18.5460287215463
20
-0.288134537222334
30
0
0
SPLINE
5
DE
100
AcDbEntity
8
SK1
62
256
6
ByLayer
370
18
48
1
60
0
100
AcDbSpline
70
4
71
3
72
8
73
4
40
0
40
0
40
0
40
0
40
1
40
1
40
1
40
1
41
1
10
9.28042489133898
20
-0.110251351054046
30
0
41
1
10
9.26058142780158
20
-0.0993517843119776
30
0
41
1
10
9.24066566714626
20
-0.0896714086165389
30
0
41
1
10
9.22081658766689
20
-0.0811290902114763
30
0
0
SPLINE
5
DF
100
AcDbEntity
8
SK1
62
256
6
ByLayer
370
18
48
1
60
0
100
AcDbSpline
70
4
71
3
72
52
73
48
40
0
40
0
40
0
40
0
40
0.0221508146512005
40
0.0221508146512005
40
0.0694813657493842
40
0.0694813657493842
40
0.116811916847568
40
0.116811916847568
40
0.164142467945752
40
0.164142467945752
40
0.211473019043935
40
0.211473019043935
40
0.235138294593027
40
0.235138294593027
40
0.258803570142119
40
0.258803570142119
40
0.353464672338481
40
0.353464672338481
40
0.40079522343666
40
0.40079522343666
40
0.424460498985752
40
0.424460498985752
40
0.448125774534844
40
0.448125774534844
40
0.542786876731216
40
0.542786876731216
40
0.590117427829402
40
0.590117427829402
40
0.637447978927589
40
0.637447978927589
40
0.661113254476682
40
0.661113254476682
40
0.684778530025775
40
0.684778530025775
40
0.732109081123962
40
0.732109081123962
40
0.779439632222148
40
0.779439632222148
40
0.826770183320334
40
0.826770183320334
40
0.87410073441852
40
0.87410073441852
40
0.921431285516706
40
0.921431285516706
40
0.968761836614893
40
0.968761836614893
40
1
40
1
40
1
40
1
41
1
10
15.4218221142282
20
-0.543911222363903
30
0
41
1
10
15.3996066429079
20
-0.543869410286845
30
0
41
1
10
15.3774228205186
20
-0.543380334513898
30
0
41
1
10
15.3080259621188
20
-0.54047403732514
30
0
41
1
10
15.2609258180305
20
-0.536511793273917
30
0
41
1
10
15.167047167477
20
-0.524713738649183
30
0
41
1
10
15.1202736425167
20
-0.516859157036578
30
0
41
1
10
15.0266418920731
20
-0.497445099755566
30
0
41
1
10
14.979787571201
20
-0.485889346279748
30
0
41
1
10
14.8857355960709
20
-0.4592784920452
30
0
41
1
10
14.8385539908849
20
-0.444211478074948
30
0
41
1
10
14.7673817928661
20
-0.419062701444375
30
0
41
1
10
14.7435966184605
20
-0.410256965299652
30
0
41
1
10
14.696244567616
20
-0.391987089354274
30
0
41
1
10
14.672627454035
20
-0.38250788943958
30
0
41
1
10
14.5547629670436
20
-0.333506498805065
30
0
41
1
10
14.4612126202639
20
-0.289118068081791
30
0
41
1
10
14.3204367674872
20
-0.217152937586377
30
0
41
1
10
14.2734436816459
20
-0.192256992764072
30
0
41
1
10
14.2026618353916
20
-0.153846386206794
30
0
41
1
10
14.1790176726913
20
-0.140867597724423
30
0
41
1
10
14.1315868001465
20
-0.114628896275605
30
0
41
1
10
14.1077565830669
20
-0.101348013261713
30
0
41
1
10
13.9890561112469
20
-0.0348560918728538
30
0
41
1
10
13.8951168790902
20
0.0189788875927945
30
0
41
1
10
13.7544014273377
20
0.0983095952670396
30
0
41
1
10
13.7075778881941
20
0.124601982643838
30
0
41
1
10
13.6136328556466
20
0.17606521281607
30
0
41
1
10
13.5665164973966
20
0.201246115056989
30
0
41
1
10
13.4954096688837
20
0.237816407010115
30
0
41
1
10
13.4715989672231
20
0.249833281296304
30
0
41
1
10
13.4240206601629
20
0.273354880101834
30
0
41
1
10
13.4003025886171
20
0.284837651526658
30
0
41
1
10
13.3293245949234
20
0.318407604849682
30
0
41
1
10
13.2822235114523
20
0.339589543514251
30
0
41
1
10
13.1882275703448
20
0.379273035048499
30
0
41
1
10
13.1413984088046
20
0.397855324007594
30
0
41
1
10
13.0476106890888
20
0.431898164011528
30
0
41
1
10
13.0006561306567
20
0.447368989855278
30
0
41
1
10
12.9063313849211
20
0.474908971380103
30
0
41
1
10
12.8589760136747
20
0.486997488643624
30
0
41
1
10
12.763727842541
20
0.507607956937932
30
0
41
1
10
12.7163171404161
20
0.516015433379778
30
0
41
1
10
12.6219215216066
20
0.528894467297818
30
0
41
1
10
12.5749076989642
20
0.533388777516365
30
0
41
1
10
12.4969509467415
20
0.537583479485136
30
0
41
1
10
12.4659948572614
20
0.538394055416177
30
0
41
1
10
12.4350166919128
20
0.538343725665698
30
0
0
SPLINE
5
E0
100
AcDbEntity
8
SK1
62
256
6
ByLayer
370
18
48
1
60
0
100
AcDbSpline
70
4
71
3
72
10
73
6
40
0
40
0
40
0
40
0
40
0.219967924744634
40
0.219967924744634
40
1
40
1
40
1
40
1
41
1
10
9.45045490175053
20
-0.53278285852852
30
0
41
1
10
9.43701307667061
20
-0.532760051352483
30
0
41
1
10
9.42357598778224
20
-0.532577147746736
30
0
41
1
10
9.3624972467174
20
-0.531018881044275
30
0
41
1
10
9.31488172426569
20
-0.527789099751885
30
0
41
1
10
9.26712570600074
20
-0.522576948446954
30
0
0
SPLINE
5
E1
100
AcDbEntity
8
SK1
62
256
6
ByLayer
370
18
48
1
60
0
100
AcDbSpline
70
4
71
3
72
16
73
12
40
0
40
0
40
0
40
0
40
0.250000000000022
40
0.250000000000022
40
0.500000000000043
40
0.500000000000043
40
0.750000000000065
40
0.750000000000065
40
0.875000000000032
40
0.875000000000032
40
1
40
1
40
1
40
1
41
1
10
9.26712570600077
20
-0.522576948446954
30
0
41
1
10
9.26194622081451
20
-0.522011652983622
30
0
41
1
10
9.25692564043248
20
-0.521384852750828
30
0
41
1
10
9.24723658224701
20
-0.519977638846029
30
0
41
1
10
9.24256475765966
20
-0.519198713141606
30
0
41
1
10
9.23372765974125
20
-0.517413382309655
30
0
41
1
10
9.22950066056478
20
-0.516405437348681
30
0
41
1
10
9.22409862775456
20
-0.514579486748971
30
0
41
1
10
9.22246872187421
20
-0.513920947239029
30
0
41
1
10
9.21994307328774
20
-0.512465476569275
30
0
41
1
10
9.21902509073809
20
-0.511664541747479
30
0
41
1
10
9.21904674328505
20
-0.510810206078958
30
0
0
SPLINE
5
E2
100
AcDbEntity
8
SK1
62
256
6
ByLayer
370
18
48
1
60
0
100
AcDbSpline
70
4
71
3
72
27
73
23
40
0
40
0
40
0
40
0
40
0.125
40
0.125
40
0.1875
40
0.1875
40
0.25
40
0.25
40
0.375
40
0.5
40
0.5
40
0.5625
40
0.5625
40
0.625
40
0.625
40
0.75
40
0.75
40
0.8125
40
0.8125
40
0.875
40
0.875
40
1
40
1
40
1
40
1
41
1
10
9.21904674328238
20
-0.510810206078048
30
0
41
1
10
9.21922620912639
20
-0.503729096437468
30
0
41
1
10
9.21938261356652
20
-0.494999894056747
30
0
41
1
10
9.21958868991155
20
-0.479471200235679
30
0
41
1
10
9.21965262068156
20
-0.473887634930548
30
0
41
1
10
9.21977192227271
20
-0.461893618469531
30
0
41
1
10
9.21982740665163
20
-0.455467806785947
30
0
41
1
10
9.21998169859617
20
-0.435013549074796
30
0
41
1
10
9.22015239581344
20
-0.405023332210021
30
0
41
1
10
9.22027506334297
20
-0.36980110533446
30
0
41
1
10
9.22035600792319
20
-0.341379030766717
30
0
41
1
10
9.22038122751388
20
-0.331527735284226
30
0
41
1
10
9.22042843856769
20
-0.311386285958292
30
0
41
1
10
9.22045045771029
20
-0.301096271929936
30
0
41
1
10
9.22051341664834
20
-0.269583453060051
30
0
41
1
10
9.22055132956888
20
-0.247720989944128
30
0
41
1
10
9.22060722633697
20
-0.213647868307959
30
0
41
1
10
9.22062567751968
20
-0.202076142639299
30
0
41
1
10
9.22066285962973
20
-0.178495115234682
30
0
41
1
10
9.22068162790711
20
-0.166462191678193
30
0
41
1
10
9.2207381965859
20
-0.13027146850942
30
0
41
1
10
9.22077662864453
20
-0.105845922463089
30
0
41
1
10
9.22081658768028
20
-0.0811290902108226
30
0
0
SPLINE
5
E3
100
AcDbEntity
8
SK1
62
256
6
ByLayer
370
18
48
1
60
0
100
AcDbSpline
70
4
71
3
72
26
73
22
40
0
40
0
40
0
40
0
40
0.125000000000006
40
0.125000000000006
40
0.250000000000011
40
0.250000000000011
40
0.31250000000001
40
0.31250000000001
40
0.375000000000009
40
0.375000000000009
40
0.500000000000008
40
0.500000000000008
40
0.562500000000007
40
0.562500000000007
40
0.625000000000006
40
0.625000000000006
40
0.750000000000004
40
0.750000000000004
40
0.875000000000002
40
0.875000000000002
40
1
40
1
40
1
40
1
41
1
10
8.16320776045842
20
0.433734449614917
30
0
41
1
10
8.20749773008919
20
0.419359226525899
30
0
41
1
10
8.2517574118576
20
0.403849669468741
30
0
41
1
10
8.34009382509123
20
0.370590649330211
30
0
41
1
10
8.38418066745683
20
0.352853550852871
30
0
41
1
10
8.45006799513516
20
0.324415420517369
30
0
41
1
10
8.47199113921934
20
0.314630446340629
30
0
41
1
10
8.51575896673907
20
0.294433544594028
30
0
41
1
10
8.53759735964553
20
0.284009444449708
30
0
41
1
10
8.60330106280304
20
0.252257687040782
30
0
41
1
10
8.64737430873447
20
0.230500066349805
30
0
41
1
10
8.71375826570272
20
0.196816841769191
30
0
41
1
10
8.73592965062659
20
0.185408913924135
30
0
41
1
10
8.78034455808685
20
0.162197072395628
30
0
41
1
10
8.8026304578068
20
0.150371888185958
30
0
41
1
10
8.86919955354787
20
0.11439971849228
30
0
41
1
10
8.91307776395394
20
0.0895944752793127
30
0
41
1
10
9.00104938751477
20
0.0405780085041556
30
0
41
1
10
9.0450801690065
20
0.0162483051378786
30
0
41
1
10
9.13304097922418
20
-0.0324115100765425
30
0
41
1
10
9.17697954801724
20
-0.0567258716625929
30
0
41
1
10
9.22081658766723
20
-0.0811290902099415
30
0
0
SPLINE
5
E4
100
AcDbEntity
8
SK1
62
256
6
ByLayer
370
18
48
1
60
0
100
AcDbSpline
70
4
71
3
72
10
73
6
40
0
40
0
40
0
40
0
40
0.5
40
0.5
40
1
40
1
40
1
40
1
41
1
10
8.16320776045893
20
0.433734449614747
30
0
41
1
10
8.15837023206205
20
0.43530456922619
30
0
41
1
10
8.15396245650302
20
0.437162406585514
30
0
41
1
10
8.14587840460112
20
0.441319272880634
30
0
41
1
10
8.14219477200027
20
0.443633286611316
30
0
41
1
10
8.13896997743012
20
0.446072447210412
30
0
0
SPLINE
5
E5
100
AcDbEntity
8
SK1
62
256
6
ByLayer
370
18
48
1
60
0
100
AcDbSpline
70
4
71
3
72
80
73
76
40
0
40
0
40
0
40
0
40
0.0362569182830525
40
0.0362569182830525
40
0.0576601118594843
40
0.0576601118594843
40
0.0790633054359162
40
0.0790633054359162
40
0.100466499012348
40
0.100466499012348
40
0.12186969258878
40
0.12186969258878
40
0.164676079741643
40
0.164676079741643
40
0.186079273318077
40
0.186079273318077
40
0.207482466894511
40
0.207482466894511
40
0.228885660470945
40
0.228885660470945
40
0.250288854047379
40
0.250288854047379
40
0.271692047623813
40
0.271692047623813
40
0.293095241200246
40
0.293095241200246
40
0.335901628353114
40
0.335901628353114
40
0.357304821929548
40
0.357304821929548
40
0.378708015505982
40
0.378708015505982
40
0.400111209082416
40
0.400111209082416
40
0.42151440265885
40
0.42151440265885
40
0.464320789811713
40
0.464320789811713
40
0.485723983388145
40
0.485723983388145
40
0.507127176964577
40
0.507127176964577
40
0.54993356411744
40
0.54993356411744
40
0.571336757693872
40
0.571336757693872
40
0.592739951270304
40
0.592739951270304
40
0.635546338423172
40
0.635546338423172
40
0.67835272557604
40
0.67835272557604
40
0.721159112728907
40
0.721159112728907
40
0.742562306305339
40
0.742562306305339
40
0.763965499881771
40
0.763965499881771
40
0.806771887034631
40
0.806771887034631
40
0.84957827418749
40
0.84957827418749
40
0.870981467763922
40
0.870981467763922
40
0.892384661340354
40
0.892384661340354
40
0.913787854916786
40
0.913787854916786
40
0.935191048493218
40
0.935191048493218
40
0.956594242069649
40
0.956594242069649
40
0.977997435646081
40
0.977997435646081
40
1
40
1
40
1
40
1
41
1
10
18.1931046984841
20
-0.549076820938581
30
0
41
1
10
18.1470703305606
20
-0.548980069270897
30
0
41
1
10
18.1008702688522
20
-0.546973165124484
30
0
41
1
10
18.0271457920235
20
-0.540717407962546
30
0
41
1
10
17.9997163625411
20
-0.537716534034814
30
0
41
1
10
17.9447379658476
20
-0.530338698359401
30
0
41
1
10
17.917365230376
20
-0.525985156155286
30
0
41
1
10
17.8627613861724
20
-0.516009912243305
30
0
41
1
10
17.8355195474692
20
-0.510394028257224
30
0
41
1
10
17.7810465392482
20
-0.498012414613981
30
0
41
1
10
17.7538302906303
20
-0.491238700606772
30
0
41
1
10
17.6722583839912
20
-0.469182580831784
30
0
41
1
10
17.6179794449421
20
-0.452170451528986
30
0
41
1
10
17.5366081674108
20
-0.423204751395332
30
0
41
1
10
17.5094821950607
20
-0.412980169352494
30
0
41
1
10
17.4550336117865
20
-0.391613667209242
30
0
41
1
10
17.4277157950959
20
-0.380470436093162
30
0
41
1
10
17.3729092072659
20
-0.357248564223994
30
0
41
1
10
17.3453821671734
20
-0.345151853327934
30
0
41
1
10
17.2903116087395
20
-0.320099139101671
30
0
41
1
10
17.2628760346514
20
-0.307199907414059
30
0
41
1
10
17.2082229972298
20
-0.280628524259214
30
0
41
1
10
17.1810177838433
20
-0.266935591676514
30
0
41
1
10
17.1266505234587
20
-0.239050252632069
30
0
41
1
10
17.0994760746891
20
-0.224879134660227
30
0
41
1
10
17.0179485544879
20
-0.18174920153541
30
0
41
1
10
16.9636066996936
20
-0.152151699047238
30
0
41
1
10
16.8820198305994
20
-0.106640669173345
30
0
41
1
10
16.8548231260563
20
-0.0912639636379424
30
0
41
1
10
16.8003853125077
20
-0.0601604801504436
30
0
41
1
10
16.7731283667879
20
-0.0444610490000628
30
0
41
1
10
16.718381880605
20
-0.0130481440523909
30
0
41
1
10
16.6908598138633
20
0.0027126770279722
30
0
41
1
10
16.6357839550177
20
0.0341231782642524
30
0
41
1
10
16.6083276368175
20
0.0497249752680489
30
0
41
1
10
16.526180334169
20
0.0961927635163704
30
0
41
1
10
16.4717512859188
20
0.126794160015407
30
0
41
1
10
16.3903607484043
20
0.171679315202198
30
0
41
1
10
16.3632455785683
20
0.186424097398913
30
0
41
1
10
16.3089203751867
20
0.215278311871259
30
0
41
1
10
16.2817214764064
20
0.229407449569578
30
0
41
1
10
16.2000345715327
20
0.270937627298849
30
0
41
1
10
16.1454569734798
20
0.297485573097816
30
0
41
1
10
16.0633245532888
20
0.335401148627568
30
0
41
1
10
16.0358617855562
20
0.347748046593949
30
0
41
1
10
15.9808768304989
20
0.371425235597229
30
0
41
1
10
15.9534372643422
20
0.382708682754526
30
0
41
1
10
15.871261506294
20
0.414946767316906
30
0
41
1
10
15.8166711788594
20
0.434308133402823
30
0
41
1
10
15.7079197871023
20
0.468865097838744
30
0
41
1
10
15.6537877796467
20
0.484040351883579
30
0
41
1
10
15.5449422201775
20
0.509259213148994
30
0
41
1
10
15.4902769363818
20
0.519387870184886
30
0
41
1
10
15.4079420516914
20
0.530825323811229
30
0
41
1
10
15.3803963332869
20
0.534013665886533
30
0
41
1
10
15.3253823934302
20
0.539045601756413
30
0
41
1
10
15.297979536255
20
0.540877386456458
30
0
41
1
10
15.2159268578091
20
0.544328303949897
30
0
41
1
10
15.1613871390536
20
0.543912563416001
30
0
41
1
10
15.0524247108564
20
0.537876710490082
30
0
41
1
10
14.998066826604
20
0.532240210970514
30
0
41
1
10
14.9164918895172
20
0.519831447429453
30
0
41
1
10
14.889290554507
20
0.515033666297313
30
0
41
1
10
14.8347038544362
20
0.504202590019702
30
0
41
1
10
14.8073160872231
20
0.498175514772044
30
0
41
1
10
14.7523691372562
20
0.484890712442478
30
0
41
1
10
14.7247602544891
20
0.477615146125629
30
0
41
1
10
14.6696054603469
20
0.461886371876432
30
0
41
1
10
14.6421278712631
20
0.453459950927851
30
0
41
1
10
14.5873680898373
20
0.435491849308676
30
0
41
1
10
14.560103490342
20
0.425928566659025
30
0
41
1
10
14.5056342775541
20
0.405834253347592
30
0
41
1
10
14.4784113288557
20
0.395326810166949
30
0
41
1
10
14.423180020591
20
0.373166983019331
30
0
41
1
10
14.3951833830847
20
0.361477497833505
30
0
41
1
10
14.3671804707125
20
0.349340531584289
30
0
0
SPLINE
5
E6
100
AcDbEntity
8
SK1
62
256
6
ByLayer
370
18
48
1
60
0
100
AcDbSpline
70
4
71
3
72
74
73
70
40
0
40
0
40
0
40
0
40
0.0122642338266462
40
0.0122642338266462
40
0.0338559744992784
40
0.0338559744992784
40
0.0554477151719105
40
0.0554477151719105
40
0.0986311965171763
40
0.0986311965171763
40
0.141814677862442
40
0.141814677862442
40
0.163406418535075
40
0.163406418535075
40
0.184998159207709
40
0.184998159207709
40
0.206589899880341
40
0.206589899880341
40
0.228181640552975
40
0.228181640552975
40
0.249773381225608
40
0.249773381225608
40
0.271365121898241
40
0.271365121898241
40
0.314548603243509
40
0.314548603243509
40
0.357732084588777
40
0.357732084588777
40
0.379323825261411
40
0.379323825261411
40
0.400915565934045
40
0.400915565934045
40
0.444099047279314
40
0.444099047279314
40
0.487282528624582
40
0.487282528624582
40
0.53046600996985
40
0.53046600996985
40
0.552057750642484
40
0.552057750642484
40
0.573649491315118
40
0.573649491315118
40
0.616832972660387
40
0.616832972660387
40
0.638424713333021
40
0.638424713333021
40
0.660016454005655
40
0.660016454005655
40
0.703199935350923
40
0.703199935350923
40
0.724791676023559
40
0.724791676023559
40
0.746383416696194
40
0.746383416696194
40
0.789566898041464
40
0.789566898041464
40
0.832750379386734
40
0.832750379386734
40
0.875933860732005
40
0.875933860732005
40
0.897525601404639
40
0.897525601404639
40
0.919117342077273
40
0.919117342077273
40
0.940709082749907
40
0.940709082749907
40
0.96230082342254
40
0.96230082342254
40
1
40
1
40
1
40
1
41
1
10
12.2005547327473
20
-0.537907185074971
30
0
41
1
10
12.1849808118263
20
-0.537872037774321
30
0
41
1
10
12.169380656218
20
-0.537622363165781
30
0
41
1
10
12.1262281517977
20
-0.536340385329538
30
0
41
1
10
12.0985959708841
20
-0.534855859630284
30
0
41
1
10
12.0432949316105
20
-0.530538887700828
30
0
41
1
10
12.0157561148577
20
-0.527716972083397
30
0
41
1
10
11.933414532622
20
-0.517290026616138
30
0
41
1
10
11.8789052104643
20
-0.507688052824676
30
0
41
1
10
11.7696955857719
20
-0.483885914493925
30
0
41
1
10
11.715117683706
20
-0.469638907029662
30
0
41
1
10
11.6332056588199
20
-0.444812503857435
30
0
41
1
10
11.6059005034271
20
-0.43595228484233
30
0
41
1
10
11.5512555945668
20
-0.417062318044742
30
0
41
1
10
11.5238937614056
20
-0.407053813172524
30
0
41
1
10
11.4689227793287
20
-0.386110127491577
30
0
41
1
10
11.4413126260835
20
-0.375154096014256
30
0
41
1
10
11.3859471238328
20
-0.352299599989152
30
0
41
1
10
11.3583543876564
20
-0.340468254850123
30
0
41
1
10
11.3033234102812
20
-0.316044576924867
30
0
41
1
10
11.275887026235
20
-0.303449961683214
30
0
41
1
10
11.2211962921215
20
-0.277456272316584
30
0
41
1
10
11.1939398800836
20
-0.264058080172958
30
0
41
1
10
11.1121367544021
20
-0.223139292644447
30
0
41
1
10
11.0575603339773
20
-0.19489986831536
30
0
41
1
10
10.9482398089281
20
-0.136688464574235
30
0
41
1
10
10.8934802145332
20
-0.10674293803936
30
0
41
1
10
10.8110952468091
20
-0.0606714663604464
30
0
41
1
10
10.7835852222337
20
-0.0451327780026816
30
0
41
1
10
10.7282647848547
20
-0.0140726085833478
30
0
41
1
10
10.7006506236941
20
0.0013900588097613
30
0
41
1
10
10.6180362276449
20
0.0475232226066851
30
0
41
1
10
10.5632111024686
20
0.0779480521823075
30
0
41
1
10
10.4539694746894
20
0.137980398537309
30
0
41
1
10
10.3995863823199
20
0.167633624937196
30
0
41
1
10
10.2902838793726
20
0.224459865223025
30
0
41
1
10
10.2354369799884
20
0.251772012976971
30
0
41
1
10
10.1528811626384
20
0.291082380269842
30
0
41
1
10
10.1253144260387
20
0.303907278069403
30
0
41
1
10
10.0700536090346
20
0.328935100114222
30
0
41
1
10
10.0424695701231
20
0.341061540059911
30
0
41
1
10
9.95991678966004
20
0.375764902052652
30
0
41
1
10
9.90502456785336
20
0.396785777752086
30
0
41
1
10
9.82291124252552
20
0.425303263040661
30
0
41
1
10
9.79558148287785
20
0.434307493506537
30
0
41
1
10
9.74099439507532
20
0.451286508048554
30
0
41
1
10
9.71374446629554
20
0.459265426949969
30
0
41
1
10
9.63187593750422
20
0.481416652210925
30
0
41
1
10
9.57709749402565
20
0.493783481908082
30
0
41
1
10
9.49445677673333
20
0.508634047027186
30
0
41
1
10
9.46684212599621
20
0.512974053341935
30
0
41
1
10
9.41147345614098
20
0.52040106041116
30
0
41
1
10
9.38380304837796
20
0.523476035672871
30
0
41
1
10
9.30120487192093
20
0.53067168451031
30
0
41
1
10
9.24646338506926
20
0.532772721677418
30
0
41
1
10
9.13694352644126
20
0.531726949844057
30
0
41
1
10
9.08224230502347
20
0.528609378843811
30
0
41
1
10
8.97288687732066
20
0.517168970415213
30
0
41
1
10
8.91828123798666
20
0.508781815869355
30
0
41
1
10
8.83573632418288
20
0.492502600775794
30
0
41
1
10
8.80812223996588
20
0.486465287936198
30
0
41
1
10
8.75271198729089
20
0.473150036939074
30
0
41
1
10
8.72495003519055
20
0.465877149781164
30
0
41
1
10
8.66972519177827
20
0.450244845986447
30
0
41
1
10
8.64220142118347
20
0.441871733295187
30
0
41
1
10
8.58733900158234
20
0.424000910584453
30
0
41
1
10
8.56000230353973
20
0.414497218956512
30
0
41
1
10
8.4849194727303
20
0.387164558735066
30
0
41
1
10
8.4371532533624
20
0.368441729697679
30
0
41
1
10
8.38935444590754
20
0.348416565290762
30
0
0
SPLINE
5
E7
100
AcDbEntity
8
SK1
62
256
6
ByLayer
370
18
48
1
60
0
100
AcDbSpline
70
4
71
3
72
56
73
52
40
0
40
0
40
0
40
0
40
0.0487044577704575
40
0.0487044577704575
40
0.0974089155409149
40
0.0974089155409149
40
0.121761144426146
40
0.121761144426146
40
0.146113373311378
40
0.194817831081841
40
0.194817831081841
40
0.243522288852303
40
0.243522288852303
40
0.292226746622766
40
0.292226746622766
40
0.316578975507995
40
0.316578975507995
40
0.340931204393224
40
0.340931204393224
40
0.389635662163686
40
0.389635662163686
40
0.438340119934149
40
0.438340119934149
40
0.487044577704612
40
0.487044577704612
40
0.535749035475075
40
0.535749035475075
40
0.560101264360309
40
0.560101264360309
40
0.584453493245543
40
0.584453493245543
40
0.633157951016016
40
0.633157951016016
40
0.68186240878649
40
0.68186240878649
40
0.730566866556963
40
0.754919095442197
40
0.754919095442197
40
0.779271324327432
40
0.779271324327432
40
0.8279757820979
40
0.8279757820979
40
0.876680239868368
40
0.876680239868368
40
0.925384697638836
40
0.925384697638836
40
0.974089155409304
40
0.974089155409304
40
0.998441384294538
40
0.998441384294538
40
1
40
1
40
1
40
1
41
1
10
18.3196520106122
20
-0.546864194752715
30
0
41
1
10
18.2724419544605
20
-0.544182400400928
30
0
41
1
10
18.225305546316
20
-0.539457847612567
30
0
41
1
10
18.1309003167864
20
-0.526109567463465
30
0
41
1
10
18.0836423841615
20
-0.517486460864717
30
0
41
1
10
18.0125593758628
20
-0.501679079345251
30
0
41
1
10
17.9888434104812
20
-0.495931196095256
30
0
41
1
10
17.941613108644
20
-0.48357647157502
30
0
41
1
10
17.8709583095832
20
-0.463732463842007
30
0
41
1
10
17.8007136235982
20
-0.440137202458629
30
0
41
1
10
17.7071459517456
20
-0.405670393736983
30
0
41
1
10
17.6604058442836
20
-0.386939583983519
30
0
41
1
10
17.5668485801694
20
-0.346667486864135
30
0
41
1
10
17.520040539731
20
-0.325107752686364
30
0
41
1
10
17.4495034401832
20
-0.290978971888478
30
0
41
1
10
17.4259343429001
20
-0.279309258765579
30
0
41
1
10
17.3786469064744
20
-0.255431821263358
30
0
41
1
10
17.3549062298322
20
-0.243209867198288
30
0
41
1
10
17.2839948632773
20
-0.206105259951414
30
0
41
1
10
17.2369526841247
20
-0.18069273944073
30
0
41
1
10
17.1430621723148
20
-0.128994584282481
30
0
41
1
10
17.0961992072865
20
-0.102735238593709
30
0
41
1
10
17.0025722069262
20
-0.0495139333965824
30
0
41
1
10
16.9558381207519
20
-0.022497445329634
30
0
41
1
10
16.862122145499
20
0.0316389049634154
30
0
41
1
10
16.8151170889813
20
0.0587164712789843
30
0
41
1
10
16.7441871320799
20
0.0989877935700463
30
0
41
1
10
16.7204266510183
20
0.112382026325349
30
0
41
1
10
16.6730581242981
20
0.138819203326363
30
0
41
1
10
16.6494347844112
20
0.151871252040479
30
0
41
1
10
16.5786959032018
20
0.190451998448623
30
0
41
1
10
16.5317031380692
20
0.215392991341503
30
0
41
1
10
16.4378922053416
20
0.263496624003523
30
0
41
1
10
16.3910867697203
20
0.286676826664632
30
0
41
1
10
16.2973977816569
20
0.330855509325431
30
0
41
1
10
16.2270672901899
20
0.362346609348236
30
0
41
1
10
16.1563549253533
20
0.390933655329547
30
0
41
1
10
16.1090851287998
20
0.409283358322824
30
0
41
1
10
16.085347929096
20
0.418118688521901
30
0
41
1
10
16.0141691151721
20
0.443391148614722
30
0
41
1
10
15.9669736528664
20
0.458517467028827
30
0
41
1
10
15.8728721166626
20
0.485225300417426
30
0
41
1
10
15.8259522139994
20
0.496800048406357
30
0
41
1
10
15.7323032222641
20
0.516343641340512
30
0
41
1
10
15.6855261548736
20
0.524268561610626
30
0
41
1
10
15.5916953691084
20
0.536226481524608
30
0
41
1
10
15.5446253838465
20
0.540268115102094
30
0
41
1
10
15.4737766470185
20
0.543360735839002
30
0
41
1
10
15.4501180286012
20
0.543892804239988
30
0
41
1
10
15.4248598368603
20
0.543914849206658
30
0
41
1
10
15.4233406191318
20
0.543914080883496
30
0
41
1
10
15.4218215493846
20
0.543911221300704
30
0
0
SPLINE
5
E8
100
AcDbEntity
8
SK1
62
256
6
ByLayer
370
18
48
1
60
0
100
AcDbSpline
70
4
71
3
72
46
73
42
40
0
40
0
40
0
40
0
40
0.0161458819515751
40
0.0161458819515751
40
0.0636337692841316
40
0.0636337692841316
40
0.0873777129504099
40
0.0873777129504099
40
0.111121656616689
40
0.111121656616689
40
0.206097431281804
40
0.206097431281804
40
0.30107320594692
40
0.30107320594692
40
0.324817149613199
40
0.324817149613199
40
0.348561093279477
40
0.348561093279477
40
0.396048980612034
40
0.396048980612034
40
0.491024755277147
40
0.491024755277147
40
0.538512642609704
40
0.538512642609704
40
0.58600052994226
40
0.58600052994226
40
0.680976304607376
40
0.680976304607376
40
0.728464191939934
40
0.728464191939934
40
0.752208135606215
40
0.752208135606215
40
0.775952079272495
40
0.775952079272495
40
0.870927853937622
40
0.870927853937622
40
0.965903628602748
40
0.965903628602748
40
0.989647572269029
40
0.989647572269029
40
1
40
1
40
1
40
1
41
1
10
12.4350166916687
20
-0.538343725665243
30
0
41
1
10
12.4190582424237
20
-0.538317798215019
30
0
41
1
10
12.4030939346604
20
-0.538063402669906
30
0
41
1
10
12.3401199112744
20
-0.536158353693423
30
0
41
1
10
12.2930109494687
20
-0.532765246714348
30
0
41
1
10
12.222029471864
20
-0.52472605964428
30
0
41
1
10
12.1983247818524
20
-0.521551524801851
30
0
41
1
10
12.1508160845388
20
-0.514191602229687
30
0
41
1
10
12.1269887160851
20
-0.510003423340692
30
0
41
1
10
12.0083927765197
20
-0.486791638333415
30
0
41
1
10
11.9144934603124
20
-0.460851819652049
30
0
41
1
10
11.7265790351103
20
-0.396573810857433
30
0
41
1
10
11.6326311004883
20
-0.358163773418397
30
0
41
1
10
11.5139361148347
20
-0.303734339142096
30
0
41
1
10
11.4900847363678
20
-0.292504739175484
30
0
41
1
10
11.4425078479221
20
-0.269577410279084
30
0
41
1
10
11.4187876417656
20
-0.25788355548201
30
0
41
1
10
11.3477814232525
20
-0.222199397937544
30
0
41
1
10
11.3006466795169
20
-0.197611713520303
30
0
41
1
10
11.1594737156431
20
-0.122118144711664
30
0
41
1
10
11.0656853221525
20
-0.0694483600066178
30
0
41
1
10
10.9239770052025
20
0.0103889890982316
30
0
41
1
10
10.8765524500909
20
0.0371589567621129
30
0
41
1
10
10.7812019654772
20
0.0904923821435659
30
0
41
1
10
10.7338115597788
20
0.116736313259338
30
0
41
1
10
10.5921136715746
20
0.193581094731513
30
0
41
1
10
10.4982932876802
20
0.242316399499373
30
0
41
1
10
10.3570157867583
20
0.30922836243468
30
0
41
1
10
10.3098379940718
20
0.330510356196584
30
0
41
1
10
10.2387578572497
20
0.360600689965338
30
0
41
1
10
10.2150110192913
20
0.370323590915092
30
0
41
1
10
10.1673751295618
20
0.389099628344383
30
0
41
1
10
10.1435081537457
20
0.398143568593639
30
0
41
1
10
10.0247107197824
20
0.441239705848034
30
0
41
1
10
9.93064603439689
20
0.469226177967812
30
0
41
1
10
9.74244511599619
20
0.510724791369199
30
0
41
1
10
9.64832855264652
20
0.524247535839095
30
0
41
1
10
9.5293746190701
20
0.531245173174227
30
0
41
1
10
9.50548806170008
20
0.532149927048295
30
0
41
1
10
9.47124037113832
20
0.532722444317358
30
0
41
1
10
9.4608462211055
20
0.53280048981506
30
0
41
1
10
9.45045490151418
20
0.532782858528094
30
0
0
SPLINE
5
E9
100
AcDbEntity
8
SK1
62
256
6
ByLayer
370
18
48
1
60
0
100
AcDbSpline
70
4
71
3
72
10
73
6
40
0
40
0
40
0
40
0
40
0.586252435638561
40
0.586252435638561
40
1
40
1
40
1
40
1
41
1
10
8.16320776045842
20
-0.433734449614917
30
0
41
1
10
8.20749773008913
20
-0.419359226525899
30
0
41
1
10
8.2517574118562
20
-0.403849669469935
30
0
41
1
10
8.32709732335468
20
-0.375483885281483
30
0
41
1
10
8.35822850209968
20
-0.363195940381104
30
0
41
1
10
8.38929082450517
20
-0.350316227768587
30
0
0
SPLINE
5
EA
100
AcDbEntity
8
SK1
62
256
6
ByLayer
370
18
48
1
60
0
100
AcDbSpline
70
4
71
3
72
10
73
6
40
0
40
0
40
0
40
0
40
0.5
40
0.5
40
1
40
1
40
1
40
1
41
1
10
8.1632077604589
20
-0.433734449614747
30
0
41
1
10
8.15837023206203
20
-0.43530456922619
30
0
41
1
10
8.153962456503
20
-0.437162406585514
30
0
41
1
10
8.14587840460112
20
-0.441319272880634
30
0
41
1
10
8.14219477200027
20
-0.443633286611316
30
0
41
1
10
8.13896997743012
20
-0.446072447210412
30
0
0
SPLINE
5
EB
100
AcDbEntity
8
SK1
62
256
6
ByLayer
370
18
48
1
60
0
100
AcDbSpline
70
4
71
3
72
20
73
16
40
0
40
0
40
0
40
0
40
0.125000000000015
40
0.125000000000015
40
0.25000000000003
40
0.25000000000003
40
0.375000000000046
40
0.375000000000046
40
0.500000000000061
40
0.500000000000061
40
0.750000000000092
40
0.750000000000092
40
0.875000000000046
40
0.875000000000046
40
1
40
1
40
1
40
1
41
1
10
7.80329346151134
20
-0.114043204736561
30
0
41
1
10
7.80422276269329
20
-0.110708457845419
30
0
41
1
10
7.80550812343782
20
-0.107522648540225
30
0
41
1
10
7.80887712240749
20
-0.101490466220469
30
0
41
1
10
7.8109759236026
20
-0.098652845576936
30
0
41
1
10
7.81580129741718
20
-0.0936992983781977
30
0
41
1
10
7.81860146241485
20
-0.0915098717390777
30
0
41
1
10
7.82463455555839
20
-0.0879857233805694
30
0
41
1
10
7.82787810157811
20
-0.0866283729702104
30
0
41
1
10
7.83807472274341
20
-0.0837790373468863
30
0
41
1
10
7.84525307296516
20
-0.0835852578383367
30
0
41
1
10
7.85562067884905
20
-0.0852784480731543
30
0
41
1
10
7.85905243703175
20
-0.0861797654002316
30
0
41
1
10
7.86566855640658
20
-0.0885326564188063
30
0
41
1
10
7.86886061504106
20
-0.0899806288415164
30
0
41
1
10
7.87194664657565
20
-0.0916756726388144
30
0
0
SPLINE
5
EC
100
AcDbEntity
8
SK1
62
256
6
ByLayer
370
18
48
1
60
0
100
AcDbSpline
70
4
71
3
72
26
73
22
40
0
40
0
40
0
40
0
40
0.158077841114326
40
0.158077841114326
40
0.316155682228651
40
0.316155682228651
40
0.395194602785814
40
0.395194602785814
40
0.474233523342977
40
0.474233523342977
40
0.55327244390014
40
0.55327244390014
40
0.632311364457302
40
0.632311364457302
40
0.790389205571643
40
0.790389205571643
40
0.869428126128813
40
0.869428126128813
40
0.948467046685984
40
0.948467046685984
40
1
40
1
40
1
40
1
41
1
10
18.3806416606224
20
0.538813471761614
30
0
41
1
10
18.3263529163619
20
0.544832940656022
30
0
41
1
10
18.2723145277157
20
0.548242465764133
30
0
41
1
10
18.1637563755635
20
0.549642254202382
30
0
41
1
10
18.1092444490326
20
0.547683741040288
30
0
41
1
10
18.0271457920234
20
0.540717407962575
30
0
41
1
10
17.9997163625411
20
0.537716534034843
30
0
41
1
10
17.9447379658476
20
0.530338698359429
30
0
41
1
10
17.917365230376
20
0.525985156155315
30
0
41
1
10
17.8627613861724
20
0.516009912243334
30
0
41
1
10
17.8355195474692
20
0.510394028257252
30
0
41
1
10
17.7810465392482
20
0.49801241461401
30
0
41
1
10
17.7538302906303
20
0.4912387006068
30
0
41
1
10
17.6722583839912
20
0.469182580831813
30
0
41
1
10
17.617979444942
20
0.452170451528986
30
0
41
1
10
17.5366081674108
20
0.423204751395332
30
0
41
1
10
17.5094821950607
20
0.412980169352522
30
0
41
1
10
17.4550336117865
20
0.39161366720927
30
0
41
1
10
17.4277157950959
20
0.380470436093191
30
0
41
1
10
17.3824457001667
20
0.361289232052314
30
0
41
1
10
17.3645262950208
20
0.353512462455967
30
0
41
1
10
17.3465862997918
20
0.345544748067681
30
0
0
SPLINE
5
ED
100
AcDbEntity
8
SK1
62
256
6
ByLayer
370
18
48
1
60
0
100
AcDbSpline
70
4
71
3
72
78
73
74
40
0
40
0
40
0
40
0
40
0.0236336209444903
40
0.0236336209444903
40
0.0666037134998419
40
0.0666037134998419
40
0.0880887597775199
40
0.0880887597775199
40
0.109573806055198
40
0.109573806055198
40
0.131058852332876
40
0.131058852332876
40
0.152543898610554
40
0.152543898610554
40
0.174028944888231
40
0.174028944888231
40
0.195513991165909
40
0.195513991165909
40
0.238484083721265
40
0.238484083721265
40
0.259969129998941
40
0.259969129998941
40
0.281454176276617
40
0.281454176276617
40
0.302939222554293
40
0.302939222554293
40
0.324424268831969
40
0.324424268831969
40
0.345909315109645
40
0.345909315109645
40
0.367394361387321
40
0.367394361387321
40
0.410364453942673
40
0.410364453942673
40
0.453334546498024
40
0.453334546498024
40
0.4748195927757
40
0.4748195927757
40
0.496304639053376
40
0.496304639053376
40
0.539274731608728
40
0.539274731608728
40
0.58224482416408
40
0.58224482416408
40
0.625214916719431
40
0.625214916719431
40
0.646699962997107
40
0.646699962997107
40
0.668185009274783
40
0.668185009274783
40
0.711155101830131
40
0.711155101830131
40
0.732640148107803
40
0.732640148107803
40
0.754125194385474
40
0.754125194385474
40
0.797095286940817
40
0.797095286940817
40
0.818580333218489
40
0.818580333218489
40
0.840065379496161
40
0.840065379496161
40
0.883035472051506
40
0.883035472051506
40
0.926005564606852
40
0.926005564606852
40
0.947490610884525
40
0.947490610884525
40
0.968975657162197
40
0.968975657162197
40
0.99046070343987
40
0.99046070343987
40
1
40
1
40
1
40
1
41
1
10
15.1968705182305
20
-0.543493738065166
30
0
41
1
10
15.1668531358302
20
-0.543427199991299
30
0
41
1
10
15.1368706815108
20
-0.542554501426736
30
0
41
1
10
15.0524247108564
20
-0.537876710490053
30
0
41
1
10
14.998066826604
20
-0.532240210970485
30
0
41
1
10
14.9164918895172
20
-0.519831447429425
30
0
41
1
10
14.889290554507
20
-0.515033666297285
30
0
41
1
10
14.8347038544362
20
-0.504202590019673
30
0
41
1
10
14.8073160872232
20
-0.498175514772015
30
0
41
1
10
14.7523691372562
20
-0.48489071244245
30
0
41
1
10
14.7247602544891
20
-0.477615146125601
30
0
41
1
10
14.6696054603469
20
-0.461886371876403
30
0
41
1
10
14.6421278712631
20
-0.453459950927822
30
0
41
1
10
14.5873680898373
20
-0.435491849308647
30
0
41
1
10
14.560103490342
20
-0.425928566658996
30
0
41
1
10
14.5056342775542
20
-0.405834253347564
30
0
41
1
10
14.4784113288557
20
-0.395326810166949
30
0
41
1
10
14.3967083632608
20
-0.362546062219451
30
0
41
1
10
14.3422410401065
20
-0.338964079017614
30
0
41
1
10
14.2604688715335
20
-0.301099316325235
30
0
41
1
10
14.2332149993628
20
-0.288037480312198
30
0
41
1
10
14.1786618626864
20
-0.261085943958278
30
0
41
1
10
14.1513366481846
20
-0.247235305929422
30
0
41
1
10
14.0964434263
20
-0.219020195720105
30
0
41
1
10
14.0688399324933
20
-0.204605506044743
30
0
41
1
10
14.0136532108692
20
-0.175349223409626
30
0
41
1
10
13.9861459338011
20
-0.160549655281983
30
0
41
1
10
13.9312733445292
20
-0.130662268339705
30
0
41
1
10
13.9039110110925
20
-0.115569146007203
30
0
41
1
10
13.8493383419653
20
-0.0850767238557069
30
0
41
1
10
13.8221394254127
20
-0.0696568570083116
30
0
41
1
10
13.7405595170825
20
-0.0233162662094628
30
0
41
1
10
13.6861340315078
20
0.0075748005533285
30
0
41
1
10
13.5769987300312
20
0.0689766644781002
30
0
41
1
10
13.5223223474235
20
0.0995476932348254
30
0
41
1
10
13.4400020462142
20
0.144955841105627
30
0
41
1
10
13.4124667185925
20
0.160042158664794
30
0
41
1
10
13.3573483039538
20
0.189686148981139
30
0
41
1
10
13.3298477554661
20
0.204168066511841
30
0
41
1
10
13.2474862219287
20
0.24658159706911
30
0
41
1
10
13.1927936254297
20
0.273538393296263
30
0
41
1
10
13.0838023152165
20
0.324789094356362
30
0
41
1
10
13.0295611789025
20
0.34913521728771
30
0
41
1
10
12.9204713212856
20
0.393701978483705
30
0
41
1
10
12.8657140335033
20
0.414076990250436
30
0
41
1
10
12.7832167774459
20
0.441688762294802
30
0
41
1
10
12.7556221095354
20
0.450412888532043
30
0
41
1
10
12.7004677403676
20
0.466777229001082
30
0
41
1
10
12.6730157720799
20
0.474374354938334
30
0
41
1
10
12.5907558811199
20
0.495196959508888
30
0
41
1
10
12.5360469922165
20
0.506489619989452
30
0
41
1
10
12.4541429944856
20
0.519686057566673
30
0
41
1
10
12.4268739787281
20
0.523460696272281
30
0
41
1
10
12.3723906483095
20
0.529741235802589
30
0
41
1
10
12.3451793091357
20
0.532245192443867
30
0
41
1
10
12.2634380172039
20
0.537766214402922
30
0
41
1
10
12.2087900362448
20
0.538793139982005
30
0
41
1
10
12.1262281517977
20
0.536340385329538
30
0
41
1
10
12.0985959708841
20
0.534855859630284
30
0
41
1
10
12.0432949316105
20
0.530538887700828
30
0
41
1
10
12.0157561148577
20
0.527716972083397
30
0
41
1
10
11.933414532622
20
0.517290026616138
30
0
41
1
10
11.8789052104643
20
0.507688052824676
30
0
41
1
10
11.769695585772
20
0.483885914493953
30
0
41
1
10
11.715117683706
20
0.46963890702969
30
0
41
1
10
11.6332056588199
20
0.444812503857435
30
0
41
1
10
11.6059005034271
20
0.43595228484233
30
0
41
1
10
11.5512555945668
20
0.417062318044771
30
0
41
1
10
11.5238937614056
20
0.407053813172524
30
0
41
1
10
11.4689227793287
20
0.386110127491577
30
0
41
1
10
11.4413126260835
20
0.375154096014285
30
0
41
1
10
11.4013388159037
20
0.358653183916971
30
0
41
1
10
11.3890655017983
20
0.353499858809812
30
0
41
1
10
11.3768088151491
20
0.348268938597585
30
0
0
SPLINE
5
EE
100
AcDbEntity
8
SK1
62
256
6
ByLayer
370
18
48
1
60
0
100
AcDbSpline
70
4
71
3
72
32
73
28
40
0
40
0
40
0
40
0
40
0.0094104911695217
40
0.0094104911695217
40
0.133234179773328
40
0.133234179773328
40
0.257057868377134
40
0.257057868377134
40
0.31896971267904
40
0.31896971267904
40
0.380881556980945
40
0.380881556980945
40
0.442793401282851
40
0.442793401282851
40
0.504705245584757
40
0.504705245584757
40
0.628528934188569
40
0.628528934188569
40
0.690440778490476
40
0.690440778490476
40
0.752352622792382
40
0.752352622792382
40
0.814264467094287
40
0.814264467094287
40
0.876176311396193
40
0.876176311396193
40
1
40
1
40
1
40
1
41
1
10
9.20418840554743
20
-0.532323554416251
30
0
41
1
10
9.20002676193587
20
-0.532314158069966
30
0
41
1
10
9.19586516210617
20
-0.532289574629402
30
0
41
1
10
9.13694352644129
20
-0.531726949844057
30
0
41
1
10
9.0822423050235
20
-0.528609378843811
30
0
41
1
10
8.97288687732069
20
-0.517168970415213
30
0
41
1
10
8.91828123798669
20
-0.508781815869327
30
0
41
1
10
8.83573632418288
20
-0.492502600775765
30
0
41
1
10
8.80812223996588
20
-0.486465287936198
30
0
41
1
10
8.75271198729089
20
-0.473150036939074
30
0
41
1
10
8.72495003519055
20
-0.465877149781164
30
0
41
1
10
8.66972519177827
20
-0.450244845986447
30
0
41
1
10
8.6422014211835
20
-0.441871733295187
30
0
41
1
10
8.58733900158234
20
-0.424000910584425
30
0
41
1
10
8.56000230353973
20
-0.414497218956512
30
0
41
1
10
8.47797444394533
20
-0.384636336104677
30
0
41
1
10
8.42325507819911
20
-0.362965866740694
30
0
41
1
10
8.34111000675847
20
-0.32790881511994
30
0
41
1
10
8.31370951670672
20
-0.315806986570806
30
0
41
1
10
8.25889116977376
20
-0.290726632390204
30
0
41
1
10
8.23149097250121
20
-0.277717983167349
30
0
41
1
10
8.17654603787761
20
-0.250995058842648
30
0
41
1
10
8.14898397262124
20
-0.237311096494835
30
0
41
1
10
8.09363216697756
20
-0.20938175007791
30
0
41
1
10
8.0658430245997
20
-0.195118766427072
30
0
41
1
10
7.9826779256841
20
-0.15177500290406
30
0
41
1
10
7.92730450813607
20
-0.122081713153278
30
0
41
1
10
7.87194664657636
20
-0.0916756726391839
30
0
0
SPLINE
5
EF
100
AcDbEntity
8
SK1
62
256
6
ByLayer
370
18
48
1
60
0
100
AcDbSpline
70
4
71
3
72
13
73
9
40
0
40
0
40
0
40
0
40
0.310363175612706
40
0.499941924178704
40
0.568468993385798
40
0.643032647784923
40
0.782644952469644
40
1
40
1
40
1
40
1
41
1
10
9.5066354203062
20
-0.524827695092569
30
0
41
1
10
9.61823572718276
20
-0.52505102617701
30
0
41
1
10
9.79800778068031
20
-0.52533220941649
30
0
41
1
10
10.0024237844802
20
-0.525554670397582
30
0
41
1
10
10.1220526623668
20
-0.525604221467717
30
0
41
1
10
10.2237131796657
20
-0.52591256471618
30
0
41
1
10
10.3788904265642
20
-0.525765999389733
30
0
41
1
10
10.5072566555995
20
-0.526026000115195
30
0
41
1
10
10.5854181925421
20
-0.526197215694765
30
0
0
SPLINE
5
F0
100
AcDbEntity
8
SK1
62
256
6
ByLayer
370
18
48
1
60
0
100
AcDbSpline
70
4
71
3
72
12
73
8
40
0
40
0
40
0
40
0
40
0.302575932350511
40
0.511951860148165
40
0.604607358503989
40
0.739839411371422
40
1
40
1
40
1
40
1
41
1
10
15.481955143243
20
-0.530803685581532
30
0
41
1
10
15.5917547755756
20
-0.530963921250731
30
0
41
1
10
15.7775339786419
20
-0.531255054515952
30
0
41
1
10
15.9969376637405
20
-0.53137047819942
30
0
41
1
10
16.1556150718283
20
-0.53175103458301
30
0
41
1
10
16.3327196720903
20
-0.531253673180657
30
0
41
1
10
16.4762022699283
20
-0.531791817130198
30
0
41
1
10
16.5706110715324
20
-0.532306486360653
30
0
0
SPLINE
5
F1
100
AcDbEntity
8
SK1
62
256
6
ByLayer
370
18
48
1
60
0
100
AcDbSpline
70
4
71
3
72
14
73
10
40
0
40
0
40
0
40
0
40
0.252619188038703
40
0.413538754526082
40
0.595587716831694
40
0.661620704458784
40
0.738247692368762
40
0.874076139530306
40
1
40
1
40
1
40
1
41
1
10
13.5784801161045
20
0.529101526927235
30
0
41
1
10
13.4930351219334
20
0.529118857823505
30
0
41
1
10
13.3531614811089
20
0.529076830909474
30
0
41
1
10
13.1517135446135
20
0.528460642752947
30
0
41
1
10
13.0133745988987
20
0.528513316466103
30
0
41
1
10
12.903546002103
20
0.528342883330993
30
0
41
1
10
12.8093537849088
20
0.528226911395592
30
0
41
1
10
12.6949090509556
20
0.527927262993273
30
0
41
1
10
12.6063823016823
20
0.527786945863909
30
0
41
1
10
12.5637943102448
20
0.527730401050746
30
0
0
SPLINE
5
F2
100
AcDbEntity
8
SK1
62
256
6
ByLayer
370
18
48
1
60
0
100
AcDbSpline
70
4
71
3
72
14
73
10
40
0
40
0
40
0
40
0
40
0.147320986125922
40
0.242673688897655
40
0.353817128766566
40
0.488287951212193
40
0.596063278431193
40
0.735968684539033
40
1
40
1
40
1
40
1
41
1
10
12.4889823716958
20
-0.527640293607647
30
0
41
1
10
12.5424824212791
20
-0.527688505095171
30
0
41
1
10
12.6306109511961
20
-0.527799483425582
30
0
41
1
10
12.7591042123356
20
-0.528124544469506
30
0
41
1
10
12.8829320827579
20
-0.528317448726682
30
0
41
1
10
13.0112730470459
20
-0.528521419696347
30
0
41
1
10
13.1500567836895
20
-0.528549724116459
30
0
41
1
10
13.3358944881735
20
-0.528949910410859
30
0
41
1
10
13.4825917651717
20
-0.529051687443655
30
0
41
1
10
13.5784801161048
20
-0.529101526927235
30
0
0
SPLINE
5
F3
100
AcDbEntity
8
SK1
62
256
6
ByLayer
370
18
48
1
60
0
100
AcDbSpline
70
4
71
3
72
13
73
9
40
0
40
0
40
0
40
0
40
0.214734652699442
40
0.361165670850561
40
0.525716687263822
40
0.632893573751054
40
0.76022499567299
40
1
40
1
40
1
40
1
41
1
10
16.5706110715327
20
0.532306486360682
30
0
41
1
10
16.4926856513003
20
0.531883181668377
30
0
41
1
10
16.3616216218503
20
0.531382205450967
30
0
41
1
10
16.1708429599311
20
0.531781446220293
30
0
41
1
10
16.0190968796145
20
0.531419085850587
30
0
41
1
10
15.8742772004978
20
0.531549795143889
30
0
41
1
10
15.7021823108919
20
0.530946365283853
30
0
41
1
10
15.5689657146343
20
0.530850109757552
30
0
41
1
10
15.481955143243
20
0.53080368558156
30
0
0
SPLINE
5
F4
100
AcDbEntity
8
SK1
62
256
6
ByLayer
370
18
48
1
60
0
100
AcDbSpline
70
4
71
3
72
14
73
10
40
0
40
0
40
0
40
0
40
0.164832444680198
40
0.268940255893192
40
0.386759048813536
40
0.523977842430509
40
0.630581632544026
40
0.762581467390814
40
1
40
1
40
1
40
1
41
1
10
10.5854181925423
20
0.526197215694793
30
0
41
1
10
10.5261428644419
20
0.526022146568494
30
0
41
1
10
10.4294296018211
20
0.52581353067049
30
0
41
1
10
10.2903483975756
20
0.525933034780849
30
0
41
1
10
10.1611973184496
20
0.525709835350881
30
0
41
1
10
10.0311511711646
20
0.525555645049081
30
0
41
1
10
9.89598870540303
20
0.525484104023292
30
0
41
1
10
9.72488264238203
20
0.525186973211078
30
0
41
1
10
9.59202752425986
20
0.524980260487297
30
0
41
1
10
9.50663542030614
20
0.524827695092569
30
0
0
LINE
5
80
100
AcDbEntity
8
80
62
256
6
ByLayer
370
18
48
1
60
0
100
AcDbLine
10
0
20
0
30
0
11
-10
21
0
31
0
39
0
210
0
220
0
230
1
0
LINE
5
81
100
AcDbEntity
8
81
62
256
6
ByLayer
370
18
48
1
60
0
100
AcDbLine
10
18.689
20
0
30
0
11
28.689
21
0
31
0
39
0
210
0
220
0
230
1
0
LINE
5
82
100
AcDbEntity
8
SK4
62
256
6
ByLayer
370
13
48
0.05
60
0
100
AcDbLine
10
-23.811
20
0
30
0
11
23.689
21
0
31
0
39
0
210
0
220
0
230
1
0
LINE
5
84
100
AcDbEntity
8
4
62
256
6
ByLayer
370
13
48
0.05
60
0
100
AcDbLine
10
0
20
0
30
0
11
18.689
21
0
31
0
39
0
210
0
220
0
230
1
0
LINE
5
86
100
AcDbEntity
8
SK1
62
256
6
ByLayer
370
18
48
1
60
0
100
AcDbLine
10
18.661212
20
-0.054055
30
0
11
18.546029
21
-0.288135
31
0
39
0
210
0
220
0
230
1
0
LINE
5
88
100
AcDbEntity
8
SK1
62
256
6
ByLayer
370
18
48
1
60
0
100
AcDbLine
10
18.68354
20
-0.013133
30
0
11
18.689
21
0
31
0
39
0
210
0
220
0
230
1
0
LINE
5
89
100
AcDbEntity
8
SK1
62
256
6
ByLayer
370
18
48
1
60
0
100
AcDbLine
10
18.661212
20
0.054055
30
0
11
18.546029
21
0.288135
31
0
39
0
210
0
220
0
230
1
0
LINE
5
8A
100
AcDbEntity
8
SK1
62
256
6
ByLayer
370
13
48
1
60
0
100
AcDbLine
10
18.661212
20
0.054055
30
0
11
18.316548
21
0.251641
31
0
39
0
210
0
220
0
230
1
0
LINE
5
8B
100
AcDbEntity
8
SK1
62
256
6
ByLayer
370
18
48
1
60
0
100
AcDbLine
10
18.689
20
0
30
0
11
18.358896
21
-0.549385
31
0
39
0
210
0
220
0
230
1
0
LINE
5
8C
100
AcDbEntity
8
SK1
62
256
6
ByLayer
370
18
48
1
60
0
100
AcDbLine
10
18.689
20
0
30
0
11
18.68354
21
0.013133
31
0
39
0
210
0
220
0
230
1
0
LINE
5
8D
100
AcDbEntity
8
SK1
62
256
6
ByLayer
370
18
48
1
60
0
100
AcDbLine
10
18.161084
20
-0.337419
30
0
11
18.683031
21
0.012783
31
0
39
0
210
0
220
0
230
1
0
LINE
5
8E
100
AcDbEntity
8
SK1
62
256
6
ByLayer
370
13
48
1
60
0
100
AcDbLine
10
18.683031
20
0.012783
30
0
11
18.291169
21
0.237426
31
0
39
0
210
0
220
0
230
1
0
LINE
5
8F
100
AcDbEntity
8
SK1
62
256
6
ByLayer
370
18
48
1
60
0
100
AcDbLine
10
6.210458
20
-0.635
30
0
11
6.210458
21
0.635
31
0
39
0
210
0
220
0
230
1
0
LINE
5
90
100
AcDbEntity
8
SK1
62
256
6
ByLayer
370
18
48
1
60
0
100
AcDbLine
10
6.554
20
-0.527385
30
0
11
6.554
21
0.527385
31
0
39
0
210
0
220
0
230
1
0
LINE
5
91
100
AcDbEntity
8
SK1
62
256
6
ByLayer
370
18
48
1
60
0
100
AcDbLine
10
2.762348
20
-0.635
30
0
11
2.762348
21
0.635
31
0
39
0
210
0
220
0
230
1
0
LINE
5
92
100
AcDbEntity
8
SK1
62
256
6
ByLayer
370
18
48
1
60
0
100
AcDbLine
10
-18.811
20
-1.35
30
0
11
-18.811
21
1.35
31
0
39
0
210
0
220
0
230
1
0
LINE
5
93
100
AcDbEntity
8
SK1
62
256
6
ByLayer
370
18
48
1
60
0
100
AcDbLine
10
-18.724397
20
-1.5
30
0
11
-18.724397
21
1.5
31
0
39
0
210
0
220
0
230
1
0
LINE
5
94
100
AcDbEntity
8
SK1
62
256
6
ByLayer
370
18
48
1
60
0
100
AcDbLine
10
0.000985
20
-1.5
30
0
11
0.000985
21
1.5
31
0
39
0
210
0
220
0
230
1
0
LINE
5
95
100
AcDbEntity
8
SK1
62
256
6
ByLayer
370
18
48
1
60
0
100
AcDbLine
10
6.554
20
0.527385
30
0
11
6.210458
21
0.635
31
0
39
0
210
0
220
0
230
1
0
LINE
5
96
100
AcDbEntity
8
SK1
62
256
6
ByLayer
370
18
48
1
60
0
100
AcDbLine
10
6.210458
20
-0.635
30
0
11
6.554
21
-0.527385
31
0
39
0
210
0
220
0
230
1
0
LINE
5
97
100
AcDbEntity
8
SK1
62
256
6
ByLayer
370
18
48
1
60
0
100
AcDbLine
10
2.762348
20
-0.635
30
0
11
6.210458
21
-0.635
31
0
39
0
210
0
220
0
230
1
0
LINE
5
98
100
AcDbEntity
8
SK1
62
256
6
ByLayer
370
18
48
1
60
0
100
AcDbLine
10
6.210458
20
0.635
30
0
11
2.762348
21
0.635
31
0
39
0
210
0
220
0
230
1
0
LINE
5
99
100
AcDbEntity
8
SK1
62
256
6
ByLayer
370
18
48
1
60
0
100
AcDbLine
10
6.554
20
-0.527385
30
0
11
7.936647
21
-0.529962
31
0
39
0
210
0
220
0
230
1
0
LINE
5
9A
100
AcDbEntity
8
SK1
62
256
6
ByLayer
370
18
48
1
60
0
100
AcDbLine
10
9.204032
20
-0.532324
30
0
11
9.450276
21
-0.532783
31
0
39
0
210
0
220
0
230
1
0
LINE
5
9B
100
AcDbEntity
8
SK1
62
256
6
ByLayer
370
18
48
1
60
0
100
AcDbLine
10
12.200366
20
-0.537908
30
0
11
12.434781
21
-0.538345
31
0
39
0
210
0
220
0
230
1
0
LINE
5
9C
100
AcDbEntity
8
SK1
62
256
6
ByLayer
370
18
48
1
60
0
100
AcDbLine
10
15.19674
20
-0.543492
30
0
11
15.421847
21
-0.543911
31
0
39
0
210
0
220
0
230
1
0
LINE
5
9D
100
AcDbEntity
8
SK1
62
256
6
ByLayer
370
18
48
1
60
0
100
AcDbLine
10
18.192898
20
-0.549075
30
0
11
18.358896
21
-0.549385
31
0
39
0
210
0
220
0
230
1
0
LINE
5
9E
100
AcDbEntity
8
SK1
62
256
6
ByLayer
370
18
48
1
60
0
100
AcDbLine
10
18.358896
20
0.549385
30
0
11
18.192898
21
0.549075
31
0
39
0
210
0
220
0
230
1
0
LINE
5
9F
100
AcDbEntity
8
SK1
62
256
6
ByLayer
370
18
48
1
60
0
100
AcDbLine
10
15.421847
20
0.543911
30
0
11
15.19674
21
0.543492
31
0
39
0
210
0
220
0
230
1
0
LINE
5
A0
100
AcDbEntity
8
SK1
62
256
6
ByLayer
370
18
48
1
60
0
100
AcDbLine
10
12.434781
20
0.538345
30
0
11
12.200366
21
0.537908
31
0
39
0
210
0
220
0
230
1
0
LINE
5
A1
100
AcDbEntity
8
SK1
62
256
6
ByLayer
370
18
48
1
60
0
100
AcDbLine
10
9.450276
20
0.532783
30
0
11
9.204032
21
0.532324
31
0
39
0
210
0
220
0
230
1
0
LINE
5
A2
100
AcDbEntity
8
SK1
62
256
6
ByLayer
370
18
48
1
60
0
100
AcDbLine
10
7.936647
20
0.529962
30
0
11
6.554
21
0.527385
31
0
39
0
210
0
220
0
230
1
0
LINE
5
A3
100
AcDbEntity
8
SK1
62
256
6
ByLayer
370
18
48
1
60
0
100
AcDbLine
10
2.762348
20
0.635
30
0
11
0.000985
21
1.5
31
0
39
0
210
0
220
0
230
1
0
LINE
5
A4
100
AcDbEntity
8
SK1
62
256
6
ByLayer
370
18
48
1
60
0
100
AcDbLine
10
0.000985
20
-1.5
30
0
11
2.762348
21
-0.635
31
0
39
0
210
0
220
0
230
1
0
LINE
5
A5
100
AcDbEntity
8
SK1
62
256
6
ByLayer
370
18
48
1
60
0
100
AcDbLine
10
-18.811
20
-1.35
30
0
11
-18.724397
21
-1.5
31
0
39
0
210
0
220
0
230
1
0
LINE
5
A6
100
AcDbEntity
8
SK1
62
256
6
ByLayer
370
18
48
1
60
0
100
AcDbLine
10
-18.724397
20
1.5
30
0
11
-18.811
21
1.35
31
0
39
0
210
0
220
0
230
1
0
LINE
5
A7
100
AcDbEntity
8
SK1
62
256
6
ByLayer
370
18
48
1
60
0
100
AcDbLine
10
-18.724397
20
-1.5
30
0
11
0.000985
21
-1.5
31
0
39
0
210
0
220
0
230
1
0
LINE
5
A8
100
AcDbEntity
8
SK1
62
256
6
ByLayer
370
18
48
1
60
0
100
AcDbLine
10
0.000985
20
1.5
30
0
11
-18.724397
21
1.5
31
0
39
0
210
0
220
0
230
1
0
LINE
5
A9
100
AcDbEntity
8
2
62
256
6
ByLayer
370
13
48
1
60
0
100
AcDbLine
10
35.689
20
23.323798
30
0
11
35.689
21
-9.3
31
0
39
0
210
0
220
0
230
1
0
LINE
5
AB
100
AcDbEntity
8
2
62
256
6
ByLayer
370
13
48
1
60
0
100
AcDbLine
10
20.2765
20
0.55
30
0
11
37.689
21
0.55
31
0
39
0
210
0
220
0
230
1
0
LINE
5
AC
100
AcDbEntity
8
2
62
256
6
ByLayer
370
13
48
1
60
0
100
AcDbLine
10
20.2765
20
-0.55
30
0
11
37.689
21
-0.55
31
0
39
0
210
0
220
0
230
1
0
LINE
5
AD
100
AcDbEntity
8
1
62
256
6
ByLayer
370
18
48
1
60
1
100
AcDbLine
10
35.689
20
0.55
30
0
11
35.228216
21
4.049998
31
0
39
0
210
0
220
0
230
1
0
LINE
5
AE
100
AcDbEntity
8
1
62
256
6
ByLayer
370
18
48
1
60
1
100
AcDbLine
10
35.228216
20
4.049998
30
0
11
36.149784
21
4.050002
31
0
39
0
210
0
220
0
230
1
0
LINE
5
AF
100
AcDbEntity
8
1
62
256
6
ByLayer
370
18
48
1
60
1
100
AcDbLine
10
36.149784
20
4.050002
30
0
11
35.689
21
0.55
31
0
39
0
210
0
220
0
230
1
0
LINE
5
B0
100
AcDbEntity
8
1
62
256
6
ByLayer
370
18
48
1
60
1
100
AcDbLine
10
35.689
20
-0.55
30
0
11
36.149784
21
-4.049998
31
0
39
0
210
0
220
0
230
1
0
LINE
5
B1
100
AcDbEntity
8
1
62
256
6
ByLayer
370
18
48
1
60
1
100
AcDbLine
10
36.149784
20
-4.049998
30
0
11
35.228216
21
-4.050002
31
0
39
0
210
0
220
0
230
1
0
LINE
5
B2
100
AcDbEntity
8
1
62
256
6
ByLayer
370
18
48
1
60
1
100
AcDbLine
10
35.228216
20
-4.050002
30
0
11
35.689
21
-0.55
31
0
39
0
210
0
220
0
230
1
0
LINE
5
B3
100
AcDbEntity
8
SK2
62
256
6
ByLayer
370
13
48
1
60
0
100
AcDbLine
10
-26.811
20
10.25
30
0
11
-26.811
21
-23.5
31
0
39
0
210
0
220
0
230
1
0
LINE
5
B5
100
AcDbEntity
8
SK2
62
256
6
ByLayer
370
13
48
1
60
0
100
AcDbLine
10
-20.3985
20
1.5
30
0
11
-28.811
21
1.5
31
0
39
0
210
0
220
0
230
1
0
LINE
5
B6
100
AcDbEntity
8
SK2
62
256
6
ByLayer
370
13
48
1
60
0
100
AcDbLine
10
-20.3985
20
-1.5
30
0
11
-28.811
21
-1.5
31
0
39
0
210
0
220
0
230
1
0
LINE
5
B7
100
AcDbEntity
8
1
62
256
6
ByLayer
370
18
48
1
60
1
100
AcDbLine
10
-26.811
20
1.5
30
0
11
-27.271784
21
4.999998
31
0
39
0
210
0
220
0
230
1
0
LINE
5
B8
100
AcDbEntity
8
1
62
256
6
ByLayer
370
18
48
1
60
1
100
AcDbLine
10
-27.271784
20
4.999998
30
0
11
-26.350216
21
5.000002
31
0
39
0
210
0
220
0
230
1
0
LINE
5
B9
100
AcDbEntity
8
1
62
256
6
ByLayer
370
18
48
1
60
1
100
AcDbLine
10
-26.350216
20
5.000002
30
0
11
-26.811
21
1.5
31
0
39
0
210
0
220
0
230
1
0
LINE
5
BA
100
AcDbEntity
8
1
62
256
6
ByLayer
370
18
48
1
60
1
100
AcDbLine
10
-26.811
20
-1.5
30
0
11
-26.350216
21
-4.999998
31
0
39
0
210
0
220
0
230
1
0
LINE
5
BB
100
AcDbEntity
8
1
62
256
6
ByLayer
370
18
48
1
60
1
100
AcDbLine
10
-26.350216
20
-4.999998
30
0
11
-27.271784
21
-5.000002
31
0
39
0
210
0
220
0
230
1
0
LINE
5
BC
100
AcDbEntity
8
1
62
256
6
ByLayer
370
18
48
1
60
1
100
AcDbLine
10
-27.271784
20
-5.000002
30
0
11
-26.811
21
-1.5
31
0
39
0
210
0
220
0
230
1
0
LINE
5
FA
100
AcDbEntity
8
1
62
256
6
ByLayer
370
18
48
1
60
1
100
AcDbLine
10
35.689
20
0.55
30
0
11
35.228216
21
4.049998
31
0
39
0
210
0
220
0
230
1
0
LINE
5
FB
100
AcDbEntity
8
1
62
256
6
ByLayer
370
18
48
1
60
1
100
AcDbLine
10
35.228216
20
4.049998
30
0
11
36.149784
21
4.050002
31
0
39
0
210
0
220
0
230
1
0
LINE
5
FC
100
AcDbEntity
8
1
62
256
6
ByLayer
370
18
48
1
60
1
100
AcDbLine
10
36.149784
20
4.050002
30
0
11
35.689
21
0.55
31
0
39
0
210
0
220
0
230
1
0
LINE
5
FE
100
AcDbEntity
8
1
62
256
6
ByLayer
370
18
48
1
60
1
100
AcDbLine
10
35.689
20
-0.55
30
0
11
36.149784
21
-4.049998
31
0
39
0
210
0
220
0
230
1
0
LINE
5
FF
100
AcDbEntity
8
1
62
256
6
ByLayer
370
18
48
1
60
1
100
AcDbLine
10
36.149784
20
-4.049998
30
0
11
35.228216
21
-4.050002
31
0
39
0
210
0
220
0
230
1
0
LINE
5
100
100
AcDbEntity
8
1
62
256
6
ByLayer
370
18
48
1
60
1
100
AcDbLine
10
35.228216
20
-4.050002
30
0
11
35.689
21
-0.55
31
0
39
0
210
0
220
0
230
1
0
LINE
5
104
100
AcDbEntity
8
1
62
256
6
ByLayer
370
18
48
1
60
1
100
AcDbLine
10
-26.811
20
1.5
30
0
11
-27.271784
21
4.999998
31
0
39
0
210
0
220
0
230
1
0
LINE
5
105
100
AcDbEntity
8
1
62
256
6
ByLayer
370
18
48
1
60
1
100
AcDbLine
10
-27.271784
20
4.999998
30
0
11
-26.350216
21
5.000002
31
0
39
0
210
0
220
0
230
1
0
LINE
5
106
100
AcDbEntity
8
1
62
256
6
ByLayer
370
18
48
1
60
1
100
AcDbLine
10
-26.350216
20
5.000002
30
0
11
-26.811
21
1.5
31
0
39
0
210
0
220
0
230
1
0
LINE
5
108
100
AcDbEntity
8
1
62
256
6
ByLayer
370
18
48
1
60
1
100
AcDbLine
10
-26.811
20
-1.5
30
0
11
-26.350216
21
-4.999998
31
0
39
0
210
0
220
0
230
1
0
LINE
5
109
100
AcDbEntity
8
1
62
256
6
ByLayer
370
18
48
1
60
1
100
AcDbLine
10
-26.350216
20
-4.999998
30
0
11
-27.271784
21
-5.000002
31
0
39
0
210
0
220
0
230
1
0
LINE
5
10A
100
AcDbEntity
8
1
62
256
6
ByLayer
370
18
48
1
60
1
100
AcDbLine
10
-27.271784
20
-5.000002
30
0
11
-26.811
21
-1.5
31
0
39
0
210
0
220
0
230
1
0
MTEXT
5
F5
100
AcDbEntity
8
2
62
256
6
ByLayer
370
18
48
1
60
0
100
AcDbMText
10
34.124366
20
10.043977
30
0
210
0
220
0
230
1
1
%%c
40
3.5
41
0
44
1.084337
50
90
71
7
72
5
7
iso_b_vert
0
MTEXT
5
F8
100
AcDbEntity
8
2
62
256
6
ByLayer
370
18
48
1
60
0
100
AcDbMText
10
34.124366
20
3.7075
30
0
210
0
220
0
230
1
1
\W0.2969; 
40
3.5
41
0
44
1.084337
50
90
71
7
72
5
7
iso_b_vert
0
MTEXT
5
F9
100
AcDbEntity
8
2
62
256
6
ByLayer
370
18
48
1
60
0
100
AcDbMText
10
34.124366
20
17.016633
30
0
210
0
220
0
230
1
1
\W0.5779;1.10
40
3.5
41
0
44
1.084337
50
90
71
7
72
5
7
iso_b_vert
0
MTEXT
5
102
100
AcDbEntity
8
SK2
62
256
6
ByLayer
370
18
48
1
60
0
100
AcDbMText
10
-28.375634
20
-21.565156
30
0
210
0
220
0
230
1
1
%%c
40
3.5
41
0
44
1.084337
50
90
71
7
72
5
7
iso_b_vert
0
MTEXT
5
103
100
AcDbEntity
8
SK2
62
256
6
ByLayer
370
18
48
1
60
0
100
AcDbMText
10
-28.375634
20
-14.5925
30
0
210
0
220
0
230
1
1
\W0.7346;3.00
40
3.5
41
0
44
1.084337
50
90
71
7
72
5
7
iso_b_vert
0
MTEXT
5
10C
100
AcDbEntity
8
SK6
62
256
6
ByLayer
370
18
48
1
60
0
100
AcDbMText
10
-31.1255
20
-59.254902
30
0
210
0
220
0
230
1
1
\W0.7431;862.3-1100-088A0-GM X1DU
40
3.5
41
0
44
1.084337
50
0
71
7
72
5
7
iso_b_vert
0
HATCH
5
FD
100
AcDbEntity
8
2
62
256
6
ByLayer
370
13
48
1
60
0
100
AcDbHatch
10
0
20
0
30
0
210
0
220
0
230
1
2
ANSI31
70
0
71
0
91
1
92
5
93
3
72
1
10
35.689
20
0.550000000000011
11
35.2282162584472
21
4.04999830744683
72
1
10
35.2282162584472
20
4.04999830744683
11
36.1497837415528
21
4.0500016925532
72
1
10
36.1497837415528
20
4.0500016925532
11
35.689
21
0.550000000000011
97
0
75
0
76
1
52
0
41
0.0062
77
0
78
1
53
45
43
0
44
0
45
-0.0139193969876572
46
0.0139193969876572
79
0
47
0
98
1
10
0
20
0
0
HATCH
5
101
100
AcDbEntity
8
2
62
256
6
ByLayer
370
13
48
1
60
0
100
AcDbHatch
10
0
20
0
30
0
210
0
220
0
230
1
2
ANSI31
70
0
71
0
91
1
92
5
93
3
72
1
10
35.689
20
-0.549999999999983
11
36.1497837415528
21
-4.0499983074468
72
1
10
36.1497837415528
20
-4.0499983074468
11
35.2282162584472
21
-4.05000169255317
72
1
10
35.2282162584472
20
-4.05000169255317
11
35.689
21
-0.549999999999983
97
0
75
0
76
1
52
0
41
0.0062
77
0
78
1
53
45
43
0
44
0
45
-0.0139193969876572
46
0.0139193969876572
79
0
47
0
98
1
10
0
20
0
0
HATCH
5
107
100
AcDbEntity
8
SK2
62
256
6
ByLayer
370
13
48
1
60
0
100
AcDbHatch
10
0
20
0
30
0
210
0
220
0
230
1
2
ANSI31
70
0
71
0
91
1
92
5
93
3
72
1
10
-26.811
20
1.49999999999997
11
-27.2717837415528
21
4.99999830744679
72
1
10
-27.2717837415528
20
4.99999830744679
11
-26.3502162584472
21
5.00000169255316
72
1
10
-26.3502162584472
20
5.00000169255316
11
-26.811
21
1.49999999999997
97
0
75
0
76
1
52
0
41
0.0062
77
0
78
1
53
45
43
0
44
0
45
-0.0139193969876572
46
0.0139193969876572
79
0
47
0
98
1
10
0
20
0
0
HATCH
5
10B
100
AcDbEntity
8
SK2
62
256
6
ByLayer
370
13
48
1
60
0
100
AcDbHatch
10
0
20
0
30
0
210
0
220
0
230
1
2
ANSI31
70
0
71
0
91
1
92
5
93
3
72
1
10
-26.811
20
-1.50000000000003
11
-26.3502162584472
21
-4.99999830744684
72
1
10
-26.3502162584472
20
-4.99999830744684
11
-27.2717837415528
21
-5.00000169255321
72
1
10
-27.2717837415528
20
-5.00000169255321
11
-26.811
21
-1.50000000000003
97
0
75
0
76
1
52
0
41
0.0062
77
0
78
1
53
45
43
0
44
0
45
-0.0139193969876572
46
0.0139193969876572
79
0
47
0
98
1
10
0
20
0
0
DIMENSION
5
10F
100
AcDbEntity
8
2
62
256
6
ByLayer
370
18
48
1
60
0
100
AcDbDimension
2
_U0
10
18.359
20
22.7
30
0
11
17.763999
21
22.7
31
0
70
32
71
1
72
1
41
1
210
0
220
0
230
1
3
Standard
100
AcDbAlignedDimension
13
0
23
-1.5
33
0
14
18.359
24
-0.55
34
0
50
0
100
AcDbRotatedDimension
1001
ACAD
1000
DSTYLE
1002
{
1070
   371
1070
    13
1070
   372
1070
    13
1070
   170
1070
     0
1070
   144
1040
1.0
1070
   277
1070
     2
1070
   284
1070
     8
1070
   278
1070
    46
1070
   146
1040
1.0
1070
   345
1005
16
1070
   347
1005
16
1070
   346
1005
16
1070
   344
1005
0
1070
   343
1005
0
1070
   172
1070
     1
1070
    76
1070
     0
1070
    75
1070
     0
1070
   282
1070
     0
1070
   281
1070
     0
1070
    71
1070
     0
1070
    74
1070
     0
1070
   279
1070
     0
1070
   173
1070
     1
1070
   340
1005
F6
1070
   271
1070
     2
1070
   272
1070
     2
1070
    77
1070
     1
1070
    73
1070
     1
1070
   171
1070
     3
1070
   274
1070
     4
1070
   177
1070
     2
1070
   176
1070
     2
1070
   178
1070
     2
1070
    78
1070
     8
1070
    48
1040
-0.1
1070
    41
1040
3.5
1070
   147
1040
1.75
1070
    42
1040
1.5875
1070
    44
1040
2.0
1070
   140
1040
3.5
1002
}
1001
ACAD_DSTYLE_DIM_LINETYPE
1070
   380
1005
16
1001
ACAD_DSTYLE_DIM_EXT1_LINETYPE
1070
   381
1005
16
1001
ACAD_DSTYLE_DIM_EXT2_LINETYPE
1070
   382
1005
16
0
DIMENSION
5
128
100
AcDbEntity
8
SK2
62
256
6
ByLayer
370
18
48
1
60
0
100
AcDbDimension
2
_U1
10
0
20
-23.25
30
0
11
-8.270934
21
-23.25
31
0
70
32
71
1
72
1
41
1
210
0
220
0
230
1
3
Standard
100
AcDbAlignedDimension
13
-18.811
23
-1.5
33
0
14
0
24
-1.5
34
0
50
0
100
AcDbRotatedDimension
1001
ACAD
1000
DSTYLE
1002
{
1070
   371
1070
    13
1070
   372
1070
    13
1070
   170
1070
     0
1070
   144
1040
1.0
1070
   277
1070
     2
1070
   284
1070
     8
1070
   278
1070
    46
1070
   146
1040
1.0
1070
   345
1005
16
1070
   347
1005
16
1070
   346
1005
16
1070
   344
1005
0
1070
   343
1005
0
1070
   172
1070
     1
1070
    76
1070
     0
1070
    75
1070
     0
1070
   282
1070
     0
1070
   281
1070
     0
1070
    71
1070
     0
1070
    74
1070
     0
1070
   279
1070
     0
1070
   173
1070
     1
1070
   340
1005
F6
1070
   271
1070
     2
1070
   272
1070
     2
1070
    77
1070
     1
1070
    73
1070
     1
1070
   171
1070
     3
1070
   274
1070
     4
1070
   177
1070
     2
1070
   176
1070
     2
1070
   178
1070
     2
1070
    78
1070
     8
1070
    48
1040
-0.1
1070
    41
1040
3.5
1070
   147
1040
1.75
1070
    42
1040
1.5875
1070
    44
1040
2.0
1070
   140
1040
3.5
1002
}
1001
ACAD_DSTYLE_DIM_LINETYPE
1070
   380
1005
16
1001
ACAD_DSTYLE_DIM_EXT1_LINETYPE
1070
   381
1005
16
1001
ACAD_DSTYLE_DIM_EXT2_LINETYPE
1070
   382
1005
16
0
DIMENSION
5
140
100
AcDbEntity
8
SK2
62
256
6
ByLayer
370
18
48
1
60
0
100
AcDbDimension
2
_U2
10
18.689
20
-15.8
30
0
11
34.605667
21
-15.8
31
0
70
32
71
1
72
1
41
1
210
0
220
0
230
1
3
Standard
100
AcDbAlignedDimension
13
9.889
23
-0.55
33
0
14
18.689
24
-0.55
34
0
50
0
100
AcDbRotatedDimension
1001
ACAD
1000
DSTYLE
1002
{
1070
   371
1070
    13
1070
   372
1070
    13
1070
   170
1070
     0
1070
   144
1040
1.0
1070
   277
1070
     2
1070
   284
1070
     8
1070
   278
1070
    46
1070
   146
1040
1.0
1070
   345
1005
16
1070
   347
1005
16
1070
   346
1005
16
1070
   344
1005
0
1070
   343
1005
0
1070
   172
1070
     1
1070
    76
1070
     0
1070
    75
1070
     0
1070
   282
1070
     0
1070
   281
1070
     0
1070
    71
1070
     0
1070
    74
1070
     0
1070
   279
1070
     0
1070
   173
1070
     1
1070
   340
1005
F6
1070
   271
1070
     2
1070
   272
1070
     2
1070
    77
1070
     1
1070
    73
1070
     1
1070
   171
1070
     3
1070
   274
1070
     4
1070
   177
1070
     2
1070
   176
1070
     2
1070
   178
1070
     2
1070
    78
1070
     8
1070
    48
1040
-0.1
1070
    41
1040
3.5
1070
   147
1040
1.75
1070
    42
1040
1.5875
1070
    44
1040
2.0
1070
   140
1040
3.5
1002
}
1001
ACAD_DSTYLE_DIM_LINETYPE
1070
   380
1005
16
1001
ACAD_DSTYLE_DIM_EXT1_LINETYPE
1070
   381
1005
16
1001
ACAD_DSTYLE_DIM_EXT2_LINETYPE
1070
   382
1005
16
0
DIMENSION
5
15A
100
AcDbEntity
8
SK2
62
256
6
ByLayer
370
18
48
1
60
0
100
AcDbDimension
2
_U3
10
18.689
20
-25.8
30
0
11
37.189
21
-25.8
31
0
70
32
71
1
72
1
41
1
210
0
220
0
230
1
3
Standard
100
AcDbAlignedDimension
13
7.984
23
-0.55
33
0
14
18.689
24
-0.55
34
0
50
0
100
AcDbRotatedDimension
1001
ACAD
1000
DSTYLE
1002
{
1070
   371
1070
    13
1070
   372
1070
    13
1070
   170
1070
     0
1070
   144
1040
1.0
1070
   277
1070
     2
1070
   284
1070
     8
1070
   278
1070
    46
1070
   146
1040
1.0
1070
   345
1005
16
1070
   347
1005
16
1070
   346
1005
16
1070
   344
1005
0
1070
   343
1005
0
1070
   172
1070
     1
1070
    76
1070
     0
1070
    75
1070
     0
1070
   282
1070
     0
1070
   281
1070
     0
1070
    71
1070
     0
1070
    74
1070
     0
1070
   279
1070
     0
1070
   173
1070
     1
1070
   340
1005
F6
1070
   271
1070
     2
1070
   272
1070
     2
1070
    77
1070
     1
1070
    73
1070
     1
1070
   171
1070
     3
1070
   274
1070
     4
1070
   177
1070
     2
1070
   176
1070
     2
1070
   178
1070
     2
1070
    78
1070
     8
1070
    48
1040
-0.1
1070
    41
1040
3.5
1070
   147
1040
1.75
1070
    42
1040
1.5875
1070
    44
1040
2.0
1070
   140
1040
3.5
1002
}
1001
ACAD_DSTYLE_DIM_LINETYPE
1070
   380
1005
16
1001
ACAD_DSTYLE_DIM_EXT1_LINETYPE
1070
   381
1005
16
1001
ACAD_DSTYLE_DIM_EXT2_LINETYPE
1070
   382
1005
16
0
DIMENSION
5
174
100
AcDbEntity
8
SK2
62
256
6
ByLayer
370
18
48
1
60
0
100
AcDbDimension
2
_U4
10
18.689
20
-34.67507
30
0
11
-0.061
21
-34.67507
31
0
70
32
71
1
72
1
41
1
210
0
220
0
230
1
3
Standard
100
AcDbAlignedDimension
13
-18.811
23
1.5
33
0
14
18.689
24
0.55
34
0
50
0
100
AcDbRotatedDimension
1001
ACAD
1000
DSTYLE
1002
{
1070
   371
1070
    13
1070
   372
1070
    13
1070
     3
1000

1070
   170
1070
     0
1070
   144
1040
1.0
1070
   277
1070
     2
1070
   284
1070
     8
1070
   278
1070
    46
1070
   146
1040
1.0
1070
   345
1005
16
1070
   347
1005
16
1070
   346
1005
16
1070
   344
1005
0
1070
   343
1005
0
1070
   172
1070
     1
1070
    76
1070
     0
1070
    75
1070
     0
1070
   282
1070
     0
1070
   281
1070
     0
1070
    71
1070
     0
1070
    74
1070
     0
1070
   279
1070
     0
1070
   173
1070
     1
1070
   340
1005
F6
1070
   271
1070
     2
1070
   272
1070
     2
1070
    77
1070
     1
1070
    73
1070
     1
1070
   171
1070
     3
1070
   274
1070
     4
1070
   177
1070
     2
1070
   176
1070
     2
1070
   178
1070
     2
1070
    78
1070
     8
1070
    48
1040
-0.1
1070
    41
1040
3.5
1070
   147
1040
1.75
1070
    42
1040
1.5875
1070
    44
1040
2.0
1070
   140
1040
3.5
1002
}
1001
ACAD_DSTYLE_DIM_LINETYPE
1070
   380
1005
16
1001
ACAD_DSTYLE_DIM_EXT1_LINETYPE
1070
   381
1005
16
1001
ACAD_DSTYLE_DIM_EXT2_LINETYPE
1070
   382
1005
16
0
ENDSEC
0
SECTION
2
OBJECTS
0
DICTIONARY
5
1fe
330
0
100
AcDbDictionary
280
0
281
1
3
ACAD_GROUP
350
1ff
3
ACAD_MLINESTYLE
350
200
0
DICTIONARY
5
1ff
330
0
100
AcDbDictionary
280
0
281
1
0
DICTIONARY
5
200
330
0
100
AcDbDictionary
280
0
281
1
3
Standard
350
18
0
MLINESTYLE
5
18
330
200
100
AcDbMlineStyle
2
Standard
70
0
3

62
256
51
90
52
90
71
2
49
-0.5
62
256
6
ByLayer
49
0.5
62
256
6
ByLayer
0
RASTERVARIABLES
5
1ec
330

100
AcDbRasterVariables
90
0
70
1
71
1
72
1
0
ENDSEC
0
EOF
