  0
SECTION
  2
HEADER
  9
$ACADVER
  1
AC1015
  9
$ACADMAINTVER
 70
     6
  9
$DWGCODEPAGE
  3
ANSI_1252
  9
$INSBASE
 10
0.0
 20
0.0
 30
0.0
  9
$EXTMIN
 10
1.000000000000000E+20
 20
1.000000000000000E+20
 30
1.000000000000000E+20
  9
$EXTMAX
 10
-1.000000000000000E+20
 20
-1.000000000000000E+20
 30
-1.000000000000000E+20
  9
$LIMMIN
 10
-170.0
 20
-170.0
  9
$LIMMAX
 10
519.0
 20
260.0
  9
$ORTHOMODE
 70
     0
  9
$REGENMODE
 70
     1
  9
$FILLMODE
 70
     1
  9
$QTEXTMODE
 70
     0
  9
$MIRRTEXT
 70
     0
  9
$LTSCALE
 40
1.0
  9
$ATTMODE
 70
     1
  9
$TEXTSIZE
 40
3.5
  9
$TRACEWID
 40
1.0
  9
$TEXTSTYLE
  7
SIMPLEX
  9
$CLAYER
  8
1
  9
$CELTYPE
  6
BYLAYER
  9
$CECOLOR
 62
   256
  9
$CELTSCALE
 40
1.0
  9
$DISPSILH
 70
     0
  9
$DIMSCALE
 40
1.0
  9
$DIMASZ
 40
2.5
  9
$DIMEXO
 40
0.0
  9
$DIMDLI
 40
3.75
  9
$DIMRND
 40
0.0
  9
$DIMDLE
 40
0.0
  9
$DIMEXE
 40
1.25
  9
$DIMTP
 40
0.0
  9
$DIMTM
 40
0.0
  9
$DIMTXT
 40
3.5
  9
$DIMCEN
 40
0.0
  9
$DIMTSZ
 40
0.0
  9
$DIMTOL
 70
     0
  9
$DIMLIM
 70
     0
  9
$DIMTIH
 70
     0
  9
$DIMTOH
 70
     0
  9
$DIMSE1
 70
     0
  9
$DIMSE2
 70
     0
  9
$DIMTAD
 70
     1
  9
$DIMZIN
 70
     8
  9
$DIMBLK
  1

  9
$DIMASO
 70
     1
  9
$DIMSHO
 70
     1
  9
$DIMPOST
  1

  9
$DIMAPOST
  1

  9
$DIMALT
 70
     0
  9
$DIMALTD
 70
     3
  9
$DIMALTF
 40
0.039370078
  9
$DIMLFAC
 40
1.0
  9
$DIMTOFL
 70
     0
  9
$DIMTVP
 40
0.0
  9
$DIMTIX
 70
     0
  9
$DIMSOXD
 70
     0
  9
$DIMSAH
 70
     0
  9
$DIMBLK1
  1

  9
$DIMBLK2
  1

  9
$DIMSTYLE
  2
STANDARD
  9
$DIMCLRD
 70
     0
  9
$DIMCLRE
 70
     0
  9
$DIMCLRT
 70
     0
  9
$DIMTFAC
 40
1.0
  9
$DIMGAP
 40
0.625
  9
$DIMJUST
 70
     0
  9
$DIMSD1
 70
     0
  9
$DIMSD2
 70
     0
  9
$DIMTOLJ
 70
     0
  9
$DIMTZIN
 70
     8
  9
$DIMALTZ
 70
     0
  9
$DIMALTTZ
 70
     0
  9
$DIMUPT
 70
     0
  9
$DIMDEC
 70
     2
  9
$DIMTDEC
 70
     2
  9
$DIMALTU
 70
     2
  9
$DIMALTTD
 70
     3
  9
$DIMTXSTY
  7
SIMPLEX
  9
$DIMAUNIT
 70
     0
  9
$DIMADEC
 70
     2
  9
$DIMALTRND
 40
0.0
  9
$DIMAZIN
 70
     2
  9
$DIMDSEP
 70
    46
  9
$DIMATFIT
 70
     3
  9
$DIMFRAC
 70
     0
  9
$DIMLDRBLK
  1

  9
$DIMLUNIT
 70
     2
  9
$DIMLWD
 70
    -2
  9
$DIMLWE
 70
    -2
  9
$DIMTMOVE
 70
     0
  9
$LUNITS
 70
     2
  9
$LUPREC
 70
     4
  9
$SKETCHINC
 40
1.0
  9
$FILLETRAD
 40
0.0
  9
$AUNITS
 70
     0
  9
$AUPREC
 70
     0
  9
$MENU
  1
c:\tdm21\cad\caduti13\tdm13
  9
$ELEVATION
 40
0.0
  9
$PELEVATION
 40
0.0
  9
$THICKNESS
 40
0.0
  9
$LIMCHECK
 70
     0
  9
$CHAMFERA
 40
0.0
  9
$CHAMFERB
 40
0.0
  9
$CHAMFERC
 40
0.0
  9
$CHAMFERD
 40
0.0
  9
$SKPOLY
 70
     0
  9
$TDCREATE
 40
2454957.593642639
  9
$TDUCREATE
 40
2454957.510309306
  9
$TDUPDATE
 40
2456860.73899257
  9
$TDUUPDATE
 40
2456860.655659236
  9
$TDINDWG
 40
0.0009643519
  9
$TDUSRTIMER
 40
0.0009475231
  9
$USRTIMER
 70
     1
  9
$ANGBASE
 50
0.0
  9
$ANGDIR
 70
     0
  9
$PDMODE
 70
     1
  9
$PDSIZE
 40
0.0
  9
$PLINEWID
 40
0.0
  9
$SPLFRAME
 70
     0
  9
$SPLINETYPE
 70
     6
  9
$SPLINESEGS
 70
     8
  9
$HANDSEED
  5
678
  9
$SURFTAB1
 70
     6
  9
$SURFTAB2
 70
     6
  9
$SURFTYPE
 70
     6
  9
$SURFU
 70
     6
  9
$SURFV
 70
     6
  9
$UCSBASE
  2

  9
$UCSNAME
  2

  9
$UCSORG
 10
0.0
 20
0.0
 30
0.0
  9
$UCSXDIR
 10
1.0
 20
0.0
 30
0.0
  9
$UCSYDIR
 10
0.0
 20
1.0
 30
0.0
  9
$UCSORTHOREF
  2

  9
$UCSORTHOVIEW
 70
     0
  9
$UCSORGTOP
 10
0.0
 20
0.0
 30
0.0
  9
$UCSORGBOTTOM
 10
0.0
 20
0.0
 30
0.0
  9
$UCSORGLEFT
 10
0.0
 20
0.0
 30
0.0
  9
$UCSORGRIGHT
 10
0.0
 20
0.0
 30
0.0
  9
$UCSORGFRONT
 10
0.0
 20
0.0
 30
0.0
  9
$UCSORGBACK
 10
0.0
 20
0.0
 30
0.0
  9
$PUCSBASE
  2

  9
$PUCSNAME
  2

  9
$PUCSORG
 10
0.0
 20
0.0
 30
0.0
  9
$PUCSXDIR
 10
1.0
 20
0.0
 30
0.0
  9
$PUCSYDIR
 10
0.0
 20
1.0
 30
0.0
  9
$PUCSORTHOREF
  2

  9
$PUCSORTHOVIEW
 70
     0
  9
$PUCSORGTOP
 10
0.0
 20
0.0
 30
0.0
  9
$PUCSORGBOTTOM
 10
0.0
 20
0.0
 30
0.0
  9
$PUCSORGLEFT
 10
0.0
 20
0.0
 30
0.0
  9
$PUCSORGRIGHT
 10
0.0
 20
0.0
 30
0.0
  9
$PUCSORGFRONT
 10
0.0
 20
0.0
 30
0.0
  9
$PUCSORGBACK
 10
0.0
 20
0.0
 30
0.0
  9
$USERI1
 70
     0
  9
$USERI2
 70
     0
  9
$USERI3
 70
     0
  9
$USERI4
 70
     0
  9
$USERI5
 70
     0
  9
$USERR1
 40
0.0
  9
$USERR2
 40
0.0
  9
$USERR3
 40
0.0
  9
$USERR4
 40
0.0
  9
$USERR5
 40
0.0
  9
$WORLDVIEW
 70
     1
  9
$SHADEDGE
 70
     3
  9
$SHADEDIF
 70
    70
  9
$TILEMODE
 70
     1
  9
$MAXACTVP
 70
    64
  9
$PINSBASE
 10
0.0
 20
0.0
 30
0.0
  9
$PLIMCHECK
 70
     0
  9
$PEXTMIN
 10
0.0
 20
0.0
 30
0.0
  9
$PEXTMAX
 10
0.0
 20
0.0
 30
0.0
  9
$PLIMMIN
 10
0.0
 20
0.0
  9
$PLIMMAX
 10
12.0
 20
9.0
  9
$UNITMODE
 70
     0
  9
$VISRETAIN
 70
     0
  9
$PLINEGEN
 70
     0
  9
$PSLTSCALE
 70
     1
  9
$TREEDEPTH
 70
  3020
  9
$CMLSTYLE
  2
STANDARD
  9
$CMLJUST
 70
     0
  9
$CMLSCALE
 40
20.0
  9
$PROXYGRAPHICS
 70
     1
  9
$MEASUREMENT
 70
     1
  9
$CELWEIGHT
370
    -1
  9
$ENDCAPS
280
     0
  9
$JOINSTYLE
280
     0
  9
$LWDISPLAY
290
     0
  9
$INSUNITS
 70
     4
  9
$HYPERLINKBASE
  1

  9
$STYLESHEET
  1
MONOCHROME.CTB
  9
$XEDIT
290
     1
  9
$CEPSNTYPE
380
     0
  9
$PSTYLEMODE
290
     1
  9
$FINGERPRINTGUID
  2
{46B44192-1510-48B1-B61B-CBE2ADA013A7}
  9
$VERSIONGUID
  2
{6160D478-9A74-4C97-9D8A-D4A65CE74B12}
  9
$EXTNAMES
290
     1
  9
$PSVPSCALE
 40
0.0
  9
$OLESTARTUP
290
     0
  0
ENDSEC
  0
SECTION
  2
CLASSES
  0
CLASS
  1
ACDBDICTIONARYWDFLT
  2
AcDbDictionaryWithDefault
  3
ObjectDBX Classes
 90
        0
280
     0
281
     0
  0
CLASS
  1
ACDBPLACEHOLDER
  2
AcDbPlaceHolder
  3
ObjectDBX Classes
 90
        0
280
     0
281
     0
  0
CLASS
  1
LAYOUT
  2
AcDbLayout
  3
ObjectDBX Classes
 90
        0
280
     0
281
     0
  0
CLASS
  1
DICTIONARYVAR
  2
AcDbDictionaryVar
  3
ObjectDBX Classes
 90
        0
280
     0
281
     0
  0
CLASS
  1
TABLESTYLE
  2
AcDbTableStyle
  3
ObjectDBX Classes
 90
     4095
280
     0
281
     0
  0
CLASS
  1
SCALE
  2
AcDbScale
  3
ObjectDBX Classes
 90
     1153
280
     0
281
     0
  0
CLASS
  1
MATERIAL
  2
AcDbMaterial
  3
ObjectDBX Classes
 90
     1153
280
     0
281
     0
  0
CLASS
  1
VISUALSTYLE
  2
AcDbVisualStyle
  3
ObjectDBX Classes
 90
     4095
280
     0
281
     0
  0
ENDSEC
  0
SECTION
  2
TABLES
  0
TABLE
  2
VPORT
  5
8
330
0
100
AcDbSymbolTable
 70
     1
  0
VPORT
  5
39A
330
8
100
AcDbSymbolTableRecord
100
AcDbViewportTableRecord
  2
*Active
 70
     0
 10
0.0
 20
0.0
 11
1.0
 21
1.0
 12
218.9201881351169
 22
109.7549380673833
 13
0.0
 23
0.0
 14
5.0
 24
5.0
 15
5.0
 25
5.0
 16
0.0
 26
0.0
 36
1.0
 17
0.0
 27
0.0
 37
0.0
 40
564.6711112651689
 41
1.066073697585768
 42
50.0
 43
0.0
 44
0.0
 50
0.0
 51
0.0
 71
     0
 72
  2000
 73
     1
 74
     1
 75
     0
 76
     0
 77
     0
 78
     0
281
     0
 65
     1
110
0.0
120
0.0
130
0.0
111
1.0
121
0.0
131
0.0
112
0.0
122
1.0
132
0.0
 79
     0
146
0.0
  0
ENDTAB
  0
TABLE
  2
LTYPE
  5
5
330
0
100
AcDbSymbolTable
 70
     3
  0
LTYPE
  5
12
330
5
100
AcDbSymbolTableRecord
100
AcDbLinetypeTableRecord
  2
BYBLOCK
 70
     0
  3

 72
    65
 73
     0
 40
0.0
  0
LTYPE
  5
13
330
5
100
AcDbSymbolTableRecord
100
AcDbLinetypeTableRecord
  2
BYLAYER
 70
     0
  3

 72
    65
 73
     0
 40
0.0
  0
LTYPE
  5
14
330
5
100
AcDbSymbolTableRecord
100
AcDbLinetypeTableRecord
  2
CONTINUOUS
 70
     0
  3
Solid line
 72
    65
 73
     0
 40
0.0
  0
LTYPE
  5
20
330
5
100
AcDbSymbolTableRecord
100
AcDbLinetypeTableRecord
  2
HIDDEN
 70
     0
  3
Hidden __ __ __ __ __ __ __ __ __ __ __ __ __ _
 72
    65
 73
     2
 40
9.524999999999997
 49
6.349999999999998
 74
     0
 49
-3.174999999999998
 74
     0
  0
LTYPE
  5
351
330
5
100
AcDbSymbolTableRecord
100
AcDbLinetypeTableRecord
  2
CENTER
 70
     0
  3
Dash dot __ . __ . __ . __ . __ . __ . __ . __
 72
    65
 73
     4
 40
25.4
 49
12.7
 74
     0
 49
-6.349999999999998
 74
     0
 49
0.0
 74
     0
 49
-6.349999999999998
 74
     0
  0
ENDTAB
  0
TABLE
  2
LAYER
  5
2
330
0
100
AcDbSymbolTable
 70
    16
  0
LAYER
  5
F
330
2
100
AcDbSymbolTableRecord
100
AcDbLayerTableRecord
  2
0
 70
     0
 62
     7
  6
CONTINUOUS
370
    -3
390
300
  0
LAYER
  5
23
330
2
100
AcDbSymbolTableRecord
100
AcDbLayerTableRecord
  2
1
 70
     0
 62
     4
  6
CONTINUOUS
370
    -3
390
300
  0
LAYER
  5
24
330
2
100
AcDbSymbolTableRecord
100
AcDbLayerTableRecord
  2
SK1
 70
     0
 62
     4
  6
CONTINUOUS
370
    -3
390
300
  0
LAYER
  5
25
330
2
100
AcDbSymbolTableRecord
100
AcDbLayerTableRecord
  2
2
 70
     0
 62
     7
  6
CONTINUOUS
370
    -3
390
300
  0
LAYER
  5
26
330
2
100
AcDbSymbolTableRecord
100
AcDbLayerTableRecord
  2
2L
 70
     0
 62
     7
  6
CONTINUOUS
370
    -3
390
300
  0
LAYER
  5
27
330
2
100
AcDbSymbolTableRecord
100
AcDbLayerTableRecord
  2
SK2
 70
     0
 62
     7
  6
CONTINUOUS
370
    -3
390
300
  0
LAYER
  5
28
330
2
100
AcDbSymbolTableRecord
100
AcDbLayerTableRecord
  2
3
 70
     0
 62
     1
  6
HIDDEN
370
    -3
390
300
  0
LAYER
  5
29
330
2
100
AcDbSymbolTableRecord
100
AcDbLayerTableRecord
  2
SK3
 70
     0
 62
     1
  6
HIDDEN
370
    -3
390
300
  0
LAYER
  5
2A
330
2
100
AcDbSymbolTableRecord
100
AcDbLayerTableRecord
  2
4
 70
     0
 62
     2
  6
CENTER
370
    -3
390
300
  0
LAYER
  5
2B
330
2
100
AcDbSymbolTableRecord
100
AcDbLayerTableRecord
  2
SK4
 70
     0
 62
     2
  6
CENTER
370
    -3
390
300
  0
LAYER
  5
2C
330
2
100
AcDbSymbolTableRecord
100
AcDbLayerTableRecord
  2
5
 70
     0
 62
    -7
  6
CONTINUOUS
370
    -3
390
300
  0
LAYER
  5
2D
330
2
100
AcDbSymbolTableRecord
100
AcDbLayerTableRecord
  2
6
 70
     0
 62
     5
  6
CONTINUOUS
370
    -3
390
300
  0
LAYER
  5
2E
330
2
100
AcDbSymbolTableRecord
100
AcDbLayerTableRecord
  2
SK6
 70
     0
 62
     5
  6
CONTINUOUS
370
    -3
390
300
  0
LAYER
  5
2F
330
2
100
AcDbSymbolTableRecord
100
AcDbLayerTableRecord
  2
DEFPOINTS
 70
     0
 62
     7
  6
CONTINUOUS
290
     0
370
    -3
390
300
  0
LAYER
  5
375
330
2
100
AcDbSymbolTableRecord
100
AcDbLayerTableRecord
  2
CUT
 70
     0
 62
     1
  6
CONTINUOUS
370
    -3
390
300
  0
LAYER
  5
376
330
2
100
AcDbSymbolTableRecord
100
AcDbLayerTableRecord
  2
NOCUT
 70
     0
 62
     7
  6
CONTINUOUS
370
    -3
390
300
  0
ENDTAB
  0
TABLE
  2
STYLE
  5
3
330
0
100
AcDbSymbolTable
 70
     4
  0
STYLE
  5
10
330
3
100
AcDbSymbolTableRecord
100
AcDbTextStyleTableRecord
  2
STANDARD
 70
     0
 40
0.0
 41
1.0
 50
0.0
 71
     0
 42
5.0
  3
txt
  4

  0
STYLE
  5
1D
330
3
100
AcDbSymbolTableRecord
100
AcDbTextStyleTableRecord
  2
TXT
 70
     0
 40
8.0
 41
1.0
 50
0.0
 71
     0
 42
8.0
  3
txt
  4

  0
STYLE
  5
1E
330
3
100
AcDbSymbolTableRecord
100
AcDbTextStyleTableRecord
  2
SIMPLEX
 70
     0
 40
0.0
 41
1.0
 50
0.0
 71
     0
 42
3.5
  3
simplex
  4

  0
STYLE
  5
34C
330
3
100
AcDbSymbolTableRecord
100
AcDbTextStyleTableRecord
  2

 70
     1
 40
0.0
 41
1.0
 50
0.0
 71
     0
 42
2.5
  3
ltypeshp.shx
  4

  0
ENDTAB
  0
TABLE
  2
VIEW
  5
6
330
0
100
AcDbSymbolTable
 70
     0
  0
ENDTAB
  0
TABLE
  2
UCS
  5
7
330
0
100
AcDbSymbolTable
 70
     0
  0
ENDTAB
  0
TABLE
  2
APPID
  5
9
330
0
100
AcDbSymbolTable
 70
     1
  0
APPID
  5
11
330
9
100
AcDbSymbolTableRecord
100
AcDbRegAppTableRecord
  2
ACAD
 70
     0
  0
ENDTAB
  0
TABLE
  2
DIMSTYLE
  5
A
330
0
100
AcDbSymbolTable
 70
     1
100
AcDbDimStyleTable
  0
DIMSTYLE
105
3F
102
{ACAD_REACTORS
330
609
330
617
330
624
330
632
330
640
102
}
330
A
100
AcDbSymbolTableRecord
100
AcDbDimStyleTableRecord
  2
STANDARD
 70
     0
 41
2.5
 42
0.0
 43
3.75
 44
1.25
 73
     0
 74
     0
 77
     1
 78
     8
 79
     2
140
3.5
141
0.0
143
0.039370078
147
0.625
171
     3
178
     0
179
     2
271
     2
272
     2
274
     3
283
     0
284
     8
340
1E
  0
ENDTAB
  0
TABLE
  2
BLOCK_RECORD
  5
1
330
0
100
AcDbSymbolTable
 70
     5
  0
BLOCK_RECORD
  5
18
330
1
100
AcDbSymbolTableRecord
100
AcDbBlockTableRecord
  2
*MODEL_SPACE
340
303
  0
BLOCK_RECORD
  5
338
330
1
100
AcDbSymbolTableRecord
100
AcDbBlockTableRecord
  2
*Paper_Space
340
33B
  0
BLOCK_RECORD
  5
60A
330
1
100
AcDbSymbolTableRecord
100
AcDbBlockTableRecord
  2
*D0
340
0
  0
BLOCK_RECORD
  5
618
330
1
100
AcDbSymbolTableRecord
100
AcDbBlockTableRecord
  2
*D1
340
0
  0
BLOCK_RECORD
  5
625
330
1
100
AcDbSymbolTableRecord
100
AcDbBlockTableRecord
  2
*D2
340
0
  0
BLOCK_RECORD
  5
633
330
1
100
AcDbSymbolTableRecord
100
AcDbBlockTableRecord
  2
*D3
340
0
  0
BLOCK_RECORD
  5
641
330
1
100
AcDbSymbolTableRecord
100
AcDbBlockTableRecord
  2
*D4
340
0
  0
ENDTAB
  0
ENDSEC
  0
SECTION
  2
BLOCKS
  0
BLOCK
  5
32
330
18
100
AcDbEntity
  8
0
100
AcDbBlockBegin
  2
*MODEL_SPACE
 70
     0
 10
0.0
 20
0.0
 30
0.0
  3
*MODEL_SPACE
  1

  0
ENDBLK
  5
33
330
18
100
AcDbEntity
  8
0
100
AcDbBlockEnd
  0
BLOCK
  5
339
330
338
100
AcDbEntity
 67
     1
  8
0
100
AcDbBlockBegin
  2
*Paper_Space
 70
     0
 10
0.0
 20
0.0
 30
0.0
  3
*Paper_Space
  1

  0
ENDBLK
  5
33A
330
338
100
AcDbEntity
 67
     1
  8
0
100
AcDbBlockEnd
  0
BLOCK
  5
60B
330
60A
100
AcDbEntity
  8
0
100
AcDbBlockBegin
  2
*D0
 70
     1
 10
0.0
 20
0.0
 30
0.0
  3
*D0
  1

  0
LINE
  5
60D
330
60A
100
AcDbEntity
  8
2
 62
     0
370
    -2
100
AcDbLine
 10
25.0
 20
1.1
 30
0.0
 11
41.25
 21
1.100000000000057
 31
0.0
  0
LINE
  5
60E
330
60A
100
AcDbEntity
  8
2
 62
     0
370
    -2
100
AcDbLine
 10
25.0
 20
-1.1
 30
0.0
 11
41.25000000000001
 21
-1.099999999999943
 31
0.0
  0
LINE
  5
60F
330
60A
100
AcDbEntity
  8
2
 62
     0
370
    -2
100
AcDbLine
 10
40.00000000000001
 20
-3.599999999999948
 30
0.0
 11
40.00000000000006
 21
-18.37849999999996
 31
0.0
  0
LINE
  5
610
330
60A
100
AcDbEntity
  8
2
 62
     0
370
    -2
100
AcDbLine
 10
39.99999999999999
 20
3.600000000000052
 30
0.0
 11
39.99999999999999
 21
6.100000000000053
 31
0.0
  0
SOLID
  5
611
330
60A
100
AcDbEntity
  8
2
 62
     0
100
AcDbTrace
 10
39.58333333333333
 20
3.600000000000051
 30
0.0
 11
40.41666666666666
 21
3.600000000000054
 31
0.0
 12
40.0
 22
1.100000000000052
 32
0.0
 13
40.0
 23
1.100000000000052
 33
0.0
  0
SOLID
  5
612
330
60A
100
AcDbEntity
  8
2
 62
     0
100
AcDbTrace
 10
40.41666666666668
 20
-3.599999999999946
 30
0.0
 11
39.58333333333335
 21
-3.599999999999949
 31
0.0
 12
40.00000000000001
 22
-1.099999999999948
 32
0.0
 13
40.00000000000001
 23
-1.099999999999948
 33
0.0
  0
MTEXT
  5
613
330
60A
100
AcDbEntity
  8
2
 62
     0
100
AcDbMText
 10
37.60225000000004
 20
-12.23924999999996
 30
0.0
 40
3.5
 41
0.0
 71
     5
 72
     1
  1
M2.2
  7
SIMPLEX
 11
-3.229739708000455E-15
 21
1.0
 31
0.0
 73
     1
 44
1.0
  0
POINT
  5
614
330
60A
100
AcDbEntity
  8
DEFPOINTS
 62
     0
100
AcDbPoint
 10
25.0
 20
1.1
 30
0.0
  0
POINT
  5
615
330
60A
100
AcDbEntity
  8
DEFPOINTS
 62
     0
100
AcDbPoint
 10
25.0
 20
-1.1
 30
0.0
  0
POINT
  5
616
330
60A
100
AcDbEntity
  8
DEFPOINTS
 62
     0
100
AcDbPoint
 10
40.00000000000001
 20
-1.099999999999948
 30
0.0
  0
ENDBLK
  5
60C
330
60A
100
AcDbEntity
  8
0
100
AcDbBlockEnd
  0
BLOCK
  5
619
330
618
100
AcDbEntity
  8
0
100
AcDbBlockBegin
  2
*D1
 70
     1
 10
0.0
 20
0.0
 30
0.0
  3
*D1
  1

  0
LINE
  5
61B
330
618
100
AcDbEntity
  8
2
 62
     0
370
    -2
100
AcDbLine
 10
0.0
 20
0.0
 30
0.0
 11
0.0
 21
76.25
 31
0.0
  0
LINE
  5
61C
330
618
100
AcDbEntity
  8
2
 62
     0
370
    -2
100
AcDbLine
 10
25.0
 20
0.0
 30
0.0
 11
25.0
 21
76.25
 31
0.0
  0
LINE
  5
61D
330
618
100
AcDbEntity
  8
2
 62
     0
370
    -2
100
AcDbLine
 10
2.5
 20
75.0
 30
0.0
 11
22.5
 21
75.0
 31
0.0
  0
SOLID
  5
61E
330
618
100
AcDbEntity
  8
2
 62
     0
100
AcDbTrace
 10
2.5
 20
75.41666666666667
 30
0.0
 11
2.5
 21
74.58333333333333
 31
0.0
 12
0.0
 22
75.0
 32
0.0
 13
0.0
 23
75.0
 33
0.0
  0
SOLID
  5
61F
330
618
100
AcDbEntity
  8
2
 62
     0
100
AcDbTrace
 10
22.5
 20
74.58333333333333
 30
0.0
 11
22.5
 21
75.41666666666667
 31
0.0
 12
25.0
 22
75.0
 32
0.0
 13
25.0
 23
75.0
 33
0.0
  0
MTEXT
  5
620
330
618
100
AcDbEntity
  8
2
 62
     0
100
AcDbMText
 10
12.5
 20
77.39075
 30
0.0
 40
3.5
 41
0.0
 71
     5
 72
     1
  1
25
  7
SIMPLEX
 73
     1
 44
1.0
  0
POINT
  5
621
330
618
100
AcDbEntity
  8
DEFPOINTS
 62
     0
100
AcDbPoint
 10
0.0
 20
0.0
 30
0.0
  0
POINT
  5
622
330
618
100
AcDbEntity
  8
DEFPOINTS
 62
     0
100
AcDbPoint
 10
25.0
 20
0.0
 30
0.0
  0
POINT
  5
623
330
618
100
AcDbEntity
  8
DEFPOINTS
 62
     0
100
AcDbPoint
 10
25.0
 20
75.0
 30
0.0
  0
ENDBLK
  5
61A
330
618
100
AcDbEntity
  8
0
100
AcDbBlockEnd
  0
BLOCK
  5
626
330
625
100
AcDbEntity
  8
0
100
AcDbBlockBegin
  2
*D2
 70
     1
 10
0.0
 20
0.0
 30
0.0
  3
*D2
  1

  0
LINE
  5
628
330
625
100
AcDbEntity
  8
SK2
 62
     0
370
    -2
100
AcDbLine
 10
-15.005
 20
1.4
 30
0.0
 11
-36.25500000000714
 21
1.399999999891552
 31
0.0
  0
LINE
  5
629
330
625
100
AcDbEntity
  8
SK2
 62
     0
370
    -2
100
AcDbLine
 10
-15.005
 20
-1.4
 30
0.0
 11
-36.25499999999285
 21
-1.400000000108447
 31
0.0
  0
LINE
  5
62A
330
625
100
AcDbEntity
  8
SK2
 62
     0
370
    -2
100
AcDbLine
 10
-35.00499999998009
 20
-3.900000000102068
 30
0.0
 11
-35.00499999990533
 21
-18.54900000010207
 31
0.0
  0
LINE
  5
62B
330
625
100
AcDbEntity
  8
SK2
 62
     0
370
    -2
100
AcDbLine
 10
-35.0050000000199
 20
3.899999999897932
 30
0.0
 11
-35.00500000003266
 21
6.399999999897932
 31
0.0
  0
SOLID
  5
62C
330
625
100
AcDbEntity
  8
SK2
 62
     0
100
AcDbTrace
 10
-35.42166666668656
 20
3.899999999895805
 30
0.0
 11
-34.58833333335323
 21
3.899999999900058
 31
0.0
 12
-35.00500000000714
 22
1.399999999897932
 32
0.0
 13
-35.00500000000714
 23
1.399999999897932
 33
0.0
  0
SOLID
  5
62D
330
625
100
AcDbEntity
  8
SK2
 62
     0
100
AcDbTrace
 10
-34.58833333331342
 20
-3.900000000099942
 30
0.0
 11
-35.42166666664675
 21
-3.900000000104194
 31
0.0
 12
-35.00499999999285
 22
-1.400000000102068
 32
0.0
 13
-35.00499999999285
 23
-1.400000000102068
 33
0.0
  0
MTEXT
  5
62E
330
625
100
AcDbEntity
  8
SK2
 62
     0
100
AcDbMText
 10
-37.40274999993633
 20
-12.4745000001143
 30
0.0
 40
3.5
 41
0.0
 71
     5
 72
     1
  1
%%c2.8
  7
SIMPLEX
 11
-5.103219434334149E-12
 21
1.0
 31
0.0
 73
     1
 44
1.0
  0
POINT
  5
62F
330
625
100
AcDbEntity
  8
DEFPOINTS
 62
     0
100
AcDbPoint
 10
-15.005
 20
1.4
 30
0.0
  0
POINT
  5
630
330
625
100
AcDbEntity
  8
DEFPOINTS
 62
     0
100
AcDbPoint
 10
-15.005
 20
-1.4
 30
0.0
  0
POINT
  5
631
330
625
100
AcDbEntity
  8
DEFPOINTS
 62
     0
100
AcDbPoint
 10
-35.00499999999285
 20
-1.400000000102068
 30
0.0
  0
ENDBLK
  5
627
330
625
100
AcDbEntity
  8
0
100
AcDbBlockEnd
  0
BLOCK
  5
634
330
633
100
AcDbEntity
  8
0
100
AcDbBlockBegin
  2
*D3
 70
     1
 10
0.0
 20
0.0
 30
0.0
  3
*D3
  1

  0
LINE
  5
636
330
633
100
AcDbEntity
  8
2
 62
     0
370
    -2
100
AcDbLine
 10
17.497705266
 20
0.81
 30
0.0
 11
17.497705266
 21
61.25
 31
0.0
  0
LINE
  5
637
330
633
100
AcDbEntity
  8
2
 62
     0
370
    -2
100
AcDbLine
 10
25.0
 20
1.1
 30
0.0
 11
25.0
 21
61.25
 31
0.0
  0
LINE
  5
638
330
633
100
AcDbEntity
  8
2
 62
     0
370
    -2
100
AcDbLine
 10
25.0
 20
60.0
 30
0.0
 11
36.002
 21
60.0
 31
0.0
  0
LINE
  5
639
330
633
100
AcDbEntity
  8
2
 62
     0
370
    -2
100
AcDbLine
 10
19.997705266
 20
60.0
 30
0.0
 11
22.5
 21
60.0
 31
0.0
  0
SOLID
  5
63A
330
633
100
AcDbEntity
  8
2
 62
     0
100
AcDbTrace
 10
19.997705266
 20
60.41666666666666
 30
0.0
 11
19.997705266
 21
59.58333333333334
 31
0.0
 12
17.497705266
 22
60.0
 32
0.0
 13
17.497705266
 23
60.0
 33
0.0
  0
SOLID
  5
63B
330
633
100
AcDbEntity
  8
2
 62
     0
100
AcDbTrace
 10
22.5
 20
59.58333333333334
 30
0.0
 11
22.5
 21
60.41666666666666
 31
0.0
 12
25.0
 22
60.0
 32
0.0
 13
25.0
 23
60.0
 33
0.0
  0
MTEXT
  5
63C
330
633
100
AcDbEntity
  8
2
 62
     0
100
AcDbMText
 10
31.751
 20
62.39775
 30
0.0
 40
3.5
 41
0.0
 71
     5
 72
     1
  1
7.5
  7
SIMPLEX
 73
     1
 44
1.0
  0
POINT
  5
63D
330
633
100
AcDbEntity
  8
DEFPOINTS
 62
     0
100
AcDbPoint
 10
17.497705266
 20
0.81
 30
0.0
  0
POINT
  5
63E
330
633
100
AcDbEntity
  8
DEFPOINTS
 62
     0
100
AcDbPoint
 10
25.0
 20
1.1
 30
0.0
  0
POINT
  5
63F
330
633
100
AcDbEntity
  8
DEFPOINTS
 62
     0
100
AcDbPoint
 10
25.0
 20
60.0
 30
0.0
  0
ENDBLK
  5
635
330
633
100
AcDbEntity
  8
0
100
AcDbBlockEnd
  0
BLOCK
  5
642
330
641
100
AcDbEntity
  8
0
100
AcDbBlockBegin
  2
*D4
 70
     1
 10
0.0
 20
0.0
 30
0.0
  3
*D4
  1

  0
LINE
  5
644
330
641
100
AcDbEntity
  8
SK2
 62
     0
370
    -2
100
AcDbLine
 10
-20.005
 20
1.1
 30
0.0
 11
-20.005
 21
91.25
 31
0.0
  0
LINE
  5
645
330
641
100
AcDbEntity
  8
SK2
 62
     0
370
    -2
100
AcDbLine
 10
25.865
 20
1.1
 30
0.0
 11
25.865
 21
91.25
 31
0.0
  0
LINE
  5
646
330
641
100
AcDbEntity
  8
SK2
 62
     0
370
    -2
100
AcDbLine
 10
-17.505
 20
90.0
 30
0.0
 11
23.365
 21
90.0
 31
0.0
  0
SOLID
  5
647
330
641
100
AcDbEntity
  8
SK2
 62
     0
100
AcDbTrace
 10
-17.505
 20
90.41666666666667
 30
0.0
 11
-17.505
 21
89.58333333333333
 31
0.0
 12
-20.005
 22
90.0
 32
0.0
 13
-20.005
 23
90.0
 33
0.0
  0
SOLID
  5
648
330
641
100
AcDbEntity
  8
SK2
 62
     0
100
AcDbTrace
 10
23.365
 20
89.58333333333333
 30
0.0
 11
23.365
 21
90.41666666666667
 31
0.0
 12
25.865
 22
90.0
 32
0.0
 13
25.865
 23
90.0
 33
0.0
  0
MTEXT
  5
649
330
641
100
AcDbEntity
  8
SK2
 62
     0
100
AcDbMText
 10
2.93
 20
92.438
 30
0.0
 40
3.5
 41
0.0
 71
     5
 72
     1
  1
45.87
  7
SIMPLEX
 73
     1
 44
1.0
  0
POINT
  5
64A
330
641
100
AcDbEntity
  8
DEFPOINTS
 62
     0
100
AcDbPoint
 10
-20.005
 20
1.1
 30
0.0
  0
POINT
  5
64B
330
641
100
AcDbEntity
  8
DEFPOINTS
 62
     0
100
AcDbPoint
 10
25.865
 20
1.1
 30
0.0
  0
POINT
  5
64C
330
641
100
AcDbEntity
  8
DEFPOINTS
 62
     0
100
AcDbPoint
 10
25.865
 20
90.0
 30
0.0
  0
ENDBLK
  5
643
330
641
100
AcDbEntity
  8
0
100
AcDbBlockEnd
  0
ENDSEC
  0
SECTION
  2
ENTITIES
  0
LINE
  5
3D6
330
18
100
AcDbEntity
  8
SK4
100
AcDbLine
 10
-22.005
 20
0.0
 30
0.0
 11
11.0
 21
0.0
 31
0.0
  0
LINE
  5
3D7
330
18
100
AcDbEntity
  8
4
100
AcDbLine
 10
9.0
 20
0.0
 30
0.0
 11
27.865
 21
0.0
 31
0.0
  0
LINE
  5
3D8
330
18
100
AcDbEntity
  8
SK4
100
AcDbLine
 10
9.0
 20
0.0
 30
0.0
 11
27.865
 21
0.0
 31
0.0
  0
LINE
  5
3D9
330
18
100
AcDbEntity
  8
1
100
AcDbLine
 10
11.0
 20
1.4
 30
0.0
 11
0.0000000000000009
 21
1.4
 31
0.0
  0
LINE
  5
3DA
330
18
100
AcDbEntity
  8
1
100
AcDbLine
 10
11.0
 20
1.4
 30
0.0
 11
11.0
 21
1.398608129387938
 31
0.0
  0
LINE
  5
3DB
330
18
100
AcDbEntity
  8
1
100
AcDbLine
 10
11.0
 20
1.398608129387938
 30
0.0
 11
11.0
 21
1.274382742859455
 31
0.0
  0
LINE
  5
3DC
330
18
100
AcDbEntity
  8
1
100
AcDbLine
 10
11.0
 20
1.274382742859455
 30
0.0
 11
11.0
 21
-1.4
 31
0.0
  0
LINE
  5
3DD
330
18
100
AcDbEntity
  8
1
100
AcDbLine
 10
13.5
 20
-0.9330907350967669
 30
0.0
 11
14.34605627
 21
-0.7789269285369441
 31
0.0
  0
LINE
  5
3DE
330
18
100
AcDbEntity
  8
1
100
AcDbLine
 10
13.5
 20
0.0357902137488177
 30
0.0
 11
13.91851836011765
 21
0.0399406987183307
 31
0.0
  0
LINE
  5
3DF
330
18
100
AcDbEntity
  8
1
100
AcDbLine
 10
14.34605627
 20
0.81
 30
0.0
 11
14.34605627
 21
0.8098126241494517
 31
0.0
  0
LINE
  5
3E0
330
18
100
AcDbEntity
  8
1
100
AcDbLine
 10
14.34605627
 20
0.8098126241494517
 30
0.0
 11
14.34605627
 21
0.7938409120919615
 31
0.0
  0
LINE
  5
3E1
330
18
100
AcDbEntity
  8
1
100
AcDbLine
 10
14.34605627
 20
0.7938409120919615
 30
0.0
 11
14.34605627
 21
0.0356494856114724
 31
0.0
  0
LINE
  5
3E2
330
18
100
AcDbEntity
  8
1
100
AcDbLine
 10
11.0
 20
1.4
 30
0.0
 11
14.34605627
 21
0.8099999999999999
 31
0.0
  0
LINE
  5
3E3
330
18
100
AcDbEntity
  8
1
100
AcDbLine
 10
14.34605627
 20
0.81
 30
0.0
 11
17.497705266
 21
0.81
 31
0.0
  0
LINE
  5
3E4
330
18
100
AcDbEntity
  8
1
100
AcDbLine
 10
13.5
 20
0.0357902137488176
 30
0.0
 11
13.5
 21
-0.9330907350967498
 31
0.0
  0
LINE
  5
3E5
330
18
100
AcDbEntity
  8
1
100
AcDbLine
 10
14.34605627
 20
-0.7789269285369368
 30
0.0
 11
14.34605627
 21
-0.81
 31
0.0
  0
LINE
  5
3E6
330
18
100
AcDbEntity
  8
1
100
AcDbLine
 10
17.497705266
 20
-0.7789269285369442
 30
0.0
 11
14.34605627
 21
-0.7789269285369442
 31
0.0
  0
LINE
  5
3E7
330
18
100
AcDbEntity
  8
1
100
AcDbLine
 10
17.497705266
 20
0.0356494856112418
 30
0.0
 11
14.34605627
 21
0.0356494856112417
 31
0.0
  0
LINE
  5
3E8
330
18
100
AcDbEntity
  8
1
100
AcDbLine
 10
17.497705266
 20
0.81
 30
0.0
 11
17.497705266
 21
0.8098126241494517
 31
0.0
  0
LINE
  5
3E9
330
18
100
AcDbEntity
  8
1
100
AcDbLine
 10
17.497705266
 20
0.8098126241494517
 30
0.0
 11
17.497705266
 21
0.7938409120919615
 31
0.0
  0
LINE
  5
3EA
330
18
100
AcDbEntity
  8
1
100
AcDbLine
 10
17.497705266
 20
0.7938409120919615
 30
0.0
 11
17.497705266
 21
0.0356494856114724
 31
0.0
  0
LINE
  5
3EB
330
18
100
AcDbEntity
  8
1
100
AcDbLine
 10
17.497705266
 20
0.0356494856112436
 30
0.0
 11
17.497705266
 21
-0.6223444599607886
 31
0.0
  0
LINE
  5
3EC
330
18
100
AcDbEntity
  8
1
100
AcDbLine
 10
17.497705266
 20
-0.6223444599608143
 30
0.0
 11
17.497705266
 21
-0.7789269285369367
 31
0.0
  0
LINE
  5
3ED
330
18
100
AcDbEntity
  8
1
100
AcDbLine
 10
17.497705266
 20
-0.7789269285369368
 30
0.0
 11
17.497705266
 21
-0.8025537867147421
 31
0.0
  0
LINE
  5
3EE
330
18
100
AcDbEntity
  8
1
100
AcDbLine
 10
17.497705266
 20
-0.8025537867147421
 30
0.0
 11
17.497705266
 21
-0.81
 31
0.0
  0
LINE
  5
3EF
330
18
100
AcDbEntity
  8
1
100
AcDbLine
 10
-0.0000000000000018
 20
-1.4
 30
0.0
 11
11.0
 21
-1.4
 31
0.0
  0
LINE
  5
3F0
330
18
100
AcDbEntity
  8
1
100
AcDbLine
 10
11.0
 20
-1.4
 30
0.0
 11
14.34605627
 21
-0.8099999999999999
 31
0.0
  0
LINE
  5
3F1
330
18
100
AcDbEntity
  8
1
100
AcDbLine
 10
14.34605627
 20
-0.81
 30
0.0
 11
17.497705266
 21
-0.81
 31
0.0
  0
LINE
  5
3F2
330
18
100
AcDbEntity
  8
1
100
AcDbLine
 10
13.91851836011765
 20
0.0399406987183307
 30
0.0
 11
14.34605627
 21
0.0356494856112418
 31
0.0
  0
LINE
  5
3F3
330
18
100
AcDbEntity
  8
1
 62
     1
100
AcDbLine
 10
23.81854393616395
 20
1.022215274632771
 30
0.0
 11
23.94085274461514
 21
1.00593975368938
 31
0.0
  0
LINE
  5
3F4
330
18
100
AcDbEntity
  8
1
 62
     1
100
AcDbLine
 10
21.61345298923241
 20
1.1
 30
0.0
 11
21.63654701076759
 21
1.1
 31
0.0
  0
LINE
  5
3F5
330
18
100
AcDbEntity
  8
1
 62
     1
100
AcDbLine
 10
22.06345298923242
 20
1.1
 30
0.0
 11
22.08654701076759
 21
1.1
 31
0.0
  0
LINE
  5
3F6
330
18
100
AcDbEntity
  8
1
 62
     1
100
AcDbLine
 10
22.96345298923241
 20
1.1
 30
0.0
 11
22.98654701076759
 21
1.1
 31
0.0
  0
LINE
  5
3F7
330
18
100
AcDbEntity
  8
1
 62
     1
100
AcDbLine
 10
18.01345298923241
 20
1.1
 30
0.0
 11
18.03654701076759
 21
1.1
 31
0.0
  0
LINE
  5
3F8
330
18
100
AcDbEntity
  8
1
 62
     1
100
AcDbLine
 10
18.46345298923242
 20
1.1
 30
0.0
 11
18.48654701076759
 21
1.1
 31
0.0
  0
LINE
  5
3F9
330
18
100
AcDbEntity
  8
1
 62
     1
100
AcDbLine
 10
18.9134529892324
 20
1.1
 30
0.0
 11
18.93654701076758
 21
1.1
 31
0.0
  0
LINE
  5
3FA
330
18
100
AcDbEntity
  8
1
 62
     1
100
AcDbLine
 10
21.16345298923241
 20
1.1
 30
0.0
 11
21.1865470107676
 21
1.1
 31
0.0
  0
LINE
  5
3FB
330
18
100
AcDbEntity
  8
1
 62
     1
100
AcDbLine
 10
20.71345298923241
 20
1.1
 30
0.0
 11
20.73654701076759
 21
1.1
 31
0.0
  0
LINE
  5
3FC
330
18
100
AcDbEntity
  8
1
 62
     1
100
AcDbLine
 10
20.26345298923241
 20
1.1
 30
0.0
 11
20.28654701076758
 21
1.1
 31
0.0
  0
LINE
  5
3FD
330
18
100
AcDbEntity
  8
1
 62
     1
100
AcDbLine
 10
19.81345298923241
 20
1.1
 30
0.0
 11
19.83654701076758
 21
1.1
 31
0.0
  0
LINE
  5
3FE
330
18
100
AcDbEntity
  8
1
 62
     1
100
AcDbLine
 10
19.36345298923241
 20
1.1
 30
0.0
 11
19.38654701076759
 21
1.1
 31
0.0
  0
LINE
  5
3FF
330
18
100
AcDbEntity
  8
1
 62
     1
100
AcDbLine
 10
17.497705266
 20
0.81
 30
0.0
 11
17.68991029425064
 21
0.9209696248431839
 31
0.0
  0
LINE
  5
400
330
18
100
AcDbEntity
  8
1
 62
     1
100
AcDbLine
 10
22.06345298923242
 20
-1.100000000000009
 30
0.0
 11
21.85
 21
-0.7302887500000002
 31
0.0
  0
LINE
  5
401
330
18
100
AcDbEntity
  8
1
 62
     1
100
AcDbLine
 10
22.96345298923241
 20
-1.099999999999997
 30
0.0
 11
22.75
 21
-0.7302887500000002
 31
0.0
  0
LINE
  5
402
330
18
100
AcDbEntity
  8
1
 62
     1
100
AcDbLine
 10
18.01345298923241
 20
-1.099999999999997
 30
0.0
 11
17.8
 21
-0.7302887500000002
 31
0.0
  0
LINE
  5
403
330
18
100
AcDbEntity
  8
1
 62
     1
100
AcDbLine
 10
18.46345298923242
 20
-1.100000000000009
 30
0.0
 11
18.25
 21
-0.7302887500000002
 31
0.0
  0
LINE
  5
404
330
18
100
AcDbEntity
  8
1
 62
     1
100
AcDbLine
 10
20.26345298923241
 20
-1.099999999999997
 30
0.0
 11
20.05
 21
-0.7302887500000002
 31
0.0
  0
LINE
  5
405
330
18
100
AcDbEntity
  8
1
 62
     1
100
AcDbLine
 10
24.9157518088301
 20
0.039877025165785
 30
0.0
 11
24.84679786317888
 21
0.0399407001861642
 31
0.0
  0
LINE
  5
406
330
18
100
AcDbEntity
  8
1
 62
     1
100
AcDbLine
 10
24.65433239304155
 20
0.9109976713676302
 30
0.0
 11
24.9157518088301
 21
0.8762108295158132
 31
0.0
  0
LINE
  5
407
330
18
100
AcDbEntity
  8
1
 62
     1
100
AcDbLine
 10
24.42830227751745
 20
0.0375824892345142
 30
0.0
 11
24.23643816460275
 21
0.0349080478985295
 31
0.0
  0
LINE
  5
408
330
18
100
AcDbEntity
  8
1
 62
     1
100
AcDbLine
 10
24.23643816460276
 20
0.9666064730001998
 30
0.0
 11
24.42830227672261
 21
0.9410752916025972
 31
0.0
  0
LINE
  5
409
330
18
100
AcDbEntity
  8
1
 62
     1
100
AcDbLine
 10
23.94085274461512
 20
0.0287855424023478
 30
0.0
 11
23.81854393616395
 21
0.0255287846585361
 31
0.0
  0
LINE
  5
40A
330
18
100
AcDbEntity
  8
1
 62
     1
100
AcDbLine
 10
23.40064970772515
 20
1.07782407626534
 30
0.0
 11
23.45340321250763
 21
1.070804215776165
 31
0.0
  0
LINE
  5
40B
330
18
100
AcDbEntity
  8
1
 62
     1
100
AcDbLine
 10
24.9157518088301
 20
-0.8475686271687943
 30
0.0
 11
24.99999999999999
 21
-0.6956643000589872
 31
0.0
  0
LINE
  5
40C
330
18
100
AcDbEntity
  8
1
 62
     1
100
AcDbLine
 10
24.9157518088301
 20
-0.8475686271687898
 30
0.0
 11
24.9157518088301
 21
-0.8762108295158132
 31
0.0
  0
LINE
  5
40D
330
18
100
AcDbEntity
  8
1
 62
     1
100
AcDbLine
 10
25.0
 20
-0.7302887500000002
 30
0.0
 11
24.9157518088301
 21
-0.8762108295158176
 31
0.0
  0
LINE
  5
40E
330
18
100
AcDbEntity
  8
1
 62
     1
100
AcDbLine
 10
22.51345298923241
 20
1.1
 30
0.0
 11
22.53654701076758
 21
1.1
 31
0.0
  0
LINE
  5
40F
330
18
100
AcDbEntity
  8
1
 62
     1
100
AcDbLine
 10
20.71345298923241
 20
1.1
 30
0.0
 11
20.7134529892324
 21
1.099730364629798
 31
0.0
  0
LINE
  5
410
330
18
100
AcDbEntity
  8
1
 62
     1
100
AcDbLine
 10
20.7134529892324
 20
1.099730364629798
 30
0.0
 11
20.71345298923241
 21
1.076710577571772
 31
0.0
  0
LINE
  5
411
330
18
100
AcDbEntity
  8
1
 62
     1
100
AcDbLine
 10
20.71345298923241
 20
1.076710577571772
 30
0.0
 11
20.71345298923241
 21
0.0038966506088474
 31
0.0
  0
LINE
  5
412
330
18
100
AcDbEntity
  8
1
 62
     1
100
AcDbLine
 10
19.81345298923241
 20
1.1
 30
0.0
 11
19.81345298923241
 21
1.099730364629798
 31
0.0
  0
LINE
  5
413
330
18
100
AcDbEntity
  8
1
 62
     1
100
AcDbLine
 10
19.81345298923241
 20
1.099730364629798
 30
0.0
 11
19.81345298923241
 21
1.076710577571772
 31
0.0
  0
LINE
  5
414
330
18
100
AcDbEntity
  8
1
 62
     1
100
AcDbLine
 10
19.81345298923241
 20
1.076710577571772
 30
0.0
 11
19.81345298923241
 21
0.0038966506088474
 31
0.0
  0
LINE
  5
415
330
18
100
AcDbEntity
  8
1
 62
     1
100
AcDbLine
 10
19.36345298923241
 20
1.1
 30
0.0
 11
19.36345298923241
 21
1.099730364629798
 31
0.0
  0
LINE
  5
416
330
18
100
AcDbEntity
  8
1
 62
     1
100
AcDbLine
 10
19.36345298923241
 20
1.099730364629798
 30
0.0
 11
19.36345298923241
 21
1.076710577571772
 31
0.0
  0
LINE
  5
417
330
18
100
AcDbEntity
  8
1
 62
     1
100
AcDbLine
 10
19.36345298923241
 20
1.076710577571772
 30
0.0
 11
19.36345298923241
 21
0.0038966506088474
 31
0.0
  0
LINE
  5
418
330
18
100
AcDbEntity
  8
1
 62
     1
100
AcDbLine
 10
22.53654701076758
 20
-1.077324073805093
 30
0.0
 11
22.75
 21
-0.6956643000589872
 31
0.0
  0
LINE
  5
419
330
18
100
AcDbEntity
  8
1
 62
     1
100
AcDbLine
 10
22.53654701076759
 20
-1.077324073805091
 30
0.0
 11
22.53654701076758
 21
-1.1
 31
0.0
  0
LINE
  5
41A
330
18
100
AcDbEntity
  8
1
 62
     1
100
AcDbLine
 10
22.75
 20
-0.7302887500000002
 30
0.0
 11
22.53654701076758
 21
-1.100000000000002
 31
0.0
  0
LINE
  5
41B
330
18
100
AcDbEntity
  8
1
 62
     1
100
AcDbLine
 10
22.75
 20
-0.6956643000589872
 30
0.0
 11
22.96345298923241
 21
-1.07732407380509
 31
0.0
  0
LINE
  5
41C
330
18
100
AcDbEntity
  8
1
 62
     1
100
AcDbLine
 10
22.75
 20
-0.7302887500000002
 30
0.0
 11
22.75
 21
-0.7302810951763795
 31
0.0
  0
LINE
  5
41D
330
18
100
AcDbEntity
  8
1
 62
     1
100
AcDbLine
 10
22.75
 20
-0.7302810951763795
 30
0.0
 11
22.75
 21
-0.7280113617376518
 31
0.0
  0
LINE
  5
41E
330
18
100
AcDbEntity
  8
1
 62
     1
100
AcDbLine
 10
22.75
 20
-0.7280113617376518
 30
0.0
 11
22.75
 21
-0.6956643000589869
 31
0.0
  0
LINE
  5
41F
330
18
100
AcDbEntity
  8
1
 62
     1
100
AcDbLine
 10
22.96345298923241
 20
-1.077324073805091
 30
0.0
 11
22.96345298923241
 21
-1.1
 31
0.0
  0
LINE
  5
420
330
18
100
AcDbEntity
  8
1
 62
     1
100
AcDbLine
 10
22.08654701076758
 20
-1.077324073805093
 30
0.0
 11
22.3
 21
-0.6956643000589872
 31
0.0
  0
LINE
  5
421
330
18
100
AcDbEntity
  8
1
 62
     1
100
AcDbLine
 10
22.08654701076759
 20
-1.077324073805091
 30
0.0
 11
22.08654701076759
 21
-1.1
 31
0.0
  0
LINE
  5
422
330
18
100
AcDbEntity
  8
1
 62
     1
100
AcDbLine
 10
22.3
 20
-0.7302887500000002
 30
0.0
 11
22.08654701076759
 21
-1.100000000000002
 31
0.0
  0
LINE
  5
423
330
18
100
AcDbEntity
  8
1
 62
     1
100
AcDbLine
 10
24.42830227672261
 20
-0.9144669838025385
 30
0.0
 11
24.54999999999999
 21
-0.6956643000589872
 31
0.0
  0
LINE
  5
424
330
18
100
AcDbEntity
  8
1
 62
     1
100
AcDbLine
 10
24.42830227672262
 20
-0.9144669838025375
 30
0.0
 11
24.42830227672261
 21
-0.9410752916025971
 31
0.0
  0
LINE
  5
425
330
18
100
AcDbEntity
  8
1
 62
     1
100
AcDbLine
 10
24.55
 20
-0.7302887500000002
 30
0.0
 11
24.42830227672261
 21
-0.9410752916025981
 31
0.0
  0
LINE
  5
426
330
18
100
AcDbEntity
  8
1
 62
     1
100
AcDbLine
 10
24.09999999999999
 20
-0.6956643000589872
 30
0.0
 11
24.23643816460275
 21
-0.9407205927616829
 31
0.0
  0
LINE
  5
427
330
18
100
AcDbEntity
  8
1
 62
     1
100
AcDbLine
 10
24.1
 20
-0.7302887500000002
 30
0.0
 11
24.09999999999999
 21
-0.7302810951763795
 31
0.0
  0
LINE
  5
428
330
18
100
AcDbEntity
  8
1
 62
     1
100
AcDbLine
 10
24.09999999999999
 20
-0.7302810951763795
 30
0.0
 11
24.1
 21
-0.7280113617376518
 31
0.0
  0
LINE
  5
429
330
18
100
AcDbEntity
  8
1
 62
     1
100
AcDbLine
 10
24.1
 20
-0.7280113617376518
 30
0.0
 11
24.1
 21
-0.6956643000589869
 31
0.0
  0
LINE
  5
42A
330
18
100
AcDbEntity
  8
1
 62
     1
100
AcDbLine
 10
24.23643816460275
 20
-0.9666064730002057
 30
0.0
 11
24.1
 21
-0.7302887500000002
 31
0.0
  0
LINE
  5
42B
330
18
100
AcDbEntity
  8
1
 62
     1
100
AcDbLine
 10
24.23643816460276
 20
-0.9407205927812426
 30
0.0
 11
24.23643816460276
 21
-0.9666064730001996
 31
0.0
  0
LINE
  5
42C
330
18
100
AcDbEntity
  8
1
 62
     1
100
AcDbLine
 10
23.94085274461512
 20
-0.9810922219917135
 30
0.0
 11
24.09999999999999
 21
-0.6956643000589872
 31
0.0
  0
LINE
  5
42D
330
18
100
AcDbEntity
  8
1
 62
     1
100
AcDbLine
 10
23.94085274461513
 20
-0.9810922219917174
 30
0.0
 11
23.94085274461513
 21
-1.005939753689379
 31
0.0
  0
LINE
  5
42E
330
18
100
AcDbEntity
  8
1
 62
     1
100
AcDbLine
 10
24.1
 20
-0.7302887500000002
 30
0.0
 11
23.94085274461513
 21
-1.005939753689356
 31
0.0
  0
LINE
  5
42F
330
18
100
AcDbEntity
  8
1
 62
     1
100
AcDbLine
 10
23.2
 20
-0.6956643000589872
 30
0.0
 11
23.40064970772514
 21
-1.05467146513843
 31
0.0
  0
LINE
  5
430
330
18
100
AcDbEntity
  8
1
 62
     1
100
AcDbLine
 10
23.40064970772515
 20
-1.077824076265346
 30
0.0
 11
23.2
 21
-0.7302887500000002
 31
0.0
  0
LINE
  5
431
330
18
100
AcDbEntity
  8
1
 62
     1
100
AcDbLine
 10
23.40064970772514
 20
-1.054671465138424
 30
0.0
 11
23.40064970772515
 21
-1.07782407626534
 31
0.0
  0
LINE
  5
432
330
18
100
AcDbEntity
  8
1
 62
     1
100
AcDbLine
 10
22.98654701076758
 20
-1.07732407380509
 30
0.0
 11
23.2
 21
-0.6956643000589872
 31
0.0
  0
LINE
  5
433
330
18
100
AcDbEntity
  8
1
 62
     1
100
AcDbLine
 10
22.98654701076759
 20
-1.077324073805091
 30
0.0
 11
22.98654701076759
 21
-1.1
 31
0.0
  0
LINE
  5
434
330
18
100
AcDbEntity
  8
1
 62
     1
100
AcDbLine
 10
23.2
 20
-0.7302887500000002
 30
0.0
 11
22.98654701076759
 21
-1.099999999999997
 31
0.0
  0
LINE
  5
435
330
18
100
AcDbEntity
  8
1
 62
     1
100
AcDbLine
 10
23.2
 20
-0.7302887500000002
 30
0.0
 11
23.2
 21
-0.7302810951763795
 31
0.0
  0
LINE
  5
436
330
18
100
AcDbEntity
  8
1
 62
     1
100
AcDbLine
 10
23.2
 20
-0.7302810951763795
 30
0.0
 11
23.2
 21
-0.7280113617376518
 31
0.0
  0
LINE
  5
437
330
18
100
AcDbEntity
  8
1
 62
     1
100
AcDbLine
 10
23.2
 20
-0.7280113617376518
 30
0.0
 11
23.19999999999999
 21
-0.6956643000589869
 31
0.0
  0
LINE
  5
438
330
18
100
AcDbEntity
  8
1
 62
     1
100
AcDbLine
 10
23.45340321250762
 20
-1.047496457523364
 30
0.0
 11
23.65
 21
-0.6956643000589872
 31
0.0
  0
LINE
  5
439
330
18
100
AcDbEntity
  8
1
 62
     1
100
AcDbLine
 10
23.45340321250764
 20
-1.047496457539671
 30
0.0
 11
23.45340321250763
 21
-1.070804215776164
 31
0.0
  0
LINE
  5
43A
330
18
100
AcDbEntity
  8
1
 62
     1
100
AcDbLine
 10
23.65
 20
-0.7302887500000002
 30
0.0
 11
23.45340321250763
 21
-1.070804215776147
 31
0.0
  0
LINE
  5
43B
330
18
100
AcDbEntity
  8
1
 62
     1
100
AcDbLine
 10
23.65
 20
-0.6956643000589872
 30
0.0
 11
23.81854393616395
 21
-0.9977731343810325
 31
0.0
  0
LINE
  5
43C
330
18
100
AcDbEntity
  8
1
 62
     1
100
AcDbLine
 10
23.65
 20
-0.7302887500000002
 30
0.0
 11
23.65
 21
-0.7302810951763795
 31
0.0
  0
LINE
  5
43D
330
18
100
AcDbEntity
  8
1
 62
     1
100
AcDbLine
 10
23.65
 20
-0.7302810951763795
 30
0.0
 11
23.65
 21
-0.7280113617376518
 31
0.0
  0
LINE
  5
43E
330
18
100
AcDbEntity
  8
1
 62
     1
100
AcDbLine
 10
23.65
 20
-0.7280113617376518
 30
0.0
 11
23.65
 21
-0.6956643000589869
 31
0.0
  0
LINE
  5
43F
330
18
100
AcDbEntity
  8
1
 62
     1
100
AcDbLine
 10
23.81854393616395
 20
-1.022215274632772
 30
0.0
 11
23.65
 21
-0.7302887500000002
 31
0.0
  0
LINE
  5
440
330
18
100
AcDbEntity
  8
1
 62
     1
100
AcDbLine
 10
23.81854393616395
 20
-0.9977731346542469
 30
0.0
 11
23.81854393616395
 21
-1.02221527463277
 31
0.0
  0
LINE
  5
441
330
18
100
AcDbEntity
  8
1
 62
     1
100
AcDbLine
 10
24.54999999999999
 20
-0.6956643000589872
 30
0.0
 11
24.65433239304156
 21
-0.8834839654669691
 31
0.0
  0
LINE
  5
442
330
18
100
AcDbEntity
  8
1
 62
     1
100
AcDbLine
 10
24.55
 20
-0.7302887500000002
 30
0.0
 11
24.54999999999999
 21
-0.7302810951763795
 31
0.0
  0
LINE
  5
443
330
18
100
AcDbEntity
  8
1
 62
     1
100
AcDbLine
 10
24.54999999999999
 20
-0.7302810951763795
 30
0.0
 11
24.55
 21
-0.7280113617376518
 31
0.0
  0
LINE
  5
444
330
18
100
AcDbEntity
  8
1
 62
     1
100
AcDbLine
 10
24.55
 20
-0.7280113617376518
 30
0.0
 11
24.54999999999999
 21
-0.6956643000589869
 31
0.0
  0
LINE
  5
445
330
18
100
AcDbEntity
  8
1
 62
     1
100
AcDbLine
 10
24.65433239304155
 20
-0.9109976713676262
 30
0.0
 11
24.55
 21
-0.7302887500000002
 31
0.0
  0
LINE
  5
446
330
18
100
AcDbEntity
  8
1
 62
     1
100
AcDbLine
 10
24.65433239304156
 20
-0.8834839654669688
 30
0.0
 11
24.65433239304155
 21
-0.9109976713676303
 31
0.0
  0
LINE
  5
447
330
18
100
AcDbEntity
  8
1
 62
     1
100
AcDbLine
 10
22.3
 20
-0.6956643000589872
 30
0.0
 11
22.51345298923241
 21
-1.077324073805093
 31
0.0
  0
LINE
  5
448
330
18
100
AcDbEntity
  8
1
 62
     1
100
AcDbLine
 10
22.3
 20
-0.7302887500000002
 30
0.0
 11
22.3
 21
-0.7302810951763795
 31
0.0
  0
LINE
  5
449
330
18
100
AcDbEntity
  8
1
 62
     1
100
AcDbLine
 10
22.3
 20
-0.7302810951763795
 30
0.0
 11
22.3
 21
-0.7280113617376518
 31
0.0
  0
LINE
  5
44A
330
18
100
AcDbEntity
  8
1
 62
     1
100
AcDbLine
 10
22.3
 20
-0.7280113617376518
 30
0.0
 11
22.29999999999999
 21
-0.6956643000589869
 31
0.0
  0
LINE
  5
44B
330
18
100
AcDbEntity
  8
1
 62
     1
100
AcDbLine
 10
22.51345298923241
 20
-1.100000000000003
 30
0.0
 11
22.3
 21
-0.7302887500000002
 31
0.0
  0
LINE
  5
44C
330
18
100
AcDbEntity
  8
1
 62
     1
100
AcDbLine
 10
22.51345298923241
 20
-1.077324073805091
 30
0.0
 11
22.51345298923241
 21
-1.1
 31
0.0
  0
LINE
  5
44D
330
18
100
AcDbEntity
  8
1
 62
     1
100
AcDbLine
 10
20.28654701076759
 20
-1.07732407380509
 30
0.0
 11
20.5
 21
-0.6956643000589872
 31
0.0
  0
LINE
  5
44E
330
18
100
AcDbEntity
  8
1
 62
     1
100
AcDbLine
 10
20.28654701076759
 20
-1.077324073805091
 30
0.0
 11
20.28654701076759
 21
-1.1
 31
0.0
  0
LINE
  5
44F
330
18
100
AcDbEntity
  8
1
 62
     1
100
AcDbLine
 10
20.5
 20
-0.7302887500000002
 30
0.0
 11
20.28654701076759
 21
-1.099999999999997
 31
0.0
  0
LINE
  5
450
330
18
100
AcDbEntity
  8
1
 62
     1
100
AcDbLine
 10
20.5
 20
-0.6956643000589872
 30
0.0
 11
20.71345298923241
 21
-1.07732407380509
 31
0.0
  0
LINE
  5
451
330
18
100
AcDbEntity
  8
1
 62
     1
100
AcDbLine
 10
20.5
 20
-0.7302887500000002
 30
0.0
 11
20.5
 21
-0.7302810951763795
 31
0.0
  0
LINE
  5
452
330
18
100
AcDbEntity
  8
1
 62
     1
100
AcDbLine
 10
20.5
 20
-0.7302810951763795
 30
0.0
 11
20.5
 21
-0.7280113617376518
 31
0.0
  0
LINE
  5
453
330
18
100
AcDbEntity
  8
1
 62
     1
100
AcDbLine
 10
20.5
 20
-0.7280113617376518
 30
0.0
 11
20.5
 21
-0.6956643000589869
 31
0.0
  0
LINE
  5
454
330
18
100
AcDbEntity
  8
1
 62
     1
100
AcDbLine
 10
20.71345298923241
 20
-1.099999999999996
 30
0.0
 11
20.5
 21
-0.7302887500000002
 31
0.0
  0
LINE
  5
455
330
18
100
AcDbEntity
  8
1
 62
     1
100
AcDbLine
 10
20.71345298923241
 20
-1.077324073805091
 30
0.0
 11
20.71345298923241
 21
-1.1
 31
0.0
  0
LINE
  5
456
330
18
100
AcDbEntity
  8
1
 62
     1
100
AcDbLine
 10
20.73654701076759
 20
-1.07732407380509
 30
0.0
 11
20.95
 21
-0.6956643000589872
 31
0.0
  0
LINE
  5
457
330
18
100
AcDbEntity
  8
1
 62
     1
100
AcDbLine
 10
20.73654701076759
 20
-1.077324073805091
 30
0.0
 11
20.73654701076759
 21
-1.1
 31
0.0
  0
LINE
  5
458
330
18
100
AcDbEntity
  8
1
 62
     1
100
AcDbLine
 10
20.95
 20
-0.7302887500000002
 30
0.0
 11
20.73654701076759
 21
-1.099999999999997
 31
0.0
  0
LINE
  5
459
330
18
100
AcDbEntity
  8
1
 62
     1
100
AcDbLine
 10
20.95
 20
-0.6956643000589872
 30
0.0
 11
21.16345298923241
 21
-1.07732407380509
 31
0.0
  0
LINE
  5
45A
330
18
100
AcDbEntity
  8
1
 62
     1
100
AcDbLine
 10
20.95
 20
-0.7302887500000002
 30
0.0
 11
20.95
 21
-0.7302810951763795
 31
0.0
  0
LINE
  5
45B
330
18
100
AcDbEntity
  8
1
 62
     1
100
AcDbLine
 10
20.95
 20
-0.7302810951763795
 30
0.0
 11
20.95
 21
-0.7280113617376518
 31
0.0
  0
LINE
  5
45C
330
18
100
AcDbEntity
  8
1
 62
     1
100
AcDbLine
 10
20.95
 20
-0.7280113617376518
 30
0.0
 11
20.95
 21
-0.6956643000589869
 31
0.0
  0
LINE
  5
45D
330
18
100
AcDbEntity
  8
1
 62
     1
100
AcDbLine
 10
21.16345298923241
 20
-1.099999999999996
 30
0.0
 11
20.95
 21
-0.7302887500000002
 31
0.0
  0
LINE
  5
45E
330
18
100
AcDbEntity
  8
1
 62
     1
100
AcDbLine
 10
21.16345298923241
 20
-1.077324073805091
 30
0.0
 11
21.16345298923241
 21
-1.1
 31
0.0
  0
LINE
  5
45F
330
18
100
AcDbEntity
  8
1
 62
     1
100
AcDbLine
 10
21.18654701076759
 20
-1.07732407380509
 30
0.0
 11
21.4
 21
-0.6956643000589872
 31
0.0
  0
LINE
  5
460
330
18
100
AcDbEntity
  8
1
 62
     1
100
AcDbLine
 10
21.1865470107676
 20
-1.077324073805091
 30
0.0
 11
21.1865470107676
 21
-1.1
 31
0.0
  0
LINE
  5
461
330
18
100
AcDbEntity
  8
1
 62
     1
100
AcDbLine
 10
21.4
 20
-0.7302887500000002
 30
0.0
 11
21.1865470107676
 21
-1.099999999999978
 31
0.0
  0
LINE
  5
462
330
18
100
AcDbEntity
  8
1
 62
     1
100
AcDbLine
 10
21.4
 20
-0.6956643000589872
 30
0.0
 11
21.61345298923241
 21
-1.077324073805093
 31
0.0
  0
LINE
  5
463
330
18
100
AcDbEntity
  8
1
 62
     1
100
AcDbLine
 10
21.4
 20
-0.7302887500000002
 30
0.0
 11
21.4
 21
-0.7302810951763795
 31
0.0
  0
LINE
  5
464
330
18
100
AcDbEntity
  8
1
 62
     1
100
AcDbLine
 10
21.4
 20
-0.7302810951763795
 30
0.0
 11
21.4
 21
-0.7280113617376518
 31
0.0
  0
LINE
  5
465
330
18
100
AcDbEntity
  8
1
 62
     1
100
AcDbLine
 10
21.4
 20
-0.7280113617376518
 30
0.0
 11
21.4
 21
-0.6956643000589869
 31
0.0
  0
LINE
  5
466
330
18
100
AcDbEntity
  8
1
 62
     1
100
AcDbLine
 10
21.61345298923241
 20
-1.100000000000003
 30
0.0
 11
21.4
 21
-0.7302887500000002
 31
0.0
  0
LINE
  5
467
330
18
100
AcDbEntity
  8
1
 62
     1
100
AcDbLine
 10
21.61345298923241
 20
-1.077324073805091
 30
0.0
 11
21.61345298923241
 21
-1.1
 31
0.0
  0
LINE
  5
468
330
18
100
AcDbEntity
  8
1
 62
     1
100
AcDbLine
 10
21.85
 20
-0.6956643000589872
 30
0.0
 11
22.06345298923242
 21
-1.0773240738051
 31
0.0
  0
LINE
  5
469
330
18
100
AcDbEntity
  8
1
 62
     1
100
AcDbLine
 10
22.06345298923242
 20
-1.077324073805091
 30
0.0
 11
22.06345298923242
 21
-1.1
 31
0.0
  0
LINE
  5
46A
330
18
100
AcDbEntity
  8
1
 62
     1
100
AcDbLine
 10
21.63654701076759
 20
-1.077324073805093
 30
0.0
 11
21.85
 21
-0.6956643000589872
 31
0.0
  0
LINE
  5
46B
330
18
100
AcDbEntity
  8
1
 62
     1
100
AcDbLine
 10
21.63654701076759
 20
-1.077324073805091
 30
0.0
 11
21.63654701076759
 21
-1.1
 31
0.0
  0
LINE
  5
46C
330
18
100
AcDbEntity
  8
1
 62
     1
100
AcDbLine
 10
21.85
 20
-0.7302887500000002
 30
0.0
 11
21.63654701076759
 21
-1.100000000000002
 31
0.0
  0
LINE
  5
46D
330
18
100
AcDbEntity
  8
1
 62
     1
100
AcDbLine
 10
21.85
 20
-0.7302887500000002
 30
0.0
 11
21.84999999999999
 21
-0.7302810951763795
 31
0.0
  0
LINE
  5
46E
330
18
100
AcDbEntity
  8
1
 62
     1
100
AcDbLine
 10
21.84999999999999
 20
-0.7302810951763795
 30
0.0
 11
21.85
 21
-0.7280113617376518
 31
0.0
  0
LINE
  5
46F
330
18
100
AcDbEntity
  8
1
 62
     1
100
AcDbLine
 10
21.85
 20
-0.7280113617376518
 30
0.0
 11
21.85
 21
-0.6956643000589869
 31
0.0
  0
LINE
  5
470
330
18
100
AcDbEntity
  8
1
 62
     1
100
AcDbLine
 10
19.6
 20
-0.6956643000589872
 30
0.0
 11
19.81345298923241
 21
-1.077324073805092
 31
0.0
  0
LINE
  5
471
330
18
100
AcDbEntity
  8
1
 62
     1
100
AcDbLine
 10
19.6
 20
-0.7302887500000002
 30
0.0
 11
19.59999999999999
 21
-0.7302810951763795
 31
0.0
  0
LINE
  5
472
330
18
100
AcDbEntity
  8
1
 62
     1
100
AcDbLine
 10
19.59999999999999
 20
-0.7302810951763795
 30
0.0
 11
19.6
 21
-0.7280113617376518
 31
0.0
  0
LINE
  5
473
330
18
100
AcDbEntity
  8
1
 62
     1
100
AcDbLine
 10
19.6
 20
-0.7280113617376518
 30
0.0
 11
19.6
 21
-0.6956643000589869
 31
0.0
  0
LINE
  5
474
330
18
100
AcDbEntity
  8
1
 62
     1
100
AcDbLine
 10
19.81345298923241
 20
-1.100000000000003
 30
0.0
 11
19.6
 21
-0.7302887500000002
 31
0.0
  0
LINE
  5
475
330
18
100
AcDbEntity
  8
1
 62
     1
100
AcDbLine
 10
19.81345298923241
 20
-1.077324073805091
 30
0.0
 11
19.81345298923241
 21
-1.1
 31
0.0
  0
LINE
  5
476
330
18
100
AcDbEntity
  8
1
 62
     1
100
AcDbLine
 10
19.83654701076759
 20
-1.077324073805093
 30
0.0
 11
20.05
 21
-0.6956643000589872
 31
0.0
  0
LINE
  5
477
330
18
100
AcDbEntity
  8
1
 62
     1
100
AcDbLine
 10
19.83654701076759
 20
-1.077324073805091
 30
0.0
 11
19.83654701076759
 21
-1.1
 31
0.0
  0
LINE
  5
478
330
18
100
AcDbEntity
  8
1
 62
     1
100
AcDbLine
 10
20.05
 20
-0.7302887500000002
 30
0.0
 11
19.83654701076759
 21
-1.100000000000002
 31
0.0
  0
LINE
  5
479
330
18
100
AcDbEntity
  8
1
 62
     1
100
AcDbLine
 10
20.05
 20
-0.6956643000589872
 30
0.0
 11
20.26345298923241
 21
-1.07732407380509
 31
0.0
  0
LINE
  5
47A
330
18
100
AcDbEntity
  8
1
 62
     1
100
AcDbLine
 10
20.05
 20
-0.7302887500000002
 30
0.0
 11
20.05
 21
-0.7302810951763795
 31
0.0
  0
LINE
  5
47B
330
18
100
AcDbEntity
  8
1
 62
     1
100
AcDbLine
 10
20.05
 20
-0.7302810951763795
 30
0.0
 11
20.05
 21
-0.7280113617376518
 31
0.0
  0
LINE
  5
47C
330
18
100
AcDbEntity
  8
1
 62
     1
100
AcDbLine
 10
20.05
 20
-0.7280113617376518
 30
0.0
 11
20.05
 21
-0.6956643000589869
 31
0.0
  0
LINE
  5
47D
330
18
100
AcDbEntity
  8
1
 62
     1
100
AcDbLine
 10
20.26345298923242
 20
-1.077324073805091
 30
0.0
 11
20.26345298923241
 21
-1.1
 31
0.0
  0
LINE
  5
47E
330
18
100
AcDbEntity
  8
1
 62
     1
100
AcDbLine
 10
19.15
 20
-0.6956643000589872
 30
0.0
 11
19.36345298923241
 21
-1.077324073805092
 31
0.0
  0
LINE
  5
47F
330
18
100
AcDbEntity
  8
1
 62
     1
100
AcDbLine
 10
19.15
 20
-0.7302887500000002
 30
0.0
 11
19.15
 21
-0.7302810951763795
 31
0.0
  0
LINE
  5
480
330
18
100
AcDbEntity
  8
1
 62
     1
100
AcDbLine
 10
19.15
 20
-0.7302810951763795
 30
0.0
 11
19.15
 21
-0.7280113617376518
 31
0.0
  0
LINE
  5
481
330
18
100
AcDbEntity
  8
1
 62
     1
100
AcDbLine
 10
19.15
 20
-0.7280113617376518
 30
0.0
 11
19.15
 21
-0.6956643000589869
 31
0.0
  0
LINE
  5
482
330
18
100
AcDbEntity
  8
1
 62
     1
100
AcDbLine
 10
19.36345298923241
 20
-1.100000000000003
 30
0.0
 11
19.15
 21
-0.7302887500000002
 31
0.0
  0
LINE
  5
483
330
18
100
AcDbEntity
  8
1
 62
     1
100
AcDbLine
 10
19.36345298923242
 20
-1.077324073805091
 30
0.0
 11
19.36345298923241
 21
-1.1
 31
0.0
  0
LINE
  5
484
330
18
100
AcDbEntity
  8
1
 62
     1
100
AcDbLine
 10
18.93654701076758
 20
-1.07732407380509
 30
0.0
 11
19.15
 21
-0.6956643000589872
 31
0.0
  0
LINE
  5
485
330
18
100
AcDbEntity
  8
1
 62
     1
100
AcDbLine
 10
18.93654701076759
 20
-1.077324073805091
 30
0.0
 11
18.93654701076759
 21
-1.1
 31
0.0
  0
LINE
  5
486
330
18
100
AcDbEntity
  8
1
 62
     1
100
AcDbLine
 10
19.15
 20
-0.7302887500000002
 30
0.0
 11
18.93654701076759
 21
-1.099999999999997
 31
0.0
  0
LINE
  5
487
330
18
100
AcDbEntity
  8
1
 62
     1
100
AcDbLine
 10
18.7
 20
-0.6956643000589872
 30
0.0
 11
18.91345298923241
 21
-1.07732407380509
 31
0.0
  0
LINE
  5
488
330
18
100
AcDbEntity
  8
1
 62
     1
100
AcDbLine
 10
18.91345298923241
 20
-1.099999999999996
 30
0.0
 11
18.7
 21
-0.7302887500000002
 31
0.0
  0
LINE
  5
489
330
18
100
AcDbEntity
  8
1
 62
     1
100
AcDbLine
 10
18.91345298923241
 20
-1.077324073805091
 30
0.0
 11
18.91345298923241
 21
-1.1
 31
0.0
  0
LINE
  5
48A
330
18
100
AcDbEntity
  8
1
 62
     1
100
AcDbLine
 10
18.48654701076758
 20
-1.07732407380509
 30
0.0
 11
18.7
 21
-0.6956643000589872
 31
0.0
  0
LINE
  5
48B
330
18
100
AcDbEntity
  8
1
 62
     1
100
AcDbLine
 10
18.48654701076759
 20
-1.077324073805091
 30
0.0
 11
18.48654701076759
 21
-1.1
 31
0.0
  0
LINE
  5
48C
330
18
100
AcDbEntity
  8
1
 62
     1
100
AcDbLine
 10
18.7
 20
-0.7302887500000002
 30
0.0
 11
18.48654701076759
 21
-1.099999999999997
 31
0.0
  0
LINE
  5
48D
330
18
100
AcDbEntity
  8
1
 62
     1
100
AcDbLine
 10
18.7
 20
-0.7302887500000002
 30
0.0
 11
18.7
 21
-0.7302810951763795
 31
0.0
  0
LINE
  5
48E
330
18
100
AcDbEntity
  8
1
 62
     1
100
AcDbLine
 10
18.7
 20
-0.7302810951763795
 30
0.0
 11
18.7
 21
-0.7280113617376518
 31
0.0
  0
LINE
  5
48F
330
18
100
AcDbEntity
  8
1
 62
     1
100
AcDbLine
 10
18.7
 20
-0.7280113617376518
 30
0.0
 11
18.7
 21
-0.6956643000589869
 31
0.0
  0
LINE
  5
490
330
18
100
AcDbEntity
  8
1
 62
     1
100
AcDbLine
 10
18.25
 20
-0.6956643000589872
 30
0.0
 11
18.46345298923242
 21
-1.0773240738051
 31
0.0
  0
LINE
  5
491
330
18
100
AcDbEntity
  8
1
 62
     1
100
AcDbLine
 10
18.46345298923241
 20
-1.077324073805091
 30
0.0
 11
18.46345298923242
 21
-1.1
 31
0.0
  0
LINE
  5
492
330
18
100
AcDbEntity
  8
1
 62
     1
100
AcDbLine
 10
18.03654701076758
 20
-1.07732407380509
 30
0.0
 11
18.25
 21
-0.6956643000589872
 31
0.0
  0
LINE
  5
493
330
18
100
AcDbEntity
  8
1
 62
     1
100
AcDbLine
 10
18.03654701076759
 20
-1.077324073805091
 30
0.0
 11
18.03654701076759
 21
-1.1
 31
0.0
  0
LINE
  5
494
330
18
100
AcDbEntity
  8
1
 62
     1
100
AcDbLine
 10
18.25
 20
-0.7302887500000002
 30
0.0
 11
18.03654701076759
 21
-1.099999999999997
 31
0.0
  0
LINE
  5
495
330
18
100
AcDbEntity
  8
1
 62
     1
100
AcDbLine
 10
18.25
 20
-0.7302887500000002
 30
0.0
 11
18.25
 21
-0.7302810951763795
 31
0.0
  0
LINE
  5
496
330
18
100
AcDbEntity
  8
1
 62
     1
100
AcDbLine
 10
18.25
 20
-0.7302810951763795
 30
0.0
 11
18.25
 21
-0.7280113617376518
 31
0.0
  0
LINE
  5
497
330
18
100
AcDbEntity
  8
1
 62
     1
100
AcDbLine
 10
18.25
 20
-0.7280113617376518
 30
0.0
 11
18.25
 21
-0.6956643000589869
 31
0.0
  0
LINE
  5
498
330
18
100
AcDbEntity
  8
1
 62
     1
100
AcDbLine
 10
17.8
 20
-0.6956643000589872
 30
0.0
 11
18.01345298923241
 21
-1.07732407380509
 31
0.0
  0
LINE
  5
499
330
18
100
AcDbEntity
  8
1
 62
     1
100
AcDbLine
 10
18.01345298923241
 20
-1.077324073805091
 30
0.0
 11
18.01345298923241
 21
-1.1
 31
0.0
  0
LINE
  5
49A
330
18
100
AcDbEntity
  8
1
 62
     1
100
AcDbLine
 10
19.38654701076759
 20
-1.077324073805093
 30
0.0
 11
19.6
 21
-0.6956643000589872
 31
0.0
  0
LINE
  5
49B
330
18
100
AcDbEntity
  8
1
 62
     1
100
AcDbLine
 10
19.38654701076759
 20
-1.077324073805091
 30
0.0
 11
19.38654701076759
 21
-1.1
 31
0.0
  0
LINE
  5
49C
330
18
100
AcDbEntity
  8
1
 62
     1
100
AcDbLine
 10
19.6
 20
-0.7302887500000002
 30
0.0
 11
19.38654701076759
 21
-1.100000000000002
 31
0.0
  0
LINE
  5
49D
330
18
100
AcDbEntity
  8
1
 62
     1
100
AcDbLine
 10
17.68991029425064
 20
-0.8937629494915238
 30
0.0
 11
17.8
 21
-0.6956643000589872
 31
0.0
  0
LINE
  5
49E
330
18
100
AcDbEntity
  8
1
 62
     1
100
AcDbLine
 10
17.68991029425064
 20
-0.8937629494915252
 30
0.0
 11
17.68991029425064
 21
-0.920969624843184
 31
0.0
  0
LINE
  5
49F
330
18
100
AcDbEntity
  8
1
 62
     1
100
AcDbLine
 10
17.8
 20
-0.7302887500000002
 30
0.0
 11
17.68991029425064
 21
-0.9209696248431682
 31
0.0
  0
LINE
  5
4A0
330
18
100
AcDbEntity
  8
1
 62
     1
100
AcDbLine
 10
17.8
 20
-0.7302887500000002
 30
0.0
 11
17.79999999999999
 21
-0.7302810951763795
 31
0.0
  0
LINE
  5
4A1
330
18
100
AcDbEntity
  8
1
 62
     1
100
AcDbLine
 10
17.79999999999999
 20
-0.7302810951763795
 30
0.0
 11
17.8
 21
-0.7280113617376518
 31
0.0
  0
LINE
  5
4A2
330
18
100
AcDbEntity
  8
1
 62
     1
100
AcDbLine
 10
17.8
 20
-0.7280113617376518
 30
0.0
 11
17.8
 21
-0.6956643000589869
 31
0.0
  0
LINE
  5
4A3
330
18
100
AcDbEntity
  8
1
 62
     1
100
AcDbLine
 10
17.68991029425064
 20
0.0389799910689242
 30
0.0
 11
17.62916834397219
 21
0.0399406811530141
 31
0.0
  0
LINE
  5
4A4
330
18
100
AcDbEntity
  8
1
 62
     1
100
AcDbLine
 10
17.62916834397219
 20
0.0399406811530141
 30
0.0
 11
17.6282779399259
 21
0.039940880110892
 31
0.0
  0
LINE
  5
4A5
330
18
100
AcDbEntity
  8
1
 62
     1
100
AcDbLine
 10
18.93654701076759
 20
-1.077324073805091
 30
0.0
 11
18.91345298923241
 21
-1.077324073805091
 31
0.0
  0
LINE
  5
4A6
330
18
100
AcDbEntity
  8
1
 62
     1
100
AcDbLine
 10
25.20417818828077
 20
-0.6223444599607884
 30
0.0
 11
25.30855436765189
 21
-0.505505014150071
 31
0.0
  0
LINE
  5
4A7
330
18
100
AcDbEntity
  8
1
 62
     1
100
AcDbLine
 10
25.30855436765189
 20
-0.505505014150071
 30
0.0
 11
25.35647512844751
 21
-0.444822699498118
 31
0.0
  0
LINE
  5
4A8
330
18
100
AcDbEntity
  8
1
 62
     1
100
AcDbLine
 10
25.35647512844751
 20
-0.444822699498118
 30
0.0
 11
25.37853116383566
 21
-0.4137124678111738
 31
0.0
  0
LINE
  5
4A9
330
18
100
AcDbEntity
  8
1
 62
     1
100
AcDbLine
 10
25.37853116383566
 20
-0.4137124678111738
 30
0.0
 11
25.39873082204947
 21
-0.3820132318176324
 31
0.0
  0
LINE
  5
4AA
330
18
100
AcDbEntity
  8
1
 62
     1
100
AcDbLine
 10
25.39873082204947
 20
-0.3820132318176324
 30
0.0
 11
25.40794488725695
 21
-0.3659297654070414
 31
0.0
  0
LINE
  5
4AB
330
18
100
AcDbEntity
  8
1
 62
     1
100
AcDbLine
 10
25.40794488725695
 20
-0.3659297654070414
 30
0.0
 11
25.41644432811973
 21
-0.3496868430794843
 31
0.0
  0
LINE
  5
4AC
330
18
100
AcDbEntity
  8
1
 62
     1
100
AcDbLine
 10
25.41644432811973
 20
-0.3496868430794843
 30
0.0
 11
25.4241109547089
 21
-0.3333057180722563
 31
0.0
  0
LINE
  5
4AD
330
18
100
AcDbEntity
  8
1
 62
     1
100
AcDbLine
 10
25.4241109547089
 20
-0.3333057180722563
 30
0.0
 11
25.43082508041581
 21
-0.3167986688080415
 31
0.0
  0
LINE
  5
4AE
330
18
100
AcDbEntity
  8
1
 62
     1
100
AcDbLine
 10
25.43082508041581
 20
-0.3167986688080415
 30
0.0
 11
25.43644859309108
 21
-0.3002212496806649
 31
0.0
  0
LINE
  5
4AF
330
18
100
AcDbEntity
  8
1
 62
     1
100
AcDbLine
 10
25.43644859309108
 20
-0.3002212496806649
 30
0.0
 11
25.43881028705181
 21
-0.2919172505207267
 31
0.0
  0
LINE
  5
4B0
330
18
100
AcDbEntity
  8
1
 62
     1
100
AcDbLine
 10
25.43881028705181
 20
-0.2919172505207267
 30
0.0
 11
25.44085189917979
 21
-0.2836159072107057
 31
0.0
  0
LINE
  5
4B1
330
18
100
AcDbEntity
  8
1
 62
     1
100
AcDbLine
 10
25.44085189917979
 20
-0.2836159072107057
 30
0.0
 11
25.4425575377755
 21
-0.2753336324210317
 31
0.0
  0
LINE
  5
4B2
330
18
100
AcDbEntity
  8
1
 62
     1
100
AcDbLine
 10
25.4425575377755
 20
-0.2753336324210317
 30
0.0
 11
25.44391178413241
 21
-0.2670839145686694
 31
0.0
  0
LINE
  5
4B3
330
18
100
AcDbEntity
  8
1
 62
     1
100
AcDbLine
 10
25.44391178413241
 20
-0.2670839145686694
 30
0.0
 11
25.44490527726814
 21
-0.2588676468515982
 31
0.0
  0
LINE
  5
4B4
330
18
100
AcDbEntity
  8
1
 62
     1
100
AcDbLine
 10
25.44490527726814
 20
-0.2588676468515982
 30
0.0
 11
25.44553213698684
 21
-0.250702323972804
 31
0.0
  0
LINE
  5
4B5
330
18
100
AcDbEntity
  8
1
 62
     1
100
AcDbLine
 10
25.44553213698684
 20
-0.250702323972804
 30
0.0
 11
25.44578644052017
 21
-0.2426083577929243
 31
0.0
  0
LINE
  5
4B6
330
18
100
AcDbEntity
  8
1
 62
     1
100
AcDbLine
 10
25.44578644052017
 20
-0.2426083577929243
 30
0.0
 11
25.44566262992015
 21
-0.2346023309055487
 31
0.0
  0
LINE
  5
4B7
330
18
100
AcDbEntity
  8
1
 62
     1
100
AcDbLine
 10
25.44566262992015
 20
-0.2346023309055487
 30
0.0
 11
25.44516204462986
 21
-0.2266850331412892
 31
0.0
  0
LINE
  5
4B8
330
18
100
AcDbEntity
  8
1
 62
     1
100
AcDbLine
 10
25.44516204462986
 20
-0.2266850331412892
 30
0.0
 11
25.44429217580345
 21
-0.2188718310903164
 31
0.0
  0
LINE
  5
4B9
330
18
100
AcDbEntity
  8
1
 62
     1
100
AcDbLine
 10
25.44429217580345
 20
-0.2188718310903164
 30
0.0
 11
25.4430607298199
 21
-0.2111804558956906
 31
0.0
  0
LINE
  5
4BA
330
18
100
AcDbEntity
  8
1
 62
     1
100
AcDbLine
 10
25.4430607298199
 20
-0.2111804558956906
 30
0.0
 11
25.44147531660672
 21
-0.203624503758153
 31
0.0
  0
LINE
  5
4BB
330
18
100
AcDbEntity
  8
1
 62
     1
100
AcDbLine
 10
25.44147531660672
 20
-0.203624503758153
 30
0.0
 11
25.43954705418997
 21
-0.1962012877979624
 31
0.0
  0
LINE
  5
4BC
330
18
100
AcDbEntity
  8
1
 62
     1
100
AcDbLine
 10
25.43954705418997
 20
-0.1962012877979624
 30
0.0
 11
25.43729233725367
 21
-0.188919308343441
 31
0.0
  0
LINE
  5
4BD
330
18
100
AcDbEntity
  8
1
 62
     1
100
AcDbLine
 10
25.43729233725367
 20
-0.188919308343441
 30
0.0
 11
25.4347278481297
 21
-0.1817887525915153
 31
0.0
  0
LINE
  5
4BE
330
18
100
AcDbEntity
  8
1
 62
     1
100
AcDbLine
 10
25.4347278481297
 20
-0.1817887525915153
 30
0.0
 11
25.43186945800312
 21
-0.1748162471297961
 31
0.0
  0
LINE
  5
4BF
330
18
100
AcDbEntity
  8
1
 62
     1
100
AcDbLine
 10
25.43186945800312
 20
-0.1748162471297961
 30
0.0
 11
25.42873153582565
 21
-0.167995782759273
 31
0.0
  0
LINE
  5
4C0
330
18
100
AcDbEntity
  8
1
 62
     1
100
AcDbLine
 10
25.42873153582565
 20
-0.167995782759273
 30
0.0
 11
25.4253319629139
 21
-0.1613294961720237
 31
0.0
  0
LINE
  5
4C1
330
18
100
AcDbEntity
  8
1
 62
     1
100
AcDbLine
 10
25.4253319629139
 20
-0.1613294961720237
 30
0.0
 11
25.42168893154105
 21
-0.1548205803558042
 31
0.0
  0
LINE
  5
4C2
330
18
100
AcDbEntity
  8
1
 62
     1
100
AcDbLine
 10
25.42168893154105
 20
-0.1548205803558042
 30
0.0
 11
25.41781937428138
 21
-0.1484696986767264
 31
0.0
  0
LINE
  5
4C3
330
18
100
AcDbEntity
  8
1
 62
     1
100
AcDbLine
 10
25.41781937428138
 20
-0.1484696986767264
 30
0.0
 11
25.40945412271947
 21
-0.1362197414158793
 31
0.0
  0
LINE
  5
4C4
330
18
100
AcDbEntity
  8
1
 62
     1
100
AcDbLine
 10
25.40945412271947
 20
-0.1362197414158793
 30
0.0
 11
25.40035483797337
 21
-0.1245638869659432
 31
0.0
  0
LINE
  5
4C5
330
18
100
AcDbEntity
  8
1
 62
     1
100
AcDbLine
 10
25.40035483797337
 20
-0.1245638869659432
 30
0.0
 11
25.39062015009864
 21
-0.1134727288723158
 31
0.0
  0
LINE
  5
4C6
330
18
100
AcDbEntity
  8
1
 62
     1
100
AcDbLine
 10
25.39062015009864
 20
-0.1134727288723158
 30
0.0
 11
25.38034025277236
 21
-0.1029220885021329
 31
0.0
  0
LINE
  5
4C7
330
18
100
AcDbEntity
  8
1
 62
     1
100
AcDbLine
 10
25.38034025277236
 20
-0.1029220885021329
 30
0.0
 11
25.36958831500966
 21
-0.0928818726108901
 31
0.0
  0
LINE
  5
4C8
330
18
100
AcDbEntity
  8
1
 62
     1
100
AcDbLine
 10
25.36958831500966
 20
-0.0928818726108901
 30
0.0
 11
25.35843018039096
 21
-0.0833283337830568
 31
0.0
  0
LINE
  5
4C9
330
18
100
AcDbEntity
  8
1
 62
     1
100
AcDbLine
 10
25.35843018039096
 20
-0.0833283337830568
 30
0.0
 11
25.34691972242817
 21
-0.0742361566200324
 31
0.0
  0
LINE
  5
4CA
330
18
100
AcDbEntity
  8
1
 62
     1
100
AcDbLine
 10
25.34691972242817
 20
-0.0742361566200324
 30
0.0
 11
25.33510197445066
 21
-0.065581698359802
 31
0.0
  0
LINE
  5
4CB
330
18
100
AcDbEntity
  8
1
 62
     1
100
AcDbLine
 10
25.33510197445066
 20
-0.065581698359802
 30
0.0
 11
25.31069418669146
 21
-0.0495137184839512
 31
0.0
  0
LINE
  5
4CC
330
18
100
AcDbEntity
  8
1
 62
     1
100
AcDbLine
 10
25.31069418669146
 20
-0.0495137184839512
 30
0.0
 11
25.28546568517
 21
-0.0349936100754399
 31
0.0
  0
LINE
  5
4CD
330
18
100
AcDbEntity
  8
1
 62
     1
100
AcDbLine
 10
25.28546568517
 20
-0.0349936100754399
 30
0.0
 11
25.25960174299517
 21
-0.0219189668331533
 31
0.0
  0
LINE
  5
4CE
330
18
100
AcDbEntity
  8
1
 62
     1
100
AcDbLine
 10
25.25960174299517
 20
-0.0219189668331533
 30
0.0
 11
25.23324119198815
 21
-0.0102094221915056
 31
0.0
  0
LINE
  5
4CF
330
18
100
AcDbEntity
  8
1
 62
     1
100
AcDbLine
 10
25.23324119198815
 20
-0.0102094221915056
 30
0.0
 11
25.20649583910492
 21
0.0001940478312573
 31
0.0
  0
LINE
  5
4D0
330
18
100
AcDbEntity
  8
1
 62
     1
100
AcDbLine
 10
25.20649583910492
 20
0.0001940478312573
 30
0.0
 11
25.17944850445575
 21
0.0093371978995041
 31
0.0
  0
LINE
  5
4D1
330
18
100
AcDbEntity
  8
1
 62
     1
100
AcDbLine
 10
25.17944850445575
 20
0.0093371978995041
 30
0.0
 11
25.15216337997978
 21
0.0172548191468128
 31
0.0
  0
LINE
  5
4D2
330
18
100
AcDbEntity
  8
1
 62
     1
100
AcDbLine
 10
25.15216337997978
 20
0.0172548191468128
 30
0.0
 11
25.12469819033236
 21
0.0239687349084351
 31
0.0
  0
LINE
  5
4D3
330
18
100
AcDbEntity
  8
1
 62
     1
100
AcDbLine
 10
25.12469819033236
 20
0.0239687349084351
 30
0.0
 11
25.09710440017173
 21
0.0294961975544343
 31
0.0
  0
LINE
  5
4D4
330
18
100
AcDbEntity
  8
1
 62
     1
100
AcDbLine
 10
25.09710440017173
 20
0.0294961975544343
 30
0.0
 11
25.0694141355913
 21
0.0338491073919361
 31
0.0
  0
LINE
  5
4D5
330
18
100
AcDbEntity
  8
1
 62
     1
100
AcDbLine
 10
25.0694141355913
 20
0.0338491073919361
 30
0.0
 11
25.04166888985421
 21
0.0370334397745843
 31
0.0
  0
LINE
  5
4D6
330
18
100
AcDbEntity
  8
1
 62
     1
100
AcDbLine
 10
25.04166888985421
 20
0.0370334397745843
 30
0.0
 11
25.0
 21
0.0396266284845714
 31
0.0
  0
LINE
  5
4D7
330
18
100
AcDbEntity
  8
1
 62
     1
100
AcDbLine
 10
23.45340321304002
 20
0.0132160827554086
 30
0.0
 11
23.40064970772515
 21
0.0111094060435239
 31
0.0
  0
LINE
  5
4D8
330
18
100
AcDbEntity
  8
1
 62
     1
100
AcDbLine
 10
22.98654701076759
 20
0.0038966506088474
 30
0.0
 11
22.9634529892324
 21
0.0038966506088474
 31
0.0
  0
LINE
  5
4D9
330
18
100
AcDbEntity
  8
1
 62
     1
100
AcDbLine
 10
22.53654701076759
 20
0.0038966506088474
 30
0.0
 11
22.51345298923242
 21
0.0038966506088474
 31
0.0
  0
LINE
  5
4DA
330
18
100
AcDbEntity
  8
1
 62
     1
100
AcDbLine
 10
22.08654701076759
 20
0.0038966506088474
 30
0.0
 11
22.06345298923241
 21
0.0038966506088474
 31
0.0
  0
LINE
  5
4DB
330
18
100
AcDbEntity
  8
1
 62
     1
100
AcDbLine
 10
21.63654701076759
 20
0.0038966506088474
 30
0.0
 11
21.61345298923241
 21
0.0038966506088474
 31
0.0
  0
LINE
  5
4DC
330
18
100
AcDbEntity
  8
1
 62
     1
100
AcDbLine
 10
21.1865470107676
 20
0.0038966506088474
 30
0.0
 11
21.16345298923241
 21
0.0038966506088474
 31
0.0
  0
LINE
  5
4DD
330
18
100
AcDbEntity
  8
1
 62
     1
100
AcDbLine
 10
20.73654701076759
 20
0.0038966506088474
 30
0.0
 11
20.71345298923241
 21
0.0038966506088474
 31
0.0
  0
LINE
  5
4DE
330
18
100
AcDbEntity
  8
1
 62
     1
100
AcDbLine
 10
20.28654701076759
 20
0.0038966506088474
 30
0.0
 11
20.26345298923241
 21
0.0038966506088474
 31
0.0
  0
LINE
  5
4DF
330
18
100
AcDbEntity
  8
1
 62
     1
100
AcDbLine
 10
19.83654701076759
 20
0.0038966506088474
 30
0.0
 11
19.81345298923241
 21
0.0038966506088474
 31
0.0
  0
LINE
  5
4E0
330
18
100
AcDbEntity
  8
1
 62
     1
100
AcDbLine
 10
19.38654701076759
 20
0.0038966506088474
 30
0.0
 11
19.36345298923241
 21
0.0038966506088474
 31
0.0
  0
LINE
  5
4E1
330
18
100
AcDbEntity
  8
1
 62
     1
100
AcDbLine
 10
18.93654701076759
 20
0.0038966506088474
 30
0.0
 11
18.91345298923241
 21
0.0038966506088474
 31
0.0
  0
LINE
  5
4E2
330
18
100
AcDbEntity
  8
1
 62
     1
100
AcDbLine
 10
18.48654701076759
 20
0.0038966506088473
 30
0.0
 11
18.46345298923242
 21
0.0038966506088473
 31
0.0
  0
LINE
  5
4E3
330
18
100
AcDbEntity
  8
1
 62
     1
100
AcDbLine
 10
18.03654701076758
 20
0.0038966506088473
 30
0.0
 11
18.01345298923241
 21
0.0038966506088473
 31
0.0
  0
LINE
  5
4E4
330
18
100
AcDbEntity
  8
1
 62
     1
100
AcDbLine
 10
24.9157518088301
 20
0.8762108295158132
 30
0.0
 11
24.91575180883011
 21
0.8760085748137078
 31
0.0
  0
LINE
  5
4E5
330
18
100
AcDbEntity
  8
1
 62
     1
100
AcDbLine
 10
24.91575180883011
 20
0.8760085748137078
 30
0.0
 11
24.9157518088301
 21
0.8587696130948963
 31
0.0
  0
LINE
  5
4E6
330
18
100
AcDbEntity
  8
1
 62
     1
100
AcDbLine
 10
24.9157518088301
 20
0.8587696130948963
 30
0.0
 11
24.9157518088301
 21
0.0398770251659762
 31
0.0
  0
ARC
  5
4E7
330
18
100
AcDbEntity
  8
1
 62
     1
100
AcDbCircle
 10
24.90934966864837
 20
-0.1929721678973143
 30
0.0
 40
0.2329453623159121
100
AcDbArc
 50
67.10344283110231
 51
88.42506123272581
  0
LINE
  5
4E8
330
18
100
AcDbEntity
  8
1
 62
     1
100
AcDbLine
 10
24.9157518088301
 20
-0.8475686271687899
 30
0.0
 11
24.65433239304156
 21
-0.8834839654669694
 31
0.0
  0
LINE
  5
4E9
330
18
100
AcDbEntity
  8
1
 62
     1
100
AcDbLine
 10
24.42830227672261
 20
-0.9144669838025383
 30
0.0
 11
24.23643816465071
 21
-0.9407205931319302
 31
0.0
  0
LINE
  5
4EA
330
18
100
AcDbEntity
  8
1
 62
     1
100
AcDbLine
 10
23.94085274461511
 20
-0.9810922219917202
 30
0.0
 11
23.81854393691501
 21
-0.9977731401633644
 31
0.0
  0
LINE
  5
4EB
330
18
100
AcDbEntity
  8
1
 62
     1
100
AcDbLine
 10
23.45340321255692
 20
-1.047496457901994
 30
0.0
 11
23.40064970772514
 21
-1.054671465138425
 31
0.0
  0
LINE
  5
4EC
330
18
100
AcDbEntity
  8
1
 62
     1
100
AcDbLine
 10
25.0
 20
0.865
 30
0.0
 11
25.865
 21
0.0
 31
0.0
  0
LINE
  5
4ED
330
18
100
AcDbEntity
  8
1
 62
     1
100
AcDbLine
 10
25.20417818828077
 20
-0.6223444599607884
 30
0.0
 11
25.0
 21
-0.8359737794931115
 31
0.0
  0
LINE
  5
4EE
330
18
100
AcDbEntity
  8
1
 62
     1
100
AcDbLine
 10
25.00000000000001
 20
0.0396266284845712
 30
0.0
 11
25.0
 21
0.0216632008257153
 31
0.0
  0
LINE
  5
4EF
330
18
100
AcDbEntity
  8
1
 62
     1
100
AcDbLine
 10
25.0
 20
0.865
 30
0.0
 11
25.0
 21
0.8648004195535107
 31
0.0
  0
LINE
  5
4F0
330
18
100
AcDbEntity
  8
1
 62
     1
100
AcDbLine
 10
25.0
 20
0.8648004195535107
 30
0.0
 11
25.0
 21
0.8477895942806551
 31
0.0
  0
LINE
  5
4F1
330
18
100
AcDbEntity
  8
1
 62
     1
100
AcDbLine
 10
25.0
 20
0.8477895942806551
 30
0.0
 11
25.0
 21
0.0396266284845718
 31
0.0
  0
LINE
  5
4F2
330
18
100
AcDbEntity
  8
1
 62
     1
100
AcDbLine
 10
25.0
 20
-0.8359737794931111
 30
0.0
 11
25.0
 21
-0.865
 31
0.0
  0
LINE
  5
4F3
330
18
100
AcDbEntity
  8
1
 62
     1
100
AcDbLine
 10
25.00000000000001
 20
-0.695664300058987
 30
0.0
 11
25.00000000000001
 21
-0.835973779493106
 31
0.0
  0
LINE
  5
4F4
330
18
100
AcDbEntity
  8
1
 62
     1
100
AcDbLine
 10
22.98654701076759
 20
-1.077324073805091
 30
0.0
 11
22.9634529892324
 21
-1.077324073805091
 31
0.0
  0
LINE
  5
4F5
330
18
100
AcDbEntity
  8
1
 62
     1
100
AcDbLine
 10
22.53654701076759
 20
-1.077324073805091
 30
0.0
 11
22.51345298923241
 21
-1.077324073805091
 31
0.0
  0
LINE
  5
4F6
330
18
100
AcDbEntity
  8
1
 62
     1
100
AcDbLine
 10
22.08654701076759
 20
-1.077324073805091
 30
0.0
 11
22.06345298923241
 21
-1.077324073805091
 31
0.0
  0
LINE
  5
4F7
330
18
100
AcDbEntity
  8
1
 62
     1
100
AcDbLine
 10
21.63654701076758
 20
-1.077324073805091
 30
0.0
 11
21.6134529892324
 21
-1.077324073805091
 31
0.0
  0
LINE
  5
4F8
330
18
100
AcDbEntity
  8
1
 62
     1
100
AcDbLine
 10
21.1865470107676
 20
-1.077324073805091
 30
0.0
 11
21.16345298923241
 21
-1.07732407380509
 31
0.0
  0
LINE
  5
4F9
330
18
100
AcDbEntity
  8
1
 62
     1
100
AcDbLine
 10
20.73654701076759
 20
-1.077324073805091
 30
0.0
 11
20.71345298923241
 21
-1.077324073805091
 31
0.0
  0
LINE
  5
4FA
330
18
100
AcDbEntity
  8
1
 62
     1
100
AcDbLine
 10
20.28654701076759
 20
-1.077324073805091
 30
0.0
 11
20.26345298923242
 21
-1.077324073805091
 31
0.0
  0
LINE
  5
4FB
330
18
100
AcDbEntity
  8
1
 62
     1
100
AcDbLine
 10
19.83654701076759
 20
-1.077324073805091
 30
0.0
 11
19.81345298923241
 21
-1.077324073805091
 31
0.0
  0
LINE
  5
4FC
330
18
100
AcDbEntity
  8
1
 62
     1
100
AcDbLine
 10
19.38654701076759
 20
-1.077324073805091
 30
0.0
 11
19.36345298923241
 21
-1.077324073805091
 31
0.0
  0
LINE
  5
4FD
330
18
100
AcDbEntity
  8
1
 62
     1
100
AcDbLine
 10
18.48654701076759
 20
-1.077324073805091
 30
0.0
 11
18.46345298923242
 21
-1.077324073805091
 31
0.0
  0
LINE
  5
4FE
330
18
100
AcDbEntity
  8
1
 62
     1
100
AcDbLine
 10
18.03654701076759
 20
-1.077324073805091
 30
0.0
 11
18.01345298923241
 21
-1.077324073805091
 31
0.0
  0
ARC
  5
4FF
330
18
100
AcDbEntity
  8
1
 62
     1
100
AcDbCircle
 10
22.39116944751049
 20
-0.1958603635007462
 30
0.0
 40
0.2358479538000224
100
AcDbArc
 50
90.3948515852506
 51
112.7397500521847
  0
LINE
  5
500
330
18
100
AcDbEntity
  8
1
 62
     1
100
AcDbLine
 10
22.38954440832189
 20
0.0399406730307086
 30
0.0
 11
22.38954575399793
 21
0.0399406730260487
 31
0.0
  0
LINE
  5
501
330
18
100
AcDbEntity
  8
1
 62
     1
100
AcDbLine
 10
22.51345298923241
 20
1.1
 30
0.0
 11
22.51345298923242
 21
1.099730364629798
 31
0.0
  0
LINE
  5
502
330
18
100
AcDbEntity
  8
1
 62
     1
100
AcDbLine
 10
22.51345298923242
 20
1.099730364629798
 30
0.0
 11
22.51345298923241
 21
1.076710577571772
 31
0.0
  0
LINE
  5
503
330
18
100
AcDbEntity
  8
1
 62
     1
100
AcDbLine
 10
22.51345298923241
 20
1.076710577571772
 30
0.0
 11
22.51345298923241
 21
0.0038966506088474
 31
0.0
  0
LINE
  5
504
330
18
100
AcDbEntity
  8
1
 62
     1
100
AcDbLine
 10
23.65
 20
0.0216632008257148
 30
0.0
 11
23.65
 21
0.7302887500000002
 31
0.0
  0
ARC
  5
505
330
18
100
AcDbEntity
  8
1
 62
     1
100
AcDbCircle
 10
23.74116944751045
 20
-0.195860363500607
 30
0.0
 40
0.2358479537998815
100
AcDbArc
 50
90.39485158524393
 51
112.7397500521898
  0
LINE
  5
506
330
18
100
AcDbEntity
  8
1
 62
     1
100
AcDbLine
 10
23.73954440832189
 20
0.0399406730307085
 30
0.0
 11
23.73954575399793
 21
0.0399406730260487
 31
0.0
  0
LINE
  5
507
330
18
100
AcDbEntity
  8
1
 62
     1
100
AcDbLine
 10
23.81854393616395
 20
1.02221527463277
 30
0.0
 11
23.81854393616395
 21
1.021972251820107
 31
0.0
  0
LINE
  5
508
330
18
100
AcDbEntity
  8
1
 62
     1
100
AcDbLine
 10
23.81854393616395
 20
1.021972251820107
 30
0.0
 11
23.81854393616394
 21
1.001241860998779
 31
0.0
  0
LINE
  5
509
330
18
100
AcDbEntity
  8
1
 62
     1
100
AcDbLine
 10
23.81854393616394
 20
1.001241860998779
 30
0.0
 11
23.81854393616394
 21
0.02552878465854
 31
0.0
  0
LINE
  5
50A
330
18
100
AcDbEntity
  8
1
 62
     1
100
AcDbLine
 10
24.1
 20
0.0216632008257148
 30
0.0
 11
24.1
 21
0.7302887500000002
 31
0.0
  0
ARC
  5
50B
330
18
100
AcDbEntity
  8
1
 62
     1
100
AcDbCircle
 10
24.19116944751047
 20
-0.1958603635006836
 30
0.0
 40
0.235847953799959
100
AcDbArc
 50
90.39485158524896
 51
112.7397500521874
  0
LINE
  5
50C
330
18
100
AcDbEntity
  8
1
 62
     1
100
AcDbLine
 10
24.18954440832189
 20
0.0399406730307085
 30
0.0
 11
24.18954575399793
 21
0.0399406730260486
 31
0.0
  0
LINE
  5
50D
330
18
100
AcDbEntity
  8
1
 62
     1
100
AcDbLine
 10
24.23643816460276
 20
0.9666064730001996
 30
0.0
 11
24.23643816460276
 21
0.9663803135650348
 31
0.0
  0
LINE
  5
50E
330
18
100
AcDbEntity
  8
1
 62
     1
100
AcDbLine
 10
24.23643816460276
 20
0.9663803135650348
 30
0.0
 11
24.23643816460276
 21
0.9470967933647012
 31
0.0
  0
LINE
  5
50F
330
18
100
AcDbEntity
  8
1
 62
     1
100
AcDbLine
 10
24.23643816460276
 20
0.9470967933647012
 30
0.0
 11
24.23643816460276
 21
0.0349080478985319
 31
0.0
  0
LINE
  5
510
330
18
100
AcDbEntity
  8
1
 62
     1
100
AcDbLine
 10
24.42830227672261
 20
0.9410752916025971
 30
0.0
 11
24.42830227672261
 21
0.9408563126208006
 31
0.0
  0
LINE
  5
511
330
18
100
AcDbEntity
  8
1
 62
     1
100
AcDbLine
 10
24.42830227672261
 20
0.9408563126208006
 30
0.0
 11
24.42830227672261
 21
0.9221878177724513
 31
0.0
  0
LINE
  5
512
330
18
100
AcDbEntity
  8
1
 62
     1
100
AcDbLine
 10
24.42830227672261
 20
0.9221878177724513
 30
0.0
 11
24.42830227672262
 21
0.0375824889959763
 31
0.0
  0
LINE
  5
513
330
18
100
AcDbEntity
  8
1
 62
     1
100
AcDbLine
 10
24.42830227672261
 20
0.0375824817721283
 30
0.0
 11
24.4604544383621
 21
0.039940378857266
 31
0.0
  0
LINE
  5
514
330
18
100
AcDbEntity
  8
1
 62
     1
100
AcDbLine
 10
22.08654701076759
 20
1.1
 30
0.0
 11
22.08654701076759
 21
1.099730364629798
 31
0.0
  0
LINE
  5
515
330
18
100
AcDbEntity
  8
1
 62
     1
100
AcDbLine
 10
22.08654701076759
 20
1.099730364629798
 30
0.0
 11
22.08654701076759
 21
1.076710577571772
 31
0.0
  0
LINE
  5
516
330
18
100
AcDbEntity
  8
1
 62
     1
100
AcDbLine
 10
22.08654701076759
 20
1.076710577571772
 30
0.0
 11
22.08654701076758
 21
0.0038966506088474
 31
0.0
  0
ARC
  5
517
330
18
100
AcDbEntity
  8
1
 62
     1
100
AcDbCircle
 10
22.21424206410752
 20
-0.2029867674807303
 30
0.0
 40
0.243088135738287
100
AcDbArc
 50
90.89329159791944
 51
121.6842098184616
  0
LINE
  5
518
330
18
100
AcDbEntity
  8
1
 62
     1
100
AcDbLine
 10
22.3
 20
0.0216632008257148
 30
0.0
 11
22.3
 21
0.7302887500000002
 31
0.0
  0
LINE
  5
519
330
18
100
AcDbEntity
  8
1
 62
     1
100
AcDbLine
 10
22.74999999999999
 20
0.0216632008257148
 30
0.0
 11
22.75
 21
0.7302887500000002
 31
0.0
  0
ARC
  5
51A
330
18
100
AcDbEntity
  8
1
 62
     1
100
AcDbCircle
 10
22.84116944751046
 20
-0.1958603635006349
 30
0.0
 40
0.2358479537999098
100
AcDbArc
 50
90.39485158524387
 51
112.7397500521888
  0
LINE
  5
51B
330
18
100
AcDbEntity
  8
1
 62
     1
100
AcDbLine
 10
22.83954440832189
 20
0.0399406730307085
 30
0.0
 11
22.83954575399794
 21
0.0399406730260486
 31
0.0
  0
LINE
  5
51C
330
18
100
AcDbEntity
  8
1
 62
     1
100
AcDbLine
 10
22.96345298923241
 20
1.1
 30
0.0
 11
22.96345298923241
 21
1.099730364629798
 31
0.0
  0
LINE
  5
51D
330
18
100
AcDbEntity
  8
1
 62
     1
100
AcDbLine
 10
22.96345298923241
 20
1.099730364629798
 30
0.0
 11
22.96345298923241
 21
1.076710577571772
 31
0.0
  0
LINE
  5
51E
330
18
100
AcDbEntity
  8
1
 62
     1
100
AcDbLine
 10
22.96345298923241
 20
1.076710577571772
 30
0.0
 11
22.9634529892324
 21
0.0038966506088474
 31
0.0
  0
LINE
  5
51F
330
18
100
AcDbEntity
  8
1
 62
     1
100
AcDbLine
 10
22.53654701076758
 20
1.1
 30
0.0
 11
22.53654701076758
 21
1.099730364629798
 31
0.0
  0
LINE
  5
520
330
18
100
AcDbEntity
  8
1
 62
     1
100
AcDbLine
 10
22.53654701076758
 20
1.099730364629798
 30
0.0
 11
22.53654701076758
 21
1.076710577571772
 31
0.0
  0
LINE
  5
521
330
18
100
AcDbEntity
  8
1
 62
     1
100
AcDbLine
 10
22.53654701076758
 20
1.076710577571772
 30
0.0
 11
22.53654701076758
 21
0.0038966506088474
 31
0.0
  0
ARC
  5
522
330
18
100
AcDbEntity
  8
1
 62
     1
100
AcDbCircle
 10
22.6642420641075
 20
-0.2029867674806631
 30
0.0
 40
0.2430881357382199
100
AcDbArc
 50
90.89329159791805
 51
121.6842098184657
  0
LINE
  5
523
330
18
100
AcDbEntity
  8
1
 62
     1
100
AcDbLine
 10
23.94085274461513
 20
1.005939753689379
 30
0.0
 11
23.94085274461514
 21
1.005701844591817
 31
0.0
  0
LINE
  5
524
330
18
100
AcDbEntity
  8
1
 62
     1
100
AcDbLine
 10
23.94085274461514
 20
1.005701844591817
 30
0.0
 11
23.94085274461513
 21
0.9854105506852413
 31
0.0
  0
LINE
  5
525
330
18
100
AcDbEntity
  8
1
 62
     1
100
AcDbLine
 10
23.94085274461513
 20
0.9854105506852413
 30
0.0
 11
23.94085274461513
 21
0.0287855424023492
 31
0.0
  0
ARC
  5
526
330
18
100
AcDbEntity
  8
1
 62
     1
100
AcDbCircle
 10
24.01099672931413
 20
-0.1858834003524549
 30
0.0
 40
0.225835605154429
100
AcDbArc
 50
90.13755959810537
 51
108.0950224162875
  0
ARC
  5
527
330
18
100
AcDbEntity
  8
1
 62
     1
100
AcDbCircle
 10
23.29116944751047
 20
-0.1958603635006218
 30
0.0
 40
0.2358479537998973
100
AcDbArc
 50
90.39485158524737
 51
112.73975005219
  0
LINE
  5
528
330
18
100
AcDbEntity
  8
1
 62
     1
100
AcDbLine
 10
23.28954440832189
 20
0.0399406730307086
 30
0.0
 11
23.28954575399793
 21
0.0399406730260487
 31
0.0
  0
LINE
  5
529
330
18
100
AcDbEntity
  8
1
 62
     1
100
AcDbLine
 10
23.40064970772515
 20
1.07782407626534
 30
0.0
 11
23.40064970772515
 21
1.077562408622031
 31
0.0
  0
LINE
  5
52A
330
18
100
AcDbEntity
  8
1
 62
     1
100
AcDbLine
 10
23.40064970772515
 20
1.077562408622031
 30
0.0
 11
23.40064970772515
 21
1.055228771242443
 31
0.0
  0
LINE
  5
52B
330
18
100
AcDbEntity
  8
1
 62
     1
100
AcDbLine
 10
23.40064970772515
 20
1.055228771242443
 30
0.0
 11
23.40064970772515
 21
0.0111094060435239
 31
0.0
  0
LINE
  5
52C
330
18
100
AcDbEntity
  8
1
 62
     1
100
AcDbLine
 10
22.98654701076759
 20
1.1
 30
0.0
 11
22.98654701076759
 21
1.099730364629798
 31
0.0
  0
LINE
  5
52D
330
18
100
AcDbEntity
  8
1
 62
     1
100
AcDbLine
 10
22.98654701076759
 20
1.099730364629798
 30
0.0
 11
22.98654701076759
 21
1.076710577571772
 31
0.0
  0
LINE
  5
52E
330
18
100
AcDbEntity
  8
1
 62
     1
100
AcDbLine
 10
22.98654701076759
 20
1.076710577571772
 30
0.0
 11
22.98654701076758
 21
0.0038966506088474
 31
0.0
  0
ARC
  5
52F
330
18
100
AcDbEntity
  8
1
 62
     1
100
AcDbCircle
 10
23.11424206410751
 20
-0.202986767480741
 30
0.0
 40
0.2430881357382977
100
AcDbArc
 50
90.89329159792027
 51
121.6842098184602
  0
LINE
  5
530
330
18
100
AcDbEntity
  8
1
 62
     1
100
AcDbLine
 10
23.2
 20
0.0216632008257148
 30
0.0
 11
23.2
 21
0.7302887500000002
 31
0.0
  0
LINE
  5
531
330
18
100
AcDbEntity
  8
1
 62
     1
100
AcDbLine
 10
23.45340321250763
 20
1.070804215776164
 30
0.0
 11
23.45340321250763
 21
1.070545005320799
 31
0.0
  0
LINE
  5
532
330
18
100
AcDbEntity
  8
1
 62
     1
100
AcDbLine
 10
23.45340321250763
 20
1.070545005320799
 30
0.0
 11
23.45340321250763
 21
1.048422852981833
 31
0.0
  0
LINE
  5
533
330
18
100
AcDbEntity
  8
1
 62
     1
100
AcDbLine
 10
23.45340321250763
 20
1.048422852981833
 30
0.0
 11
23.45340321250763
 21
0.0132160827060298
 31
0.0
  0
ARC
  5
534
330
18
100
AcDbEntity
  8
1
 62
     1
100
AcDbCircle
 10
23.56278184088145
 20
-0.1963727076532049
 30
0.0
 40
0.2363960458307215
100
AcDbArc
 50
90.56452183069617
 51
117.5588188392295
  0
LINE
  5
535
330
18
100
AcDbEntity
  8
1
 62
     1
100
AcDbLine
 10
23.56045342999818
 20
0.0399402077194852
 30
0.0
 11
23.56045459205687
 21
0.0399402077164232
 31
0.0
  0
LINE
  5
536
330
18
100
AcDbEntity
  8
1
 62
     1
100
AcDbLine
 10
24.55
 20
0.0216632008257148
 30
0.0
 11
24.55
 21
0.7302887500000002
 31
0.0
  0
ARC
  5
537
330
18
100
AcDbEntity
  8
1
 62
     1
100
AcDbCircle
 10
24.64116937155751
 20
-0.1958600950693241
 30
0.0
 40
0.2358476777618205
100
AcDbArc
 50
90.39450574747305
 51
112.7397582417064
  0
LINE
  5
538
330
18
100
AcDbEntity
  8
1
 62
     1
100
AcDbLine
 10
24.65433239304155
 20
0.9109976713676303
 30
0.0
 11
24.65433239304155
 21
0.9107867147398149
 31
0.0
  0
LINE
  5
539
330
18
100
AcDbEntity
  8
1
 62
     1
100
AcDbLine
 10
24.65433239304155
 20
0.9107867147398149
 30
0.0
 11
24.65433239304156
 21
0.8928045020818882
 31
0.0
  0
LINE
  5
53A
330
18
100
AcDbEntity
  8
1
 62
     1
100
AcDbLine
 10
24.65433239304156
 20
0.8928045020818882
 30
0.0
 11
24.65433239304155
 21
0.0394434690456492
 31
0.0
  0
LINE
  5
53B
330
18
100
AcDbEntity
  8
1
 62
     1
100
AcDbLine
 10
21.63654701076759
 20
1.1
 30
0.0
 11
21.63654701076759
 21
1.099730364629798
 31
0.0
  0
LINE
  5
53C
330
18
100
AcDbEntity
  8
1
 62
     1
100
AcDbLine
 10
21.63654701076759
 20
1.099730364629798
 30
0.0
 11
21.63654701076759
 21
1.076710577571772
 31
0.0
  0
LINE
  5
53D
330
18
100
AcDbEntity
  8
1
 62
     1
100
AcDbLine
 10
21.63654701076759
 20
1.076710577571772
 30
0.0
 11
21.63654701076758
 21
0.0038966506088474
 31
0.0
  0
ARC
  5
53E
330
18
100
AcDbEntity
  8
1
 62
     1
100
AcDbCircle
 10
21.7642420641075
 20
-0.202986767480655
 30
0.0
 40
0.2430881357382117
100
AcDbArc
 50
90.89329159791555
 51
121.6842098184667
  0
LINE
  5
53F
330
18
100
AcDbEntity
  8
1
 62
     1
100
AcDbLine
 10
21.84999999999999
 20
0.0216632008257148
 30
0.0
 11
21.85
 21
0.7302887486391358
 31
0.0
  0
ARC
  5
540
330
18
100
AcDbEntity
  8
1
 62
     1
100
AcDbCircle
 10
21.94116944751045
 20
-0.1958603635005858
 30
0.0
 40
0.2358479537998605
100
AcDbArc
 50
90.39485158524226
 51
112.7397500521911
  0
LINE
  5
541
330
18
100
AcDbEntity
  8
1
 62
     1
100
AcDbLine
 10
21.93954440832189
 20
0.0399406730307085
 30
0.0
 11
21.93954575399794
 21
0.0399406730260487
 31
0.0
  0
LINE
  5
542
330
18
100
AcDbEntity
  8
1
 62
     1
100
AcDbLine
 10
22.06345298923242
 20
1.1
 30
0.0
 11
22.06345298923242
 21
1.099730364629798
 31
0.0
  0
LINE
  5
543
330
18
100
AcDbEntity
  8
1
 62
     1
100
AcDbLine
 10
22.06345298923242
 20
1.099730364629798
 30
0.0
 11
22.06345298923242
 21
1.076710577571772
 31
0.0
  0
LINE
  5
544
330
18
100
AcDbEntity
  8
1
 62
     1
100
AcDbLine
 10
22.06345298923242
 20
1.076710577571772
 30
0.0
 11
22.06345298923242
 21
0.0038966506088474
 31
0.0
  0
LINE
  5
545
330
18
100
AcDbEntity
  8
1
 62
     1
100
AcDbLine
 10
21.4
 20
0.0216632008257148
 30
0.0
 11
21.4
 21
0.7302887500000002
 31
0.0
  0
ARC
  5
546
330
18
100
AcDbEntity
  8
1
 62
     1
100
AcDbCircle
 10
21.49116944751045
 20
-0.1958603635006023
 30
0.0
 40
0.2358479537998764
100
AcDbArc
 50
90.39485158524305
 51
112.7397500521903
  0
LINE
  5
547
330
18
100
AcDbEntity
  8
1
 62
     1
100
AcDbLine
 10
21.48954440832189
 20
0.0399406730307086
 30
0.0
 11
21.48954575399794
 21
0.0399406730260487
 31
0.0
  0
LINE
  5
548
330
18
100
AcDbEntity
  8
1
 62
     1
100
AcDbLine
 10
21.61345298923241
 20
1.1
 30
0.0
 11
21.61345298923241
 21
1.099730364629798
 31
0.0
  0
LINE
  5
549
330
18
100
AcDbEntity
  8
1
 62
     1
100
AcDbLine
 10
21.61345298923241
 20
1.099730364629798
 30
0.0
 11
21.61345298923241
 21
1.076710577571772
 31
0.0
  0
LINE
  5
54A
330
18
100
AcDbEntity
  8
1
 62
     1
100
AcDbLine
 10
21.61345298923241
 20
1.076710577571772
 30
0.0
 11
21.61345298923241
 21
0.0038966506088474
 31
0.0
  0
LINE
  5
54B
330
18
100
AcDbEntity
  8
1
 62
     1
100
AcDbLine
 10
21.1865470107676
 20
1.1
 30
0.0
 11
21.1865470107676
 21
1.099730364629798
 31
0.0
  0
LINE
  5
54C
330
18
100
AcDbEntity
  8
1
 62
     1
100
AcDbLine
 10
21.1865470107676
 20
1.099730364629798
 30
0.0
 11
21.1865470107676
 21
1.076710577571772
 31
0.0
  0
LINE
  5
54D
330
18
100
AcDbEntity
  8
1
 62
     1
100
AcDbLine
 10
21.1865470107676
 20
1.076710577571772
 30
0.0
 11
21.1865470107676
 21
0.0038966506088474
 31
0.0
  0
ARC
  5
54E
330
18
100
AcDbEntity
  8
1
 62
     1
100
AcDbCircle
 10
21.3142420641075
 20
-0.2029867674806636
 30
0.0
 40
0.243088135738219
100
AcDbArc
 50
90.89329159791637
 51
121.6842098184648
  0
LINE
  5
54F
330
18
100
AcDbEntity
  8
1
 62
     1
100
AcDbLine
 10
20.95
 20
0.0216632008257148
 30
0.0
 11
20.95
 21
0.7302887500000002
 31
0.0
  0
ARC
  5
550
330
18
100
AcDbEntity
  8
1
 62
     1
100
AcDbCircle
 10
21.04116944751046
 20
-0.1958603635006106
 30
0.0
 40
0.2358479537998854
100
AcDbArc
 50
90.3948515852465
 51
112.7397500521903
  0
LINE
  5
551
330
18
100
AcDbEntity
  8
1
 62
     1
100
AcDbLine
 10
21.03954440832188
 20
0.0399406730307084
 30
0.0
 11
21.03954575399793
 21
0.0399406730260486
 31
0.0
  0
LINE
  5
552
330
18
100
AcDbEntity
  8
1
 62
     1
100
AcDbLine
 10
21.16345298923241
 20
1.1
 30
0.0
 11
21.16345298923241
 21
1.099730364629798
 31
0.0
  0
LINE
  5
553
330
18
100
AcDbEntity
  8
1
 62
     1
100
AcDbLine
 10
21.16345298923241
 20
1.099730364629798
 30
0.0
 11
21.16345298923241
 21
1.076710577571772
 31
0.0
  0
LINE
  5
554
330
18
100
AcDbEntity
  8
1
 62
     1
100
AcDbLine
 10
21.16345298923241
 20
1.076710577571772
 30
0.0
 11
21.16345298923241
 21
0.0038966506088474
 31
0.0
  0
LINE
  5
555
330
18
100
AcDbEntity
  8
1
 62
     1
100
AcDbLine
 10
20.73654701076759
 20
1.1
 30
0.0
 11
20.73654701076759
 21
1.099730364629798
 31
0.0
  0
LINE
  5
556
330
18
100
AcDbEntity
  8
1
 62
     1
100
AcDbLine
 10
20.73654701076759
 20
1.099730364629798
 30
0.0
 11
20.73654701076759
 21
1.076710577571772
 31
0.0
  0
LINE
  5
557
330
18
100
AcDbEntity
  8
1
 62
     1
100
AcDbLine
 10
20.73654701076759
 20
1.076710577571772
 30
0.0
 11
20.73654701076759
 21
0.0038966506088474
 31
0.0
  0
ARC
  5
558
330
18
100
AcDbEntity
  8
1
 62
     1
100
AcDbCircle
 10
20.86424206410749
 20
-0.2029867674806596
 30
0.0
 40
0.2430881357382144
100
AcDbArc
 50
90.89329159791468
 51
121.6842098184646
  0
ARC
  5
559
330
18
100
AcDbEntity
  8
1
 62
     1
100
AcDbCircle
 10
20.59116944751045
 20
-0.195860363500541
 30
0.0
 40
0.2358479537998154
100
AcDbArc
 50
90.39485158524316
 51
112.7397500521937
  0
LINE
  5
55A
330
18
100
AcDbEntity
  8
1
 62
     1
100
AcDbLine
 10
20.58954440832188
 20
0.0399406730307085
 30
0.0
 11
20.58954575399793
 21
0.0399406730260486
 31
0.0
  0
LINE
  5
55B
330
18
100
AcDbEntity
  8
1
 62
     1
100
AcDbLine
 10
20.28654701076759
 20
1.1
 30
0.0
 11
20.28654701076758
 21
1.099730364629798
 31
0.0
  0
LINE
  5
55C
330
18
100
AcDbEntity
  8
1
 62
     1
100
AcDbLine
 10
20.28654701076758
 20
1.099730364629798
 30
0.0
 11
20.28654701076759
 21
1.076710577571772
 31
0.0
  0
LINE
  5
55D
330
18
100
AcDbEntity
  8
1
 62
     1
100
AcDbLine
 10
20.28654701076759
 20
1.076710577571772
 30
0.0
 11
20.28654701076759
 21
0.0038966506088474
 31
0.0
  0
ARC
  5
55E
330
18
100
AcDbEntity
  8
1
 62
     1
100
AcDbCircle
 10
20.41424206410754
 20
-0.2029867674807914
 30
0.0
 40
0.2430881357383503
100
AcDbArc
 50
90.89329159792597
 51
121.6842098184575
  0
LINE
  5
55F
330
18
100
AcDbEntity
  8
1
 62
     1
100
AcDbLine
 10
20.5
 20
0.0216632008257148
 30
0.0
 11
20.5
 21
0.7302887500000002
 31
0.0
  0
LINE
  5
560
330
18
100
AcDbEntity
  8
1
 62
     1
100
AcDbLine
 10
17.79999999999999
 20
0.0216632008257148
 30
0.0
 11
17.8
 21
0.7302887500000002
 31
0.0
  0
ARC
  5
561
330
18
100
AcDbEntity
  8
1
 62
     1
100
AcDbCircle
 10
17.89116944751045
 20
-0.1958603635006063
 30
0.0
 40
0.2358479537998805
100
AcDbArc
 50
90.39485158524477
 51
112.7397500521899
  0
LINE
  5
562
330
18
100
AcDbEntity
  8
1
 62
     1
100
AcDbLine
 10
17.88954440832189
 20
0.0399406730307086
 30
0.0
 11
17.88954575399793
 21
0.0399406730260487
 31
0.0
  0
LINE
  5
563
330
18
100
AcDbEntity
  8
1
 62
     1
100
AcDbLine
 10
18.01345298923241
 20
1.1
 30
0.0
 11
18.01345298923241
 21
1.099730364629798
 31
0.0
  0
LINE
  5
564
330
18
100
AcDbEntity
  8
1
 62
     1
100
AcDbLine
 10
18.01345298923241
 20
1.099730364629798
 30
0.0
 11
18.01345298923241
 21
1.076710577571772
 31
0.0
  0
LINE
  5
565
330
18
100
AcDbEntity
  8
1
 62
     1
100
AcDbLine
 10
18.01345298923241
 20
1.076710577571772
 30
0.0
 11
18.01345298923241
 21
0.0038966506088474
 31
0.0
  0
LINE
  5
566
330
18
100
AcDbEntity
  8
1
 62
     1
100
AcDbLine
 10
18.03654701076759
 20
1.1
 30
0.0
 11
18.03654701076759
 21
1.099730364629798
 31
0.0
  0
LINE
  5
567
330
18
100
AcDbEntity
  8
1
 62
     1
100
AcDbLine
 10
18.03654701076759
 20
1.099730364629798
 30
0.0
 11
18.03654701076759
 21
1.076710577571772
 31
0.0
  0
LINE
  5
568
330
18
100
AcDbEntity
  8
1
 62
     1
100
AcDbLine
 10
18.03654701076759
 20
1.076710577571772
 30
0.0
 11
18.03654701076759
 21
0.0038966506088474
 31
0.0
  0
ARC
  5
569
330
18
100
AcDbEntity
  8
1
 62
     1
100
AcDbCircle
 10
18.16424206410753
 20
-0.202986767480777
 30
0.0
 40
0.243088135738335
100
AcDbArc
 50
90.89329159792267
 51
121.6842098184579
  0
LINE
  5
56A
330
18
100
AcDbEntity
  8
1
 62
     1
100
AcDbLine
 10
18.25
 20
0.0216632008257148
 30
0.0
 11
18.25
 21
0.7302887500000002
 31
0.0
  0
ARC
  5
56B
330
18
100
AcDbEntity
  8
1
 62
     1
100
AcDbCircle
 10
18.34116944751045
 20
-0.1958603635005492
 30
0.0
 40
0.2358479537998233
100
AcDbArc
 50
90.39485158524226
 51
112.7397500521929
  0
LINE
  5
56C
330
18
100
AcDbEntity
  8
1
 62
     1
100
AcDbLine
 10
18.33954440832189
 20
0.0399406730307085
 30
0.0
 11
18.33954575399793
 21
0.0399406730260486
 31
0.0
  0
LINE
  5
56D
330
18
100
AcDbEntity
  8
1
 62
     1
100
AcDbLine
 10
18.46345298923242
 20
1.1
 30
0.0
 11
18.46345298923242
 21
1.099730364629798
 31
0.0
  0
LINE
  5
56E
330
18
100
AcDbEntity
  8
1
 62
     1
100
AcDbLine
 10
18.46345298923242
 20
1.099730364629798
 30
0.0
 11
18.46345298923242
 21
1.076710577571772
 31
0.0
  0
LINE
  5
56F
330
18
100
AcDbEntity
  8
1
 62
     1
100
AcDbLine
 10
18.46345298923242
 20
1.076710577571772
 30
0.0
 11
18.46345298923241
 21
0.0038966506088474
 31
0.0
  0
LINE
  5
570
330
18
100
AcDbEntity
  8
1
 62
     1
100
AcDbLine
 10
18.48654701076759
 20
1.1
 30
0.0
 11
18.48654701076759
 21
1.099730364629798
 31
0.0
  0
LINE
  5
571
330
18
100
AcDbEntity
  8
1
 62
     1
100
AcDbLine
 10
18.48654701076759
 20
1.099730364629798
 30
0.0
 11
18.48654701076759
 21
1.076710577571772
 31
0.0
  0
LINE
  5
572
330
18
100
AcDbEntity
  8
1
 62
     1
100
AcDbLine
 10
18.48654701076759
 20
1.076710577571772
 30
0.0
 11
18.48654701076759
 21
0.0038966506088474
 31
0.0
  0
ARC
  5
573
330
18
100
AcDbEntity
  8
1
 62
     1
100
AcDbCircle
 10
18.61424206410751
 20
-0.202986767480737
 30
0.0
 40
0.2430881357382933
100
AcDbArc
 50
90.89329159791944
 51
121.68420981846
  0
LINE
  5
574
330
18
100
AcDbEntity
  8
1
 62
     1
100
AcDbLine
 10
18.7
 20
0.0216632008257148
 30
0.0
 11
18.7
 21
0.7302887500000002
 31
0.0
  0
ARC
  5
575
330
18
100
AcDbEntity
  8
1
 62
     1
100
AcDbCircle
 10
18.79116944751138
 20
-0.1958603635038914
 30
0.0
 40
0.2358479538032733
100
AcDbArc
 50
90.39485158956397
 51
112.73975005209
  0
LINE
  5
576
330
18
100
AcDbEntity
  8
1
 62
     1
100
AcDbLine
 10
18.78954440830502
 20
0.0399406730307086
 30
0.0
 11
18.78954575399793
 21
0.0399406730260487
 31
0.0
  0
LINE
  5
577
330
18
100
AcDbEntity
  8
1
 62
     1
100
AcDbLine
 10
18.91345298923241
 20
1.1
 30
0.0
 11
18.9134529892324
 21
1.099730364629798
 31
0.0
  0
LINE
  5
578
330
18
100
AcDbEntity
  8
1
 62
     1
100
AcDbLine
 10
18.9134529892324
 20
1.099730364629798
 30
0.0
 11
18.91345298923241
 21
1.076710577571772
 31
0.0
  0
LINE
  5
579
330
18
100
AcDbEntity
  8
1
 62
     1
100
AcDbLine
 10
18.91345298923241
 20
1.076710577571772
 30
0.0
 11
18.91345298923241
 21
0.0038966506088474
 31
0.0
  0
LINE
  5
57A
330
18
100
AcDbEntity
  8
1
 62
     1
100
AcDbLine
 10
18.93654701076759
 20
1.1
 30
0.0
 11
18.93654701076759
 21
1.099730364629798
 31
0.0
  0
LINE
  5
57B
330
18
100
AcDbEntity
  8
1
 62
     1
100
AcDbLine
 10
18.93654701076759
 20
1.099730364629798
 30
0.0
 11
18.93654701076759
 21
1.076710577571772
 31
0.0
  0
LINE
  5
57C
330
18
100
AcDbEntity
  8
1
 62
     1
100
AcDbLine
 10
18.93654701076759
 20
1.076710577571772
 30
0.0
 11
18.93654701076758
 21
0.0038966506088474
 31
0.0
  0
ARC
  5
57D
330
18
100
AcDbEntity
  8
1
 62
     1
100
AcDbCircle
 10
19.06424206410753
 20
-0.2029867674807767
 30
0.0
 40
0.2430881357383345
100
AcDbArc
 50
90.89329159792263
 51
121.6842098184579
  0
LINE
  5
57E
330
18
100
AcDbEntity
  8
1
 62
     1
100
AcDbLine
 10
19.15
 20
0.0216632008257148
 30
0.0
 11
19.15
 21
0.7302887500000002
 31
0.0
  0
ARC
  5
57F
330
18
100
AcDbEntity
  8
1
 62
     1
100
AcDbCircle
 10
19.24116944751046
 20
-0.195860363500641
 30
0.0
 40
0.2358479537999162
100
AcDbArc
 50
90.39485158524472
 51
112.7397500521891
  0
LINE
  5
580
330
18
100
AcDbEntity
  8
1
 62
     1
100
AcDbLine
 10
19.23954440832189
 20
0.0399406730307086
 30
0.0
 11
19.23954575399793
 21
0.0399406730260487
 31
0.0
  0
ARC
  5
581
330
18
100
AcDbEntity
  8
1
 62
     1
100
AcDbCircle
 10
20.14116944751047
 20
-0.1958603635007166
 30
0.0
 40
0.2358479537999919
100
AcDbArc
 50
90.39485158524892
 51
112.7397500521851
  0
LINE
  5
582
330
18
100
AcDbEntity
  8
1
 62
     1
100
AcDbLine
 10
20.13954440832189
 20
0.0399406730307085
 30
0.0
 11
20.13954575399794
 21
0.0399406730260486
 31
0.0
  0
LINE
  5
583
330
18
100
AcDbEntity
  8
1
 62
     1
100
AcDbLine
 10
20.26345298923241
 20
1.1
 30
0.0
 11
20.26345298923241
 21
1.099730364629798
 31
0.0
  0
LINE
  5
584
330
18
100
AcDbEntity
  8
1
 62
     1
100
AcDbLine
 10
20.26345298923241
 20
1.099730364629798
 30
0.0
 11
20.26345298923241
 21
1.076710577571772
 31
0.0
  0
LINE
  5
585
330
18
100
AcDbEntity
  8
1
 62
     1
100
AcDbLine
 10
20.26345298923241
 20
1.076710577571772
 30
0.0
 11
20.26345298923241
 21
0.0038966506088474
 31
0.0
  0
LINE
  5
586
330
18
100
AcDbEntity
  8
1
 62
     1
100
AcDbLine
 10
19.83654701076759
 20
1.1
 30
0.0
 11
19.83654701076759
 21
1.099730364629798
 31
0.0
  0
LINE
  5
587
330
18
100
AcDbEntity
  8
1
 62
     1
100
AcDbLine
 10
19.83654701076759
 20
1.099730364629798
 30
0.0
 11
19.83654701076759
 21
1.076710577571772
 31
0.0
  0
LINE
  5
588
330
18
100
AcDbEntity
  8
1
 62
     1
100
AcDbLine
 10
19.83654701076759
 20
1.076710577571772
 30
0.0
 11
19.83654701076759
 21
0.0038966506088474
 31
0.0
  0
ARC
  5
589
330
18
100
AcDbEntity
  8
1
 62
     1
100
AcDbCircle
 10
19.96424206410752
 20
-0.2029867674807596
 30
0.0
 40
0.2430881357383174
100
AcDbArc
 50
90.89329159792186
 51
121.6842098184595
  0
LINE
  5
58A
330
18
100
AcDbEntity
  8
1
 62
     1
100
AcDbLine
 10
20.04999999999999
 20
0.0216632008257148
 30
0.0
 11
20.05
 21
0.7302887500000002
 31
0.0
  0
LINE
  5
58B
330
18
100
AcDbEntity
  8
1
 62
     1
100
AcDbLine
 10
19.6
 20
0.0216632008257148
 30
0.0
 11
19.6
 21
0.7302887500000002
 31
0.0
  0
ARC
  5
58C
330
18
100
AcDbEntity
  8
1
 62
     1
100
AcDbCircle
 10
19.69116944751044
 20
-0.1958603635005503
 30
0.0
 40
0.2358479537998238
100
AcDbArc
 50
90.39485158523969
 51
112.7397500521928
  0
LINE
  5
58D
330
18
100
AcDbEntity
  8
1
 62
     1
100
AcDbLine
 10
19.68954440832189
 20
0.0399406730307085
 30
0.0
 11
19.68954575399794
 21
0.0399406730260486
 31
0.0
  0
LINE
  5
58E
330
18
100
AcDbEntity
  8
1
 62
     1
100
AcDbLine
 10
19.38654701076759
 20
1.1
 30
0.0
 11
19.38654701076758
 21
1.099730364629798
 31
0.0
  0
LINE
  5
58F
330
18
100
AcDbEntity
  8
1
 62
     1
100
AcDbLine
 10
19.38654701076758
 20
1.099730364629798
 30
0.0
 11
19.38654701076759
 21
1.076710577571772
 31
0.0
  0
LINE
  5
590
330
18
100
AcDbEntity
  8
1
 62
     1
100
AcDbLine
 10
19.38654701076759
 20
1.076710577571772
 30
0.0
 11
19.38654701076759
 21
0.0038966506088474
 31
0.0
  0
ARC
  5
591
330
18
100
AcDbEntity
  8
1
 62
     1
100
AcDbCircle
 10
19.51424206410749
 20
-0.2029867674806491
 30
0.0
 40
0.2430881357382039
100
AcDbArc
 50
90.89329159791475
 51
121.684209818466
  0
LINE
  5
592
330
18
100
AcDbEntity
  8
1
 62
     1
100
AcDbLine
 10
17.68991029425064
 20
-0.893762949491526
 30
0.0
 11
17.497705266
 21
-0.7789269285369442
 31
0.0
  0
LINE
  5
593
330
18
100
AcDbEntity
  8
1
 62
     1
100
AcDbLine
 10
17.68991029425064
 20
0.920969624843184
 30
0.0
 11
17.68991029425064
 21
0.9207560601777705
 31
0.0
  0
LINE
  5
594
330
18
100
AcDbEntity
  8
1
 62
     1
100
AcDbLine
 10
17.68991029425064
 20
0.9207560601777705
 30
0.0
 11
17.68991029425064
 21
0.9025508451643545
 31
0.0
  0
LINE
  5
595
330
18
100
AcDbEntity
  8
1
 62
     1
100
AcDbLine
 10
17.68991029425064
 20
0.9025508451643545
 30
0.0
 11
17.68991029425064
 21
0.0389799910692744
 31
0.0
  0
LINE
  5
596
330
18
100
AcDbEntity
  8
1
 62
     1
100
AcDbLine
 10
17.68991029425064
 20
0.0389799910689242
 30
0.0
 11
17.71045340173789
 21
0.0399402079505201
 31
0.0
  0
LINE
  5
597
330
18
100
AcDbEntity
  8
1
 62
     1
100
AcDbLine
 10
17.71045340173789
 20
0.0399402079505201
 30
0.0
 11
17.71045459201389
 21
0.0399402079473076
 31
0.0
  0
LINE
  5
598
330
18
100
AcDbEntity
  8
1
 62
     1
100
AcDbLine
 10
17.497705266
 20
-0.7789269285369368
 30
0.0
 11
17.497705266
 21
-0.8025537867147421
 31
0.0
  0
LINE
  5
599
330
18
100
AcDbEntity
  8
1
 62
     1
100
AcDbLine
 10
17.497705266
 20
-0.8025537867147421
 30
0.0
 11
17.497705266
 21
-0.81
 31
0.0
  0
LINE
  5
59A
330
18
100
AcDbEntity
  8
1
 62
     1
100
AcDbLine
 10
17.497705266
 20
-0.6223444599608143
 30
0.0
 11
17.497705266
 21
-0.7789269285369367
 31
0.0
  0
LINE
  5
59B
330
18
100
AcDbEntity
  8
1
 62
     1
100
AcDbLine
 10
17.497705266
 20
0.0356494856112436
 30
0.0
 11
17.497705266
 21
-0.6223444599607886
 31
0.0
  0
LINE
  5
59C
330
18
100
AcDbEntity
  8
1
 62
     1
100
AcDbLine
 10
17.497705266
 20
0.81
 30
0.0
 11
17.497705266
 21
0.8098126241494517
 31
0.0
  0
LINE
  5
59D
330
18
100
AcDbEntity
  8
1
 62
     1
100
AcDbLine
 10
17.497705266
 20
0.8098126241494517
 30
0.0
 11
17.497705266
 21
0.7938409120919615
 31
0.0
  0
LINE
  5
59E
330
18
100
AcDbEntity
  8
1
 62
     1
100
AcDbLine
 10
17.497705266
 20
0.7938409120919615
 30
0.0
 11
17.497705266
 21
0.0356494856114724
 31
0.0
  0
LINE
  5
59F
330
18
100
AcDbEntity
  8
1
 62
     1
100
AcDbLine
 10
24.84679786317888
 20
0.0399407001861642
 30
0.0
 11
24.65433239304156
 21
0.0394434690456454
 31
0.0
  0
LINE
  5
5A0
330
18
100
AcDbEntity
  8
1
 62
     1
100
AcDbLine
 10
24.63954575754238
 20
0.0399406787366431
 30
0.0
 11
24.65433239304156
 21
0.0394434690456191
 31
0.0
  0
ARC
  5
5A1
330
18
100
AcDbEntity
  8
1
 62
     1
100
AcDbCircle
 10
24.45961274527888
 20
-0.1918465748953299
 30
0.0
 40
0.2317980658372754
100
AcDbArc
 50
67.05510999706483
 51
89.7919414852321
  0
ARC
  5
5A2
330
18
100
AcDbEntity
  8
1
 62
     1
100
AcDbCircle
 10
24.18948801105292
 20
-0.1813992865926914
 30
0.0
 40
0.2213405103609926
100
AcDbArc
 50
77.75373686774371
 51
89.98505273527384
  0
ARC
  5
5A3
330
18
100
AcDbEntity
  8
1
 62
     1
100
AcDbCircle
 10
24.00961349798074
 20
-0.1918449262746735
 30
0.0
 40
0.2317963042680033
100
AcDbArc
 50
67.05512246210604
 51
89.79209696073914
  0
ARC
  5
5A4
330
18
100
AcDbEntity
  8
1
 62
     1
100
AcDbCircle
 10
23.73915388016136
 20
-0.1853200017491617
 30
0.0
 40
0.225266335015138
100
AcDbArc
 50
69.36733796702784
 51
89.90032572569879
  0
ARC
  5
5A5
330
18
100
AcDbEntity
  8
1
 62
     1
100
AcDbCircle
 10
23.55961649050859
 20
-0.1918290638200778
 30
0.0
 40
0.2317803684959949
100
AcDbArc
 50
67.0542752345782
 51
89.79281346531548
  0
ARC
  5
5A6
330
18
100
AcDbEntity
  8
1
 62
     1
100
AcDbCircle
 10
23.2882927351432
 20
-0.1920639642334259
 30
0.0
 40
0.2320309131938028
100
AcDbArc
 50
61.05695294499303
 51
89.69055793519438
  0
ARC
  5
5A7
330
18
100
AcDbEntity
  8
1
 62
     1
100
AcDbCircle
 10
23.10961242945001
 20
-0.1918450709992831
 30
0.0
 40
0.2317966952340086
100
AcDbArc
 50
67.05489324000378
 51
89.79189489411198
  0
ARC
  5
5A8
330
18
100
AcDbEntity
  8
1
 62
     1
100
AcDbCircle
 10
22.83773964405241
 20
-0.1955918154033669
 30
0.0
 40
0.2355751593716774
100
AcDbArc
 50
57.78175084570776
 51
89.56065318344568
  0
ARC
  5
5A9
330
18
100
AcDbEntity
  8
1
 62
     1
100
AcDbCircle
 10
22.65961242945001
 20
-0.1918450709992358
 30
0.0
 40
0.2317966952339607
100
AcDbArc
 50
67.05489324000244
 51
89.79189489411367
  0
ARC
  5
5AA
330
18
100
AcDbEntity
  8
1
 62
     1
100
AcDbCircle
 10
22.3877396440524
 20
-0.195591815403345
 30
0.0
 40
0.2355751593716585
100
AcDbArc
 50
57.78175084570255
 51
89.56065318344477
  0
ARC
  5
5AB
330
18
100
AcDbEntity
  8
1
 62
     1
100
AcDbCircle
 10
22.20961242945
 20
-0.1918450709992552
 30
0.0
 40
0.231796695233982
100
AcDbArc
 50
67.05489324000187
 51
89.7918948941093
  0
ARC
  5
5AC
330
18
100
AcDbEntity
  8
1
 62
     1
100
AcDbCircle
 10
21.93773964405241
 20
-0.1955918154033691
 30
0.0
 40
0.2355751593716797
100
AcDbArc
 50
57.78175084570615
 51
89.56065318344483
  0
ARC
  5
5AD
330
18
100
AcDbEntity
  8
1
 62
     1
100
AcDbCircle
 10
21.75961242945001
 20
-0.1918450709992626
 30
0.0
 40
0.2317966952339885
100
AcDbArc
 50
67.05489324000261
 51
89.7918948941102
  0
ARC
  5
5AE
330
18
100
AcDbEntity
  8
1
 62
     1
100
AcDbCircle
 10
21.48773964405238
 20
-0.1955918154034483
 30
0.0
 40
0.2355751593717599
100
AcDbArc
 50
57.78175084571373
 51
89.56065318344064
  0
ARC
  5
5AF
330
18
100
AcDbEntity
  8
1
 62
     1
100
AcDbCircle
 10
21.30961242945002
 20
-0.191845070999165
 30
0.0
 40
0.2317966952338915
100
AcDbArc
 50
67.05489323999643
 51
89.7918948941145
  0
ARC
  5
5B0
330
18
100
AcDbEntity
  8
1
 62
     1
100
AcDbCircle
 10
21.0377396440524
 20
-0.1955918154033642
 30
0.0
 40
0.2355751593716759
100
AcDbArc
 50
57.78175084570667
 51
89.56065318344568
  0
ARC
  5
5B1
330
18
100
AcDbEntity
  8
1
 62
     1
100
AcDbCircle
 10
20.85961242945001
 20
-0.1918450709992959
 30
0.0
 40
0.2317966952340206
100
AcDbArc
 50
67.05489324000581
 51
89.79189489411111
  0
ARC
  5
5B2
330
18
100
AcDbEntity
  8
1
 62
     1
100
AcDbCircle
 10
20.58773964405238
 20
-0.1955918154034491
 30
0.0
 40
0.2355751593717608
100
AcDbArc
 50
57.781750845714
 51
89.56065318344152
  0
ARC
  5
5B3
330
18
100
AcDbEntity
  8
1
 62
     1
100
AcDbCircle
 10
20.40961242945
 20
-0.1918450709992622
 30
0.0
 40
0.2317966952339882
100
AcDbArc
 50
67.05489324000175
 51
89.79189489411107
  0
ARC
  5
5B4
330
18
100
AcDbEntity
  8
1
 62
     1
100
AcDbCircle
 10
20.1377396440524
 20
-0.1955918154033589
 30
0.0
 40
0.2355751593716705
100
AcDbArc
 50
57.78175084570671
 51
89.56065318344481
  0
ARC
  5
5B5
330
18
100
AcDbEntity
  8
1
 62
     1
100
AcDbCircle
 10
19.95961242945002
 20
-0.1918450709991364
 30
0.0
 40
0.2317966952338619
100
AcDbArc
 50
67.0548932399961
 51
89.79189489411534
  0
ARC
  5
5B6
330
18
100
AcDbEntity
  8
1
 62
     1
100
AcDbCircle
 10
19.6877396440524
 20
-0.1955918154034113
 30
0.0
 40
0.2355751593717213
100
AcDbArc
 50
57.7817508457112
 51
89.56065318344491
  0
ARC
  5
5B7
330
18
100
AcDbEntity
  8
1
 62
     1
100
AcDbCircle
 10
19.50961242945002
 20
-0.1918450709991276
 30
0.0
 40
0.231796695233854
100
AcDbArc
 50
67.05489323999444
 51
89.79189489411534
  0
ARC
  5
5B8
330
18
100
AcDbEntity
  8
1
 62
     1
100
AcDbCircle
 10
19.23773964405239
 20
-0.1955918154034377
 30
0.0
 40
0.2355751593717491
100
AcDbArc
 50
57.78175084571316
 51
89.56065318344235
  0
ARC
  5
5B9
330
18
100
AcDbEntity
  8
1
 62
     1
100
AcDbCircle
 10
19.05961242945001
 20
-0.1918450709992435
 30
0.0
 40
0.2317966952339696
100
AcDbArc
 50
67.05489324000158
 51
89.79189489411105
  0
ARC
  5
5BA
330
18
100
AcDbEntity
  8
1
 62
     1
100
AcDbCircle
 10
18.78773964405239
 20
-0.1955918154034154
 30
0.0
 40
0.235575159371727
100
AcDbArc
 50
57.78175084571109
 51
89.5606531834432
  0
ARC
  5
5BB
330
18
100
AcDbEntity
  8
1
 62
     1
100
AcDbCircle
 10
18.60961242945001
 20
-0.1918450709992408
 30
0.0
 40
0.2317966952339661
100
AcDbArc
 50
67.05489324000212
 51
89.79189489411283
  0
ARC
  5
5BC
330
18
100
AcDbEntity
  8
1
 62
     1
100
AcDbCircle
 10
18.33773964405239
 20
-0.195591815403416
 30
0.0
 40
0.2355751593717274
100
AcDbArc
 50
57.78175084570927
 51
89.56065318344403
  0
ARC
  5
5BD
330
18
100
AcDbEntity
  8
1
 62
     1
100
AcDbCircle
 10
18.15961242945002
 20
-0.1918450709992349
 30
0.0
 40
0.2317966952339599
100
AcDbArc
 50
67.05489324000234
 51
89.79189489411367
  0
ARC
  5
5BE
330
18
100
AcDbEntity
  8
1
 62
     1
100
AcDbCircle
 10
17.88773964405241
 20
-0.1955918154033499
 30
0.0
 40
0.2355751593716613
100
AcDbArc
 50
57.78175084570483
 51
89.56065318344652
  0
ARC
  5
5BF
330
18
100
AcDbEntity
  8
1
 62
     1
100
AcDbCircle
 10
17.70961648756424
 20
-0.191829076239916
 30
0.0
 40
0.2317803811008928
100
AcDbArc
 50
67.05427576113408
 51
89.79281275938133
  0
ARC
  5
5C0
330
18
100
AcDbEntity
  8
1
 62
     1
100
AcDbCircle
 10
17.62834799096787
 20
-1.950821795212088
 30
0.0
 40
1.990762701720701
100
AcDbArc
 50
90.0020161263336
 51
93.76270877479053
  0
LINE
  5
5C1
330
18
100
AcDbEntity
  8
1
 62
     1
100
AcDbLine
 10
17.62916834397774
 20
0.0399406811530142
 30
0.0
 11
17.62827793992592
 21
0.0399406811530142
 31
0.0
  0
LINE
  5
5C2
330
18
100
AcDbEntity
  8
1
 62
     1
100
AcDbLine
 10
24.99999999999999
 20
0.7302887500000002
 30
0.0
 11
24.91575180883011
 21
0.8762108295158176
 31
0.0
  0
LINE
  5
5C3
330
18
100
AcDbEntity
  8
1
 62
     1
100
AcDbLine
 10
24.65433239304155
 20
-0.9109976713676302
 30
0.0
 11
24.9157518088301
 21
-0.8762108295158132
 31
0.0
  0
LINE
  5
5C4
330
18
100
AcDbEntity
  8
1
 62
     1
100
AcDbLine
 10
24.23643816460276
 20
-0.9666064730001998
 30
0.0
 11
24.42830227672261
 21
-0.9410752916025971
 31
0.0
  0
LINE
  5
5C5
330
18
100
AcDbEntity
  8
1
 62
     1
100
AcDbLine
 10
23.81854393616395
 20
-1.022215274632771
 30
0.0
 11
23.94085274461514
 21
-1.00593975368938
 31
0.0
  0
LINE
  5
5C6
330
18
100
AcDbEntity
  8
1
 62
     1
100
AcDbLine
 10
23.40064970772515
 20
-1.07782407626534
 30
0.0
 11
23.45340321250763
 21
-1.070804215776165
 31
0.0
  0
LINE
  5
5C7
330
18
100
AcDbEntity
  8
1
 62
     1
100
AcDbLine
 10
25.0
 20
-0.865
 30
0.0
 11
25.865
 21
0.0
 31
0.0
  0
LINE
  5
5C8
330
18
100
AcDbEntity
  8
1
 62
     1
100
AcDbLine
 10
22.9634529892324
 20
-1.1
 30
0.0
 11
22.98654701076759
 21
-1.1
 31
0.0
  0
LINE
  5
5C9
330
18
100
AcDbEntity
  8
1
 62
     1
100
AcDbLine
 10
22.51345298923241
 20
-1.1
 30
0.0
 11
22.53654701076759
 21
-1.1
 31
0.0
  0
LINE
  5
5CA
330
18
100
AcDbEntity
  8
1
 62
     1
100
AcDbLine
 10
22.06345298923241
 20
-1.1
 30
0.0
 11
22.08654701076759
 21
-1.1
 31
0.0
  0
LINE
  5
5CB
330
18
100
AcDbEntity
  8
1
 62
     1
100
AcDbLine
 10
21.61345298923241
 20
-1.1
 30
0.0
 11
21.63654701076758
 21
-1.1
 31
0.0
  0
LINE
  5
5CC
330
18
100
AcDbEntity
  8
1
 62
     1
100
AcDbLine
 10
21.16345298923241
 20
-1.1
 30
0.0
 11
21.1865470107676
 21
-1.1
 31
0.0
  0
LINE
  5
5CD
330
18
100
AcDbEntity
  8
1
 62
     1
100
AcDbLine
 10
20.71345298923241
 20
-1.1
 30
0.0
 11
20.73654701076759
 21
-1.1
 31
0.0
  0
LINE
  5
5CE
330
18
100
AcDbEntity
  8
1
 62
     1
100
AcDbLine
 10
20.26345298923241
 20
-1.1
 30
0.0
 11
20.28654701076759
 21
-1.1
 31
0.0
  0
LINE
  5
5CF
330
18
100
AcDbEntity
  8
1
 62
     1
100
AcDbLine
 10
19.81345298923241
 20
-1.1
 30
0.0
 11
19.83654701076759
 21
-1.1
 31
0.0
  0
LINE
  5
5D0
330
18
100
AcDbEntity
  8
1
 62
     1
100
AcDbLine
 10
19.36345298923241
 20
-1.1
 30
0.0
 11
19.38654701076759
 21
-1.1
 31
0.0
  0
LINE
  5
5D1
330
18
100
AcDbEntity
  8
1
 62
     1
100
AcDbLine
 10
18.9134529892324
 20
-1.1
 30
0.0
 11
18.93654701076759
 21
-1.1
 31
0.0
  0
LINE
  5
5D2
330
18
100
AcDbEntity
  8
1
 62
     1
100
AcDbLine
 10
18.46345298923242
 20
-1.1
 30
0.0
 11
18.48654701076759
 21
-1.1
 31
0.0
  0
LINE
  5
5D3
330
18
100
AcDbEntity
  8
1
 62
     1
100
AcDbLine
 10
18.01345298923241
 20
-1.1
 30
0.0
 11
18.03654701076759
 21
-1.1
 31
0.0
  0
LINE
  5
5D4
330
18
100
AcDbEntity
  8
1
 62
     1
100
AcDbLine
 10
22.51345298923241
 20
1.100000000000003
 30
0.0
 11
22.3
 21
0.7302887500000002
 31
0.0
  0
LINE
  5
5D5
330
18
100
AcDbEntity
  8
1
 62
     1
100
AcDbLine
 10
23.81854393616394
 20
1.022215274632772
 30
0.0
 11
23.65
 21
0.7302887500000002
 31
0.0
  0
LINE
  5
5D6
330
18
100
AcDbEntity
  8
1
 62
     1
100
AcDbLine
 10
24.23643816460275
 20
0.9666064730002044
 30
0.0
 11
24.1
 21
0.7302887500000002
 31
0.0
  0
LINE
  5
5D7
330
18
100
AcDbEntity
  8
1
 62
     1
100
AcDbLine
 10
24.55
 20
0.7302887500000002
 30
0.0
 11
24.42830227672261
 21
0.9410752916025981
 31
0.0
  0
LINE
  5
5D8
330
18
100
AcDbEntity
  8
1
 62
     1
100
AcDbLine
 10
22.3
 20
0.7302887500000002
 30
0.0
 11
22.08654701076759
 21
1.100000000000002
 31
0.0
  0
LINE
  5
5D9
330
18
100
AcDbEntity
  8
1
 62
     1
100
AcDbLine
 10
22.96345298923241
 20
1.099999999999999
 30
0.0
 11
22.75
 21
0.7302887500000002
 31
0.0
  0
LINE
  5
5DA
330
18
100
AcDbEntity
  8
1
 62
     1
100
AcDbLine
 10
22.75
 20
0.7302887500000002
 30
0.0
 11
22.53654701076758
 21
1.100000000000002
 31
0.0
  0
LINE
  5
5DB
330
18
100
AcDbEntity
  8
1
 62
     1
100
AcDbLine
 10
24.1
 20
0.7302887500000002
 30
0.0
 11
23.94085274461512
 21
1.005939753689375
 31
0.0
  0
LINE
  5
5DC
330
18
100
AcDbEntity
  8
1
 62
     1
100
AcDbLine
 10
23.40064970772515
 20
1.077824076265346
 30
0.0
 11
23.2
 21
0.73028875
 31
0.0
  0
LINE
  5
5DD
330
18
100
AcDbEntity
  8
1
 62
     1
100
AcDbLine
 10
23.2
 20
0.7302887500000002
 30
0.0
 11
22.98654701076758
 21
1.099999999999999
 31
0.0
  0
LINE
  5
5DE
330
18
100
AcDbEntity
  8
1
 62
     1
100
AcDbLine
 10
23.65
 20
0.7302887500000003
 30
0.0
 11
23.45340321250763
 21
1.070804215776161
 31
0.0
  0
LINE
  5
5DF
330
18
100
AcDbEntity
  8
1
 62
     1
100
AcDbLine
 10
24.65433239304156
 20
0.9109976713676293
 30
0.0
 11
24.55
 21
0.7302887500000002
 31
0.0
  0
LINE
  5
5E0
330
18
100
AcDbEntity
  8
1
 62
     1
100
AcDbLine
 10
21.85
 20
0.7302887500000002
 30
0.0
 11
21.63654701076758
 21
1.100000000000002
 31
0.0
  0
LINE
  5
5E1
330
18
100
AcDbEntity
  8
1
 62
     1
100
AcDbLine
 10
22.06345298923242
 20
1.100000000000009
 30
0.0
 11
21.85
 21
0.7302887500000002
 31
0.0
  0
LINE
  5
5E2
330
18
100
AcDbEntity
  8
1
 62
     1
100
AcDbLine
 10
21.61345298923241
 20
1.100000000000003
 30
0.0
 11
21.4
 21
0.7302887500000002
 31
0.0
  0
LINE
  5
5E3
330
18
100
AcDbEntity
  8
1
 62
     1
100
AcDbLine
 10
21.4
 20
0.7302887500000002
 30
0.0
 11
21.18654701076758
 21
1.099999999999999
 31
0.0
  0
LINE
  5
5E4
330
18
100
AcDbEntity
  8
1
 62
     1
100
AcDbLine
 10
21.16345298923241
 20
1.099999999999999
 30
0.0
 11
20.95
 21
0.7302887500000002
 31
0.0
  0
LINE
  5
5E5
330
18
100
AcDbEntity
  8
1
 62
     1
100
AcDbLine
 10
20.95
 20
0.7302887500000002
 30
0.0
 11
20.73654701076759
 21
1.099999999999999
 31
0.0
  0
LINE
  5
5E6
330
18
100
AcDbEntity
  8
1
 62
     1
100
AcDbLine
 10
20.71345298923241
 20
1.099999999999999
 30
0.0
 11
20.5
 21
0.7302887500000002
 31
0.0
  0
LINE
  5
5E7
330
18
100
AcDbEntity
  8
1
 62
     1
100
AcDbLine
 10
20.5
 20
0.7302887500000002
 30
0.0
 11
20.28654701076759
 21
1.099999999999999
 31
0.0
  0
LINE
  5
5E8
330
18
100
AcDbEntity
  8
1
 62
     1
100
AcDbLine
 10
18.01345298923241
 20
1.099999999999999
 30
0.0
 11
17.8
 21
0.7302887500000002
 31
0.0
  0
LINE
  5
5E9
330
18
100
AcDbEntity
  8
1
 62
     1
100
AcDbLine
 10
18.25
 20
0.7302887500000002
 30
0.0
 11
18.03654701076759
 21
1.099999999999999
 31
0.0
  0
LINE
  5
5EA
330
18
100
AcDbEntity
  8
1
 62
     1
100
AcDbLine
 10
18.46345298923242
 20
1.100000000000009
 30
0.0
 11
18.25
 21
0.7302887500000002
 31
0.0
  0
LINE
  5
5EB
330
18
100
AcDbEntity
  8
1
 62
     1
100
AcDbLine
 10
18.7
 20
0.7302887500000002
 30
0.0
 11
18.48654701076758
 21
1.099999999999999
 31
0.0
  0
LINE
  5
5EC
330
18
100
AcDbEntity
  8
1
 62
     1
100
AcDbLine
 10
18.91345298923241
 20
1.099999999999999
 30
0.0
 11
18.7
 21
0.7302887500000002
 31
0.0
  0
LINE
  5
5ED
330
18
100
AcDbEntity
  8
1
 62
     1
100
AcDbLine
 10
19.15
 20
0.7302887500000002
 30
0.0
 11
18.93654701076758
 21
1.099999999999999
 31
0.0
  0
LINE
  5
5EE
330
18
100
AcDbEntity
  8
1
 62
     1
100
AcDbLine
 10
19.36345298923242
 20
1.100000000000001
 30
0.0
 11
19.15
 21
0.7302887500000002
 31
0.0
  0
LINE
  5
5EF
330
18
100
AcDbEntity
  8
1
 62
     1
100
AcDbLine
 10
20.26345298923241
 20
1.099999999999999
 30
0.0
 11
20.05
 21
0.7302887500000002
 31
0.0
  0
LINE
  5
5F0
330
18
100
AcDbEntity
  8
1
 62
     1
100
AcDbLine
 10
20.05
 20
0.7302887500000002
 30
0.0
 11
19.83654701076759
 21
1.100000000000002
 31
0.0
  0
LINE
  5
5F1
330
18
100
AcDbEntity
  8
1
 62
     1
100
AcDbLine
 10
19.81345298923241
 20
1.100000000000001
 30
0.0
 11
19.6
 21
0.7302887500000002
 31
0.0
  0
LINE
  5
5F2
330
18
100
AcDbEntity
  8
1
 62
     1
100
AcDbLine
 10
19.6
 20
0.7302887500000002
 30
0.0
 11
19.38654701076758
 21
1.100000000000002
 31
0.0
  0
LINE
  5
5F3
330
18
100
AcDbEntity
  8
1
 62
     1
100
AcDbLine
 10
17.497705266
 20
-0.81
 30
0.0
 11
17.68991029425064
 21
-0.9209696248431839
 31
0.0
  0
LINE
  5
5F4
330
18
100
AcDbEntity
  8
1
 62
     1
100
AcDbLine
 10
17.8
 20
0.73028875
 30
0.0
 11
17.68991029425064
 21
0.9209696248431818
 31
0.0
  0
LINE
  5
5F5
330
18
100
AcDbEntity
  8
SK1
100
AcDbLine
 10
0.0000000000000018
 20
1.4
 30
0.0
 11
-15.005
 21
1.4
 31
0.0
  0
LINE
  5
5F6
330
18
100
AcDbEntity
  8
SK1
100
AcDbLine
 10
-15.005
 20
-1.05
 30
0.0
 11
-15.005
 21
-1.39999999365418
 31
0.0
  0
LINE
  5
5F7
330
18
100
AcDbEntity
  8
SK1
100
AcDbLine
 10
-19.865
 20
0.9260129588726065
 30
0.0
 11
-15.005
 21
0.9260129588726065
 31
0.0
  0
LINE
  5
5F8
330
18
100
AcDbEntity
  8
SK1
100
AcDbLine
 10
-19.86499999999999
 20
1.05
 30
0.0
 11
-15.005
 21
1.05
 31
0.0
  0
ARC
  5
5F9
330
18
100
AcDbEntity
  8
SK1
100
AcDbCircle
 10
-17.09534798410334
 20
-0.9220711300261057
 30
0.0
 40
3.32955163999637
100
AcDbArc
 50
146.286316478501
 51
150.9139716090509
  0
LINE
  5
5FA
330
18
100
AcDbEntity
  8
SK1
100
AcDbLine
 10
-19.865
 20
1.05
 30
0.0
 11
-19.86500000000001
 21
0.9260129588726069
 31
0.0
  0
LINE
  5
5FB
330
18
100
AcDbEntity
  8
SK1
100
AcDbLine
 10
-20.005
 20
1.05
 30
0.0
 11
-19.865
 21
1.05
 31
0.0
  0
LINE
  5
5FC
330
18
100
AcDbEntity
  8
SK1
100
AcDbLine
 10
-15.005
 20
1.4
 30
0.0
 11
-15.005
 21
1.399926684987163
 31
0.0
  0
LINE
  5
5FD
330
18
100
AcDbEntity
  8
SK1
100
AcDbLine
 10
-15.005
 20
1.399926684987163
 30
0.0
 11
-15.005
 21
1.377480295181483
 31
0.0
  0
LINE
  5
5FE
330
18
100
AcDbEntity
  8
SK1
100
AcDbLine
 10
-15.005
 20
1.377480295181483
 30
0.0
 11
-15.005
 21
1.05
 31
0.0
  0
LINE
  5
5FF
330
18
100
AcDbEntity
  8
SK1
100
AcDbLine
 10
-19.865
 20
-0.9260129588726062
 30
0.0
 11
-15.005
 21
-0.9260129588726062
 31
0.0
  0
LINE
  5
600
330
18
100
AcDbEntity
  8
SK1
100
AcDbLine
 10
-19.865
 20
-0.926012958872606
 30
0.0
 11
-19.865
 21
-1.05
 31
0.0
  0
LINE
  5
601
330
18
100
AcDbEntity
  8
SK1
100
AcDbLine
 10
-19.865
 20
-1.05
 30
0.0
 11
-15.005
 21
-1.05
 31
0.0
  0
LINE
  5
602
330
18
100
AcDbEntity
  8
SK1
100
AcDbLine
 10
-20.005
 20
1.05
 30
0.0
 11
-20.005
 21
0.6964912059746345
 31
0.0
  0
LINE
  5
603
330
18
100
AcDbEntity
  8
SK1
100
AcDbLine
 10
-20.005
 20
-0.6964912059746341
 30
0.0
 11
-20.005
 21
-1.05
 31
0.0
  0
ARC
  5
604
330
18
100
AcDbEntity
  8
SK1
100
AcDbCircle
 10
-17.09534798409658
 20
0.922071130030044
 30
0.0
 40
3.329551640004183
100
AcDbArc
 50
209.0860283909518
 51
213.7136835214907
  0
LINE
  5
605
330
18
100
AcDbEntity
  8
SK1
100
AcDbLine
 10
-20.005
 20
-1.05
 30
0.0
 11
-19.865
 21
-1.05
 31
0.0
  0
LINE
  5
606
330
18
100
AcDbEntity
  8
SK1
100
AcDbLine
 10
-15.005
 20
0.9260129588727052
 30
0.0
 11
-15.005
 21
-0.9260129588727062
 31
0.0
  0
LINE
  5
607
330
18
100
AcDbEntity
  8
SK1
100
AcDbLine
 10
-20.005
 20
0.6964912059746344
 30
0.0
 11
-20.005
 21
-0.696491205974634
 31
0.0
  0
LINE
  5
608
330
18
100
AcDbEntity
  8
SK1
100
AcDbLine
 10
-15.005
 20
-1.4
 30
0.0
 11
0.000000000000004
 21
-1.4
 31
0.0
  0
DIMENSION
  5
609
330
18
100
AcDbEntity
  8
2
100
AcDbDimension
  2
*D0
 10
40.00000000000001
 20
-1.099999999999948
 30
0.0
 11
37.60225000000004
 21
-12.23924999999996
 31
0.0
 70
    32
  1
M2.2
 71
     5
 42
2.2
  3
STANDARD
100
AcDbAlignedDimension
 13
25.0
 23
1.1
 33
0.0
 14
25.0
 24
-1.1
 34
0.0
 50
90.0000000000002
100
AcDbRotatedDimension
  0
DIMENSION
  5
617
330
18
100
AcDbEntity
  8
2
100
AcDbDimension
  2
*D1
 10
25.0
 20
75.0
 30
0.0
 11
12.5
 21
77.39075
 31
0.0
 70
    32
  1
<>
 71
     5
 42
25.0
  3
STANDARD
100
AcDbAlignedDimension
 13
0.0
 23
0.0
 33
0.0
 14
25.0
 24
0.0
 34
0.0
100
AcDbRotatedDimension
  0
DIMENSION
  5
624
330
18
100
AcDbEntity
  8
SK2
100
AcDbDimension
  2
*D2
 10
-35.00499999999285
 20
-1.400000000102068
 30
0.0
 11
-37.40274999993633
 21
-12.4745000001143
 31
0.0
 70
    32
  1
%%c<>
 71
     5
 42
2.8
  3
STANDARD
100
AcDbAlignedDimension
 13
-15.005
 23
1.4
 33
0.0
 14
-15.005
 24
-1.4
 34
0.0
 50
90.0000000002924
100
AcDbRotatedDimension
  0
DIMENSION
  5
632
330
18
100
AcDbEntity
  8
2
100
AcDbDimension
  2
*D3
 10
25.0
 20
60.0
 30
0.0
 11
31.751
 21
62.39775
 31
0.0
 70
    32
  1
<>
 71
     5
 42
7.502294733999999
  3
STANDARD
100
AcDbAlignedDimension
 13
17.497705266
 23
0.81
 33
0.0
 14
25.0
 24
1.1
 34
0.0
100
AcDbRotatedDimension
  0
DIMENSION
  5
640
330
18
100
AcDbEntity
  8
SK2
100
AcDbDimension
  2
*D4
 10
25.865
 20
90.0
 30
0.0
 11
2.93
 21
92.438
 31
0.0
 70
    32
  1
<>
 71
     5
 42
45.87
  3
STANDARD
100
AcDbAlignedDimension
 13
-20.005
 23
1.1
 33
0.0
 14
25.865
 24
1.1
 34
0.0
100
AcDbRotatedDimension
  0
ENDSEC
  0
SECTION
  2
OBJECTS
  0
DICTIONARY
  5
C
330
0
100
AcDbDictionary
281
     1
  3
ACAD_COLOR
350
387
  3
ACAD_GROUP
350
D
  3
ACAD_LAYOUT
350
301
  3
ACAD_MATERIAL
350
386
  3
ACAD_MLEADERSTYLE
350
64D
  3
ACAD_MLINESTYLE
350
E
  3
ACAD_PLOTSETTINGS
350
302
  3
ACAD_PLOTSTYLENAME
350
2FF
  3
ACAD_SCALELIST
350
3A0
  3
ACAD_TABLESTYLE
350
388
  3
ACAD_VISUALSTYLE
350
3C5
  3
ACDBHEADERROUNDTRIPXREC
350
64E
  3
AcDbVariableDictionary
350
357
  0
DICTIONARY
  5
387
102
{ACAD_REACTORS
330
C
102
}
330
C
100
AcDbDictionary
281
     1
  0
DICTIONARY
  5
D
102
{ACAD_REACTORS
330
C
102
}
330
C
100
AcDbDictionary
281
     1
  0
DICTIONARY
  5
301
102
{ACAD_REACTORS
330
C
102
}
330
C
100
AcDbDictionary
281
     1
  3
Layout1
350
33B
  3
Model
350
303
  0
DICTIONARY
  5
386
102
{ACAD_REACTORS
330
C
102
}
330
C
100
AcDbDictionary
281
     1
  3
ByBlock
350
3C3
  3
ByLayer
350
3C2
  3
Global
350
3C4
  0
DICTIONARY
  5
64D
102
{ACAD_REACTORS
330
C
102
}
330
C
100
AcDbDictionary
281
     1
  0
DICTIONARY
  5
E
102
{ACAD_REACTORS
330
C
102
}
330
C
100
AcDbDictionary
281
     1
  3
STANDARD
350
1B
  0
DICTIONARY
  5
302
102
{ACAD_REACTORS
330
C
102
}
330
C
100
AcDbDictionary
281
     1
  0
ACDBDICTIONARYWDFLT
  5
2FF
102
{ACAD_REACTORS
330
C
102
}
330
C
100
AcDbDictionary
281
     1
  3
Normal
350
300
100
AcDbDictionaryWithDefault
340
300
  0
DICTIONARY
  5
3A0
102
{ACAD_REACTORS
330
C
102
}
330
C
100
AcDbDictionary
281
     1
  3
A0
350
3A1
  3
A1
350
3A2
  3
A2
350
3A3
  3
A3
350
3A4
  3
A4
350
3A5
  3
A5
350
3A6
  3
A6
350
3A7
  3
A7
350
3A8
  3
A8
350
3A9
  3
A9
350
3AA
  3
B0
350
3AB
  3
B1
350
3AC
  3
B2
350
3AD
  3
B3
350
3AE
  3
B4
350
3AF
  3
B5
350
3B0
  3
B6
350
3B1
  3
B7
350
3B2
  3
B8
350
3B3
  3
B9
350
3B4
  3
C0
350
3B5
  3
C1
350
3B6
  3
C2
350
3B7
  3
C3
350
3B8
  3
C4
350
3B9
  3
C5
350
3BA
  3
C6
350
3BB
  3
C7
350
3BC
  3
C8
350
3BD
  3
C9
350
3BE
  3
D0
350
3BF
  3
D1
350
3C0
  3
D2
350
3C1
  0
DICTIONARY
  5
388
102
{ACAD_REACTORS
330
C
102
}
330
C
100
AcDbDictionary
281
     1
  3
Standard
350
389
  0
DICTIONARY
  5
3C5
102
{ACAD_REACTORS
330
C
102
}
330
C
100
AcDbDictionary
281
     1
  3
2dWireframe
350
3CA
  3
3D Hidden
350
3CC
  3
3dWireframe
350
3CB
  3
Basic
350
3CD
  3
Brighten
350
3D1
  3
ColorChange
350
3D5
  3
Conceptual
350
3CF
  3
Dim
350
3D0
  3
Facepattern
350
3D4
  3
Flat
350
3C6
  3
FlatWithEdges
350
3C7
  3
Gouraud
350
3C8
  3
GouraudWithEdges
350
3C9
  3
Linepattern
350
3D3
  3
Realistic
350
3CE
  3
Thicken
350
3D2
  0
DICTIONARY
  5
64E
102
{ACAD_REACTORS
330
C
102
}
330
C
100
AcDbDictionary
281
     1
  3
COLORDICT
350
64F
  3
MATERIALDICT
350
650
  0
DICTIONARY
  5
357
102
{ACAD_REACTORS
330
C
102
}
330
C
100
AcDbDictionary
281
     1
  3
CANNOSCALE
350
651
  3
CTABLESTYLE
350
38D
  3
DIMASSOC
350
359
  3
HIDETEXT
350
358
  3
PROJECTNAME
350
38E
  0
LAYOUT
  5
33B
102
{ACAD_REACTORS
330
301
102
}
330
301
100
AcDbPlotSettings
  1

  2
Lexmark Optra PS2
  4

  6

 40
0.0
 41
0.0
 42
0.0
 43
0.0
 44
0.0
 45
0.0
 46
0.0
 47
0.0
 48
0.0
 49
0.0
140
0.0
141
0.0
142
1.0
143
1.0
 70
   688
 72
     0
 73
     0
 74
     5
  7
monochrome.ctb
 75
    16
147
1.0
148
0.0
149
0.0
100
AcDbLayout
  1
Layout1
 70
     1
 71
     1
 10
0.0
 20
0.0
 11
12.0
 21
9.0
 12
0.0
 22
0.0
 32
0.0
 14
0.0
 24
0.0
 34
0.0
 15
0.0
 25
0.0
 35
0.0
146
0.0
 13
0.0
 23
0.0
 33
0.0
 16
1.0
 26
0.0
 36
0.0
 17
0.0
 27
1.0
 37
0.0
 76
     0
330
338
  0
LAYOUT
  5
303
102
{ACAD_REACTORS
330
301
102
}
330
301
100
AcDbPlotSettings
  1

  2
Lexmark Optra Rx
  4
A4
  6

 40
6.805083274841307
 41
5.535083293914794
 42
6.974411010742187
 43
7.14373779296875
 44
209.9733276367186
 45
296.9259948730469
 46
0.0
 47
0.0
 48
0.0
 49
0.0
140
0.0
141
0.0
142
1.0
143
2.976565420630886
 70
 11952
 72
     1
 73
     1
 74
     0
  7
monochrome.ctb
 75
     0
147
0.335957675604539
148
204.1199660668592
149
172.3933209647495
100
AcDbLayout
  1
Model
 70
     1
 71
     0
 10
0.0
 20
0.0
 11
12.0
 21
9.0
 12
0.0
 22
0.0
 32
0.0
 14
0.0
 24
0.0
 34
0.0
 15
0.0
 25
0.0
 35
0.0
146
0.0
 13
0.0
 23
0.0
 33
0.0
 16
1.0
 26
0.0
 36
0.0
 17
0.0
 27
1.0
 37
0.0
 76
     0
330
18
331
39A
  0
MATERIAL
  5
3C3
102
{ACAD_REACTORS
330
386
102
}
102
{ACAD_XDICTIONARY
360
654
102
}
330
386
100
AcDbMaterial
  1
ByBlock
  0
MATERIAL
  5
3C2
102
{ACAD_REACTORS
330
386
102
}
102
{ACAD_XDICTIONARY
360
652
102
}
330
386
100
AcDbMaterial
  1
ByLayer
  0
MATERIAL
  5
3C4
102
{ACAD_REACTORS
330
386
102
}
102
{ACAD_XDICTIONARY
360
656
102
}
330
386
100
AcDbMaterial
  1
Global
  0
MLINESTYLE
  5
1B
102
{ACAD_REACTORS
330
E
102
}
330
E
100
AcDbMlineStyle
  2
STANDARD
 70
     0
  3

 62
     0
 51
90.0
 52
90.0
 71
     2
 49
0.5
 62
   256
  6
BYLAYER
 49
-0.5
 62
   256
  6
BYLAYER
  0
ACDBPLACEHOLDER
  5
300
102
{ACAD_REACTORS
330
2FF
102
}
330
2FF
  0
SCALE
  5
3A1
102
{ACAD_REACTORS
330
3A0
102
}
330
3A0
100
AcDbScale
 70
     0
300
1:1
140
1.0
141
1.0
290
     1
  0
SCALE
  5
3A2
102
{ACAD_REACTORS
330
3A0
102
}
330
3A0
100
AcDbScale
 70
     0
300
1:2
140
1.0
141
2.0
290
     0
  0
SCALE
  5
3A3
102
{ACAD_REACTORS
330
3A0
102
}
330
3A0
100
AcDbScale
 70
     0
300
1:4
140
1.0
141
4.0
290
     0
  0
SCALE
  5
3A4
102
{ACAD_REACTORS
330
3A0
102
}
330
3A0
100
AcDbScale
 70
     0
300
1:5
140
1.0
141
5.0
290
     0
  0
SCALE
  5
3A5
102
{ACAD_REACTORS
330
3A0
102
}
330
3A0
100
AcDbScale
 70
     0
300
1:8
140
1.0
141
8.0
290
     0
  0
SCALE
  5
3A6
102
{ACAD_REACTORS
330
3A0
102
}
330
3A0
100
AcDbScale
 70
     0
300
1:10
140
1.0
141
10.0
290
     0
  0
SCALE
  5
3A7
102
{ACAD_REACTORS
330
3A0
102
}
330
3A0
100
AcDbScale
 70
     0
300
1:16
140
1.0
141
16.0
290
     0
  0
SCALE
  5
3A8
102
{ACAD_REACTORS
330
3A0
102
}
330
3A0
100
AcDbScale
 70
     0
300
1:20
140
1.0
141
20.0
290
     0
  0
SCALE
  5
3A9
102
{ACAD_REACTORS
330
3A0
102
}
330
3A0
100
AcDbScale
 70
     0
300
1:30
140
1.0
141
30.0
290
     0
  0
SCALE
  5
3AA
102
{ACAD_REACTORS
330
3A0
102
}
330
3A0
100
AcDbScale
 70
     0
300
1:40
140
1.0
141
40.0
290
     0
  0
SCALE
  5
3AB
102
{ACAD_REACTORS
330
3A0
102
}
330
3A0
100
AcDbScale
 70
     0
300
1:50
140
1.0
141
50.0
290
     0
  0
SCALE
  5
3AC
102
{ACAD_REACTORS
330
3A0
102
}
330
3A0
100
AcDbScale
 70
     0
300
1:100
140
1.0
141
100.0
290
     0
  0
SCALE
  5
3AD
102
{ACAD_REACTORS
330
3A0
102
}
330
3A0
100
AcDbScale
 70
     0
300
2:1
140
2.0
141
1.0
290
     0
  0
SCALE
  5
3AE
102
{ACAD_REACTORS
330
3A0
102
}
330
3A0
100
AcDbScale
 70
     0
300
4:1
140
4.0
141
1.0
290
     0
  0
SCALE
  5
3AF
102
{ACAD_REACTORS
330
3A0
102
}
330
3A0
100
AcDbScale
 70
     0
300
8:1
140
8.0
141
1.0
290
     0
  0
SCALE
  5
3B0
102
{ACAD_REACTORS
330
3A0
102
}
330
3A0
100
AcDbScale
 70
     0
300
10:1
140
10.0
141
1.0
290
     0
  0
SCALE
  5
3B1
102
{ACAD_REACTORS
330
3A0
102
}
330
3A0
100
AcDbScale
 70
     0
300
100:1
140
100.0
141
1.0
290
     0
  0
SCALE
  5
3B2
102
{ACAD_REACTORS
330
3A0
102
}
330
3A0
100
AcDbScale
 70
     0
300
1/128" = 1'-0"
140
0.0078125
141
12.0
290
     0
  0
SCALE
  5
3B3
102
{ACAD_REACTORS
330
3A0
102
}
330
3A0
100
AcDbScale
 70
     0
300
1/64" = 1'-0"
140
0.015625
141
12.0
290
     0
  0
SCALE
  5
3B4
102
{ACAD_REACTORS
330
3A0
102
}
330
3A0
100
AcDbScale
 70
     0
300
1/32" = 1'-0"
140
0.03125
141
12.0
290
     0
  0
SCALE
  5
3B5
102
{ACAD_REACTORS
330
3A0
102
}
330
3A0
100
AcDbScale
 70
     0
300
1/16" = 1'-0"
140
0.0625
141
12.0
290
     0
  0
SCALE
  5
3B6
102
{ACAD_REACTORS
330
3A0
102
}
330
3A0
100
AcDbScale
 70
     0
300
3/32" = 1'-0"
140
0.09375
141
12.0
290
     0
  0
SCALE
  5
3B7
102
{ACAD_REACTORS
330
3A0
102
}
330
3A0
100
AcDbScale
 70
     0
300
1/8" = 1'-0"
140
0.125
141
12.0
290
     0
  0
SCALE
  5
3B8
102
{ACAD_REACTORS
330
3A0
102
}
330
3A0
100
AcDbScale
 70
     0
300
3/16" = 1'-0"
140
0.1875
141
12.0
290
     0
  0
SCALE
  5
3B9
102
{ACAD_REACTORS
330
3A0
102
}
330
3A0
100
AcDbScale
 70
     0
300
1/4" = 1'-0"
140
0.25
141
12.0
290
     0
  0
SCALE
  5
3BA
102
{ACAD_REACTORS
330
3A0
102
}
330
3A0
100
AcDbScale
 70
     0
300
3/8" = 1'-0"
140
0.375
141
12.0
290
     0
  0
SCALE
  5
3BB
102
{ACAD_REACTORS
330
3A0
102
}
330
3A0
100
AcDbScale
 70
     0
300
1/2" = 1'-0"
140
0.5
141
12.0
290
     0
  0
SCALE
  5
3BC
102
{ACAD_REACTORS
330
3A0
102
}
330
3A0
100
AcDbScale
 70
     0
300
3/4" = 1'-0"
140
0.75
141
12.0
290
     0
  0
SCALE
  5
3BD
102
{ACAD_REACTORS
330
3A0
102
}
330
3A0
100
AcDbScale
 70
     0
300
1" = 1'-0"
140
1.0
141
12.0
290
     0
  0
SCALE
  5
3BE
102
{ACAD_REACTORS
330
3A0
102
}
330
3A0
100
AcDbScale
 70
     0
300
1-1/2" = 1'-0"
140
1.5
141
12.0
290
     0
  0
SCALE
  5
3BF
102
{ACAD_REACTORS
330
3A0
102
}
330
3A0
100
AcDbScale
 70
     0
300
3" = 1'-0"
140
3.0
141
12.0
290
     0
  0
SCALE
  5
3C0
102
{ACAD_REACTORS
330
3A0
102
}
330
3A0
100
AcDbScale
 70
     0
300
6" = 1'-0"
140
6.0
141
12.0
290
     0
  0
SCALE
  5
3C1
102
{ACAD_REACTORS
330
3A0
102
}
330
3A0
100
AcDbScale
 70
     0
300
1'-0" = 1'-0"
140
12.0
141
12.0
290
     0
  0
TABLESTYLE
  5
389
102
{ACAD_REACTORS
330
388
102
}
330
388
100
AcDbTableStyle
  3
Standard
 70
     0
 71
     0
 40
1.5
 41
1.5
280
     0
281
     0
  7
STANDARD
140
4.5
170
     2
 62
     0
 63
   257
283
     0
274
    -2
284
     1
 64
     0
275
    -2
285
     1
 65
     0
276
    -2
286
     1
 66
     0
277
    -2
287
     1
 67
     0
278
    -2
288
     1
 68
     0
279
    -2
289
     1
 69
     0
  7
STANDARD
140
6.0
170
     5
 62
     0
 63
   257
283
     0
274
    -2
284
     1
 64
     0
275
    -2
285
     1
 65
     0
276
    -2
286
     1
 66
     0
277
    -2
287
     1
 67
     0
278
    -2
288
     1
 68
     0
279
    -2
289
     1
 69
     0
  7
STANDARD
140
4.5
170
     5
 62
     0
 63
   257
283
     0
274
    -2
284
     1
 64
     0
275
    -2
285
     1
 65
     0
276
    -2
286
     1
 66
     0
277
    -2
287
     1
 67
     0
278
    -2
288
     1
 68
     0
279
    -2
289
     1
 69
     0
  0
VISUALSTYLE
  5
3CA
102
{ACAD_REACTORS
330
3C5
102
}
102
{ACAD_XDICTIONARY
360
660
102
}
330
3C5
100
AcDbVisualStyle
  2
2dWireframe
 70
     4
 71
     0
 72
     2
 73
     0
 90
        0
 40
-0.6
 41
-30.0
 62
     5
 63
     7
 74
     1
 91
        4
 64
     7
 65
   257
 75
     1
175
     1
 42
1.0
 92
        0
 66
   257
 43
1.0
 76
     1
 77
     6
 78
     2
 67
     7
 79
     5
170
     0
171
     0
290
     0
174
     0
 93
        1
 44
0.0
173
     0
291
     0
 45
0.0
1001
ACAD
1000
AcDbSavedByObjectVersion
1070
     0
  0
VISUALSTYLE
  5
3CC
102
{ACAD_REACTORS
330
3C5
102
}
102
{ACAD_XDICTIONARY
360
664
102
}
330
3C5
100
AcDbVisualStyle
  2
3D Hidden
 70
     6
 71
     1
 72
     2
 73
     2
 90
        0
 40
-0.6
 41
-30.0
 62
     5
 63
     7
 74
     2
 91
        2
 64
     7
 65
   257
 75
     2
175
     1
 42
40.0
 92
        0
 66
   257
 43
1.0
 76
     1
 77
     6
 78
     2
 67
     7
 79
     3
170
     0
171
     0
290
     0
174
     0
 93
        1
 44
0.0
173
     0
291
     0
 45
0.0
1001
ACAD
1000
AcDbSavedByObjectVersion
1070
     0
  0
VISUALSTYLE
  5
3CB
102
{ACAD_REACTORS
330
3C5
102
}
102
{ACAD_XDICTIONARY
360
662
102
}
330
3C5
100
AcDbVisualStyle
  2
3dWireframe
 70
     5
 71
     0
 72
     2
 73
     0
 90
        0
 40
-0.6
 41
-30.0
 62
     5
 63
     7
 74
     1
 91
        4
 64
     7
 65
   257
 75
     1
175
     1
 42
1.0
 92
        0
 66
   257
 43
1.0
 76
     1
 77
     6
 78
     2
 67
     7
 79
     5
170
     0
171
     0
290
     0
174
     0
 93
        1
 44
0.0
173
     0
291
     0
 45
0.0
1001
ACAD
1000
AcDbSavedByObjectVersion
1070
     0
  0
VISUALSTYLE
  5
3CD
102
{ACAD_REACTORS
330
3C5
102
}
102
{ACAD_XDICTIONARY
360
666
102
}
330
3C5
100
AcDbVisualStyle
  2
Basic
 70
     7
 71
     1
 72
     0
 73
     1
 90
        0
 40
-0.6
 41
-30.0
 62
     5
 63
     7
 74
     0
 91
        4
 64
     7
 65
   257
 75
     1
175
     1
 42
1.0
 92
        8
 66
     7
 43
1.0
 76
     1
 77
     6
 78
     2
 67
     7
 79
     5
170
     0
171
     0
290
     0
174
     0
 93
        1
 44
0.0
173
     0
291
     1
 45
0.0
1001
ACAD
1000
AcDbSavedByObjectVersion
1070
     0
  0
VISUALSTYLE
  5
3D1
102
{ACAD_REACTORS
330
3C5
102
}
102
{ACAD_XDICTIONARY
360
66E
102
}
330
3C5
100
AcDbVisualStyle
  2
Brighten
 70
    12
 71
     2
 72
     2
 73
     0
 90
        0
 40
-0.6
 41
-30.0
 62
     5
 63
     7
 74
     1
 91
        4
 64
     7
 65
   257
 75
     1
175
     1
 42
1.0
 92
        8
 66
     7
 43
1.0
 76
     1
 77
     6
 78
     2
 67
     7
 79
     5
170
     0
171
     0
290
     0
174
     0
 93
        1
 44
50.0
173
     0
291
     1
 45
0.0
1001
ACAD
1000
AcDbSavedByObjectVersion
1070
     0
  0
VISUALSTYLE
  5
3D5
102
{ACAD_REACTORS
330
3C5
102
}
102
{ACAD_XDICTIONARY
360
676
102
}
330
3C5
100
AcDbVisualStyle
  2
ColorChange
 70
    16
 71
     2
 72
     2
 73
     3
 90
        0
 40
-0.6
 41
-30.0
 62
     5
 63
     8
 74
     1
 91
        4
 64
     7
 65
   257
 75
     1
175
     1
 42
1.0
 92
        8
 66
     8
 43
1.0
 76
     1
 77
     6
 78
     2
 67
     7
 79
     5
170
     0
171
     0
290
     0
174
     0
 93
        1
 44
0.0
173
     0
291
     1
 45
0.0
1001
ACAD
1000
AcDbSavedByObjectVersion
1070
     0
  0
VISUALSTYLE
  5
3CF
102
{ACAD_REACTORS
330
3C5
102
}
102
{ACAD_XDICTIONARY
360
66A
102
}
330
3C5
100
AcDbVisualStyle
  2
Conceptual
 70
     9
 71
     3
 72
     2
 73
     0
 90
        0
 40
-0.6
 41
-30.0
 62
     5
 63
     7
 74
     2
 91
        2
 64
     7
 65
   257
 75
     1
175
     1
 42
40.0
 92
        8
 66
     7
 43
1.0
 76
     1
 77
     6
 78
     2
 67
     7
 79
     3
170
     0
171
     0
290
     0
174
     0
 93
        1
 44
0.0
173
     0
291
     0
 45
0.0
1001
ACAD
1000
AcDbSavedByObjectVersion
1070
     0
  0
VISUALSTYLE
  5
3D0
102
{ACAD_REACTORS
330
3C5
102
}
102
{ACAD_XDICTIONARY
360
66C
102
}
330
3C5
100
AcDbVisualStyle
  2
Dim
 70
    11
 71
     2
 72
     2
 73
     0
 90
        0
 40
-0.6
 41
-30.0
 62
     5
 63
     7
 74
     1
 91
        4
 64
     7
 65
   257
 75
     1
175
     1
 42
1.0
 92
        8
 66
     7
 43
1.0
 76
     1
 77
     6
 78
     2
 67
     7
 79
     5
170
     0
171
     0
290
     0
174
     0
 93
        1
 44
-50.0
173
     0
291
     1
 45
0.0
1001
ACAD
1000
AcDbSavedByObjectVersion
1070
     0
  0
VISUALSTYLE
  5
3D4
102
{ACAD_REACTORS
330
3C5
102
}
102
{ACAD_XDICTIONARY
360
674
102
}
330
3C5
100
AcDbVisualStyle
  2
Facepattern
 70
    15
 71
     2
 72
     2
 73
     0
 90
        0
 40
-0.6
 41
-30.0
 62
     5
 63
     7
 74
     1
 91
        4
 64
     7
 65
   257
 75
     1
175
     1
 42
1.0
 92
        8
 66
     7
 43
1.0
 76
     1
 77
     6
 78
     2
 67
     7
 79
     5
170
     0
171
     0
290
     0
174
     0
 93
        1
 44
0.0
173
     0
291
     1
 45
0.0
1001
ACAD
1000
AcDbSavedByObjectVersion
1070
     0
  0
VISUALSTYLE
  5
3C6
102
{ACAD_REACTORS
330
3C5
102
}
102
{ACAD_XDICTIONARY
360
658
102
}
330
3C5
100
AcDbVisualStyle
  2
Flat
 70
     0
 71
     2
 72
     1
 73
     1
 90
        2
 40
-0.6
 41
30.0
 62
     5
 63
     7
 74
     0
 91
        4
 64
     7
 65
   257
 75
     1
175
     1
 42
1.0
 92
        8
 66
     7
 43
1.0
 76
     1
 77
     6
 78
     2
 67
     7
 79
     5
170
     0
171
     0
290
     0
174
     0
 93
       13
 44
0.0
173
     0
291
     1
 45
0.0
1001
ACAD
1000
AcDbSavedByObjectVersion
1070
     0
  0
VISUALSTYLE
  5
3C7
102
{ACAD_REACTORS
330
3C5
102
}
102
{ACAD_XDICTIONARY
360
65A
102
}
330
3C5
100
AcDbVisualStyle
  2
FlatWithEdges
 70
     1
 71
     2
 72
     1
 73
     1
 90
        2
 40
-0.6
 41
30.0
 62
     5
 63
     7
 74
     1
 91
        4
 64
     7
 65
   257
 75
     1
175
     1
 42
1.0
 92
        0
 66
   257
 43
1.0
 76
     1
 77
     6
 78
     2
 67
     7
 79
     5
170
     0
171
     0
290
     0
174
     0
 93
       13
 44
0.0
173
     0
291
     1
 45
0.0
1001
ACAD
1000
AcDbSavedByObjectVersion
1070
     0
  0
VISUALSTYLE
  5
3C8
102
{ACAD_REACTORS
330
3C5
102
}
102
{ACAD_XDICTIONARY
360
65C
102
}
330
3C5
100
AcDbVisualStyle
  2
Gouraud
 70
     2
 71
     2
 72
     2
 73
     1
 90
        2
 40
-0.6
 41
30.0
 62
     5
 63
     7
 74
     0
 91
        4
 64
     7
 65
   257
 75
     1
175
     1
 42
1.0
 92
        0
 66
     7
 43
1.0
 76
     1
 77
     6
 78
     2
 67
     7
 79
     5
170
     0
171
     0
290
     0
174
     0
 93
       13
 44
0.0
173
     0
291
     1
 45
0.0
1001
ACAD
1000
AcDbSavedByObjectVersion
1070
     0
  0
VISUALSTYLE
  5
3C9
102
{ACAD_REACTORS
330
3C5
102
}
102
{ACAD_XDICTIONARY
360
65E
102
}
330
3C5
100
AcDbVisualStyle
  2
GouraudWithEdges
 70
     3
 71
     2
 72
     2
 73
     1
 90
        2
 40
-0.6
 41
30.0
 62
     5
 63
     7
 74
     1
 91
        4
 64
     7
 65
   257
 75
     1
175
     1
 42
1.0
 92
        0
 66
   257
 43
1.0
 76
     1
 77
     6
 78
     2
 67
     7
 79
     5
170
     0
171
     0
290
     0
174
     0
 93
       13
 44
0.0
173
     0
291
     1
 45
0.0
1001
ACAD
1000
AcDbSavedByObjectVersion
1070
     0
  0
VISUALSTYLE
  5
3D3
102
{ACAD_REACTORS
330
3C5
102
}
102
{ACAD_XDICTIONARY
360
672
102
}
330
3C5
100
AcDbVisualStyle
  2
Linepattern
 70
    14
 71
     2
 72
     2
 73
     0
 90
        0
 40
-0.6
 41
-30.0
 62
     5
 63
     7
 74
     1
 91
        4
 64
     7
 65
   257
 75
     7
175
     7
 42
1.0
 92
        8
 66
     7
 43
1.0
 76
     1
 77
     6
 78
     2
 67
     7
 79
     5
170
     0
171
     0
290
     0
174
     0
 93
        1
 44
0.0
173
     0
291
     1
 45
0.0
1001
ACAD
1000
AcDbSavedByObjectVersion
1070
     0
  0
VISUALSTYLE
  5
3CE
102
{ACAD_REACTORS
330
3C5
102
}
102
{ACAD_XDICTIONARY
360
668
102
}
330
3C5
100
AcDbVisualStyle
  2
Realistic
 70
     8
 71
     2
 72
     2
 73
     0
 90
        0
 40
-0.6
 41
-30.0
 62
     5
 63
     7
 74
     1
 91
        0
 64
     7
 65
   257
 75
     1
175
     1
 42
1.0
 92
        8
 66
     8
 43
1.0
 76
     1
 77
     6
 78
     2
 67
     7
 79
     5
170
     0
171
     0
290
     0
174
     0
 93
       13
 44
0.0
173
     0
291
     0
 45
0.0
1001
ACAD
1000
AcDbSavedByObjectVersion
1070
     0
  0
VISUALSTYLE
  5
3D2
102
{ACAD_REACTORS
330
3C5
102
}
102
{ACAD_XDICTIONARY
360
670
102
}
330
3C5
100
AcDbVisualStyle
  2
Thicken
 70
    13
 71
     2
 72
     2
 73
     0
 90
        0
 40
-0.6
 41
-30.0
 62
     5
 63
     7
 74
     1
 91
        4
 64
     7
 65
   257
 75
     1
175
     1
 42
1.0
 92
       12
 66
     7
 43
1.0
 76
     1
 77
     6
 78
     2
 67
     7
 79
     5
170
     0
171
     0
290
     0
174
     0
 93
        1
 44
0.0
173
     0
291
     1
 45
0.0
1001
ACAD
1000
AcDbSavedByObjectVersion
1070
     0
  0
XRECORD
  5
64F
102
{ACAD_REACTORS
330
64E
102
}
330
64E
100
AcDbXrecord
280
     1
340
387
  0
XRECORD
  5
650
102
{ACAD_REACTORS
330
64E
102
}
330
64E
100
AcDbXrecord
280
     1
340
386
  0
DICTIONARYVAR
  5
651
102
{ACAD_REACTORS
330
357
102
}
330
357
100
DictionaryVariables
280
     0
  1
1:1
  0
DICTIONARYVAR
  5
38D
102
{ACAD_REACTORS
330
357
102
}
330
357
100
DictionaryVariables
280
     0
  1
Standard
  0
DICTIONARYVAR
  5
359
102
{ACAD_REACTORS
330
357
102
}
330
357
100
DictionaryVariables
280
     0
  1
2
  0
DICTIONARYVAR
  5
358
102
{ACAD_REACTORS
330
357
102
}
330
357
100
DictionaryVariables
280
     0
  1
1
  0
DICTIONARYVAR
  5
38E
102
{ACAD_REACTORS
330
357
102
}
330
357
100
DictionaryVariables
280
     0
  1

  0
DICTIONARY
  5
654
330
3C3
100
AcDbDictionary
280
     1
281
     1
  3
ACAD_XREC_ROUNDTRIP
360
655
  0
DICTIONARY
  5
652
330
3C2
100
AcDbDictionary
280
     1
281
     1
  3
ACAD_XREC_ROUNDTRIP
360
653
  0
DICTIONARY
  5
656
330
3C4
100
AcDbDictionary
280
     1
281
     1
  3
ACAD_XREC_ROUNDTRIP
360
657
  0
DICTIONARY
  5
660
330
3CA
100
AcDbDictionary
280
     1
281
     1
  3
ACAD_XREC_ROUNDTRIP
360
661
  0
DICTIONARY
  5
664
330
3CC
100
AcDbDictionary
280
     1
281
     1
  3
ACAD_XREC_ROUNDTRIP
360
665
  0
DICTIONARY
  5
662
330
3CB
100
AcDbDictionary
280
     1
281
     1
  3
ACAD_XREC_ROUNDTRIP
360
663
  0
DICTIONARY
  5
666
330
3CD
100
AcDbDictionary
280
     1
281
     1
  3
ACAD_XREC_ROUNDTRIP
360
667
  0
DICTIONARY
  5
66E
330
3D1
100
AcDbDictionary
280
     1
281
     1
  3
ACAD_XREC_ROUNDTRIP
360
66F
  0
DICTIONARY
  5
676
330
3D5
100
AcDbDictionary
280
     1
281
     1
  3
ACAD_XREC_ROUNDTRIP
360
677
  0
DICTIONARY
  5
66A
330
3CF
100
AcDbDictionary
280
     1
281
     1
  3
ACAD_XREC_ROUNDTRIP
360
66B
  0
DICTIONARY
  5
66C
330
3D0
100
AcDbDictionary
280
     1
281
     1
  3
ACAD_XREC_ROUNDTRIP
360
66D
  0
DICTIONARY
  5
674
330
3D4
100
AcDbDictionary
280
     1
281
     1
  3
ACAD_XREC_ROUNDTRIP
360
675
  0
DICTIONARY
  5
658
330
3C6
100
AcDbDictionary
280
     1
281
     1
  3
ACAD_XREC_ROUNDTRIP
360
659
  0
DICTIONARY
  5
65A
330
3C7
100
AcDbDictionary
280
     1
281
     1
  3
ACAD_XREC_ROUNDTRIP
360
65B
  0
DICTIONARY
  5
65C
330
3C8
100
AcDbDictionary
280
     1
281
     1
  3
ACAD_XREC_ROUNDTRIP
360
65D
  0
DICTIONARY
  5
65E
330
3C9
100
AcDbDictionary
280
     1
281
     1
  3
ACAD_XREC_ROUNDTRIP
360
65F
  0
DICTIONARY
  5
672
330
3D3
100
AcDbDictionary
280
     1
281
     1
  3
ACAD_XREC_ROUNDTRIP
360
673
  0
DICTIONARY
  5
668
330
3CE
100
AcDbDictionary
280
     1
281
     1
  3
ACAD_XREC_ROUNDTRIP
360
669
  0
DICTIONARY
  5
670
330
3D2
100
AcDbDictionary
280
     1
281
     1
  3
ACAD_XREC_ROUNDTRIP
360
671
  0
XRECORD
  5
655
102
{ACAD_REACTORS
330
654
102
}
330
654
100
AcDbXrecord
280
     1
102
MATERIAL
148
0.0
149
0.0
149
0.0
 93
        0
 94
      127
282
     0
 72
     1
 77
     1
171
     1
175
     1
179
     1
273
     0
  0
XRECORD
  5
653
102
{ACAD_REACTORS
330
652
102
}
330
652
100
AcDbXrecord
280
     1
102
MATERIAL
148
0.0
149
0.0
149
0.0
 93
        0
 94
      127
282
     0
 72
     1
 77
     1
171
     1
175
     1
179
     1
273
     0
  0
XRECORD
  5
657
102
{ACAD_REACTORS
330
656
102
}
330
656
100
AcDbXrecord
280
     1
102
MATERIAL
148
0.0
149
0.0
149
0.0
 93
        0
 94
      127
282
     0
 72
     1
 77
     1
171
     1
175
     1
179
     1
273
     0
  0
XRECORD
  5
661
102
{ACAD_REACTORS
330
660
102
}
330
660
100
AcDbXrecord
280
     1
102
RTVSPropertyOp0
 70
     1
102
RTVSPropertyOp1
 70
     1
102
RTVSPropertyOp2
 70
     1
102
RTVSPropertyOp3
 70
     1
102
RTVSPropertyOp4
 70
     1
102
RTVSPropertyOp5
 70
     1
102
RTVSPropertyOp6
 70
     1
102
RTVSPropertyOp7
 70
     1
102
RTVSPropertyOp8
 70
     1
102
RTVSPropertyOp9
 70
     1
102
RTVSPropertyOp10
 70
     1
102
RTVSPropertyOp11
 70
     1
102
RTVSPropertyOp12
 70
     1
102
RTVSPropertyOp13
 70
     1
102
RTVSPropertyOp14
 70
     1
102
RTVSPropertyOp15
 70
     1
102
RTVSPropertyOp16
 70
     1
102
RTVSPropertyOp17
 70
     1
102
RTVSPropertyOp18
 70
     1
102
RTVSPropertyOp19
 70
     1
102
RTVSPropertyOp20
 70
     1
102
RTVSPropertyOp21
 70
     1
102
RTVSPropertyOp22
 70
     1
102
RTVSPropertyOp23
 70
     1
102
RTVSPropertyOp24
 70
     1
102
RTVSPropertyOp25
 70
     1
102
RTVSPropertyOp26
 70
     1
102
RTVSPropertyOp27
 70
     1
102
RTVSPropertyOp28
 70
     1
102
RTVSPropertyOp29
 70
     1
102
RTVSPropertyOp30
 70
     1
102
RTVSPropertyOp31
 70
     1
102
RTVSPropertyOp32
 70
     1
  0
XRECORD
  5
665
102
{ACAD_REACTORS
330
664
102
}
330
664
100
AcDbXrecord
280
     1
102
RTVSPropertyOp0
 70
     1
102
RTVSPropertyOp1
 70
     1
102
RTVSPropertyOp2
 70
     1
102
RTVSPropertyOp3
 70
     1
102
RTVSPropertyOp4
 70
     1
102
RTVSPropertyOp5
 70
     1
102
RTVSPropertyOp6
 70
     1
102
RTVSPropertyOp7
 70
     1
102
RTVSPropertyOp8
 70
     1
102
RTVSPropertyOp9
 70
     1
102
RTVSPropertyOp10
 70
     1
102
RTVSPropertyOp11
 70
     1
102
RTVSPropertyOp12
 70
     1
102
RTVSPropertyOp13
 70
     1
102
RTVSPropertyOp14
 70
     1
102
RTVSPropertyOp15
 70
     1
102
RTVSPropertyOp16
 70
     1
102
RTVSPropertyOp17
 70
     1
102
RTVSPropertyOp18
 70
     1
102
RTVSPropertyOp19
 70
     1
102
RTVSPropertyOp20
 70
     1
102
RTVSPropertyOp21
 70
     1
102
RTVSPropertyOp22
 70
     1
102
RTVSPropertyOp23
 70
     1
102
RTVSPropertyOp24
 70
     1
102
RTVSPropertyOp25
 70
     1
102
RTVSPropertyOp26
 70
     1
102
RTVSPropertyOp27
 70
     1
102
RTVSPropertyOp28
 70
     1
102
RTVSPropertyOp29
 70
     1
102
RTVSPropertyOp30
 70
     1
102
RTVSPropertyOp31
 70
     1
102
RTVSPropertyOp32
 70
     1
  0
XRECORD
  5
663
102
{ACAD_REACTORS
330
662
102
}
330
662
100
AcDbXrecord
280
     1
102
RTVSPropertyOp0
 70
     1
102
RTVSPropertyOp1
 70
     1
102
RTVSPropertyOp2
 70
     1
102
RTVSPropertyOp3
 70
     1
102
RTVSPropertyOp4
 70
     1
102
RTVSPropertyOp5
 70
     1
102
RTVSPropertyOp6
 70
     1
102
RTVSPropertyOp7
 70
     1
102
RTVSPropertyOp8
 70
     1
102
RTVSPropertyOp9
 70
     1
102
RTVSPropertyOp10
 70
     1
102
RTVSPropertyOp11
 70
     1
102
RTVSPropertyOp12
 70
     1
102
RTVSPropertyOp13
 70
     1
102
RTVSPropertyOp14
 70
     1
102
RTVSPropertyOp15
 70
     1
102
RTVSPropertyOp16
 70
     1
102
RTVSPropertyOp17
 70
     1
102
RTVSPropertyOp18
 70
     1
102
RTVSPropertyOp19
 70
     1
102
RTVSPropertyOp20
 70
     1
102
RTVSPropertyOp21
 70
     1
102
RTVSPropertyOp22
 70
     1
102
RTVSPropertyOp23
 70
     1
102
RTVSPropertyOp24
 70
     1
102
RTVSPropertyOp25
 70
     1
102
RTVSPropertyOp26
 70
     1
102
RTVSPropertyOp27
 70
     1
102
RTVSPropertyOp28
 70
     1
102
RTVSPropertyOp29
 70
     1
102
RTVSPropertyOp30
 70
     1
102
RTVSPropertyOp31
 70
     1
102
RTVSPropertyOp32
 70
     1
  0
XRECORD
  5
667
102
{ACAD_REACTORS
330
666
102
}
330
666
100
AcDbXrecord
280
     1
102
RTVSPropertyOp0
 70
     1
102
RTVSPropertyOp1
 70
     1
102
RTVSPropertyOp2
 70
     1
102
RTVSPropertyOp3
 70
     1
102
RTVSPropertyOp4
 70
     1
102
RTVSPropertyOp5
 70
     1
102
RTVSPropertyOp6
 70
     1
102
RTVSPropertyOp7
 70
     1
102
RTVSPropertyOp8
 70
     1
102
RTVSPropertyOp9
 70
     1
102
RTVSPropertyOp10
 70
     1
102
RTVSPropertyOp11
 70
     1
102
RTVSPropertyOp12
 70
     1
102
RTVSPropertyOp13
 70
     1
102
RTVSPropertyOp14
 70
     1
102
RTVSPropertyOp15
 70
     1
102
RTVSPropertyOp16
 70
     1
102
RTVSPropertyOp17
 70
     1
102
RTVSPropertyOp18
 70
     1
102
RTVSPropertyOp19
 70
     1
102
RTVSPropertyOp20
 70
     1
102
RTVSPropertyOp21
 70
     1
102
RTVSPropertyOp22
 70
     1
102
RTVSPropertyOp23
 70
     1
102
RTVSPropertyOp24
 70
     1
102
RTVSPropertyOp25
 70
     1
102
RTVSPropertyOp26
 70
     1
102
RTVSPropertyOp27
 70
     1
102
RTVSPropertyOp28
 70
     1
102
RTVSPropertyOp29
 70
     1
102
RTVSPropertyOp30
 70
     1
102
RTVSPropertyOp31
 70
     1
102
RTVSPropertyOp32
 70
     1
  0
XRECORD
  5
66F
102
{ACAD_REACTORS
330
66E
102
}
330
66E
100
AcDbXrecord
280
     1
102
RTVSPropertyOp0
 70
     1
102
RTVSPropertyOp1
 70
     1
102
RTVSPropertyOp2
 70
     1
102
RTVSPropertyOp3
 70
     1
102
RTVSPropertyOp4
 70
     1
102
RTVSPropertyOp5
 70
     1
102
RTVSPropertyOp6
 70
     1
102
RTVSPropertyOp7
 70
     1
102
RTVSPropertyOp8
 70
     1
102
RTVSPropertyOp9
 70
     1
102
RTVSPropertyOp10
 70
     1
102
RTVSPropertyOp11
 70
     1
102
RTVSPropertyOp12
 70
     1
102
RTVSPropertyOp13
 70
     1
102
RTVSPropertyOp14
 70
     1
102
RTVSPropertyOp15
 70
     1
102
RTVSPropertyOp16
 70
     1
102
RTVSPropertyOp17
 70
     1
102
RTVSPropertyOp18
 70
     1
102
RTVSPropertyOp19
 70
     1
102
RTVSPropertyOp20
 70
     1
102
RTVSPropertyOp21
 70
     1
102
RTVSPropertyOp22
 70
     1
102
RTVSPropertyOp23
 70
     1
102
RTVSPropertyOp24
 70
     1
102
RTVSPropertyOp25
 70
     1
102
RTVSPropertyOp26
 70
     1
102
RTVSPropertyOp27
 70
     1
102
RTVSPropertyOp28
 70
     1
102
RTVSPropertyOp29
 70
     1
102
RTVSPropertyOp30
 70
     1
102
RTVSPropertyOp31
 70
     1
102
RTVSPropertyOp32
 70
     1
  0
XRECORD
  5
677
102
{ACAD_REACTORS
330
676
102
}
330
676
100
AcDbXrecord
280
     1
102
RTVSPropertyOp0
 70
     1
102
RTVSPropertyOp1
 70
     1
102
RTVSPropertyOp2
 70
     1
102
RTVSPropertyOp3
 70
     1
102
RTVSPropertyOp4
 70
     1
102
RTVSPropertyOp5
 70
     1
102
RTVSPropertyOp6
 70
     1
102
RTVSPropertyOp7
 70
     1
102
RTVSPropertyOp8
 70
     1
102
RTVSPropertyOp9
 70
     1
102
RTVSPropertyOp10
 70
     1
102
RTVSPropertyOp11
 70
     1
102
RTVSPropertyOp12
 70
     1
102
RTVSPropertyOp13
 70
     1
102
RTVSPropertyOp14
 70
     1
102
RTVSPropertyOp15
 70
     1
102
RTVSPropertyOp16
 70
     1
102
RTVSPropertyOp17
 70
     1
102
RTVSPropertyOp18
 70
     1
102
RTVSPropertyOp19
 70
     1
102
RTVSPropertyOp20
 70
     1
102
RTVSPropertyOp21
 70
     1
102
RTVSPropertyOp22
 70
     1
102
RTVSPropertyOp23
 70
     1
102
RTVSPropertyOp24
 70
     1
102
RTVSPropertyOp25
 70
     1
102
RTVSPropertyOp26
 70
     1
102
RTVSPropertyOp27
 70
     1
102
RTVSPropertyOp28
 70
     1
102
RTVSPropertyOp29
 70
     1
102
RTVSPropertyOp30
 70
     1
102
RTVSPropertyOp31
 70
     1
102
RTVSPropertyOp32
 70
     1
  0
XRECORD
  5
66B
102
{ACAD_REACTORS
330
66A
102
}
330
66A
100
AcDbXrecord
280
     1
102
RTVSPropertyOp0
 70
     1
102
RTVSPropertyOp1
 70
     1
102
RTVSPropertyOp2
 70
     1
102
RTVSPropertyOp3
 70
     1
102
RTVSPropertyOp4
 70
     1
102
RTVSPropertyOp5
 70
     1
102
RTVSPropertyOp6
 70
     1
102
RTVSPropertyOp7
 70
     1
102
RTVSPropertyOp8
 70
     1
102
RTVSPropertyOp9
 70
     1
102
RTVSPropertyOp10
 70
     1
102
RTVSPropertyOp11
 70
     1
102
RTVSPropertyOp12
 70
     1
102
RTVSPropertyOp13
 70
     1
102
RTVSPropertyOp14
 70
     1
102
RTVSPropertyOp15
 70
     1
102
RTVSPropertyOp16
 70
     1
102
RTVSPropertyOp17
 70
     1
102
RTVSPropertyOp18
 70
     1
102
RTVSPropertyOp19
 70
     1
102
RTVSPropertyOp20
 70
     1
102
RTVSPropertyOp21
 70
     1
102
RTVSPropertyOp22
 70
     1
102
RTVSPropertyOp23
 70
     1
102
RTVSPropertyOp24
 70
     1
102
RTVSPropertyOp25
 70
     1
102
RTVSPropertyOp26
 70
     1
102
RTVSPropertyOp27
 70
     1
102
RTVSPropertyOp28
 70
     1
102
RTVSPropertyOp29
 70
     1
102
RTVSPropertyOp30
 70
     1
102
RTVSPropertyOp31
 70
     1
102
RTVSPropertyOp32
 70
     1
  0
XRECORD
  5
66D
102
{ACAD_REACTORS
330
66C
102
}
330
66C
100
AcDbXrecord
280
     1
102
RTVSPropertyOp0
 70
     1
102
RTVSPropertyOp1
 70
     1
102
RTVSPropertyOp2
 70
     1
102
RTVSPropertyOp3
 70
     1
102
RTVSPropertyOp4
 70
     1
102
RTVSPropertyOp5
 70
     1
102
RTVSPropertyOp6
 70
     1
102
RTVSPropertyOp7
 70
     1
102
RTVSPropertyOp8
 70
     1
102
RTVSPropertyOp9
 70
     1
102
RTVSPropertyOp10
 70
     1
102
RTVSPropertyOp11
 70
     1
102
RTVSPropertyOp12
 70
     1
102
RTVSPropertyOp13
 70
     1
102
RTVSPropertyOp14
 70
     1
102
RTVSPropertyOp15
 70
     1
102
RTVSPropertyOp16
 70
     1
102
RTVSPropertyOp17
 70
     1
102
RTVSPropertyOp18
 70
     1
102
RTVSPropertyOp19
 70
     1
102
RTVSPropertyOp20
 70
     1
102
RTVSPropertyOp21
 70
     1
102
RTVSPropertyOp22
 70
     1
102
RTVSPropertyOp23
 70
     1
102
RTVSPropertyOp24
 70
     1
102
RTVSPropertyOp25
 70
     1
102
RTVSPropertyOp26
 70
     1
102
RTVSPropertyOp27
 70
     1
102
RTVSPropertyOp28
 70
     1
102
RTVSPropertyOp29
 70
     1
102
RTVSPropertyOp30
 70
     1
102
RTVSPropertyOp31
 70
     1
102
RTVSPropertyOp32
 70
     1
  0
XRECORD
  5
675
102
{ACAD_REACTORS
330
674
102
}
330
674
100
AcDbXrecord
280
     1
102
RTVSPropertyOp0
 70
     1
102
RTVSPropertyOp1
 70
     1
102
RTVSPropertyOp2
 70
     1
102
RTVSPropertyOp3
 70
     1
102
RTVSPropertyOp4
 70
     1
102
RTVSPropertyOp5
 70
     1
102
RTVSPropertyOp6
 70
     1
102
RTVSPropertyOp7
 70
     1
102
RTVSPropertyOp8
 70
     1
102
RTVSPropertyOp9
 70
     1
102
RTVSPropertyOp10
 70
     1
102
RTVSPropertyOp11
 70
     1
102
RTVSPropertyOp12
 70
     1
102
RTVSPropertyOp13
 70
     1
102
RTVSPropertyOp14
 70
     1
102
RTVSPropertyOp15
 70
     1
102
RTVSPropertyOp16
 70
     1
102
RTVSPropertyOp17
 70
     1
102
RTVSPropertyOp18
 70
     1
102
RTVSPropertyOp19
 70
     1
102
RTVSPropertyOp20
 70
     1
102
RTVSPropertyOp21
 70
     1
102
RTVSPropertyOp22
 70
     1
102
RTVSPropertyOp23
 70
     1
102
RTVSPropertyOp24
 70
     1
102
RTVSPropertyOp25
 70
     1
102
RTVSPropertyOp26
 70
     1
102
RTVSPropertyOp27
 70
     1
102
RTVSPropertyOp28
 70
     1
102
RTVSPropertyOp29
 70
     1
102
RTVSPropertyOp30
 70
     1
102
RTVSPropertyOp31
 70
     1
102
RTVSPropertyOp32
 70
     1
  0
XRECORD
  5
659
102
{ACAD_REACTORS
330
658
102
}
330
658
100
AcDbXrecord
280
     1
102
RTVSPropertyOp0
 70
     1
102
RTVSPropertyOp1
 70
     1
102
RTVSPropertyOp2
 70
     1
102
RTVSPropertyOp3
 70
     1
102
RTVSPropertyOp4
 70
     1
102
RTVSPropertyOp5
 70
     1
102
RTVSPropertyOp6
 70
     1
102
RTVSPropertyOp7
 70
     1
102
RTVSPropertyOp8
 70
     1
102
RTVSPropertyOp9
 70
     1
102
RTVSPropertyOp10
 70
     1
102
RTVSPropertyOp11
 70
     1
102
RTVSPropertyOp12
 70
     1
102
RTVSPropertyOp13
 70
     1
102
RTVSPropertyOp14
 70
     1
102
RTVSPropertyOp15
 70
     1
102
RTVSPropertyOp16
 70
     1
102
RTVSPropertyOp17
 70
     1
102
RTVSPropertyOp18
 70
     1
102
RTVSPropertyOp19
 70
     1
102
RTVSPropertyOp20
 70
     1
102
RTVSPropertyOp21
 70
     1
102
RTVSPropertyOp22
 70
     1
102
RTVSPropertyOp23
 70
     1
102
RTVSPropertyOp24
 70
     1
102
RTVSPropertyOp25
 70
     1
102
RTVSPropertyOp26
 70
     1
102
RTVSPropertyOp27
 70
     1
102
RTVSPropertyOp28
 70
     1
102
RTVSPropertyOp29
 70
     1
102
RTVSPropertyOp30
 70
     1
102
RTVSPropertyOp31
 70
     1
102
RTVSPropertyOp32
 70
     1
  0
XRECORD
  5
65B
102
{ACAD_REACTORS
330
65A
102
}
330
65A
100
AcDbXrecord
280
     1
102
RTVSPropertyOp0
 70
     1
102
RTVSPropertyOp1
 70
     1
102
RTVSPropertyOp2
 70
     1
102
RTVSPropertyOp3
 70
     1
102
RTVSPropertyOp4
 70
     1
102
RTVSPropertyOp5
 70
     1
102
RTVSPropertyOp6
 70
     1
102
RTVSPropertyOp7
 70
     1
102
RTVSPropertyOp8
 70
     1
102
RTVSPropertyOp9
 70
     1
102
RTVSPropertyOp10
 70
     1
102
RTVSPropertyOp11
 70
     1
102
RTVSPropertyOp12
 70
     1
102
RTVSPropertyOp13
 70
     1
102
RTVSPropertyOp14
 70
     1
102
RTVSPropertyOp15
 70
     1
102
RTVSPropertyOp16
 70
     1
102
RTVSPropertyOp17
 70
     1
102
RTVSPropertyOp18
 70
     1
102
RTVSPropertyOp19
 70
     1
102
RTVSPropertyOp20
 70
     1
102
RTVSPropertyOp21
 70
     1
102
RTVSPropertyOp22
 70
     1
102
RTVSPropertyOp23
 70
     1
102
RTVSPropertyOp24
 70
     1
102
RTVSPropertyOp25
 70
     1
102
RTVSPropertyOp26
 70
     1
102
RTVSPropertyOp27
 70
     1
102
RTVSPropertyOp28
 70
     1
102
RTVSPropertyOp29
 70
     1
102
RTVSPropertyOp30
 70
     1
102
RTVSPropertyOp31
 70
     1
102
RTVSPropertyOp32
 70
     1
  0
XRECORD
  5
65D
102
{ACAD_REACTORS
330
65C
102
}
330
65C
100
AcDbXrecord
280
     1
102
RTVSPropertyOp0
 70
     1
102
RTVSPropertyOp1
 70
     1
102
RTVSPropertyOp2
 70
     1
102
RTVSPropertyOp3
 70
     1
102
RTVSPropertyOp4
 70
     1
102
RTVSPropertyOp5
 70
     1
102
RTVSPropertyOp6
 70
     1
102
RTVSPropertyOp7
 70
     1
102
RTVSPropertyOp8
 70
     1
102
RTVSPropertyOp9
 70
     1
102
RTVSPropertyOp10
 70
     1
102
RTVSPropertyOp11
 70
     1
102
RTVSPropertyOp12
 70
     1
102
RTVSPropertyOp13
 70
     1
102
RTVSPropertyOp14
 70
     1
102
RTVSPropertyOp15
 70
     1
102
RTVSPropertyOp16
 70
     1
102
RTVSPropertyOp17
 70
     1
102
RTVSPropertyOp18
 70
     1
102
RTVSPropertyOp19
 70
     1
102
RTVSPropertyOp20
 70
     1
102
RTVSPropertyOp21
 70
     1
102
RTVSPropertyOp22
 70
     1
102
RTVSPropertyOp23
 70
     1
102
RTVSPropertyOp24
 70
     1
102
RTVSPropertyOp25
 70
     1
102
RTVSPropertyOp26
 70
     1
102
RTVSPropertyOp27
 70
     1
102
RTVSPropertyOp28
 70
     1
102
RTVSPropertyOp29
 70
     1
102
RTVSPropertyOp30
 70
     1
102
RTVSPropertyOp31
 70
     1
102
RTVSPropertyOp32
 70
     1
  0
XRECORD
  5
65F
102
{ACAD_REACTORS
330
65E
102
}
330
65E
100
AcDbXrecord
280
     1
102
RTVSPropertyOp0
 70
     1
102
RTVSPropertyOp1
 70
     1
102
RTVSPropertyOp2
 70
     1
102
RTVSPropertyOp3
 70
     1
102
RTVSPropertyOp4
 70
     1
102
RTVSPropertyOp5
 70
     1
102
RTVSPropertyOp6
 70
     1
102
RTVSPropertyOp7
 70
     1
102
RTVSPropertyOp8
 70
     1
102
RTVSPropertyOp9
 70
     1
102
RTVSPropertyOp10
 70
     1
102
RTVSPropertyOp11
 70
     1
102
RTVSPropertyOp12
 70
     1
102
RTVSPropertyOp13
 70
     1
102
RTVSPropertyOp14
 70
     1
102
RTVSPropertyOp15
 70
     1
102
RTVSPropertyOp16
 70
     1
102
RTVSPropertyOp17
 70
     1
102
RTVSPropertyOp18
 70
     1
102
RTVSPropertyOp19
 70
     1
102
RTVSPropertyOp20
 70
     1
102
RTVSPropertyOp21
 70
     1
102
RTVSPropertyOp22
 70
     1
102
RTVSPropertyOp23
 70
     1
102
RTVSPropertyOp24
 70
     1
102
RTVSPropertyOp25
 70
     1
102
RTVSPropertyOp26
 70
     1
102
RTVSPropertyOp27
 70
     1
102
RTVSPropertyOp28
 70
     1
102
RTVSPropertyOp29
 70
     1
102
RTVSPropertyOp30
 70
     1
102
RTVSPropertyOp31
 70
     1
102
RTVSPropertyOp32
 70
     1
  0
XRECORD
  5
673
102
{ACAD_REACTORS
330
672
102
}
330
672
100
AcDbXrecord
280
     1
102
RTVSPropertyOp0
 70
     1
102
RTVSPropertyOp1
 70
     1
102
RTVSPropertyOp2
 70
     1
102
RTVSPropertyOp3
 70
     1
102
RTVSPropertyOp4
 70
     1
102
RTVSPropertyOp5
 70
     1
102
RTVSPropertyOp6
 70
     1
102
RTVSPropertyOp7
 70
     1
102
RTVSPropertyOp8
 70
     1
102
RTVSPropertyOp9
 70
     1
102
RTVSPropertyOp10
 70
     1
102
RTVSPropertyOp11
 70
     1
102
RTVSPropertyOp12
 70
     1
102
RTVSPropertyOp13
 70
     1
102
RTVSPropertyOp14
 70
     1
102
RTVSPropertyOp15
 70
     1
102
RTVSPropertyOp16
 70
     1
102
RTVSPropertyOp17
 70
     1
102
RTVSPropertyOp18
 70
     1
102
RTVSPropertyOp19
 70
     1
102
RTVSPropertyOp20
 70
     1
102
RTVSPropertyOp21
 70
     1
102
RTVSPropertyOp22
 70
     1
102
RTVSPropertyOp23
 70
     1
102
RTVSPropertyOp24
 70
     1
102
RTVSPropertyOp25
 70
     1
102
RTVSPropertyOp26
 70
     1
102
RTVSPropertyOp27
 70
     1
102
RTVSPropertyOp28
 70
     1
102
RTVSPropertyOp29
 70
     1
102
RTVSPropertyOp30
 70
     1
102
RTVSPropertyOp31
 70
     1
102
RTVSPropertyOp32
 70
     1
  0
XRECORD
  5
669
102
{ACAD_REACTORS
330
668
102
}
330
668
100
AcDbXrecord
280
     1
102
RTVSPropertyOp0
 70
     1
102
RTVSPropertyOp1
 70
     1
102
RTVSPropertyOp2
 70
     1
102
RTVSPropertyOp3
 70
     1
102
RTVSPropertyOp4
 70
     1
102
RTVSPropertyOp5
 70
     1
102
RTVSPropertyOp6
 70
     1
102
RTVSPropertyOp7
 70
     1
102
RTVSPropertyOp8
 70
     1
102
RTVSPropertyOp9
 70
     1
102
RTVSPropertyOp10
 70
     1
102
RTVSPropertyOp11
 70
     1
102
RTVSPropertyOp12
 70
     1
102
RTVSPropertyOp13
 70
     1
102
RTVSPropertyOp14
 70
     1
102
RTVSPropertyOp15
 70
     1
102
RTVSPropertyOp16
 70
     1
102
RTVSPropertyOp17
 70
     1
102
RTVSPropertyOp18
 70
     1
102
RTVSPropertyOp19
 70
     1
102
RTVSPropertyOp20
 70
     1
102
RTVSPropertyOp21
 70
     1
102
RTVSPropertyOp22
 70
     1
102
RTVSPropertyOp23
 70
     1
102
RTVSPropertyOp24
 70
     1
102
RTVSPropertyOp25
 70
     1
102
RTVSPropertyOp26
 70
     1
102
RTVSPropertyOp27
 70
     1
102
RTVSPropertyOp28
 70
     1
102
RTVSPropertyOp29
 70
     1
102
RTVSPropertyOp30
 70
     1
102
RTVSPropertyOp31
 70
     1
102
RTVSPropertyOp32
 70
     1
  0
XRECORD
  5
671
102
{ACAD_REACTORS
330
670
102
}
330
670
100
AcDbXrecord
280
     1
102
RTVSPropertyOp0
 70
     1
102
RTVSPropertyOp1
 70
     1
102
RTVSPropertyOp2
 70
     1
102
RTVSPropertyOp3
 70
     1
102
RTVSPropertyOp4
 70
     1
102
RTVSPropertyOp5
 70
     1
102
RTVSPropertyOp6
 70
     1
102
RTVSPropertyOp7
 70
     1
102
RTVSPropertyOp8
 70
     1
102
RTVSPropertyOp9
 70
     1
102
RTVSPropertyOp10
 70
     1
102
RTVSPropertyOp11
 70
     1
102
RTVSPropertyOp12
 70
     1
102
RTVSPropertyOp13
 70
     1
102
RTVSPropertyOp14
 70
     1
102
RTVSPropertyOp15
 70
     1
102
RTVSPropertyOp16
 70
     1
102
RTVSPropertyOp17
 70
     1
102
RTVSPropertyOp18
 70
     1
102
RTVSPropertyOp19
 70
     1
102
RTVSPropertyOp20
 70
     1
102
RTVSPropertyOp21
 70
     1
102
RTVSPropertyOp22
 70
     1
102
RTVSPropertyOp23
 70
     1
102
RTVSPropertyOp24
 70
     1
102
RTVSPropertyOp25
 70
     1
102
RTVSPropertyOp26
 70
     1
102
RTVSPropertyOp27
 70
     1
102
RTVSPropertyOp28
 70
     1
102
RTVSPropertyOp29
 70
     1
102
RTVSPropertyOp30
 70
     1
102
RTVSPropertyOp31
 70
     1
102
RTVSPropertyOp32
 70
     1
  0
ENDSEC
  0
EOF
