  0
SECTION
  2
HEADER
  9
$ACADVER
  1
AC1015
  9
$ACADMAINTVER
 70
     6
  9
$DWGCODEPAGE
  3
ANSI_1252
  9
$INSBASE
 10
0.0
 20
0.0
 30
0.0
  9
$EXTMIN
 10
1.000000000000000E+20
 20
1.000000000000000E+20
 30
1.000000000000000E+20
  9
$EXTMAX
 10
-1.000000000000000E+20
 20
-1.000000000000000E+20
 30
-1.000000000000000E+20
  9
$LIMMIN
 10
-170.0
 20
-170.0
  9
$LIMMAX
 10
519.0
 20
260.0
  9
$ORTHOMODE
 70
     0
  9
$REGENMODE
 70
     1
  9
$FILLMODE
 70
     1
  9
$QTEXTMODE
 70
     0
  9
$MIRRTEXT
 70
     0
  9
$LTSCALE
 40
1.0
  9
$ATTMODE
 70
     1
  9
$TEXTSIZE
 40
3.5
  9
$TRACEWID
 40
1.0
  9
$TEXTSTYLE
  7
SIMPLEX
  9
$CLAYER
  8
1
  9
$CELTYPE
  6
BYLAYER
  9
$CECOLOR
 62
   256
  9
$CELTSCALE
 40
1.0
  9
$DISPSILH
 70
     0
  9
$DIMSCALE
 40
1.0
  9
$DIMASZ
 40
2.5
  9
$DIMEXO
 40
0.0
  9
$DIMDLI
 40
3.75
  9
$DIMRND
 40
0.0
  9
$DIMDLE
 40
0.0
  9
$DIMEXE
 40
1.25
  9
$DIMTP
 40
0.0
  9
$DIMTM
 40
0.0
  9
$DIMTXT
 40
3.5
  9
$DIMCEN
 40
0.0
  9
$DIMTSZ
 40
0.0
  9
$DIMTOL
 70
     0
  9
$DIMLIM
 70
     0
  9
$DIMTIH
 70
     0
  9
$DIMTOH
 70
     0
  9
$DIMSE1
 70
     0
  9
$DIMSE2
 70
     0
  9
$DIMTAD
 70
     1
  9
$DIMZIN
 70
     8
  9
$DIMBLK
  1

  9
$DIMASO
 70
     1
  9
$DIMSHO
 70
     1
  9
$DIMPOST
  1

  9
$DIMAPOST
  1

  9
$DIMALT
 70
     0
  9
$DIMALTD
 70
     3
  9
$DIMALTF
 40
0.039370078
  9
$DIMLFAC
 40
1.0
  9
$DIMTOFL
 70
     0
  9
$DIMTVP
 40
0.0
  9
$DIMTIX
 70
     0
  9
$DIMSOXD
 70
     0
  9
$DIMSAH
 70
     0
  9
$DIMBLK1
  1

  9
$DIMBLK2
  1

  9
$DIMSTYLE
  2
STANDARD
  9
$DIMCLRD
 70
     0
  9
$DIMCLRE
 70
     0
  9
$DIMCLRT
 70
     0
  9
$DIMTFAC
 40
1.0
  9
$DIMGAP
 40
0.625
  9
$DIMJUST
 70
     0
  9
$DIMSD1
 70
     0
  9
$DIMSD2
 70
     0
  9
$DIMTOLJ
 70
     0
  9
$DIMTZIN
 70
     8
  9
$DIMALTZ
 70
     0
  9
$DIMALTTZ
 70
     0
  9
$DIMUPT
 70
     0
  9
$DIMDEC
 70
     2
  9
$DIMTDEC
 70
     2
  9
$DIMALTU
 70
     2
  9
$DIMALTTD
 70
     3
  9
$DIMTXSTY
  7
SIMPLEX
  9
$DIMAUNIT
 70
     0
  9
$DIMADEC
 70
     2
  9
$DIMALTRND
 40
0.0
  9
$DIMAZIN
 70
     2
  9
$DIMDSEP
 70
    46
  9
$DIMATFIT
 70
     3
  9
$DIMFRAC
 70
     0
  9
$DIMLDRBLK
  1

  9
$DIMLUNIT
 70
     2
  9
$DIMLWD
 70
    -2
  9
$DIMLWE
 70
    -2
  9
$DIMTMOVE
 70
     0
  9
$LUNITS
 70
     2
  9
$LUPREC
 70
     4
  9
$SKETCHINC
 40
1.0
  9
$FILLETRAD
 40
0.0
  9
$AUNITS
 70
     0
  9
$AUPREC
 70
     0
  9
$MENU
  1
c:\tdm21\cad\caduti13\tdm13
  9
$ELEVATION
 40
0.0
  9
$PELEVATION
 40
0.0
  9
$THICKNESS
 40
0.0
  9
$LIMCHECK
 70
     0
  9
$CHAMFERA
 40
0.0
  9
$CHAMFERB
 40
0.0
  9
$CHAMFERC
 40
0.0
  9
$CHAMFERD
 40
0.0
  9
$SKPOLY
 70
     0
  9
$TDCREATE
 40
2454957.593642639
  9
$TDUCREATE
 40
2454957.510309306
  9
$TDUPDATE
 40
2456860.746057465
  9
$TDUUPDATE
 40
2456860.662724132
  9
$TDINDWG
 40
0.0009643519
  9
$TDUSRTIMER
 40
0.0009475231
  9
$USRTIMER
 70
     1
  9
$ANGBASE
 50
0.0
  9
$ANGDIR
 70
     0
  9
$PDMODE
 70
     1
  9
$PDSIZE
 40
0.0
  9
$PLINEWID
 40
0.0
  9
$SPLFRAME
 70
     0
  9
$SPLINETYPE
 70
     6
  9
$SPLINESEGS
 70
     8
  9
$HANDSEED
  5
70B
  9
$SURFTAB1
 70
     6
  9
$SURFTAB2
 70
     6
  9
$SURFTYPE
 70
     6
  9
$SURFU
 70
     6
  9
$SURFV
 70
     6
  9
$UCSBASE
  2

  9
$UCSNAME
  2

  9
$UCSORG
 10
0.0
 20
0.0
 30
0.0
  9
$UCSXDIR
 10
1.0
 20
0.0
 30
0.0
  9
$UCSYDIR
 10
0.0
 20
1.0
 30
0.0
  9
$UCSORTHOREF
  2

  9
$UCSORTHOVIEW
 70
     0
  9
$UCSORGTOP
 10
0.0
 20
0.0
 30
0.0
  9
$UCSORGBOTTOM
 10
0.0
 20
0.0
 30
0.0
  9
$UCSORGLEFT
 10
0.0
 20
0.0
 30
0.0
  9
$UCSORGRIGHT
 10
0.0
 20
0.0
 30
0.0
  9
$UCSORGFRONT
 10
0.0
 20
0.0
 30
0.0
  9
$UCSORGBACK
 10
0.0
 20
0.0
 30
0.0
  9
$PUCSBASE
  2

  9
$PUCSNAME
  2

  9
$PUCSORG
 10
0.0
 20
0.0
 30
0.0
  9
$PUCSXDIR
 10
1.0
 20
0.0
 30
0.0
  9
$PUCSYDIR
 10
0.0
 20
1.0
 30
0.0
  9
$PUCSORTHOREF
  2

  9
$PUCSORTHOVIEW
 70
     0
  9
$PUCSORGTOP
 10
0.0
 20
0.0
 30
0.0
  9
$PUCSORGBOTTOM
 10
0.0
 20
0.0
 30
0.0
  9
$PUCSORGLEFT
 10
0.0
 20
0.0
 30
0.0
  9
$PUCSORGRIGHT
 10
0.0
 20
0.0
 30
0.0
  9
$PUCSORGFRONT
 10
0.0
 20
0.0
 30
0.0
  9
$PUCSORGBACK
 10
0.0
 20
0.0
 30
0.0
  9
$USERI1
 70
     0
  9
$USERI2
 70
     0
  9
$USERI3
 70
     0
  9
$USERI4
 70
     0
  9
$USERI5
 70
     0
  9
$USERR1
 40
0.0
  9
$USERR2
 40
0.0
  9
$USERR3
 40
0.0
  9
$USERR4
 40
0.0
  9
$USERR5
 40
0.0
  9
$WORLDVIEW
 70
     1
  9
$SHADEDGE
 70
     3
  9
$SHADEDIF
 70
    70
  9
$TILEMODE
 70
     1
  9
$MAXACTVP
 70
    64
  9
$PINSBASE
 10
0.0
 20
0.0
 30
0.0
  9
$PLIMCHECK
 70
     0
  9
$PEXTMIN
 10
0.0
 20
0.0
 30
0.0
  9
$PEXTMAX
 10
0.0
 20
0.0
 30
0.0
  9
$PLIMMIN
 10
0.0
 20
0.0
  9
$PLIMMAX
 10
12.0
 20
9.0
  9
$UNITMODE
 70
     0
  9
$VISRETAIN
 70
     0
  9
$PLINEGEN
 70
     0
  9
$PSLTSCALE
 70
     1
  9
$TREEDEPTH
 70
  3020
  9
$CMLSTYLE
  2
STANDARD
  9
$CMLJUST
 70
     0
  9
$CMLSCALE
 40
20.0
  9
$PROXYGRAPHICS
 70
     1
  9
$MEASUREMENT
 70
     1
  9
$CELWEIGHT
370
    -1
  9
$ENDCAPS
280
     0
  9
$JOINSTYLE
280
     0
  9
$LWDISPLAY
290
     0
  9
$INSUNITS
 70
     4
  9
$HYPERLINKBASE
  1

  9
$STYLESHEET
  1
MONOCHROME.CTB
  9
$XEDIT
290
     1
  9
$CEPSNTYPE
380
     0
  9
$PSTYLEMODE
290
     1
  9
$FINGERPRINTGUID
  2
{46B44192-1510-48B1-B61B-CBE2ADA013A7}
  9
$VERSIONGUID
  2
{6160D478-9A74-4C97-9D8A-D4A65CE74B12}
  9
$EXTNAMES
290
     1
  9
$PSVPSCALE
 40
0.0
  9
$OLESTARTUP
290
     0
  0
ENDSEC
  0
SECTION
  2
CLASSES
  0
CLASS
  1
ACDBDICTIONARYWDFLT
  2
AcDbDictionaryWithDefault
  3
ObjectDBX Classes
 90
        0
280
     0
281
     0
  0
CLASS
  1
ACDBPLACEHOLDER
  2
AcDbPlaceHolder
  3
ObjectDBX Classes
 90
        0
280
     0
281
     0
  0
CLASS
  1
LAYOUT
  2
AcDbLayout
  3
ObjectDBX Classes
 90
        0
280
     0
281
     0
  0
CLASS
  1
DICTIONARYVAR
  2
AcDbDictionaryVar
  3
ObjectDBX Classes
 90
        0
280
     0
281
     0
  0
CLASS
  1
TABLESTYLE
  2
AcDbTableStyle
  3
ObjectDBX Classes
 90
     4095
280
     0
281
     0
  0
CLASS
  1
SCALE
  2
AcDbScale
  3
ObjectDBX Classes
 90
     1153
280
     0
281
     0
  0
CLASS
  1
MATERIAL
  2
AcDbMaterial
  3
ObjectDBX Classes
 90
     1153
280
     0
281
     0
  0
CLASS
  1
VISUALSTYLE
  2
AcDbVisualStyle
  3
ObjectDBX Classes
 90
     4095
280
     0
281
     0
  0
ENDSEC
  0
SECTION
  2
TABLES
  0
TABLE
  2
VPORT
  5
8
330
0
100
AcDbSymbolTable
 70
     1
  0
VPORT
  5
39A
330
8
100
AcDbSymbolTableRecord
100
AcDbViewportTableRecord
  2
*Active
 70
     0
 10
0.0
 20
0.0
 11
1.0
 21
1.0
 12
218.9201881351169
 22
109.7549380673833
 13
0.0
 23
0.0
 14
5.0
 24
5.0
 15
5.0
 25
5.0
 16
0.0
 26
0.0
 36
1.0
 17
0.0
 27
0.0
 37
0.0
 40
564.6711112651689
 41
1.066073697585768
 42
50.0
 43
0.0
 44
0.0
 50
0.0
 51
0.0
 71
     0
 72
  2000
 73
     1
 74
     1
 75
     0
 76
     0
 77
     0
 78
     0
281
     0
 65
     1
110
0.0
120
0.0
130
0.0
111
1.0
121
0.0
131
0.0
112
0.0
122
1.0
132
0.0
 79
     0
146
0.0
  0
ENDTAB
  0
TABLE
  2
LTYPE
  5
5
330
0
100
AcDbSymbolTable
 70
     3
  0
LTYPE
  5
12
330
5
100
AcDbSymbolTableRecord
100
AcDbLinetypeTableRecord
  2
BYBLOCK
 70
     0
  3

 72
    65
 73
     0
 40
0.0
  0
LTYPE
  5
13
330
5
100
AcDbSymbolTableRecord
100
AcDbLinetypeTableRecord
  2
BYLAYER
 70
     0
  3

 72
    65
 73
     0
 40
0.0
  0
LTYPE
  5
14
330
5
100
AcDbSymbolTableRecord
100
AcDbLinetypeTableRecord
  2
CONTINUOUS
 70
     0
  3
Solid line
 72
    65
 73
     0
 40
0.0
  0
LTYPE
  5
20
330
5
100
AcDbSymbolTableRecord
100
AcDbLinetypeTableRecord
  2
HIDDEN
 70
     0
  3
Hidden __ __ __ __ __ __ __ __ __ __ __ __ __ _
 72
    65
 73
     2
 40
9.524999999999997
 49
6.349999999999998
 74
     0
 49
-3.174999999999998
 74
     0
  0
LTYPE
  5
351
330
5
100
AcDbSymbolTableRecord
100
AcDbLinetypeTableRecord
  2
CENTER
 70
     0
  3
Dash dot __ . __ . __ . __ . __ . __ . __ . __
 72
    65
 73
     4
 40
25.4
 49
12.7
 74
     0
 49
-6.349999999999998
 74
     0
 49
0.0
 74
     0
 49
-6.349999999999998
 74
     0
  0
ENDTAB
  0
TABLE
  2
LAYER
  5
2
330
0
100
AcDbSymbolTable
 70
    16
  0
LAYER
  5
F
330
2
100
AcDbSymbolTableRecord
100
AcDbLayerTableRecord
  2
0
 70
     0
 62
     7
  6
CONTINUOUS
370
    -3
390
300
  0
LAYER
  5
23
330
2
100
AcDbSymbolTableRecord
100
AcDbLayerTableRecord
  2
1
 70
     0
 62
     4
  6
CONTINUOUS
370
    -3
390
300
  0
LAYER
  5
24
330
2
100
AcDbSymbolTableRecord
100
AcDbLayerTableRecord
  2
SK1
 70
     0
 62
     4
  6
CONTINUOUS
370
    -3
390
300
  0
LAYER
  5
25
330
2
100
AcDbSymbolTableRecord
100
AcDbLayerTableRecord
  2
2
 70
     0
 62
     7
  6
CONTINUOUS
370
    -3
390
300
  0
LAYER
  5
26
330
2
100
AcDbSymbolTableRecord
100
AcDbLayerTableRecord
  2
2L
 70
     0
 62
     7
  6
CONTINUOUS
370
    -3
390
300
  0
LAYER
  5
27
330
2
100
AcDbSymbolTableRecord
100
AcDbLayerTableRecord
  2
SK2
 70
     0
 62
     7
  6
CONTINUOUS
370
    -3
390
300
  0
LAYER
  5
28
330
2
100
AcDbSymbolTableRecord
100
AcDbLayerTableRecord
  2
3
 70
     0
 62
     1
  6
HIDDEN
370
    -3
390
300
  0
LAYER
  5
29
330
2
100
AcDbSymbolTableRecord
100
AcDbLayerTableRecord
  2
SK3
 70
     0
 62
     1
  6
HIDDEN
370
    -3
390
300
  0
LAYER
  5
2A
330
2
100
AcDbSymbolTableRecord
100
AcDbLayerTableRecord
  2
4
 70
     0
 62
     2
  6
CENTER
370
    -3
390
300
  0
LAYER
  5
2B
330
2
100
AcDbSymbolTableRecord
100
AcDbLayerTableRecord
  2
SK4
 70
     0
 62
     2
  6
CENTER
370
    -3
390
300
  0
LAYER
  5
2C
330
2
100
AcDbSymbolTableRecord
100
AcDbLayerTableRecord
  2
5
 70
     0
 62
    -7
  6
CONTINUOUS
370
    -3
390
300
  0
LAYER
  5
2D
330
2
100
AcDbSymbolTableRecord
100
AcDbLayerTableRecord
  2
6
 70
     0
 62
     5
  6
CONTINUOUS
370
    -3
390
300
  0
LAYER
  5
2E
330
2
100
AcDbSymbolTableRecord
100
AcDbLayerTableRecord
  2
SK6
 70
     0
 62
     5
  6
CONTINUOUS
370
    -3
390
300
  0
LAYER
  5
2F
330
2
100
AcDbSymbolTableRecord
100
AcDbLayerTableRecord
  2
DEFPOINTS
 70
     0
 62
     7
  6
CONTINUOUS
290
     0
370
    -3
390
300
  0
LAYER
  5
375
330
2
100
AcDbSymbolTableRecord
100
AcDbLayerTableRecord
  2
CUT
 70
     0
 62
     1
  6
CONTINUOUS
370
    -3
390
300
  0
LAYER
  5
376
330
2
100
AcDbSymbolTableRecord
100
AcDbLayerTableRecord
  2
NOCUT
 70
     0
 62
     7
  6
CONTINUOUS
370
    -3
390
300
  0
ENDTAB
  0
TABLE
  2
STYLE
  5
3
330
0
100
AcDbSymbolTable
 70
     4
  0
STYLE
  5
10
330
3
100
AcDbSymbolTableRecord
100
AcDbTextStyleTableRecord
  2
STANDARD
 70
     0
 40
0.0
 41
1.0
 50
0.0
 71
     0
 42
5.0
  3
txt
  4

  0
STYLE
  5
1D
330
3
100
AcDbSymbolTableRecord
100
AcDbTextStyleTableRecord
  2
TXT
 70
     0
 40
8.0
 41
1.0
 50
0.0
 71
     0
 42
8.0
  3
txt
  4

  0
STYLE
  5
1E
330
3
100
AcDbSymbolTableRecord
100
AcDbTextStyleTableRecord
  2
SIMPLEX
 70
     0
 40
0.0
 41
1.0
 50
0.0
 71
     0
 42
3.5
  3
simplex
  4

  0
STYLE
  5
34C
330
3
100
AcDbSymbolTableRecord
100
AcDbTextStyleTableRecord
  2

 70
     1
 40
0.0
 41
1.0
 50
0.0
 71
     0
 42
2.5
  3
ltypeshp.shx
  4

  0
ENDTAB
  0
TABLE
  2
VIEW
  5
6
330
0
100
AcDbSymbolTable
 70
     0
  0
ENDTAB
  0
TABLE
  2
UCS
  5
7
330
0
100
AcDbSymbolTable
 70
     0
  0
ENDTAB
  0
TABLE
  2
APPID
  5
9
330
0
100
AcDbSymbolTable
 70
     1
  0
APPID
  5
11
330
9
100
AcDbSymbolTableRecord
100
AcDbRegAppTableRecord
  2
ACAD
 70
     0
  0
ENDTAB
  0
TABLE
  2
DIMSTYLE
  5
A
330
0
100
AcDbSymbolTable
 70
     1
100
AcDbDimStyleTable
  0
DIMSTYLE
105
3F
102
{ACAD_REACTORS
330
69C
330
6AA
330
6B7
330
6C5
330
6D3
102
}
330
A
100
AcDbSymbolTableRecord
100
AcDbDimStyleTableRecord
  2
STANDARD
 70
     0
 41
2.5
 42
0.0
 43
3.75
 44
1.25
 73
     0
 74
     0
 77
     1
 78
     8
 79
     2
140
3.5
141
0.0
143
0.039370078
147
0.625
171
     3
178
     0
179
     2
271
     2
272
     2
274
     3
283
     0
284
     8
340
1E
  0
ENDTAB
  0
TABLE
  2
BLOCK_RECORD
  5
1
330
0
100
AcDbSymbolTable
 70
     5
  0
BLOCK_RECORD
  5
18
330
1
100
AcDbSymbolTableRecord
100
AcDbBlockTableRecord
  2
*MODEL_SPACE
340
303
  0
BLOCK_RECORD
  5
338
330
1
100
AcDbSymbolTableRecord
100
AcDbBlockTableRecord
  2
*Paper_Space
340
33B
  0
BLOCK_RECORD
  5
69D
330
1
100
AcDbSymbolTableRecord
100
AcDbBlockTableRecord
  2
*D0
340
0
  0
BLOCK_RECORD
  5
6AB
330
1
100
AcDbSymbolTableRecord
100
AcDbBlockTableRecord
  2
*D1
340
0
  0
BLOCK_RECORD
  5
6B8
330
1
100
AcDbSymbolTableRecord
100
AcDbBlockTableRecord
  2
*D2
340
0
  0
BLOCK_RECORD
  5
6C6
330
1
100
AcDbSymbolTableRecord
100
AcDbBlockTableRecord
  2
*D3
340
0
  0
BLOCK_RECORD
  5
6D4
330
1
100
AcDbSymbolTableRecord
100
AcDbBlockTableRecord
  2
*D4
340
0
  0
ENDTAB
  0
ENDSEC
  0
SECTION
  2
BLOCKS
  0
BLOCK
  5
32
330
18
100
AcDbEntity
  8
0
100
AcDbBlockBegin
  2
*MODEL_SPACE
 70
     0
 10
0.0
 20
0.0
 30
0.0
  3
*MODEL_SPACE
  1

  0
ENDBLK
  5
33
330
18
100
AcDbEntity
  8
0
100
AcDbBlockEnd
  0
BLOCK
  5
339
330
338
100
AcDbEntity
 67
     1
  8
0
100
AcDbBlockBegin
  2
*Paper_Space
 70
     0
 10
0.0
 20
0.0
 30
0.0
  3
*Paper_Space
  1

  0
ENDBLK
  5
33A
330
338
100
AcDbEntity
 67
     1
  8
0
100
AcDbBlockEnd
  0
BLOCK
  5
69E
330
69D
100
AcDbEntity
  8
0
100
AcDbBlockBegin
  2
*D0
 70
     1
 10
0.0
 20
0.0
 30
0.0
  3
*D0
  1

  0
LINE
  5
6A0
330
69D
100
AcDbEntity
  8
2
 62
     0
370
    -2
100
AcDbLine
 10
30.0
 20
1.3
 30
0.0
 11
46.25
 21
1.300000000000057
 31
0.0
  0
LINE
  5
6A1
330
69D
100
AcDbEntity
  8
2
 62
     0
370
    -2
100
AcDbLine
 10
30.0
 20
-1.3
 30
0.0
 11
46.25000000000001
 21
-1.299999999999943
 31
0.0
  0
LINE
  5
6A2
330
69D
100
AcDbEntity
  8
2
 62
     0
370
    -2
100
AcDbLine
 10
45.00000000000001
 20
-3.799999999999947
 30
0.0
 11
45.00000000000006
 21
-18.61349999999995
 31
0.0
  0
LINE
  5
6A3
330
69D
100
AcDbEntity
  8
2
 62
     0
370
    -2
100
AcDbLine
 10
44.99999999999999
 20
3.800000000000052
 30
0.0
 11
44.99999999999999
 21
6.300000000000052
 31
0.0
  0
SOLID
  5
6A4
330
69D
100
AcDbEntity
  8
2
 62
     0
100
AcDbTrace
 10
44.58333333333333
 20
3.800000000000051
 30
0.0
 11
45.41666666666666
 21
3.800000000000054
 31
0.0
 12
45.0
 22
1.300000000000052
 32
0.0
 13
45.0
 23
1.300000000000052
 33
0.0
  0
SOLID
  5
6A5
330
69D
100
AcDbEntity
  8
2
 62
     0
100
AcDbTrace
 10
45.41666666666668
 20
-3.799999999999946
 30
0.0
 11
44.58333333333335
 21
-3.799999999999949
 31
0.0
 12
45.00000000000001
 22
-1.299999999999948
 32
0.0
 13
45.00000000000001
 23
-1.299999999999948
 33
0.0
  0
MTEXT
  5
6A6
330
69D
100
AcDbEntity
  8
2
 62
     0
100
AcDbMText
 10
42.60225000000003
 20
-12.45674999999996
 30
0.0
 40
3.5
 41
0.0
 71
     5
 72
     1
  1
M2.6
  7
SIMPLEX
 11
-2.732856676000386E-15
 21
1.0
 31
0.0
 73
     1
 44
1.0
  0
POINT
  5
6A7
330
69D
100
AcDbEntity
  8
DEFPOINTS
 62
     0
100
AcDbPoint
 10
30.0
 20
1.3
 30
0.0
  0
POINT
  5
6A8
330
69D
100
AcDbEntity
  8
DEFPOINTS
 62
     0
100
AcDbPoint
 10
30.0
 20
-1.3
 30
0.0
  0
POINT
  5
6A9
330
69D
100
AcDbEntity
  8
DEFPOINTS
 62
     0
100
AcDbPoint
 10
45.00000000000001
 20
-1.299999999999948
 30
0.0
  0
ENDBLK
  5
69F
330
69D
100
AcDbEntity
  8
0
100
AcDbBlockEnd
  0
BLOCK
  5
6AC
330
6AB
100
AcDbEntity
  8
0
100
AcDbBlockBegin
  2
*D1
 70
     1
 10
0.0
 20
0.0
 30
0.0
  3
*D1
  1

  0
LINE
  5
6AE
330
6AB
100
AcDbEntity
  8
2
 62
     0
370
    -2
100
AcDbLine
 10
0.0
 20
0.0
 30
0.0
 11
0.0
 21
76.25
 31
0.0
  0
LINE
  5
6AF
330
6AB
100
AcDbEntity
  8
2
 62
     0
370
    -2
100
AcDbLine
 10
30.0
 20
0.0
 30
0.0
 11
30.0
 21
76.25
 31
0.0
  0
LINE
  5
6B0
330
6AB
100
AcDbEntity
  8
2
 62
     0
370
    -2
100
AcDbLine
 10
2.5
 20
75.0
 30
0.0
 11
27.5
 21
75.0
 31
0.0
  0
SOLID
  5
6B1
330
6AB
100
AcDbEntity
  8
2
 62
     0
100
AcDbTrace
 10
2.5
 20
75.41666666666667
 30
0.0
 11
2.5
 21
74.58333333333333
 31
0.0
 12
0.0
 22
75.0
 32
0.0
 13
0.0
 23
75.0
 33
0.0
  0
SOLID
  5
6B2
330
6AB
100
AcDbEntity
  8
2
 62
     0
100
AcDbTrace
 10
27.5
 20
74.58333333333333
 30
0.0
 11
27.5
 21
75.41666666666667
 31
0.0
 12
30.0
 22
75.0
 32
0.0
 13
30.0
 23
75.0
 33
0.0
  0
MTEXT
  5
6B3
330
6AB
100
AcDbEntity
  8
2
 62
     0
100
AcDbMText
 10
15.0
 20
77.39075
 30
0.0
 40
3.5
 41
0.0
 71
     5
 72
     1
  1
30
  7
SIMPLEX
 73
     1
 44
1.0
  0
POINT
  5
6B4
330
6AB
100
AcDbEntity
  8
DEFPOINTS
 62
     0
100
AcDbPoint
 10
0.0
 20
0.0
 30
0.0
  0
POINT
  5
6B5
330
6AB
100
AcDbEntity
  8
DEFPOINTS
 62
     0
100
AcDbPoint
 10
30.0
 20
0.0
 30
0.0
  0
POINT
  5
6B6
330
6AB
100
AcDbEntity
  8
DEFPOINTS
 62
     0
100
AcDbPoint
 10
30.0
 20
75.0
 30
0.0
  0
ENDBLK
  5
6AD
330
6AB
100
AcDbEntity
  8
0
100
AcDbBlockEnd
  0
BLOCK
  5
6B9
330
6B8
100
AcDbEntity
  8
0
100
AcDbBlockBegin
  2
*D2
 70
     1
 10
0.0
 20
0.0
 30
0.0
  3
*D2
  1

  0
LINE
  5
6BB
330
6B8
100
AcDbEntity
  8
SK2
 62
     0
370
    -2
100
AcDbLine
 10
-15.015
 20
1.4
 30
0.0
 11
-36.26500000000714
 21
1.399999999891552
 31
0.0
  0
LINE
  5
6BC
330
6B8
100
AcDbEntity
  8
SK2
 62
     0
370
    -2
100
AcDbLine
 10
-15.015
 20
-1.4
 30
0.0
 11
-36.26499999999285
 21
-1.400000000108447
 31
0.0
  0
LINE
  5
6BD
330
6B8
100
AcDbEntity
  8
SK2
 62
     0
370
    -2
100
AcDbLine
 10
-35.01499999998009
 20
-3.900000000102068
 30
0.0
 11
-35.01499999990533
 21
-18.54900000010207
 31
0.0
  0
LINE
  5
6BE
330
6B8
100
AcDbEntity
  8
SK2
 62
     0
370
    -2
100
AcDbLine
 10
-35.0150000000199
 20
3.899999999897932
 30
0.0
 11
-35.01500000003266
 21
6.399999999897932
 31
0.0
  0
SOLID
  5
6BF
330
6B8
100
AcDbEntity
  8
SK2
 62
     0
100
AcDbTrace
 10
-35.43166666668657
 20
3.899999999895805
 30
0.0
 11
-34.59833333335324
 21
3.899999999900058
 31
0.0
 12
-35.01500000000714
 22
1.399999999897932
 32
0.0
 13
-35.01500000000714
 23
1.399999999897932
 33
0.0
  0
SOLID
  5
6C0
330
6B8
100
AcDbEntity
  8
SK2
 62
     0
100
AcDbTrace
 10
-34.59833333331343
 20
-3.900000000099942
 30
0.0
 11
-35.43166666664676
 21
-3.900000000104194
 31
0.0
 12
-35.01499999999285
 22
-1.400000000102068
 32
0.0
 13
-35.01499999999285
 23
-1.400000000102068
 33
0.0
  0
MTEXT
  5
6C1
330
6B8
100
AcDbEntity
  8
SK2
 62
     0
100
AcDbMText
 10
-37.41274999993634
 20
-12.4745000001143
 30
0.0
 40
3.5
 41
0.0
 71
     5
 72
     1
  1
%%c2.8
  7
SIMPLEX
 11
-5.103219434334149E-12
 21
1.0
 31
0.0
 73
     1
 44
1.0
  0
POINT
  5
6C2
330
6B8
100
AcDbEntity
  8
DEFPOINTS
 62
     0
100
AcDbPoint
 10
-15.015
 20
1.4
 30
0.0
  0
POINT
  5
6C3
330
6B8
100
AcDbEntity
  8
DEFPOINTS
 62
     0
100
AcDbPoint
 10
-15.015
 20
-1.4
 30
0.0
  0
POINT
  5
6C4
330
6B8
100
AcDbEntity
  8
DEFPOINTS
 62
     0
100
AcDbPoint
 10
-35.01499999999285
 20
-1.400000000102068
 30
0.0
  0
ENDBLK
  5
6BA
330
6B8
100
AcDbEntity
  8
0
100
AcDbBlockEnd
  0
BLOCK
  5
6C7
330
6C6
100
AcDbEntity
  8
0
100
AcDbBlockBegin
  2
*D3
 70
     1
 10
0.0
 20
0.0
 30
0.0
  3
*D3
  1

  0
LINE
  5
6C9
330
6C6
100
AcDbEntity
  8
2
 62
     0
370
    -2
100
AcDbLine
 10
25.480384758
 20
1.0
 30
0.0
 11
25.480384758
 21
61.25
 31
0.0
  0
LINE
  5
6CA
330
6C6
100
AcDbEntity
  8
2
 62
     0
370
    -2
100
AcDbLine
 10
30.0
 20
1.3
 30
0.0
 11
30.0
 21
61.25
 31
0.0
  0
LINE
  5
6CB
330
6C6
100
AcDbEntity
  8
2
 62
     0
370
    -2
100
AcDbLine
 10
32.5
 20
60.0
 30
0.0
 11
46.82000000000001
 21
60.0
 31
0.0
  0
LINE
  5
6CC
330
6C6
100
AcDbEntity
  8
2
 62
     0
370
    -2
100
AcDbLine
 10
22.980384758
 20
60.0
 30
0.0
 11
20.480384758
 21
60.0
 31
0.0
  0
SOLID
  5
6CD
330
6C6
100
AcDbEntity
  8
2
 62
     0
100
AcDbTrace
 10
22.980384758
 20
59.58333333333334
 30
0.0
 11
22.980384758
 21
60.41666666666666
 31
0.0
 12
25.480384758
 22
60.0
 32
0.0
 13
25.480384758
 23
60.0
 33
0.0
  0
SOLID
  5
6CE
330
6C6
100
AcDbEntity
  8
2
 62
     0
100
AcDbTrace
 10
32.5
 20
60.41666666666666
 30
0.0
 11
32.5
 21
59.58333333333334
 31
0.0
 12
30.0
 22
60.0
 32
0.0
 13
30.0
 23
60.0
 33
0.0
  0
MTEXT
  5
6CF
330
6C6
100
AcDbEntity
  8
2
 62
     0
100
AcDbMText
 10
40.91
 20
62.438
 30
0.0
 40
3.5
 41
0.0
 71
     5
 72
     1
  1
4.52
  7
SIMPLEX
 73
     1
 44
1.0
  0
POINT
  5
6D0
330
6C6
100
AcDbEntity
  8
DEFPOINTS
 62
     0
100
AcDbPoint
 10
25.480384758
 20
1.0
 30
0.0
  0
POINT
  5
6D1
330
6C6
100
AcDbEntity
  8
DEFPOINTS
 62
     0
100
AcDbPoint
 10
30.0
 20
1.3
 30
0.0
  0
POINT
  5
6D2
330
6C6
100
AcDbEntity
  8
DEFPOINTS
 62
     0
100
AcDbPoint
 10
30.0
 20
60.0
 30
0.0
  0
ENDBLK
  5
6C8
330
6C6
100
AcDbEntity
  8
0
100
AcDbBlockEnd
  0
BLOCK
  5
6D5
330
6D4
100
AcDbEntity
  8
0
100
AcDbBlockBegin
  2
*D4
 70
     1
 10
0.0
 20
0.0
 30
0.0
  3
*D4
  1

  0
LINE
  5
6D7
330
6D4
100
AcDbEntity
  8
SK2
 62
     0
370
    -2
100
AcDbLine
 10
-20.015
 20
1.3
 30
0.0
 11
-20.015
 21
91.25
 31
0.0
  0
LINE
  5
6D8
330
6D4
100
AcDbEntity
  8
SK2
 62
     0
370
    -2
100
AcDbLine
 10
31.065
 20
1.3
 30
0.0
 11
31.065
 21
91.25
 31
0.0
  0
LINE
  5
6D9
330
6D4
100
AcDbEntity
  8
SK2
 62
     0
370
    -2
100
AcDbLine
 10
-17.515
 20
90.0
 30
0.0
 11
28.565
 21
90.0
 31
0.0
  0
SOLID
  5
6DA
330
6D4
100
AcDbEntity
  8
SK2
 62
     0
100
AcDbTrace
 10
-17.515
 20
90.41666666666667
 30
0.0
 11
-17.515
 21
89.58333333333333
 31
0.0
 12
-20.015
 22
90.0
 32
0.0
 13
-20.015
 23
90.0
 33
0.0
  0
SOLID
  5
6DB
330
6D4
100
AcDbEntity
  8
SK2
 62
     0
100
AcDbTrace
 10
28.565
 20
89.58333333333333
 30
0.0
 11
28.565
 21
90.41666666666667
 31
0.0
 12
31.065
 22
90.0
 32
0.0
 13
31.065
 23
90.0
 33
0.0
  0
MTEXT
  5
6DC
330
6D4
100
AcDbEntity
  8
SK2
 62
     0
100
AcDbMText
 10
5.525000000000002
 20
92.39775
 30
0.0
 40
3.5
 41
0.0
 71
     5
 72
     1
  1
51.08
  7
SIMPLEX
 73
     1
 44
1.0
  0
POINT
  5
6DD
330
6D4
100
AcDbEntity
  8
DEFPOINTS
 62
     0
100
AcDbPoint
 10
-20.015
 20
1.3
 30
0.0
  0
POINT
  5
6DE
330
6D4
100
AcDbEntity
  8
DEFPOINTS
 62
     0
100
AcDbPoint
 10
31.065
 20
1.3
 30
0.0
  0
POINT
  5
6DF
330
6D4
100
AcDbEntity
  8
DEFPOINTS
 62
     0
100
AcDbPoint
 10
31.065
 20
90.0
 30
0.0
  0
ENDBLK
  5
6D6
330
6D4
100
AcDbEntity
  8
0
100
AcDbBlockEnd
  0
ENDSEC
  0
SECTION
  2
ENTITIES
  0
LINE
  5
3D6
330
18
100
AcDbEntity
  8
SK4
100
AcDbLine
 10
-22.015
 20
0.0
 30
0.0
 11
16.0
 21
0.0
 31
0.0
  0
LINE
  5
3D7
330
18
100
AcDbEntity
  8
4
100
AcDbLine
 10
14.0
 20
0.0
 30
0.0
 11
33.065
 21
0.0
 31
0.0
  0
LINE
  5
3D8
330
18
100
AcDbEntity
  8
SK4
100
AcDbLine
 10
14.0
 20
0.0
 30
0.0
 11
33.065
 21
0.0
 31
0.0
  0
LINE
  5
3D9
330
18
100
AcDbEntity
  8
1
100
AcDbLine
 10
16.0
 20
1.4
 30
0.0
 11
-0.0000000000000027
 21
1.4
 31
0.0
  0
LINE
  5
3DA
330
18
100
AcDbEntity
  8
1
100
AcDbLine
 10
16.0
 20
1.4
 30
0.0
 11
16.0
 21
1.398608129387938
 31
0.0
  0
LINE
  5
3DB
330
18
100
AcDbEntity
  8
1
100
AcDbLine
 10
16.0
 20
1.398608129387938
 30
0.0
 11
16.0
 21
1.274382742859455
 31
0.0
  0
LINE
  5
3DC
330
18
100
AcDbEntity
  8
1
100
AcDbLine
 10
16.0
 20
1.274382742859455
 30
0.0
 11
16.0
 21
-1.4
 31
0.0
  0
LINE
  5
3DD
330
18
100
AcDbEntity
  8
1
100
AcDbLine
 10
16.0
 20
1.4
 30
0.0
 11
18.26851273
 21
1.0
 31
0.0
  0
LINE
  5
3DE
330
18
100
AcDbEntity
  8
1
100
AcDbLine
 10
18.26851273
 20
1.0
 30
0.0
 11
18.26851272999999
 21
0.9990058067056699
 31
0.0
  0
LINE
  5
3DF
330
18
100
AcDbEntity
  8
1
100
AcDbLine
 10
18.26851272999999
 20
0.9990058067056699
 30
0.0
 11
18.26851273
 21
0.9102733877567534
 31
0.0
  0
LINE
  5
3E0
330
18
100
AcDbEntity
  8
1
100
AcDbLine
 10
18.26851273
 20
0.9102733877567534
 30
0.0
 11
18.26851273
 21
-1.0
 31
0.0
  0
LINE
  5
3E1
330
18
100
AcDbEntity
  8
1
100
AcDbLine
 10
18.26851273
 20
1.0
 30
0.0
 11
19.4988484029637
 21
1.0
 31
0.0
  0
ARC
  5
3E2
330
18
100
AcDbEntity
  8
1
100
AcDbCircle
 10
19.88759965020049
 20
0.6285610222404785
 30
0.0
 40
1.629634640036032
100
AcDbArc
 50
245.0460838341738
 51
268.9561027119788
  0
LINE
  5
3E3
330
18
100
AcDbEntity
  8
1
100
AcDbLine
 10
21.09595378463118
 20
1.0
 30
0.0
 11
21.97490611101711
 21
1.0
 31
0.0
  0
LINE
  5
3E4
330
18
100
AcDbEntity
  8
1
100
AcDbLine
 10
25.4597521722814
 20
0.8787147920267088
 30
0.0
 11
25.480384758
 21
0.8558140967915205
 31
0.0
  0
LINE
  5
3E5
330
18
100
AcDbEntity
  8
1
100
AcDbLine
 10
23.57201156180717
 20
1.0
 30
0.0
 11
24.45096393811024
 21
1.0
 31
0.0
  0
LINE
  5
3E6
330
18
100
AcDbEntity
  8
1
100
AcDbLine
 10
25.4597521722814
 20
0.65750609917392
 30
0.0
 11
25.4597521722814
 21
-0.0259626268959984
 31
0.0
  0
LINE
  5
3E7
330
18
100
AcDbEntity
  8
1
100
AcDbLine
 10
25.4597521722814
 20
-0.9812592159653458
 30
0.0
 11
25.4597521722814
 21
-1.0
 31
0.0
  0
LINE
  5
3E8
330
18
100
AcDbEntity
  8
1
100
AcDbLine
 10
25.480384758
 20
-0.9642633299060945
 30
0.0
 11
25.4597521722814
 21
-1.000000000000004
 31
0.0
  0
LINE
  5
3E9
330
18
100
AcDbEntity
  8
1
100
AcDbLine
 10
19.2
 20
-0.8491029943427585
 30
0.0
 11
19.2
 21
-1.0
 31
0.0
  0
LINE
  5
3EA
330
18
100
AcDbEntity
  8
1
100
AcDbLine
 10
25.45975217228141
 20
-0.9812592159653487
 30
0.0
 11
25.39906462408532
 21
-0.9700786688702183
 31
0.0
  0
LINE
  5
3EB
330
18
100
AcDbEntity
  8
1
100
AcDbLine
 10
25.39906462408532
 20
-0.9700786688702183
 30
0.0
 11
25.33837340308856
 21
-0.9563431320117348
 31
0.0
  0
LINE
  5
3EC
330
18
100
AcDbEntity
  8
1
100
AcDbLine
 10
25.33837340308856
 20
-0.9563431320117348
 30
0.0
 11
25.2776919416341
 21
-0.9400889170705041
 31
0.0
  0
LINE
  5
3ED
330
18
100
AcDbEntity
  8
1
100
AcDbLine
 10
25.2776919416341
 20
-0.9400889170705041
 30
0.0
 11
25.21699842148578
 21
-0.9213557608005154
 31
0.0
  0
LINE
  5
3EE
330
18
100
AcDbEntity
  8
1
100
AcDbLine
 10
25.21699842148578
 20
-0.9213557608005154
 30
0.0
 11
25.15631961287551
 21
-0.9002003859331362
 31
0.0
  0
LINE
  5
3EF
330
18
100
AcDbEntity
  8
1
100
AcDbLine
 10
25.15631961287551
 20
-0.9002003859331362
 30
0.0
 11
25.03494111089824
 21
-0.8508289826980175
 31
0.0
  0
LINE
  5
3F0
330
18
100
AcDbEntity
  8
1
100
AcDbLine
 10
25.03494111089824
 20
-0.8508289826980175
 30
0.0
 11
24.91356592766032
 21
-0.7924978989590723
 31
0.0
  0
LINE
  5
3F1
330
18
100
AcDbEntity
  8
1
100
AcDbLine
 10
24.91356592766032
 20
-0.7924978989590723
 30
0.0
 11
24.7921957670302
 21
-0.7258239847848118
 31
0.0
  0
LINE
  5
3F2
330
18
100
AcDbEntity
  8
1
100
AcDbLine
 10
24.7921957670302
 20
-0.7258239847848118
 30
0.0
 11
24.6708268787591
 21
-0.6515082420729762
 31
0.0
  0
LINE
  5
3F3
330
18
100
AcDbEntity
  8
1
100
AcDbLine
 10
24.6708268787591
 20
-0.6515082420729762
 30
0.0
 11
24.54945551795227
 21
-0.5703307374837999
 31
0.0
  0
LINE
  5
3F4
330
18
100
AcDbEntity
  8
1
100
AcDbLine
 10
24.54945551795227
 20
-0.5703307374837999
 30
0.0
 11
24.30670205268635
 21
-0.3908670847313116
 31
0.0
  0
LINE
  5
3F5
330
18
100
AcDbEntity
  8
1
100
AcDbLine
 10
24.30670205268635
 20
-0.3908670847313116
 30
0.0
 11
23.5178121599321
 21
0.2625998981657161
 31
0.0
  0
LINE
  5
3F6
330
18
100
AcDbEntity
  8
1
100
AcDbLine
 10
25.4597521722814
 20
-0.98125921596535
 30
0.0
 11
25.480384758
 21
-0.947532745129409
 31
0.0
  0
LINE
  5
3F7
330
18
100
AcDbEntity
  8
1
100
AcDbLine
 10
25.480384758
 20
-0.7559789108898445
 30
0.0
 11
25.480384758
 21
-0.0752580053330412
 31
0.0
  0
LINE
  5
3F8
330
18
100
AcDbEntity
  8
1
100
AcDbLine
 10
25.480384758
 20
-0.0752580053330412
 30
0.0
 11
25.48038475800001
 21
-0.043148031801122
 31
0.0
  0
LINE
  5
3F9
330
18
100
AcDbEntity
  8
1
100
AcDbLine
 10
25.45975217228142
 20
-0.025962626650164
 30
0.0
 11
25.44490788873508
 21
-0.0134089836715687
 31
0.0
  0
LINE
  5
3FA
330
18
100
AcDbEntity
  8
1
100
AcDbLine
 10
25.4597521722814
 20
-0.025962626204766
 30
0.0
 11
25.46875845663204
 21
-0.0334179990943896
 31
0.0
  0
LINE
  5
3FB
330
18
100
AcDbEntity
  8
1
100
AcDbLine
 10
25.46875845663204
 20
-0.0334179990943896
 30
0.0
 11
25.46893265322561
 21
-0.033562903886667
 31
0.0
  0
LINE
  5
3FC
330
18
100
AcDbEntity
  8
1
100
AcDbLine
 10
19.2
 20
0.8820097780545885
 30
0.0
 11
19.2
 21
-0.2675170947610925
 31
0.0
  0
LINE
  5
3FD
330
18
100
AcDbEntity
  8
1
100
AcDbLine
 10
19.2
 20
-0.2675170947610923
 30
0.0
 11
19.39210715304633
 21
-0.4198779127751209
 31
0.0
  0
LINE
  5
3FE
330
18
100
AcDbEntity
  8
1
100
AcDbLine
 10
19.39210715304633
 20
-0.4198779127751209
 30
0.0
 11
19.58422319201607
 21
-0.5611819337430928
 31
0.0
  0
LINE
  5
3FF
330
18
100
AcDbEntity
  8
1
100
AcDbLine
 10
19.58422319201607
 20
-0.5611819337430928
 30
0.0
 11
19.77633714455263
 21
-0.687698953955415
 31
0.0
  0
LINE
  5
400
330
18
100
AcDbEntity
  8
1
100
AcDbLine
 10
19.77633714455263
 20
-0.687698953955415
 30
0.0
 11
19.87238782533733
 21
-0.7443486892034971
 31
0.0
  0
LINE
  5
401
330
18
100
AcDbEntity
  8
1
100
AcDbLine
 10
19.87238782533733
 20
-0.7443486892034971
 30
0.0
 11
19.96844097842165
 21
-0.7960906047969618
 31
0.0
  0
LINE
  5
402
330
18
100
AcDbEntity
  8
1
100
AcDbLine
 10
19.96844097842165
 20
-0.7960906047969618
 30
0.0
 11
20.06450329181326
 21
-0.8425831822626828
 31
0.0
  0
LINE
  5
403
330
18
100
AcDbEntity
  8
1
100
AcDbLine
 10
20.06450329181326
 20
-0.8425831822626828
 30
0.0
 11
20.16055229494366
 21
-0.8835106461374772
 31
0.0
  0
LINE
  5
404
330
18
100
AcDbEntity
  8
1
100
AcDbLine
 10
20.16055229494366
 20
-0.8835106461374772
 30
0.0
 11
20.25660926699712
 21
-0.918613581900517
 31
0.0
  0
LINE
  5
405
330
18
100
AcDbEntity
  8
1
100
AcDbLine
 10
20.25660926699712
 20
-0.918613581900517
 30
0.0
 11
20.35266826890619
 21
-0.9476541245949599
 31
0.0
  0
LINE
  5
406
330
18
100
AcDbEntity
  8
1
100
AcDbLine
 10
20.35266826890619
 20
-0.9476541245949599
 30
0.0
 11
20.44871702724338
 21
-0.9704406591186674
 31
0.0
  0
LINE
  5
407
330
18
100
AcDbEntity
  8
1
100
AcDbLine
 10
20.44871702724338
 20
-0.9704406591186674
 30
0.0
 11
20.54477786141043
 21
-0.9868276389093874
 31
0.0
  0
LINE
  5
408
330
18
100
AcDbEntity
  8
1
100
AcDbLine
 10
20.54477786141043
 20
-0.9868276389093874
 30
0.0
 11
20.64083267462433
 21
-0.9967006701778481
 31
0.0
  0
LINE
  5
409
330
18
100
AcDbEntity
  8
1
100
AcDbLine
 10
20.64083267462433
 20
-0.9967006701778481
 30
0.0
 11
20.73687718813963
 21
-0.9999999999515696
 31
0.0
  0
LINE
  5
40A
330
18
100
AcDbEntity
  8
1
100
AcDbLine
 10
25.45975217228141
 20
0.6575060991739176
 30
0.0
 11
25.33364813593609
 21
0.7339844449990189
 31
0.0
  0
LINE
  5
40B
330
18
100
AcDbEntity
  8
1
100
AcDbLine
 10
25.33364813593609
 20
0.7339844449990189
 30
0.0
 11
25.20754570891635
 21
0.802118522012321
 31
0.0
  0
LINE
  5
40C
330
18
100
AcDbEntity
  8
1
100
AcDbLine
 10
25.20754570891635
 20
0.802118522012321
 30
0.0
 11
25.08144743683474
 21
0.8611332240317884
 31
0.0
  0
LINE
  5
40D
330
18
100
AcDbEntity
  8
1
100
AcDbLine
 10
25.08144743683474
 20
0.8611332240317884
 30
0.0
 11
24.95535119539891
 21
0.910359968844681
 31
0.0
  0
LINE
  5
40E
330
18
100
AcDbEntity
  8
1
100
AcDbLine
 10
24.95535119539891
 20
0.910359968844681
 30
0.0
 11
24.8922986543073
 21
0.9311263003427874
 31
0.0
  0
LINE
  5
40F
330
18
100
AcDbEntity
  8
1
100
AcDbLine
 10
24.8922986543073
 20
0.9311263003427874
 30
0.0
 11
24.82925493759136
 21
0.9492405203076014
 31
0.0
  0
LINE
  5
410
330
18
100
AcDbEntity
  8
1
100
AcDbLine
 10
24.82925493759136
 20
0.9492405203076014
 30
0.0
 11
24.76619827174722
 21
0.9646600149599841
 31
0.0
  0
LINE
  5
411
330
18
100
AcDbEntity
  8
1
100
AcDbLine
 10
24.76619827174722
 20
0.9646600149599841
 30
0.0
 11
24.70315659158861
 21
0.9773331749095218
 31
0.0
  0
LINE
  5
412
330
18
100
AcDbEntity
  8
1
100
AcDbLine
 10
24.70315659158861
 20
0.9773331749095218
 30
0.0
 11
24.64010120110652
 21
0.9872287983710415
 31
0.0
  0
LINE
  5
413
330
18
100
AcDbEntity
  8
1
100
AcDbLine
 10
24.64010120110652
 20
0.9872287983710415
 30
0.0
 11
24.57705414736506
 21
0.9943177945210624
 31
0.0
  0
LINE
  5
414
330
18
100
AcDbEntity
  8
1
100
AcDbLine
 10
24.57705414736506
 20
0.9943177945210624
 30
0.0
 11
24.5140087088921
 21
0.9985777927606462
 31
0.0
  0
LINE
  5
415
330
18
100
AcDbEntity
  8
1
100
AcDbLine
 10
24.5140087088921
 20
0.9985777927606462
 30
0.0
 11
24.45096393811024
 21
0.9999999999999993
 31
0.0
  0
LINE
  5
416
330
18
100
AcDbEntity
  8
1
100
AcDbLine
 10
25.4597521722814
 20
0.6575060991739283
 30
0.0
 11
25.480384758
 21
0.6286505219533809
 31
0.0
  0
LINE
  5
417
330
18
100
AcDbEntity
  8
1
100
AcDbLine
 10
19.2
 20
0.8820097780545886
 30
0.0
 11
19.28080157350011
 21
0.8477672667858054
 31
0.0
  0
LINE
  5
418
330
18
100
AcDbEntity
  8
1
100
AcDbLine
 10
19.28080157350011
 20
0.8477672667858054
 30
0.0
 11
19.36159951388493
 21
0.8095703287225634
 31
0.0
  0
LINE
  5
419
330
18
100
AcDbEntity
  8
1
100
AcDbLine
 10
19.36159951388493
 20
0.8095703287225634
 30
0.0
 11
19.4424051066675
 21
0.7675873804527639
 31
0.0
  0
LINE
  5
41A
330
18
100
AcDbEntity
  8
1
100
AcDbLine
 10
19.4424051066675
 20
0.7675873804527639
 30
0.0
 11
19.60400807040289
 21
0.6730874935529245
 31
0.0
  0
LINE
  5
41B
330
18
100
AcDbEntity
  8
1
100
AcDbLine
 10
19.60400807040289
 20
0.6730874935529245
 30
0.0
 11
19.76561045635777
 21
0.5660309174727932
 31
0.0
  0
LINE
  5
41C
330
18
100
AcDbEntity
  8
1
100
AcDbLine
 10
19.76561045635777
 20
0.5660309174727932
 30
0.0
 11
19.92721202711433
 21
0.4484151329864798
 31
0.0
  0
LINE
  5
41D
330
18
100
AcDbEntity
  8
1
100
AcDbLine
 10
19.92721202711433
 20
0.4484151329864798
 30
0.0
 11
20.49279192738552
 21
-0.0134086485475298
 31
0.0
  0
LINE
  5
41E
330
18
100
AcDbEntity
  8
1
100
AcDbLine
 10
25.48038475800001
 20
-0.0431480318011222
 30
0.0
 11
25.48038475800001
 21
0.6286505219533677
 31
0.0
  0
LINE
  5
41F
330
18
100
AcDbEntity
  8
1
100
AcDbLine
 10
25.480384758
 20
-0.9475327451294087
 30
0.0
 11
25.480384758
 21
-0.7559789108898445
 31
0.0
  0
LINE
  5
420
330
18
100
AcDbEntity
  8
1
100
AcDbLine
 10
25.48038475800001
 20
-0.9642633299060939
 30
0.0
 11
25.48038475800001
 21
-0.9642595067706944
 31
0.0
  0
LINE
  5
421
330
18
100
AcDbEntity
  8
1
100
AcDbLine
 10
25.48038475800001
 20
-0.9642595067706944
 30
0.0
 11
25.48038475800001
 21
-0.9631381860810685
 31
0.0
  0
LINE
  5
422
330
18
100
AcDbEntity
  8
1
100
AcDbLine
 10
25.48038475800001
 20
-0.9631381860810685
 30
0.0
 11
25.48038475800001
 21
-0.9475327451293972
 31
0.0
  0
LINE
  5
423
330
18
100
AcDbEntity
  8
1
100
AcDbLine
 10
-0.0000000000000031
 20
-1.4
 30
0.0
 11
16.0
 21
-1.4
 31
0.0
  0
LINE
  5
424
330
18
100
AcDbEntity
  8
1
100
AcDbLine
 10
16.0
 20
-1.4
 30
0.0
 11
18.26851273
 21
-1.0
 31
0.0
  0
LINE
  5
425
330
18
100
AcDbEntity
  8
1
100
AcDbLine
 10
18.26851273
 20
-1.0
 30
0.0
 11
19.2
 21
-1.0
 31
0.0
  0
LINE
  5
426
330
18
100
AcDbEntity
  8
1
100
AcDbLine
 10
20.73687718813963
 20
-0.9999999999515696
 30
0.0
 11
20.78678054848588
 21
-0.9991084557903548
 31
0.0
  0
LINE
  5
427
330
18
100
AcDbEntity
  8
1
100
AcDbLine
 10
20.78678054848588
 20
-0.9991084557903548
 30
0.0
 11
20.83669647288428
 21
-0.9964364646732027
 31
0.0
  0
LINE
  5
428
330
18
100
AcDbEntity
  8
1
100
AcDbLine
 10
20.83669647288428
 20
-0.9964364646732027
 30
0.0
 11
20.88660696167623
 21
-0.991990475128607
 31
0.0
  0
LINE
  5
429
330
18
100
AcDbEntity
  8
1
100
AcDbLine
 10
20.88660696167623
 20
-0.991990475128607
 30
0.0
 11
20.98642623931201
 21
-0.9778033446237877
 31
0.0
  0
LINE
  5
42A
330
18
100
AcDbEntity
  8
1
100
AcDbLine
 10
20.98642623931201
 20
-0.9778033446237877
 30
0.0
 11
21.08624037906647
 21
-0.95665253012205
 31
0.0
  0
LINE
  5
42B
330
18
100
AcDbEntity
  8
1
100
AcDbLine
 10
21.08624037906647
 20
-0.95665253012205
 30
0.0
 11
21.18606715034144
 21
-0.9286826067180669
 31
0.0
  0
LINE
  5
42C
330
18
100
AcDbEntity
  8
1
100
AcDbLine
 10
21.18606715034144
 20
-0.9286826067180669
 30
0.0
 11
21.28588563032224
 21
-0.8940967622157141
 31
0.0
  0
LINE
  5
42D
330
18
100
AcDbEntity
  8
1
100
AcDbLine
 10
21.28588563032224
 20
-0.8940967622157141
 30
0.0
 11
21.38569984609225
 21
-0.8531441579345882
 31
0.0
  0
LINE
  5
42E
330
18
100
AcDbEntity
  8
1
100
AcDbLine
 10
21.38569984609225
 20
-0.8531441579345882
 30
0.0
 11
21.46057260609036
 21
-0.81841720649585
 31
0.0
  0
LINE
  5
42F
330
18
100
AcDbEntity
  8
1
100
AcDbLine
 10
21.46057260609036
 20
-0.81841720649585
 30
0.0
 11
21.53542948176586
 21
-0.7804173836339802
 31
0.0
  0
LINE
  5
430
330
18
100
AcDbEntity
  8
1
100
AcDbLine
 10
19.85792488910225
 20
-1.0
 30
0.0
 11
20.73687718813963
 21
-1.0
 31
0.0
  0
LINE
  5
431
330
18
100
AcDbEntity
  8
1
100
AcDbLine
 10
23.21293503048241
 20
-0.9999999996614815
 30
0.0
 11
23.14508915522786
 21
-0.9983525824629346
 31
0.0
  0
LINE
  5
432
330
18
100
AcDbEntity
  8
1
100
AcDbLine
 10
23.14508915522786
 20
-0.9983525824629346
 30
0.0
 11
23.07723308952533
 21
-0.9934191257344196
 31
0.0
  0
LINE
  5
433
330
18
100
AcDbEntity
  8
1
100
AcDbLine
 10
23.07723308952533
 20
-0.9934191257344196
 30
0.0
 11
23.00939047313401
 21
-0.9852144720975078
 31
0.0
  0
LINE
  5
434
330
18
100
AcDbEntity
  8
1
100
AcDbLine
 10
23.00939047313401
 20
-0.9852144720975078
 30
0.0
 11
22.94153278413544
 21
-0.9737640928409663
 31
0.0
  0
LINE
  5
435
330
18
100
AcDbEntity
  8
1
100
AcDbLine
 10
22.94153278413544
 20
-0.9737640928409663
 30
0.0
 11
22.87369079899053
 21
-0.9591103626581453
 31
0.0
  0
LINE
  5
436
330
18
100
AcDbEntity
  8
1
100
AcDbLine
 10
22.87369079899053
 20
-0.9591103626581453
 30
0.0
 11
22.80583385082998
 21
-0.9412940818948059
 31
0.0
  0
LINE
  5
437
330
18
100
AcDbEntity
  8
1
100
AcDbLine
 10
22.80583385082998
 20
-0.9412940818948059
 30
0.0
 11
22.73798962266787
 21
-0.9203831862704813
 31
0.0
  0
LINE
  5
438
330
18
100
AcDbEntity
  8
1
100
AcDbLine
 10
22.73798962266787
 20
-0.9203831862704813
 30
0.0
 11
22.67013576408193
 21
-0.8964366432675613
 31
0.0
  0
LINE
  5
439
330
18
100
AcDbEntity
  8
1
100
AcDbLine
 10
22.67013576408193
 20
-0.8964366432675613
 30
0.0
 11
22.60228644357765
 21
-0.8695418720014154
 31
0.0
  0
LINE
  5
43A
330
18
100
AcDbEntity
  8
1
100
AcDbLine
 10
22.60228644357765
 20
-0.8695418720014154
 30
0.0
 11
22.46658364652096
 21
-0.8072561562966698
 31
0.0
  0
LINE
  5
43B
330
18
100
AcDbEntity
  8
1
100
AcDbLine
 10
22.46658364652096
 20
-0.8072561562966698
 30
0.0
 11
22.33088288806037
 21
-0.7343470410338204
 31
0.0
  0
LINE
  5
43C
330
18
100
AcDbEntity
  8
1
100
AcDbLine
 10
22.33088288806037
 20
-0.7343470410338204
 30
0.0
 11
22.19518359785175
 21
-0.6517743731187167
 31
0.0
  0
LINE
  5
43D
330
18
100
AcDbEntity
  8
1
100
AcDbLine
 10
22.19518359785175
 20
-0.6517743731187167
 30
0.0
 11
22.05948533200977
 21
-0.5606248172484158
 31
0.0
  0
LINE
  5
43E
330
18
100
AcDbEntity
  8
1
100
AcDbLine
 10
22.05948533200977
 20
-0.5606248172484158
 30
0.0
 11
21.78808999775931
 21
-0.3574893823126252
 31
0.0
  0
LINE
  5
43F
330
18
100
AcDbEntity
  8
1
100
AcDbLine
 10
21.78808999775931
 20
-0.3574893823126252
 30
0.0
 11
21.04175437814204
 21
0.2625999508450711
 31
0.0
  0
LINE
  5
440
330
18
100
AcDbEntity
  8
1
100
AcDbLine
 10
22.33398267415426
 20
-1.0
 30
0.0
 11
23.21293503048242
 21
-1.0
 31
0.0
  0
LINE
  5
441
330
18
100
AcDbEntity
  8
1
100
AcDbLine
 10
24.8100404503297
 20
-0.9999999999528462
 30
0.0
 11
24.75250888799891
 21
-0.998815205423773
 31
0.0
  0
LINE
  5
442
330
18
100
AcDbEntity
  8
1
100
AcDbLine
 10
24.75250888799891
 20
-0.998815205423773
 30
0.0
 11
24.69496423395159
 21
-0.9952654680910951
 31
0.0
  0
LINE
  5
443
330
18
100
AcDbEntity
  8
1
100
AcDbLine
 10
24.69496423395159
 20
-0.9952654680910951
 30
0.0
 11
24.63743277089422
 21
-0.9893605649893144
 31
0.0
  0
LINE
  5
444
330
18
100
AcDbEntity
  8
1
100
AcDbLine
 10
24.63743277089422
 20
-0.9893605649893144
 30
0.0
 11
24.57989341366772
 21
-0.9811099624885908
 31
0.0
  0
LINE
  5
445
330
18
100
AcDbEntity
  8
1
100
AcDbLine
 10
24.57989341366772
 20
-0.9811099624885908
 30
0.0
 11
24.52235098582416
 21
-0.9705371498499789
 31
0.0
  0
LINE
  5
446
330
18
100
AcDbEntity
  8
1
100
AcDbLine
 10
24.52235098582416
 20
-0.9705371498499789
 30
0.0
 11
24.46482140690159
 21
-0.9576675939107754
 31
0.0
  0
LINE
  5
447
330
18
100
AcDbEntity
  8
1
100
AcDbLine
 10
24.46482140690159
 20
-0.9576675939107754
 30
0.0
 11
24.40727761365408
 21
-0.9425264113583287
 31
0.0
  0
LINE
  5
448
330
18
100
AcDbEntity
  8
1
100
AcDbLine
 10
24.40727761365408
 20
-0.9425264113583287
 30
0.0
 11
24.34974140984079
 21
-0.9251567480515789
 31
0.0
  0
LINE
  5
449
330
18
100
AcDbEntity
  8
1
100
AcDbLine
 10
24.34974140984079
 20
-0.9251567480515789
 30
0.0
 11
24.23466297832549
 21
-0.8838860448224002
 31
0.0
  0
LINE
  5
44A
330
18
100
AcDbEntity
  8
1
100
AcDbLine
 10
24.23466297832549
 20
-0.8838860448224002
 30
0.0
 11
24.11959163023628
 21
-0.8342506025259714
 31
0.0
  0
LINE
  5
44B
330
18
100
AcDbEntity
  8
1
100
AcDbLine
 10
24.11959163023628
 20
-0.8342506025259714
 30
0.0
 11
24.00452058788598
 21
-0.776718752648411
 31
0.0
  0
LINE
  5
44C
330
18
100
AcDbEntity
  8
1
100
AcDbLine
 10
24.00452058788598
 20
-0.776718752648411
 30
0.0
 11
23.88944318192357
 21
-0.7118305221309009
 31
0.0
  0
LINE
  5
44D
330
18
100
AcDbEntity
  8
1
100
AcDbLine
 10
23.88944318192357
 20
-0.7118305221309009
 30
0.0
 11
23.77436272436931
 21
-0.6402001962482048
 31
0.0
  0
LINE
  5
44E
330
18
100
AcDbEntity
  8
1
100
AcDbLine
 10
23.77436272436931
 20
-0.6402001962482048
 30
0.0
 11
23.54422004948484
 21
-0.4795050015606311
 31
0.0
  0
LINE
  5
44F
330
18
100
AcDbEntity
  8
1
100
AcDbLine
 10
23.54422004948484
 20
-0.4795050015606311
 30
0.0
 11
23.31406372619025
 21
-0.3006854353296711
 31
0.0
  0
LINE
  5
450
330
18
100
AcDbEntity
  8
1
100
AcDbLine
 10
23.31406372619025
 20
-0.3006854353296711
 30
0.0
 11
22.96884994054831
 21
-0.0134088387693559
 31
0.0
  0
LINE
  5
451
330
18
100
AcDbEntity
  8
1
100
AcDbLine
 10
24.8100404503297
 20
-1.0
 30
0.0
 11
25.4597521722814
 21
-1.0
 31
0.0
  0
LINE
  5
452
330
18
100
AcDbEntity
  8
1
100
AcDbLine
 10
21.04175437814204
 20
0.2625999508450711
 30
0.0
 11
20.84889345389757
 21
0.4158237758869839
 31
0.0
  0
LINE
  5
453
330
18
100
AcDbEntity
  8
1
100
AcDbLine
 10
20.84889345389757
 20
0.4158237758869839
 30
0.0
 11
20.65602371780288
 21
0.558012327946344
 31
0.0
  0
LINE
  5
454
330
18
100
AcDbEntity
  8
1
100
AcDbLine
 10
20.65602371780288
 20
0.558012327946344
 30
0.0
 11
20.46315621080225
 21
0.6853817211064626
 31
0.0
  0
LINE
  5
455
330
18
100
AcDbEntity
  8
1
100
AcDbLine
 10
20.46315621080225
 20
0.6853817211064626
 30
0.0
 11
20.3667283364818
 21
0.7424304369133758
 31
0.0
  0
LINE
  5
456
330
18
100
AcDbEntity
  8
1
100
AcDbLine
 10
20.3667283364818
 20
0.7424304369133758
 30
0.0
 11
20.27029880075569
 21
0.7945449876735606
 31
0.0
  0
LINE
  5
457
330
18
100
AcDbEntity
  8
1
100
AcDbLine
 10
20.27029880075569
 20
0.7945449876735606
 30
0.0
 11
20.17385924131096
 21
0.8413798414394759
 31
0.0
  0
LINE
  5
458
330
18
100
AcDbEntity
  8
1
100
AcDbLine
 10
20.17385924131096
 20
0.8413798414394759
 30
0.0
 11
20.07743305211658
 21
0.8826135864564546
 31
0.0
  0
LINE
  5
459
330
18
100
AcDbEntity
  8
1
100
AcDbLine
 10
20.07743305211658
 20
0.8826135864564546
 30
0.0
 11
19.98100037039291
 21
0.9179826120579587
 31
0.0
  0
LINE
  5
45A
330
18
100
AcDbEntity
  8
1
100
AcDbLine
 10
19.98100037039291
 20
0.9179826120579587
 30
0.0
 11
19.88456335265879
 21
0.947246639183068
 31
0.0
  0
LINE
  5
45B
330
18
100
AcDbEntity
  8
1
100
AcDbLine
 10
19.88456335265879
 20
0.947246639183068
 30
0.0
 11
19.78813778117725
 21
0.9702096156874805
 31
0.0
  0
LINE
  5
45C
330
18
100
AcDbEntity
  8
1
100
AcDbLine
 10
19.78813778117725
 20
0.9702096156874805
 30
0.0
 11
19.69170131859022
 21
0.986724354927288
 31
0.0
  0
LINE
  5
45D
330
18
100
AcDbEntity
  8
1
100
AcDbLine
 10
19.69170131859022
 20
0.986724354927288
 30
0.0
 11
19.59526810877044
 21
0.996674925014412
 31
0.0
  0
LINE
  5
45E
330
18
100
AcDbEntity
  8
1
100
AcDbLine
 10
19.59526810877044
 20
0.996674925014412
 30
0.0
 11
19.4988484029637
 21
1.0
 31
0.0
  0
LINE
  5
45F
330
18
100
AcDbEntity
  8
1
100
AcDbLine
 10
24.01148811347954
 20
-0.7804174024848758
 30
0.0
 11
23.91166642714251
 21
-0.8303673156193786
 31
0.0
  0
LINE
  5
460
330
18
100
AcDbEntity
  8
1
100
AcDbLine
 10
23.91166642714251
 20
-0.8303673156193786
 30
0.0
 11
23.81185173782288
 21
-0.8743990601332821
 31
0.0
  0
LINE
  5
461
330
18
100
AcDbEntity
  8
1
100
AcDbLine
 10
23.81185173782288
 20
-0.8743990601332821
 30
0.0
 11
23.71202547078282
 21
-0.9122060083651108
 31
0.0
  0
LINE
  5
462
330
18
100
AcDbEntity
  8
1
100
AcDbLine
 10
23.71202547078282
 20
-0.9122060083651108
 30
0.0
 11
23.61220421168595
 21
-0.9435097745003882
 31
0.0
  0
LINE
  5
463
330
18
100
AcDbEntity
  8
1
100
AcDbLine
 10
23.61220421168595
 20
-0.9435097745003882
 30
0.0
 11
23.51238942254472
 21
-0.9680908855089027
 31
0.0
  0
LINE
  5
464
330
18
100
AcDbEntity
  8
1
100
AcDbLine
 10
23.51238942254472
 20
-0.9680908855089027
 30
0.0
 11
23.41256314459101
 21
-0.9857774092405261
 31
0.0
  0
LINE
  5
465
330
18
100
AcDbEntity
  8
1
100
AcDbLine
 10
23.41256314459101
 20
-0.9857774092405261
 30
0.0
 11
23.36265835886327
 21
-0.9919904516569138
 31
0.0
  0
LINE
  5
466
330
18
100
AcDbEntity
  8
1
100
AcDbLine
 10
23.36265835886327
 20
-0.9919904516569138
 30
0.0
 11
23.31274207563175
 21
-0.9964374123887279
 31
0.0
  0
LINE
  5
467
330
18
100
AcDbEntity
  8
1
100
AcDbLine
 10
23.31274207563175
 20
-0.9964374123887279
 30
0.0
 11
23.26283213424161
 21
-0.9991094100758889
 31
0.0
  0
LINE
  5
468
330
18
100
AcDbEntity
  8
1
100
AcDbLine
 10
23.26283213424161
 20
-0.9991094100758889
 30
0.0
 11
23.21293503048241
 21
-0.9999999996614815
 31
0.0
  0
LINE
  5
469
330
18
100
AcDbEntity
  8
1
100
AcDbLine
 10
22.96884994054831
 20
-0.0134088387693559
 30
0.0
 11
22.50062497291579
 21
0.373373550789529
 31
0.0
  0
LINE
  5
46A
330
18
100
AcDbEntity
  8
1
100
AcDbLine
 10
22.50062497291579
 20
0.373373550789529
 30
0.0
 11
22.2665126956038
 21
0.5485825854895413
 31
0.0
  0
LINE
  5
46B
330
18
100
AcDbEntity
  8
1
100
AcDbLine
 10
22.2665126956038
 20
0.5485825854895413
 30
0.0
 11
22.14945921904748
 21
0.6285432963994138
 31
0.0
  0
LINE
  5
46C
330
18
100
AcDbEntity
  8
1
100
AcDbLine
 10
22.14945921904748
 20
0.6285432963994138
 30
0.0
 11
22.0324000272017
 21
0.7023511018807462
 31
0.0
  0
LINE
  5
46D
330
18
100
AcDbEntity
  8
1
100
AcDbLine
 10
22.0324000272017
 20
0.7023511018807462
 30
0.0
 11
21.91533720931589
 21
0.769279829332895
 31
0.0
  0
LINE
  5
46E
330
18
100
AcDbEntity
  8
1
100
AcDbLine
 10
21.91533720931589
 20
0.769279829332895
 30
0.0
 11
21.79828200106882
 21
0.8286682232603153
 31
0.0
  0
LINE
  5
46F
330
18
100
AcDbEntity
  8
1
100
AcDbLine
 10
21.79828200106882
 20
0.8286682232603153
 30
0.0
 11
21.68122942705915
 21
0.879938981683864
 31
0.0
  0
LINE
  5
470
330
18
100
AcDbEntity
  8
1
100
AcDbLine
 10
21.68122942705915
 20
0.879938981683864
 30
0.0
 11
21.56417403379251
 21
0.9225923530187672
 31
0.0
  0
LINE
  5
471
330
18
100
AcDbEntity
  8
1
100
AcDbLine
 10
21.56417403379251
 20
0.9225923530187672
 30
0.0
 11
21.50564056640313
 21
0.940553346033181
 31
0.0
  0
LINE
  5
472
330
18
100
AcDbEntity
  8
1
100
AcDbLine
 10
21.50564056640313
 20
0.940553346033181
 30
0.0
 11
21.44711129141949
 21
0.9562100189827851
 31
0.0
  0
LINE
  5
473
330
18
100
AcDbEntity
  8
1
100
AcDbLine
 10
21.44711129141949
 20
0.9562100189827851
 30
0.0
 11
21.38858787121528
 21
0.9695203033178135
 31
0.0
  0
LINE
  5
474
330
18
100
AcDbEntity
  8
1
100
AcDbLine
 10
21.38858787121528
 20
0.9695203033178135
 30
0.0
 11
21.330052602302
 21
0.9804583281196707
 31
0.0
  0
LINE
  5
475
330
18
100
AcDbEntity
  8
1
100
AcDbLine
 10
21.330052602302
 20
0.9804583281196707
 30
0.0
 11
21.27153123581533
 21
0.988991884405105
 31
0.0
  0
LINE
  5
476
330
18
100
AcDbEntity
  8
1
100
AcDbLine
 10
21.27153123581533
 20
0.988991884405105
 30
0.0
 11
21.21299939706362
 21
0.995101875639565
 31
0.0
  0
LINE
  5
477
330
18
100
AcDbEntity
  8
1
100
AcDbLine
 10
21.21299939706362
 20
0.995101875639565
 30
0.0
 11
21.15446808600979
 21
0.9987752144415896
 31
0.0
  0
LINE
  5
478
330
18
100
AcDbEntity
  8
1
100
AcDbLine
 10
21.15446808600979
 20
0.9987752144415896
 30
0.0
 11
21.09595378463118
 21
1.0
 31
0.0
  0
LINE
  5
479
330
18
100
AcDbEntity
  8
1
100
AcDbLine
 10
20.29740100712075
 20
0.7804176167460157
 30
0.0
 11
20.39722213216616
 21
0.8303672352293515
 31
0.0
  0
LINE
  5
47A
330
18
100
AcDbEntity
  8
1
100
AcDbLine
 10
20.39722213216616
 20
0.8303672352293515
 30
0.0
 11
20.49703685292018
 21
0.874398984671629
 31
0.0
  0
LINE
  5
47B
330
18
100
AcDbEntity
  8
1
100
AcDbLine
 10
20.49703685292018
 20
0.874398984671629
 30
0.0
 11
20.59686335200083
 21
0.9122059933900097
 31
0.0
  0
LINE
  5
47C
330
18
100
AcDbEntity
  8
1
100
AcDbLine
 10
20.59686335200083
 20
0.9122059933900097
 30
0.0
 11
20.69668409071495
 21
0.9435095937458152
 31
0.0
  0
LINE
  5
47D
330
18
100
AcDbEntity
  8
1
100
AcDbLine
 10
20.69668409071495
 20
0.9435095937458152
 30
0.0
 11
20.79649878721973
 21
0.968090810320321
 31
0.0
  0
LINE
  5
47E
330
18
100
AcDbEntity
  8
1
100
AcDbLine
 10
20.79649878721973
 20
0.968090810320321
 30
0.0
 11
20.89632529450454
 21
0.9857773512230552
 31
0.0
  0
LINE
  5
47F
330
18
100
AcDbEntity
  8
1
100
AcDbLine
 10
20.89632529450454
 20
0.9857773512230552
 30
0.0
 11
20.94622965656656
 21
0.9919904158982233
 31
0.0
  0
LINE
  5
480
330
18
100
AcDbEntity
  8
1
100
AcDbLine
 10
20.94622965656656
 20
0.9919904158982233
 30
0.0
 11
20.99614579211144
 21
0.9964373381583251
 31
0.0
  0
LINE
  5
481
330
18
100
AcDbEntity
  8
1
100
AcDbLine
 10
20.99614579211144
 20
0.9964373381583251
 30
0.0
 11
21.04605612059361
 21
0.9991093770504909
 31
0.0
  0
LINE
  5
482
330
18
100
AcDbEntity
  8
1
100
AcDbLine
 10
21.04605612059361
 20
0.9991093770504909
 30
0.0
 11
21.09595378463118
 21
0.9999999999999999
 31
0.0
  0
LINE
  5
483
330
18
100
AcDbEntity
  8
1
100
AcDbLine
 10
23.5178121599321
 20
0.2625998981657161
 30
0.0
 11
23.32494760964357
 21
0.4158264888395231
 31
0.0
  0
LINE
  5
484
330
18
100
AcDbEntity
  8
1
100
AcDbLine
 10
23.32494760964357
 20
0.4158264888395231
 30
0.0
 11
23.13207737367425
 21
0.558015344748263
 31
0.0
  0
LINE
  5
485
330
18
100
AcDbEntity
  8
1
100
AcDbLine
 10
23.13207737367425
 20
0.558015344748263
 30
0.0
 11
22.93921249891221
 21
0.6853827940378907
 31
0.0
  0
LINE
  5
486
330
18
100
AcDbEntity
  8
1
100
AcDbLine
 10
22.93921249891221
 20
0.6853827940378907
 30
0.0
 11
22.8427818413922
 21
0.7424328632596526
 31
0.0
  0
LINE
  5
487
330
18
100
AcDbEntity
  8
1
100
AcDbLine
 10
22.8427818413922
 20
0.7424328632596526
 30
0.0
 11
22.74635472244545
 21
0.7945457116647822
 31
0.0
  0
LINE
  5
488
330
18
100
AcDbEntity
  8
1
100
AcDbLine
 10
22.74635472244545
 20
0.7945457116647822
 30
0.0
 11
22.64991456173569
 21
0.841381223083534
 31
0.0
  0
LINE
  5
489
330
18
100
AcDbEntity
  8
1
100
AcDbLine
 10
22.64991456173569
 20
0.841381223083534
 30
0.0
 11
22.55348671165352
 21
0.8826151617111109
 31
0.0
  0
LINE
  5
48A
330
18
100
AcDbEntity
  8
1
100
AcDbLine
 10
22.55348671165352
 20
0.8826151617111109
 30
0.0
 11
22.45705749107836
 21
0.9179826740286172
 31
0.0
  0
LINE
  5
48B
330
18
100
AcDbEntity
  8
1
100
AcDbLine
 10
22.45705749107836
 20
0.9179826740286172
 30
0.0
 11
22.36061797459938
 21
0.9472477736415266
 31
0.0
  0
LINE
  5
48C
330
18
100
AcDbEntity
  8
1
100
AcDbLine
 10
22.36061797459938
 20
0.9472477736415266
 30
0.0
 11
22.26419174534038
 21
0.9702102059217499
 31
0.0
  0
LINE
  5
48D
330
18
100
AcDbEntity
  8
1
100
AcDbLine
 10
22.26419174534038
 20
0.9702102059217499
 30
0.0
 11
22.16775949677738
 21
0.9867242671488051
 31
0.0
  0
LINE
  5
48E
330
18
100
AcDbEntity
  8
1
100
AcDbLine
 10
22.16775949677738
 20
0.9867242671488051
 30
0.0
 11
22.07132222026296
 21
0.9966753917891462
 31
0.0
  0
LINE
  5
48F
330
18
100
AcDbEntity
  8
1
100
AcDbLine
 10
22.07132222026296
 20
0.9966753917891462
 30
0.0
 11
21.97490611101711
 21
1.0
 31
0.0
  0
LINE
  5
490
330
18
100
AcDbEntity
  8
1
100
AcDbLine
 10
25.46893265322561
 20
-0.0335629038866671
 30
0.0
 11
25.48038475800001
 21
-0.043148031801122
 31
0.0
  0
LINE
  5
491
330
18
100
AcDbEntity
  8
1
100
AcDbLine
 10
25.44490788873508
 20
-0.0134089836715687
 30
0.0
 11
24.97668275525438
 21
0.3733735671299706
 31
0.0
  0
LINE
  5
492
330
18
100
AcDbEntity
  8
1
100
AcDbLine
 10
24.97668275525438
 20
0.3733735671299706
 30
0.0
 11
24.74256994083474
 21
0.5485829546754503
 31
0.0
  0
LINE
  5
493
330
18
100
AcDbEntity
  8
1
100
AcDbLine
 10
24.74256994083474
 20
0.5485829546754503
 30
0.0
 11
24.62551660795647
 21
0.6285435422645717
 31
0.0
  0
LINE
  5
494
330
18
100
AcDbEntity
  8
1
100
AcDbLine
 10
24.62551660795647
 20
0.6285435422645717
 30
0.0
 11
24.50845780582977
 21
0.7023511028246997
 31
0.0
  0
LINE
  5
495
330
18
100
AcDbEntity
  8
1
100
AcDbLine
 10
24.50845780582977
 20
0.7023511028246997
 30
0.0
 11
24.39139475758487
 21
0.7692799981191689
 31
0.0
  0
LINE
  5
496
330
18
100
AcDbEntity
  8
1
100
AcDbLine
 10
24.39139475758487
 20
0.7692799981191689
 30
0.0
 11
24.27433929183555
 21
0.828668483659701
 31
0.0
  0
LINE
  5
497
330
18
100
AcDbEntity
  8
1
100
AcDbLine
 10
24.27433929183555
 20
0.828668483659701
 30
0.0
 11
24.15728670414874
 21
0.8799391617681004
 31
0.0
  0
LINE
  5
498
330
18
100
AcDbEntity
  8
1
100
AcDbLine
 10
24.15728670414874
 20
0.8799391617681004
 30
0.0
 11
24.04023156225693
 21
0.9225923978383191
 31
0.0
  0
LINE
  5
499
330
18
100
AcDbEntity
  8
1
100
AcDbLine
 10
24.04023156225693
 20
0.9225923978383191
 30
0.0
 11
23.98169781904043
 21
0.9405535059637957
 31
0.0
  0
LINE
  5
49A
330
18
100
AcDbEntity
  8
1
100
AcDbLine
 10
23.98169781904043
 20
0.9405535059637957
 30
0.0
 11
23.92316906298658
 21
0.9562100379147711
 31
0.0
  0
LINE
  5
49B
330
18
100
AcDbEntity
  8
1
100
AcDbLine
 10
23.92316906298658
 20
0.9562100379147711
 30
0.0
 11
23.86464519344125
 21
0.9695203745156933
 31
0.0
  0
LINE
  5
49C
330
18
100
AcDbEntity
  8
1
100
AcDbLine
 10
23.86464519344125
 20
0.9695203745156933
 30
0.0
 11
23.8061099932663
 21
0.9804584316965601
 31
0.0
  0
LINE
  5
49D
330
18
100
AcDbEntity
  8
1
100
AcDbLine
 10
23.8061099932663
 20
0.9804584316965601
 30
0.0
 11
23.74758886385993
 21
0.9889918743027079
 31
0.0
  0
LINE
  5
49E
330
18
100
AcDbEntity
  8
1
100
AcDbLine
 10
23.74758886385993
 20
0.9889918743027079
 30
0.0
 11
23.68905665822613
 21
0.99510192421118
 31
0.0
  0
LINE
  5
49F
330
18
100
AcDbEntity
  8
1
100
AcDbLine
 10
23.68905665822613
 20
0.99510192421118
 30
0.0
 11
23.63052576022466
 21
0.9987752483742813
 31
0.0
  0
LINE
  5
4A0
330
18
100
AcDbEntity
  8
1
100
AcDbLine
 10
23.63052576022466
 20
0.9987752483742813
 30
0.0
 11
23.57201156180717
 21
1.0
 31
0.0
  0
LINE
  5
4A1
330
18
100
AcDbEntity
  8
1
100
AcDbLine
 10
25.46893264223853
 20
-0.0335629170935082
 30
0.0
 11
25.46875845663315
 21
-0.0334179990953071
 31
0.0
  0
LINE
  5
4A2
330
18
100
AcDbEntity
  8
1
100
AcDbLine
 10
22.77345891964161
 20
0.7804175851602991
 30
0.0
 11
22.87327772239176
 21
0.8303661290587544
 31
0.0
  0
LINE
  5
4A3
330
18
100
AcDbEntity
  8
1
100
AcDbLine
 10
22.87327772239176
 20
0.8303661290587544
 30
0.0
 11
22.97309307635351
 21
0.8743985162371929
 31
0.0
  0
LINE
  5
4A4
330
18
100
AcDbEntity
  8
1
100
AcDbLine
 10
22.97309307635351
 20
0.8743985162371929
 30
0.0
 11
23.07292093650355
 21
0.9122058079424712
 31
0.0
  0
LINE
  5
4A5
330
18
100
AcDbEntity
  8
1
100
AcDbLine
 10
23.07292093650355
 20
0.9122058079424712
 30
0.0
 11
23.17273943638034
 21
0.9435088302534789
 31
0.0
  0
LINE
  5
4A6
330
18
100
AcDbEntity
  8
1
100
AcDbLine
 10
23.17273943638034
 20
0.9435088302534789
 30
0.0
 11
23.27255481111107
 21
0.9680906187053646
 31
0.0
  0
LINE
  5
4A7
330
18
100
AcDbEntity
  8
1
100
AcDbLine
 10
23.27255481111107
 20
0.9680906187053646
 30
0.0
 11
23.3723826037441
 21
0.9857771502464502
 31
0.0
  0
LINE
  5
4A8
330
18
100
AcDbEntity
  8
1
100
AcDbLine
 10
23.3723826037441
 20
0.9857771502464502
 30
0.0
 11
23.42228556383368
 21
0.9919904038152262
 31
0.0
  0
LINE
  5
4A9
330
18
100
AcDbEntity
  8
1
100
AcDbLine
 10
23.42228556383368
 20
0.9919904038152262
 30
0.0
 11
23.47220089830723
 21
0.996437068700394
 31
0.0
  0
LINE
  5
4AA
330
18
100
AcDbEntity
  8
1
100
AcDbLine
 10
23.47220089830723
 20
0.996437068700394
 30
0.0
 11
23.52211329780694
 21
0.9991092220136466
 31
0.0
  0
LINE
  5
4AB
330
18
100
AcDbEntity
  8
1
100
AcDbLine
 10
23.52211329780694
 20
0.9991092220136466
 30
0.0
 11
23.57201156180717
 21
1.0
 31
0.0
  0
ARC
  5
4AC
330
18
100
AcDbEntity
  8
1
100
AcDbCircle
 10
26.32411063793669
 20
-1.242612990679274
 30
0.0
 40
2.290712602159553
100
AcDbArc
 50
112.1689822073134
 51
117.9763834711278
  0
LINE
  5
4AD
330
18
100
AcDbEntity
  8
1
100
AcDbLine
 10
25.480384758
 20
0.6286505219533677
 30
0.0
 11
25.480384758
 21
0.8558140967915205
 31
0.0
  0
LINE
  5
4AE
330
18
100
AcDbEntity
  8
1
100
AcDbLine
 10
20.49279192738552
 20
-0.0134086485475298
 30
0.0
 11
20.95309163383802
 21
-0.3919567246751526
 31
0.0
  0
LINE
  5
4AF
330
18
100
AcDbEntity
  8
1
100
AcDbLine
 10
20.95309163383802
 20
-0.3919567246751526
 30
0.0
 11
21.18324648779436
 21
-0.5625238650670035
 31
0.0
  0
LINE
  5
4B0
330
18
100
AcDbEntity
  8
1
100
AcDbLine
 10
21.18324648779436
 20
-0.5625238650670035
 30
0.0
 11
21.29831684505162
 21
-0.6402075630480735
 31
0.0
  0
LINE
  5
4B1
330
18
100
AcDbEntity
  8
1
100
AcDbLine
 10
21.29831684505162
 20
-0.6402075630480735
 30
0.0
 11
21.4133909863158
 21
-0.7118336831065856
 31
0.0
  0
LINE
  5
4B2
330
18
100
AcDbEntity
  8
1
100
AcDbLine
 10
21.4133909863158
 20
-0.7118336831065856
 30
0.0
 11
21.52847265946217
 21
-0.7767244769932811
 31
0.0
  0
LINE
  5
4B3
330
18
100
AcDbEntity
  8
1
100
AcDbLine
 10
21.52847265946217
 20
-0.7767244769932811
 30
0.0
 11
21.6435474954506
 21
-0.8342571936604473
 31
0.0
  0
LINE
  5
4B4
330
18
100
AcDbEntity
  8
1
100
AcDbLine
 10
21.6435474954506
 20
-0.8342571936604473
 30
0.0
 11
21.75861786790643
 21
-0.8838906560595297
 31
0.0
  0
LINE
  5
4B5
330
18
100
AcDbEntity
  8
1
100
AcDbLine
 10
21.75861786790643
 20
-0.8838906560595297
 30
0.0
 11
21.87369024289213
 21
-0.9251584285984062
 31
0.0
  0
LINE
  5
4B6
330
18
100
AcDbEntity
  8
1
100
AcDbLine
 10
21.87369024289213
 20
-0.9251584285984062
 30
0.0
 11
21.93123324224603
 21
-0.9425301943076767
 31
0.0
  0
LINE
  5
4B7
330
18
100
AcDbEntity
  8
1
100
AcDbLine
 10
21.93123324224603
 20
-0.9425301943076767
 30
0.0
 11
21.98877057047364
 21
-0.9576698319490633
 31
0.0
  0
LINE
  5
4B8
330
18
100
AcDbEntity
  8
1
100
AcDbLine
 10
21.98877057047364
 20
-0.9576698319490633
 30
0.0
 11
22.04630352108036
 21
-0.970538635949114
 31
0.0
  0
LINE
  5
4B9
330
18
100
AcDbEntity
  8
1
100
AcDbLine
 10
22.04630352108036
 20
-0.970538635949114
 30
0.0
 11
22.10384764007261
 21
-0.9811124006430246
 31
0.0
  0
LINE
  5
4BA
330
18
100
AcDbEntity
  8
1
100
AcDbLine
 10
22.10384764007261
 20
-0.9811124006430246
 30
0.0
 11
22.16137802075243
 21
-0.9893608523446359
 31
0.0
  0
LINE
  5
4BB
330
18
100
AcDbEntity
  8
1
100
AcDbLine
 10
22.16137802075243
 20
-0.9893608523446359
 30
0.0
 11
22.21891849918873
 21
-0.9952661426844124
 31
0.0
  0
LINE
  5
4BC
330
18
100
AcDbEntity
  8
1
100
AcDbLine
 10
22.21891849918873
 20
-0.9952661426844124
 30
0.0
 11
22.27645930948328
 21
-0.9988162804427051
 31
0.0
  0
LINE
  5
4BD
330
18
100
AcDbEntity
  8
1
100
AcDbLine
 10
22.27645930948328
 20
-0.9988162804427051
 30
0.0
 11
22.33398267415426
 21
-0.9999999996250305
 31
0.0
  0
LINE
  5
4BE
330
18
100
AcDbEntity
  8
1
 62
     1
100
AcDbLine
 10
30.0
 20
-0.9211888923278074
 30
0.0
 11
30.0
 21
-1.065
 31
0.0
  0
LINE
  5
4BF
330
18
100
AcDbEntity
  8
1
 62
     1
100
AcDbLine
 10
27.3
 20
-0.9302887500000001
 30
0.0
 11
27.28400888484742
 21
-0.9579861610000153
 31
0.0
  0
LINE
  5
4C0
330
18
100
AcDbEntity
  8
1
 62
     1
100
AcDbLine
 10
27.96345298923242
 20
-1.300000000000002
 30
0.0
 11
27.75
 21
-0.9302887500000001
 31
0.0
  0
LINE
  5
4C1
330
18
100
AcDbEntity
  8
1
 62
     1
100
AcDbLine
 10
25.57017938353467
 20
-1.05184295125123
 30
0.0
 11
25.5
 21
-0.9302887500000001
 31
0.0
  0
LINE
  5
4C2
330
18
100
AcDbEntity
  8
1
 62
     1
100
AcDbLine
 10
29.89978789249938
 20
-0.9101000893317025
 30
0.0
 11
29.89978789249938
 21
-1.103861130796444
 31
0.0
  0
LINE
  5
4C3
330
18
100
AcDbEntity
  8
1
 62
     1
100
AcDbLine
 10
30.0
 20
-0.9302887500000001
 30
0.0
 11
29.89978789249938
 21
-1.103861130796443
 31
0.0
  0
ARC
  5
4C4
330
18
100
AcDbEntity
  8
1
 62
     1
100
AcDbCircle
 10
27.19282082884841
 20
-2.791316962138933
 30
0.0
 40
4.655280407064581
100
AcDbArc
 50
54.44517723637425
 51
57.47372617594217
  0
LINE
  5
4C5
330
18
100
AcDbEntity
  8
1
 62
     1
100
AcDbLine
 10
29.89978789249938
 20
0.432083338006495
 30
0.0
 11
29.69586779125662
 21
0.6318641498642505
 31
0.0
  0
LINE
  5
4C6
330
18
100
AcDbEntity
  8
1
 62
     1
100
AcDbLine
 10
29.89978789249939
 20
0.9960402641811558
 30
0.0
 11
29.89978789249939
 21
0.4320833380065454
 31
0.0
  0
LINE
  5
4C7
330
18
100
AcDbEntity
  8
1
 62
     1
100
AcDbLine
 10
29.31345298923242
 20
1.3
 30
0.0
 11
29.32940740714705
 21
1.3
 31
0.0
  0
LINE
  5
4C8
330
18
100
AcDbEntity
  8
1
 62
     1
100
AcDbLine
 10
28.86345298923241
 20
1.3
 30
0.0
 11
28.88654701076759
 21
1.3
 31
0.0
  0
ARC
  5
4C9
330
18
100
AcDbEntity
  8
1
 62
     1
100
AcDbCircle
 10
27.58748035155114
 20
-1.392891539956382
 30
0.0
 40
1.310927916625384
100
AcDbArc
 50
62.15058388841197
 51
72.27618736048923
  0
ARC
  5
4CA
330
18
100
AcDbEntity
  8
1
 62
     1
100
AcDbCircle
 10
29.77699402198757
 20
1.840695442329249
 30
0.0
 40
2.09790498453759
100
AcDbArc
 50
211.415289307472
 51
221.2484250671565
  0
LINE
  5
4CB
330
18
100
AcDbEntity
  8
1
 62
     1
100
AcDbLine
 10
28.2
 20
-0.2335693855918378
 30
0.0
 11
28.21478838579766
 21
-0.2493104689133662
 31
0.0
  0
LINE
  5
4CC
330
18
100
AcDbEntity
  8
1
 62
     1
100
AcDbLine
 10
28.21478838579766
 20
-0.2493104689133662
 30
0.0
 11
28.22939287236607
 21
-0.266236079381716
 31
0.0
  0
LINE
  5
4CD
330
18
100
AcDbEntity
  8
1
 62
     1
100
AcDbLine
 10
28.22939287236607
 20
-0.266236079381716
 30
0.0
 11
28.24380765306275
 21
-0.2842716464155433
 31
0.0
  0
LINE
  5
4CE
330
18
100
AcDbEntity
  8
1
 62
     1
100
AcDbLine
 10
28.24380765306275
 20
-0.2842716464155433
 30
0.0
 11
28.27204926683334
 21
-0.3233831348310408
 31
0.0
  0
LINE
  5
4CF
330
18
100
AcDbEntity
  8
1
 62
     1
100
AcDbLine
 10
28.27204926683334
 20
-0.3233831348310408
 30
0.0
 11
28.29950077784362
 21
-0.3661182813770748
 31
0.0
  0
LINE
  5
4D0
330
18
100
AcDbEntity
  8
1
 62
     1
100
AcDbLine
 10
28.29950077784362
 20
-0.3661182813770748
 30
0.0
 11
28.3261621499425
 21
-0.4119963867225847
 31
0.0
  0
LINE
  5
4D1
330
18
100
AcDbEntity
  8
1
 62
     1
100
AcDbLine
 10
28.3261621499425
 20
-0.4119963867225847
 30
0.0
 11
28.35204590545209
 21
-0.4605876810859911
 31
0.0
  0
LINE
  5
4D2
330
18
100
AcDbEntity
  8
1
 62
     1
100
AcDbLine
 10
28.35204590545209
 20
-0.4605876810859911
 30
0.0
 11
28.41345298923241
 21
-0.5914010581887166
 31
0.0
  0
LINE
  5
4D3
330
18
100
AcDbEntity
  8
1
 62
     1
100
AcDbLine
 10
28.41345298923241
 20
0.3230976649801913
 30
0.0
 11
28.41345298923241
 21
-0.5914010579639722
 31
0.0
  0
LINE
  5
4D4
330
18
100
AcDbEntity
  8
1
 62
     1
100
AcDbLine
 10
28.2
 20
0.4577854874004819
 30
0.0
 11
28.21355200259111
 21
0.4537307918575724
 31
0.0
  0
LINE
  5
4D5
330
18
100
AcDbEntity
  8
1
 62
     1
100
AcDbLine
 10
28.21355200259111
 20
0.4537307918575724
 30
0.0
 11
28.22708601531694
 21
0.4490658389444444
 31
0.0
  0
LINE
  5
4D6
330
18
100
AcDbEntity
  8
1
 62
     1
100
AcDbLine
 10
28.22708601531694
 20
0.4490658389444444
 30
0.0
 11
28.24059757809535
 21
0.443796966029476
 31
0.0
  0
LINE
  5
4D7
330
18
100
AcDbEntity
  8
1
 62
     1
100
AcDbLine
 10
28.24059757809535
 20
0.443796966029476
 30
0.0
 11
28.25408223084415
 21
0.4379305104810456
 31
0.0
  0
LINE
  5
4D8
330
18
100
AcDbEntity
  8
1
 62
     1
100
AcDbLine
 10
28.25408223084415
 20
0.4379305104810456
 30
0.0
 11
28.26753952540599
 21
0.4314711795679204
 31
0.0
  0
LINE
  5
4D9
330
18
100
AcDbEntity
  8
1
 62
     1
100
AcDbLine
 10
28.26753952540599
 20
0.4314711795679204
 30
0.0
 11
28.280971320934
 21
0.4244236054009739
 31
0.0
  0
LINE
  5
4DA
330
18
100
AcDbEntity
  8
1
 62
     1
100
AcDbLine
 10
28.280971320934
 20
0.4244236054009739
 30
0.0
 11
28.30774369769067
 21
0.4085935414813234
 31
0.0
  0
LINE
  5
4DB
330
18
100
AcDbEntity
  8
1
 62
     1
100
AcDbLine
 10
28.30774369769067
 20
0.4085935414813234
 30
0.0
 11
28.33438498122278
 21
0.3904916162557964
 31
0.0
  0
LINE
  5
4DC
330
18
100
AcDbEntity
  8
1
 62
     1
100
AcDbLine
 10
28.33438498122278
 20
0.3904916162557964
 30
0.0
 11
28.36089045825865
 21
0.3701698791595013
 31
0.0
  0
LINE
  5
4DD
330
18
100
AcDbEntity
  8
1
 62
     1
100
AcDbLine
 10
28.36089045825865
 20
0.3701698791595013
 30
0.0
 11
28.3872472110022
 21
0.3476868056303266
 31
0.0
  0
LINE
  5
4DE
330
18
100
AcDbEntity
  8
1
 62
     1
100
AcDbLine
 10
28.3872472110022
 20
0.3476868056303266
 30
0.0
 11
28.41345298923241
 21
0.3230976649801877
 31
0.0
  0
LINE
  5
4DF
330
18
100
AcDbEntity
  8
1
 62
     1
100
AcDbLine
 10
28.2
 20
-0.2335693855918378
 30
0.0
 11
28.2
 21
0.4577854874004819
 31
0.0
  0
LINE
  5
4E0
330
18
100
AcDbEntity
  8
1
 62
     1
100
AcDbLine
 10
27.3
 20
0.4521027210343788
 30
0.0
 11
27.30685490271636
 21
0.4541281862432185
 31
0.0
  0
LINE
  5
4E1
330
18
100
AcDbEntity
  8
1
 62
     1
100
AcDbLine
 10
27.30685490271636
 20
0.4541281862432185
 30
0.0
 11
27.31367457850781
 21
0.4558549769801006
 31
0.0
  0
LINE
  5
4E2
330
18
100
AcDbEntity
  8
1
 62
     1
100
AcDbLine
 10
27.31367457850781
 20
0.4558549769801006
 30
0.0
 11
27.32045688135248
 21
0.4572864816308279
 31
0.0
  0
LINE
  5
4E3
330
18
100
AcDbEntity
  8
1
 62
     1
100
AcDbLine
 10
27.32045688135248
 20
0.4572864816308279
 30
0.0
 11
27.32719966522857
 21
0.4584260885812039
 31
0.0
  0
LINE
  5
4E4
330
18
100
AcDbEntity
  8
1
 62
     1
100
AcDbLine
 10
27.32719966522857
 20
0.4584260885812039
 30
0.0
 11
27.33390078411423
 21
0.4592771862170318
 31
0.0
  0
LINE
  5
4E5
330
18
100
AcDbEntity
  8
1
 62
     1
100
AcDbLine
 10
27.33390078411423
 20
0.4592771862170318
 30
0.0
 11
27.34055809198765
 21
0.4598431629241152
 31
0.0
  0
LINE
  5
4E6
330
18
100
AcDbEntity
  8
1
 62
     1
100
AcDbLine
 10
27.34055809198765
 20
0.4598431629241152
 30
0.0
 11
27.34717232443655
 21
0.460127658533745
 31
0.0
  0
LINE
  5
4E7
330
18
100
AcDbEntity
  8
1
 62
     1
100
AcDbLine
 10
27.34717232443655
 20
0.460127658533745
 30
0.0
 11
27.35374729361037
 21
0.4601346978687639
 31
0.0
  0
LINE
  5
4E8
330
18
100
AcDbEntity
  8
1
 62
     1
100
AcDbLine
 10
27.35374729361037
 20
0.4601346978687639
 30
0.0
 11
27.36028179953198
 21
0.459867961308448
 31
0.0
  0
LINE
  5
4E9
330
18
100
AcDbEntity
  8
1
 62
     1
100
AcDbLine
 10
27.36028179953198
 20
0.459867961308448
 30
0.0
 11
27.36677451198681
 21
0.4593311189755558
 31
0.0
  0
LINE
  5
4EA
330
18
100
AcDbEntity
  8
1
 62
     1
100
AcDbLine
 10
27.36677451198681
 20
0.4593311189755558
 30
0.0
 11
27.37322410076034
 21
0.4585278409928468
 31
0.0
  0
LINE
  5
4EB
330
18
100
AcDbEntity
  8
1
 62
     1
100
AcDbLine
 10
27.37322410076034
 20
0.4585278409928468
 30
0.0
 11
27.379629235638
 21
0.4574617974830796
 31
0.0
  0
LINE
  5
4EC
330
18
100
AcDbEntity
  8
1
 62
     1
100
AcDbLine
 10
27.379629235638
 20
0.4574617974830796
 30
0.0
 11
27.38599000707753
 21
0.4561364107082759
 31
0.0
  0
LINE
  5
4ED
330
18
100
AcDbEntity
  8
1
 62
     1
100
AcDbLine
 10
27.38599000707753
 20
0.4561364107082759
 30
0.0
 11
27.39231023051178
 21
0.4545545234551192
 31
0.0
  0
LINE
  5
4EE
330
18
100
AcDbEntity
  8
1
 62
     1
100
AcDbLine
 10
27.39231023051178
 20
0.4545545234551192
 30
0.0
 11
27.39858946013194
 21
0.4527198039283762
 31
0.0
  0
LINE
  5
4EF
330
18
100
AcDbEntity
  8
1
 62
     1
100
AcDbLine
 10
27.39858946013194
 20
0.4527198039283762
 30
0.0
 11
27.4048268397958
 21
0.4506359951404094
 31
0.0
  0
LINE
  5
4F0
330
18
100
AcDbEntity
  8
1
 62
     1
100
AcDbLine
 10
27.4048268397958
 20
0.4506359951404094
 30
0.0
 11
27.41102151336105
 21
0.4483068401035805
 31
0.0
  0
LINE
  5
4F1
330
18
100
AcDbEntity
  8
1
 62
     1
100
AcDbLine
 10
27.41102151336105
 20
0.4483068401035805
 30
0.0
 11
27.41717262468546
 21
0.4457360818302522
 31
0.0
  0
LINE
  5
4F2
330
18
100
AcDbEntity
  8
1
 62
     1
100
AcDbLine
 10
27.41717262468546
 20
0.4457360818302522
 30
0.0
 11
27.42934685922107
 21
0.4398820734725401
 31
0.0
  0
LINE
  5
4F3
330
18
100
AcDbEntity
  8
1
 62
     1
100
AcDbLine
 10
27.42934685922107
 20
0.4398820734725401
 30
0.0
 11
27.4413593875497
 21
0.4330970177811674
 31
0.0
  0
LINE
  5
4F4
330
18
100
AcDbEntity
  8
1
 62
     1
100
AcDbLine
 10
27.4413593875497
 20
0.4330970177811674
 30
0.0
 11
27.45320634857854
 21
0.4254102298853378
 31
0.0
  0
LINE
  5
4F5
330
18
100
AcDbEntity
  8
1
 62
     1
100
AcDbLine
 10
27.45320634857854
 20
0.4254102298853378
 30
0.0
 11
27.46488714146694
 21
0.4168485553912504
 31
0.0
  0
LINE
  5
4F6
330
18
100
AcDbEntity
  8
1
 62
     1
100
AcDbLine
 10
27.46488714146694
 20
0.4168485553912504
 30
0.0
 11
27.47641130152917
 21
0.4074318555666349
 31
0.0
  0
LINE
  5
4F7
330
18
100
AcDbEntity
  8
1
 62
     1
100
AcDbLine
 10
27.47641130152917
 20
0.4074318555666349
 30
0.0
 11
27.48777666322725
 21
0.3971882936199117
 31
0.0
  0
LINE
  5
4F8
330
18
100
AcDbEntity
  8
1
 62
     1
100
AcDbLine
 10
27.48777666322725
 20
0.3971882936199117
 30
0.0
 11
27.49898215072197
 21
0.3861447902289589
 31
0.0
  0
LINE
  5
4F9
330
18
100
AcDbEntity
  8
1
 62
     1
100
AcDbLine
 10
27.51345298923242
 20
1.102566599261907
 30
0.0
 11
27.51345298923242
 21
0.3704746269646325
 31
0.0
  0
ARC
  5
4FA
330
18
100
AcDbEntity
  8
1
 62
     1
100
AcDbCircle
 10
28.16374308166685
 20
0.2396044310785255
 30
0.0
 40
1.081167534202873
100
AcDbArc
 50
127.0000616409385
 51
143.0164497219408
  0
LINE
  5
4FB
330
18
100
AcDbEntity
  8
1
 62
     1
100
AcDbLine
 10
29.69586779125662
 20
-0.8593263334926904
 30
0.0
 11
29.69586779125663
 21
-1.181997536095677
 31
0.0
  0
LINE
  5
4FC
330
18
100
AcDbEntity
  8
1
 62
     1
100
AcDbLine
 10
29.55
 20
-0.9160638936897114
 30
0.0
 11
29.54999999999999
 21
-0.5461341121018137
 31
0.0
  0
ARC
  5
4FD
330
18
100
AcDbEntity
  8
1
 62
     1
100
AcDbCircle
 10
-2.087587423664242
 20
20.05981206377128
 30
0.0
 40
37.95971322319922
100
AcDbArc
 50
325.8762327990337
 51
326.4554262286571
  0
ARC
  5
4FE
330
18
100
AcDbEntity
  8
1
 62
     1
100
AcDbCircle
 10
29.20407418175894
 20
-0.1441976494048446
 30
0.0
 40
0.5295603347484067
100
AcDbArc
 50
284.490379229019
 51
310.7168672984188
  0
LINE
  5
4FF
330
18
100
AcDbEntity
  8
1
 62
     1
100
AcDbLine
 10
29.33654701076759
 20
-0.6567871280404494
 30
0.0
 11
29.33654701076759
 21
-1.234942322844682
 31
0.0
  0
ARC
  5
500
330
18
100
AcDbEntity
  8
1
 62
     1
100
AcDbCircle
 10
22.4197264493552
 20
-2.423726612755184
 30
0.0
 40
5.664543421294407
100
AcDbArc
 50
30.50983523155596
 51
34.52620324279793
  0
LINE
  5
501
330
18
100
AcDbEntity
  8
1
 62
     1
100
AcDbLine
 10
27.3
 20
0.4521027210343781
 30
0.0
 11
27.3
 21
0.890092815269597
 31
0.0
  0
ARC
  5
502
330
18
100
AcDbEntity
  8
1
 62
     1
100
AcDbCircle
 10
43.69377539818602
 20
10.23071568814705
 30
0.0
 40
18.86816770291944
100
AcDbArc
 50
208.3370387530113
 51
209.6730383187288
  0
LINE
  5
503
330
18
100
AcDbEntity
  8
1
 62
     1
100
AcDbLine
 10
27.53654701076759
 20
0.3460640051545329
 30
0.0
 11
27.57922074116509
 21
0.3046516442684138
 31
0.0
  0
LINE
  5
504
330
18
100
AcDbEntity
  8
1
 62
     1
100
AcDbLine
 10
27.57922074116509
 20
0.3046516442684138
 30
0.0
 11
27.58123840723425
 21
0.3026326402719873
 31
0.0
  0
LINE
  5
505
330
18
100
AcDbEntity
  8
1
 62
     1
100
AcDbLine
 10
27.75
 20
0.1176899576230373
 30
0.0
 11
27.75
 21
0.725892399560682
 31
0.0
  0
ARC
  5
506
330
18
100
AcDbEntity
  8
1
 62
     1
100
AcDbCircle
 10
32.07946955149335
 20
3.512132668101611
 30
0.0
 40
5.148762950854794
100
AcDbArc
 50
208.0757992945398
 51
212.7634017102137
  0
LINE
  5
507
330
18
100
AcDbEntity
  8
1
 62
     1
100
AcDbLine
 10
27.53654701076758
 20
1.088903297887976
 30
0.0
 11
27.53654701076759
 21
0.3460640051545148
 31
0.0
  0
ARC
  5
508
330
18
100
AcDbEntity
  8
1
 62
     1
100
AcDbCircle
 10
27.66194807429416
 20
-0.1037636721545939
 30
0.0
 40
0.2383517922070682
100
AcDbArc
 50
46.42380373427793
 51
68.31679308332426
  0
LINE
  5
509
330
18
100
AcDbEntity
  8
1
 62
     1
100
AcDbLine
 10
27.96345298923241
 20
0.7677836943001591
 30
0.0
 11
27.96345298923242
 21
-0.1189786274849651
 31
0.0
  0
ARC
  5
50A
330
18
100
AcDbEntity
  8
1
 62
     1
100
AcDbCircle
 10
27.91936829789403
 20
0.4308043297254028
 30
0.0
 40
0.3401586363179702
100
AcDbArc
 50
82.54671532478933
 51
119.8540342216225
  0
ARC
  5
50B
330
18
100
AcDbEntity
  8
1
 62
     1
100
AcDbCircle
 10
24.13126048955519
 20
-3.482781185554515
 30
0.0
 40
5.651467532260364
100
AcDbArc
 50
23.52533703251212
 51
28.45263494017063
  0
LINE
  5
50C
330
18
100
AcDbEntity
  8
1
 62
     1
100
AcDbLine
 10
29.31345298923241
 20
-0.6347479502812732
 30
0.0
 11
29.31345298923242
 21
-1.226774329800848
 31
0.0
  0
ARC
  5
50D
330
18
100
AcDbEntity
  8
1
 62
     1
100
AcDbCircle
 10
25.05264409942277
 20
-2.603250044378128
 30
0.0
 40
4.693285004925942
100
AcDbArc
 50
24.79703002862867
 51
30.41498364353362
  0
LINE
  5
50E
330
18
100
AcDbEntity
  8
1
 62
     1
100
AcDbLine
 10
29.09999999999999
 20
-0.7902918084987924
 30
0.0
 11
29.09999999999999
 21
-0.2272574545389797
 31
0.0
  0
ARC
  5
50F
330
18
100
AcDbEntity
  8
1
 62
     1
100
AcDbCircle
 10
35.64444483502574
 20
-7.820055095965655
 30
0.0
 40
9.60428160890699
100
AcDbArc
 50
132.9523770623172
 51
134.7195925847778
  0
ARC
  5
510
330
18
100
AcDbEntity
  8
1
 62
     1
100
AcDbCircle
 10
29.04865600191582
 20
0.1324727489315652
 30
0.0
 40
0.3635498263131913
100
AcDbArc
 50
243.5223892553863
 51
278.1229173035312
  0
LINE
  5
511
330
18
100
AcDbEntity
  8
1
 62
     1
100
AcDbLine
 10
28.88654701076759
 20
-0.1929860131553869
 30
0.0
 11
28.88654701076759
 21
-0.9956846768552517
 31
0.0
  0
LINE
  5
512
330
18
100
AcDbEntity
  8
1
 62
     1
100
AcDbLine
 10
28.65
 20
-0.5513948124893282
 30
0.0
 11
28.67939287371288
 21
-0.5980321800165486
 31
0.0
  0
LINE
  5
513
330
18
100
AcDbEntity
  8
1
 62
     1
100
AcDbLine
 10
28.67939287371288
 20
-0.5980321800165486
 30
0.0
 11
28.70802645926193
 21
-0.647625592441003
 31
0.0
  0
LINE
  5
514
330
18
100
AcDbEntity
  8
1
 62
     1
100
AcDbLine
 10
28.70802645926193
 20
-0.647625592441003
 30
0.0
 11
28.76293284988256
 21
-0.7534430573066188
 31
0.0
  0
LINE
  5
515
330
18
100
AcDbEntity
  8
1
 62
     1
100
AcDbLine
 10
28.76293284988256
 20
-0.7534430573066188
 30
0.0
 11
28.81469640861169
 21
-0.8649630653509536
 31
0.0
  0
LINE
  5
516
330
18
100
AcDbEntity
  8
1
 62
     1
100
AcDbLine
 10
28.81469640861169
 20
-0.8649630653509536
 30
0.0
 11
28.86345298923241
 21
-0.9791683910490464
 31
0.0
  0
LINE
  5
517
330
18
100
AcDbEntity
  8
1
 62
     1
100
AcDbLine
 10
28.86345298923241
 20
-0.1678375806952828
 30
0.0
 11
28.86345298923241
 21
-0.979168391049016
 31
0.0
  0
ARC
  5
518
330
18
100
AcDbEntity
  8
1
 62
     1
100
AcDbCircle
 10
27.46582263767997
 20
-0.9614199194008239
 30
0.0
 40
1.606585770836584
100
AcDbArc
 50
29.58815291870472
 51
42.51238085398425
  0
LINE
  5
519
330
18
100
AcDbEntity
  8
1
 62
     1
100
AcDbLine
 10
28.65
 20
-0.5513948124893284
 30
0.0
 11
28.65
 21
0.124149548502488
 31
0.0
  0
ARC
  5
51A
330
18
100
AcDbEntity
  8
1
 62
     1
100
AcDbCircle
 10
29.01688527683077
 20
-2.209363063024498
 30
0.0
 40
1.69779065516069
100
AcDbArc
 50
102.4776840875541
 51
109.9885100457431
  0
LINE
  5
51B
330
18
100
AcDbEntity
  8
1
 62
     1
100
AcDbLine
 10
28.43654701076758
 20
0.2984398904074147
 30
0.0
 11
28.46992802659172
 21
0.2626002052823105
 31
0.0
  0
LINE
  5
51C
330
18
100
AcDbEntity
  8
1
 62
     1
100
AcDbLine
 10
28.43654701076758
 20
0.2984398904280496
 30
0.0
 11
28.43654701076759
 21
-0.6139013464732581
 31
0.0
  0
LINE
  5
51D
330
18
100
AcDbEntity
  8
1
 62
     1
100
AcDbLine
 10
26.84999999999999
 20
0.7218000910270277
 30
0.0
 11
26.86478838591024
 21
0.7355604345299401
 31
0.0
  0
LINE
  5
51E
330
18
100
AcDbEntity
  8
1
 62
     1
100
AcDbLine
 10
26.86478838591024
 20
0.7355604345299401
 30
0.0
 11
26.87939287130629
 21
0.7481375617951915
 31
0.0
  0
LINE
  5
51F
330
18
100
AcDbEntity
  8
1
 62
     1
100
AcDbLine
 10
26.87939287130629
 20
0.7481375617951915
 30
0.0
 11
26.89380765321278
 21
0.7595396498759196
 31
0.0
  0
LINE
  5
520
330
18
100
AcDbEntity
  8
1
 62
     1
100
AcDbLine
 10
26.89380765321278
 20
0.7595396498759196
 30
0.0
 11
26.90802644638906
 21
0.7697757374844321
 31
0.0
  0
LINE
  5
521
330
18
100
AcDbEntity
  8
1
 62
     1
100
AcDbLine
 10
26.90802644638906
 20
0.7697757374844321
 30
0.0
 11
26.92204927324032
 21
0.7788588862894452
 31
0.0
  0
LINE
  5
522
330
18
100
AcDbEntity
  8
1
 62
     1
100
AcDbLine
 10
26.92204927324032
 20
0.7788588862894452
 30
0.0
 11
26.9358718855854
 21
0.7868004219528363
 31
0.0
  0
LINE
  5
523
330
18
100
AcDbEntity
  8
1
 62
     1
100
AcDbLine
 10
26.9358718855854
 20
0.7868004219528363
 30
0.0
 11
26.94950079016251
 21
0.7936172018890506
 31
0.0
  0
LINE
  5
524
330
18
100
AcDbEntity
  8
1
 62
     1
100
AcDbLine
 10
26.94950079016251
 20
0.7936172018890506
 30
0.0
 11
26.96293284499896
 21
0.7993228843616238
 31
0.0
  0
LINE
  5
525
330
18
100
AcDbEntity
  8
1
 62
     1
100
AcDbLine
 10
26.96293284499896
 20
0.7993228843616238
 30
0.0
 11
26.97616213943429
 21
0.8039294781211143
 31
0.0
  0
LINE
  5
526
330
18
100
AcDbEntity
  8
1
 62
     1
100
AcDbLine
 10
26.97616213943429
 20
0.8039294781211143
 30
0.0
 11
26.98270511829227
 21
0.805826961306556
 31
0.0
  0
LINE
  5
527
330
18
100
AcDbEntity
  8
1
 62
     1
100
AcDbLine
 10
26.98270511829227
 20
0.805826961306556
 30
0.0
 11
26.98920055472327
 21
0.8074568164782402
 31
0.0
  0
LINE
  5
528
330
18
100
AcDbEntity
  8
1
 62
     1
100
AcDbLine
 10
26.98920055472327
 20
0.8074568164782402
 30
0.0
 11
26.9956477181537
 21
0.8088209201933303
 31
0.0
  0
LINE
  5
529
330
18
100
AcDbEntity
  8
1
 62
     1
100
AcDbLine
 10
26.9956477181537
 20
0.8088209201933303
 30
0.0
 11
27.00204587800999
 21
0.8099211490089901
 31
0.0
  0
LINE
  5
52A
330
18
100
AcDbEntity
  8
1
 62
     1
100
AcDbLine
 10
27.00204587800999
 20
0.8099211490089901
 30
0.0
 11
27.00839444022108
 21
0.8107593987779662
 31
0.0
  0
LINE
  5
52B
330
18
100
AcDbEntity
  8
1
 62
     1
100
AcDbLine
 10
27.00839444022108
 20
0.8107593987779662
 30
0.0
 11
27.01469636384671
 21
0.8113381408859489
 31
0.0
  0
LINE
  5
52C
330
18
100
AcDbEntity
  8
1
 62
     1
100
AcDbLine
 10
27.01469636384671
 20
0.8113381408859489
 30
0.0
 11
27.02095273094489
 21
0.8116597717498931
 31
0.0
  0
LINE
  5
52D
330
18
100
AcDbEntity
  8
1
 62
     1
100
AcDbLine
 10
27.02095273094489
 20
0.8116597717498931
 30
0.0
 11
27.02716302619792
 21
0.8117264913102351
 31
0.0
  0
LINE
  5
52E
330
18
100
AcDbEntity
  8
1
 62
     1
100
AcDbLine
 10
27.02716302619792
 20
0.8117264913102351
 30
0.0
 11
27.03332673428809
 21
0.8115404995074109
 31
0.0
  0
LINE
  5
52F
330
18
100
AcDbEntity
  8
1
 62
     1
100
AcDbLine
 10
27.03332673428809
 20
0.8115404995074109
 30
0.0
 11
27.03944333989767
 21
0.8111039962818567
 31
0.0
  0
LINE
  5
530
330
18
100
AcDbEntity
  8
1
 62
     1
100
AcDbLine
 10
27.03944333989767
 20
0.8111039962818567
 30
0.0
 11
27.04551286283073
 21
0.8104191644353669
 31
0.0
  0
LINE
  5
531
330
18
100
AcDbEntity
  8
1
 62
     1
100
AcDbLine
 10
27.04551286283073
 20
0.8104191644353669
 30
0.0
 11
27.05153770369425
 21
0.8094881786206145
 31
0.0
  0
LINE
  5
532
330
18
100
AcDbEntity
  8
1
 62
     1
100
AcDbLine
 10
27.05153770369425
 20
0.8094881786206145
 30
0.0
 11
27.05751788060136
 21
0.8083133901454189
 31
0.0
  0
LINE
  5
533
330
18
100
AcDbEntity
  8
1
 62
     1
100
AcDbLine
 10
27.05751788060136
 20
0.8083133901454189
 30
0.0
 11
27.06345298923242
 21
0.8068971703339947
 31
0.0
  0
LINE
  5
534
330
18
100
AcDbEntity
  8
1
 62
     1
100
AcDbLine
 10
27.06345298923242
 20
1.279524630851235
 30
0.0
 11
27.06345298923242
 21
0.8068971703340008
 31
0.0
  0
LINE
  5
535
330
18
100
AcDbEntity
  8
1
 62
     1
100
AcDbLine
 10
26.85
 20
0.7218000910270271
 30
0.0
 11
26.85
 21
0.9302887500000001
 31
0.0
  0
ARC
  5
536
330
18
100
AcDbEntity
  8
1
 62
     1
100
AcDbCircle
 10
18.3821459533196
 20
-3.622168587411635
 30
0.0
 40
9.517118366060467
100
AcDbArc
 50
27.15760694627758
 51
29.85120703194256
  0
LINE
  5
537
330
18
100
AcDbEntity
  8
1
 62
     1
100
AcDbLine
 10
26.63654701076759
 20
1.3
 30
0.0
 11
26.63654701076759
 21
1.299960731303164
 31
0.0
  0
LINE
  5
538
330
18
100
AcDbEntity
  8
1
 62
     1
100
AcDbLine
 10
26.63654701076759
 20
1.299960731303164
 30
0.0
 11
26.63654701076759
 21
1.288097914399841
 31
0.0
  0
LINE
  5
539
330
18
100
AcDbEntity
  8
1
 62
     1
100
AcDbLine
 10
26.63654701076759
 20
1.288097914399841
 30
0.0
 11
26.63654701076759
 21
1.114973371959038
 31
0.0
  0
LINE
  5
53A
330
18
100
AcDbEntity
  8
1
 62
     1
100
AcDbLine
 10
26.39999999999999
 20
0.888176634153009
 30
0.0
 11
26.45802645039875
 21
0.9693717560663849
 31
0.0
  0
LINE
  5
53B
330
18
100
AcDbEntity
  8
1
 62
     1
100
AcDbLine
 10
26.45802645039875
 20
0.9693717560663849
 30
0.0
 11
26.48587188240807
 21
1.004812212134617
 31
0.0
  0
LINE
  5
53C
330
18
100
AcDbEntity
  8
1
 62
     1
100
AcDbLine
 10
26.48587188240807
 20
1.004812212134617
 30
0.0
 11
26.51293284099576
 21
1.03669237895925
 31
0.0
  0
LINE
  5
53D
330
18
100
AcDbEntity
  8
1
 62
     1
100
AcDbLine
 10
26.51293284099576
 20
1.03669237895925
 30
0.0
 11
26.53920056253801
 21
1.064940844787491
 31
0.0
  0
LINE
  5
53E
330
18
100
AcDbEntity
  8
1
 62
     1
100
AcDbLine
 10
26.53920056253801
 20
1.064940844787491
 30
0.0
 11
26.56469640588386
 21
1.089542574712004
 31
0.0
  0
LINE
  5
53F
330
18
100
AcDbEntity
  8
1
 62
     1
100
AcDbLine
 10
26.56469640588386
 20
1.089542574712004
 30
0.0
 11
26.57716306474046
 21
1.100476118146362
 31
0.0
  0
LINE
  5
540
330
18
100
AcDbEntity
  8
1
 62
     1
100
AcDbLine
 10
26.57716306474046
 20
1.100476118146362
 30
0.0
 11
26.58944339506229
 21
1.110498588835028
 31
0.0
  0
LINE
  5
541
330
18
100
AcDbEntity
  8
1
 62
     1
100
AcDbLine
 10
26.58944339506229
 20
1.110498588835028
 30
0.0
 11
26.601537732743
 21
1.119610001128863
 31
0.0
  0
LINE
  5
542
330
18
100
AcDbEntity
  8
1
 62
     1
100
AcDbLine
 10
26.601537732743
 20
1.119610001128863
 30
0.0
 11
26.61345298923242
 21
1.127817656195365
 31
0.0
  0
LINE
  5
543
330
18
100
AcDbEntity
  8
1
 62
     1
100
AcDbLine
 10
26.61345298923241
 20
1.3
 30
0.0
 11
26.61345298923241
 21
1.299963369607281
 31
0.0
  0
LINE
  5
544
330
18
100
AcDbEntity
  8
1
 62
     1
100
AcDbLine
 10
26.61345298923241
 20
1.299963369607281
 30
0.0
 11
26.61345298923241
 21
1.288914119614716
 31
0.0
  0
LINE
  5
545
330
18
100
AcDbEntity
  8
1
 62
     1
100
AcDbLine
 10
26.61345298923241
 20
1.288914119614716
 30
0.0
 11
26.61345298923241
 21
1.127817656195395
 31
0.0
  0
LINE
  5
546
330
18
100
AcDbEntity
  8
1
 62
     1
100
AcDbLine
 10
26.4
 20
0.8881766341530085
 30
0.0
 11
26.4
 21
0.9302887500000001
 31
0.0
  0
ARC
  5
547
330
18
100
AcDbEntity
  8
1
 62
     1
100
AcDbCircle
 10
45.01368999772703
 20
-9.771805344485278
 30
0.0
 40
21.86086188361451
100
AcDbArc
 50
150.2005973848769
 51
150.6973071519453
  0
LINE
  5
548
330
18
100
AcDbEntity
  8
1
 62
     1
100
AcDbLine
 10
26.16345298923241
 20
1.3
 30
0.0
 11
26.16345298923241
 21
1.299997054587275
 31
0.0
  0
LINE
  5
549
330
18
100
AcDbEntity
  8
1
 62
     1
100
AcDbLine
 10
26.16345298923241
 20
1.299997054587275
 30
0.0
 11
26.16345298923241
 21
1.299136924121075
 31
0.0
  0
LINE
  5
54A
330
18
100
AcDbEntity
  8
1
 62
     1
100
AcDbLine
 10
26.16345298923241
 20
1.299136924121075
 30
0.0
 11
26.16345298923241
 21
1.287298760175579
 31
0.0
  0
ARC
  5
54B
330
18
100
AcDbEntity
  8
1
 62
     1
100
AcDbCircle
 10
26.27201794626896
 20
-0.0536845221803184
 30
0.0
 40
1.215310094678848
100
AcDbArc
 50
239.7098634383082
 51
247.2685068843624
  0
LINE
  5
54C
330
18
100
AcDbEntity
  8
1
 62
     1
100
AcDbLine
 10
25.80241028113299
 20
1.164334504832099
 30
0.0
 11
25.95
 21
0.9274167080042517
 31
0.0
  0
ARC
  5
54D
330
18
100
AcDbEntity
  8
1
 62
     1
100
AcDbCircle
 10
13.88566021597938
 20
-5.618406917420147
 30
0.0
 40
14.10488262863294
100
AcDbArc
 50
27.4712848304858
 51
29.29639889218731
  0
LINE
  5
54E
330
18
100
AcDbEntity
  8
1
 62
     1
100
AcDbLine
 10
26.18654701076759
 20
1.3
 30
0.0
 11
26.18654701076758
 21
1.299996200539851
 31
0.0
  0
LINE
  5
54F
330
18
100
AcDbEntity
  8
1
 62
     1
100
AcDbLine
 10
26.18654701076758
 20
1.299996200539851
 30
0.0
 11
26.18654701076759
 21
1.298884625195996
 31
0.0
  0
LINE
  5
550
330
18
100
AcDbEntity
  8
1
 62
     1
100
AcDbLine
 10
26.18654701076759
 20
1.298884625195996
 30
0.0
 11
26.18654701076759
 21
1.283512251899142
 31
0.0
  0
ARC
  5
551
330
18
100
AcDbEntity
  8
1
 62
     1
100
AcDbCircle
 10
26.15145190895515
 20
-2.335151813566894
 30
0.0
 40
4.659143141687253
100
AcDbArc
 50
34.30788379510289
 51
36.43685612331611
  0
LINE
  5
552
330
18
100
AcDbEntity
  8
1
 62
     1
100
AcDbLine
 10
30.0
 20
0.9234410930016024
 30
0.0
 11
30.0
 21
0.335719372489841
 31
0.0
  0
LINE
  5
553
330
18
100
AcDbEntity
  8
1
 62
     1
100
AcDbLine
 10
27.51345298923242
 20
-1.147739644019699
 30
0.0
 11
27.51345298923242
 21
-1.3
 31
0.0
  0
LINE
  5
554
330
18
100
AcDbEntity
  8
1
 62
     1
100
AcDbLine
 10
26.61345298923241
 20
-0.4097757613597406
 30
0.0
 11
26.61345298923241
 21
-1.123837842152587
 31
0.0
  0
LINE
  5
555
330
18
100
AcDbEntity
  8
1
 62
     1
100
AcDbLine
 10
26.16345298923241
 20
0.0778964551199215
 30
0.0
 11
26.16345298923241
 21
-0.8006411841344131
 31
0.0
  0
LINE
  5
556
330
18
100
AcDbEntity
  8
1
 62
     1
100
AcDbLine
 10
28.43654701076758
 20
1.299343666258418
 30
0.0
 11
28.50550111335818
 21
1.180568047101527
 31
0.0
  0
LINE
  5
557
330
18
100
AcDbEntity
  8
1
 62
     1
100
AcDbLine
 10
28.50550111335818
 20
1.180568047101527
 30
0.0
 11
28.50550267971276
 21
1.18056533409668
 31
0.0
  0
LINE
  5
558
330
18
100
AcDbEntity
  8
1
 62
     1
100
AcDbLine
 10
28.65
 20
0.9245815941798575
 30
0.0
 11
28.65
 21
0.9302887500000001
 31
0.0
  0
LINE
  5
559
330
18
100
AcDbEntity
  8
1
 62
     1
100
AcDbLine
 10
28.88654701076759
 20
1.3
 30
0.0
 11
28.88654701076759
 21
1.299982842577677
 31
0.0
  0
LINE
  5
55A
330
18
100
AcDbEntity
  8
1
 62
     1
100
AcDbLine
 10
28.88654701076759
 20
1.299982842577677
 30
0.0
 11
28.88654701076759
 21
1.294878332437675
 31
0.0
  0
LINE
  5
55B
330
18
100
AcDbEntity
  8
1
 62
     1
100
AcDbLine
 10
28.88654701076759
 20
1.294878332437675
 30
0.0
 11
28.88654701076759
 21
1.221692473612213
 31
0.0
  0
ARC
  5
55C
330
18
100
AcDbEntity
  8
1
 62
     1
100
AcDbCircle
 10
18.69101852266738
 20
-4.458897122264053
 30
0.0
 40
11.67122884809983
100
AcDbArc
 50
26.89257046830799
 51
29.12501292787681
  0
LINE
  5
55D
330
18
100
AcDbEntity
  8
1
 62
     1
100
AcDbLine
 10
29.09999999999999
 20
0.8201835635776054
 30
0.0
 11
29.1
 21
0.9302887500000001
 31
0.0
  0
ARC
  5
55E
330
18
100
AcDbEntity
  8
1
 62
     1
100
AcDbCircle
 10
-55.4453303744682
 20
45.47139045180276
 30
0.0
 40
94.7811621768237
100
AcDbArc
 50
331.9467600826123
 51
332.2217204285755
  0
ARC
  5
55F
330
18
100
AcDbEntity
  8
1
 62
     1
100
AcDbCircle
 10
-61.04655262894556
 20
-63.69156185914339
 30
0.0
 40
110.1663769910092
100
AcDbArc
 50
35.8934548008973
 51
36.08256560758201
  0
LINE
  5
560
330
18
100
AcDbEntity
  8
1
 62
     1
100
AcDbLine
 10
29.55
 20
0.598381780442749
 30
0.0
 11
29.54999999999999
 21
0.9252794581727111
 31
0.0
  0
LINE
  5
561
330
18
100
AcDbEntity
  8
1
 62
     1
100
AcDbLine
 10
29.69586779125662
 20
1.133706702586097
 30
0.0
 11
29.69586779125662
 21
0.6318641498643149
 31
0.0
  0
ARC
  5
562
330
18
100
AcDbEntity
  8
1
 62
     1
100
AcDbCircle
 10
-42.67627963711514
 20
-39.94191104698024
 30
0.0
 40
82.98640852905855
100
AcDbArc
 50
29.50211979194476
 51
29.7998518090218
  0
LINE
  5
563
330
18
100
AcDbEntity
  8
1
 62
     1
100
AcDbLine
 10
29.33654701076759
 20
1.299976294069644
 30
0.0
 11
29.33654701076759
 21
1.294824319160346
 31
0.0
  0
LINE
  5
564
330
18
100
AcDbEntity
  8
1
 62
     1
100
AcDbLine
 10
29.33654701076759
 20
1.294824319160346
 30
0.0
 11
29.33654701076759
 21
0.9691643436639507
 31
0.0
  0
ARC
  5
565
330
18
100
AcDbEntity
  8
1
 62
     1
100
AcDbCircle
 10
22.92746807925308
 20
-2.967385089000777
 30
0.0
 40
7.521486265845344
100
AcDbArc
 50
28.29933481981812
 51
31.55885076544192
  0
LINE
  5
566
330
18
100
AcDbEntity
  8
1
 62
     1
100
AcDbLine
 10
27.73086327862604
 20
0.7554046424592104
 30
0.0
 11
27.75
 21
0.7403356479484733
 31
0.0
  0
ARC
  5
567
330
18
100
AcDbEntity
  8
1
 62
     1
100
AcDbCircle
 10
23.89434318139612
 20
2.874745121108147
 30
0.0
 40
4.407138142340473
100
AcDbArc
 50
331.0320206398884
 51
337.3959087804996
  0
LINE
  5
568
330
18
100
AcDbEntity
  8
1
 62
     1
100
AcDbLine
 10
29.09999999999999
 20
0.8201835635776055
 30
0.0
 11
29.12939286834101
 21
0.8551564693974779
 31
0.0
  0
LINE
  5
569
330
18
100
AcDbEntity
  8
1
 62
     1
100
AcDbLine
 10
29.12939286834101
 20
0.8551564693974779
 30
0.0
 11
29.15802644137994
 21
0.8860350594936806
 31
0.0
  0
LINE
  5
56A
330
18
100
AcDbEntity
  8
1
 62
     1
100
AcDbLine
 10
29.15802644137994
 20
0.8860350594936806
 30
0.0
 11
29.18587187849672
 21
0.9127935424274929
 31
0.0
  0
LINE
  5
56B
330
18
100
AcDbEntity
  8
1
 62
     1
100
AcDbLine
 10
29.18587187849672
 20
0.9127935424274929
 30
0.0
 11
29.19950078082704
 21
0.9246327158055154
 31
0.0
  0
LINE
  5
56C
330
18
100
AcDbEntity
  8
1
 62
     1
100
AcDbLine
 10
29.19950078082704
 20
0.9246327158055154
 30
0.0
 11
29.21293283950658
 21
0.9354488722473995
 31
0.0
  0
LINE
  5
56D
330
18
100
AcDbEntity
  8
1
 62
     1
100
AcDbLine
 10
29.21293283950658
 20
0.9354488722473995
 30
0.0
 11
29.22616213433155
 21
0.9452407112661605
 31
0.0
  0
LINE
  5
56E
330
18
100
AcDbEntity
  8
1
 62
     1
100
AcDbLine
 10
29.22616213433155
 20
0.9452407112661605
 30
0.0
 11
29.23920054703443
 21
0.9540221123160315
 31
0.0
  0
LINE
  5
56F
330
18
100
AcDbEntity
  8
1
 62
     1
100
AcDbLine
 10
29.23920054703443
 20
0.9540221123160315
 30
0.0
 11
29.2520458785294
 21
0.9617983540126279
 31
0.0
  0
LINE
  5
570
330
18
100
AcDbEntity
  8
1
 62
     1
100
AcDbLine
 10
29.2520458785294
 20
0.9617983540126279
 30
0.0
 11
29.26469636274088
 21
0.9685744783820983
 31
0.0
  0
LINE
  5
571
330
18
100
AcDbEntity
  8
1
 62
     1
100
AcDbLine
 10
29.26469636274088
 20
0.9685744783820983
 30
0.0
 11
29.27716302350024
 21
0.9743644576401689
 31
0.0
  0
LINE
  5
572
330
18
100
AcDbEntity
  8
1
 62
     1
100
AcDbLine
 10
29.27716302350024
 20
0.9743644576401689
 30
0.0
 11
29.28944335036569
 21
0.9791760508125134
 31
0.0
  0
LINE
  5
573
330
18
100
AcDbEntity
  8
1
 62
     1
100
AcDbLine
 10
29.28944335036569
 20
0.9791760508125134
 30
0.0
 11
29.30153770991499
 21
0.9830181579984708
 31
0.0
  0
LINE
  5
574
330
18
100
AcDbEntity
  8
1
 62
     1
100
AcDbLine
 10
29.30153770991499
 20
0.9830181579984708
 30
0.0
 11
29.30751788280635
 21
0.9845798852990082
 31
0.0
  0
LINE
  5
575
330
18
100
AcDbEntity
  8
1
 62
     1
100
AcDbLine
 10
29.30751788280635
 20
0.9845798852990082
 30
0.0
 11
29.31345298923242
 21
0.9859036850794137
 31
0.0
  0
LINE
  5
576
330
18
100
AcDbEntity
  8
1
 62
     1
100
AcDbLine
 10
29.31345298923242
 20
1.3
 30
0.0
 11
29.31345298923242
 21
1.299934181353555
 31
0.0
  0
LINE
  5
577
330
18
100
AcDbEntity
  8
1
 62
     1
100
AcDbLine
 10
29.31345298923242
 20
1.299934181353555
 30
0.0
 11
29.31345298923242
 21
1.279801081026665
 31
0.0
  0
LINE
  5
578
330
18
100
AcDbEntity
  8
1
 62
     1
100
AcDbLine
 10
29.31345298923242
 20
1.279801081026665
 30
0.0
 11
29.31345298923242
 21
0.9859036850794072
 31
0.0
  0
LINE
  5
579
330
18
100
AcDbEntity
  8
1
 62
     1
100
AcDbLine
 10
28.65
 20
0.9245815941798579
 30
0.0
 11
28.76293283685217
 21
1.101270005523712
 31
0.0
  0
LINE
  5
57A
330
18
100
AcDbEntity
  8
1
 62
     1
100
AcDbLine
 10
28.76293283685217
 20
1.101270005523712
 30
0.0
 11
28.81469640671727
 21
1.172111387151895
 31
0.0
  0
LINE
  5
57B
330
18
100
AcDbEntity
  8
1
 62
     1
100
AcDbLine
 10
28.81469640671727
 20
1.172111387151895
 30
0.0
 11
28.83944340525633
 21
1.2027582389626
 31
0.0
  0
LINE
  5
57C
330
18
100
AcDbEntity
  8
1
 62
     1
100
AcDbLine
 10
28.83944340525633
 20
1.2027582389626
 30
0.0
 11
28.86345298923241
 21
1.230139356520528
 31
0.0
  0
LINE
  5
57D
330
18
100
AcDbEntity
  8
1
 62
     1
100
AcDbLine
 10
28.86345298923241
 20
1.3
 30
0.0
 11
28.86345298923241
 21
1.2999846270464
 31
0.0
  0
LINE
  5
57E
330
18
100
AcDbEntity
  8
1
 62
     1
100
AcDbLine
 10
28.86345298923241
 20
1.2999846270464
 30
0.0
 11
28.86345298923241
 21
1.295418545885134
 31
0.0
  0
LINE
  5
57F
330
18
100
AcDbEntity
  8
1
 62
     1
100
AcDbLine
 10
28.86345298923241
 20
1.295418545885134
 30
0.0
 11
28.86345298923241
 21
1.230139356520537
 31
0.0
  0
ARC
  5
580
330
18
100
AcDbEntity
  8
1
 62
     1
100
AcDbCircle
 10
31.96376433702295
 20
-4.20098687612421
 30
0.0
 40
6.532771529467206
100
AcDbArc
 50
148.396458647275
 51
152.1703235037345
  0
LINE
  5
581
330
18
100
AcDbEntity
  8
1
 62
     1
100
AcDbLine
 10
25.80241028113299
 20
-1.174586790924697
 30
0.0
 11
25.95
 21
-0.9116851338779663
 31
0.0
  0
ARC
  5
582
330
18
100
AcDbEntity
  8
1
 62
     1
100
AcDbCircle
 10
24.93866157055912
 20
-0.5754480869408944
 30
0.0
 40
1.337370853345326
100
AcDbArc
 50
49.77167318043037
 51
61.81720253827182
  0
ARC
  5
583
330
18
100
AcDbEntity
  8
1
 62
     1
100
AcDbCircle
 10
23.43080528739126
 20
-2.261940963493144
 30
0.0
 40
3.023127042910871
100
AcDbArc
 50
38.32766841132912
 51
44.95027363004624
  0
ARC
  5
584
330
18
100
AcDbEntity
  8
1
 62
     1
100
AcDbCircle
 10
27.21002479284757
 20
-0.0604702965061538
 30
0.0
 40
1.520501261404456
100
AcDbArc
 50
214.0411522469816
 51
226.4852475265144
  0
ARC
  5
585
330
18
100
AcDbEntity
  8
1
 62
     1
100
AcDbCircle
 10
26.71781621039045
 20
-0.3495001853365142
 30
0.0
 40
0.5332183715913377
100
AcDbArc
 50
233.4142279124598
 51
243.1472332105533
  0
LINE
  5
586
330
18
100
AcDbEntity
  8
1
 62
     1
100
AcDbLine
 10
25.57017938353468
 20
-1.047854731837711
 30
0.0
 11
25.57017938353467
 21
-1.051842951251229
 31
0.0
  0
LINE
  5
587
330
18
100
AcDbEntity
  8
1
 62
     1
100
AcDbLine
 10
30.53818548448275
 20
0.5268145155172522
 30
0.0
 11
31.065
 21
0.0
 31
0.0
  0
ARC
  5
588
330
18
100
AcDbEntity
  8
1
 62
     1
100
AcDbCircle
 10
33.15094712016345
 20
3.517862462827061
 30
0.0
 40
4.081312684652866
100
AcDbArc
 50
219.4672991008023
 51
225.3753054517363
  0
ARC
  5
589
330
18
100
AcDbEntity
  8
1
 62
     1
100
AcDbCircle
 10
29.05312526418535
 20
0.7522864988009381
 30
0.0
 40
1.923178028741654
100
AcDbArc
 50
299.5017613761335
 51
309.7926306772007
  0
ARC
  5
58A
330
18
100
AcDbEntity
  8
1
 62
     1
100
AcDbCircle
 10
30.07954101311514
 20
0.246126732344512
 30
0.0
 40
1.170119823737432
100
AcDbArc
 50
250.8594784736048
 51
261.1632360032115
  0
LINE
  5
58B
330
18
100
AcDbEntity
  8
1
 62
     1
100
AcDbLine
 10
27.98654701076758
 20
0.7471460174704603
 30
0.0
 11
27.98654701076758
 21
-0.1442423817923615
 31
0.0
  0
LINE
  5
58C
330
18
100
AcDbEntity
  8
1
 62
     1
100
AcDbLine
 10
27.08654701076759
 20
1.274791451391063
 30
0.0
 11
27.08654701076758
 21
0.7868337179533246
 31
0.0
  0
LINE
  5
58D
330
18
100
AcDbEntity
  8
1
 62
     1
100
AcDbLine
 10
26.61345298923241
 20
1.3
 30
0.0
 11
26.63654701076759
 21
1.3
 31
0.0
  0
LINE
  5
58E
330
18
100
AcDbEntity
  8
1
 62
     1
100
AcDbLine
 10
26.16345298923241
 20
1.3
 30
0.0
 11
26.18654701076759
 21
1.3
 31
0.0
  0
ARC
  5
58F
330
18
100
AcDbEntity
  8
1
 62
     1
100
AcDbCircle
 10
38.94564775564076
 20
-6.823057528252755
 30
0.0
 40
11.89770936473744
100
AcDbArc
 50
149.9235097793815
 51
152.0413085111004
  0
LINE
  5
590
330
18
100
AcDbEntity
  8
1
 62
     1
100
AcDbLine
 10
28.88654701076759
 20
-1.016865560571667
 30
0.0
 11
28.9130206845754
 21
-0.9692909337475366
 31
0.0
  0
ARC
  5
591
330
18
100
AcDbEntity
  8
1
 62
     1
100
AcDbCircle
 10
30.78029103680119
 20
0.5458748248465015
 30
0.0
 40
2.972619812696471
100
AcDbArc
 50
209.7728774278961
 51
217.2215420583595
  0
ARC
  5
592
330
18
100
AcDbEntity
  8
1
 62
     1
100
AcDbCircle
 10
12.20802297855593
 20
8.168873871038217
 30
0.0
 40
18.39905600714071
100
AcDbArc
 50
329.0451836951651
 51
330.1869194611505
  0
LINE
  5
593
330
18
100
AcDbEntity
  8
1
 62
     1
100
AcDbLine
 10
27.98654701076759
 20
-1.294892508926953
 30
0.0
 11
27.98654701076759
 21
-1.3
 31
0.0
  0
LINE
  5
594
330
18
100
AcDbEntity
  8
1
 62
     1
100
AcDbLine
 10
28.17207097865023
 20
-0.9786632114288704
 30
0.0
 11
27.98654701076759
 21
-1.299999999999996
 31
0.0
  0
ARC
  5
595
330
18
100
AcDbEntity
  8
1
 62
     1
100
AcDbCircle
 10
-10.84691560453709
 20
-18.33356405984708
 30
0.0
 40
42.03405251646575
100
AcDbArc
 50
24.13285140649787
 51
24.83452952258121
  0
LINE
  5
596
330
18
100
AcDbEntity
  8
1
 62
     1
100
AcDbLine
 10
27.3
 20
-0.9302887500000001
 30
0.0
 11
27.29999999999999
 21
-0.9302362055305681
 31
0.0
  0
LINE
  5
597
330
18
100
AcDbEntity
  8
1
 62
     1
100
AcDbLine
 10
27.29999999999999
 20
-0.9302362055305681
 30
0.0
 11
27.29999999999999
 21
-0.9141158087635769
 31
0.0
  0
LINE
  5
598
330
18
100
AcDbEntity
  8
1
 62
     1
100
AcDbLine
 10
27.29999999999999
 20
-0.9141158087635769
 30
0.0
 11
27.3
 21
-0.6793089824018806
 31
0.0
  0
LINE
  5
599
330
18
100
AcDbEntity
  8
1
 62
     1
100
AcDbLine
 10
27.51345298923242
 20
-1.300000000000015
 30
0.0
 11
27.3
 21
-0.9302887500000001
 31
0.0
  0
ARC
  5
59A
330
18
100
AcDbEntity
  8
1
 62
     1
100
AcDbCircle
 10
26.60372456813259
 20
-0.0682690714044196
 30
0.0
 40
0.9257675812858597
100
AcDbArc
 50
301.439598305143
 51
318.7303419486244
  0
LINE
  5
59B
330
18
100
AcDbEntity
  8
1
 62
     1
100
AcDbLine
 10
27.08654701076759
 20
-0.8580313225406303
 30
0.0
 11
27.08654701076759
 21
-1.289614116961087
 31
0.0
  0
ARC
  5
59C
330
18
100
AcDbEntity
  8
1
 62
     1
100
AcDbCircle
 10
7.936955034650506
 20
10.34766060198986
 30
0.0
 40
22.40830094849934
100
AcDbArc
 50
328.7128020612523
 51
329.6996880435463
  0
ARC
  5
59D
330
18
100
AcDbEntity
  8
1
 62
     1
100
AcDbCircle
 10
24.98380252782
 20
0.9234490731155705
 30
0.0
 40
3.294732633749693
100
AcDbArc
 50
320.7875100838925
 51
327.0892703287221
  0
LINE
  5
59E
330
18
100
AcDbEntity
  8
1
 62
     1
100
AcDbLine
 10
27.53654701076758
 20
-1.159445312233706
 30
0.0
 11
27.53654701076759
 21
-1.3
 31
0.0
  0
LINE
  5
59F
330
18
100
AcDbEntity
  8
1
 62
     1
100
AcDbLine
 10
27.75
 20
-0.9302887500000001
 30
0.0
 11
27.53654701076759
 21
-1.299999999999996
 31
0.0
  0
LINE
  5
5A0
330
18
100
AcDbEntity
  8
1
 62
     1
100
AcDbLine
 10
27.75
 20
-0.9302887500000001
 30
0.0
 11
27.75
 21
-0.930274909708007
 31
0.0
  0
LINE
  5
5A1
330
18
100
AcDbEntity
  8
1
 62
     1
100
AcDbLine
 10
27.75
 20
-0.930274909708007
 30
0.0
 11
27.75
 21
-0.9261494868853896
 31
0.0
  0
LINE
  5
5A2
330
18
100
AcDbEntity
  8
1
 62
     1
100
AcDbLine
 10
27.75
 20
-0.9261494868853896
 30
0.0
 11
27.75
 21
-0.8668192363453036
 31
0.0
  0
ARC
  5
5A3
330
18
100
AcDbEntity
  8
1
 62
     1
100
AcDbCircle
 10
38.71570063714054
 20
4.362000174525187
 30
0.0
 40
12.14851842727454
100
AcDbArc
 50
205.4933955578191
 51
207.7390050022701
  0
LINE
  5
5A4
330
18
100
AcDbEntity
  8
1
 62
     1
100
AcDbLine
 10
27.96345298923241
 20
-1.292396744811672
 30
0.0
 11
27.96345298923241
 21
-1.3
 31
0.0
  0
ARC
  5
5A5
330
18
100
AcDbEntity
  8
1
 62
     1
100
AcDbCircle
 10
29.23331086701377
 20
-0.3587636660200363
 30
0.0
 40
0.7692819022810349
100
AcDbArc
 50
220.7017995693994
 51
241.2344517622404
  0
ARC
  5
5A6
330
18
100
AcDbEntity
  8
1
 62
     1
100
AcDbCircle
 10
26.50694029786731
 20
0.4268244290153326
 30
0.0
 40
0.492562227360159
100
AcDbArc
 50
229.4363899582154
 51
257.4440572670677
  0
LINE
  5
5A7
330
18
100
AcDbEntity
  8
1
 62
     1
100
AcDbLine
 10
26.18654701076759
 20
0.052534323512693
 30
0.0
 11
26.18654701076759
 21
-0.8204939910442386
 31
0.0
  0
ARC
  5
5A8
330
18
100
AcDbEntity
  8
1
 62
     1
100
AcDbCircle
 10
28.1709052558219
 20
-3.691601062552735
 30
0.0
 40
3.490176699714139
100
AcDbArc
 50
120.4878605633541
 51
124.6501895197022
  0
ARC
  5
5A9
330
18
100
AcDbEntity
  8
1
 62
     1
100
AcDbCircle
 10
26.65855503860701
 20
1.137971073237856
 30
0.0
 40
1.101010120777
100
AcDbArc
 50
218.9612838473168
 51
229.9337340138745
  0
LINE
  5
5AA
330
18
100
AcDbEntity
  8
1
 62
     1
100
AcDbLine
 10
25.80241028113299
 20
0.4456360758540742
 30
0.0
 11
25.80241028113299
 21
-0.3870999207003278
 31
0.0
  0
ARC
  5
5AB
330
18
100
AcDbEntity
  8
1
 62
     1
100
AcDbCircle
 10
25.7396441500712
 20
-1.892780762154724
 30
0.0
 40
1.507005222389277
100
AcDbArc
 50
81.97656396901759
 51
87.61293803483365
  0
LINE
  5
5AC
330
18
100
AcDbEntity
  8
1
 62
     1
100
AcDbLine
 10
25.95
 20
-0.4004505001945555
 30
0.0
 11
25.95
 21
0.2955287145060889
 31
0.0
  0
ARC
  5
5AD
330
18
100
AcDbEntity
  8
1
 62
     1
100
AcDbCircle
 10
28.51931423544453
 20
-2.270244308254918
 30
0.0
 40
4.379299022552416
100
AcDbArc
 50
128.345557777369
 51
132.3294043301843
  0
ARC
  5
5AE
330
18
100
AcDbEntity
  8
1
 62
     1
100
AcDbCircle
 10
25.61471527052689
 20
-0.1966575282440168
 30
0.0
 40
0.5955376575940919
100
AcDbArc
 50
50.45753103780876
 51
55.73671572014274
  0
LINE
  5
5AF
330
18
100
AcDbEntity
  8
1
 62
     1
100
AcDbLine
 10
25.95
 20
-0.400450500194557
 30
0.0
 11
25.97939287540918
 21
-0.4408646598181271
 31
0.0
  0
LINE
  5
5B0
330
18
100
AcDbEntity
  8
1
 62
     1
100
AcDbLine
 10
25.97939287540918
 20
-0.4408646598181271
 30
0.0
 11
26.00802645062641
 21
-0.485041028182852
 31
0.0
  0
LINE
  5
5B1
330
18
100
AcDbEntity
  8
1
 62
     1
100
AcDbLine
 10
26.00802645062641
 20
-0.485041028182852
 30
0.0
 11
26.03587188355614
 21
-0.5323967267764215
 31
0.0
  0
LINE
  5
5B2
330
18
100
AcDbEntity
  8
1
 62
     1
100
AcDbLine
 10
26.03587188355614
 20
-0.5323967267764215
 30
0.0
 11
26.08920057204069
 21
-0.6346617527274787
 31
0.0
  0
LINE
  5
5B3
330
18
100
AcDbEntity
  8
1
 62
     1
100
AcDbLine
 10
26.08920057204069
 20
-0.6346617527274787
 30
0.0
 11
26.16345298923242
 21
-0.8006411841344219
 31
0.0
  0
ARC
  5
5B4
330
18
100
AcDbEntity
  8
1
 62
     1
100
AcDbCircle
 10
24.09911870020432
 20
-1.669425437801394
 30
0.0
 40
2.811806426318889
100
AcDbArc
 50
26.61029016360598
 51
35.08342845593317
  0
LINE
  5
5B5
330
18
100
AcDbEntity
  8
1
 62
     1
100
AcDbLine
 10
26.4
 20
-0.6837434206960532
 30
0.0
 11
26.4
 21
-0.0533329631353097
 31
0.0
  0
ARC
  5
5B6
330
18
100
AcDbEntity
  8
1
 62
     1
100
AcDbCircle
 10
23.29224467635059
 20
-2.456444192265106
 30
0.0
 40
3.577935370009963
100
AcDbArc
 50
21.86270073280357
 51
29.70095191067567
  0
ARC
  5
5B7
330
18
100
AcDbEntity
  8
1
 62
     1
100
AcDbCircle
 10
26.67827751351289
 20
-0.0659132830647176
 30
0.0
 40
0.3703188286902835
100
AcDbArc
 50
263.5283597251531
 51
297.5876750472016
  0
LINE
  5
5B8
330
18
100
AcDbEntity
  8
1
 62
     1
100
AcDbLine
 10
26.63654701076759
 20
-0.4337960540046329
 30
0.0
 11
26.63654701076759
 21
-1.136387182495743
 31
0.0
  0
ARC
  5
5B9
330
18
100
AcDbEntity
  8
1
 62
     1
100
AcDbCircle
 10
77.3947837286446
 20
-41.53085177996013
 30
0.0
 40
64.870003436403
100
AcDbArc
 50
141.1844165491152
 51
141.4864933090972
  0
ARC
  5
5BA
330
18
100
AcDbEntity
  8
1
 62
     1
100
AcDbCircle
 10
19.89509571540145
 20
-4.005953616368087
 30
0.0
 40
7.83667061157347
100
AcDbArc
 50
23.83705919206322
 51
27.44098055264487
  0
LINE
  5
5BB
330
18
100
AcDbEntity
  8
1
 62
     1
100
AcDbLine
 10
26.85
 20
-0.8691631075468023
 30
0.0
 11
26.85
 21
-0.3945602715443739
 31
0.0
  0
ARC
  5
5BC
330
18
100
AcDbEntity
  8
1
 62
     1
100
AcDbCircle
 10
14.56146955535517
 20
-7.404299681289039
 30
0.0
 40
13.91828352249622
100
AcDbArc
 50
26.07588469327431
 51
28.00439454302416
  0
LINE
  5
5BD
330
18
100
AcDbEntity
  8
1
 62
     1
100
AcDbLine
 10
27.06345298923242
 20
-0.8387913064891152
 30
0.0
 11
27.06345298923242
 21
-1.286164687535268
 31
0.0
  0
LINE
  5
5BE
330
18
100
AcDbEntity
  8
1
 62
     1
100
AcDbLine
 10
25.57017938353468
 20
0.6031772321437351
 30
0.0
 11
25.57017938353467
 21
-0.1262771261685726
 31
0.0
  0
ARC
  5
5BF
330
18
100
AcDbEntity
  8
1
 62
     1
100
AcDbCircle
 10
148.2251702314037
 20
63.91220550857825
 30
0.0
 40
135.2275577767107
100
AcDbArc
 50
208.646301452522
 51
208.7748144641213
  0
LINE
  5
5C0
330
18
100
AcDbEntity
  8
1
 62
     1
100
AcDbLine
 10
29.33654701076759
 20
-1.234942322844698
 30
0.0
 11
29.31345298923241
 21
-1.226774329800846
 31
0.0
  0
LINE
  5
5C1
330
18
100
AcDbEntity
  8
1
 62
     1
100
AcDbLine
 10
28.88654701076758
 20
-0.9956846768552432
 30
0.0
 11
28.86345298923241
 21
-0.979168391049015
 31
0.0
  0
LINE
  5
5C2
330
18
100
AcDbEntity
  8
1
 62
     1
100
AcDbLine
 10
28.43654701076758
 20
-0.6139013464732583
 30
0.0
 11
28.4134529892324
 21
-0.5914010549977509
 31
0.0
  0
LINE
  5
5C3
330
18
100
AcDbEntity
  8
1
 62
     1
100
AcDbLine
 10
27.98654701076759
 20
-0.1442423817923494
 30
0.0
 11
27.96345298923241
 21
-0.118978627484961
 31
0.0
  0
LINE
  5
5C4
330
18
100
AcDbEntity
  8
1
 62
     1
100
AcDbLine
 10
27.53654701076758
 20
0.3460640051545252
 30
0.0
 11
27.51345298923241
 21
0.3704746269646452
 31
0.0
  0
LINE
  5
5C5
330
18
100
AcDbEntity
  8
1
 62
     1
100
AcDbLine
 10
27.08654701076759
 20
0.786833717953328
 30
0.0
 11
27.06345298923242
 21
0.8068971703339894
 31
0.0
  0
LINE
  5
5C6
330
18
100
AcDbEntity
  8
1
 62
     1
100
AcDbLine
 10
26.63654701076759
 20
1.114973371959038
 30
0.0
 11
26.61345298923241
 21
1.127817656195393
 31
0.0
  0
LINE
  5
5C7
330
18
100
AcDbEntity
  8
1
 62
     1
100
AcDbLine
 10
26.18654701076758
 20
1.283512251899142
 30
0.0
 11
26.1634529892324
 21
1.287298760175579
 31
0.0
  0
LINE
  5
5C8
330
18
100
AcDbEntity
  8
1
 62
     1
100
AcDbLine
 10
25.5
 20
0.8339033455581589
 30
0.0
 11
25.57017938353467
 21
0.9674729929981447
 31
0.0
  0
LINE
  5
5C9
330
18
100
AcDbEntity
  8
1
 62
     1
100
AcDbLine
 10
25.480384758
 20
0.6286505219533809
 30
0.0
 11
25.5
 21
0.6020873100567138
 31
0.0
  0
ARC
  5
5CA
330
18
100
AcDbEntity
  8
1
 62
     1
100
AcDbCircle
 10
25.53973037164965
 20
0.3036856702380145
 30
0.0
 40
0.3010348399580769
100
AcDbArc
 50
84.1947419242506
 51
97.58398151624723
  0
LINE
  5
5CB
330
18
100
AcDbEntity
  8
1
 62
     1
100
AcDbLine
 10
26.18654701076759
 20
0.0525343235127038
 30
0.0
 11
26.16345298923241
 21
0.0778964551199091
 31
0.0
  0
LINE
  5
5CC
330
18
100
AcDbEntity
  8
1
 62
     1
100
AcDbLine
 10
26.63654701076758
 20
-0.433796054004618
 30
0.0
 11
26.61345298923242
 21
-0.4097757613597489
 31
0.0
  0
LINE
  5
5CD
330
18
100
AcDbEntity
  8
1
 62
     1
100
AcDbLine
 10
27.08654701076759
 20
-0.8580313225406244
 30
0.0
 11
27.06345298923242
 21
-0.8387913064891153
 31
0.0
  0
LINE
  5
5CE
330
18
100
AcDbEntity
  8
1
 62
     1
100
AcDbLine
 10
27.53654701076759
 20
-1.159445312233705
 30
0.0
 11
27.51345298923242
 21
-1.147739644019699
 31
0.0
  0
LINE
  5
5CF
330
18
100
AcDbEntity
  8
1
 62
     1
100
AcDbLine
 10
27.98654701076759
 20
-1.294892508926953
 30
0.0
 11
27.96345298923242
 21
-1.292396744811671
 31
0.0
  0
LINE
  5
5D0
330
18
100
AcDbEntity
  8
1
 62
     1
100
AcDbLine
 10
28.17207097865023
 20
-0.9786632114288697
 30
0.0
 11
28.2
 21
-0.9302501450489038
 31
0.0
  0
LINE
  5
5D1
330
18
100
AcDbEntity
  8
1
 62
     1
100
AcDbLine
 10
28.43654701076759
 20
-1.24498462060632
 30
0.0
 11
28.41345298923241
 21
-1.252056015495902
 31
0.0
  0
LINE
  5
5D2
330
18
100
AcDbEntity
  8
1
 62
     1
100
AcDbLine
 10
28.88654701076759
 20
-1.016865560571627
 30
0.0
 11
28.86345298923241
 21
-1.032491935989117
 31
0.0
  0
LINE
  5
5D3
330
18
100
AcDbEntity
  8
1
 62
     1
100
AcDbLine
 10
25.480384758
 20
-0.7559789108898445
 30
0.0
 11
25.480384758
 21
-0.0752580053330412
 31
0.0
  0
LINE
  5
5D4
330
18
100
AcDbEntity
  8
1
 62
     1
100
AcDbLine
 10
25.480384758
 20
-0.0752580053330412
 30
0.0
 11
25.48038475800001
 21
-0.043148031801122
 31
0.0
  0
LINE
  5
5D5
330
18
100
AcDbEntity
  8
1
 62
     1
100
AcDbLine
 10
30.28402891543995
 20
0.6131376326267436
 30
0.0
 11
30.34230235978917
 21
0.5599022046711583
 31
0.0
  0
LINE
  5
5D6
330
18
100
AcDbEntity
  8
1
 62
     1
100
AcDbLine
 10
30.34230235978917
 20
0.5599022046711583
 30
0.0
 11
30.37175271300713
 21
0.535863511243955
 31
0.0
  0
LINE
  5
5D7
330
18
100
AcDbEntity
  8
1
 62
     1
100
AcDbLine
 10
30.37175271300713
 20
0.535863511243955
 30
0.0
 11
30.40122623778994
 21
0.5139718990885769
 31
0.0
  0
LINE
  5
5D8
330
18
100
AcDbEntity
  8
1
 62
     1
100
AcDbLine
 10
30.40122623778994
 20
0.5139718990885769
 30
0.0
 11
30.43047188919277
 21
0.4946303004796834
 31
0.0
  0
LINE
  5
5D9
330
18
100
AcDbEntity
  8
1
 62
     1
100
AcDbLine
 10
30.43047188919277
 20
0.4946303004796834
 30
0.0
 11
30.4448976503971
 21
0.4860580278929058
 31
0.0
  0
LINE
  5
5DA
330
18
100
AcDbEntity
  8
1
 62
     1
100
AcDbLine
 10
30.4448976503971
 20
0.4860580278929058
 30
0.0
 11
30.45911544217986
 21
0.4783046337594691
 31
0.0
  0
LINE
  5
5DB
330
18
100
AcDbEntity
  8
1
 62
     1
100
AcDbLine
 10
30.45911544217986
 20
0.4783046337594691
 30
0.0
 11
30.47305710914707
 21
0.4714329175051876
 31
0.0
  0
LINE
  5
5DC
330
18
100
AcDbEntity
  8
1
 62
     1
100
AcDbLine
 10
30.47305710914707
 20
0.4714329175051876
 30
0.0
 11
30.48660212684404
 21
0.4655288783335306
 31
0.0
  0
LINE
  5
5DD
330
18
100
AcDbEntity
  8
1
 62
     1
100
AcDbLine
 10
30.48660212684404
 20
0.4655288783335306
 30
0.0
 11
30.49965146634294
 21
0.460664236855287
 31
0.0
  0
LINE
  5
5DE
330
18
100
AcDbEntity
  8
1
 62
     1
100
AcDbLine
 10
30.49965146634294
 20
0.460664236855287
 30
0.0
 11
30.51206272571671
 21
0.4569120698342126
 31
0.0
  0
LINE
  5
5DF
330
18
100
AcDbEntity
  8
1
 62
     1
100
AcDbLine
 10
30.53818548448276
 20
0.5268145155172657
 30
0.0
 11
30.53127317128801
 21
0.5334623906940149
 31
0.0
  0
LINE
  5
5E0
330
18
100
AcDbEntity
  8
1
 62
     1
100
AcDbLine
 10
30.53127317128801
 20
0.5334623906940149
 30
0.0
 11
30.51619981915384
 21
0.5465182109037625
 31
0.0
  0
LINE
  5
5E1
330
18
100
AcDbEntity
  8
1
 62
     1
100
AcDbLine
 10
30.51619981915384
 20
0.5465182109037625
 30
0.0
 11
30.49975673428003
 21
0.5591645614396168
 31
0.0
  0
LINE
  5
5E2
330
18
100
AcDbEntity
  8
1
 62
     1
100
AcDbLine
 10
30.49975673428003
 20
0.5591645614396168
 30
0.0
 11
30.48220945919347
 21
0.571339964059434
 31
0.0
  0
LINE
  5
5E3
330
18
100
AcDbEntity
  8
1
 62
     1
100
AcDbLine
 10
30.48220945919347
 20
0.571339964059434
 30
0.0
 11
30.46376355382221
 21
0.5830069214099991
 31
0.0
  0
LINE
  5
5E4
330
18
100
AcDbEntity
  8
1
 62
     1
100
AcDbLine
 10
30.46376355382221
 20
0.5830069214099991
 30
0.0
 11
30.44457960299289
 21
0.594143050507903
 31
0.0
  0
LINE
  5
5E5
330
18
100
AcDbEntity
  8
1
 62
     1
100
AcDbLine
 10
30.44457960299289
 20
0.594143050507903
 30
0.0
 11
30.40446119602508
 21
0.6147873702230205
 31
0.0
  0
LINE
  5
5E6
330
18
100
AcDbEntity
  8
1
 62
     1
100
AcDbLine
 10
30.40446119602508
 20
0.6147873702230205
 30
0.0
 11
30.36257154939889
 21
0.6332462924788171
 31
0.0
  0
LINE
  5
5E7
330
18
100
AcDbEntity
  8
1
 62
     1
100
AcDbLine
 10
30.36257154939889
 20
0.6332462924788171
 30
0.0
 11
30.31937889935721
 21
0.6495403324173038
 31
0.0
  0
LINE
  5
5E8
330
18
100
AcDbEntity
  8
1
 62
     1
100
AcDbLine
 10
30.31937889935721
 20
0.6495403324173038
 30
0.0
 11
30.27520245866151
 21
0.6637100986238555
 31
0.0
  0
LINE
  5
5E9
330
18
100
AcDbEntity
  8
1
 62
     1
100
AcDbLine
 10
30.27520245866151
 20
0.6637100986238555
 30
0.0
 11
30.21893181418373
 21
0.6785154452825639
 31
0.0
  0
LINE
  5
5EA
330
18
100
AcDbEntity
  8
1
 62
     1
100
AcDbLine
 10
27.08654701076759
 20
-1.289614116961089
 30
0.0
 11
27.06345298923241
 21
-1.286164687535267
 31
0.0
  0
LINE
  5
5EB
330
18
100
AcDbEntity
  8
1
 62
     1
100
AcDbLine
 10
26.63654701076758
 20
-1.136387182495739
 30
0.0
 11
26.61345298923241
 21
-1.123837842152585
 31
0.0
  0
LINE
  5
5EC
330
18
100
AcDbEntity
  8
1
 62
     1
100
AcDbLine
 10
26.18654701076758
 20
-0.8204939910442348
 30
0.0
 11
26.16345298923241
 21
-0.8006411841344132
 31
0.0
  0
LINE
  5
5ED
330
18
100
AcDbEntity
  8
1
 62
     1
100
AcDbLine
 10
25.5
 20
-0.0598357581482614
 30
0.0
 11
25.51390366718066
 21
-0.0703760723549287
 31
0.0
  0
LINE
  5
5EE
330
18
100
AcDbEntity
  8
1
 62
     1
100
AcDbLine
 10
25.480384758
 20
-0.947532745129409
 30
0.0
 11
25.5
 21
-0.915206517861926
 31
0.0
  0
LINE
  5
5EF
330
18
100
AcDbEntity
  8
1
 62
     1
100
AcDbLine
 10
25.5
 20
-0.915206517861926
 30
0.0
 11
25.57017938353467
 21
-1.047854731837713
 31
0.0
  0
LINE
  5
5F0
330
18
100
AcDbEntity
  8
1
 62
     1
100
AcDbLine
 10
26.18654701076758
 20
-1.151180540039231
 30
0.0
 11
26.16345298923242
 21
-1.162758312365125
 31
0.0
  0
LINE
  5
5F1
330
18
100
AcDbEntity
  8
1
 62
     1
100
AcDbLine
 10
29.33654701076759
 20
1.299976294069645
 30
0.0
 11
29.32940740714705
 21
1.3
 31
0.0
  0
ARC
  5
5F2
330
18
100
AcDbEntity
  8
1
 62
     1
100
AcDbCircle
 10
31.62152245981137
 20
-0.367514860637736
 30
0.0
 40
2.441804437309939
100
AcDbArc
 50
142.0603692485718
 51
148.0325660335212
  0
LINE
  5
5F3
330
18
100
AcDbEntity
  8
1
 62
     1
100
AcDbLine
 10
29.89978789249938
 20
0.9960402641811599
 30
0.0
 11
30.0
 21
0.8232378919288846
 31
0.0
  0
LINE
  5
5F4
330
18
100
AcDbEntity
  8
1
 62
     1
100
AcDbLine
 10
30.28402891543995
 20
-0.725476394165373
 30
0.0
 11
30.35658545153635
 21
-0.6628013501747061
 31
0.0
  0
LINE
  5
5F5
330
18
100
AcDbEntity
  8
1
 62
     1
100
AcDbLine
 10
30.35658545153635
 20
-0.6628013501747061
 30
0.0
 11
30.42962123709325
 21
-0.5923908414342691
 31
0.0
  0
LINE
  5
5F6
330
18
100
AcDbEntity
  8
1
 62
     1
100
AcDbLine
 10
30.42962123709325
 20
-0.5923908414342691
 30
0.0
 11
30.46510602283582
 21
-0.5546516385301041
 31
0.0
  0
LINE
  5
5F7
330
18
100
AcDbEntity
  8
1
 62
     1
100
AcDbLine
 10
30.46510602283582
 20
-0.5546516385301041
 30
0.0
 11
30.49852772955388
 21
-0.5155581426796608
 31
0.0
  0
LINE
  5
5F8
330
18
100
AcDbEntity
  8
1
 62
     1
100
AcDbLine
 10
30.49852772955388
 20
-0.5155581426796608
 30
0.0
 11
30.51391769239234
 21
-0.4956479398442228
 31
0.0
  0
LINE
  5
5F9
330
18
100
AcDbEntity
  8
1
 62
     1
100
AcDbLine
 10
30.51391769239234
 20
-0.4956479398442228
 30
0.0
 11
30.52804980445315
 21
-0.4755920796089834
 31
0.0
  0
LINE
  5
5FA
330
18
100
AcDbEntity
  8
1
 62
     1
100
AcDbLine
 10
30.52804980445315
 20
-0.4755920796089834
 30
0.0
 11
30.54056644391668
 21
-0.4555269658799626
 31
0.0
  0
LINE
  5
5FB
330
18
100
AcDbEntity
  8
1
 62
     1
100
AcDbLine
 10
30.54056644391668
 20
-0.4555269658799626
 30
0.0
 11
30.54611390169482
 21
-0.4455312317074088
 31
0.0
  0
LINE
  5
5FC
330
18
100
AcDbEntity
  8
1
 62
     1
100
AcDbLine
 10
30.54611390169482
 20
-0.4455312317074088
 30
0.0
 11
30.55112354218451
 21
-0.4356000584118673
 31
0.0
  0
LINE
  5
5FD
330
18
100
AcDbEntity
  8
1
 62
     1
100
AcDbLine
 10
30.55112354218451
 20
-0.4356000584118673
 30
0.0
 11
30.55556842398062
 21
-0.4257404141945399
 31
0.0
  0
LINE
  5
5FE
330
18
100
AcDbEntity
  8
1
 62
     1
100
AcDbLine
 10
30.55556842398062
 20
-0.4257404141945399
 30
0.0
 11
30.55941633026501
 21
-0.4159803863931434
 31
0.0
  0
LINE
  5
5FF
330
18
100
AcDbEntity
  8
1
 62
     1
100
AcDbLine
 10
30.55941633026501
 20
-0.4159803863931434
 30
0.0
 11
30.56265114722678
 21
-0.4063303022973992
 31
0.0
  0
LINE
  5
600
330
18
100
AcDbEntity
  8
1
 62
     1
100
AcDbLine
 10
30.56265114722678
 20
-0.4063303022973992
 30
0.0
 11
30.56525937384935
 21
-0.3968144438040163
 31
0.0
  0
LINE
  5
601
330
18
100
AcDbEntity
  8
1
 62
     1
100
AcDbLine
 10
30.56525937384935
 20
-0.3968144438040163
 30
0.0
 11
30.56724303270133
 21
-0.387437836113158
 31
0.0
  0
LINE
  5
602
330
18
100
AcDbEntity
  8
1
 62
     1
100
AcDbLine
 10
30.56724303270133
 20
-0.387437836113158
 30
0.0
 11
30.56860906039625
 21
-0.3782166260908008
 31
0.0
  0
LINE
  5
603
330
18
100
AcDbEntity
  8
1
 62
     1
100
AcDbLine
 10
30.56860906039625
 20
-0.3782166260908008
 30
0.0
 11
30.56937559056459
 21
-0.3691493165174022
 31
0.0
  0
LINE
  5
604
330
18
100
AcDbEntity
  8
1
 62
     1
100
AcDbLine
 10
30.56937559056459
 20
-0.3691493165174022
 30
0.0
 11
30.56956545004938
 21
-0.3602429622281086
 31
0.0
  0
LINE
  5
605
330
18
100
AcDbEntity
  8
1
 62
     1
100
AcDbLine
 10
30.56956545004938
 20
-0.3602429622281086
 30
0.0
 11
30.56920717177562
 21
-0.351490438849884
 31
0.0
  0
LINE
  5
606
330
18
100
AcDbEntity
  8
1
 62
     1
100
AcDbLine
 10
30.56920717177562
 20
-0.351490438849884
 30
0.0
 11
30.5683322614589
 21
-0.3428909456425199
 31
0.0
  0
LINE
  5
607
330
18
100
AcDbEntity
  8
1
 62
     1
100
AcDbLine
 10
30.5683322614589
 20
-0.3428909456425199
 30
0.0
 11
30.56697296884111
 21
-0.3344318654425444
 31
0.0
  0
LINE
  5
608
330
18
100
AcDbEntity
  8
1
 62
     1
100
AcDbLine
 10
30.56697296884111
 20
-0.3344318654425444
 30
0.0
 11
30.5651634295121
 21
-0.3261084757662646
 31
0.0
  0
LINE
  5
609
330
18
100
AcDbEntity
  8
1
 62
     1
100
AcDbLine
 10
30.5651634295121
 20
-0.3261084757662646
 30
0.0
 11
30.56293743539833
 21
-0.3179152425522946
 31
0.0
  0
LINE
  5
60A
330
18
100
AcDbEntity
  8
1
 62
     1
100
AcDbLine
 10
30.56293743539833
 20
-0.3179152425522946
 30
0.0
 11
30.56032534304977
 21
-0.3098364346502395
 31
0.0
  0
LINE
  5
60B
330
18
100
AcDbEntity
  8
1
 62
     1
100
AcDbLine
 10
30.56032534304977
 20
-0.3098364346502395
 30
0.0
 11
30.55735729640365
 21
-0.3018639873719502
 31
0.0
  0
LINE
  5
60C
330
18
100
AcDbEntity
  8
1
 62
     1
100
AcDbLine
 10
30.55735729640365
 20
-0.3018639873719502
 30
0.0
 11
30.5540629809427
 21
-0.2939899253639466
 31
0.0
  0
LINE
  5
60D
330
18
100
AcDbEntity
  8
1
 62
     1
100
AcDbLine
 10
30.5540629809427
 20
-0.2939899253639466
 30
0.0
 11
30.54659337319664
 21
-0.2784898198275949
 31
0.0
  0
LINE
  5
60E
330
18
100
AcDbEntity
  8
1
 62
     1
100
AcDbLine
 10
30.54659337319664
 20
-0.2784898198275949
 30
0.0
 11
30.53810221261828
 21
-0.2632659400683927
 31
0.0
  0
LINE
  5
60F
330
18
100
AcDbEntity
  8
1
 62
     1
100
AcDbLine
 10
30.53810221261828
 20
-0.2632659400683927
 30
0.0
 11
30.52874219940488
 21
-0.2482532198444224
 31
0.0
  0
LINE
  5
610
330
18
100
AcDbEntity
  8
1
 62
     1
100
AcDbLine
 10
30.52874219940488
 20
-0.2482532198444224
 30
0.0
 11
30.51864143057562
 21
-0.2333951353300786
 31
0.0
  0
LINE
  5
611
330
18
100
AcDbEntity
  8
1
 62
     1
100
AcDbLine
 10
30.51864143057562
 20
-0.2333951353300786
 30
0.0
 11
30.49662183540189
 21
-0.2039752899950034
 31
0.0
  0
LINE
  5
612
330
18
100
AcDbEntity
  8
1
 62
     1
100
AcDbLine
 10
30.49662183540189
 20
-0.2039752899950034
 30
0.0
 11
30.44731009880074
 21
-0.1454338782614845
 31
0.0
  0
LINE
  5
613
330
18
100
AcDbEntity
  8
1
 62
     1
100
AcDbLine
 10
30.44731009880074
 20
-0.1454338782614845
 30
0.0
 11
30.0
 21
0.3357193724898577
 31
0.0
  0
LINE
  5
614
330
18
100
AcDbEntity
  8
1
 62
     1
100
AcDbLine
 10
30.0
 20
0.2909257238685123
 30
0.0
 11
30.0
 21
0.3357193724898391
 31
0.0
  0
ARC
  5
615
330
18
100
AcDbEntity
  8
1
 62
     1
100
AcDbCircle
 10
29.66316754332709
 20
0.4432641029190978
 30
0.0
 40
0.1918874109552906
100
AcDbArc
 50
80.16361261945494
 51
126.1129682582898
  0
LINE
  5
616
330
18
100
AcDbEntity
  8
1
 62
     1
100
AcDbLine
 10
29.33654701076759
 20
0.9691643436639508
 30
0.0
 11
29.31345298923242
 21
0.9859036850794094
 31
0.0
  0
LINE
  5
617
330
18
100
AcDbEntity
  8
1
 62
     1
100
AcDbLine
 10
28.8865470107676
 20
1.221692473612209
 30
0.0
 11
28.86345298923241
 21
1.230139356520536
 31
0.0
  0
LINE
  5
618
330
18
100
AcDbEntity
  8
1
 62
     1
100
AcDbLine
 10
28.43654701076759
 20
1.299343666258415
 30
0.0
 11
28.41345298923241
 21
1.298288974708984
 31
0.0
  0
LINE
  5
619
330
18
100
AcDbEntity
  8
1
 62
     1
100
AcDbLine
 10
27.98654701076759
 20
1.191002597244091
 30
0.0
 11
27.9634529892324
 21
1.180597276719865
 31
0.0
  0
LINE
  5
61A
330
18
100
AcDbEntity
  8
1
 62
     1
100
AcDbLine
 10
27.08654701076759
 20
1.274791451391064
 30
0.0
 11
27.06345298923241
 21
1.279524630851235
 31
0.0
  0
LINE
  5
61B
330
18
100
AcDbEntity
  8
1
 62
     1
100
AcDbLine
 10
27.53654701076759
 20
1.088903297887974
 30
0.0
 11
27.51345298923241
 21
1.102566591472036
 31
0.0
  0
LINE
  5
61C
330
18
100
AcDbEntity
  8
1
 62
     1
100
AcDbLine
 10
27.98654701076759
 20
0.7471460174704587
 30
0.0
 11
27.96345298923241
 21
0.7677836943001559
 31
0.0
  0
LINE
  5
61D
330
18
100
AcDbEntity
  8
1
 62
     1
100
AcDbLine
 10
28.43654701076758
 20
0.2984398903514729
 30
0.0
 11
28.41345298923241
 21
0.323097664980187
 31
0.0
  0
LINE
  5
61E
330
18
100
AcDbEntity
  8
1
 62
     1
100
AcDbLine
 10
28.88654701076758
 20
-0.1929860131553839
 30
0.0
 11
28.86345298923241
 21
-0.1678375806952784
 31
0.0
  0
LINE
  5
61F
330
18
100
AcDbEntity
  8
1
 62
     1
100
AcDbLine
 10
29.33654701076759
 20
-0.6567871280404476
 30
0.0
 11
29.31345298923241
 21
-0.6347479502812724
 31
0.0
  0
ARC
  5
620
330
18
100
AcDbEntity
  8
1
 62
     1
100
AcDbCircle
 10
18.30840753514944
 20
-5.970367156019016
 30
0.0
 40
12.48182318609205
100
AcDbArc
 50
24.17200313643539
 51
25.75799003971938
  0
ARC
  5
621
330
18
100
AcDbEntity
  8
1
 62
     1
100
AcDbCircle
 10
28.23530905150038
 20
0.5447614912702163
 30
0.0
 40
2.210687524473144
100
AcDbArc
 50
318.8444521161711
 51
322.9626001045838
  0
LINE
  5
622
330
18
100
AcDbEntity
  8
1
 62
     1
100
AcDbLine
 10
30.0
 20
-0.7868354151549308
 30
0.0
 11
30.00000000000001
 21
-0.9211888923278078
 31
0.0
  0
LINE
  5
623
330
18
100
AcDbEntity
  8
1
 62
     1
100
AcDbLine
 10
25.48038475800001
 20
-0.043148031801122
 30
0.0
 11
25.5
 21
-0.0598357581482614
 31
0.0
  0
LINE
  5
624
330
18
100
AcDbEntity
  8
1
 62
     1
100
AcDbLine
 10
25.5
 20
-0.0598357581482639
 30
0.0
 11
25.5
 21
0.6020873100567137
 31
0.0
  0
LINE
  5
625
330
18
100
AcDbEntity
  8
1
 62
     1
100
AcDbLine
 10
25.5
 20
-0.9302887500000001
 30
0.0
 11
25.480384758
 21
-0.9642633299060945
 31
0.0
  0
LINE
  5
626
330
18
100
AcDbEntity
  8
1
 62
     1
100
AcDbLine
 10
25.5
 20
-0.9302887500000001
 30
0.0
 11
25.5
 21
-0.9302852969804677
 31
0.0
  0
LINE
  5
627
330
18
100
AcDbEntity
  8
1
 62
     1
100
AcDbLine
 10
25.5
 20
-0.9302852969804677
 30
0.0
 11
25.5
 21
-0.9292731134835694
 31
0.0
  0
LINE
  5
628
330
18
100
AcDbEntity
  8
1
 62
     1
100
AcDbLine
 10
25.5
 20
-0.9292731134835694
 30
0.0
 11
25.5
 21
-0.915206517861776
 31
0.0
  0
LINE
  5
629
330
18
100
AcDbEntity
  8
1
 62
     1
100
AcDbLine
 10
25.480384758
 20
0.8558140967915205
 30
0.0
 11
25.5
 21
0.8339033455581589
 31
0.0
  0
LINE
  5
62A
330
18
100
AcDbEntity
  8
1
 62
     1
100
AcDbLine
 10
25.48038475800001
 20
-0.9642633299060939
 30
0.0
 11
25.48038475800001
 21
-0.9642595067706944
 31
0.0
  0
LINE
  5
62B
330
18
100
AcDbEntity
  8
1
 62
     1
100
AcDbLine
 10
25.48038475800001
 20
-0.9642595067706944
 30
0.0
 11
25.48038475800001
 21
-0.9631381860810685
 31
0.0
  0
LINE
  5
62C
330
18
100
AcDbEntity
  8
1
 62
     1
100
AcDbLine
 10
25.48038475800001
 20
-0.9631381860810685
 30
0.0
 11
25.48038475800001
 21
-0.9475327451293972
 31
0.0
  0
LINE
  5
62D
330
18
100
AcDbEntity
  8
1
 62
     1
100
AcDbLine
 10
25.480384758
 20
-0.9475327451294087
 30
0.0
 11
25.480384758
 21
-0.7559789108898445
 31
0.0
  0
LINE
  5
62E
330
18
100
AcDbEntity
  8
1
 62
     1
100
AcDbLine
 10
25.48038475800001
 20
-0.0431480318011222
 30
0.0
 11
25.48038475800001
 21
0.6286505219533677
 31
0.0
  0
ARC
  5
62F
330
18
100
AcDbEntity
  8
1
 62
     1
100
AcDbCircle
 10
30.03832086924589
 20
-0.7497266149370936
 30
0.0
 40
3.60117129021683
100
AcDbArc
 50
145.7008679210758
 51
150.1717172755272
  0
LINE
  5
630
330
18
100
AcDbEntity
  8
1
 62
     1
100
AcDbLine
 10
26.91421581386187
 20
1.041513750399443
 30
0.0
 11
26.85
 21
0.9302887500000001
 31
0.0
  0
LINE
  5
631
330
18
100
AcDbEntity
  8
1
 62
     1
100
AcDbLine
 10
26.84999999999999
 20
0.93028875
 30
0.0
 11
26.63654701076759
 21
1.299999999999999
 31
0.0
  0
LINE
  5
632
330
18
100
AcDbEntity
  8
1
 62
     1
100
AcDbLine
 10
26.61345298923241
 20
1.299999999999999
 30
0.0
 11
26.4
 21
0.9302887500000001
 31
0.0
  0
ARC
  5
633
330
18
100
AcDbEntity
  8
1
 62
     1
100
AcDbCircle
 10
29.09041369043708
 20
-0.6437244151793702
 30
0.0
 40
3.506712027341619
100
AcDbArc
 50
146.5857015555019
 51
150.3275651460235
  0
LINE
  5
634
330
18
100
AcDbEntity
  8
1
 62
     1
100
AcDbLine
 10
26.16345298923241
 20
1.300000000000002
 30
0.0
 11
26.04351163640871
 21
1.092255579841709
 31
0.0
  0
ARC
  5
635
330
18
100
AcDbEntity
  8
1
 62
     1
100
AcDbCircle
 10
26.47435351032178
 20
0.3057907710979839
 30
0.0
 40
1.627835436010909
100
AcDbArc
 50
236.2588639687274
 51
239.9421182987633
  0
LINE
  5
636
330
18
100
AcDbEntity
  8
1
 62
     1
100
AcDbLine
 10
25.57017938353467
 20
-1.051842951251229
 30
0.0
 11
25.65901317124658
 21
-1.103131162526546
 31
0.0
  0
LINE
  5
637
330
18
100
AcDbEntity
  8
1
 62
     1
100
AcDbLine
 10
26.4
 20
0.93028875
 30
0.0
 11
26.18654701076758
 21
1.299999999999999
 31
0.0
  0
LINE
  5
638
330
18
100
AcDbEntity
  8
1
 62
     1
100
AcDbLine
 10
27.96345298923241
 20
-1.3
 30
0.0
 11
27.98654701076758
 21
-1.3
 31
0.0
  0
LINE
  5
639
330
18
100
AcDbEntity
  8
1
 62
     1
100
AcDbLine
 10
27.51345298923242
 20
-1.3
 30
0.0
 11
27.53654701076759
 21
-1.3
 31
0.0
  0
LINE
  5
63A
330
18
100
AcDbEntity
  8
1
 62
     1
100
AcDbLine
 10
28.50550267971276
 20
1.18056533409668
 30
0.0
 11
28.50725585396929
 21
1.177528208697053
 31
0.0
  0
LINE
  5
63B
330
18
100
AcDbEntity
  8
1
 62
     1
100
AcDbLine
 10
28.50725585396929
 20
1.177528208697053
 30
0.0
 11
28.65
 21
0.9245815941798579
 31
0.0
  0
LINE
  5
63C
330
18
100
AcDbEntity
  8
1
 62
     1
100
AcDbLine
 10
28.65
 20
0.9302887500000001
 30
0.0
 11
28.50550267949921
 21
1.180565333973388
 31
0.0
  0
LINE
  5
63D
330
18
100
AcDbEntity
  8
1
 62
     1
100
AcDbLine
 10
29.1
 20
0.9302887500000001
 30
0.0
 11
28.88654701076759
 21
1.299999999999999
 31
0.0
  0
LINE
  5
63E
330
18
100
AcDbEntity
  8
1
 62
     1
100
AcDbLine
 10
29.31345298923242
 20
1.300000000000009
 30
0.0
 11
29.1
 21
0.9302887500000001
 31
0.0
  0
LINE
  5
63F
330
18
100
AcDbEntity
  8
1
 62
     1
100
AcDbLine
 10
28.86345298923241
 20
1.299999999999999
 30
0.0
 11
28.65
 21
0.9302887500000001
 31
0.0
  0
LINE
  5
640
330
18
100
AcDbEntity
  8
1
 62
     1
100
AcDbLine
 10
30.0
 20
-1.065
 30
0.0
 11
31.065
 21
0.0
 31
0.0
  0
LINE
  5
641
330
18
100
AcDbEntity
  8
1
 62
     1
100
AcDbLine
 10
29.74697455659683
 20
-1.163120427420119
 30
0.0
 11
29.69586779125663
 21
-1.181997536095724
 31
0.0
  0
LINE
  5
642
330
18
100
AcDbEntity
  8
1
 62
     1
100
AcDbLine
 10
29.7469745566987
 20
-1.163120427682844
 30
0.0
 11
29.89978789249938
 21
-1.103861130796444
 31
0.0
  0
LINE
  5
643
330
18
100
AcDbEntity
  8
1
 62
     1
100
AcDbLine
 10
25.480384758
 20
0.6286505219533677
 30
0.0
 11
25.480384758
 21
0.8558140967915205
 31
0.0
  0
LINE
  5
644
330
18
100
AcDbEntity
  8
1
 62
     1
100
AcDbLine
 10
27.82638026019554
 20
0.0690508409917228
 30
0.0
 11
27.82638624134017
 21
0.0690454766610845
 31
0.0
  0
ARC
  5
645
330
18
100
AcDbEntity
  8
1
 62
     1
100
AcDbCircle
 10
27.36759814867509
 20
-0.4060173625727579
 30
0.0
 40
0.6605858627041454
100
AcDbArc
 50
25.72132332915579
 51
45.99842477283737
  0
LINE
  5
646
330
18
100
AcDbEntity
  8
1
 62
     1
100
AcDbLine
 10
27.826386296355
 20
0.0690455551682365
 30
0.0
 11
27.82638032380876
 21
0.069050911918487
 31
0.0
  0
ARC
  5
647
330
18
100
AcDbEntity
  8
1
 62
     1
100
AcDbCircle
 10
25.42133543802715
 20
-1.836716946950894
 30
0.0
 40
3.040077995627092
100
AcDbArc
 50
40.00614058948241
 51
44.72608888275896
  0
LINE
  5
648
330
18
100
AcDbEntity
  8
1
 62
     1
100
AcDbLine
 10
27.49898215072197
 20
0.3861447902289589
 30
0.0
 11
27.51345298923242
 21
0.3704746269645894
 31
0.0
  0
LINE
  5
649
330
18
100
AcDbEntity
  8
1
 62
     1
100
AcDbLine
 10
27.58123839916174
 20
0.3026326322153091
 30
0.0
 11
27.57922239004
 21
0.3046532887848514
 31
0.0
  0
ARC
  5
64A
330
18
100
AcDbEntity
  8
1
 62
     1
100
AcDbCircle
 10
25.35071777358083
 20
-0.4953985276911208
 30
0.0
 40
0.9941643545728092
100
AcDbArc
 50
35.19874574871516
 51
49.68581152128665
  0
LINE
  5
64B
330
18
100
AcDbEntity
  8
1
 62
     1
100
AcDbLine
 10
25.51390366718066
 20
-0.0703760723549287
 30
0.0
 11
25.51401938291403
 21
-0.0704692762859241
 31
0.0
  0
ARC
  5
64C
330
18
100
AcDbEntity
  8
1
 62
     1
100
AcDbCircle
 10
25.25486981112555
 20
-0.3868240892049478
 30
0.0
 40
0.4089613434157801
100
AcDbArc
 50
39.56764205924565
 51
50.67656440255188
  0
LINE
  5
64D
330
18
100
AcDbEntity
  8
1
 62
     1
100
AcDbLine
 10
25.51401949888163
 20
-0.0704691322259867
 30
0.0
 11
25.51390375912048
 21
-0.0703759581533498
 31
0.0
  0
LINE
  5
64E
330
18
100
AcDbEntity
  8
1
 62
     1
100
AcDbLine
 10
30.51206272571671
 20
0.4569120698342125
 30
0.0
 11
30.51809284229708
 21
0.4554512120164359
 31
0.0
  0
LINE
  5
64F
330
18
100
AcDbEntity
  8
1
 62
     1
100
AcDbLine
 10
30.51809284229708
 20
0.4554512120164359
 30
0.0
 11
30.52389663359129
 21
0.4543032626967047
 31
0.0
  0
LINE
  5
650
330
18
100
AcDbEntity
  8
1
 62
     1
100
AcDbLine
 10
30.52389663359129
 20
0.4543032626967047
 30
0.0
 11
30.52944527232636
 21
0.453475616944897
 31
0.0
  0
LINE
  5
651
330
18
100
AcDbEntity
  8
1
 62
     1
100
AcDbLine
 10
30.52944527232636
 20
0.453475616944897
 30
0.0
 11
30.53471447913447
 21
0.4529749153813663
 31
0.0
  0
LINE
  5
652
330
18
100
AcDbEntity
  8
1
 62
     1
100
AcDbLine
 10
30.53471447913447
 20
0.4529749153813663
 30
0.0
 11
30.53968723469441
 21
0.4528021307793066
 31
0.0
  0
LINE
  5
653
330
18
100
AcDbEntity
  8
1
 62
     1
100
AcDbLine
 10
30.53968723469441
 20
0.4528021307793066
 30
0.0
 11
30.54205377873746
 21
0.4528382272286324
 31
0.0
  0
LINE
  5
654
330
18
100
AcDbEntity
  8
1
 62
     1
100
AcDbLine
 10
30.54205377873746
 20
0.4528382272286324
 30
0.0
 11
30.54433569826585
 21
0.4529557253681142
 31
0.0
  0
LINE
  5
655
330
18
100
AcDbEntity
  8
1
 62
     1
100
AcDbLine
 10
30.54433569826585
 20
0.4529557253681142
 30
0.0
 11
30.54652944176204
 21
0.4531544320901911
 31
0.0
  0
LINE
  5
656
330
18
100
AcDbEntity
  8
1
 62
     1
100
AcDbLine
 10
30.54652944176204
 20
0.4531544320901911
 30
0.0
 11
30.54863151418828
 21
0.4534341514959507
 31
0.0
  0
LINE
  5
657
330
18
100
AcDbEntity
  8
1
 62
     1
100
AcDbLine
 10
30.54863151418828
 20
0.4534341514959507
 30
0.0
 11
30.55064101160577
 21
0.4537942756065314
 31
0.0
  0
LINE
  5
658
330
18
100
AcDbEntity
  8
1
 62
     1
100
AcDbLine
 10
30.55064101160577
 20
0.4537942756065314
 30
0.0
 11
30.55255656409057
 21
0.4542334068949501
 31
0.0
  0
LINE
  5
659
330
18
100
AcDbEntity
  8
1
 62
     1
100
AcDbLine
 10
30.55255656409057
 20
0.4542334068949501
 30
0.0
 11
30.5543756355324
 21
0.4547500645786243
 31
0.0
  0
LINE
  5
65A
330
18
100
AcDbEntity
  8
1
 62
     1
100
AcDbLine
 10
30.5543756355324
 20
0.4547500645786243
 30
0.0
 11
30.55609568982109
 21
0.4553427678749721
 31
0.0
  0
LINE
  5
65B
330
18
100
AcDbEntity
  8
1
 62
     1
100
AcDbLine
 10
30.55609568982109
 20
0.4553427678749721
 30
0.0
 11
30.55771429529539
 21
0.4560100709025443
 31
0.0
  0
LINE
  5
65C
330
18
100
AcDbEntity
  8
1
 62
     1
100
AcDbLine
 10
30.55771429529539
 20
0.4560100709025443
 30
0.0
 11
30.55923091776803
 21
0.4567507686287995
 31
0.0
  0
LINE
  5
65D
330
18
100
AcDbEntity
  8
1
 62
     1
100
AcDbLine
 10
30.55923091776803
 20
0.4567507686287995
 30
0.0
 11
30.56064484453977
 21
0.4575627141803994
 31
0.0
  0
LINE
  5
65E
330
18
100
AcDbEntity
  8
1
 62
     1
100
AcDbLine
 10
30.56064484453977
 20
0.4575627141803994
 30
0.0
 11
30.56131293822725
 21
0.4579946535131675
 31
0.0
  0
LINE
  5
65F
330
18
100
AcDbEntity
  8
1
 62
     1
100
AcDbLine
 10
30.56131293822725
 20
0.4579946535131675
 30
0.0
 11
30.56195492741686
 21
0.4584435031492284
 31
0.0
  0
LINE
  5
660
330
18
100
AcDbEntity
  8
1
 62
     1
100
AcDbLine
 10
30.56195492741686
 20
0.4584435031492284
 30
0.0
 11
30.56257066858439
 21
0.458908962537568
 31
0.0
  0
LINE
  5
661
330
18
100
AcDbEntity
  8
1
 62
     1
100
AcDbLine
 10
30.56257066858439
 20
0.458908962537568
 30
0.0
 11
30.56316001820561
 21
0.4593907311271714
 31
0.0
  0
LINE
  5
662
330
18
100
AcDbEntity
  8
1
 62
     1
100
AcDbLine
 10
30.56316001820561
 20
0.4593907311271714
 30
0.0
 11
30.5637228327563
 21
0.4598885083670244
 31
0.0
  0
LINE
  5
663
330
18
100
AcDbEntity
  8
1
 62
     1
100
AcDbLine
 10
30.5637228327563
 20
0.4598885083670244
 30
0.0
 11
30.56425912928417
 21
0.4604020952951584
 31
0.0
  0
LINE
  5
664
330
18
100
AcDbEntity
  8
1
 62
     1
100
AcDbLine
 10
30.56425912928417
 20
0.4604020952951584
 30
0.0
 11
30.56476913212896
 21
0.4609313173771172
 31
0.0
  0
LINE
  5
665
330
18
100
AcDbEntity
  8
1
 62
     1
100
AcDbLine
 10
30.56476913212896
 20
0.4609313173771172
 30
0.0
 11
30.56525288629125
 21
0.4614758108286718
 31
0.0
  0
LINE
  5
666
330
18
100
AcDbEntity
  8
1
 62
     1
100
AcDbLine
 10
30.56525288629125
 20
0.4614758108286718
 30
0.0
 11
30.56571043373469
 21
0.4620352094324262
 31
0.0
  0
LINE
  5
667
330
18
100
AcDbEntity
  8
1
 62
     1
100
AcDbLine
 10
30.56571043373469
 20
0.4620352094324262
 30
0.0
 11
30.56614181642296
 21
0.4626091469709848
 31
0.0
  0
LINE
  5
668
330
18
100
AcDbEntity
  8
1
 62
     1
100
AcDbLine
 10
30.56614181642296
 20
0.4626091469709848
 30
0.0
 11
30.56654707631972
 21
0.4631972572269519
 31
0.0
  0
LINE
  5
669
330
18
100
AcDbEntity
  8
1
 62
     1
100
AcDbLine
 10
30.56654707631972
 20
0.4631972572269519
 30
0.0
 11
30.56692625538862
 21
0.4637991739829311
 31
0.0
  0
LINE
  5
66A
330
18
100
AcDbEntity
  8
1
 62
     1
100
AcDbLine
 10
30.56692625538862
 20
0.4637991739829311
 30
0.0
 11
30.56727939559332
 21
0.4644145310215272
 31
0.0
  0
LINE
  5
66B
330
18
100
AcDbEntity
  8
1
 62
     1
100
AcDbLine
 10
30.56727939559332
 20
0.4644145310215272
 30
0.0
 11
30.56760653889751
 21
0.4650429621253444
 31
0.0
  0
LINE
  5
66C
330
18
100
AcDbEntity
  8
1
 62
     1
100
AcDbLine
 10
30.56760653889751
 20
0.4650429621253444
 30
0.0
 11
30.56790772914699
 21
0.465684103909778
 31
0.0
  0
LINE
  5
66D
330
18
100
AcDbEntity
  8
1
 62
     1
100
AcDbLine
 10
30.56790772914699
 20
0.465684103909778
 30
0.0
 11
30.56818317115201
 21
0.4663377871102879
 31
0.0
  0
LINE
  5
66E
330
18
100
AcDbEntity
  8
1
 62
     1
100
AcDbLine
 10
30.56818317115201
 20
0.4663377871102879
 30
0.0
 11
30.56843311517005
 21
0.4670037620748749
 31
0.0
  0
LINE
  5
66F
330
18
100
AcDbEntity
  8
1
 62
     1
100
AcDbLine
 10
30.56843311517005
 20
0.4670037620748749
 30
0.0
 11
30.56865774929333
 21
0.4676816573561479
 31
0.0
  0
LINE
  5
670
330
18
100
AcDbEntity
  8
1
 62
     1
100
AcDbLine
 10
30.56865774929333
 20
0.4676816573561479
 30
0.0
 11
30.5688572616141
 21
0.4683711015067161
 31
0.0
  0
LINE
  5
671
330
18
100
AcDbEntity
  8
1
 62
     1
100
AcDbLine
 10
30.5688572616141
 20
0.4683711015067161
 30
0.0
 11
30.56903184022461
 21
0.4690717230791887
 31
0.0
  0
LINE
  5
672
330
18
100
AcDbEntity
  8
1
 62
     1
100
AcDbLine
 10
30.56903184022461
 20
0.4690717230791887
 30
0.0
 11
30.56918167321711
 21
0.4697831506261747
 31
0.0
  0
LINE
  5
673
330
18
100
AcDbEntity
  8
1
 62
     1
100
AcDbLine
 10
30.56918167321711
 20
0.4697831506261747
 30
0.0
 11
30.56930694868385
 21
0.4705050127002832
 31
0.0
  0
LINE
  5
674
330
18
100
AcDbEntity
  8
1
 62
     1
100
AcDbLine
 10
30.56930694868385
 20
0.4705050127002832
 30
0.0
 11
30.56948457940904
 21
0.4719785546403042
 31
0.0
  0
LINE
  5
675
330
18
100
AcDbEntity
  8
1
 62
     1
100
AcDbLine
 10
30.56948457940904
 20
0.4719785546403042
 30
0.0
 11
30.56956634313887
 21
0.4734897020875988
 31
0.0
  0
LINE
  5
676
330
18
100
AcDbEntity
  8
1
 62
     1
100
AcDbLine
 10
30.56956634313887
 20
0.4734897020875988
 30
0.0
 11
30.5695543731609
 21
0.4750365906582641
 31
0.0
  0
LINE
  5
677
330
18
100
AcDbEntity
  8
1
 62
     1
100
AcDbLine
 10
30.5695543731609
 20
0.4750365906582641
 30
0.0
 11
30.56945084614403
 21
0.4766166268137811
 31
0.0
  0
LINE
  5
678
330
18
100
AcDbEntity
  8
1
 62
     1
100
AcDbLine
 10
30.56945084614403
 20
0.4766166268137811
 30
0.0
 11
30.5692579287672
 21
0.4782271601695296
 31
0.0
  0
LINE
  5
679
330
18
100
AcDbEntity
  8
1
 62
     1
100
AcDbLine
 10
30.5692579287672
 20
0.4782271601695296
 30
0.0
 11
30.56897778770938
 21
0.4798655403408896
 31
0.0
  0
LINE
  5
67A
330
18
100
AcDbEntity
  8
1
 62
     1
100
AcDbLine
 10
30.56897778770938
 20
0.4798655403408896
 30
0.0
 11
30.568612547075
 21
0.4815295485163418
 31
0.0
  0
LINE
  5
67B
330
18
100
AcDbEntity
  8
1
 62
     1
100
AcDbLine
 10
30.568612547075
 20
0.4815295485163418
 30
0.0
 11
30.56816440047448
 21
0.483217692867981
 31
0.0
  0
LINE
  5
67C
330
18
100
AcDbEntity
  8
1
 62
     1
100
AcDbLine
 10
30.56816440047448
 20
0.483217692867981
 30
0.0
 11
30.56763570577785
 21
0.4849279520818531
 31
0.0
  0
LINE
  5
67D
330
18
100
AcDbEntity
  8
1
 62
     1
100
AcDbLine
 10
30.56763570577785
 20
0.4849279520818531
 30
0.0
 11
30.56702882378175
 21
0.4866582884279563
 31
0.0
  0
LINE
  5
67E
330
18
100
AcDbEntity
  8
1
 62
     1
100
AcDbLine
 10
30.56702882378175
 20
0.4866582884279563
 30
0.0
 11
30.5655899410777
 21
0.4901710415968478
 31
0.0
  0
LINE
  5
67F
330
18
100
AcDbEntity
  8
1
 62
     1
100
AcDbLine
 10
30.5655899410777
 20
0.4901710415968478
 30
0.0
 11
30.56386657861425
 21
0.4937398385621564
 31
0.0
  0
LINE
  5
680
330
18
100
AcDbEntity
  8
1
 62
     1
100
AcDbLine
 10
30.56386657861425
 20
0.4937398385621564
 30
0.0
 11
30.56187584135379
 21
0.4973536678260333
 31
0.0
  0
LINE
  5
681
330
18
100
AcDbEntity
  8
1
 62
     1
100
AcDbLine
 10
30.56187584135379
 20
0.4973536678260333
 30
0.0
 11
30.55963420613076
 21
0.5010028003526408
 31
0.0
  0
LINE
  5
682
330
18
100
AcDbEntity
  8
1
 62
     1
100
AcDbLine
 10
30.55963420613076
 20
0.5010028003526408
 30
0.0
 11
30.55715843595253
 21
0.5046765158470379
 31
0.0
  0
LINE
  5
683
330
18
100
AcDbEntity
  8
1
 62
     1
100
AcDbLine
 10
30.55715843595253
 20
0.5046765158470379
 30
0.0
 11
30.55446478592028
 21
0.5083648746344014
 31
0.0
  0
LINE
  5
684
330
18
100
AcDbEntity
  8
1
 62
     1
100
AcDbLine
 10
30.55446478592028
 20
0.5083648746344014
 30
0.0
 11
30.54847681998719
 21
0.5157615265258049
 31
0.0
  0
LINE
  5
685
330
18
100
AcDbEntity
  8
1
 62
     1
100
AcDbLine
 10
30.54847681998719
 20
0.5157615265258049
 30
0.0
 11
30.54351229138892
 21
0.5213008803949778
 31
0.0
  0
LINE
  5
686
330
18
100
AcDbEntity
  8
1
 62
     1
100
AcDbLine
 10
30.54351229138892
 20
0.5213008803949778
 30
0.0
 11
30.53818548448276
 21
0.5268145155172657
 31
0.0
  0
ARC
  5
687
330
18
100
AcDbEntity
  8
1
 62
     1
100
AcDbCircle
 10
28.99779394166545
 20
0.760108325199932
 30
0.0
 40
0.725282684777785
100
AcDbArc
 50
223.3041645969085
 51
241.3265770970062
  0
LINE
  5
688
330
18
100
AcDbEntity
  8
SK1
100
AcDbLine
 10
0.0000000000000009
 20
1.4
 30
0.0
 11
-15.015
 21
1.4
 31
0.0
  0
LINE
  5
689
330
18
100
AcDbEntity
  8
SK1
100
AcDbLine
 10
-19.875
 20
-1.05
 30
0.0
 11
-15.015
 21
-1.05
 31
0.0
  0
LINE
  5
68A
330
18
100
AcDbEntity
  8
SK1
100
AcDbLine
 10
-15.015
 20
-1.05
 30
0.0
 11
-15.015
 21
-1.39999999365418
 31
0.0
  0
LINE
  5
68B
330
18
100
AcDbEntity
  8
SK1
100
AcDbLine
 10
-19.875
 20
0.9260129588726065
 30
0.0
 11
-15.015
 21
0.9260129588726065
 31
0.0
  0
ARC
  5
68C
330
18
100
AcDbEntity
  8
SK1
100
AcDbCircle
 10
-17.10534798410416
 20
-0.922071130025467
 30
0.0
 40
3.329551639995337
100
AcDbArc
 50
146.2863164785024
 51
150.9139716090536
  0
LINE
  5
68D
330
18
100
AcDbEntity
  8
SK1
100
AcDbLine
 10
-19.875
 20
1.05
 30
0.0
 11
-19.875
 21
0.9260129588726069
 31
0.0
  0
LINE
  5
68E
330
18
100
AcDbEntity
  8
SK1
100
AcDbLine
 10
-20.015
 20
1.05
 30
0.0
 11
-19.875
 21
1.05
 31
0.0
  0
LINE
  5
68F
330
18
100
AcDbEntity
  8
SK1
100
AcDbLine
 10
-15.015
 20
1.4
 30
0.0
 11
-15.015
 21
1.399926684987163
 31
0.0
  0
LINE
  5
690
330
18
100
AcDbEntity
  8
SK1
100
AcDbLine
 10
-15.015
 20
1.399926684987163
 30
0.0
 11
-15.015
 21
1.377480295181483
 31
0.0
  0
LINE
  5
691
330
18
100
AcDbEntity
  8
SK1
100
AcDbLine
 10
-15.015
 20
1.377480295181483
 30
0.0
 11
-15.015
 21
1.05
 31
0.0
  0
LINE
  5
692
330
18
100
AcDbEntity
  8
SK1
100
AcDbLine
 10
-19.875
 20
1.05
 30
0.0
 11
-15.015
 21
1.05
 31
0.0
  0
LINE
  5
693
330
18
100
AcDbEntity
  8
SK1
100
AcDbLine
 10
-19.875
 20
-0.926012958872606
 30
0.0
 11
-19.875
 21
-1.05
 31
0.0
  0
LINE
  5
694
330
18
100
AcDbEntity
  8
SK1
100
AcDbLine
 10
-20.015
 20
1.05
 30
0.0
 11
-20.015
 21
0.6964912059746345
 31
0.0
  0
LINE
  5
695
330
18
100
AcDbEntity
  8
SK1
100
AcDbLine
 10
-20.015
 20
-0.6964912059746341
 30
0.0
 11
-20.015
 21
-1.05
 31
0.0
  0
ARC
  5
696
330
18
100
AcDbEntity
  8
SK1
100
AcDbCircle
 10
-17.10534798410507
 20
0.9220711300250123
 30
0.0
 40
3.329551639994325
100
AcDbArc
 50
209.0860283909471
 51
213.7136835214997
  0
LINE
  5
697
330
18
100
AcDbEntity
  8
SK1
100
AcDbLine
 10
-20.015
 20
-1.05
 30
0.0
 11
-19.875
 21
-1.05
 31
0.0
  0
LINE
  5
698
330
18
100
AcDbEntity
  8
SK1
100
AcDbLine
 10
-15.015
 20
0.9260129588726171
 30
0.0
 11
-15.015
 21
-0.9260129588726177
 31
0.0
  0
LINE
  5
699
330
18
100
AcDbEntity
  8
SK1
100
AcDbLine
 10
-20.015
 20
0.6964912059746344
 30
0.0
 11
-20.015
 21
-0.696491205974634
 31
0.0
  0
LINE
  5
69A
330
18
100
AcDbEntity
  8
SK1
100
AcDbLine
 10
-19.875
 20
-0.9260129588726062
 30
0.0
 11
-15.015
 21
-0.9260129588726062
 31
0.0
  0
LINE
  5
69B
330
18
100
AcDbEntity
  8
SK1
100
AcDbLine
 10
-15.015
 20
-1.4
 30
0.0
 11
-0.0000000000000027
 21
-1.4
 31
0.0
  0
DIMENSION
  5
69C
330
18
100
AcDbEntity
  8
2
100
AcDbDimension
  2
*D0
 10
45.00000000000001
 20
-1.299999999999948
 30
0.0
 11
42.60225000000003
 21
-12.45674999999996
 31
0.0
 70
    32
  1
M2.6
 71
     5
 42
2.6
  3
STANDARD
100
AcDbAlignedDimension
 13
30.0
 23
1.3
 33
0.0
 14
30.0
 24
-1.3
 34
0.0
 50
90.0000000000002
100
AcDbRotatedDimension
  0
DIMENSION
  5
6AA
330
18
100
AcDbEntity
  8
2
100
AcDbDimension
  2
*D1
 10
30.0
 20
75.0
 30
0.0
 11
15.0
 21
77.39075
 31
0.0
 70
    32
  1
<>
 71
     5
 42
30.0
  3
STANDARD
100
AcDbAlignedDimension
 13
0.0
 23
0.0
 33
0.0
 14
30.0
 24
0.0
 34
0.0
100
AcDbRotatedDimension
  0
DIMENSION
  5
6B7
330
18
100
AcDbEntity
  8
SK2
100
AcDbDimension
  2
*D2
 10
-35.01499999999285
 20
-1.400000000102068
 30
0.0
 11
-37.41274999993634
 21
-12.4745000001143
 31
0.0
 70
    32
  1
%%c<>
 71
     5
 42
2.8
  3
STANDARD
100
AcDbAlignedDimension
 13
-15.015
 23
1.4
 33
0.0
 14
-15.015
 24
-1.4
 34
0.0
 50
90.0000000002924
100
AcDbRotatedDimension
  0
DIMENSION
  5
6C5
330
18
100
AcDbEntity
  8
2
100
AcDbDimension
  2
*D3
 10
30.0
 20
60.0
 30
0.0
 11
40.91
 21
62.438
 31
0.0
 70
    32
  1
<>
 71
     5
 42
4.519615242
  3
STANDARD
100
AcDbAlignedDimension
 13
25.480384758
 23
1.0
 33
0.0
 14
30.0
 24
1.3
 34
0.0
100
AcDbRotatedDimension
  0
DIMENSION
  5
6D3
330
18
100
AcDbEntity
  8
SK2
100
AcDbDimension
  2
*D4
 10
31.065
 20
90.0
 30
0.0
 11
5.525000000000002
 21
92.39775
 31
0.0
 70
    32
  1
<>
 71
     5
 42
51.08
  3
STANDARD
100
AcDbAlignedDimension
 13
-20.015
 23
1.3
 33
0.0
 14
31.065
 24
1.3
 34
0.0
100
AcDbRotatedDimension
  0
ENDSEC
  0
SECTION
  2
OBJECTS
  0
DICTIONARY
  5
C
330
0
100
AcDbDictionary
281
     1
  3
ACAD_COLOR
350
387
  3
ACAD_GROUP
350
D
  3
ACAD_LAYOUT
350
301
  3
ACAD_MATERIAL
350
386
  3
ACAD_MLEADERSTYLE
350
6E0
  3
ACAD_MLINESTYLE
350
E
  3
ACAD_PLOTSETTINGS
350
302
  3
ACAD_PLOTSTYLENAME
350
2FF
  3
ACAD_SCALELIST
350
3A0
  3
ACAD_TABLESTYLE
350
388
  3
ACAD_VISUALSTYLE
350
3C5
  3
ACDBHEADERROUNDTRIPXREC
350
6E1
  3
AcDbVariableDictionary
350
357
  0
DICTIONARY
  5
387
102
{ACAD_REACTORS
330
C
102
}
330
C
100
AcDbDictionary
281
     1
  0
DICTIONARY
  5
D
102
{ACAD_REACTORS
330
C
102
}
330
C
100
AcDbDictionary
281
     1
  0
DICTIONARY
  5
301
102
{ACAD_REACTORS
330
C
102
}
330
C
100
AcDbDictionary
281
     1
  3
Layout1
350
33B
  3
Model
350
303
  0
DICTIONARY
  5
386
102
{ACAD_REACTORS
330
C
102
}
330
C
100
AcDbDictionary
281
     1
  3
ByBlock
350
3C3
  3
ByLayer
350
3C2
  3
Global
350
3C4
  0
DICTIONARY
  5
6E0
102
{ACAD_REACTORS
330
C
102
}
330
C
100
AcDbDictionary
281
     1
  0
DICTIONARY
  5
E
102
{ACAD_REACTORS
330
C
102
}
330
C
100
AcDbDictionary
281
     1
  3
STANDARD
350
1B
  0
DICTIONARY
  5
302
102
{ACAD_REACTORS
330
C
102
}
330
C
100
AcDbDictionary
281
     1
  0
ACDBDICTIONARYWDFLT
  5
2FF
102
{ACAD_REACTORS
330
C
102
}
330
C
100
AcDbDictionary
281
     1
  3
Normal
350
300
100
AcDbDictionaryWithDefault
340
300
  0
DICTIONARY
  5
3A0
102
{ACAD_REACTORS
330
C
102
}
330
C
100
AcDbDictionary
281
     1
  3
A0
350
3A1
  3
A1
350
3A2
  3
A2
350
3A3
  3
A3
350
3A4
  3
A4
350
3A5
  3
A5
350
3A6
  3
A6
350
3A7
  3
A7
350
3A8
  3
A8
350
3A9
  3
A9
350
3AA
  3
B0
350
3AB
  3
B1
350
3AC
  3
B2
350
3AD
  3
B3
350
3AE
  3
B4
350
3AF
  3
B5
350
3B0
  3
B6
350
3B1
  3
B7
350
3B2
  3
B8
350
3B3
  3
B9
350
3B4
  3
C0
350
3B5
  3
C1
350
3B6
  3
C2
350
3B7
  3
C3
350
3B8
  3
C4
350
3B9
  3
C5
350
3BA
  3
C6
350
3BB
  3
C7
350
3BC
  3
C8
350
3BD
  3
C9
350
3BE
  3
D0
350
3BF
  3
D1
350
3C0
  3
D2
350
3C1
  0
DICTIONARY
  5
388
102
{ACAD_REACTORS
330
C
102
}
330
C
100
AcDbDictionary
281
     1
  3
Standard
350
389
  0
DICTIONARY
  5
3C5
102
{ACAD_REACTORS
330
C
102
}
330
C
100
AcDbDictionary
281
     1
  3
2dWireframe
350
3CA
  3
3D Hidden
350
3CC
  3
3dWireframe
350
3CB
  3
Basic
350
3CD
  3
Brighten
350
3D1
  3
ColorChange
350
3D5
  3
Conceptual
350
3CF
  3
Dim
350
3D0
  3
Facepattern
350
3D4
  3
Flat
350
3C6
  3
FlatWithEdges
350
3C7
  3
Gouraud
350
3C8
  3
GouraudWithEdges
350
3C9
  3
Linepattern
350
3D3
  3
Realistic
350
3CE
  3
Thicken
350
3D2
  0
DICTIONARY
  5
6E1
102
{ACAD_REACTORS
330
C
102
}
330
C
100
AcDbDictionary
281
     1
  3
COLORDICT
350
6E2
  3
MATERIALDICT
350
6E3
  0
DICTIONARY
  5
357
102
{ACAD_REACTORS
330
C
102
}
330
C
100
AcDbDictionary
281
     1
  3
CANNOSCALE
350
6E4
  3
CTABLESTYLE
350
38D
  3
DIMASSOC
350
359
  3
HIDETEXT
350
358
  3
PROJECTNAME
350
38E
  0
LAYOUT
  5
33B
102
{ACAD_REACTORS
330
301
102
}
330
301
100
AcDbPlotSettings
  1

  2
Lexmark Optra PS2
  4

  6

 40
0.0
 41
0.0
 42
0.0
 43
0.0
 44
0.0
 45
0.0
 46
0.0
 47
0.0
 48
0.0
 49
0.0
140
0.0
141
0.0
142
1.0
143
1.0
 70
   688
 72
     0
 73
     0
 74
     5
  7
monochrome.ctb
 75
    16
147
1.0
148
0.0
149
0.0
100
AcDbLayout
  1
Layout1
 70
     1
 71
     1
 10
0.0
 20
0.0
 11
12.0
 21
9.0
 12
0.0
 22
0.0
 32
0.0
 14
0.0
 24
0.0
 34
0.0
 15
0.0
 25
0.0
 35
0.0
146
0.0
 13
0.0
 23
0.0
 33
0.0
 16
1.0
 26
0.0
 36
0.0
 17
0.0
 27
1.0
 37
0.0
 76
     0
330
338
  0
LAYOUT
  5
303
102
{ACAD_REACTORS
330
301
102
}
330
301
100
AcDbPlotSettings
  1

  2
Lexmark Optra Rx
  4
A4
  6

 40
6.805083274841307
 41
5.535083293914794
 42
6.974411010742187
 43
7.14373779296875
 44
209.9733276367186
 45
296.9259948730469
 46
0.0
 47
0.0
 48
0.0
 49
0.0
140
0.0
141
0.0
142
1.0
143
2.976565420630886
 70
 11952
 72
     1
 73
     1
 74
     0
  7
monochrome.ctb
 75
     0
147
0.335957675604539
148
204.1199660668592
149
172.3933209647495
100
AcDbLayout
  1
Model
 70
     1
 71
     0
 10
0.0
 20
0.0
 11
12.0
 21
9.0
 12
0.0
 22
0.0
 32
0.0
 14
0.0
 24
0.0
 34
0.0
 15
0.0
 25
0.0
 35
0.0
146
0.0
 13
0.0
 23
0.0
 33
0.0
 16
1.0
 26
0.0
 36
0.0
 17
0.0
 27
1.0
 37
0.0
 76
     0
330
18
331
39A
  0
MATERIAL
  5
3C3
102
{ACAD_REACTORS
330
386
102
}
102
{ACAD_XDICTIONARY
360
6E7
102
}
330
386
100
AcDbMaterial
  1
ByBlock
  0
MATERIAL
  5
3C2
102
{ACAD_REACTORS
330
386
102
}
102
{ACAD_XDICTIONARY
360
6E5
102
}
330
386
100
AcDbMaterial
  1
ByLayer
  0
MATERIAL
  5
3C4
102
{ACAD_REACTORS
330
386
102
}
102
{ACAD_XDICTIONARY
360
6E9
102
}
330
386
100
AcDbMaterial
  1
Global
  0
MLINESTYLE
  5
1B
102
{ACAD_REACTORS
330
E
102
}
330
E
100
AcDbMlineStyle
  2
STANDARD
 70
     0
  3

 62
     0
 51
90.0
 52
90.0
 71
     2
 49
0.5
 62
   256
  6
BYLAYER
 49
-0.5
 62
   256
  6
BYLAYER
  0
ACDBPLACEHOLDER
  5
300
102
{ACAD_REACTORS
330
2FF
102
}
330
2FF
  0
SCALE
  5
3A1
102
{ACAD_REACTORS
330
3A0
102
}
330
3A0
100
AcDbScale
 70
     0
300
1:1
140
1.0
141
1.0
290
     1
  0
SCALE
  5
3A2
102
{ACAD_REACTORS
330
3A0
102
}
330
3A0
100
AcDbScale
 70
     0
300
1:2
140
1.0
141
2.0
290
     0
  0
SCALE
  5
3A3
102
{ACAD_REACTORS
330
3A0
102
}
330
3A0
100
AcDbScale
 70
     0
300
1:4
140
1.0
141
4.0
290
     0
  0
SCALE
  5
3A4
102
{ACAD_REACTORS
330
3A0
102
}
330
3A0
100
AcDbScale
 70
     0
300
1:5
140
1.0
141
5.0
290
     0
  0
SCALE
  5
3A5
102
{ACAD_REACTORS
330
3A0
102
}
330
3A0
100
AcDbScale
 70
     0
300
1:8
140
1.0
141
8.0
290
     0
  0
SCALE
  5
3A6
102
{ACAD_REACTORS
330
3A0
102
}
330
3A0
100
AcDbScale
 70
     0
300
1:10
140
1.0
141
10.0
290
     0
  0
SCALE
  5
3A7
102
{ACAD_REACTORS
330
3A0
102
}
330
3A0
100
AcDbScale
 70
     0
300
1:16
140
1.0
141
16.0
290
     0
  0
SCALE
  5
3A8
102
{ACAD_REACTORS
330
3A0
102
}
330
3A0
100
AcDbScale
 70
     0
300
1:20
140
1.0
141
20.0
290
     0
  0
SCALE
  5
3A9
102
{ACAD_REACTORS
330
3A0
102
}
330
3A0
100
AcDbScale
 70
     0
300
1:30
140
1.0
141
30.0
290
     0
  0
SCALE
  5
3AA
102
{ACAD_REACTORS
330
3A0
102
}
330
3A0
100
AcDbScale
 70
     0
300
1:40
140
1.0
141
40.0
290
     0
  0
SCALE
  5
3AB
102
{ACAD_REACTORS
330
3A0
102
}
330
3A0
100
AcDbScale
 70
     0
300
1:50
140
1.0
141
50.0
290
     0
  0
SCALE
  5
3AC
102
{ACAD_REACTORS
330
3A0
102
}
330
3A0
100
AcDbScale
 70
     0
300
1:100
140
1.0
141
100.0
290
     0
  0
SCALE
  5
3AD
102
{ACAD_REACTORS
330
3A0
102
}
330
3A0
100
AcDbScale
 70
     0
300
2:1
140
2.0
141
1.0
290
     0
  0
SCALE
  5
3AE
102
{ACAD_REACTORS
330
3A0
102
}
330
3A0
100
AcDbScale
 70
     0
300
4:1
140
4.0
141
1.0
290
     0
  0
SCALE
  5
3AF
102
{ACAD_REACTORS
330
3A0
102
}
330
3A0
100
AcDbScale
 70
     0
300
8:1
140
8.0
141
1.0
290
     0
  0
SCALE
  5
3B0
102
{ACAD_REACTORS
330
3A0
102
}
330
3A0
100
AcDbScale
 70
     0
300
10:1
140
10.0
141
1.0
290
     0
  0
SCALE
  5
3B1
102
{ACAD_REACTORS
330
3A0
102
}
330
3A0
100
AcDbScale
 70
     0
300
100:1
140
100.0
141
1.0
290
     0
  0
SCALE
  5
3B2
102
{ACAD_REACTORS
330
3A0
102
}
330
3A0
100
AcDbScale
 70
     0
300
1/128" = 1'-0"
140
0.0078125
141
12.0
290
     0
  0
SCALE
  5
3B3
102
{ACAD_REACTORS
330
3A0
102
}
330
3A0
100
AcDbScale
 70
     0
300
1/64" = 1'-0"
140
0.015625
141
12.0
290
     0
  0
SCALE
  5
3B4
102
{ACAD_REACTORS
330
3A0
102
}
330
3A0
100
AcDbScale
 70
     0
300
1/32" = 1'-0"
140
0.03125
141
12.0
290
     0
  0
SCALE
  5
3B5
102
{ACAD_REACTORS
330
3A0
102
}
330
3A0
100
AcDbScale
 70
     0
300
1/16" = 1'-0"
140
0.0625
141
12.0
290
     0
  0
SCALE
  5
3B6
102
{ACAD_REACTORS
330
3A0
102
}
330
3A0
100
AcDbScale
 70
     0
300
3/32" = 1'-0"
140
0.09375
141
12.0
290
     0
  0
SCALE
  5
3B7
102
{ACAD_REACTORS
330
3A0
102
}
330
3A0
100
AcDbScale
 70
     0
300
1/8" = 1'-0"
140
0.125
141
12.0
290
     0
  0
SCALE
  5
3B8
102
{ACAD_REACTORS
330
3A0
102
}
330
3A0
100
AcDbScale
 70
     0
300
3/16" = 1'-0"
140
0.1875
141
12.0
290
     0
  0
SCALE
  5
3B9
102
{ACAD_REACTORS
330
3A0
102
}
330
3A0
100
AcDbScale
 70
     0
300
1/4" = 1'-0"
140
0.25
141
12.0
290
     0
  0
SCALE
  5
3BA
102
{ACAD_REACTORS
330
3A0
102
}
330
3A0
100
AcDbScale
 70
     0
300
3/8" = 1'-0"
140
0.375
141
12.0
290
     0
  0
SCALE
  5
3BB
102
{ACAD_REACTORS
330
3A0
102
}
330
3A0
100
AcDbScale
 70
     0
300
1/2" = 1'-0"
140
0.5
141
12.0
290
     0
  0
SCALE
  5
3BC
102
{ACAD_REACTORS
330
3A0
102
}
330
3A0
100
AcDbScale
 70
     0
300
3/4" = 1'-0"
140
0.75
141
12.0
290
     0
  0
SCALE
  5
3BD
102
{ACAD_REACTORS
330
3A0
102
}
330
3A0
100
AcDbScale
 70
     0
300
1" = 1'-0"
140
1.0
141
12.0
290
     0
  0
SCALE
  5
3BE
102
{ACAD_REACTORS
330
3A0
102
}
330
3A0
100
AcDbScale
 70
     0
300
1-1/2" = 1'-0"
140
1.5
141
12.0
290
     0
  0
SCALE
  5
3BF
102
{ACAD_REACTORS
330
3A0
102
}
330
3A0
100
AcDbScale
 70
     0
300
3" = 1'-0"
140
3.0
141
12.0
290
     0
  0
SCALE
  5
3C0
102
{ACAD_REACTORS
330
3A0
102
}
330
3A0
100
AcDbScale
 70
     0
300
6" = 1'-0"
140
6.0
141
12.0
290
     0
  0
SCALE
  5
3C1
102
{ACAD_REACTORS
330
3A0
102
}
330
3A0
100
AcDbScale
 70
     0
300
1'-0" = 1'-0"
140
12.0
141
12.0
290
     0
  0
TABLESTYLE
  5
389
102
{ACAD_REACTORS
330
388
102
}
330
388
100
AcDbTableStyle
  3
Standard
 70
     0
 71
     0
 40
1.5
 41
1.5
280
     0
281
     0
  7
STANDARD
140
4.5
170
     2
 62
     0
 63
   257
283
     0
274
    -2
284
     1
 64
     0
275
    -2
285
     1
 65
     0
276
    -2
286
     1
 66
     0
277
    -2
287
     1
 67
     0
278
    -2
288
     1
 68
     0
279
    -2
289
     1
 69
     0
  7
STANDARD
140
6.0
170
     5
 62
     0
 63
   257
283
     0
274
    -2
284
     1
 64
     0
275
    -2
285
     1
 65
     0
276
    -2
286
     1
 66
     0
277
    -2
287
     1
 67
     0
278
    -2
288
     1
 68
     0
279
    -2
289
     1
 69
     0
  7
STANDARD
140
4.5
170
     5
 62
     0
 63
   257
283
     0
274
    -2
284
     1
 64
     0
275
    -2
285
     1
 65
     0
276
    -2
286
     1
 66
     0
277
    -2
287
     1
 67
     0
278
    -2
288
     1
 68
     0
279
    -2
289
     1
 69
     0
  0
VISUALSTYLE
  5
3CA
102
{ACAD_REACTORS
330
3C5
102
}
102
{ACAD_XDICTIONARY
360
6F3
102
}
330
3C5
100
AcDbVisualStyle
  2
2dWireframe
 70
     4
 71
     0
 72
     2
 73
     0
 90
        0
 40
-0.6
 41
-30.0
 62
     5
 63
     7
 74
     1
 91
        4
 64
     7
 65
   257
 75
     1
175
     1
 42
1.0
 92
        0
 66
   257
 43
1.0
 76
     1
 77
     6
 78
     2
 67
     7
 79
     5
170
     0
171
     0
290
     0
174
     0
 93
        1
 44
0.0
173
     0
291
     0
 45
0.0
1001
ACAD
1000
AcDbSavedByObjectVersion
1070
     0
  0
VISUALSTYLE
  5
3CC
102
{ACAD_REACTORS
330
3C5
102
}
102
{ACAD_XDICTIONARY
360
6F7
102
}
330
3C5
100
AcDbVisualStyle
  2
3D Hidden
 70
     6
 71
     1
 72
     2
 73
     2
 90
        0
 40
-0.6
 41
-30.0
 62
     5
 63
     7
 74
     2
 91
        2
 64
     7
 65
   257
 75
     2
175
     1
 42
40.0
 92
        0
 66
   257
 43
1.0
 76
     1
 77
     6
 78
     2
 67
     7
 79
     3
170
     0
171
     0
290
     0
174
     0
 93
        1
 44
0.0
173
     0
291
     0
 45
0.0
1001
ACAD
1000
AcDbSavedByObjectVersion
1070
     0
  0
VISUALSTYLE
  5
3CB
102
{ACAD_REACTORS
330
3C5
102
}
102
{ACAD_XDICTIONARY
360
6F5
102
}
330
3C5
100
AcDbVisualStyle
  2
3dWireframe
 70
     5
 71
     0
 72
     2
 73
     0
 90
        0
 40
-0.6
 41
-30.0
 62
     5
 63
     7
 74
     1
 91
        4
 64
     7
 65
   257
 75
     1
175
     1
 42
1.0
 92
        0
 66
   257
 43
1.0
 76
     1
 77
     6
 78
     2
 67
     7
 79
     5
170
     0
171
     0
290
     0
174
     0
 93
        1
 44
0.0
173
     0
291
     0
 45
0.0
1001
ACAD
1000
AcDbSavedByObjectVersion
1070
     0
  0
VISUALSTYLE
  5
3CD
102
{ACAD_REACTORS
330
3C5
102
}
102
{ACAD_XDICTIONARY
360
6F9
102
}
330
3C5
100
AcDbVisualStyle
  2
Basic
 70
     7
 71
     1
 72
     0
 73
     1
 90
        0
 40
-0.6
 41
-30.0
 62
     5
 63
     7
 74
     0
 91
        4
 64
     7
 65
   257
 75
     1
175
     1
 42
1.0
 92
        8
 66
     7
 43
1.0
 76
     1
 77
     6
 78
     2
 67
     7
 79
     5
170
     0
171
     0
290
     0
174
     0
 93
        1
 44
0.0
173
     0
291
     1
 45
0.0
1001
ACAD
1000
AcDbSavedByObjectVersion
1070
     0
  0
VISUALSTYLE
  5
3D1
102
{ACAD_REACTORS
330
3C5
102
}
102
{ACAD_XDICTIONARY
360
701
102
}
330
3C5
100
AcDbVisualStyle
  2
Brighten
 70
    12
 71
     2
 72
     2
 73
     0
 90
        0
 40
-0.6
 41
-30.0
 62
     5
 63
     7
 74
     1
 91
        4
 64
     7
 65
   257
 75
     1
175
     1
 42
1.0
 92
        8
 66
     7
 43
1.0
 76
     1
 77
     6
 78
     2
 67
     7
 79
     5
170
     0
171
     0
290
     0
174
     0
 93
        1
 44
50.0
173
     0
291
     1
 45
0.0
1001
ACAD
1000
AcDbSavedByObjectVersion
1070
     0
  0
VISUALSTYLE
  5
3D5
102
{ACAD_REACTORS
330
3C5
102
}
102
{ACAD_XDICTIONARY
360
709
102
}
330
3C5
100
AcDbVisualStyle
  2
ColorChange
 70
    16
 71
     2
 72
     2
 73
     3
 90
        0
 40
-0.6
 41
-30.0
 62
     5
 63
     8
 74
     1
 91
        4
 64
     7
 65
   257
 75
     1
175
     1
 42
1.0
 92
        8
 66
     8
 43
1.0
 76
     1
 77
     6
 78
     2
 67
     7
 79
     5
170
     0
171
     0
290
     0
174
     0
 93
        1
 44
0.0
173
     0
291
     1
 45
0.0
1001
ACAD
1000
AcDbSavedByObjectVersion
1070
     0
  0
VISUALSTYLE
  5
3CF
102
{ACAD_REACTORS
330
3C5
102
}
102
{ACAD_XDICTIONARY
360
6FD
102
}
330
3C5
100
AcDbVisualStyle
  2
Conceptual
 70
     9
 71
     3
 72
     2
 73
     0
 90
        0
 40
-0.6
 41
-30.0
 62
     5
 63
     7
 74
     2
 91
        2
 64
     7
 65
   257
 75
     1
175
     1
 42
40.0
 92
        8
 66
     7
 43
1.0
 76
     1
 77
     6
 78
     2
 67
     7
 79
     3
170
     0
171
     0
290
     0
174
     0
 93
        1
 44
0.0
173
     0
291
     0
 45
0.0
1001
ACAD
1000
AcDbSavedByObjectVersion
1070
     0
  0
VISUALSTYLE
  5
3D0
102
{ACAD_REACTORS
330
3C5
102
}
102
{ACAD_XDICTIONARY
360
6FF
102
}
330
3C5
100
AcDbVisualStyle
  2
Dim
 70
    11
 71
     2
 72
     2
 73
     0
 90
        0
 40
-0.6
 41
-30.0
 62
     5
 63
     7
 74
     1
 91
        4
 64
     7
 65
   257
 75
     1
175
     1
 42
1.0
 92
        8
 66
     7
 43
1.0
 76
     1
 77
     6
 78
     2
 67
     7
 79
     5
170
     0
171
     0
290
     0
174
     0
 93
        1
 44
-50.0
173
     0
291
     1
 45
0.0
1001
ACAD
1000
AcDbSavedByObjectVersion
1070
     0
  0
VISUALSTYLE
  5
3D4
102
{ACAD_REACTORS
330
3C5
102
}
102
{ACAD_XDICTIONARY
360
707
102
}
330
3C5
100
AcDbVisualStyle
  2
Facepattern
 70
    15
 71
     2
 72
     2
 73
     0
 90
        0
 40
-0.6
 41
-30.0
 62
     5
 63
     7
 74
     1
 91
        4
 64
     7
 65
   257
 75
     1
175
     1
 42
1.0
 92
        8
 66
     7
 43
1.0
 76
     1
 77
     6
 78
     2
 67
     7
 79
     5
170
     0
171
     0
290
     0
174
     0
 93
        1
 44
0.0
173
     0
291
     1
 45
0.0
1001
ACAD
1000
AcDbSavedByObjectVersion
1070
     0
  0
VISUALSTYLE
  5
3C6
102
{ACAD_REACTORS
330
3C5
102
}
102
{ACAD_XDICTIONARY
360
6EB
102
}
330
3C5
100
AcDbVisualStyle
  2
Flat
 70
     0
 71
     2
 72
     1
 73
     1
 90
        2
 40
-0.6
 41
30.0
 62
     5
 63
     7
 74
     0
 91
        4
 64
     7
 65
   257
 75
     1
175
     1
 42
1.0
 92
        8
 66
     7
 43
1.0
 76
     1
 77
     6
 78
     2
 67
     7
 79
     5
170
     0
171
     0
290
     0
174
     0
 93
       13
 44
0.0
173
     0
291
     1
 45
0.0
1001
ACAD
1000
AcDbSavedByObjectVersion
1070
     0
  0
VISUALSTYLE
  5
3C7
102
{ACAD_REACTORS
330
3C5
102
}
102
{ACAD_XDICTIONARY
360
6ED
102
}
330
3C5
100
AcDbVisualStyle
  2
FlatWithEdges
 70
     1
 71
     2
 72
     1
 73
     1
 90
        2
 40
-0.6
 41
30.0
 62
     5
 63
     7
 74
     1
 91
        4
 64
     7
 65
   257
 75
     1
175
     1
 42
1.0
 92
        0
 66
   257
 43
1.0
 76
     1
 77
     6
 78
     2
 67
     7
 79
     5
170
     0
171
     0
290
     0
174
     0
 93
       13
 44
0.0
173
     0
291
     1
 45
0.0
1001
ACAD
1000
AcDbSavedByObjectVersion
1070
     0
  0
VISUALSTYLE
  5
3C8
102
{ACAD_REACTORS
330
3C5
102
}
102
{ACAD_XDICTIONARY
360
6EF
102
}
330
3C5
100
AcDbVisualStyle
  2
Gouraud
 70
     2
 71
     2
 72
     2
 73
     1
 90
        2
 40
-0.6
 41
30.0
 62
     5
 63
     7
 74
     0
 91
        4
 64
     7
 65
   257
 75
     1
175
     1
 42
1.0
 92
        0
 66
     7
 43
1.0
 76
     1
 77
     6
 78
     2
 67
     7
 79
     5
170
     0
171
     0
290
     0
174
     0
 93
       13
 44
0.0
173
     0
291
     1
 45
0.0
1001
ACAD
1000
AcDbSavedByObjectVersion
1070
     0
  0
VISUALSTYLE
  5
3C9
102
{ACAD_REACTORS
330
3C5
102
}
102
{ACAD_XDICTIONARY
360
6F1
102
}
330
3C5
100
AcDbVisualStyle
  2
GouraudWithEdges
 70
     3
 71
     2
 72
     2
 73
     1
 90
        2
 40
-0.6
 41
30.0
 62
     5
 63
     7
 74
     1
 91
        4
 64
     7
 65
   257
 75
     1
175
     1
 42
1.0
 92
        0
 66
   257
 43
1.0
 76
     1
 77
     6
 78
     2
 67
     7
 79
     5
170
     0
171
     0
290
     0
174
     0
 93
       13
 44
0.0
173
     0
291
     1
 45
0.0
1001
ACAD
1000
AcDbSavedByObjectVersion
1070
     0
  0
VISUALSTYLE
  5
3D3
102
{ACAD_REACTORS
330
3C5
102
}
102
{ACAD_XDICTIONARY
360
705
102
}
330
3C5
100
AcDbVisualStyle
  2
Linepattern
 70
    14
 71
     2
 72
     2
 73
     0
 90
        0
 40
-0.6
 41
-30.0
 62
     5
 63
     7
 74
     1
 91
        4
 64
     7
 65
   257
 75
     7
175
     7
 42
1.0
 92
        8
 66
     7
 43
1.0
 76
     1
 77
     6
 78
     2
 67
     7
 79
     5
170
     0
171
     0
290
     0
174
     0
 93
        1
 44
0.0
173
     0
291
     1
 45
0.0
1001
ACAD
1000
AcDbSavedByObjectVersion
1070
     0
  0
VISUALSTYLE
  5
3CE
102
{ACAD_REACTORS
330
3C5
102
}
102
{ACAD_XDICTIONARY
360
6FB
102
}
330
3C5
100
AcDbVisualStyle
  2
Realistic
 70
     8
 71
     2
 72
     2
 73
     0
 90
        0
 40
-0.6
 41
-30.0
 62
     5
 63
     7
 74
     1
 91
        0
 64
     7
 65
   257
 75
     1
175
     1
 42
1.0
 92
        8
 66
     8
 43
1.0
 76
     1
 77
     6
 78
     2
 67
     7
 79
     5
170
     0
171
     0
290
     0
174
     0
 93
       13
 44
0.0
173
     0
291
     0
 45
0.0
1001
ACAD
1000
AcDbSavedByObjectVersion
1070
     0
  0
VISUALSTYLE
  5
3D2
102
{ACAD_REACTORS
330
3C5
102
}
102
{ACAD_XDICTIONARY
360
703
102
}
330
3C5
100
AcDbVisualStyle
  2
Thicken
 70
    13
 71
     2
 72
     2
 73
     0
 90
        0
 40
-0.6
 41
-30.0
 62
     5
 63
     7
 74
     1
 91
        4
 64
     7
 65
   257
 75
     1
175
     1
 42
1.0
 92
       12
 66
     7
 43
1.0
 76
     1
 77
     6
 78
     2
 67
     7
 79
     5
170
     0
171
     0
290
     0
174
     0
 93
        1
 44
0.0
173
     0
291
     1
 45
0.0
1001
ACAD
1000
AcDbSavedByObjectVersion
1070
     0
  0
XRECORD
  5
6E2
102
{ACAD_REACTORS
330
6E1
102
}
330
6E1
100
AcDbXrecord
280
     1
340
387
  0
XRECORD
  5
6E3
102
{ACAD_REACTORS
330
6E1
102
}
330
6E1
100
AcDbXrecord
280
     1
340
386
  0
DICTIONARYVAR
  5
6E4
102
{ACAD_REACTORS
330
357
102
}
330
357
100
DictionaryVariables
280
     0
  1
1:1
  0
DICTIONARYVAR
  5
38D
102
{ACAD_REACTORS
330
357
102
}
330
357
100
DictionaryVariables
280
     0
  1
Standard
  0
DICTIONARYVAR
  5
359
102
{ACAD_REACTORS
330
357
102
}
330
357
100
DictionaryVariables
280
     0
  1
2
  0
DICTIONARYVAR
  5
358
102
{ACAD_REACTORS
330
357
102
}
330
357
100
DictionaryVariables
280
     0
  1
1
  0
DICTIONARYVAR
  5
38E
102
{ACAD_REACTORS
330
357
102
}
330
357
100
DictionaryVariables
280
     0
  1

  0
DICTIONARY
  5
6E7
330
3C3
100
AcDbDictionary
280
     1
281
     1
  3
ACAD_XREC_ROUNDTRIP
360
6E8
  0
DICTIONARY
  5
6E5
330
3C2
100
AcDbDictionary
280
     1
281
     1
  3
ACAD_XREC_ROUNDTRIP
360
6E6
  0
DICTIONARY
  5
6E9
330
3C4
100
AcDbDictionary
280
     1
281
     1
  3
ACAD_XREC_ROUNDTRIP
360
6EA
  0
DICTIONARY
  5
6F3
330
3CA
100
AcDbDictionary
280
     1
281
     1
  3
ACAD_XREC_ROUNDTRIP
360
6F4
  0
DICTIONARY
  5
6F7
330
3CC
100
AcDbDictionary
280
     1
281
     1
  3
ACAD_XREC_ROUNDTRIP
360
6F8
  0
DICTIONARY
  5
6F5
330
3CB
100
AcDbDictionary
280
     1
281
     1
  3
ACAD_XREC_ROUNDTRIP
360
6F6
  0
DICTIONARY
  5
6F9
330
3CD
100
AcDbDictionary
280
     1
281
     1
  3
ACAD_XREC_ROUNDTRIP
360
6FA
  0
DICTIONARY
  5
701
330
3D1
100
AcDbDictionary
280
     1
281
     1
  3
ACAD_XREC_ROUNDTRIP
360
702
  0
DICTIONARY
  5
709
330
3D5
100
AcDbDictionary
280
     1
281
     1
  3
ACAD_XREC_ROUNDTRIP
360
70A
  0
DICTIONARY
  5
6FD
330
3CF
100
AcDbDictionary
280
     1
281
     1
  3
ACAD_XREC_ROUNDTRIP
360
6FE
  0
DICTIONARY
  5
6FF
330
3D0
100
AcDbDictionary
280
     1
281
     1
  3
ACAD_XREC_ROUNDTRIP
360
700
  0
DICTIONARY
  5
707
330
3D4
100
AcDbDictionary
280
     1
281
     1
  3
ACAD_XREC_ROUNDTRIP
360
708
  0
DICTIONARY
  5
6EB
330
3C6
100
AcDbDictionary
280
     1
281
     1
  3
ACAD_XREC_ROUNDTRIP
360
6EC
  0
DICTIONARY
  5
6ED
330
3C7
100
AcDbDictionary
280
     1
281
     1
  3
ACAD_XREC_ROUNDTRIP
360
6EE
  0
DICTIONARY
  5
6EF
330
3C8
100
AcDbDictionary
280
     1
281
     1
  3
ACAD_XREC_ROUNDTRIP
360
6F0
  0
DICTIONARY
  5
6F1
330
3C9
100
AcDbDictionary
280
     1
281
     1
  3
ACAD_XREC_ROUNDTRIP
360
6F2
  0
DICTIONARY
  5
705
330
3D3
100
AcDbDictionary
280
     1
281
     1
  3
ACAD_XREC_ROUNDTRIP
360
706
  0
DICTIONARY
  5
6FB
330
3CE
100
AcDbDictionary
280
     1
281
     1
  3
ACAD_XREC_ROUNDTRIP
360
6FC
  0
DICTIONARY
  5
703
330
3D2
100
AcDbDictionary
280
     1
281
     1
  3
ACAD_XREC_ROUNDTRIP
360
704
  0
XRECORD
  5
6E8
102
{ACAD_REACTORS
330
6E7
102
}
330
6E7
100
AcDbXrecord
280
     1
102
MATERIAL
148
0.0
149
0.0
149
0.0
 93
        0
 94
      127
282
     0
 72
     1
 77
     1
171
     1
175
     1
179
     1
273
     0
  0
XRECORD
  5
6E6
102
{ACAD_REACTORS
330
6E5
102
}
330
6E5
100
AcDbXrecord
280
     1
102
MATERIAL
148
0.0
149
0.0
149
0.0
 93
        0
 94
      127
282
     0
 72
     1
 77
     1
171
     1
175
     1
179
     1
273
     0
  0
XRECORD
  5
6EA
102
{ACAD_REACTORS
330
6E9
102
}
330
6E9
100
AcDbXrecord
280
     1
102
MATERIAL
148
0.0
149
0.0
149
0.0
 93
        0
 94
      127
282
     0
 72
     1
 77
     1
171
     1
175
     1
179
     1
273
     0
  0
XRECORD
  5
6F4
102
{ACAD_REACTORS
330
6F3
102
}
330
6F3
100
AcDbXrecord
280
     1
102
RTVSPropertyOp0
 70
     1
102
RTVSPropertyOp1
 70
     1
102
RTVSPropertyOp2
 70
     1
102
RTVSPropertyOp3
 70
     1
102
RTVSPropertyOp4
 70
     1
102
RTVSPropertyOp5
 70
     1
102
RTVSPropertyOp6
 70
     1
102
RTVSPropertyOp7
 70
     1
102
RTVSPropertyOp8
 70
     1
102
RTVSPropertyOp9
 70
     1
102
RTVSPropertyOp10
 70
     1
102
RTVSPropertyOp11
 70
     1
102
RTVSPropertyOp12
 70
     1
102
RTVSPropertyOp13
 70
     1
102
RTVSPropertyOp14
 70
     1
102
RTVSPropertyOp15
 70
     1
102
RTVSPropertyOp16
 70
     1
102
RTVSPropertyOp17
 70
     1
102
RTVSPropertyOp18
 70
     1
102
RTVSPropertyOp19
 70
     1
102
RTVSPropertyOp20
 70
     1
102
RTVSPropertyOp21
 70
     1
102
RTVSPropertyOp22
 70
     1
102
RTVSPropertyOp23
 70
     1
102
RTVSPropertyOp24
 70
     1
102
RTVSPropertyOp25
 70
     1
102
RTVSPropertyOp26
 70
     1
102
RTVSPropertyOp27
 70
     1
102
RTVSPropertyOp28
 70
     1
102
RTVSPropertyOp29
 70
     1
102
RTVSPropertyOp30
 70
     1
102
RTVSPropertyOp31
 70
     1
102
RTVSPropertyOp32
 70
     1
  0
XRECORD
  5
6F8
102
{ACAD_REACTORS
330
6F7
102
}
330
6F7
100
AcDbXrecord
280
     1
102
RTVSPropertyOp0
 70
     1
102
RTVSPropertyOp1
 70
     1
102
RTVSPropertyOp2
 70
     1
102
RTVSPropertyOp3
 70
     1
102
RTVSPropertyOp4
 70
     1
102
RTVSPropertyOp5
 70
     1
102
RTVSPropertyOp6
 70
     1
102
RTVSPropertyOp7
 70
     1
102
RTVSPropertyOp8
 70
     1
102
RTVSPropertyOp9
 70
     1
102
RTVSPropertyOp10
 70
     1
102
RTVSPropertyOp11
 70
     1
102
RTVSPropertyOp12
 70
     1
102
RTVSPropertyOp13
 70
     1
102
RTVSPropertyOp14
 70
     1
102
RTVSPropertyOp15
 70
     1
102
RTVSPropertyOp16
 70
     1
102
RTVSPropertyOp17
 70
     1
102
RTVSPropertyOp18
 70
     1
102
RTVSPropertyOp19
 70
     1
102
RTVSPropertyOp20
 70
     1
102
RTVSPropertyOp21
 70
     1
102
RTVSPropertyOp22
 70
     1
102
RTVSPropertyOp23
 70
     1
102
RTVSPropertyOp24
 70
     1
102
RTVSPropertyOp25
 70
     1
102
RTVSPropertyOp26
 70
     1
102
RTVSPropertyOp27
 70
     1
102
RTVSPropertyOp28
 70
     1
102
RTVSPropertyOp29
 70
     1
102
RTVSPropertyOp30
 70
     1
102
RTVSPropertyOp31
 70
     1
102
RTVSPropertyOp32
 70
     1
  0
XRECORD
  5
6F6
102
{ACAD_REACTORS
330
6F5
102
}
330
6F5
100
AcDbXrecord
280
     1
102
RTVSPropertyOp0
 70
     1
102
RTVSPropertyOp1
 70
     1
102
RTVSPropertyOp2
 70
     1
102
RTVSPropertyOp3
 70
     1
102
RTVSPropertyOp4
 70
     1
102
RTVSPropertyOp5
 70
     1
102
RTVSPropertyOp6
 70
     1
102
RTVSPropertyOp7
 70
     1
102
RTVSPropertyOp8
 70
     1
102
RTVSPropertyOp9
 70
     1
102
RTVSPropertyOp10
 70
     1
102
RTVSPropertyOp11
 70
     1
102
RTVSPropertyOp12
 70
     1
102
RTVSPropertyOp13
 70
     1
102
RTVSPropertyOp14
 70
     1
102
RTVSPropertyOp15
 70
     1
102
RTVSPropertyOp16
 70
     1
102
RTVSPropertyOp17
 70
     1
102
RTVSPropertyOp18
 70
     1
102
RTVSPropertyOp19
 70
     1
102
RTVSPropertyOp20
 70
     1
102
RTVSPropertyOp21
 70
     1
102
RTVSPropertyOp22
 70
     1
102
RTVSPropertyOp23
 70
     1
102
RTVSPropertyOp24
 70
     1
102
RTVSPropertyOp25
 70
     1
102
RTVSPropertyOp26
 70
     1
102
RTVSPropertyOp27
 70
     1
102
RTVSPropertyOp28
 70
     1
102
RTVSPropertyOp29
 70
     1
102
RTVSPropertyOp30
 70
     1
102
RTVSPropertyOp31
 70
     1
102
RTVSPropertyOp32
 70
     1
  0
XRECORD
  5
6FA
102
{ACAD_REACTORS
330
6F9
102
}
330
6F9
100
AcDbXrecord
280
     1
102
RTVSPropertyOp0
 70
     1
102
RTVSPropertyOp1
 70
     1
102
RTVSPropertyOp2
 70
     1
102
RTVSPropertyOp3
 70
     1
102
RTVSPropertyOp4
 70
     1
102
RTVSPropertyOp5
 70
     1
102
RTVSPropertyOp6
 70
     1
102
RTVSPropertyOp7
 70
     1
102
RTVSPropertyOp8
 70
     1
102
RTVSPropertyOp9
 70
     1
102
RTVSPropertyOp10
 70
     1
102
RTVSPropertyOp11
 70
     1
102
RTVSPropertyOp12
 70
     1
102
RTVSPropertyOp13
 70
     1
102
RTVSPropertyOp14
 70
     1
102
RTVSPropertyOp15
 70
     1
102
RTVSPropertyOp16
 70
     1
102
RTVSPropertyOp17
 70
     1
102
RTVSPropertyOp18
 70
     1
102
RTVSPropertyOp19
 70
     1
102
RTVSPropertyOp20
 70
     1
102
RTVSPropertyOp21
 70
     1
102
RTVSPropertyOp22
 70
     1
102
RTVSPropertyOp23
 70
     1
102
RTVSPropertyOp24
 70
     1
102
RTVSPropertyOp25
 70
     1
102
RTVSPropertyOp26
 70
     1
102
RTVSPropertyOp27
 70
     1
102
RTVSPropertyOp28
 70
     1
102
RTVSPropertyOp29
 70
     1
102
RTVSPropertyOp30
 70
     1
102
RTVSPropertyOp31
 70
     1
102
RTVSPropertyOp32
 70
     1
  0
XRECORD
  5
702
102
{ACAD_REACTORS
330
701
102
}
330
701
100
AcDbXrecord
280
     1
102
RTVSPropertyOp0
 70
     1
102
RTVSPropertyOp1
 70
     1
102
RTVSPropertyOp2
 70
     1
102
RTVSPropertyOp3
 70
     1
102
RTVSPropertyOp4
 70
     1
102
RTVSPropertyOp5
 70
     1
102
RTVSPropertyOp6
 70
     1
102
RTVSPropertyOp7
 70
     1
102
RTVSPropertyOp8
 70
     1
102
RTVSPropertyOp9
 70
     1
102
RTVSPropertyOp10
 70
     1
102
RTVSPropertyOp11
 70
     1
102
RTVSPropertyOp12
 70
     1
102
RTVSPropertyOp13
 70
     1
102
RTVSPropertyOp14
 70
     1
102
RTVSPropertyOp15
 70
     1
102
RTVSPropertyOp16
 70
     1
102
RTVSPropertyOp17
 70
     1
102
RTVSPropertyOp18
 70
     1
102
RTVSPropertyOp19
 70
     1
102
RTVSPropertyOp20
 70
     1
102
RTVSPropertyOp21
 70
     1
102
RTVSPropertyOp22
 70
     1
102
RTVSPropertyOp23
 70
     1
102
RTVSPropertyOp24
 70
     1
102
RTVSPropertyOp25
 70
     1
102
RTVSPropertyOp26
 70
     1
102
RTVSPropertyOp27
 70
     1
102
RTVSPropertyOp28
 70
     1
102
RTVSPropertyOp29
 70
     1
102
RTVSPropertyOp30
 70
     1
102
RTVSPropertyOp31
 70
     1
102
RTVSPropertyOp32
 70
     1
  0
XRECORD
  5
70A
102
{ACAD_REACTORS
330
709
102
}
330
709
100
AcDbXrecord
280
     1
102
RTVSPropertyOp0
 70
     1
102
RTVSPropertyOp1
 70
     1
102
RTVSPropertyOp2
 70
     1
102
RTVSPropertyOp3
 70
     1
102
RTVSPropertyOp4
 70
     1
102
RTVSPropertyOp5
 70
     1
102
RTVSPropertyOp6
 70
     1
102
RTVSPropertyOp7
 70
     1
102
RTVSPropertyOp8
 70
     1
102
RTVSPropertyOp9
 70
     1
102
RTVSPropertyOp10
 70
     1
102
RTVSPropertyOp11
 70
     1
102
RTVSPropertyOp12
 70
     1
102
RTVSPropertyOp13
 70
     1
102
RTVSPropertyOp14
 70
     1
102
RTVSPropertyOp15
 70
     1
102
RTVSPropertyOp16
 70
     1
102
RTVSPropertyOp17
 70
     1
102
RTVSPropertyOp18
 70
     1
102
RTVSPropertyOp19
 70
     1
102
RTVSPropertyOp20
 70
     1
102
RTVSPropertyOp21
 70
     1
102
RTVSPropertyOp22
 70
     1
102
RTVSPropertyOp23
 70
     1
102
RTVSPropertyOp24
 70
     1
102
RTVSPropertyOp25
 70
     1
102
RTVSPropertyOp26
 70
     1
102
RTVSPropertyOp27
 70
     1
102
RTVSPropertyOp28
 70
     1
102
RTVSPropertyOp29
 70
     1
102
RTVSPropertyOp30
 70
     1
102
RTVSPropertyOp31
 70
     1
102
RTVSPropertyOp32
 70
     1
  0
XRECORD
  5
6FE
102
{ACAD_REACTORS
330
6FD
102
}
330
6FD
100
AcDbXrecord
280
     1
102
RTVSPropertyOp0
 70
     1
102
RTVSPropertyOp1
 70
     1
102
RTVSPropertyOp2
 70
     1
102
RTVSPropertyOp3
 70
     1
102
RTVSPropertyOp4
 70
     1
102
RTVSPropertyOp5
 70
     1
102
RTVSPropertyOp6
 70
     1
102
RTVSPropertyOp7
 70
     1
102
RTVSPropertyOp8
 70
     1
102
RTVSPropertyOp9
 70
     1
102
RTVSPropertyOp10
 70
     1
102
RTVSPropertyOp11
 70
     1
102
RTVSPropertyOp12
 70
     1
102
RTVSPropertyOp13
 70
     1
102
RTVSPropertyOp14
 70
     1
102
RTVSPropertyOp15
 70
     1
102
RTVSPropertyOp16
 70
     1
102
RTVSPropertyOp17
 70
     1
102
RTVSPropertyOp18
 70
     1
102
RTVSPropertyOp19
 70
     1
102
RTVSPropertyOp20
 70
     1
102
RTVSPropertyOp21
 70
     1
102
RTVSPropertyOp22
 70
     1
102
RTVSPropertyOp23
 70
     1
102
RTVSPropertyOp24
 70
     1
102
RTVSPropertyOp25
 70
     1
102
RTVSPropertyOp26
 70
     1
102
RTVSPropertyOp27
 70
     1
102
RTVSPropertyOp28
 70
     1
102
RTVSPropertyOp29
 70
     1
102
RTVSPropertyOp30
 70
     1
102
RTVSPropertyOp31
 70
     1
102
RTVSPropertyOp32
 70
     1
  0
XRECORD
  5
700
102
{ACAD_REACTORS
330
6FF
102
}
330
6FF
100
AcDbXrecord
280
     1
102
RTVSPropertyOp0
 70
     1
102
RTVSPropertyOp1
 70
     1
102
RTVSPropertyOp2
 70
     1
102
RTVSPropertyOp3
 70
     1
102
RTVSPropertyOp4
 70
     1
102
RTVSPropertyOp5
 70
     1
102
RTVSPropertyOp6
 70
     1
102
RTVSPropertyOp7
 70
     1
102
RTVSPropertyOp8
 70
     1
102
RTVSPropertyOp9
 70
     1
102
RTVSPropertyOp10
 70
     1
102
RTVSPropertyOp11
 70
     1
102
RTVSPropertyOp12
 70
     1
102
RTVSPropertyOp13
 70
     1
102
RTVSPropertyOp14
 70
     1
102
RTVSPropertyOp15
 70
     1
102
RTVSPropertyOp16
 70
     1
102
RTVSPropertyOp17
 70
     1
102
RTVSPropertyOp18
 70
     1
102
RTVSPropertyOp19
 70
     1
102
RTVSPropertyOp20
 70
     1
102
RTVSPropertyOp21
 70
     1
102
RTVSPropertyOp22
 70
     1
102
RTVSPropertyOp23
 70
     1
102
RTVSPropertyOp24
 70
     1
102
RTVSPropertyOp25
 70
     1
102
RTVSPropertyOp26
 70
     1
102
RTVSPropertyOp27
 70
     1
102
RTVSPropertyOp28
 70
     1
102
RTVSPropertyOp29
 70
     1
102
RTVSPropertyOp30
 70
     1
102
RTVSPropertyOp31
 70
     1
102
RTVSPropertyOp32
 70
     1
  0
XRECORD
  5
708
102
{ACAD_REACTORS
330
707
102
}
330
707
100
AcDbXrecord
280
     1
102
RTVSPropertyOp0
 70
     1
102
RTVSPropertyOp1
 70
     1
102
RTVSPropertyOp2
 70
     1
102
RTVSPropertyOp3
 70
     1
102
RTVSPropertyOp4
 70
     1
102
RTVSPropertyOp5
 70
     1
102
RTVSPropertyOp6
 70
     1
102
RTVSPropertyOp7
 70
     1
102
RTVSPropertyOp8
 70
     1
102
RTVSPropertyOp9
 70
     1
102
RTVSPropertyOp10
 70
     1
102
RTVSPropertyOp11
 70
     1
102
RTVSPropertyOp12
 70
     1
102
RTVSPropertyOp13
 70
     1
102
RTVSPropertyOp14
 70
     1
102
RTVSPropertyOp15
 70
     1
102
RTVSPropertyOp16
 70
     1
102
RTVSPropertyOp17
 70
     1
102
RTVSPropertyOp18
 70
     1
102
RTVSPropertyOp19
 70
     1
102
RTVSPropertyOp20
 70
     1
102
RTVSPropertyOp21
 70
     1
102
RTVSPropertyOp22
 70
     1
102
RTVSPropertyOp23
 70
     1
102
RTVSPropertyOp24
 70
     1
102
RTVSPropertyOp25
 70
     1
102
RTVSPropertyOp26
 70
     1
102
RTVSPropertyOp27
 70
     1
102
RTVSPropertyOp28
 70
     1
102
RTVSPropertyOp29
 70
     1
102
RTVSPropertyOp30
 70
     1
102
RTVSPropertyOp31
 70
     1
102
RTVSPropertyOp32
 70
     1
  0
XRECORD
  5
6EC
102
{ACAD_REACTORS
330
6EB
102
}
330
6EB
100
AcDbXrecord
280
     1
102
RTVSPropertyOp0
 70
     1
102
RTVSPropertyOp1
 70
     1
102
RTVSPropertyOp2
 70
     1
102
RTVSPropertyOp3
 70
     1
102
RTVSPropertyOp4
 70
     1
102
RTVSPropertyOp5
 70
     1
102
RTVSPropertyOp6
 70
     1
102
RTVSPropertyOp7
 70
     1
102
RTVSPropertyOp8
 70
     1
102
RTVSPropertyOp9
 70
     1
102
RTVSPropertyOp10
 70
     1
102
RTVSPropertyOp11
 70
     1
102
RTVSPropertyOp12
 70
     1
102
RTVSPropertyOp13
 70
     1
102
RTVSPropertyOp14
 70
     1
102
RTVSPropertyOp15
 70
     1
102
RTVSPropertyOp16
 70
     1
102
RTVSPropertyOp17
 70
     1
102
RTVSPropertyOp18
 70
     1
102
RTVSPropertyOp19
 70
     1
102
RTVSPropertyOp20
 70
     1
102
RTVSPropertyOp21
 70
     1
102
RTVSPropertyOp22
 70
     1
102
RTVSPropertyOp23
 70
     1
102
RTVSPropertyOp24
 70
     1
102
RTVSPropertyOp25
 70
     1
102
RTVSPropertyOp26
 70
     1
102
RTVSPropertyOp27
 70
     1
102
RTVSPropertyOp28
 70
     1
102
RTVSPropertyOp29
 70
     1
102
RTVSPropertyOp30
 70
     1
102
RTVSPropertyOp31
 70
     1
102
RTVSPropertyOp32
 70
     1
  0
XRECORD
  5
6EE
102
{ACAD_REACTORS
330
6ED
102
}
330
6ED
100
AcDbXrecord
280
     1
102
RTVSPropertyOp0
 70
     1
102
RTVSPropertyOp1
 70
     1
102
RTVSPropertyOp2
 70
     1
102
RTVSPropertyOp3
 70
     1
102
RTVSPropertyOp4
 70
     1
102
RTVSPropertyOp5
 70
     1
102
RTVSPropertyOp6
 70
     1
102
RTVSPropertyOp7
 70
     1
102
RTVSPropertyOp8
 70
     1
102
RTVSPropertyOp9
 70
     1
102
RTVSPropertyOp10
 70
     1
102
RTVSPropertyOp11
 70
     1
102
RTVSPropertyOp12
 70
     1
102
RTVSPropertyOp13
 70
     1
102
RTVSPropertyOp14
 70
     1
102
RTVSPropertyOp15
 70
     1
102
RTVSPropertyOp16
 70
     1
102
RTVSPropertyOp17
 70
     1
102
RTVSPropertyOp18
 70
     1
102
RTVSPropertyOp19
 70
     1
102
RTVSPropertyOp20
 70
     1
102
RTVSPropertyOp21
 70
     1
102
RTVSPropertyOp22
 70
     1
102
RTVSPropertyOp23
 70
     1
102
RTVSPropertyOp24
 70
     1
102
RTVSPropertyOp25
 70
     1
102
RTVSPropertyOp26
 70
     1
102
RTVSPropertyOp27
 70
     1
102
RTVSPropertyOp28
 70
     1
102
RTVSPropertyOp29
 70
     1
102
RTVSPropertyOp30
 70
     1
102
RTVSPropertyOp31
 70
     1
102
RTVSPropertyOp32
 70
     1
  0
XRECORD
  5
6F0
102
{ACAD_REACTORS
330
6EF
102
}
330
6EF
100
AcDbXrecord
280
     1
102
RTVSPropertyOp0
 70
     1
102
RTVSPropertyOp1
 70
     1
102
RTVSPropertyOp2
 70
     1
102
RTVSPropertyOp3
 70
     1
102
RTVSPropertyOp4
 70
     1
102
RTVSPropertyOp5
 70
     1
102
RTVSPropertyOp6
 70
     1
102
RTVSPropertyOp7
 70
     1
102
RTVSPropertyOp8
 70
     1
102
RTVSPropertyOp9
 70
     1
102
RTVSPropertyOp10
 70
     1
102
RTVSPropertyOp11
 70
     1
102
RTVSPropertyOp12
 70
     1
102
RTVSPropertyOp13
 70
     1
102
RTVSPropertyOp14
 70
     1
102
RTVSPropertyOp15
 70
     1
102
RTVSPropertyOp16
 70
     1
102
RTVSPropertyOp17
 70
     1
102
RTVSPropertyOp18
 70
     1
102
RTVSPropertyOp19
 70
     1
102
RTVSPropertyOp20
 70
     1
102
RTVSPropertyOp21
 70
     1
102
RTVSPropertyOp22
 70
     1
102
RTVSPropertyOp23
 70
     1
102
RTVSPropertyOp24
 70
     1
102
RTVSPropertyOp25
 70
     1
102
RTVSPropertyOp26
 70
     1
102
RTVSPropertyOp27
 70
     1
102
RTVSPropertyOp28
 70
     1
102
RTVSPropertyOp29
 70
     1
102
RTVSPropertyOp30
 70
     1
102
RTVSPropertyOp31
 70
     1
102
RTVSPropertyOp32
 70
     1
  0
XRECORD
  5
6F2
102
{ACAD_REACTORS
330
6F1
102
}
330
6F1
100
AcDbXrecord
280
     1
102
RTVSPropertyOp0
 70
     1
102
RTVSPropertyOp1
 70
     1
102
RTVSPropertyOp2
 70
     1
102
RTVSPropertyOp3
 70
     1
102
RTVSPropertyOp4
 70
     1
102
RTVSPropertyOp5
 70
     1
102
RTVSPropertyOp6
 70
     1
102
RTVSPropertyOp7
 70
     1
102
RTVSPropertyOp8
 70
     1
102
RTVSPropertyOp9
 70
     1
102
RTVSPropertyOp10
 70
     1
102
RTVSPropertyOp11
 70
     1
102
RTVSPropertyOp12
 70
     1
102
RTVSPropertyOp13
 70
     1
102
RTVSPropertyOp14
 70
     1
102
RTVSPropertyOp15
 70
     1
102
RTVSPropertyOp16
 70
     1
102
RTVSPropertyOp17
 70
     1
102
RTVSPropertyOp18
 70
     1
102
RTVSPropertyOp19
 70
     1
102
RTVSPropertyOp20
 70
     1
102
RTVSPropertyOp21
 70
     1
102
RTVSPropertyOp22
 70
     1
102
RTVSPropertyOp23
 70
     1
102
RTVSPropertyOp24
 70
     1
102
RTVSPropertyOp25
 70
     1
102
RTVSPropertyOp26
 70
     1
102
RTVSPropertyOp27
 70
     1
102
RTVSPropertyOp28
 70
     1
102
RTVSPropertyOp29
 70
     1
102
RTVSPropertyOp30
 70
     1
102
RTVSPropertyOp31
 70
     1
102
RTVSPropertyOp32
 70
     1
  0
XRECORD
  5
706
102
{ACAD_REACTORS
330
705
102
}
330
705
100
AcDbXrecord
280
     1
102
RTVSPropertyOp0
 70
     1
102
RTVSPropertyOp1
 70
     1
102
RTVSPropertyOp2
 70
     1
102
RTVSPropertyOp3
 70
     1
102
RTVSPropertyOp4
 70
     1
102
RTVSPropertyOp5
 70
     1
102
RTVSPropertyOp6
 70
     1
102
RTVSPropertyOp7
 70
     1
102
RTVSPropertyOp8
 70
     1
102
RTVSPropertyOp9
 70
     1
102
RTVSPropertyOp10
 70
     1
102
RTVSPropertyOp11
 70
     1
102
RTVSPropertyOp12
 70
     1
102
RTVSPropertyOp13
 70
     1
102
RTVSPropertyOp14
 70
     1
102
RTVSPropertyOp15
 70
     1
102
RTVSPropertyOp16
 70
     1
102
RTVSPropertyOp17
 70
     1
102
RTVSPropertyOp18
 70
     1
102
RTVSPropertyOp19
 70
     1
102
RTVSPropertyOp20
 70
     1
102
RTVSPropertyOp21
 70
     1
102
RTVSPropertyOp22
 70
     1
102
RTVSPropertyOp23
 70
     1
102
RTVSPropertyOp24
 70
     1
102
RTVSPropertyOp25
 70
     1
102
RTVSPropertyOp26
 70
     1
102
RTVSPropertyOp27
 70
     1
102
RTVSPropertyOp28
 70
     1
102
RTVSPropertyOp29
 70
     1
102
RTVSPropertyOp30
 70
     1
102
RTVSPropertyOp31
 70
     1
102
RTVSPropertyOp32
 70
     1
  0
XRECORD
  5
6FC
102
{ACAD_REACTORS
330
6FB
102
}
330
6FB
100
AcDbXrecord
280
     1
102
RTVSPropertyOp0
 70
     1
102
RTVSPropertyOp1
 70
     1
102
RTVSPropertyOp2
 70
     1
102
RTVSPropertyOp3
 70
     1
102
RTVSPropertyOp4
 70
     1
102
RTVSPropertyOp5
 70
     1
102
RTVSPropertyOp6
 70
     1
102
RTVSPropertyOp7
 70
     1
102
RTVSPropertyOp8
 70
     1
102
RTVSPropertyOp9
 70
     1
102
RTVSPropertyOp10
 70
     1
102
RTVSPropertyOp11
 70
     1
102
RTVSPropertyOp12
 70
     1
102
RTVSPropertyOp13
 70
     1
102
RTVSPropertyOp14
 70
     1
102
RTVSPropertyOp15
 70
     1
102
RTVSPropertyOp16
 70
     1
102
RTVSPropertyOp17
 70
     1
102
RTVSPropertyOp18
 70
     1
102
RTVSPropertyOp19
 70
     1
102
RTVSPropertyOp20
 70
     1
102
RTVSPropertyOp21
 70
     1
102
RTVSPropertyOp22
 70
     1
102
RTVSPropertyOp23
 70
     1
102
RTVSPropertyOp24
 70
     1
102
RTVSPropertyOp25
 70
     1
102
RTVSPropertyOp26
 70
     1
102
RTVSPropertyOp27
 70
     1
102
RTVSPropertyOp28
 70
     1
102
RTVSPropertyOp29
 70
     1
102
RTVSPropertyOp30
 70
     1
102
RTVSPropertyOp31
 70
     1
102
RTVSPropertyOp32
 70
     1
  0
XRECORD
  5
704
102
{ACAD_REACTORS
330
703
102
}
330
703
100
AcDbXrecord
280
     1
102
RTVSPropertyOp0
 70
     1
102
RTVSPropertyOp1
 70
     1
102
RTVSPropertyOp2
 70
     1
102
RTVSPropertyOp3
 70
     1
102
RTVSPropertyOp4
 70
     1
102
RTVSPropertyOp5
 70
     1
102
RTVSPropertyOp6
 70
     1
102
RTVSPropertyOp7
 70
     1
102
RTVSPropertyOp8
 70
     1
102
RTVSPropertyOp9
 70
     1
102
RTVSPropertyOp10
 70
     1
102
RTVSPropertyOp11
 70
     1
102
RTVSPropertyOp12
 70
     1
102
RTVSPropertyOp13
 70
     1
102
RTVSPropertyOp14
 70
     1
102
RTVSPropertyOp15
 70
     1
102
RTVSPropertyOp16
 70
     1
102
RTVSPropertyOp17
 70
     1
102
RTVSPropertyOp18
 70
     1
102
RTVSPropertyOp19
 70
     1
102
RTVSPropertyOp20
 70
     1
102
RTVSPropertyOp21
 70
     1
102
RTVSPropertyOp22
 70
     1
102
RTVSPropertyOp23
 70
     1
102
RTVSPropertyOp24
 70
     1
102
RTVSPropertyOp25
 70
     1
102
RTVSPropertyOp26
 70
     1
102
RTVSPropertyOp27
 70
     1
102
RTVSPropertyOp28
 70
     1
102
RTVSPropertyOp29
 70
     1
102
RTVSPropertyOp30
 70
     1
102
RTVSPropertyOp31
 70
     1
102
RTVSPropertyOp32
 70
     1
  0
ENDSEC
  0
EOF
