0
SECTION
2
HEADER
9
$ACADVER
1
AC1015
9
$DWGCODEPAGE
3
ANSI_1252
9
$HANDSEED
5
34a
9
$ANGBASE
50
0
9
$ANGDIR
70
0
9
$ATTMODE
70
1
9
$AUNITS
70
0
9
$AUPREC
70
0
9
$CECOLOR
62
256
9
$CELTSCALE
40
1
9
$CELTYPE
6
ByLayer
9
$CELWEIGHT
370
18
9
$CLAYER
8
0
9
$CMLJUST
70
0
9
$CMLSCALE
40
1
9
$CMLSTYLE
2
Standard
9
$DIMSTYLE
2
Standard
9
$TEXTSIZE
40
0.2
9
$TEXTSTYLE
7
Standard
9
$LUNITS
70
2
9
$LUPREC
70
4
9
$EXTNAMES
290
1
9
$INSUNITS
70
4
9
$LTSCALE
40
1
9
$LWDISPLAY
290
1
9
$PDMODE
70
0
9
$PDSIZE
40
0
9
$PLINEGEN
70
0
0
ENDSEC
0
SECTION
2
CLASSES
0
CLASS
1
RASTERVARIABLES
2
AcDbRasterVariables
3
ISM
90
0
280
0
281
0
0
ENDSEC
0
SECTION
2
TABLES
0
TABLE
2
VPORT
5
340
100
AcDbSymbolTable
0
VPORT
5
1
100
AcDbSymbolTableRecord
100
AcDbViewportTableRecord
2
*Active
70
0
10
0
20
0
11
1
21
1
12
-1
22
1
13
0
23
0
14
0.5
24
0.5
15
10
25
10
16
0
26
0
36
1
17
0
27
0
37
0
0
ENDTAB
0
TABLE
2
LTYPE
5
341
100
AcDbSymbolTable
0
LTYPE
5
14
100
AcDbSymbolTableRecord
100
AcDbLinetypeTableRecord
70
0
2
ByBlock
3

72
65
73
0
40
0
0
LTYPE
5
15
100
AcDbSymbolTableRecord
100
AcDbLinetypeTableRecord
70
0
2
ByLayer
3

72
65
73
0
40
0
0
LTYPE
5
16
100
AcDbSymbolTableRecord
100
AcDbLinetypeTableRecord
70
0
2
Continuous
3
Solid line
72
65
73
0
40
0
0
LTYPE
5
6E
100
AcDbSymbolTableRecord
100
AcDbLinetypeTableRecord
70
0
2
CENTER
3
____ _ ____ _ ____ _ ____
72
65
73
4
40
47.5
49
22
74
0
49
-8.5
74
0
49
8.5
74
0
49
-8.5
74
0
0
LTYPE
5
6F
100
AcDbSymbolTableRecord
100
AcDbLinetypeTableRecord
70
0
2
DASHED
3
__ __ __ __ __ __ __ __ __
72
65
73
2
40
25.72
49
12.86
74
0
49
-12.86
74
0
0
ENDTAB
0
TABLE
2
LAYER
5
342
100
AcDbSymbolTable
0
LAYER
5
10
100
AcDbSymbolTableRecord
100
AcDbLayerTableRecord
2
0
70
0
62
7
6
Continuous
290
1
370
-3
390
0
0
LAYER
5
71
100
AcDbSymbolTableRecord
100
AcDbLayerTableRecord
2
81
70
0
62
-3
6
Continuous
290
1
370
-3
390
0
0
LAYER
5
73
100
AcDbSymbolTableRecord
100
AcDbLayerTableRecord
2
80
70
0
62
-6
6
Continuous
290
1
370
-3
390
0
0
LAYER
5
75
100
AcDbSymbolTableRecord
100
AcDbLayerTableRecord
2
1
70
0
62
4
6
Continuous
290
1
370
-3
390
0
0
LAYER
5
88
100
AcDbSymbolTableRecord
100
AcDbLayerTableRecord
2
4
70
0
62
-2
6
CENTER
290
1
370
-3
390
0
0
LAYER
5
21E
100
AcDbSymbolTableRecord
100
AcDbLayerTableRecord
2
Defpoints
70
0
62
7
6
Continuous
290
0
370
-3
390
0
0
LAYER
5
25B
100
AcDbSymbolTableRecord
100
AcDbLayerTableRecord
2
2
70
0
62
7
6
Continuous
290
1
370
-3
390
0
0
LAYER
5
32c
100
AcDbSymbolTableRecord
100
AcDbLayerTableRecord
2
SK4
70
0
62
2
6
CENTER
290
1
370
-3
390
0
0
LAYER
5
32d
100
AcDbSymbolTableRecord
100
AcDbLayerTableRecord
2
SK1
70
0
62
4
6
Continuous
290
1
370
-3
390
0
0
LAYER
5
32e
100
AcDbSymbolTableRecord
100
AcDbLayerTableRecord
2
SK2
70
0
62
7
6
Continuous
290
1
370
-3
390
0
0
LAYER
5
32f
100
AcDbSymbolTableRecord
100
AcDbLayerTableRecord
2
SK6
70
0
62
5
6
Continuous
290
1
370
-3
390
0
0
ENDTAB
0
TABLE
2
STYLE
5
343
100
AcDbSymbolTable
0
STYLE
5
11
100
AcDbSymbolTableRecord
100
AcDbTextStyleTableRecord
2
Standard
3
txt
70
0
71
0
40
0
41
1
42
0
50
0
0
STYLE
5
20C
100
AcDbSymbolTableRecord
100
AcDbTextStyleTableRecord
2
iso_b_vert
3
simplex.shx
70
0
71
0
40
0
41
1
42
0
50
0
0
STYLE
5
20D
100
AcDbSymbolTableRecord
100
AcDbTextStyleTableRecord
2
DWGDirectTextStyle
3
simplex
70
0
71
0
40
0
41
1
42
0
50
0
0
ENDTAB
0
TABLE
2
DIMSTYLE
5
344
100
AcDbSymbolTable
100
AcDbDimStyleTable
0
DIMSTYLE
105
27
100
AcDbSymbolTableRecord
100
AcDbDimStyleTableRecord
2
Standard
70
0
3
<>
41
0.18
42
0.0625
44
0.18
140
0.18
147
0.09
73
0
74
0
77
1
271
2
275
0
278
52
280
0
340
11
0
ENDTAB
0
TABLE
2
VIEW
5
345
100
AcDbSymbolTable
0
ENDTAB
0
TABLE
2
UCS
5
346
100
AcDbSymbolTable
0
ENDTAB
0
TABLE
2
APPID
5
347
100
AcDbSymbolTable
0
APPID
5
12
100
AcDbSymbolTableRecord
100
AcDbRegAppTableRecord
2
ACAD
70
0
0
APPID
5
21A
100
AcDbSymbolTableRecord
100
AcDbRegAppTableRecord
2
ACAD_DSTYLE_DIMBREAK
70
0
0
APPID
5
2EB
100
AcDbSymbolTableRecord
100
AcDbRegAppTableRecord
2
ACAD_DSTYLE_DIM_LINETYPE
70
0
0
APPID
5
2EC
100
AcDbSymbolTableRecord
100
AcDbRegAppTableRecord
2
ACAD_DSTYLE_DIM_EXT1_LINETYPE
70
0
0
APPID
5
2ED
100
AcDbSymbolTableRecord
100
AcDbRegAppTableRecord
2
ACAD_DSTYLE_DIM_EXT2_LINETYPE
70
0
0
APPID
5
328
100
AcDbSymbolTableRecord
100
AcDbRegAppTableRecord
2
ACAD_MLEADERVER
70
0
0
ENDTAB
0
TABLE
2
BLOCK_RECORD
5
348
100
AcDbSymbolTable
0
BLOCK_RECORD
5
1F
100
AcDbSymbolTableRecord
100
AcDbBlockTableRecord
2
*Model_Space
340
0
70
0
0
BLOCK_RECORD
5
1B
100
AcDbSymbolTableRecord
100
AcDbBlockTableRecord
2
*Paper_Space
340
0
70
0
0
BLOCK_RECORD
5
23
100
AcDbSymbolTableRecord
100
AcDbBlockTableRecord
2
*Paper_Space0
340
0
70
0
0
BLOCK_RECORD
5
21F
100
AcDbSymbolTableRecord
100
AcDbBlockTableRecord
2
*D1
340
0
70
0
0
BLOCK_RECORD
5
22B
100
AcDbSymbolTableRecord
100
AcDbBlockTableRecord
2
_U0
340
0
70
0
0
BLOCK_RECORD
5
237
100
AcDbSymbolTableRecord
100
AcDbBlockTableRecord
2
*D3
340
0
70
0
0
BLOCK_RECORD
5
243
100
AcDbSymbolTableRecord
100
AcDbBlockTableRecord
2
_U1
340
0
70
0
0
BLOCK_RECORD
5
24F
100
AcDbSymbolTableRecord
100
AcDbBlockTableRecord
2
*D5
340
0
70
0
0
BLOCK_RECORD
5
25C
100
AcDbSymbolTableRecord
100
AcDbBlockTableRecord
2
_U2
340
0
70
0
0
BLOCK_RECORD
5
268
100
AcDbSymbolTableRecord
100
AcDbBlockTableRecord
2
*D7
340
0
70
0
0
BLOCK_RECORD
5
275
100
AcDbSymbolTableRecord
100
AcDbBlockTableRecord
2
_U3
340
0
70
0
0
BLOCK_RECORD
5
281
100
AcDbSymbolTableRecord
100
AcDbBlockTableRecord
2
*D9
340
0
70
0
0
BLOCK_RECORD
5
28E
100
AcDbSymbolTableRecord
100
AcDbBlockTableRecord
2
_U4
340
0
70
0
0
BLOCK_RECORD
5
29B
100
AcDbSymbolTableRecord
100
AcDbBlockTableRecord
2
*D11
340
0
70
0
0
BLOCK_RECORD
5
2A9
100
AcDbSymbolTableRecord
100
AcDbBlockTableRecord
2
_U5
340
0
70
0
0
BLOCK_RECORD
5
2B6
100
AcDbSymbolTableRecord
100
AcDbBlockTableRecord
2
*D13
340
0
70
0
0
BLOCK_RECORD
5
2C4
100
AcDbSymbolTableRecord
100
AcDbBlockTableRecord
2
_U6
340
0
70
0
0
ENDTAB
0
ENDSEC
0
SECTION
2
BLOCKS
0
BLOCK
5
20
100
AcDbEntity
8
0
100
AcDbBlockBegin
2
*Model_Space
70
0
10
0
20
0
30
0
3
*Model_Space
0
ENDBLK
5
21
100
AcDbEntity
8
0
100
AcDbBlockEnd
0
BLOCK
5
1C
100
AcDbEntity
8
0
100
AcDbBlockBegin
2
*Paper_Space
70
0
10
0
20
0
30
0
3
*Paper_Space
0
ENDBLK
5
1D
100
AcDbEntity
8
0
100
AcDbBlockEnd
0
BLOCK
5
24
100
AcDbEntity
8
0
100
AcDbBlockBegin
2
*Paper_Space0
70
0
10
0
20
0
30
0
3
*Paper_Space0
0
ENDBLK
5
25
100
AcDbEntity
8
0
100
AcDbBlockEnd
0
BLOCK
5
220
100
AcDbEntity
8
0
100
AcDbBlockBegin
2
*D1
70
1
10
0
20
0
30
0
3
*D1
0
LINE
5
222
100
AcDbEntity
8
0
62
256
6
ByLayer
370
-2
48
1
60
0
100
AcDbLine
10
-26
20
-1.5875
30
0
11
-26
21
-53.873779
31
0
39
0
210
0
220
0
230
1
0
LINE
5
223
100
AcDbEntity
8
0
62
256
6
ByLayer
370
-2
48
1
60
0
100
AcDbLine
10
44
20
-1.5875
30
0
11
44
21
-53.873779
31
0
39
0
210
0
220
0
230
1
0
LINE
5
224
100
AcDbEntity
8
0
62
256
6
ByLayer
370
-2
48
1
60
0
100
AcDbLine
10
-22.5
20
-51.873779
30
0
11
40.5
21
-51.873779
31
0
39
0
210
0
220
0
230
1
0
SOLID
5
225
100
AcDbEntity
8
0
62
256
6
ByLayer
370
-1
48
1
60
0
100
AcDbTrace
10
-22.5
20
-51.290445
30
0
11
-22.5
21
-52.457112
31
0
12
-26
22
-51.873779
32
0
13
-26
23
-51.873779
33
0
39
0
210
0
220
0
230
1
0
SOLID
5
226
100
AcDbEntity
8
0
62
256
6
ByLayer
370
-1
48
1
60
0
100
AcDbTrace
10
40.5
20
-52.457112
30
0
11
40.5
21
-51.290445
31
0
12
44
22
-51.873779
32
0
13
44
23
-51.873779
33
0
39
0
210
0
220
0
230
1
0
MTEXT
5
227
100
AcDbEntity
8
0
62
256
6
ByLayer
370
18
48
1
60
0
100
AcDbMText
10
9
20
-45.873779
30
0
210
0
220
0
230
1
1
\A1;70
40
3
41
0
44
1
50
0
71
5
72
5
7
iso_b_vert
0
POINT
5
228
100
AcDbEntity
8
Defpoints
62
0
6
ByLayer
370
-1
48
1
60
0
100
AcDbPoint
10
-26
20
0
30
0
39
0
210
0
220
0
230
1
50
360
0
POINT
5
229
100
AcDbEntity
8
Defpoints
62
0
6
ByLayer
370
-1
48
1
60
0
100
AcDbPoint
10
44
20
0
30
0
39
0
210
0
220
0
230
1
50
360
0
POINT
5
22A
100
AcDbEntity
8
Defpoints
62
0
6
ByLayer
370
-1
48
1
60
0
100
AcDbPoint
10
44
20
-51.873779
30
0
39
0
210
0
220
0
230
1
50
360
0
ENDBLK
5
221
100
AcDbEntity
8
0
100
AcDbBlockEnd
0
BLOCK
5
232
100
AcDbEntity
8
0
100
AcDbBlockBegin
2
_U0
70
0
10
0
20
0
30
0
3
_U0
0
MTEXT
5
22C
100
AcDbEntity
8
SK2
62
256
6
ByLayer
370
18
48
1
60
0
100
AcDbMText
10
5.638544
20
-50.988664
30
0
210
0
220
0
230
1
1
\W0.7346;70.0
40
3
41
0
44
1.084337
50
0
71
7
72
5
7
iso_b_vert
0
LINE
5
22D
100
AcDbEntity
8
SK2
62
256
6
ByLayer
370
13
48
1
60
0
100
AcDbLine
10
-26
20
-1.5875
30
0
11
-26
21
-53.873779
31
0
39
0
210
0
220
0
230
1
0
LINE
5
22E
100
AcDbEntity
8
SK2
62
256
6
ByLayer
370
13
48
1
60
0
100
AcDbLine
10
44
20
-1.5875
30
0
11
44
21
-53.873779
31
0
39
0
210
0
220
0
230
1
0
LINE
5
22F
100
AcDbEntity
8
SK2
62
256
6
ByLayer
370
13
48
1
60
0
100
AcDbLine
10
-26
20
-51.873779
30
0
11
44
21
-51.873779
31
0
39
0
210
0
220
0
230
1
0
SOLID
5
230
100
AcDbEntity
8
SK2
62
256
6
ByLayer
370
18
48
1
60
0
100
AcDbTrace
10
-26
20
-51.873779
30
0
11
-22.500002
21
-51.412995
31
0
12
-22.499998
22
-52.334562
32
0
13
-22.499998
23
-52.334562
33
0
39
0
210
0
220
0
230
1
0
SOLID
5
231
100
AcDbEntity
8
SK2
62
256
6
ByLayer
370
18
48
1
60
0
100
AcDbTrace
10
44
20
-51.873779
30
0
11
40.500002
21
-52.334562
31
0
12
40.499998
22
-51.412995
32
0
13
40.499998
23
-51.412995
33
0
39
0
210
0
220
0
230
1
0
ENDBLK
5
233
100
AcDbEntity
8
0
100
AcDbBlockEnd
0
BLOCK
5
238
100
AcDbEntity
8
0
100
AcDbBlockBegin
2
*D3
70
1
10
0
20
0
30
0
3
*D3
0
LINE
5
23A
100
AcDbEntity
8
0
62
256
6
ByLayer
370
-2
48
1
60
0
100
AcDbLine
10
44
20
-1.5875
30
0
11
44
21
-45.873779
31
0
39
0
210
0
220
0
230
1
0
LINE
5
23B
100
AcDbEntity
8
0
62
256
6
ByLayer
370
-2
48
1
60
0
100
AcDbLine
10
9
20
-1.5875
30
0
11
9
21
-45.873779
31
0
39
0
210
0
220
0
230
1
0
LINE
5
23C
100
AcDbEntity
8
0
62
256
6
ByLayer
370
-2
48
1
60
0
100
AcDbLine
10
40.5
20
-43.873779
30
0
11
12.5
21
-43.873779
31
0
39
0
210
0
220
0
230
1
0
SOLID
5
23D
100
AcDbEntity
8
0
62
256
6
ByLayer
370
-1
48
1
60
0
100
AcDbTrace
10
40.5
20
-44.457112
30
0
11
40.5
21
-43.290445
31
0
12
44
22
-43.873779
32
0
13
44
23
-43.873779
33
0
39
0
210
0
220
0
230
1
0
SOLID
5
23E
100
AcDbEntity
8
0
62
256
6
ByLayer
370
-1
48
1
60
0
100
AcDbTrace
10
12.5
20
-43.290445
30
0
11
12.5
21
-44.457112
31
0
12
9
22
-43.873779
32
0
13
9
23
-43.873779
33
0
39
0
210
0
220
0
230
1
0
MTEXT
5
23F
100
AcDbEntity
8
0
62
256
6
ByLayer
370
18
48
1
60
0
100
AcDbMText
10
26.5
20
-37.873779
30
0
210
0
220
0
230
1
1
\A1;35
40
3
41
0
44
1
50
0
71
5
72
5
7
iso_b_vert
0
POINT
5
240
100
AcDbEntity
8
Defpoints
62
0
6
ByLayer
370
-1
48
1
60
0
100
AcDbPoint
10
44
20
0
30
0
39
0
210
0
220
0
230
1
50
360
0
POINT
5
241
100
AcDbEntity
8
Defpoints
62
0
6
ByLayer
370
-1
48
1
60
0
100
AcDbPoint
10
9
20
0
30
0
39
0
210
0
220
0
230
1
50
360
0
POINT
5
242
100
AcDbEntity
8
Defpoints
62
0
6
ByLayer
370
-1
48
1
60
0
100
AcDbPoint
10
9
20
-43.873779
30
0
39
0
210
0
220
0
230
1
50
360
0
ENDBLK
5
239
100
AcDbEntity
8
0
100
AcDbBlockEnd
0
BLOCK
5
24A
100
AcDbEntity
8
0
100
AcDbBlockBegin
2
_U1
70
0
10
0
20
0
30
0
3
_U1
0
MTEXT
5
244
100
AcDbEntity
8
SK2
62
256
6
ByLayer
370
18
48
1
60
0
100
AcDbMText
10
23.138544
20
-42.988664
30
0
210
0
220
0
230
1
1
\W0.7346;35.0
40
3
41
0
44
1.084337
50
0
71
7
72
5
7
iso_b_vert
0
LINE
5
245
100
AcDbEntity
8
SK2
62
256
6
ByLayer
370
13
48
1
60
0
100
AcDbLine
10
44
20
-1.5875
30
0
11
44
21
-45.873779
31
0
39
0
210
0
220
0
230
1
0
LINE
5
246
100
AcDbEntity
8
SK2
62
256
6
ByLayer
370
13
48
1
60
0
100
AcDbLine
10
9
20
-1.5875
30
0
11
9
21
-45.873779
31
0
39
0
210
0
220
0
230
1
0
LINE
5
247
100
AcDbEntity
8
SK2
62
256
6
ByLayer
370
13
48
1
60
0
100
AcDbLine
10
44
20
-43.873779
30
0
11
9
21
-43.873779
31
0
39
0
210
0
220
0
230
1
0
SOLID
5
248
100
AcDbEntity
8
SK2
62
256
6
ByLayer
370
18
48
1
60
0
100
AcDbTrace
10
44
20
-43.873779
30
0
11
40.500002
21
-44.334562
31
0
12
40.499998
22
-43.412995
32
0
13
40.499998
23
-43.412995
33
0
39
0
210
0
220
0
230
1
0
SOLID
5
249
100
AcDbEntity
8
SK2
62
256
6
ByLayer
370
18
48
1
60
0
100
AcDbTrace
10
9
20
-43.873779
30
0
11
12.499998
21
-43.412995
31
0
12
12.500002
22
-44.334562
32
0
13
12.500002
23
-44.334562
33
0
39
0
210
0
220
0
230
1
0
ENDBLK
5
24B
100
AcDbEntity
8
0
100
AcDbBlockEnd
0
BLOCK
5
250
100
AcDbEntity
8
0
100
AcDbBlockBegin
2
*D5
70
1
10
0
20
0
30
0
3
*D5
0
LINE
5
252
100
AcDbEntity
8
0
62
256
6
ByLayer
370
-2
48
1
60
0
100
AcDbLine
10
44
20
-1.5875
30
0
11
44
21
-37.873779
31
0
39
0
210
0
220
0
230
1
0
LINE
5
253
100
AcDbEntity
8
0
62
256
6
ByLayer
370
-2
48
1
60
0
100
AcDbLine
10
14.25
20
-1.5875
30
0
11
14.25
21
-37.873779
31
0
39
0
210
0
220
0
230
1
0
LINE
5
254
100
AcDbEntity
8
0
62
256
6
ByLayer
370
-2
48
1
60
0
100
AcDbLine
10
40.5
20
-35.873779
30
0
11
17.75
21
-35.873779
31
0
39
0
210
0
220
0
230
1
0
SOLID
5
255
100
AcDbEntity
8
0
62
256
6
ByLayer
370
-1
48
1
60
0
100
AcDbTrace
10
40.5
20
-36.457112
30
0
11
40.5
21
-35.290445
31
0
12
44
22
-35.873779
32
0
13
44
23
-35.873779
33
0
39
0
210
0
220
0
230
1
0
SOLID
5
256
100
AcDbEntity
8
0
62
256
6
ByLayer
370
-1
48
1
60
0
100
AcDbTrace
10
17.75
20
-35.290445
30
0
11
17.75
21
-36.457112
31
0
12
14.25
22
-35.873779
32
0
13
14.25
23
-35.873779
33
0
39
0
210
0
220
0
230
1
0
MTEXT
5
257
100
AcDbEntity
8
0
62
256
6
ByLayer
370
18
48
1
60
0
100
AcDbMText
10
29.125
20
-29.873779
30
0
210
0
220
0
230
1
1
\A1;29.75
40
3
41
0
44
1
50
0
71
5
72
5
7
iso_b_vert
0
POINT
5
258
100
AcDbEntity
8
Defpoints
62
0
6
ByLayer
370
-1
48
1
60
0
100
AcDbPoint
10
44
20
0
30
0
39
0
210
0
220
0
230
1
50
360
0
POINT
5
259
100
AcDbEntity
8
Defpoints
62
0
6
ByLayer
370
-1
48
1
60
0
100
AcDbPoint
10
14.25
20
0
30
0
39
0
210
0
220
0
230
1
50
360
0
POINT
5
25A
100
AcDbEntity
8
Defpoints
62
0
6
ByLayer
370
-1
48
1
60
0
100
AcDbPoint
10
14.25
20
-35.873779
30
0
39
0
210
0
220
0
230
1
50
360
0
ENDBLK
5
251
100
AcDbEntity
8
0
100
AcDbBlockEnd
0
BLOCK
5
263
100
AcDbEntity
8
0
100
AcDbBlockBegin
2
_U2
70
0
10
0
20
0
30
0
3
_U2
0
MTEXT
5
25D
100
AcDbEntity
8
2
62
256
6
ByLayer
370
18
48
1
60
0
100
AcDbMText
10
25.763544
20
-34.988664
30
0
210
0
220
0
230
1
1
\W0.7346;29.8
40
3
41
0
44
1.084337
50
0
71
7
72
5
7
iso_b_vert
0
LINE
5
25E
100
AcDbEntity
8
2
62
256
6
ByLayer
370
13
48
1
60
0
100
AcDbLine
10
44
20
-1.5875
30
0
11
44
21
-37.873779
31
0
39
0
210
0
220
0
230
1
0
LINE
5
25F
100
AcDbEntity
8
2
62
256
6
ByLayer
370
13
48
1
60
0
100
AcDbLine
10
14.25
20
-1.5875
30
0
11
14.25
21
-37.873779
31
0
39
0
210
0
220
0
230
1
0
LINE
5
260
100
AcDbEntity
8
2
62
256
6
ByLayer
370
13
48
1
60
0
100
AcDbLine
10
44
20
-35.873779
30
0
11
14.25
21
-35.873779
31
0
39
0
210
0
220
0
230
1
0
SOLID
5
261
100
AcDbEntity
8
2
62
256
6
ByLayer
370
18
48
1
60
0
100
AcDbTrace
10
44
20
-35.873779
30
0
11
40.500002
21
-36.334562
31
0
12
40.499998
22
-35.412995
32
0
13
40.499998
23
-35.412995
33
0
39
0
210
0
220
0
230
1
0
SOLID
5
262
100
AcDbEntity
8
2
62
256
6
ByLayer
370
18
48
1
60
0
100
AcDbTrace
10
14.25
20
-35.873779
30
0
11
17.749998
21
-35.412995
31
0
12
17.750002
22
-36.334562
32
0
13
17.750002
23
-36.334562
33
0
39
0
210
0
220
0
230
1
0
ENDBLK
5
264
100
AcDbEntity
8
0
100
AcDbBlockEnd
0
BLOCK
5
269
100
AcDbEntity
8
0
100
AcDbBlockBegin
2
*D7
70
1
10
0
20
0
30
0
3
*D7
0
LINE
5
26B
100
AcDbEntity
8
0
62
256
6
ByLayer
370
-2
48
1
60
0
100
AcDbLine
10
44
20
-1.5875
30
0
11
44
21
-29.873779
31
0
39
0
210
0
220
0
230
1
0
LINE
5
26C
100
AcDbEntity
8
0
62
256
6
ByLayer
370
-2
48
1
60
0
100
AcDbLine
10
31
20
-5.6875
30
0
11
31
21
-29.873779
31
0
39
0
210
0
220
0
230
1
0
LINE
5
26D
100
AcDbEntity
8
0
62
256
6
ByLayer
370
-2
48
1
60
0
100
AcDbLine
10
47.5
20
-27.873779
30
0
11
51
21
-27.873779
31
0
39
0
210
0
220
0
230
1
0
LINE
5
26E
100
AcDbEntity
8
0
62
256
6
ByLayer
370
-2
48
1
60
0
100
AcDbLine
10
27.5
20
-27.873779
30
0
11
24
21
-27.873779
31
0
39
0
210
0
220
0
230
1
0
SOLID
5
26F
100
AcDbEntity
8
0
62
256
6
ByLayer
370
-1
48
1
60
0
100
AcDbTrace
10
47.5
20
-27.290445
30
0
11
47.5
21
-28.457112
31
0
12
44
22
-27.873779
32
0
13
44
23
-27.873779
33
0
39
0
210
0
220
0
230
1
0
SOLID
5
270
100
AcDbEntity
8
0
62
256
6
ByLayer
370
-1
48
1
60
0
100
AcDbTrace
10
27.5
20
-28.457112
30
0
11
27.5
21
-27.290445
31
0
12
31
22
-27.873779
32
0
13
31
23
-27.873779
33
0
39
0
210
0
220
0
230
1
0
MTEXT
5
271
100
AcDbEntity
8
0
62
256
6
ByLayer
370
18
48
1
60
0
100
AcDbMText
10
37.5
20
-21.873779
30
0
210
0
220
0
230
1
1
\A1;13
40
3
41
0
44
1
50
0
71
5
72
5
7
iso_b_vert
0
POINT
5
272
100
AcDbEntity
8
Defpoints
62
0
6
ByLayer
370
-1
48
1
60
0
100
AcDbPoint
10
44
20
0
30
0
39
0
210
0
220
0
230
1
50
360
0
POINT
5
273
100
AcDbEntity
8
Defpoints
62
0
6
ByLayer
370
-1
48
1
60
0
100
AcDbPoint
10
31
20
-4.1
30
0
39
0
210
0
220
0
230
1
50
360
0
POINT
5
274
100
AcDbEntity
8
Defpoints
62
0
6
ByLayer
370
-1
48
1
60
0
100
AcDbPoint
10
31
20
-27.873779
30
0
39
0
210
0
220
0
230
1
50
360
0
ENDBLK
5
26A
100
AcDbEntity
8
0
100
AcDbBlockEnd
0
BLOCK
5
27C
100
AcDbEntity
8
0
100
AcDbBlockBegin
2
_U3
70
0
10
0
20
0
30
0
3
_U3
0
MTEXT
5
276
100
AcDbEntity
8
SK2
62
256
6
ByLayer
370
18
48
1
60
0
100
AcDbMText
10
34.513486
20
-26.988664
30
0
210
0
220
0
230
1
1
\W0.6563;13.0
40
3
41
0
44
1.084337
50
0
71
7
72
5
7
iso_b_vert
0
LINE
5
277
100
AcDbEntity
8
SK2
62
256
6
ByLayer
370
13
48
1
60
0
100
AcDbLine
10
44
20
-1.5875
30
0
11
44
21
-29.873779
31
0
39
0
210
0
220
0
230
1
0
LINE
5
278
100
AcDbEntity
8
SK2
62
256
6
ByLayer
370
13
48
1
60
0
100
AcDbLine
10
31
20
-5.6875
30
0
11
31
21
-29.873779
31
0
39
0
210
0
220
0
230
1
0
LINE
5
279
100
AcDbEntity
8
SK2
62
256
6
ByLayer
370
13
48
1
60
0
100
AcDbLine
10
44
20
-27.873779
30
0
11
31
21
-27.873779
31
0
39
0
210
0
220
0
230
1
0
SOLID
5
27A
100
AcDbEntity
8
SK2
62
256
6
ByLayer
370
18
48
1
60
0
100
AcDbTrace
10
44
20
-27.873779
30
0
11
40.500002
21
-28.334562
31
0
12
40.499998
22
-27.412995
32
0
13
40.499998
23
-27.412995
33
0
39
0
210
0
220
0
230
1
0
SOLID
5
27B
100
AcDbEntity
8
SK2
62
256
6
ByLayer
370
18
48
1
60
0
100
AcDbTrace
10
31
20
-27.873779
30
0
11
34.499998
21
-27.412995
31
0
12
34.500002
22
-28.334562
32
0
13
34.500002
23
-28.334562
33
0
39
0
210
0
220
0
230
1
0
ENDBLK
5
27D
100
AcDbEntity
8
0
100
AcDbBlockEnd
0
BLOCK
5
282
100
AcDbEntity
8
0
100
AcDbBlockBegin
2
*D9
70
1
10
0
20
0
30
0
3
*D9
0
LINE
5
284
100
AcDbEntity
8
0
62
256
6
ByLayer
370
-2
48
1
60
0
100
AcDbLine
10
44
20
1.5875
30
0
11
44
21
14.636658
31
0
39
0
210
0
220
0
230
1
0
LINE
5
285
100
AcDbEntity
8
0
62
256
6
ByLayer
370
-2
48
1
60
0
100
AcDbLine
10
41.25
20
1.5875
30
0
11
41.25
21
14.636658
31
0
39
0
210
0
220
0
230
1
0
LINE
5
286
100
AcDbEntity
8
0
62
256
6
ByLayer
370
-2
48
1
60
0
100
AcDbLine
10
47.5
20
12.636658
30
0
11
51
21
12.636658
31
0
39
0
210
0
220
0
230
1
0
LINE
5
287
100
AcDbEntity
8
0
62
256
6
ByLayer
370
-2
48
1
60
0
100
AcDbLine
10
37.75
20
12.636658
30
0
11
34.25
21
12.636658
31
0
39
0
210
0
220
0
230
1
0
SOLID
5
288
100
AcDbEntity
8
0
62
256
6
ByLayer
370
-1
48
1
60
0
100
AcDbTrace
10
47.5
20
13.219991
30
0
11
47.5
21
12.053325
31
0
12
44
22
12.636658
32
0
13
44
23
12.636658
33
0
39
0
210
0
220
0
230
1
0
SOLID
5
289
100
AcDbEntity
8
0
62
256
6
ByLayer
370
-1
48
1
60
0
100
AcDbTrace
10
37.75
20
12.053325
30
0
11
37.75
21
13.219991
31
0
12
41.25
22
12.636658
32
0
13
41.25
23
12.636658
33
0
39
0
210
0
220
0
230
1
0
MTEXT
5
28A
100
AcDbEntity
8
0
62
256
6
ByLayer
370
18
48
1
60
0
100
AcDbMText
10
42.625
20
18.636658
30
0
210
0
220
0
230
1
1
\A1;2.75
40
3
41
0
44
1
50
0
71
5
72
5
7
iso_b_vert
0
POINT
5
28B
100
AcDbEntity
8
Defpoints
62
0
6
ByLayer
370
-1
48
1
60
0
100
AcDbPoint
10
44
20
0
30
0
39
0
210
0
220
0
230
1
50
360
0
POINT
5
28C
100
AcDbEntity
8
Defpoints
62
0
6
ByLayer
370
-1
48
1
60
0
100
AcDbPoint
10
41.25
20
0
30
0
39
0
210
0
220
0
230
1
50
360
0
POINT
5
28D
100
AcDbEntity
8
Defpoints
62
0
6
ByLayer
370
-1
48
1
60
0
100
AcDbPoint
10
41.25
20
12.636658
30
0
39
0
210
0
220
0
230
1
50
360
0
ENDBLK
5
283
100
AcDbEntity
8
0
100
AcDbBlockEnd
0
BLOCK
5
296
100
AcDbEntity
8
0
100
AcDbBlockBegin
2
_U4
70
0
10
0
20
0
30
0
3
_U4
0
MTEXT
5
28F
100
AcDbEntity
8
SK2
62
256
6
ByLayer
370
18
48
1
60
0
100
AcDbMText
10
39.263544
20
20.521772
30
0
210
0
220
0
230
1
1
\W0.7346;2.75
40
3
41
0
44
1.084337
50
0
71
7
72
5
7
iso_b_vert
0
MTEXT
5
290
100
AcDbEntity
8
SK2
62
256
6
ByLayer
370
18
48
1
60
0
100
AcDbMText
10
39.290044
20
13.419291
30
0
210
0
220
0
230
1
1
\W0.6474;'C'
40
3.5
41
0
44
1.084337
50
0
71
7
72
5
7
iso_b_vert
0
LINE
5
291
100
AcDbEntity
8
SK2
62
256
6
ByLayer
370
13
48
1
60
0
100
AcDbLine
10
44
20
1.5875
30
0
11
44
21
14.636658
31
0
39
0
210
0
220
0
230
1
0
LINE
5
292
100
AcDbEntity
8
SK2
62
256
6
ByLayer
370
13
48
1
60
0
100
AcDbLine
10
41.25
20
1.5875
30
0
11
41.25
21
14.636658
31
0
39
0
210
0
220
0
230
1
0
LINE
5
293
100
AcDbEntity
8
SK2
62
256
6
ByLayer
370
13
48
1
60
0
100
AcDbLine
10
51.5
20
12.636658
30
0
11
33.75
21
12.636658
31
0
39
0
210
0
220
0
230
1
0
SOLID
5
294
100
AcDbEntity
8
SK2
62
256
6
ByLayer
370
18
48
1
60
0
100
AcDbTrace
10
44
20
12.636658
30
0
11
47.499998
21
13.097442
31
0
12
47.500002
22
12.175874
32
0
13
47.500002
23
12.175874
33
0
39
0
210
0
220
0
230
1
0
SOLID
5
295
100
AcDbEntity
8
SK2
62
256
6
ByLayer
370
18
48
1
60
0
100
AcDbTrace
10
41.25
20
12.636658
30
0
11
37.750002
21
12.175874
31
0
12
37.749998
22
13.097442
32
0
13
37.749998
23
13.097442
33
0
39
0
210
0
220
0
230
1
0
ENDBLK
5
297
100
AcDbEntity
8
0
100
AcDbBlockEnd
0
BLOCK
5
29C
100
AcDbEntity
8
0
100
AcDbBlockBegin
2
*D11
70
1
10
0
20
0
30
0
3
*D11
0
LINE
5
29E
100
AcDbEntity
8
0
62
256
6
ByLayer
370
-2
48
1
60
0
100
AcDbLine
10
45.5875
20
-6.068329
30
0
11
62.5
21
-6.068329
31
0
39
0
210
0
220
0
230
1
0
LINE
5
29F
100
AcDbEntity
8
0
62
256
6
ByLayer
370
-2
48
1
60
0
100
AcDbLine
10
45.5875
20
6.068329
30
0
11
62.5
21
6.068329
31
0
39
0
210
0
220
0
230
1
0
LINE
5
2A0
100
AcDbEntity
8
0
62
256
6
ByLayer
370
-2
48
1
60
0
100
AcDbLine
10
60.5
20
6.068329
30
0
11
60.5
21
33.782615
31
0
39
0
210
0
220
0
230
1
0
LINE
5
2A1
100
AcDbEntity
8
0
62
256
6
ByLayer
370
-2
48
1
60
0
100
AcDbLine
10
60.5
20
-9.568329
30
0
11
60.5
21
-13.068329
31
0
39
0
210
0
220
0
230
1
0
LINE
5
2A2
100
AcDbEntity
8
0
62
256
6
ByLayer
370
-2
48
1
60
0
100
AcDbLine
10
60.5
20
9.568329
30
0
11
60.5
21
13.068329
31
0
39
0
210
0
220
0
230
1
0
SOLID
5
2A3
100
AcDbEntity
8
0
62
256
6
ByLayer
370
-1
48
1
60
0
100
AcDbTrace
10
61.083333
20
-9.568329
30
0
11
59.916667
21
-9.568329
31
0
12
60.5
22
-6.068329
32
0
13
60.5
23
-6.068329
33
0
39
0
210
0
220
0
230
1
0
SOLID
5
2A4
100
AcDbEntity
8
0
62
256
6
ByLayer
370
-1
48
1
60
0
100
AcDbTrace
10
59.916667
20
9.568329
30
0
11
61.083333
21
9.568329
31
0
12
60.5
22
6.068329
32
0
13
60.5
23
6.068329
33
0
39
0
210
0
220
0
230
1
0
MTEXT
5
2A5
100
AcDbEntity
8
0
62
256
6
ByLayer
370
18
48
1
60
0
100
AcDbMText
10
54.5
20
23.425472
30
0
210
0
220
0
230
1
1
\A1;12.14
40
3
41
0
44
1
50
90
71
5
72
5
7
iso_b_vert
0
POINT
5
2A6
100
AcDbEntity
8
Defpoints
62
0
6
ByLayer
370
-1
48
1
60
0
100
AcDbPoint
10
44
20
-6.068329
30
0
39
0
210
0
220
0
230
1
50
360
0
POINT
5
2A7
100
AcDbEntity
8
Defpoints
62
0
6
ByLayer
370
-1
48
1
60
0
100
AcDbPoint
10
44
20
6.068329
30
0
39
0
210
0
220
0
230
1
50
360
0
POINT
5
2A8
100
AcDbEntity
8
Defpoints
62
0
6
ByLayer
370
-1
48
1
60
0
100
AcDbPoint
10
60.5
20
6.068329
30
0
39
0
210
0
220
0
230
1
50
360
0
ENDBLK
5
29D
100
AcDbEntity
8
0
100
AcDbBlockEnd
0
BLOCK
5
2B1
100
AcDbEntity
8
0
100
AcDbBlockBegin
2
_U5
70
0
10
0
20
0
30
0
3
_U5
0
MTEXT
5
2AA
100
AcDbEntity
8
2
62
256
6
ByLayer
370
18
48
1
60
0
100
AcDbMText
10
59.908886
20
7.466666
30
0
210
0
220
0
230
1
1
\W0.7161;M12x1.00
40
3
41
0
44
1.084337
50
90
71
7
72
5
7
iso_b_vert
0
MTEXT
5
2AB
100
AcDbEntity
8
2
62
256
6
ByLayer
370
18
48
1
60
0
100
AcDbMText
10
60.060366
20
26.168764
30
0
210
0
220
0
230
1
1
\W0.7506; 6HX
40
3.5
41
0
44
1.084337
50
90
71
7
72
5
7
iso_b_vert
0
LINE
5
2AC
100
AcDbEntity
8
2
62
256
6
ByLayer
370
13
48
1
60
0
100
AcDbLine
10
45.5875
20
-6.068329
30
0
11
62.5
21
-6.068329
31
0
39
0
210
0
220
0
230
1
0
LINE
5
2AD
100
AcDbEntity
8
2
62
256
6
ByLayer
370
13
48
1
60
0
100
AcDbLine
10
45.5875
20
6.068329
30
0
11
62.5
21
6.068329
31
0
39
0
210
0
220
0
230
1
0
LINE
5
2AE
100
AcDbEntity
8
2
62
256
6
ByLayer
370
13
48
1
60
0
100
AcDbLine
10
60.5
20
-6.068329
30
0
11
60.5
21
36.068329
31
0
39
0
210
0
220
0
230
1
0
SOLID
5
2AF
100
AcDbEntity
8
2
62
256
6
ByLayer
370
18
48
1
60
0
100
AcDbTrace
10
60.5
20
-6.068329
30
0
11
60.039216
21
-2.568331
31
0
12
60.960784
22
-2.568327
32
0
13
60.960784
23
-2.568327
33
0
39
0
210
0
220
0
230
1
0
SOLID
5
2B0
100
AcDbEntity
8
2
62
256
6
ByLayer
370
18
48
1
60
0
100
AcDbTrace
10
60.5
20
6.068329
30
0
11
60.960784
21
2.568331
31
0
12
60.039216
22
2.568327
32
0
13
60.039216
23
2.568327
33
0
39
0
210
0
220
0
230
1
0
ENDBLK
5
2B2
100
AcDbEntity
8
0
100
AcDbBlockEnd
0
BLOCK
5
2B7
100
AcDbEntity
8
0
100
AcDbBlockBegin
2
*D13
70
1
10
0
20
0
30
0
3
*D13
0
LINE
5
2B9
100
AcDbEntity
8
0
62
256
6
ByLayer
370
-2
48
1
60
0
100
AcDbLine
10
-27.5875
20
3.25
30
0
11
-33.5
21
3.25
31
0
39
0
210
0
220
0
230
1
0
LINE
5
2BA
100
AcDbEntity
8
0
62
256
6
ByLayer
370
-2
48
1
60
0
100
AcDbLine
10
-27.5875
20
-3.25
30
0
11
-33.5
21
-3.25
31
0
39
0
210
0
220
0
230
1
0
LINE
5
2BB
100
AcDbEntity
8
0
62
256
6
ByLayer
370
-2
48
1
60
0
100
AcDbLine
10
-31.5
20
3.25
30
0
11
-31.5
21
28.991084
31
0
39
0
210
0
220
0
230
1
0
LINE
5
2BC
100
AcDbEntity
8
0
62
256
6
ByLayer
370
-2
48
1
60
0
100
AcDbLine
10
-31.5
20
6.75
30
0
11
-31.5
21
10.25
31
0
39
0
210
0
220
0
230
1
0
LINE
5
2BD
100
AcDbEntity
8
0
62
256
6
ByLayer
370
-2
48
1
60
0
100
AcDbLine
10
-31.5
20
-6.75
30
0
11
-31.5
21
-10.25
31
0
39
0
210
0
220
0
230
1
0
SOLID
5
2BE
100
AcDbEntity
8
0
62
256
6
ByLayer
370
-1
48
1
60
0
100
AcDbTrace
10
-32.083333
20
6.75
30
0
11
-30.916667
21
6.75
31
0
12
-31.5
22
3.25
32
0
13
-31.5
23
3.25
33
0
39
0
210
0
220
0
230
1
0
SOLID
5
2BF
100
AcDbEntity
8
0
62
256
6
ByLayer
370
-1
48
1
60
0
100
AcDbTrace
10
-30.916667
20
-6.75
30
0
11
-32.083333
21
-6.75
31
0
12
-31.5
22
-3.25
32
0
13
-31.5
23
-3.25
33
0
39
0
210
0
220
0
230
1
0
MTEXT
5
2C0
100
AcDbEntity
8
0
62
256
6
ByLayer
370
18
48
1
60
0
100
AcDbMText
10
-37.5
20
21.419655
30
0
210
0
220
0
230
1
1
\A1;6.5
40
3
41
0
44
1
50
90
71
5
72
5
7
iso_b_vert
0
POINT
5
2C1
100
AcDbEntity
8
Defpoints
62
0
6
ByLayer
370
-1
48
1
60
0
100
AcDbPoint
10
-26
20
3.25
30
0
39
0
210
0
220
0
230
1
50
360
0
POINT
5
2C2
100
AcDbEntity
8
Defpoints
62
0
6
ByLayer
370
-1
48
1
60
0
100
AcDbPoint
10
-26
20
-3.25
30
0
39
0
210
0
220
0
230
1
50
360
0
POINT
5
2C3
100
AcDbEntity
8
Defpoints
62
0
6
ByLayer
370
-1
48
1
60
0
100
AcDbPoint
10
-31.5
20
-3.25
30
0
39
0
210
0
220
0
230
1
50
360
0
ENDBLK
5
2B8
100
AcDbEntity
8
0
100
AcDbBlockEnd
0
BLOCK
5
2CB
100
AcDbEntity
8
0
100
AcDbBlockBegin
2
_U6
70
0
10
0
20
0
30
0
3
_U6
0
MTEXT
5
2C5
100
AcDbEntity
8
SK2
62
256
6
ByLayer
370
18
48
1
60
0
100
AcDbMText
10
-32.091114
20
11.135
30
0
210
0
220
0
230
1
1
\W0.7433;8.50 x 6.50
40
3
41
0
44
1.084337
50
90
71
7
72
5
7
iso_b_vert
0
LINE
5
2C6
100
AcDbEntity
8
SK2
62
256
6
ByLayer
370
13
48
1
60
0
100
AcDbLine
10
-27.5875
20
3.25
30
0
11
-33.5
21
3.25
31
0
39
0
210
0
220
0
230
1
0
LINE
5
2C7
100
AcDbEntity
8
SK2
62
256
6
ByLayer
370
13
48
1
60
0
100
AcDbLine
10
-27.5875
20
-3.25
30
0
11
-33.5
21
-3.25
31
0
39
0
210
0
220
0
230
1
0
LINE
5
2C8
100
AcDbEntity
8
SK2
62
256
6
ByLayer
370
13
48
1
60
0
100
AcDbLine
10
-31.5
20
-10.75
30
0
11
-31.5
21
31.83931
31
0
39
0
210
0
220
0
230
1
0
SOLID
5
2C9
100
AcDbEntity
8
SK2
62
256
6
ByLayer
370
18
48
1
60
0
100
AcDbTrace
10
-31.5
20
3.25
30
0
11
-31.960784
21
6.749998
31
0
12
-31.039216
22
6.750002
32
0
13
-31.039216
23
6.750002
33
0
39
0
210
0
220
0
230
1
0
SOLID
5
2CA
100
AcDbEntity
8
SK2
62
256
6
ByLayer
370
18
48
1
60
0
100
AcDbTrace
10
-31.5
20
-3.25
30
0
11
-31.039216
21
-6.749998
31
0
12
-31.960784
22
-6.750002
32
0
13
-31.960784
23
-6.750002
33
0
39
0
210
0
220
0
230
1
0
ENDBLK
5
2CC
100
AcDbEntity
8
0
100
AcDbBlockEnd
0
ENDSEC
0
SECTION
2
ENTITIES
0
ARC
5
CA
100
AcDbEntity
8
SK1
62
256
6
ByLayer
370
18
48
1
60
0
100
AcDbCircle
39
0
10
-20.25
20
0
30
0
40
4.07999999999993
210
0
220
0
230
1
100
AcDbArc
50
322.803669
51
37.196331
0
ARC
5
CB
100
AcDbEntity
8
1
62
256
6
ByLayer
370
18
48
1
60
0
100
AcDbCircle
39
0
10
9.580948
20
-5.3
30
0
40
1.2
210
0
220
0
230
1
100
AcDbArc
50
90
51
118.955024
0
ARC
5
CC
100
AcDbEntity
8
1
62
256
6
ByLayer
370
18
48
1
60
0
100
AcDbCircle
39
0
10
9.580948
20
5.3
30
0
40
1.2
210
0
220
0
230
1
100
AcDbArc
50
241.044976
51
270
0
POINT
5
70
100
AcDbEntity
8
81
62
256
6
ByLayer
370
18
48
1
60
0
100
AcDbPoint
10
44
20
0
30
0
39
0
210
0
220
0
230
1
50
360
0
POINT
5
72
100
AcDbEntity
8
80
62
256
6
ByLayer
370
18
48
1
60
0
100
AcDbPoint
10
0
20
0
30
0
39
0
210
0
220
0
230
1
50
360
0
POINT
5
74
100
AcDbEntity
8
1
62
256
6
ByLayer
370
18
48
1
60
1
100
AcDbPoint
10
-26
20
0
30
0
39
0
210
0
220
0
230
1
50
360
0
POINT
5
76
100
AcDbEntity
8
1
62
256
6
ByLayer
370
18
48
1
60
1
100
AcDbPoint
10
44
20
0
30
0
39
0
210
0
220
0
230
1
50
360
0
POINT
5
77
100
AcDbEntity
8
1
62
256
6
ByLayer
370
18
48
1
60
1
100
AcDbPoint
10
44
20
0
30
0
39
0
210
0
220
0
230
1
50
360
0
POINT
5
78
100
AcDbEntity
8
1
62
256
6
ByLayer
370
18
48
1
60
1
100
AcDbPoint
10
9
20
0
30
0
39
0
210
0
220
0
230
1
50
360
0
POINT
5
79
100
AcDbEntity
8
1
62
256
6
ByLayer
370
18
48
1
60
1
100
AcDbPoint
10
44
20
0
30
0
39
0
210
0
220
0
230
1
50
360
0
POINT
5
7A
100
AcDbEntity
8
1
62
256
6
ByLayer
370
18
48
1
60
1
100
AcDbPoint
10
14.25
20
0
30
0
39
0
210
0
220
0
230
1
50
360
0
POINT
5
7B
100
AcDbEntity
8
1
62
256
6
ByLayer
370
18
48
1
60
1
100
AcDbPoint
10
44
20
0
30
0
39
0
210
0
220
0
230
1
50
360
0
POINT
5
7C
100
AcDbEntity
8
1
62
256
6
ByLayer
370
18
48
1
60
1
100
AcDbPoint
10
31
20
-4.1
30
0
39
0
210
0
220
0
230
1
50
360
0
POINT
5
7D
100
AcDbEntity
8
1
62
256
6
ByLayer
370
18
48
1
60
1
100
AcDbPoint
10
44
20
0
30
0
39
0
210
0
220
0
230
1
50
360
0
POINT
5
7E
100
AcDbEntity
8
1
62
256
6
ByLayer
370
18
48
1
60
1
100
AcDbPoint
10
41.25
20
0
30
0
39
0
210
0
220
0
230
1
50
360
0
POINT
5
7F
100
AcDbEntity
8
1
62
256
6
ByLayer
370
18
48
1
60
1
100
AcDbPoint
10
44
20
-6.068329
30
0
39
0
210
0
220
0
230
1
50
360
0
POINT
5
80
100
AcDbEntity
8
1
62
256
6
ByLayer
370
18
48
1
60
1
100
AcDbPoint
10
44
20
6.068329
30
0
39
0
210
0
220
0
230
1
50
360
0
POINT
5
81
100
AcDbEntity
8
1
62
256
6
ByLayer
370
18
48
1
60
1
100
AcDbPoint
10
-26
20
3.25
30
0
39
0
210
0
220
0
230
1
50
360
0
POINT
5
82
100
AcDbEntity
8
1
62
256
6
ByLayer
370
18
48
1
60
1
100
AcDbPoint
10
-26
20
-3.25
30
0
39
0
210
0
220
0
230
1
50
360
0
SPLINE
5
CD
100
AcDbEntity
8
1
62
256
6
ByLayer
370
18
48
1
60
0
100
AcDbSpline
70
4
71
3
72
8
73
4
40
0
40
0
40
0
40
0
40
1
40
1
40
1
40
1
41
1
10
31.425659171217
20
5.47496639895053
30
0
41
1
10
31.4283661977412
20
5.47861591688803
30
0
41
1
10
31.4310805073609
20
5.48033571525286
30
0
41
1
10
31.4338086133647
20
5.48012401523772
30
0
0
SPLINE
5
CE
100
AcDbEntity
8
1
62
256
6
ByLayer
370
18
48
1
60
0
100
AcDbSpline
70
4
71
3
72
10
73
6
40
0
40
0
40
0
40
0
40
0.605366738995067
40
0.605366738995067
40
1
40
1
40
1
40
1
41
1
10
32.1591859767251
20
5.52914918559955
30
0
41
1
10
32.1551043163651
20
5.55002753818417
30
0
41
1
10
32.1510456424306
20
5.56435867018524
30
0
41
1
10
32.144294207354
20
5.57735559231512
30
0
41
1
10
32.1416142480105
20
5.57973744346162
30
0
41
1
10
32.1389256628953
20
5.5793607031822
30
0
0
SPLINE
5
CF
100
AcDbEntity
8
1
62
256
6
ByLayer
370
13
48
1
60
0
100
AcDbSpline
70
4
71
3
72
8
73
4
40
0
40
0
40
0
40
0
40
1
40
1
40
1
40
1
41
1
10
40.6781267025955
20
-5.47699657910226
30
0
41
1
10
40.6843659052504
20
-5.49261330904349
30
0
41
1
10
40.6906051094035
20
-5.49550218808741
30
0
41
1
10
40.6968443142784
20
-5.48579735208381
30
0
0
SPLINE
5
D0
100
AcDbEntity
8
1
62
256
6
ByLayer
370
18
48
1
60
0
100
AcDbSpline
70
4
71
3
72
10
73
6
40
0
40
0
40
0
40
0
40
0.411149106046459
40
0.411149106046459
40
1
40
1
40
1
40
1
41
1
10
40.3564938586588
20
-6.06833099304342
30
0
41
1
10
40.3532632419041
20
-6.06833016513485
30
0
41
1
10
40.3500374255685
20
-6.06451616307197
30
0
41
1
10
40.3421522519075
20
-6.04599489647387
30
0
41
1
10
40.3374554402919
20
-6.02729247321148
30
0
41
1
10
40.3327235390568
20
-6.00064675156236
30
0
0
SPLINE
5
D1
100
AcDbEntity
8
1
62
256
6
ByLayer
370
13
48
1
60
0
100
AcDbSpline
70
4
71
3
72
8
73
4
40
0
40
0
40
0
40
0
40
1
40
1
40
1
40
1
41
1
10
32.1976479366159
20
5.48465008180213
30
0
41
1
10
32.2026172549595
20
5.47608732940247
30
0
41
1
10
32.2075865734757
20
5.45942591100479
30
0
41
1
10
32.2125558920433
20
5.43483256687233
30
0
0
SPLINE
5
D2
100
AcDbEntity
8
1
62
256
6
ByLayer
370
18
48
1
60
0
100
AcDbSpline
70
4
71
3
72
10
73
6
40
0
40
0
40
0
40
0
40
0.534802502811413
40
0.534802502811413
40
1
40
1
40
1
40
1
41
1
10
40.2467968276189
20
-5.98636857800258
30
0
41
1
10
40.2514747366555
20
-6.01556157462596
30
0
41
1
10
40.2561893031684
20
-6.03693161327797
30
0
41
1
10
40.2649996993148
20
-6.06237014641309
30
0
41
1
10
40.2690955631801
20
-6.06832863693305
30
0
41
1
10
40.2731853745138
20
-6.06832958113907
30
0
0
SPLINE
5
D3
100
AcDbEntity
8
1
62
256
6
ByLayer
370
13
48
1
60
0
100
AcDbSpline
70
4
71
3
72
9
73
5
40
0
40
0
40
0
40
0
40
0.356990345854878
40
1
40
1
40
1
40
1
41
1
10
32.4341504699612
20
5.48784718047341
30
0
41
1
10
32.4384012972937
20
5.49316914226773
30
0
41
1
10
32.4503086985647
20
5.4916352551505
30
0
41
1
10
32.4622160994804
20
5.4435521820198
30
0
41
1
10
32.4698726732233
20
5.39399528637148
30
0
0
SPLINE
5
D4
100
AcDbEntity
8
1
62
256
6
ByLayer
370
13
48
1
60
0
100
AcDbSpline
70
4
71
3
72
9
73
5
40
0
40
0
40
0
40
0
40
0.323749730559732
40
1
40
1
40
1
40
1
41
1
10
39.9068529930902
20
-5.37372594857541
30
0
41
1
10
39.9095562738682
20
-5.39296682124373
30
0
41
1
10
39.9179061827525
20
-5.44519307610906
30
0
41
1
10
39.9262560913044
20
-5.4747825118117
30
0
41
1
10
39.9319027191549
20
-5.48446444226883
30
0
0
SPLINE
5
D5
100
AcDbEntity
8
1
62
256
6
ByLayer
370
18
48
1
60
0
100
AcDbSpline
70
4
71
3
72
15
73
11
40
0
40
0
40
0
40
0
40
0.193958547988492
40
0.193958547988492
40
0.395468910991369
40
0.395468910991369
40
0.496224092492808
40
0.496224092492808
40
0.596979273994246
40
1
40
1
40
1
40
1
41
1
10
32.5216856318889
20
5.63315457682953
30
0
41
1
10
32.5240082992516
20
5.63348457744209
30
0
41
1
10
32.5263383619058
20
5.63227599040306
30
0
41
1
10
32.5311189750878
20
5.62664884485946
30
0
41
1
10
32.5335722424638
20
5.62210515773663
30
0
41
1
10
32.5372713086937
20
5.6127299029784
30
0
41
1
10
32.5385084961298
20
5.60917437167419
30
0
41
1
10
32.5409795670167
20
5.60123098401195
30
0
41
1
10
32.5471536747407
20
5.57928193805117
30
0
41
1
10
32.5532947536516
20
5.54696282440682
30
0
41
1
10
32.5581842323556
20
5.51451903887516
30
0
0
SPLINE
5
D6
100
AcDbEntity
8
1
62
256
6
ByLayer
370
18
48
1
60
0
100
AcDbSpline
70
4
71
3
72
15
73
11
40
0
40
0
40
0
40
0
40
0.274417214481661
40
0.548834428963322
40
0.548834428963322
40
0.686043036204152
40
0.686043036204152
40
0.823251643444982
40
0.823251643444982
40
1
40
1
40
1
40
1
41
1
10
33.1092515870612
20
5.44458140208067
30
0
41
1
10
33.1050765923447
20
5.49329866830345
30
0
41
1
10
33.0967976289863
20
5.5772868216126
30
0
41
1
10
33.088567034892
20
5.6346630290119
30
0
41
1
10
33.0823376516489
20
5.66759915331951
30
0
41
1
10
33.0802500956543
20
5.67689271083725
30
0
41
1
10
33.0760444592232
20
5.69206263809693
30
0
41
1
10
33.073940634795
20
5.69789434830258
30
0
41
1
10
33.0691370723578
20
5.70728901445051
30
0
41
1
10
33.0664400327261
20
5.70972151750129
30
0
41
1
10
33.0637526568775
20
5.70933701559576
30
0
0
SPLINE
5
D7
100
AcDbEntity
8
1
62
256
6
ByLayer
370
13
48
1
60
0
100
AcDbSpline
70
4
71
3
72
9
73
5
40
0
40
0
40
0
40
0
40
0.323252904913864
40
1
40
1
40
1
40
1
41
1
10
39.6495521300516
20
-5.31753788828058
30
0
41
1
10
39.6547013826033
20
-5.36195215553997
30
0
41
1
10
39.6706308711565
20
-5.47356766301323
30
0
41
1
10
39.6865603734045
20
-5.50278773489342
30
0
41
1
10
39.6973406154971
20
-5.48499633835826
30
0
0
SPLINE
5
D8
100
AcDbEntity
8
1
62
256
6
ByLayer
370
13
48
1
60
0
100
AcDbSpline
70
4
71
3
72
9
73
5
40
0
40
0
40
0
40
0
40
0.245162124040248
40
1
40
1
40
1
40
1
41
1
10
33.1967714151477
20
5.48596853129152
30
0
41
1
10
33.2003992321569
20
5.48045876465554
30
0
41
1
10
33.2151968576329
20
5.44053185834971
30
0
41
1
10
33.2299944894934
20
5.32909579911492
30
0
41
1
10
33.2411643004049
20
5.20669473586187
30
0
0
SPLINE
5
D9
100
AcDbEntity
8
1
62
256
6
ByLayer
370
18
48
1
60
0
100
AcDbSpline
70
4
71
3
72
16
73
12
40
0
40
0
40
0
40
0
40
0.195494689584448
40
0.463663126389632
40
0.463663126389632
40
0.731831563194816
40
0.731831563194816
40
0.798873672396113
40
0.798873672396113
40
0.865915781597408
40
1
40
1
40
1
40
1
41
1
10
39.3564357901915
20
-6.06833081142489
30
0
41
1
10
39.3530348352205
20
-6.06833665220782
30
0
41
1
10
39.3450201868953
20
-6.05842775108297
30
0
41
1
10
39.3370468182398
20
-6.02530998252846
30
0
41
1
10
39.3277099122311
20
-5.97140829147801
30
0
41
1
10
39.3229820483224
20
-5.93666220129424
30
0
41
1
10
39.3170429031316
20
-5.88321206949382
30
0
41
1
10
39.3158528331261
20
-5.87201418730101
30
0
41
1
10
39.3134724690435
20
-5.84862955247661
30
0
41
1
10
39.3099111595607
20
-5.81216522657388
30
0
41
1
10
39.3063785331407
20
-5.77158460224535
30
0
41
1
10
39.3040349420273
20
-5.74273114421374
30
0
0
SPLINE
5
DA
100
AcDbEntity
8
1
62
256
6
ByLayer
370
18
48
1
60
0
100
AcDbSpline
70
4
71
3
72
18
73
14
40
0
40
0
40
0
40
0
40
0.25662397505111
40
0.25662397505111
40
0.51324795010222
40
0.51324795010222
40
0.769871925153329
40
0.769871925153329
40
0.834027918916106
40
0.834027918916106
40
0.898183912678883
40
0.898183912678883
40
1
40
1
40
1
40
1
41
1
10
39.2183126707612
20
-5.71281952964233
30
0
41
1
10
39.2229837550303
20
-5.77318672816293
30
0
41
1
10
39.2276103534612
20
-5.8257858197112
30
0
41
1
10
39.2368943623039
20
-5.91576519529778
30
0
41
1
10
39.2415723448152
20
-5.95314485638576
30
0
41
1
10
39.2509828454027
20
-6.01264502339234
30
0
41
1
10
39.2557040588052
20
-6.03476643917512
30
0
41
1
10
39.261609398055
20
-6.05263094963584
30
0
41
1
10
39.2627908370433
20
-6.05571355489502
30
0
41
1
10
39.2651547931548
20
-6.06088802881933
30
0
41
1
10
39.2663358708693
20
-6.06297553953161
30
0
41
1
10
39.2693787815572
20
-6.06707180724484
30
0
41
1
10
39.2712363299317
20
-6.06832282095013
30
0
41
1
10
39.2730869780272
20
-6.06832904404024
30
0
0
SPLINE
5
DB
100
AcDbEntity
8
1
62
256
6
ByLayer
370
13
48
1
60
0
100
AcDbSpline
70
4
71
3
72
9
73
5
40
0
40
0
40
0
40
0
40
0.482717893141096
40
1
40
1
40
1
40
1
41
1
10
38.878356375019
20
-5.08622353850927
30
0
41
1
10
38.8869869045343
20
-5.19849862762197
30
0
41
1
10
38.9048659381182
20
-5.38484804026959
30
0
41
1
10
38.9227449716442
20
-5.46877290221008
30
0
41
1
10
38.9319934758318
20
-5.48455040759271
30
0
0
SPLINE
5
DC
100
AcDbEntity
8
1
62
256
6
ByLayer
370
13
48
1
60
0
100
AcDbSpline
70
4
71
3
72
9
73
5
40
0
40
0
40
0
40
0
40
0.383940205847868
40
1
40
1
40
1
40
1
41
1
10
33.4321489280937
20
5.48481287229387
30
0
41
1
10
33.4406385601103
20
5.49905043599929
30
0
41
1
10
33.4627504197887
20
5.475469440735
30
0
41
1
10
33.4848622766712
20
5.292174065029
30
0
41
1
10
33.4984845030672
20
5.12309199196096
30
0
0
SPLINE
5
DD
100
AcDbEntity
8
1
62
256
6
ByLayer
370
18
48
1
60
0
100
AcDbSpline
70
4
71
3
72
20
73
16
40
0
40
0
40
0
40
0
40
0.167192891983376
40
0.167192891983376
40
0.375394668987532
40
0.375394668987532
40
0.583596445991689
40
0.583596445991689
40
0.635646890242728
40
0.635646890242728
40
0.687697334493767
40
0.687697334493767
40
0.791798222995845
40
0.791798222995845
40
1
40
1
40
1
40
1
41
1
10
33.6100756419744
20
5.78611658597791
30
0
41
1
10
33.6140264983374
20
5.78668047280107
30
0
41
1
10
33.6179554869938
20
5.78266159556472
30
0
41
1
10
33.6267920464499
20
5.76350763556147
30
0
41
1
10
33.6317202915036
20
5.74588980459467
30
0
41
1
10
33.6416628098049
20
5.69661796034521
30
0
41
1
10
33.6466602855896
20
5.66496233049833
30
0
41
1
10
33.6529171863797
20
5.61638504217029
30
0
41
1
10
33.6541692340153
20
5.60621840700617
30
0
41
1
10
33.6566747718024
20
5.58497369308034
30
0
41
1
10
33.6579269786157
20
5.57390565634051
30
0
41
1
10
33.6616720288138
20
5.5394609759131
30
0
41
1
10
33.6641572836244
20
5.51480987013528
30
0
41
1
10
33.671588420347
20
5.43583780655885
30
0
41
1
10
33.6765075996083
20
5.37650697567818
30
0
41
1
10
33.6814427320843
20
5.31050515722299
30
0
0
SPLINE
5
DE
100
AcDbEntity
8
1
62
256
6
ByLayer
370
18
48
1
60
0
100
AcDbSpline
70
4
71
3
72
21
73
17
40
0
40
0
40
0
40
0
40
0.178834123501387
40
0.357668247002775
40
0.357668247002775
40
0.402376777878122
40
0.402376777878122
40
0.447085308753469
40
0.447085308753469
40
0.536502370504163
40
0.536502370504163
40
0.715336494005551
40
0.715336494005551
40
0.894170617506939
40
0.894170617506939
40
1
40
1
40
1
40
1
41
1
10
34.0594475844536
20
5.18753813950542
30
0
41
1
10
34.0551925630753
20
5.26460638004389
30
0
41
1
10
34.046693952418
20
5.40542093055643
30
0
41
1
10
34.0382624858513
20
5.51980829798114
30
0
41
1
10
34.0329909739482
20
5.5829195598927
30
0
41
1
10
34.0319364325671
20
5.59512201329363
30
0
41
1
10
34.0298257025097
20
5.61868117164164
30
0
41
1
10
34.0287705394896
20
5.630025505741
30
0
41
1
10
34.0256134402512
20
5.66265509842211
30
0
41
1
10
34.0235161391716
20
5.68258102645046
30
0
41
1
10
34.0172259367387
20
5.73696626943814
30
0
41
1
10
34.0130211167739
20
5.76604091817617
30
0
41
1
10
34.0045681897755
20
5.81006386083803
30
0
41
1
10
34.0003339612069
20
5.82501384755645
30
0
41
1
10
33.9936060243541
20
5.83751624020886
30
0
41
1
10
33.9911074692756
20
5.83967970168555
30
0
41
1
10
33.9886086401359
20
5.83931736780718
30
0
0
SPLINE
5
DF
100
AcDbEntity
8
1
62
256
6
ByLayer
370
13
48
1
60
0
100
AcDbSpline
70
4
71
3
72
9
73
5
40
0
40
0
40
0
40
0
40
0.295097116500948
40
1
40
1
40
1
40
1
41
1
10
34.1968546942566
20
5.485703097449
30
0
41
1
10
34.2040263805889
20
5.47464856350902
30
0
41
1
10
34.2283291825683
20
5.38081820719378
30
0
41
1
10
34.2526320135216
20
5.09601810004648
30
0
41
1
10
34.2697631392832
20
4.81121325874315
30
0
0
SPLINE
5
E0
100
AcDbEntity
8
1
62
256
6
ByLayer
370
13
48
1
60
0
100
AcDbSpline
70
4
71
3
72
9
73
5
40
0
40
0
40
0
40
0
40
0.433425689315134
40
1
40
1
40
1
40
1
41
1
10
38.6210291137427
20
-4.98792656434387
30
0
41
1
10
38.6321144200572
20
-5.14784916194173
30
0
41
1
10
38.657690451171
20
-5.43347568945856
30
0
41
1
10
38.6832664663961
20
-5.50945132263212
30
0
41
1
10
38.6977571778964
20
-5.48433902108104
30
0
0
SPLINE
5
E1
100
AcDbEntity
8
1
62
256
6
ByLayer
370
18
48
1
60
0
100
AcDbSpline
70
4
71
3
72
24
73
20
40
0
40
0
40
0
40
0
40
0.0448227205072774
40
0.0882398695751283
40
0.0882398695751283
40
0.131657018642979
40
0.131657018642979
40
0.305325614914384
40
0.305325614914384
40
0.478994211185788
40
0.478994211185788
40
0.652662807457192
40
0.652662807457192
40
0.739497105592894
40
0.739497105592894
40
0.782914254660745
40
0.782914254660745
40
0.826331403728596
40
1
40
1
40
1
40
1
41
1
10
38.3563901705218
20
-6.06832916612831
30
0
41
1
10
38.3551732593146
20
-6.0683280332635
30
0
41
1
10
38.3527771247495
20
-6.06728813249921
30
0
41
1
10
38.3503800309813
20
-6.06418892509348
30
0
41
1
10
38.3480200774697
20
-6.06013126060114
30
0
41
1
10
38.3468396395447
20
-6.05759701842285
30
0
41
1
10
38.3409627633213
20
-6.04247117499582
30
0
41
1
10
38.3363209319294
20
-6.02249639084289
30
0
41
1
10
38.3270602370229
20
-5.96725179443212
30
0
41
1
10
38.3224344185074
20
-5.93198095374618
30
0
41
1
10
38.3130771427189
20
-5.84622959354226
30
0
41
1
10
38.3083656497911
20
-5.7957493621461
30
0
41
1
10
38.3012875769683
20
-5.70841950154184
30
0
41
1
10
38.2989258819622
20
-5.67737182610904
30
0
41
1
10
38.2953796188011
20
-5.62784170067528
30
0
41
1
10
38.2941954055636
20
-5.6108161212826
30
0
41
1
10
38.2918348457841
20
-5.57591224165284
30
0
41
1
10
38.2859506903724
20
-5.48649972098133
30
0
41
1
10
38.2801494109416
20
-5.38646556453716
30
0
41
1
10
38.2755146246253
20
-5.2998090616974
30
0
0
SPLINE
5
E2
100
AcDbEntity
8
1
62
256
6
ByLayer
370
18
48
1
60
0
100
AcDbSpline
70
4
71
3
72
24
73
20
40
0
40
0
40
0
40
0
40
0.0421170169678188
40
0.0421170169678188
40
0.0842340339356377
40
0.168468067871275
40
0.168468067871275
40
0.33693613574255
40
0.33693613574255
40
0.505404203613826
40
0.505404203613826
40
0.589638237549463
40
0.631755254517282
40
0.631755254517282
40
0.673872271485101
40
0.673872271485101
40
0.842340339356377
40
0.842340339356377
40
1
40
1
40
1
40
1
41
1
10
38.189697563066
20
-5.25497399082693
30
0
41
1
10
38.1908858139756
20
-5.27748244100741
30
0
41
1
10
38.1920734856955
20
-5.29956722941205
30
0
41
1
10
38.1944395203392
20
-5.34274396720969
30
0
41
1
10
38.1979783073613
20
-5.40608851596821
30
0
41
1
10
38.2014873169298
20
-5.46521343998816
30
0
41
1
10
38.2084746136221
20
-5.57791619296444
30
0
41
1
10
38.2130897223859
20
-5.64566581587093
30
0
41
1
10
38.2223338086133
20
-5.76654936965329
30
0
41
1
10
38.2269750448199
20
-5.81968325116154
30
0
41
1
10
38.2340259081296
20
-5.88828363076468
30
0
41
1
10
38.2375667479457
20
-5.91980478399904
30
0
41
1
10
38.2411224381929
20
-5.94709378435499
30
0
41
1
10
38.2434957908953
20
-5.9643361136302
30
0
41
1
10
38.2446849605232
20
-5.97248815931425
30
0
41
1
10
38.2506090093632
20
-6.01067282255565
30
0
41
1
10
38.2552946176867
20
-6.03314551009183
30
0
41
1
10
38.2642931948369
20
-6.06148080960369
30
0
41
1
10
38.2686108592623
20
-6.06831555722289
30
0
41
1
10
38.2729372775081
20
-6.0683291220472
30
0
0
SPLINE
5
E3
100
AcDbEntity
8
1
62
256
6
ByLayer
370
13
48
1
60
0
100
AcDbSpline
70
4
71
3
72
9
73
5
40
0
40
0
40
0
40
0
40
0.540632651897743
40
1
40
1
40
1
40
1
41
1
10
37.8497893218118
20
-4.63507136347826
30
0
41
1
10
37.8643705783399
20
-4.90469891990773
30
0
41
1
10
37.8913413055703
20
-5.29554540733866
30
0
41
1
10
37.9183120361182
20
-5.45748845174384
30
0
41
1
10
37.9307015089558
20
-5.48222035940677
30
0
0
SPLINE
5
E4
100
AcDbEntity
8
1
62
256
6
ByLayer
370
13
48
1
60
0
100
AcDbSpline
70
4
71
3
72
10
73
6
40
0
40
0
40
0
40
0
40
0.351410205997617
40
0.971266814165526
40
1
40
1
40
1
40
1
41
1
10
34.4364995671638
20
5.49004700319969
30
0
41
1
10
34.4471106096638
20
5.49776063929397
30
0
41
1
10
34.4764385957178
20
5.41841176580539
30
0
41
1
10
34.5066341943779
20
5.05029355745558
30
0
41
1
10
34.526218751895
20
4.70293697518977
30
0
41
1
10
34.5270863676613
20
4.68733820309623
30
0
0
SPLINE
5
E5
100
AcDbEntity
8
1
62
256
6
ByLayer
370
18
48
1
60
0
100
AcDbSpline
70
4
71
3
72
25
73
21
40
0
40
0
40
0
40
0
40
0.0049055176739902
40
0.147061872291991
40
0.147061872291991
40
0.182600960946491
40
0.182600960946491
40
0.218140049600992
40
0.289218226909992
40
0.289218226909992
40
0.431374581527993
40
0.573530936145995
40
0.573530936145995
40
0.644609113454995
40
0.644609113454995
40
0.715687290763996
40
0.715687290763996
40
0.857843645381998
40
0.857843645381998
40
1
40
1
40
1
40
1
41
1
10
34.6984241257827
20
5.93907294755383
30
0
41
1
10
34.6985982500453
20
5.93909766271096
30
0
41
1
10
34.7038174676291
20
5.93956869955423
30
0
41
1
10
34.7090118619623
20
5.93194996903577
30
0
41
1
10
34.7153092686708
20
5.91312958280977
30
0
41
1
10
34.7165707680295
20
5.90888007073869
30
0
41
1
10
34.7190877460504
20
5.89945335923605
30
0
41
1
10
34.7228578207723
20
5.88391257580202
30
0
41
1
10
34.7266215762968
20
5.86421374851423
30
0
41
1
10
34.7341718144734
20
5.81935837023821
30
0
41
1
10
34.7442930368089
20
5.74501689176259
30
0
41
1
10
34.7543727891534
20
5.64194472585706
30
0
41
1
10
34.7619156363213
20
5.55375552930138
30
0
41
1
10
34.7644276613115
20
5.52254249352592
30
0
41
1
10
34.7694540419862
20
5.45643398478879
30
0
41
1
10
34.7719692848197
20
5.42152545590343
30
0
41
1
10
34.7795307772529
20
5.31125010889622
30
0
41
1
10
34.7845361380387
20
5.23114674677615
30
0
41
1
10
34.7946236140153
20
5.05800931667773
30
0
41
1
10
34.7997110331022
20
4.96497575005938
30
0
41
1
10
34.8048043052148
20
4.86543362980166
30
0
0
SPLINE
5
E6
100
AcDbEntity
8
1
62
256
6
ByLayer
370
18
48
1
60
0
100
AcDbSpline
70
4
71
3
72
26
73
22
40
0
40
0
40
0
40
0
40
0.133880546244974
40
0.133880546244974
40
0.267761092489947
40
0.267761092489947
40
0.301231229051191
40
0.301231229051191
40
0.334701365612435
40
0.401641638734922
40
0.401641638734922
40
0.535522184979896
40
0.535522184979896
40
0.66940273122487
40
0.66940273122487
40
0.736343004347357
40
0.736343004347357
40
0.803283277469844
40
0.803283277469844
40
0.937163823714818
40
1
40
1
40
1
40
1
41
1
10
35.0095534151953
20
4.75881173342543
30
0
41
1
10
35.0053025463588
20
4.86379083413672
30
0
41
1
10
35.0010385429437
20
4.96244297713503
30
0
41
1
10
34.9924316060096
20
5.1471461804029
30
0
41
1
10
34.9881061822139
20
5.23319986513658
30
0
41
1
10
34.9826949903616
20
5.33275314280124
30
0
41
1
10
34.9816119752147
20
5.35226851262104
30
0
41
1
10
34.9794542908507
20
5.39033227510348
30
0
41
1
10
34.9762268746904
20
5.44603998619104
30
0
41
1
10
34.9730256020209
20
5.49762566144275
30
0
41
1
10
34.9666494863019
20
5.59538003336536
30
0
41
1
10
34.9624357646748
20
5.65333728010009
30
0
41
1
10
34.9539936536497
20
5.75498905996639
30
0
41
1
10
34.949754366442
20
5.79868203847397
30
0
41
1
10
34.9433174979039
20
5.85340349091203
30
0
41
1
10
34.9411629044748
20
5.86983902452934
30
0
41
1
10
34.9368425690749
20
5.89905110793737
30
0
41
1
10
34.9346757855333
20
5.91183295898577
30
0
41
1
10
34.9281696139669
20
5.94454924145904
30
0
41
1
10
34.9218533950245
20
5.96526714690444
30
0
41
1
10
34.9155931895424
20
5.96960662281975
30
0
41
1
10
34.9135946225044
20
5.96931591680891
30
0
0
SPLINE
5
E7
100
AcDbEntity
8
1
62
256
6
ByLayer
370
18
48
1
60
0
100
AcDbSpline
70
4
71
3
72
8
73
4
40
0
40
0
40
0
40
0
40
1
40
1
40
1
40
1
41
1
10
35.1969360046579
20
5.48559826084463
30
0
41
1
10
35.1990545833886
20
5.48226803079476
30
0
41
1
10
35.2011731620643
20
5.47748686155154
30
0
41
1
10
35.2032917406942
20
5.4712589099712
30
0
0
SPLINE
5
E8
100
AcDbEntity
8
1
62
256
6
ByLayer
370
13
48
1
60
0
100
AcDbSpline
70
4
71
3
72
10
73
6
40
0
40
0
40
0
40
0
40
0.271285340639616
40
0.861870379913029
40
1
40
1
40
1
40
1
41
1
10
35.2032917406942
20
5.4712589099712
30
0
41
1
10
35.2118893698986
20
5.44598459745143
30
0
41
1
10
35.2392039357414
20
5.28998993451185
30
0
41
1
10
35.2708961311684
20
4.83321164749498
30
0
41
1
10
35.2939907171936
20
4.35577117783589
30
0
41
1
10
35.2983683518945
20
4.26043776733053
30
0
0
SPLINE
5
E9
100
AcDbEntity
8
1
62
256
6
ByLayer
370
13
48
1
60
0
100
AcDbSpline
70
4
71
3
72
9
73
5
40
0
40
0
40
0
40
0
40
0.534435850019668
40
1
40
1
40
1
40
1
41
1
10
37.5925024540624
20
-4.49874647789764
30
0
41
1
10
37.6095250299339
20
-4.83541454013732
30
0
41
1
10
37.6413765307349
20
-5.32014578860043
30
0
41
1
10
37.6732279662083
20
-5.48556921087987
30
0
41
1
10
37.6880568585656
20
-5.49106458027001
30
0
0
SPLINE
5
EA
100
AcDbEntity
8
1
62
256
6
ByLayer
370
18
48
1
60
0
100
AcDbSpline
70
4
71
3
72
27
73
23
40
0
40
0
40
0
40
0
40
0.102811032491394
40
0.102811032491394
40
0.230980884992623
40
0.230980884992623
40
0.295065811243238
40
0.295065811243238
40
0.359150737493853
40
0.359150737493853
40
0.487320589995082
40
0.487320589995082
40
0.615490442496311
40
0.615490442496311
40
0.743660294997541
40
0.743660294997541
40
0.775702758122848
40
0.775702758122848
40
0.807745221248155
40
0.87183014749877
40
0.87183014749877
40
1
40
1
40
1
40
1
41
1
10
37.3564807967562
20
-6.0683300728376
30
0
41
1
10
37.3527105096662
20
-6.06835065869035
30
0
41
1
10
37.3489390527062
20
-6.06335572149342
30
0
41
1
10
37.3404844029916
20
-6.04083301970431
30
0
41
1
10
37.3358059432632
20
-6.02051877074561
30
0
41
1
10
37.3287793172512
20
-5.97800116652022
30
0
41
1
10
37.3264303278973
20
-5.96177448290436
30
0
41
1
10
37.3217597355676
20
-5.92557589131161
30
0
41
1
10
37.3194339199313
20
-5.90558656254331
30
0
41
1
10
37.3124600660153
20
-5.84004241703337
30
0
41
1
10
37.3077991011679
20
-5.78892225460277
30
0
41
1
10
37.2984288606487
20
-5.67206388448505
30
0
41
1
10
37.293735842911
20
-5.60632533014251
30
0
41
1
10
37.28436527559
20
-5.46011710496944
30
0
41
1
10
37.2796879283372
20
-5.37964853607818
30
0
41
1
10
37.2738252312894
20
-5.26956561533262
30
0
41
1
10
37.2726516934845
20
-5.24707155647283
30
0
41
1
10
37.2703130622625
20
-5.20135824575343
30
0
41
1
10
37.2668132706653
20
-5.13161774616506
30
0
41
1
10
37.2633307107171
20
-5.05840120222308
30
0
41
1
10
37.2563639988044
20
-4.90740105241389
30
0
41
1
10
37.2517006699583
20
-4.80065384556872
30
0
41
1
10
37.2470079345919
20
-4.68789619297581
30
0
0
SPLINE
5
EB
100
AcDbEntity
8
1
62
256
6
ByLayer
370
13
48
1
60
0
100
AcDbSpline
70
4
71
3
72
10
73
6
40
0
40
0
40
0
40
0
40
0.0512753603628819
40
0.581391890009608
40
1
40
1
40
1
40
1
41
1
10
36.8212362231851
20
-4.03529009715948
30
0
41
1
10
36.8230466137246
20
-4.07766792320086
30
0
41
1
10
36.8435739462303
20
-4.54924159619242
30
0
41
1
10
36.8788811656051
20
-5.17985893908113
30
0
41
1
10
36.9123779994585
20
-5.43303103067473
30
0
41
1
10
36.927157889268
20
-5.47390737865229
30
0
0
SPLINE
5
EC
100
AcDbEntity
8
1
62
256
6
ByLayer
370
18
48
1
60
0
100
AcDbSpline
70
4
71
3
72
28
73
24
40
0
40
0
40
0
40
0
40
0.0625000000000004
40
0.0625000000000004
40
0.0937500000000005
40
0.0937500000000005
40
0.125000000000001
40
0.125000000000001
40
0.25
40
0.374999999999999
40
0.374999999999999
40
0.499999999999999
40
0.499999999999999
40
0.531249999999998
40
0.531249999999998
40
0.562499999999999
40
0.562499999999999
40
0.624999999999999
40
0.624999999999999
40
0.749999999999999
40
0.875
40
0.875
40
1
40
1
40
1
40
1
41
1
10
37.1610656854302
20
-4.62939905544019
30
0
41
1
10
37.1634161201186
20
-4.68716100104828
30
0
41
1
10
37.1657827024083
20
-4.74356474335903
30
0
41
1
10
37.1693490445803
20
-4.82609571757217
30
0
41
1
10
37.1705415064708
20
-4.85327952396295
30
0
41
1
10
37.1729194703564
20
-4.90668969949448
30
0
41
1
10
37.1741062726043
20
-4.93294679807181
30
0
41
1
10
37.1800279055969
20
-5.06201408999704
30
0
41
1
10
37.189417541939
20
-5.25435279390837
30
0
41
1
10
37.1986546041798
20
-5.41902062864582
30
0
41
1
10
37.2078955605518
20
-5.56986035050355
30
0
41
1
10
37.2125192965846
20
-5.63836671140837
30
0
41
1
10
37.218393104145
20
-5.71515899331712
30
0
41
1
10
37.2195720054174
20
-5.73007459418554
30
0
41
1
10
37.2219367851731
20
-5.759011733341
30
0
41
1
10
37.2231240314554
20
-5.77304868848728
30
0
41
1
10
37.226684236846
20
-5.81368584056534
30
0
41
1
10
37.22905141217
20
-5.83877162366164
30
0
41
1
10
37.2361262731361
20
-5.90812481664454
30
0
41
1
10
37.2454839686337
20
-5.98487469713095
30
0
41
1
10
37.2547153255823
20
-6.03079860721451
30
0
41
1
10
37.2639651494986
20
-6.06125705532131
30
0
41
1
10
37.2686006107987
20
-6.06875443283516
30
0
41
1
10
37.273318649168
20
-6.06831039426442
30
0
0
SPLINE
5
ED
100
AcDbEntity
8
1
62
256
6
ByLayer
370
18
48
1
60
0
100
AcDbSpline
70
4
71
3
72
99
73
95
40
0
40
0
40
0
40
0
40
0.0625000000000053
40
0.0625000000000053
40
0.12500000000001
40
0.12500000000001
40
0.187500000000016
40
0.187500000000016
40
0.218750000000019
40
0.218750000000019
40
0.234375000000019
40
0.234375000000019
40
0.250000000000019
40
0.250000000000019
40
0.281250000000018
40
0.281250000000018
40
0.312500000000017
40
0.312500000000017
40
0.328125000000015
40
0.328125000000015
40
0.343750000000014
40
0.343750000000014
40
0.37500000000001
40
0.37500000000001
40
0.406250000000007
40
0.406250000000007
40
0.437500000000004
40
0.437500000000004
40
0.445312500000004
40
0.445312500000004
40
0.453125000000003
40
0.453125000000003
40
0.468750000000001
40
0.468750000000001
40
0.484375
40
0.484375
40
0.4921875
40
0.4921875
40
0.5
40
0.5
40
0.515624999999998
40
0.515624999999998
40
0.531249999999997
40
0.531249999999997
40
0.539062499999997
40
0.539062499999997
40
0.546874999999997
40
0.546874999999997
40
0.562499999999996
40
0.562499999999996
40
0.570312499999997
40
0.570312499999997
40
0.574218749999996
40
0.574218749999996
40
0.578124999999996
40
0.593749999999996
40
0.593749999999996
40
0.601562499999996
40
0.601562499999996
40
0.605468749999996
40
0.605468749999996
40
0.609374999999996
40
0.609374999999996
40
0.624999999999996
40
0.624999999999996
40
0.640624999999996
40
0.640624999999996
40
0.648437499999996
40
0.648437499999996
40
0.656249999999996
40
0.656249999999996
40
0.671874999999997
40
0.671874999999997
40
0.687499999999997
40
0.687499999999997
40
0.718749999999998
40
0.718749999999998
40
0.734374999999998
40
0.734374999999998
40
0.749999999999999
40
0.749999999999999
40
0.78125
40
0.78125
40
0.812500000000002
40
0.812500000000002
40
0.843750000000003
40
0.843750000000003
40
0.859375000000003
40
0.859375000000003
40
0.875000000000003
40
0.875000000000003
40
0.937500000000001
40
0.937500000000001
40
1
40
1
40
1
40
1
41
1
10
19.8153420616343
20
4.09200977409955
30
0
41
1
10
19.6212223832678
20
4.09864149350281
30
0
41
1
10
19.4250111853428
20
4.100774447108
30
0
41
1
10
19.027385440537
20
4.09874434701911
30
0
41
1
10
18.8259804118489
20
4.09458667133191
30
0
41
1
10
18.4170352960687
20
4.08284522903477
30
0
41
1
10
18.209513618604
20
4.075260067974
30
0
41
1
10
17.8927860603869
20
4.06351188607746
30
0
41
1
10
17.786301570318
20
4.05953450379349
30
0
41
1
10
17.6250860925527
20
4.05374980826781
30
0
41
1
10
17.5710664670522
20
4.05185094318179
30
0
41
1
10
17.4626426572164
20
4.0481655559762
30
0
41
1
10
17.4083446225694
20
4.04638265965821
30
0
41
1
10
17.2451826297361
20
4.04127786403168
30
0
41
1
10
17.1360521992304
20
4.03819958074527
30
0
41
1
10
16.9170131934247
20
4.03302118242399
30
0
41
1
10
16.8071058707496
20
4.03091963915807
30
0
41
1
10
16.6415727583874
20
4.0287590117201
30
0
41
1
10
16.5862855388962
20
4.02819976375733
30
0
41
1
10
16.4754764342693
20
4.02743906210057
30
0
41
1
10
16.4198671510054
20
4.02723779737948
30
0
41
1
10
16.2534029099332
20
4.02721795073253
30
0
41
1
10
16.1429844813487
20
4.02798466034736
30
0
41
1
10
15.923383590415
20
4.03116469792982
30
0
41
1
10
15.8142001559496
20
4.0335793577911
30
0
41
1
10
15.5972330848726
20
4.03999653812576
30
0
41
1
10
15.4894511646673
20
4.04401040642179
30
0
41
1
10
15.3558467253964
20
4.0499526310312
30
0
41
1
10
15.3291825430289
20
4.05118671955279
30
0
41
1
10
15.2759764132155
20
4.0537412450376
30
0
41
1
10
15.2494915345716
20
4.05505905919935
30
0
41
1
10
15.1707124227984
20
4.05910579205377
30
0
41
1
10
15.1189742472104
20
4.06193482394798
30
0
41
1
10
15.0172622194197
20
4.06775292086371
30
0
41
1
10
14.9672873166262
20
4.07074265836897
30
0
41
1
10
14.8938543421771
20
4.0752360432954
30
0
41
1
10
14.869631046703
20
4.07673463572723
30
0
41
1
10
14.8217544819132
20
4.0797117870338
30
0
41
1
10
14.7982284489695
20
4.08118162362103
30
0
41
1
10
14.7291664867837
20
4.08547425739329
30
0
41
1
10
14.6850403278604
20
4.08818857148739
30
0
41
1
10
14.6011480971898
20
4.09302894260108
30
0
41
1
10
14.561403231423
20
4.09515874382416
30
0
41
1
10
14.5056463882779
20
4.09760648772658
30
0
41
1
10
14.4877050822132
20
4.09829680254714
30
0
41
1
10
14.4532367106579
20
4.09935779823752
30
0
41
1
10
14.4368759562518
20
4.09972227865188
30
0
41
1
10
14.3908244079163
20
4.10022993099761
30
0
41
1
10
14.3639904418166
20
4.09979471521305
30
0
41
1
10
14.3298425584419
20
4.09764073711813
30
0
41
1
10
14.3194757122791
20
4.09667195470001
30
0
41
1
10
14.3054726142595
20
4.09479489437698
30
0
41
1
10
14.3010617757579
20
4.09409762492345
30
0
41
1
10
14.2928354631211
20
4.09256940785517
30
0
41
1
10
14.273703021669
20
4.08840802763973
30
0
41
1
10
14.2615162340289
20
4.08251190345149
30
0
41
1
10
14.2530312677114
20
4.07365473880725
30
0
41
1
10
14.2512154239595
20
4.07040560266341
30
0
41
1
10
14.249949393243
20
4.06507249039242
30
0
41
1
10
14.2497710062223
20
4.06321456618861
30
0
41
1
10
14.2498879901252
20
4.05937001210151
30
0
41
1
10
14.2501819886725
20
4.05738197393279
30
0
41
1
10
14.2527683720249
20
4.04711747594746
30
0
41
1
10
14.2583926850816
20
4.03786942546395
30
0
41
1
10
14.2754920432032
20
4.01739251796531
30
0
41
1
10
14.286968821623
20
4.00616322134661
30
0
41
1
10
14.3079233217342
20
3.98788204237309
30
0
41
1
10
14.3155457567859
20
3.98153822111507
30
0
41
1
10
14.3318919179473
20
3.96842380044612
30
0
41
1
10
14.3405836416089
20
3.96167787083525
30
0
41
1
10
14.3680518063615
20
3.94089575975499
30
0
41
1
10
14.3882145322165
20
3.9263160958937
30
0
41
1
10
14.431581302603
20
3.89579862690658
30
0
41
1
10
14.4547881777787
20
3.87986053588335
30
0
41
1
10
14.5282676944378
20
3.83010997182015
30
0
41
1
10
14.5823635943921
20
3.79436706622161
30
0
41
1
10
14.6693035620253
20
3.73715381039676
30
0
41
1
10
14.6991062457419
20
3.71758228045312
30
0
41
1
10
14.7599700386577
20
3.67758130468627
30
0
41
1
10
14.7910566624191
20
3.65713541293539
30
0
41
1
10
14.8860138735274
20
3.59450956039817
30
0
41
1
10
14.9515630957211
20
3.55104186881522
30
0
41
1
10
15.0861441495809
20
3.46084506865509
30
0
41
1
10
15.1551832123142
20
3.41411531672227
30
0
41
1
10
15.2961107036751
20
3.31749825440588
30
0
41
1
10
15.3680023094735
20
3.26761037991488
30
0
41
1
10
15.4776575251846
20
3.19045309315249
30
0
41
1
10
15.5145136135956
20
3.16434610420839
30
0
41
1
10
15.5887946771048
20
3.11136030317428
30
0
41
1
10
15.6261711336016
20
3.08451583087972
30
0
41
1
10
15.8137309829435
20
2.94885736876782
30
0
41
1
10
15.966309637254
20
2.83545092031835
30
0
41
1
10
16.2753300247588
20
2.59927914988484
30
0
41
1
10
16.4317848059419
20
2.4765076979082
30
0
41
1
10
16.5900396196707
20
2.34921534457536
30
0
0
SPLINE
5
EE
100
AcDbEntity
8
1
62
256
6
ByLayer
370
13
48
1
60
0
100
AcDbSpline
70
4
71
3
72
10
73
6
40
0
40
0
40
0
40
0
40
0.275775373629101
40
0.806415387353623
40
1
40
1
40
1
40
1
41
1
10
35.4498657939619
20
5.48044218087435
30
0
41
1
10
35.45959305073
20
5.45935950541221
30
0
41
1
10
35.4880372498586
20
5.30838180653129
30
0
41
1
10
35.5233096431511
20
4.80144562916018
30
0
41
1
10
35.5488547764391
20
4.25721314584589
30
0
41
1
10
35.5556829683076
20
4.10046039234393
30
0
0
SPLINE
5
EF
100
AcDbEntity
8
1
62
256
6
ByLayer
370
18
48
1
60
0
100
AcDbSpline
70
4
71
3
72
26
73
22
40
0
40
0
40
0
40
0
40
0.125
40
0.125
40
0.249999999999999
40
0.249999999999999
40
0.312499999999999
40
0.312499999999999
40
0.343749999999999
40
0.343749999999999
40
0.374999999999999
40
0.499999999999999
40
0.624999999999999
40
0.624999999999999
40
0.75
40
0.75
40
0.8125
40
0.8125
40
0.875
40
0.875
40
1
40
1
40
1
40
1
41
1
10
35.7898086480713
20
6.03495772124404
30
0
41
1
10
35.7944524015835
20
6.01633172344555
30
0
41
1
10
35.7990578448986
20
5.98999856986671
30
0
41
1
10
35.8082950451674
20
5.92200514419758
30
0
41
1
10
35.8129404316517
20
5.88034530592387
30
0
41
1
10
35.8200022222704
20
5.80615802548854
30
0
41
1
10
35.8223673109005
20
5.77947650326286
30
0
41
1
10
35.82592640189
20
5.73647327952679
30
0
41
1
10
35.827116194417
20
5.72162222012901
30
0
41
1
10
35.8294896456418
20
5.6910399200066
30
0
41
1
10
35.8354099977341
20
5.61237095187212
30
0
41
1
10
35.8459301245869
20
5.45111208892803
30
0
41
1
10
35.8551541973479
20
5.28050754746371
30
0
41
1
10
35.8644159335238
20
5.09629509647076
30
0
41
1
10
35.8690794475557
20
4.99738564287446
30
0
41
1
10
35.8761742258397
20
4.83859503188393
30
0
41
1
10
35.8785520482951
20
4.78390321989787
30
0
41
1
10
35.8833200271339
20
4.67105603112066
30
0
41
1
10
35.8856939390698
20
4.61328576812508
30
0
41
1
10
35.8927805985526
20
4.43601276082472
30
0
41
1
10
35.8974560361016
20
4.312555427398
30
0
41
1
10
35.9020973309916
20
4.18393237975644
30
0
0
SPLINE
5
F0
100
AcDbEntity
8
1
62
256
6
ByLayer
370
13
48
1
60
0
100
AcDbSpline
70
4
71
3
72
10
73
6
40
0
40
0
40
0
40
0
40
0.17652910937011
40
0.706942726841381
40
1
40
1
40
1
40
1
41
1
10
36.2211117333908
20
5.38477512712203
30
0
41
1
10
36.227340999441
20
5.34269293145832
30
0
41
1
10
36.252287216773
20
5.12478905088653
30
0
41
1
10
36.287574619513
20
4.54151083283375
30
0
41
1
10
36.3166328088421
20
3.84330585371203
30
0
41
1
10
36.3269740537066
20
3.57232625525609
30
0
0
SPLINE
5
F1
100
AcDbEntity
8
1
62
256
6
ByLayer
370
18
48
1
60
0
100
AcDbSpline
70
4
71
3
72
31
73
27
40
0
40
0
40
0
40
0
40
0.0312500000000005
40
0.0312500000000005
40
0.0625000000000009
40
0.125000000000001
40
0.125000000000001
40
0.250000000000001
40
0.250000000000001
40
0.375000000000001
40
0.375000000000001
40
0.500000000000002
40
0.500000000000002
40
0.531250000000002
40
0.531250000000002
40
0.562500000000002
40
0.625000000000002
40
0.625000000000002
40
0.750000000000001
40
0.750000000000001
40
0.875
40
0.875
40
0.9375
40
0.96875
40
0.96875
40
1
40
1
40
1
40
1
41
1
10
35.9877363690981
20
4.11766759646136
30
0
41
1
10
35.9865636687855
20
4.15061105726772
30
0
41
1
10
35.9853893827894
20
4.18330088660929
30
0
41
1
10
35.9830434286761
20
4.24797909570785
30
0
41
1
10
35.9795345438229
20
4.34377521903218
30
0
41
1
10
35.9760500403131
20
4.43594752098309
30
0
41
1
10
35.9690927284485
20
4.61553745309382
30
0
41
1
10
35.9644660725682
20
4.72893350596308
30
0
41
1
10
35.9551185490824
20
4.94324554127428
30
0
41
1
10
35.9504172620074
20
5.04416174582914
30
0
41
1
10
35.941016368752
20
5.23340747567596
30
0
41
1
10
35.9363169674879
20
5.32173799561943
30
0
41
1
10
35.9304338661387
20
5.42402823366342
30
0
41
1
10
35.9292584268776
20
5.4440469071609
30
0
41
1
10
35.9269163865046
20
5.48308405306435
30
0
41
1
10
35.9234131301291
20
5.54019832607699
30
0
41
1
10
35.9199336931194
20
5.59303073089362
30
0
41
1
10
35.9129860007461
20
5.69306624676079
30
0
41
1
10
35.9083654276533
20
5.75226151458347
30
0
41
1
10
35.8990268149554
20
5.85581909077217
30
0
41
1
10
35.8943278777419
20
5.90018166587367
30
0
41
1
10
35.8872753246183
20
5.95546099032717
30
0
41
1
10
35.8837472111188
20
5.98028047139874
30
0
41
1
10
35.8802163699184
20
6.00080510941936
30
0
41
1
10
35.8778613230116
20
6.01352379434721
30
0
41
1
10
35.8766821759854
20
6.01940499564392
30
0
41
1
10
35.8755077069047
20
6.02477490816125
30
0
0
SPLINE
5
F2
100
AcDbEntity
8
1
62
256
6
ByLayer
370
13
48
1
60
0
100
AcDbSpline
70
4
71
3
72
10
73
6
40
0
40
0
40
0
40
0
40
0.120592258627152
40
0.650778766999703
40
1
40
1
40
1
40
1
41
1
10
36.5639327777839
20
-3.86419273802355
30
0
41
1
10
36.5681899936713
20
-3.96859969384343
30
0
41
1
10
36.5911641533593
20
-4.50964176242135
30
0
41
1
10
36.6264667270259
20
-5.1387933347504
30
0
41
1
10
36.6575120683656
20
-5.39550171689814
30
0
41
1
10
36.6698404729772
20
-5.44857618031963
30
0
0
SPLINE
5
F3
100
AcDbEntity
8
1
62
256
6
ByLayer
370
13
48
1
60
0
100
AcDbSpline
70
4
71
3
72
10
73
6
40
0
40
0
40
0
40
0
40
0.219382012638424
40
0.750039607506808
40
1
40
1
40
1
40
1
41
1
10
35.7927389078877
20
-3.30730491188589
30
0
41
1
10
35.8004767794753
20
-3.52047374596523
30
0
41
1
10
35.8269315925352
20
-4.20935128883471
30
0
41
1
10
35.8622028153533
20
-4.90947380946901
30
0
41
1
10
35.8897361662212
20
-5.2291984557248
30
0
41
1
10
35.8985525748178
20
-5.30727541269073
30
0
0
SPLINE
5
F4
100
AcDbEntity
8
1
62
256
6
ByLayer
370
18
48
1
60
0
100
AcDbSpline
70
4
71
3
72
27
73
23
40
0
40
0
40
0
40
0
40
0.125
40
0.125
40
0.1875
40
0.1875
40
0.21875
40
0.21875
40
0.25
40
0.25
40
0.375
40
0.375
40
0.5
40
0.625
40
0.625
40
0.6875
40
0.6875
40
0.75
40
0.75
40
0.875
40
0.875
40
1
40
1
40
1
40
1
41
1
10
36.3305601992701
20
-5.98860871783921
30
0
41
1
10
36.3258912371213
20
-5.95992238781773
30
0
41
1
10
36.3212445847268
20
-5.92353475894612
30
0
41
1
10
36.3142648976061
20
-5.85720287583035
30
0
41
1
10
36.3119361447736
20
-5.83313101919151
30
0
41
1
10
36.3084289325429
20
-5.79402973626702
30
0
41
1
10
36.3072560318714
20
-5.78047934256543
30
0
41
1
10
36.3049110289719
20
-5.75246419500024
30
0
41
1
10
36.3037394487836
20
-5.73800713217585
30
0
41
1
10
36.2978799629147
20
-5.66349714542113
30
0
41
1
10
36.293172532941
20
-5.59678385687596
30
0
41
1
10
36.2837766460293
20
-5.44950482196435
30
0
41
1
10
36.2744076609129
20
-5.28837122198982
30
0
41
1
10
36.2651185320091
20
-5.09959035746181
30
0
41
1
10
36.2581363449239
20
-4.94741655950077
30
0
41
1
10
36.2558058119237
20
-4.89492470865767
30
0
41
1
10
36.2511235639543
20
-4.78633697575597
30
0
41
1
10
36.2487884642368
20
-4.73062715359677
30
0
41
1
10
36.2417772970926
20
-4.55944160379062
30
0
41
1
10
36.2370778971761
20
-4.43986962915574
30
0
41
1
10
36.2276870977998
20
-4.19005963391552
30
0
41
1
10
36.2229998002392
20
-4.05982111714488
30
0
41
1
10
36.2183277191518
20
-3.92423914440909
30
0
0
SPLINE
5
F5
100
AcDbEntity
8
1
62
256
6
ByLayer
370
18
48
1
60
0
100
AcDbSpline
70
4
71
3
72
25
73
21
40
0
40
0
40
0
40
0
40
0.125000000000002
40
0.125000000000002
40
0.156250000000003
40
0.156250000000003
40
0.187500000000003
40
0.250000000000003
40
0.250000000000003
40
0.375000000000003
40
0.500000000000002
40
0.500000000000002
40
0.625000000000002
40
0.625000000000002
40
0.687500000000001
40
0.687500000000001
40
0.750000000000001
40
0.750000000000001
40
0.875000000000001
40
1
40
1
40
1
40
1
41
1
10
36.1326389091691
20
-3.85474011273891
30
0
41
1
10
36.1372745236191
20
-3.99209952425994
30
0
41
1
10
36.1419085921682
20
-4.1248881206987
30
0
41
1
10
36.147782311908
20
-4.28499224191185
30
0
41
1
10
36.1489629005934
20
-4.31675567895266
30
0
41
1
10
36.1513270865775
20
-4.3794913731586
30
0
41
1
10
36.1548745653927
20
-4.47234819390266
30
0
41
1
10
36.1584185198836
20
-4.5615051405475
30
0
41
1
10
36.1654894503522
20
-4.73496371462764
30
0
41
1
10
36.1748676250284
20
-4.95331308248117
30
0
41
1
10
36.1841260927955
20
-5.14616178488768
30
0
41
1
10
36.1933869553882
20
-5.32614040427669
30
0
41
1
10
36.1980183532868
20
-5.40969572347922
30
0
41
1
10
36.2050707104609
20
-5.52505403469826
30
0
41
1
10
36.207426582407
20
-5.56158171628741
30
0
41
1
10
36.2121387513997
20
-5.63076614692588
30
0
41
1
10
36.214494758063
20
-5.66343888180484
30
0
41
1
10
36.2215505400382
20
-5.75577744797582
30
0
41
1
10
36.2309212933385
20
-5.86377144242167
30
0
41
1
10
36.2401968753977
20
-5.94181601391398
30
0
41
1
10
36.2448411149731
20
-5.97325076571843
30
0
0
SPLINE
5
F6
100
AcDbEntity
8
1
62
256
6
ByLayer
370
13
48
1
60
0
100
AcDbSpline
70
4
71
3
72
10
73
6
40
0
40
0
40
0
40
0
40
0.107325660642179
40
0.637564002518637
40
1
40
1
40
1
40
1
41
1
10
36.4783969339307
20
5.33125552700869
30
0
41
1
10
36.4821854342387
20
5.2999635952896
30
0
41
1
10
36.5046908764702
20
5.08715833364894
30
0
41
1
10
36.5399899917475
20
4.5051512753173
30
0
41
1
10
36.5715006004919
20
3.729023825312
30
0
41
1
10
36.5842942684287
20
3.38126818473552
30
0
0
SPLINE
5
F7
100
AcDbEntity
8
1
62
256
6
ByLayer
370
18
48
1
60
0
100
AcDbSpline
70
4
71
3
72
28
73
24
40
0
40
0
40
0
40
0
40
0.125
40
0.125
40
0.249999999999999
40
0.249999999999999
40
0.281249999999999
40
0.281249999999999
40
0.312499999999999
40
0.374999999999999
40
0.374999999999999
40
0.499999999999999
40
0.499999999999999
40
0.624999999999999
40
0.624999999999999
40
0.6875
40
0.71875
40
0.71875
40
0.75
40
0.75
40
0.875
40
0.875
40
1
40
1
40
1
40
1
41
1
10
36.8182981132413
20
5.82496599035562
30
0
41
1
10
36.8229289467436
20
5.77516848180721
30
0
41
1
10
36.8275978406381
20
5.71793294985281
30
0
41
1
10
36.8369916451026
20
5.58847272710045
30
0
41
1
10
36.8417068581588
20
5.51624909045785
30
0
41
1
10
36.8476126593255
20
5.41630591887639
30
0
41
1
10
36.8487946542823
20
5.39583039394202
30
0
41
1
10
36.851148713102
20
5.35411703755173
30
0
41
1
10
36.8546694533144
20
5.29032859357739
30
0
41
1
10
36.8581621888129
20
5.22292190035046
30
0
41
1
10
36.8651242130223
20
5.08335447529845
30
0
41
1
10
36.8697323405087
20
4.98397982920466
30
0
41
1
10
36.8790043720524
20
4.77271847816218
30
0
41
1
10
36.8836890901562
20
4.6608321477818
30
0
41
1
10
36.890767586409
20
4.48350918037781
30
0
41
1
10
36.8943167941908
20
4.39247087011549
30
0
41
1
10
36.8978746745926
20
4.29781443239486
30
0
41
1
10
36.900248361698
20
4.23389787256392
30
0
41
1
10
36.9014375565418
20
4.20149206396795
30
0
41
1
10
36.9073644313103
20
4.03806120098707
30
0
41
1
10
36.9120453240527
20
3.90277104768248
30
0
41
1
10
36.9213370101195
20
3.62337874248618
30
0
41
1
10
36.9259478968126
20
3.47927590692305
30
0
41
1
10
36.9305834608792
20
3.33080059748002
30
0
0
SPLINE
5
F8
100
AcDbEntity
8
1
62
256
6
ByLayer
370
13
48
1
60
0
100
AcDbSpline
70
4
71
3
72
10
73
6
40
0
40
0
40
0
40
0
40
0.0080602063378156
40
0.538237943643259
40
1
40
1
40
1
40
1
41
1
10
37.249660712379
20
5.10641496929964
30
0
41
1
10
37.2499452630124
20
5.10280386855484
30
0
41
1
10
37.2689467551115
20
4.86001458347482
30
0
41
1
10
37.3042498878657
20
4.20445045834589
30
0
41
1
10
37.3392684794052
20
3.25512304496405
30
0
41
1
10
37.3555701317168
20
2.76953642200954
30
0
0
SPLINE
5
F9
100
AcDbEntity
8
1
62
256
6
ByLayer
370
18
48
1
60
0
100
AcDbSpline
70
4
71
3
72
27
73
23
40
0
40
0
40
0
40
0
40
0.0625000000000003
40
0.0937500000000004
40
0.0937500000000004
40
0.125000000000001
40
0.125000000000001
40
0.250000000000001
40
0.375000000000001
40
0.375000000000001
40
0.500000000000002
40
0.500000000000002
40
0.562500000000002
40
0.562500000000002
40
0.593750000000001
40
0.593750000000001
40
0.625000000000001
40
0.625000000000001
40
0.750000000000001
40
0.875
40
0.875
40
1
40
1
40
1
40
1
41
1
10
37.0163895693208
20
3.25437052859039
30
0
41
1
10
37.0140323746235
20
3.32966959392243
30
0
41
1
10
37.0104905146799
20
3.44128400619206
30
0
41
1
10
37.0069423243131
20
3.55086450419341
30
0
41
1
10
37.0045752243441
20
3.62346119684776
30
0
41
1
10
37.0033931022481
20
3.65946242087799
30
0
41
1
10
36.9975047503101
20
3.83750150818597
30
0
41
1
10
36.988199156871
20
4.11077941158024
30
0
41
1
10
36.9789783939883
20
4.36152209137509
30
0
41
1
10
36.9696618920416
20
4.60104607524707
30
0
41
1
10
36.9649508002019
20
4.71519899550424
30
0
41
1
10
36.9578603923985
20
4.87785759023444
30
0
41
1
10
36.9554924837666
20
4.93064657486016
30
0
41
1
10
36.9519359992535
20
5.00764469891303
30
0
41
1
10
36.9507488501499
20
5.03296328557195
30
0
41
1
10
36.9483844369322
20
5.08262308258884
30
0
41
1
10
36.9472058467591
20
5.10699357639072
30
0
41
1
10
36.941329831942
20
5.22657124728357
30
0
41
1
10
36.932042001588
20
5.40336498406691
30
0
41
1
10
36.9228356470842
20
5.55177877949316
30
0
41
1
10
36.9135295740137
20
5.68600918897525
30
0
41
1
10
36.9088213698924
20
5.74603333356492
30
0
41
1
10
36.9040927500795
20
5.7988038721868
30
0
0
SPLINE
5
FA
100
AcDbEntity
8
1
62
256
6
ByLayer
370
13
48
1
60
0
100
AcDbSpline
70
4
71
3
72
10
73
6
40
0
40
0
40
0
40
0
40
0.288932227372838
40
0.819597263293971
40
1
40
1
40
1
40
1
41
1
10
35.5354170190125
20
-3.1068979477038
30
0
41
1
10
35.545607868386
20
-3.39683359464573
30
0
41
1
10
35.5745156614725
20
-4.16535704938127
30
0
41
1
10
35.6097863819001
20
-4.86416584007941
30
0
41
1
10
35.6348662549525
20
-5.17277582827992
30
0
41
1
10
35.6412291897055
20
-5.23856106899535
30
0
0
SPLINE
5
FB
100
AcDbEntity
8
1
62
256
6
ByLayer
370
18
48
1
60
0
100
AcDbSpline
70
4
71
3
72
26
73
22
40
0
40
0
40
0
40
0
40
0.124999999999999
40
0.124999999999999
40
0.249999999999997
40
0.249999999999997
40
0.281249999999997
40
0.281249999999997
40
0.312499999999997
40
0.374999999999996
40
0.374999999999996
40
0.499999999999996
40
0.624999999999996
40
0.624999999999996
40
0.687499999999996
40
0.718749999999996
40
0.718749999999996
40
0.749999999999996
40
0.749999999999996
40
0.874999999999998
40
1
40
1
40
1
40
1
41
1
10
35.3261777072186
20
-5.68381652713049
30
0
41
1
10
35.3219104131941
20
-5.62467995114443
30
0
41
1
10
35.3176584784637
20
-5.55844434689231
30
0
41
1
10
35.309055949384
20
-5.41181099642165
30
0
41
1
10
35.3047104570441
20
-5.33141435529265
30
0
41
1
10
35.2992623795284
20
-5.22189916258597
30
0
41
1
10
35.2981736015143
20
-5.19957987224467
30
0
41
1
10
35.2960029364295
20
-5.15421541237322
30
0
41
1
10
35.2927549483305
20
-5.08503424170723
30
0
41
1
10
35.2895316177033
20
-5.01248275142277
30
0
41
1
10
35.2831138920682
20
-4.86294798859987
30
0
41
1
10
35.2746378493266
20
-4.65176708618634
30
0
41
1
10
35.2661883033165
20
-4.41721989359152
30
0
41
1
10
35.2597637494391
20
-4.2324310762437
30
0
41
1
10
35.2565290996215
20
-4.13781389701981
30
0
41
1
10
35.2532714325598
20
-4.03981387015932
30
0
41
1
10
35.2510952796288
20
-3.97372114260477
30
0
41
1
10
35.2500039690092
20
-3.9402618582572
30
0
41
1
10
35.2445572116028
20
-3.77164345295014
30
0
41
1
10
35.2358955069953
20
-3.49298741752273
30
0
41
1
10
35.2273362715067
20
-3.19686042153839
30
0
41
1
10
35.2230489145507
20
-3.04439102556572
30
0
0
SPLINE
5
FC
100
AcDbEntity
8
1
62
256
6
ByLayer
370
18
48
1
60
0
100
AcDbSpline
70
4
71
3
72
26
73
22
40
0
40
0
40
0
40
0
40
0.124999999999999
40
0.249999999999998
40
0.249999999999998
40
0.281249999999998
40
0.281249999999998
40
0.312499999999998
40
0.374999999999998
40
0.374999999999998
40
0.499999999999999
40
0.625000000000001
40
0.625000000000001
40
0.687500000000001
40
0.718750000000001
40
0.718750000000001
40
0.750000000000001
40
0.750000000000001
40
0.875
40
0.875
40
1
40
1
40
1
40
1
41
1
10
35.0576777965051
20
-2.88583385332643
30
0
41
1
10
35.0627967978701
20
-3.04024624216268
30
0
41
1
10
35.0729559559603
20
-3.34090042354853
30
0
41
1
10
35.0830296711177
20
-3.62527486535973
30
0
41
1
10
35.0893716464966
20
-3.7978234316999
30
0
41
1
10
35.0906402104513
20
-3.8320095124424
30
0
41
1
10
35.0931751321088
20
-3.89960270750396
30
0
41
1
10
35.0969765193898
20
-3.9998889990876
30
0
41
1
10
35.1007881449959
20
-4.0968980837568
30
0
41
1
10
35.1084081800181
20
-4.28660578728042
30
0
41
1
10
35.1185550498215
20
-4.52807065679329
30
0
41
1
10
35.1286068048754
20
-4.74681015523782
30
0
41
1
10
35.1361400035964
20
-4.90223832134978
30
0
41
1
10
35.1399060730854
20
-4.97779281185663
30
0
41
1
10
35.1436852052746
20
-5.05006020918748
30
0
41
1
10
35.1462096686763
20
-5.09750063992425
30
0
41
1
10
35.1474754776795
20
-5.12087103238363
30
0
41
1
10
35.1537987692176
20
-5.23542786767723
30
0
41
1
10
35.1588680443827
20
-5.32001712647025
30
0
41
1
10
35.1690781625167
20
-5.47529900417968
30
0
41
1
10
35.1741984365945
20
-5.54598913632731
30
0
41
1
10
35.1793118341175
20
-5.60966839849647
30
0
0
SPLINE
5
FD
100
AcDbEntity
8
1
62
256
6
ByLayer
370
13
48
1
60
0
100
AcDbSpline
70
4
71
3
72
10
73
6
40
0
40
0
40
0
40
0
40
0.388172269670468
40
0.918997079656893
40
1
40
1
40
1
40
1
41
1
10
34.7641766591529
20
-2.47172014169607
30
0
41
1
10
34.7778636561922
20
-2.89335076064091
30
0
41
1
10
34.8102675933722
20
-3.82683331233107
30
0
41
1
10
34.8455277082673
20
-4.593738373505
30
0
41
1
10
34.8671008221148
20
-4.92822572490385
30
0
41
1
10
34.8699569940705
20
-4.97010403274871
30
0
0
SPLINE
5
FE
100
AcDbEntity
8
1
62
256
6
ByLayer
370
18
48
1
60
0
100
AcDbSpline
70
4
71
3
72
11
73
7
40
0
40
0
40
0
40
0
40
0.0157300831525422
40
0.433276887715066
40
0.923515369983273
40
1
40
1
40
1
40
1
41
1
10
44
20
0.0463628776967084
30
0
41
1
10
44
20
0.030761965958817
30
0
41
1
10
44
20
-0.399059732408915
30
0
41
1
10
44.0000000000001
20
-1.32005873247908
30
0
41
1
10
44
20
-2.23260837626748
30
0
41
1
10
43.9999999999999
20
-2.70400523192296
30
0
41
1
10
43.9999999999999
20
-2.76658823292183
30
0
0
SPLINE
5
FF
100
AcDbEntity
8
1
62
256
6
ByLayer
370
13
48
1
60
0
100
AcDbSpline
70
4
71
3
72
10
73
6
40
0
40
0
40
0
40
0
40
0.45757881704749
40
0.988558760093298
40
1
40
1
40
1
40
1
41
1
10
34.5068860114553
20
-2.24981974153911
30
0
41
1
10
34.523015584144
20
-2.75739630180342
30
0
41
1
10
34.5578621286288
20
-3.77888584783668
30
0
41
1
10
34.5931119000961
20
-4.54438205585842
30
0
41
1
10
34.6122321353049
20
-4.85368926907759
30
0
41
1
10
34.6126354366653
20
-4.86016621016165
30
0
0
SPLINE
5
100
100
AcDbEntity
8
1
62
256
6
ByLayer
370
18
48
1
60
0
100
AcDbSpline
70
4
71
3
72
25
73
21
40
0
40
0
40
0
40
0
40
0.125000000000001
40
0.250000000000002
40
0.250000000000002
40
0.312500000000002
40
0.312500000000002
40
0.375000000000002
40
0.375000000000002
40
0.500000000000001
40
0.500000000000001
40
0.625000000000001
40
0.75
40
0.75
40
0.78125
40
0.78125
40
0.8125
40
0.875
40
0.875
40
1
40
1
40
1
40
1
41
1
10
34.376201718438
20
-5.14395365928806
30
0
41
1
10
34.3719394584935
20
-5.06048253563648
30
0
41
1
10
34.3633858363426
20
-4.88125698057505
30
0
41
1
10
34.3548727173557
20
-4.67764381881392
30
0
41
1
10
34.3484943410051
20
-4.5156439650701
30
0
41
1
10
34.3463659202883
20
-4.46001048542246
30
0
41
1
10
34.3421374627446
20
-4.3465423742326
30
0
41
1
10
34.3400335800688
20
-4.2886145593761
30
0
41
1
10
34.3337360017702
20
-4.11130599671779
30
0
41
1
10
34.3295560069898
20
-3.9884065545867
30
0
41
1
10
34.3211161508165
20
-3.73335492285469
30
0
41
1
10
34.3126208523032
20
-3.46905208039698
30
0
41
1
10
34.3041147512513
20
-3.18612738671752
30
0
41
1
10
34.2987899659584
20
-3.00330730969054
30
0
41
1
10
34.2977234164112
20
-2.96640751939978
30
0
41
1
10
34.2955957236018
20
-2.89225705752645
30
0
41
1
10
34.2924109023365
20
-2.78046078026713
30
0
41
1
10
34.2892421343242
20
-2.66696322384848
30
0
41
1
10
34.2829101211557
20
-2.43771525769489
30
0
41
1
10
34.2786975224324
20
-2.28188372389772
30
0
41
1
10
34.2744313512565
20
-2.12304217530277
30
0
0
SPLINE
5
101
100
AcDbEntity
8
1
62
256
6
ByLayer
370
18
48
1
60
0
100
AcDbSpline
70
4
71
3
72
25
73
21
40
0
40
0
40
0
40
0
40
0.124999999999999
40
0.249999999999998
40
0.249999999999998
40
0.312499999999998
40
0.312499999999998
40
0.374999999999998
40
0.374999999999998
40
0.499999999999998
40
0.499999999999998
40
0.624999999999998
40
0.749999999999998
40
0.749999999999998
40
0.781249999999998
40
0.781249999999998
40
0.812499999999998
40
0.874999999999998
40
0.874999999999998
40
1
40
1
40
1
40
1
41
1
10
33.9360721583053
20
-1.78836900106288
30
0
41
1
10
33.9410939895133
20
-1.94911019431723
30
0
41
1
10
33.951183841516
20
-2.26516310619394
30
0
41
1
10
33.961232841387
20
-2.57043668318082
30
0
41
1
10
33.9687577237137
20
-2.79528888870948
30
0
41
1
10
33.9712693491177
20
-2.86969217017153
30
0
41
1
10
33.9762591758632
20
-3.01599618372273
30
0
41
1
10
33.9787404504874
20
-3.08799108305649
30
0
41
1
10
33.9861617253455
20
-3.30056295627483
30
0
41
1
10
33.9910773665873
20
-3.4377332425758
30
0
41
1
10
34.0009878137614
20
-3.7031413230763
30
0
41
1
10
34.0109737453428
20
-3.95961641592325
30
0
41
1
10
34.0209804021264
20
-4.19811248164328
30
0
41
1
10
34.0272423899878
20
-4.34139345409562
30
0
41
1
10
34.0284965154435
20
-4.36978598465802
30
0
41
1
10
34.0310007455192
20
-4.42585394393728
30
0
41
1
10
34.0347486222372
20
-4.50882596121659
30
0
41
1
10
34.0384753510575
20
-4.58843064434663
30
0
41
1
10
34.0459176929458
20
-4.74318633643648
30
0
41
1
10
34.0508624155823
20
-4.84042659191067
30
0
41
1
10
34.0558601839069
20
-4.93173452423389
30
0
0
SPLINE
5
102
100
AcDbEntity
8
1
62
256
6
ByLayer
370
13
48
1
60
0
100
AcDbSpline
70
4
71
3
72
10
73
6
40
0
40
0
40
0
40
0
40
0.0260423616658095
40
0.557123640862478
40
1
40
1
40
1
40
1
41
1
10
33.7356185147811
20
-1.5569341939204
30
0
41
1
10
33.7365363279069
20
-1.58730226648282
30
0
41
1
10
33.7561710828458
20
-2.23528788256561
30
0
41
1
10
33.7914141648238
20
-3.33006060214515
30
0
41
1
10
33.8257394374669
20
-4.15985831817969
30
0
41
1
10
33.841347766196
20
-4.4724940314415
30
0
0
SPLINE
5
103
100
AcDbEntity
8
1
62
256
6
ByLayer
370
13
48
1
60
0
100
AcDbSpline
70
4
71
3
72
10
73
6
40
0
40
0
40
0
40
0
40
0.468822327279372
40
0.998878650194944
40
1
40
1
40
1
40
1
41
1
10
37.5069640504166
20
5.01065264531556
30
0
41
1
10
37.5235187446717
20
4.77678942832282
30
0
41
1
10
37.5587903832235
20
4.10456584493701
30
0
41
1
10
37.5941016155728
20
3.12747529646774
30
0
41
1
10
37.6128581535579
20
2.55467888694864
30
0
41
1
10
37.6128977498009
20
2.55346943800075
30
0
0
SPLINE
5
104
100
AcDbEntity
8
1
62
256
6
ByLayer
370
18
48
1
60
0
100
AcDbSpline
70
4
71
3
72
27
73
23
40
0
40
0
40
0
40
0
40
0.125
40
0.125
40
0.1875
40
0.1875
40
0.25
40
0.25
40
0.375
40
0.375
40
0.5
40
0.625
40
0.625
40
0.65625
40
0.65625
40
0.687499999999999
40
0.687499999999999
40
0.75
40
0.75
40
0.875
40
0.875
40
1
40
1
40
1
40
1
41
1
10
37.8469173394016
20
5.42732635824592
30
0
41
1
10
37.8516114245993
20
5.34781481267589
30
0
41
1
10
37.8563033274125
20
5.26120906712973
30
0
41
1
10
37.863337142163
20
5.1204325262224
30
0
41
1
10
37.8656816410897
20
5.07169305661
30
0
41
1
10
37.8703774765994
20
4.97051470956382
30
0
41
1
10
37.872712342776
20
4.91843045296554
30
0
41
1
10
37.8796901679709
20
4.75790380826507
30
0
41
1
10
37.8843070320033
20
4.64514083184497
30
0
41
1
10
37.8936143305096
20
4.40837131306839
30
0
41
1
10
37.9030051296006
20
4.16035708245178
30
0
41
1
10
37.9124154896909
20
3.88981316615789
30
0
41
1
10
37.9183006923397
20
3.7135029881338
30
0
41
1
10
37.9194780989048
20
3.67787925889908
30
0
41
1
10
37.9218343245219
20
3.60590110079659
30
0
41
1
10
37.9230131645334
20
3.5695449049033
30
0
41
1
10
37.9265354616498
20
3.45992908564344
30
0
41
1
10
37.9288705397786
20
3.38594144477321
30
0
41
1
10
37.9358535675138
20
3.16129526516468
30
0
41
1
10
37.9404774179993
20
3.00795857608657
30
0
41
1
10
37.9498003105271
20
2.69426629369619
30
0
41
1
10
37.9545039255467
20
2.53391068675555
30
0
41
1
10
37.9592125278523
20
2.37002409624549
30
0
0
SPLINE
5
105
100
AcDbEntity
8
1
62
256
6
ByLayer
370
13
48
1
60
0
100
AcDbSpline
70
4
71
3
72
10
73
6
40
0
40
0
40
0
40
0
40
0.369937022023034
40
0.899551379900414
40
1
40
1
40
1
40
1
41
1
10
38.2781585370892
20
4.66481813941274
30
0
41
1
10
38.2912323704943
20
4.42669917244581
30
0
41
1
10
38.3230231476872
20
3.73314394964268
30
0
41
1
10
38.3583638449209
20
2.70546349712433
30
0
41
1
10
38.3806307189522
20
1.9922108069957
30
0
41
1
10
38.3841806447989
20
1.87709572384622
30
0
0
SPLINE
5
106
100
AcDbEntity
8
1
62
256
6
ByLayer
370
18
48
1
60
0
100
AcDbSpline
70
4
71
3
72
27
73
23
40
0
40
0
40
0
40
0
40
0.125
40
0.125
40
0.15625
40
0.15625
40
0.187499999999999
40
0.187499999999999
40
0.249999999999999
40
0.249999999999999
40
0.374999999999999
40
0.499999999999999
40
0.499999999999999
40
0.624999999999998
40
0.624999999999998
40
0.656249999999998
40
0.656249999999998
40
0.687499999999998
40
0.749999999999999
40
0.749999999999999
40
0.874999999999999
40
1
40
1
40
1
40
1
41
1
10
38.0450595225469
20
2.28596130335421
30
0
41
1
10
38.0404205241984
20
2.45071519611142
30
0
41
1
10
38.0357249998822
20
2.6128784674363
30
0
41
1
10
38.0298003021234
20
2.8122642570215
30
0
41
1
10
38.0286130438774
20
2.8519751960701
30
0
41
1
10
38.0262346637251
20
2.93106134684891
30
0
41
1
10
38.0250427057801
20
2.9704635260191
30
0
41
1
10
38.0214793157585
20
3.08758724162587
30
0
41
1
10
38.0191151571493
20
3.16440582009221
30
0
41
1
10
38.0120573992732
20
3.39113728374841
30
0
41
1
10
38.0027439247305
20
3.683529212314
30
0
41
1
10
37.9935224684494
20
3.95643784614711
30
0
41
1
10
37.9842271849568
20
4.21955101860604
30
0
41
1
10
37.9795217879552
20
4.3462101573204
30
0
41
1
10
37.9735835759357
20
4.49823419999711
30
0
41
1
10
37.9723921191405
20
4.52835884123562
30
0
41
1
10
37.9700126761232
20
4.58778360957092
30
0
41
1
10
37.9664509540893
20
4.67562931023716
30
0
41
1
10
37.9629140935495
20
4.7596422839778
30
0
41
1
10
37.9558737570938
20
4.92263829757951
30
0
41
1
10
37.9465799939304
20
5.12657261289425
30
0
41
1
10
37.9373679124092
20
5.30408636945711
30
0
41
1
10
37.9327207511746
20
5.38617540863669
30
0
0
SPLINE
5
107
100
AcDbEntity
8
1
62
256
6
ByLayer
370
18
48
1
60
0
100
AcDbSpline
70
4
71
3
72
8
73
4
40
0
40
0
40
0
40
0
40
1
40
1
40
1
40
1
41
1
10
31.5258107970179
20
-2.85853221848055
30
0
41
1
10
31.5215688553077
20
-2.72253323328675
30
0
41
1
10
31.5172914810611
20
-2.58314912857654
30
0
41
1
10
31.512994294683
20
-2.44036871807279
30
0
0
SPLINE
5
108
100
AcDbEntity
8
1
62
256
6
ByLayer
370
18
48
1
60
0
100
AcDbSpline
70
4
71
3
72
23
73
19
40
0
40
0
40
0
40
0
40
0.0625
40
0.0625
40
0.125
40
0.125
40
0.25
40
0.375
40
0.375
40
0.4375
40
0.4375
40
0.46875
40
0.46875
40
0.5
40
0.5
40
0.75
40
0.75
40
1
40
1
40
1
40
1
41
1
10
31.5129942946751
20
-2.44036871782379
30
0
41
1
10
31.5112083399396
20
-2.38102771469931
30
0
41
1
10
31.5094230931013
20
-2.32118843010503
30
0
41
1
10
31.5058563777175
20
-2.20051426438579
30
0
41
1
10
31.5040740728741
20
-2.13964961614403
30
0
41
1
10
31.4987504251894
20
-1.95612707443178
30
0
41
1
10
31.4917059243058
20
-1.70862605224187
30
0
41
1
10
31.4847406641102
20
-1.45557629026035
30
0
41
1
10
31.4795139553232
20
-1.26369789878572
30
0
41
1
10
31.4777710194606
20
-1.19938958505381
30
0
41
1
10
31.4751491643634
20
-1.10239943751773
30
0
41
1
10
31.4742732234959
20
-1.06995435478635
30
0
41
1
10
31.4725218247901
20
-1.00504602292307
30
0
41
1
10
31.4716464174835
20
-0.972584739258679
30
0
41
1
10
31.4637641564369
20
-0.680369806508054
30
0
41
1
10
31.4567451960218
20
-0.420174529694208
30
0
41
1
10
31.4428783543394
20
0.101089979943112
30
0
41
1
10
31.4360345694696
20
0.362159321805677
30
0
41
1
10
31.4291476252949
20
0.623675916637012
30
0
0
SPLINE
5
109
100
AcDbEntity
8
1
62
256
6
ByLayer
370
13
48
1
60
0
100
AcDbSpline
70
4
71
3
72
9
73
5
40
0
40
0
40
0
40
0
40
0.732831334549618
40
1
40
1
40
1
40
1
41
1
10
31.5129942946839
20
-2.44036871809993
30
0
41
1
10
31.5163728945495
20
-2.54481444741782
30
0
41
1
10
31.5209832326558
20
-2.68507989798499
30
0
41
1
10
31.5255935716952
20
-2.82184702686126
30
0
41
1
10
31.5268253098789
20
-2.85812843537766
30
0
0
SPLINE
5
10A
100
AcDbEntity
8
1
62
256
6
ByLayer
370
13
48
1
60
0
100
AcDbSpline
70
4
71
3
72
10
73
6
40
0
40
0
40
0
40
0
40
0.3635330100298
40
0.895319175359402
40
1
40
1
40
1
40
1
41
1
10
31.6785570853479
20
0.389966712849429
30
0
41
1
10
31.6913521267273
20
-0.0504072792588488
30
0
41
1
10
31.7228641086584
20
-1.14432153394193
30
0
41
1
10
31.7580604809384
20
-2.30449333342722
30
0
41
1
10
31.7804618073637
20
-2.96054255885934
30
0
41
1
10
31.7841461921495
20
-3.06598040859154
30
0
0
SPLINE
5
10B
100
AcDbEntity
8
1
62
256
6
ByLayer
370
13
48
1
60
0
100
AcDbSpline
70
4
71
3
72
12
73
8
40
0
40
0
40
0
40
0
40
0.0554743924537237
40
0.349532789936146
40
0.643591187418569
40
0.937649584900992
40
1
40
1
40
1
40
1
41
1
10
42.7559137759602
20
-2.21406097242257
30
0
41
1
10
42.7539484711928
20
-2.15200657320761
30
0
41
1
10
42.7415654882082
20
-1.75782184670521
30
0
41
1
10
42.7187648273867
20
-0.997998370286751
30
0
41
1
10
42.6875117911575
20
0.081859820970891
30
0
41
1
10
42.6644675294732
20
0.875721368092371
30
0
41
1
10
42.6518409475114
20
1.29978879008797
30
0
41
1
10
42.6496320441556
20
1.37357858107188
30
0
0
SPLINE
5
10C
100
AcDbEntity
8
1
62
256
6
ByLayer
370
18
48
1
60
0
100
AcDbSpline
70
4
71
3
72
10
73
6
40
0
40
0
40
0
40
0
40
0.409543051005005
40
0.817661115378222
40
1
40
1
40
1
40
1
41
1
10
43.4000000420218
20
-2.69251924940306
30
0
41
1
10
43.4000000494704
20
-2.28380212419435
30
0
41
1
10
43.3999999975893
20
-1.4061279495466
30
0
41
1
10
43.399999892251
20
-0.257633635588007
30
0
41
1
10
43.3999998716785
20
0.416232442581219
30
0
41
1
10
43.3999998679601
20
0.622534450630553
30
0
0
SPLINE
5
10D
100
AcDbEntity
8
1
62
256
6
ByLayer
370
18
48
1
60
0
100
AcDbSpline
70
4
71
3
72
26
73
22
40
0
40
0
40
0
40
0
40
0.125
40
0.125
40
0.250000000000001
40
0.250000000000001
40
0.312500000000001
40
0.312500000000001
40
0.375000000000001
40
0.375000000000001
40
0.500000000000001
40
0.500000000000001
40
0.625000000000001
40
0.625000000000001
40
0.75
40
0.75
40
0.8125
40
0.8125
40
0.875
40
0.875
40
1
40
1
40
1
40
1
41
1
10
42.6822538732229
20
1.36600784335195
30
0
41
1
10
42.6872835150598
20
1.21374827636575
30
0
41
1
10
42.6923202542374
20
1.06059838608286
30
0
41
1
10
42.7024335095768
20
0.752554641904737
30
0
41
1
10
42.7075040036778
20
0.597660771263662
30
0
41
1
10
42.7151161100387
20
0.36400186120062
30
0
41
1
10
42.7176545497019
20
0.285895487830174
30
0
41
1
10
42.7227314397377
20
0.129236166983702
30
0
41
1
10
42.7252723210946
20
0.0506270437713567
30
0
41
1
10
42.7328750542326
20
-0.185530886334732
30
0
41
1
10
42.7378693580574
20
-0.341846438978251
30
0
41
1
10
42.747811214536
20
-0.652323222527741
30
0
41
1
10
42.7527585953828
20
-0.806484181146971
30
0
41
1
10
42.7626864684884
20
-1.11267500065884
30
0
41
1
10
42.7676709478448
20
-1.26470454914269
30
0
41
1
10
42.7751486784428
20
-1.49112598411142
30
0
41
1
10
42.7776402673633
20
-1.56632857464461
30
0
41
1
10
42.7826349667907
20
-1.71618623669499
30
0
41
1
10
42.7851393254735
20
-1.79087504519231
30
0
41
1
10
42.7926840326051
20
-2.0138960157559
30
0
41
1
10
42.7977258091465
20
-2.16005449394879
30
0
41
1
10
42.8027968590355
20
-2.30370174013862
30
0
0
SPLINE
5
10E
100
AcDbEntity
8
1
62
256
6
ByLayer
370
13
48
1
60
0
100
AcDbSpline
70
4
71
3
72
10
73
6
40
0
40
0
40
0
40
0
40
0.300576015635061
40
0.830208877367418
40
1
40
1
40
1
40
1
41
1
10
38.535476417992
20
4.52991333359307
30
0
41
1
10
38.5460986133526
20
4.32270760427016
30
0
41
1
10
38.575437750634
20
3.66719394219714
30
0
41
1
10
38.6107772190097
20
2.64046267829193
30
0
41
1
10
38.6354944877075
20
1.84104114945441
30
0
41
1
10
38.6414948149051
20
1.64347594617615
30
0
0
SPLINE
5
10F
100
AcDbEntity
8
1
62
256
6
ByLayer
370
18
48
1
60
0
100
AcDbSpline
70
4
71
3
72
25
73
21
40
0
40
0
40
0
40
0
40
0.125
40
0.250000000000001
40
0.250000000000001
40
0.312500000000001
40
0.343750000000001
40
0.343750000000001
40
0.375000000000001
40
0.375000000000001
40
0.500000000000001
40
0.625000000000001
40
0.750000000000001
40
0.750000000000001
40
0.812500000000001
40
0.843750000000001
40
0.843750000000001
40
0.875000000000001
40
0.875000000000001
40
1
40
1
40
1
40
1
41
1
10
31.6935199195545
20
0.382237447729665
30
0
41
1
10
31.6983973161914
20
0.228297810224802
30
0
41
1
10
31.7080769988111
20
-0.0792015791041081
30
0
41
1
10
31.7176447942908
20
-0.385951774502075
30
0
41
1
10
31.7248357878426
20
-0.615730329621442
30
0
41
1
10
31.7284357375713
20
-0.730548474559498
30
0
41
1
10
31.7320592669494
20
-0.845258313214998
30
0
41
1
10
31.7344825162345
20
-0.921707218988502
30
0
41
1
10
31.7356973991027
20
-0.959895158440816
30
0
41
1
10
31.7417671913968
20
-1.14998178831837
30
0
41
1
10
31.7514762744194
20
-1.44987828840678
30
0
41
1
10
31.7658851016818
20
-1.88734342139131
30
0
41
1
10
31.775403533772
20
-2.17079097048611
30
0
41
1
10
31.7825579897434
20
-2.38026148730862
30
0
41
1
10
31.7861397951385
20
-2.4842169715846
30
0
41
1
10
31.7897438498867
20
-2.58698564165488
30
0
41
1
10
31.7921536657685
20
-2.65523176002844
30
0
41
1
10
31.7933627913378
20
-2.68924025505481
30
0
41
1
10
31.7994097112328
20
-2.85799436874373
30
0
41
1
10
31.804274502962
20
-2.98933424511608
30
0
41
1
10
31.8091361121764
20
-3.11705172147944
30
0
0
SPLINE
5
110
100
AcDbEntity
8
1
62
256
6
ByLayer
370
18
48
1
60
0
100
AcDbSpline
70
4
71
3
72
27
73
23
40
0
40
0
40
0
40
0
40
0.125000000000001
40
0.125000000000001
40
0.250000000000003
40
0.250000000000003
40
0.312500000000003
40
0.312500000000003
40
0.343750000000004
40
0.343750000000004
40
0.375000000000004
40
0.500000000000003
40
0.625000000000002
40
0.625000000000002
40
0.750000000000002
40
0.750000000000002
40
0.812500000000001
40
0.812500000000001
40
0.843750000000001
40
0.843750000000001
40
0.875000000000001
40
1
40
1
40
1
40
1
41
1
10
32.4758583442464
20
-3.70452430549335
30
0
41
1
10
32.4717467181639
20
-3.58529107467678
30
0
41
1
10
32.4676667452747
20
-3.46217903770815
30
0
41
1
10
32.4594845622608
20
-3.2082926132405
30
0
41
1
10
32.4553695468155
20
-3.07751740909521
30
0
41
1
10
32.449137971831
20
-2.87555847455587
30
0
41
1
10
32.4470539136855
20
-2.80727172330543
30
0
41
1
10
32.4439213535639
20
-2.70337354527334
30
0
41
1
10
32.4428749755992
20
-2.66845933550891
30
0
41
1
10
32.4407875075412
20
-2.59837844096469
30
0
41
1
10
32.4355802578947
20
-2.42250307836369
30
0
41
1
10
32.4263218422285
20
-2.09994544464399
30
0
41
1
10
32.4182051789028
20
-1.80492572016971
30
0
41
1
10
32.4100713811841
20
-1.50576817543617
30
0
41
1
10
32.4059900860829
20
-1.35412048855307
30
0
41
1
10
32.3997844548299
20
-1.12348978330812
30
0
41
1
10
32.3977053222404
20
-1.04608572653177
30
0
41
1
10
32.3945751910307
20
-0.929175591462126
30
0
41
1
10
32.3935289183453
20
-0.890035218976976
30
0
41
1
10
32.3914381647971
20
-0.811678390981456
30
0
41
1
10
32.3862172971229
20
-0.61567312239589
30
0
41
1
10
32.3810354359066
20
-0.419106356998469
30
0
41
1
10
32.376907495159
20
-0.26149658773852
30
0
0
SPLINE
5
111
100
AcDbEntity
8
1
62
256
6
ByLayer
370
13
48
1
60
0
100
AcDbSpline
70
4
71
3
72
10
73
6
40
0
40
0
40
0
40
0
40
0.264083042153089
40
0.795723151428018
40
1
40
1
40
1
40
1
41
1
10
32.449802212295
20
-0.348145282351936
30
0
41
1
10
32.4590995373621
20
-0.668295912144771
30
0
41
1
10
32.4871138158721
20
-1.6276180341352
30
0
41
1
10
32.5223198076984
20
-2.75665297453762
30
0
41
1
10
32.5482285234532
20
-3.46455483772198
30
0
41
1
10
32.5554203019147
20
-3.64992906572823
30
0
0
SPLINE
5
112
100
AcDbEntity
8
1
62
256
6
ByLayer
370
13
48
1
60
0
100
AcDbSpline
70
4
71
3
72
10
73
6
40
0
40
0
40
0
40
0
40
0.0954802014832969
40
0.626628664509607
40
1
40
1
40
1
40
1
41
1
10
33.4783152408402
20
-1.31923647496271
30
0
41
1
10
33.4816798326477
20
-1.43193544086711
30
0
41
1
10
33.5037613709094
20
-2.16573396373556
30
0
41
1
10
33.5390000071394
20
-3.25961153130248
30
0
41
1
10
33.5708740204807
20
-4.04487334608862
30
0
41
1
10
33.5840311107928
20
-4.32476893307023
30
0
0
SPLINE
5
113
100
AcDbEntity
8
1
62
256
6
ByLayer
370
13
48
1
60
0
100
AcDbSpline
70
4
71
3
72
10
73
6
40
0
40
0
40
0
40
0
40
0.194437822363265
40
0.726054770879415
40
1
40
1
40
1
40
1
41
1
10
32.7071200314932
20
-0.59409840615811
30
0
41
1
10
32.7139657148974
20
-0.828932155596618
30
0
41
1
10
32.7395283396882
20
-1.69966747260406
30
0
41
1
10
32.7747359133471
20
-2.82928997394288
30
0
41
1
10
32.8030978015682
20
-3.59224594589225
30
0
41
1
10
32.8127427478094
20
-3.83070861259077
30
0
0
SPLINE
5
114
100
AcDbEntity
8
1
62
256
6
ByLayer
370
18
48
1
60
0
100
AcDbSpline
70
4
71
3
72
26
73
22
40
0
40
0
40
0
40
0
40
0.125
40
0.125
40
0.25
40
0.25
40
0.3125
40
0.3125
40
0.34375
40
0.34375
40
0.375
40
0.5
40
0.625
40
0.625
40
0.749999999999999
40
0.749999999999999
40
0.812499999999999
40
0.812499999999999
40
0.874999999999999
40
0.874999999999999
40
1
40
1
40
1
40
1
41
1
10
32.8148395543541
20
-0.685702958636341
30
0
41
1
10
32.8197406930215
20
-0.846073565314839
30
0
41
1
10
32.8246046499721
20
-1.00503985648965
30
0
41
1
10
32.8343715168539
20
-1.32019602772465
30
0
41
1
10
32.8392932862446
20
-1.47638588037668
30
0
41
1
10
32.8467273506857
20
-1.70856719678466
30
0
41
1
10
32.8492117298653
20
-1.7856099228033
30
0
41
1
10
32.852944219092
20
-1.90064038976942
30
0
41
1
10
32.8541876193412
20
-1.93883985392935
30
0
41
1
10
32.8566663801172
20
-2.01475976038429
30
0
41
1
10
32.8628485593609
20
-2.20350820124224
30
0
41
1
10
32.8738339011853
20
-2.53390668265999
30
0
41
1
10
32.8834810470576
20
-2.81459260934437
30
0
41
1
10
32.8931711949556
20
-3.08878567177157
30
0
41
1
10
32.8980530626857
20
-3.22263664188611
30
0
41
1
10
32.905461750902
20
-3.41844345838695
30
0
41
1
10
32.9079419611502
20
-3.48288285215389
30
0
41
1
10
32.9129175824482
20
-3.61007087378175
30
0
41
1
10
32.9154005512921
20
-3.67250092668746
30
0
41
1
10
32.9228219887444
20
-3.85609282453279
30
0
41
1
10
32.9277351733334
20
-3.97366960044752
30
0
41
1
10
32.932629181791
20
-4.08645425552879
30
0
0
SPLINE
5
115
100
AcDbEntity
8
1
62
256
6
ByLayer
370
18
48
1
60
0
100
AcDbSpline
70
4
71
3
72
27
73
23
40
0
40
0
40
0
40
0
40
0.125000000000001
40
0.250000000000002
40
0.250000000000002
40
0.281250000000002
40
0.281250000000002
40
0.312500000000001
40
0.312500000000001
40
0.375000000000001
40
0.375000000000001
40
0.500000000000001
40
0.625
40
0.75
40
0.75
40
0.78125
40
0.78125
40
0.8125
40
0.8125
40
0.875
40
0.875
40
1
40
1
40
1
40
1
41
1
10
33.4259989740905
20
-4.47575581993411
30
0
41
1
10
33.4217833007523
20
-4.37209036924156
30
0
41
1
10
33.4134144426322
20
-4.15465895587312
30
0
41
1
10
33.4051242618584
20
-3.91722324719927
30
0
41
1
10
33.399917998916
20
-3.76249616683219
30
0
41
1
10
33.3988753615374
20
-3.73123370841404
30
0
41
1
10
33.3967855107121
20
-3.66807048826834
30
0
41
1
10
33.3957372677135
20
-3.6361380607232
30
0
41
1
10
33.3925905228233
20
-3.53961881716211
30
0
41
1
10
33.3904909228299
20
-3.474400273848
30
0
41
1
10
33.3841871478547
20
-3.27617518479045
30
0
41
1
10
33.3757830579424
20
-3.0050333976325
30
0
41
1
10
33.3632953712385
20
-2.57820573631639
30
0
41
1
10
33.3550180616019
20
-2.28022101129991
30
0
41
1
10
33.3498149257555
20
-2.08968150205959
30
0
41
1
10
33.3487726650202
20
-2.05135826301688
30
0
41
1
10
33.346683170952
20
-1.97427699167551
30
0
41
1
10
33.3456349181481
20
-1.93548105514714
30
0
41
1
10
33.3424897485606
20
-1.8188044854746
30
0
41
1
10
33.3403906594676
20
-1.74060350769179
30
0
41
1
10
33.3340704868392
20
-1.50476257008941
30
0
41
1
10
33.3298366939966
20
-1.34588694016736
30
0
41
1
10
33.3256068413973
20
-1.18536742389304
30
0
0
SPLINE
5
116
100
AcDbEntity
8
1
62
256
6
ByLayer
370
13
48
1
60
0
100
AcDbSpline
70
4
71
3
72
11
73
7
40
0
40
0
40
0
40
0
40
0.280380125248272
40
0.574533348428655
40
0.868686571609038
40
1
40
1
40
1
40
1
41
1
10
42.4985915963141
20
-1.98591145645631
30
0
41
1
10
42.4886617116364
20
-1.66645545691395
30
0
41
1
10
42.4683141916593
20
-0.987950043673948
30
0
41
1
10
42.4375489697473
20
0.0750110628539176
30
0
41
1
10
42.412062950546
20
0.952933114018322
30
0
41
1
10
42.3969946954987
20
1.45664362000653
30
0
41
1
10
42.3923441227381
20
1.61004996823587
30
0
0
SPLINE
5
117
100
AcDbEntity
8
1
62
256
6
ByLayer
370
13
48
1
60
0
100
AcDbSpline
70
4
71
3
72
10
73
6
40
0
40
0
40
0
40
0
40
0.201462270605679
40
0.730907769383448
40
1
40
1
40
1
40
1
41
1
10
39.30672866455
20
4.072507124629
30
0
41
1
10
39.3138507561435
20
3.90770047207263
30
0
41
1
10
39.339689796442
20
3.26560753101606
30
0
41
1
10
39.3750417525136
20
2.1934789796681
30
0
41
1
10
39.4032716596078
20
1.24794815206769
30
0
41
1
10
39.4127846075127
20
0.924394422326941
30
0
0
SPLINE
5
118
100
AcDbEntity
8
1
62
256
6
ByLayer
370
13
48
1
60
0
100
AcDbSpline
70
4
71
3
72
12
73
8
40
0
40
0
40
0
40
0
40
0.0121207939741208
40
0.306359400406537
40
0.600598006838954
40
0.894836613271371
40
1
40
1
40
1
40
1
41
1
10
41.4699922481245
20
-1.0387467723034
30
0
41
1
10
41.4695631048872
20
-1.024206473568
30
0
41
1
10
41.4587162858548
20
-0.656405287846042
30
0
41
1
10
41.4374518168664
20
0.0783098708864429
30
0
41
1
10
41.4061986833931
20
1.15482944153848
30
0
41
1
10
41.3816399693071
20
1.96602728868567
30
0
41
1
10
41.3674989298827
20
2.40732129560689
30
0
41
1
10
41.363775564079
20
2.52144805278726
30
0
0
SPLINE
5
119
100
AcDbEntity
8
1
62
256
6
ByLayer
370
18
48
1
60
0
100
AcDbSpline
70
4
71
3
72
25
73
21
40
0
40
0
40
0
40
0
40
0.0625000000000002
40
0.0937500000000004
40
0.0937500000000004
40
0.125000000000001
40
0.125000000000001
40
0.250000000000001
40
0.250000000000001
40
0.375000000000001
40
0.500000000000001
40
0.500000000000001
40
0.5625
40
0.5625
40
0.625
40
0.625
40
0.75
40
0.75
40
0.875
40
1
40
1
40
1
40
1
41
1
10
38.8755400602695
20
4.85491404783122
30
0
41
1
10
38.8778722181894
20
4.8014321065414
30
0
41
1
10
38.8813673809596
20
4.71870068667818
30
0
41
1
10
38.8848682023408
20
4.63215200188634
30
0
41
1
10
38.8872050673697
20
4.57359606082395
30
0
41
1
10
38.8883763816378
20
4.54385320428173
30
0
41
1
10
38.8942263410797
20
4.39345869215904
30
0
41
1
10
38.8988780312942
20
4.26807497953473
30
0
41
1
10
38.9082470776176
20
4.00748948043844
30
0
41
1
10
38.917642279156
20
3.73708356824167
30
0
41
1
10
38.926985478135
20
3.4471926228893
30
0
41
1
10
38.9339874128266
20
3.22235593516297
30
0
41
1
10
38.9363210371662
20
3.14617218937897
30
0
41
1
10
38.9409969053065
20
2.99128737007069
30
0
41
1
10
38.9433438977178
20
2.91242143523573
30
0
41
1
10
38.9503535602602
20
2.67421479459352
30
0
41
1
10
38.9550058705453
20
2.51274004432784
30
0
41
1
10
38.9643867003849
20
2.18459732596116
30
0
41
1
10
38.9738033255607
20
1.85125980887085
30
0
41
1
10
38.9831748045362
20
1.50757120921327
30
0
41
1
10
38.9878565344225
20
1.33308904655752
30
0
0
SPLINE
5
11A
100
AcDbEntity
8
1
62
256
6
ByLayer
370
18
48
1
60
0
100
AcDbSpline
70
4
71
3
72
26
73
22
40
0
40
0
40
0
40
0
40
0.125000000000001
40
0.125000000000001
40
0.187500000000001
40
0.187500000000001
40
0.218750000000001
40
0.218750000000001
40
0.250000000000001
40
0.250000000000001
40
0.375000000000001
40
0.375000000000001
40
0.5
40
0.625
40
0.625
40
0.6875
40
0.6875
40
0.75
40
0.75
40
0.875
40
1
40
1
40
1
40
1
41
1
10
39.0735399148561
20
1.24427282737605
30
0
41
1
10
39.0689013236661
20
1.41817498474848
30
0
41
1
10
39.0642853589135
20
1.59046349280104
30
0
41
1
10
39.0573186001108
20
1.84644700672374
30
0
41
1
10
39.0549886631762
20
1.93136603839642
30
0
41
1
10
39.0514675103906
20
2.05812216680306
30
0
41
1
10
39.0502890488874
20
2.10027042455016
30
0
41
1
10
39.0479228521914
20
2.1843574120316
30
0
41
1
10
39.0467339045134
20
2.22634549163061
30
0
41
1
10
39.0407886377507
20
2.43511583658895
30
0
41
1
10
39.0360475688513
20
2.59792163085714
30
0
41
1
10
39.0266399403236
20
2.91537635154961
30
0
41
1
10
39.0173065016866
20
3.22467278441505
30
0
41
1
10
39.0080636197395
20
3.51778334090594
30
0
41
1
10
39.0010890702721
20
3.73145240884062
30
0
41
1
10
38.9987565822477
20
3.80164663279166
30
0
41
1
10
38.9940564060931
20
3.93994296734903
30
0
41
1
10
38.9916815945549
20
4.00817834616726
30
0
41
1
10
38.9845764194534
20
4.20784005126097
30
0
41
1
10
38.9751307910949
20
4.46161495843853
30
0
41
1
10
38.9658196280298
20
4.69118094124391
30
0
41
1
10
38.9611814920403
20
4.79993544395629
30
0
0
SPLINE
5
11B
100
AcDbEntity
8
1
62
256
6
ByLayer
370
13
48
1
60
0
100
AcDbSpline
70
4
71
3
72
12
73
8
40
0
40
0
40
0
40
0
40
0.0813230652003807
40
0.375563021638557
40
0.669802978076734
40
0.96404293451491
40
1
40
1
40
1
40
1
41
1
10
41.7273055252257
20
-1.27984811704641
30
0
41
1
10
41.7244262508474
20
-1.18323424222746
30
0
41
1
10
41.7111292977193
20
-0.734160466218128
30
0
41
1
10
41.6874146659593
20
0.0852177988518008
30
0
41
1
10
41.6561616290542
20
1.16176965883693
30
0
41
1
10
41.6340531997137
20
1.89173136380151
30
0
41
1
10
41.6223624478006
20
2.26003690322878
30
0
41
1
10
41.6210893741343
20
2.29992295246009
30
0
0
SPLINE
5
11C
100
AcDbEntity
8
1
62
256
6
ByLayer
370
18
48
1
60
0
100
AcDbSpline
70
4
71
3
72
12
73
8
40
0
40
0
40
0
40
0
40
0.5
40
0.5
40
0.75
40
0.75
40
1
40
1
40
1
40
1
41
1
10
41.130912339462
20
-0.925094707789356
30
0
41
1
10
41.1278777636411
20
-0.810926774446955
30
0
41
1
10
41.1248379880239
20
-0.696063721878716
30
0
41
1
10
41.120269661636
20
-0.522710616238697
30
0
41
1
10
41.1187453327005
20
-0.464749718912572
30
0
41
1
10
41.1156920640058
20
-0.348470880120317
30
0
41
1
10
41.1141611350807
20
-0.290076935208845
30
0
41
1
10
41.1126313976482
20
-0.231682426355036
30
0
0
SPLINE
5
11D
100
AcDbEntity
8
1
62
256
6
ByLayer
370
13
48
1
60
0
100
AcDbSpline
70
4
71
3
72
10
73
6
40
0
40
0
40
0
40
0
40
0.0332740021389003
40
0.562507587981146
40
1
40
1
40
1
40
1
41
1
10
40.3352795108854
20
3.3500490286583
30
0
41
1
10
40.3364562836673
20
3.31788407717309
30
0
41
1
10
40.3563500008484
20
2.76945300143899
30
0
41
1
10
40.3917160998132
20
1.65757767203678
30
0
41
1
10
40.4259054556744
20
0.476017615489923
30
0
41
1
10
40.4413778708573
20
-0.0577967060595483
30
0
0
SPLINE
5
11E
100
AcDbEntity
8
1
62
256
6
ByLayer
370
18
48
1
60
0
100
AcDbSpline
70
4
71
3
72
28
73
24
40
0
40
0
40
0
40
0
40
0.125
40
0.25
40
0.25
40
0.3125
40
0.3125
40
0.343750000000001
40
0.343750000000001
40
0.375000000000001
40
0.375000000000001
40
0.500000000000001
40
0.500000000000001
40
0.625000000000001
40
0.750000000000001
40
0.750000000000001
40
0.812500000000001
40
0.812500000000001
40
0.843750000000001
40
0.843750000000001
40
0.875000000000001
40
0.875000000000001
40
1
40
1
40
1
40
1
41
1
10
40.9325282888894
20
3.26694458881113
30
0
41
1
10
40.9372411300303
20
3.11670533003465
30
0
41
1
10
40.9466356921372
20
2.80873475683291
30
0
41
1
10
40.9559364319158
20
2.48588962225659
30
0
41
1
10
40.9629196632213
20
2.23808930334275
30
0
41
1
10
40.9652492602498
20
2.15454343506772
30
0
41
1
10
40.9687572048239
20
2.02778210600479
30
0
41
1
10
40.9699295155071
20
1.98526239468259
30
0
41
1
10
40.9722779934193
20
1.89984649261569
30
0
41
1
10
40.973451213201
20
1.85705780902413
30
0
41
1
10
40.9793184387325
20
1.64271508846869
30
0
41
1
10
40.9840323597207
20
1.46996600997031
30
0
41
1
10
40.9934497711027
20
1.12198396753442
30
0
41
1
10
41.0028458164262
20
0.771517383499912
30
0
41
1
10
41.0121673282089
20
0.416097084739874
30
0
41
1
10
41.0191730755456
20
0.147637572630458
30
0
41
1
10
41.021511334176
20
0.0578349090528718
30
0
41
1
10
41.0250340033123
20
-0.0773521720936685
30
0
41
1
10
41.0262092978852
20
-0.12243674974593
30
0
41
1
10
41.0285559291087
20
-0.21233283223043
30
0
41
1
10
41.0297284875693
20
-0.257191222473153
30
0
41
1
10
41.0355935857267
20
-0.481038933739143
30
0
41
1
10
41.040309373561
20
-0.65869777792463
30
0
41
1
10
41.0450206509646
20
-0.834969516421637
30
0
0
SPLINE
5
11F
100
AcDbEntity
8
1
62
256
6
ByLayer
370
13
48
1
60
0
100
AcDbSpline
70
4
71
3
72
9
73
5
40
0
40
0
40
0
40
0
40
0.49320958479883
40
1
40
1
40
1
40
1
41
1
10
40.5925866040356
20
3.15146057600418
30
0
41
1
10
40.6100322603912
20
2.65848098801271
30
0
41
1
10
40.6454039516705
20
1.54304528797763
30
0
41
1
10
40.6807756428239
20
0.312881390720463
30
0
41
1
10
40.6987016761574
20
-0.304645533607726
30
0
0
SPLINE
5
120
100
AcDbEntity
8
1
62
256
6
ByLayer
370
13
48
1
60
0
100
AcDbSpline
70
4
71
3
72
10
73
6
40
0
40
0
40
0
40
0
40
0.132370823156071
40
0.661649876037483
40
1
40
1
40
1
40
1
41
1
10
39.5640147522483
20
3.90372414066189
30
0
41
1
10
39.5686957932115
20
3.79017012390159
30
0
41
1
10
39.5920937758492
20
3.19731124637249
30
0
41
1
10
39.6274568687093
20
2.12568150556407
30
0
41
1
10
39.658138915116
20
1.08981759585205
30
0
41
1
10
39.6701040201222
20
0.680144960023824
30
0
0
SPLINE
5
121
100
AcDbEntity
8
1
62
256
6
ByLayer
370
18
48
1
60
0
100
AcDbSpline
70
4
71
3
72
27
73
23
40
0
40
0
40
0
40
0
40
0.0312499999999998
40
0.0312499999999998
40
0.0624999999999996
40
0.0624999999999996
40
0.125
40
0.125
40
0.249999999999999
40
0.374999999999999
40
0.374999999999999
40
0.499999999999998
40
0.499999999999998
40
0.531249999999998
40
0.531249999999998
40
0.562499999999998
40
0.624999999999998
40
0.624999999999998
40
0.749999999999999
40
0.874999999999999
40
0.874999999999999
40
1
40
1
40
1
40
1
41
1
10
39.9039158702462
20
4.1281545043675
30
0
41
1
10
39.905083489149
20
4.09528743074506
30
0
41
1
10
39.9062538078657
20
4.06203240960619
30
0
41
1
10
39.9086023436294
20
3.99473882274518
30
0
41
1
10
39.9097815113302
20
3.96067207337566
30
0
41
1
10
39.9133178403588
20
3.8577886364549
30
0
41
1
10
39.9156786104225
20
3.78814723617947
30
0
41
1
10
39.9227542363549
20
3.5761217663611
30
0
41
1
10
39.932166147655
20
3.28516319484831
30
0
41
1
10
39.9414687875779
20
2.97798267568135
30
0
41
1
10
39.9507553711087
20
2.66264988859984
30
0
41
1
10
39.9553904456903
20
2.50090788477121
30
0
41
1
10
39.9612441789482
20
2.29348937660572
30
0
41
1
10
39.9624194880616
20
2.25169392750752
30
0
41
1
10
39.9647719186181
20
2.16782509569481
30
0
41
1
10
39.9683007069083
20
2.04170513108477
30
0
41
1
10
39.9718405777838
20
1.91464551719193
30
0
41
1
10
39.9789174337699
20
1.65929277269035
30
0
41
1
10
39.9883410320593
20
1.31553772309545
30
0
41
1
10
39.9976647500455
20
0.965302249928868
30
0
41
1
10
40.0069739134115
20
0.611797266423849
30
0
41
1
10
40.0116209863949
20
0.433410280873062
30
0
41
1
10
40.0163166585131
20
0.253335559072752
30
0
0
SPLINE
5
122
100
AcDbEntity
8
1
62
256
6
ByLayer
370
18
48
1
60
0
100
AcDbSpline
70
4
71
3
72
27
73
23
40
0
40
0
40
0
40
0
40
0.125
40
0.249999999999999
40
0.249999999999999
40
0.374999999999999
40
0.374999999999999
40
0.406249999999999
40
0.406249999999999
40
0.437499999999999
40
0.437499999999999
40
0.499999999999999
40
0.499999999999999
40
0.625
40
0.75
40
0.75
40
0.875
40
0.875
40
0.90625
40
0.90625
40
0.9375
40
1
40
1
40
1
40
1
41
1
10
40.1022029254689
20
0.162319587141013
30
0
41
1
10
40.0974696443985
20
0.341396911967308
30
0
41
1
10
40.0880809456326
20
0.697147299938422
30
0
41
1
10
40.0788248333755
20
1.04818968862989
30
0
41
1
10
40.069553393396
20
1.39687120489435
30
0
41
1
10
40.0649080183056
20
1.57003159855404
30
0
41
1
10
40.0590016369329
20
1.78496645584457
30
0
41
1
10
40.0578160826928
20
1.827877520095
30
0
41
1
10
40.0554378024084
20
1.91354632711796
30
0
41
1
10
40.0542453609563
20
1.9562932436433
30
0
41
1
10
40.0506770333093
20
2.08366006833103
30
0
41
1
10
40.0483043238429
20
2.16762200431188
30
0
41
1
10
40.0412131518218
20
2.41670964200515
30
0
41
1
10
40.0318346414761
20
2.74137577221424
30
0
41
1
10
40.022587347231
20
3.05139247320699
30
0
41
1
10
40.0133224038799
20
3.35403747923945
30
0
41
1
10
40.0086790166239
20
3.50167459654512
30
0
41
1
10
40.002770900348
20
3.68147367979333
30
0
41
1
10
40.0015833701547
20
3.71723786659206
30
0
41
1
10
39.9992108567317
20
3.78798241267592
30
0
41
1
10
39.9956540678239
20
3.89297998476496
30
0
41
1
10
39.9921085481099
20
3.99465522079436
30
0
41
1
10
39.9897524425571
20
4.06098474693746
30
0
0
SPLINE
5
123
100
AcDbEntity
8
1
62
256
6
ByLayer
370
18
48
1
60
0
100
AcDbSpline
70
4
71
3
72
26
73
22
40
0
40
0
40
0
40
0
40
0.125
40
0.125
40
0.25
40
0.25
40
0.3125
40
0.3125
40
0.375
40
0.375
40
0.499999999999999
40
0.499999999999999
40
0.749999999999999
40
0.749999999999999
40
0.781249999999999
40
0.781249999999999
40
0.812499999999999
40
0.812499999999999
40
0.875
40
0.875
40
1
40
1
40
1
40
1
41
1
10
41.8081027066475
20
2.30877038616177
30
0
41
1
10
41.8132584256796
20
2.15429546914251
30
0
41
1
10
41.8183612026881
20
1.99748598502731
30
0
41
1
10
41.8285601085013
20
1.67931933723955
30
0
41
1
10
41.833657466018
20
1.51796276333641
30
0
41
1
10
41.8413787099754
20
1.27250854374918
30
0
41
1
10
41.8439659094377
20
1.19011945016706
30
0
41
1
10
41.8491729489068
20
1.02418499939958
30
0
41
1
10
41.8517781094039
20
0.941075267910662
30
0
41
1
10
41.8595814184404
20
0.691731789546424
30
0
41
1
10
41.8647728643463
20
0.525305948404849
30
0
41
1
10
41.8802836719956
20
0.0254452572735602
30
0
41
1
10
41.8904662820972
20
-0.308576412829012
30
0
41
1
10
41.9019949260053
20
-0.685234999042422
30
0
41
1
10
41.9032776722109
20
-0.727098273253887
30
0
41
1
10
41.9058481995464
20
-0.810849628615472
30
0
41
1
10
41.9071371507788
20
-0.852775640227463
30
0
41
1
10
41.9110036467522
20
-0.978265798981084
30
0
41
1
10
41.9135808640323
20
-1.06151855296301
30
0
41
1
10
41.9213177114673
20
-1.31006175474258
30
0
41
1
10
41.9264737411451
20
-1.47413911434705
30
0
41
1
10
41.9316158632213
20
-1.6365873621117
30
0
0
SPLINE
5
124
100
AcDbEntity
8
1
62
256
6
ByLayer
370
18
48
1
60
0
100
AcDbSpline
70
4
71
3
72
26
73
22
40
0
40
0
40
0
40
0
40
0.125
40
0.125
40
0.250000000000001
40
0.250000000000001
40
0.312500000000001
40
0.312500000000001
40
0.375000000000001
40
0.375000000000001
40
0.5
40
0.5
40
0.625
40
0.625
40
0.75
40
0.75
40
0.8125
40
0.8125
40
0.875
40
0.875
40
1
40
1
40
1
40
1
41
1
10
42.3776100095054
20
-1.99249325521495
30
0
41
1
10
42.3738743717101
20
-1.84089579260646
30
0
41
1
10
42.3701225439756
20
-1.68767412727314
30
0
41
1
10
42.362672397754
20
-1.37799593944794
30
0
41
1
10
42.3589857263237
20
-1.22153428360446
30
0
41
1
10
42.353406477546
20
-0.984421972646487
30
0
41
1
10
42.3515373429219
20
-0.904980721472498
30
0
41
1
10
42.3477831010598
20
-0.745281852635003
30
0
41
1
10
42.3458945590575
20
-0.664872484573351
30
0
41
1
10
42.3402550344035
20
-0.424205862751421
30
0
41
1
10
42.3365209148676
20
-0.264139795338622
30
0
41
1
10
42.3291574728911
20
0.0552474506176281
30
0
41
1
10
42.3255392134737
20
0.214566903265734
30
0
41
1
10
42.318312658536
20
0.532468368527589
30
0
41
1
10
42.3147050868333
20
0.691050858153886
30
0
41
1
10
42.309222011554
20
0.928367242032778
30
0
41
1
10
42.307382372601
20
1.00737965079205
30
0
41
1
10
42.3036658707722
20
1.16521550933112
30
0
41
1
10
42.3017850557064
20
1.24414065342589
30
0
41
1
10
42.2961189968733
20
1.47911712111852
30
0
41
1
10
42.292304664088
20
1.63377693671822
30
0
41
1
10
42.2884832226238
20
1.78643353866249
30
0
0
SPLINE
5
125
100
AcDbEntity
8
1
62
256
6
ByLayer
370
18
48
1
60
0
100
AcDbSpline
70
4
71
3
72
10
73
6
40
0
40
0
40
0
40
0
40
0.5
40
0.5
40
1
40
1
40
1
40
1
41
1
10
35.6412291897053
20
-5.23856106899532
30
0
41
1
10
35.5882413134205
20
-5.31562093023825
30
0
41
1
10
35.5355040508433
20
-5.39128389755157
30
0
41
1
10
35.4304654054638
20
-5.53976858911079
30
0
41
1
10
35.378198754114
20
-5.61254197296157
30
0
41
1
10
35.3261777072185
20
-5.68381652713063
30
0
0
SPLINE
5
126
100
AcDbEntity
8
1
62
256
6
ByLayer
370
18
48
1
60
0
100
AcDbSpline
70
4
71
3
72
8
73
4
40
0
40
0
40
0
40
0
40
1
40
1
40
1
40
1
41
1
10
35.3261777072185
20
-5.68381652713046
30
0
41
1
10
35.2772296435393
20
-5.65969916604035
30
0
41
1
10
35.2282773747827
20
-5.63498070219526
30
0
41
1
10
35.1793118341072
20
-5.60966839849527
30
0
0
SPLINE
5
127
100
AcDbEntity
8
1
62
256
6
ByLayer
370
18
48
1
60
0
100
AcDbSpline
70
4
71
3
72
8
73
4
40
0
40
0
40
0
40
0
40
1
40
1
40
1
40
1
41
1
10
35.1793118341128
20
-5.60966839849033
30
0
41
1
10
35.0769685297972
20
-5.39920451746065
30
0
41
1
10
34.9738321099941
20
-5.18574740178593
30
0
41
1
10
34.8699569940705
20
-4.97010403274874
30
0
0
SPLINE
5
128
100
AcDbEntity
8
1
62
256
6
ByLayer
370
18
48
1
60
0
100
AcDbSpline
70
4
71
3
72
26
73
22
40
0
40
0
40
0
40
0
40
0.125000000000009
40
0.125000000000009
40
0.250000000000018
40
0.250000000000018
40
0.375000000000027
40
0.375000000000027
40
0.500000000000036
40
0.500000000000036
40
0.625000000000044
40
0.625000000000044
40
0.750000000000053
40
0.750000000000053
40
0.81250000000004
40
0.81250000000004
40
0.875000000000027
40
0.875000000000027
40
0.937500000000013
40
0.937500000000013
40
1
40
1
40
1
40
1
41
1
10
34.8699569940705
20
-4.97010403274871
30
0
41
1
10
34.8628771634951
20
-4.95540639795976
30
0
41
1
10
34.8546444701874
20
-4.94201676195576
30
0
41
1
10
34.8364653927492
20
-4.9171715439912
30
0
41
1
10
34.8264262962663
20
-4.90567842914365
30
0
41
1
10
34.8055663234707
20
-4.885215094676
30
0
41
1
10
34.7946690438925
20
-4.87612661521348
30
0
41
1
10
34.7720120108848
20
-4.86009396805281
30
0
41
1
10
34.7601749249163
20
-4.85313378362653
30
0
41
1
10
34.7364438014565
20
-4.84192586438709
30
0
41
1
10
34.7244644688688
20
-4.83759861056251
30
0
41
1
10
34.7002792740172
20
-4.83180656162773
30
0
41
1
10
34.6879702227054
20
-4.83035876270782
30
0
41
1
10
34.6701443126621
20
-4.83099571213234
30
0
41
1
10
34.6642828800931
20
-4.83166906344175
30
0
41
1
10
34.6527505279198
20
-4.83408840390052
30
0
41
1
10
34.6470513629038
20
-4.83585269877207
30
0
41
1
10
34.636219396264
20
-4.84055212379562
30
0
41
1
10
34.6310501029768
20
-4.84348696261506
30
0
41
1
10
34.6212994104105
20
-4.85075041368262
30
0
41
1
10
34.616713141507
20
-4.85510191420136
30
0
41
1
10
34.6126354366694
20
-4.86016621015173
30
0
0
SPLINE
5
129
100
AcDbEntity
8
1
62
256
6
ByLayer
370
18
48
1
60
0
100
AcDbSpline
70
4
71
3
72
10
73
6
40
0
40
0
40
0
40
0
40
0.5
40
0.5
40
1
40
1
40
1
40
1
41
1
10
34.6126354366653
20
-4.86016621016165
30
0
41
1
10
34.572964535851
20
-4.90943539230778
30
0
41
1
10
34.5334337321739
20
-4.9577258316296
30
0
41
1
10
34.454625005606
20
-5.05232741502755
30
0
41
1
10
34.415338224163
20
-5.09865220239425
30
0
41
1
10
34.3762017184379
20
-5.1439536592882
30
0
0
SPLINE
5
12A
100
AcDbEntity
8
1
62
256
6
ByLayer
370
18
48
1
60
0
100
AcDbSpline
70
4
71
3
72
8
73
4
40
0
40
0
40
0
40
0
40
1
40
1
40
1
40
1
41
1
10
34.3762017184379
20
-5.14395365928803
30
0
41
1
10
34.2697563688813
20
-5.07581603367916
30
0
41
1
10
34.1630236712697
20
-5.00505717848728
30
0
41
1
10
34.055860183907
20
-4.93173452423395
30
0
0
SPLINE
5
12B
100
AcDbEntity
8
1
62
256
6
ByLayer
370
18
48
1
60
0
100
AcDbSpline
70
4
71
3
72
8
73
4
40
0
40
0
40
0
40
0
40
1
40
1
40
1
40
1
41
1
10
34.055860183907
20
-4.93173452423358
30
0
41
1
10
33.9847160873366
20
-4.7789913770624
30
0
41
1
10
33.913218161046
20
-4.62582123661258
30
0
41
1
10
33.841347766196
20
-4.47249403144184
30
0
0
SPLINE
5
12C
100
AcDbEntity
8
1
62
256
6
ByLayer
370
18
48
1
60
0
100
AcDbSpline
70
4
71
3
72
26
73
22
40
0
40
0
40
0
40
0
40
0.125
40
0.125
40
0.25
40
0.25
40
0.375000000000001
40
0.375000000000001
40
0.500000000000001
40
0.500000000000001
40
0.625000000000001
40
0.625000000000001
40
0.750000000000001
40
0.750000000000001
40
0.812500000000001
40
0.812500000000001
40
0.875
40
0.875
40
0.9375
40
0.9375
40
1
40
1
40
1
40
1
41
1
10
33.8413477661959
20
-4.47249403144147
30
0
41
1
10
33.834270427878
20
-4.45739534572272
30
0
41
1
10
33.8260404324165
20
-4.44334265660123
30
0
41
1
10
33.8078660767528
20
-4.41678733891843
30
0
41
1
10
33.7978289327444
20
-4.40423345009927
30
0
41
1
10
33.7769712510437
20
-4.38138637437038
30
0
41
1
10
33.7660744336856
20
-4.37096855073338
30
0
41
1
10
33.7434169377072
20
-4.35201665097176
30
0
41
1
10
33.7315788404311
20
-4.34345444857243
30
0
41
1
10
33.7078453072381
20
-4.32887811973069
30
0
41
1
10
33.6958644936374
20
-4.3227745315985
30
0
41
1
10
33.6716759650972
20
-4.31321730887336
30
0
41
1
10
33.6593652156204
20
-4.30976217218577
30
0
41
1
10
33.6415378372516
20
-4.30731725031515
30
0
41
1
10
33.6356760029203
20
-4.30694753136277
30
0
41
1
10
33.6241430760548
20
-4.30724324043069
30
0
41
1
10
33.6184438654603
20
-4.30792095634379
30
0
41
1
10
33.6076123450209
20
-4.31046624574557
30
0
41
1
10
33.6024434310191
20
-4.31232734421923
30
0
41
1
10
33.5926937173519
20
-4.31745088341256
30
0
41
1
10
33.5881081524767
20
-4.32073378610028
30
0
41
1
10
33.584031110797
20
-4.32476893305989
30
0
0
SPLINE
5
12D
100
AcDbEntity
8
1
62
256
6
ByLayer
370
18
48
1
60
0
100
AcDbSpline
70
4
71
3
72
8
73
4
40
0
40
0
40
0
40
0
40
1
40
1
40
1
40
1
41
1
10
33.5840311107928
20
-4.32476893307023
30
0
41
1
10
33.5311119230306
20
-4.37714433573379
30
0
41
1
10
33.4784469213687
20
-4.42747109606998
30
0
41
1
10
33.4259989740903
20
-4.47575581993428
30
0
0
SPLINE
5
12E
100
AcDbEntity
8
1
62
256
6
ByLayer
370
18
48
1
60
0
100
AcDbSpline
70
4
71
3
72
8
73
4
40
0
40
0
40
0
40
0
40
1
40
1
40
1
40
1
41
1
10
33.4259989740904
20
-4.47575581993411
30
0
41
1
10
33.2612604241451
20
-4.3502294827515
30
0
41
1
10
33.0969242945483
20
-4.22033369638518
30
0
41
1
10
32.9326291817787
20
-4.08645425552785
30
0
0
SPLINE
5
12F
100
AcDbEntity
8
1
62
256
6
ByLayer
370
18
48
1
60
0
100
AcDbSpline
70
4
71
3
72
8
73
4
40
0
40
0
40
0
40
0
40
1
40
1
40
1
40
1
41
1
10
32.9326291817854
20
-4.08645425552541
30
0
41
1
10
32.8927766699362
20
-4.00100530036494
30
0
41
1
10
32.852818893644
20
-3.91574252448768
30
0
41
1
10
32.8127427478095
20
-3.83070861259108
30
0
0
SPLINE
5
130
100
AcDbEntity
8
1
62
256
6
ByLayer
370
18
48
1
60
0
100
AcDbSpline
70
4
71
3
72
26
73
22
40
0
40
0
40
0
40
0
40
0.125000000000009
40
0.125000000000009
40
0.250000000000019
40
0.250000000000019
40
0.375000000000028
40
0.375000000000028
40
0.500000000000038
40
0.500000000000038
40
0.625000000000047
40
0.625000000000047
40
0.750000000000057
40
0.750000000000057
40
0.812500000000042
40
0.812500000000042
40
0.875000000000028
40
0.875000000000028
40
0.937500000000014
40
0.937500000000014
40
1
40
1
40
1
40
1
41
1
10
32.8127427478093
20
-3.83070861259074
30
0
41
1
10
32.805663335754
20
-3.81568745503054
30
0
41
1
10
32.7974313974734
20
-3.80141942481026
30
0
41
1
10
32.7792542360315
20
-3.77400213202631
30
0
41
1
10
32.7692164122475
20
-3.76079005167833
30
0
41
1
10
32.7483587945396
20
-3.73629343651245
30
0
41
1
10
32.7374625189091
20
-3.7248815723436
30
0
41
1
10
32.7148068033563
20
-3.70362064621085
30
0
41
1
10
32.7029700511952
20
-3.69373232271906
30
0
41
1
10
32.6792390049043
20
-3.67625627916394
30
0
41
1
10
32.6672593859351
20
-3.66857218095345
30
0
41
1
10
32.6430728420443
20
-3.65555555638576
30
0
41
1
10
32.6307626241499
20
-3.65020281637052
30
0
41
1
10
32.6129348260257
20
-3.64475258526869
30
0
41
1
10
32.6070727321526
20
-3.64335102156303
30
0
41
1
10
32.5955390791484
20
-3.6415125183901
30
0
41
1
10
32.58983927147
20
-3.64108145442685
30
0
41
1
10
32.5790061964541
20
-3.64139080491358
30
0
41
1
10
32.5738364223912
20
-3.64211871709529
30
0
41
1
10
32.5640849397461
20
-3.64493959018739
30
0
41
1
10
32.5594983145326
20
-3.64705007958514
30
0
41
1
10
32.5554203019188
20
-3.64992906571862
30
0
0
SPLINE
5
131
100
AcDbEntity
8
1
62
256
6
ByLayer
370
18
48
1
60
0
100
AcDbSpline
70
4
71
3
72
8
73
4
40
0
40
0
40
0
40
0
40
1
40
1
40
1
40
1
41
1
10
32.5554203019144
20
-3.6499290657282
30
0
41
1
10
32.5288376117051
20
-3.66869585332114
30
0
41
1
10
32.50231815186
20
-3.68689630608563
30
0
41
1
10
32.4758583442463
20
-3.70452430549341
30
0
0
SPLINE
5
132
100
AcDbEntity
8
1
62
256
6
ByLayer
370
18
48
1
60
0
100
AcDbSpline
70
4
71
3
72
8
73
4
40
0
40
0
40
0
40
0
40
1
40
1
40
1
40
1
41
1
10
32.4758583442464
20
-3.70452430549341
30
0
41
1
10
32.2544829024335
20
-3.51501865664019
30
0
41
1
10
32.0324774930808
20
-3.3189774310512
30
0
41
1
10
31.8091361121764
20
-3.11705172147947
30
0
0
SPLINE
5
133
100
AcDbEntity
8
1
62
256
6
ByLayer
370
18
48
1
60
0
100
AcDbSpline
70
4
71
3
72
8
73
4
40
0
40
0
40
0
40
0
40
1
40
1
40
1
40
1
41
1
10
31.8091361121764
20
-3.11705172147944
30
0
41
1
10
31.8008112073652
20
-3.10000667475171
30
0
41
1
10
31.7924813116677
20
-3.08298282963722
30
0
41
1
10
31.7841461921495
20
-3.06598040859146
30
0
0
SPLINE
5
134
100
AcDbEntity
8
1
62
256
6
ByLayer
370
18
48
1
60
0
100
AcDbSpline
70
4
71
3
72
26
73
22
40
0
40
0
40
0
40
0
40
0.125000000000009
40
0.125000000000009
40
0.250000000000018
40
0.250000000000018
40
0.375000000000027
40
0.375000000000027
40
0.500000000000037
40
0.500000000000037
40
0.625000000000046
40
0.625000000000046
40
0.750000000000055
40
0.750000000000055
40
0.812500000000041
40
0.812500000000041
40
0.875000000000027
40
0.875000000000027
40
0.937500000000014
40
0.937500000000014
40
1
40
1
40
1
40
1
41
1
10
31.7841461921495
20
-3.06598040859154
30
0
41
1
10
31.7770638031407
20
-3.05153337400799
30
0
41
1
10
31.7688279545339
20
-3.03752148191265
30
0
41
1
10
31.7506422279708
20
-3.01014842524205
30
0
41
1
10
31.7405994547647
20
-2.99671437883302
30
0
41
1
10
31.719733131806
20
-2.97137838416981
30
0
41
1
10
31.7088330302234
20
-2.95935067932768
30
0
41
1
10
31.6861712412922
20
-2.93648643765962
30
0
41
1
10
31.6743327302879
20
-2.92560126187692
30
0
41
1
10
31.6506006806932
20
-2.90580855906029
30
0
41
1
10
31.6386215071236
20
-2.8968006650035
30
0
41
1
10
31.6144379866767
20
-2.88075953232786
30
0
41
1
10
31.6021317739258
20
-2.8736890340746
30
0
41
1
10
31.5843116188635
20
-2.86541588192276
30
0
41
1
10
31.5784521638454
20
-2.8630291196427
30
0
41
1
10
31.5669239266794
20
-2.85911685204275
30
0
41
1
10
31.561227116023
20
-2.85759066293528
30
0
41
1
10
31.5503998377032
20
-2.85565134135675
30
0
41
1
10
31.545232797433
20
-2.8552201174322
30
0
41
1
10
31.5354863189802
20
-2.85563990910796
30
0
41
1
10
31.5309017953352
20
-2.85650483245041
30
0
41
1
10
31.5268253098829
20
-2.8581284353678
30
0
0
SPLINE
5
135
100
AcDbEntity
8
1
62
256
6
ByLayer
370
18
48
1
60
0
100
AcDbSpline
70
4
71
3
72
8
73
4
40
0
40
0
40
0
40
0
40
1
40
1
40
1
40
1
41
1
10
31.5268253098789
20
-2.85812843537761
30
0
41
1
10
31.5264871286813
20
-2.85826312786844
30
0
41
1
10
31.5261489577302
20
-2.8583977222392
30
0
41
1
10
31.5258107970179
20
-2.85853221848058
30
0
0
SPLINE
5
136
100
AcDbEntity
8
1
62
256
6
ByLayer
370
18
48
1
60
0
100
AcDbSpline
70
4
71
3
72
8
73
4
40
0
40
0
40
0
40
0
40
1
40
1
40
1
40
1
41
1
10
31.5258107970179
20
-2.85853221848058
30
0
41
1
10
31.3517516674807
20
-2.69834169209346
30
0
41
1
10
31.1766637571197
20
-2.53479185236532
30
0
41
1
10
31
20
-2.36829281656921
30
0
0
SPLINE
5
137
100
AcDbEntity
8
1
62
256
6
ByLayer
370
18
48
1
60
0
100
AcDbSpline
70
4
71
3
72
16
73
12
40
0
40
0
40
0
40
0
40
0.125
40
0.125
40
0.250000000000001
40
0.250000000000001
40
0.500000000000001
40
0.500000000000001
40
0.75
40
0.75
40
1
40
1
40
1
40
1
41
1
10
31
20
-2.36829281656921
30
0
41
1
10
30.9823659826862
20
-2.33357479683141
30
0
41
1
10
30.9647278385633
20
-2.2990486748933
30
0
41
1
10
30.9294687824622
20
-2.23030170381477
30
0
41
1
10
30.9118564186206
20
-2.19606029412935
30
0
41
1
10
30.8585326067338
20
-2.09519510304196
30
0
41
1
10
30.8224351842542
20
-2.03013807073552
30
0
41
1
10
30.7489083228733
20
-1.904648818499
30
0
41
1
10
30.7114784651488
20
-1.84421831190394
30
0
41
1
10
30.6349869600797
20
-1.72839685004459
30
0
41
1
10
30.5959272147362
20
-1.67300166124898
30
0
41
1
10
30.5558482582385
20
-1.62046119359087
30
0
0
SPLINE
5
138
100
AcDbEntity
8
1
62
256
6
ByLayer
370
18
48
1
60
0
100
AcDbSpline
70
4
71
3
72
22
73
18
40
0
40
0
40
0
40
0
40
0.125000000000009
40
0.125000000000009
40
0.250000000000018
40
0.250000000000018
40
0.312500000000018
40
0.312500000000018
40
0.375000000000017
40
0.375000000000017
40
0.500000000000016
40
0.500000000000016
40
0.625000000000015
40
0.625000000000015
40
0.750000000000014
40
0.750000000000014
40
1
40
1
40
1
40
1
41
1
10
30.5558482582385
20
-1.62046119359084
30
0
41
1
10
30.5299710886136
20
-1.58653818978604
30
0
41
1
10
30.5014046673914
20
-1.55315218586074
30
0
41
1
10
30.4394181262636
20
-1.48710046639218
30
0
41
1
10
30.4059941079679
20
-1.4544356623733
30
0
41
1
10
30.3524749842794
20
-1.40565090168622
30
0
41
1
10
30.334071175193
20
-1.38942207282005
30
0
41
1
10
30.2961681530771
20
-1.35697134347592
30
0
41
1
10
30.2766164813274
20
-1.34070685968317
30
0
41
1
10
30.2171220944412
20
-1.29232190630339
30
0
41
1
10
30.1761870904593
20
-1.26044193496983
30
0
41
1
10
30.0923208123409
20
-1.19681913158462
30
0
41
1
10
30.0493693277145
20
-1.16511348203696
30
0
41
1
10
29.961761634769
20
-1.10157081674709
30
0
41
1
10
29.9169526026491
20
-1.06962724508259
30
0
41
1
10
29.7826629404148
20
-0.974685293988216
30
0
41
1
10
29.692734724873
20
-0.91209589164535
30
0
41
1
10
29.6032203140756
20
-0.84904016291469
30
0
0
SPLINE
5
139
100
AcDbEntity
8
1
62
256
6
ByLayer
370
18
48
1
60
0
100
AcDbSpline
70
4
71
3
72
58
73
54
40
0
40
0
40
0
40
0
40
0.031249999999999
40
0.031249999999999
40
0.0624999999999979
40
0.0624999999999979
40
0.124999999999996
40
0.124999999999996
40
0.156249999999996
40
0.156249999999996
40
0.187499999999995
40
0.187499999999995
40
0.218749999999995
40
0.218749999999995
40
0.249999999999995
40
0.249999999999995
40
0.312499999999994
40
0.312499999999994
40
0.328124999999994
40
0.328124999999994
40
0.343749999999994
40
0.343749999999994
40
0.374999999999995
40
0.374999999999995
40
0.437499999999996
40
0.437499999999996
40
0.468749999999997
40
0.468749999999997
40
0.499999999999998
40
0.499999999999998
40
0.5625
40
0.5625
40
0.625000000000003
40
0.625000000000003
40
0.656250000000003
40
0.656250000000003
40
0.687500000000004
40
0.687500000000004
40
0.750000000000003
40
0.750000000000003
40
0.781250000000003
40
0.781250000000003
40
0.812500000000003
40
0.812500000000003
40
0.843750000000002
40
0.843750000000002
40
0.875000000000002
40
0.875000000000002
40
0.937500000000002
40
0.937500000000002
40
0.968750000000001
40
0.968750000000001
40
1
40
1
40
1
40
1
41
1
10
29.603220314076
20
-0.849040162915713
30
0
41
1
10
29.5003266485923
20
-0.776559821470727
30
0
41
1
10
29.3977148188756
20
-0.703836677366468
30
0
41
1
10
29.1925865166625
20
-0.558568900041195
30
0
41
1
10
29.0902472914772
20
-0.485770176713658
30
0
41
1
10
28.7838939427327
20
-0.266891028763098
30
0
41
1
10
28.5804312583065
20
-0.120488711600757
30
0
41
1
10
28.2757944215903
20
0.0989911912104162
30
0
41
1
10
28.1743319324452
20
0.172116723228811
30
0
41
1
10
27.9714315132973
20
0.318099623695048
30
0
41
1
10
27.8700037616019
20
0.390971007153809
30
0
41
1
10
27.6667359979375
20
0.535834457373596
30
0
41
1
10
27.5650199654212
20
0.608000806676131
30
0
41
1
10
27.3615384349606
20
0.751962183881005
30
0
41
1
10
27.2597732434806
20
0.823757418111228
30
0
41
1
10
26.9542303936289
20
1.03833876565665
30
0
41
1
10
26.7502201697045
20
1.18033998838769
30
0
41
1
10
26.4939191742671
20
1.35526828750253
30
0
41
1
10
26.4425901208639
20
1.3901192184033
30
0
41
1
10
26.3397633042155
20
1.45950867001534
30
0
41
1
10
26.288268829345
20
1.49404053319441
30
0
41
1
10
26.1340528859488
20
1.59677970010927
30
0
41
1
10
26.0314550739052
20
1.66430423605743
30
0
41
1
10
25.7243950891054
20
1.86414960595741
30
0
41
1
10
25.5205569681457
20
1.99359763670654
30
0
41
1
10
25.2156376532091
20
2.18159479176592
30
0
41
1
10
25.1141246929949
20
2.24321442456036
30
0
41
1
10
24.9112104799732
20
2.36419943391661
30
0
41
1
10
24.8098441917433
20
2.42360309599869
30
0
41
1
10
24.5053010393692
20
2.59775584188776
30
0
41
1
10
24.3020883697315
20
2.70893159205326
30
0
41
1
10
23.8954019313395
20
2.92148182329083
30
0
41
1
10
23.6918840642188
20
3.02279112197547
30
0
41
1
10
23.3854364071708
20
3.16624500497636
30
0
41
1
10
23.283062685085
20
3.2126172817257
30
0
41
1
10
23.0776353336065
20
3.30224547025878
30
0
41
1
10
22.9744674391371
20
3.34556591431158
30
0
41
1
10
22.6662678048682
20
3.47021983512369
30
0
41
1
10
22.4618367194573
20
3.54640079283576
30
0
41
1
10
22.1562810745753
20
3.65013577417565
30
0
41
1
10
22.0546012039042
20
3.68294914293551
30
0
41
1
10
21.8514410138792
20
3.74497267080793
30
0
41
1
10
21.7499924045725
20
3.77419900878635
30
0
41
1
10
21.546973905946
20
3.8288934536927
30
0
41
1
10
21.4453812797563
20
3.85435762204335
30
0
41
1
10
21.2423273265799
20
3.90168349248552
30
0
41
1
10
21.1408206742805
20
3.92351981023643
30
0
41
1
10
20.8362212794164
20
3.98346367782454
30
0
41
1
10
20.6330659531595
20
4.01600721505241
30
0
41
1
10
20.3273763676594
20
4.05326793741889
30
0
41
1
10
20.2253235113755
20
4.06376321750653
30
0
41
1
10
20.020703000395
20
4.08083535271359
30
0
41
1
10
19.9180957339406
20
4.08740988826327
30
0
41
1
10
19.8152611889876
20
4.09201348392534
30
0
0
SPLINE
5
13A
100
AcDbEntity
8
1
62
256
6
ByLayer
370
18
48
1
60
0
100
AcDbSpline
70
4
71
3
72
22
73
18
40
0
40
0
40
0
40
0
40
0.158363788465534
40
0.158363788465534
40
0.252428696733827
40
0.252428696733827
40
0.346493605002122
40
0.346493605002122
40
0.44055851327042
40
0.44055851327042
40
0.534623421538717
40
0.534623421538717
40
0.722753238075313
40
0.722753238075313
40
0.910883054611909
40
0.910883054611909
40
1
40
1
40
1
40
1
41
1
10
19.8153285274928
20
4.09198818650265
30
0
41
1
10
19.712154026318
20
3.92742049083435
30
0
41
1
10
19.6022521984806
20
3.76408268971633
30
0
41
1
10
19.4147483420394
20
3.50597833415685
30
0
41
1
10
19.3417698074986
20
3.40987785259659
30
0
41
1
10
19.1933121203393
20
3.2232779972384
30
0
41
1
10
19.1175200631116
20
3.13230643949729
30
0
41
1
10
18.9626361926789
20
2.95527823288231
30
0
41
1
10
18.8835471425464
20
2.86921746847724
30
0
41
1
10
18.7217472694945
20
2.70249048499278
30
0
41
1
10
18.6383977513836
20
2.6211987566621
30
0
41
1
10
18.386868986965
20
2.39146398892066
30
0
41
1
10
18.2193958969889
20
2.25848617113041
30
0
41
1
10
17.8849133905005
20
2.0365079473448
30
0
41
1
10
17.7255188240217
20
1.95279863508222
30
0
41
1
10
17.5051061832231
20
1.872096966757
30
0
41
1
10
17.4362566161275
20
1.85273970189402
30
0
41
1
10
17.37169589453
20
1.84046675261979
30
0
0
SPLINE
5
13B
100
AcDbEntity
8
1
62
256
6
ByLayer
370
18
48
1
60
0
100
AcDbSpline
70
4
71
3
72
94
73
90
40
0
40
0
40
0
40
0
40
0.0156249999999993
40
0.0156249999999993
40
0.0312499999999986
40
0.0312499999999986
40
0.0624999999999982
40
0.0624999999999982
40
0.0937499999999978
40
0.0937499999999978
40
0.124999999999997
40
0.124999999999997
40
0.140624999999997
40
0.140624999999997
40
0.156249999999997
40
0.156249999999997
40
0.171874999999997
40
0.171874999999997
40
0.187499999999997
40
0.187499999999997
40
0.218749999999995
40
0.218749999999995
40
0.234374999999995
40
0.234374999999995
40
0.249999999999995
40
0.249999999999995
40
0.265624999999995
40
0.265624999999995
40
0.281249999999994
40
0.281249999999994
40
0.312499999999994
40
0.312499999999994
40
0.374999999999994
40
0.374999999999994
40
0.390624999999994
40
0.390624999999994
40
0.406249999999994
40
0.406249999999994
40
0.437499999999994
40
0.437499999999994
40
0.468749999999995
40
0.468749999999995
40
0.484374999999995
40
0.484374999999995
40
0.499999999999995
40
0.499999999999995
40
0.515624999999995
40
0.515624999999995
40
0.531249999999995
40
0.531249999999995
40
0.562499999999995
40
0.562499999999995
40
0.593749999999995
40
0.593749999999995
40
0.624999999999995
40
0.624999999999995
40
0.640624999999995
40
0.640624999999995
40
0.656249999999995
40
0.656249999999995
40
0.687499999999995
40
0.687499999999995
40
0.718749999999995
40
0.718749999999995
40
0.734374999999996
40
0.734374999999996
40
0.749999999999996
40
0.749999999999996
40
0.781249999999995
40
0.781249999999995
40
0.812499999999994
40
0.812499999999994
40
0.843749999999993
40
0.843749999999993
40
0.859374999999993
40
0.859374999999993
40
0.874999999999993
40
0.874999999999993
40
0.906249999999994
40
0.906249999999994
40
0.937499999999996
40
0.937499999999996
40
0.968749999999997
40
0.968749999999997
40
0.976562499999997
40
0.976562499999997
40
0.984374999999998
40
0.984374999999998
40
1
40
1
40
1
40
1
41
1
10
16.5900603497471
20
2.34920316351017
30
0
41
1
10
16.6581545255811
20
2.30938598357457
30
0
41
1
10
16.7261302337822
20
2.26909845601384
30
0
41
1
10
16.8618232474427
20
2.18755728953059
30
0
41
1
10
16.929528418917
20
2.14628790566064
30
0
41
1
10
17.1326414812797
20
2.02150681055957
30
0
41
1
10
17.2681005230447
20
1.93709432076147
30
0
41
1
10
17.538967583253
20
1.76569872239901
30
0
41
1
10
17.6743056094799
20
1.67862582552425
30
0
41
1
10
17.9447098693851
20
1.50162802049991
30
0
41
1
10
18.0797794489127
20
1.41170678380772
30
0
41
1
10
18.2822138250854
20
1.27470268516328
30
0
41
1
10
18.3496846077761
20
1.22870885091646
30
0
41
1
10
18.4846653395097
20
1.13613873441841
30
0
41
1
10
18.5521486514546
20
1.08952509163544
30
0
41
1
10
18.6874525777359
20
0.996126501801911
30
0
41
1
10
18.75525864861
20
0.949323051264855
30
0
41
1
10
18.8910036749794
20
0.855266174306024
30
0
41
1
10
18.9589590423615
20
0.808035266487224
30
0
41
1
10
19.1630705966211
20
0.66572692927835
30
0
41
1
10
19.2994713803558
20
0.570034381408306
30
0
41
1
10
19.5045194342196
20
0.425161882962499
30
0
41
1
10
19.572997531317
20
0.376618690891377
30
0
41
1
10
19.7095493301906
20
0.279565794575745
30
0
41
1
10
19.7776914336522
20
0.231015201701922
30
0
41
1
10
19.9136987074097
20
0.133850893009083
30
0
41
1
10
19.9815379042569
20
0.0851995277633648
30
0
41
1
10
20.1170978143032
20
-0.0119359535620731
30
0
41
1
10
20.1848435671653
20
-0.0603838954622518
30
0
41
1
10
20.3880981440224
20
-0.205203306032189
30
0
41
1
10
20.523504322729
20
-0.30122492896939
30
0
41
1
10
20.9293360087124
20
-0.587889165793769
30
0
41
1
10
21.1993256927771
20
-0.7772088356609
30
0
41
1
10
21.5361696537229
20
-1.01149092926107
30
0
41
1
10
21.6034934105793
20
-1.05824563102937
30
0
41
1
10
21.7383424874281
20
-1.1511484293589
30
0
41
1
10
21.8059241467183
20
-1.19721976461682
30
0
41
1
10
22.0088810229774
20
-1.33465422461685
30
0
41
1
10
22.144461571507
20
-1.42524637605726
30
0
41
1
10
22.4161461899086
20
-1.60439738061982
30
0
41
1
10
22.5522244154462
20
-1.69299068390032
30
0
41
1
10
22.7567706408352
20
-1.82428284688373
30
0
41
1
10
22.8250324779207
20
-1.8677695153084
30
0
41
1
10
22.9617258922948
20
-1.95416938914292
30
0
41
1
10
23.0299359191846
20
-1.99697373180115
30
0
41
1
10
23.1660629959036
20
-2.08162872459516
30
0
41
1
10
23.2340255018609
20
-2.12345153832834
30
0
41
1
10
23.3699643890557
20
-2.20583817607189
30
0
41
1
10
23.4379196330088
20
-2.24642983814817
30
0
41
1
10
23.6416717630845
20
-2.36651849544947
30
0
41
1
10
23.7773341198108
20
-2.44435793731981
30
0
41
1
10
24.0481054269656
20
-2.59589935038934
30
0
41
1
10
24.183244991406
20
-2.66956447509864
30
0
41
1
10
24.4529980319928
20
-2.81269467050066
30
0
41
1
10
24.58762085794
20
-2.88214270561454
30
0
41
1
10
24.7896062281241
20
-2.98267041073888
30
0
41
1
10
24.8570331840062
20
-3.0154843067707
30
0
41
1
10
24.9920947013542
20
-3.07972726197298
30
0
41
1
10
25.0596806849065
20
-3.11120283289804
30
0
41
1
10
25.2625780485377
20
-3.20371811243271
30
0
41
1
10
25.3980429061402
20
-3.2628360189685
30
0
41
1
10
25.6693161292731
20
-3.37595164509682
30
0
41
1
10
25.8051094897028
20
-3.42995889332326
30
0
41
1
10
26.0092054366363
20
-3.50691776035066
30
0
41
1
10
26.0772997843409
20
-3.53189955963001
30
0
41
1
10
26.2136116019188
20
-3.58050135029404
30
0
41
1
10
26.281912998745
20
-3.60413750176886
30
0
41
1
10
26.4866470035876
20
-3.67239842249734
30
0
41
1
10
26.6230319786052
20
-3.71444841701077
30
0
41
1
10
26.895237753205
20
-3.79209951818561
30
0
41
1
10
27.0310544158662
20
-3.82769744062625
30
0
41
1
10
27.302041000664
20
-3.89253608039661
30
0
41
1
10
27.4371845704407
20
-3.92178733926153
30
0
41
1
10
27.639411141715
20
-3.96085065230233
30
0
41
1
10
27.7067489818163
20
-3.97306415152181
30
0
41
1
10
27.8413745901899
20
-3.99583669851776
30
0
41
1
10
27.9087085032325
20
-4.00637911804921
30
0
41
1
10
28.1111207501224
20
-4.03540445615408
30
0
41
1
10
28.2462766684494
20
-4.05139510165438
30
0
41
1
10
28.5167936734938
20
-4.07674477896751
30
0
41
1
10
28.6521790601881
20
-4.08609635058821
30
0
41
1
10
28.9231659241956
20
-4.09806936972447
30
0
41
1
10
29.0588054106943
20
-4.10068739292618
30
0
41
1
10
29.2285291226031
20
-4.09963662287848
30
0
41
1
10
29.2624813546103
20
-4.09921000678725
30
0
41
1
10
29.3303980052592
20
-4.09791945779273
30
0
41
1
10
29.3643688703389
20
-4.09705521478506
30
0
41
1
10
29.4665046695983
20
-4.09381672957002
30
0
41
1
10
29.5347912205711
20
-4.09079345277107
30
0
41
1
10
29.6032203140756
20
-4.08690184878913
30
0
0
SPLINE
5
13C
100
AcDbEntity
8
1
62
256
6
ByLayer
370
18
48
1
60
0
100
AcDbSpline
70
4
71
3
72
25
73
21
40
0
40
0
40
0
40
0
40
0.125000000000008
40
0.250000000000016
40
0.250000000000016
40
0.375000000000023
40
0.375000000000023
40
0.437500000000022
40
0.437500000000022
40
0.500000000000021
40
0.500000000000021
40
0.625000000000018
40
0.625000000000018
40
0.750000000000015
40
0.750000000000015
40
0.875000000000012
40
0.875000000000012
40
0.937500000000006
40
0.937500000000006
40
1
40
1
40
1
40
1
41
1
10
29.6032203140756
20
-4.08690184878913
30
0
41
1
10
29.6512034430961
20
-4.0841730191876
30
0
41
1
10
29.7458287871682
20
-4.08406121846085
30
0
41
1
10
29.8375571916983
20
-4.09373547149173
30
0
41
1
10
29.9277347251255
20
-4.10808887516572
30
0
41
1
10
29.9720482870827
20
-4.11760378530164
30
0
41
1
10
30.0372755079088
20
-4.13541180104167
30
0
41
1
10
30.0588152539886
20
-4.14194468215749
30
0
41
1
10
30.1010680680278
20
-4.1560771958072
30
0
41
1
10
30.1218329806681
20
-4.16368981477933
30
0
41
1
10
30.1830434401785
20
-4.1881681727605
30
0
41
1
10
30.2224085185107
20
-4.20666430922287
30
0
41
1
10
30.2981749095962
20
-4.24824835581111
30
0
41
1
10
30.3345775114755
20
-4.27133189774204
30
0
41
1
10
30.4042016343467
20
-4.32269320876915
30
0
41
1
10
30.4374446736206
20
-4.35097779908895
30
0
41
1
10
30.4845492975657
20
-4.39812856912349
30
0
41
1
10
30.4996712330446
20
-4.41452143063253
30
0
41
1
10
30.528697145109
20
-4.44878434555002
30
0
41
1
10
30.542591443614
20
-4.46662862225662
30
0
41
1
10
30.5558482582385
20
-4.48532942030997
30
0
0
SPLINE
5
13D
100
AcDbEntity
8
1
62
256
6
ByLayer
370
18
48
1
60
0
100
AcDbSpline
70
4
71
3
72
18
73
14
40
0
40
0
40
0
40
0
40
0.250000000000003
40
0.250000000000003
40
0.500000000000006
40
0.500000000000006
40
0.750000000000009
40
0.750000000000009
40
0.875000000000006
40
0.875000000000006
40
0.937500000000003
40
0.937500000000003
40
1
40
1
40
1
40
1
41
1
10
30.5558482582385
20
-4.48532942030994
30
0
41
1
10
30.5915893207134
20
-4.5357477455625
30
0
41
1
10
30.6276656428864
20
-4.58653861289787
30
0
41
1
10
30.7004792994233
20
-4.6891320227117
30
0
41
1
10
30.7372075126986
20
-4.74090757182242
30
0
41
1
10
30.8112725412057
20
-4.84558338259419
30
0
41
1
10
30.8486109202071
20
-4.89848863615126
30
0
41
1
10
30.9050573479184
20
-4.97882208292037
30
0
41
1
10
30.9239459464433
20
-5.00576212025126
30
0
41
1
10
30.9523928293584
20
-5.0464525794001
30
0
41
1
10
30.9618943091915
20
-5.06006344206577
30
0
41
1
10
30.9809363776094
20
-5.08738622528145
30
0
41
1
10
30.9904754882856
20
-5.10109341120619
30
0
41
1
10
31
20
-5.1147340006506
30
0
0
SPLINE
5
13E
100
AcDbEntity
8
1
62
256
6
ByLayer
370
18
48
1
60
0
100
AcDbSpline
70
4
71
3
72
10
73
6
40
0
40
0
40
0
40
0
40
0.5
40
0.5
40
1
40
1
40
1
40
1
41
1
10
31
20
-5.1147340006506
30
0
41
1
10
31.1252229275833
20
-5.09325388075729
30
0
41
1
10
31.2499215712765
20
-5.06817463127672
30
0
41
1
10
31.4980751523471
20
-5.01078315255023
30
0
41
1
10
31.6215761070662
20
-4.9784926462664
30
0
41
1
10
31.7445423699256
20
-4.94262366786555
30
0
0
SPLINE
5
13F
100
AcDbEntity
8
1
62
256
6
ByLayer
370
18
48
1
60
0
100
AcDbSpline
70
4
71
3
72
8
73
4
40
0
40
0
40
0
40
0
40
1
40
1
40
1
40
1
41
1
10
31.7445423699256
20
-4.94262366786552
30
0
41
1
10
31.751056516547
20
-4.92919369500919
30
0
41
1
10
31.7575741320912
20
-4.91575724522011
30
0
41
1
10
31.7640952973238
20
-4.90231434824966
30
0
0
SPLINE
5
140
100
AcDbEntity
8
1
62
256
6
ByLayer
370
18
48
1
60
0
100
AcDbSpline
70
4
71
3
72
28
73
24
40
0
40
0
40
0
40
0
40
0.124999999999984
40
0.124999999999984
40
0.249999999999968
40
0.249999999999968
40
0.374999999999953
40
0.374999999999953
40
0.499999999999937
40
0.499999999999937
40
0.624999999999921
40
0.624999999999921
40
0.687499999999934
40
0.687499999999934
40
0.749999999999947
40
0.749999999999947
40
0.812499999999961
40
0.812499999999961
40
0.874999999999974
40
0.874999999999974
40
0.937499999999987
40
0.937499999999987
40
1
40
1
40
1
40
1
41
1
10
31.7640952973238
20
-4.9023143482496
30
0
41
1
10
31.7712729846862
20
-4.88751807975211
30
0
41
1
10
31.7796270755255
20
-4.87402808586498
30
0
41
1
10
31.7980637576883
20
-4.84895689192686
30
0
41
1
10
31.8082465112041
20
-4.83733289705467
30
0
41
1
10
31.8293518019251
20
-4.81661908536009
30
0
41
1
10
31.8403545095903
20
-4.80740550984768
30
0
41
1
10
31.8631815622328
20
-4.79110047425993
30
0
41
1
10
31.8750646994233
20
-4.78400447869871
30
0
41
1
10
31.8988239370717
20
-4.77248620947813
30
0
41
1
10
31.9107951953949
20
-4.7679807714851
30
0
41
1
10
31.9288833939666
20
-4.76331483256487
30
0
41
1
10
31.9349642927472
20
-4.76210837358221
30
0
41
1
10
31.947024560312
20
-4.76051289432121
30
0
41
1
10
31.9529792585059
20
-4.76012290969868
30
0
41
1
10
31.9647205699503
20
-4.7602314671442
30
0
41
1
10
31.970507386242
20
-4.76072890007728
30
0
41
1
10
31.9818838625564
20
-4.76275065260037
30
0
41
1
10
31.9874949861692
20
-4.76429017068349
30
0
41
1
10
31.9981543150183
20
-4.76849059376335
30
0
41
1
10
32.0032404883454
20
-4.77115169476164
30
0
41
1
10
32.0128359381441
20
-4.77780544358333
30
0
41
1
10
32.017357706946
20
-4.78182396757705
30
0
41
1
10
32.0213901386652
20
-4.78653944416985
30
0
0
SPLINE
5
141
100
AcDbEntity
8
1
62
256
6
ByLayer
370
18
48
1
60
0
100
AcDbSpline
70
4
71
3
72
8
73
4
40
0
40
0
40
0
40
0
40
1
40
1
40
1
40
1
41
1
10
32.0213901386673
20
-4.78653944417465
30
0
41
1
10
32.0367151941083
20
-4.80446037755988
30
0
41
1
10
32.0520180285767
20
-4.82222660306715
30
0
41
1
10
32.0672996410799
20
-4.83983846196318
30
0
0
SPLINE
5
142
100
AcDbEntity
8
1
62
256
6
ByLayer
370
18
48
1
60
0
100
AcDbSpline
70
4
71
3
72
12
73
8
40
0
40
0
40
0
40
0
40
0.500000000000009
40
0.500000000000009
40
0.750000000000004
40
0.750000000000004
40
1
40
1
40
1
40
1
41
1
10
32.06729964108
20
-4.83983846196315
30
0
41
1
10
32.1722061552625
20
-4.80360839124668
30
0
41
1
10
32.2767615629765
20
-4.7647388028233
30
0
41
1
10
32.4330689113722
20
-4.70241296740744
30
0
41
1
10
32.4850771328133
20
-4.68096143863824
30
0
41
1
10
32.5891383112986
20
-4.63686593753275
30
0
41
1
10
32.6411556377674
20
-4.61419705477593
30
0
41
1
10
32.6931618618257
20
-4.59090591953509
30
0
0
SPLINE
5
143
100
AcDbEntity
8
1
62
256
6
ByLayer
370
18
48
1
60
0
100
AcDbSpline
70
4
71
3
72
8
73
4
40
0
40
0
40
0
40
0
40
1
40
1
40
1
40
1
41
1
10
32.693161861824
20
-4.59090591953335
30
0
41
1
10
32.7262371786004
20
-4.52117488755371
30
0
41
1
10
32.7594007820047
20
-4.45146467840712
30
0
41
1
10
32.7926635074542
20
-4.3817803369684
30
0
0
SPLINE
5
144
100
AcDbEntity
8
1
62
256
6
ByLayer
370
18
48
1
60
0
100
AcDbSpline
70
4
71
3
72
28
73
24
40
0
40
0
40
0
40
0
40
0.125000000000015
40
0.125000000000015
40
0.25000000000003
40
0.25000000000003
40
0.375000000000046
40
0.375000000000046
40
0.500000000000061
40
0.500000000000061
40
0.625000000000076
40
0.625000000000076
40
0.687500000000064
40
0.687500000000064
40
0.750000000000051
40
0.750000000000051
40
0.812500000000038
40
0.812500000000038
40
0.875000000000025
40
0.875000000000025
40
0.937500000000013
40
0.937500000000013
40
1
40
1
40
1
40
1
41
1
10
32.7926635074542
20
-4.38178033696835
30
0
41
1
10
32.799844177186
20
-4.36673706451887
30
0
41
1
10
32.8082012950412
20
-4.35271691175436
30
0
41
1
10
32.8266437405789
20
-4.32617397880617
30
0
41
1
10
32.8368296232266
20
-4.31359360032169
30
0
41
1
10
32.857940459321
20
-4.29067820646702
30
0
41
1
10
32.8689455901556
20
-4.28021394749385
30
0
41
1
10
32.8917770422559
20
-4.26112575770838
30
0
41
1
10
32.9036617871635
20
-4.25248793578135
30
0
41
1
10
32.9274230764401
20
-4.23769941649741
30
0
41
1
10
32.9393949732725
20
-4.23145500316636
30
0
41
1
10
32.957483141242
20
-4.22400228752716
30
0
41
1
10
32.9635641056026
20
-4.22183197446799
30
0
41
1
10
32.9756219443455
20
-4.21826448065022
30
0
41
1
10
32.9815752253788
20
-4.21687031447701
30
0
41
1
10
32.9933131970512
20
-4.21492996890368
30
0
41
1
10
32.9990980911096
20
-4.21438273486748
30
0
41
1
10
33.0104700823292
20
-4.21426735215249
30
0
41
1
10
33.0160786116358
20
-4.21470944315072
30
0
41
1
10
33.0267323586427
20
-4.21672201219093
30
0
41
1
10
33.0318155159496
20
-4.2182861110422
30
0
41
1
10
33.0414045899
20
-4.22273759216472
30
0
41
1
10
33.0459234863781
20
-4.22564663930717
30
0
41
1
10
33.0499537290816
20
-4.22928119869221
30
0
0
SPLINE
5
145
100
AcDbEntity
8
1
62
256
6
ByLayer
370
18
48
1
60
0
100
AcDbSpline
70
4
71
3
72
8
73
4
40
0
40
0
40
0
40
0
40
1
40
1
40
1
40
1
41
1
10
33.0499537290835
20
-4.22928119869687
30
0
41
1
10
33.0963467999177
20
-4.27111946587445
30
0
41
1
10
33.1425396976054
20
-4.31135547902562
30
0
41
1
10
33.188560477347
20
-4.35000556709574
30
0
0
SPLINE
5
146
100
AcDbEntity
8
1
62
256
6
ByLayer
370
18
48
1
60
0
100
AcDbSpline
70
4
71
3
72
10
73
6
40
0
40
0
40
0
40
0
40
0.417472422170295
40
0.417472422170295
40
1
40
1
40
1
40
1
41
1
10
37.6499977437878
20
-5.56701408234079
30
0
41
1
10
37.6092066085324
20
-5.63755434282353
30
0
41
1
10
37.5685573800491
20
-5.70773990143121
30
0
41
1
10
37.4714894006664
20
-5.87499067575877
30
0
41
1
10
37.4152472807707
20
-5.97161322493079
30
0
41
1
10
37.3592703186495
20
-6.06739964715962
30
0
0
SPLINE
5
147
100
AcDbEntity
8
1
62
256
6
ByLayer
370
18
48
1
60
0
100
AcDbSpline
70
4
71
3
72
8
73
4
40
0
40
0
40
0
40
0
40
1
40
1
40
1
40
1
41
1
10
37.0588938701003
20
-5.70425498469831
30
0
41
1
10
37.0151216810506
20
-5.62852965792825
30
0
41
1
10
36.9712105112581
20
-5.5517341690757
30
0
41
1
10
36.927157889268
20
-5.47390737865237
30
0
0
SPLINE
5
148
100
AcDbEntity
8
1
62
256
6
ByLayer
370
18
48
1
60
0
100
AcDbSpline
70
4
71
3
72
26
73
22
40
0
40
0
40
0
40
0
40
0.125
40
0.125
40
0.25
40
0.25
40
0.375
40
0.375
40
0.5
40
0.5
40
0.624999999999999
40
0.624999999999999
40
0.749999999999999
40
0.749999999999999
40
0.812499999999999
40
0.812499999999999
40
0.875
40
0.875
40
0.9375
40
0.9375
40
1
40
1
40
1
40
1
41
1
10
36.9271578892676
20
-5.4739073786522
30
0
41
1
10
36.9200839928549
20
-5.46141008272016
30
0
41
1
10
36.9118581158409
20
-5.45060246637664
30
0
41
1
10
36.8936921206009
20
-5.43148307337631
30
0
41
1
10
36.8836594411454
20
-5.423163687189
30
0
41
1
10
36.8628095471661
20
-5.40931710683378
30
0
41
1
10
36.8519161544
20
-5.40369585896022
30
0
41
1
10
36.8292640297348
20
-5.39490386859526
30
0
41
1
10
36.8174274078206
20
-5.39174213230896
30
0
41
1
10
36.7936944999179
20
-5.38819874198364
30
0
41
1
10
36.7817131338333
20
-5.38776435453087
30
0
41
1
10
36.7575215773257
20
-5.38990654549056
30
0
41
1
10
36.7452070815973
20
-5.39253530315088
30
0
41
1
10
36.7273726889592
20
-5.3991630696103
30
0
41
1
10
36.7215084524064
20
-5.40182104290898
30
0
41
1
10
36.709970599432
20
-5.40818200311148
30
0
41
1
10
36.7042687290946
20
-5.41191339511397
30
0
41
1
10
36.6934320398079
20
-5.42039801503373
30
0
41
1
10
36.6882606300293
20
-5.42516321624498
30
0
41
1
10
36.6785062138494
20
-5.43593915517741
30
0
41
1
10
36.6739187954205
20
-5.44197473459181
30
0
41
1
10
36.6698404729815
20
-5.44857618031122
30
0
0
SPLINE
5
149
100
AcDbEntity
8
1
62
256
6
ByLayer
370
18
48
1
60
0
100
AcDbSpline
70
4
71
3
72
8
73
4
40
0
40
0
40
0
40
0
40
1
40
1
40
1
40
1
41
1
10
36.6698404729769
20
-5.44857618031952
30
0
41
1
10
36.5556322844201
20
-5.63344119991183
30
0
41
1
10
36.4425360450273
20
-5.81366383331053
30
0
41
1
10
36.3305601992702
20
-5.98860871783921
30
0
0
SPLINE
5
14A
100
AcDbEntity
8
1
62
256
6
ByLayer
370
18
48
1
60
0
100
AcDbSpline
70
4
71
3
72
8
73
4
40
0
40
0
40
0
40
0
40
1
40
1
40
1
40
1
41
1
10
36.244841114965
20
-5.97325076571889
30
0
41
1
10
36.2734128460998
20
-5.97859360786438
30
0
41
1
10
36.301985322155
20
-5.98371302420668
30
0
41
1
10
36.3305601992702
20
-5.98860871783921
30
0
0
SPLINE
5
14B
100
AcDbEntity
8
1
62
256
6
ByLayer
370
18
48
1
60
0
100
AcDbSpline
70
4
71
3
72
8
73
4
40
0
40
0
40
0
40
0
40
1
40
1
40
1
40
1
41
1
10
36.2448411149663
20
-5.97325076570701
30
0
41
1
10
36.1303636814342
20
-5.75687207965549
30
0
41
1
10
36.0149400295127
20
-5.53458964700806
30
0
41
1
10
35.8985525748178
20
-5.30727541269076
30
0
0
SPLINE
5
14C
100
AcDbEntity
8
1
62
256
6
ByLayer
370
18
48
1
60
0
100
AcDbSpline
70
4
71
3
72
26
73
22
40
0
40
0
40
0
40
0
40
0.12499999999999
40
0.12499999999999
40
0.249999999999981
40
0.249999999999981
40
0.374999999999971
40
0.374999999999971
40
0.499999999999961
40
0.499999999999961
40
0.624999999999951
40
0.624999999999951
40
0.749999999999942
40
0.749999999999942
40
0.812499999999956
40
0.812499999999956
40
0.874999999999971
40
0.874999999999971
40
0.937499999999985
40
0.937499999999985
40
1
40
1
40
1
40
1
41
1
10
35.8985525748178
20
-5.30727541269076
30
0
41
1
10
35.8914760684298
20
-5.29345441595649
30
0
41
1
10
35.8832476588573
20
-5.28115738861061
30
0
41
1
10
35.8650777228473
20
-5.25881488432728
30
0
41
1
10
35.8550437471814
20
-5.24874666631436
30
0
41
1
10
35.8341927021349
20
-5.23131084826164
30
0
41
1
10
35.8232992962499
20
-5.22383537434504
30
0
41
1
10
35.8006481163954
20
-5.21121928339841
30
0
41
1
10
35.7888125613811
20
-5.20607496399765
30
0
41
1
10
35.7650818793501
20
-5.19857786123038
30
0
41
1
10
35.753101707728
20
-5.19615791968849
30
0
41
1
10
35.7289124956841
20
-5.19430376806918
30
0
41
1
10
35.7165990027761
20
-5.19490461775311
30
0
41
1
10
35.6987651602406
20
-5.1985992683052
30
0
41
1
10
35.69290101492
20
-5.20029341482143
30
0
41
1
10
35.6813631734549
20
-5.20475848848679
30
0
41
1
10
35.6756610772432
20
-5.20755323423637
30
0
41
1
10
35.6648235790117
20
-5.21425781808995
30
0
41
1
10
35.6596517044416
20
-5.21817353140406
30
0
41
1
10
35.6498963392133
20
-5.22734695558086
30
0
41
1
10
35.6453082052366
20
-5.2326289880555
30
0
41
1
10
35.6412291897097
20
-5.23856106898603
30
0
0
SPLINE
5
14D
100
AcDbEntity
8
1
62
256
6
ByLayer
370
18
48
1
60
0
100
AcDbSpline
70
4
71
3
72
36
73
32
40
0
40
0
40
0
40
0
40
0.0198747757964005
40
0.0198747757964005
40
0.0743261771410444
40
0.0743261771410444
40
0.128777578485688
40
0.128777578485688
40
0.237680381174979
40
0.237680381174979
40
0.346583183864269
40
0.346583183864269
40
0.401034585208915
40
0.401034585208915
40
0.45548598655356
40
0.45548598655356
40
0.564388789242848
40
0.564388789242848
40
0.618840190587492
40
0.618840190587492
40
0.673291591932136
40
0.673291591932136
40
0.72774299327678
40
0.72774299327678
40
0.782194394621424
40
0.782194394621424
40
0.891097197310712
40
0.891097197310712
40
0.945548598655356
40
0.945548598655356
40
1
40
1
40
1
40
1
41
1
10
25.4286307514273
20
-4.10000048712803
30
0
41
1
10
25.3914931157158
20
-4.10000098218893
30
0
41
1
10
25.3543759682079
20
-4.09974019223756
30
0
41
1
10
25.2156376532086
20
-4.09778953264956
30
0
41
1
10
25.1141246929946
20
-4.09440093443183
30
0
41
1
10
24.9112104799729
20
-4.08372538335331
30
0
41
1
10
24.809844191743
20
-4.07643063575679
30
0
41
1
10
24.5053010393689
20
-4.04882402622701
30
0
41
1
10
24.3020883697311
20
-4.02276005959408
30
0
41
1
10
23.8954019313392
20
-3.95518173514495
30
0
41
1
10
23.6918840642185
20
-3.9136496711206
30
0
41
1
10
23.3854364071705
20
-3.83983206179991
30
0
41
1
10
23.2830626850848
20
-3.81332065630863
30
0
41
1
10
23.0776353336063
20
-3.75658361723347
30
0
41
1
10
22.9744674391369
20
-3.72630912141602
30
0
41
1
10
22.666267804868
20
-3.63036541805584
30
0
41
1
10
22.4618367194571
20
-3.55951308732111
30
0
41
1
10
22.1562810745751
20
-3.44337398124153
30
0
41
1
10
22.054601203904
20
-3.40302309010198
30
0
41
1
10
21.8514410138791
20
-3.31917370291367
30
0
41
1
10
21.7499924045724
20
-3.27564716209878
30
0
41
1
10
21.5469739059458
20
-3.18573717610045
30
0
41
1
10
21.4453812797562
20
-3.13937998402523
30
0
41
1
10
21.2423273265798
20
-3.0436068793494
30
0
41
1
10
21.1408206742803
20
-2.99422924166362
30
0
41
1
10
20.8362212794163
20
-2.84173635252873
30
0
41
1
10
20.6330659531595
20
-2.73424018347905
30
0
41
1
10
20.3273763676594
20
-2.5649675340392
30
0
41
1
10
20.2253235113754
20
-2.50720187931148
30
0
41
1
10
20.020703000395
20
-2.38919424323734
30
0
41
1
10
19.9180957339406
20
-2.32900164199853
30
0
41
1
10
19.8152611889876
20
-2.26752251009205
30
0
0
SPLINE
5
14E
100
AcDbEntity
8
1
62
256
6
ByLayer
370
18
48
1
60
0
100
AcDbSpline
70
4
71
3
72
38
73
34
40
0
40
0
40
0
40
0
40
0.0433444580225892
40
0.0433444580225892
40
0.0866889160451784
40
0.0866889160451784
40
0.173377832090357
40
0.173377832090357
40
0.260066748135535
40
0.260066748135535
40
0.346755664180714
40
0.346755664180714
40
0.390100122203303
40
0.390100122203303
40
0.433444580225892
40
0.433444580225892
40
0.476789038248481
40
0.476789038248481
40
0.52013349627107
40
0.52013349627107
40
0.606822412316246
40
0.606822412316246
40
0.650166870338835
40
0.650166870338835
40
0.693511328361424
40
0.693511328361424
40
0.736855786384013
40
0.736855786384013
40
0.780200244406602
40
0.780200244406602
40
0.86688916045178
40
0.86688916045178
40
1
40
1
40
1
40
1
41
1
10
16.5900603497471
20
-4.08465886167505
30
0
41
1
10
16.658154525581
20
-4.0888576953941
30
0
41
1
10
16.7261302337823
20
-4.09219414555372
30
0
41
1
10
16.8618232474427
20
-4.09714577839549
30
0
41
1
10
16.929528418917
20
-4.09875925550526
30
0
41
1
10
17.1326414812797
20
-4.10100902937037
30
0
41
1
10
17.2681005230447
20
-4.0990691753687
30
0
41
1
10
17.5389675832529
20
-4.0884928080379
30
0
41
1
10
17.6743056094799
20
-4.07984921556826
30
0
41
1
10
17.9447098693851
20
-4.05584789697932
30
0
41
1
10
18.0797794489127
20
-4.04048885130373
30
0
41
1
10
18.2822138250853
20
-4.01234689343002
30
0
41
1
10
18.3496846077761
20
-4.0021204162226
30
0
41
1
10
18.4846653395096
20
-3.97998145144228
30
0
41
1
10
18.5521486514545
20
-3.96805775009165
30
0
41
1
10
18.6874525777358
20
-3.94263111115399
30
0
41
1
10
18.7552586486099
20
-3.92912711220808
30
0
41
1
10
18.8910036749793
20
-3.90047529619426
30
0
41
1
10
18.9589590423614
20
-3.88533305191177
30
0
41
1
10
19.163070596621
20
-3.83744573566852
30
0
41
1
10
19.2994713803557
20
-3.80224424730085
30
0
41
1
10
19.5045194342195
20
-3.74439360229985
30
0
41
1
10
19.5729975313169
20
-3.7242528214851
30
0
41
1
10
19.7095493301905
20
-3.68247392521704
30
0
41
1
10
19.777691433652
20
-3.66082107971383
30
0
41
1
10
19.9136987074096
20
-3.61598682027653
30
0
41
1
10
19.9815379042568
20
-3.59278638442166
30
0
41
1
10
20.1170978143031
20
-3.5449702668482
30
0
41
1
10
20.1848435671652
20
-3.5203734000751
30
0
41
1
10
20.3880981440223
20
-3.44463875370261
30
0
41
1
10
20.5235043227289
20
-3.39147172851327
30
0
41
1
10
20.8664997499826
20
-3.24993101136357
30
0
41
1
10
21.073885048546
20
-3.15794467621251
30
0
41
1
10
21.2809601909484
20
-3.05965024050513
30
0
0
SPLINE
5
14F
100
AcDbEntity
8
1
62
256
6
ByLayer
370
18
48
1
60
0
100
AcDbSpline
70
4
71
3
72
26
73
22
40
0
40
0
40
0
40
0
40
0.0814819254391655
40
0.0814819254391655
40
0.234568271199305
40
0.234568271199305
40
0.387654616959444
40
0.387654616959444
40
0.540740962719583
40
0.540740962719583
40
0.617284135599652
40
0.617284135599652
40
0.693827308479722
40
0.693827308479722
40
0.770370481359791
40
0.770370481359791
40
0.846913654239861
40
0.846913654239861
40
0.92345682711993
40
0.92345682711993
40
1
40
1
40
1
40
1
41
1
10
35.2309155894617
20
5.44716587727081
30
0
41
1
10
35.236246210191
20
5.44305137421429
30
0
41
1
10
35.2417706970393
20
5.43933006110754
30
0
41
1
10
35.2579720571565
20
5.42980105842358
30
0
41
1
10
35.2689918744352
20
5.4249395988036
30
0
41
1
10
35.2918443048546
20
5.41773938856991
30
0
41
1
10
35.3037324674575
20
5.41542132246317
30
0
41
1
10
35.3274916829136
20
5.41354201064431
30
0
41
1
10
35.339458780023
20
5.41393521257555
30
0
41
1
10
35.3575335664645
20
5.41675713326794
30
0
41
1
10
35.3636096644025
20
5.4180829347973
30
0
41
1
10
35.375648449976
20
5.42154141003172
30
0
41
1
10
35.3815919935632
20
5.42366392106533
30
0
41
1
10
35.393310176682
20
5.42876719009098
30
0
41
1
10
35.3990850182892
20
5.43174688751915
30
0
41
1
10
35.4104367564108
20
5.43869885863501
30
0
41
1
10
35.416035117263
20
5.44269616703119
30
0
41
1
10
35.426671176739
20
5.45162941340939
30
0
41
1
10
35.4317464262775
20
5.45658147658349
30
0
41
1
10
35.4413221172823
20
5.46763747961296
30
0
41
1
10
35.4458370001257
20
5.47377629122826
30
0
41
1
10
35.4498657939602
20
5.48044218087114
30
0
0
SPLINE
5
150
100
AcDbEntity
8
1
62
256
6
ByLayer
370
18
48
1
60
0
100
AcDbSpline
70
4
71
3
72
10
73
6
40
0
40
0
40
0
40
0
40
0.5
40
0.5
40
1
40
1
40
1
40
1
41
1
10
35.4498657939619
20
5.48044218087435
30
0
41
1
10
35.5071025652284
20
5.57514397413371
30
0
41
1
10
35.5640100160146
20
5.66868201994092
30
0
41
1
10
35.6773460149758
20
5.85360982155214
30
0
41
1
10
35.7337105892182
20
5.94488861818911
30
0
41
1
10
35.7898086480712
20
6.03495772124396
30
0
0
SPLINE
5
151
100
AcDbEntity
8
1
62
256
6
ByLayer
370
18
48
1
60
0
100
AcDbSpline
70
4
71
3
72
8
73
4
40
0
40
0
40
0
40
0
40
1
40
1
40
1
40
1
41
1
10
35.8755077069046
20
6.02477490816128
30
0
41
1
10
35.846910880642
20
6.02839613282987
30
0
41
1
10
35.8183447115175
20
6.03179016635229
30
0
41
1
10
35.7898086480712
20
6.03495772124404
30
0
0
SPLINE
5
152
100
AcDbEntity
8
1
62
256
6
ByLayer
370
18
48
1
60
0
100
AcDbSpline
70
4
71
3
72
8
73
4
40
0
40
0
40
0
40
0
40
1
40
1
40
1
40
1
41
1
10
35.8755077069046
20
6.02477490816133
30
0
41
1
10
35.9895655657251
20
5.81733757833533
30
0
41
1
10
36.1047844715988
20
5.60367587506053
30
0
41
1
10
36.2211117333908
20
5.38477512712203
30
0
0
SPLINE
5
153
100
AcDbEntity
8
1
62
256
6
ByLayer
370
18
48
1
60
0
100
AcDbSpline
70
4
71
3
72
28
73
24
40
0
40
0
40
0
40
0
40
0.125
40
0.125
40
0.250000000000001
40
0.250000000000001
40
0.375000000000001
40
0.375000000000001
40
0.500000000000002
40
0.500000000000002
40
0.625000000000002
40
0.625000000000002
40
0.687500000000002
40
0.687500000000002
40
0.750000000000001
40
0.750000000000001
40
0.812500000000001
40
0.812500000000001
40
0.875000000000001
40
0.875000000000001
40
0.9375
40
0.9375
40
1
40
1
40
1
40
1
41
1
10
36.2211117333908
20
5.38477512712203
30
0
41
1
10
36.2283093519227
20
5.37123088946231
30
0
41
1
10
36.2366880459269
20
5.35935231287908
30
0
41
1
10
36.2551758557296
20
5.33801803206489
30
0
41
1
10
36.2653868561864
20
5.32854361948023
30
0
41
1
10
36.286539973506
20
5.31242308339998
30
0
41
1
10
36.2975629225969
20
5.30566815120417
30
0
41
1
10
36.3204222801794
20
5.29458116960859
30
0
41
1
10
36.3323137400317
20
5.29026121268754
30
0
41
1
10
36.3560780049124
20
5.28441134696439
30
0
41
1
10
36.3680473249725
20
5.28281926495032
30
0
41
1
10
36.3861250621741
20
5.28265915549855
30
0
41
1
10
36.392202670065
20
5.28298543598373
30
0
41
1
10
36.4042384759495
20
5.28446728009394
30
0
41
1
10
36.4101802304652
20
5.2856159624009
30
0
41
1
10
36.4218941500623
20
5.28880226390876
30
0
41
1
10
36.4276665180184
20
5.29083878939858
30
0
41
1
10
36.4390124611834
20
5.29593897105684
30
0
41
1
10
36.4446064169234
20
5.29902368818915
30
0
41
1
10
36.4552319764657
20
5.30622318851499
30
0
41
1
10
36.46030158295
20
5.31034830746546
30
0
41
1
10
36.4698654589557
20
5.3198440132964
30
0
41
1
10
36.4743739172035
20
5.3252468825973
30
0
41
1
10
36.478396933929
20
5.33125552700508
30
0
0
SPLINE
5
154
100
AcDbEntity
8
1
62
256
6
ByLayer
370
18
48
1
60
0
100
AcDbSpline
70
4
71
3
72
8
73
4
40
0
40
0
40
0
40
0
40
1
40
1
40
1
40
1
41
1
10
36.4783969339306
20
5.33125552700869
30
0
41
1
10
36.5928711001069
20
5.50223034650742
30
0
41
1
10
36.7061699983026
20
5.66700373698322
30
0
41
1
10
36.8182981132414
20
5.82496599035568
30
0
0
SPLINE
5
155
100
AcDbEntity
8
1
62
256
6
ByLayer
370
18
48
1
60
0
100
AcDbSpline
70
4
71
3
72
8
73
4
40
0
40
0
40
0
40
0
40
1
40
1
40
1
40
1
41
1
10
36.9040927500874
20
5.79880387218742
30
0
41
1
10
36.875511632308
20
5.80774156176366
30
0
41
1
10
36.8469139457934
20
5.81646244606648
30
0
41
1
10
36.8182981132414
20
5.82496599035562
30
0
0
SPLINE
5
156
100
AcDbEntity
8
1
62
256
6
ByLayer
370
18
48
1
60
0
100
AcDbSpline
70
4
71
3
72
10
73
6
40
0
40
0
40
0
40
0
40
0.5
40
0.5
40
1
40
1
40
1
40
1
41
1
10
36.9040927500861
20
5.79880387217636
30
0
41
1
10
36.961156938243
20
5.68527137136977
30
0
41
1
10
37.0184728698433
20
5.57074240215982
30
0
41
1
10
37.1336465990628
20
5.33986410779301
30
0
41
1
10
37.1914998218462
20
5.22353246845188
30
0
41
1
10
37.249660712379
20
5.10641496929964
30
0
0
SPLINE
5
157
100
AcDbEntity
8
1
62
256
6
ByLayer
370
18
48
1
60
0
100
AcDbSpline
70
4
71
3
72
28
73
24
40
0
40
0
40
0
40
0
40
0.124999999999971
40
0.124999999999971
40
0.249999999999942
40
0.249999999999942
40
0.374999999999913
40
0.374999999999913
40
0.499999999999884
40
0.499999999999884
40
0.624999999999855
40
0.624999999999855
40
0.687499999999879
40
0.687499999999879
40
0.749999999999903
40
0.749999999999903
40
0.812499999999928
40
0.812499999999928
40
0.874999999999952
40
0.874999999999952
40
0.937499999999976
40
0.937499999999976
40
1
40
1
40
1
40
1
41
1
10
37.249660712379
20
5.10641496929964
30
0
41
1
10
37.2568622811647
20
5.09191330472015
30
0
41
1
10
37.2652443728963
20
5.07885841659555
30
0
41
1
10
37.2837368664619
20
5.05485223581164
30
0
41
1
10
37.2939486299083
20
5.04386619068308
30
0
41
1
10
37.315101548221
20
5.02455397311016
30
0
41
1
10
37.3261239374555
20
5.01610739806529
30
0
41
1
10
37.3489812337022
20
5.00145595200979
30
0
41
1
10
37.3608714385919
20
4.99525362823724
30
0
41
1
10
37.384633516934
20
4.98557926863117
30
0
41
1
10
37.3966016703752
20
4.98203057846013
30
0
41
1
10
37.4146772641842
20
4.97885694787661
30
0
41
1
10
37.4207537420631
20
4.97816016551081
30
0
41
1
10
37.4327905035327
20
4.97759270806591
30
0
41
1
10
37.438732761563
20
4.97771824558521
30
0
41
1
10
37.4504476516705
20
4.97886079668521
30
0
41
1
10
37.4562204869102
20
4.97987671547344
30
0
41
1
10
37.4675672179833
20
4.9829378977104
30
0
41
1
10
37.473162454627
20
4.98500047090704
30
0
41
1
10
37.4837911769442
20
4.99021857410736
30
0
41
1
10
37.4888622398115
20
4.99337757061821
30
0
41
1
10
37.4984286651671
20
5.00099913397503
30
0
41
1
10
37.5029390034702
20
5.00549119544309
30
0
41
1
10
37.506964050415
20
5.010652645313
30
0
0
SPLINE
5
158
100
AcDbEntity
8
1
62
256
6
ByLayer
370
18
48
1
60
0
100
AcDbSpline
70
4
71
3
72
8
73
4
40
0
40
0
40
0
40
0
40
1
40
1
40
1
40
1
41
1
10
37.5069640504165
20
5.01065264531658
30
0
41
1
10
37.621425943842
20
5.15743088991076
30
0
41
1
10
37.7347392127202
20
5.29644708724953
30
0
41
1
10
37.8469173394015
20
5.42732635824589
30
0
0
SPLINE
5
159
100
AcDbEntity
8
1
62
256
6
ByLayer
370
18
48
1
60
0
100
AcDbSpline
70
4
71
3
72
8
73
4
40
0
40
0
40
0
40
0
40
1
40
1
40
1
40
1
41
1
10
37.9327207511745
20
5.38617540863669
30
0
41
1
10
37.9041098656202
20
5.40009918653564
30
0
41
1
10
37.8755087341944
20
5.4138159985248
30
0
41
1
10
37.8469173394015
20
5.42732635824589
30
0
0
SPLINE
5
15A
100
AcDbEntity
8
1
62
256
6
ByLayer
370
18
48
1
60
0
100
AcDbSpline
70
4
71
3
72
8
73
4
40
0
40
0
40
0
40
0
40
1
40
1
40
1
40
1
41
1
10
37.9327207511745
20
5.38617540863674
30
0
41
1
10
38.0468063348607
20
5.14718986348711
30
0
41
1
10
38.1619542836481
20
4.90635452239135
30
0
41
1
10
38.2781585370893
20
4.6648181394128
30
0
0
SPLINE
5
15B
100
AcDbEntity
8
1
62
256
6
ByLayer
370
18
48
1
60
0
100
AcDbSpline
70
4
71
3
72
28
73
24
40
0
40
0
40
0
40
0
40
0.124999999999999
40
0.124999999999999
40
0.249999999999999
40
0.249999999999999
40
0.374999999999998
40
0.374999999999998
40
0.499999999999998
40
0.499999999999998
40
0.624999999999997
40
0.624999999999997
40
0.687499999999998
40
0.687499999999998
40
0.749999999999998
40
0.749999999999998
40
0.812499999999999
40
0.812499999999999
40
0.874999999999999
40
0.874999999999999
40
0.9375
40
0.9375
40
1
40
1
40
1
40
1
41
1
10
38.2781585370892
20
4.66481813941277
30
0
41
1
10
38.2853720079227
20
4.64982457762628
30
0
41
1
10
38.293769726044
20
4.63601296841892
30
0
41
1
10
38.312294746217
20
4.61010966916069
30
0
41
1
10
38.3225236884727
20
4.59796780539952
30
0
41
1
10
38.343704285616
20
4.57609668833479
30
0
41
1
10
38.3547380631636
20
4.56623853101297
30
0
41
1
10
38.3776121605824
20
4.5485129739159
30
0
41
1
10
38.3895053657015
20
4.54064061064216
30
0
41
1
10
38.4132665406776
20
4.52747653347322
30
0
41
1
10
38.4252314128547
20
4.52209592346736
30
0
41
1
10
38.443297826642
20
4.51602312681754
30
0
41
1
10
38.4493710651707
20
4.5143293112514
30
0
41
1
10
38.4613928260169
20
4.51173688439087
30
0
41
1
10
38.4673274750309
20
4.51083673490183
30
0
41
1
10
38.4790270783257
20
4.50989850495858
30
0
41
1
10
38.4847922344808
20
4.50985936386547
30
0
41
1
10
38.4961237549946
20
4.5107760010691
30
0
41
1
10
38.5017109100197
20
4.51174417102038
30
0
41
1
10
38.5123253218659
20
4.5147966076733
30
0
41
1
10
38.5173901317648
20
4.51687772324962
30
0
41
1
10
38.5269461942576
20
4.52235642866867
30
0
41
1
10
38.5314530160723
20
4.52577949275062
30
0
41
1
10
38.5354764179905
20
4.52991333358952
30
0
0
SPLINE
5
15C
100
AcDbEntity
8
1
62
256
6
ByLayer
370
18
48
1
60
0
100
AcDbSpline
70
4
71
3
72
10
73
6
40
0
40
0
40
0
40
0
40
0.5
40
0.5
40
1
40
1
40
1
40
1
41
1
10
38.535476417992
20
4.52991333359307
30
0
41
1
10
38.5927422983927
20
4.58875111313921
30
0
41
1
10
38.6496788169219
20
4.64517387358072
30
0
41
1
10
38.7630420980643
20
4.75345930610948
30
0
41
1
10
38.8194229679284
20
4.80532054862351
30
0
41
1
10
38.8755400602695
20
4.85491404783122
30
0
0
SPLINE
5
15D
100
AcDbEntity
8
1
62
256
6
ByLayer
370
18
48
1
60
0
100
AcDbSpline
70
4
71
3
72
8
73
4
40
0
40
0
40
0
40
0
40
1
40
1
40
1
40
1
41
1
10
38.9611814920493
20
4.79993544395649
30
0
41
1
10
38.9326477736063
20
4.818423015485
30
0
41
1
10
38.9041003268537
20
4.83674934823313
30
0
41
1
10
38.8755400602695
20
4.85491404783119
30
0
0
SPLINE
5
15E
100
AcDbEntity
8
1
62
256
6
ByLayer
370
18
48
1
60
0
100
AcDbSpline
70
4
71
3
72
8
73
4
40
0
40
0
40
0
40
0
40
1
40
1
40
1
40
1
41
1
10
38.9611814920473
20
4.79993544394711
30
0
41
1
10
39.0752178216727
20
4.55661614390874
30
0
41
1
10
39.1904162835023
20
4.31373171206963
30
0
41
1
10
39.3067286645499
20
4.07250712462903
30
0
0
SPLINE
5
15F
100
AcDbEntity
8
1
62
256
6
ByLayer
370
18
48
1
60
0
100
AcDbSpline
70
4
71
3
72
28
73
24
40
0
40
0
40
0
40
0
40
0.124999999999971
40
0.124999999999971
40
0.249999999999942
40
0.249999999999942
40
0.374999999999914
40
0.374999999999914
40
0.499999999999885
40
0.499999999999885
40
0.624999999999856
40
0.624999999999856
40
0.68749999999988
40
0.68749999999988
40
0.749999999999904
40
0.749999999999904
40
0.812499999999928
40
0.812499999999928
40
0.874999999999952
40
0.874999999999952
40
0.937499999999976
40
0.937499999999976
40
1
40
1
40
1
40
1
41
1
10
39.30672866455
20
4.072507124629
30
0
41
1
10
39.3139404570996
20
4.05755031894032
30
0
41
1
10
39.3223369335849
20
4.04346646894703
30
0
41
1
10
39.3408618434408
20
4.01657307613789
30
0
41
1
10
39.3510932524108
20
4.00369784426502
30
0
41
1
10
39.3722807873551
20
3.98002891060588
30
0
41
1
10
39.3833184113711
20
3.96910353950608
30
0
41
1
10
39.406201496169
20
3.94892941925292
30
0
41
1
10
39.4180990526548
20
3.93966776507804
30
0
41
1
10
39.441867167364
20
3.9234981446798
30
0
41
1
10
39.4538352563116
20
3.91649173080833
30
0
41
1
10
39.471906021781
20
3.90777103946917
30
0
41
1
10
39.477981183735
20
3.90515428609794
30
0
41
1
10
39.4899996686706
20
3.900664075706
30
0
41
1
10
39.4959323180585
20
3.89879034856332
30
0
41
1
10
39.5076271033388
20
3.89585023127822
30
0
41
1
10
39.5133894418677
20
3.89478285288632
30
0
41
1
10
39.5247143403871
20
3.89357881193294
30
0
41
1
10
39.5302962949791
20
3.89344969220681
30
0
41
1
10
39.5408983494043
20
3.89429353804971
30
0
41
1
10
39.5459565516625
20
3.89525702701653
30
0
41
1
10
39.5554988632844
20
3.8984673471964
30
0
41
1
10
39.5599981383607
20
3.90073422338233
30
0
41
1
10
39.5640147522468
20
3.90372414065823
30
0
0
SPLINE
5
160
100
AcDbEntity
8
1
62
256
6
ByLayer
370
18
48
1
60
0
100
AcDbSpline
70
4
71
3
72
8
73
4
40
0
40
0
40
0
40
0
40
1
40
1
40
1
40
1
41
1
10
39.5640147522483
20
3.90372414066189
30
0
41
1
10
39.6784989421619
20
3.98894474363465
30
0
41
1
10
39.7917969058706
20
4.06378986842765
30
0
41
1
10
39.9039158702462
20
4.1281545043675
30
0
0
SPLINE
5
161
100
AcDbEntity
8
1
62
256
6
ByLayer
370
18
48
1
60
0
100
AcDbSpline
70
4
71
3
72
8
73
4
40
0
40
0
40
0
40
0
40
1
40
1
40
1
40
1
41
1
10
39.9897524425648
20
4.06098474693741
30
0
41
1
10
39.9611491340391
20
4.08353274900611
30
0
41
1
10
39.9325374117896
20
4.1059229339252
30
0
41
1
10
39.9039158702462
20
4.1281545043675
30
0
0
SPLINE
5
162
100
AcDbEntity
8
1
62
256
6
ByLayer
370
18
48
1
60
0
100
AcDbSpline
70
4
71
3
72
10
73
6
40
0
40
0
40
0
40
0
40
0.5
40
0.5
40
1
40
1
40
1
40
1
41
1
10
39.9897524425639
20
4.06098474692899
30
0
41
1
10
40.0468112301988
20
3.94098964496106
30
0
41
1
10
40.1041225922368
20
3.82164909582821
30
0
41
1
10
40.2192862516574
20
3.58452713805554
30
0
41
1
10
40.2771310905787
20
3.46677699975089
30
0
41
1
10
40.3352795108853
20
3.35004902865833
30
0
0
SPLINE
5
163
100
AcDbEntity
8
1
62
256
6
ByLayer
370
18
48
1
60
0
100
AcDbSpline
70
4
71
3
72
28
73
24
40
0
40
0
40
0
40
0
40
0.124999999999999
40
0.124999999999999
40
0.249999999999998
40
0.249999999999998
40
0.374999999999996
40
0.374999999999996
40
0.499999999999995
40
0.499999999999995
40
0.624999999999994
40
0.624999999999994
40
0.687499999999995
40
0.687499999999995
40
0.749999999999996
40
0.749999999999996
40
0.812499999999997
40
0.812499999999997
40
0.874999999999998
40
0.874999999999998
40
0.937499999999999
40
0.937499999999999
40
1
40
1
40
1
40
1
41
1
10
40.3352795108853
20
3.35004902865828
30
0
41
1
10
40.3424969327918
20
3.33556067263385
30
0
41
1
10
40.3508984888522
20
3.32160848877578
30
0
41
1
10
40.369430698724
20
3.29449059781447
30
0
41
1
10
40.3796636285098
20
3.28124808267091
30
0
41
1
10
40.4008512824189
20
3.25644491986614
30
0
41
1
10
40.4118880768409
20
3.24475280958808
30
0
41
1
10
40.4347676831731
20
3.22267242666467
30
0
41
1
10
40.4466628838679
20
3.2122623306374
30
0
41
1
10
40.4704266591692
20
3.19348800728611
30
0
41
1
10
40.4823923842589
20
3.18501929977873
30
0
41
1
10
40.5004590682873
20
3.17383441176469
30
0
41
1
10
40.5065324176523
20
3.17034589018127
30
0
41
1
10
40.5185513043312
20
3.16403244589065
30
0
41
1
10
40.5244842526356
20
3.1612105599896
30
0
41
1
10
40.5361797547162
20
3.15629391574041
30
0
41
1
10
40.5419425113507
20
3.15419826853662
30
0
41
1
10
40.553268272169
20
3.15084450124678
30
0
41
1
10
40.5588519007643
20
3.14958850219907
30
0
41
1
10
40.5694582923322
20
3.14813461834447
30
0
41
1
10
40.5745186366871
20
3.14792084099409
30
0
41
1
10
40.5840649942598
20
3.14870929815101
30
0
41
1
10
40.5885670674598
20
3.14972561967198
30
0
41
1
10
40.5925866040342
20
3.15146057600097
30
0
0
SPLINE
5
164
100
AcDbEntity
8
1
62
256
6
ByLayer
370
18
48
1
60
0
100
AcDbSpline
70
4
71
3
72
8
73
4
40
0
40
0
40
0
40
0
40
1
40
1
40
1
40
1
41
1
10
40.5925866040356
20
3.15146057600418
30
0
41
1
10
40.7070457813421
20
3.20086469770581
30
0
41
1
10
40.8203538332977
20
3.23930528977226
30
0
41
1
10
40.9325282888892
20
3.26694458881053
30
0
0
SPLINE
5
165
100
AcDbEntity
8
1
62
256
6
ByLayer
370
18
48
1
60
0
100
AcDbSpline
70
4
71
3
72
8
73
4
40
0
40
0
40
0
40
0
40
1
40
1
40
1
40
1
41
1
10
40.9395506280114
20
3.26069133232011
30
0
41
1
10
40.9372097195869
20
3.26277666811075
30
0
41
1
10
40.934868939873
20
3.26486108683372
30
0
41
1
10
40.9325282888888
20
3.26694458881113
30
0
0
SPLINE
5
166
100
AcDbEntity
8
1
62
256
6
ByLayer
370
18
48
1
60
0
100
AcDbSpline
70
4
71
3
72
8
73
4
40
0
40
0
40
0
40
0
40
1
40
1
40
1
40
1
41
1
10
41.0355537931322
20
3.15592076500064
30
0
41
1
10
41.1439913502051
20
2.93973276063989
30
0
41
1
10
41.2534081491648
20
2.72789762313303
30
0
41
1
10
41.363775564079
20
2.52144805278729
30
0
0
SPLINE
5
167
100
AcDbEntity
8
1
62
256
6
ByLayer
370
18
48
1
60
0
100
AcDbSpline
70
4
71
3
72
27
73
23
40
0
40
0
40
0
40
0
40
0.125
40
0.125
40
0.25
40
0.25
40
0.375
40
0.375
40
0.5
40
0.5
40
0.625
40
0.625
40
0.6875
40
0.6875
40
0.75
40
0.8125
40
0.8125
40
0.875
40
0.875
40
0.9375
40
0.9375
40
1
40
1
40
1
40
1
41
1
10
41.363775564079
20
2.52144805278726
30
0
41
1
10
41.3710032099527
20
2.50792826176558
30
0
41
1
10
41.3794188075321
20
2.49458896555765
30
0
41
1
10
41.3979811335998
20
2.46817990166545
30
0
41
1
10
41.4082309879593
20
2.45502322392485
30
0
41
1
10
41.4294472840268
20
2.42993714287067
30
0
41
1
10
41.4404962176403
20
2.41788089329938
30
0
41
1
10
41.4633949337347
20
2.39465645495903
30
0
41
1
10
41.4752947983013
20
2.38346099706419
30
0
41
1
10
41.4990604453095
20
2.36273926549427
30
0
41
1
10
41.5110240574739
20
2.35310526232635
30
0
41
1
10
41.5290828503335
20
2.33984871953439
30
0
41
1
10
41.5351531372688
20
2.33561073620709
30
0
41
1
10
41.5471572573634
20
2.32770145277485
30
0
41
1
10
41.5590078289621
20
2.32036396649502
30
0
41
1
10
41.570516931277
20
2.31426571369326
30
0
41
1
10
41.5818262466473
20
2.30888022924432
30
0
41
1
10
41.5874008694249
20
2.30654121613665
30
0
41
1
10
41.5979905893445
20
2.30283772126629
30
0
41
1
10
41.6030432951929
20
2.30145156465235
30
0
41
1
10
41.612576240901
20
2.29978341231731
30
0
41
1
10
41.6170730458861
20
2.29950888327892
30
0
41
1
10
41.621089374133
20
2.29992295245719
30
0
0
SPLINE
5
168
100
AcDbEntity
8
1
62
256
6
ByLayer
370
18
48
1
60
0
100
AcDbSpline
70
4
71
3
72
8
73
4
40
0
40
0
40
0
40
0
40
1
40
1
40
1
40
1
41
1
10
41.6210893741343
20
2.29992295246009
30
0
41
1
10
41.6837930425858
20
2.30638747798835
30
0
41
1
10
41.7461088287568
20
2.30925529223083
30
0
41
1
10
41.8081027066474
20
2.3087703861618
30
0
0
SPLINE
5
169
100
AcDbEntity
8
1
62
256
6
ByLayer
370
18
48
1
60
0
100
AcDbSpline
70
4
71
3
72
12
73
8
40
0
40
0
40
0
40
0
40
0.49999999999998
40
0.49999999999998
40
0.74999999999999
40
0.74999999999999
40
1
40
1
40
1
40
1
41
1
10
41.8081027066475
20
2.30877038616177
30
0
41
1
10
41.8874298224399
20
2.22171830238074
30
0
41
1
10
41.967169715625
20
2.13460700475625
30
0
41
1
10
42.0873992246584
20
2.00386491257777
30
0
41
1
10
42.1275786437999
20
1.96027110987444
30
0
41
1
10
42.2079711321993
20
1.87325740659998
30
0
41
1
10
42.248206491493
20
1.82981323312956
30
0
41
1
10
42.2884832226238
20
1.78643353866244
30
0
0
SPLINE
5
16A
100
AcDbEntity
8
1
62
256
6
ByLayer
370
18
48
1
60
0
100
AcDbSpline
70
4
71
3
72
8
73
4
40
0
40
0
40
0
40
0
40
1
40
1
40
1
40
1
41
1
10
42.2884832226241
20
1.78643353866218
30
0
41
1
10
42.3230068502979
20
1.72693866507751
30
0
41
1
10
42.3576246603376
20
1.66813900314838
30
0
41
1
10
42.3923441227381
20
1.6100499682359
30
0
0
SPLINE
5
16B
100
AcDbEntity
8
1
62
256
6
ByLayer
370
18
48
1
60
0
100
AcDbSpline
70
4
71
3
72
30
73
26
40
0
40
0
40
0
40
0
40
0.124999999999971
40
0.124999999999971
40
0.249999999999941
40
0.249999999999941
40
0.374999999999912
40
0.374999999999912
40
0.437499999999897
40
0.437499999999897
40
0.499999999999883
40
0.499999999999883
40
0.624999999999853
40
0.624999999999853
40
0.687499999999878
40
0.687499999999878
40
0.749999999999902
40
0.749999999999902
40
0.812499999999927
40
0.812499999999927
40
0.874999999999951
40
0.874999999999951
40
0.937499999999976
40
0.937499999999976
40
1
40
1
40
1
40
1
41
1
10
42.3923441227381
20
1.61004996823587
30
0
41
1
10
42.3995695988624
20
1.59796104445002
30
0
41
1
10
42.4079829879431
20
1.5856890928014
30
0
41
1
10
42.4265423117045
20
1.56088983788607
30
0
41
1
10
42.4367923979647
20
1.54826768897439
30
0
41
1
10
42.4580110460734
20
1.52375397003959
30
0
41
1
10
42.4690615181983
20
1.51174556981653
30
0
41
1
10
42.4862389212069
20
1.49406751256009
30
0
41
1
10
42.4920878575432
20
1.48821026749181
30
0
41
1
10
42.5038876617228
20
1.47670932640054
30
0
41
1
10
42.5098098452954
20
1.47109227502852
30
0
41
1
10
42.5276376636484
20
1.45463211151997
30
0
41
1
10
42.539603773503
20
1.44417373682018
30
0
41
1
10
42.5576664828818
20
1.42932508402822
30
0
41
1
10
42.5637383645494
20
1.42449278009272
30
0
41
1
10
42.5757415059454
20
1.41528140800344
30
0
41
1
10
42.5816660713848
20
1.41090515996027
30
0
41
1
10
42.593343780027
20
1.40264900582861
30
0
41
1
10
42.5990971332039
20
1.3987685046707
30
0
41
1
10
42.6104031055755
20
1.39157763472898
30
0
41
1
10
42.6159746996407
20
1.38825980115635
30
0
41
1
10
42.6265567345159
20
1.38248599394444
30
0
41
1
10
42.6316051823741
20
1.38000318422294
30
0
41
1
10
42.6411289712224
20
1.37599486444813
30
0
41
1
10
42.6456205474135
20
1.37447008636548
30
0
41
1
10
42.6496320441543
20
1.37357858106927
30
0
0
SPLINE
5
16C
100
AcDbEntity
8
1
62
256
6
ByLayer
370
18
48
1
60
0
100
AcDbSpline
70
4
71
3
72
8
73
4
40
0
40
0
40
0
40
0
40
1
40
1
40
1
40
1
41
1
10
42.6496320441556
20
1.37357858107188
30
0
41
1
10
42.6605172817724
20
1.37115947229245
30
0
41
1
10
42.6713911001952
20
1.36863577749966
30
0
41
1
10
42.6822538732229
20
1.36600784335192
30
0
0
SPLINE
5
16D
100
AcDbEntity
8
1
62
256
6
ByLayer
370
18
48
1
60
0
100
AcDbSpline
70
4
71
3
72
10
73
6
40
0
40
0
40
0
40
0
40
0.5
40
0.5
40
1
40
1
40
1
40
1
41
1
10
42.6822538732229
20
1.36600784335192
30
0
41
1
10
42.8007775136282
20
1.24063259958578
30
0
41
1
10
42.9197495860601
20
1.11589216486246
30
0
41
1
10
43.1587150923373
20
0.867794048305825
30
0
41
1
10
43.2785937619752
20
0.744325618342032
30
0
41
1
10
43.3999998679601
20
0.622534450630553
30
0
0
SPLINE
5
16E
100
AcDbEntity
8
1
62
256
6
ByLayer
370
18
48
1
60
0
100
AcDbSpline
70
4
71
3
72
14
73
10
40
0
40
0
40
0
40
0
40
0.25
40
0.25
40
0.5
40
0.5
40
0.75
40
0.75
40
1
40
1
40
1
40
1
41
1
10
43.3999998679601
20
0.622534450630553
30
0
41
1
10
43.4473342573349
20
0.566634770815114
30
0
41
1
10
43.4952573775743
20
0.512530904369498
30
0
41
1
10
43.592445849709
20
0.408035161175462
30
0
41
1
10
43.6417564618934
20
0.357601594074254
30
0
41
1
10
43.741730853551
20
0.260957895424326
30
0
41
1
10
43.7924005446452
20
0.214734052519845
30
0
41
1
10
43.8951638157909
20
0.126914205283612
30
0
41
1
10
43.9471917489352
20
0.0853696804726098
30
0
41
1
10
44
20
0.046362877704496
30
0
0
SPLINE
5
16F
100
AcDbEntity
8
1
62
256
6
ByLayer
370
18
48
1
60
0
100
AcDbSpline
70
4
71
3
72
58
73
54
40
0
40
0
40
0
40
0
40
0.0078125
40
0.0078125
40
0.015625
40
0.015625
40
0.03125
40
0.03125
40
0.046875
40
0.046875
40
0.0625
40
0.0625
40
0.125
40
0.125
40
0.1875
40
0.1875
40
0.25
40
0.25
40
0.28125
40
0.28125
40
0.3125
40
0.3125
40
0.375
40
0.375
40
0.4375
40
0.46875
40
0.46875
40
0.484375
40
0.484375
40
0.5
40
0.5
40
0.5625
40
0.5625
40
0.625
40
0.625
40
0.6875
40
0.6875
40
0.71875
40
0.71875
40
0.734375
40
0.734375
40
0.75
40
0.8125
40
0.8125
40
0.875
40
0.875
40
0.9375
40
0.9375
40
0.953125
40
0.953125
40
0.96875
40
0.96875
40
1
40
1
40
1
40
1
41
1
10
44
20
0.0463628777044676
30
0
41
1
10
44
20
0.0479024388952212
30
0
41
1
10
44
20
0.0496455041016759
30
0
41
1
10
44
20
0.05354210855009
30
0
41
1
10
44
20
0.0557039517061071
30
0
41
1
10
44
20
0.062520179948109
30
0
41
1
10
44
20
0.0674335353363631
30
0
41
1
10
44
20
0.0781768616065222
30
0
41
1
10
44
20
0.0839747954832717
30
0
41
1
10
44
20
0.0963640592107708
30
0
41
1
10
44
20
0.102962711675502
30
0
41
1
10
44
20
0.13796684189245
30
0
41
1
10
44
20
0.172387172129533
30
0
41
1
10
44
20
0.253770730734914
30
0
41
1
10
44.0000000000001
20
0.30072830447412
30
0
41
1
10
44.0000000000001
20
0.40722594270369
30
0
41
1
10
44
20
0.46675607815348
30
0
41
1
10
44
20
0.565747726989173
30
0
41
1
10
44
20
0.600442313162773
30
0
41
1
10
44
20
0.672422130538791
30
0
41
1
10
44
20
0.709763233580475
30
0
41
1
10
44
20
0.825762945177786
30
0
41
1
10
44
20
0.908390298673226
30
0
41
1
10
44
20
1.08407980444431
30
0
41
1
10
44.0000000000001
20
1.22366770444134
30
0
41
1
10
44
20
1.37510094832427
30
0
41
1
10
44
20
1.45282448534394
30
0
41
1
10
44
20
1.47906719068121
30
0
41
1
10
44
20
1.53222713596159
30
0
41
1
10
44
20
1.55917267199928
30
0
41
1
10
44
20
1.69526789046515
30
0
41
1
10
44
20
1.8078765383442
30
0
41
1
10
44
20
2.04031010193148
30
0
41
1
10
44
20
2.16013775775204
30
0
41
1
10
44
20
2.40694853919777
30
0
41
1
10
44
20
2.53393494128744
30
0
41
1
10
44
20
2.72986774559831
30
0
41
1
10
44
20
2.79608936426121
30
0
41
1
10
44
20
2.89681374289859
30
0
41
1
10
44
20
2.93066294717141
30
0
41
1
10
44
20
2.99853218714162
30
0
41
1
10
44
20
3.16870942922242
30
0
41
1
10
44
20
3.34137815580436
30
0
41
1
10
44
20
3.62075050165393
30
0
41
1
10
44
20
3.76199029733848
30
0
41
1
10
44
20
4.04757497752902
30
0
41
1
10
44.0000000000001
20
4.19192246292104
30
0
41
1
10
44
20
4.374307543459
30
0
41
1
10
44
20
4.41088201715283
30
0
41
1
10
44
20
4.48449225000405
30
0
41
1
10
44
20
4.5215679194875
30
0
41
1
10
44
20
4.63218965314027
30
0
41
1
10
44
20
4.70552479552873
30
0
41
1
10
44
20
4.77846541055808
30
0
0
SPLINE
5
170
100
AcDbEntity
8
1
62
256
6
ByLayer
370
18
48
1
60
0
100
AcDbSpline
70
4
71
3
72
14
73
10
40
0
40
0
40
0
40
0
40
0.5
40
0.5
40
0.75
40
0.75
40
0.875
40
0.875
40
1
40
1
40
1
40
1
41
1
10
44
20
4.77846541055865
30
0
41
1
10
43.9022559353515
20
4.88184749410215
30
0
41
1
10
43.8033706548266
20
4.98426817272565
30
0
41
1
10
43.6533561470215
20
5.13698838439092
30
0
41
1
10
43.6030699624413
20
5.1877437304307
30
0
41
1
10
43.5272207759746
20
5.26372281601667
30
0
41
1
10
43.5018678330316
20
5.28902339607305
30
0
41
1
10
43.4510191656241
20
5.33958871205837
30
0
41
1
10
43.4255032908492
20
5.36487506450152
30
0
41
1
10
43.4000000420218
20
5.39006073872883
30
0
0
SPLINE
5
171
100
AcDbEntity
8
1
62
256
6
ByLayer
370
18
48
1
60
0
100
AcDbSpline
70
4
71
3
72
8
73
4
40
0
40
0
40
0
40
0
40
1
40
1
40
1
40
1
41
1
10
43.4000000420218
20
5.39006073872881
30
0
41
1
10
43.3669944630451
20
5.39996679791139
30
0
41
1
10
43.3340403198772
20
5.40962704606736
30
0
41
1
10
43.301147058183
20
5.41903695991459
30
0
0
SPLINE
5
172
100
AcDbEntity
8
1
62
256
6
ByLayer
370
18
48
1
60
0
100
AcDbSpline
70
4
71
3
72
12
73
8
40
0
40
0
40
0
40
0
40
0.5
40
0.5
40
0.75
40
0.75
40
1
40
1
40
1
40
1
41
1
10
43.301147058183
20
5.41903695991439
30
0
41
1
10
43.2907541092527
20
5.41965050923636
30
0
41
1
10
43.2802748644332
20
5.42130149583284
30
0
41
1
10
43.2644173891521
20
5.42564530787354
30
0
41
1
10
43.2591322479829
20
5.42740448502923
30
0
41
1
10
43.2487218452746
20
5.43154705380437
30
0
41
1
10
43.2435748176548
20
5.43393561359406
30
0
41
1
10
43.2384937660966
20
5.4366778473607
30
0
0
SPLINE
5
173
100
AcDbEntity
8
1
62
256
6
ByLayer
370
18
48
1
60
0
100
AcDbSpline
70
4
71
3
72
8
73
4
40
0
40
0
40
0
40
0
40
1
40
1
40
1
40
1
41
1
10
43.2384937660962
20
5.43667784736166
30
0
41
1
10
42.9936527748386
20
5.50450771689518
30
0
41
1
10
42.752022399855
20
5.558431696443
30
0
41
1
10
42.5124174865269
20
5.59802829127329
30
0
0
SPLINE
5
174
100
AcDbEntity
8
1
62
256
6
ByLayer
370
18
48
1
60
0
100
AcDbSpline
70
4
71
3
72
8
73
4
40
0
40
0
40
0
40
0
40
1
40
1
40
1
40
1
41
1
10
42.5124174865269
20
5.59802829127332
30
0
41
1
10
42.479367668787
20
5.53708640530837
30
0
41
1
10
42.4462487069309
20
5.4756390718868
30
0
41
1
10
42.4130455838969
20
5.4136791820888
30
0
0
SPLINE
5
175
100
AcDbEntity
8
1
62
256
6
ByLayer
370
18
48
1
60
0
100
AcDbSpline
70
4
71
3
72
26
73
22
40
0
40
0
40
0
40
0
40
0.125
40
0.125
40
0.25
40
0.25
40
0.375
40
0.375
40
0.500000000000001
40
0.500000000000001
40
0.625000000000001
40
0.625000000000001
40
0.750000000000002
40
0.750000000000002
40
0.812500000000001
40
0.812500000000001
40
0.875000000000001
40
0.875000000000001
40
0.9375
40
0.9375
40
1
40
1
40
1
40
1
41
1
10
42.4130455838963
20
5.41367918208835
30
0
41
1
10
42.4059735031726
20
5.40048206982163
30
0
41
1
10
42.3977505601899
20
5.38889791572333
30
0
41
1
10
42.3795932452756
20
5.36811303157265
30
0
41
1
10
42.3695667112605
20
5.35889716920647
30
0
41
1
10
42.3487293553409
20
5.34321969580586
30
0
41
1
10
42.3378424916096
20
5.33665709218064
30
0
41
1
10
42.3152028501119
20
5.32593215555104
30
0
41
1
10
42.3033710116884
20
5.32177195792153
30
0
41
1
10
42.2796430967247
20
5.31624725427108
30
0
41
1
10
42.2676629193203
20
5.31482285198959
30
0
41
1
10
42.2434706882893
20
5.31498512178567
30
0
41
1
10
42.2311508979796
20
5.31661578579386
30
0
41
1
10
42.2133041035826
20
5.32181598609188
30
0
41
1
10
42.2074355870656
20
5.32400740110793
30
0
41
1
10
42.1958889576862
20
5.32945671878306
30
0
41
1
10
42.1901817290553
20
5.33274128308892
30
0
41
1
10
42.179333976152
20
5.34038533085825
30
0
41
1
10
42.1741573430187
20
5.34475344979325
30
0
41
1
10
42.1643933220209
20
5.35479073446544
30
0
41
1
10
42.1598014054225
20
5.36048468981912
30
0
41
1
10
42.1557196717653
20
5.36678964729904
30
0
0
SPLINE
5
176
100
AcDbEntity
8
1
62
256
6
ByLayer
370
18
48
1
60
0
100
AcDbSpline
70
4
71
3
72
8
73
4
40
0
40
0
40
0
40
0
40
1
40
1
40
1
40
1
41
1
10
42.1557196717611
20
5.36678964730822
30
0
41
1
10
42.0904606715044
20
5.46759368216755
30
0
41
1
10
42.0255563060043
20
5.56661537364414
30
0
41
1
10
41.9610011725038
20
5.66373315600623
30
0
0
SPLINE
5
177
100
AcDbEntity
8
1
62
256
6
ByLayer
370
18
48
1
60
0
100
AcDbSpline
70
4
71
3
72
8
73
4
40
0
40
0
40
0
40
0
40
1
40
1
40
1
40
1
41
1
10
41.9610011725038
20
5.6637331560062
30
0
41
1
10
41.8538719903355
20
5.67143326601519
30
0
41
1
10
41.7473031114939
20
5.6760744329969
30
0
41
1
10
41.6412291162785
20
5.67761874946294
30
0
0
SPLINE
5
178
100
AcDbEntity
8
1
62
256
6
ByLayer
370
18
48
1
60
0
100
AcDbSpline
70
4
71
3
72
8
73
4
40
0
40
0
40
0
40
0
40
1
40
1
40
1
40
1
41
1
10
41.6412291162783
20
5.67761874946314
30
0
41
1
10
41.5561705274002
20
5.50814816876795
30
0
41
1
10
41.4705666820636
20
5.33607195793081
30
0
41
1
10
41.3844427120765
20
5.16184669950286
30
0
0
SPLINE
5
179
100
AcDbEntity
8
1
62
256
6
ByLayer
370
18
48
1
60
0
100
AcDbSpline
70
4
71
3
72
26
73
22
40
0
40
0
40
0
40
0
40
0.125
40
0.125
40
0.25
40
0.25
40
0.375
40
0.375
40
0.5
40
0.5
40
0.625
40
0.625
40
0.75
40
0.75
40
0.8125
40
0.8125
40
0.875
40
0.875
40
0.9375
40
0.9375
40
1
40
1
40
1
40
1
41
1
10
41.3844427120765
20
5.16184669950286
30
0
41
1
10
41.377369951885
20
5.14753879576412
30
0
41
1
10
41.3691457148032
20
5.13465106327547
30
0
41
1
10
41.3509847006194
20
5.11097660049228
30
0
41
1
10
41.3409555115755
20
5.10015945896131
30
0
41
1
10
41.3201126415545
20
5.08114553490202
30
0
41
1
10
41.3092229287293
20
5.07283562488638
30
0
41
1
10
41.2865779551844
20
5.05846447252534
30
0
41
1
10
41.2747440329105
20
5.05239271471194
30
0
41
1
10
41.2510138844674
20
5.04301382956979
30
0
41
1
10
41.2390331791021
20
5.03963331411171
30
0
41
1
10
41.2148413164043
20
5.03581164186082
30
0
41
1
10
41.2025238279188
20
5.03539641977031
30
0
41
1
10
41.1846825844343
20
5.03759088151591
30
0
41
1
10
41.1788160068589
20
5.03878682909266
30
0
41
1
10
41.1672734154488
20
5.04225952514022
30
0
41
1
10
41.1615686349937
20
5.04455761768233
30
0
41
1
10
41.1507259961268
20
5.05030321976813
30
0
41
1
10
41.1455518420664
20
5.05375342569795
30
0
41
1
10
41.1357924565648
20
5.06202937823073
30
0
41
1
10
41.1312027120126
20
5.06687871698108
30
0
41
1
10
41.1271226546383
20
5.07241276801486
30
0
0
SPLINE
5
17A
100
AcDbEntity
8
1
62
256
6
ByLayer
370
18
48
1
60
0
100
AcDbSpline
70
4
71
3
72
8
73
4
40
0
40
0
40
0
40
0
40
1
40
1
40
1
40
1
41
1
10
41.127122654634
20
5.0724127680248
30
0
41
1
10
41.0853082364048
20
5.12912842254556
30
0
41
1
10
41.0436423255375
20
5.18487833088412
30
0
41
1
10
41.0021099045995
20
5.23964563153601
30
0
0
SPLINE
5
17B
100
AcDbEntity
8
1
62
256
6
ByLayer
370
18
48
1
60
0
100
AcDbSpline
70
4
71
3
72
8
73
4
40
0
40
0
40
0
40
0
40
1
40
1
40
1
40
1
41
1
10
41.0021099045995
20
5.23964563153621
30
0
41
1
10
40.9302917007593
20
5.33434969285903
30
0
41
1
10
40.8589263329681
20
5.42604889043861
30
0
41
1
10
40.7880104813305
20
5.51467275144697
30
0
0
SPLINE
5
17C
100
AcDbEntity
8
1
62
256
6
ByLayer
370
18
48
1
60
0
100
AcDbSpline
70
4
71
3
72
8
73
4
40
0
40
0
40
0
40
0
40
1
40
1
40
1
40
1
41
1
10
40.7020753464218
20
5.4760153313114
30
0
41
1
10
40.7307121392209
20
5.4891036746489
30
0
41
1
10
40.7593565735054
20
5.50198984955767
30
0
41
1
10
40.7880104813305
20
5.51467275144694
30
0
0
SPLINE
5
17D
100
AcDbEntity
8
1
62
256
6
ByLayer
370
18
48
1
60
0
100
AcDbSpline
70
4
71
3
72
8
73
4
40
0
40
0
40
0
40
0
40
1
40
1
40
1
40
1
41
1
10
40.7020753464218
20
5.47601533131146
30
0
41
1
10
40.5876001585197
20
5.23424812701001
30
0
41
1
10
40.4722010530891
20
4.98970889570239
30
0
41
1
10
40.3558310187599
20
4.74351649586759
30
0
0
SPLINE
5
17E
100
AcDbEntity
8
1
62
256
6
ByLayer
370
18
48
1
60
0
100
AcDbSpline
70
4
71
3
72
26
73
22
40
0
40
0
40
0
40
0
40
0.125
40
0.125
40
0.25
40
0.25
40
0.375
40
0.375
40
0.5
40
0.5
40
0.625
40
0.625
40
0.75
40
0.75
40
0.8125
40
0.8125
40
0.875
40
0.875
40
0.9375
40
0.9375
40
1
40
1
40
1
40
1
41
1
10
40.3558310187597
20
4.74351649586728
30
0
41
1
10
40.3487614545911
20
4.72856012863326
30
0
41
1
10
40.3405412440162
20
4.71478361458077
30
0
41
1
10
40.3223884305743
20
4.68897873991639
30
0
41
1
10
40.3123636811101
20
4.67690598445805
30
0
41
1
10
40.2915281134365
20
4.65515907545532
30
0
41
1
10
40.2806412856289
20
4.64536340242327
30
0
41
1
10
40.2579998092863
20
4.62779476536525
30
0
41
1
10
40.2461661892643
20
4.61999853295745
30
0
41
1
10
40.2224346396352
20
4.60705095225097
30
0
41
1
10
40.2104523598468
20
4.60181512883668
30
0
41
1
10
40.1862558510355
20
4.59411806081221
30
0
41
1
10
40.1739344838065
20
4.59166368849344
30
0
41
1
10
40.1560872720153
20
4.5907762846937
30
0
41
1
10
40.1502187565824
20
4.59093705332634
30
0
41
1
10
40.1386725045485
20
4.59232021442969
30
0
41
1
10
40.1329659012976
20
4.59355815876719
30
0
41
1
10
40.1221201638266
20
4.5972228640783
30
0
41
1
10
40.1169447371771
20
4.59964611597542
30
0
41
1
10
40.107183361894
20
4.60589996794178
30
0
41
1
10
40.1025929603602
20
4.60975226861592
30
0
41
1
10
40.0985125844172
20
4.61434122258055
30
0
0
SPLINE
5
17F
100
AcDbEntity
8
1
62
256
6
ByLayer
370
18
48
1
60
0
100
AcDbSpline
70
4
71
3
72
10
73
6
40
0
40
0
40
0
40
0
40
0.5
40
0.5
40
1
40
1
40
1
40
1
41
1
10
40.098512584413
20
4.61434122259095
30
0
41
1
10
40.0414142408254
20
4.67855630323348
30
0
41
1
10
39.9846074551523
20
4.74056850719896
30
0
41
1
10
39.8714924875251
20
4.86014973893643
30
0
41
1
10
39.8152424331653
20
4.91767020464781
30
0
41
1
10
39.7592601848488
20
4.97295141790093
30
0
0
SPLINE
5
180
100
AcDbEntity
8
1
62
256
6
ByLayer
370
18
48
1
60
0
100
AcDbSpline
70
4
71
3
72
8
73
4
40
0
40
0
40
0
40
0
40
1
40
1
40
1
40
1
41
1
10
39.6735494299792
20
4.9203142790721
30
0
41
1
10
39.7021313570752
20
4.93805218381652
30
0
41
1
10
39.7307010590651
20
4.95559803485369
30
0
41
1
10
39.7592601848488
20
4.97295141790082
30
0
0
SPLINE
5
181
100
AcDbEntity
8
1
62
256
6
ByLayer
370
18
48
1
60
0
100
AcDbSpline
70
4
71
3
72
8
73
4
40
0
40
0
40
0
40
0
40
1
40
1
40
1
40
1
41
1
10
39.6735494299792
20
4.9203142790721
30
0
41
1
10
39.5590705957108
20
4.67115481804012
30
0
41
1
10
39.443634995959
20
4.42151382990124
30
0
41
1
10
39.3272352423234
20
4.17260919964053
30
0
0
SPLINE
5
182
100
AcDbEntity
8
1
62
256
6
ByLayer
370
18
48
1
60
0
100
AcDbSpline
70
4
71
3
72
10
73
6
40
0
40
0
40
0
40
0
40
0.668672275638815
40
0.668672275638815
40
1
40
1
40
1
40
1
41
1
10
39.3272352423234
20
4.1726091996405
30
0
41
1
10
39.3201603212148
20
4.15748046811268
30
0
41
1
10
39.3119337436522
20
4.14325713076087
30
0
41
1
10
39.2983502698276
20
4.12299058583093
30
0
41
1
10
39.2936168217734
20
4.11642666607508
30
0
41
1
10
39.2887182472178
20
4.11006687482819
30
0
0
SPLINE
5
183
100
AcDbEntity
8
1
62
256
6
ByLayer
370
18
48
1
60
0
100
AcDbSpline
70
4
71
3
72
23
73
19
40
0
40
0
40
0
40
0
40
0.125000000000001
40
0.125000000000001
40
0.250000000000002
40
0.375000000000002
40
0.375000000000002
40
0.437500000000003
40
0.468750000000003
40
0.468750000000003
40
0.500000000000003
40
0.500000000000003
40
0.625000000000002
40
0.625000000000002
40
0.750000000000001
40
0.750000000000001
40
0.875000000000001
40
1
40
1
40
1
40
1
41
1
10
41.1126313976482
20
-0.231682426355036
30
0
41
1
10
41.1055194674305
20
-0.0786891596729902
30
0
41
1
10
41.0982613704677
20
0.0738621223865437
30
0
41
1
10
41.0834210462394
20
0.378094165781476
30
0
41
1
10
41.0683948637654
20
0.681462266946767
30
0
41
1
10
41.0536552058455
20
0.983133879541384
30
0
41
1
10
41.0428023100191
20
1.20874468728988
30
0
41
1
10
41.0374239111113
20
1.32138907462567
30
0
41
1
10
41.0321124335674
20
1.43378792501358
30
0
41
1
10
41.0285840737822
20
1.50866528075048
30
0
41
1
10
41.0268243752681
20
1.54611705162881
30
0
41
1
10
41.0180800782238
20
1.73260884701006
30
0
41
1
10
41.0112632598571
20
1.87940567400494
30
0
41
1
10
40.9976533879469
20
2.1683133919062
30
0
41
1
10
40.9908451096898
20
2.31042335533667
30
0
41
1
10
40.9767915186439
20
2.58997723699926
30
0
41
1
10
40.9623393074282
20
2.86486663771237
30
0
41
1
10
40.9471693098875
20
3.13035390107515
30
0
41
1
10
40.9395506280114
20
3.26069133232014
30
0
0
SPLINE
5
184
100
AcDbEntity
8
1
62
256
6
ByLayer
370
18
48
1
60
0
100
AcDbSpline
70
4
71
3
72
24
73
20
40
0
40
0
40
0
40
0
40
0.250000000000001
40
0.250000000000001
40
0.281250000000001
40
0.281250000000001
40
0.312500000000001
40
0.375000000000001
40
0.375000000000001
40
0.5
40
0.5
40
0.625
40
0.75
40
0.75
40
0.8125
40
0.8125
40
0.875
40
0.875
40
1
40
1
40
1
40
1
41
1
10
41.1126313976482
20
-0.231682426355036
30
0
41
1
10
41.1062004565778
20
0.065079584968089
30
0
41
1
10
41.0999565781213
20
0.36157379582977
30
0
41
1
10
41.0928366019727
20
0.694822878129884
30
0
41
1
10
41.0920433581767
20
0.73187661295151
30
0
41
1
10
41.0904560862006
20
0.80581957035065
30
0
41
1
10
41.0880753346277
20
0.916425927738118
30
0
41
1
10
41.0856899370468
20
1.02611783841078
30
0
41
1
10
41.0809002210412
20
1.24430172897505
30
0
41
1
10
41.0776739867901
20
1.38816044981246
30
0
41
1
10
41.071167427864
20
1.67272688858643
30
0
41
1
10
41.0646157339807
20
1.95414159991066
30
0
41
1
10
41.0580606472896
20
2.22919864613394
30
0
41
1
10
41.053173109055
20
2.43303555017823
30
0
41
1
10
41.0515472445431
20
2.50057177785143
30
0
41
1
10
41.0483062704936
20
2.63481253991509
30
0
41
1
10
41.0466890248211
20
2.70160756615042
30
0
41
1
10
41.0418723196246
20
2.89987319392063
30
0
41
1
10
41.0387097077092
20
3.02927418781152
30
0
41
1
10
41.0355537931322
20
3.15592076500064
30
0
0
SPLINE
5
185
100
AcDbEntity
8
1
62
256
6
ByLayer
370
18
48
1
60
0
100
AcDbSpline
70
4
71
3
72
8
73
4
40
0
40
0
40
0
40
0
40
1
40
1
40
1
40
1
41
1
10
40.9395506280114
20
3.26069133232011
30
0
41
1
10
40.9715306447557
20
3.22581757659395
30
0
41
1
10
41.0035315053109
20
3.19089376173764
30
0
41
1
10
41.0355537931322
20
3.15592076500064
30
0
0
SPLINE
5
186
100
AcDbEntity
8
1
62
256
6
ByLayer
370
18
48
1
60
0
100
AcDbSpline
70
4
71
3
72
10
73
6
40
0
40
0
40
0
40
0
40
0.5
40
0.5
40
1
40
1
40
1
40
1
41
1
10
35.2983683518945
20
4.26043776733053
30
0
41
1
10
35.2498291321952
20
4.34196663120824
30
0
41
1
10
35.2015030600051
20
4.4242887678308
30
0
41
1
10
35.1052222424337
20
4.5904877860973
30
0
41
1
10
35.0572797582402
20
4.67433602126442
30
0
41
1
10
35.0095534151952
20
4.75881173342555
30
0
0
SPLINE
5
187
100
AcDbEntity
8
1
62
256
6
ByLayer
370
18
48
1
60
0
100
AcDbSpline
70
4
71
3
72
8
73
4
40
0
40
0
40
0
40
0
40
1
40
1
40
1
40
1
41
1
10
35.0095534151952
20
4.75881173342543
30
0
41
1
10
34.9413519182694
20
4.79561071325875
30
0
41
1
10
34.8731099440126
20
4.83115309501326
30
0
41
1
10
34.8048043052148
20
4.86543362980166
30
0
0
SPLINE
5
188
100
AcDbEntity
8
1
62
256
6
ByLayer
370
18
48
1
60
0
100
AcDbSpline
70
4
71
3
72
8
73
4
40
0
40
0
40
0
40
0
40
1
40
1
40
1
40
1
41
1
10
34.8048043052148
20
4.86543362980169
30
0
41
1
10
34.7128434859548
20
4.81391005621947
30
0
41
1
10
34.6202550131804
20
4.75456166222193
30
0
41
1
10
34.5270863676613
20
4.68733820309615
30
0
0
SPLINE
5
189
100
AcDbEntity
8
1
62
256
6
ByLayer
370
18
48
1
60
0
100
AcDbSpline
70
4
71
3
72
26
73
22
40
0
40
0
40
0
40
0
40
0.125
40
0.125
40
0.25
40
0.25
40
0.375
40
0.375
40
0.5
40
0.5
40
0.625
40
0.625
40
0.75
40
0.75
40
0.8125
40
0.8125
40
0.875
40
0.875
40
0.9375
40
0.9375
40
1
40
1
40
1
40
1
41
1
10
34.5270863676609
20
4.68733820309669
30
0
41
1
10
34.5200072612256
20
4.68223045446032
30
0
41
1
10
34.5117756686672
20
4.67895894100417
30
0
41
1
10
34.4935994723731
20
4.6751184398
30
0
41
1
10
34.4835623598568
20
4.6745946264476
30
0
41
1
10
34.4627062627301
20
4.67596406502727
30
0
41
1
10
34.4518108679459
20
4.67783151976474
30
0
41
1
10
34.4291573949724
20
4.68380050886034
30
0
41
1
10
34.4173216166658
20
4.68795079392723
30
0
41
1
10
34.3935919010538
20
4.69831287197945
30
0
41
1
10
34.3816129742062
20
4.7045325627472
30
0
41
1
10
34.3574278898845
20
4.71932862756407
30
0
41
1
10
34.3451173679826
20
4.72800067463919
30
0
41
1
10
34.3272878451729
20
4.74267997089908
30
0
41
1
10
34.3214251658316
20
4.74786649460526
30
0
41
1
10
34.3098902572345
20
4.75892494128499
30
0
41
1
10
34.3041894897933
20
4.76483393307103
30
0
41
1
10
34.2933541614769
20
4.7771190503114
30
0
41
1
10
34.2881832747318
20
4.78352379207465
30
0
41
1
10
34.2784296398858
20
4.79695803390712
30
0
41
1
10
34.2738419468909
20
4.80400952281425
30
0
41
1
10
34.2697631392874
20
4.81121325873997
30
0
0
SPLINE
5
18A
100
AcDbEntity
8
1
62
256
6
ByLayer
370
18
48
1
60
0
100
AcDbSpline
70
4
71
3
72
8
73
4
40
0
40
0
40
0
40
0
40
1
40
1
40
1
40
1
41
1
10
34.2697631392829
20
4.81121325874355
30
0
41
1
10
34.1992380410122
20
4.93577029440459
30
0
41
1
10
34.1291343132556
20
5.06128414135853
30
0
41
1
10
34.0594475844534
20
5.18753813950568
30
0
0
SPLINE
5
18B
100
AcDbEntity
8
1
62
256
6
ByLayer
370
18
48
1
60
0
100
AcDbSpline
70
4
71
3
72
8
73
4
40
0
40
0
40
0
40
0
40
1
40
1
40
1
40
1
41
1
10
34.0594475844536
20
5.18753813950539
30
0
41
1
10
33.9340687342776
20
5.23287449149859
30
0
41
1
10
33.8081070172438
20
5.27388884447129
30
0
41
1
10
33.681442732073
20
5.31050515722134
30
0
0
SPLINE
5
18C
100
AcDbEntity
8
1
62
256
6
ByLayer
370
18
48
1
60
0
100
AcDbSpline
70
4
71
3
72
8
73
4
40
0
40
0
40
0
40
0
40
1
40
1
40
1
40
1
41
1
10
33.6814427320791
20
5.31050515721262
30
0
41
1
10
33.6207176504849
20
5.25115425048739
30
0
41
1
10
33.5597351747895
20
5.18867814137857
30
0
41
1
10
33.4984845030672
20
5.12309199196085
30
0
0
SPLINE
5
18D
100
AcDbEntity
8
1
62
256
6
ByLayer
370
18
48
1
60
0
100
AcDbSpline
70
4
71
3
72
26
73
22
40
0
40
0
40
0
40
0
40
0.124999999999999
40
0.124999999999999
40
0.249999999999998
40
0.249999999999998
40
0.374999999999998
40
0.374999999999998
40
0.499999999999997
40
0.499999999999997
40
0.624999999999996
40
0.624999999999996
40
0.749999999999995
40
0.749999999999995
40
0.812499999999996
40
0.812499999999996
40
0.874999999999997
40
0.874999999999997
40
0.937499999999999
40
0.937499999999999
40
1
40
1
40
1
40
1
41
1
10
33.4984845030672
20
5.12309199196082
30
0
41
1
10
33.4914053096849
20
5.11551171533898
30
0
41
1
10
33.4831732566403
20
5.10980159574939
30
0
41
1
10
33.464995205487
20
5.10113653575527
30
0
41
1
10
33.4549565089994
20
5.09821263824287
30
0
41
1
10
33.4340969291985
20
5.09500024451103
30
0
41
1
10
33.4231996025871
20
5.09466392764958
30
0
41
1
10
33.4005420199284
20
5.09638717195082
30
0
41
1
10
33.3887045514577
20
5.09848542228599
30
0
41
1
10
33.364972816611
20
5.10504978242395
30
0
41
1
10
33.3529931268208
20
5.10950577696855
30
0
41
1
10
33.3288070937568
20
5.12107338156582
30
0
41
1
10
33.3164979175728
20
5.12827069234049
30
0
41
1
10
33.2986721789154
20
5.14111495176178
30
0
41
1
10
33.2928107840979
20
5.14574931885409
30
0
41
1
10
33.2812784886227
20
5.15584149817701
30
0
41
1
10
33.2755794566407
20
5.16133498258426
30
0
41
1
10
33.2647478419615
20
5.17297685502425
30
0
41
1
10
33.2595786913594
20
5.17915021280552
30
0
41
1
10
33.2498281807049
20
5.19233654890189
30
0
41
1
10
33.2452420053749
20
5.19937328025466
30
0
41
1
10
33.241164300409
20
5.20669473585696
30
0
0
SPLINE
5
18E
100
AcDbEntity
8
1
62
256
6
ByLayer
370
18
48
1
60
0
100
AcDbSpline
70
4
71
3
72
8
73
4
40
0
40
0
40
0
40
0
40
1
40
1
40
1
40
1
41
1
10
33.2411643004048
20
5.20669473586196
30
0
41
1
10
33.1970244975861
20
5.28594706269237
30
0
41
1
10
33.1530602393102
20
5.36524628936451
30
0
41
1
10
33.109251587061
20
5.44458140208101
30
0
0
SPLINE
5
18F
100
AcDbEntity
8
1
62
256
6
ByLayer
370
18
48
1
60
0
100
AcDbSpline
70
4
71
3
72
8
73
4
40
0
40
0
40
0
40
0
40
1
40
1
40
1
40
1
41
1
10
33.1092515870611
20
5.44458140208067
30
0
41
1
10
32.9255137960263
20
5.47757277711855
30
0
41
1
10
32.7420231407175
20
5.50084655344617
30
0
41
1
10
32.558184232344
20
5.51451903887349
30
0
0
SPLINE
5
190
100
AcDbEntity
8
1
62
256
6
ByLayer
370
18
48
1
60
0
100
AcDbSpline
70
4
71
3
72
8
73
4
40
0
40
0
40
0
40
0
40
1
40
1
40
1
40
1
41
1
10
32.5581842323504
20
5.51451903886513
30
0
41
1
10
32.5288082511984
20
5.47497791258653
30
0
41
1
10
32.4993749857361
20
5.43480789092089
30
0
41
1
10
32.4698726732233
20
5.39399528637145
30
0
0
SPLINE
5
191
100
AcDbEntity
8
1
62
256
6
ByLayer
370
18
48
1
60
0
100
AcDbSpline
70
4
71
3
72
26
73
22
40
0
40
0
40
0
40
0
40
0.125
40
0.125
40
0.25
40
0.25
40
0.375
40
0.375
40
0.5
40
0.5
40
0.625000000000001
40
0.625000000000001
40
0.750000000000001
40
0.750000000000001
40
0.8125
40
0.8125
40
0.875
40
0.875
40
0.9375
40
0.9375
40
1
40
1
40
1
40
1
41
1
10
32.4698726732231
20
5.39399528637153
30
0
41
1
10
32.4627936642544
20
5.3842024000167
30
0
41
1
10
32.4545618942675
20
5.37625302901071
30
0
41
1
10
32.4363837943171
20
5.36307152997651
30
0
41
1
10
32.4263444980591
20
5.35785522691299
30
0
41
1
10
32.4054823005187
20
5.35018851967871
30
0
41
1
10
32.3945831099054
20
5.34767009363202
30
0
41
1
10
32.3719208738134
20
5.34511191279665
30
0
41
1
10
32.3600807289997
20
5.34509976838865
30
0
41
1
10
32.3363448793487
20
5.34767210060667
30
0
41
1
10
32.3243635391515
20
5.35022865764537
30
0
41
1
10
32.3001753877394
20
5.35820896822528
30
0
41
1
10
32.2878665198772
20
5.36370643237603
30
0
41
1
10
32.2700435097527
20
5.37431055666536
30
0
41
1
10
32.2641832525143
20
5.37824599776988
30
0
41
1
10
32.2526537360061
20
5.38705084554778
30
0
41
1
10
32.2469564573964
20
5.39195369395088
30
0
41
1
10
32.2361288127753
20
5.40257997954654
30
0
41
1
10
32.2309618293828
20
5.40832372845679
30
0
41
1
10
32.2212158628659
20
5.42083665996833
30
0
41
1
10
32.2166318229096
20
5.42763108365583
30
0
41
1
10
32.2125558920473
20
5.43483256686599
30
0
0
SPLINE
5
192
100
AcDbEntity
8
1
62
256
6
ByLayer
370
18
48
1
60
0
100
AcDbSpline
70
4
71
3
72
8
73
4
40
0
40
0
40
0
40
0
40
1
40
1
40
1
40
1
41
1
10
32.2125558920431
20
5.43483256687239
30
0
41
1
10
32.1947374971465
20
5.46631466900584
30
0
41
1
10
32.1769479237209
20
5.49775382039704
30
0
41
1
10
32.159185976725
20
5.52914918559961
30
0
0
SPLINE
5
193
100
AcDbEntity
8
1
62
256
6
ByLayer
370
18
48
1
60
0
100
AcDbSpline
70
4
71
3
72
8
73
4
40
0
40
0
40
0
40
0
40
1
40
1
40
1
40
1
41
1
10
32.159185976725
20
5.52914918559952
30
0
41
1
10
31.9188167320676
20
5.52896610889158
30
0
41
1
10
31.6773876320189
20
5.51264966305678
30
0
41
1
10
31.4338086133647
20
5.48012401523775
30
0
0
SPLINE
5
194
100
AcDbEntity
8
1
62
256
6
ByLayer
370
18
48
1
60
0
100
AcDbSpline
70
4
71
3
72
22
73
18
40
0
40
0
40
0
40
0
40
0.125
40
0.125
40
0.25
40
0.25
40
0.375
40
0.375
40
0.5
40
0.5
40
0.625
40
0.625
40
0.75
40
0.75
40
0.875
40
0.875
40
1
40
1
40
1
40
1
41
1
10
31.4338086133647
20
5.48012401523766
30
0
41
1
10
31.4275094379749
20
5.47161372219136
30
0
41
1
10
31.4205443739901
20
5.46411691566416
30
0
41
1
10
31.4055119879259
20
5.4507941199503
30
0
41
1
10
31.3974041264488
20
5.44496821344259
30
0
41
1
10
31.3806907494699
20
5.43516313799918
30
0
41
1
10
31.3720272774738
20
5.4311268536116
30
0
41
1
10
31.3541366912795
20
5.42466825280292
30
0
41
1
10
31.344870795347
20
5.42224053456471
30
0
41
1
10
31.3259331695958
20
5.41909350784874
30
0
41
1
10
31.3163866762336
20
5.41838751255688
30
0
41
1
10
31.2971492496498
20
5.4187436392875
30
0
41
1
10
31.2874584264658
20
5.41980317586797
30
0
41
1
10
31.2679276268278
20
5.42393980313355
30
0
41
1
10
31.2580558112198
20
5.42704738856148
30
0
41
1
10
31.2388926761293
20
5.43547633022615
30
0
41
1
10
31.2294856491188
20
5.44081728494828
30
0
41
1
10
31.2204152868633
20
5.4475698370409
30
0
0
SPLINE
5
195
100
AcDbEntity
8
1
62
256
6
ByLayer
370
18
48
1
60
0
100
AcDbSpline
70
4
71
3
72
8
73
4
40
0
40
0
40
0
40
0
40
1
40
1
40
1
40
1
41
1
10
31.2204152868633
20
5.4475698370409
30
0
41
1
10
31.1471859895804
20
5.43501256894069
30
0
41
1
10
31.0737328912856
20
5.42099752144011
30
0
41
1
10
31
20
5.40551436541887
30
0
0
SPLINE
5
196
100
AcDbEntity
8
1
62
256
6
ByLayer
370
18
48
1
60
0
100
AcDbSpline
70
4
71
3
72
16
73
12
40
0
40
0
40
0
40
0
40
0.124999999999999
40
0.124999999999999
40
0.249999999999999
40
0.249999999999999
40
0.499999999999999
40
0.499999999999999
40
0.749999999999999
40
0.749999999999999
40
1
40
1
40
1
40
1
41
1
10
31
20
5.4055143654189
30
0
41
1
10
30.9823659826862
20
5.37335580762291
30
0
41
1
10
30.9647278385633
20
5.3410553773345
30
0
41
1
10
30.9294687824622
20
5.27621108215823
30
0
41
1
10
30.9118564186206
20
5.24367637433224
30
0
41
1
10
30.8585326067338
20
5.14503091937095
30
0
41
1
10
30.8224351842542
20
5.07802450652281
30
0
41
1
10
30.7489083228733
20
4.94151146261117
30
0
41
1
10
30.7114784651488
20
4.8720038496501
30
0
41
1
10
30.6349869600797
20
4.7303986371997
30
0
41
1
10
30.5959272147362
20
4.65830281740961
30
0
41
1
10
30.5558482582385
20
4.5848105919803
30
0
0
SPLINE
5
197
100
AcDbEntity
8
1
62
256
6
ByLayer
370
18
48
1
60
0
100
AcDbSpline
70
4
71
3
72
22
73
18
40
0
40
0
40
0
40
0
40
0.125000000000006
40
0.125000000000006
40
0.250000000000011
40
0.250000000000011
40
0.312500000000014
40
0.312500000000014
40
0.375000000000017
40
0.375000000000017
40
0.500000000000011
40
0.500000000000011
40
0.625000000000005
40
0.625000000000005
40
0.749999999999999
40
0.749999999999999
40
1
40
1
40
1
40
1
41
1
10
30.5558482582385
20
4.58481059198033
30
0
41
1
10
30.5299710886136
20
4.53735998573364
30
0
41
1
10
30.5014046673914
20
4.49230771539999
30
0
41
1
10
30.4394181262636
20
4.40665583880772
30
0
41
1
10
30.4059941079678
20
4.36605964291445
30
0
41
1
10
30.3524749842794
20
4.30841321728025
30
0
41
1
10
30.334071175193
20
4.28974062321709
30
0
41
1
10
30.2961681530771
20
4.2534778755778
30
0
41
1
10
30.2766164813274
20
4.23584773614601
30
0
41
1
10
30.2171220944412
20
4.18518061023232
30
0
41
1
10
30.1761870904593
20
4.15418398416594
30
0
41
1
10
30.092320812341
20
4.09723358461019
30
0
41
1
10
30.0493693277145
20
4.07127741247035
30
0
41
1
10
29.961761634769
20
4.02404249747511
30
0
41
1
10
29.9169526026491
20
4.00271764996998
30
0
41
1
10
29.7826629404148
20
3.94627985237264
30
0
41
1
10
29.692734724873
20
3.91822593670887
30
0
41
1
10
29.6032203140756
20
3.89825698878334
30
0
0
SPLINE
5
198
100
AcDbEntity
8
1
62
256
6
ByLayer
370
18
48
1
60
0
100
AcDbSpline
70
4
71
3
72
20
73
16
40
0
40
0
40
0
40
0
40
0.131302520338367
40
0.131302520338367
40
0.262605040676733
40
0.262605040676733
40
0.525210081353467
40
0.525210081353467
40
0.656512601691833
40
0.656512601691833
40
0.7878151220302
40
0.7878151220302
40
0.919117642368567
40
0.919117642368567
40
1
40
1
40
1
40
1
41
1
10
29.6032203140756
20
3.89825698878334
30
0
41
1
10
29.5003266485919
20
3.87530338578682
30
0
41
1
10
29.3977148188749
20
3.85049137159658
30
0
41
1
10
29.1925865166618
20
3.79745917647511
30
0
41
1
10
29.0902472914765
20
3.7691513472748
30
0
41
1
10
28.783893942732
20
3.6788946809842
30
0
41
1
10
28.5804312583059
20
3.61167640959985
30
0
41
1
10
28.2757944215897
20
3.50073890412
30
0
41
1
10
28.1743319324446
20
3.46208087199577
30
0
41
1
10
27.9714315132967
20
3.38151788528083
30
0
41
1
10
27.8700037616013
20
3.33960175638126
30
0
41
1
10
27.6667359979369
20
3.25289897747376
30
0
41
1
10
27.5650199654207
20
3.20801427314555
30
0
41
1
10
27.4006068848544
20
3.13291214543332
30
0
41
1
10
27.3379253008303
20
3.10368000412103
30
0
41
1
10
27.2752208911715
20
3.07385166008038
30
0
0
SPLINE
5
199
100
AcDbEntity
8
1
62
256
6
ByLayer
370
18
48
1
60
0
100
AcDbSpline
70
4
71
3
72
50
73
46
40
0
40
0
40
0
40
0
40
0.0286394776370441
40
0.0286394776370441
40
0.0599736880358477
40
0.0599736880358477
40
0.122642108833455
40
0.122642108833455
40
0.185310529631061
40
0.185310529631061
40
0.247978950428668
40
0.247978950428668
40
0.279313160827473
40
0.279313160827473
40
0.310647371226277
40
0.310647371226277
40
0.373315792023886
40
0.373315792023886
40
0.435984212821495
40
0.435984212821495
40
0.4673184232203
40
0.4673184232203
40
0.498652633619104
40
0.498652633619104
40
0.561321054416715
40
0.561321054416715
40
0.623989475214326
40
0.623989475214326
40
0.686657896011937
40
0.686657896011937
40
0.717992106410743
40
0.717992106410743
40
0.749326316809549
40
0.749326316809549
40
0.811994737607162
40
0.811994737607162
40
0.874663158404775
40
0.874663158404775
40
0.937331579202388
40
0.937331579202388
40
0.952998684401791
40
0.952998684401791
40
0.968665789601194
40
0.968665789601194
40
1
40
1
40
1
40
1
41
1
10
23.1155576166074
20
4.0999999640174
30
0
41
1
10
23.1777525577545
20
4.09999713725665
30
0
41
1
10
23.239870853766
20
4.0992664970934
30
0
41
1
10
23.3699643890554
20
4.09624048257305
30
0
41
1
10
23.4379196330084
20
4.09380559496856
30
0
41
1
10
23.6416717630842
20
4.08397804933807
30
0
41
1
10
23.7773341198106
20
4.07406541480117
30
0
41
1
10
24.0481054269654
20
4.04756792469297
30
0
41
1
10
24.1832449914057
20
4.03098604827477
30
0
41
1
10
24.4529980319926
20
3.99111180651357
30
0
41
1
10
24.5876208579398
20
3.96781238408977
30
0
41
1
10
24.7896062281239
20
3.92793179864873
30
0
41
1
10
24.857033184006
20
3.91385315228101
30
0
41
1
10
24.992094701354
20
3.8841522941394
30
0
41
1
10
25.0596806849062
20
3.8685088822979
30
0
41
1
10
25.2625780485374
20
3.81918981112611
30
0
41
1
10
25.3980429061399
20
3.783135721891
30
0
41
1
10
25.6693161292728
20
3.70457596793415
30
0
41
1
10
25.8051094897025
20
3.662057088582
30
0
41
1
10
26.0092054366359
20
3.59340849344565
30
0
41
1
10
26.0772997843405
20
3.56971039235182
30
0
41
1
10
26.2136116019184
20
3.5206540333939
30
0
41
1
10
26.2819129987446
20
3.49526991197271
30
0
41
1
10
26.4866470035872
20
3.41726197168566
30
0
41
1
10
26.6230319786049
20
3.36275875199135
30
0
41
1
10
26.8952377532047
20
3.24862710502802
30
0
41
1
10
27.031054415866
20
3.18899128314433
30
0
41
1
10
27.3020410006638
20
3.06455310018268
30
0
41
1
10
27.4371845704406
20
2.99972473359801
30
0
41
1
10
27.6394111417149
20
2.89857131954298
30
0
41
1
10
27.7067489818161
20
2.86421121714073
30
0
41
1
10
27.8413745901897
20
2.79429548879634
30
0
41
1
10
27.9087085032324
20
2.75878665329537
30
0
41
1
10
28.1111207501224
20
2.65099674450926
30
0
41
1
10
28.2462766684494
20
2.57710762279618
30
0
41
1
10
28.5167936734938
20
2.42504896638164
30
0
41
1
10
28.652179060188
20
2.34690495892653
30
0
41
1
10
28.9231659241956
20
2.18628287381861
30
0
41
1
10
29.0588054106943
20
2.10385036812082
30
0
41
1
10
29.2285291226031
20
1.99807041955697
30
0
41
1
10
29.2624813546104
20
1.97677571250821
30
0
41
1
10
29.3303980052592
20
1.93390233668589
30
0
41
1
10
29.3643688703389
20
1.91233158227169
30
0
41
1
10
29.4665046695983
20
1.84745870560545
30
0
41
1
10
29.5347912205712
20
1.80386566148016
30
0
41
1
10
29.6032203140757
20
1.75985797883234
30
0
0
SPLINE
5
19A
100
AcDbEntity
8
1
62
256
6
ByLayer
370
18
48
1
60
0
100
AcDbSpline
70
4
71
3
72
25
73
21
40
0
40
0
40
0
40
0
40
0.124999999999994
40
0.249999999999989
40
0.249999999999989
40
0.374999999999983
40
0.374999999999983
40
0.437499999999985
40
0.437499999999985
40
0.499999999999988
40
0.499999999999988
40
0.624999999999991
40
0.624999999999991
40
0.749999999999994
40
0.749999999999994
40
0.874999999999998
40
0.874999999999998
40
0.937499999999999
40
0.937499999999999
40
1
40
1
40
1
40
1
41
1
10
29.6032203140756
20
1.75985797883237
30
0
41
1
10
29.6512034430961
20
1.72899937460079
30
0
41
1
10
29.7458287871682
20
1.66914126478343
30
0
41
1
10
29.8375571916983
20
1.61219860427147
30
0
41
1
10
29.9277347251255
20
1.55646718455563
30
0
41
1
10
29.9720482870827
20
1.52920649606119
30
0
41
1
10
30.0372755079088
20
1.48915211069155
30
0
41
1
10
30.0588152539886
20
1.47593847543524
30
0
41
1
10
30.1010680680278
20
1.45003772987584
30
0
41
1
10
30.1218329806681
20
1.43731877084602
30
0
41
1
10
30.1830434401785
20
1.39985769544603
30
0
41
1
10
30.2224085185107
20
1.37580467850887
30
0
41
1
10
30.2981749095962
20
1.32970614585349
30
0
41
1
10
30.3345775114755
20
1.30765743076523
30
0
41
1
10
30.4042016343467
20
1.26597544826322
30
0
41
1
10
30.4374446736206
20
1.24632298839961
30
0
41
1
10
30.4845492975657
20
1.21928712090519
30
0
41
1
10
30.4996712330446
20
1.21075628041422
30
0
41
1
10
30.5286971451089
20
1.19477807718249
30
0
41
1
10
30.542591443614
20
1.18729145505355
30
0
41
1
10
30.5558482582385
20
1.18047828891053
30
0
0
SPLINE
5
19B
100
AcDbEntity
8
1
62
256
6
ByLayer
370
18
48
1
60
0
100
AcDbSpline
70
4
71
3
72
18
73
14
40
0
40
0
40
0
40
0
40
0.25
40
0.25
40
0.5
40
0.5
40
0.75
40
0.75
40
0.875
40
0.875
40
0.9375
40
0.9375
40
1
40
1
40
1
40
1
41
1
10
30.5558482582385
20
1.18047828891051
30
0
41
1
10
30.5915893207129
20
1.16210963824579
30
0
41
1
10
30.6276656428854
20
1.14451527440679
30
0
41
1
10
30.7004792994212
20
1.11125929181765
30
0
41
1
10
30.737207512696
20
1.09555190503522
30
0
41
1
10
30.8112725412021
20
1.06619981277373
30
0
41
1
10
30.8486109202029
20
1.05256348741005
30
0
41
1
10
30.9050573479134
20
1.03383749876048
30
0
41
1
10
30.923945946438
20
1.02788302567464
30
0
41
1
10
30.9523928293527
20
1.01943985193157
30
0
41
1
10
30.9618943091856
20
1.01670795277767
30
0
41
1
10
30.9809363776034
20
1.01141888065734
30
0
41
1
10
30.9904754882857
20
1.00885376307315
30
0
41
1
10
31
20
1.00618111358551
30
0
0
SPLINE
5
19C
100
AcDbEntity
8
1
62
256
6
ByLayer
370
18
48
1
60
0
100
AcDbSpline
70
4
71
3
72
8
73
4
40
0
40
0
40
0
40
0
40
1
40
1
40
1
40
1
41
1
10
31
20
1.00618111358551
30
0
41
1
10
31.1437885920028
20
0.879903097719875
30
0
41
1
10
31.2868706814314
20
0.752434445551444
30
0
41
1
10
31.4291476252973
20
0.623675916639513
30
0
0
SPLINE
5
19D
100
AcDbEntity
8
1
62
256
6
ByLayer
370
18
48
1
60
0
100
AcDbSpline
70
4
71
3
72
32
73
28
40
0
40
0
40
0
40
0
40
0.12499999999997
40
0.12499999999997
40
0.18749999999997
40
0.18749999999997
40
0.24999999999997
40
0.24999999999997
40
0.374999999999969
40
0.374999999999969
40
0.437499999999968
40
0.437499999999968
40
0.499999999999968
40
0.499999999999968
40
0.625000000000006
40
0.625000000000006
40
0.687500000000005
40
0.687500000000005
40
0.750000000000004
40
0.750000000000004
40
0.812500000000003
40
0.812500000000003
40
0.875000000000002
40
0.875000000000002
40
0.937500000000001
40
0.937500000000001
40
1
40
1
40
1
40
1
41
1
10
31.4291476252963
20
0.623675916639854
30
0
41
1
10
31.4367583216857
20
0.613361473295868
30
0
41
1
10
31.4453142836011
20
0.602642138920231
30
0
41
1
10
31.4592925241423
20
0.586077750029006
30
0
41
1
10
31.4641549490368
20
0.580464974259741
30
0
41
1
10
31.4740508844539
20
0.569302141491022
30
0
41
1
10
31.4791076659386
20
0.563724016098405
30
0
41
1
10
31.4945785171404
20
0.546996738380585
30
0
41
1
10
31.5052897520098
20
0.535854838556958
30
0
41
1
10
31.5219241522485
20
0.519144130217143
30
0
41
1
10
31.5275780489017
20
0.513561773066982
30
0
41
1
10
31.5388871980999
20
0.502581948711935
30
0
41
1
10
31.5445640457545
20
0.49716233215608
30
0
41
1
10
31.5616575665075
20
0.481111166832022
30
0
41
1
10
31.5731364509987
20
0.470684136802333
30
0
41
1
10
31.5904771405384
20
0.455491450571486
30
0
41
1
10
31.5963043299692
20
0.450480964630742
30
0
41
1
10
31.6077828811793
20
0.44081150125453
30
0
41
1
10
31.6134517805868
20
0.436136198611166
30
0
41
1
10
31.6246320103105
20
0.427132639691138
30
0
41
1
10
31.630143531107
20
0.422803947330294
30
0
41
1
10
31.6409813305584
20
0.414547119172511
30
0
41
1
10
31.6463049441212
20
0.410623399882098
30
0
41
1
10
31.6564241688076
20
0.403471440691902
30
0
41
1
10
31.6612579922362
20
0.400213141863105
30
0
41
1
10
31.6703917523157
20
0.394449256178632
30
0
41
1
10
31.6746991063885
20
0.391942385096712
30
0
41
1
10
31.6785570853459
20
0.389966712845762
30
0
0
SPLINE
5
19E
100
AcDbEntity
8
1
62
256
6
ByLayer
370
18
48
1
60
0
100
AcDbSpline
70
4
71
3
72
8
73
4
40
0
40
0
40
0
40
0
40
1
40
1
40
1
40
1
41
1
10
31.6785570853479
20
0.3899667128494
30
0
41
1
10
31.6835470006079
20
0.387411375658075
30
0
41
1
10
31.6885346005363
20
0.384834941151922
30
0
41
1
10
31.6935199195546
20
0.382237447729665
30
0
0
SPLINE
5
19F
100
AcDbEntity
8
1
62
256
6
ByLayer
370
18
48
1
60
0
100
AcDbSpline
70
4
71
3
72
8
73
4
40
0
40
0
40
0
40
0
40
1
40
1
40
1
40
1
41
1
10
31.6935199195547
20
0.382237447729494
30
0
41
1
10
31.9230872102117
20
0.170700421453375
30
0
41
1
10
32.1507919769138
20
-0.0439637971883826
30
0
41
1
10
32.3769074951637
20
-0.261496587733518
30
0
0
SPLINE
5
1A0
100
AcDbEntity
8
1
62
256
6
ByLayer
370
18
48
1
60
0
100
AcDbSpline
70
4
71
3
72
8
73
4
40
0
40
0
40
0
40
0
40
1
40
1
40
1
40
1
41
1
10
32.376907495161
20
-0.261496587731585
30
0
41
1
10
32.4011607413536
20
-0.290853992001502
30
0
41
1
10
32.4254557198753
20
-0.319744202374437
30
0
41
1
10
32.449802212295
20
-0.348145282351879
30
0
0
SPLINE
5
1A1
100
AcDbEntity
8
1
62
256
6
ByLayer
370
18
48
1
60
0
100
AcDbSpline
70
4
71
3
72
28
73
24
40
0
40
0
40
0
40
0
40
0.124999999999986
40
0.124999999999986
40
0.249999999999972
40
0.249999999999972
40
0.374999999999958
40
0.374999999999958
40
0.499999999999944
40
0.499999999999944
40
0.62499999999993
40
0.62499999999993
40
0.687499999999941
40
0.687499999999941
40
0.749999999999953
40
0.749999999999953
40
0.812499999999965
40
0.812499999999965
40
0.874999999999977
40
0.874999999999977
40
0.937499999999988
40
0.937499999999988
40
1
40
1
40
1
40
1
41
1
10
32.449802212295
20
-0.348145282351908
30
0
41
1
10
32.4569838356404
20
-0.356522910450678
30
0
41
1
10
32.4653398622627
20
-0.365748626070967
30
0
41
1
10
32.4837762078368
20
-0.385416378294536
30
0
41
1
10
32.493956010469
20
-0.3959530360749
30
0
41
1
10
32.5150546744699
20
-0.417309753673351
30
0
41
1
10
32.5260541166393
20
-0.428218157026834
30
0
41
1
10
32.5488749223356
20
-0.450479623899383
30
0
41
1
10
32.5607557267907
20
-0.461885836808591
30
0
41
1
10
32.5845119966827
20
-0.484386914200201
30
0
41
1
10
32.5964821887989
20
-0.495575436747117
30
0
41
1
10
32.6145691353542
20
-0.512278432265305
30
0
41
1
10
32.620648845788
20
-0.517858738916317
30
0
41
1
10
32.632713181906
20
-0.528864392051844
30
0
41
1
10
32.6386700022334
20
-0.534264762999726
30
0
41
1
10
32.6504155984453
20
-0.544845875630131
30
0
41
1
10
32.6562045782409
20
-0.550026895073643
30
0
41
1
10
32.6675852508201
20
-0.560138071027666
30
0
41
1
10
32.6731998198507
20
-0.565087806915642
30
0
41
1
10
32.6838668133651
20
-0.574404007683512
30
0
41
1
10
32.6889565773483
20
-0.57880404927576
30
0
41
1
10
32.698558343977
20
-0.586991550480633
30
0
41
1
10
32.7030839559179
20
-0.590790087701066
30
0
41
1
10
32.7071200314914
20
-0.594098406160697
30
0
0
SPLINE
5
1A2
100
AcDbEntity
8
1
62
256
6
ByLayer
370
18
48
1
60
0
100
AcDbSpline
70
4
71
3
72
8
73
4
40
0
40
0
40
0
40
0
40
1
40
1
40
1
40
1
41
1
10
32.7071200314932
20
-0.59409840615811
30
0
41
1
10
32.7431409681706
20
-0.623624297725712
30
0
41
1
10
32.7790432668642
20
-0.654163506922401
30
0
41
1
10
32.8148395543541
20
-0.685702958636284
30
0
0
SPLINE
5
1A3
100
AcDbEntity
8
1
62
256
6
ByLayer
370
18
48
1
60
0
100
AcDbSpline
70
4
71
3
72
8
73
4
40
0
40
0
40
0
40
0
40
1
40
1
40
1
40
1
41
1
10
32.8148395543542
20
-0.685702958636341
30
0
41
1
10
32.985175978052
20
-0.851489146606923
30
0
41
1
10
33.1554060998541
20
-1.01806408194275
30
0
41
1
10
33.3256068413974
20
-1.18536742389313
30
0
0
SPLINE
5
1A4
100
AcDbEntity
8
1
62
256
6
ByLayer
370
18
48
1
60
0
100
AcDbSpline
70
4
71
3
72
8
73
4
40
0
40
0
40
0
40
0
40
1
40
1
40
1
40
1
41
1
10
33.3256068413973
20
-1.18536742389301
30
0
41
1
10
33.3763034048777
20
-1.23227714451389
30
0
41
1
10
33.4272075827457
20
-1.27692067036887
30
0
41
1
10
33.4783152408402
20
-1.31923647496268
30
0
0
SPLINE
5
1A5
100
AcDbEntity
8
1
62
256
6
ByLayer
370
18
48
1
60
0
100
AcDbSpline
70
4
71
3
72
28
73
24
40
0
40
0
40
0
40
0
40
0.125
40
0.125
40
0.250000000000001
40
0.250000000000001
40
0.375000000000001
40
0.375000000000001
40
0.500000000000001
40
0.500000000000001
40
0.625000000000002
40
0.625000000000002
40
0.687500000000001
40
0.687500000000001
40
0.750000000000001
40
0.750000000000001
40
0.812500000000001
40
0.812500000000001
40
0.875000000000001
40
0.875000000000001
40
0.9375
40
0.9375
40
1
40
1
40
1
40
1
41
1
10
33.4783152408402
20
-1.31923647496271
30
0
41
1
10
33.4855050831049
20
-1.32518947636564
30
0
41
1
10
33.4938740376573
20
-1.33229827539694
30
0
41
1
10
33.5123410787248
20
-1.34818570069956
30
0
41
1
10
33.5225397708668
20
-1.35705808896472
30
0
41
1
10
33.5436711996516
20
-1.37560614811156
30
0
41
1
10
33.5546847492906
20
-1.38535069332701
30
0
41
1
10
33.5775280323626
20
-1.40573095792735
30
0
41
1
10
33.5894146170954
20
-1.41641959995016
30
0
41
1
10
33.6131743200574
20
-1.43799206212654
30
0
41
1
10
33.6251431672067
20
-1.44895984954886
30
0
41
1
10
33.643223146992
20
-1.46573908117748
30
0
41
1
10
33.6493011354591
20
-1.4714156551309
30
0
41
1
10
33.661347896453
20
-1.48275346706342
30
0
41
1
10
33.6672955721361
20
-1.48839441620717
30
0
41
1
10
33.6790223417813
20
-1.49961898157795
30
0
41
1
10
33.6848016382494
20
-1.50520267612399
30
0
41
1
10
33.6961626254877
20
-1.51630658916344
30
0
41
1
10
33.7017656395503
20
-1.52184907959321
30
0
41
1
10
33.712410014812
20
-1.53253673817082
30
0
41
1
10
33.7174891552071
20
-1.53771808507426
30
0
41
1
10
33.7270718319842
20
-1.5476938022845
30
0
41
1
10
33.7315888899674
20
-1.55250480714392
30
0
41
1
10
33.7356185147793
20
-1.55693419392236
30
0
0
SPLINE
5
1A6
100
AcDbEntity
8
1
62
256
6
ByLayer
370
18
48
1
60
0
100
AcDbSpline
70
4
71
3
72
8
73
4
40
0
40
0
40
0
40
0
40
1
40
1
40
1
40
1
41
1
10
33.7356185147811
20
-1.5569341939204
30
0
41
1
10
33.8028411089267
20
-1.63082565618288
30
0
41
1
10
33.8696495105876
20
-1.70802423443382
30
0
41
1
10
33.9360721583053
20
-1.78836900106285
30
0
0
SPLINE
5
1A7
100
AcDbEntity
8
1
62
256
6
ByLayer
370
18
48
1
60
0
100
AcDbSpline
70
4
71
3
72
10
73
6
40
0
40
0
40
0
40
0
40
0.5
40
0.5
40
1
40
1
40
1
40
1
41
1
10
33.9360721583054
20
-1.78836900106288
30
0
41
1
10
33.9927210697006
20
-1.84453774449437
30
0
41
1
10
34.0491791767931
20
-1.90056573456778
30
0
41
1
10
34.1619307298415
20
-2.01215259729267
30
0
41
1
10
34.2182332831469
20
-2.06770404899981
30
0
41
1
10
34.2744313512613
20
-2.12304217529879
30
0
0
SPLINE
5
1A8
100
AcDbEntity
8
1
62
256
6
ByLayer
370
18
48
1
60
0
100
AcDbSpline
70
4
71
3
72
8
73
4
40
0
40
0
40
0
40
0
40
1
40
1
40
1
40
1
41
1
10
34.2744313512586
20
-2.12304217529527
30
0
41
1
10
34.3514115907152
20
-2.17100181016659
30
0
41
1
10
34.428902418156
20
-2.21331606417559
30
0
41
1
10
34.5068860114553
20
-2.24981974153979
30
0
0
SPLINE
5
1A9
100
AcDbEntity
8
1
62
256
6
ByLayer
370
18
48
1
60
0
100
AcDbSpline
70
4
71
3
72
28
73
24
40
0
40
0
40
0
40
0
40
0.124999999999999
40
0.124999999999999
40
0.249999999999998
40
0.249999999999998
40
0.374999999999998
40
0.374999999999998
40
0.499999999999997
40
0.499999999999997
40
0.624999999999996
40
0.624999999999996
40
0.687499999999997
40
0.687499999999997
40
0.749999999999997
40
0.749999999999997
40
0.812499999999998
40
0.812499999999998
40
0.874999999999999
40
0.874999999999999
40
0.937499999999999
40
0.937499999999999
40
1
40
1
40
1
40
1
41
1
10
34.5068860114553
20
-2.24981974153911
30
0
41
1
10
34.5140738858327
20
-2.25318434473462
30
0
41
1
10
34.5224402868109
20
-2.25797507773854
30
0
41
1
10
34.5409022014093
20
-2.26961854275922
30
0
41
1
10
34.5510987749606
20
-2.27655971979033
30
0
41
1
10
34.5722273597297
20
-2.29173197403264
30
0
41
1
10
34.5832398420923
20
-2.30001042170733
30
0
41
1
10
34.6060824386198
20
-2.31786981544224
30
0
41
1
10
34.6179696237365
20
-2.3275044934243
30
0
41
1
10
34.6417314537719
20
-2.34746403792718
30
0
41
1
10
34.6537019089911
20
-2.35785959117445
30
0
41
1
10
34.6717851744367
20
-2.37417190895144
30
0
41
1
10
34.6778645640055
20
-2.37975892626881
30
0
41
1
10
34.6899132081277
20
-2.39106630575904
30
0
41
1
10
34.6958617169362
20
-2.3967659448665
30
0
41
1
10
34.7075898135743
20
-2.40826913060053
30
0
41
1
10
34.713369604575
20
-2.41407255462909
30
0
41
1
10
34.7247310715055
20
-2.42580245440857
30
0
41
1
10
34.7303338119168
20
-2.43175422799311
30
0
41
1
10
34.7409765256223
20
-2.4434562490818
30
0
41
1
10
34.746054429822
20
-2.44924370669855
30
0
41
1
10
34.7556339030585
20
-2.46066685220566
30
0
41
1
10
34.7601489611688
20
-2.46632436358084
30
0
41
1
10
34.7641766591511
20
-2.47172014169721
30
0
0
SPLINE
5
1AA
100
AcDbEntity
8
1
62
256
6
ByLayer
370
18
48
1
60
0
100
AcDbSpline
70
4
71
3
72
8
73
4
40
0
40
0
40
0
40
0
40
1
40
1
40
1
40
1
41
1
10
34.7641766591529
20
-2.47172014169607
30
0
41
1
10
34.8628660265285
20
-2.60393112949862
30
0
41
1
10
34.9607075470828
20
-2.74219027812279
30
0
41
1
10
35.0576777965052
20
-2.88583385332643
30
0
0
SPLINE
5
1AB
100
AcDbEntity
8
1
62
256
6
ByLayer
370
18
48
1
60
0
100
AcDbSpline
70
4
71
3
72
8
73
4
40
0
40
0
40
0
40
0
40
1
40
1
40
1
40
1
41
1
10
35.0576777965052
20
-2.88583385332643
30
0
41
1
10
35.1128793787462
20
-2.93892403917968
30
0
41
1
10
35.1680015356747
20
-2.9917784640445
30
0
41
1
10
35.2230489145507
20
-3.04439102556574
30
0
0
SPLINE
5
1AC
100
AcDbEntity
8
1
62
256
6
ByLayer
370
18
48
1
60
0
100
AcDbSpline
70
4
71
3
72
8
73
4
40
0
40
0
40
0
40
0
40
1
40
1
40
1
40
1
41
1
10
35.2230489145507
20
-3.0443910255658
30
0
41
1
10
35.3263124055204
20
-3.07545544902854
30
0
41
1
10
35.430443910692
20
-3.09640788437761
30
0
41
1
10
35.5354170190125
20
-3.10689794770377
30
0
0
SPLINE
5
1AD
100
AcDbEntity
8
1
62
256
6
ByLayer
370
18
48
1
60
0
100
AcDbSpline
70
4
71
3
72
28
73
24
40
0
40
0
40
0
40
0
40
0.125000000000001
40
0.125000000000001
40
0.250000000000002
40
0.250000000000002
40
0.375000000000002
40
0.375000000000002
40
0.500000000000003
40
0.500000000000003
40
0.625000000000004
40
0.625000000000004
40
0.687500000000003
40
0.687500000000003
40
0.750000000000002
40
0.750000000000002
40
0.812500000000002
40
0.812500000000002
40
0.875000000000001
40
0.875000000000001
40
0.937500000000001
40
0.937500000000001
40
1
40
1
40
1
40
1
41
1
10
35.5354170190126
20
-3.10689794770383
30
0
41
1
10
35.5426132442286
20
-3.1076170733869
30
0
41
1
10
35.5509871484348
20
-3.10999616116729
30
0
41
1
10
35.5694595684983
20
-3.11714937913592
30
0
41
1
10
35.5796582490876
20
-3.12200342858344
30
0
41
1
10
35.6007882143863
20
-3.13344134113427
30
0
41
1
10
35.6118006735881
20
-3.14005129639625
30
0
41
1
10
35.6346417731133
20
-3.15494153518841
30
0
41
1
10
35.6465274559277
20
-3.16327469494453
30
0
41
1
10
35.6702859329811
20
-3.18110139053977
30
0
41
1
10
35.6822542499046
20
-3.19065031871293
30
0
41
1
10
35.700333279294
20
-3.20605883072051
30
0
41
1
10
35.7064105575982
20
-3.21140499054937
30
0
41
1
10
35.7184588083796
20
-3.22237837206461
30
0
41
1
10
35.7244071824095
20
-3.22798303514367
30
0
41
1
10
35.7361350470529
20
-3.23945318619306
30
0
41
1
10
35.7419147410138
20
-3.24531835733174
30
0
41
1
10
35.7532759484315
20
-3.25735303802119
30
0
41
1
10
35.7588798901077
20
-3.26355185540532
30
0
41
1
10
35.7695264335516
20
-3.27594976803221
30
0
41
1
10
35.7746062809145
20
-3.28218512930329
30
0
41
1
10
35.7841895194056
20
-3.29474144880663
30
0
41
1
10
35.7887077026923
20
-3.30109058404131
30
0
41
1
10
35.7927389078861
20
-3.30730491188623
30
0
0
SPLINE
5
1AE
100
AcDbEntity
8
1
62
256
6
ByLayer
370
18
48
1
60
0
100
AcDbSpline
70
4
71
3
72
8
73
4
40
0
40
0
40
0
40
0
40
1
40
1
40
1
40
1
41
1
10
35.7927389078877
20
-3.30730491188589
30
0
41
1
10
35.9071715304891
20
-3.48370918773443
30
0
41
1
10
36.0204667858161
20
-3.66651188014862
30
0
41
1
10
36.1326389091691
20
-3.85474011273891
30
0
0
SPLINE
5
1AF
100
AcDbEntity
8
1
62
256
6
ByLayer
370
18
48
1
60
0
100
AcDbSpline
70
4
71
3
72
8
73
4
40
0
40
0
40
0
40
0
40
1
40
1
40
1
40
1
41
1
10
36.2183277191518
20
-3.92423914440909
30
0
41
1
10
36.1897605463018
20
-3.9012167295889
30
0
41
1
10
36.161197820639
20
-3.87805022665333
30
0
41
1
10
36.1326389091691
20
-3.85474011273894
30
0
0
SPLINE
5
1B0
100
AcDbEntity
8
1
62
256
6
ByLayer
370
18
48
1
60
0
100
AcDbSpline
70
4
71
3
72
8
73
4
40
0
40
0
40
0
40
0
40
1
40
1
40
1
40
1
41
1
10
36.2183277191518
20
-3.92423914440911
30
0
41
1
10
36.3324339850451
20
-3.91683498668584
30
0
41
1
10
36.4476510144211
20
-3.89686529768395
30
0
41
1
10
36.5639327777839
20
-3.86419273802355
30
0
0
SPLINE
5
1B1
100
AcDbEntity
8
1
62
256
6
ByLayer
370
18
48
1
60
0
100
AcDbSpline
70
4
71
3
72
28
73
24
40
0
40
0
40
0
40
0
40
0.125000000000001
40
0.125000000000001
40
0.250000000000002
40
0.250000000000002
40
0.375000000000003
40
0.375000000000003
40
0.500000000000004
40
0.500000000000004
40
0.625000000000005
40
0.625000000000005
40
0.687500000000004
40
0.687500000000004
40
0.750000000000003
40
0.750000000000003
40
0.812500000000002
40
0.812500000000002
40
0.875000000000002
40
0.875000000000002
40
0.937500000000001
40
0.937500000000001
40
1
40
1
40
1
40
1
41
1
10
36.5639327777839
20
-3.86419273802358
30
0
41
1
10
36.5711366969142
20
-3.86216859880545
30
0
41
1
10
36.5795231819387
20
-3.86197778270136
30
0
41
1
10
36.5980266521725
20
-3.86425110334344
30
0
41
1
10
36.6082452981776
20
-3.86678505063949
30
0
41
1
10
36.6294103095265
20
-3.87398613908959
30
0
41
1
10
36.6404381074611
20
-3.87865478105488
30
0
41
1
10
36.6633042301548
20
-3.88998745195653
30
0
41
1
10
36.6751965950542
20
-3.89670002735809
30
0
41
1
10
36.6989597763217
20
-3.91172476683053
30
0
41
1
10
36.7109272791695
20
-3.92007591401133
30
0
41
1
10
36.7290002130999
20
-3.93402385735473
30
0
41
1
10
36.7350759452623
20
-3.93893928515158
30
0
41
1
10
36.7471057333972
20
-3.94917574675242
30
0
41
1
10
36.753044471323
20
-3.95448081683372
30
0
41
1
10
36.7647524272193
20
-3.96550136635722
30
0
41
1
10
36.7705218474671
20
-3.97121634612421
30
0
41
1
10
36.7818620809416
20
-3.9831229488322
30
0
41
1
10
36.7874533812815
20
-3.98934340530141
30
0
41
1
10
36.7980748420722
20
-4.00198471821227
30
0
41
1
10
36.8031428433061
20
-4.00844122787851
30
0
41
1
10
36.8127044658277
20
-4.02167534846092
30
0
41
1
10
36.8172127077397
20
-4.0284843100122
30
0
41
1
10
36.8212362231835
20
-4.0352900971603
30
0
0
SPLINE
5
1B2
100
AcDbEntity
8
1
62
256
6
ByLayer
370
18
48
1
60
0
100
AcDbSpline
70
4
71
3
72
10
73
6
40
0
40
0
40
0
40
0
40
0.5
40
0.5
40
1
40
1
40
1
40
1
41
1
10
36.8212362231852
20
-4.03529009716067
30
0
41
1
10
36.8784672151918
20
-4.13209647340568
30
0
41
1
10
36.935380729163
20
-4.23006732437921
30
0
41
1
10
37.0486829340504
20
-4.42824971821031
30
0
41
1
10
37.1050077117714
20
-4.52836726466921
30
0
41
1
10
37.1610656854302
20
-4.62939905544019
30
0
0
SPLINE
5
1B3
100
AcDbEntity
8
1
62
256
6
ByLayer
370
18
48
1
60
0
100
AcDbSpline
70
4
71
3
72
8
73
4
40
0
40
0
40
0
40
0
40
1
40
1
40
1
40
1
41
1
10
37.2470079345992
20
-4.68789619297505
30
0
41
1
10
37.2183432680689
20
-4.66858026445919
30
0
41
1
10
37.1896985768067
20
-4.64907969040286
30
0
41
1
10
37.1610656854302
20
-4.62939905544019
30
0
0
SPLINE
5
1B4
100
AcDbEntity
8
1
62
256
6
ByLayer
370
18
48
1
60
0
100
AcDbSpline
70
4
71
3
72
8
73
4
40
0
40
0
40
0
40
0
40
1
40
1
40
1
40
1
41
1
10
37.2470079345985
20
-4.68789619296689
30
0
41
1
10
37.3610242874843
20
-4.63729890582169
30
0
41
1
10
37.4762131117434
20
-4.57417697563284
30
0
41
1
10
37.5925024540624
20
-4.49874647789736
30
0
0
SPLINE
5
1B5
100
AcDbEntity
8
1
62
256
6
ByLayer
370
18
48
1
60
0
100
AcDbSpline
70
4
71
3
72
28
73
24
40
0
40
0
40
0
40
0
40
0.125000000000027
40
0.125000000000027
40
0.250000000000055
40
0.250000000000055
40
0.375000000000082
40
0.375000000000082
40
0.500000000000109
40
0.500000000000109
40
0.625000000000136
40
0.625000000000136
40
0.687500000000113
40
0.687500000000113
40
0.750000000000091
40
0.750000000000091
40
0.812500000000068
40
0.812500000000068
40
0.875000000000045
40
0.875000000000045
40
0.937500000000023
40
0.937500000000023
40
1
40
1
40
1
40
1
41
1
10
37.5925024540624
20
-4.49874647789738
30
0
41
1
10
37.5997041837665
20
-4.49407511210143
30
0
41
1
10
37.6080880256976
20
-4.49134896795417
30
0
41
1
10
37.6265866593452
20
-4.48871430273556
30
0
41
1
10
37.6368036682846
20
-4.48886224968629
30
0
41
1
10
37.6579670590115
20
-4.49161234323608
30
0
41
1
10
37.6689944825076
20
-4.49419214881848
30
0
41
1
10
37.6918614398982
20
-4.50159893060848
30
0
41
1
10
37.703755085835
20
-4.50647064014419
30
0
41
1
10
37.7275214304491
20
-4.51819772479584
30
0
41
1
10
37.7394909822867
20
-4.52507346357294
30
0
41
1
10
37.7575676551512
20
-4.53709598962331
30
0
41
1
10
37.763644958812
20
-4.5414155781713
30
0
41
1
10
37.775676045094
20
-4.55058260348937
30
0
41
1
10
37.7816152719414
20
-4.55541532509821
30
0
41
1
10
37.7933237505518
20
-4.56562672961761
30
0
41
1
10
37.799093205289
20
-4.57100474732286
30
0
41
1
10
37.8104328660112
20
-4.58239366144826
30
0
41
1
10
37.8160231099845
20
-4.58843357859359
30
0
41
1
10
37.8266411290821
20
-4.6009071817584
30
0
41
1
10
37.8317069625973
20
-4.6073741582322
30
0
41
1
10
37.8412634723377
20
-4.62085274457857
30
0
41
1
10
37.8457686739767
20
-4.62789830799909
30
0
41
1
10
37.8497893218102
20
-4.63507136347718
30
0
0
SPLINE
5
1B6
100
AcDbEntity
8
1
62
256
6
ByLayer
370
18
48
1
60
0
100
AcDbSpline
70
4
71
3
72
8
73
4
40
0
40
0
40
0
40
0
40
1
40
1
40
1
40
1
41
1
10
37.8497893218118
20
-4.63507136347826
30
0
41
1
10
37.9642586469234
20
-4.83929089565456
30
0
41
1
10
38.077557370378
20
-5.04626299557569
30
0
41
1
10
38.189697563066
20
-5.25497399082695
30
0
0
SPLINE
5
1B7
100
AcDbEntity
8
1
62
256
6
ByLayer
370
18
48
1
60
0
100
AcDbSpline
70
4
71
3
72
8
73
4
40
0
40
0
40
0
40
0
40
1
40
1
40
1
40
1
41
1
10
38.2755146246252
20
-5.2998090616974
30
0
41
1
10
38.2469122955619
20
-5.28505735166274
30
0
41
1
10
38.2183068174989
20
-5.27011212977788
30
0
41
1
10
38.1896975630661
20
-5.25497399082693
30
0
0
SPLINE
5
1B8
100
AcDbEntity
8
1
62
256
6
ByLayer
370
18
48
1
60
0
100
AcDbSpline
70
4
71
3
72
8
73
4
40
0
40
0
40
0
40
0
40
1
40
1
40
1
40
1
41
1
10
38.2755146246253
20
-5.29980906169746
30
0
41
1
10
38.3896483212267
20
-5.20701181130803
30
0
41
1
10
38.5048181656691
20
-5.10297915097232
30
0
41
1
10
38.6210291137427
20
-4.98792656434381
30
0
0
SPLINE
5
1B9
100
AcDbEntity
8
1
62
256
6
ByLayer
370
18
48
1
60
0
100
AcDbSpline
70
4
71
3
72
27
73
23
40
0
40
0
40
0
40
0
40
0.125000000000002
40
0.125000000000002
40
0.250000000000003
40
0.250000000000003
40
0.375000000000005
40
0.375000000000005
40
0.500000000000007
40
0.500000000000007
40
0.625000000000008
40
0.625000000000008
40
0.687500000000007
40
0.687500000000007
40
0.750000000000006
40
0.812500000000004
40
0.812500000000004
40
0.875000000000003
40
0.875000000000003
40
0.937500000000001
40
0.937500000000001
40
1
40
1
40
1
40
1
41
1
10
38.6210291137427
20
-4.98792656434387
30
0
41
1
10
38.6282425183542
20
-4.98078506113174
30
0
41
1
10
38.6366377806237
20
-4.97565199895868
30
0
41
1
10
38.6551528545498
20
-4.96828914617078
30
0
41
1
10
38.6653735563467
20
-4.96610168430541
30
0
41
1
10
38.6865359379744
20
-4.9644231799181
30
0
41
1
10
38.6975599111211
20
-4.96488738791774
30
0
41
1
10
38.7204156167876
20
-4.96823954328161
30
0
41
1
10
38.7323015699242
20
-4.97116694816958
30
0
41
1
10
38.7560552208245
20
-4.97931859558514
30
0
41
1
10
38.7680193436629
20
-4.98454426864657
30
0
41
1
10
38.786088953086
20
-4.99431934939227
30
0
41
1
10
38.7921634190213
20
-4.99792428036392
30
0
41
1
10
38.8041954782443
20
-5.00577095036132
30
0
41
1
10
38.8160757674282
20
-5.0142236491217
30
0
41
1
10
38.8276176104566
20
-5.02400141402427
30
0
41
1
10
38.8389608487664
20
-5.03454609432754
30
0
41
1
10
38.8445548067307
20
-5.04023268585129
30
0
41
1
10
38.8551820937304
20
-5.05218219526972
30
0
41
1
10
38.8602527026682
20
-5.0584739173344
30
0
41
1
10
38.8698186363001
20
-5.07180812108891
30
0
41
1
10
38.8743297799685
20
-5.07888810714158
30
0
41
1
10
38.8783563750176
20
-5.08622353850777
30
0
0
SPLINE
5
1BA
100
AcDbEntity
8
1
62
256
6
ByLayer
370
18
48
1
60
0
100
AcDbSpline
70
4
71
3
72
8
73
4
40
0
40
0
40
0
40
0
40
1
40
1
40
1
40
1
41
1
10
38.878356375019
20
-5.08622353850927
30
0
41
1
10
38.9928160961812
20
-5.29474001920423
30
0
41
1
10
39.1061301323018
20
-5.50391477116472
30
0
41
1
10
39.2183126707612
20
-5.71281952964233
30
0
0
SPLINE
5
1BB
100
AcDbEntity
8
1
62
256
6
ByLayer
370
18
48
1
60
0
100
AcDbSpline
70
4
71
3
72
8
73
4
40
0
40
0
40
0
40
0
40
1
40
1
40
1
40
1
41
1
10
39.3040349420375
20
-5.74273114421371
30
0
41
1
10
39.2754564589619
20
-5.73297320648021
30
0
41
1
10
39.2468825876022
20
-5.72300259314738
30
0
41
1
10
39.2183126707612
20
-5.71281952964233
30
0
0
SPLINE
5
1BC
100
AcDbEntity
8
1
62
256
6
ByLayer
370
18
48
1
60
0
100
AcDbSpline
70
4
71
3
72
8
73
4
40
0
40
0
40
0
40
0
40
1
40
1
40
1
40
1
41
1
10
39.3040349420365
20
-5.74273114419921
30
0
41
1
10
39.4181091242515
20
-5.6110562787224
30
0
41
1
10
39.5332954561911
20
-5.46915637219743
30
0
41
1
10
39.6495521300516
20
-5.31753788828058
30
0
0
SPLINE
5
1BD
100
AcDbEntity
8
1
62
256
6
ByLayer
370
18
48
1
60
0
100
AcDbSpline
70
4
71
3
72
28
73
24
40
0
40
0
40
0
40
0
40
0.125000000000029
40
0.125000000000029
40
0.250000000000059
40
0.250000000000059
40
0.375000000000088
40
0.375000000000088
40
0.500000000000117
40
0.500000000000117
40
0.625000000000147
40
0.625000000000147
40
0.687500000000122
40
0.687500000000122
40
0.750000000000098
40
0.750000000000098
40
0.812500000000073
40
0.812500000000073
40
0.875000000000049
40
0.875000000000049
40
0.937500000000024
40
0.937500000000024
40
1
40
1
40
1
40
1
41
1
10
39.6495521300516
20
-5.31753788828058
30
0
41
1
10
39.6567699866997
20
-5.30812457508506
30
0
41
1
10
39.6651738038039
20
-5.30070459532519
30
0
41
1
10
39.6837129445155
20
-5.28875300678459
30
0
41
1
10
39.6939510323987
20
-5.28424675849828
30
0
41
1
10
39.7151485329754
20
-5.27809659023151
30
0
41
1
10
39.7261899612212
20
-5.2763858144431
30
0
41
1
10
39.749077706824
20
-5.27549847776834
30
0
41
1
10
39.760975426824
20
-5.27635494930968
30
0
41
1
10
39.7847413123871
20
-5.28061482040499
30
0
41
1
10
39.7967070424182
20
-5.28400079227447
30
0
41
1
10
39.8147722708825
20
-5.29118655912674
30
0
41
1
10
39.8208451884994
20
-5.29395379285597
30
0
41
1
10
39.8328583798368
20
-5.30020189078184
30
0
41
1
10
39.8387883850346
20
-5.3036726598063
30
0
41
1
10
39.8504779600397
20
-5.31137140151472
30
0
41
1
10
39.8562377333792
20
-5.31559845216924
30
0
41
1
10
39.867557697778
20
-5.32492827460635
30
0
41
1
10
39.8731376577357
20
-5.33005836514485
30
0
41
1
10
39.8837370355828
20
-5.34105205100636
30
0
41
1
10
39.8887943060425
20
-5.34694068546602
30
0
41
1
10
39.898335606135
20
-5.35964588582769
30
0
41
1
10
39.9028353133306
20
-5.36650001649579
30
0
41
1
10
39.9068529930888
20
-5.37372594857337
30
0
0
SPLINE
5
1BE
100
AcDbEntity
8
1
62
256
6
ByLayer
370
18
48
1
60
0
100
AcDbSpline
70
4
71
3
72
10
73
6
40
0
40
0
40
0
40
0
40
0.5
40
0.5
40
1
40
1
40
1
40
1
41
1
10
39.9068529930902
20
-5.37372594857541
30
0
41
1
10
39.9641094393357
20
-5.47670359151573
30
0
41
1
10
40.0210452530124
20
-5.579288679467
30
0
41
1
10
40.1343863628668
20
-5.78363165539832
30
0
41
1
10
40.1907275142672
20
-5.88527700355425
30
0
41
1
10
40.246796827619
20
-5.98636857800261
30
0
0
SPLINE
5
1BF
100
AcDbEntity
8
1
62
256
6
ByLayer
370
18
48
1
60
0
100
AcDbSpline
70
4
71
3
72
8
73
4
40
0
40
0
40
0
40
0
40
1
40
1
40
1
40
1
41
1
10
40.3327235390651
20
-6.00064675156193
30
0
41
1
10
40.3040660034169
20
-5.99611499236823
30
0
41
1
10
40.2754272544208
20
-5.9913552079334
30
0
41
1
10
40.246796827619
20
-5.98636857800258
30
0
0
SPLINE
5
1C0
100
AcDbEntity
8
1
62
256
6
ByLayer
370
18
48
1
60
0
100
AcDbSpline
70
4
71
3
72
8
73
4
40
0
40
0
40
0
40
0
40
1
40
1
40
1
40
1
41
1
10
40.3327235390642
20
-6.00064675154931
30
0
41
1
10
40.4467110098146
20
-5.8348118020586
30
0
41
1
10
40.5618684994025
20
-5.66000758567753
30
0
41
1
10
40.6781267025955
20
-5.47699657910226
30
0
0
SPLINE
5
1C1
100
AcDbEntity
8
1
62
256
6
ByLayer
370
18
48
1
60
0
100
AcDbSpline
70
4
71
3
72
28
73
24
40
0
40
0
40
0
40
0
40
0.124999999999971
40
0.124999999999971
40
0.249999999999943
40
0.249999999999943
40
0.374999999999915
40
0.374999999999915
40
0.499999999999886
40
0.499999999999886
40
0.624999999999858
40
0.624999999999858
40
0.687499999999881
40
0.687499999999881
40
0.749999999999905
40
0.749999999999905
40
0.812499999999929
40
0.812499999999929
40
0.874999999999952
40
0.874999999999952
40
0.937499999999976
40
0.937499999999976
40
1
40
1
40
1
40
1
41
1
10
40.6781267025955
20
-5.47699657910226
30
0
41
1
10
40.6853424095964
20
-5.4656377780446
30
0
41
1
10
40.6937431931051
20
-5.45619167903433
30
0
41
1
10
40.7122759102563
20
-5.44007088167555
30
0
41
1
10
40.7225109594307
20
-5.43340390514746
30
0
41
1
10
40.7437038647111
20
-5.42299269296154
30
0
41
1
10
40.7547433814066
20
-5.41916235067796
30
0
41
1
10
40.7776288438908
20
-5.41405388836941
30
0
41
1
10
40.7895266774917
20
-5.41280163501045
30
0
41
1
10
40.8132943318994
20
-5.41300679608284
30
0
41
1
10
40.8252616816577
20
-5.41442792504276
30
0
41
1
10
40.843330355311
20
-5.41876765178512
30
0
41
1
10
40.8494046409965
20
-5.42059856418115
30
0
41
1
10
40.861420788685
20
-5.42503798903374
30
0
41
1
10
40.867352173164
20
-5.42763759543729
30
0
41
1
10
40.8790441708711
20
-5.4336655733087
30
0
41
1
10
40.8848049868931
20
-5.43709293801231
30
0
41
1
10
40.8961264957495
20
-5.44490529853553
30
0
41
1
10
40.901706854704
20
-5.44931548458121
30
0
41
1
10
40.9123058590414
20
-5.45900647529069
30
0
41
1
10
40.9173624550465
20
-5.46430698579061
30
0
41
1
10
40.9269014584072
20
-5.47598510091484
30
0
41
1
10
40.9313995335953
20
-5.48239952200259
30
0
41
1
10
40.9354155113978
20
-5.48929010860346
30
0
0
SPLINE
5
1C2
100
AcDbEntity
8
1
62
256
6
ByLayer
370
18
48
1
60
0
100
AcDbSpline
70
4
71
3
72
10
73
6
40
0
40
0
40
0
40
0
40
0.5
40
0.5
40
1
40
1
40
1
40
1
41
1
10
40.9354155113992
20
-5.48929010860593
30
0
41
1
10
40.9841350435312
20
-5.57288274079517
30
0
41
1
10
41.0326290579799
20
-5.65583162786729
30
0
41
1
10
41.1292289111573
20
-5.82042479048943
30
0
41
1
10
41.1773212642215
20
-5.90204582919645
30
0
41
1
10
41.2251886030755
20
-5.98290134666712
30
0
0
SPLINE
5
1C3
100
AcDbEntity
8
1
62
256
6
ByLayer
370
18
48
1
60
0
100
AcDbSpline
70
4
71
3
72
8
73
4
40
0
40
0
40
0
40
0
40
1
40
1
40
1
40
1
41
1
10
41.2251886030755
20
-5.98290134666715
30
0
41
1
10
41.2386663294954
20
-5.97875719317096
30
0
41
1
10
41.2521483339676
20
-5.97455760021225
30
0
41
1
10
41.265634723353
20
-5.97030265090754
30
0
0
SPLINE
5
1C4
100
AcDbEntity
8
1
62
256
6
ByLayer
370
18
48
1
60
0
100
AcDbSpline
70
4
71
3
72
8
73
4
40
0
40
0
40
0
40
0
40
1
40
1
40
1
40
1
41
1
10
41.3234058001602
20
-5.95174642426329
30
0
41
1
10
41.3665521498709
20
-5.9376421144209
30
0
41
1
10
41.4097448535202
20
-5.92297350109902
30
0
41
1
10
41.4529874003822
20
-5.90774329825368
30
0
0
SPLINE
5
1C5
100
AcDbEntity
8
1
62
256
6
ByLayer
370
18
48
1
60
0
100
AcDbSpline
70
4
71
3
72
8
73
4
40
0
40
0
40
0
40
0
40
1
40
1
40
1
40
1
41
1
10
41.4529874003822
20
-5.90774329825382
30
0
41
1
10
41.5369746930526
20
-5.76213567297407
30
0
41
1
10
41.6215406329876
20
-5.61290511658731
30
0
41
1
10
41.7066440083172
20
-5.46043138268857
30
0
0
SPLINE
5
1C6
100
AcDbEntity
8
1
62
256
6
ByLayer
370
18
48
1
60
0
100
AcDbSpline
70
4
71
3
72
28
73
24
40
0
40
0
40
0
40
0
40
0.125
40
0.125
40
0.25
40
0.25
40
0.374999999999999
40
0.374999999999999
40
0.499999999999999
40
0.499999999999999
40
0.624999999999999
40
0.624999999999999
40
0.687499999999999
40
0.687499999999999
40
0.749999999999999
40
0.749999999999999
40
0.812499999999999
40
0.812499999999999
40
0.875
40
0.875
40
0.9375
40
0.9375
40
1
40
1
40
1
40
1
41
1
10
41.7066440083172
20
-5.46043138268854
30
0
41
1
10
41.713873119923
20
-5.44747949170846
30
0
41
1
10
41.7222878045012
20
-5.43631069574536
30
0
41
1
10
41.7408423655116
20
-5.41655158326361
30
0
41
1
10
41.75108438647
20
-5.40795276829755
30
0
41
1
10
41.7722819500528
20
-5.39364900279557
30
0
41
1
10
41.7833203445011
20
-5.38784092975177
30
0
41
1
10
41.8061978235833
20
-5.37871190406455
30
0
41
1
10
41.818088617045
20
-5.37540871773143
30
0
41
1
10
41.8418430372699
20
-5.37158168573882
30
0
41
1
10
41.8538038710637
20
-5.37100443759746
30
0
41
1
10
41.8718634252803
20
-5.37237256236682
30
0
41
1
10
41.8779342924187
20
-5.37321204233984
30
0
41
1
10
41.889948573158
20
-5.37570689823096
30
0
41
1
10
41.8958794370214
20
-5.37735466082503
30
0
41
1
10
41.9075710229002
20
-5.3815229181258
30
0
41
1
10
41.9133319478964
20
-5.3840423533733
30
0
41
1
10
41.9246541160398
20
-5.3900890290482
30
0
41
1
10
41.9302365720824
20
-5.39363941698448
30
0
41
1
10
41.9408417330395
20
-5.40172212098898
30
0
41
1
10
41.9459016597664
20
-5.40626751109966
30
0
41
1
10
41.9554474754512
20
-5.4165518426621
30
0
41
1
10
41.9599502914907
20
-5.42232698485319
30
0
41
1
10
41.9639713473997
20
-5.42867094787695
30
0
0
SPLINE
5
1C7
100
AcDbEntity
8
1
62
256
6
ByLayer
370
18
48
1
60
0
100
AcDbSpline
70
4
71
3
72
8
73
4
40
0
40
0
40
0
40
0
40
1
40
1
40
1
40
1
41
1
10
41.9639713474009
20
-5.42867094787951
30
0
41
1
10
42.0093224455237
20
-5.50022073383295
30
0
41
1
10
42.054482486473
20
-5.57092536928241
30
0
41
1
10
42.0994764756866
20
-5.64078095512411
30
0
0
SPLINE
5
1C8
100
AcDbEntity
8
1
62
256
6
ByLayer
370
18
48
1
60
0
100
AcDbSpline
70
4
71
3
72
8
73
4
40
0
40
0
40
0
40
0
40
1
40
1
40
1
40
1
41
1
10
42.0994764756866
20
-5.64078095512423
30
0
41
1
10
42.3006912542134
20
-5.54604645714039
30
0
41
1
10
42.5028313523033
20
-5.44060608833746
30
0
41
1
10
42.7063052688339
20
-5.32518736013498
30
0
0
SPLINE
5
1C9
100
AcDbEntity
8
1
62
256
6
ByLayer
370
18
48
1
60
0
100
AcDbSpline
70
4
71
3
72
8
73
4
40
0
40
0
40
0
40
0
40
1
40
1
40
1
40
1
41
1
10
42.7063052688339
20
-5.32518736013506
30
0
41
1
10
42.7159186753242
20
-5.30646529221804
30
0
41
1
10
42.7255394934186
20
-5.28771519721946
30
0
41
1
10
42.7351679722575
20
-5.26893713463636
30
0
0
SPLINE
5
1CA
100
AcDbEntity
8
1
62
256
6
ByLayer
370
18
48
1
60
0
100
AcDbSpline
70
4
71
3
72
26
73
22
40
0
40
0
40
0
40
0
40
0.125000000000001
40
0.125000000000001
40
0.187500000000002
40
0.187500000000002
40
0.250000000000002
40
0.250000000000002
40
0.375000000000004
40
0.375000000000004
40
0.437500000000003
40
0.437500000000003
40
0.500000000000002
40
0.500000000000002
40
0.625000000000002
40
0.625000000000002
40
0.750000000000001
40
0.750000000000001
40
0.875000000000001
40
0.875000000000001
40
1
40
1
40
1
40
1
41
1
10
42.7351679722575
20
-5.26893713463633
30
0
41
1
10
42.7416247921112
20
-5.2563446400865
30
0
41
1
10
42.7490345621641
20
-5.24502007980706
30
0
41
1
10
42.7612134084006
20
-5.22944215963858
30
0
41
1
10
42.7654545092218
20
-5.22449014761455
30
0
41
1
10
42.7742740268691
20
-5.21503374768821
30
0
41
1
10
42.778854749473
20
-5.21053201113205
30
0
41
1
10
42.7928096885565
20
-5.19790113279819
30
0
41
1
10
42.8024802042722
20
-5.19053909979456
30
0
41
1
10
42.817470928468
20
-5.18091291591645
30
0
41
1
10
42.8225495540591
20
-5.17794288051806
30
0
41
1
10
42.8328681091726
20
-5.17247846772131
30
0
41
1
10
42.8381292105108
20
-5.16997604272913
30
0
41
1
10
42.8539510615515
20
-5.16328645196634
30
0
41
1
10
42.8645676254432
20
-5.15988800600033
30
0
41
1
10
42.8859216964713
20
-5.15525290324248
30
0
41
1
10
42.896666203406
20
-5.15401144008655
30
0
41
1
10
42.9182480073848
20
-5.1540634670028
30
0
41
1
10
42.9288015341367
20
-5.15535239942602
30
0
41
1
10
42.9493273032572
20
-5.16090662414646
30
0
41
1
10
42.9594051925099
20
-5.16524959044761
30
0
41
1
10
42.9685956877481
20
-5.17135392552149
30
0
0
SPLINE
5
1CB
100
AcDbEntity
8
1
62
256
6
ByLayer
370
18
48
1
60
0
100
AcDbSpline
70
4
71
3
72
10
73
6
40
0
40
0
40
0
40
0
40
0.5
40
0.5
40
1
40
1
40
1
40
1
41
1
10
42.968595687749
20
-5.17135392554582
30
0
41
1
10
43.0400009901026
20
-5.12812064781897
30
0
41
1
10
43.1115555396284
20
-5.0836871224727
30
0
41
1
10
43.2552029052366
20
-4.99245193926984
30
0
41
1
10
43.3273242082276
20
-4.94565050674692
30
0
41
1
10
43.3999998679601
20
-4.89771022253353
30
0
0
SPLINE
5
1CC
100
AcDbEntity
8
1
62
256
6
ByLayer
370
18
48
1
60
0
100
AcDbSpline
70
4
71
3
72
14
73
10
40
0
40
0
40
0
40
0
40
0.25
40
0.25
40
0.5
40
0.5
40
0.75
40
0.75
40
1
40
1
40
1
40
1
41
1
10
43.3999998679601
20
-4.89771022253353
30
0
41
1
10
43.4473342573348
20
-4.83495612956
30
0
41
1
10
43.4952573775741
20
-4.77176213887464
30
0
41
1
10
43.5924458497086
20
-4.64458757305223
30
0
41
1
10
43.641756461893
20
-4.5805488543335
30
0
41
1
10
43.7417308535504
20
-4.45208425238491
30
0
41
1
10
43.7924005446445
20
-4.38764799915921
30
0
41
1
10
43.89516381579
20
-4.25872531647775
30
0
41
1
10
43.9471917489353
20
-4.1943195670469
30
0
41
1
10
43.9999999999999
20
-4.13005140859639
30
0
0
SPLINE
5
1CD
100
AcDbEntity
8
1
62
256
6
ByLayer
370
18
48
1
60
0
100
AcDbSpline
70
4
71
3
72
26
73
22
40
0
40
0
40
0
40
0
40
0.0283350195735058
40
0.0283350195735058
40
0.0566700391470116
40
0.0566700391470116
40
0.113340078294022
40
0.113340078294022
40
0.170010117441033
40
0.170010117441033
40
0.226680156588043
40
0.226680156588043
40
0.453360313176085
40
0.453360313176085
40
0.680040469764126
40
0.680040469764126
40
0.906720626352168
40
0.906720626352168
40
0.963390665499178
40
0.963390665499178
40
1
40
1
40
1
40
1
41
1
10
44.0000000000001
20
-4.13005140859633
30
0
41
1
10
44.0000000000001
20
-4.11506654317697
30
0
41
1
10
44
20
-4.10018220257541
30
0
41
1
10
44
20
-4.07061656413333
30
0
41
1
10
44.0000000000001
20
-4.05593943314585
30
0
41
1
10
44.0000000000001
20
-4.01207301967821
30
0
41
1
10
44
20
-3.98301149421599
30
0
41
1
10
44
20
-3.92534282914355
30
0
41
1
10
44
20
-3.89668483838514
30
0
41
1
10
44
20
-3.84000161154549
30
0
41
1
10
44.0000000000001
20
-3.81198261652259
30
0
41
1
10
44
20
-3.6734921943596
30
0
41
1
10
44
20
-3.56782026702911
30
0
41
1
10
44
20
-3.3664568675207
30
0
41
1
10
44
20
-3.27076102692107
30
0
41
1
10
44
20
-3.08935420696577
30
0
41
1
10
44
20
-3.00363545310643
30
0
41
1
10
44
20
-2.9028813682483
30
0
41
1
10
44
20
-2.88305050018317
30
0
41
1
10
44
20
-2.85094055516288
30
0
41
1
10
44
20
-2.83846667765033
30
0
41
1
10
44
20
-2.82615140860429
30
0
0
SPLINE
5
1CE
100
AcDbEntity
8
1
62
256
6
ByLayer
370
18
48
1
60
0
100
AcDbSpline
70
4
71
3
72
14
73
10
40
0
40
0
40
0
40
0
40
0.499999999999999
40
0.499999999999999
40
0.749999999999999
40
0.749999999999999
40
0.875
40
0.875
40
1
40
1
40
1
40
1
41
1
10
44
20
-2.76658823294625
30
0
41
1
10
43.9022559353515
20
-2.75407364869304
30
0
41
1
10
43.8033706548267
20
-2.74123706909603
30
0
41
1
10
43.6533561470215
20
-2.72240438093692
30
0
41
1
10
43.6030699624413
20
-2.71620237691474
30
0
41
1
10
43.5272207759746
20
-2.70714123270571
30
0
41
1
10
43.5018678330316
20
-2.70416200448327
30
0
41
1
10
43.4510191656242
20
-2.69831652437384
30
0
41
1
10
43.4255032908492
20
-2.69551199876653
30
0
41
1
10
43.4000000420218
20
-2.69251924940298
30
0
0
SPLINE
5
1CF
100
AcDbEntity
8
1
62
256
6
ByLayer
370
18
48
1
60
0
100
AcDbSpline
70
4
71
3
72
10
73
6
40
0
40
0
40
0
40
0
40
0.5
40
0.5
40
1
40
1
40
1
40
1
41
1
10
43.4000000420218
20
-2.69251924940301
30
0
41
1
10
43.2994453320032
20
-2.63185620539503
30
0
41
1
10
43.1994184554614
20
-2.56912402345867
30
0
41
1
10
43.0004034067999
20
-2.43947954889717
30
0
41
1
10
42.9013901061427
20
-2.3725965482779
30
0
41
1
10
42.8027968590355
20
-2.30370174013862
30
0
0
SPLINE
5
1D0
100
AcDbEntity
8
1
62
256
6
ByLayer
370
18
48
1
60
0
100
AcDbSpline
70
4
71
3
72
8
73
4
40
0
40
0
40
0
40
0
40
1
40
1
40
1
40
1
41
1
10
42.8027968590355
20
-2.30370174013862
30
0
41
1
10
42.7871869395814
20
-2.27370751862895
30
0
41
1
10
42.7715597295225
20
-2.24382672261913
30
0
41
1
10
42.7559137759601
20
-2.2140609724226
30
0
0
SPLINE
5
1D1
100
AcDbEntity
8
1
62
256
6
ByLayer
370
18
48
1
60
0
100
AcDbSpline
70
4
71
3
72
26
73
22
40
0
40
0
40
0
40
0
40
0.12499999999998
40
0.12499999999998
40
0.24999999999996
40
0.24999999999996
40
0.374999999999939
40
0.374999999999939
40
0.499999999999919
40
0.499999999999919
40
0.624999999999899
40
0.624999999999899
40
0.749999999999879
40
0.749999999999879
40
0.812499999999909
40
0.812499999999909
40
0.874999999999939
40
0.874999999999939
40
0.93749999999997
40
0.93749999999997
40
1
40
1
40
1
40
1
41
1
10
42.7559137759588
20
-2.21406097242002
30
0
41
1
10
42.7488421922465
20
-2.20060759014905
30
0
41
1
10
42.7406196886807
20
-2.1872643215697
30
0
41
1
10
42.7224628633015
20
-2.16074950353206
30
0
41
1
10
42.7124362545233
20
-2.14749812395735
30
0
41
1
10
42.6915984215156
20
-2.12208859359311
30
0
41
1
10
42.680711213572
20
-2.10981068385166
30
0
41
1
10
42.6580706345822
20
-2.08604493932475
30
0
41
1
10
42.6462382332318
20
-2.07449807698589
30
0
41
1
10
42.6225093500224
20
-2.0530077809041
30
0
41
1
10
42.6105286848273
20
-2.04296434664127
30
0
41
1
10
42.5863355891959
20
-2.02442986772871
30
0
41
1
10
42.5740157136883
20
-2.01588127988811
30
0
41
1
10
42.5561696045757
20
-2.0050881754164
30
0
41
1
10
42.5503013799686
20
-2.00180882884618
30
0
41
1
10
42.538755483205
20
-1.99598848848405
30
0
41
1
10
42.5330487938279
20
-1.99344002571217
30
0
41
1
10
42.5222023418681
20
-1.989370914955
30
0
41
1
10
42.5170264031509
20
-1.98782732518717
30
0
41
1
10
42.5072638010994
20
-1.98590959104439
30
0
41
1
10
42.5026726567782
20
-1.98554560710858
30
0
41
1
10
42.4985915963184
20
-1.98591145644679
30
0
0
SPLINE
5
1D2
100
AcDbEntity
8
1
62
256
6
ByLayer
370
18
48
1
60
0
100
AcDbSpline
70
4
71
3
72
8
73
4
40
0
40
0
40
0
40
0
40
1
40
1
40
1
40
1
41
1
10
42.4985915963136
20
-1.98591145645514
30
0
41
1
10
42.4581258173592
20
-1.98953903772221
30
0
41
1
10
42.4178029771847
20
-1.99173822799213
30
0
41
1
10
42.3776100095054
20
-1.99249325521495
30
0
0
SPLINE
5
1D3
100
AcDbEntity
8
1
62
256
6
ByLayer
370
18
48
1
60
0
100
AcDbSpline
70
4
71
3
72
10
73
6
40
0
40
0
40
0
40
0
40
0.5
40
0.5
40
1
40
1
40
1
40
1
41
1
10
42.3776100095054
20
-1.99249325521495
30
0
41
1
10
42.3029249371574
20
-1.93538314221317
30
0
41
1
10
42.2284178120863
20
-1.87713528342456
30
0
41
1
10
42.0796834301723
20
-1.75840610744018
30
0
41
1
10
42.0054887178443
20
-1.69794975762653
30
0
41
1
10
41.9316158632213
20
-1.63658736211173
30
0
0
SPLINE
5
1D4
100
AcDbEntity
8
1
62
256
6
ByLayer
370
18
48
1
60
0
100
AcDbSpline
70
4
71
3
72
8
73
4
40
0
40
0
40
0
40
0
40
1
40
1
40
1
40
1
41
1
10
41.9316158632215
20
-1.63658736211147
30
0
41
1
10
41.8638473540519
20
-1.51493022110068
30
0
41
1
10
41.7957561157059
20
-1.39591131274486
30
0
41
1
10
41.7273055252257
20
-1.27984811704653
30
0
0
SPLINE
5
1D5
100
AcDbEntity
8
1
62
256
6
ByLayer
370
18
48
1
60
0
100
AcDbSpline
70
4
71
3
72
26
73
22
40
0
40
0
40
0
40
0
40
0.124999999999999
40
0.124999999999999
40
0.249999999999999
40
0.249999999999999
40
0.374999999999998
40
0.374999999999998
40
0.499999999999997
40
0.499999999999997
40
0.624999999999996
40
0.624999999999996
40
0.749999999999996
40
0.749999999999996
40
0.812499999999997
40
0.812499999999997
40
0.874999999999998
40
0.874999999999998
40
0.937499999999999
40
0.937499999999999
40
1
40
1
40
1
40
1
41
1
10
41.7273055252255
20
-1.27984811704596
30
0
41
1
10
41.7202353295792
20
-1.26786006120653
30
0
41
1
10
41.7120138343922
20
-1.25564885069673
30
0
41
1
10
41.6938574429837
20
-1.23090633211081
30
0
41
1
10
41.6838299856107
20
-1.218290010272
30
0
41
1
10
41.6629890019939
20
-1.19367233155273
30
0
41
1
10
41.6520996959395
20
-1.18156082974562
30
0
41
1
10
41.6294544257559
20
-1.15769428573609
30
0
41
1
10
41.6176196825398
20
-1.14587411838596
30
0
41
1
10
41.5938874676289
20
-1.1234015873043
30
0
41
1
10
41.5819054663994
20
-1.11265163965396
30
0
41
1
10
41.5577106265699
20
-1.09221630045343
30
0
41
1
10
41.5453915907103
20
-1.08245919737845
30
0
41
1
10
41.5275490663311
20
-1.06946937595862
30
0
41
1
10
41.5216821608258
20
-1.06539183017463
30
0
41
1
10
41.5101391200282
20
-1.05782122139544
30
0
41
1
10
41.5044343537134
20
-1.05431444831933
30
0
41
1
10
41.4935922981066
20
-1.04820208267589
30
0
41
1
10
41.4884185915436
20
-1.04556926126176
30
0
41
1
10
41.478660353411
20
-1.04131189641833
30
0
41
1
10
41.4740714605957
20
-1.0396932852816
30
0
41
1
10
41.4699922481287
20
-1.03874677229496
30
0
0
SPLINE
5
1D6
100
AcDbEntity
8
1
62
256
6
ByLayer
370
18
48
1
60
0
100
AcDbSpline
70
4
71
3
72
10
73
6
40
0
40
0
40
0
40
0
40
0.5
40
0.5
40
1
40
1
40
1
40
1
41
1
10
41.4699922481242
20
-1.03874677230311
30
0
41
1
10
41.4129271706825
20
-1.02550577608261
30
0
41
1
10
41.35615119335
20
-1.00939646096899
30
0
41
1
10
41.2430920945481
20
-0.971440596648989
30
0
41
1
10
41.1868730285321
20
-0.949638671314091
30
0
41
1
10
41.1309123394619
20
-0.925094707789469
30
0
0
SPLINE
5
1D7
100
AcDbEntity
8
1
62
256
6
ByLayer
370
18
48
1
60
0
100
AcDbSpline
70
4
71
3
72
8
73
4
40
0
40
0
40
0
40
0
40
1
40
1
40
1
40
1
41
1
10
41.0450206509646
20
-0.834969516421666
30
0
41
1
10
41.0736533189655
20
-0.865046871442047
30
0
41
1
10
41.1022833292601
20
-0.895089110652464
30
0
41
1
10
41.130912339462
20
-0.925094707789356
30
0
0
SPLINE
5
1D8
100
AcDbEntity
8
1
62
256
6
ByLayer
370
18
48
1
60
0
100
AcDbSpline
70
4
71
3
72
8
73
4
40
0
40
0
40
0
40
0
40
1
40
1
40
1
40
1
41
1
10
41.0450206509646
20
-0.834969516421694
30
0
41
1
10
40.9305113810586
20
-0.64896414778076
30
0
41
1
10
40.8150713762288
20
-0.471758435769488
30
0
41
1
10
40.6987016761574
20
-0.304645533607783
30
0
0
SPLINE
5
1D9
100
AcDbEntity
8
1
62
256
6
ByLayer
370
18
48
1
60
0
100
AcDbSpline
70
4
71
3
72
26
73
22
40
0
40
0
40
0
40
0
40
0.125
40
0.125
40
0.25
40
0.25
40
0.375
40
0.375
40
0.5
40
0.5
40
0.625
40
0.625
40
0.75
40
0.75
40
0.8125
40
0.8125
40
0.875
40
0.875
40
0.9375
40
0.9375
40
1
40
1
40
1
40
1
41
1
10
40.6987016761574
20
-0.304645533607754
30
0
41
1
10
40.6916299384429
20
-0.294490152850841
30
0
41
1
10
40.6834073092938
20
-0.283783264506269
30
0
41
1
10
40.6652503314349
20
-0.261565198362973
30
0
41
1
10
40.6552239851876
20
-0.249967339743051
30
0
41
1
10
40.6343867214566
20
-0.226887675162516
30
0
41
1
10
40.6234996285003
20
-0.215308423441968
30
0
41
1
10
40.6008592369087
20
-0.192060380022156
30
0
41
1
10
40.5890270034961
20
-0.180321752900824
30
0
41
1
10
40.5652986021765
20
-0.157538203805103
30
0
41
1
10
40.5533182269507
20
-0.146401677256876
30
0
41
1
10
40.5291257348125
20
-0.124671835471219
30
0
41
1
10
40.5168060574487
20
-0.113992562465029
30
0
41
1
10
40.498959631108
20
-0.0991838132700593
30
0
41
1
10
40.4930912220364
20
-0.0944264155503731
30
0
41
1
10
40.4815448203501
20
-0.0853246521166113
30
0
41
1
10
40.4758378143291
20
-0.080960295485653
30
0
41
1
10
40.4649906508122
20
-0.0729793758410153
30
0
41
1
10
40.4598143179211
20
-0.0693323485168378
30
0
41
1
10
40.4500508646844
20
-0.0628563447326655
30
0
41
1
10
40.4454592912176
20
-0.060028894577556
30
0
41
1
10
40.4413778708617
20
-0.0577967060520734
30
0
0
SPLINE
5
1DA
100
AcDbEntity
8
1
62
256
6
ByLayer
370
18
48
1
60
0
100
AcDbSpline
70
4
71
3
72
10
73
6
40
0
40
0
40
0
40
0
40
0.5
40
0.5
40
1
40
1
40
1
40
1
41
1
10
40.4413778708573
20
-0.0577967060592073
30
0
41
1
10
40.3842980864127
20
-0.0265789365702744
30
0
41
1
10
40.3275057085224
20
0.0073875873939357
30
0
41
1
10
40.2144147593376
20
0.0808348999672432
30
0
41
1
10
40.1581745849715
20
0.120261363578692
30
0
41
1
10
40.1022029254688
20
0.162319587141042
30
0
0
SPLINE
5
1DB
100
AcDbEntity
8
1
62
256
6
ByLayer
370
18
48
1
60
0
100
AcDbSpline
70
4
71
3
72
8
73
4
40
0
40
0
40
0
40
0
40
1
40
1
40
1
40
1
41
1
10
40.0163166585129
20
0.253335559072752
30
0
41
1
10
40.0449486554348
20
0.223003172998403
30
0
41
1
10
40.0735769434625
20
0.192664074364472
30
0
41
1
10
40.1022029254689
20
0.162319587141013
30
0
0
SPLINE
5
1DC
100
AcDbEntity
8
1
62
256
6
ByLayer
370
18
48
1
60
0
100
AcDbSpline
70
4
71
3
72
8
73
4
40
0
40
0
40
0
40
0
40
1
40
1
40
1
40
1
41
1
10
40.016316658513
20
0.253335559072667
30
0
41
1
10
39.9018780307303
20
0.406339630428391
30
0
41
1
10
39.7864735409523
20
0.548949104834946
30
0
41
1
10
39.6701040201222
20
0.680144960023767
30
0
0
SPLINE
5
1DD
100
AcDbEntity
8
1
62
256
6
ByLayer
370
18
48
1
60
0
100
AcDbSpline
70
4
71
3
72
26
73
22
40
0
40
0
40
0
40
0
40
0.125
40
0.125
40
0.25
40
0.25
40
0.375
40
0.375
40
0.5
40
0.5
40
0.625
40
0.625
40
0.75
40
0.75
40
0.8125
40
0.8125
40
0.875
40
0.875
40
0.9375
40
0.9375
40
1
40
1
40
1
40
1
41
1
10
39.6701040201218
20
0.68014496002499
30
0
41
1
10
39.6630306798875
20
0.688119495921086
30
0
41
1
10
39.654805665938
20
0.69695598500067
30
0
41
1
10
39.6366425144415
20
0.715891902647286
30
0
41
1
10
39.626612155558
20
0.726077710853332
30
0
41
1
10
39.6057673264637
20
0.746837391825267
30
0
41
1
10
39.5948766065612
20
0.757492554286245
30
0
41
1
10
39.5722296563721
20
0.779336798681015
30
0
41
1
10
39.5603952492006
20
0.790597154509783
30
0
41
1
10
39.5366651490966
20
0.812921265763407
30
0
41
1
10
39.5246846644511
20
0.824068358026835
30
0
41
1
10
39.5004935200166
20
0.846360694388324
30
0
41
1
10
39.488177405242
20
0.857600157847486
30
0
41
1
10
39.4703385600747
20
0.873725422111448
30
0
41
1
10
39.4644727027686
20
0.879001731694075
30
0
41
1
10
39.4529313712104
20
0.889327752922526
30
0
41
1
10
39.4472273943672
20
0.894402395871367
30
0
41
1
10
39.4363862766678
20
0.903983373987643
30
0
41
1
10
39.4312126817231
20
0.908522771430853
30
0
41
1
10
39.4214539829921
20
0.9170033142953
30
0
41
1
10
39.4168645336893
20
0.9209473418735
30
0
41
1
10
39.412784607517
20
0.924394422332711
30
0
0
SPLINE
5
1DE
100
AcDbEntity
8
1
62
256
6
ByLayer
370
18
48
1
60
0
100
AcDbSpline
70
4
71
3
72
10
73
6
40
0
40
0
40
0
40
0
40
0.5
40
0.5
40
1
40
1
40
1
40
1
41
1
10
39.4127846075128
20
0.924394422326657
30
0
41
1
10
39.3556907318236
20
0.972632349906121
30
0
41
1
10
39.2988869493097
20
1.02343838468457
30
0
41
1
10
39.1857750884421
20
1.13017156620961
30
0
41
1
10
39.12952431855
20
1.18602306040879
30
0
41
1
10
39.0735399148561
20
1.24427282737608
30
0
0
SPLINE
5
1DF
100
AcDbEntity
8
1
62
256
6
ByLayer
370
18
48
1
60
0
100
AcDbSpline
70
4
71
3
72
8
73
4
40
0
40
0
40
0
40
0
40
1
40
1
40
1
40
1
41
1
10
38.9878565344225
20
1.33308904655755
30
0
41
1
10
39.0164201415692
20
1.30352964662927
30
0
41
1
10
39.0449806143359
20
1.27392362998754
30
0
41
1
10
39.0735399148561
20
1.24427282737605
30
0
0
SPLINE
5
1E0
100
AcDbEntity
8
1
62
256
6
ByLayer
370
18
48
1
60
0
100
AcDbSpline
70
4
71
3
72
8
73
4
40
0
40
0
40
0
40
0
40
1
40
1
40
1
40
1
41
1
10
38.9878565344225
20
1.33308904655755
30
0
41
1
10
38.8733798611394
20
1.44838770110979
30
0
41
1
10
38.7579471795013
20
1.5522462475146
30
0
41
1
10
38.6414948149051
20
1.6434759461761
30
0
0
SPLINE
5
1E1
100
AcDbEntity
8
1
62
256
6
ByLayer
370
18
48
1
60
0
100
AcDbSpline
70
4
71
3
72
26
73
22
40
0
40
0
40
0
40
0
40
0.125
40
0.125
40
0.25
40
0.25
40
0.375
40
0.375
40
0.5
40
0.5
40
0.624999999999999
40
0.624999999999999
40
0.749999999999999
40
0.749999999999999
40
0.812499999999999
40
0.812499999999999
40
0.875
40
0.875
40
0.9375
40
0.9375
40
1
40
1
40
1
40
1
41
1
10
38.6414948149051
20
1.64347594617627
30
0
41
1
10
38.6344214933634
20
1.6490172419243
30
0
41
1
10
38.6261961939853
20
1.65570099957978
30
0
41
1
10
38.6080309750598
20
1.67074550323352
30
0
41
1
10
38.5979984637082
20
1.67918954323781
30
0
41
1
10
38.5771483879099
20
1.69695507025375
30
0
41
1
10
38.5662547318131
20
1.70633887441875
30
0
41
1
10
38.5436018555641
20
1.72606554981257
30
0
41
1
10
38.5317647107613
20
1.7364792321176
30
0
41
1
10
38.5080307681929
20
1.75761172388354
30
0
41
1
10
38.4960488528624
20
1.76840264053857
30
0
41
1
10
38.4718561859125
20
1.79052165945026
30
0
41
1
10
38.459541285826
20
1.80194980072088
30
0
41
1
10
38.4417070146548
20
1.81885590126532
30
0
41
1
10
38.4358428917438
20
1.82447531547211
30
0
41
1
10
38.4243054687488
20
1.83568035971118
30
0
41
1
10
38.4186039841402
20
1.8412951098606
30
0
41
1
10
38.4077684138951
20
1.85215332080696
30
0
41
1
10
38.4025976894097
20
1.85743131471546
30
0
41
1
10
38.3928447603816
20
1.86762737467149
30
0
41
1
10
38.3882581750555
20
1.87255281480819
30
0
41
1
10
38.384180644803
20
1.87709572385029
30
0
0
SPLINE
5
1E2
100
AcDbEntity
8
1
62
256
6
ByLayer
370
18
48
1
60
0
100
AcDbSpline
70
4
71
3
72
10
73
6
40
0
40
0
40
0
40
0
40
0.5
40
0.5
40
1
40
1
40
1
40
1
41
1
10
38.3841806447989
20
1.877095723846
30
0
41
1
10
38.3271035146561
20
1.94068721049896
30
0
41
1
10
38.2703198316744
20
2.00659759735143
30
0
41
1
10
38.1572499014683
20
2.14301394141964
30
0
41
1
10
38.1010215545187
20
2.2134297671802
30
0
41
1
10
38.0450595225469
20
2.28596130335424
30
0
0
SPLINE
5
1E3
100
AcDbEntity
8
1
62
256
6
ByLayer
370
18
48
1
60
0
100
AcDbSpline
70
4
71
3
72
8
73
4
40
0
40
0
40
0
40
0
40
1
40
1
40
1
40
1
41
1
10
37.9592125278523
20
2.37002409624549
30
0
41
1
10
37.9878302294754
20
2.34208802535653
30
0
41
1
10
38.0164453706851
20
2.31406662209184
30
0
41
1
10
38.0450595225469
20
2.28596130335418
30
0
0
SPLINE
5
1E4
100
AcDbEntity
8
1
62
256
6
ByLayer
370
18
48
1
60
0
100
AcDbSpline
70
4
71
3
72
8
73
4
40
0
40
0
40
0
40
0
40
1
40
1
40
1
40
1
41
1
10
37.9592125278523
20
2.37002409624549
30
0
41
1
10
37.8447105839752
20
2.44367087798614
30
0
41
1
10
37.7292627098296
20
2.50508308192025
30
0
41
1
10
37.6128977498009
20
2.55346943799987
30
0
0
SPLINE
5
1E5
100
AcDbEntity
8
1
62
256
6
ByLayer
370
18
48
1
60
0
100
AcDbSpline
70
4
71
3
72
26
73
22
40
0
40
0
40
0
40
0
40
0.125
40
0.125
40
0.25
40
0.25
40
0.375
40
0.375
40
0.5
40
0.5
40
0.625
40
0.625
40
0.75
40
0.75
40
0.8125
40
0.8125
40
0.875
40
0.875
40
0.9375
40
0.9375
40
1
40
1
40
1
40
1
41
1
10
37.6128977498008
20
2.55346943799955
30
0
41
1
10
37.6058213061459
20
2.55641193308034
30
0
41
1
10
37.5975931129674
20
2.5607454694474
30
0
41
1
10
37.5794242883016
20
2.57145516487438
30
0
41
1
10
37.5693914891878
20
2.57790832993425
30
0
41
1
10
37.5485433407887
20
2.59215477132054
30
0
41
1
10
37.5376516063656
20
2.59998989135971
30
0
41
1
10
37.5150041788589
20
2.61701399265246
30
0
41
1
10
37.5031702472133
20
2.62627177207986
30
0
41
1
10
37.479441723383
20
2.64558509093331
30
0
41
1
10
37.4674625277378
20
2.65569870075546
30
0
41
1
10
37.4432749492356
20
2.67698399806989
30
0
41
1
10
37.4309606299138
20
2.68826128302646
30
0
41
1
10
37.4131235444052
20
2.70544829627599
30
0
41
1
10
37.4072582684435
20
2.71124445021653
30
0
41
1
10
37.3957180724831
20
2.72299632389482
30
0
41
1
10
37.3900143493424
20
2.72898537013549
30
0
41
1
10
37.3791731457367
20
2.74080091351809
30
0
41
1
10
37.3739994377334
20
2.74666175039531
30
0
41
1
10
37.3642405057071
20
2.75827184737983
30
0
41
1
10
37.3596505615729
20
2.76403302680396
30
0
41
1
10
37.3555701317213
20
2.76953642200144
30
0
0
SPLINE
5
1E6
100
AcDbEntity
8
1
62
256
6
ByLayer
370
18
48
1
60
0
100
AcDbSpline
70
4
71
3
72
8
73
4
40
0
40
0
40
0
40
0
40
1
40
1
40
1
40
1
41
1
10
37.3555701317167
20
2.76953642200013
30
0
41
1
10
37.2414080781259
20
2.92351012584075
30
0
41
1
10
37.1283359759485
20
3.08543199185217
30
0
41
1
10
37.0163895693207
20
3.25437052859039
30
0
0
SPLINE
5
1E7
100
AcDbEntity
8
1
62
256
6
ByLayer
370
18
48
1
60
0
100
AcDbSpline
70
4
71
3
72
8
73
4
40
0
40
0
40
0
40
0
40
1
40
1
40
1
40
1
41
1
10
36.9305834608791
20
3.33080059748005
30
0
41
1
10
36.9591888220443
20
3.30544607953686
30
0
41
1
10
36.9877903877662
20
3.27996900395581
30
0
41
1
10
37.0163895693207
20
3.25437052859036
30
0
0
SPLINE
5
1E8
100
AcDbEntity
8
1
62
256
6
ByLayer
370
18
48
1
60
0
100
AcDbSpline
70
4
71
3
72
8
73
4
40
0
40
0
40
0
40
0
40
1
40
1
40
1
40
1
41
1
10
36.9305834608792
20
3.33080059748002
30
0
41
1
10
36.8161178032122
20
3.3605179195456
30
0
41
1
10
36.7006848172137
20
3.37748189551567
30
0
41
1
10
36.5842942684286
20
3.38126818473546
30
0
0
SPLINE
5
1E9
100
AcDbEntity
8
1
62
256
6
ByLayer
370
18
48
1
60
0
100
AcDbSpline
70
4
71
3
72
26
73
22
40
0
40
0
40
0
40
0
40
0.125
40
0.125
40
0.25
40
0.25
40
0.375000000000001
40
0.375000000000001
40
0.500000000000001
40
0.500000000000001
40
0.625000000000001
40
0.625000000000001
40
0.750000000000001
40
0.750000000000001
40
0.812500000000001
40
0.812500000000001
40
0.875000000000001
40
0.875000000000001
40
0.9375
40
0.9375
40
1
40
1
40
1
40
1
41
1
10
36.5842942684286
20
3.38126818473546
30
0
41
1
10
36.5772171103767
20
3.38149841105124
30
0
41
1
10
36.5689875985483
20
3.38332064691866
30
0
41
1
10
36.5508149006851
20
3.38930608009844
30
0
41
1
10
36.5407791458919
20
3.39353775836579
30
0
41
1
10
36.5199248666062
20
3.40376234332615
30
0
41
1
10
36.5090299918485
20
3.40977481398389
30
0
41
1
10
36.4863764972096
20
3.42350679132514
30
0
41
1
10
36.4745402512328
20
3.4312900753404
30
0
41
1
10
36.4508092739196
20
3.44812205901792
30
0
41
1
10
36.4388293948657
20
3.45721354960304
30
0
41
1
10
36.4146417450566
20
3.47694365252707
30
0
41
1
10
36.4023300565111
20
3.48768663578082
30
0
41
1
10
36.3844995020658
20
3.50456833085101
30
0
41
1
10
36.3786364822024
20
3.51034392197317
30
0
41
1
10
36.3671008992575
20
3.52224344086809
30
0
41
1
10
36.3614000291807
20
3.52840268607582
30
0
41
1
10
36.3505647681517
20
3.54077232861309
30
0
41
1
10
36.3453938790454
20
3.54701651722471
30
0
41
1
10
36.3356401423837
20
3.5596465462462
30
0
41
1
10
36.3310526515219
20
3.56604798417499
30
0
41
1
10
36.3269740537108
20
3.57232625525663
30
0
0
SPLINE
5
1EA
100
AcDbEntity
8
1
62
256
6
ByLayer
370
18
48
1
60
0
100
AcDbSpline
70
4
71
3
72
8
73
4
40
0
40
0
40
0
40
0
40
1
40
1
40
1
40
1
41
1
10
36.3269740537066
20
3.57232625525611
30
0
41
1
10
36.2127837574031
20
3.74810177133651
30
0
41
1
10
36.0996999040666
20
3.93023674067689
30
0
41
1
10
35.9877363690981
20
4.11766759646139
30
0
0
SPLINE
5
1EB
100
AcDbEntity
8
1
62
256
6
ByLayer
370
18
48
1
60
0
100
AcDbSpline
70
4
71
3
72
8
73
4
40
0
40
0
40
0
40
0
40
1
40
1
40
1
40
1
41
1
10
35.9020973309916
20
4.18393237975644
30
0
41
1
10
35.9306460029523
20
4.16199743737022
30
0
41
1
10
35.959191717776
20
4.13990871516
30
0
41
1
10
35.9877363690981
20
4.11766759646133
30
0
0
SPLINE
5
1EC
100
AcDbEntity
8
1
62
256
6
ByLayer
370
18
48
1
60
0
100
AcDbSpline
70
4
71
3
72
8
73
4
40
0
40
0
40
0
40
0
40
1
40
1
40
1
40
1
41
1
10
35.9020973309916
20
4.18393237975644
30
0
41
1
10
35.7875969187377
20
4.16886650376824
30
0
41
1
10
35.6721386571948
20
4.14120676129858
30
0
41
1
10
35.5556829683076
20
4.1004603923439
30
0
0
SPLINE
5
1ED
100
AcDbEntity
8
1
62
256
6
ByLayer
370
18
48
1
60
0
100
AcDbSpline
70
4
71
3
72
26
73
22
40
0
40
0
40
0
40
0
40
0.125
40
0.125
40
0.25
40
0.25
40
0.374999999999999
40
0.374999999999999
40
0.499999999999999
40
0.499999999999999
40
0.624999999999999
40
0.624999999999999
40
0.749999999999999
40
0.749999999999999
40
0.812499999999999
40
0.812499999999999
40
0.874999999999999
40
0.874999999999999
40
0.9375
40
0.9375
40
1
40
1
40
1
40
1
41
1
10
35.5556829683075
20
4.1004603923441
30
0
41
1
10
35.5486063946652
20
4.09798438895331
30
0
41
1
10
35.5403774814501
20
4.09724858674122
30
0
41
1
10
35.5222049663626
20
4.09833724967066
30
0
41
1
10
35.5121685013958
20
4.10021941485957
30
0
41
1
10
35.4913112722406
20
4.10610608121576
30
0
41
1
10
35.4804143332826
20
4.11010738078355
30
0
41
1
10
35.4577561222592
20
4.12011316540608
30
0
41
1
10
35.445917444127
20
4.12617481910053
30
0
41
1
10
35.4221828999483
20
4.1399893048262
30
0
41
1
10
35.4102016051999
20
4.14776796777551
30
0
41
1
10
35.3860121968639
20
4.1653097901856
30
0
41
1
10
35.3737010601171
20
4.17517384666414
30
0
41
1
10
35.3558734864519
20
4.1912075386748
30
0
41
1
10
35.3500116458544
20
4.19677653761147
30
0
41
1
10
35.3384788078254
20
4.20843958924547
30
0
41
1
10
35.332779686034
20
4.21457011372087
30
0
41
1
10
35.3219484341687
20
4.22709366401926
30
0
41
1
10
35.3167796973629
20
4.23351863179278
30
0
41
1
10
35.3070304184138
20
4.24675740427344
30
0
41
1
10
35.302445114059
20
4.253590236832
30
0
41
1
10
35.2983683518987
20
4.26043776732917
30
0
0
SPLINE
5
1EE
100
AcDbEntity
8
1
62
256
6
ByLayer
370
18
48
1
60
0
100
AcDbSpline
70
4
71
3
72
99
73
95
40
0
40
0
40
0
40
0
40
0.0625000000000083
40
0.0625000000000083
40
0.125000000000017
40
0.125000000000017
40
0.187500000000025
40
0.187500000000025
40
0.218750000000029
40
0.218750000000029
40
0.23437500000003
40
0.23437500000003
40
0.250000000000031
40
0.250000000000031
40
0.281250000000032
40
0.281250000000032
40
0.312500000000032
40
0.312500000000032
40
0.328125000000031
40
0.328125000000031
40
0.34375000000003
40
0.34375000000003
40
0.375000000000029
40
0.375000000000029
40
0.406250000000027
40
0.406250000000027
40
0.437500000000025
40
0.437500000000025
40
0.445312500000025
40
0.445312500000025
40
0.453125000000024
40
0.453125000000024
40
0.468750000000022
40
0.468750000000022
40
0.48437500000002
40
0.48437500000002
40
0.492187500000019
40
0.492187500000019
40
0.500000000000018
40
0.500000000000018
40
0.515625000000015
40
0.515625000000015
40
0.531250000000012
40
0.531250000000012
40
0.539062500000011
40
0.539062500000011
40
0.54687500000001
40
0.54687500000001
40
0.562500000000008
40
0.562500000000008
40
0.570312500000007
40
0.570312500000007
40
0.574218750000007
40
0.574218750000007
40
0.578125000000007
40
0.593750000000007
40
0.593750000000007
40
0.601562500000007
40
0.601562500000007
40
0.605468750000007
40
0.605468750000007
40
0.609375000000007
40
0.609375000000007
40
0.625000000000007
40
0.625000000000007
40
0.640625000000007
40
0.640625000000007
40
0.648437500000007
40
0.648437500000007
40
0.656250000000007
40
0.656250000000007
40
0.671875000000007
40
0.671875000000007
40
0.687500000000007
40
0.687500000000007
40
0.718750000000006
40
0.718750000000006
40
0.734375000000006
40
0.734375000000006
40
0.750000000000006
40
0.750000000000006
40
0.781250000000005
40
0.781250000000005
40
0.812500000000004
40
0.812500000000004
40
0.843750000000004
40
0.843750000000004
40
0.859375000000003
40
0.859375000000003
40
0.875000000000003
40
0.875000000000003
40
0.937500000000002
40
0.937500000000002
40
1
40
1
40
1
40
1
41
1
10
19.8153420616326
20
-2.26757204730791
30
0
41
1
10
19.6212223832662
20
-2.17902954930423
30
0
41
1
10
19.4250111853412
20
-2.09305902755514
30
0
41
1
10
19.0273854405354
20
-1.92976755097538
30
0
41
1
10
18.8259804118473
20
-1.85242795172243
30
0
41
1
10
18.4170352960671
20
-1.7097847827531
30
0
41
1
10
18.2095136186025
20
-1.64443972874932
30
0
41
1
10
17.8927860603854
20
-1.5583321008337
30
0
41
1
10
17.7863015703165
20
-1.53161725044691
30
0
41
1
10
17.6250860925512
20
-1.49493125334243
30
0
41
1
10
17.5710664670507
20
-1.48326257373944
30
0
41
1
10
17.4626426572149
20
-1.46116911357521
30
0
41
1
10
17.4083446225679
20
-1.45076530903887
30
0
41
1
10
17.2451826297347
20
-1.4215738257686
30
0
41
1
10
17.136052199229
20
-1.4047957500533
30
0
41
1
10
16.9170131934232
20
-1.37720123652463
30
0
41
1
10
16.8071058707482
20
-1.36637525308584
30
0
41
1
10
16.641572758386
20
-1.35533699889902
30
0
41
1
10
16.5862855388948
20
-1.35250475922086
30
0
41
1
10
16.4754764342679
20
-1.34866009034204
30
0
41
1
10
16.419867151004
20
-1.34764833368573
30
0
41
1
10
16.2534029099318
20
-1.34754840251622
30
0
41
1
10
16.1429844813474
20
-1.35137603547085
30
0
41
1
10
15.9233835904137
20
-1.36763246230376
30
0
41
1
10
15.8142001559483
20
-1.38005541403828
30
0
41
1
10
15.5972330848713
20
-1.41454527361984
30
0
41
1
10
15.4894511646659
20
-1.43662730923114
30
0
41
1
10
15.355846725395
20
-1.47184394883936
30
0
41
1
10
15.3291825430276
20
-1.47927138877819
30
0
41
1
10
15.2759764132141
20
-1.49495003425696
30
0
41
1
10
15.2494915345703
20
-1.50318561661663
30
0
41
1
10
15.1707124227972
20
-1.52904994518454
30
0
41
1
10
15.1189742472092
20
-1.54786720970157
30
0
41
1
10
15.0172622194186
20
-1.58900420681283
30
0
41
1
10
14.967287316625
20
-1.61132215286852
30
0
41
1
10
14.893854342176
20
-1.64778452475107
30
0
41
1
10
14.8696310467019
20
-1.66043492379214
30
0
41
1
10
14.8217544819121
20
-1.68683937386763
30
0
41
1
10
14.7982284489686
20
-1.70051898914247
30
0
41
1
10
14.7291664867828
20
-1.74290253701241
30
0
41
1
10
14.6850403278595
20
-1.77299340427842
30
0
41
1
10
14.6011480971889
20
-1.83724050915077
30
0
41
1
10
14.5614032314222
20
-1.87141946469381
30
0
41
1
10
14.5056463882771
20
-1.92618658413252
30
0
41
1
10
14.4877050822125
20
-1.9450258038062
30
0
41
1
10
14.4532367106572
20
-1.98396544424511
30
0
41
1
10
14.4368759562512
20
-2.00388630657258
30
0
41
1
10
14.3908244079158
20
-2.06456875129348
30
0
41
1
10
14.3639904418162
20
-2.10641758528323
30
0
41
1
10
14.3298425584415
20
-2.17124711689706
30
0
41
1
10
14.3194757122787
20
-2.19319872187884
30
0
41
1
10
14.3054726142591
20
-2.2266252087276
30
0
41
1
10
14.3010617757576
20
-2.23785825823848
30
0
41
1
10
14.2928354631208
20
-2.26027418454908
30
0
41
1
10
14.2737030216688
20
-2.31631989009656
30
0
41
1
10
14.2615162340288
20
-2.37234592895169
30
0
41
1
10
14.2530312677114
20
-2.43941567070189
30
0
41
1
10
14.2512154239593
20
-2.46174393996063
30
0
41
1
10
14.2499493932429
20
-2.49517693032706
30
0
41
1
10
14.2497710062223
20
-2.50633142627552
30
0
41
1
10
14.2498879901252
20
-2.52846732221963
30
0
41
1
10
14.2501819886725
20
-2.53945951120909
30
0
41
1
10
14.2527683720249
20
-2.59405295910898
30
0
41
1
10
14.2583926850817
20
-2.63655495446943
30
0
41
1
10
14.2754920432034
20
-2.71944579522838
30
0
41
1
10
14.2869688216231
20
-2.75983411259281
30
0
41
1
10
14.3079233217344
20
-2.81895202332097
30
0
41
1
10
14.3155457567862
20
-2.83844358520452
30
0
41
1
10
14.3318919179475
20
-2.87681840628142
30
0
41
1
10
14.3405836416092
20
-2.89563315544379
30
0
41
1
10
14.3680518063617
20
-2.95104666369537
30
0
41
1
10
14.3882145322168
20
-2.98661822874493
30
0
41
1
10
14.4315813026033
20
-3.05537576885956
30
0
41
1
10
14.4547881777791
20
-3.08856030266546
30
0
41
1
10
14.5282676944382
20
-3.18491732617088
30
0
41
1
10
14.5823635943925
20
-3.24491318041936
30
0
41
1
10
14.6693035620256
20
-3.32955564130893
30
0
41
1
10
14.6991062457422
20
-3.35672094530224
30
0
41
1
10
14.7599700386581
20
-3.40903076788433
30
0
41
1
10
14.7910566624194
20
-3.43419899268196
30
0
41
1
10
14.8860138735278
20
-3.50700662180375
30
0
41
1
10
14.9515630957214
20
-3.55196437381449
30
0
41
1
10
15.0861441495812
20
-3.63570167845447
30
0
41
1
10
15.1551832123144
20
-3.67447478980364
30
0
41
1
10
15.2961107036753
20
-3.74645641392013
30
0
41
1
10
15.3680023094738
20
-3.77966180323884
30
0
41
1
10
15.4776575251848
20
-3.82559568542672
30
0
41
1
10
15.5145136135958
20
-3.84025984884349
30
0
41
1
10
15.5887946771051
20
-3.86832981807271
30
0
41
1
10
15.6261711336019
20
-3.88171623602139
30
0
41
1
10
15.8137309829437
20
-3.94537563548886
30
0
41
1
10
15.9663096372541
20
-3.9860545872674
30
0
41
1
10
16.2753300247589
20
-4.04899620368911
30
0
41
1
10
16.431784805942
20
-4.0712336451594
30
0
41
1
10
16.5900396196707
20
-4.08465757711897
30
0
0
SPLINE
5
1EF
100
AcDbEntity
8
1
62
256
6
ByLayer
370
18
48
1
60
0
100
AcDbSpline
70
4
71
3
72
20
73
16
40
0
40
0
40
0
40
0
40
0.21502080332567
40
0.21502080332567
40
0.323662920047831
40
0.323662920047831
40
0.432305036769991
40
0.432305036769991
40
0.540947153492153
40
0.540947153492153
40
0.649589270214313
40
0.649589270214313
40
0.866873503658636
40
0.866873503658636
40
1
40
1
40
1
40
1
41
1
10
18.0469307895444
20
-1.62175557704742
30
0
41
1
10
17.8815936597786
20
-1.68192584979923
30
0
41
1
10
17.7239608273566
20
-1.77509893603883
30
0
41
1
10
17.5011725265866
20
-1.96483604318243
30
0
41
1
10
17.4286174284546
20
-2.03741426852719
30
0
41
1
10
17.2933471782664
20
-2.19445178884914
30
0
41
1
10
17.2299291724193
20
-2.27946115217193
30
0
41
1
10
17.1111098764995
20
-2.46181847246618
30
0
41
1
10
17.0554228962893
20
-2.55989529530393
30
0
41
1
10
16.9545260981381
20
-2.76215317542452
30
0
41
1
10
16.9089404718775
20
-2.86674415017791
30
0
41
1
10
16.7848826510465
20
-3.1895581258849
30
0
41
1
10
16.7186361393582
20
-3.41859981671217
30
0
41
1
10
16.6364365642102
20
-3.79433155254401
30
0
41
1
10
16.6107601310711
20
-3.93907296268185
30
0
41
1
10
16.590039801827
20
-4.0846562972676
30
0
0
SPLINE
5
1F0
100
AcDbEntity
8
SK1
62
256
6
ByLayer
370
18
48
1
60
0
100
AcDbSpline
70
4
71
3
72
22
73
18
40
0
40
0
40
0
40
0
40
0.125029171784202
40
0.125029171784202
40
0.187543757676303
40
0.187543757676303
40
0.250058343568404
40
0.250058343568404
40
0.500116687136808
40
0.500116687136808
40
0.62514585892101
40
0.62514585892101
40
0.750175030705212
40
0.750175030705212
40
0.875204202489414
40
0.875204202489414
40
1
40
1
40
1
40
1
41
1
10
-24.5999999999997
20
3.24999999999997
30
0
41
1
10
-24.6567625768256
20
3.24999999999997
30
0
41
1
10
-24.7121184362642
20
3.24999999999997
30
0
41
1
10
-24.7925768871465
20
3.24999999999997
30
0
41
1
10
-24.8189661195079
20
3.24999999999997
30
0
41
1
10
-24.8705946439695
20
3.24999999999997
30
0
41
1
10
-24.8958586351177
20
3.24999999999997
30
0
41
1
10
-25.0191763394726
20
3.24999999999997
30
0
41
1
10
-25.1083324909097
20
3.24999999999997
30
0
41
1
10
-25.2217557238436
20
3.24999999999997
30
0
41
1
10
-25.2561561167076
20
3.24999999999997
30
0
41
1
10
-25.316854956094
20
3.24999999999997
30
0
41
1
10
-25.3431579047252
20
3.24999999999997
30
0
41
1
10
-25.3861748439032
20
3.24999999999997
30
0
41
1
10
-25.4025419237251
20
3.24999999999997
30
0
41
1
10
-25.4244318910197
20
3.24999999999997
30
0
41
1
10
-25.4299732543752
20
3.24999999999997
30
0
41
1
10
-25.4299999999973
20
3.24999999999997
30
0
0
SPLINE
5
1F1
100
AcDbEntity
8
SK1
62
256
6
ByLayer
370
18
48
1
60
0
100
AcDbSpline
70
4
71
3
72
22
73
18
40
0
40
0
40
0
40
0
40
0.124795803229261
40
0.124795803229261
40
0.24982497419651
40
0.24982497419651
40
0.374854145163758
40
0.374854145163758
40
0.499883316131006
40
0.499883316131006
40
0.749941658065503
40
0.749941658065503
40
0.812456243549127
40
0.812456243549127
40
0.874970829032751
40
0.874970829032751
40
1
40
1
40
1
40
1
41
1
10
-25.4300000000014
20
-3.25000000000003
30
0
41
1
10
-25.4299732549555
20
-3.25000000000003
30
0
41
1
10
-25.4244318915923
20
-3.25000000000003
30
0
41
1
10
-25.4025419237252
20
-3.25000000000003
30
0
41
1
10
-25.3861748439033
20
-3.25000000000003
30
0
41
1
10
-25.3431579047253
20
-3.25000000000003
30
0
41
1
10
-25.3168549560942
20
-3.25000000000003
30
0
41
1
10
-25.2561561167078
20
-3.25000000000003
30
0
41
1
10
-25.2217557238438
20
-3.25000000000003
30
0
41
1
10
-25.10833249091
20
-3.25000000000003
30
0
41
1
10
-25.0191763394729
20
-3.25000000000003
30
0
41
1
10
-24.8958586351181
20
-3.25000000000003
30
0
41
1
10
-24.8705946439699
20
-3.25000000000003
30
0
41
1
10
-24.8189661195084
20
-3.25000000000003
30
0
41
1
10
-24.792576887147
20
-3.25000000000003
30
0
41
1
10
-24.7121184362647
20
-3.25000000000003
30
0
41
1
10
-24.6567625768261
20
-3.25000000000003
30
0
41
1
10
-24.6
20
-3.25000000000003
30
0
0
SPLINE
5
1F2
100
AcDbEntity
8
SK1
62
256
6
ByLayer
370
18
48
1
60
0
100
AcDbSpline
70
4
71
3
72
35
73
31
40
0
40
0
40
0
40
0
40
0.0624999999999999
40
0.0624999999999999
40
0.125
40
0.125
40
0.25
40
0.25
40
0.375
40
0.375
40
0.40625
40
0.40625
40
0.4375
40
0.4375
40
0.5
40
0.5625
40
0.5625
40
0.625
40
0.625
40
0.6875
40
0.6875
40
0.75
40
0.75
40
0.875
40
0.875
40
0.90625
40
0.90625
40
0.9375
40
0.9375
40
1
40
1
40
1
40
1
41
1
10
-24.6
20
-2.46655630383745
30
0
41
1
10
-24.6565297483
20
-2.37304886080636
30
0
41
1
10
-24.7116563466634
20
-2.27850335700879
30
0
41
1
10
-24.818490639843
20
-2.08688301912304
30
0
41
1
10
-24.8702008256629
20
-1.98980820559257
30
0
41
1
10
-25.0190158031511
20
-1.69392239333203
30
0
41
1
10
-25.1084269314586
20
-1.49333519284761
30
0
41
1
10
-25.2596887882645
20
-1.08279480945873
30
0
41
1
10
-25.3215262144548
20
-0.872837105967335
30
0
41
1
10
-25.3750825194343
20
-0.602322136554761
30
0
41
1
10
-25.3846102411197
20
-0.547757023337567
30
0
41
1
10
-25.4010676361827
20
-0.43799719196744
30
0
41
1
10
-25.4079473815278
20
-0.383148609815237
30
0
41
1
10
-25.4244768652789
20
-0.218698324902391
30
0
41
1
10
-25.4355351921254
20
0.0003136547508689
30
0
41
1
10
-25.4244523395571
20
0.218811337915696
30
0
41
1
10
-25.4025419237252
20
0.437057517867402
30
0
41
1
10
-25.3861748439034
20
0.546054900595919
30
0
41
1
10
-25.3431579047253
20
0.763810817105139
30
0
41
1
10
-25.3168549560942
20
0.870890418757881
30
0
41
1
10
-25.2561561167079
20
1.0818560312226
30
0
41
1
10
-25.2217557238438
20
1.18576958063107
30
0
41
1
10
-25.10833249091
20
1.49355043256728
30
0
41
1
10
-25.0191763394729
20
1.69349231585841
30
0
41
1
10
-24.8958586351181
20
1.93882052194391
30
0
41
1
10
-24.87059464397
20
1.9876535620908
30
0
41
1
10
-24.8189661195084
20
2.08489331684999
30
0
41
1
10
-24.792576887147
20
2.13334361139661
30
0
41
1
10
-24.7121184362647
20
2.27771159886459
30
0
41
1
10
-24.6567625768261
20
2.37266373260749
30
0
41
1
10
-24.6
20
2.46655630383736
30
0
0
SPLINE
5
1F3
100
AcDbEntity
8
1
62
256
6
ByLayer
370
18
48
1
60
0
100
AcDbSpline
70
4
71
2
72
6
73
3
40
0
40
0
40
0
40
1
40
1
40
1
41
1
10
34.6831594763651
20
5.91906191523651
30
0
41
1
10
34.5575196160859
20
5.70169085656312
30
0
41
1
10
34.4318504335457
20
5.48433667391021
30
0
0
SPLINE
5
1F4
100
AcDbEntity
8
1
62
256
6
ByLayer
370
18
48
1
60
0
100
AcDbSpline
70
4
71
2
72
6
73
3
40
0
40
0
40
0
40
1
40
1
40
1
41
1
10
35.2033168962487
20
5.47118489259964
30
0
41
1
10
35.0685390201397
20
5.70375444068597
30
0
41
1
10
34.9337698614586
20
5.93641717228235
30
0
0
SPLINE
5
1F5
100
AcDbEntity
8
1
62
256
6
ByLayer
370
18
48
1
60
0
100
AcDbSpline
70
4
71
1
72
4
73
2
40
0
40
0
40
1
40
1
41
1
10
37.6502278169402
20
-5.56662289682055
30
0
41
1
10
37.6977063132371
20
-5.48452225511448
30
0
0
SPLINE
5
1F6
100
AcDbEntity
8
1
62
256
6
ByLayer
370
18
48
1
60
0
100
AcDbSpline
70
4
71
1
72
4
73
2
40
0
40
0
40
1
40
1
41
1
10
41.2232735908553
20
-5.98366534230851
30
0
41
1
10
41.2659264391881
20
-5.97021063694427
30
0
0
SPLINE
5
1F7
100
AcDbEntity
8
1
62
256
6
ByLayer
370
18
48
1
60
0
100
AcDbSpline
70
4
71
1
72
4
73
2
40
0
40
0
40
1
40
1
41
1
10
44
20
4.78532711673324
30
0
41
1
10
43.4000000433028
20
5.38481003787638
30
0
0
SPLINE
5
1F8
100
AcDbEntity
8
1
62
256
6
ByLayer
370
18
48
1
60
0
100
AcDbSpline
70
4
71
2
72
6
73
3
40
0
40
0
40
0
40
1
40
1
40
1
41
1
10
32.1976746872295
20
5.48460390894633
30
0
41
1
10
32.1712129676172
20
5.53035883520718
30
0
41
1
10
32.1447526667361
20
5.57611462578691
30
0
0
SPLINE
5
1F9
100
AcDbEntity
8
1
62
256
6
ByLayer
370
18
48
1
60
0
100
AcDbSpline
70
4
71
2
72
6
73
3
40
0
40
0
40
0
40
1
40
1
40
1
41
1
10
40.3609819916455
20
-6.06669725318568
30
0
41
1
10
40.528892700683
20
-5.77623256210182
30
0
41
1
10
40.6968301917598
20
-5.48581929759382
30
0
0
SPLINE
5
1FA
100
AcDbEntity
8
1
62
256
6
ByLayer
370
18
48
1
60
0
100
AcDbSpline
70
4
71
3
72
11
73
7
40
0
40
0
40
0
40
0
40
0.244160208951275
40
0.499844431896244
40
0.755624034211123
40
1
40
1
40
1
40
1
41
1
10
32.433607458797
20
5.48713541812018
30
0
41
1
10
32.4227285874196
20
5.46717381100112
30
0
41
1
10
32.393195003809
20
5.43631563669939
30
0
41
1
10
32.3145535297715
20
5.41044268073128
30
0
41
1
10
32.235934952671
20
5.43665959038853
30
0
41
1
10
32.2064067176252
20
5.46773078672308
30
0
41
1
10
32.1955348035363
20
5.48780287150487
30
0
0
SPLINE
5
1FB
100
AcDbEntity
8
1
62
256
6
ByLayer
370
18
48
1
60
0
100
AcDbSpline
70
4
71
2
72
6
73
3
40
0
40
0
40
0
40
1
40
1
40
1
41
1
10
39.9335224484249
20
-5.48695844624629
30
0
41
1
10
40.1014016588991
20
-5.77729268522683
30
0
41
1
10
40.2692653524435
20
-6.0676697076432
30
0
0
SPLINE
5
1FC
100
AcDbEntity
8
1
62
256
6
ByLayer
370
18
48
1
60
0
100
AcDbSpline
70
4
71
2
72
6
73
3
40
0
40
0
40
0
40
1
40
1
40
1
41
1
10
32.5173348166449
20
5.63223918350036
30
0
41
1
10
32.4744755838823
20
5.55810548679057
30
0
41
1
10
32.4316099148893
20
5.48396808090894
30
0
0
SPLINE
5
1FD
100
AcDbEntity
8
1
62
256
6
ByLayer
370
18
48
1
60
0
100
AcDbSpline
70
4
71
3
72
11
73
7
40
0
40
0
40
0
40
0
40
0.247023970052633
40
0.50011521456064
40
0.753136133145607
40
1
40
1
40
1
40
1
41
1
10
39.6976918404056
20
-5.48440339534389
30
0
41
1
10
39.7078350747079
20
-5.46556532386938
30
0
41
1
10
39.7361017552316
20
-5.43675351863513
30
0
41
1
10
39.8141514344584
20
-5.41041991611758
30
0
41
1
10
39.8922185519811
20
-5.43561894025993
30
0
41
1
10
39.920488659495
20
-5.46366768904602
30
0
41
1
10
39.930637057539
20
-5.48212131758083
30
0
0
SPLINE
5
1FE
100
AcDbEntity
8
1
62
256
6
ByLayer
370
18
48
1
60
0
100
AcDbSpline
70
4
71
2
72
6
73
3
40
0
40
0
40
0
40
1
40
1
40
1
41
1
10
33.1969654862802
20
5.48566970299245
30
0
41
1
10
33.1315362263139
20
5.59879340337974
30
0
41
1
10
33.0661189042362
20
5.71191165076601
30
0
0
SPLINE
5
1FF
100
AcDbEntity
8
1
62
256
6
ByLayer
370
18
48
1
60
0
100
AcDbSpline
70
4
71
2
72
6
73
3
40
0
40
0
40
0
40
1
40
1
40
1
41
1
10
39.3615096690887
20
-6.06578378690617
30
0
41
1
10
39.5294377549138
20
-5.7753157115358
30
0
41
1
10
39.6973966695582
20
-5.48490348981846
30
0
0
SPLINE
5
200
100
AcDbEntity
8
1
62
256
6
ByLayer
370
18
48
1
60
0
100
AcDbSpline
70
4
71
3
72
11
73
7
40
0
40
0
40
0
40
0
40
0.24636300955535
40
0.499853046810397
40
0.753433307386285
40
1
40
1
40
1
40
1
41
1
10
33.4318954448218
20
5.48438084625801
30
0
41
1
10
33.4215917811073
20
5.46537031312528
30
0
41
1
10
33.393049502892
20
5.4363045071878
30
0
41
1
10
33.314806224199
20
5.41040652416049
30
0
41
1
10
33.2365854237116
20
5.43632010294618
30
0
41
1
10
33.2080475526036
20
5.4653709413027
30
0
41
1
10
33.1977504267423
20
5.48437776928282
30
0
0
SPLINE
5
201
100
AcDbEntity
8
1
62
256
6
ByLayer
370
18
48
1
60
0
100
AcDbSpline
70
4
71
2
72
6
73
3
40
0
40
0
40
0
40
1
40
1
40
1
41
1
10
38.9329514162716
20
-5.48608577132893
30
0
41
1
10
39.1009346721978
20
-5.77659334525063
30
0
41
1
10
39.2688796160737
20
-6.06712281102114
30
0
0
SPLINE
5
202
100
AcDbEntity
8
1
62
256
6
ByLayer
370
18
48
1
60
0
100
AcDbSpline
70
4
71
3
72
11
73
7
40
0
40
0
40
0
40
0
40
0.247232240193025
40
0.500154854268372
40
0.752981748365421
40
1
40
1
40
1
40
1
41
1
10
38.6994564956694
20
-5.48108162421906
30
0
41
1
10
38.7095349745506
20
-5.46288587778434
30
0
41
1
10
38.7376877851009
20
-5.43530480834539
30
0
41
1
10
38.8156520606365
20
-5.41040446265509
30
0
41
1
10
38.893640697954
20
-5.43688772531382
30
0
41
1
10
38.9217978081312
20
-5.46560050648483
30
0
41
1
10
38.9318830836795
20
-5.48436077144856
30
0
0
SPLINE
5
203
100
AcDbEntity
8
1
62
256
6
ByLayer
370
18
48
1
60
0
100
AcDbSpline
70
4
71
2
72
6
73
3
40
0
40
0
40
0
40
1
40
1
40
1
41
1
10
33.6079414560186
20
5.78866953534811
30
0
41
1
10
33.5191627553773
20
5.63506830258692
30
0
41
1
10
33.4303613766104
20
5.48147094061386
30
0
0
SPLINE
5
204
100
AcDbEntity
8
1
62
256
6
ByLayer
370
18
48
1
60
0
100
AcDbSpline
70
4
71
2
72
6
73
3
40
0
40
0
40
0
40
1
40
1
40
1
41
1
10
34.1969029897126
20
5.48562840272794
30
0
41
1
10
34.1003002146473
20
5.65261945273915
30
0
41
1
10
34.00373989986
20
5.81955843910691
30
0
0
SPLINE
5
205
100
AcDbEntity
8
1
62
256
6
ByLayer
370
18
48
1
60
0
100
AcDbSpline
70
4
71
3
72
11
73
7
40
0
40
0
40
0
40
0
40
0.242766853734839
40
0.499830406025421
40
0.75699096038054
40
1
40
1
40
1
40
1
41
1
10
34.4360367325151
20
5.48968744966209
30
0
41
1
10
34.4248599365466
20
5.46903559837293
30
0
41
1
10
34.3948201247171
20
5.4367224546688
30
0
41
1
10
34.3161174686598
20
5.41005581986747
30
0
41
1
10
34.2374339859402
20
5.43525397433996
30
0
41
1
10
34.2074018992465
20
5.46649412909829
30
0
41
1
10
34.1962334318605
20
5.48661910964591
30
0
0
SPLINE
5
206
100
AcDbEntity
8
1
62
256
6
ByLayer
370
18
48
1
60
0
100
AcDbSpline
70
4
71
2
72
6
73
3
40
0
40
0
40
0
40
1
40
1
40
1
41
1
10
38.3619687263249
20
-6.06500411156802
30
0
41
1
10
38.5298452339835
20
-5.77464818160379
30
0
41
1
10
38.6977445116999
20
-5.48436095415258
30
0
0
SPLINE
5
207
100
AcDbEntity
8
1
62
256
6
ByLayer
370
18
48
1
60
0
100
AcDbSpline
70
4
71
2
72
6
73
3
40
0
40
0
40
0
40
1
40
1
40
1
41
1
10
37.933693635106
20
-5.48722708311183
30
0
41
1
10
38.101685666754
20
-5.77782324295165
30
0
41
1
10
38.2696403976255
20
-6.06842858567504
30
0
0
SPLINE
5
208
100
AcDbEntity
8
1
62
256
6
ByLayer
370
18
48
1
60
0
100
AcDbSpline
70
4
71
3
72
13
73
9
40
0
40
0
40
0
40
0
40
0.240113761984453
40
0.368712061152628
40
0.500202014740949
40
0.631662327321205
40
0.760175419858047
40
1
40
1
40
1
40
1
41
1
10
37.6884416566393
20
-5.49119112637476
30
0
41
1
10
37.699570666236
20
-5.47008014230994
30
0
41
1
10
37.7228182423576
20
-5.44434246170272
30
0
41
1
10
37.7692595553744
20
-5.42106306291794
30
0
41
1
10
37.8094121627581
20
-5.41413097619142
30
0
41
1
10
37.8495650558707
20
-5.41870037133791
30
0
41
1
10
37.8960033324341
20
-5.43889153593497
30
0
41
1
10
37.9192542622329
20
-5.46216082098817
30
0
41
1
10
37.9303917836414
20
-5.48159174052168
30
0
0
SPLINE
5
209
100
AcDbEntity
8
1
62
256
6
ByLayer
370
18
48
1
60
0
100
AcDbSpline
70
4
71
2
72
6
73
3
40
0
40
0
40
0
40
1
40
1
40
1
41
1
10
35.2319337073556
20
5.44827312088927
30
0
41
1
10
35.2064739798858
20
5.46305704568337
30
0
41
1
10
35.1976646723695
20
5.48439564849326
30
0
0
SPLINE
5
20A
100
AcDbEntity
8
1
62
256
6
ByLayer
370
18
48
1
60
0
100
AcDbSpline
70
4
71
2
72
6
73
3
40
0
40
0
40
0
40
1
40
1
40
1
41
1
10
37.0587046397474
20
-5.70393497910405
30
0
41
1
10
37.1633652102191
20
-5.88497073906419
30
0
41
1
10
37.2679965230748
20
-6.06602330717948
30
0
0
LINE
5
83
100
AcDbEntity
8
81
62
256
6
ByLayer
370
18
48
1
60
0
100
AcDbLine
10
44
20
0
30
0
11
49
21
0
31
0
39
0
210
0
220
0
230
1
0
LINE
5
84
100
AcDbEntity
8
SK4
62
256
6
ByLayer
370
18
48
0.05
60
0
100
AcDbLine
10
-31
20
0
30
0
11
49
21
0
31
0
39
0
210
0
220
0
230
1
0
LINE
5
86
100
AcDbEntity
8
80
62
256
6
ByLayer
370
18
48
1
60
0
100
AcDbLine
10
0
20
0
30
0
11
-5
21
0
31
0
39
0
210
0
220
0
230
1
0
LINE
5
87
100
AcDbEntity
8
4
62
256
6
ByLayer
370
18
48
0.05
60
0
100
AcDbLine
10
-5
20
0
30
0
11
49
21
0
31
0
39
0
210
0
220
0
230
1
0
LINE
5
89
100
AcDbEntity
8
1
62
256
6
ByLayer
370
18
48
1
60
0
100
AcDbLine
10
0
20
4.25
30
0
11
0
21
-4.25
31
0
39
0
210
0
220
0
230
1
0
LINE
5
8A
100
AcDbEntity
8
1
62
256
6
ByLayer
370
18
48
1
60
0
100
AcDbLine
10
41.225189
20
-5.982901
30
0
11
41.226504
21
-5.982646
31
0
39
0
210
0
220
0
230
1
0
LINE
5
8B
100
AcDbEntity
8
1
62
256
6
ByLayer
370
18
48
1
60
0
100
AcDbLine
10
40.935416
20
-5.48929
30
0
11
40.943887
21
-5.489585
31
0
39
0
210
0
220
0
230
1
0
LINE
5
8C
100
AcDbEntity
8
1
62
256
6
ByLayer
370
18
48
1
60
0
100
AcDbLine
10
43.4
20
5.390061
30
0
11
43.4
21
5.384818
31
0
39
0
210
0
220
0
230
1
0
LINE
5
8D
100
AcDbEntity
8
1
62
256
6
ByLayer
370
18
48
1
60
0
100
AcDbLine
10
40.696844
20
-5.485797
30
0
11
40.70093
21
-5.477643
31
0
39
0
210
0
220
0
230
1
0
LINE
5
8E
100
AcDbEntity
8
1
62
256
6
ByLayer
370
18
48
1
60
0
100
AcDbLine
10
32.195138
20
5.488286
30
0
11
32.197648
21
5.48465
31
0
39
0
210
0
220
0
230
1
0
LINE
5
8F
100
AcDbEntity
8
1
62
256
6
ByLayer
370
18
48
1
60
0
100
AcDbLine
10
32.43163
20
5.484004
30
0
11
32.43415
21
5.487847
31
0
39
0
210
0
220
0
230
1
0
LINE
5
90
100
AcDbEntity
8
1
62
256
6
ByLayer
370
18
48
1
60
0
100
AcDbLine
10
39.931903
20
-5.484464
30
0
11
39.933538
21
-5.486979
31
0
39
0
210
0
220
0
230
1
0
LINE
5
91
100
AcDbEntity
8
1
62
256
6
ByLayer
370
18
48
1
60
0
100
AcDbLine
10
38.931994
20
-5.484551
30
0
11
38.932934
21
-5.48606
31
0
39
0
210
0
220
0
230
1
0
LINE
5
92
100
AcDbEntity
8
1
62
256
6
ByLayer
370
18
48
1
60
0
100
AcDbLine
10
33.430429
20
5.481611
30
0
11
33.432149
21
5.484813
31
0
39
0
210
0
220
0
230
1
0
LINE
5
93
100
AcDbEntity
8
1
62
256
6
ByLayer
370
18
48
1
60
0
100
AcDbLine
10
34.195892
20
5.487087
30
0
11
34.196855
21
5.485703
31
0
39
0
210
0
220
0
230
1
0
LINE
5
94
100
AcDbEntity
8
1
62
256
6
ByLayer
370
18
48
1
60
0
100
AcDbLine
10
38.697757
20
-5.484339
30
0
11
38.699124
21
-5.481769
31
0
39
0
210
0
220
0
230
1
0
LINE
5
95
100
AcDbEntity
8
1
62
256
6
ByLayer
370
18
48
1
60
0
100
AcDbLine
10
37.930702
20
-5.482221
30
0
11
37.933669
21
-5.487194
31
0
39
0
210
0
220
0
230
1
0
LINE
5
96
100
AcDbEntity
8
1
62
256
6
ByLayer
370
18
48
1
60
0
100
AcDbLine
10
34.431854
20
5.484342
30
0
11
34.4365
21
5.490047
31
0
39
0
210
0
220
0
230
1
0
LINE
5
97
100
AcDbEntity
8
1
62
256
6
ByLayer
370
13
48
1
60
0
100
AcDbLine
10
9.580948
20
-4.1
30
0
11
9.580948
21
4.1
31
0
39
0
210
0
220
0
230
1
0
LINE
5
98
100
AcDbEntity
8
1
62
256
6
ByLayer
370
18
48
1
60
0
100
AcDbLine
10
9
20
4.25
30
0
11
9
21
-4.25
31
0
39
0
210
0
220
0
230
1
0
LINE
5
99
100
AcDbEntity
8
1
62
256
6
ByLayer
370
13
48
1
60
0
100
AcDbLine
10
29.60322
20
-0.84904
30
0
11
29.60322
21
1.759858
31
0
39
0
210
0
220
0
230
1
0
LINE
5
9A
100
AcDbEntity
8
1
62
256
6
ByLayer
370
13
48
1
60
0
100
AcDbLine
10
30.555848
20
1.180478
30
0
11
30.555848
21
-1.620461
31
0
39
0
210
0
220
0
230
1
0
LINE
5
9B
100
AcDbEntity
8
1
62
256
6
ByLayer
370
18
48
1
60
0
100
AcDbLine
10
31
20
1.006181
30
0
11
31
21
-2.368293
31
0
39
0
210
0
220
0
230
1
0
LINE
5
9C
100
AcDbEntity
8
SK1
62
256
6
ByLayer
370
18
48
1
60
0
100
AcDbLine
10
-26
20
2.68
30
0
11
-26
21
-2.68
31
0
39
0
210
0
220
0
230
1
0
LINE
5
9E
100
AcDbEntity
8
SK1
62
256
6
ByLayer
370
18
48
1
60
0
100
AcDbLine
10
-17
20
3.25
30
0
11
-16.17
21
4.08
31
0
39
0
210
0
220
0
230
1
0
LINE
5
9F
100
AcDbEntity
8
SK1
62
256
6
ByLayer
370
18
48
1
60
0
100
AcDbLine
10
-24.6
20
3.25
30
0
11
-17
21
3.25
31
0
39
0
210
0
220
0
230
1
0
LINE
5
A0
100
AcDbEntity
8
SK1
62
256
6
ByLayer
370
18
48
1
60
0
100
AcDbLine
10
-24.6
20
2.466556
30
0
11
-24.6
21
3.25
31
0
39
0
210
0
220
0
230
1
0
LINE
5
A1
100
AcDbEntity
8
SK1
62
256
6
ByLayer
370
18
48
1
60
0
100
AcDbLine
10
-17
20
2.466556
30
0
11
-24.6
21
2.466556
31
0
39
0
210
0
220
0
230
1
0
LINE
5
A2
100
AcDbEntity
8
SK1
62
256
6
ByLayer
370
18
48
1
60
0
100
AcDbLine
10
-24.6
20
-2.466556
30
0
11
-17
21
-2.466556
31
0
39
0
210
0
220
0
230
1
0
LINE
5
A3
100
AcDbEntity
8
SK1
62
256
6
ByLayer
370
18
48
1
60
0
100
AcDbLine
10
-24.6
20
-3.25
30
0
11
-24.6
21
-2.466556
31
0
39
0
210
0
220
0
230
1
0
LINE
5
A4
100
AcDbEntity
8
SK1
62
256
6
ByLayer
370
18
48
1
60
0
100
AcDbLine
10
-17
20
-3.25
30
0
11
-24.6
21
-3.25
31
0
39
0
210
0
220
0
230
1
0
LINE
5
A5
100
AcDbEntity
8
SK1
62
256
6
ByLayer
370
18
48
1
60
0
100
AcDbLine
10
-17
20
-3.25
30
0
11
-16.17
21
-4.08
31
0
39
0
210
0
220
0
230
1
0
LINE
5
A6
100
AcDbEntity
8
SK1
62
256
6
ByLayer
370
18
48
1
60
0
100
AcDbLine
10
-17
20
2.466556
30
0
11
-17
21
-2.466556
31
0
39
0
210
0
220
0
230
1
0
LINE
5
A7
100
AcDbEntity
8
SK1
62
256
6
ByLayer
370
18
48
1
60
0
100
AcDbLine
10
0
20
4.25
30
0
11
0
21
-4.25
31
0
39
0
210
0
220
0
230
1
0
LINE
5
A8
100
AcDbEntity
8
SK1
62
256
6
ByLayer
370
18
48
1
60
0
100
AcDbLine
10
-15.2
20
4.08
30
0
11
-15.2
21
-4.08
31
0
39
0
210
0
220
0
230
1
0
LINE
5
A9
100
AcDbEntity
8
SK1
62
256
6
ByLayer
370
18
48
1
60
0
100
AcDbLine
10
-15.03
20
-4.25
30
0
11
-15.03
21
4.25
31
0
39
0
210
0
220
0
230
1
0
LINE
5
AA
100
AcDbEntity
8
1
62
256
6
ByLayer
370
18
48
1
60
0
100
AcDbLine
10
32.138066
20
5.579238
30
0
11
31.432232
21
5.48004
31
0
39
0
210
0
220
0
230
1
0
LINE
5
AB
100
AcDbEntity
8
1
62
256
6
ByLayer
370
18
48
1
60
0
100
AcDbLine
10
34.911147
20
5.968969
30
0
11
34.694881
21
5.938575
31
0
39
0
210
0
220
0
230
1
0
LINE
5
AC
100
AcDbEntity
8
1
62
256
6
ByLayer
370
18
48
1
60
0
100
AcDbLine
10
9
20
4.25
30
0
11
0
21
4.25
31
0
39
0
210
0
220
0
230
1
0
LINE
5
AD
100
AcDbEntity
8
1
62
256
6
ByLayer
370
18
48
1
60
0
100
AcDbLine
10
0
20
-4.25
30
0
11
9
21
-4.25
31
0
39
0
210
0
220
0
230
1
0
LINE
5
AE
100
AcDbEntity
8
1
62
256
6
ByLayer
370
18
48
1
60
0
100
AcDbLine
10
40.273154
20
-6.068329
30
0
11
40.3565
21
-6.068329
31
0
39
0
210
0
220
0
230
1
0
LINE
5
AF
100
AcDbEntity
8
1
62
256
6
ByLayer
370
18
48
1
60
0
100
AcDbLine
10
33.061123
20
5.708965
30
0
11
32.518932
21
5.632765
31
0
39
0
210
0
220
0
230
1
0
LINE
5
B0
100
AcDbEntity
8
1
62
256
6
ByLayer
370
18
48
1
60
0
100
AcDbLine
10
39.27307
20
-6.068329
30
0
11
39.356483
21
-6.068329
31
0
39
0
210
0
220
0
230
1
0
LINE
5
B1
100
AcDbEntity
8
1
62
256
6
ByLayer
370
18
48
1
60
0
100
AcDbLine
10
33.986086
20
5.83896
30
0
11
33.60735
21
5.785733
31
0
39
0
210
0
220
0
230
1
0
LINE
5
B2
100
AcDbEntity
8
1
62
256
6
ByLayer
370
18
48
1
60
0
100
AcDbLine
10
38.27297
20
-6.068329
30
0
11
38.35642
21
-6.068329
31
0
39
0
210
0
220
0
230
1
0
LINE
5
B3
100
AcDbEntity
8
1
62
256
6
ByLayer
370
18
48
1
60
0
100
AcDbLine
10
37.272928
20
-6.068329
30
0
11
37.356483
21
-6.068329
31
0
39
0
210
0
220
0
230
1
0
LINE
5
B4
100
AcDbEntity
8
1
62
256
6
ByLayer
370
18
48
1
60
0
100
AcDbLine
10
9.580948
20
-4.1
30
0
11
17.086835
21
-4.1
31
0
39
0
210
0
220
0
230
1
0
LINE
5
B5
100
AcDbEntity
8
1
62
256
6
ByLayer
370
18
48
1
60
0
100
AcDbLine
10
25.42868
20
-4.1
30
0
11
29.14426
21
-4.1
31
0
39
0
210
0
220
0
230
1
0
LINE
5
B6
100
AcDbEntity
8
1
62
256
6
ByLayer
370
18
48
1
60
0
100
AcDbLine
10
23.115958
20
4.1
30
0
11
19.277385
21
4.1
31
0
39
0
210
0
220
0
230
1
0
LINE
5
B7
100
AcDbEntity
8
1
62
256
6
ByLayer
370
18
48
1
60
0
100
AcDbLine
10
14.416627
20
4.1
30
0
11
9.580948
21
4.1
31
0
39
0
210
0
220
0
230
1
0
LINE
5
B8
100
AcDbEntity
8
SK1
62
256
6
ByLayer
370
18
48
1
60
0
100
AcDbLine
10
-26
20
-2.68
30
0
11
-25.43
21
-3.25
31
0
39
0
210
0
220
0
230
1
0
LINE
5
B9
100
AcDbEntity
8
SK1
62
256
6
ByLayer
370
18
48
1
60
0
100
AcDbLine
10
-25.43
20
3.25
30
0
11
-26
21
2.68
31
0
39
0
210
0
220
0
230
1
0
LINE
5
BA
100
AcDbEntity
8
SK1
62
256
6
ByLayer
370
18
48
1
60
0
100
AcDbLine
10
-15.2
20
4.08
30
0
11
-16.17
21
4.08
31
0
39
0
210
0
220
0
230
1
0
LINE
5
BB
100
AcDbEntity
8
SK1
62
256
6
ByLayer
370
18
48
1
60
0
100
AcDbLine
10
-16.17
20
-4.08
30
0
11
-15.2
21
-4.08
31
0
39
0
210
0
220
0
230
1
0
LINE
5
BC
100
AcDbEntity
8
SK1
62
256
6
ByLayer
370
18
48
1
60
0
100
AcDbLine
10
0
20
4.25
30
0
11
-15.03
21
4.25
31
0
39
0
210
0
220
0
230
1
0
LINE
5
BD
100
AcDbEntity
8
SK1
62
256
6
ByLayer
370
18
48
1
60
0
100
AcDbLine
10
-15.03
20
-4.25
30
0
11
0
21
-4.25
31
0
39
0
210
0
220
0
230
1
0
LINE
5
BE
100
AcDbEntity
8
SK1
62
256
6
ByLayer
370
18
48
1
60
0
100
AcDbLine
10
-15.2
20
-4.08
30
0
11
-15.03
21
-4.25
31
0
39
0
210
0
220
0
230
1
0
LINE
5
BF
100
AcDbEntity
8
SK1
62
256
6
ByLayer
370
18
48
1
60
0
100
AcDbLine
10
-15.03
20
4.25
30
0
11
-15.2
21
4.08
31
0
39
0
210
0
220
0
230
1
0
LINE
5
C0
100
AcDbEntity
8
SK2
62
256
6
ByLayer
370
13
48
1
60
0
100
AcDbLine
10
0.5
20
-4.25
30
0
11
0.5
21
32.971845
31
0
39
0
210
0
220
0
230
1
0
LINE
5
C2
100
AcDbEntity
8
SK2
62
256
6
ByLayer
370
13
48
1
60
0
100
AcDbLine
10
0.5875
20
4.25
30
0
11
2.5
21
4.25
31
0
39
0
210
0
220
0
230
1
0
LINE
5
C3
100
AcDbEntity
8
SK2
62
256
6
ByLayer
370
13
48
1
60
0
100
AcDbLine
10
0.5875
20
-4.25
30
0
11
2.5
21
-4.25
31
0
39
0
210
0
220
0
230
1
0
LINE
5
C4
100
AcDbEntity
8
1
62
256
6
ByLayer
370
18
48
1
60
1
100
AcDbLine
10
0.5
20
4.25
30
0
11
0.960784
21
0.750002
31
0
39
0
210
0
220
0
230
1
0
LINE
5
C5
100
AcDbEntity
8
1
62
256
6
ByLayer
370
18
48
1
60
1
100
AcDbLine
10
0.960784
20
0.750002
30
0
11
0.039216
21
0.749998
31
0
39
0
210
0
220
0
230
1
0
LINE
5
C6
100
AcDbEntity
8
1
62
256
6
ByLayer
370
18
48
1
60
1
100
AcDbLine
10
0.039216
20
0.749998
30
0
11
0.5
21
4.25
31
0
39
0
210
0
220
0
230
1
0
LINE
5
C7
100
AcDbEntity
8
1
62
256
6
ByLayer
370
18
48
1
60
1
100
AcDbLine
10
0.5
20
-4.25
30
0
11
0.039216
21
-0.750002
31
0
39
0
210
0
220
0
230
1
0
LINE
5
C8
100
AcDbEntity
8
1
62
256
6
ByLayer
370
18
48
1
60
1
100
AcDbLine
10
0.039216
20
-0.750002
30
0
11
0.960784
21
-0.749998
31
0
39
0
210
0
220
0
230
1
0
LINE
5
C9
100
AcDbEntity
8
1
62
256
6
ByLayer
370
18
48
1
60
1
100
AcDbLine
10
0.960784
20
-0.749998
30
0
11
0.5
21
-4.25
31
0
39
0
210
0
220
0
230
1
0
LINE
5
210
100
AcDbEntity
8
1
62
256
6
ByLayer
370
18
48
1
60
1
100
AcDbLine
10
0.5
20
4.25
30
0
11
0.960784
21
0.750002
31
0
39
0
210
0
220
0
230
1
0
LINE
5
211
100
AcDbEntity
8
1
62
256
6
ByLayer
370
18
48
1
60
1
100
AcDbLine
10
0.960784
20
0.750002
30
0
11
0.039216
21
0.749998
31
0
39
0
210
0
220
0
230
1
0
LINE
5
212
100
AcDbEntity
8
1
62
256
6
ByLayer
370
18
48
1
60
1
100
AcDbLine
10
0.039216
20
0.749998
30
0
11
0.5
21
4.25
31
0
39
0
210
0
220
0
230
1
0
LINE
5
214
100
AcDbEntity
8
1
62
256
6
ByLayer
370
18
48
1
60
1
100
AcDbLine
10
0.5
20
-4.25
30
0
11
0.039216
21
-0.750002
31
0
39
0
210
0
220
0
230
1
0
LINE
5
215
100
AcDbEntity
8
1
62
256
6
ByLayer
370
18
48
1
60
1
100
AcDbLine
10
0.039216
20
-0.750002
30
0
11
0.960784
21
-0.749998
31
0
39
0
210
0
220
0
230
1
0
LINE
5
216
100
AcDbEntity
8
1
62
256
6
ByLayer
370
18
48
1
60
1
100
AcDbLine
10
0.960784
20
-0.749998
30
0
11
0.5
21
-4.25
31
0
39
0
210
0
220
0
230
1
0
MTEXT
5
20B
100
AcDbEntity
8
SK2
62
256
6
ByLayer
370
18
48
1
60
0
100
AcDbMText
10
-0.841114
20
12.408437
30
0
210
0
220
0
230
1
1
%%c
40
3
41
0
44
1.084337
50
90
71
7
72
5
7
iso_b_vert
0
MTEXT
5
20E
100
AcDbEntity
8
SK2
62
256
6
ByLayer
370
18
48
1
60
0
100
AcDbMText
10
-0.689634
20
28.948413
30
0
210
0
220
0
230
1
1
\W0.7125;h9
40
3.5
41
0
44
1.084337
50
90
71
7
72
5
7
iso_b_vert
0
MTEXT
5
20F
100
AcDbEntity
8
SK2
62
256
6
ByLayer
370
18
48
1
60
0
100
AcDbMText
10
-0.841114
20
18.385
30
0
210
0
220
0
230
1
1
\W0.7346;8.50
40
3
41
0
44
1.084337
50
90
71
7
72
5
7
iso_b_vert
0
MTEXT
5
218
100
AcDbEntity
8
SK6
62
256
6
ByLayer
370
18
48
1
60
0
100
AcDbMText
10
-8.668849
20
-67.114886
30
0
210
0
220
0
230
1
1
\W0.7489;T300-PM101JB-M12X100P1PM
40
3
41
0
44
1.084337
50
0
71
7
72
5
7
iso_b_vert
0
HATCH
5
213
100
AcDbEntity
8
SK2
62
256
6
ByLayer
370
13
48
1
60
0
100
AcDbHatch
10
0
20
0
30
0
210
0
220
0
230
1
2
ANSI31
70
0
71
0
91
1
92
5
93
3
72
1
10
0.5
20
4.25
11
0.960783741552774
21
0.750001692553184
72
1
10
0.960783741552774
20
0.750001692553184
11
0.039216258447226
21
0.749998307446816
72
1
10
0.039216258447226
20
0.749998307446816
11
0.5
21
4.25
97
0
75
0
76
1
52
0
41
0.0062
77
0
78
1
53
45
43
0
44
0
45
-0.0139193969876572
46
0.0139193969876572
79
0
47
0
98
1
10
0
20
0
0
HATCH
5
217
100
AcDbEntity
8
SK2
62
256
6
ByLayer
370
13
48
1
60
0
100
AcDbHatch
10
0
20
0
30
0
210
0
220
0
230
1
2
ANSI31
70
0
71
0
91
1
92
5
93
3
72
1
10
0.5
20
-4.25
11
0.039216258447226
21
-0.750001692553184
72
1
10
0.039216258447226
20
-0.750001692553184
11
0.960783741552774
21
-0.749998307446816
72
1
10
0.960783741552774
20
-0.749998307446816
11
0.5
21
-4.25
97
0
75
0
76
1
52
0
41
0.0062
77
0
78
1
53
45
43
0
44
0
45
-0.0139193969876572
46
0.0139193969876572
79
0
47
0
98
1
10
0
20
0
0
DIMENSION
5
21B
100
AcDbEntity
8
SK2
62
256
6
ByLayer
370
18
48
1
60
0
100
AcDbDimension
2
_U0
10
44
20
-51.873779
30
0
11
9
21
-51.873779
31
0
70
32
71
1
72
1
41
1
210
0
220
0
230
1
3
Standard
100
AcDbAlignedDimension
13
-26
23
0
33
0
14
44
24
0
34
0
50
0
100
AcDbRotatedDimension
1001
ACAD
1000
DSTYLE
1002
{
1070
   371
1070
    13
1070
   372
1070
    13
1070
     3
1000

1070
   170
1070
     0
1070
   144
1040
1.0
1070
   277
1070
     2
1070
   284
1070
     8
1070
   278
1070
    46
1070
   146
1040
1.166667
1070
   345
1005
16
1070
   347
1005
16
1070
   346
1005
16
1070
   344
1005
0
1070
   343
1005
0
1070
   172
1070
     1
1070
    76
1070
     0
1070
    75
1070
     0
1070
   282
1070
     0
1070
   281
1070
     0
1070
    71
1070
     0
1070
    74
1070
     0
1070
   279
1070
     0
1070
   173
1070
     1
1070
   340
1005
20C
1070
   271
1070
     2
1070
   272
1070
     3
1070
    77
1070
     1
1070
    73
1070
     1
1070
   171
1070
     3
1070
   274
1070
     4
1070
   177
1070
     2
1070
   176
1070
     2
1070
   178
1070
     2
1070
    78
1070
     8
1070
    48
1040
-0.1
1070
    41
1040
3.5
1070
   147
1040
1.5
1070
    42
1040
1.5875
1070
    44
1040
2.0
1070
   140
1040
3.0
1002
}
1001
ACAD_DSTYLE_DIM_LINETYPE
1070
   380
1005
16
1001
ACAD_DSTYLE_DIM_EXT1_LINETYPE
1070
   381
1005
16
1001
ACAD_DSTYLE_DIM_EXT2_LINETYPE
1070
   382
1005
16
0
DIMENSION
5
234
100
AcDbEntity
8
SK2
62
256
6
ByLayer
370
18
48
1
60
0
100
AcDbDimension
2
_U1
10
9
20
-43.873779
30
0
11
26.5
21
-43.873779
31
0
70
32
71
1
72
1
41
1
210
0
220
0
230
1
3
Standard
100
AcDbAlignedDimension
13
44
23
0
33
0
14
9
24
0
34
0
50
0
100
AcDbRotatedDimension
1001
ACAD
1000
DSTYLE
1002
{
1070
   371
1070
    13
1070
   372
1070
    13
1070
     3
1000

1070
   170
1070
     0
1070
   144
1040
1.0
1070
   277
1070
     2
1070
   284
1070
     8
1070
   278
1070
    46
1070
   146
1040
1.166667
1070
   345
1005
16
1070
   347
1005
16
1070
   346
1005
16
1070
   344
1005
0
1070
   343
1005
0
1070
   172
1070
     1
1070
    76
1070
     0
1070
    75
1070
     0
1070
   282
1070
     0
1070
   281
1070
     0
1070
    71
1070
     0
1070
    74
1070
     0
1070
   279
1070
     0
1070
   173
1070
     1
1070
   340
1005
20C
1070
   271
1070
     2
1070
   272
1070
     3
1070
    77
1070
     1
1070
    73
1070
     1
1070
   171
1070
     3
1070
   274
1070
     4
1070
   177
1070
     2
1070
   176
1070
     2
1070
   178
1070
     2
1070
    78
1070
     8
1070
    48
1040
-0.1
1070
    41
1040
3.5
1070
   147
1040
1.5
1070
    42
1040
1.5875
1070
    44
1040
2.0
1070
   140
1040
3.0
1002
}
1001
ACAD_DSTYLE_DIM_LINETYPE
1070
   380
1005
16
1001
ACAD_DSTYLE_DIM_EXT1_LINETYPE
1070
   381
1005
16
1001
ACAD_DSTYLE_DIM_EXT2_LINETYPE
1070
   382
1005
16
0
DIMENSION
5
24C
100
AcDbEntity
8
2
62
256
6
ByLayer
370
18
48
1
60
0
100
AcDbDimension
2
_U2
10
14.25
20
-35.873779
30
0
11
29.125
21
-35.873779
31
0
70
32
71
1
72
1
41
1
210
0
220
0
230
1
3
Standard
100
AcDbAlignedDimension
13
44
23
0
33
0
14
14.25
24
0
34
0
50
0
100
AcDbRotatedDimension
1001
ACAD
1000
DSTYLE
1002
{
1070
   371
1070
    13
1070
   372
1070
    13
1070
     3
1000

1070
   170
1070
     0
1070
   144
1040
1.0
1070
   277
1070
     2
1070
   284
1070
     8
1070
   278
1070
    46
1070
   146
1040
1.166667
1070
   345
1005
16
1070
   347
1005
16
1070
   346
1005
16
1070
   344
1005
0
1070
   343
1005
0
1070
   172
1070
     1
1070
    76
1070
     0
1070
    75
1070
     0
1070
   282
1070
     0
1070
   281
1070
     0
1070
    71
1070
     0
1070
    74
1070
     0
1070
   279
1070
     0
1070
   173
1070
     1
1070
   340
1005
20C
1070
   271
1070
     2
1070
   272
1070
     3
1070
    77
1070
     1
1070
    73
1070
     1
1070
   171
1070
     3
1070
   274
1070
     4
1070
   177
1070
     2
1070
   176
1070
     2
1070
   178
1070
     2
1070
    78
1070
     8
1070
    48
1040
-0.1
1070
    41
1040
3.5
1070
   147
1040
1.5
1070
    42
1040
1.5875
1070
    44
1040
2.0
1070
   140
1040
3.0
1002
}
1001
ACAD_DSTYLE_DIM_LINETYPE
1070
   380
1005
16
1001
ACAD_DSTYLE_DIM_EXT1_LINETYPE
1070
   381
1005
16
1001
ACAD_DSTYLE_DIM_EXT2_LINETYPE
1070
   382
1005
16
0
DIMENSION
5
265
100
AcDbEntity
8
SK2
62
256
6
ByLayer
370
18
48
1
60
0
100
AcDbDimension
2
_U3
10
31
20
-27.873779
30
0
11
37.5
21
-27.873779
31
0
70
32
71
1
72
1
41
1
210
0
220
0
230
1
3
Standard
100
AcDbAlignedDimension
13
44
23
0
33
0
14
31
24
-4.1
34
0
50
0
100
AcDbRotatedDimension
1001
ACAD
1000
DSTYLE
1002
{
1070
   371
1070
    13
1070
   372
1070
    13
1070
     3
1000

1070
   170
1070
     0
1070
   144
1040
1.0
1070
   277
1070
     2
1070
   284
1070
     8
1070
   278
1070
    46
1070
   146
1040
1.166667
1070
   345
1005
16
1070
   347
1005
16
1070
   346
1005
16
1070
   344
1005
0
1070
   343
1005
0
1070
   172
1070
     1
1070
    76
1070
     0
1070
    75
1070
     0
1070
   282
1070
     0
1070
   281
1070
     0
1070
    71
1070
     0
1070
    74
1070
     0
1070
   279
1070
     0
1070
   173
1070
     1
1070
   340
1005
20C
1070
   271
1070
     2
1070
   272
1070
     3
1070
    77
1070
     1
1070
    73
1070
     1
1070
   171
1070
     3
1070
   274
1070
     4
1070
   177
1070
     2
1070
   176
1070
     2
1070
   178
1070
     2
1070
    78
1070
     8
1070
    48
1040
-0.1
1070
    41
1040
3.5
1070
   147
1040
1.5
1070
    42
1040
1.5875
1070
    44
1040
2.0
1070
   140
1040
3.0
1002
}
1001
ACAD_DSTYLE_DIM_LINETYPE
1070
   380
1005
16
1001
ACAD_DSTYLE_DIM_EXT1_LINETYPE
1070
   381
1005
16
1001
ACAD_DSTYLE_DIM_EXT2_LINETYPE
1070
   382
1005
16
0
DIMENSION
5
27E
100
AcDbEntity
8
SK2
62
256
6
ByLayer
370
18
48
1
60
0
100
AcDbDimension
2
_U4
10
41.25
20
12.636658
30
0
11
42.625
21
12.636658
31
0
70
32
71
1
72
1
41
1
210
0
220
0
230
1
3
Standard
100
AcDbAlignedDimension
13
44
23
0
33
0
14
41.25
24
0
34
0
50
0
100
AcDbRotatedDimension
1001
ACAD
1000
DSTYLE
1002
{
1070
   371
1070
    13
1070
   372
1070
    13
1070
     3
1000

1070
   170
1070
     0
1070
   144
1040
1.0
1070
   277
1070
     2
1070
   284
1070
     8
1070
   278
1070
    46
1070
   146
1040
1.166667
1070
   345
1005
16
1070
   347
1005
16
1070
   346
1005
16
1070
   344
1005
0
1070
   343
1005
0
1070
   172
1070
     1
1070
    76
1070
     0
1070
    75
1070
     0
1070
   282
1070
     0
1070
   281
1070
     0
1070
    71
1070
     0
1070
    74
1070
     0
1070
   279
1070
     0
1070
   173
1070
     1
1070
   340
1005
20C
1070
   271
1070
     2
1070
   272
1070
     3
1070
    77
1070
     1
1070
    73
1070
     1
1070
   171
1070
     3
1070
   274
1070
     4
1070
   177
1070
     2
1070
   176
1070
     2
1070
   178
1070
     2
1070
    78
1070
     8
1070
    48
1040
-0.1
1070
    41
1040
3.5
1070
   147
1040
1.5
1070
    42
1040
1.5875
1070
    44
1040
2.0
1070
   140
1040
3.0
1002
}
1001
ACAD_DSTYLE_DIM_LINETYPE
1070
   380
1005
16
1001
ACAD_DSTYLE_DIM_EXT1_LINETYPE
1070
   381
1005
16
1001
ACAD_DSTYLE_DIM_EXT2_LINETYPE
1070
   382
1005
16
0
DIMENSION
5
298
100
AcDbEntity
8
2
62
256
6
ByLayer
370
18
48
1
60
0
100
AcDbDimension
2
_U5
10
60.5
20
6.068329
30
0
11
60.5
21
23.425472
31
0
70
32
71
1
72
1
41
1
210
0
220
0
230
1
3
Standard
100
AcDbAlignedDimension
13
44
23
-6.068329
33
0
14
44
24
6.068329
34
0
50
90
100
AcDbRotatedDimension
1001
ACAD
1000
DSTYLE
1002
{
1070
   371
1070
    13
1070
   372
1070
    13
1070
     3
1000

1070
   170
1070
     0
1070
   144
1040
1.0
1070
   277
1070
     2
1070
   284
1070
     8
1070
   278
1070
    46
1070
   146
1040
1.166667
1070
   345
1005
16
1070
   347
1005
16
1070
   346
1005
16
1070
   344
1005
0
1070
   343
1005
0
1070
   172
1070
     1
1070
    76
1070
     0
1070
    75
1070
     0
1070
   282
1070
     0
1070
   281
1070
     0
1070
    71
1070
     0
1070
    74
1070
     0
1070
   279
1070
     0
1070
   173
1070
     1
1070
   340
1005
20C
1070
   271
1070
     2
1070
   272
1070
     3
1070
    77
1070
     1
1070
    73
1070
     0
1070
   171
1070
     3
1070
   274
1070
     4
1070
   177
1070
     2
1070
   176
1070
     2
1070
   178
1070
     2
1070
    78
1070
     8
1070
    48
1040
-0.1
1070
    41
1040
3.5
1070
   147
1040
1.5
1070
    42
1040
1.5875
1070
    44
1040
2.0
1070
   140
1040
3.0
1002
}
1001
ACAD_DSTYLE_DIM_LINETYPE
1070
   380
1005
16
1001
ACAD_DSTYLE_DIM_EXT1_LINETYPE
1070
   381
1005
16
1001
ACAD_DSTYLE_DIM_EXT2_LINETYPE
1070
   382
1005
16
0
DIMENSION
5
2B3
100
AcDbEntity
8
SK2
62
256
6
ByLayer
370
18
48
1
60
0
100
AcDbDimension
2
_U6
10
-31.5
20
-3.25
30
0
11
-31.5
21
21.419655
31
0
70
32
71
1
72
1
41
1
210
0
220
0
230
1
3
Standard
100
AcDbAlignedDimension
13
-26
23
3.25
33
0
14
-26
24
-3.25
34
0
50
90
100
AcDbRotatedDimension
1001
ACAD
1000
DSTYLE
1002
{
1070
   371
1070
    13
1070
   372
1070
    13
1070
     3
1000

1070
   170
1070
     0
1070
   144
1040
1.0
1070
   277
1070
     2
1070
   284
1070
     8
1070
   278
1070
    46
1070
   146
1040
1.166667
1070
   345
1005
16
1070
   347
1005
16
1070
   346
1005
16
1070
   344
1005
0
1070
   343
1005
0
1070
   172
1070
     1
1070
    76
1070
     0
1070
    75
1070
     0
1070
   282
1070
     0
1070
   281
1070
     0
1070
    71
1070
     0
1070
    74
1070
     0
1070
   279
1070
     0
1070
   173
1070
     1
1070
   340
1005
20C
1070
   271
1070
     2
1070
   272
1070
     3
1070
    77
1070
     1
1070
    73
1070
     0
1070
   171
1070
     3
1070
   274
1070
     4
1070
   177
1070
     2
1070
   176
1070
     2
1070
   178
1070
     2
1070
    78
1070
     8
1070
    48
1040
-0.1
1070
    41
1040
3.5
1070
   147
1040
1.5
1070
    42
1040
1.5875
1070
    44
1040
2.0
1070
   140
1040
3.0
1002
}
1001
ACAD_DSTYLE_DIM_LINETYPE
1070
   380
1005
16
1001
ACAD_DSTYLE_DIM_EXT1_LINETYPE
1070
   381
1005
16
1001
ACAD_DSTYLE_DIM_EXT2_LINETYPE
1070
   382
1005
16
0
ENDSEC
0
SECTION
2
OBJECTS
0
DICTIONARY
5
33d
330
0
100
AcDbDictionary
280
0
281
1
3
ACAD_GROUP
350
33e
3
ACAD_MLINESTYLE
350
33f
0
DICTIONARY
5
33e
330
0
100
AcDbDictionary
280
0
281
1
0
DICTIONARY
5
33f
330
0
100
AcDbDictionary
280
0
281
1
3
Standard
350
18
0
MLINESTYLE
5
18
330
33f
100
AcDbMlineStyle
2
Standard
70
0
3

62
256
51
90
52
90
71
2
49
-0.5
62
256
6
ByLayer
49
0.5
62
256
6
ByLayer
0
RASTERVARIABLES
5
32b
330

100
AcDbRasterVariables
90
0
70
1
71
1
72
1
0
ENDSEC
0
EOF
