0
SECTION
2
HEADER
9
$ACADVER
1
AC1015
9
$DWGCODEPAGE
3
ANSI_1252
9
$HANDSEED
5
30d
9
$ANGBASE
50
0
9
$ANGDIR
70
0
9
$ATTMODE
70
1
9
$AUNITS
70
0
9
$AUPREC
70
0
9
$CECOLOR
62
256
9
$CELTSCALE
40
1
9
$CELTYPE
6
ByLayer
9
$CELWEIGHT
370
18
9
$CLAYER
8
0
9
$CMLJUST
70
0
9
$CMLSCALE
40
1
9
$CMLSTYLE
2
Standard
9
$DIMSTYLE
2
Standard
9
$TEXTSIZE
40
0.2
9
$TEXTSTYLE
7
Standard
9
$LUNITS
70
2
9
$LUPREC
70
4
9
$EXTNAMES
290
1
9
$INSUNITS
70
4
9
$LTSCALE
40
1
9
$LWDISPLAY
290
1
9
$PDMODE
70
0
9
$PDSIZE
40
0
9
$PLINEGEN
70
0
0
ENDSEC
0
SECTION
2
CLASSES
0
CLASS
1
RASTERVARIABLES
2
AcDbRasterVariables
3
ISM
90
0
280
0
281
0
0
ENDSEC
0
SECTION
2
TABLES
0
TABLE
2
VPORT
5
303
100
AcDbSymbolTable
0
VPORT
5
1
100
AcDbSymbolTableRecord
100
AcDbViewportTableRecord
2
*Active
70
0
10
0
20
0
11
1
21
1
12
-1
22
1
13
0
23
0
14
0.5
24
0.5
15
10
25
10
16
0
26
0
36
1
17
0
27
0
37
0
0
ENDTAB
0
TABLE
2
LTYPE
5
304
100
AcDbSymbolTable
0
LTYPE
5
14
100
AcDbSymbolTableRecord
100
AcDbLinetypeTableRecord
70
0
2
ByBlock
3

72
65
73
0
40
0
0
LTYPE
5
15
100
AcDbSymbolTableRecord
100
AcDbLinetypeTableRecord
70
0
2
ByLayer
3

72
65
73
0
40
0
0
LTYPE
5
16
100
AcDbSymbolTableRecord
100
AcDbLinetypeTableRecord
70
0
2
Continuous
3
Solid line
72
65
73
0
40
0
0
LTYPE
5
6E
100
AcDbSymbolTableRecord
100
AcDbLinetypeTableRecord
70
0
2
CENTER
3
____ _ ____ _ ____ _ ____
72
65
73
4
40
47.5
49
22
74
0
49
-8.5
74
0
49
8.5
74
0
49
-8.5
74
0
0
LTYPE
5
6F
100
AcDbSymbolTableRecord
100
AcDbLinetypeTableRecord
70
0
2
DASHED
3
__ __ __ __ __ __ __ __ __
72
65
73
2
40
25.72
49
12.86
74
0
49
-12.86
74
0
0
ENDTAB
0
TABLE
2
LAYER
5
305
100
AcDbSymbolTable
0
LAYER
5
10
100
AcDbSymbolTableRecord
100
AcDbLayerTableRecord
2
0
70
0
62
7
6
Continuous
290
1
370
-3
390
0
0
LAYER
5
71
100
AcDbSymbolTableRecord
100
AcDbLayerTableRecord
2
81
70
0
62
-3
6
Continuous
290
1
370
-3
390
0
0
LAYER
5
73
100
AcDbSymbolTableRecord
100
AcDbLayerTableRecord
2
80
70
0
62
-6
6
Continuous
290
1
370
-3
390
0
0
LAYER
5
75
100
AcDbSymbolTableRecord
100
AcDbLayerTableRecord
2
1
70
0
62
4
6
Continuous
290
1
370
-3
390
0
0
LAYER
5
85
100
AcDbSymbolTableRecord
100
AcDbLayerTableRecord
2
4
70
0
62
-2
6
CENTER
290
1
370
-3
390
0
0
LAYER
5
1E1
100
AcDbSymbolTableRecord
100
AcDbLayerTableRecord
2
Defpoints
70
0
62
7
6
Continuous
290
0
370
-3
390
0
0
LAYER
5
21E
100
AcDbSymbolTableRecord
100
AcDbLayerTableRecord
2
2
70
0
62
7
6
Continuous
290
1
370
-3
390
0
0
LAYER
5
2ef
100
AcDbSymbolTableRecord
100
AcDbLayerTableRecord
2
SK4
70
0
62
2
6
CENTER
290
1
370
-3
390
0
0
LAYER
5
2f0
100
AcDbSymbolTableRecord
100
AcDbLayerTableRecord
2
SK1
70
0
62
4
6
Continuous
290
1
370
-3
390
0
0
LAYER
5
2f1
100
AcDbSymbolTableRecord
100
AcDbLayerTableRecord
2
SK2
70
0
62
7
6
Continuous
290
1
370
-3
390
0
0
LAYER
5
2f2
100
AcDbSymbolTableRecord
100
AcDbLayerTableRecord
2
SK6
70
0
62
5
6
Continuous
290
1
370
-3
390
0
0
ENDTAB
0
TABLE
2
STYLE
5
306
100
AcDbSymbolTable
0
STYLE
5
11
100
AcDbSymbolTableRecord
100
AcDbTextStyleTableRecord
2
Standard
3
txt
70
0
71
0
40
0
41
1
42
0
50
0
0
STYLE
5
1CF
100
AcDbSymbolTableRecord
100
AcDbTextStyleTableRecord
2
iso_b_vert
3
simplex.shx
70
0
71
0
40
0
41
1
42
0
50
0
0
STYLE
5
1D0
100
AcDbSymbolTableRecord
100
AcDbTextStyleTableRecord
2
DWGDirectTextStyle
3
simplex
70
0
71
0
40
0
41
1
42
0
50
0
0
ENDTAB
0
TABLE
2
DIMSTYLE
5
307
100
AcDbSymbolTable
100
AcDbDimStyleTable
0
DIMSTYLE
105
27
100
AcDbSymbolTableRecord
100
AcDbDimStyleTableRecord
2
Standard
70
0
3
<>
41
0.18
42
0.0625
44
0.18
140
0.18
147
0.09
73
0
74
0
77
1
271
2
275
0
278
52
280
0
340
11
0
ENDTAB
0
TABLE
2
VIEW
5
308
100
AcDbSymbolTable
0
ENDTAB
0
TABLE
2
UCS
5
309
100
AcDbSymbolTable
0
ENDTAB
0
TABLE
2
APPID
5
30a
100
AcDbSymbolTable
0
APPID
5
12
100
AcDbSymbolTableRecord
100
AcDbRegAppTableRecord
2
ACAD
70
0
0
APPID
5
1DD
100
AcDbSymbolTableRecord
100
AcDbRegAppTableRecord
2
ACAD_DSTYLE_DIMBREAK
70
0
0
APPID
5
2AE
100
AcDbSymbolTableRecord
100
AcDbRegAppTableRecord
2
ACAD_DSTYLE_DIM_LINETYPE
70
0
0
APPID
5
2AF
100
AcDbSymbolTableRecord
100
AcDbRegAppTableRecord
2
ACAD_DSTYLE_DIM_EXT1_LINETYPE
70
0
0
APPID
5
2B0
100
AcDbSymbolTableRecord
100
AcDbRegAppTableRecord
2
ACAD_DSTYLE_DIM_EXT2_LINETYPE
70
0
0
APPID
5
2EB
100
AcDbSymbolTableRecord
100
AcDbRegAppTableRecord
2
ACAD_MLEADERVER
70
0
0
ENDTAB
0
TABLE
2
BLOCK_RECORD
5
30b
100
AcDbSymbolTable
0
BLOCK_RECORD
5
1F
100
AcDbSymbolTableRecord
100
AcDbBlockTableRecord
2
*Model_Space
340
0
70
0
0
BLOCK_RECORD
5
1B
100
AcDbSymbolTableRecord
100
AcDbBlockTableRecord
2
*Paper_Space
340
0
70
0
0
BLOCK_RECORD
5
23
100
AcDbSymbolTableRecord
100
AcDbBlockTableRecord
2
*Paper_Space0
340
0
70
0
0
BLOCK_RECORD
5
1E2
100
AcDbSymbolTableRecord
100
AcDbBlockTableRecord
2
*D1
340
0
70
0
0
BLOCK_RECORD
5
1EE
100
AcDbSymbolTableRecord
100
AcDbBlockTableRecord
2
_U0
340
0
70
0
0
BLOCK_RECORD
5
1FA
100
AcDbSymbolTableRecord
100
AcDbBlockTableRecord
2
*D3
340
0
70
0
0
BLOCK_RECORD
5
206
100
AcDbSymbolTableRecord
100
AcDbBlockTableRecord
2
_U1
340
0
70
0
0
BLOCK_RECORD
5
212
100
AcDbSymbolTableRecord
100
AcDbBlockTableRecord
2
*D5
340
0
70
0
0
BLOCK_RECORD
5
21F
100
AcDbSymbolTableRecord
100
AcDbBlockTableRecord
2
_U2
340
0
70
0
0
BLOCK_RECORD
5
22B
100
AcDbSymbolTableRecord
100
AcDbBlockTableRecord
2
*D7
340
0
70
0
0
BLOCK_RECORD
5
238
100
AcDbSymbolTableRecord
100
AcDbBlockTableRecord
2
_U3
340
0
70
0
0
BLOCK_RECORD
5
244
100
AcDbSymbolTableRecord
100
AcDbBlockTableRecord
2
*D9
340
0
70
0
0
BLOCK_RECORD
5
251
100
AcDbSymbolTableRecord
100
AcDbBlockTableRecord
2
_U4
340
0
70
0
0
BLOCK_RECORD
5
25E
100
AcDbSymbolTableRecord
100
AcDbBlockTableRecord
2
*D11
340
0
70
0
0
BLOCK_RECORD
5
26C
100
AcDbSymbolTableRecord
100
AcDbBlockTableRecord
2
_U5
340
0
70
0
0
BLOCK_RECORD
5
279
100
AcDbSymbolTableRecord
100
AcDbBlockTableRecord
2
*D13
340
0
70
0
0
BLOCK_RECORD
5
287
100
AcDbSymbolTableRecord
100
AcDbBlockTableRecord
2
_U6
340
0
70
0
0
ENDTAB
0
ENDSEC
0
SECTION
2
BLOCKS
0
BLOCK
5
20
100
AcDbEntity
8
0
100
AcDbBlockBegin
2
*Model_Space
70
0
10
0
20
0
30
0
3
*Model_Space
0
ENDBLK
5
21
100
AcDbEntity
8
0
100
AcDbBlockEnd
0
BLOCK
5
1C
100
AcDbEntity
8
0
100
AcDbBlockBegin
2
*Paper_Space
70
0
10
0
20
0
30
0
3
*Paper_Space
0
ENDBLK
5
1D
100
AcDbEntity
8
0
100
AcDbBlockEnd
0
BLOCK
5
24
100
AcDbEntity
8
0
100
AcDbBlockBegin
2
*Paper_Space0
70
0
10
0
20
0
30
0
3
*Paper_Space0
0
ENDBLK
5
25
100
AcDbEntity
8
0
100
AcDbBlockEnd
0
BLOCK
5
1E3
100
AcDbEntity
8
0
100
AcDbBlockBegin
2
*D1
70
1
10
0
20
0
30
0
3
*D1
0
LINE
5
1E5
100
AcDbEntity
8
0
62
256
6
ByLayer
370
-2
48
1
60
0
100
AcDbLine
10
-23
20
-1.5875
30
0
11
-23
21
-53.640726
31
0
39
0
210
0
220
0
230
1
0
LINE
5
1E6
100
AcDbEntity
8
0
62
256
6
ByLayer
370
-2
48
1
60
0
100
AcDbLine
10
52
20
-1.5875
30
0
11
52
21
-53.640726
31
0
39
0
210
0
220
0
230
1
0
LINE
5
1E7
100
AcDbEntity
8
0
62
256
6
ByLayer
370
-2
48
1
60
0
100
AcDbLine
10
-19.5
20
-51.640726
30
0
11
48.5
21
-51.640726
31
0
39
0
210
0
220
0
230
1
0
SOLID
5
1E8
100
AcDbEntity
8
0
62
256
6
ByLayer
370
-1
48
1
60
0
100
AcDbTrace
10
-19.5
20
-51.057393
30
0
11
-19.5
21
-52.224059
31
0
12
-23
22
-51.640726
32
0
13
-23
23
-51.640726
33
0
39
0
210
0
220
0
230
1
0
SOLID
5
1E9
100
AcDbEntity
8
0
62
256
6
ByLayer
370
-1
48
1
60
0
100
AcDbTrace
10
48.5
20
-52.224059
30
0
11
48.5
21
-51.057393
31
0
12
52
22
-51.640726
32
0
13
52
23
-51.640726
33
0
39
0
210
0
220
0
230
1
0
MTEXT
5
1EA
100
AcDbEntity
8
0
62
256
6
ByLayer
370
18
48
1
60
0
100
AcDbMText
10
14.5
20
-45.640726
30
0
210
0
220
0
230
1
1
\A1;75
40
3
41
0
44
1
50
0
71
5
72
5
7
iso_b_vert
0
POINT
5
1EB
100
AcDbEntity
8
Defpoints
62
0
6
ByLayer
370
-1
48
1
60
0
100
AcDbPoint
10
-23
20
0
30
0
39
0
210
0
220
0
230
1
50
360
0
POINT
5
1EC
100
AcDbEntity
8
Defpoints
62
0
6
ByLayer
370
-1
48
1
60
0
100
AcDbPoint
10
52
20
0
30
0
39
0
210
0
220
0
230
1
50
360
0
POINT
5
1ED
100
AcDbEntity
8
Defpoints
62
0
6
ByLayer
370
-1
48
1
60
0
100
AcDbPoint
10
52
20
-51.640726
30
0
39
0
210
0
220
0
230
1
50
360
0
ENDBLK
5
1E4
100
AcDbEntity
8
0
100
AcDbBlockEnd
0
BLOCK
5
1F5
100
AcDbEntity
8
0
100
AcDbBlockBegin
2
_U0
70
0
10
0
20
0
30
0
3
_U0
0
MTEXT
5
1EF
100
AcDbEntity
8
SK2
62
256
6
ByLayer
370
18
48
1
60
0
100
AcDbMText
10
11.138544
20
-50.755611
30
0
210
0
220
0
230
1
1
\W0.7346;75.0
40
3
41
0
44
1.084337
50
0
71
7
72
5
7
iso_b_vert
0
LINE
5
1F0
100
AcDbEntity
8
SK2
62
256
6
ByLayer
370
13
48
1
60
0
100
AcDbLine
10
-23
20
-1.5875
30
0
11
-23
21
-53.640726
31
0
39
0
210
0
220
0
230
1
0
LINE
5
1F1
100
AcDbEntity
8
SK2
62
256
6
ByLayer
370
13
48
1
60
0
100
AcDbLine
10
52
20
-1.5875
30
0
11
52
21
-53.640726
31
0
39
0
210
0
220
0
230
1
0
LINE
5
1F2
100
AcDbEntity
8
SK2
62
256
6
ByLayer
370
13
48
1
60
0
100
AcDbLine
10
-23
20
-51.640726
30
0
11
52
21
-51.640726
31
0
39
0
210
0
220
0
230
1
0
SOLID
5
1F3
100
AcDbEntity
8
SK2
62
256
6
ByLayer
370
18
48
1
60
0
100
AcDbTrace
10
-23
20
-51.640726
30
0
11
-19.500002
21
-51.179942
31
0
12
-19.499998
22
-52.10151
32
0
13
-19.499998
23
-52.10151
33
0
39
0
210
0
220
0
230
1
0
SOLID
5
1F4
100
AcDbEntity
8
SK2
62
256
6
ByLayer
370
18
48
1
60
0
100
AcDbTrace
10
52
20
-51.640726
30
0
11
48.500002
21
-52.10151
31
0
12
48.499998
22
-51.179942
32
0
13
48.499998
23
-51.179942
33
0
39
0
210
0
220
0
230
1
0
ENDBLK
5
1F6
100
AcDbEntity
8
0
100
AcDbBlockEnd
0
BLOCK
5
1FB
100
AcDbEntity
8
0
100
AcDbBlockBegin
2
*D3
70
1
10
0
20
0
30
0
3
*D3
0
LINE
5
1FD
100
AcDbEntity
8
0
62
256
6
ByLayer
370
-2
48
1
60
0
100
AcDbLine
10
52
20
-1.5875
30
0
11
52
21
-45.640726
31
0
39
0
210
0
220
0
230
1
0
LINE
5
1FE
100
AcDbEntity
8
0
62
256
6
ByLayer
370
-2
48
1
60
0
100
AcDbLine
10
13
20
-1.5875
30
0
11
13
21
-45.640726
31
0
39
0
210
0
220
0
230
1
0
LINE
5
1FF
100
AcDbEntity
8
0
62
256
6
ByLayer
370
-2
48
1
60
0
100
AcDbLine
10
48.5
20
-43.640726
30
0
11
16.5
21
-43.640726
31
0
39
0
210
0
220
0
230
1
0
SOLID
5
200
100
AcDbEntity
8
0
62
256
6
ByLayer
370
-1
48
1
60
0
100
AcDbTrace
10
48.5
20
-44.224059
30
0
11
48.5
21
-43.057393
31
0
12
52
22
-43.640726
32
0
13
52
23
-43.640726
33
0
39
0
210
0
220
0
230
1
0
SOLID
5
201
100
AcDbEntity
8
0
62
256
6
ByLayer
370
-1
48
1
60
0
100
AcDbTrace
10
16.5
20
-43.057393
30
0
11
16.5
21
-44.224059
31
0
12
13
22
-43.640726
32
0
13
13
23
-43.640726
33
0
39
0
210
0
220
0
230
1
0
MTEXT
5
202
100
AcDbEntity
8
0
62
256
6
ByLayer
370
18
48
1
60
0
100
AcDbMText
10
32.5
20
-37.640726
30
0
210
0
220
0
230
1
1
\A1;39
40
3
41
0
44
1
50
0
71
5
72
5
7
iso_b_vert
0
POINT
5
203
100
AcDbEntity
8
Defpoints
62
0
6
ByLayer
370
-1
48
1
60
0
100
AcDbPoint
10
52
20
0
30
0
39
0
210
0
220
0
230
1
50
360
0
POINT
5
204
100
AcDbEntity
8
Defpoints
62
0
6
ByLayer
370
-1
48
1
60
0
100
AcDbPoint
10
13
20
0
30
0
39
0
210
0
220
0
230
1
50
360
0
POINT
5
205
100
AcDbEntity
8
Defpoints
62
0
6
ByLayer
370
-1
48
1
60
0
100
AcDbPoint
10
13
20
-43.640726
30
0
39
0
210
0
220
0
230
1
50
360
0
ENDBLK
5
1FC
100
AcDbEntity
8
0
100
AcDbBlockEnd
0
BLOCK
5
20D
100
AcDbEntity
8
0
100
AcDbBlockBegin
2
_U1
70
0
10
0
20
0
30
0
3
_U1
0
MTEXT
5
207
100
AcDbEntity
8
SK2
62
256
6
ByLayer
370
18
48
1
60
0
100
AcDbMText
10
29.138544
20
-42.755611
30
0
210
0
220
0
230
1
1
\W0.7346;39.0
40
3
41
0
44
1.084337
50
0
71
7
72
5
7
iso_b_vert
0
LINE
5
208
100
AcDbEntity
8
SK2
62
256
6
ByLayer
370
13
48
1
60
0
100
AcDbLine
10
52
20
-1.5875
30
0
11
52
21
-45.640726
31
0
39
0
210
0
220
0
230
1
0
LINE
5
209
100
AcDbEntity
8
SK2
62
256
6
ByLayer
370
13
48
1
60
0
100
AcDbLine
10
13
20
-1.5875
30
0
11
13
21
-45.640726
31
0
39
0
210
0
220
0
230
1
0
LINE
5
20A
100
AcDbEntity
8
SK2
62
256
6
ByLayer
370
13
48
1
60
0
100
AcDbLine
10
52
20
-43.640726
30
0
11
13
21
-43.640726
31
0
39
0
210
0
220
0
230
1
0
SOLID
5
20B
100
AcDbEntity
8
SK2
62
256
6
ByLayer
370
18
48
1
60
0
100
AcDbTrace
10
52
20
-43.640726
30
0
11
48.500002
21
-44.10151
31
0
12
48.499998
22
-43.179942
32
0
13
48.499998
23
-43.179942
33
0
39
0
210
0
220
0
230
1
0
SOLID
5
20C
100
AcDbEntity
8
SK2
62
256
6
ByLayer
370
18
48
1
60
0
100
AcDbTrace
10
13
20
-43.640726
30
0
11
16.499998
21
-43.179942
31
0
12
16.500002
22
-44.10151
32
0
13
16.500002
23
-44.10151
33
0
39
0
210
0
220
0
230
1
0
ENDBLK
5
20E
100
AcDbEntity
8
0
100
AcDbBlockEnd
0
BLOCK
5
213
100
AcDbEntity
8
0
100
AcDbBlockBegin
2
*D5
70
1
10
0
20
0
30
0
3
*D5
0
LINE
5
215
100
AcDbEntity
8
0
62
256
6
ByLayer
370
-2
48
1
60
0
100
AcDbLine
10
52
20
-1.5875
30
0
11
52
21
-37.640726
31
0
39
0
210
0
220
0
230
1
0
LINE
5
216
100
AcDbEntity
8
0
62
256
6
ByLayer
370
-2
48
1
60
0
100
AcDbLine
10
18.85
20
-1.5875
30
0
11
18.85
21
-37.640726
31
0
39
0
210
0
220
0
230
1
0
LINE
5
217
100
AcDbEntity
8
0
62
256
6
ByLayer
370
-2
48
1
60
0
100
AcDbLine
10
48.5
20
-35.640726
30
0
11
22.35
21
-35.640726
31
0
39
0
210
0
220
0
230
1
0
SOLID
5
218
100
AcDbEntity
8
0
62
256
6
ByLayer
370
-1
48
1
60
0
100
AcDbTrace
10
48.5
20
-36.224059
30
0
11
48.5
21
-35.057393
31
0
12
52
22
-35.640726
32
0
13
52
23
-35.640726
33
0
39
0
210
0
220
0
230
1
0
SOLID
5
219
100
AcDbEntity
8
0
62
256
6
ByLayer
370
-1
48
1
60
0
100
AcDbTrace
10
22.35
20
-35.057393
30
0
11
22.35
21
-36.224059
31
0
12
18.85
22
-35.640726
32
0
13
18.85
23
-35.640726
33
0
39
0
210
0
220
0
230
1
0
MTEXT
5
21A
100
AcDbEntity
8
0
62
256
6
ByLayer
370
18
48
1
60
0
100
AcDbMText
10
35.425
20
-29.640726
30
0
210
0
220
0
230
1
1
\A1;33.15
40
3
41
0
44
1
50
0
71
5
72
5
7
iso_b_vert
0
POINT
5
21B
100
AcDbEntity
8
Defpoints
62
0
6
ByLayer
370
-1
48
1
60
0
100
AcDbPoint
10
52
20
0
30
0
39
0
210
0
220
0
230
1
50
360
0
POINT
5
21C
100
AcDbEntity
8
Defpoints
62
0
6
ByLayer
370
-1
48
1
60
0
100
AcDbPoint
10
18.85
20
0
30
0
39
0
210
0
220
0
230
1
50
360
0
POINT
5
21D
100
AcDbEntity
8
Defpoints
62
0
6
ByLayer
370
-1
48
1
60
0
100
AcDbPoint
10
18.85
20
-35.640726
30
0
39
0
210
0
220
0
230
1
50
360
0
ENDBLK
5
214
100
AcDbEntity
8
0
100
AcDbBlockEnd
0
BLOCK
5
226
100
AcDbEntity
8
0
100
AcDbBlockBegin
2
_U2
70
0
10
0
20
0
30
0
3
_U2
0
MTEXT
5
220
100
AcDbEntity
8
2
62
256
6
ByLayer
370
18
48
1
60
0
100
AcDbMText
10
32.063544
20
-34.755611
30
0
210
0
220
0
230
1
1
\W0.7346;33.2
40
3
41
0
44
1.084337
50
0
71
7
72
5
7
iso_b_vert
0
LINE
5
221
100
AcDbEntity
8
2
62
256
6
ByLayer
370
13
48
1
60
0
100
AcDbLine
10
52
20
-1.5875
30
0
11
52
21
-37.640726
31
0
39
0
210
0
220
0
230
1
0
LINE
5
222
100
AcDbEntity
8
2
62
256
6
ByLayer
370
13
48
1
60
0
100
AcDbLine
10
18.85
20
-1.5875
30
0
11
18.85
21
-37.640726
31
0
39
0
210
0
220
0
230
1
0
LINE
5
223
100
AcDbEntity
8
2
62
256
6
ByLayer
370
13
48
1
60
0
100
AcDbLine
10
52
20
-35.640726
30
0
11
18.85
21
-35.640726
31
0
39
0
210
0
220
0
230
1
0
SOLID
5
224
100
AcDbEntity
8
2
62
256
6
ByLayer
370
18
48
1
60
0
100
AcDbTrace
10
52
20
-35.640726
30
0
11
48.500002
21
-36.10151
31
0
12
48.499998
22
-35.179942
32
0
13
48.499998
23
-35.179942
33
0
39
0
210
0
220
0
230
1
0
SOLID
5
225
100
AcDbEntity
8
2
62
256
6
ByLayer
370
18
48
1
60
0
100
AcDbTrace
10
18.85
20
-35.640726
30
0
11
22.349998
21
-35.179942
31
0
12
22.350002
22
-36.10151
32
0
13
22.350002
23
-36.10151
33
0
39
0
210
0
220
0
230
1
0
ENDBLK
5
227
100
AcDbEntity
8
0
100
AcDbBlockEnd
0
BLOCK
5
22C
100
AcDbEntity
8
0
100
AcDbBlockBegin
2
*D7
70
1
10
0
20
0
30
0
3
*D7
0
LINE
5
22E
100
AcDbEntity
8
0
62
256
6
ByLayer
370
-2
48
1
60
0
100
AcDbLine
10
52
20
-1.5875
30
0
11
52
21
-29.640726
31
0
39
0
210
0
220
0
230
1
0
LINE
5
22F
100
AcDbEntity
8
0
62
256
6
ByLayer
370
-2
48
1
60
0
100
AcDbLine
10
37
20
-4.9375
30
0
11
37
21
-29.640726
31
0
39
0
210
0
220
0
230
1
0
LINE
5
230
100
AcDbEntity
8
0
62
256
6
ByLayer
370
-2
48
1
60
0
100
AcDbLine
10
55.5
20
-27.640726
30
0
11
59
21
-27.640726
31
0
39
0
210
0
220
0
230
1
0
LINE
5
231
100
AcDbEntity
8
0
62
256
6
ByLayer
370
-2
48
1
60
0
100
AcDbLine
10
33.5
20
-27.640726
30
0
11
30
21
-27.640726
31
0
39
0
210
0
220
0
230
1
0
SOLID
5
232
100
AcDbEntity
8
0
62
256
6
ByLayer
370
-1
48
1
60
0
100
AcDbTrace
10
55.5
20
-27.057393
30
0
11
55.5
21
-28.224059
31
0
12
52
22
-27.640726
32
0
13
52
23
-27.640726
33
0
39
0
210
0
220
0
230
1
0
SOLID
5
233
100
AcDbEntity
8
0
62
256
6
ByLayer
370
-1
48
1
60
0
100
AcDbTrace
10
33.5
20
-28.224059
30
0
11
33.5
21
-27.057393
31
0
12
37
22
-27.640726
32
0
13
37
23
-27.640726
33
0
39
0
210
0
220
0
230
1
0
MTEXT
5
234
100
AcDbEntity
8
0
62
256
6
ByLayer
370
18
48
1
60
0
100
AcDbMText
10
44.5
20
-21.640726
30
0
210
0
220
0
230
1
1
\A1;15
40
3
41
0
44
1
50
0
71
5
72
5
7
iso_b_vert
0
POINT
5
235
100
AcDbEntity
8
Defpoints
62
0
6
ByLayer
370
-1
48
1
60
0
100
AcDbPoint
10
52
20
0
30
0
39
0
210
0
220
0
230
1
50
360
0
POINT
5
236
100
AcDbEntity
8
Defpoints
62
0
6
ByLayer
370
-1
48
1
60
0
100
AcDbPoint
10
37
20
-3.35
30
0
39
0
210
0
220
0
230
1
50
360
0
POINT
5
237
100
AcDbEntity
8
Defpoints
62
0
6
ByLayer
370
-1
48
1
60
0
100
AcDbPoint
10
37
20
-27.640726
30
0
39
0
210
0
220
0
230
1
50
360
0
ENDBLK
5
22D
100
AcDbEntity
8
0
100
AcDbBlockEnd
0
BLOCK
5
23F
100
AcDbEntity
8
0
100
AcDbBlockBegin
2
_U3
70
0
10
0
20
0
30
0
3
_U3
0
MTEXT
5
239
100
AcDbEntity
8
SK2
62
256
6
ByLayer
370
18
48
1
60
0
100
AcDbMText
10
41.513486
20
-26.755611
30
0
210
0
220
0
230
1
1
\W0.6563;15.0
40
3
41
0
44
1.084337
50
0
71
7
72
5
7
iso_b_vert
0
LINE
5
23A
100
AcDbEntity
8
SK2
62
256
6
ByLayer
370
13
48
1
60
0
100
AcDbLine
10
52
20
-1.5875
30
0
11
52
21
-29.640726
31
0
39
0
210
0
220
0
230
1
0
LINE
5
23B
100
AcDbEntity
8
SK2
62
256
6
ByLayer
370
13
48
1
60
0
100
AcDbLine
10
37
20
-4.9375
30
0
11
37
21
-29.640726
31
0
39
0
210
0
220
0
230
1
0
LINE
5
23C
100
AcDbEntity
8
SK2
62
256
6
ByLayer
370
13
48
1
60
0
100
AcDbLine
10
52
20
-27.640726
30
0
11
37
21
-27.640726
31
0
39
0
210
0
220
0
230
1
0
SOLID
5
23D
100
AcDbEntity
8
SK2
62
256
6
ByLayer
370
18
48
1
60
0
100
AcDbTrace
10
52
20
-27.640726
30
0
11
48.500002
21
-28.10151
31
0
12
48.499998
22
-27.179942
32
0
13
48.499998
23
-27.179942
33
0
39
0
210
0
220
0
230
1
0
SOLID
5
23E
100
AcDbEntity
8
SK2
62
256
6
ByLayer
370
18
48
1
60
0
100
AcDbTrace
10
37
20
-27.640726
30
0
11
40.499998
21
-27.179942
31
0
12
40.500002
22
-28.10151
32
0
13
40.500002
23
-28.10151
33
0
39
0
210
0
220
0
230
1
0
ENDBLK
5
240
100
AcDbEntity
8
0
100
AcDbBlockEnd
0
BLOCK
5
245
100
AcDbEntity
8
0
100
AcDbBlockBegin
2
*D9
70
1
10
0
20
0
30
0
3
*D9
0
LINE
5
247
100
AcDbEntity
8
0
62
256
6
ByLayer
370
-2
48
1
60
0
100
AcDbLine
10
52
20
1.5875
30
0
11
52
21
12.651374
31
0
39
0
210
0
220
0
230
1
0
LINE
5
248
100
AcDbEntity
8
0
62
256
6
ByLayer
370
-2
48
1
60
0
100
AcDbLine
10
47.87
20
1.5875
30
0
11
47.87
21
12.651374
31
0
39
0
210
0
220
0
230
1
0
LINE
5
249
100
AcDbEntity
8
0
62
256
6
ByLayer
370
-2
48
1
60
0
100
AcDbLine
10
55.5
20
10.651374
30
0
11
59
21
10.651374
31
0
39
0
210
0
220
0
230
1
0
LINE
5
24A
100
AcDbEntity
8
0
62
256
6
ByLayer
370
-2
48
1
60
0
100
AcDbLine
10
44.37
20
10.651374
30
0
11
40.87
21
10.651374
31
0
39
0
210
0
220
0
230
1
0
SOLID
5
24B
100
AcDbEntity
8
0
62
256
6
ByLayer
370
-1
48
1
60
0
100
AcDbTrace
10
55.5
20
11.234707
30
0
11
55.5
21
10.06804
31
0
12
52
22
10.651374
32
0
13
52
23
10.651374
33
0
39
0
210
0
220
0
230
1
0
SOLID
5
24C
100
AcDbEntity
8
0
62
256
6
ByLayer
370
-1
48
1
60
0
100
AcDbTrace
10
44.37
20
10.06804
30
0
11
44.37
21
11.234707
31
0
12
47.87
22
10.651374
32
0
13
47.87
23
10.651374
33
0
39
0
210
0
220
0
230
1
0
MTEXT
5
24D
100
AcDbEntity
8
0
62
256
6
ByLayer
370
18
48
1
60
0
100
AcDbMText
10
49.935
20
16.651374
30
0
210
0
220
0
230
1
1
\A1;4.13
40
3
41
0
44
1
50
0
71
5
72
5
7
iso_b_vert
0
POINT
5
24E
100
AcDbEntity
8
Defpoints
62
0
6
ByLayer
370
-1
48
1
60
0
100
AcDbPoint
10
52
20
0
30
0
39
0
210
0
220
0
230
1
50
360
0
POINT
5
24F
100
AcDbEntity
8
Defpoints
62
0
6
ByLayer
370
-1
48
1
60
0
100
AcDbPoint
10
47.87
20
0
30
0
39
0
210
0
220
0
230
1
50
360
0
POINT
5
250
100
AcDbEntity
8
Defpoints
62
0
6
ByLayer
370
-1
48
1
60
0
100
AcDbPoint
10
47.87
20
10.651374
30
0
39
0
210
0
220
0
230
1
50
360
0
ENDBLK
5
246
100
AcDbEntity
8
0
100
AcDbBlockEnd
0
BLOCK
5
259
100
AcDbEntity
8
0
100
AcDbBlockBegin
2
_U4
70
0
10
0
20
0
30
0
3
_U4
0
MTEXT
5
252
100
AcDbEntity
8
SK2
62
256
6
ByLayer
370
18
48
1
60
0
100
AcDbMText
10
46.790544
20
18.536488
30
0
210
0
220
0
230
1
1
\W0.6856;4.13
40
3
41
0
44
1.084337
50
0
71
7
72
5
7
iso_b_vert
0
MTEXT
5
253
100
AcDbEntity
8
SK2
62
256
6
ByLayer
370
18
48
1
60
0
100
AcDbMText
10
46.817044
20
11.434007
30
0
210
0
220
0
230
1
1
\W0.6474;'C'
40
3.5
41
0
44
1.084337
50
0
71
7
72
5
7
iso_b_vert
0
LINE
5
254
100
AcDbEntity
8
SK2
62
256
6
ByLayer
370
13
48
1
60
0
100
AcDbLine
10
52
20
1.5875
30
0
11
52
21
12.651374
31
0
39
0
210
0
220
0
230
1
0
LINE
5
255
100
AcDbEntity
8
SK2
62
256
6
ByLayer
370
13
48
1
60
0
100
AcDbLine
10
47.87
20
1.5875
30
0
11
47.87
21
12.651374
31
0
39
0
210
0
220
0
230
1
0
LINE
5
256
100
AcDbEntity
8
SK2
62
256
6
ByLayer
370
13
48
1
60
0
100
AcDbLine
10
59.5
20
10.651374
30
0
11
40.37
21
10.651374
31
0
39
0
210
0
220
0
230
1
0
SOLID
5
257
100
AcDbEntity
8
SK2
62
256
6
ByLayer
370
18
48
1
60
0
100
AcDbTrace
10
52
20
10.651374
30
0
11
55.499998
21
11.112157
31
0
12
55.500002
22
10.19059
32
0
13
55.500002
23
10.19059
33
0
39
0
210
0
220
0
230
1
0
SOLID
5
258
100
AcDbEntity
8
SK2
62
256
6
ByLayer
370
18
48
1
60
0
100
AcDbTrace
10
47.87
20
10.651374
30
0
11
44.370002
21
10.19059
31
0
12
44.369998
22
11.112157
32
0
13
44.369998
23
11.112157
33
0
39
0
210
0
220
0
230
1
0
ENDBLK
5
25A
100
AcDbEntity
8
0
100
AcDbBlockEnd
0
BLOCK
5
25F
100
AcDbEntity
8
0
100
AcDbBlockBegin
2
*D11
70
1
10
0
20
0
30
0
3
*D11
0
LINE
5
261
100
AcDbEntity
8
0
62
256
6
ByLayer
370
-2
48
1
60
0
100
AcDbLine
10
53.5875
20
-5.075687
30
0
11
70.5
21
-5.075687
31
0
39
0
210
0
220
0
230
1
0
LINE
5
262
100
AcDbEntity
8
0
62
256
6
ByLayer
370
-2
48
1
60
0
100
AcDbLine
10
53.5875
20
5.075687
30
0
11
70.5
21
5.075687
31
0
39
0
210
0
220
0
230
1
0
LINE
5
263
100
AcDbEntity
8
0
62
256
6
ByLayer
370
-2
48
1
60
0
100
AcDbLine
10
68.5
20
5.075687
30
0
11
68.5
21
35.709497
31
0
39
0
210
0
220
0
230
1
0
LINE
5
264
100
AcDbEntity
8
0
62
256
6
ByLayer
370
-2
48
1
60
0
100
AcDbLine
10
68.5
20
-8.575687
30
0
11
68.5
21
-12.075687
31
0
39
0
210
0
220
0
230
1
0
LINE
5
265
100
AcDbEntity
8
0
62
256
6
ByLayer
370
-2
48
1
60
0
100
AcDbLine
10
68.5
20
8.575687
30
0
11
68.5
21
12.075687
31
0
39
0
210
0
220
0
230
1
0
SOLID
5
266
100
AcDbEntity
8
0
62
256
6
ByLayer
370
-1
48
1
60
0
100
AcDbTrace
10
69.083333
20
-8.575687
30
0
11
67.916667
21
-8.575687
31
0
12
68.5
22
-5.075687
32
0
13
68.5
23
-5.075687
33
0
39
0
210
0
220
0
230
1
0
SOLID
5
267
100
AcDbEntity
8
0
62
256
6
ByLayer
370
-1
48
1
60
0
100
AcDbTrace
10
67.916667
20
8.575687
30
0
11
69.083333
21
8.575687
31
0
12
68.5
22
5.075687
32
0
13
68.5
23
5.075687
33
0
39
0
210
0
220
0
230
1
0
MTEXT
5
268
100
AcDbEntity
8
0
62
256
6
ByLayer
370
18
48
1
60
0
100
AcDbMText
10
62.5
20
25.423783
30
0
210
0
220
0
230
1
1
\A1;10.15
40
3
41
0
44
1
50
90
71
5
72
5
7
iso_b_vert
0
POINT
5
269
100
AcDbEntity
8
Defpoints
62
0
6
ByLayer
370
-1
48
1
60
0
100
AcDbPoint
10
52
20
-5.075687
30
0
39
0
210
0
220
0
230
1
50
360
0
POINT
5
26A
100
AcDbEntity
8
Defpoints
62
0
6
ByLayer
370
-1
48
1
60
0
100
AcDbPoint
10
52
20
5.075687
30
0
39
0
210
0
220
0
230
1
50
360
0
POINT
5
26B
100
AcDbEntity
8
Defpoints
62
0
6
ByLayer
370
-1
48
1
60
0
100
AcDbPoint
10
68.5
20
5.075687
30
0
39
0
210
0
220
0
230
1
50
360
0
ENDBLK
5
260
100
AcDbEntity
8
0
100
AcDbBlockEnd
0
BLOCK
5
274
100
AcDbEntity
8
0
100
AcDbBlockBegin
2
_U5
70
0
10
0
20
0
30
0
3
_U5
0
MTEXT
5
26D
100
AcDbEntity
8
2
62
256
6
ByLayer
370
18
48
1
60
0
100
AcDbMText
10
67.908886
20
15.906879
30
0
210
0
220
0
230
1
1
\W0.6563;M10
40
3
41
0
44
1.084337
50
90
71
7
72
5
7
iso_b_vert
0
MTEXT
5
26E
100
AcDbEntity
8
2
62
256
6
ByLayer
370
18
48
1
60
0
100
AcDbMText
10
68.060366
20
25.176121
30
0
210
0
220
0
230
1
1
\W0.7506; 6HX
40
3.5
41
0
44
1.084337
50
90
71
7
72
5
7
iso_b_vert
0
LINE
5
26F
100
AcDbEntity
8
2
62
256
6
ByLayer
370
13
48
1
60
0
100
AcDbLine
10
53.5875
20
-5.075687
30
0
11
70.5
21
-5.075687
31
0
39
0
210
0
220
0
230
1
0
LINE
5
270
100
AcDbEntity
8
2
62
256
6
ByLayer
370
13
48
1
60
0
100
AcDbLine
10
53.5875
20
5.075687
30
0
11
70.5
21
5.075687
31
0
39
0
210
0
220
0
230
1
0
LINE
5
271
100
AcDbEntity
8
2
62
256
6
ByLayer
370
13
48
1
60
0
100
AcDbLine
10
68.5
20
-5.075687
30
0
11
68.5
21
35.075687
31
0
39
0
210
0
220
0
230
1
0
SOLID
5
272
100
AcDbEntity
8
2
62
256
6
ByLayer
370
18
48
1
60
0
100
AcDbTrace
10
68.5
20
-5.075687
30
0
11
68.039216
21
-1.575689
31
0
12
68.960784
22
-1.575685
32
0
13
68.960784
23
-1.575685
33
0
39
0
210
0
220
0
230
1
0
SOLID
5
273
100
AcDbEntity
8
2
62
256
6
ByLayer
370
18
48
1
60
0
100
AcDbTrace
10
68.5
20
5.075687
30
0
11
68.960784
21
1.575689
31
0
12
68.039216
22
1.575685
32
0
13
68.039216
23
1.575685
33
0
39
0
210
0
220
0
230
1
0
ENDBLK
5
275
100
AcDbEntity
8
0
100
AcDbBlockEnd
0
BLOCK
5
27A
100
AcDbEntity
8
0
100
AcDbBlockBegin
2
*D13
70
1
10
0
20
0
30
0
3
*D13
0
LINE
5
27C
100
AcDbEntity
8
0
62
256
6
ByLayer
370
-2
48
1
60
0
100
AcDbLine
10
-24.5875
20
2.75
30
0
11
-30.5
21
2.75
31
0
39
0
210
0
220
0
230
1
0
LINE
5
27D
100
AcDbEntity
8
0
62
256
6
ByLayer
370
-2
48
1
60
0
100
AcDbLine
10
-24.5875
20
-2.75
30
0
11
-30.5
21
-2.75
31
0
39
0
210
0
220
0
230
1
0
LINE
5
27E
100
AcDbEntity
8
0
62
256
6
ByLayer
370
-2
48
1
60
0
100
AcDbLine
10
-28.5
20
2.75
30
0
11
-28.5
21
29.062512
31
0
39
0
210
0
220
0
230
1
0
LINE
5
27F
100
AcDbEntity
8
0
62
256
6
ByLayer
370
-2
48
1
60
0
100
AcDbLine
10
-28.5
20
6.25
30
0
11
-28.5
21
9.75
31
0
39
0
210
0
220
0
230
1
0
LINE
5
280
100
AcDbEntity
8
0
62
256
6
ByLayer
370
-2
48
1
60
0
100
AcDbLine
10
-28.5
20
-6.25
30
0
11
-28.5
21
-9.75
31
0
39
0
210
0
220
0
230
1
0
SOLID
5
281
100
AcDbEntity
8
0
62
256
6
ByLayer
370
-1
48
1
60
0
100
AcDbTrace
10
-29.083333
20
6.25
30
0
11
-27.916667
21
6.25
31
0
12
-28.5
22
2.75
32
0
13
-28.5
23
2.75
33
0
39
0
210
0
220
0
230
1
0
SOLID
5
282
100
AcDbEntity
8
0
62
256
6
ByLayer
370
-1
48
1
60
0
100
AcDbTrace
10
-27.916667
20
-6.25
30
0
11
-29.083333
21
-6.25
31
0
12
-28.5
22
-2.75
32
0
13
-28.5
23
-2.75
33
0
39
0
210
0
220
0
230
1
0
MTEXT
5
283
100
AcDbEntity
8
0
62
256
6
ByLayer
370
18
48
1
60
0
100
AcDbMText
10
-34.5
20
21.419655
30
0
210
0
220
0
230
1
1
\A1;5.5
40
3
41
0
44
1
50
90
71
5
72
5
7
iso_b_vert
0
POINT
5
284
100
AcDbEntity
8
Defpoints
62
0
6
ByLayer
370
-1
48
1
60
0
100
AcDbPoint
10
-23
20
2.75
30
0
39
0
210
0
220
0
230
1
50
360
0
POINT
5
285
100
AcDbEntity
8
Defpoints
62
0
6
ByLayer
370
-1
48
1
60
0
100
AcDbPoint
10
-23
20
-2.75
30
0
39
0
210
0
220
0
230
1
50
360
0
POINT
5
286
100
AcDbEntity
8
Defpoints
62
0
6
ByLayer
370
-1
48
1
60
0
100
AcDbPoint
10
-28.5
20
-2.75
30
0
39
0
210
0
220
0
230
1
50
360
0
ENDBLK
5
27B
100
AcDbEntity
8
0
100
AcDbBlockEnd
0
BLOCK
5
28E
100
AcDbEntity
8
0
100
AcDbBlockBegin
2
_U6
70
0
10
0
20
0
30
0
3
_U6
0
MTEXT
5
288
100
AcDbEntity
8
SK2
62
256
6
ByLayer
370
18
48
1
60
0
100
AcDbMText
10
-29.091114
20
11.135
30
0
210
0
220
0
230
1
1
\W0.7433;7.00 x 5.50
40
3
41
0
44
1.084337
50
90
71
7
72
5
7
iso_b_vert
0
LINE
5
289
100
AcDbEntity
8
SK2
62
256
6
ByLayer
370
13
48
1
60
0
100
AcDbLine
10
-24.5875
20
2.75
30
0
11
-30.5
21
2.75
31
0
39
0
210
0
220
0
230
1
0
LINE
5
28A
100
AcDbEntity
8
SK2
62
256
6
ByLayer
370
13
48
1
60
0
100
AcDbLine
10
-24.5875
20
-2.75
30
0
11
-30.5
21
-2.75
31
0
39
0
210
0
220
0
230
1
0
LINE
5
28B
100
AcDbEntity
8
SK2
62
256
6
ByLayer
370
13
48
1
60
0
100
AcDbLine
10
-28.5
20
-10.25
30
0
11
-28.5
21
31.83931
31
0
39
0
210
0
220
0
230
1
0
SOLID
5
28C
100
AcDbEntity
8
SK2
62
256
6
ByLayer
370
18
48
1
60
0
100
AcDbTrace
10
-28.5
20
2.75
30
0
11
-28.960784
21
6.249998
31
0
12
-28.039216
22
6.250002
32
0
13
-28.039216
23
6.250002
33
0
39
0
210
0
220
0
230
1
0
SOLID
5
28D
100
AcDbEntity
8
SK2
62
256
6
ByLayer
370
18
48
1
60
0
100
AcDbTrace
10
-28.5
20
-2.75
30
0
11
-28.039216
21
-6.249998
31
0
12
-28.960784
22
-6.250002
32
0
13
-28.960784
23
-6.250002
33
0
39
0
210
0
220
0
230
1
0
ENDBLK
5
28F
100
AcDbEntity
8
0
100
AcDbBlockEnd
0
ENDSEC
0
SECTION
2
ENTITIES
0
ARC
5
C3
100
AcDbEntity
8
SK1
62
256
6
ByLayer
370
18
48
1
60
0
100
AcDbCircle
39
0
10
-17.75
20
0
30
0
40
3.35999999999988
210
0
220
0
230
1
100
AcDbArc
50
324.93017
51
35.06983
0
ARC
5
C4
100
AcDbEntity
8
1
62
256
6
ByLayer
370
18
48
1
60
0
100
AcDbCircle
39
0
10
13.554527
20
-4.45
30
0
40
1.1
210
0
220
0
230
1
100
AcDbArc
50
90
51
120.272641
0
ARC
5
C5
100
AcDbEntity
8
1
62
256
6
ByLayer
370
18
48
1
60
0
100
AcDbCircle
39
0
10
13.554527
20
4.45
30
0
40
1.1
210
0
220
0
230
1
100
AcDbArc
50
239.727359
51
270
0
POINT
5
70
100
AcDbEntity
8
81
62
256
6
ByLayer
370
18
48
1
60
0
100
AcDbPoint
10
52
20
0
30
0
39
0
210
0
220
0
230
1
50
360
0
POINT
5
72
100
AcDbEntity
8
80
62
256
6
ByLayer
370
18
48
1
60
0
100
AcDbPoint
10
0
20
0
30
0
39
0
210
0
220
0
230
1
50
360
0
POINT
5
74
100
AcDbEntity
8
1
62
256
6
ByLayer
370
18
48
1
60
1
100
AcDbPoint
10
-23
20
0
30
0
39
0
210
0
220
0
230
1
50
360
0
POINT
5
76
100
AcDbEntity
8
1
62
256
6
ByLayer
370
18
48
1
60
1
100
AcDbPoint
10
52
20
0
30
0
39
0
210
0
220
0
230
1
50
360
0
POINT
5
77
100
AcDbEntity
8
1
62
256
6
ByLayer
370
18
48
1
60
1
100
AcDbPoint
10
52
20
0
30
0
39
0
210
0
220
0
230
1
50
360
0
POINT
5
78
100
AcDbEntity
8
1
62
256
6
ByLayer
370
18
48
1
60
1
100
AcDbPoint
10
13
20
0
30
0
39
0
210
0
220
0
230
1
50
360
0
POINT
5
79
100
AcDbEntity
8
1
62
256
6
ByLayer
370
18
48
1
60
1
100
AcDbPoint
10
52
20
0
30
0
39
0
210
0
220
0
230
1
50
360
0
POINT
5
7A
100
AcDbEntity
8
1
62
256
6
ByLayer
370
18
48
1
60
1
100
AcDbPoint
10
18.85
20
0
30
0
39
0
210
0
220
0
230
1
50
360
0
POINT
5
7B
100
AcDbEntity
8
1
62
256
6
ByLayer
370
18
48
1
60
1
100
AcDbPoint
10
52
20
0
30
0
39
0
210
0
220
0
230
1
50
360
0
POINT
5
7C
100
AcDbEntity
8
1
62
256
6
ByLayer
370
18
48
1
60
1
100
AcDbPoint
10
37
20
-3.35
30
0
39
0
210
0
220
0
230
1
50
360
0
POINT
5
7D
100
AcDbEntity
8
1
62
256
6
ByLayer
370
18
48
1
60
1
100
AcDbPoint
10
52
20
0
30
0
39
0
210
0
220
0
230
1
50
360
0
POINT
5
7E
100
AcDbEntity
8
1
62
256
6
ByLayer
370
18
48
1
60
1
100
AcDbPoint
10
47.87
20
0
30
0
39
0
210
0
220
0
230
1
50
360
0
POINT
5
7F
100
AcDbEntity
8
1
62
256
6
ByLayer
370
18
48
1
60
1
100
AcDbPoint
10
52
20
-5.075687
30
0
39
0
210
0
220
0
230
1
50
360
0
POINT
5
80
100
AcDbEntity
8
1
62
256
6
ByLayer
370
18
48
1
60
1
100
AcDbPoint
10
52
20
5.075687
30
0
39
0
210
0
220
0
230
1
50
360
0
POINT
5
81
100
AcDbEntity
8
1
62
256
6
ByLayer
370
18
48
1
60
1
100
AcDbPoint
10
-23
20
2.75
30
0
39
0
210
0
220
0
230
1
50
360
0
POINT
5
82
100
AcDbEntity
8
1
62
256
6
ByLayer
370
18
48
1
60
1
100
AcDbPoint
10
-23
20
-2.75
30
0
39
0
210
0
220
0
230
1
50
360
0
SPLINE
5
C6
100
AcDbEntity
8
1
62
256
6
ByLayer
370
18
48
1
60
0
100
AcDbSpline
70
4
71
3
72
8
73
4
40
0
40
0
40
0
40
0
40
1
40
1
40
1
40
1
41
1
10
51.227647902496
20
4.17007574162872
30
0
41
1
10
51.2339022262684
20
4.18628459522029
30
0
41
1
10
51.2401821343319
20
4.19859788167045
30
0
41
1
10
51.2465098702456
20
4.20691092367619
30
0
0
SPLINE
5
C7
100
AcDbEntity
8
1
62
256
6
ByLayer
370
18
48
1
60
0
100
AcDbSpline
70
4
71
3
72
8
73
4
40
0
40
0
40
0
40
0
40
1
40
1
40
1
40
1
41
1
10
49.2329699148118
20
-4.61419826999898
30
0
41
1
10
49.234717407977
20
-4.61790280377926
30
0
41
1
10
49.2364641188777
20
-4.62126509243689
30
0
41
1
10
49.2382100398438
20
-4.62428507704769
30
0
0
SPLINE
5
C8
100
AcDbEntity
8
1
62
256
6
ByLayer
370
13
48
1
60
0
100
AcDbSpline
70
4
71
3
72
9
73
5
40
0
40
0
40
0
40
0
40
0.858860744833288
40
1
40
1
40
1
40
1
41
1
10
39.61499146092
20
-4.19647013289057
30
0
41
1
10
39.6290297627815
20
-4.2260205040165
30
0
41
1
10
39.6453750261574
20
-4.23514481099431
30
0
41
1
10
39.6617202668142
20
-4.21441225100671
30
0
41
1
10
39.6640272215716
20
-4.21089463030276
30
0
0
SPLINE
5
C9
100
AcDbEntity
8
1
62
256
6
ByLayer
370
18
48
1
60
0
100
AcDbSpline
70
4
71
3
72
8
73
4
40
0
40
0
40
0
40
0
40
1
40
1
40
1
40
1
41
1
10
42.2424055116378
20
4.20013482242405
30
0
41
1
10
42.2441407229415
20
4.20356520985482
30
0
41
1
10
42.2458759342625
20
4.20666237451712
30
0
41
1
10
42.2476111455973
20
4.20942617124709
30
0
0
SPLINE
5
CA
100
AcDbEntity
8
1
62
256
6
ByLayer
370
13
48
1
60
0
100
AcDbSpline
70
4
71
3
72
8
73
4
40
0
40
0
40
0
40
0
40
1
40
1
40
1
40
1
41
1
10
42.2476111455987
20
4.20942617124928
30
0
41
1
10
42.2580643206741
20
4.22607570004692
30
0
41
1
10
42.2685174962534
20
4.23062717486147
30
0
41
1
10
42.2789706715892
20
4.22304886013418
30
0
0
SPLINE
5
CB
100
AcDbEntity
8
1
62
256
6
ByLayer
370
13
48
1
60
0
100
AcDbSpline
70
4
71
3
72
8
73
4
40
0
40
0
40
0
40
0
40
1
40
1
40
1
40
1
41
1
10
48.9958888358908
20
-4.20657701581979
30
0
41
1
10
48.9917982247653
20
-4.19953075751147
30
0
41
1
10
48.9877076136181
20
-4.19063545147432
30
0
41
1
10
48.9836170024472
20
-4.17990017084944
30
0
0
SPLINE
5
CC
100
AcDbEntity
8
1
62
256
6
ByLayer
370
18
48
1
60
0
100
AcDbSpline
70
4
71
3
72
14
73
10
40
0
40
0
40
0
40
0
40
0.0332278171661089
40
0.0332278171661089
40
0.274920862874581
40
0.274920862874581
40
0.516613908583053
40
0.516613908583053
40
1
40
1
40
1
40
1
41
1
10
42.7234991818707
20
5.01329990118535
30
0
41
1
10
42.7240451256425
20
5.01337548992808
30
0
41
1
10
42.7245912418789
20
5.01341790368738
30
0
41
1
10
42.7291112085737
20
5.01349383084593
30
0
41
1
10
42.7330998487548
20
5.0117884351194
30
0
41
1
10
42.741047305316
20
5.00485571806462
30
0
41
1
10
42.7450134156103
20
4.99963293534523
30
0
41
1
10
42.7569157680258
20
4.97873746827224
30
0
41
1
10
42.7648653361252
20
4.95784996187666
30
0
41
1
10
42.7728258910379
20
4.92997483657888
30
0
0
SPLINE
5
CD
100
AcDbEntity
8
1
62
256
6
ByLayer
370
18
48
1
60
0
100
AcDbSpline
70
4
71
3
72
14
73
10
40
0
40
0
40
0
40
0
40
0.38461645246742
40
0.38461645246742
40
0.76923290493484
40
0.76923290493484
40
0.961541131168551
40
0.961541131168551
40
1
40
1
40
1
40
1
41
1
10
42.9744802355252
20
4.90905777584169
30
0
41
1
10
42.9678208609802
20
4.94367883225544
30
0
41
1
10
42.9611932908904
20
4.97151013884061
30
0
41
1
10
42.9479292697446
20
5.01366030197553
30
0
41
1
10
42.9412884808406
20
5.02797890791476
30
0
41
1
10
42.9312362686815
20
5.03911876450562
30
0
41
1
10
42.9278731559839
20
5.04110681389284
30
0
41
1
10
42.9238229764749
20
5.04138284240682
30
0
41
1
10
42.9231473931691
20
5.04135824880532
30
0
41
1
10
42.9224718071556
20
5.04126324285451
30
0
0
SPLINE
5
CE
100
AcDbEntity
8
1
62
256
6
ByLayer
370
18
48
1
60
0
100
AcDbSpline
70
4
71
3
72
14
73
10
40
0
40
0
40
0
40
0
40
0.0277668352810518
40
0.0277668352810518
40
0.513883417640527
40
0.513883417640527
40
0.756941708820263
40
0.756941708820263
40
1
40
1
40
1
40
1
41
1
10
39.4542097431089
20
-4.55383114937666
30
0
41
1
10
39.4538496380729
20
-4.55378091467372
30
0
41
1
10
39.4534894718338
20
-4.55371259040217
30
0
41
1
10
39.4468226942798
20
-4.55211321410855
30
0
41
1
10
39.4405004495034
20
-4.54505519870594
30
0
41
1
10
39.4309687581554
20
-4.52591343616996
30
0
41
1
10
39.42777974499
20
-4.51809016456602
30
0
41
1
10
39.4214238990823
20
-4.49968088710745
30
0
41
1
10
39.4182515920344
20
-4.48908705279345
30
0
41
1
10
39.4150793436466
20
-4.47711224872117
30
0
0
SPLINE
5
CF
100
AcDbEntity
8
1
62
256
6
ByLayer
370
18
48
1
60
0
100
AcDbSpline
70
4
71
3
72
19
73
15
40
0
40
0
40
0
40
0
40
0.233960053714567
40
0.467920107429135
40
0.467920107429135
40
0.701880161143703
40
0.701880161143703
40
0.760370174572344
40
0.760370174572344
40
0.818860188000986
40
0.818860188000986
40
0.93584021485827
40
0.93584021485827
40
1
40
1
40
1
40
1
41
1
10
38.5477301058577
20
-4.13666559264931
30
0
41
1
10
38.555141126496
20
-4.18250569216954
30
0
41
1
10
38.569867780049
20
-4.26369303433174
30
0
41
1
10
38.5844990590712
20
-4.32431831060848
30
0
41
1
10
38.5991760043015
20
-4.37465659414343
30
0
41
1
10
38.606548244958
20
-4.3946841250098
30
0
41
1
10
38.6158136058743
20
-4.41314083217827
30
0
41
1
10
38.6176690581225
20
-4.41650269384112
30
0
41
1
10
38.6213850167437
20
-4.42256131986167
30
0
41
1
10
38.6232477508624
20
-4.42526056605473
30
0
41
1
10
38.6288224669656
20
-4.4323243480564
30
0
41
1
10
38.6325228899015
20
-4.43566258664103
30
0
41
1
10
38.6382331066465
20
-4.43874714848886
30
0
41
1
10
38.6402517248005
20
-4.43943526030273
30
0
41
1
10
38.6422672864936
20
-4.43972115840225
30
0
0
SPLINE
5
D0
100
AcDbEntity
8
1
62
256
6
ByLayer
370
13
48
1
60
0
100
AcDbSpline
70
4
71
3
72
8
73
4
40
0
40
0
40
0
40
0
40
1
40
1
40
1
40
1
41
1
10
43.4159969810747
20
4.2077601654598
30
0
41
1
10
43.432627982382
20
4.17998439267905
30
0
41
1
10
43.4492589910254
20
4.12147031603806
30
0
41
1
10
43.4658900064463
20
4.03355432686752
30
0
0
SPLINE
5
D1
100
AcDbEntity
8
1
62
256
6
ByLayer
370
13
48
1
60
0
100
AcDbSpline
70
4
71
3
72
10
73
6
40
0
40
0
40
0
40
0
40
0.225200428062797
40
0.877001074410116
40
1
40
1
40
1
40
1
41
1
10
48.6648992483016
20
-4.20950526408242
30
0
41
1
10
48.6590490333698
20
-4.21879696167616
30
0
41
1
10
48.6362664489585
20
-4.24023624535951
30
0
41
1
10
48.6102883948676
20
-4.19861097069227
30
0
41
1
10
48.590160579814
20
-4.12199157840558
30
0
41
1
10
48.5869653022308
20
-4.10872376267906
30
0
0
SPLINE
5
D2
100
AcDbEntity
8
1
62
256
6
ByLayer
370
13
48
1
60
0
100
AcDbSpline
70
4
71
3
72
9
73
5
40
0
40
0
40
0
40
0
40
0.723409528276685
40
1
40
1
40
1
40
1
41
1
10
38.4281544067097
20
-3.92326093637936
30
0
41
1
10
38.4449158453738
20
-4.03361499240697
30
0
41
1
10
38.4680858998348
20
-4.14606980889263
30
0
41
1
10
38.4912559524658
20
-4.19931266498403
30
0
41
1
10
38.4976645682328
20
-4.20949637436723
30
0
0
SPLINE
5
D3
100
AcDbEntity
8
1
62
256
6
ByLayer
370
13
48
1
60
0
100
AcDbSpline
70
4
71
3
72
10
73
6
40
0
40
0
40
0
40
0
40
0.0553663496427285
40
0.534758732949301
40
1
40
1
40
1
40
1
41
1
10
38.0316700427537
20
-3.77150474426193
30
0
41
1
10
38.0341615478265
20
-3.79142047494392
30
0
41
1
10
38.0582258712392
20
-3.97781004348548
30
0
41
1
10
38.1032260703028
20
-4.21651688126309
30
0
41
1
10
38.1457351624385
20
-4.24259259932765
30
0
41
1
10
38.1666712040023
20
-4.20664775562861
30
0
0
SPLINE
5
D4
100
AcDbEntity
8
1
62
256
6
ByLayer
370
18
48
1
60
0
100
AcDbSpline
70
4
71
3
72
20
73
16
40
0
40
0
40
0
40
0
40
0.0231695124112267
40
0.0231695124112267
40
0.26737713430842
40
0.26737713430842
40
0.511584756205613
40
0.511584756205613
40
0.633688567154209
40
0.633688567154209
40
0.694740472628507
40
0.694740472628507
40
0.755792378102805
40
0.755792378102805
40
1
40
1
40
1
40
1
41
1
10
48.2591935751456
20
-4.89734503593164
30
0
41
1
10
48.258554264613
20
-4.89750783205949
30
0
41
1
10
48.2579153566405
20
-4.897610849464
30
0
41
1
10
48.2505461288904
20
-4.89811236978676
30
0
41
1
10
48.2438627599203
20
-4.89195739378454
30
0
41
1
10
48.2304475463602
20
-4.86677006326334
30
0
41
1
10
48.2236908000845
20
-4.84778078033506
30
0
41
1
10
48.2134098550513
20
-4.80960080513097
30
0
41
1
10
48.2099636628412
20
-4.79524398406318
30
0
41
1
10
48.2047770811985
20
-4.7711967702981
30
0
41
1
10
48.2030455521325
20
-4.76276222598312
30
0
41
1
10
48.1995790812968
20
-4.74504333255877
30
0
41
1
10
48.1978428364089
20
-4.73575115432428
30
0
41
1
10
48.189185072946
20
-4.68730319378787
30
0
41
1
10
48.1823255595966
20
-4.64211097751527
30
0
41
1
10
48.1755119774946
20
-4.59048869706538
30
0
0
SPLINE
5
D5
100
AcDbEntity
8
1
62
256
6
ByLayer
370
18
48
1
60
0
100
AcDbSpline
70
4
71
3
72
18
73
14
40
0
40
0
40
0
40
0
40
0.26453332766625
40
0.26453332766625
40
0.5290666553325
40
0.5290666553325
40
0.661333319165624
40
0.661333319165624
40
0.727466651082187
40
0.727466651082187
40
0.793599982998749
40
0.793599982998749
40
1
40
1
40
1
40
1
41
1
10
47.8451992432448
20
-4.52131217817436
30
0
41
1
10
47.852762565018
20
-4.58411702212396
30
0
41
1
10
47.8603059717748
20
-4.64054336123704
30
0
41
1
10
47.8752971467925
20
-4.74058712015599
30
0
41
1
10
47.8827453250873
20
-4.78420546080073
30
0
41
1
10
47.8939351179566
20
-4.83987765261486
30
0
41
1
10
47.8976690231636
20
-4.85680749877955
30
0
41
1
10
47.9032977758458
20
-4.87972827531291
30
0
41
1
10
47.9051791100147
20
-4.88695513686423
30
0
41
1
10
47.9089349389656
20
-4.90051298652986
30
0
41
1
10
47.9108117623447
20
-4.9068543712491
30
0
41
1
10
47.9185468904509
20
-4.93121165707029
30
0
41
1
10
47.9244197416883
20
-4.9454951845795
30
0
41
1
10
47.9302926746931
20
-4.95565715699499
30
0
0
SPLINE
5
D6
100
AcDbEntity
8
1
62
256
6
ByLayer
370
13
48
1
60
0
100
AcDbSpline
70
4
71
3
72
10
73
6
40
0
40
0
40
0
40
0
40
0.0969929508307355
40
0.774321239057797
40
1
40
1
40
1
40
1
41
1
10
47.4003203354795
20
-3.71372101900903
30
0
41
1
10
47.4034095491051
20
-3.73984147316745
30
0
41
1
10
47.4280715860257
20
-3.94090960088732
30
0
41
1
10
47.4599214662708
20
-4.1217797457775
30
0
41
1
10
47.4886821316382
20
-4.19414540909926
30
0
41
1
10
47.4958699728807
20
-4.20652250286963
30
0
0
SPLINE
5
D7
100
AcDbEntity
8
1
62
256
6
ByLayer
370
18
48
1
60
0
100
AcDbSpline
70
4
71
3
72
8
73
4
40
0
40
0
40
0
40
0
40
1
40
1
40
1
40
1
41
1
10
43.7438045910473
20
4.20280108022999
30
0
41
1
10
43.7455208004905
20
4.20601835736784
30
0
41
1
10
43.7472370099354
20
4.20891060004902
30
0
41
1
10
43.7489532193802
20
4.2114773281678
30
0
0
SPLINE
5
D8
100
AcDbEntity
8
1
62
256
6
ByLayer
370
13
48
1
60
0
100
AcDbSpline
70
4
71
3
72
10
73
6
40
0
40
0
40
0
40
0
40
0.320732076800941
40
0.890982966529567
40
1
40
1
40
1
40
1
41
1
10
43.7489532193803
20
4.21147732816783
30
0
41
1
10
43.7610866452774
20
4.22962383442456
30
0
41
1
10
43.7947928959854
20
4.23483575076506
30
0
41
1
10
43.8326232995439
20
4.09829308015102
30
0
41
1
10
43.8583202834957
20
3.93583895040547
30
0
41
1
10
43.8624444426317
20
3.90801595552284
30
0
0
SPLINE
5
D9
100
AcDbEntity
8
1
62
256
6
ByLayer
370
18
48
1
60
0
100
AcDbSpline
70
4
71
3
72
23
73
19
40
0
40
0
40
0
40
0
40
0.150566587255391
40
0.150566587255391
40
0.235509928529852
40
0.235509928529852
40
0.277981599167082
40
0.277981599167082
40
0.320453269804313
40
0.490339952353234
40
0.660226634902156
40
0.830113317451077
40
0.830113317451077
40
0.915056658725538
40
0.915056658725538
40
0.957528329362769
40
0.957528329362769
40
1
40
1
40
1
40
1
41
1
10
38.0669463338714
20
-4.35886411841383
30
0
41
1
10
38.0615477392211
20
-4.35811306000116
30
0
41
1
10
38.0561442284427
20
-4.35346326965094
30
0
41
1
10
38.0476611248794
20
-4.33998224004455
30
0
41
1
10
38.0445948112154
20
-4.33385504920136
30
0
41
1
10
38.0399784527603
20
-4.3227320872949
30
0
41
1
10
38.0384367465947
20
-4.3187010746291
30
0
41
1
10
38.0353609393778
20
-4.31003280870147
30
0
41
1
10
38.0276820642713
20
-4.28682381906273
30
0
41
1
10
38.0139061175349
20
-4.23136323344175
30
0
41
1
10
37.9956379123332
20
-4.12889198226452
30
0
41
1
10
37.9834576670516
20
-4.04160131651955
30
0
41
1
10
37.9742673307123
20
-3.96888065662168
30
0
41
1
10
37.9711939508854
20
-3.94343001983413
30
0
41
1
10
37.9665614179558
20
-3.90340645418385
30
0
41
1
10
37.9650123288697
20
-3.88974417289603
30
0
41
1
10
37.9619165425232
20
-3.86188133358118
30
0
41
1
10
37.960369553682
20
-3.84767887599045
30
0
41
1
10
37.9588234683953
20
-3.83320669562005
30
0
0
SPLINE
5
DA
100
AcDbEntity
8
1
62
256
6
ByLayer
370
18
48
1
60
0
100
AcDbSpline
70
4
71
3
72
22
73
18
40
0
40
0
40
0
40
0
40
0.0811866663989791
40
0.0811866663989791
40
0.164715151271799
40
0.164715151271799
40
0.33177212101744
40
0.49882909076308
40
0.49882909076308
40
0.66588606050872
40
0.66588606050872
40
0.70765030294513
40
0.70765030294513
40
0.74941454538154
40
0.83294303025436
40
0.83294303025436
40
1
40
1
40
1
40
1
41
1
10
44.2595134883298
20
5.07568686068095
30
0
41
1
10
44.2630632903877
20
5.07568502410049
30
0
41
1
10
44.2666224349475
20
5.0739931001616
30
0
41
1
10
44.2738785580636
20
5.06706423398563
30
0
41
1
10
44.2775541566099
20
5.06174739381595
30
0
41
1
10
44.2885552046921
20
5.04051681116093
30
0
41
1
10
44.3031577842453
20
4.99813497253132
30
0
41
1
10
44.3176560517518
20
4.92820517473334
30
0
41
1
10
44.3321851663429
20
4.8444539317974
30
0
41
1
10
44.3394726443925
20
4.79566861573758
30
0
41
1
10
44.3486744476888
20
4.72579874028844
30
0
41
1
10
44.3505206440348
20
4.71136331151794
30
0
41
1
10
44.3542111058915
20
4.68166900584697
30
0
41
1
10
44.3597364750226
20
4.63595539841066
30
0
41
1
10
44.3652312901679
20
4.58676484343479
30
0
41
1
10
44.3761871475356
20
4.48382336394988
30
0
41
1
10
44.3834440276901
20
4.4091245536564
30
0
41
1
10
44.3906968651224
20
4.32843750465662
30
0
0
SPLINE
5
DB
100
AcDbEntity
8
1
62
256
6
ByLayer
370
18
48
1
60
0
100
AcDbSpline
70
4
71
3
72
26
73
22
40
0
40
0
40
0
40
0
40
0.0393336158651243
40
0.0393336158651243
40
0.0786672317302485
40
0.0786672317302485
40
0.157334463460497
40
0.157334463460497
40
0.314668926920994
40
0.47200339038149
40
0.47200339038149
40
0.629337853841987
40
0.629337853841987
40
0.668671469707111
40
0.668671469707111
40
0.708005085572235
40
0.786672317302484
40
0.786672317302484
40
0.944006780762981
40
0.944006780762981
40
1
40
1
40
1
40
1
41
1
10
44.5417600036478
20
4.23756990691379
30
0
41
1
10
44.5399315139655
20
4.25898499487306
30
0
41
1
10
44.538098803387
20
4.28005807040159
30
0
41
1
10
44.534424036554
20
4.32151356408338
30
0
41
1
10
44.5325801641453
20
4.34191768316333
30
0
41
1
10
44.527050169768
20
4.40192490178839
30
0
41
1
10
44.5233754252541
20
4.44022317663874
30
0
41
1
10
44.5123862600081
20
4.55009788200465
30
0
41
1
10
44.4978316623456
20
4.68323145202288
30
0
41
1
10
44.4833639129639
20
4.79015676767682
30
0
41
1
10
44.4688190802234
20
4.88390700473417
30
0
41
1
10
44.4615018896532
20
4.92419580156246
30
0
41
1
10
44.4523019784801
20
4.96606900321308
30
0
41
1
10
44.4504571077637
20
4.97402607714025
30
0
41
1
10
44.4467785796783
20
4.98901140905741
30
0
41
1
10
44.4412730954122
20
5.01011910119641
30
0
41
1
10
44.4358008842438
20
5.02716013564182
30
0
41
1
10
44.4248855407096
20
5.05590344464741
30
0
41
1
10
44.417649320705
20
5.06795823824365
30
0
41
1
10
44.4078062143784
20
5.07478050856466
30
0
41
1
10
44.405219375276
20
5.07568167644993
30
0
41
1
10
44.4026295226803
20
5.07568917166603
30
0
0
SPLINE
5
DC
100
AcDbEntity
8
1
62
256
6
ByLayer
370
18
48
1
60
0
100
AcDbSpline
70
4
71
3
72
8
73
4
40
0
40
0
40
0
40
0
40
1
40
1
40
1
40
1
41
1
10
44.9137966466007
20
4.21122249584434
30
0
41
1
10
44.917526414746
20
4.20559658559191
30
0
41
1
10
44.9212561839715
20
4.19842906843556
30
0
41
1
10
44.9249859536253
20
4.18973155100107
30
0
0
SPLINE
5
DD
100
AcDbEntity
8
1
62
256
6
ByLayer
370
13
48
1
60
0
100
AcDbSpline
70
4
71
3
72
10
73
6
40
0
40
0
40
0
40
0
40
0.313879638982455
40
0.834271416339438
40
1
40
1
40
1
40
1
41
1
10
44.924985559502
20
4.1897324700586
30
0
41
1
10
44.9379974488718
20
4.15939018549602
30
0
41
1
10
44.9725822080446
20
4.02924839142665
30
0
41
1
10
45.0140370629076
20
3.71974232902201
30
0
41
1
10
45.0424801238233
20
3.43100071150872
30
0
41
1
10
45.049350390732
20
3.35709359536403
30
0
0
SPLINE
5
DE
100
AcDbEntity
8
1
62
256
6
ByLayer
370
18
48
1
60
0
100
AcDbSpline
70
4
71
3
72
98
73
94
40
0
40
0
40
0
40
0
40
0.0625000000000035
40
0.0625000000000035
40
0.125000000000007
40
0.125000000000007
40
0.15625000000001
40
0.15625000000001
40
0.187500000000013
40
0.187500000000013
40
0.218750000000016
40
0.218750000000016
40
0.234375000000018
40
0.234375000000018
40
0.250000000000021
40
0.265625000000024
40
0.265625000000024
40
0.281250000000026
40
0.281250000000026
40
0.312500000000032
40
0.312500000000032
40
0.343750000000037
40
0.343750000000037
40
0.359375000000039
40
0.359375000000039
40
0.37500000000004
40
0.37500000000004
40
0.406250000000043
40
0.406250000000043
40
0.437500000000046
40
0.437500000000046
40
0.453125000000047
40
0.453125000000047
40
0.460937500000047
40
0.460937500000047
40
0.468750000000046
40
0.468750000000046
40
0.500000000000047
40
0.500000000000047
40
0.515625000000047
40
0.515625000000047
40
0.523437500000047
40
0.523437500000047
40
0.531250000000047
40
0.531250000000047
40
0.546875000000048
40
0.546875000000048
40
0.554687500000048
40
0.554687500000048
40
0.562500000000048
40
0.562500000000048
40
0.593750000000046
40
0.593750000000046
40
0.601562500000045
40
0.601562500000045
40
0.609375000000045
40
0.609375000000045
40
0.625000000000043
40
0.625000000000043
40
0.632812500000043
40
0.632812500000043
40
0.640625000000042
40
0.640625000000042
40
0.648437500000041
40
0.648437500000041
40
0.656250000000041
40
0.656250000000041
40
0.671875000000039
40
0.671875000000039
40
0.687500000000038
40
0.687500000000038
40
0.703125000000037
40
0.703125000000037
40
0.718750000000035
40
0.718750000000035
40
0.750000000000031
40
0.750000000000031
40
0.765625000000029
40
0.765625000000029
40
0.781250000000028
40
0.781250000000028
40
0.812500000000024
40
0.812500000000024
40
0.84375000000002
40
0.84375000000002
40
0.875000000000017
40
0.875000000000017
40
0.937500000000009
40
0.937500000000009
40
0.953125000000007
40
0.953125000000007
40
0.968750000000005
40
1
40
1
40
1
40
1
41
1
10
23.3597381679478
20
3.34938622468314
30
0
41
1
10
23.2116232337442
20
3.35121890405335
30
0
41
1
10
23.0610381520998
20
3.34881587643355
30
0
41
1
10
22.7536114564569
20
3.33885386144249
30
0
41
1
10
22.5968165795759
20
3.33129100366188
30
0
41
1
10
22.3558889999019
20
3.31872262252378
30
0
41
1
10
22.2746172017159
20
3.31433231812556
30
0
41
1
10
22.1099088518261
20
3.30561872516918
30
0
41
1
10
22.0264835307769
20
3.30129153598088
30
0
41
1
10
21.8571785025813
20
3.29318536312266
30
0
41
1
10
21.7712929021071
20
3.28940897034147
30
0
41
1
10
21.6402333049204
20
3.28458007104214
30
0
41
1
10
21.5965001343219
20
3.28312858286685
30
0
41
1
10
21.5090168726744
20
3.28056521884631
30
0
41
1
10
21.421493194376
20
3.27833077844755
30
0
41
1
10
21.3339024449388
20
3.27667660195911
30
0
41
1
10
21.2462857807172
20
3.27525585383265
30
0
41
1
10
21.2024661099676
20
3.27464671372894
30
0
41
1
10
21.0709684844935
20
3.2731786120163
30
0
41
1
10
20.9832450731342
20
3.27274656899868
30
0
41
1
10
20.807676908234
20
3.27304824985436
30
0
41
1
10
20.7198319203473
20
3.2737846614184
30
0
41
1
10
20.5879679697202
20
3.27577749107425
30
0
41
1
10
20.543996993942
20
3.27659153267845
30
0
41
1
10
20.4560197128841
20
3.27852849230348
30
0
41
1
10
20.4119594747433
20
3.27965305004071
30
0
41
1
10
20.2800912114506
20
3.28348700815087
30
0
41
1
10
20.1930337455352
20
3.28664624894873
30
0
41
1
10
20.0208675324852
20
3.29405087661286
30
0
41
1
10
19.9357480563762
20
3.29829324134303
30
0
41
1
10
19.8098288421948
20
3.30529478893573
30
0
41
1
10
19.7681497263622
20
3.30773319616622
30
0
41
1
10
19.7061256500308
20
3.31150837577263
30
0
41
1
10
19.6855213631259
20
3.31278711012072
30
0
41
1
10
19.6447205200877
20
3.31536089399071
30
0
41
1
10
19.6244967680017
20
3.31665757111836
30
0
41
1
10
19.5243107464605
20
3.32316412454651
30
0
41
1
10
19.4470947422271
20
3.3284603648452
30
0
41
1
10
19.3368377351993
20
3.33579500013502
30
0
41
1
10
19.3010166142478
20
3.33813409833275
30
0
41
1
10
19.2489254066905
20
3.34133746990108
30
0
41
1
10
19.2318652713521
20
3.3423516807014
30
0
41
1
10
19.1986841209008
20
3.34422667776366
30
0
41
1
10
19.1825202781736
20
3.34509015154129
30
0
41
1
10
19.135361517355
20
3.34741373526964
30
0
41
1
10
19.1056934808391
20
3.34860924801811
30
0
41
1
10
19.0641517205134
20
3.34966046515331
30
0
41
1
10
19.0508010209958
20
3.34988666648528
30
0
41
1
10
19.0251376644242
20
3.35004765862726
30
0
41
1
10
19.0127858895771
20
3.34998151867578
30
0
41
1
10
18.9542916933273
20
3.34881225675093
30
0
41
1
10
18.9184841034167
20
3.34523333497378
30
0
41
1
10
18.8872026495818
20
3.33629385158724
30
0
41
1
10
18.8816229010461
20
3.33428199583327
30
0
41
1
10
18.8718199567475
20
3.32977816072707
30
0
41
1
10
18.8675988554493
20
3.3272810692807
30
0
41
1
10
18.8571052118416
20
3.31915653806934
30
0
41
1
10
18.8529124567422
20
3.31286468922005
30
0
41
1
10
18.8503628523257
20
3.30209599950601
30
0
41
1
10
18.8501162901249
20
3.29828474831865
30
0
41
1
10
18.8507046503111
20
3.29021621488803
30
0
41
1
10
18.8515714892472
20
3.28595867392283
30
0
41
1
10
18.8545389499697
20
3.27699175915197
30
0
41
1
10
18.8566442637346
20
3.27228162169146
30
0
41
1
10
18.8620693962398
20
3.26253008820882
30
0
41
1
10
18.8653923115038
20
3.25747558976727
30
0
41
1
10
18.8771610938935
20
3.24180020451163
30
0
41
1
10
18.8874112480637
20
3.23066840634158
30
0
41
1
10
18.9124001777091
20
3.20714695257482
30
0
41
1
10
18.9271196003133
20
3.19474326523951
30
0
41
1
10
18.9598208648101
20
3.16874577701549
30
0
41
1
10
18.9776577292349
20
3.15530172079096
30
0
41
1
10
19.0156335904245
20
3.12755857106961
30
0
41
1
10
19.0357763156808
20
3.11325934502651
30
0
41
1
10
19.0989841964243
20
3.06911614183195
30
0
41
1
10
19.1447831992029
20
3.03802662748063
30
0
41
1
10
19.2173354148367
20
2.98900145477052
30
0
41
1
10
19.2421755699246
20
2.97226131777413
30
0
41
1
10
19.2929822897582
20
2.93799148560569
30
0
41
1
10
19.3188989403825
20
2.92049553831524
30
0
41
1
10
19.3975961721299
20
2.86719068873467
30
0
41
1
10
19.4514631021637
20
2.83046474345068
30
0
41
1
10
19.5612345949206
20
2.75467000374212
30
0
41
1
10
19.617144837295
20
2.71560112324153
30
0
41
1
10
19.7305305698489
20
2.63513304545017
30
0
41
1
10
19.7880091181425
20
2.59373395340361
30
0
41
1
10
19.9623174519773
20
2.46602870788229
30
0
41
1
10
20.080981493073
20
2.37621674336432
30
0
41
1
10
20.2315344015506
20
2.25797867468344
30
0
41
1
10
20.2617764797997
20
2.23401807518351
30
0
41
1
10
20.322349563436
20
2.18559852705297
30
0
41
1
10
20.4133690277935
20
2.11220244722989
30
0
41
1
10
20.5048300111979
20
2.03651020771176
30
0
41
1
10
20.5659896446424
20
1.9850359553792
30
0
0
SPLINE
5
DF
100
AcDbEntity
8
1
62
256
6
ByLayer
370
13
48
1
60
0
100
AcDbSpline
70
4
71
3
72
10
73
6
40
0
40
0
40
0
40
0
40
0.209344237795525
40
0.641687183176256
40
1
40
1
40
1
40
1
41
1
10
47.0036750306503
20
-3.52234725866788
30
0
41
1
10
47.0141207895958
20
-3.62455222889207
30
0
41
1
10
47.0461394000987
20
-3.90692008926439
30
0
41
1
10
47.0960368177031
20
-4.18637192888042
30
0
41
1
10
47.1354884932452
20
-4.23598201468661
30
0
41
1
10
47.1533674063579
20
-4.22291092058236
30
0
0
SPLINE
5
E0
100
AcDbEntity
8
1
62
256
6
ByLayer
370
18
48
1
60
0
100
AcDbSpline
70
4
71
3
72
8
73
4
40
0
40
0
40
0
40
0
40
1
40
1
40
1
40
1
41
1
10
47.1533673549888
20
-4.22291095813767
30
0
41
1
10
47.1557792289798
20
-4.22114767043365
30
0
41
1
10
47.1581911035388
20
-4.21873737319166
30
0
41
1
10
47.1606029787453
20
-4.21567917170842
30
0
0
SPLINE
5
E1
100
AcDbEntity
8
1
62
256
6
ByLayer
370
18
48
1
60
0
100
AcDbSpline
70
4
71
3
72
27
73
23
40
0
40
0
40
0
40
0
40
0.124999999999999
40
0.124999999999999
40
0.156249999999999
40
0.156249999999999
40
0.187499999999999
40
0.249999999999999
40
0.249999999999999
40
0.374999999999999
40
0.499999999999998
40
0.499999999999998
40
0.562499999999998
40
0.593749999999998
40
0.593749999999998
40
0.624999999999998
40
0.624999999999998
40
0.749999999999999
40
0.749999999999999
40
0.874999999999999
40
0.874999999999999
40
1
40
1
40
1
40
1
41
1
10
46.6530316719088
20
-5.07567720744316
30
0
41
1
10
46.6457349164399
20
-5.075979325894
30
0
41
1
10
46.6384297470129
20
-5.06920608887904
30
0
41
1
10
46.6292455756166
20
-5.051620048811
30
0
41
1
10
46.6274039382066
20
-5.04764035704821
30
0
41
1
10
46.6237309149885
20
-5.03880227113069
30
0
41
1
10
46.6182318671799
20
-5.02422029796273
30
0
41
1
10
46.6127548283984
20
-5.00570662741211
30
0
41
1
10
46.6018020295297
20
-4.96351791569231
30
0
41
1
10
46.5872144805293
20
-4.8935239270927
30
0
41
1
10
46.5726703744024
20
-4.7963677558192
30
0
41
1
10
46.5617304924878
20
-4.71317900540961
30
0
41
1
10
46.5562517775059
20
-4.66900023723318
30
0
41
1
10
46.5507430510582
20
-4.62088160668483
30
0
41
1
10
46.5470614472382
20
-4.58791716568285
30
0
41
1
10
46.5452175204278
20
-4.57100514045794
30
0
41
1
10
46.5360180143306
20
-4.48467002497517
30
0
41
1
10
46.5286936579521
20
-4.40961793901508
30
0
41
1
10
46.5141117966059
20
-4.24788914873866
30
0
41
1
10
46.5068542516858
20
-4.16121159269358
30
0
41
1
10
46.4923339229597
20
-3.9762752273904
30
0
41
1
10
46.4850695973061
20
-3.87801685832676
30
0
41
1
10
46.4777354242396
20
-3.77384494518742
30
0
0
SPLINE
5
E2
100
AcDbEntity
8
1
62
256
6
ByLayer
370
13
48
1
60
0
100
AcDbSpline
70
4
71
3
72
10
73
6
40
0
40
0
40
0
40
0
40
0.250912794954809
40
0.663964031954075
40
1
40
1
40
1
40
1
41
1
10
45.8170306359838
20
-2.80008996135626
30
0
41
1
10
45.8301353001592
20
-2.9738736377395
30
0
41
1
10
45.8648127894064
20
-3.40034108610789
30
0
41
1
10
45.9170407455092
20
-3.88524147855253
30
0
41
1
10
45.9561640472661
20
-4.09145730451814
30
0
41
1
10
45.9737145222542
20
-4.1502973960728
30
0
0
SPLINE
5
E3
100
AcDbEntity
8
1
62
256
6
ByLayer
370
18
48
1
60
0
100
AcDbSpline
70
4
71
3
72
27
73
23
40
0
40
0
40
0
40
0
40
0.124999999999999
40
0.124999999999999
40
0.187499999999999
40
0.218749999999999
40
0.218749999999999
40
0.249999999999999
40
0.249999999999999
40
0.374999999999999
40
0.374999999999999
40
0.5
40
0.5
40
0.625
40
0.625
40
0.687499999999999
40
0.687499999999999
40
0.749999999999999
40
0.749999999999999
40
0.875
40
0.875
40
1
40
1
40
1
40
1
41
1
10
46.3267228227959
20
-3.65911776788837
30
0
41
1
10
46.3339800122324
20
-3.76626627265739
30
0
41
1
10
46.3412302203444
20
-3.86833211221983
30
0
41
1
10
46.3521913501748
20
-4.01370810112311
30
0
41
1
10
46.3576904381375
20
-4.08446251795331
30
0
41
1
10
46.3632153665755
20
-4.15227030113545
30
0
41
1
10
46.3669047265895
20
-4.19681342142883
30
0
41
1
10
46.3687528558368
20
-4.218757950395
30
0
41
1
10
46.3779614852304
20
-4.32625247852482
30
0
41
1
10
46.3852618848868
20
-4.40560311391016
30
0
41
1
10
46.3998065165177
20
-4.55140412153651
30
0
41
1
10
46.4070534200323
20
-4.6178534576195
30
0
41
1
10
46.4216205628577
20
-4.73790573816672
30
0
41
1
10
46.4289283448266
20
-4.79150942566352
30
0
41
1
10
46.4399302424491
20
-4.86208027538066
30
0
41
1
10
46.4436047912924
20
-4.88396219127236
30
0
41
1
10
46.4509760007363
20
-4.92437602555248
30
0
41
1
10
46.4546480813787
20
-4.94277092645123
30
0
41
1
10
46.4656224576279
20
-4.99252262006351
30
0
41
1
10
46.4728937016151
20
-5.0185050342306
30
0
41
1
10
46.4874620332232
20
-5.05640622864757
30
0
41
1
10
46.4947452034735
20
-5.068324626991
30
0
41
1
10
46.5020326818795
20
-5.07318587356971
30
0
0
SPLINE
5
E4
100
AcDbEntity
8
1
62
256
6
ByLayer
370
18
48
1
60
0
100
AcDbSpline
70
4
71
3
72
23
73
19
40
0
40
0
40
0
40
0
40
0.249999999999999
40
0.249999999999999
40
0.374999999999998
40
0.374999999999998
40
0.437499999999998
40
0.437499999999998
40
0.468749999999997
40
0.468749999999997
40
0.499999999999997
40
0.624999999999998
40
0.749999999999998
40
0.874999999999999
40
0.874999999999999
40
0.937499999999999
40
0.937499999999999
40
1
40
1
40
1
40
1
41
1
10
37.6185196395185
20
1.90801743301429
30
0
41
1
10
37.6064270065702
20
2.11836104455341
30
0
41
1
10
37.5944014574767
20
2.31770772364217
30
0
41
1
10
37.5763700539958
20
2.6006397200525
30
0
41
1
10
37.5703599878284
20
2.69225532692664
30
0
41
1
10
37.5613024398656
20
2.82556043227788
30
0
41
1
10
37.5582758962547
20
2.8693081906994
30
0
41
1
10
37.5537169349488
20
2.93388096535605
30
0
41
1
10
37.5521925108881
20
2.95525148467607
30
0
41
1
10
37.549143254711
20
2.99753569328752
30
0
41
1
10
37.5415276261668
20
3.10199044269663
30
0
41
1
10
37.5278974417993
20
3.27885024424037
30
0
41
1
10
37.5098562617333
20
3.49145162451865
30
0
41
1
10
37.4978262796964
20
3.6177782323474
30
0
41
1
10
37.4887423735504
20
3.70664999479123
30
0
41
1
10
37.4857038418089
20
3.73529378532624
30
0
41
1
10
37.4796062979917
20
3.7905912771015
30
0
41
1
10
37.4765417495586
20
3.81728971185697
30
0
41
1
10
37.473483793092
20
3.84282780957767
30
0
0
SPLINE
5
E5
100
AcDbEntity
8
1
62
256
6
ByLayer
370
13
48
1
60
0
100
AcDbSpline
70
4
71
3
72
10
73
6
40
0
40
0
40
0
40
0
40
0.315463958586809
40
0.72826693170151
40
1
40
1
40
1
40
1
41
1
10
45.2891390011623
20
4.2118315871148
30
0
41
1
10
45.3056249492557
20
4.18738029897918
30
0
41
1
10
45.3436837185722
20
4.06141093617217
30
0
41
1
10
45.395943093419
20
3.67518211471594
30
0
41
1
10
45.4317165157235
20
3.28961448160251
30
0
41
1
10
45.4459171149399
20
3.12003625671719
30
0
0
SPLINE
5
E6
100
AcDbEntity
8
1
62
256
6
ByLayer
370
13
48
1
60
0
100
AcDbSpline
70
4
71
3
72
11
73
7
40
0
40
0
40
0
40
0
40
0.111948114479288
40
0.527174123120766
40
0.942400131762244
40
1
40
1
40
1
40
1
41
1
10
37.5039480674889
20
3.7819634420209
30
0
41
1
10
37.5097642657694
20
3.73600732736043
30
0
41
1
10
37.5371532927865
20
3.50375968237205
30
0
41
1
10
37.5861152313352
20
2.9595431215914
30
0
41
1
10
37.6322533914059
20
2.29260108173369
30
0
41
1
10
37.6568188146793
20
1.90556156132823
30
0
41
1
10
37.6598113865793
20
1.85797336493775
30
0
0
SPLINE
5
E7
100
AcDbEntity
8
1
62
256
6
ByLayer
370
18
48
1
60
0
100
AcDbSpline
70
4
71
3
72
31
73
27
40
0
40
0
40
0
40
0
40
0.0312499999999998
40
0.0312499999999998
40
0.0624999999999996
40
0.125
40
0.125
40
0.249999999999999
40
0.249999999999999
40
0.374999999999998
40
0.374999999999998
40
0.437499999999998
40
0.468749999999998
40
0.468749999999998
40
0.499999999999998
40
0.499999999999998
40
0.624999999999998
40
0.624999999999998
40
0.749999999999999
40
0.874999999999999
40
0.874999999999999
40
0.9375
40
0.9375
40
0.96875
40
0.96875
40
1
40
1
40
1
40
1
41
1
10
45.7989394838656
20
5.00663331412761
30
0
41
1
10
45.8007758401476
20
5.00021145817598
30
0
41
1
10
45.8026169974582
20
4.99332340506174
30
0
41
1
10
45.8062912402627
20
4.97868249779998
30
0
41
1
10
45.8117901858753
20
4.95542972419153
30
0
41
1
10
45.8172590119818
20
4.92834539770701
30
0
41
1
10
45.8281808851347
20
4.86914925990402
30
0
41
1
10
45.8354541101033
20
4.82299239295401
30
0
41
1
10
45.8500080531267
20
4.71746371896492
30
0
41
1
10
45.8572814282992
20
4.65809176778157
30
0
41
1
10
45.8682162069835
20
4.55900050109142
30
0
41
1
10
45.8736905705247
20
4.50694266655239
30
0
41
1
10
45.8791885905789
20
4.45105709649835
30
0
41
1
10
45.8828612172904
20
4.41294013799728
30
0
41
1
10
45.884702090909
20
4.39344055705632
30
0
41
1
10
45.8938823303581
20
4.29429426025635
30
0
41
1
10
45.9011982373472
20
4.2093408652814
30
0
41
1
10
45.9157861642321
20
4.02849692307018
30
0
41
1
10
45.9303188645487
20
3.83671353737839
30
0
41
1
10
45.9448283312901
20
3.62316019953428
30
0
41
1
10
45.9557885825757
20
3.45466715084737
30
0
41
1
10
45.9594573224139
20
3.39711270965063
30
0
41
1
10
45.9649892288691
20
3.30865438559249
30
0
41
1
10
45.9668339441209
20
3.27887212939217
30
0
41
1
10
45.9705143450608
20
3.21888524386446
30
0
41
1
10
45.9723516127905
20
3.18865536096519
30
0
41
1
10
45.974185978201
20
3.1581912819033
30
0
0
SPLINE
5
E8
100
AcDbEntity
8
1
62
256
6
ByLayer
370
13
48
1
60
0
100
AcDbSpline
70
4
71
3
72
10
73
6
40
0
40
0
40
0
40
0
40
0.263353843833571
40
0.675988973475062
40
1
40
1
40
1
40
1
41
1
10
46.4759595570019
20
3.97670281764172
30
0
41
1
10
46.4897278584647
20
3.89411601617698
30
0
41
1
10
46.5250689693279
20
3.6313186430431
30
0
41
1
10
46.5773495420323
20
3.06295220135698
30
0
41
1
10
46.6158618827526
20
2.52737506165576
30
0
41
1
10
46.6328013854057
20
2.27463944942809
30
0
0
SPLINE
5
E9
100
AcDbEntity
8
1
62
256
6
ByLayer
370
18
48
1
60
0
100
AcDbSpline
70
4
71
3
72
27
73
23
40
0
40
0
40
0
40
0
40
0.124999999999999
40
0.124999999999999
40
0.249999999999998
40
0.249999999999998
40
0.312499999999997
40
0.343749999999997
40
0.343749999999997
40
0.374999999999997
40
0.374999999999997
40
0.499999999999998
40
0.499999999999998
40
0.624999999999999
40
0.624999999999999
40
0.75
40
0.75
40
0.8125
40
0.8125
40
0.875
40
0.875
40
1
40
1
40
1
40
1
41
1
10
46.1252004384002
20
3.0239138128909
30
0
41
1
10
46.1179003889005
20
3.14852167190281
30
0
41
1
10
46.1106448142168
20
3.268396463572
30
0
41
1
10
46.096130215061
20
3.49878668607667
30
0
41
1
10
46.0888590672295
20
3.6093017375178
30
0
41
1
10
46.0778866927025
20
3.76795842540659
30
0
41
1
10
46.0723879619297
20
3.84550517024894
30
0
41
1
10
46.0668684137921
20
3.9203355454608
30
0
41
1
10
46.0631833008499
20
3.96961197632521
30
0
41
1
10
46.0613398151571
20
3.99392061921972
30
0
41
1
10
46.0521537071494
20
4.11332170323584
30
0
41
1
10
46.0448725176333
20
4.20247089399743
30
0
41
1
10
46.0303408548756
20
4.36838771279838
30
0
41
1
10
46.0230764504793
20
4.44515416182261
30
0
41
1
10
46.0085012172833
20
4.58634790394331
30
0
41
1
10
46.0012022743946
20
4.65077592868931
30
0
41
1
10
45.9902146972488
20
4.73796330500326
30
0
41
1
10
45.9865436693594
20
4.76545742517675
30
0
41
1
10
45.9791823673474
20
4.8171831715905
30
0
41
1
10
45.9755181553579
20
4.84123265674364
30
0
41
1
10
45.964551815585
20
4.90804900804201
30
0
41
1
10
45.9572637304882
20
4.94549475689908
30
0
41
1
10
45.9499787572122
20
4.97598826065229
30
0
0
SPLINE
5
EA
100
AcDbEntity
8
1
62
256
6
ByLayer
370
18
48
1
60
0
100
AcDbSpline
70
4
71
3
72
10
73
6
40
0
40
0
40
0
40
0
40
0.433889900967962
40
0.955336390212805
40
1
40
1
40
1
40
1
41
1
10
52
20
-0.0227566638147039
30
0
41
1
10
52
20
-0.338125915802095
30
0
41
1
10
52
20
-1.03573844776705
30
0
41
1
10
52
20
-1.71571453407751
30
0
41
1
10
52
20
-2.06374736565621
30
0
41
1
10
52
20
-2.09096908824767
30
0
0
SPLINE
5
EB
100
AcDbEntity
8
1
62
256
6
ByLayer
370
13
48
1
60
0
100
AcDbSpline
70
4
71
3
72
10
73
6
40
0
40
0
40
0
40
0
40
0.386102531513889
40
0.801085072138964
40
1
40
1
40
1
40
1
41
1
10
37.9004764354065
20
3.60316944975281
30
0
41
1
10
37.9205479356514
20
3.41737916090241
30
0
41
1
10
37.9621922612984
20
2.95231006149083
30
0
41
1
10
38.0141771601325
20
2.20341947109759
30
0
41
1
10
38.0460905531172
20
1.68925340662483
30
0
41
1
10
38.0564311240785
20
1.51839215063669
30
0
0
SPLINE
5
EC
100
AcDbEntity
8
1
62
256
6
ByLayer
370
18
48
1
60
0
100
AcDbSpline
70
4
71
3
72
10
73
6
40
0
40
0
40
0
40
0
40
0.5
40
0.5
40
1
40
1
40
1
40
1
41
1
10
51.6000000582243
20
-1.56112104597401
30
0
41
1
10
51.6024925803726
20
-1.64796512556572
30
0
41
1
10
51.6049407709848
20
-1.73344319564018
30
0
41
1
10
51.6097462332264
20
-1.90167422432017
30
0
41
1
10
51.6121073006865
20
-1.98448898347129
30
0
41
1
10
51.6144036196314
20
-2.06565063054345
30
0
0
SPLINE
5
ED
100
AcDbEntity
8
1
62
256
6
ByLayer
370
18
48
1
60
0
100
AcDbSpline
70
4
71
3
72
20
73
16
40
0
40
0
40
0
40
0
40
0.0625
40
0.0625
40
0.125
40
0.125
40
0.25
40
0.25
40
0.5
40
0.5
40
0.625
40
0.625
40
0.75
40
0.75
40
1
40
1
40
1
40
1
41
1
10
51.4586137037642
20
0.504040517347107
30
0
41
1
10
51.4617039743202
20
0.460279194540817
30
0
41
1
10
51.4648020721727
20
0.416423472376891
30
0
41
1
10
51.4709947854988
20
0.328521505339495
30
0
41
1
10
51.474088847387
20
0.284482415601985
30
0
41
1
10
51.4832961875775
20
0.152701630641076
30
0
41
1
10
51.48934738951
20
0.0650878155360033
30
0
41
1
10
51.5070828240135
20
-0.197056207038457
30
0
41
1
10
51.5184904015443
20
-0.370882371675862
30
0
41
1
10
51.5358556939723
20
-0.630175329634028
30
0
41
1
10
51.5416580730662
20
-0.716366774071588
30
0
41
1
10
51.5532920702788
20
-0.888263974794143
30
0
41
1
10
51.5591270577427
20
-0.974019657503391
30
0
41
1
10
51.5766309323996
20
-1.23022781201763
30
0
41
1
10
51.5882371676586
20
-1.39745583249382
30
0
41
1
10
51.6000000582339
20
-1.56112104605916
30
0
0
SPLINE
5
EE
100
AcDbEntity
8
1
62
256
6
ByLayer
370
18
48
1
60
0
100
AcDbSpline
70
4
71
3
72
10
73
6
40
0
40
0
40
0
40
0
40
0.264835271915176
40
0.811705823910536
40
1
40
1
40
1
40
1
41
1
10
51.6000000582243
20
-1.56112104597193
30
0
41
1
10
51.6000000495276
20
-1.39945010331081
30
0
41
1
10
51.6000000090392
20
-0.891526667086879
30
0
41
1
10
51.5999999538559
20
-0.234318950289577
30
0
41
1
10
51.5999999327279
20
0.245640597729562
30
0
41
1
10
51.5999999284123
20
0.367875614084824
30
0
0
SPLINE
5
EF
100
AcDbEntity
8
1
62
256
6
ByLayer
370
13
48
1
60
0
100
AcDbSpline
70
4
71
3
72
10
73
6
40
0
40
0
40
0
40
0
40
0.391655695140468
40
0.804524712123686
40
1
40
1
40
1
40
1
41
1
10
45.4203757086913
20
-2.51153459940755
30
0
41
1
10
45.4408401147381
20
-2.8029157875788
30
0
41
1
10
45.4828773068149
20
-3.34437839254554
30
0
41
1
10
45.5351282664076
20
-3.82575349668116
30
0
41
1
10
45.5669148827959
20
-4.01475522335113
30
0
41
1
10
45.5771286680804
20
-4.06436132820375
30
0
0
SPLINE
5
F0
100
AcDbEntity
8
1
62
256
6
ByLayer
370
13
48
1
60
0
100
AcDbSpline
70
4
71
3
72
11
73
7
40
0
40
0
40
0
40
0
40
0.029689921984169
40
0.443163548213516
40
0.856637174442864
40
1
40
1
40
1
40
1
41
1
10
44.2337356270983
20
-1.54903161766464
30
0
41
1
10
44.2352846870896
20
-1.57454886843826
30
0
41
1
10
44.2584065705782
20
-1.95396293513809
30
0
41
1
10
44.3031012718461
20
-2.64288988538269
30
0
41
1
10
44.3537268280593
20
-3.27226686544685
30
0
41
1
10
44.3827795517552
20
-3.5573133868771
30
0
41
1
10
44.3902594508279
20
-3.62537495685888
30
0
0
SPLINE
5
F1
100
AcDbEntity
8
1
62
256
6
ByLayer
370
18
48
1
60
0
100
AcDbSpline
70
4
71
3
72
28
73
24
40
0
40
0
40
0
40
0
40
0.125000000000001
40
0.125000000000001
40
0.250000000000003
40
0.250000000000003
40
0.281250000000003
40
0.281250000000003
40
0.312500000000003
40
0.312500000000003
40
0.375000000000003
40
0.375000000000003
40
0.500000000000002
40
0.500000000000002
40
0.625000000000001
40
0.75
40
0.75
40
0.78125
40
0.78125
40
0.812499999999999
40
0.875
40
0.875
40
1
40
1
40
1
40
1
41
1
10
45.0695615535727
20
-4.77185902171703
30
0
41
1
10
45.0622896672386
20
-4.71908516737247
30
0
41
1
10
45.0550283475255
20
-4.65980019800318
30
0
41
1
10
45.040450291699
20
-4.52825068106887
30
0
41
1
10
45.0331477657422
20
-4.45598639953718
30
0
41
1
10
45.0239871001613
20
-4.35736361580317
30
0
41
1
10
45.0221531592436
20
-4.33722360230931
30
0
41
1
10
45.0184805214383
20
-4.2961047120836
30
0
41
1
10
45.0166402221919
20
-4.2751071523218
30
0
41
1
10
45.0111208915718
20
-4.21096896761981
30
0
41
1
10
45.007458026546
20
-4.16685481444924
30
0
41
1
10
44.9964970150965
20
-4.03052669315912
30
0
41
1
10
44.989216117843
20
-3.93433566582635
30
0
41
1
10
44.9746384407895
20
-3.73155745641063
30
0
41
1
10
44.9600726578756
20
-3.51838086142942
30
0
41
1
10
44.9454853032842
20
-3.28431026693013
30
0
41
1
10
44.9363011125071
20
-3.1312881138459
30
0
41
1
10
44.9344584921259
20
-3.10030829080483
30
0
41
1
10
44.9307807005863
20
-3.03795357846837
30
0
41
1
10
44.9252714426038
20
-2.94377322939951
30
0
41
1
10
44.9197753218751
20
-2.84766950752848
30
0
41
1
10
44.9088044657356
20
-2.6529372808497
30
0
41
1
10
44.9015211840627
20
-2.51975453960333
30
0
41
1
10
44.8942527180139
20
-2.38325160893712
30
0
0
SPLINE
5
F2
100
AcDbEntity
8
1
62
256
6
ByLayer
370
18
48
1
60
0
100
AcDbSpline
70
4
71
3
72
30
73
26
40
0
40
0
40
0
40
0
40
0.0624999999999999
40
0.0624999999999999
40
0.125
40
0.125
40
0.25
40
0.25
40
0.375
40
0.375
40
0.5
40
0.5
40
0.53125
40
0.53125
40
0.5625
40
0.625
40
0.625
40
0.750000000000001
40
0.750000000000001
40
0.875000000000001
40
0.875000000000001
40
0.937500000000001
40
0.96875
40
0.96875
40
1
40
1
40
1
40
1
41
1
10
44.743257584093
20
-2.23327239751808
30
0
41
1
10
44.7469246452151
20
-2.30313282020993
30
0
41
1
10
44.7506010244324
20
-2.37240315506307
30
0
41
1
10
44.7579757590415
20
-2.50973946193736
30
0
41
1
10
44.7616469534465
20
-2.57729888903586
30
0
41
1
10
44.7726162280497
20
-2.77656523620792
30
0
41
1
10
44.7798716650012
20
-2.90493538096416
30
0
41
1
10
44.7943834131832
20
-3.15291208545924
30
0
41
1
10
44.8016537427254
20
-3.27251783644161
30
0
41
1
10
44.8162329204085
20
-3.50293091065083
30
0
41
1
10
44.8235369535804
20
-3.61373900027868
30
0
41
1
10
44.8327149333022
20
-3.74658772088969
30
0
41
1
10
44.8345553203581
20
-3.77290493717922
30
0
41
1
10
44.8382314135665
20
-3.82480632912998
30
0
41
1
10
44.8437338381834
20
-3.9014942641559
30
0
41
1
10
44.8492086262157
20
-3.97472845496594
30
0
41
1
10
44.8601461138962
20
-4.1166654312488
30
0
41
1
10
44.8674321376877
20
-4.20525728409979
30
0
41
1
10
44.8819912509294
20
-4.37053536664624
30
0
41
1
10
44.8892610781936
20
-4.44722160775825
30
0
41
1
10
44.9001882430571
20
-4.55321542318757
30
0
41
1
10
44.9056582785324
20
-4.60394993282634
30
0
41
1
10
44.9111529579763
20
-4.65123773087896
30
0
41
1
10
44.9148238074252
20
-4.68198864651015
30
0
41
1
10
44.9166648308693
20
-4.69699012630599
30
0
41
1
10
44.918501807204
20
-4.7115295106224
30
0
0
SPLINE
5
F3
100
AcDbEntity
8
1
62
256
6
ByLayer
370
13
48
1
60
0
100
AcDbSpline
70
4
71
3
72
11
73
7
40
0
40
0
40
0
40
0
40
0.038517275925749
40
0.3615561375464
40
0.684594999167052
40
1
40
1
40
1
40
1
41
1
10
50.1963215236039
20
-0.91623227488472
30
0
41
1
10
50.1943025936466
20
-0.881338754036022
30
0
41
1
10
50.1753511880949
20
-0.552874982542733
30
0
41
1
10
50.1394673069329
20
0.0836342210740497
30
0
41
1
10
50.0890700132039
20
0.973827899901039
30
0
41
1
10
50.0556052010044
20
1.5361348615838
30
0
41
1
10
50.0390728623481
20
1.80092988085121
30
0
0
SPLINE
5
F4
100
AcDbEntity
8
1
62
256
6
ByLayer
370
18
48
1
60
0
100
AcDbSpline
70
4
71
3
72
25
73
21
40
0
40
0
40
0
40
0
40
0.125000000000002
40
0.125000000000002
40
0.250000000000005
40
0.250000000000005
40
0.375000000000007
40
0.375000000000007
40
0.437500000000008
40
0.437500000000008
40
0.468750000000008
40
0.468750000000008
40
0.500000000000008
40
0.750000000000004
40
0.750000000000004
40
0.875000000000002
40
0.875000000000002
40
0.937500000000001
40
0.937500000000001
40
1
40
1
40
1
40
1
41
1
10
50.1583847405274
20
1.81282732358372
30
0
41
1
10
50.1654436709404
20
1.69757964202265
30
0
41
1
10
50.1724283276014
20
1.58080199599894
30
0
41
1
10
50.1863464465376
20
1.3443022192908
30
0
41
1
10
50.1932826960992
20
1.22458133366106
30
0
41
1
10
50.2072209257509
20
0.982235117104807
30
0
41
1
10
50.214229196232
20
0.859609740978357
30
0
41
1
10
50.2248185880919
20
0.673458809635179
30
0
41
1
10
50.2283607687527
20
0.611039030534016
30
0
41
1
10
50.2336939299694
20
0.516844565700097
30
0
41
1
10
50.235476937534
20
0.485317339820767
30
0
41
1
10
50.2390398328121
20
0.422249265858625
30
0
41
1
10
50.2550503113831
20
0.138621758653272
30
0
41
1
10
50.2707718593368
20
-0.143416479890448
30
0
41
1
10
50.291658683328
20
-0.517627480166425
30
0
41
1
10
50.2986220132727
20
-0.642057099382043
30
0
41
1
10
50.309134557447
20
-0.828229657920645
30
0
41
1
10
50.3126507744374
20
-0.890208327514898
30
0
41
1
10
50.3197099310323
20
-1.0140048448352
30
0
41
1
10
50.323252185438
20
-1.07582109989087
30
0
41
1
10
50.3267850854003
20
-1.13719943471315
30
0
0
SPLINE
5
F5
100
AcDbEntity
8
1
62
256
6
ByLayer
370
18
48
1
60
0
100
AcDbSpline
70
4
71
3
72
27
73
23
40
0
40
0
40
0
40
0
40
0.0625000000000001
40
0.0625000000000001
40
0.125
40
0.125
40
0.249999999999999
40
0.249999999999999
40
0.374999999999998
40
0.374999999999998
40
0.499999999999998
40
0.499999999999998
40
0.562499999999998
40
0.562499999999998
40
0.593749999999998
40
0.593749999999998
40
0.624999999999998
40
0.749999999999999
40
0.749999999999999
40
0.874999999999999
40
0.874999999999999
40
1
40
1
40
1
40
1
41
1
10
51.4246856695477
20
-1.95318390477487
30
0
41
1
10
51.4218307594122
20
-1.90290165664058
30
0
41
1
10
51.4189707096526
20
-1.85199448275409
30
0
41
1
10
51.4132585885606
20
-1.74943237908533
30
0
41
1
10
51.4104093169357
20
-1.69782942640921
30
0
41
1
10
51.4018690953349
20
-1.54207343582317
30
0
41
1
10
51.3961850909747
20
-1.4369754727123
30
0
41
1
10
51.3847852110347
20
-1.22430091654621
30
0
41
1
10
51.3790567211507
20
-1.11672463146218
30
0
41
1
10
51.3676586520527
20
-0.899056434230403
30
0
41
1
10
51.3619752580801
20
-0.78897037217115
30
0
41
1
10
51.3534037709424
20
-0.621940578597247
30
0
41
1
10
51.3505391135739
20
-0.56594660987551
30
0
41
1
10
51.3462244914199
20
-0.481471133101991
30
0
41
1
10
51.3447836470957
20
-0.453237382958008
30
0
41
1
10
51.3419078466299
20
-0.396853112333389
30
0
41
1
10
51.334724982189
20
-0.255948294828102
30
0
41
1
10
51.327572172768
20
-0.11532028900578
30
0
41
1
10
51.3164520579754
20
0.109342741905408
30
0
41
1
10
51.3110621236223
20
0.221503581213938
30
0
41
1
10
51.3003467800835
20
0.445476636811861
30
0
41
1
10
51.2950057118425
20
0.557288247470666
30
0
41
1
10
51.28956718111
20
0.668917768255341
30
0
0
SPLINE
5
F6
100
AcDbEntity
8
1
62
256
6
ByLayer
370
13
48
1
60
0
100
AcDbSpline
70
4
71
3
72
10
73
6
40
0
40
0
40
0
40
0
40
0.334024963156719
40
0.748813013723569
40
1
40
1
40
1
40
1
41
1
10
39.0872414082953
20
2.9090926816036
30
0
41
1
10
39.104613778887
20
2.68593990180128
30
0
41
1
10
39.1435588952104
20
2.13383519696683
30
0
41
1
10
39.1955684500138
20
1.27990861846848
30
0
41
1
10
39.230205252644
20
0.675350447692807
30
0
41
1
10
39.2432692734018
20
0.445336845626542
30
0
0
SPLINE
5
F7
100
AcDbEntity
8
1
62
256
6
ByLayer
370
18
48
1
60
0
100
AcDbSpline
70
4
71
3
72
27
73
23
40
0
40
0
40
0
40
0
40
0.125000000000001
40
0.250000000000002
40
0.250000000000002
40
0.375000000000003
40
0.375000000000003
40
0.437500000000003
40
0.437500000000003
40
0.468750000000003
40
0.468750000000003
40
0.500000000000003
40
0.625000000000002
40
0.750000000000001
40
0.750000000000001
40
0.875
40
0.875
40
0.9375
40
0.9375
40
0.96875
40
0.96875
40
1
40
1
40
1
40
1
41
1
10
37.971539946763
20
3.68118433518111
30
0
41
1
10
37.9788618083601
20
3.61708333610324
30
0
41
1
10
37.9934333113015
20
3.48080478584379
30
0
41
1
10
38.007894763434
20
3.32872414884835
30
0
41
1
10
38.0223631821175
20
3.16875647095051
30
0
41
1
10
38.0296017120296
20
3.08482946034096
30
0
41
1
10
38.0405427159715
20
2.95291409959424
30
0
41
1
10
38.0442022577918
20
2.90793665527923
30
0
41
1
10
38.0497102165353
20
2.83893406540338
30
0
41
1
10
38.0515466716816
20
2.81570995609238
30
0
41
1
10
38.0552095419052
20
2.76895938616556
30
0
41
1
10
38.0643504255532
20
2.65122096569075
30
0
41
1
10
38.0806590736242
20
2.43162571926661
30
0
41
1
10
38.0950574934329
20
2.22577776088886
30
0
41
1
10
38.1095022930701
20
2.01462137844658
30
0
41
1
10
38.1167539917096
20
1.90638995766241
30
0
41
1
10
38.1276752134054
20
1.73998322540646
30
0
41
1
10
38.1313230650512
20
1.68383684329805
30
0
41
1
10
38.1368089499715
20
1.59858296724957
30
0
41
1
10
38.1386390788049
20
1.57000589217668
30
0
41
1
10
38.1422911673951
20
1.51271996586607
30
0
41
1
10
38.1441147722965
20
1.48398559986518
30
0
41
1
10
38.1459364095819
20
1.45516029826348
30
0
0
SPLINE
5
F8
100
AcDbEntity
8
1
62
256
6
ByLayer
370
18
48
1
60
0
100
AcDbSpline
70
4
71
3
72
29
73
25
40
0
40
0
40
0
40
0
40
0.125
40
0.125
40
0.250000000000001
40
0.250000000000001
40
0.375000000000001
40
0.375000000000001
40
0.406250000000001
40
0.406250000000001
40
0.437500000000001
40
0.437500000000001
40
0.500000000000001
40
0.500000000000001
40
0.625000000000001
40
0.625000000000001
40
0.750000000000001
40
0.875000000000001
40
0.875000000000001
40
0.90625
40
0.90625
40
0.9375
40
0.9375
40
1
40
1
40
1
40
1
41
1
10
39.0794563273141
20
0.567541890768354
30
0
41
1
10
39.0732131852049
20
0.693683865080089
30
0
41
1
10
39.0670099290054
20
0.818486450064768
30
0
41
1
10
39.0546190082299
20
1.06545759280206
30
0
41
1
10
39.048426686777
20
1.18762569172824
30
0
41
1
10
39.0359779754061
20
1.4293144720707
30
0
41
1
10
39.0297313966144
20
1.54883609631293
30
0
41
1
10
39.021886930813
20
1.69654368311475
30
0
41
1
10
39.0203161186414
20
1.72600032144587
30
0
41
1
10
39.0171700041768
20
1.78474216897101
30
0
41
1
10
39.0155932925585
20
1.81405321007475
30
0
41
1
10
39.0108767715744
20
1.9013278901144
30
0
41
1
10
39.007744792666
20
1.95874354966932
30
0
41
1
10
38.9983731683888
20
2.12872680528577
30
0
41
1
10
38.9921579123473
20
2.23903472059484
30
0
41
1
10
38.9797045040449
20
2.45372318352361
30
0
41
1
10
38.9672416006029
20
2.66248535143927
30
0
41
1
10
38.954751556542
20
2.85936187178851
30
0
41
1
10
38.9469063514118
20
2.97859985716892
30
0
41
1
10
38.9453352494423
20
3.002256614316
30
0
41
1
10
38.9421876895478
20
3.04918462217472
30
0
41
1
10
38.9406103870612
20
3.07246778536006
30
0
41
1
10
38.9358858456048
20
3.14147850579195
30
0
41
1
10
38.9327407258168
20
3.1864480298886
30
0
41
1
10
38.9295937706271
20
3.23038733037779
30
0
0
SPLINE
5
F9
100
AcDbEntity
8
1
62
256
6
ByLayer
370
13
48
1
60
0
100
AcDbSpline
70
4
71
3
72
11
73
7
40
0
40
0
40
0
40
0
40
0.123558487277042
40
0.535944973383285
40
0.948331459489526
40
1
40
1
40
1
40
1
41
1
10
46.8724493630368
20
3.83711202853746
30
0
41
1
10
46.8789129739397
20
3.78914419470033
30
0
41
1
10
46.906949410865
20
3.56281209757157
30
0
41
1
10
46.9565586658095
20
3.02677885969592
30
0
41
1
10
47.0024072064376
20
2.37470464220877
30
0
41
1
10
47.0266829235213
20
1.99700327539728
30
0
41
1
10
47.0293858160706
20
1.95457290601325
30
0
0
SPLINE
5
FA
100
AcDbEntity
8
1
62
256
6
ByLayer
370
18
48
1
60
0
100
AcDbSpline
70
4
71
3
72
25
73
21
40
0
40
0
40
0
40
0
40
0.124999999999998
40
0.124999999999998
40
0.187499999999998
40
0.187499999999998
40
0.249999999999997
40
0.249999999999997
40
0.374999999999996
40
0.374999999999996
40
0.499999999999996
40
0.624999999999995
40
0.624999999999995
40
0.656249999999995
40
0.656249999999995
40
0.687499999999995
40
0.749999999999996
40
0.749999999999996
40
0.874999999999998
40
1
40
1
40
1
40
1
41
1
10
47.3823056849562
20
4.4186700052451
30
0
41
1
10
47.3895839958774
20
4.34254422384473
30
0
41
1
10
47.3968923710956
20
4.26016768261115
30
0
41
1
10
47.407897779544
20
4.12702660849203
30
0
41
1
10
47.4115739495014
20
4.08104770567914
30
0
41
1
10
47.4189484539141
20
3.98582742864684
30
0
41
1
10
47.4226180229291
20
3.93695777150157
30
0
41
1
10
47.4335899017844
20
3.78666180856064
30
0
41
1
10
47.4408549777983
20
3.68154936785291
30
0
41
1
10
47.4554188412635
20
3.46170455436362
30
0
41
1
10
47.4699993068211
20
3.23223801691322
30
0
41
1
10
47.4846085806901
20
2.98345396618257
30
0
41
1
10
47.4937922099037
20
2.82174886274365
30
0
41
1
10
47.4956341303996
20
2.78905396570406
30
0
41
1
10
47.4993125192058
20
2.72326696568814
30
0
41
1
10
47.5048192795475
20
2.6240342986369
30
0
41
1
10
47.5103054349398
20
2.52316396578533
30
0
41
1
10
47.5212715434961
20
2.31927555735658
30
0
41
1
10
47.5358572574389
20
2.04170516549218
30
0
41
1
10
47.5503826375393
20
1.7528445113833
30
0
41
1
10
47.5576684444496
20
1.60555888604554
30
0
0
SPLINE
5
FB
100
AcDbEntity
8
1
62
256
6
ByLayer
370
13
48
1
60
0
100
AcDbSpline
70
4
71
3
72
11
73
7
40
0
40
0
40
0
40
0
40
0.166302844295714
40
0.48978345250614
40
0.813264060716567
40
1
40
1
40
1
40
1
41
1
10
48.2162869405517
20
0.916617336582675
30
0
41
1
10
48.2075818776403
20
1.06706567633063
30
0
41
1
10
48.1819442896762
20
1.50476258839129
30
0
41
1
10
48.1393740475036
20
2.19224051266161
30
0
41
1
10
48.0957346231669
20
2.81216671700062
30
0
41
1
10
48.0690274191953
20
3.13701080709373
30
0
41
1
10
48.0592527530853
20
3.24774793915469
30
0
0
SPLINE
5
FC
100
AcDbEntity
8
1
62
256
6
ByLayer
370
18
48
1
60
0
100
AcDbSpline
70
4
71
3
72
26
73
22
40
0
40
0
40
0
40
0
40
0.125000000000001
40
0.125000000000001
40
0.250000000000002
40
0.250000000000002
40
0.312500000000002
40
0.343750000000002
40
0.343750000000002
40
0.375000000000002
40
0.375000000000002
40
0.500000000000002
40
0.500000000000002
40
0.750000000000001
40
0.750000000000001
40
0.8125
40
0.8125
40
0.84375
40
0.84375
40
0.875
40
1
40
1
40
1
40
1
41
1
10
47.7243771559516
20
1.42505644171681
30
0
41
1
10
47.7174340930399
20
1.5717885551544
30
0
41
1
10
47.710475658138
20
1.71594415275371
30
0
41
1
10
47.6966046839083
20
1.99909384535232
30
0
41
1
10
47.6897145916996
20
2.13807939732678
30
0
41
1
10
47.6794223456161
20
2.34261478690234
30
0
41
1
10
47.6742844495073
20
2.44389623073892
30
0
41
1
10
47.6691347820664
20
2.54368011400956
30
0
41
1
10
47.6656950730218
20
2.60986732366896
30
0
41
1
10
47.6639706838469
20
2.64281791711753
30
0
41
1
10
47.6553723969024
20
2.80590287486791
30
0
41
1
10
47.6485440955646
20
2.93165100353735
30
0
41
1
10
47.6279043567542
20
3.29543488180696
30
0
41
1
10
47.6139305634688
20
3.52008980541933
30
0
41
1
10
47.5966162470782
20
3.7773990891304
30
0
41
1
10
47.5931591997131
20
3.82768127190187
30
0
41
1
10
47.5879743705021
20
3.90130211693651
30
0
41
1
10
47.586246434411
20
3.92553639058525
30
0
41
1
10
47.5828007098898
20
3.97322204884381
30
0
41
1
10
47.5742046849514
20
4.090593520705
30
0
41
1
10
47.5656413645476
20
4.19882706533434
30
0
41
1
10
47.5586747836806
20
4.27970735976064
30
0
0
SPLINE
5
FD
100
AcDbEntity
8
1
62
256
6
ByLayer
370
18
48
1
60
0
100
AcDbSpline
70
4
71
3
72
28
73
24
40
0
40
0
40
0
40
0
40
0.124999999999999
40
0.124999999999999
40
0.249999999999998
40
0.249999999999998
40
0.374999999999997
40
0.374999999999997
40
0.406249999999997
40
0.406249999999997
40
0.437499999999998
40
0.437499999999998
40
0.499999999999998
40
0.499999999999998
40
0.624999999999999
40
0.624999999999999
40
0.75
40
0.75
40
0.8125
40
0.8125
40
0.875
40
0.875
40
1
40
1
40
1
40
1
41
1
10
47.6142276535098
20
1.5452580521158
30
0
41
1
10
47.605120448015
20
1.69637577170005
30
0
41
1
10
47.5961773240501
20
1.84422211871109
30
0
41
1
10
47.5777027890982
20
2.13349665070331
30
0
41
1
10
47.5681660205849
20
2.27492454147421
30
0
41
1
10
47.5485532760036
20
2.55137579220761
30
0
41
1
10
47.5384763540148
20
2.68639967438062
30
0
41
1
10
47.5259495526869
20
2.85109870562192
30
0
41
1
10
47.5234491606183
20
2.88383410188001
30
0
41
1
10
47.5184746597954
20
2.94889256674159
30
0
41
1
10
47.5159992518383
20
2.98123285230829
30
0
41
1
10
47.508679032886
20
3.07712812026688
30
0
41
1
10
47.5039550148075
20
3.13972472752232
30
0
41
1
10
47.4901163781017
20
3.32357906200431
30
0
41
1
10
47.4812253803821
20
3.44090392704021
30
0
41
1
10
47.4629545499033
20
3.66519108992813
30
0
41
1
10
47.4535805986433
20
3.77215401577561
30
0
41
1
10
47.4389365494228
20
3.92475624090761
30
0
41
1
10
47.4339655750687
20
3.97431490844136
30
0
41
1
10
47.423904411377
20
4.07078075078894
30
0
41
1
10
47.418811875367
20
4.11770757704628
30
0
41
1
10
47.4035650501266
20
4.25431301392928
30
0
41
1
10
47.3935216274489
20
4.33905097279242
30
0
41
1
10
47.3844545481106
20
4.41747912679398
30
0
0
SPLINE
5
FE
100
AcDbEntity
8
1
62
256
6
ByLayer
370
13
48
1
60
0
100
AcDbSpline
70
4
71
3
72
11
73
7
40
0
40
0
40
0
40
0
40
0.221686175753525
40
0.544970002870912
40
0.868253829988298
40
1
40
1
40
1
40
1
41
1
10
49.799725347215
20
-0.551734299104282
30
0
41
1
10
49.7881141883477
20
-0.347929931579983
30
0
41
1
10
49.7595705619261
20
0.157905183210062
30
0
41
1
10
49.7140946518235
20
0.961697761453195
30
0
41
1
10
49.6733289687855
20
1.64722697914547
30
0
41
1
10
49.6494960384572
20
2.02102530965007
30
0
41
1
10
49.6425956276657
20
2.12659517832836
30
0
0
SPLINE
5
FF
100
AcDbEntity
8
1
62
256
6
ByLayer
370
13
48
1
60
0
100
AcDbSpline
70
4
71
3
72
10
73
6
40
0
40
0
40
0
40
0
40
0.19307493303319
40
0.607684598287295
40
1
40
1
40
1
40
1
41
1
10
39.4837962641061
20
2.63033121402125
30
0
41
1
10
39.4938422715796
20
2.49111630274251
30
0
41
1
10
39.5254611042932
20
2.03102773076458
30
0
41
1
10
39.577492750448
20
1.17830895119113
30
0
41
1
10
39.6194783947121
20
0.436815936471646
30
0
41
1
10
39.6398912110027
20
0.0754868444299461
30
0
0
SPLINE
5
100
100
AcDbEntity
8
1
62
256
6
ByLayer
370
18
48
1
60
0
100
AcDbSpline
70
4
71
3
72
25
73
21
40
0
40
0
40
0
40
0
40
0.125
40
0.125
40
0.249999999999999
40
0.374999999999999
40
0.374999999999999
40
0.406249999999999
40
0.406249999999999
40
0.437499999999999
40
0.499999999999999
40
0.499999999999999
40
0.624999999999999
40
0.624999999999999
40
0.75
40
0.875
40
0.875
40
0.9375
40
0.9375
40
1
40
1
40
1
40
1
41
1
10
39.7004592121734
20
2.73895135569219
30
0
41
1
10
39.7080095188259
20
2.63245941089227
30
0
41
1
10
39.7155137014904
20
2.5229459256513
30
0
41
1
10
39.7305428489511
20
2.29798599379859
30
0
41
1
10
39.7456018358145
20
2.06709367799323
30
0
41
1
10
39.7607047343941
20
1.8242595477559
30
0
41
1
10
39.7701894245732
20
1.66864910043941
30
0
41
1
10
39.7720910600407
20
1.63729687258123
30
0
41
1
10
39.7758847965765
20
1.57446621654174
30
0
41
1
10
39.7815636142759
20
1.47999159061592
30
0
41
1
10
39.7872142095712
20
1.38483869162542
30
0
41
1
10
39.7985007737157
20
1.19364408214869
30
0
41
1
10
39.8060138611989
20
1.06499826442686
30
0
41
1
10
39.8210215232053
20
0.80537260155748
30
0
41
1
10
39.8360064277621
20
0.543412502622573
30
0
41
1
10
39.8510360225243
20
0.276747883470392
30
0
41
1
10
39.8624019803072
20
0.0749345470016749
30
0
41
1
10
39.8661901465524
20
0.0076759256110392
30
0
41
1
10
39.8737613729665
20
-0.126575491050374
30
0
41
1
10
39.877545062055
20
-0.193607612748082
30
0
41
1
10
39.8813264138022
20
-0.260546620908229
30
0
0
SPLINE
5
101
100
AcDbEntity
8
1
62
256
6
ByLayer
370
18
48
1
60
0
100
AcDbSpline
70
4
71
3
72
26
73
22
40
0
40
0
40
0
40
0
40
0.125
40
0.250000000000001
40
0.250000000000001
40
0.375000000000001
40
0.375000000000001
40
0.406250000000001
40
0.406250000000001
40
0.437500000000001
40
0.500000000000001
40
0.500000000000001
40
0.625
40
0.75
40
0.75
40
0.8125
40
0.84375
40
0.84375
40
0.875
40
0.875
40
1
40
1
40
1
40
1
41
1
10
40.5402483426746
20
-0.964649409734221
30
0
41
1
10
40.5338284409304
20
-0.830652553288388
30
0
41
1
10
40.5210229488112
20
-0.561447450192929
30
0
41
1
10
40.5082646429181
20
-0.28985467919307
30
0
41
1
10
40.4954716444353
20
-0.0170599841780472
30
0
41
1
10
40.4890568196818
20
0.119938192480248
30
0
41
1
10
40.4809513310221
20
0.291958765963102
30
0
41
1
10
40.4793269358185
20
0.326386423161921
30
0
41
1
10
40.476086477874
20
0.394978427132145
30
0
41
1
10
40.4712323113469
20
0.497597340774348
30
0
41
1
10
40.4663981213612
20
0.599417056280885
30
0
41
1
10
40.4567531788646
20
0.802005928951957
30
0
41
1
10
40.4439587015183
20
1.06932710135865
30
0
41
1
10
40.4311887747231
20
1.33110923804708
30
0
41
1
10
40.421544347441
20
1.52533932023923
30
0
41
1
10
40.4167054451505
20
1.62192700092595
30
0
41
1
10
40.4118430728385
20
1.71771240173101
30
0
41
1
10
40.4085960758993
20
1.78138925889309
30
0
41
1
10
40.4069684515351
20
1.81316550827159
30
0
41
1
10
40.3988340780549
20
1.97124147991994
30
0
41
1
10
40.3923594390069
20
2.09476714350259
30
0
41
1
10
40.3858926870466
20
2.21539103859701
30
0
0
SPLINE
5
102
100
AcDbEntity
8
1
62
256
6
ByLayer
370
13
48
1
60
0
100
AcDbSpline
70
4
71
3
72
11
73
7
40
0
40
0
40
0
40
0
40
0.141363020224279
40
0.555624024283642
40
0.969885028343005
40
1
40
1
40
1
40
1
41
1
10
40.6705172770519
20
1.6858902032688
30
0
41
1
10
40.6778788272606
20
1.56638366479396
30
0
41
1
10
40.7068132221638
20
1.08723946022553
30
0
41
1
10
40.7573203573767
20
0.199738643687482
30
0
41
1
10
40.8020344650624
20
-0.595966584139887
30
0
41
1
10
40.8251755285701
20
-0.994483683564908
30
0
41
1
10
40.8267437777457
20
-1.02142471264119
30
0
0
SPLINE
5
103
100
AcDbEntity
8
1
62
256
6
ByLayer
370
18
48
1
60
0
100
AcDbSpline
70
4
71
3
72
28
73
24
40
0
40
0
40
0
40
0
40
0.250000000000001
40
0.250000000000001
40
0.375000000000002
40
0.375000000000002
40
0.406250000000002
40
0.406250000000002
40
0.437500000000002
40
0.437500000000002
40
0.500000000000001
40
0.500000000000001
40
0.625000000000001
40
0.625000000000001
40
0.75
40
0.75
40
0.875
40
0.875
40
0.90625
40
0.90625
40
0.9375
40
0.9375
40
1
40
1
40
1
40
1
41
1
10
49.5680302261246
20
-0.465808347472176
30
0
41
1
10
49.554798826515
20
-0.199579419869281
30
0
41
1
10
49.5417952106618
20
0.0658581012072261
30
0
41
1
10
49.5223669891085
20
0.462834691511432
30
0
41
1
10
49.5158868612933
20
0.594963375166799
30
0
41
1
10
49.5077090371599
20
0.759871503629256
30
0
41
1
10
49.5060695687868
20
0.792840463044058
30
0
41
1
10
49.5027809221514
20
0.858752759315394
30
0
41
1
10
49.5011300946244
20
0.891728880813304
30
0
41
1
10
49.4961719989287
20
0.990382358750509
30
0
41
1
10
49.4928664631643
20
1.05561771644267
30
0
41
1
10
49.4829407724431
20
1.2497506013521
30
0
41
1
10
49.4763163980163
20
1.37707862494247
30
0
41
1
10
49.4630909946936
20
1.62759264343083
30
0
41
1
10
49.4564934807799
20
1.75077660935023
30
0
41
1
10
49.4433447754814
20
1.99293256034827
30
0
41
1
10
49.4367807429799
20
2.11190724073248
30
0
41
1
10
49.4285679658049
20
2.25793414336866
30
0
41
1
10
49.4269248699722
20
2.28700480182479
30
0
41
1
10
49.4236360389355
20
2.34487452578654
30
0
41
1
10
49.4219899534339
20
2.37367935162999
30
0
41
1
10
49.4170609411283
20
2.45940007900583
30
0
41
1
10
49.4137821243235
20
2.51571753284082
30
0
41
1
10
49.4104990677756
20
2.57121391031873
30
0
0
SPLINE
5
104
100
AcDbEntity
8
1
62
256
6
ByLayer
370
18
48
1
60
0
100
AcDbSpline
70
4
71
3
72
25
73
21
40
0
40
0
40
0
40
0
40
0.125
40
0.125
40
0.25
40
0.25
40
0.375
40
0.375
40
0.40625
40
0.40625
40
0.4375
40
0.5
40
0.5
40
0.625
40
0.625
40
0.75
40
0.75
40
0.875
40
0.875
40
1
40
1
40
1
40
1
41
1
10
48.7703206915614
20
3.20332769327865
30
0
41
1
10
48.7776157035379
20
3.0994289943167
30
0
41
1
10
48.7848681909514
20
2.99180300311806
30
0
41
1
10
48.7994599515408
20
2.76938167390156
30
0
41
1
10
48.8067945628518
20
2.65458155153166
30
0
41
1
10
48.8215100252685
20
2.41764634929828
30
0
41
1
10
48.8288975420722
20
2.29551117220956
30
0
41
1
10
48.8381478187527
20
2.13808787655123
30
0
41
1
10
48.840001132379
20
2.10632571980253
30
0
41
1
10
48.8436980200328
20
2.04252956061009
30
0
41
1
10
48.8492257312077
20
1.94648437437169
30
0
41
1
10
48.854703793995
20
1.84939735709068
30
0
41
1
10
48.8656137822182
20
1.65385918424457
30
0
41
1
10
48.8728358534677
20
1.52168687224346
30
0
41
1
10
48.8873205547099
20
1.25381040307482
30
0
41
1
10
48.8945748251469
20
1.11810630290603
30
0
41
1
10
48.9091779886531
20
0.843150702505994
30
0
41
1
10
48.916528321807
20
0.703870511400766
30
0
41
1
10
48.9313904003504
20
0.42174903999225
30
0
41
1
10
48.9388258330883
20
0.28030874829733
30
0
41
1
10
48.9462390863679
20
0.138485554044479
30
0
0
SPLINE
5
105
100
AcDbEntity
8
1
62
256
6
ByLayer
370
13
48
1
60
0
100
AcDbSpline
70
4
71
3
72
11
73
7
40
0
40
0
40
0
40
0
40
0.306228544011639
40
0.629525848709063
40
0.952823153406487
40
1
40
1
40
1
40
1
41
1
10
48.6128625323748
20
0.5524546487284
30
0
41
1
10
48.5968240207621
20
0.833970313877813
30
0
41
1
10
48.5638530335036
20
1.40498170031231
30
0
41
1
10
48.5139495725284
20
2.20925840289584
30
0
41
1
10
48.4776137611942
20
2.72357597533403
30
0
41
1
10
48.4582104296182
20
2.96931856705001
30
0
41
1
10
48.4557395744004
20
3.00012946433824
30
0
0
SPLINE
5
106
100
AcDbEntity
8
1
62
256
6
ByLayer
370
18
48
1
60
0
100
AcDbSpline
70
4
71
3
72
98
73
94
40
0
40
0
40
0
40
0
40
0.0625000000000042
40
0.0625000000000042
40
0.125000000000008
40
0.125000000000008
40
0.156250000000012
40
0.156250000000012
40
0.187500000000015
40
0.187500000000015
40
0.218750000000018
40
0.218750000000018
40
0.234375000000019
40
0.234375000000019
40
0.250000000000019
40
0.26562500000002
40
0.26562500000002
40
0.28125000000002
40
0.28125000000002
40
0.312500000000021
40
0.312500000000021
40
0.343750000000022
40
0.343750000000022
40
0.359375000000022
40
0.359375000000022
40
0.375000000000023
40
0.375000000000023
40
0.406250000000023
40
0.406250000000023
40
0.437500000000024
40
0.437500000000024
40
0.453125000000024
40
0.453125000000024
40
0.460937500000024
40
0.460937500000024
40
0.468750000000025
40
0.468750000000025
40
0.500000000000033
40
0.500000000000033
40
0.515625000000037
40
0.515625000000037
40
0.523437500000038
40
0.523437500000038
40
0.53125000000004
40
0.53125000000004
40
0.546875000000042
40
0.546875000000042
40
0.554687500000043
40
0.554687500000043
40
0.562500000000043
40
0.562500000000043
40
0.593750000000041
40
0.593750000000041
40
0.60156250000004
40
0.60156250000004
40
0.609375000000039
40
0.609375000000039
40
0.625000000000038
40
0.625000000000038
40
0.632812500000038
40
0.632812500000038
40
0.640625000000037
40
0.640625000000037
40
0.648437500000037
40
0.648437500000037
40
0.656250000000036
40
0.656250000000036
40
0.671875000000035
40
0.671875000000035
40
0.687500000000034
40
0.687500000000034
40
0.703125000000033
40
0.703125000000033
40
0.718750000000032
40
0.718750000000032
40
0.750000000000028
40
0.750000000000028
40
0.765625000000027
40
0.765625000000027
40
0.781250000000025
40
0.781250000000025
40
0.812500000000022
40
0.812500000000022
40
0.843750000000018
40
0.843750000000018
40
0.875000000000015
40
0.875000000000015
40
0.937500000000009
40
0.937500000000009
40
0.953125000000007
40
0.953125000000007
40
0.968750000000005
40
1
40
1
40
1
40
1
41
1
10
23.3597381679479
20
-1.730226331475
30
0
41
1
10
23.2116232337443
20
-1.64824160132358
30
0
41
1
10
23.0610381520998
20
-1.56948238105497
30
0
41
1
10
22.753611456457
20
-1.42249298776548
30
0
41
1
10
22.596816579576
20
-1.35416621586805
30
0
41
1
10
22.3558889999021
20
-1.26281067668282
30
0
41
1
10
22.274617201716
20
-1.23422961195396
30
0
41
1
10
22.1099088518263
20
-1.18149418993778
30
0
41
1
10
22.0264835307771
20
-1.15731536281288
30
0
41
1
10
21.8571785025816
20
-1.11417661689674
30
0
41
1
10
21.7712929021074
20
-1.09522976907195
30
0
41
1
10
21.6402333049207
20
-1.07169664592735
30
0
41
1
10
21.5965001343222
20
-1.06475789227594
30
0
41
1
10
21.5090168726747
20
-1.05263945706889
30
0
41
1
10
21.4214931943764
20
-1.04222810848063
30
0
41
1
10
21.333902444939
20
-1.03466082649797
30
0
41
1
10
21.2462857807175
20
-1.02819542243574
30
0
41
1
10
21.2024661099678
20
-1.02544453933413
30
0
41
1
10
21.0709684844939
20
-1.01883743109798
30
0
41
1
10
20.9832450731344
20
-1.0169196572086
30
0
41
1
10
20.8076769082343
20
-1.01826710666762
30
0
41
1
10
20.7198319203476
20
-1.02154248141642
30
0
41
1
10
20.5879679697205
20
-1.03056357914281
30
0
41
1
10
20.5439969939423
20
-1.03426564316507
30
0
41
1
10
20.4560197128844
20
-1.0431689202326
30
0
41
1
10
20.4119594747436
20
-1.04837752550844
30
0
41
1
10
20.2800912114509
20
-1.06639155744159
30
0
41
1
10
20.1930337455355
20
-1.0815103541874
30
0
41
1
10
20.0208675324855
20
-1.11873775165401
30
0
41
1
10
19.9357480563765
20
-1.14080888781533
30
0
41
1
10
19.8098288421951
20
-1.18011034439493
30
0
41
1
10
19.7681497263624
20
-1.19424478946257
30
0
41
1
10
19.706125650031
20
-1.21716605213473
30
0
41
1
10
19.6855213631262
20
-1.22509969449081
30
0
41
1
10
19.644720520088
20
-1.24148358390144
30
0
41
1
10
19.624496768002
20
-1.24994339130848
30
0
41
1
10
19.5243107464608
20
-1.29364516079093
30
0
41
1
10
19.4470947422273
20
-1.33302449636639
30
0
41
1
10
19.3368377351995
20
-1.40016458373111
30
0
41
1
10
19.3010166142481
20
-1.42389317110246
30
0
41
1
10
19.2489254066907
20
-1.46181387444401
30
0
41
1
10
19.2318652713524
20
-1.47482506869571
30
0
41
1
10
19.1986841209011
20
-1.50137775546287
30
0
41
1
10
19.1825202781738
20
-1.51494983480077
30
0
41
1
10
19.1353615173552
20
-1.55657288701312
30
0
41
1
10
19.1056934808393
20
-1.58552717071342
30
0
41
1
10
19.0641517205136
20
-1.63090227247389
30
0
41
1
10
19.050801020996
20
-1.64635346033188
30
0
41
1
10
19.0251376644243
20
-1.67792266517961
30
0
41
1
10
19.0127858895772
20
-1.6940993702097
30
0
41
1
10
18.9542916933274
20
-1.77601164770752
30
0
41
1
10
18.9184841034168
20
-1.84389435256927
30
0
41
1
10
18.8872026495819
20
-1.93095871976487
30
0
41
1
10
18.8816229010462
20
-1.94848269015606
30
0
41
1
10
18.8718199567476
20
-1.98373625199017
30
0
41
1
10
18.8675988554493
20
-2.00148554207308
30
0
41
1
10
18.8571052118417
20
-2.05420447826819
30
0
41
1
10
18.8529124567422
20
-2.08891525920887
30
0
41
1
10
18.8503628523258
20
-2.14029661711692
30
0
41
1
10
18.8501162901249
20
-2.15730879518091
30
0
41
1
10
18.8507046503112
20
-2.19109598886948
30
0
41
1
10
18.8515714892472
20
-2.20787226251252
30
0
41
1
10
18.8545389499698
20
-2.24119072792115
30
0
41
1
10
18.8566442637346
20
-2.25772816690969
30
0
41
1
10
18.8620693962398
20
-2.29017639444862
30
0
41
1
10
18.8653923115038
20
-2.30613772017244
30
0
41
1
10
18.8771610938935
20
-2.35325784573612
30
0
41
1
10
18.8874112480638
20
-2.38365259379032
30
0
41
1
10
18.9124001777091
20
-2.44255096800393
30
0
41
1
10
18.9271196003133
20
-2.471088213917
30
0
41
1
10
18.9598208648101
20
-2.52642209795144
30
0
41
1
10
18.9776577292349
20
-2.55290698394762
30
0
41
1
10
19.0156335904245
20
-2.60390151721848
30
0
41
1
10
19.0357763156807
20
-2.62840905860537
30
0
41
1
10
19.0989841964243
20
-2.69936064601299
30
0
41
1
10
19.1447831992029
20
-2.74325812242546
30
0
41
1
10
19.2173354148366
20
-2.80496015099331
30
0
41
1
10
19.2421755699246
20
-2.8248294929291
30
0
41
1
10
19.2929822897582
20
-2.86327767161032
30
0
41
1
10
19.3188989403825
20
-2.88181539853741
30
0
41
1
10
19.3975961721299
20
-2.93529066412557
30
0
41
1
10
19.4514631021636
20
-2.96821576659661
30
0
41
1
10
19.5612345949206
20
-3.02937928110404
30
0
41
1
10
19.6171448372951
20
-3.05761224945448
30
0
41
1
10
19.7305305698489
20
-3.10985060849146
30
0
41
1
10
19.7880091181425
20
-3.13385324735859
30
0
41
1
10
19.9623174519772
20
-3.19995194989275
30
0
41
1
10
20.080981493073
20
-3.23617749948977
30
0
41
1
10
20.2315344015505
20
-3.27230604744548
30
0
41
1
10
20.2617764797997
20
-3.27907416981228
30
0
41
1
10
20.322349563436
20
-3.2916677259536
30
0
41
1
10
20.4133690277935
20
-3.30915124449075
30
0
41
1
10
20.5048300111979
20
-3.32247017723981
30
0
41
1
10
20.5659896446425
20
-3.32952443722044
30
0
0
SPLINE
5
107
100
AcDbEntity
8
1
62
256
6
ByLayer
370
18
48
1
60
0
100
AcDbSpline
70
4
71
3
72
30
73
26
40
0
40
0
40
0
40
0
40
0.0312500000000005
40
0.0312500000000005
40
0.0625000000000009
40
0.125000000000001
40
0.125000000000001
40
0.250000000000003
40
0.250000000000003
40
0.375000000000004
40
0.375000000000004
40
0.437500000000005
40
0.468750000000005
40
0.468750000000005
40
0.500000000000005
40
0.500000000000005
40
0.625000000000004
40
0.625000000000004
40
0.750000000000002
40
0.750000000000002
40
0.875000000000001
40
0.875000000000001
40
0.937500000000001
40
0.937500000000001
40
1
40
1
40
1
40
1
41
1
10
43.4860665312276
20
-3.8903416208577
30
0
41
1
10
43.4842237088711
20
-3.8652308882005
30
0
41
1
10
43.4823764085821
20
-3.83970776003954
30
0
41
1
10
43.4786939915104
20
-3.78813412582059
30
0
41
1
10
43.4731821414265
20
-3.70989631910788
30
0
41
1
10
43.4677029692801
20
-3.62905447430069
30
0
41
1
10
43.4567754006626
20
-3.46395159586532
30
0
41
1
10
43.44953335963
20
-3.34933102455346
30
0
41
1
10
43.4350190183966
20
-3.11109260407059
30
0
41
1
10
43.4277361772538
20
-2.98747523799622
30
0
41
1
10
43.4167748736381
20
-2.79520888581143
30
0
41
1
10
43.4112848891451
20
-2.69736298101805
30
0
41
1
10
43.4057753102672
20
-2.59690554378722
30
0
41
1
10
43.4020967193827
20
-2.52934701628445
30
0
41
1
10
43.4002574641355
20
-2.49532500862162
30
0
41
1
10
43.391089648916
20
-2.3245926199354
30
0
41
1
10
43.3838185115753
20
-2.18546640912453
30
0
41
1
10
43.3692764776288
20
-1.90228233719296
30
0
41
1
10
43.3619974083377
20
-1.75822452891697
30
0
41
1
10
43.3474344187558
20
-1.46519366526104
30
0
41
1
10
43.3401516793851
20
-1.31622073038685
30
0
41
1
10
43.3291847763162
20
-1.08899586714051
30
0
41
1
10
43.3255189703667
20
-1.01257412156244
30
0
41
1
10
43.3181679808867
20
-0.858661992724677
30
0
41
1
10
43.314506570304
20
-0.781671049751424
30
0
41
1
10
43.3108500299091
20
-0.704646339408185
30
0
0
SPLINE
5
108
100
AcDbEntity
8
1
62
256
6
ByLayer
370
13
48
1
60
0
100
AcDbSpline
70
4
71
3
72
11
73
7
40
0
40
0
40
0
40
0
40
0.170661852075651
40
0.584006955678826
40
0.997352059282002
40
1
40
1
40
1
40
1
41
1
10
43.8370861785968
20
-1.1981286259481
30
0
41
1
10
43.8459931504892
20
-1.34935953404215
30
0
41
1
10
43.8764729240962
20
-1.85832627590517
30
0
41
1
10
43.9285257228296
20
-2.65837789585683
30
0
41
1
10
43.9718094426033
20
-3.19394167748544
30
0
41
1
10
43.9935204346437
20
-3.41989609019575
30
0
41
1
10
43.9936586326765
20
-3.42133263765291
30
0
0
SPLINE
5
109
100
AcDbEntity
8
1
62
256
6
ByLayer
370
18
48
1
60
0
100
AcDbSpline
70
4
71
3
72
8
73
4
40
0
40
0
40
0
40
0
40
1
40
1
40
1
40
1
41
1
10
43.1591593878574
20
-0.536764398599843
30
0
41
1
10
43.1619106802746
20
-0.590340554096343
30
0
41
1
10
43.1646587883937
20
-0.643784962253989
30
0
41
1
10
43.1674066383756
20
-0.697098033827473
30
0
0
SPLINE
5
10A
100
AcDbEntity
8
1
62
256
6
ByLayer
370
13
48
1
60
0
100
AcDbSpline
70
4
71
3
72
10
73
6
40
0
40
0
40
0
40
0
40
0.222000552007095
40
0.635849319421029
40
1
40
1
40
1
40
1
41
1
10
42.6504225790521
20
-0.11093540223726
30
0
41
1
10
42.6619948702659
20
-0.315753432502135
30
0
41
1
10
42.6951399840813
20
-0.9012788057384
30
0
41
1
10
42.7472673061693
20
-1.78907664403201
30
0
41
1
10
42.7878223233583
20
-2.40089481662832
30
0
41
1
10
42.8068045189951
20
-2.66196057862098
30
0
0
SPLINE
5
10B
100
AcDbEntity
8
1
62
256
6
ByLayer
370
18
48
1
60
0
100
AcDbSpline
70
4
71
3
72
26
73
22
40
0
40
0
40
0
40
0
40
0.124999999999999
40
0.124999999999999
40
0.249999999999998
40
0.249999999999998
40
0.312499999999998
40
0.312499999999998
40
0.343749999999997
40
0.343749999999997
40
0.374999999999997
40
0.499999999999997
40
0.499999999999997
40
0.624999999999998
40
0.749999999999998
40
0.749999999999998
40
0.812499999999999
40
0.812499999999999
40
0.874999999999999
40
0.874999999999999
40
1
40
1
40
1
40
1
41
1
10
43.1674066383756
20
-0.697098033827473
30
0
41
1
10
43.1743614120597
20
-0.84380206575463
30
0
41
1
10
43.1813158106871
20
-0.989220513525368
30
0
41
1
10
43.1952473075966
20
-1.27749739937474
30
0
41
1
10
43.2022175830635
20
-1.42035621673088
30
0
41
1
10
43.2127051159388
20
-1.63268851080284
30
0
41
1
10
43.2162067720266
20
-1.70313946564062
30
0
41
1
10
43.2214755031303
20
-1.80831697364752
30
0
41
1
10
43.2232362976586
20
-1.84332855139027
30
0
41
1
10
43.2267487870905
20
-1.91286318726375
30
0
41
1
10
43.2355120114663
20
-2.08562638209898
30
0
41
1
10
43.2442374323964
20
-2.25309012708624
30
0
41
1
10
43.2581879647193
20
-2.51441114407393
30
0
41
1
10
43.2721090968688
20
-2.76911134192687
30
0
41
1
10
43.2860201416519
20
-3.01058460394609
30
0
41
1
10
43.2965135117807
20
-3.18661811907731
30
0
41
1
10
43.3000239601503
20
-3.24448396083156
30
0
41
1
10
43.3070739546037
20
-3.35834536832314
30
0
41
1
10
43.3105917979604
20
-3.41398463301206
30
0
41
1
10
43.321120109103
20
-3.57710231774189
30
0
41
1
10
43.3281035445053
20
-3.68078798241871
30
0
41
1
10
43.3350625099884
20
-3.77951786390193
30
0
0
SPLINE
5
10C
100
AcDbEntity
8
1
62
256
6
ByLayer
370
13
48
1
60
0
100
AcDbSpline
70
4
71
3
72
11
73
7
40
0
40
0
40
0
40
0
40
0.0005376392331795
40
0.414710697572062
40
0.828883755910945
40
1
40
1
40
1
40
1
41
1
10
41.0670936212781
20
1.34077298520512
30
0
41
1
10
41.0671216250235
20
1.34030280701191
30
0
41
1
10
41.0887224533607
20
0.977607062752128
30
0
41
1
10
41.131896111881
20
0.219640547792636
30
0
41
1
10
41.1839546014652
20
-0.707265944621156
30
0
41
1
10
41.214440272336
20
-1.22738525143794
30
0
41
1
10
41.2233531185001
20
-1.3765783917739
30
0
0
SPLINE
5
10D
100
AcDbEntity
8
1
62
256
6
ByLayer
370
18
48
1
60
0
100
AcDbSpline
70
4
71
3
72
10
73
6
40
0
40
0
40
0
40
0
40
0.5
40
0.5
40
1
40
1
40
1
40
1
41
1
10
41.6163039800753
20
-2.11769928989844
30
0
41
1
10
41.5516454470653
20
-1.98955910725874
30
0
41
1
10
41.4865349909286
20
-1.86342815562219
30
0
41
1
10
41.3555429401205
20
-1.61613761012862
30
0
41
1
10
41.2896572671964
20
-1.49496317492736
30
0
41
1
10
41.2233531185001
20
-1.37657839177393
30
0
0
SPLINE
5
10E
100
AcDbEntity
8
1
62
256
6
ByLayer
370
18
48
1
60
0
100
AcDbSpline
70
4
71
3
72
34
73
30
40
0
40
0
40
0
40
0
40
0.125000000000011
40
0.125000000000011
40
0.187500000000017
40
0.187500000000017
40
0.250000000000023
40
0.250000000000023
40
0.375000000000034
40
0.375000000000034
40
0.43750000000004
40
0.43750000000004
40
0.500000000000046
40
0.500000000000046
40
0.625000000000057
40
0.625000000000057
40
0.687500000000063
40
0.687500000000063
40
0.750000000000069
40
0.750000000000069
40
0.812500000000075
40
0.812500000000075
40
0.843750000000078
40
0.843750000000078
40
0.87500000000008
40
0.87500000000008
40
0.93750000000004
40
0.93750000000004
40
1
40
1
40
1
40
1
41
1
10
41.2233531185001
20
-1.3765783917739
30
0
41
1
10
41.2124237193515
20
-1.35706415965393
30
0
41
1
10
41.1997619907804
20
-1.33757927558784
30
0
41
1
10
41.1788306283899
20
-1.30840897431108
30
0
41
1
10
41.1715090252536
20
-1.29867793723582
30
0
41
1
10
41.1563005300288
20
-1.27930341701767
30
0
41
1
10
41.1484929975773
20
-1.26975933352495
30
0
41
1
10
41.1245209239153
20
-1.24151311665452
30
0
41
1
10
41.1078129423623
20
-1.22319298733998
30
0
41
1
10
41.0817531635731
20
-1.1964061005969
30
0
41
1
10
41.0728985935078
20
-1.18759381780785
30
0
41
1
10
41.054849674523
20
-1.17020320426835
30
0
41
1
10
41.0457299194247
20
-1.16169811713814
30
0
41
1
10
41.0183001220117
20
-1.13693201006285
30
0
41
1
10
40.9998365110824
20
-1.12132805067694
30
0
41
1
10
40.9719062706118
20
-1.09938995683524
30
0
41
1
10
40.9625567476609
20
-1.09232416080079
30
0
41
1
10
40.9437790669307
20
-1.07874492614585
30
0
41
1
10
40.9343509198144
20
-1.07223629155368
30
0
41
1
10
40.9158807482766
20
-1.06016156223157
30
0
41
1
10
40.9067838336058
20
-1.05455382816527
30
0
41
1
10
40.8933856105766
20
-1.04688182155817
30
0
41
1
10
40.8889609094922
20
-1.04444833488321
30
0
41
1
10
40.8802039838475
20
-1.03985473583677
30
0
41
1
10
40.8758691441359
20
-1.03769452887599
30
0
41
1
10
40.8632238236803
20
-1.03176436538175
30
0
41
1
10
40.8552020063292
20
-1.0285024966345
30
0
41
1
10
40.8401253867579
20
-1.02361348521501
30
0
41
1
10
40.8330315833958
20
-1.02198755229784
30
0
41
1
10
40.8267437777456
20
-1.02142471263954
30
0
0
SPLINE
5
10F
100
AcDbEntity
8
1
62
256
6
ByLayer
370
18
48
1
60
0
100
AcDbSpline
70
4
71
3
72
10
73
6
40
0
40
0
40
0
40
0
40
0.5
40
0.5
40
1
40
1
40
1
40
1
41
1
10
40.8267437777457
20
-1.02142471264119
30
0
41
1
10
40.7785256930441
20
-1.01710857250794
30
0
41
1
10
40.7305707155847
20
-1.01018057672113
30
0
41
1
10
40.6350985429548
20
-0.991220621877318
30
0
41
1
10
40.5875528385601
20
-0.979182750710379
30
0
41
1
10
40.5402483426745
20
-0.964649409734193
30
0
0
SPLINE
5
110
100
AcDbEntity
8
1
62
256
6
ByLayer
370
18
48
1
60
0
100
AcDbSpline
70
4
71
3
72
10
73
6
40
0
40
0
40
0
40
0
40
0.5
40
0.5
40
1
40
1
40
1
40
1
41
1
10
40.5402483426747
20
-0.964649409734363
30
0
41
1
10
40.4313553109703
20
-0.847440555051008
30
0
41
1
10
40.3220675985884
20
-0.730097585870794
30
0
41
1
10
40.1025285433602
20
-0.495304981196256
30
0
41
1
10
39.9922662402363
20
-0.377865056589343
30
0
41
1
10
39.8813264138022
20
-0.260546620908229
30
0
0
SPLINE
5
111
100
AcDbEntity
8
1
62
256
6
ByLayer
370
18
48
1
60
0
100
AcDbSpline
70
4
71
3
72
10
73
6
40
0
40
0
40
0
40
0
40
0.5
40
0.5
40
1
40
1
40
1
40
1
41
1
10
39.8813264138022
20
-0.260546620908229
30
0
41
1
10
39.8413853676741
20
-0.201644552310739
30
0
41
1
10
39.8012805116228
20
-0.144125116237063
30
0
41
1
10
39.7208007521089
20
-0.0320677151029827
30
0
41
1
10
39.6804280363769
20
0.0224707506521042
30
0
41
1
10
39.6398912110028
20
0.0754868444280135
30
0
0
SPLINE
5
112
100
AcDbEntity
8
1
62
256
6
ByLayer
370
18
48
1
60
0
100
AcDbSpline
70
4
71
3
72
34
73
30
40
0
40
0
40
0
40
0
40
0.124999999999995
40
0.124999999999995
40
0.187499999999993
40
0.187499999999993
40
0.249999999999991
40
0.249999999999991
40
0.374999999999987
40
0.374999999999987
40
0.437499999999986
40
0.437499999999986
40
0.499999999999984
40
0.499999999999984
40
0.625000000000006
40
0.625000000000006
40
0.687500000000018
40
0.687500000000018
40
0.750000000000029
40
0.750000000000029
40
0.81250000000004
40
0.81250000000004
40
0.843750000000034
40
0.843750000000034
40
0.875000000000027
40
0.875000000000027
40
0.937500000000013
40
0.937500000000013
40
1
40
1
40
1
40
1
41
1
10
39.6398912110021
20
0.0754868444299177
30
0
41
1
10
39.6289584590125
20
0.0897852459293347
30
0
41
1
10
39.6162930665204
20
0.104968248523136
30
0
41
1
10
39.595357139092
20
0.128690312517335
30
0
41
1
10
39.5880340509351
20
0.13677492638098
30
0
41
1
10
39.5728232311349
20
0.153189484856171
30
0
41
1
10
39.5650146867615
20
0.161434840216316
30
0
41
1
10
39.5410401287992
20
0.186278826478372
30
0
41
1
10
39.5243312337152
20
0.202983134866599
30
0
41
1
10
39.4982714200472
20
0.228274699894825
30
0
41
1
10
39.4894170588259
20
0.236744980896077
30
0
41
1
10
39.471369013826
20
0.253776399945877
30
0
41
1
10
39.4622496496094
20
0.262266884731531
30
0
41
1
10
39.4348216093051
20
0.287487362395979
30
0
41
1
10
39.4163596499116
20
0.304048579945089
30
0
41
1
10
39.3884321934791
20
0.328535104647358
30
0
41
1
10
39.3790836455232
20
0.336637568500578
30
0
41
1
10
39.3603079684609
20
0.352718836624916
30
0
41
1
10
39.3508801963948
20
0.360696764467292
30
0
41
1
10
39.3324105986889
20
0.376129904725104
30
0
41
1
10
39.3233138948285
20
0.383632706266496
30
0
41
1
10
39.3099158303601
20
0.394523238001483
30
0
41
1
10
39.3054911557332
20
0.398092510491495
30
0
41
1
10
39.2967342210039
20
0.405097151778477
30
0
41
1
10
39.292399130886
20
0.408534443659136
30
0
41
1
10
39.27975293457
20
0.418463869008548
30
0
41
1
10
39.2717304885307
20
0.424631649374959
30
0
41
1
10
39.2566526251364
20
0.435900052571952
30
0
41
1
10
39.2495580307374
20
0.441026543406821
30
0
41
1
10
39.2432692734017
20
0.445336845628049
30
0
0
SPLINE
5
113
100
AcDbEntity
8
1
62
256
6
ByLayer
370
18
48
1
60
0
100
AcDbSpline
70
4
71
3
72
8
73
4
40
0
40
0
40
0
40
0
40
1
40
1
40
1
40
1
41
1
10
39.2432692734017
20
0.445336845626542
30
0
41
1
10
39.1883445066007
20
0.482982175491145
30
0
41
1
10
39.1337615182065
20
0.523746305369514
30
0
41
1
10
39.0794563273234
20
0.567541890764801
30
0
0
SPLINE
5
114
100
AcDbEntity
8
1
62
256
6
ByLayer
370
18
48
1
60
0
100
AcDbSpline
70
4
71
3
72
10
73
6
40
0
40
0
40
0
40
0
40
0.5
40
0.5
40
1
40
1
40
1
40
1
41
1
10
39.0794563273195
20
0.567541890766876
30
0
41
1
10
38.9247891124573
20
0.722355840893471
30
0
41
1
10
38.7698660968802
20
0.873889776773126
30
0
41
1
10
38.4589626942574
20
1.17000212261536
30
0
41
1
10
38.3029492328006
20
1.31454479918517
30
0
41
1
10
38.1459364095721
20
1.45516029826251
30
0
0
SPLINE
5
115
100
AcDbEntity
8
1
62
256
6
ByLayer
370
18
48
1
60
0
100
AcDbSpline
70
4
71
3
72
8
73
4
40
0
40
0
40
0
40
0
40
1
40
1
40
1
40
1
41
1
10
38.1459364095776
20
1.45516029825686
30
0
41
1
10
38.1161840052629
20
1.47722955127884
30
0
41
1
10
38.0863532233825
20
1.49831135745004
30
0
41
1
10
38.0564311240785
20
1.51839215063669
30
0
0
SPLINE
5
116
100
AcDbEntity
8
1
62
256
6
ByLayer
370
18
48
1
60
0
100
AcDbSpline
70
4
71
3
72
34
73
30
40
0
40
0
40
0
40
0
40
0.125000000000008
40
0.125000000000008
40
0.187500000000011
40
0.187500000000011
40
0.250000000000014
40
0.250000000000014
40
0.37500000000002
40
0.37500000000002
40
0.437500000000011
40
0.437500000000011
40
0.500000000000002
40
0.500000000000002
40
0.624999999999984
40
0.624999999999984
40
0.687499999999975
40
0.687499999999975
40
0.749999999999966
40
0.749999999999966
40
0.812499999999957
40
0.812499999999957
40
0.843749999999964
40
0.843749999999964
40
0.874999999999971
40
0.874999999999971
40
0.937499999999986
40
0.937499999999986
40
1
40
1
40
1
40
1
41
1
10
38.0564311240785
20
1.51839215063669
30
0
41
1
10
38.0454953856803
20
1.52573115111539
30
0
41
1
10
38.0328257025568
20
1.53476258522238
30
0
41
1
10
38.011881938653
20
1.55014825580636
30
0
41
1
10
38.004556063703
20
1.55560234596828
30
0
41
1
10
37.9893388943253
20
1.56706025258723
30
0
41
1
10
37.9815271235703
20
1.57300403055666
30
0
41
1
10
37.9575429454623
20
1.59142452053487
30
0
41
1
10
37.9408277091046
20
1.60448214100774
30
0
41
1
10
37.9147593773309
20
1.62520455446176
30
0
41
1
10
37.9059023434506
20
1.63230356715118
30
0
41
1
10
37.8878494586272
20
1.64690662390208
30
0
41
1
10
37.8787296503852
20
1.65434954655567
30
0
41
1
10
37.8512991307566
20
1.67695845156908
30
0
41
1
10
37.8328367871077
20
1.69246431981341
30
0
41
1
10
37.8049111095504
20
1.71652505587258
30
0
41
1
10
37.7955635463005
20
1.72468029331623
30
0
41
1
10
37.7767906857751
20
1.74131136088852
30
0
41
1
10
37.7673677435008
20
1.74978721177899
30
0
41
1
10
37.7489073073417
20
1.76670090877727
30
0
41
1
10
37.7398151652444
20
1.77518633532117
30
0
41
1
10
37.7264237712849
20
1.78797171280752
30
0
41
1
10
37.7220012907814
20
1.79224307752568
30
0
41
1
10
37.7132486530998
20
1.80080791742941
30
0
41
1
10
37.7089162269977
20
1.80510426295618
30
0
41
1
10
37.6962776351857
20
1.81782597680152
30
0
41
1
10
37.6882596798482
20
1.82615073925959
30
0
41
1
10
37.6731894290255
20
1.84243147249873
30
0
41
1
10
37.6660980405766
20
1.85043712771898
30
0
41
1
10
37.6598113865792
20
1.85797336493985
30
0
0
SPLINE
5
117
100
AcDbEntity
8
1
62
256
6
ByLayer
370
18
48
1
60
0
100
AcDbSpline
70
4
71
3
72
8
73
4
40
0
40
0
40
0
40
0
40
1
40
1
40
1
40
1
41
1
10
37.659811386579
20
1.85797336493869
30
0
41
1
10
37.6460261828259
20
1.87449862076838
30
0
41
1
10
37.6322625941214
20
1.89118033861212
30
0
41
1
10
37.6185196395185
20
1.90801743301426
30
0
0
SPLINE
5
118
100
AcDbEntity
8
1
62
256
6
ByLayer
370
18
48
1
60
0
100
AcDbSpline
70
4
71
3
72
10
73
6
40
0
40
0
40
0
40
0
40
0.5
40
0.5
40
1
40
1
40
1
40
1
41
1
10
37.6185196395185
20
1.90801743301426
30
0
41
1
10
37.5159238546081
20
1.99208989094478
30
0
41
1
10
37.4131972821639
20
2.0737617208882
30
0
41
1
10
37.2070559256724
20
2.23197839225114
30
0
41
1
10
37.1037003175921
20
2.30858324458507
30
0
41
1
10
37
20
2.38265266978084
30
0
0
SPLINE
5
119
100
AcDbEntity
8
1
62
256
6
ByLayer
370
18
48
1
60
0
100
AcDbSpline
70
4
71
3
72
16
73
12
40
0
40
0
40
0
40
0
40
0.249999999999994
40
0.249999999999994
40
0.499999999999989
40
0.499999999999989
40
0.624999999999987
40
0.624999999999987
40
0.749999999999985
40
0.749999999999985
40
1
40
1
40
1
40
1
41
1
10
37
20
2.38265266978084
30
0
41
1
10
36.9829642098582
20
2.38508238656686
30
0
41
1
10
36.9659150811679
20
2.38712814899142
30
0
41
1
10
36.9317937934871
20
2.39047623625265
30
0
41
1
10
36.9147436525398
20
2.39185563394059
30
0
41
1
10
36.8890843599974
20
2.39313943897582
30
0
41
1
10
36.8805113706071
20
2.39341590692078
30
0
41
1
10
36.8632596681892
20
2.39344570212029
30
0
41
1
10
36.8545788730568
20
2.39319232210906
30
0
41
1
10
36.8283755856413
20
2.3916606577414
30
0
41
1
10
36.8106944463477
20
2.38961834426084
30
0
41
1
10
36.7927806843435
20
2.3865351534846
30
0
0
SPLINE
5
11A
100
AcDbEntity
8
1
62
256
6
ByLayer
370
18
48
1
60
0
100
AcDbSpline
70
4
71
3
72
24
73
20
40
0
40
0
40
0
40
0
40
0.125000000000009
40
0.125000000000009
40
0.250000000000019
40
0.250000000000019
40
0.375000000000028
40
0.375000000000028
40
0.437500000000028
40
0.437500000000028
40
0.500000000000027
40
0.500000000000027
40
0.750000000000014
40
0.750000000000014
40
0.81250000000001
40
0.81250000000001
40
0.875000000000007
40
0.875000000000007
40
1
40
1
40
1
40
1
41
1
10
36.7927806843435
20
2.38653515348457
30
0
41
1
10
36.7698774931183
20
2.38259321722822
30
0
41
1
10
36.7446114267111
20
2.37964294615441
30
0
41
1
10
36.6898063374281
20
2.37591020593183
30
0
41
1
10
36.6602641471495
20
2.37512749473353
30
0
41
1
10
36.5972294300379
20
2.37606177284653
30
0
41
1
10
36.5637353529758
20
2.37777923830493
30
0
41
1
10
36.5107276004383
20
2.38256704898541
30
0
41
1
10
36.4925568824882
20
2.38453876474793
30
0
41
1
10
36.4556979339899
20
2.38923523450151
30
0
41
1
10
36.4369766259461
20
2.39196165821204
30
0
41
1
10
36.3420540938916
20
2.40756632605877
30
0
41
1
10
36.2619455835053
20
2.42636171918267
30
0
41
1
10
36.1584646627527
20
2.45908516977846
30
0
41
1
10
36.1375733099754
20
2.46610015068751
30
0
41
1
10
36.0956037570405
20
2.48104459910149
30
0
41
1
10
36.0745669002867
20
2.48895824276147
30
0
41
1
10
36.0113509099269
20
2.51403964597773
30
0
41
1
10
35.9690685073469
20
2.53254604277802
30
0
41
1
10
35.9267552805591
20
2.55289672435668
30
0
0
SPLINE
5
11B
100
AcDbEntity
8
1
62
256
6
ByLayer
370
18
48
1
60
0
100
AcDbSpline
70
4
71
3
72
51
73
47
40
0
40
0
40
0
40
0
40
0.0296199752710268
40
0.0296199752710268
40
0.0592399505420536
40
0.0592399505420536
40
0.118479901084109
40
0.118479901084109
40
0.177719851626165
40
0.177719851626165
40
0.23695980216822
40
0.23695980216822
40
0.266579777439249
40
0.266579777439249
40
0.296199752710278
40
0.296199752710278
40
0.355439703252336
40
0.355439703252336
40
0.385059678523364
40
0.385059678523364
40
0.414679653794392
40
0.414679653794392
40
0.473919604336447
40
0.473919604336447
40
0.533159554878503
40
0.533159554878503
40
0.562779530149531
40
0.562779530149531
40
0.592399505420559
40
0.651639455962614
40
0.651639455962614
40
0.71087940650467
40
0.71087940650467
40
0.770119357046726
40
0.770119357046726
40
0.78492934468224
40
0.78492934468224
40
0.799739332317755
40
0.799739332317755
40
0.829359307588783
40
0.829359307588783
40
0.888599258130839
40
0.888599258130839
40
0.947839208672895
40
0.947839208672895
40
1
40
1
40
1
40
1
41
1
10
35.9267552805591
20
2.55289672435668
30
0
41
1
10
35.8607238542345
20
2.58465474976225
30
0
41
1
10
35.7947924093033
20
2.61548101086609
30
0
41
1
10
35.6630665349672
20
2.67525520199536
30
0
41
1
10
35.5972090610504
20
2.70415203825613
30
0
41
1
10
35.4001004430359
20
2.78829035621646
30
0
41
1
10
35.2692334063888
20
2.84089756232308
30
0
41
1
10
35.0079391673937
20
2.93872097414061
30
0
41
1
10
34.8775684245533
20
2.9839832493638
30
0
41
1
10
34.6171151501469
20
3.06703397882546
30
0
41
1
10
34.4870022550244
20
3.10479978195283
30
0
41
1
10
34.2916041171888
20
3.15557501842014
30
0
41
1
10
34.2264426155513
20
3.17152552414078
30
0
41
1
10
34.0959300952605
20
3.20141653187719
30
0
41
1
10
34.0305282466702
20
3.21533661408253
30
0
41
1
10
33.8338844915245
20
3.2540436280992
30
0
41
1
10
33.7024694730746
20
3.27588241176491
30
0
41
1
10
33.5049037525138
20
3.3025586667226
30
0
41
1
10
33.4389702713303
20
3.31043360213698
30
0
41
1
10
33.306877511974
20
3.32409677443658
30
0
41
1
10
33.2409410345326
20
3.32986081513073
30
0
41
1
10
33.0436534533494
20
3.34392888359025
30
0
41
1
10
32.9127050905188
20
3.34902057940863
30
0
41
1
10
32.6513872185893
20
3.35072284616732
30
0
41
1
10
32.5210226175499
20
3.3473231824214
30
0
41
1
10
32.3250941063163
20
3.3360595935728
30
0
41
1
10
32.2597001231028
20
3.33128672714858
30
0
41
1
10
32.1290470649388
20
3.31967849136512
30
0
41
1
10
31.9332315162203
20
3.2991681314038
30
0
41
1
10
31.7376563529019
20
3.26935402229631
30
0
41
1
10
31.4766973081806
20
3.22131179815943
30
0
41
1
10
31.3461385930694
20
3.19313636162678
30
0
41
1
10
31.0842674448314
20
3.12855167142698
30
0
41
1
10
30.952957109617
20
3.09213966823231
30
0
41
1
10
30.7879258017341
20
3.04161119648114
30
0
41
1
10
30.7548868682766
20
3.0312610410281
30
0
41
1
10
30.6888742760504
20
3.0101433321272
30
0
41
1
10
30.6558736044409
20
2.99937203582343
30
0
41
1
10
30.5569212293556
20
2.96640862349926
30
0
41
1
10
30.4910458237297
20
2.94355079071059
30
0
41
1
10
30.293861861636
20
2.87224416489744
30
0
41
1
10
30.1629299413031
20
2.82110316164912
30
0
41
1
10
29.9017815804411
20
2.7118832330882
30
0
41
1
10
29.7715454260969
20
2.65381714305261
30
0
41
1
10
29.5268049142989
20
2.53851278688077
30
0
41
1
10
29.4122992222087
20
2.48198597205851
30
0
41
1
10
29.2976382642272
20
2.42314689718265
30
0
0
SPLINE
5
11C
100
AcDbEntity
8
1
62
256
6
ByLayer
370
18
48
1
60
0
100
AcDbSpline
70
4
71
3
72
88
73
84
40
0
40
0
40
0
40
0
40
0.0018537329467341
40
0.0018537329467341
40
0.049384507568317
40
0.049384507568317
40
0.0969152821898999
40
0.0969152821898999
40
0.120680669500691
40
0.120680669500691
40
0.144446056811483
40
0.144446056811483
40
0.156328750466879
40
0.156328750466879
40
0.168211444122276
40
0.168211444122276
40
0.191976831433067
40
0.191976831433067
40
0.215742218743858
40
0.215742218743858
40
0.23950760605465
40
0.23950760605465
40
0.287038380676234
40
0.287038380676234
40
0.310803767987027
40
0.310803767987027
40
0.322686461642424
40
0.322686461642424
40
0.334569155297821
40
0.334569155297821
40
0.382099929919408
40
0.382099929919408
40
0.429630704540995
40
0.429630704540995
40
0.453396091851789
40
0.453396091851789
40
0.477161479162582
40
0.477161479162582
40
0.489044172817979
40
0.489044172817979
40
0.500926866473375
40
0.500926866473375
40
0.524692253784166
40
0.524692253784166
40
0.572223028405747
40
0.572223028405747
40
0.619753803027329
40
0.619753803027329
40
0.64351919033812
40
0.64351919033812
40
0.655401883993516
40
0.655401883993516
40
0.667284577648912
40
0.667284577648912
40
0.714815352270495
40
0.714815352270495
40
0.738580739581288
40
0.738580739581288
40
0.750463433236684
40
0.750463433236684
40
0.76234612689208
40
0.76234612689208
40
0.786111514202872
40
0.786111514202872
40
0.809876901513664
40
0.809876901513664
40
0.82175959516906
40
0.82175959516906
40
0.833642288824456
40
0.833642288824456
40
0.857407676135248
40
0.857407676135248
40
0.904938450756832
40
0.904938450756832
40
0.928703838067623
40
0.928703838067623
40
0.952469225378415
40
0.952469225378415
40
0.964351919033811
40
0.964351919033811
40
0.976234612689207
40
0.976234612689207
40
1
40
1
40
1
40
1
41
1
10
25.8282312572352
20
3.34999993116492
30
0
41
1
10
25.8344850185781
20
3.34999895833667
30
0
41
1
10
25.8407385909849
20
3.34998840358872
30
0
41
1
10
26.0073322469187
20
3.34945259480872
30
0
41
1
10
26.1675545494448
20
3.34268088824447
30
0
41
1
10
26.487346045392
20
3.31701842189742
30
0
41
1
10
26.6469760510786
20
3.29812676747577
30
0
41
1
10
26.885975857915
20
3.26066005546178
30
0
41
1
10
26.965542496177
20
3.24663596998499
30
0
41
1
10
27.1247016063243
20
3.21556082757709
30
0
41
1
10
27.2043278642776
20
3.19852816775793
30
0
41
1
10
27.3236221879149
20
3.17061412783963
30
0
41
1
10
27.3633412640943
20
3.16090283295915
30
0
41
1
10
27.4430219454496
20
3.14081924720134
30
0
41
1
10
27.4829529099158
20
3.13043498833025
30
0
41
1
10
27.6029030451201
20
3.09820873365112
30
0
41
1
10
27.6830542781419
20
3.07527918763637
30
0
41
1
10
27.8437481948029
20
3.02653400461648
30
0
41
1
10
27.9242931806067
20
3.00071984919603
30
0
41
1
10
28.0857944697279
20
2.94618848173269
30
0
41
1
10
28.1668222026298
20
2.91743961875531
30
0
41
1
10
28.4088436912951
20
2.82740377003523
30
0
41
1
10
28.5693201054287
20
2.76218521883104
30
0
41
1
10
28.8088760768271
20
2.65672583955666
30
0
41
1
10
28.888525900466
20
2.62029150857788
30
0
41
1
10
29.0077183425456
20
2.56372320760823
30
0
41
1
10
29.0474049875834
20
2.54454922406916
30
0
41
1
10
29.1268915141514
20
2.5057501594261
30
0
41
1
10
29.166673725755
20
2.48611004495075
30
0
41
1
10
29.3657182479105
20
2.38666914121185
30
0
41
1
10
29.5253545045267
20
2.30314092921881
30
0
41
1
10
29.8449166192953
20
2.12777501168227
30
0
41
1
10
30.0049048837977
20
2.03599542324761
30
0
41
1
10
30.2451181447444
20
1.89194346269855
30
0
41
1
10
30.3252172208178
20
1.84284730648614
30
0
41
1
10
30.4855177798133
20
1.74249442270343
30
0
41
1
10
30.565687965462
20
1.69119832455735
30
0
41
1
10
30.6861874759338
20
1.61278848837753
30
0
41
1
10
30.7264466820613
20
1.58641681711779
30
0
41
1
10
30.8069571652525
20
1.53358361476538
30
0
41
1
10
30.8472206716247
20
1.50709043883106
30
0
41
1
10
30.9679634731964
20
1.42729431412147
30
0
41
1
10
31.0483793802047
20
1.37365476304149
30
0
41
1
10
31.2893747875236
20
1.2114151079787
30
0
41
1
10
31.4497202247513
20
1.10152210915101
30
0
41
1
10
31.7693959523277
20
0.877814822702874
30
0
41
1
10
31.9287456905483
20
0.764023626985477
30
0
41
1
10
32.1671179485397
20
0.590495623388136
30
0
41
1
10
32.2464243672258
20
0.53212110798367
30
0
41
1
10
32.3653489412423
20
0.444012302189805
30
0
41
1
10
32.4050103039372
20
0.414586548111998
30
0
41
1
10
32.4845269338655
20
0.355835746360753
30
0
41
1
10
32.5243700938454
20
0.326494309363028
30
0
41
1
10
32.7239046196987
20
0.179816545637863
30
0
41
1
10
32.8844865787614
20
0.0624841007903569
30
0
41
1
10
33.126255722429
20
-0.114249860197816
30
0
41
1
10
33.2070114975798
20
-0.173261727255209
30
0
41
1
10
33.328390371676
20
-0.261944799779911
30
0
41
1
10
33.3688415126802
20
-0.291497763779319
30
0
41
1
10
33.4495570631734
20
-0.350471336883345
30
0
41
1
10
33.4898467280588
20
-0.379910415250294
30
0
41
1
10
33.6105042603801
20
-0.468094862814894
30
0
41
1
10
33.6906472674964
20
-0.526726063503844
30
0
41
1
10
33.8504388854767
20
-0.643533018184684
30
0
41
1
10
33.9300632594095
20
-0.701741100871146
30
0
41
1
10
34.0493418372892
20
-0.78841978289276
30
0
41
1
10
34.0890952050795
20
-0.817179883206251
30
0
41
1
10
34.1687183565621
20
-0.874266276171824
30
0
41
1
10
34.2085755510219
20
-0.902609828123786
30
0
41
1
10
34.3281803219373
20
-0.987185852449699
30
0
41
1
10
34.4079342148064
20
-1.04299899386143
30
0
41
1
10
34.6472345445672
20
-1.20876097158555
30
0
41
1
10
34.8068421265938
20
-1.31700925394776
30
0
41
1
10
35.0462046472922
20
-1.47617557357407
30
0
41
1
10
35.12598717949
20
-1.52869066249113
30
0
41
1
10
35.2856557881437
20
-1.63248573795144
30
0
41
1
10
35.3655581620873
20
-1.68374659906752
30
0
41
1
10
35.4854673767292
20
-1.75972436882762
30
0
41
1
10
35.5254439516215
20
-1.78490082275155
30
0
41
1
10
35.6054039475763
20
-1.83495882816195
30
0
41
1
10
35.6453639236535
20
-1.85986763941452
30
0
41
1
10
35.7654672739542
20
-1.93389595031084
30
0
41
1
10
35.845965751172
20
-1.98216679934725
30
0
41
1
10
35.9267552805591
20
-2.02952123965787
30
0
0
SPLINE
5
11D
100
AcDbEntity
8
1
62
256
6
ByLayer
370
18
48
1
60
0
100
AcDbSpline
70
4
71
3
72
24
73
20
40
0
40
0
40
0
40
0
40
0.125
40
0.125
40
0.25
40
0.25
40
0.375
40
0.375
40
0.5
40
0.5
40
0.625
40
0.625
40
0.75
40
0.75
40
0.8125
40
0.8125
40
0.875
40
0.875
40
1
40
1
40
1
40
1
41
1
10
35.9267552805591
20
-2.02952123965787
30
0
41
1
10
35.9690104556811
20
-2.05428893150247
30
0
41
1
10
36.0107968808235
20
-2.08040513447992
30
0
41
1
10
36.0932901641254
20
-2.13537293092443
30
0
41
1
10
36.1339968796219
20
-2.16422434960765
30
0
41
1
10
36.2142221921168
20
-2.22473688276406
30
0
41
1
10
36.2537414137771
20
-2.25639659005284
30
0
41
1
10
36.3315059210522
20
-2.3226626952918
30
0
41
1
10
36.3697555977673
20
-2.35726975134369
30
0
41
1
10
36.444898013339
20
-2.42966187949926
30
0
41
1
10
36.4812594235475
20
-2.46693512515552
30
0
41
1
10
36.5514996981717
20
-2.54369626810038
30
0
41
1
10
36.5853802682995
20
-2.58318259350818
30
0
41
1
10
36.6342023844791
20
-2.64420064313271
30
0
41
1
10
36.6501422196057
20
-2.66483907964158
30
0
41
1
10
36.6813128757163
20
-2.70675177678359
30
0
41
1
10
36.6965450641113
20
-2.72803466575584
30
0
41
1
10
36.7405543929411
20
-2.79209210035682
30
0
41
1
10
36.7678455461106
20
-2.83531906468713
30
0
41
1
10
36.7927806843435
20
-2.87899558995602
30
0
0
SPLINE
5
11E
100
AcDbEntity
8
1
62
256
6
ByLayer
370
18
48
1
60
0
100
AcDbSpline
70
4
71
3
72
14
73
10
40
0
40
0
40
0
40
0
40
0.500000000000016
40
0.500000000000016
40
0.625000000000018
40
0.625000000000018
40
0.75000000000002
40
0.75000000000002
40
1
40
1
40
1
40
1
41
1
10
36.7927806843435
20
-2.87899558995602
30
0
41
1
10
36.8268940284021
20
-2.9387487110279
30
0
41
1
10
36.8612580423078
20
-2.99800008303575
30
0
41
1
10
36.9045195350645
20
-3.07134789018178
30
0
41
1
10
36.9131875610587
20
-3.08598042764737
30
0
41
1
10
36.9305514383884
20
-3.11518001545326
30
0
41
1
10
36.939252224526
20
-3.1297317207603
30
0
41
1
10
36.9653307693127
20
-3.17348847106143
30
0
41
1
10
36.9826810632387
20
-3.20280743912318
30
0
41
1
10
37.0000000000001
20
-3.23226720458922
30
0
0
SPLINE
5
11F
100
AcDbEntity
8
1
62
256
6
ByLayer
370
18
48
1
60
0
100
AcDbSpline
70
4
71
3
72
16
73
12
40
0
40
0
40
0
40
0
40
0.250000000000009
40
0.250000000000009
40
0.375000000000007
40
0.375000000000007
40
0.500000000000006
40
0.500000000000006
40
0.750000000000003
40
0.750000000000003
40
1
40
1
40
1
40
1
41
1
10
37
20
-3.23226720458911
30
0
41
1
10
37.0812189339287
20
-3.28790111748512
30
0
41
1
10
37.1619711552637
20
-3.34222123977585
30
0
41
1
10
37.2824380106404
20
-3.42169867339027
30
0
41
1
10
37.3224627730685
20
-3.44786731535152
30
0
41
1
10
37.4024449627408
20
-3.49945708709774
30
0
41
1
10
37.4423808032736
20
-3.52488966573395
30
0
41
1
10
37.5620682884292
20
-3.60008243940675
30
0
41
1
10
37.6416938973427
20
-3.64874241736194
30
0
41
1
10
37.8005307691593
20
-3.7431678612418
30
0
41
1
10
37.8797582549368
20
-3.78892521976994
30
0
41
1
10
37.9588234683953
20
-3.83320669562005
30
0
0
SPLINE
5
120
100
AcDbEntity
8
1
62
256
6
ByLayer
370
18
48
1
60
0
100
AcDbSpline
70
4
71
3
72
8
73
4
40
0
40
0
40
0
40
0
40
1
40
1
40
1
40
1
41
1
10
37.9588234683953
20
-3.83320669562008
30
0
41
1
10
37.9830407677705
20
-3.81326104276704
30
0
41
1
10
38.0073207803291
20
-3.79269433435505
30
0
41
1
10
38.0316700427537
20
-3.77150474426193
30
0
0
SPLINE
5
121
100
AcDbEntity
8
1
62
256
6
ByLayer
370
18
48
1
60
0
100
AcDbSpline
70
4
71
3
72
30
73
26
40
0
40
0
40
0
40
0
40
0.125000000000044
40
0.125000000000044
40
0.187500000000056
40
0.187500000000056
40
0.250000000000069
40
0.250000000000069
40
0.37500000000007
40
0.37500000000007
40
0.500000000000072
40
0.500000000000072
40
0.625000000000074
40
0.625000000000074
40
0.687500000000061
40
0.687500000000061
40
0.750000000000049
40
0.750000000000049
40
0.812500000000037
40
0.812500000000037
40
0.875000000000025
40
0.875000000000025
40
0.937500000000012
40
0.937500000000012
40
1
40
1
40
1
40
1
41
1
10
38.0316700427537
20
-3.77150474426207
30
0
41
1
10
38.042783576749
20
-3.76183335357513
30
0
41
1
10
38.0556807685824
20
-3.75499090079293
30
0
41
1
10
38.076989492409
20
-3.74778481567012
30
0
41
1
10
38.0844390391401
20
-3.74590594884279
30
0
41
1
10
38.0999210904658
20
-3.74313681411766
30
0
41
1
10
38.1078589446001
20
-3.74226163081565
30
0
41
1
10
38.1321990855934
20
-3.74101384014807
30
0
41
1
10
38.1491221440446
20
-3.74200114195875
30
0
41
1
10
38.1842186098602
20
-3.74739733014792
30
0
41
1
10
38.2025194276964
20
-3.75187075955139
30
0
41
1
10
38.2391457054466
20
-3.7641243181491
30
0
41
1
10
38.257589838113
20
-3.77189867269459
30
0
41
1
10
38.2854114939341
20
-3.78635424093176
30
0
41
1
10
38.2947114992182
20
-3.79164285911091
30
0
41
1
10
38.3133601896333
20
-3.8032938051341
30
0
41
1
10
38.3225992859766
20
-3.80959045513814
30
0
41
1
10
38.3407537592863
20
-3.82313532052203
30
0
41
1
10
38.3496889201157
20
-3.83039445075428
30
0
41
1
10
38.3672233038192
20
-3.84604136027934
30
0
41
1
10
38.3758849589323
20
-3.85449894903681
30
0
41
1
10
38.3923796996969
20
-3.87235597317621
30
0
41
1
10
38.4002300772473
20
-3.88175580539266
30
0
41
1
10
38.4149954391299
20
-3.90166621134748
30
0
41
1
10
38.4219528782478
20
-3.91225618491782
30
0
41
1
10
38.4281544067093
20
-3.9232609363772
30
0
0
SPLINE
5
122
100
AcDbEntity
8
1
62
256
6
ByLayer
370
18
48
1
60
0
100
AcDbSpline
70
4
71
3
72
8
73
4
40
0
40
0
40
0
40
0
40
1
40
1
40
1
40
1
41
1
10
38.4281544067093
20
-3.923260936377
30
0
41
1
10
38.4681994363493
20
-3.99432174035496
30
0
41
1
10
38.5080488973674
20
-4.06546151757476
30
0
41
1
10
38.5477301058544
20
-4.13666559264567
30
0
0
SPLINE
5
123
100
AcDbEntity
8
1
62
256
6
ByLayer
370
18
48
1
60
0
100
AcDbSpline
70
4
71
3
72
18
73
14
40
0
40
0
40
0
40
0
40
0.249999999999997
40
0.249999999999997
40
0.374999999999995
40
0.374999999999995
40
0.499999999999993
40
0.499999999999993
40
0.749999999999991
40
0.749999999999991
40
0.874999999999995
40
0.874999999999995
40
1
40
1
40
1
40
1
41
1
10
38.5477301058498
20
-4.1366655926484
30
0
41
1
10
38.6201536859429
20
-4.17063135220511
30
0
41
1
10
38.6924818641563
20
-4.20326582458003
30
0
41
1
10
38.8008806770137
20
-4.25015776939833
30
0
41
1
10
38.837002276474
20
-4.26544420062811
30
0
41
1
10
38.9092034943974
20
-4.29532276496096
30
0
41
1
10
38.945257468858
20
-4.30991950207195
30
0
41
1
10
39.0534777389803
20
-4.35262754778708
30
0
41
1
10
39.1257668628967
20
-4.37964814484485
30
0
41
1
10
39.2343921892965
20
-4.41796669884999
30
0
41
1
10
39.2706434171089
20
-4.43037177412677
30
0
41
1
10
39.3429539066256
20
-4.45434826430568
30
0
41
1
10
39.37904667172
20
-4.46593175880389
30
0
41
1
10
39.4150793436464
20
-4.47711224872117
30
0
0
SPLINE
5
124
100
AcDbEntity
8
1
62
256
6
ByLayer
370
18
48
1
60
0
100
AcDbSpline
70
4
71
3
72
10
73
6
40
0
40
0
40
0
40
0
40
0.50000000000001
40
0.50000000000001
40
1
40
1
40
1
40
1
41
1
10
39.4150793436465
20
-4.4771122487214
30
0
41
1
10
39.4481531327481
20
-4.43219823075387
30
0
41
1
10
39.4813619705773
20
-4.38631875235814
30
0
41
1
10
39.5479933491162
20
-4.29276113593818
30
0
41
1
10
39.5814253735204
20
-4.24507038022239
30
0
41
1
10
39.61499146092
20
-4.19647013289057
30
0
0
SPLINE
5
125
100
AcDbEntity
8
1
62
256
6
ByLayer
370
18
48
1
60
0
100
AcDbSpline
70
4
71
3
72
30
73
26
40
0
40
0
40
0
40
0
40
0.125000000000001
40
0.125000000000001
40
0.187500000000001
40
0.187500000000001
40
0.250000000000002
40
0.250000000000002
40
0.375000000000002
40
0.375000000000002
40
0.500000000000001
40
0.500000000000001
40
0.625000000000001
40
0.625000000000001
40
0.687500000000001
40
0.687500000000001
40
0.750000000000001
40
0.750000000000001
40
0.8125
40
0.8125
40
0.875
40
0.875
40
0.9375
40
0.9375
40
1
40
1
40
1
40
1
41
1
10
39.61499146092
20
-4.19647013289057
30
0
41
1
10
39.6261103792552
20
-4.18037108104934
30
0
41
1
10
39.6390147155994
20
-4.167053606634
30
0
41
1
10
39.6603353161088
20
-4.15009048723428
30
0
41
1
10
39.6677888219423
20
-4.14494712463593
30
0
41
1
10
39.6832801308126
20
-4.13565210115803
30
0
41
1
10
39.69122237426
20
-4.13155551749125
30
0
41
1
10
39.7155749743727
20
-4.1207536384735
30
0
41
1
10
39.7325054031831
20
-4.11551727699975
30
0
41
1
10
39.767614921539
20
-4.10871996735577
30
0
41
1
10
39.7859197779463
20
-4.10718892396446
30
0
41
1
10
39.8225487107147
20
-4.10806454475875
30
0
41
1
10
39.8409930787134
20
-4.11041992885555
30
0
41
1
10
39.8688133772265
20
-4.11717471616916
30
0
41
1
10
39.8781126306274
20
-4.11996834753742
30
0
41
1
10
39.8967591382728
20
-4.12678864087502
30
0
41
1
10
39.9059892410657
20
-4.13077515534641
30
0
41
1
10
39.9241324243329
20
-4.13996692183923
30
0
41
1
10
39.9330617954846
20
-4.14517651588261
30
0
41
1
10
39.9505841660719
20
-4.15701435571089
30
0
41
1
10
39.9592392173552
20
-4.16370079529887
30
0
41
1
10
39.9757185032331
20
-4.17844384550256
30
0
41
1
10
39.983561388977
20
-4.18649592403128
30
0
41
1
10
39.9983126185833
20
-4.20420334848649
30
0
41
1
10
40.0052633707642
20
-4.2139347788503
30
0
41
1
10
40.0114602230037
20
-4.22441160443421
30
0
0
SPLINE
5
126
100
AcDbEntity
8
1
62
256
6
ByLayer
370
18
48
1
60
0
100
AcDbSpline
70
4
71
3
72
8
73
4
40
0
40
0
40
0
40
0
40
1
40
1
40
1
40
1
41
1
10
40.0114602230036
20
-4.22441160443418
30
0
41
1
10
40.1007535123701
20
-4.37537699498188
30
0
41
1
10
40.1890744936998
20
-4.52369774677138
30
0
41
1
10
40.2767142406756
20
-4.66929508380196
30
0
0
SPLINE
5
127
100
AcDbEntity
8
1
62
256
6
ByLayer
370
18
48
1
60
0
100
AcDbSpline
70
4
71
3
72
12
73
8
40
0
40
0
40
0
40
0
40
0.499999999999983
40
0.499999999999983
40
0.749999999999991
40
0.749999999999991
40
1
40
1
40
1
40
1
41
1
10
40.2767142406756
20
-4.66929508380196
30
0
41
1
10
40.3764017579104
20
-4.68255319634471
30
0
41
1
10
40.4756599698071
20
-4.69252162120736
30
0
41
1
10
40.624122963518
20
-4.70245208776007
30
0
41
1
10
40.6735646065584
20
-4.70492973282163
30
0
41
1
10
40.7725121685232
20
-4.70824317272815
30
0
41
1
10
40.822005248603
20
-4.70907660350639
30
0
41
1
10
40.8715227434075
20
-4.70908179797075
30
0
0
SPLINE
5
128
100
AcDbEntity
8
1
62
256
6
ByLayer
370
18
48
1
60
0
100
AcDbSpline
70
4
71
3
72
10
73
6
40
0
40
0
40
0
40
0
40
0.5
40
0.5
40
1
40
1
40
1
40
1
41
1
10
40.8715227434048
20
-4.70908179796589
30
0
41
1
10
40.9253164386918
20
-4.61332012908255
30
0
41
1
10
40.9794406730986
20
-4.51588475279345
30
0
41
1
10
41.0883933970513
20
-4.31789379672176
30
0
41
1
10
41.1431687889502
20
-4.21743496873563
30
0
41
1
10
41.1982988852008
20
-4.11557068053884
30
0
0
SPLINE
5
129
100
AcDbEntity
8
1
62
256
6
ByLayer
370
18
48
1
60
0
100
AcDbSpline
70
4
71
3
72
30
73
26
40
0
40
0
40
0
40
0
40
0.124999999999944
40
0.124999999999944
40
0.187499999999936
40
0.187499999999936
40
0.249999999999928
40
0.249999999999928
40
0.374999999999914
40
0.374999999999914
40
0.4999999999999
40
0.4999999999999
40
0.624999999999886
40
0.624999999999886
40
0.687499999999905
40
0.687499999999905
40
0.749999999999924
40
0.749999999999924
40
0.812499999999943
40
0.812499999999943
40
0.874999999999962
40
0.874999999999962
40
0.937499999999981
40
0.937499999999981
40
1
40
1
40
1
40
1
41
1
10
41.1982988852007
20
-4.11557068053884
30
0
41
1
10
41.2094287678997
20
-4.09500591363368
30
0
41
1
10
41.2223460199083
20
-4.07683997537123
30
0
41
1
10
41.2436856119452
20
-4.05219376689851
30
0
41
1
10
41.2511454923796
20
-4.04441511514372
30
0
41
1
10
41.2666490793949
20
-4.02973216568387
30
0
41
1
10
41.274596974378
20
-4.02291617045313
30
0
41
1
10
41.2989649726626
20
-4.00388479710367
30
0
41
1
10
41.315903611131
20
-3.99306828806317
30
0
41
1
10
41.3510247278313
20
-3.97491451394663
30
0
41
1
10
41.3693318831688
20
-3.96756958399936
30
0
41
1
10
41.4059603769029
20
-3.95696636281073
30
0
41
1
10
41.4244025791893
20
-3.95361703252891
30
0
41
1
10
41.4522161767381
20
-3.95184701105279
30
0
41
1
10
41.4615126103826
20
-3.95180444636196
30
0
41
1
10
41.4801521144509
20
-3.95296019523914
30
0
41
1
10
41.4893756734031
20
-3.95415362254729
30
0
41
1
10
41.507508042717
20
-3.9578728609452
30
0
41
1
10
41.5164318278793
20
-3.96039798352101
30
0
41
1
10
41.5339426275704
20
-3.96698299606169
30
0
41
1
10
41.5425915894881
20
-3.97108250781045
30
0
41
1
10
41.5590600994335
20
-3.98091559432618
30
0
41
1
10
41.5668978836215
20
-3.98663868301011
30
0
41
1
10
41.5816397310583
20
-3.99998456573474
30
0
41
1
10
41.5885865038984
20
-4.00767102323778
30
0
41
1
10
41.5947817038153
20
-4.01634309860884
30
0
0
SPLINE
5
12A
100
AcDbEntity
8
1
62
256
6
ByLayer
370
18
48
1
60
0
100
AcDbSpline
70
4
71
3
72
12
73
8
40
0
40
0
40
0
40
0
40
0.500000000000012
40
0.500000000000012
40
0.750000000000006
40
0.750000000000006
40
1
40
1
40
1
40
1
41
1
10
41.5947817038153
20
-4.01634309860879
30
0
41
1
10
41.6643875095815
20
-4.11377769345137
30
0
41
1
10
41.7334018658519
20
-4.20794972874481
30
0
41
1
10
41.836248819894
20
-4.34436385311597
30
0
41
1
10
41.8704363167494
20
-4.38904983153398
30
0
41
1
10
41.9384833192322
20
-4.4766294615664
30
0
41
1
10
41.972353074058
20
-4.51953744042819
30
0
41
1
10
42.0060866250893
20
-4.56156663592708
30
0
0
SPLINE
5
12B
100
AcDbEntity
8
1
62
256
6
ByLayer
370
18
48
1
60
0
100
AcDbSpline
70
4
71
3
72
10
73
6
40
0
40
0
40
0
40
0
40
0.5
40
0.5
40
1
40
1
40
1
40
1
41
1
10
42.0060866250829
20
-4.56156663593734
30
0
41
1
10
42.0599576932685
20
-4.54737076481317
30
0
41
1
10
42.1137339880507
20
-4.53214502450615
30
0
41
1
10
42.2210773777439
20
-4.49959570414362
30
0
41
1
10
42.2746270156881
20
-4.48226128190549
30
0
41
1
10
42.3281927159372
20
-4.46392853517321
30
0
0
SPLINE
5
12C
100
AcDbEntity
8
1
62
256
6
ByLayer
370
18
48
1
60
0
100
AcDbSpline
70
4
71
3
72
14
73
10
40
0
40
0
40
0
40
0
40
0.25
40
0.25
40
0.5
40
0.5
40
0.75
40
0.75
40
1
40
1
40
1
40
1
41
1
10
42.3281927159346
20
-4.46392853516966
30
0
41
1
10
42.3652992157659
20
-4.38783052550133
30
0
41
1
10
42.4025675272813
20
-4.31140324195329
30
0
41
1
10
42.4774854853607
20
-4.15790347223768
30
0
41
1
10
42.515126720363
20
-4.08084653940051
30
0
41
1
10
42.5907068016846
20
-3.92637998096649
30
0
41
1
10
42.6286757803812
20
-3.84890975479064
30
0
41
1
10
42.7049117103328
20
-3.69375568183139
30
0
41
1
10
42.7431813075001
20
-3.61606622949728
30
0
41
1
10
42.781630626461
20
-3.53827695525627
30
0
0
SPLINE
5
12D
100
AcDbEntity
8
1
62
256
6
ByLayer
370
18
48
1
60
0
100
AcDbSpline
70
4
71
3
72
26
73
22
40
0
40
0
40
0
40
0
40
0.151900688233901
40
0.151900688233901
40
0.227851032350852
40
0.227851032350852
40
0.303801376467804
40
0.303801376467804
40
0.455702064701762
40
0.455702064701762
40
0.60760275293572
40
0.60760275293572
40
0.759503441169678
40
0.759503441169678
40
0.835453785286658
40
0.835453785286658
40
0.911404129403637
40
0.911404129403637
40
0.987354473520616
40
0.987354473520616
40
1
40
1
40
1
40
1
41
1
10
42.781630626461
20
-3.53827695525627
30
0
41
1
10
42.7927651749532
20
-3.51574993866353
30
0
41
1
10
42.8056886177488
20
-3.49493921367818
30
0
41
1
10
42.8270388315774
20
-3.46559452810661
30
0
41
1
10
42.8345023323959
20
-3.45612175556053
30
0
41
1
10
42.850014428285
20
-3.43782495358221
30
0
41
1
10
42.8579664752977
20
-3.42911252562141
30
0
41
1
10
42.8823466274755
20
-3.40414866958477
30
0
41
1
10
42.8992929795619
20
-3.38905628841618
30
0
41
1
10
42.9344285997904
20
-3.36173562181096
30
0
41
1
10
42.9527411388547
20
-3.34946401637865
30
0
41
1
10
42.9893749088255
20
-3.32866803200369
30
0
41
1
10
43.0078184454156
20
-3.32002296833912
30
0
41
1
10
43.0356312312269
20
-3.30995059040012
30
0
41
1
10
43.0449269116534
20
-3.30708018017623
30
0
41
1
10
43.063563819248
20
-3.30243888414679
30
0
41
1
10
43.0727786315467
20
-3.30070129838057
30
0
41
1
10
43.0908994822047
20
-3.29850789175964
30
0
41
1
10
43.0998172009716
20
-3.29804775206529
30
0
41
1
10
43.1100229311795
20
-3.29836511038275
30
0
41
1
10
43.111476654868
20
-3.29843116029528
30
0
41
1
10
43.1129259876473
20
-3.29851842292428
30
0
0
SPLINE
5
12E
100
AcDbEntity
8
1
62
256
6
ByLayer
370
18
48
1
60
0
100
AcDbSpline
70
4
71
3
72
8
73
4
40
0
40
0
40
0
40
0
40
1
40
1
40
1
40
1
41
1
10
43.8386584924431
20
-3.61066089754488
30
0
41
1
10
43.7882874668056
20
-3.65054117841456
30
0
41
1
10
43.7379205646818
20
-3.68967105606907
30
0
41
1
10
43.6875354932414
20
-3.72804445411646
30
0
0
SPLINE
5
12F
100
AcDbEntity
8
1
62
256
6
ByLayer
370
18
48
1
60
0
100
AcDbSpline
70
4
71
3
72
8
73
4
40
0
40
0
40
0
40
0
40
1
40
1
40
1
40
1
41
1
10
43.8386584924431
20
-3.61066089754488
30
0
41
1
10
43.8493227327428
20
-3.58800010556666
30
0
41
1
10
43.8599968895374
20
-3.56535796532882
30
0
41
1
10
43.8706820133681
20
-3.54273518518551
30
0
0
SPLINE
5
130
100
AcDbEntity
8
1
62
256
6
ByLayer
370
18
48
1
60
0
100
AcDbSpline
70
4
71
3
72
10
73
6
40
0
40
0
40
0
40
0
40
0.5
40
0.5
40
1
40
1
40
1
40
1
41
1
10
47.1606029787453
20
-4.21567917170842
30
0
41
1
10
47.0744846267248
20
-4.36305236833988
30
0
41
1
10
46.9892111643969
20
-4.50858060161082
30
0
41
1
10
46.8198494963497
20
-4.79585164903344
30
0
41
1
10
46.7360865997067
20
-4.93704107586925
30
0
41
1
10
46.6530316719088
20
-5.07567720744316
30
0
0
SPLINE
5
131
100
AcDbEntity
8
1
62
256
6
ByLayer
370
18
48
1
60
0
100
AcDbSpline
70
4
71
3
72
8
73
4
40
0
40
0
40
0
40
0
40
1
40
1
40
1
40
1
41
1
10
46.5020326818795
20
-5.07318587356971
30
0
41
1
10
46.5523577850108
20
-5.07495644410048
30
0
41
1
10
46.6026855000076
20
-5.07578725131455
30
0
41
1
10
46.6530316719088
20
-5.07567720744316
30
0
0
SPLINE
5
132
100
AcDbEntity
8
1
62
256
6
ByLayer
370
18
48
1
60
0
100
AcDbSpline
70
4
71
3
72
12
73
8
40
0
40
0
40
0
40
0
40
0.218024257046396
40
0.218024257046396
40
0.609012128523198
40
0.609012128523198
40
1
40
1
40
1
40
1
41
1
10
46.3136047576347
20
-4.75431420254375
30
0
41
1
10
46.2891638759273
20
-4.71215537990889
30
0
41
1
10
46.2646617653917
20
-4.66959315770941
30
0
41
1
10
46.1960732522201
20
-4.54964796001312
30
0
41
1
10
46.1518497892862
20
-4.47139122421538
30
0
41
1
10
46.0630463863949
20
-4.31254427226599
30
0
41
1
10
46.0184854207756
20
-4.23198984819064
30
0
41
1
10
45.9737145222542
20
-4.15029739607286
30
0
0
SPLINE
5
133
100
AcDbEntity
8
1
62
256
6
ByLayer
370
18
48
1
60
0
100
AcDbSpline
70
4
71
3
72
34
73
30
40
0
40
0
40
0
40
0
40
0.125000000000014
40
0.125000000000014
40
0.187500000000002
40
0.187500000000002
40
0.24999999999999
40
0.24999999999999
40
0.374999999999967
40
0.374999999999967
40
0.437499999999955
40
0.437499999999955
40
0.499999999999943
40
0.499999999999943
40
0.624999999999919
40
0.624999999999919
40
0.687499999999934
40
0.687499999999934
40
0.749999999999948
40
0.749999999999948
40
0.812499999999963
40
0.812499999999963
40
0.84374999999997
40
0.84374999999997
40
0.874999999999977
40
0.874999999999977
40
0.937499999999989
40
0.937499999999989
40
1
40
1
40
1
40
1
41
1
10
45.9737145222541
20
-4.15029739607277
30
0
41
1
10
45.9627982928698
20
-4.13037879770343
30
0
41
1
10
45.9501525649324
20
-4.11276719711356
30
0
41
1
10
45.9292467948779
20
-4.08889894494482
30
0
41
1
10
45.9219343050179
20
-4.08136730589493
30
0
41
1
10
45.9067433694208
20
-4.06717369225342
30
0
41
1
10
45.8989442947923
20
-4.06058305495193
30
0
41
1
10
45.8749960450624
20
-4.04218957922305
30
0
41
1
10
45.8583018872015
20
-4.03174789985604
30
0
41
1
10
45.8322575776393
20
-4.01866786100877
30
0
41
1
10
45.8234072862899
20
-4.01474296131292
30
0
41
1
10
45.8053647706786
20
-4.00779442509514
30
0
41
1
10
45.7962446023934
20
-4.00480132415927
30
0
41
1
10
45.7688143479808
20
-3.99734325689849
30
0
41
1
10
45.7503469384951
20
-3.99433991341797
30
0
41
1
10
45.7224055846754
20
-3.99316114082583
30
0
41
1
10
45.7130514549153
20
-3.99332786091622
30
0
41
1
10
45.6942628122758
20
-3.9949390101967
30
0
41
1
10
45.6848245131261
20
-3.99639418425525
30
0
41
1
10
45.6663354751626
20
-4.00069665102566
30
0
41
1
10
45.6572294293102
20
-4.00354438226708
30
0
41
1
10
45.6438181899114
20
-4.00902579643957
30
0
41
1
10
45.6393892652148
20
-4.01105550678787
30
0
41
1
10
45.6306241886092
20
-4.0155633591576
30
0
41
1
10
45.6262849274888
20
-4.01804596498633
30
0
41
1
10
45.613627678315
20
-4.026110500649
30
0
41
1
10
45.6055995703243
20
-4.0323339586931
30
0
41
1
10
45.5905136801617
20
-4.04678290095069
30
0
41
1
10
45.5834170586403
20
-4.05507710156405
30
0
41
1
10
45.5771286680803
20
-4.06436132820329
30
0
0
SPLINE
5
134
100
AcDbEntity
8
1
62
256
6
ByLayer
370
18
48
1
60
0
100
AcDbSpline
70
4
71
3
72
10
73
6
40
0
40
0
40
0
40
0
40
0.5
40
0.5
40
1
40
1
40
1
40
1
41
1
10
45.5771286680804
20
-4.06436132820375
30
0
41
1
10
45.4910024433549
20
-4.19151872758906
30
0
41
1
10
45.4057283049975
20
-4.31410679375949
30
0
41
1
10
45.2363679870004
20
-4.55033868206036
30
0
41
1
10
45.1526094414241
20
-4.66353346398603
30
0
41
1
10
45.0695615535727
20
-4.77185902171706
30
0
0
SPLINE
5
135
100
AcDbEntity
8
1
62
256
6
ByLayer
370
18
48
1
60
0
100
AcDbSpline
70
4
71
3
72
8
73
4
40
0
40
0
40
0
40
0
40
1
40
1
40
1
40
1
41
1
10
44.9185018071948
20
-4.7115295106222
30
0
41
1
10
44.9688459186875
20
-4.73251475263388
30
0
41
1
10
45.0191942807692
20
-4.75262639308812
30
0
41
1
10
45.0695615535727
20
-4.77185902171703
30
0
0
SPLINE
5
136
100
AcDbEntity
8
1
62
256
6
ByLayer
370
18
48
1
60
0
100
AcDbSpline
70
4
71
3
72
14
73
10
40
0
40
0
40
0
40
0
40
0.25
40
0.25
40
0.500000000000001
40
0.500000000000001
40
0.750000000000001
40
0.750000000000001
40
1
40
1
40
1
40
1
41
1
10
44.9185018071962
20
-4.71152951060938
30
0
41
1
10
44.8752183073836
20
-4.62325193304017
30
0
41
1
10
44.8317762228887
20
-4.53434630649014
30
0
41
1
10
44.744497474872
20
-4.35529978520026
30
0
41
1
10
44.7006402455029
20
-4.26511635450854
30
0
41
1
10
44.6125885280733
20
-4.08381601605697
30
0
41
1
10
44.5683730259175
20
-3.99265591513159
30
0
41
1
10
44.4795813025169
20
-3.80954606571495
30
0
41
1
10
44.4350240907182
20
-3.71763346606883
30
0
41
1
10
44.3902594508279
20
-3.62537495685888
30
0
0
SPLINE
5
137
100
AcDbEntity
8
1
62
256
6
ByLayer
370
18
48
1
60
0
100
AcDbSpline
70
4
71
3
72
34
73
30
40
0
40
0
40
0
40
0
40
0.124999999999916
40
0.124999999999916
40
0.187499999999893
40
0.187499999999893
40
0.24999999999987
40
0.24999999999987
40
0.374999999999869
40
0.374999999999869
40
0.437499999999893
40
0.437499999999893
40
0.499999999999917
40
0.499999999999917
40
0.624999999999913
40
0.624999999999913
40
0.687499999999912
40
0.687499999999912
40
0.74999999999991
40
0.74999999999991
40
0.812499999999908
40
0.812499999999908
40
0.843749999999908
40
0.843749999999908
40
0.874999999999908
40
0.874999999999908
40
0.937499999999954
40
0.937499999999954
40
1
40
1
40
1
40
1
41
1
10
44.3902594508278
20
-3.62537495685888
30
0
41
1
10
44.3793384358698
20
-3.60286708990054
30
0
41
1
10
44.3666876974639
20
-3.58208783509565
30
0
41
1
10
44.3457753230676
20
-3.55283673234052
30
0
41
1
10
44.3384606676934
20
-3.54339891161891
30
0
41
1
10
44.3232664526064
20
-3.52520451324611
30
0
41
1
10
44.3154660755899
20
-3.51653997348518
30
0
41
1
10
44.291514980931
20
-3.49172290794334
30
0
41
1
10
44.2748203659028
20
-3.47673248664779
30
0
41
1
10
44.2487772802665
20
-3.45643898058603
30
0
41
1
10
44.2399277093197
20
-3.45004377570316
30
0
41
1
10
44.2218871426144
20
-3.43801528322876
30
0
41
1
10
44.2127679980223
20
-3.43243255002957
30
0
41
1
10
44.1853407819096
20
-3.41711207066598
30
0
41
1
10
44.166875119909
20
-3.40871971179192
30
0
41
1
10
44.1389356930623
20
-3.39918396030342
30
0
41
1
10
44.1295821253381
20
-3.39651896044182
30
0
41
1
10
44.1107945633241
20
-3.39235693853505
30
0
41
1
10
44.1013561636204
20
-3.39086866045957
30
0
41
1
10
44.0828669053885
20
-3.38929999436354
30
0
41
1
10
44.0737607936489
20
-3.38920333649898
30
0
41
1
10
44.0603497722926
20
-3.39024962209322
30
0
41
1
10
44.0559209721771
20
-3.3907978532612
30
0
41
1
10
44.0471562762273
20
-3.39233545167443
30
0
41
1
10
44.0428168933846
20
-3.39332807633286
30
0
41
1
10
44.030159223627
20
-3.39698172416752
30
0
41
1
10
44.0221310009596
20
-3.40032000600107
30
0
41
1
10
44.0070449354981
20
-3.40912993630044
30
0
41
1
10
43.9999479133033
20
-3.41465324038856
30
0
41
1
10
43.9936586326764
20
-3.42133263765197
30
0
0
SPLINE
5
138
100
AcDbEntity
8
1
62
256
6
ByLayer
370
18
48
1
60
0
100
AcDbSpline
70
4
71
3
72
10
73
6
40
0
40
0
40
0
40
0
40
0.5
40
0.5
40
1
40
1
40
1
40
1
41
1
10
43.9936586326765
20
-3.42133263765291
30
0
41
1
10
43.9075352755934
20
-3.51279812468579
30
0
41
1
10
43.8222535017642
20
-3.59758332807829
30
0
41
1
10
43.6528771257566
20
-3.75410187741454
30
0
41
1
10
43.5691154731757
20
-3.82552157228525
30
0
41
1
10
43.4860665312276
20
-3.8903416208577
30
0
0
SPLINE
5
139
100
AcDbEntity
8
1
62
256
6
ByLayer
370
18
48
1
60
0
100
AcDbSpline
70
4
71
3
72
8
73
4
40
0
40
0
40
0
40
0
40
1
40
1
40
1
40
1
41
1
10
43.3350625099806
20
-3.77951786390256
30
0
41
1
10
43.3853885846149
20
-3.81716259770567
30
0
41
1
10
43.4357182444874
20
-3.85410699656032
30
0
41
1
10
43.4860665312276
20
-3.89034162085773
30
0
0
SPLINE
5
13A
100
AcDbEntity
8
1
62
256
6
ByLayer
370
18
48
1
60
0
100
AcDbSpline
70
4
71
3
72
14
73
10
40
0
40
0
40
0
40
0
40
0.25
40
0.25
40
0.5
40
0.5
40
0.75
40
0.75
40
1
40
1
40
1
40
1
41
1
10
43.3350625099818
20
-3.77951786389329
30
0
41
1
10
43.2917793764815
20
-3.68547207413488
30
0
41
1
10
43.2483341016102
20
-3.59157241262707
30
0
41
1
10
43.1610466147909
20
-3.40410054662323
30
0
41
1
10
43.1171837910064
20
-3.31048482123947
30
0
41
1
10
43.0291232119212
20
-3.12391501571761
30
0
41
1
10
42.9849046341851
20
-3.03091620487305
30
0
41
1
10
42.8961141705867
20
-2.84574759717185
30
0
41
1
10
42.8515618721379
20
-2.75361372195778
30
0
41
1
10
42.8068045189952
20
-2.66196057862282
30
0
0
SPLINE
5
13B
100
AcDbEntity
8
1
62
256
6
ByLayer
370
18
48
1
60
0
100
AcDbSpline
70
4
71
3
72
34
73
30
40
0
40
0
40
0
40
0
40
0.124999999999961
40
0.124999999999961
40
0.187499999999962
40
0.187499999999962
40
0.249999999999962
40
0.249999999999962
40
0.374999999999917
40
0.374999999999917
40
0.437499999999894
40
0.437499999999894
40
0.499999999999871
40
0.499999999999871
40
0.624999999999826
40
0.624999999999826
40
0.687499999999829
40
0.687499999999829
40
0.749999999999833
40
0.749999999999833
40
0.812499999999837
40
0.812499999999837
40
0.843749999999864
40
0.843749999999864
40
0.87499999999989
40
0.87499999999989
40
0.937499999999945
40
0.937499999999945
40
1
40
1
40
1
40
1
41
1
10
42.8068045189943
20
-2.66196057862101
30
0
41
1
10
42.795880106111
20
-2.63958980131775
30
0
41
1
10
42.7832250764323
20
-2.61815538511962
30
0
41
1
10
42.762305091389
20
-2.58705549694892
30
0
41
1
10
42.754987581194
20
-2.57685120614181
30
0
41
1
10
42.7397876486037
20
-2.556852301466
30
0
41
1
10
42.7319843334225
20
-2.5471593810783
30
0
41
1
10
42.7080244028632
20
-2.51891257188836
30
0
41
1
10
42.6913238480543
20
-2.50118081112453
30
0
41
1
10
42.6652729072714
20
-2.47611983924085
30
0
41
1
10
42.6564208948861
20
-2.46802499233718
30
0
41
1
10
42.6383760872633
20
-2.45236564494334
30
0
41
1
10
42.629256185353
20
-2.44486653769803
30
0
41
1
10
42.6018267544314
20
-2.42352897892425
30
0
41
1
10
42.5833615676462
20
-2.41075651369513
30
0
41
1
10
42.5554260747269
20
-2.3940041814453
30
0
41
1
10
42.5460743183697
20
-2.38882489468475
30
0
41
1
10
42.5272912460439
20
-2.37938199831496
30
0
41
1
10
42.5178571083487
20
-2.37512469229222
30
0
41
1
10
42.4993758498822
20
-2.36786150814225
30
0
41
1
10
42.4902736066695
20
-2.36482474216018
30
0
41
1
10
42.4768679201086
20
-2.36129750663699
30
0
41
1
10
42.4724408198524
20
-2.36029388278524
30
0
41
1
10
42.4636793150207
20
-2.35866700922423
30
0
41
1
10
42.4593417128332
20
-2.35804525327086
30
0
41
1
10
42.4466887855496
20
-2.35683285009816
30
0
41
1
10
42.4386628745472
20
-2.3568733632539
30
0
41
1
10
42.423579857418
20
-2.35896088474041
30
0
41
1
10
42.4164836276431
20
-2.36103593549575
30
0
41
1
10
42.4101943986081
20
-2.36429269730331
30
0
0
SPLINE
5
13C
100
AcDbEntity
8
1
62
256
6
ByLayer
370
18
48
1
60
0
100
AcDbSpline
70
4
71
3
72
10
73
6
40
0
40
0
40
0
40
0
40
0.17847522392465
40
0.17847522392465
40
1
40
1
40
1
40
1
41
1
10
37.339374087516
20
-4.25660968379438
30
0
41
1
10
37.3192492507089
20
-4.25377045624913
30
0
41
1
10
37.2991126541329
20
-4.25079426964717
30
0
41
1
10
37.1862139608153
20
-4.23335343184735
30
0
41
1
10
37.0932485496428
20
-4.21614038143011
30
0
41
1
10
37.0000000000002
20
-4.19606341226111
30
0
0
SPLINE
5
13D
100
AcDbEntity
8
1
62
256
6
ByLayer
370
18
48
1
60
0
100
AcDbSpline
70
4
71
3
72
16
73
12
40
0
40
0
40
0
40
0
40
0.249999999999996
40
0.249999999999996
40
0.499999999999992
40
0.499999999999992
40
0.62499999999999
40
0.62499999999999
40
0.749999999999988
40
0.749999999999988
40
1
40
1
40
1
40
1
41
1
10
37
20
-4.19606341226108
30
0
41
1
10
36.9829642098582
20
-4.16483425217311
30
0
41
1
10
36.9659150811679
20
-4.13341557365268
30
0
41
1
10
36.9317937934871
20
-4.07021013955077
30
0
41
1
10
36.9147436525398
20
-4.03845368793878
30
0
41
1
10
36.8890843599974
20
-3.99045412153072
30
0
41
1
10
36.8805113706072
20
-3.97438535648513
30
0
41
1
10
36.8632596681892
20
-3.94202463817524
30
0
41
1
10
36.8545788730568
20
-3.92573011412432
30
0
41
1
10
36.8283755856413
20
-3.87651937880207
30
0
41
1
10
36.8106944463477
20
-3.84327890584183
30
0
41
1
10
36.7927806843435
20
-3.80960327211596
30
0
0
SPLINE
5
13E
100
AcDbEntity
8
1
62
256
6
ByLayer
370
18
48
1
60
0
100
AcDbSpline
70
4
71
3
72
24
73
20
40
0
40
0
40
0
40
0
40
0.125000000000003
40
0.125000000000003
40
0.250000000000006
40
0.250000000000006
40
0.37500000000001
40
0.37500000000001
40
0.437500000000011
40
0.437500000000011
40
0.500000000000013
40
0.500000000000013
40
0.750000000000006
40
0.750000000000006
40
0.812500000000005
40
0.812500000000005
40
0.875000000000003
40
0.875000000000003
40
1
40
1
40
1
40
1
41
1
10
36.7927806843435
20
-3.80960327211599
30
0
41
1
10
36.7698774931183
20
-3.76654813502785
30
0
41
1
10
36.7446114267111
20
-3.72541936219898
30
0
41
1
10
36.6898063374282
20
-3.64683044267093
30
0
41
1
10
36.6602641471495
20
-3.60937210181919
30
0
41
1
10
36.597229430038
20
-3.53809192025318
30
0
41
1
10
36.5637353529758
20
-3.50427125718065
30
0
41
1
10
36.5107276004383
20
-3.4563148531241
30
0
41
1
10
36.4925568824883
20
-3.44076327407319
30
0
41
1
10
36.4556979339899
20
-3.4108914745093
30
0
41
1
10
36.4369766259461
20
-3.39653764000218
30
0
41
1
10
36.3420540938916
20
-3.32759062751228
30
0
41
1
10
36.2619455835054
20
-3.28142136887553
30
0
41
1
10
36.1584646627527
20
-3.2339982993991
30
0
41
1
10
36.1375733099754
20
-3.22502086347762
30
0
41
1
10
36.0956037570406
20
-3.20813514003527
30
0
41
1
10
36.0745669002867
20
-3.20024183024444
30
0
41
1
10
36.0113509099269
20
-3.17815695516543
30
0
41
1
10
35.9690685073469
20
-3.16555545266223
30
0
41
1
10
35.9267552805591
20
-3.1549886827668
30
0
0
SPLINE
5
13F
100
AcDbEntity
8
1
62
256
6
ByLayer
370
18
48
1
60
0
100
AcDbSpline
70
4
71
3
72
93
73
89
40
0
40
0
40
0
40
0
40
0.0156249999999995
40
0.0156249999999995
40
0.0312499999999989
40
0.0312499999999989
40
0.0624999999999979
40
0.0624999999999979
40
0.0937499999999968
40
0.0937499999999968
40
0.124999999999996
40
0.124999999999996
40
0.140624999999996
40
0.140624999999996
40
0.156249999999996
40
0.156249999999996
40
0.187499999999996
40
0.187499999999996
40
0.203124999999996
40
0.203124999999996
40
0.218749999999996
40
0.218749999999996
40
0.249999999999994
40
0.249999999999994
40
0.281249999999993
40
0.281249999999993
40
0.296874999999993
40
0.296874999999993
40
0.312499999999992
40
0.343749999999992
40
0.343749999999992
40
0.374999999999992
40
0.374999999999992
40
0.406249999999992
40
0.406249999999992
40
0.414062499999992
40
0.414062499999992
40
0.421874999999992
40
0.421874999999992
40
0.437499999999992
40
0.437499999999992
40
0.468749999999992
40
0.468749999999992
40
0.499999999999992
40
0.499999999999992
40
0.531249999999992
40
0.531249999999992
40
0.546874999999992
40
0.546874999999992
40
0.562499999999993
40
0.562499999999993
40
0.593749999999992
40
0.593749999999992
40
0.609374999999993
40
0.609374999999993
40
0.617187499999993
40
0.617187499999993
40
0.624999999999992
40
0.656249999999993
40
0.656249999999993
40
0.671874999999994
40
0.671874999999994
40
0.687499999999994
40
0.687499999999994
40
0.718749999999996
40
0.718749999999996
40
0.749999999999998
40
0.749999999999998
40
0.78125
40
0.78125
40
0.812500000000002
40
0.812500000000002
40
0.820312500000003
40
0.820312500000003
40
0.828125000000003
40
0.828125000000003
40
0.843750000000003
40
0.843750000000003
40
0.875000000000002
40
0.875000000000002
40
0.9375
40
0.9375
40
0.9453125
40
0.9453125
40
0.953124999999999
40
0.96875
40
0.96875
40
1
40
1
40
1
40
1
41
1
10
35.9267552805591
20
-3.1549886827668
30
0
41
1
10
35.8607238542344
20
-3.13849882981043
30
0
41
1
10
35.7947924093033
20
-3.1210521124396
30
0
41
1
10
35.6630665349672
20
-3.08431357045615
30
0
41
1
10
35.5972090610504
20
-3.06505828282607
30
0
41
1
10
35.4001004430358
20
-3.0044247650319
30
0
41
1
10
35.2692334063887
20
-2.9602095387234
30
0
41
1
10
35.0079391673937
20
-2.86464780061797
30
0
41
1
10
34.8775684245533
20
-2.8132688454896
30
0
41
1
10
34.6171151501468
20
-2.7035030782769
30
0
41
1
10
34.4870022550243
20
-2.64513559988259
30
0
41
1
10
34.2916041171888
20
-2.5526684639166
30
0
41
1
10
34.2264426155512
20
-2.52101848012239
30
0
41
1
10
34.0959300952605
20
-2.45618065761687
30
0
41
1
10
34.0305282466701
20
-2.42304071601336
30
0
41
1
10
33.8338844915244
20
-2.32148011852192
30
0
41
1
10
33.7024694730745
20
-2.2506676344947
30
0
41
1
10
33.5049037525137
20
-2.1396264477865
30
0
41
1
10
33.4389702713303
20
-2.10181155556435
30
0
41
1
10
33.3068775119739
20
-2.02462296712793
30
0
41
1
10
33.2409410345325
20
-1.98537914480281
30
0
41
1
10
33.0436534533493
20
-1.86599648382853
30
0
41
1
10
32.9127050905187
20
-1.78412302655997
30
0
41
1
10
32.6513872185892
20
-1.61652785114376
30
0
41
1
10
32.5210226175498
20
-1.53079645401095
30
0
41
1
10
32.3250941063162
20
-1.40036210285194
30
0
41
1
10
32.2597001231027
20
-1.35660610225318
30
0
41
1
10
32.1290470649386
20
-1.26816526362876
30
0
41
1
10
31.9332315162201
20
-1.13415500701089
30
0
41
1
10
31.7376563529017
20
-0.99639523101601
30
0
41
1
10
31.4766973081804
20
-0.809860577254824
30
0
41
1
10
31.3461385930692
20
-0.715142119880596
30
0
41
1
10
31.0842674448313
20
-0.523542873682629
30
0
41
1
10
30.9529571096168
20
-0.426658552403069
30
0
41
1
10
30.7879258017339
20
-0.304756196314003
30
0
41
1
10
30.7548868682764
20
-0.280351327142
30
0
41
1
10
30.6888742760502
20
-0.231651016884172
30
0
41
1
10
30.6558736044407
20
-0.207345546866605
30
0
41
1
10
30.5569212293554
20
-0.134514833380791
30
0
41
1
10
30.4910458237295
20
-0.0860375217634441
30
0
41
1
10
30.2938618616358
20
0.0594001282233023
30
0
41
1
10
30.1629299413029
20
0.156273490644509
30
0
41
1
10
29.9017815804409
20
0.349395619504946
30
0
41
1
10
29.7715454260967
20
0.445616675413902
30
0
41
1
10
29.5112524411257
20
0.63670307942661
30
0
41
1
10
29.3812198779863
20
0.731600404465382
30
0
41
1
10
29.1858066635701
20
0.8722624888008
30
0
41
1
10
29.1206055170297
20
0.918865824172201
30
0
41
1
10
28.9899682304322
20
1.01136336802614
30
0
41
1
10
28.924509335011
20
1.05722818389577
30
0
41
1
10
28.7280096099051
20
1.19406098352641
30
0
41
1
10
28.596857421541
20
1.28428036526913
30
0
41
1
10
28.3995210270279
20
1.41758335759016
30
0
41
1
10
28.3336419126979
20
1.46168142630421
30
0
41
1
10
28.2346363897001
20
1.52727318694298
30
0
41
1
10
28.201589843979
20
1.54905331079956
30
0
41
1
10
28.1356168913686
20
1.59229747757226
30
0
41
1
10
27.9708782434232
20
1.69969027695618
30
0
41
1
10
27.8069998844964
20
1.80338130759213
30
0
41
1
10
27.6107996051023
20
1.9238972827203
30
0
41
1
10
27.5454759513698
20
1.96341820856799
30
0
41
1
10
27.4149225539132
20
2.04110349284616
30
0
41
1
10
27.3496718867355
20
2.07924386938026
30
0
41
1
10
27.1537156069286
20
2.1912880324594
30
0
41
1
10
27.0233401609781
20
2.26338402466786
30
0
41
1
10
26.7625315906735
20
2.40177453003093
30
0
41
1
10
26.6322120183483
20
2.46818312655671
30
0
41
1
10
26.3713501061667
20
2.59498596703162
30
0
41
1
10
26.2407956729359
20
2.65536841542766
30
0
41
1
10
25.9789713426792
20
2.76959938109093
30
0
41
1
10
25.8476824812137
20
2.82342771772451
30
0
41
1
10
25.6826045440179
20
2.88618062034178
30
0
41
1
10
25.6495173830799
20
2.89851415490631
30
0
41
1
10
25.5833820406954
20
2.92267649759236
30
0
41
1
10
25.5503414112934
20
2.93450756752412
30
0
41
1
10
25.4513383247348
20
2.96928148262384
30
0
41
1
10
25.3854915026976
20
2.99150237660584
30
0
41
1
10
25.1883596027455
20
3.05526203441411
30
0
41
1
10
25.0574937296252
20
3.09390220647936
30
0
41
1
10
24.6658392265718
20
3.19791500249576
30
0
41
1
10
24.4058523112486
20
3.25129490133384
30
0
41
1
10
24.1125081332293
20
3.29282852608267
30
0
41
1
10
24.0799062496075
20
3.29718726469093
30
0
41
1
10
24.0146271982655
20
3.3053799283141
30
0
41
1
10
23.9165721406218
20
3.3168791577049
30
0
41
1
10
23.8184772071161
20
3.32609120204046
30
0
41
1
10
23.6221420524591
20
3.3414216856969
30
0
41
1
10
23.4910656049758
20
3.34752243506878
30
0
41
1
10
23.3596865578693
20
3.34938676467684
30
0
0
SPLINE
5
140
100
AcDbEntity
8
1
62
256
6
ByLayer
370
18
48
1
60
0
100
AcDbSpline
70
4
71
3
72
26
73
22
40
0
40
0
40
0
40
0
40
0.0690312595046826
40
0.0690312595046826
40
0.163214791861191
40
0.163214791861191
40
0.257398324217698
40
0.257398324217698
40
0.351581856574206
40
0.351581856574206
40
0.445765388930714
40
0.445765388930714
40
0.539948921287222
40
0.539948921287222
40
0.728315986000239
40
0.728315986000239
40
0.822499518356748
40
0.822499518356748
40
0.916683050713258
40
0.916683050713258
40
1
40
1
40
1
40
1
41
1
10
23.3597301869164
20
3.34937259279187
30
0
41
1
10
23.3229489452789
20
3.2865491442025
30
0
41
1
10
23.2841783989699
20
3.22373668228519
30
0
41
1
10
23.1875525178646
20
3.07525275477741
30
0
41
1
10
23.1272946819251
20
2.98886240186278
30
0
41
1
10
23.0015985218408
20
2.82118273329249
30
0
41
1
10
22.9360601072187
20
2.73963008975218
30
0
41
1
10
22.7990091270943
20
2.5816037332628
30
0
41
1
10
22.7271275311501
20
2.50464682369045
30
0
41
1
10
22.5777035801435
20
2.35896888962796
30
0
41
1
10
22.502061346771
20
2.29237425965468
30
0
41
1
10
22.3500479020869
20
2.16407824932162
30
0
41
1
10
22.2732040457353
20
2.10338779339008
30
0
41
1
10
22.0429921923744
20
1.93375927061442
30
0
41
1
10
21.8926878776384
20
1.8387356944975
30
0
41
1
10
21.6723818161782
20
1.72554411684331
30
0
41
1
10
21.6004448935381
20
1.69314822026459
30
0
41
1
10
21.4623947231433
20
1.64013377677466
30
0
41
1
10
21.3958289565113
20
1.61927170276658
30
0
41
1
10
21.2749729270774
20
1.59050280867169
30
0
41
1
10
21.2198655880449
20
1.58137237698378
30
0
41
1
10
21.1672903746341
20
1.57669409798217
30
0
0
SPLINE
5
141
100
AcDbEntity
8
1
62
256
6
ByLayer
370
18
48
1
60
0
100
AcDbSpline
70
4
71
3
72
112
73
108
40
0
40
0
40
0
40
0
40
0.0178157843859186
40
0.0178157843859186
40
0.0356315687718373
40
0.0356315687718373
40
0.0712631375436756
40
0.0712631375436756
40
0.106894706315514
40
0.106894706315514
40
0.124710490701434
40
0.124710490701434
40
0.133618382894393
40
0.133618382894393
40
0.142526275087353
40
0.142526275087353
40
0.160342059473272
40
0.160342059473272
40
0.169249951666232
40
0.169249951666232
40
0.178157843859192
40
0.178157843859192
40
0.213789412631033
40
0.213789412631033
40
0.249420981402874
40
0.249420981402874
40
0.258328873595835
40
0.258328873595835
40
0.267236765788796
40
0.267236765788796
40
0.285052550174718
40
0.285052550174718
40
0.320684118946563
40
0.320684118946563
40
0.356315687718407
40
0.356315687718407
40
0.365223579911368
40
0.365223579911368
40
0.374131472104329
40
0.374131472104329
40
0.38303936429729
40
0.38303936429729
40
0.39194725649025
40
0.39194725649025
40
0.427578825262092
40
0.427578825262092
40
0.463210394033933
40
0.463210394033933
40
0.481026178419854
40
0.481026178419854
40
0.498841962805775
40
0.498841962805775
40
0.507749854998735
40
0.507749854998735
40
0.516657747191695
40
0.516657747191695
40
0.534473531577615
40
0.534473531577615
40
0.552289315963535
40
0.552289315963535
40
0.570105100349455
40
0.570105100349455
40
0.605736669121295
40
0.605736669121295
40
0.623552453507216
40
0.623552453507216
40
0.632460345700177
40
0.632460345700177
40
0.641368237893137
40
0.641368237893137
40
0.676999806664981
40
0.676999806664981
40
0.712631375436824
40
0.712631375436824
40
0.730447159822745
40
0.730447159822745
40
0.748262944208667
40
0.748262944208667
40
0.757170836401627
40
0.757170836401627
40
0.766078728594588
40
0.766078728594588
40
0.783894512980509
40
0.783894512980509
40
0.819526081752351
40
0.819526081752351
40
0.855157650524194
40
0.855157650524194
40
0.872973434910115
40
0.872973434910115
40
0.881881327103076
40
0.881881327103076
40
0.890789219296036
40
0.890789219296036
40
0.926420788067878
40
0.926420788067878
40
0.944236572453798
40
0.944236572453798
40
0.953144464646759
40
0.953144464646759
40
0.962052356839719
40
0.962052356839719
40
0.979868141225639
40
0.979868141225639
40
0.997683925611558
40
0.997683925611558
40
1
40
1
40
1
40
1
41
1
10
20.5660199776834
20
1.98502259403895
30
0
41
1
10
20.6461898861147
20
1.93705753152136
30
0
41
1
10
20.7259980887845
20
1.88803625337738
30
0
41
1
10
20.8858301308974
20
1.78898187466351
30
0
41
1
10
20.9657138438694
20
1.73878962919366
30
0
41
1
10
21.2053680255931
20
1.5863764807394
30
0
41
1
10
21.36520956474
20
1.4824107608743
30
0
41
1
10
21.6846226078891
20
1.26935702712251
30
0
41
1
10
21.8442021890266
20
1.16027603996142
30
0
41
1
10
22.0833114538805
20
0.992657907202783
30
0
41
1
10
22.1629558706973
20
0.936097332984929
30
0
41
1
10
22.2823714751567
20
0.850251073627391
30
0
41
1
10
22.3221670432207
20
0.821466348271827
30
0
41
1
10
22.4018196364755
20
0.763664022179427
30
0
41
1
10
22.4417250592535
20
0.734712075506053
30
0
41
1
10
22.5616974863554
20
0.647733606631135
30
0
41
1
10
22.6418986931437
20
0.589416630486141
30
0
41
1
10
22.762746015078
20
0.501749003518682
30
0
41
1
10
22.8031077747662
20
0.472478603040997
30
0
41
1
10
22.8839493823551
20
0.41378474712846
30
0
41
1
10
22.9244591491064
20
0.384342831412312
30
0
41
1
10
23.1266580971725
20
0.237239635879973
30
0
41
1
10
23.2877119545296
20
0.119631187045172
30
0
41
1
10
23.6082077853879
20
-0.11575636492222
30
0
41
1
10
23.7676016188879
20
-0.233599077453903
30
0
41
1
10
23.9661704516296
20
-0.380526565690559
30
0
41
1
10
24.0058323697664
20
-0.409918128467808
30
0
41
1
10
24.0851217504565
20
-0.468617838829715
30
0
41
1
10
24.1248221306785
20
-0.497826438128754
30
0
41
1
10
24.2441162836446
20
-0.584996714572412
30
0
41
1
10
24.323730134145
20
-0.642738222067891
30
0
41
1
10
24.5628411486735
20
-0.814832065524314
30
0
41
1
10
24.722608545543
20
-0.928053920886356
30
0
41
1
10
25.0431035082244
20
-1.15116077960207
30
0
41
1
10
25.2037718835163
20
-1.26112629361251
30
0
41
1
10
25.4050085146247
20
-1.39671154925844
30
0
41
1
10
25.4452808541271
20
-1.42372832764428
30
0
41
1
10
25.5258831909954
20
-1.47754951233267
30
0
41
1
10
25.5661727587705
20
-1.50432183499905
30
0
41
1
10
25.6465232225321
20
-1.55749134945123
30
0
41
1
10
25.6866136263237
20
-1.58390379972309
30
0
41
1
10
25.7668139760037
20
-1.63615224161191
30
0
41
1
10
25.8069069034388
20
-1.6620101924054
30
0
41
1
10
26.0073322469187
20
-1.78999425414202
30
0
41
1
10
26.1675545494448
20
-1.8882128663129
30
0
41
1
10
26.4873460453919
20
-2.07709239214199
30
0
41
1
10
26.6469760510786
20
-2.16767853477427
30
0
41
1
10
26.885975857915
20
-2.29780752057008
30
0
41
1
10
26.9655424961769
20
-2.34024748938017
30
0
41
1
10
27.1247016063243
20
-2.42300932555241
30
0
41
1
10
27.2043278642776
20
-2.46330267605987
30
0
41
1
10
27.3236221879149
20
-2.52228927770042
30
0
41
1
10
27.3633412640943
20
-2.54172690847679
30
0
41
1
10
27.4430219454497
20
-2.57985078254882
30
0
41
1
10
27.4829529099158
20
-2.59856613907766
30
0
41
1
10
27.6029030451201
20
-2.65378048148369
30
0
41
1
10
27.6830542781419
20
-2.68936874358775
30
0
41
1
10
27.8437481948029
20
-2.75807844788383
30
0
41
1
10
27.9242931806067
20
-2.79119810413351
30
0
41
1
10
28.0857944697279
20
-2.85493467606324
30
0
41
1
10
28.1668222026298
20
-2.88557373397134
30
0
41
1
10
28.4088436912951
20
-2.97310119778388
30
0
41
1
10
28.5693201054287
20
-3.02580769945658
30
0
41
1
10
28.8088760768271
20
-3.09636932213175
30
0
41
1
10
28.888525900466
20
-3.11847608694313
30
0
41
1
10
29.0077183425455
20
-3.14948704997593
30
0
41
1
10
29.0474049875834
20
-3.15946314945444
30
0
41
1
10
29.1268915141513
20
-3.17860630315889
30
0
41
1
10
29.166673725755
20
-3.18778258893883
30
0
41
1
10
29.3657182479105
20
-3.23173973132788
30
0
41
1
10
29.5253545045267
20
-3.26078356018826
30
0
41
1
10
29.8449166192953
20
-3.30699998901912
30
0
41
1
10
30.0049048837977
20
-3.32414686500851
30
0
41
1
10
30.2451181447444
20
-3.34073459759131
30
0
41
1
10
30.3252172208178
20
-3.34473880045098
30
0
41
1
10
30.4855177798133
20
-3.34961478681149
30
0
41
1
10
30.565687965462
20
-3.35048546562544
30
0
41
1
10
30.6861874759338
20
-3.34937153949164
30
0
41
1
10
30.7264466820613
20
-3.3485957686153
30
0
41
1
10
30.8069571652525
20
-3.34625575761615
30
0
41
1
10
30.8472206716247
20
-3.34469230389479
30
0
41
1
10
30.9679634731964
20
-3.33883968937664
30
0
41
1
10
31.0483793802047
20
-3.33338661250681
30
0
41
1
10
31.2893747875236
20
-3.31247968212858
30
0
41
1
10
31.4497202247513
20
-3.29250182573145
30
0
41
1
10
31.7693959523277
20
-3.24055630561219
30
0
41
1
10
31.9287456905483
20
-3.2085828503474
30
0
41
1
10
32.1671179485397
20
-3.15146351869203
30
0
41
1
10
32.2464243672258
20
-3.13087307659797
30
0
41
1
10
32.3653489412423
20
-3.09771039837824
30
0
41
1
10
32.4050103039373
20
-3.08628951462197
30
0
41
1
10
32.4845269338655
20
-3.06280375459897
30
0
41
1
10
32.5243700938454
20
-3.05073337096965
30
0
41
1
10
32.7239046196987
20
-2.98870686948999
30
0
41
1
10
32.8844865787614
20
-2.93371707625025
30
0
41
1
10
33.126255722429
20
-2.84282142204213
30
0
41
1
10
33.2070114975797
20
-2.81112594443977
30
0
41
1
10
33.328390371676
20
-2.76144393441874
30
0
41
1
10
33.3688415126802
20
-2.74454607459708
30
0
41
1
10
33.4495570631734
20
-2.71014308082616
30
0
41
1
10
33.4898467280588
20
-2.69262764796247
30
0
41
1
10
33.61050426038
20
-2.6391340539347
30
0
41
1
10
33.6906472674964
20
-2.60219685552261
30
0
41
1
10
33.8504388854767
20
-2.52584875072017
30
0
41
1
10
33.9300632594094
20
-2.48641418688538
30
0
41
1
10
34.0199198881407
20
-2.44060116753627
30
0
41
1
10
34.0302570486517
20
-2.43531316769349
30
0
41
1
10
34.0405949241943
20
-2.4300088965733
30
0
0
SPLINE
5
142
100
AcDbEntity
8
1
62
256
6
ByLayer
370
18
48
1
60
0
100
AcDbSpline
70
4
71
3
72
22
73
18
40
0
40
0
40
0
40
0
40
0.156074928589912
40
0.156074928589912
40
0.367056196442434
40
0.367056196442434
40
0.472546830368695
40
0.472546830368695
40
0.578037464294956
40
0.578037464294956
40
0.683528098221217
40
0.683528098221217
40
0.789018732147478
40
0.789018732147478
40
0.894509366073739
40
0.894509366073739
40
1
40
1
40
1
40
1
41
1
10
45.0419836210008
20
4.12118020691952
30
0
41
1
10
45.0552378550844
20
4.1179567760733
30
0
41
1
10
45.0687883440068
20
4.11577222672861
30
0
41
1
10
45.100651190508
20
4.11323350651057
30
0
41
1
10
45.1190861533848
20
4.11372866323376
30
0
41
1
10
45.1468770327154
20
4.11773926319771
30
0
41
1
10
45.1561638825386
20
4.11962591740351
30
0
41
1
10
45.1747798494219
20
4.12464692046066
30
0
41
1
10
45.1839736457295
20
4.12774616257209
30
0
41
1
10
45.2020630702399
20
4.135215827835
30
0
41
1
10
45.2109653234603
20
4.13958646842991
30
0
41
1
10
45.2284334304468
20
4.1497958841199
30
0
41
1
10
45.2370603722618
20
4.15568673063316
30
0
41
1
10
45.2534868286357
20
4.16893581825187
30
0
41
1
10
45.2613059250601
20
4.17628847291863
30
0
41
1
10
45.2760159370792
20
4.19270950064586
30
0
41
1
10
45.2829499112416
20
4.20185048171942
30
0
41
1
10
45.2891390011624
20
4.21183158711477
30
0
0
SPLINE
5
143
100
AcDbEntity
8
1
62
256
6
ByLayer
370
18
48
1
60
0
100
AcDbSpline
70
4
71
3
72
12
73
8
40
0
40
0
40
0
40
0
40
0.5
40
0.5
40
0.75
40
0.75
40
1
40
1
40
1
40
1
41
1
10
45.2891390011624
20
4.2118315871148
30
0
41
1
10
45.3757918609449
20
4.35157609517111
30
0
41
1
10
45.4614987484175
20
4.48782625500883
30
0
41
1
10
45.5890247596518
20
4.68680427233852
30
0
41
1
10
45.6312896873491
20
4.75211575167987
30
0
41
1
10
45.7154087139837
20
4.88083231778214
30
0
41
1
10
45.7572622240919
20
4.94422151029025
30
0
41
1
10
45.7989394838656
20
5.00663331412761
30
0
0
SPLINE
5
144
100
AcDbEntity
8
1
62
256
6
ByLayer
370
18
48
1
60
0
100
AcDbSpline
70
4
71
3
72
10
73
6
40
0
40
0
40
0
40
0
40
0.5
40
0.5
40
1
40
1
40
1
40
1
41
1
10
45.9499787572121
20
4.97598826065229
30
0
41
1
10
45.9248322108875
20
4.98154617230711
30
0
41
1
10
45.899670241207
20
4.98688067580815
30
0
41
1
10
45.8493131194969
20
4.99709913007635
30
0
41
1
10
45.8241029514708
20
5.00198564299239
30
0
41
1
10
45.7989394838656
20
5.00663331412761
30
0
0
SPLINE
5
145
100
AcDbEntity
8
1
62
256
6
ByLayer
370
18
48
1
60
0
100
AcDbSpline
70
4
71
3
72
14
73
10
40
0
40
0
40
0
40
0
40
0.25
40
0.25
40
0.5
40
0.5
40
0.75
40
0.75
40
1
40
1
40
1
40
1
41
1
10
45.9499787572121
20
4.97598826065229
30
0
41
1
10
45.9929527526848
20
4.89614781324693
30
0
41
1
10
46.0361173575116
20
4.81538609377702
30
0
41
1
10
46.1228999215141
20
4.65203815317668
30
0
41
1
10
46.1665394926656
20
4.56940917427366
30
0
41
1
10
46.2542193236226
20
4.40259176299926
30
0
41
1
10
46.2982746060673
20
4.31837637317466
30
0
41
1
10
46.386809522023
20
4.14853135048796
30
0
41
1
10
46.4312677694937
20
4.06294311094672
30
0
41
1
10
46.4759595570019
20
3.97670281764172
30
0
0
SPLINE
5
146
100
AcDbEntity
8
1
62
256
6
ByLayer
370
18
48
1
60
0
100
AcDbSpline
70
4
71
3
72
30
73
26
40
0
40
0
40
0
40
0
40
0.125000000000002
40
0.125000000000002
40
0.187500000000001
40
0.187500000000001
40
0.25
40
0.25
40
0.375
40
0.375
40
0.499999999999999
40
0.499999999999999
40
0.624999999999999
40
0.624999999999999
40
0.687499999999999
40
0.687499999999999
40
0.749999999999999
40
0.749999999999999
40
0.812499999999999
40
0.812499999999999
40
0.875
40
0.875
40
0.9375
40
0.9375
40
1
40
1
40
1
40
1
41
1
10
46.4759595570019
20
3.97670281764172
30
0
41
1
10
46.4871217451658
20
3.95516350505528
30
0
41
1
10
46.5000810355413
20
3.93584256850716
30
0
41
1
10
46.5214884433979
20
3.90926544995932
30
0
41
1
10
46.5289717225316
20
3.90080836667423
30
0
41
1
10
46.5445238352623
20
3.88470769998372
30
0
41
1
10
46.5524948699843
20
3.87716294752758
30
0
41
1
10
46.5769282232304
20
3.85588909416737
30
0
41
1
10
46.5939051265541
20
3.84350347449953
30
0
41
1
10
46.6290880556144
20
3.82205934553184
30
0
41
1
10
46.647412362739
20
3.812984536274
30
0
41
1
10
46.6840495170469
20
3.79885896696897
30
0
41
1
10
46.7024880266403
20
3.79370500008852
30
0
41
1
10
46.7302819756193
20
3.78913994044348
30
0
41
1
10
46.7395694480967
20
3.7881508327618
30
0
41
1
10
46.7581855731478
20
3.78737681083544
30
0
41
1
10
46.7673712486191
20
3.78759871328657
30
0
41
1
10
46.7854509186961
20
3.78936495780076
30
0
41
1
10
46.7943477784847
20
3.79090766845888
30
0
41
1
10
46.8118040231574
20
3.79551234767953
30
0
41
1
10
46.8204241558474
20
3.79860617414346
30
0
41
1
10
46.8368346261276
20
3.80645457135032
30
0
41
1
10
46.8446456164365
20
3.81119828686917
30
0
41
1
10
46.8593397896444
20
3.82261571398357
30
0
41
1
10
46.8662659772317
20
3.82934621024773
30
0
41
1
10
46.8724493630368
20
3.83711202853729
30
0
0
SPLINE
5
147
100
AcDbEntity
8
1
62
256
6
ByLayer
370
18
48
1
60
0
100
AcDbSpline
70
4
71
3
72
10
73
6
40
0
40
0
40
0
40
0
40
0.5
40
0.5
40
1
40
1
40
1
40
1
41
1
10
46.8724493630367
20
3.83711202853746
30
0
41
1
10
46.9591301911794
20
3.94597593930848
30
0
41
1
10
47.0448566078396
20
4.04892851266749
30
0
41
1
10
47.2149480212069
20
4.2430308539146
30
0
41
1
10
47.2989816467347
20
4.33378114335201
30
0
41
1
10
47.3823056849562
20
4.4186700052451
30
0
0
SPLINE
5
148
100
AcDbEntity
8
1
62
256
6
ByLayer
370
18
48
1
60
0
100
AcDbSpline
70
4
71
3
72
8
73
4
40
0
40
0
40
0
40
0
40
1
40
1
40
1
40
1
41
1
10
47.3844545481113
20
4.41747912679398
30
0
41
1
10
47.383738240404
20
4.41787625552962
30
0
41
1
10
47.3830219527566
20
4.4182732150432
30
0
41
1
10
47.3823056849562
20
4.4186700052451
30
0
0
SPLINE
5
149
100
AcDbEntity
8
1
62
256
6
ByLayer
370
18
48
1
60
0
100
AcDbSpline
70
4
71
3
72
8
73
4
40
0
40
0
40
0
40
0
40
1
40
1
40
1
40
1
41
1
10
47.3844545481112
20
4.41747912679386
30
0
41
1
10
47.4422576287307
20
4.3725496861793
30
0
41
1
10
47.5003253230658
20
4.32662559922659
30
0
41
1
10
47.55867478368
20
4.27970735976075
30
0
0
SPLINE
5
14A
100
AcDbEntity
8
1
62
256
6
ByLayer
370
18
48
1
60
0
100
AcDbSpline
70
4
71
3
72
12
73
8
40
0
40
0
40
0
40
0
40
0.250000000000004
40
0.250000000000004
40
0.500000000000008
40
0.500000000000008
40
1
40
1
40
1
40
1
41
1
10
47.5586747836803
20
4.27970735976095
30
0
41
1
10
47.5996013783971
20
4.19400201844616
30
0
41
1
10
47.6407065073424
20
4.10815538579419
30
0
41
1
10
47.7233345968159
20
3.93620700408809
30
0
41
1
10
47.7648764491645
20
3.85006461680558
30
0
41
1
10
47.8900501452071
20
3.59166353526095
30
0
41
1
10
47.9742607816751
20
3.41937275338012
30
0
41
1
10
48.0592527530853
20
3.24774793915469
30
0
0
SPLINE
5
14B
100
AcDbEntity
8
1
62
256
6
ByLayer
370
18
48
1
60
0
100
AcDbSpline
70
4
71
3
72
30
73
26
40
0
40
0
40
0
40
0
40
0.124999999999999
40
0.124999999999999
40
0.187499999999999
40
0.187499999999999
40
0.249999999999999
40
0.249999999999999
40
0.374999999999999
40
0.374999999999999
40
0.499999999999999
40
0.499999999999999
40
0.624999999999998
40
0.624999999999998
40
0.687499999999999
40
0.687499999999999
40
0.749999999999999
40
0.749999999999999
40
0.812499999999999
40
0.812499999999999
40
0.874999999999999
40
0.874999999999999
40
0.9375
40
0.9375
40
1
40
1
40
1
40
1
41
1
10
48.0592527530864
20
3.24774793915321
30
0
41
1
10
48.0704247761414
20
3.22518820381052
30
0
41
1
10
48.0833964944822
20
3.20407381661582
30
0
41
1
10
48.1048232565132
20
3.17397748371621
30
0
41
1
10
48.1123130106994
20
3.16420305530292
30
0
41
1
10
48.1278787850416
20
3.14520860791083
30
0
41
1
10
48.1358561930398
20
3.13610675623514
30
0
41
1
10
48.1603071641137
20
3.10986252882876
30
0
41
1
10
48.1772938444623
20
3.09376863805659
30
0
41
1
10
48.2124916174439
20
3.06415508593886
30
0
41
1
10
48.2308193752837
20
3.05058631517792
30
0
41
1
10
48.2674571754961
20
3.02696503915081
30
0
41
1
10
48.2858938783671
20
3.01678304582455
30
0
41
1
10
48.3136821393184
20
3.00418546049249
30
0
41
1
10
48.3229679773004
20
3.00043602149393
30
0
41
1
10
48.3415763998565
20
2.99395119796128
30
0
41
1
10
48.3507528905889
20
2.99126709422237
30
0
41
1
10
48.3688188477878
20
2.98710709864179
30
0
41
1
10
48.3777086275517
20
2.98562980419959
30
0
41
1
10
48.3951502262624
20
2.98406010003546
30
0
41
1
10
48.4037624874397
20
2.98397554660937
30
0
41
1
10
48.420156912266
20
2.98545990165357
30
0
41
1
10
48.427960245797
20
2.98701324272423
30
0
41
1
10
48.4426402819212
20
2.99202995147499
30
0
41
1
10
48.4495600647676
20
2.99552737950052
30
0
41
1
10
48.4557395744005
20
3.00012946433802
30
0
0
SPLINE
5
14C
100
AcDbEntity
8
1
62
256
6
ByLayer
370
18
48
1
60
0
100
AcDbSpline
70
4
71
3
72
10
73
6
40
0
40
0
40
0
40
0
40
0.5
40
0.5
40
1
40
1
40
1
40
1
41
1
10
48.4557395744005
20
3.00012946433824
30
0
41
1
10
48.5088038827598
20
3.0396482066694
30
0
41
1
10
48.5615126303233
20
3.07632193029863
30
0
41
1
10
48.666349671097
20
3.14405553323218
30
0
41
1
10
48.7185230174843
20
3.17513646406951
30
0
41
1
10
48.7703206915614
20
3.20332769327879
30
0
0
SPLINE
5
14D
100
AcDbEntity
8
1
62
256
6
ByLayer
370
18
48
1
60
0
100
AcDbSpline
70
4
71
3
72
10
73
6
40
0
40
0
40
0
40
0
40
0.5
40
0.5
40
1
40
1
40
1
40
1
41
1
10
48.7703206915614
20
3.20332769327877
30
0
41
1
10
48.8759970728494
20
3.10140877897936
30
0
41
1
10
48.9817581407816
20
2.99747166983906
30
0
41
1
10
49.1950300926493
20
2.7866492237988
30
0
41
1
10
49.3023614515673
20
2.67967405171427
30
0
41
1
10
49.4104990677762
20
2.57121391031862
30
0
0
SPLINE
5
14E
100
AcDbEntity
8
1
62
256
6
ByLayer
370
18
48
1
60
0
100
AcDbSpline
70
4
71
3
72
10
73
6
40
0
40
0
40
0
40
0
40
0.5
40
0.5
40
1
40
1
40
1
40
1
41
1
10
49.4104990677756
20
2.57121391031873
30
0
41
1
10
49.4488527562169
20
2.49582135178898
30
0
41
1
10
49.487380819704
20
2.42100741188037
30
0
41
1
10
49.5647483145027
20
2.27275047554301
30
0
41
1
10
49.6035826034835
20
2.19931654883348
30
0
41
1
10
49.6425956276657
20
2.12659517832836
30
0
0
SPLINE
5
14F
100
AcDbEntity
8
1
62
256
6
ByLayer
370
18
48
1
60
0
100
AcDbSpline
70
4
71
3
72
28
73
24
40
0
40
0
40
0
40
0
40
0.124999999999967
40
0.124999999999967
40
0.187499999999969
40
0.187499999999969
40
0.249999999999972
40
0.249999999999972
40
0.374999999999977
40
0.374999999999977
40
0.499999999999982
40
0.499999999999982
40
0.624999999999986
40
0.624999999999986
40
0.749999999999991
40
0.749999999999991
40
0.812499999999993
40
0.812499999999993
40
0.874999999999995
40
0.874999999999995
40
0.937499999999998
40
0.937499999999998
40
1
40
1
40
1
40
1
41
1
10
49.6425956276669
20
2.12659517832745
30
0
41
1
10
49.653772797473
20
2.10576062054372
30
0
41
1
10
49.6667506950365
20
2.0854155549346
30
0
41
1
10
49.6881867727328
20
2.0554476583828
30
0
41
1
10
49.69567946112
20
2.04553964486871
30
0
41
1
10
49.7112520505915
20
2.02594969802317
30
0
41
1
10
49.7192325767268
20
2.01639112963218
30
0
41
1
10
49.7436921134416
20
1.98834744743485
30
0
41
1
10
49.7606834675258
20
1.97048718336143
30
0
41
1
10
49.7958888706821
20
1.93627487370279
30
0
41
1
10
49.814218730479
20
1.91984665996301
30
0
41
1
10
49.8508578319404
20
1.8895750087805
30
0
41
1
10
49.8692943544102
20
1.87559131938079
30
0
41
1
10
49.9063429967659
20
1.85010789724967
30
0
41
1
10
49.9251135879129
20
1.83853316684687
30
0
41
1
10
49.9522017750186
20
1.82416166081438
30
0
41
1
10
49.9610877414917
20
1.81984477022203
30
0
41
1
10
49.9785211158616
20
1.81229558756621
30
0
41
1
10
49.9871288039371
20
1.80904635560125
30
0
41
1
10
50.0035133550284
20
1.80399611471807
30
0
41
1
10
50.0113116761812
20
1.80217635070164
30
0
41
1
10
50.0259817593687
20
1.80019666271747
30
0
41
1
10
50.0328966313241
20
1.80004403556981
30
0
41
1
10
50.0390728623481
20
1.8009298808509
30
0
0
SPLINE
5
150
100
AcDbEntity
8
1
62
256
6
ByLayer
370
18
48
1
60
0
100
AcDbSpline
70
4
71
3
72
8
73
4
40
0
40
0
40
0
40
0
40
1
40
1
40
1
40
1
41
1
10
50.0390728623481
20
1.80092988085119
30
0
41
1
10
50.0790354819327
20
1.80666164474437
30
0
41
1
10
50.1187968671737
20
1.81061908420173
30
0
41
1
10
50.1583847405274
20
1.81282732358375
30
0
0
SPLINE
5
151
100
AcDbEntity
8
1
62
256
6
ByLayer
370
18
48
1
60
0
100
AcDbSpline
70
4
71
3
72
12
73
8
40
0
40
0
40
0
40
0
40
0.25
40
0.25
40
0.5
40
0.5
40
1
40
1
40
1
40
1
41
1
10
50.1583847405275
20
1.81282732358372
30
0
41
1
10
50.25176271837
20
1.71736897635196
30
0
41
1
10
50.3451072331905
20
1.62169071302108
30
0
41
1
10
50.5320355026967
20
1.43019974072206
30
0
41
1
10
50.625485014523
20
1.33425805677962
30
0
41
1
10
50.9075330500239
20
1.04753773297443
30
0
41
1
10
51.0974168483406
20
0.85747087296798
30
0
41
1
10
51.2895671811099
20
0.668917768255398
30
0
0
SPLINE
5
152
100
AcDbEntity
8
1
62
256
6
ByLayer
370
18
48
1
60
0
100
AcDbSpline
70
4
71
3
72
16
73
12
40
0
40
0
40
0
40
0
40
0.249999999999968
40
0.249999999999968
40
0.499999999999936
40
0.499999999999936
40
0.62499999999992
40
0.62499999999992
40
0.749999999999904
40
0.749999999999904
40
1
40
1
40
1
40
1
41
1
10
51.2895671811099
20
0.668917768255398
30
0
41
1
10
51.3021648448592
20
0.654615984187558
30
0
41
1
10
51.3152517540522
20
0.64043531609957
30
0
41
1
10
51.3422584276475
20
0.612267053735593
30
0
41
1
10
51.3561796989475
20
0.598279878141
30
0
41
1
10
51.3776513266497
20
0.577417779945762
30
0
41
1
10
51.3849317300081
20
0.570460918816849
30
0
41
1
10
51.3995659654238
20
0.556701234738711
30
0
41
1
10
51.406904435227
20
0.549911986030793
30
0
41
1
10
51.4289761983223
20
0.529806219796455
30
0
41
1
10
51.443765444862
20
0.516749284474059
30
0
41
1
10
51.4586137037641
20
0.504040517346738
30
0
0
SPLINE
5
153
100
AcDbEntity
8
1
62
256
6
ByLayer
370
18
48
1
60
0
100
AcDbSpline
70
4
71
3
72
8
73
4
40
0
40
0
40
0
40
0
40
1
40
1
40
1
40
1
41
1
10
51.4586137037643
20
0.504040517347022
30
0
41
1
10
51.505569519097
20
0.458524790060068
30
0
41
1
10
51.5526823964212
20
0.413121017578845
30
0
41
1
10
51.5999999284123
20
0.367875614084795
30
0
0
SPLINE
5
154
100
AcDbEntity
8
1
62
256
6
ByLayer
370
18
48
1
60
0
100
AcDbSpline
70
4
71
3
72
12
73
8
40
0
40
0
40
0
40
0
40
0.250000000000009
40
0.250000000000009
40
0.500000000000019
40
0.500000000000019
40
1
40
1
40
1
40
1
41
1
10
51.5999999284123
20
0.367875614084795
30
0
41
1
10
51.6319555206331
20
0.33106644415119
30
0
41
1
10
51.664212420297
20
0.295230724064481
30
0
41
1
10
51.7294414108616
20
0.225633215590818
30
0
41
1
10
51.7624236465899
20
0.191835402956713
30
0
41
1
10
51.8623979661108
20
0.0937898759177358
30
0
41
1
10
51.9304339771803
20
0.0328884559864377
30
0
41
1
10
51.9999999999999
20
-0.0227566638147039
30
0
0
SPLINE
5
155
100
AcDbEntity
8
1
62
256
6
ByLayer
370
18
48
1
60
0
100
AcDbSpline
70
4
71
3
72
57
73
53
40
0
40
0
40
0
40
0
40
0.0312499999999992
40
0.0312499999999992
40
0.046874999999999
40
0.046874999999999
40
0.0624999999999987
40
0.0624999999999987
40
0.124999999999998
40
0.124999999999998
40
0.187499999999997
40
0.187499999999997
40
0.203124999999996
40
0.203124999999996
40
0.218749999999996
40
0.218749999999996
40
0.226562499999996
40
0.226562499999996
40
0.234374999999996
40
0.234374999999996
40
0.249999999999996
40
0.249999999999996
40
0.374999999999997
40
0.374999999999997
40
0.499999999999998
40
0.499999999999998
40
0.562499999999998
40
0.562499999999998
40
0.593749999999999
40
0.593749999999999
40
0.624999999999999
40
0.624999999999999
40
0.75
40
0.75
40
0.765625
40
0.765625
40
0.78125
40
0.78125
40
0.8125
40
0.84375
40
0.84375
40
0.859375
40
0.859375
40
0.875
40
0.875
40
0.9375
40
0.9375
40
0.96875
40
0.96875
40
0.984375
40
0.984375
40
1
40
1
40
1
40
1
41
1
10
52
20
-0.0227566638147039
30
0
41
1
10
52
20
-0.0218122868773492
30
0
41
1
10
52
20
-0.018547441865735
30
0
41
1
10
52
20
-0.0101060458364088
30
0
41
1
10
52
20
-0.0066999874325404
30
0
41
1
10
52
20
0.0013270534471701
30
0
41
1
10
52
20
0.0059609314714635
30
0
41
1
10
52
20
0.0321247860946983
30
0
41
1
10
52
20
0.0621523880745087
30
0
41
1
10
52
20
0.139579990441177
30
0
41
1
10
52
20
0.186964090182102
30
0
41
1
10
52
20
0.257344347879325
30
0
41
1
10
52
20
0.271987385919516
30
0
41
1
10
52
20
0.302426277718865
30
0
41
1
10
52
20
0.318172095637465
30
0
41
1
10
52
20
0.342403950721433
30
0
41
1
10
52
20
0.350598523586655
30
0
41
1
10
52
20
0.367054936555661
30
0
41
1
10
52
20
0.375303975223972
30
0
41
1
10
52
20
0.400135107428099
30
0
41
1
10
52
20
0.416821689133968
30
0
41
1
10
52
20
0.568147967287246
30
0
41
1
10
52
20
0.710661013600202
30
0
41
1
10
52
20
1.01148031083463
30
0
41
1
10
52
20
1.16976382339959
30
0
41
1
10
52
20
1.41912143617921
30
0
41
1
10
52
20
1.50422858514565
30
0
41
1
10
52
20
1.63491678469134
30
0
41
1
10
52
20
1.67900713584049
30
0
41
1
10
52.0000000000001
20
1.76810865552036
30
0
41
1
10
52
20
1.81305842204335
30
0
41
1
10
52
20
2.03978921854863
30
0
41
1
10
52
20
2.22748982571821
30
0
41
1
10
52
20
2.44584651792277
30
0
41
1
10
52
20
2.47024214613074
30
0
41
1
10
52
20
2.51964230537365
30
0
41
1
10
52
20
2.54460913158169
30
0
41
1
10
52
20
2.62024540840341
30
0
41
1
10
51.9999999999999
20
2.72306931848942
30
0
41
1
10
52.0000000000001
20
2.82977448599075
30
0
41
1
10
52
20
2.91130035112602
30
0
41
1
10
52
20
2.93872555007314
30
0
41
1
10
52
20
2.99407749678946
30
0
41
1
10
52
20
3.022048784877
30
0
41
1
10
52
20
3.16268306798327
30
0
41
1
10
52
20
3.2757525684496
30
0
41
1
10
52
20
3.44616913387091
30
0
41
1
10
52
20
3.50310975364133
30
0
41
1
10
52
20
3.58872844197046
30
0
41
1
10
52
20
3.61730284218416
30
0
41
1
10
52
20
3.67452276913986
30
0
41
1
10
52
20
3.70312995359475
30
0
41
1
10
52
20
3.73145919136243
30
0
0
SPLINE
5
156
100
AcDbEntity
8
1
62
256
6
ByLayer
370
18
48
1
60
0
100
AcDbSpline
70
4
71
3
72
12
73
8
40
0
40
0
40
0
40
0
40
0.49999999999998
40
0.49999999999998
40
0.74999999999999
40
0.74999999999999
40
1
40
1
40
1
40
1
41
1
10
52
20
3.73145919136269
30
0
41
1
10
51.9343304199897
20
3.79937903733946
30
0
41
1
10
51.8681436125932
20
3.86688829935179
30
0
41
1
10
51.7681219146684
20
3.96772651962397
30
0
41
1
10
51.7346626685687
20
4.0012634599905
30
0
41
1
10
51.6674677596046
20
4.06826418536969
30
0
41
1
10
51.6336719499053
20
4.10179468395563
30
0
41
1
10
51.6000000656675
20
4.13502675788604
30
0
0
SPLINE
5
157
100
AcDbEntity
8
1
62
256
6
ByLayer
370
18
48
1
60
0
100
AcDbSpline
70
4
71
3
72
8
73
4
40
0
40
0
40
0
40
0
40
1
40
1
40
1
40
1
41
1
10
51.6000000656675
20
4.13502675788604
30
0
41
1
10
51.4810841605918
20
4.1629938452073
30
0
41
1
10
51.3633390798751
20
4.18694455862678
30
0
41
1
10
51.2465098702456
20
4.20691092367628
30
0
0
SPLINE
5
158
100
AcDbEntity
8
1
62
256
6
ByLayer
370
18
48
1
60
0
100
AcDbSpline
70
4
71
3
72
30
73
26
40
0
40
0
40
0
40
0
40
0.124999999999979
40
0.124999999999979
40
0.187499999999989
40
0.187499999999989
40
0.249999999999998
40
0.249999999999998
40
0.374999999999972
40
0.374999999999972
40
0.499999999999945
40
0.499999999999945
40
0.624999999999919
40
0.624999999999919
40
0.687499999999932
40
0.687499999999932
40
0.749999999999946
40
0.749999999999946
40
0.812499999999959
40
0.812499999999959
40
0.874999999999973
40
0.874999999999973
40
0.937499999999986
40
0.937499999999986
40
1
40
1
40
1
40
1
41
1
10
51.2465098702456
20
4.20691092367619
30
0
41
1
10
51.2352665183377
20
4.18958161581139
30
0
41
1
10
51.2224623392462
20
4.17445163203101
30
0
41
1
10
51.2014329160456
20
4.15429891290825
30
0
41
1
10
51.194078092193
20
4.14798970661269
30
0
41
1
10
51.1789898308202
20
4.1363503899567
30
0
41
1
10
51.1712564756855
20
4.13101249255604
30
0
41
1
10
51.1475375481797
20
4.11633010593442
30
0
41
1
10
51.1310385802493
20
4.10830054012845
30
0
41
1
10
51.0967547831555
20
4.09563895132047
30
0
41
1
10
51.0788580150295
20
4.09101754940625
30
0
41
1
10
51.042973053456
20
4.08570308947645
30
0
41
1
10
51.0248608743762
20
4.08493653612732
30
0
41
1
10
50.9974613473407
20
4.08702151935748
30
0
41
1
10
50.9882892425433
20
4.08826073306244
30
0
41
1
10
50.9698661059374
20
4.09198835227048
30
0
41
1
10
50.9606424621978
20
4.09447987752512
30
0
41
1
10
50.9425641790079
20
4.10076800683416
30
0
41
1
10
50.9336593475287
20
4.10457168143847
30
0
41
1
10
50.9161706219004
20
4.11371069267486
30
0
41
1
10
50.9075216004185
20
4.11909692714315
30
0
41
1
10
50.8910402164144
20
4.13144980995577
30
0
41
1
10
50.8831954904611
20
4.13840361341798
30
0
41
1
10
50.8684421294145
20
4.15414806964191
30
0
41
1
10
50.861497618914
20
4.1630071422187
30
0
41
1
10
50.8553315043111
20
4.17273639740895
30
0
0
SPLINE
5
159
100
AcDbEntity
8
1
62
256
6
ByLayer
370
18
48
1
60
0
100
AcDbSpline
70
4
71
3
72
8
73
4
40
0
40
0
40
0
40
0
40
1
40
1
40
1
40
1
41
1
10
50.8553315043092
20
4.17273639741262
30
0
41
1
10
50.8358457379331
20
4.20348217589236
30
0
41
1
10
50.8164013602964
20
4.23404586455496
30
0
41
1
10
50.796996419281
20
4.26442462787711
30
0
0
SPLINE
5
15A
100
AcDbEntity
8
1
62
256
6
ByLayer
370
18
48
1
60
0
100
AcDbSpline
70
4
71
3
72
10
73
6
40
0
40
0
40
0
40
0
40
0.5
40
0.5
40
1
40
1
40
1
40
1
41
1
10
50.796996419281
20
4.26442462787725
30
0
41
1
10
50.64007113009
20
4.27762883103048
30
0
41
1
10
50.4842195866459
20
4.28346039526519
30
0
41
1
10
50.1743322798362
20
4.27975235678588
30
0
41
1
10
50.0202929814542
20
4.27020687980874
30
0
41
1
10
49.866691877774
20
4.25285052142891
30
0
0
SPLINE
5
15B
100
AcDbEntity
8
1
62
256
6
ByLayer
370
18
48
1
60
0
100
AcDbSpline
70
4
71
3
72
8
73
4
40
0
40
0
40
0
40
0
40
1
40
1
40
1
40
1
41
1
10
49.8666918777739
20
4.25285052142897
30
0
41
1
10
49.8010215059495
20
4.12217887000429
30
0
41
1
10
49.7349621794763
20
3.98993757429852
30
0
41
1
10
49.6684837006269
20
3.85639451521132
30
0
0
SPLINE
5
15C
100
AcDbEntity
8
1
62
256
6
ByLayer
370
18
48
1
60
0
100
AcDbSpline
70
4
71
3
72
34
73
30
40
0
40
0
40
0
40
0
40
0.125000000000057
40
0.125000000000057
40
0.187500000000066
40
0.187500000000066
40
0.250000000000075
40
0.250000000000075
40
0.375000000000093
40
0.375000000000093
40
0.437500000000078
40
0.437500000000078
40
0.500000000000062
40
0.500000000000062
40
0.625000000000032
40
0.625000000000032
40
0.687500000000016
40
0.687500000000016
40
0.750000000000001
40
0.750000000000001
40
0.812499999999985
40
0.812499999999985
40
0.843750000000003
40
0.843750000000003
40
0.875000000000021
40
0.875000000000021
40
0.937500000000011
40
0.937500000000011
40
1
40
1
40
1
40
1
41
1
10
49.6684837006261
20
3.85639451521035
30
0
41
1
10
49.6575646656297
20
3.8344601785505
30
0
41
1
10
49.6449157401742
20
3.81447726928181
30
0
41
1
10
49.6240071001689
20
3.78666496968555
30
0
41
1
10
49.6166936103067
20
3.77774937039672
30
0
41
1
10
49.601502575147
20
3.76067473124118
30
0
41
1
10
49.5937036607239
20
3.75260119927737
30
0
41
1
10
49.5697564829965
20
3.72964255899163
30
0
41
1
10
49.5530639349832
20
3.71600377750579
30
0
41
1
10
49.5270227289841
20
3.69790198234725
30
0
41
1
10
49.5181735084037
20
3.6922650590499
30
0
41
1
10
49.5001333683338
20
3.68181151239222
30
0
41
1
10
49.4910136632265
20
3.67703890377342
30
0
41
1
10
49.4635859718254
20
3.66420093205608
30
0
41
1
10
49.4451209627908
20
3.65753882038899
30
0
41
1
10
49.4171826341141
20
3.65073383436103
30
0
41
1
10
49.4078293370831
20
3.64900197238919
30
0
41
1
10
49.3890417536304
20
3.64676033432249
30
0
41
1
10
49.3796017915909
20
3.64625996618153
30
0
41
1
10
49.3611089730728
20
3.64668213322389
30
0
41
1
10
49.3520008590273
20
3.64759384444631
30
0
41
1
10
49.3385863746553
20
3.65017647341179
30
0
41
1
10
49.3341563438149
20
3.65124080237982
30
0
41
1
10
49.3253890162374
20
3.65381960331888
30
0
41
1
10
49.3210480728445
20
3.65533791592893
30
0
41
1
10
49.3083855245721
20
3.66055864369176
30
0
41
1
10
49.3003538351392
20
3.66493618436036
30
0
41
1
10
49.2852606452704
20
3.67581266531167
30
0
41
1
10
49.2781600464557
20
3.68237000925663
30
0
41
1
10
49.2718680048412
20
3.69004605820788
30
0
0
SPLINE
5
15D
100
AcDbEntity
8
1
62
256
6
ByLayer
370
18
48
1
60
0
100
AcDbSpline
70
4
71
3
72
10
73
6
40
0
40
0
40
0
40
0
40
0.500000000000001
40
0.500000000000001
40
1
40
1
40
1
40
1
41
1
10
49.2718680048388
20
3.6900460582107
30
0
41
1
10
49.2182330464615
20
3.75547864611355
30
0
41
1
10
49.1649166609942
20
3.81860681246846
30
0
41
1
10
49.0588078836319
20
3.94028678835519
30
0
41
1
10
49.0059695568826
20
3.99889147388618
30
0
41
1
10
48.9534850971554
20
4.05508289054606
30
0
0
SPLINE
5
15E
100
AcDbEntity
8
1
62
256
6
ByLayer
370
18
48
1
60
0
100
AcDbSpline
70
4
71
3
72
8
73
4
40
0
40
0
40
0
40
0
40
1
40
1
40
1
40
1
41
1
10
48.9534850971552
20
4.05508289054612
30
0
41
1
10
48.7961917507886
20
4.00445118998897
30
0
41
1
10
48.6404085010136
20
3.94565997508832
30
0
41
1
10
48.4857290434012
20
3.87892730450491
30
0
0
SPLINE
5
15F
100
AcDbEntity
8
1
62
256
6
ByLayer
370
18
48
1
60
0
100
AcDbSpline
70
4
71
3
72
12
73
8
40
0
40
0
40
0
40
0
40
0.573302017475931
40
0.573302017475931
40
0.859953026213896
40
0.859953026213896
40
1
40
1
40
1
40
1
41
1
10
48.4857290434012
20
3.8789273045048
30
0
41
1
10
48.419818260975
20
3.73751920059888
30
0
41
1
10
48.3534291221747
20
3.59581866763906
30
0
41
1
10
48.2532513481021
20
3.38359812925884
30
0
41
1
10
48.2197430997216
20
3.31287907567281
30
0
41
1
10
48.1697308898757
20
3.20779084328723
30
0
41
1
10
48.1532934838874
20
3.17332490412917
30
0
41
1
10
48.1368306740485
20
3.13888550529811
30
0
0
SPLINE
5
160
100
AcDbEntity
8
1
62
256
6
ByLayer
370
18
48
1
60
0
100
AcDbSpline
70
4
71
3
72
12
73
8
40
0
40
0
40
0
40
0
40
0.5
40
0.5
40
0.75
40
0.75
40
1
40
1
40
1
40
1
41
1
10
43.4658900064463
20
4.03355432686729
30
0
41
1
10
43.3825626865316
20
4.17975073836843
30
0
41
1
10
43.3000320368093
20
4.32601807988814
30
0
41
1
10
43.1770736848187
20
4.5453520978356
30
0
41
1
10
43.1362728347179
20
4.61837096449608
30
0
41
1
10
43.055098967996
20
4.76398624611232
30
0
41
1
10
43.0147071758604
20
4.83661619184409
30
0
41
1
10
42.9744802355362
20
4.90905777582304
30
0
0
SPLINE
5
161
100
AcDbEntity
8
1
62
256
6
ByLayer
370
18
48
1
60
0
100
AcDbSpline
70
4
71
3
72
8
73
4
40
0
40
0
40
0
40
0
40
1
40
1
40
1
40
1
41
1
10
42.9744802355322
20
4.90905777584251
30
0
41
1
10
42.9073042250669
20
4.91782785675571
30
0
41
1
10
42.8401011104548
20
4.92479870384827
30
0
41
1
10
42.772825891038
20
4.92997483657885
30
0
0
SPLINE
5
162
100
AcDbEntity
8
1
62
256
6
ByLayer
370
18
48
1
60
0
100
AcDbSpline
70
4
71
3
72
14
73
10
40
0
40
0
40
0
40
0
40
0.25
40
0.25
40
0.5
40
0.5
40
0.75
40
0.75
40
1
40
1
40
1
40
1
41
1
10
42.7728258910379
20
4.92997483657888
30
0
41
1
10
42.7323339494475
20
4.87692379356537
30
0
41
1
10
42.6916936024755
20
4.82239194997192
30
0
41
1
10
42.6100509363308
20
4.71033242786334
30
0
41
1
10
42.5690381649145
20
4.65278873738762
30
0
41
1
10
42.486727454203
20
4.53486932617986
30
0
41
1
10
42.4453978200727
20
4.47444778932754
30
0
41
1
10
42.3624285806737
20
4.35082536859198
30
0
41
1
10
42.3207954339558
20
4.28763577388906
30
0
41
1
10
42.2789706715892
20
4.22304886013416
30
0
0
SPLINE
5
163
100
AcDbEntity
8
1
62
256
6
ByLayer
370
18
48
1
60
0
100
AcDbSpline
70
4
71
3
72
34
73
30
40
0
40
0
40
0
40
0
40
0.125000000000024
40
0.125000000000024
40
0.187500000000035
40
0.187500000000035
40
0.250000000000047
40
0.250000000000047
40
0.375000000000116
40
0.375000000000116
40
0.437500000000125
40
0.437500000000125
40
0.500000000000135
40
0.500000000000135
40
0.625000000000102
40
0.625000000000102
40
0.687500000000086
40
0.687500000000086
40
0.75000000000007
40
0.75000000000007
40
0.812500000000053
40
0.812500000000053
40
0.843750000000045
40
0.843750000000045
40
0.875000000000037
40
0.875000000000037
40
0.937500000000019
40
0.937500000000019
40
1
40
1
40
1
40
1
41
1
10
42.2789706715892
20
4.2230488601341
30
0
41
1
10
42.2680510773858
20
4.20618653147659
30
0
41
1
10
42.2553991514338
20
4.1918672148667
30
0
41
1
10
42.23447753307
20
4.17319164132303
30
0
41
1
10
42.2271589458673
20
4.16743797096373
30
0
41
1
10
42.2119521351148
20
4.15686913925333
30
0
41
1
10
42.2041445440982
20
4.15210739978258
30
0
41
1
10
42.1801698962292
20
4.13924717642561
30
0
41
1
10
42.1634569792928
20
4.1325557862593
30
0
41
1
10
42.1373876033364
20
4.12519685491861
30
0
41
1
10
42.128529428203
20
4.12319508106629
30
0
41
1
10
42.1104725704239
20
4.12012772488524
30
0
41
1
10
42.1013504427982
20
4.11907761248074
30
0
41
1
10
42.0739120065622
20
4.11740919985129
30
0
41
1
10
42.0554431377962
20
4.11823387977225
30
0
41
1
10
42.0275063581485
20
4.12275647006925
30
0
41
1
10
42.0181548738623
20
4.12481681721127
30
0
41
1
10
41.9993738112189
20
4.13020204201567
30
0
41
1
10
41.9899486868611
20
4.13353546707796
30
0
41
1
10
41.9714853166728
20
4.141486321945
30
0
41
1
10
41.9623922983082
20
4.14611559542735
30
0
41
1
10
41.9490006138936
20
4.15419697104926
30
0
41
1
10
41.9445782076388
20
4.15708121929771
30
0
41
1
10
41.9358260881987
20
4.16327156734817
30
0
41
1
10
41.9314948538644
20
4.16658149881135
30
0
41
1
10
41.9188606265179
20
4.17704473390853
30
0
41
1
10
41.9108463362992
20
4.1847705684394
30
0
41
1
10
41.8957842112855
20
4.20199676967198
30
0
41
1
10
41.8886979026791
20
4.21157198090486
30
0
41
1
10
41.8824166468117
20
4.22195877792126
30
0
0
SPLINE
5
164
100
AcDbEntity
8
1
62
256
6
ByLayer
370
18
48
1
60
0
100
AcDbSpline
70
4
71
3
72
10
73
6
40
0
40
0
40
0
40
0
40
0.5
40
0.5
40
1
40
1
40
1
40
1
41
1
10
41.8824166468118
20
4.22195877792132
30
0
41
1
10
41.8202242235268
20
4.32480128111874
30
0
41
1
10
41.758476558556
20
4.42617391242334
30
0
41
1
10
41.6356734254429
20
4.62599808421268
30
0
41
1
10
41.5745871704057
20
4.72449674303553
30
0
41
1
10
41.5139987568036
20
4.82113516343119
30
0
0
SPLINE
5
165
100
AcDbEntity
8
1
62
256
6
ByLayer
370
18
48
1
60
0
100
AcDbSpline
70
4
71
3
72
8
73
4
40
0
40
0
40
0
40
0
40
1
40
1
40
1
40
1
41
1
10
41.5139987567974
20
4.82113516345382
30
0
41
1
10
41.3551048234585
20
4.78219743567047
30
0
41
1
10
41.1966404582654
20
4.73417457257193
30
0
41
1
10
41.0380530761188
20
4.67745602962046
30
0
0
SPLINE
5
166
100
AcDbEntity
8
1
62
256
6
ByLayer
370
18
48
1
60
0
100
AcDbSpline
70
4
71
3
72
10
73
6
40
0
40
0
40
0
40
0
40
0.5
40
0.5
40
1
40
1
40
1
40
1
41
1
10
41.0380530761189
20
4.67745602962046
30
0
41
1
10
40.9815884379141
20
4.57230919536082
30
0
41
1
10
40.9248136544393
20
4.46542913770009
30
0
41
1
10
40.8106170527817
20
4.24849535985825
30
0
41
1
10
40.7532374055824
20
4.13852131669807
30
0
41
1
10
40.6955101186574
20
4.0271053737815
30
0
0
SPLINE
5
167
100
AcDbEntity
8
1
62
256
6
ByLayer
370
18
48
1
60
0
100
AcDbSpline
70
4
71
3
72
34
73
30
40
0
40
0
40
0
40
0
40
0.124999999999958
40
0.124999999999958
40
0.187499999999935
40
0.187499999999935
40
0.249999999999913
40
0.249999999999913
40
0.374999999999869
40
0.374999999999869
40
0.437499999999848
40
0.437499999999848
40
0.499999999999826
40
0.499999999999826
40
0.624999999999833
40
0.624999999999833
40
0.687499999999836
40
0.687499999999836
40
0.749999999999839
40
0.749999999999839
40
0.812499999999842
40
0.812499999999842
40
0.843749999999868
40
0.843749999999868
40
0.874999999999894
40
0.874999999999894
40
0.937499999999947
40
0.937499999999947
40
1
40
1
40
1
40
1
41
1
10
40.695510118657
20
4.02710537378093
30
0
41
1
10
40.6845890412652
20
4.00602726323595
30
0
41
1
10
40.6719364002558
20
3.98709174775959
30
0
41
1
10
40.6510159178291
20
3.96105805793164
30
0
41
1
10
40.643698060974
20
3.95277284396903
30
0
41
1
10
40.6284929592562
20
3.93701845636156
30
0
41
1
10
40.6206863994132
20
3.92963010590995
30
0
41
1
10
40.596714953279
20
3.90879598066274
30
0
41
1
10
40.5800042979067
20
3.89666463109103
30
0
41
1
10
40.5539361965108
20
3.8809569128795
30
0
41
1
10
40.5450781438541
20
3.87614038756371
30
0
41
1
10
40.5270210093173
20
3.86737468302002
30
0
41
1
10
40.5178976817051
20
3.86346486053554
30
0
41
1
10
40.4904563036866
20
3.85324362726138
30
0
41
1
10
40.4719850107187
20
3.84837526541946
30
0
41
1
10
40.4440455161628
20
3.84434698342398
30
0
41
1
10
40.4346932682827
20
3.84355510895637
30
0
41
1
10
40.4159112128325
20
3.84322672948514
30
0
41
1
10
40.4064845493726
20
3.84370023594804
30
0
41
1
10
40.3880191744784
20
3.84605773851612
30
0
41
1
10
40.3789255893132
20
3.84793683134106
30
0
41
1
10
40.3655338063555
20
3.8519706646953
30
0
41
1
10
40.3611114924067
20
3.85351875028567
30
0
41
1
10
40.3523598220415
20
3.85706519794209
30
0
41
1
10
40.3480283068438
20
3.85906721112494
30
0
41
1
10
40.3353935886816
20
3.86571562495686
30
0
41
1
10
40.3273795902236
20
3.87102185412704
30
0
41
1
10
40.3123192509243
20
3.88369964323894
30
0
41
1
10
40.3052338803627
20
3.89113468417904
30
0
41
1
10
40.2989529978067
20
3.89962748697897
30
0
0
SPLINE
5
168
100
AcDbEntity
8
1
62
256
6
ByLayer
370
18
48
1
60
0
100
AcDbSpline
70
4
71
3
72
8
73
4
40
0
40
0
40
0
40
0
40
1
40
1
40
1
40
1
41
1
10
40.2989529978061
20
3.89962748697874
30
0
41
1
10
40.2163811488211
20
4.01127842520339
30
0
41
1
10
40.1345980889463
20
4.11795566627788
30
0
41
1
10
40.0533671699824
20
4.21983786738315
30
0
0
SPLINE
5
169
100
AcDbEntity
8
1
62
256
6
ByLayer
370
18
48
1
60
0
100
AcDbSpline
70
4
71
3
72
13
73
9
40
0
40
0
40
0
40
0
40
0.499999999999954
40
0.499999999999954
40
0.624999999999962
40
0.624999999999962
40
0.74999999999997
40
1
40
1
40
1
40
1
41
1
10
40.0533671699803
20
4.21983786740157
30
0
41
1
10
39.9294998540105
20
4.14972395363839
30
0
41
1
10
39.8049314555452
20
4.07474418032365
30
0
41
1
10
39.6479966606451
20
3.97496737845361
30
0
41
1
10
39.6165410866327
20
3.954703950474
30
0
41
1
10
39.5537245896174
20
3.91372249028262
30
0
41
1
10
39.4595577659782
20
3.85151582584044
30
0
41
1
10
39.3655204333547
20
3.78714930106992
30
0
41
1
10
39.3028453229243
20
3.7433167730498
30
0
0
SPLINE
5
16A
100
AcDbEntity
8
1
62
256
6
ByLayer
370
18
48
1
60
0
100
AcDbSpline
70
4
71
3
72
8
73
4
40
0
40
0
40
0
40
0
40
1
40
1
40
1
40
1
41
1
10
39.3028453229312
20
3.74331677304537
30
0
41
1
10
39.2396175592097
20
3.61038405356248
30
0
41
1
10
39.176031120406
20
3.47713525377026
30
0
41
1
10
39.1120358536001
20
3.34382013241046
30
0
0
SPLINE
5
16B
100
AcDbEntity
8
1
62
256
6
ByLayer
370
18
48
1
60
0
100
AcDbSpline
70
4
71
3
72
16
73
12
40
0
40
0
40
0
40
0
40
0.302766571748108
40
0.302766571748108
40
0.45414985762216
40
0.45414985762216
40
0.605533143496212
40
0.605533143496212
40
0.908299715244263
40
0.908299715244263
40
1
40
1
40
1
40
1
41
1
10
39.1120358536001
20
3.3438201324104
30
0
41
1
10
39.1011145204653
20
3.32106878024098
30
0
41
1
10
39.0884618254412
20
3.29979656119966
30
0
41
1
10
39.0675422292531
20
3.26953489719671
30
0
41
1
10
39.0602247725841
20
3.25971351254356
30
0
41
1
10
39.0450210444671
20
3.24066589765621
30
0
41
1
10
39.0372152946462
20
3.23153790125335
30
0
41
1
10
39.013246539008
20
3.20523001937676
30
0
41
1
10
38.9965382112368
20
3.18911313219374
30
0
41
1
10
38.9738979057053
20
3.16985302857259
30
0
41
1
10
38.9685727986671
20
3.16549940219116
30
0
41
1
10
38.9631851744777
20
3.16127175049923
30
0
0
SPLINE
5
16C
100
AcDbEntity
8
1
62
256
6
ByLayer
370
18
48
1
60
0
100
AcDbSpline
70
4
71
3
72
38
73
34
40
0
40
0
40
0
40
0
40
0.0712596771603565
40
0.0712596771603565
40
0.113475146380344
40
0.113475146380344
40
0.155690615600331
40
0.155690615600331
40
0.240121554040302
40
0.240121554040302
40
0.324552492480273
40
0.324552492480273
40
0.408983430920244
40
0.408983430920244
40
0.493414369360215
40
0.493414369360215
40
0.514522103970208
40
0.514522103970208
40
0.535629838580201
40
0.535629838580201
40
0.577845307800184
40
0.577845307800184
40
0.66227624624015
40
0.66227624624015
40
0.831138123120081
40
0.831138123120081
40
0.85224585773007
40
0.85224585773007
40
0.873353592340059
40
0.873353592340059
40
0.91556906156004
40
0.91556906156004
40
1
40
1
40
1
40
1
41
1
10
28.0081812003448
20
-3.34999995388569
30
0
41
1
10
27.8972057822068
20
-3.35000358136872
30
0
41
1
10
27.7865949969338
20
-3.34696505323242
30
0
41
1
10
27.6107996005503
20
-3.33736637828335
30
0
41
1
10
27.5454759467852
20
-3.33274656858015
30
0
41
1
10
27.4149225492608
20
-3.32143371927646
30
0
41
1
10
27.3496718820424
20
-3.31474280082887
30
0
41
1
10
27.1537156021278
20
-3.29167056492668
30
0
41
1
10
27.0233401561137
20
-3.27217442511312
30
0
41
1
10
26.7625315856677
20
-3.22510432876547
30
0
41
1
10
26.6322120132724
20
-3.19749621535772
30
0
41
1
10
26.3713501009412
20
-3.13418557075769
30
0
41
1
10
26.2407956676327
20
-3.09848717681604
30
0
41
1
10
25.9789713372121
20
-3.01910953643412
30
0
41
1
10
25.8476824756577
20
-2.97543440548989
30
0
41
1
10
25.6826045383447
20
-2.91611211999899
30
0
41
1
10
25.649517377382
20
-2.90400218686037
30
0
41
1
10
25.5833820349672
20
-2.87936262474418
30
0
41
1
10
25.5503414055513
20
-2.86683182654121
30
0
41
1
10
25.4513383189515
20
-2.82858248446288
30
0
41
1
10
25.3854914968871
20
-2.80220896569227
30
0
41
1
10
25.1883595968508
20
-2.72052353056984
30
0
41
1
10
25.057493723673
20
-2.6626369102062
30
0
41
1
10
24.6658392204321
20
-2.47935037683158
30
0
41
1
10
24.405852304969
20
-2.34443580864951
30
0
41
1
10
24.1125081267741
20
-2.18052310987605
30
0
41
1
10
24.0799062431322
20
-2.1621381541685
30
0
41
1
10
24.014627191744
20
-2.12508653177309
30
0
41
1
10
23.981941732653
20
-2.10642909571246
30
0
41
1
10
23.8838738228541
20
-2.04992930815067
30
0
41
1
10
23.8184772004788
20
-2.01156100749094
30
0
41
1
10
23.6221420457044
20
-1.89443132671781
30
0
41
1
10
23.4910655981418
20
-1.81363989796759
30
0
41
1
10
23.3596865509518
20
-1.73020216514018
30
0
0
SPLINE
5
16D
100
AcDbEntity
8
1
62
256
6
ByLayer
370
18
48
1
60
0
100
AcDbSpline
70
4
71
3
72
26
73
22
40
0
40
0
40
0
40
0
40
0.177412614077682
40
0.177412614077682
40
0.276420231586405
40
0.276420231586405
40
0.375427849095128
40
0.375427849095128
40
0.474435466603851
40
0.474435466603851
40
0.573443084112573
40
0.573443084112573
40
0.672450701621296
40
0.672450701621296
40
0.771458319130018
40
0.771458319130018
40
0.870465936638741
40
0.870465936638741
40
0.969473554147464
40
0.969473554147464
40
1
40
1
40
1
40
1
41
1
10
22.1486649395089
20
-1.1873637229433
30
0
41
1
10
22.011752347018
20
-1.21423464225668
30
0
41
1
10
21.8774066215451
20
-1.26179763691272
30
0
41
1
10
21.6723818161782
20
-1.37052234459719
30
0
41
1
10
21.6004448935381
20
-1.41623635346548
30
0
41
1
10
21.4623947231433
20
-1.51913708878752
30
0
41
1
10
21.3958289565113
20
-1.57654551050848
30
0
41
1
10
21.2675741185155
20
-1.70317685185464
30
0
41
1
10
21.2055184571751
20
-1.7728924019861
30
0
41
1
10
21.0881821518726
20
-1.92186393391896
30
0
41
1
10
21.0331919408487
20
-2.00061203551624
30
0
41
1
10
20.9298223377431
20
-2.1657694612046
30
0
41
1
10
20.8814442869694
20
-2.25218033972618
30
0
41
1
10
20.7907166206985
20
-2.43198839972908
30
0
41
1
10
20.7475078809532
20
-2.52463670285604
30
0
41
1
10
20.6770384159463
20
-2.71702373971775
30
0
41
1
10
20.6485454300886
20
-2.81673194080088
30
0
41
1
10
20.602996319979
20
-3.02211073538669
30
0
41
1
10
20.5861905685771
20
-3.12763200356747
30
0
41
1
10
20.5714420431256
20
-3.26473923588594
30
0
41
1
10
20.5684715722257
20
-3.29711392395254
30
0
41
1
10
20.5659897391105
20
-3.32952320359627
30
0
0
SPLINE
5
16E
100
AcDbEntity
8
1
62
256
6
ByLayer
370
18
48
1
60
0
100
AcDbSpline
70
4
71
3
72
38
73
34
40
0
40
0
40
0
40
0
40
0.0602954517759748
40
0.0602954517759748
40
0.12059090355195
40
0.12059090355195
40
0.241181807103899
40
0.241181807103899
40
0.361772710655849
40
0.361772710655849
40
0.422068162431822
40
0.422068162431822
40
0.452215888319807
40
0.452215888319807
40
0.482363614207792
40
0.482363614207792
40
0.542659065983761
40
0.542659065983761
40
0.572806791871746
40
0.572806791871746
40
0.602954517759731
40
0.602954517759731
40
0.723545421311667
40
0.723545421311667
40
0.844136324863603
40
0.844136324863603
40
0.874284050751586
40
0.874284050751586
40
0.90443177663957
40
0.90443177663957
40
0.964727228415532
40
0.964727228415532
40
1
40
1
40
1
40
1
41
1
10
20.5660199777363
20
-3.32952626827796
30
0
41
1
10
20.6461898861672
20
-3.33609929635151
30
0
41
1
10
20.7259980888367
20
-3.34109905173548
30
0
41
1
10
20.885830130949
20
-3.34788970656214
30
0
41
1
10
20.9657138439207
20
-3.34970276233943
30
0
41
1
10
21.2053680256436
20
-3.35049354719374
30
0
41
1
10
21.3652095647899
20
-3.3448483498999
30
0
41
1
10
21.6846226079379
20
-3.32143539010542
30
0
41
1
10
21.8442021890748
20
-3.30366092753735
30
0
41
1
10
22.0833114539278
20
-3.2676902270702
30
0
41
1
10
22.1629558707443
20
-3.25413991326707
30
0
41
1
10
22.2823714752033
20
-3.23142904112299
30
0
41
1
10
22.3221670432671
20
-3.22346021044749
30
0
41
1
10
22.4018196365218
20
-3.20674821298383
30
0
41
1
10
22.4417250592998
20
-3.19802439339645
30
0
41
1
10
22.5616974864014
20
-3.17076770456683
30
0
41
1
10
22.6418986931896
20
-3.15109482887661
30
0
41
1
10
22.7627460151236
20
-3.11944869901646
30
0
41
1
10
22.8031077748116
20
-3.10853897465438
30
0
41
1
10
22.8839493824005
20
-3.08597539986161
30
0
41
1
10
22.9244591491515
20
-3.07431332598674
30
0
41
1
10
23.1266580972168
20
-3.01433524217253
30
0
41
1
10
23.2877119545732
20
-2.96094126408244
30
0
41
1
10
23.6082077854301
20
-2.84336538195103
30
0
41
1
10
23.7676016189295
20
-2.77913309246091
30
0
41
1
10
23.9661704516703
20
-2.69225809167642
30
0
41
1
10
24.005832369807
20
-2.67453875810682
30
0
41
1
10
24.0851217504968
20
-2.63846506294897
30
0
41
1
10
24.1248221307188
20
-2.62017215966665
30
0
41
1
10
24.2441162836846
20
-2.56456416610507
30
0
41
1
10
24.3237301341847
20
-2.52637059294159
30
0
41
1
10
24.4500603640293
20
-2.46408173122961
30
0
41
1
10
24.4967177271036
20
-2.44071411452049
30
0
41
1
10
24.5434088986904
20
-2.41697160756544
30
0
0
SPLINE
5
16F
100
AcDbEntity
8
1
62
256
6
ByLayer
370
18
48
1
60
0
100
AcDbSpline
70
4
71
3
72
14
73
10
40
0
40
0
40
0
40
0
40
0.163529774212825
40
0.163529774212825
40
0.372647330659613
40
0.372647330659613
40
0.581764887106404
40
0.581764887106404
40
1
40
1
40
1
40
1
41
1
10
35.3517475893673
20
3.35000031201679
30
0
41
1
10
35.3829906994292
20
3.35000259881511
30
0
41
1
10
35.4142413328459
20
3.34976615645235
30
0
41
1
10
35.4854673767307
20
3.34867967959917
30
0
41
1
10
35.5254439516229
20
3.34767653317442
30
0
41
1
10
35.6054039475774
20
3.34487165549348
30
0
41
1
10
35.6453639236546
20
3.3430671333966
30
0
41
1
10
35.7654672739548
20
3.33645895993726
30
0
41
1
10
35.8459657511722
20
3.33048356200166
30
0
41
1
10
35.9267552805591
20
3.32293254872275
30
0
0
SPLINE
5
170
100
AcDbEntity
8
1
62
256
6
ByLayer
370
18
48
1
60
0
100
AcDbSpline
70
4
71
3
72
24
73
20
40
0
40
0
40
0
40
0
40
0.124999999999999
40
0.124999999999999
40
0.249999999999998
40
0.249999999999998
40
0.374999999999997
40
0.374999999999997
40
0.499999999999995
40
0.499999999999995
40
0.624999999999994
40
0.624999999999994
40
0.749999999999993
40
0.749999999999993
40
0.812499999999993
40
0.812499999999993
40
0.874999999999992
40
0.874999999999992
40
1
40
1
40
1
40
1
41
1
10
35.9267552805591
20
3.32293254872275
30
0
41
1
10
35.9690104556811
20
3.31898315836398
30
0
41
1
10
36.0107968808235
20
3.31725394363755
30
0
41
1
10
36.0932901641253
20
3.31793870415152
30
0
41
1
10
36.1339968796218
20
3.32035182223638
30
0
41
1
10
36.2142221921168
20
3.32921203372433
30
0
41
1
10
36.2537414137771
20
3.33565718967992
30
0
41
1
10
36.3315059210522
20
3.35270010503632
30
0
41
1
10
36.3697555977672
20
3.3632945154165
30
0
41
1
10
36.444898013339
20
3.38907916215754
30
0
41
1
10
36.4812594235475
20
3.40408663350129
30
0
41
1
10
36.5514996981717
20
3.43877703267955
30
0
41
1
10
36.5853802682995
20
3.45845277645262
30
0
41
1
10
36.6342023844791
20
3.49216620529805
30
0
41
1
10
36.6501422196057
20
3.50410832784363
30
0
41
1
10
36.6813128757163
20
3.5295904079037
30
0
41
1
10
36.6965450641112
20
3.54314085075717
30
0
41
1
10
36.7405543929411
20
3.5859962793335
30
0
41
1
10
36.7678455461106
20
3.61761467151376
30
0
41
1
10
36.7927806843435
20
3.65318550889802
30
0
0
SPLINE
5
171
100
AcDbEntity
8
1
62
256
6
ByLayer
370
18
48
1
60
0
100
AcDbSpline
70
4
71
3
72
14
73
10
40
0
40
0
40
0
40
0
40
0.499999999999987
40
0.499999999999987
40
0.624999999999984
40
0.624999999999984
40
0.749999999999982
40
0.749999999999982
40
1
40
1
40
1
40
1
41
1
10
36.7927806843435
20
3.65318550889802
30
0
41
1
10
36.826894028402
20
3.70184937443594
30
0
41
1
10
36.8612580423078
20
3.75103936949856
30
0
41
1
10
36.9045195350645
20
3.81334417236829
30
0
41
1
10
36.9131875610587
20
3.82584751437042
30
0
41
1
10
36.9305514383884
20
3.85092915264795
30
0
41
1
10
36.9392522245261
20
3.86352704922029
30
0
41
1
10
36.9653307693128
20
3.9011795225818
30
0
41
1
10
36.9826810632387
20
3.92607680011236
30
0
41
1
10
37.0000000000001
20
3.95077634827098
30
0
0
SPLINE
5
172
100
AcDbEntity
8
1
62
256
6
ByLayer
370
18
48
1
60
0
100
AcDbSpline
70
4
71
3
72
12
73
8
40
0
40
0
40
0
40
0
40
0.499999999999988
40
0.499999999999988
40
0.749999999999994
40
0.749999999999994
40
1
40
1
40
1
40
1
41
1
10
37.0000000000001
20
3.95077634827075
30
0
41
1
10
37.0797273581965
20
3.93652559063892
30
0
41
1
10
37.159003322612
20
3.92038492177352
30
0
41
1
10
37.277284111315
20
3.89335094696298
30
0
41
1
10
37.3165807948468
20
3.8838547550659
30
0
41
1
10
37.3951061621265
20
3.86399958075401
30
0
41
1
10
37.434314792319
20
3.85362982886988
30
0
41
1
10
37.4734837930918
20
3.84282780957753
30
0
0
SPLINE
5
173
100
AcDbEntity
8
1
62
256
6
ByLayer
370
18
48
1
60
0
100
AcDbSpline
70
4
71
3
72
8
73
4
40
0
40
0
40
0
40
0
40
1
40
1
40
1
40
1
41
1
10
37.4734837930919
20
3.84282780957773
30
0
41
1
10
37.4836256057334
20
3.8225623946613
30
0
41
1
10
37.4937801956623
20
3.8022742059552
30
0
41
1
10
37.5039480674889
20
3.78196344202098
30
0
0
SPLINE
5
174
100
AcDbEntity
8
1
62
256
6
ByLayer
370
18
48
1
60
0
100
AcDbSpline
70
4
71
3
72
30
73
26
40
0
40
0
40
0
40
0
40
0.125000000000011
40
0.125000000000011
40
0.187500000000016
40
0.187500000000016
40
0.250000000000022
40
0.250000000000022
40
0.375000000000032
40
0.375000000000032
40
0.500000000000042
40
0.500000000000042
40
0.625000000000052
40
0.625000000000052
40
0.687500000000044
40
0.687500000000044
40
0.750000000000035
40
0.750000000000035
40
0.812500000000026
40
0.812500000000026
40
0.875000000000017
40
0.875000000000017
40
0.937500000000009
40
0.937500000000009
40
1
40
1
40
1
40
1
41
1
10
37.5039480674889
20
3.7819634420209
30
0
41
1
10
37.5150540007835
20
3.759778859715
30
0
41
1
10
37.5279384968592
20
3.73955375316899
30
0
41
1
10
37.5492248080669
20
3.71135236867394
30
0
41
1
10
37.5566668545336
20
3.70230575365707
30
0
41
1
10
37.5721307477864
20
3.68494850670922
30
0
41
1
10
37.580059934938
20
3.67673937823534
30
0
41
1
10
37.6043758164714
20
3.65337842483103
30
0
41
1
10
37.621285094029
20
3.63947745513184
30
0
41
1
10
37.6563595682641
20
3.6147813771656
30
0
41
1
10
37.6746542560881
20
3.60394984639757
30
0
41
1
10
37.7112793094897
20
3.58620395048956
30
0
41
1
10
37.7297261034936
20
3.57917912304029
30
0
41
1
10
37.7575571913041
20
3.57170979731367
30
0
41
1
10
37.766861271688
20
3.56973618303039
30
0
41
1
10
37.7855199119103
20
3.5669568314791
30
0
41
1
10
37.7947753651002
20
3.56616953851966
30
0
41
1
10
37.8129532469543
20
3.5659272273748
30
0
41
1
10
37.821900218725
20
3.56646691074647
30
0
41
1
10
37.8394578660265
20
3.56906866780898
30
0
41
1
10
37.8481315883355
20
3.57115534616764
30
0
41
1
10
37.8646530504173
20
3.5770485709827
30
0
41
1
10
37.8725154534241
20
3.5808402622913
30
0
41
1
10
37.8873014902976
20
3.59041427500335
30
0
41
1
10
37.8942679286091
20
3.59624830092417
30
0
41
1
10
37.9004764354065
20
3.60316944975261
30
0
0
SPLINE
5
175
100
AcDbEntity
8
1
62
256
6
ByLayer
370
18
48
1
60
0
100
AcDbSpline
70
4
71
3
72
8
73
4
40
0
40
0
40
0
40
0
40
1
40
1
40
1
40
1
41
1
10
37.9004764354065
20
3.60316944975281
30
0
41
1
10
37.9242293635209
20
3.62964885228141
30
0
41
1
10
37.9479152849508
20
3.65565231668998
30
0
41
1
10
37.9715399467597
20
3.6811843351727
30
0
0
SPLINE
5
176
100
AcDbEntity
8
1
62
256
6
ByLayer
370
18
48
1
60
0
100
AcDbSpline
70
4
71
3
72
12
73
8
40
0
40
0
40
0
40
0
40
0.500000000000006
40
0.500000000000006
40
0.750000000000003
40
0.750000000000003
40
1
40
1
40
1
40
1
41
1
10
37.9715399467549
20
3.68118433517998
30
0
41
1
10
38.1323551908852
20
3.6210801462922
30
0
41
1
10
38.2924959909424
20
3.55354824390119
30
0
41
1
10
38.5318790554631
20
3.44090447471504
30
0
41
1
10
38.6115447988208
20
3.40146976549349
30
0
41
1
10
38.770693278237
20
3.31879743572688
30
0
41
1
10
38.8502119824401
20
3.27559291305252
30
0
41
1
10
38.929593770634
20
3.23038733038422
30
0
0
SPLINE
5
177
100
AcDbEntity
8
1
62
256
6
ByLayer
370
18
48
1
60
0
100
AcDbSpline
70
4
71
3
72
8
73
4
40
0
40
0
40
0
40
0
40
1
40
1
40
1
40
1
41
1
10
38.9295937706304
20
3.23038733038012
30
0
41
1
10
38.9818521463035
20
3.12275950209244
30
0
41
1
10
39.0343646397564
20
3.0156361560264
30
0
41
1
10
39.0872414082949
20
2.90909268160894
30
0
0
SPLINE
5
178
100
AcDbEntity
8
1
62
256
6
ByLayer
370
18
48
1
60
0
100
AcDbSpline
70
4
71
3
72
30
73
26
40
0
40
0
40
0
40
0
40
0.124999999999999
40
0.124999999999999
40
0.187499999999989
40
0.187499999999989
40
0.249999999999979
40
0.249999999999979
40
0.374999999999983
40
0.374999999999983
40
0.499999999999986
40
0.499999999999986
40
0.62499999999999
40
0.62499999999999
40
0.687499999999991
40
0.687499999999991
40
0.749999999999993
40
0.749999999999993
40
0.812499999999995
40
0.812499999999995
40
0.874999999999997
40
0.874999999999997
40
0.937499999999998
40
0.937499999999998
40
1
40
1
40
1
40
1
41
1
10
39.0872414082949
20
2.90909268160883
30
0
41
1
10
39.0983577690333
20
2.88669389044438
30
0
41
1
10
39.1112539525944
20
2.86543189517155
30
0
41
1
10
39.1325557465791
20
2.83478927079628
30
0
41
1
10
39.140002960806
20
2.82477472466869
30
0
41
1
10
39.155475064476
20
2.80520537301129
30
0
41
1
10
39.1634077142647
20
2.79576501403619
30
0
41
1
10
39.1877322124083
20
2.76837048646257
30
0
41
1
10
39.2046448324141
20
2.75133178030498
30
0
41
1
10
39.2397231016176
20
2.71950679962026
30
0
41
1
10
39.2580177657057
20
2.70465004914624
30
0
41
1
10
39.2946409546337
20
2.67820539907009
30
0
41
1
10
39.3130862722764
20
2.66648808893782
30
0
41
1
10
39.3409138023879
20
2.65138396115196
30
0
41
1
10
39.3502164651997
20
2.64676510844018
30
0
41
1
10
39.3688716012244
20
2.63846354685236
30
0
41
1
10
39.3781241522425
20
2.63482820783969
30
0
41
1
10
39.3962968556478
20
2.62874316717176
30
0
41
1
10
39.405241095888
20
2.62628143051461
30
0
41
1
10
39.4227928652455
20
2.62269197037688
30
0
41
1
10
39.431463426896
20
2.62156353039754
30
0
41
1
10
39.4479803791944
20
2.62095310133157
30
0
41
1
10
39.4558405779824
20
2.62145448791196
30
0
41
1
10
39.4706224674049
20
2.62435614772394
30
0
41
1
10
39.4775873296755
20
2.62678380255517
30
0
41
1
10
39.4837962641061
20
2.63033121402094
30
0
0
SPLINE
5
179
100
AcDbEntity
8
1
62
256
6
ByLayer
370
18
48
1
60
0
100
AcDbSpline
70
4
71
3
72
8
73
4
40
0
40
0
40
0
40
0
40
1
40
1
40
1
40
1
41
1
10
39.4837962641061
20
2.63033121402128
30
0
41
1
10
39.5565957382615
20
2.6719244523149
30
0
41
1
10
39.6287639169016
20
2.70808898386309
30
0
41
1
10
39.7004592121686
20
2.73895135567938
30
0
0
SPLINE
5
17A
100
AcDbEntity
8
1
62
256
6
ByLayer
370
18
48
1
60
0
100
AcDbSpline
70
4
71
3
72
8
73
4
40
0
40
0
40
0
40
0
40
1
40
1
40
1
40
1
41
1
10
39.7004592121614
20
2.73895135569077
30
0
41
1
10
39.9311422891344
20
2.57649023652445
30
0
41
1
10
40.1595093583581
20
2.40196508437794
30
0
41
1
10
40.3858926870465
20
2.21539103859689
30
0
0
SPLINE
5
17B
100
AcDbEntity
8
1
62
256
6
ByLayer
370
18
48
1
60
0
100
AcDbSpline
70
4
71
3
72
10
73
6
40
0
40
0
40
0
40
0
40
0.5
40
0.5
40
1
40
1
40
1
40
1
41
1
10
40.3858926870465
20
2.21539103859689
30
0
41
1
10
40.4328730247263
20
2.12479195102685
30
0
41
1
10
40.4800679868035
20
2.03527280931092
30
0
41
1
10
40.5749408895356
20
1.8586208613666
30
0
41
1
10
40.6225828948478
20
1.77156543233664
30
0
41
1
10
40.6705172770519
20
1.6858902032688
30
0
0
SPLINE
5
17C
100
AcDbEntity
8
1
62
256
6
ByLayer
370
18
48
1
60
0
100
AcDbSpline
70
4
71
3
72
30
73
26
40
0
40
0
40
0
40
0
40
0.125000000000019
40
0.125000000000019
40
0.187500000000049
40
0.187500000000049
40
0.250000000000078
40
0.250000000000078
40
0.375000000000092
40
0.375000000000092
40
0.500000000000106
40
0.500000000000106
40
0.62500000000012
40
0.62500000000012
40
0.6875000000001
40
0.6875000000001
40
0.75000000000008
40
0.75000000000008
40
0.81250000000006
40
0.81250000000006
40
0.87500000000004
40
0.87500000000004
40
0.93750000000002
40
0.93750000000002
40
1
40
1
40
1
40
1
41
1
10
40.6705172770519
20
1.6858902032688
30
0
41
1
10
40.6816456989741
20
1.66599988543197
30
0
41
1
10
40.6945564374955
20
1.64627916578738
30
0
41
1
10
40.7158807709089
20
1.61690751919986
30
0
41
1
10
40.723335813195
20
1.60713773014839
30
0
41
1
10
40.7388230282923
20
1.58772445156615
30
0
41
1
10
40.7467628513646
20
1.5781950939174
30
0
41
1
10
40.7711075683523
20
1.5500814655968
30
0
41
1
10
40.7880319636123
20
1.53196647446603
30
0
41
1
10
40.8231291230015
20
1.4968628073745
30
0
41
1
10
40.8414292633346
20
1.47977907970295
30
0
41
1
10
40.8780559388694
20
1.44783513606976
30
0
41
1
10
40.8965005098391
20
1.43284141520596
30
0
41
1
10
40.9243218389066
20
1.41192336803627
30
0
41
1
10
40.9336215752306
20
1.40521522325906
30
0
41
1
10
40.952268869092
20
1.39238849105024
30
0
41
1
10
40.9615119029439
20
1.38634345499742
30
0
41
1
10
40.9796695693873
20
1.37514333869339
30
0
41
1
10
40.9886060116633
20
1.36997243998204
30
0
41
1
10
41.0061416731012
20
1.36061237694864
30
0
41
1
10
41.0148036900714
20
1.35639730622225
30
0
41
1
10
41.031305150947
20
1.34933752103802
30
0
41
1
10
41.039158177539
20
1.34647679910054
30
0
41
1
10
41.0539272847302
20
1.34233068669025
30
0
41
1
10
41.060886851063
20
1.34104471262262
30
0
41
1
10
41.0670936212781
20
1.34077298520478
30
0
0
SPLINE
5
17D
100
AcDbEntity
8
1
62
256
6
ByLayer
370
18
48
1
60
0
100
AcDbSpline
70
4
71
3
72
10
73
6
40
0
40
0
40
0
40
0
40
0.5
40
0.5
40
1
40
1
40
1
40
1
41
1
10
41.0670936212781
20
1.34077298520512
30
0
41
1
10
41.1283124579731
20
1.33809287367495
30
0
41
1
10
41.1890824384296
20
1.33132978114571
30
0
41
1
10
41.3099222610589
20
1.30990525765679
30
0
41
1
10
41.3700260332956
20
1.29522569461051
30
0
41
1
10
41.4296494904263
20
1.27674115996643
30
0
0
SPLINE
5
17E
100
AcDbEntity
8
1
62
256
6
ByLayer
370
18
48
1
60
0
100
AcDbSpline
70
4
71
3
72
30
73
26
40
0
40
0
40
0
40
0
40
0.125000000000003
40
0.125000000000003
40
0.187500000000004
40
0.187500000000004
40
0.250000000000004
40
0.250000000000004
40
0.375000000000004
40
0.375000000000004
40
0.500000000000004
40
0.500000000000004
40
0.625000000000003
40
0.625000000000003
40
0.687500000000002
40
0.687500000000002
40
0.750000000000002
40
0.750000000000002
40
0.812500000000001
40
0.812500000000001
40
0.875000000000001
40
0.875000000000001
40
0.9375
40
0.9375
40
1
40
1
40
1
40
1
41
1
10
42.2538092985831
20
0.259394510554159
30
0
41
1
10
42.2649507648379
20
0.244420669762405
30
0
41
1
10
42.2778762100606
20
0.22861641077759
30
0
41
1
10
42.2992204584397
20
0.204042712238788
30
0
41
1
10
42.3066822031986
20
0.195688722210065
30
0
41
1
10
42.3221802325461
20
0.17875628441368
30
0
41
1
10
42.3301247155258
20
0.170277305492306
30
0
41
1
10
42.3544813100547
20
0.144801921387625
30
0
41
1
10
42.3714109681488
20
0.127768644679009
30
0
41
1
10
42.4065136821015
20
0.0935614531015858
30
0
41
1
10
42.4248131213218
20
0.0762783854394513
30
0
41
1
10
42.4614349798745
20
0.0426214147537678
30
0
41
1
10
42.479875759301
20
0.0261262951725882
30
0
41
1
10
42.507689538586
20
0.0018700315114302
30
0
41
1
10
42.5169864371459
20
-0.0061335948356884
30
0
41
1
10
42.5356274018435
20
-0.0219673519123091
30
0
41
1
10
42.5448665454605
20
-0.0297078937409196
30
0
41
1
10
42.5630174618765
20
-0.0446974474078843
30
0
41
1
10
42.5719506673535
20
-0.0519649118502628
30
0
41
1
10
42.5894801061185
20
-0.0659850787110088
30
0
41
1
10
42.5981391049514
20
-0.0727857456941763
30
0
41
1
10
42.6146368502093
20
-0.0854548698165729
30
0
41
1
10
42.6224884201368
20
-0.0913363407162535
30
0
41
1
10
42.6372553588546
20
-0.102033394793864
30
0
41
1
10
42.64421448378
20
-0.106877470458812
30
0
41
1
10
42.6504225790521
20
-0.110935402237601
30
0
0
SPLINE
5
17F
100
AcDbEntity
8
1
62
256
6
ByLayer
370
18
48
1
60
0
100
AcDbSpline
70
4
71
3
72
10
73
6
40
0
40
0
40
0
40
0
40
0.5
40
0.5
40
1
40
1
40
1
40
1
41
1
10
42.6504225790521
20
-0.11093540223726
30
0
41
1
10
42.7368025405636
20
-0.167397807451863
30
0
41
1
10
42.822289454026
20
-0.231388360511232
30
0
41
1
10
42.9920137041528
20
-0.373789416580593
30
0
41
1
10
43.0759495960503
20
-0.451960128688256
30
0
41
1
10
43.1591593878574
20
-0.536764398599843
30
0
0
SPLINE
5
180
100
AcDbEntity
8
1
62
256
6
ByLayer
370
18
48
1
60
0
100
AcDbSpline
70
4
71
3
72
8
73
4
40
0
40
0
40
0
40
0
40
1
40
1
40
1
40
1
41
1
10
43.1591593878574
20
-0.536764398599871
30
0
41
1
10
43.1619087470391
20
-0.539792213998425
30
0
41
1
10
43.1646578302443
20
-0.542820151146032
30
0
41
1
10
43.1674066383756
20
-0.545848209218434
30
0
0
SPLINE
5
181
100
AcDbEntity
8
1
62
256
6
ByLayer
370
18
48
1
60
0
100
AcDbSpline
70
4
71
3
72
8
73
4
40
0
40
0
40
0
40
0
40
1
40
1
40
1
40
1
41
1
10
43.3108500299092
20
-0.704646339408185
30
0
41
1
10
43.2630251233235
20
-0.651793477880346
30
0
41
1
10
43.2152117044787
20
-0.59885977243755
30
0
41
1
10
43.1674066383756
20
-0.545848209218434
30
0
0
SPLINE
5
182
100
AcDbEntity
8
1
62
256
6
ByLayer
370
18
48
1
60
0
100
AcDbSpline
70
4
71
3
72
14
73
10
40
0
40
0
40
0
40
0
40
0.25
40
0.25
40
0.5
40
0.5
40
0.75
40
0.75
40
1
40
1
40
1
40
1
41
1
10
43.3108500299091
20
-0.704646339408185
30
0
41
1
10
43.3539122575771
20
-0.753633300261669
30
0
41
1
10
43.3971475940181
20
-0.800708664778426
30
0
41
1
10
43.4840385607091
20
-0.890998195967995
30
0
41
1
10
43.5277149131521
20
-0.934231170305623
30
0
41
1
10
43.6154375887008
20
-1.01665871437331
30
0
41
1
10
43.6594983488236
20
-1.05586817662527
30
0
41
1
10
43.7480069152129
20
-1.13015501934541
30
0
41
1
10
43.7924339395611
20
-1.16521916818189
30
0
41
1
10
43.8370861785968
20
-1.1981286259481
30
0
0
SPLINE
5
183
100
AcDbEntity
8
1
62
256
6
ByLayer
370
18
48
1
60
0
100
AcDbSpline
70
4
71
3
72
30
73
26
40
0
40
0
40
0
40
0
40
0.124999999999941
40
0.124999999999941
40
0.187499999999932
40
0.187499999999932
40
0.249999999999924
40
0.249999999999924
40
0.37499999999991
40
0.37499999999991
40
0.499999999999897
40
0.499999999999897
40
0.624999999999883
40
0.624999999999883
40
0.687499999999903
40
0.687499999999903
40
0.749999999999922
40
0.749999999999922
40
0.812499999999942
40
0.812499999999942
40
0.874999999999961
40
0.874999999999961
40
0.937499999999981
40
0.937499999999981
40
1
40
1
40
1
40
1
41
1
10
43.8370861785968
20
-1.1981286259481
30
0
41
1
10
43.8482460529694
20
-1.20635364270598
30
0
41
1
10
43.861194271626
20
-1.21631894637116
30
0
41
1
10
43.8825706780518
20
-1.23311898114613
30
0
41
1
10
43.8900432303478
20
-1.23904751552902
30
0
41
1
10
43.9055601868278
20
-1.25145714756098
30
0
41
1
10
43.9135129028455
20
-1.25786479050089
30
0
41
1
10
43.9378903109405
20
-1.27763781892116
30
0
41
1
10
43.9548285526759
20
-1.29154535335618
30
0
41
1
10
43.9899395581821
20
-1.32075320727483
30
0
41
1
10
44.0082365222553
20
-1.3361630099339
30
0
41
1
10
44.0448482072094
20
-1.36749338176222
30
0
41
1
10
44.0632825693123
20
-1.38350878030335
30
0
41
1
10
44.0910847295895
20
-1.40818747448438
30
0
41
1
10
44.100377390079
20
-1.41652407386493
30
0
41
1
10
44.119009047804
20
-1.43345971289716
30
0
41
1
10
44.128239363434
20
-1.44196065662561
30
0
41
1
10
44.1463773004577
20
-1.45893126004967
30
0
41
1
10
44.1553043613188
20
-1.46741824833731
30
0
41
1
10
44.1728221431305
20
-1.4844059008025
30
0
41
1
10
44.1814753995501
20
-1.49297058183942
30
0
41
1
10
44.1979630653613
20
-1.50971721015307
30
0
41
1
10
44.205810496042
20
-1.51790817809462
30
0
41
1
10
44.2205708544921
20
-1.53386193654256
30
0
41
1
10
44.2275276840775
20
-1.54167760745202
30
0
41
1
10
44.2337356270984
20
-1.54903161766495
30
0
0
SPLINE
5
184
100
AcDbEntity
8
1
62
256
6
ByLayer
370
18
48
1
60
0
100
AcDbSpline
70
4
71
3
72
10
73
6
40
0
40
0
40
0
40
0
40
0.5
40
0.5
40
1
40
1
40
1
40
1
41
1
10
44.2337356270983
20
-1.54903161766464
30
0
41
1
10
44.3202491239556
20
-1.65151663360348
30
0
41
1
10
44.4058683502003
20
-1.76007426361542
30
0
41
1
10
44.5758523374818
20
-1.98878828601931
30
0
41
1
10
44.6599169001763
20
-2.10852325955361
30
0
41
1
10
44.7432575840928
20
-2.23327239751833
30
0
0
SPLINE
5
185
100
AcDbEntity
8
1
62
256
6
ByLayer
370
18
48
1
60
0
100
AcDbSpline
70
4
71
3
72
8
73
4
40
0
40
0
40
0
40
0
40
1
40
1
40
1
40
1
41
1
10
44.8942527180239
20
-2.3832516089353
30
0
41
1
10
44.8439046352594
20
-2.333663168356
30
0
41
1
10
44.793573562402
20
-2.28366928393942
30
0
41
1
10
44.7432575840924
20
-2.23327239751808
30
0
0
SPLINE
5
186
100
AcDbEntity
8
1
62
256
6
ByLayer
370
18
48
1
60
0
100
AcDbSpline
70
4
71
3
72
12
73
8
40
0
40
0
40
0
40
0
40
0.250000000000004
40
0.250000000000004
40
0.500000000000007
40
0.500000000000007
40
1
40
1
40
1
40
1
41
1
10
44.894252718023
20
-2.38325160892924
30
0
41
1
10
44.9372958313495
20
-2.40264881292728
30
0
41
1
10
44.9805166116742
20
-2.4199041526812
30
0
41
1
10
45.0673817550042
20
-2.45010554197233
30
0
41
1
10
45.1110462315868
20
-2.46305825770585
30
0
41
1
10
45.2425998598746
20
-2.49530435619528
30
0
41
1
10
45.3310800270885
20
-2.5080000210483
30
0
41
1
10
45.4203757086913
20
-2.5115345994075
30
0
0
SPLINE
5
187
100
AcDbEntity
8
1
62
256
6
ByLayer
370
18
48
1
60
0
100
AcDbSpline
70
4
71
3
72
30
73
26
40
0
40
0
40
0
40
0
40
0.125000000000014
40
0.125000000000014
40
0.187500000000002
40
0.187500000000002
40
0.249999999999989
40
0.249999999999989
40
0.374999999999965
40
0.374999999999965
40
0.499999999999941
40
0.499999999999941
40
0.624999999999917
40
0.624999999999917
40
0.68749999999993
40
0.68749999999993
40
0.749999999999944
40
0.749999999999944
40
0.812499999999958
40
0.812499999999958
40
0.874999999999972
40
0.874999999999972
40
0.937499999999986
40
0.937499999999986
40
1
40
1
40
1
40
1
41
1
10
45.4203757086914
20
-2.5115345994075
30
0
41
1
10
45.4315510234549
20
-2.51197695031419
30
0
41
1
10
45.444521043871
20
-2.51486077934615
30
0
41
1
10
45.4659342251483
20
-2.52180007617702
30
0
41
1
10
45.473419745908
20
-2.5245676239617
30
0
41
1
10
45.488962930839
20
-2.53091994470958
30
0
41
1
10
45.4969280588051
20
-2.53446581844969
30
0
41
1
10
45.5213385209622
20
-2.54610372916307
30
0
41
1
10
45.5382932689321
20
-2.55518285538389
30
0
41
1
10
45.5734122541259
20
-2.57583832838469
30
0
41
1
10
45.5916975127053
20
-2.58750955740405
30
0
41
1
10
45.6282811733995
20
-2.61271527137771
30
0
41
1
10
45.6467036947041
20
-2.62630552258221
30
0
41
1
10
45.6744962169704
20
-2.64840290295723
30
0
41
1
10
45.6837864017873
20
-2.65605730983916
30
0
41
1
10
45.7024128981528
20
-2.67203309196327
30
0
41
1
10
45.7116313999227
20
-2.68025483622671
30
0
41
1
10
45.7297539775361
20
-2.69713569752065
30
0
41
1
10
45.7386731707915
20
-2.70580687540871
30
0
41
1
10
45.7561751280498
20
-2.7236898669691
30
0
41
1
10
45.7648199400788
20
-2.73297369995308
30
0
41
1
10
45.7812891299849
20
-2.7517509338185
30
0
41
1
10
45.7891283372683
20
-2.76125013748341
30
0
41
1
10
45.8038748207641
20
-2.7805096165265
30
0
41
1
10
45.8108259331528
20
-2.79034037407988
30
0
41
1
10
45.8170306359838
20
-2.80008996135652
30
0
0
SPLINE
5
188
100
AcDbEntity
8
1
62
256
6
ByLayer
370
18
48
1
60
0
100
AcDbSpline
70
4
71
3
72
10
73
6
40
0
40
0
40
0
40
0
40
0.5
40
0.5
40
1
40
1
40
1
40
1
41
1
10
45.8170306359838
20
-2.80008996135626
30
0
41
1
10
45.903591455682
20
-2.93610489863369
30
0
41
1
10
45.989239417112
20
-3.07602216030071
30
0
41
1
10
46.1592739727049
20
-3.36308085582428
30
0
41
1
10
46.2433593230851
20
-3.50971681831945
30
0
41
1
10
46.3267228227959
20
-3.65911776788837
30
0
0
SPLINE
5
189
100
AcDbEntity
8
1
62
256
6
ByLayer
370
18
48
1
60
0
100
AcDbSpline
70
4
71
3
72
8
73
4
40
0
40
0
40
0
40
0
40
1
40
1
40
1
40
1
41
1
10
46.4777354242396
20
-3.77384494518742
30
0
41
1
10
46.4273711156402
20
-3.73627695923565
30
0
41
1
10
46.3770351284814
20
-3.69803331807577
30
0
41
1
10
46.3267228227959
20
-3.65911776788837
30
0
0
SPLINE
5
18A
100
AcDbEntity
8
1
62
256
6
ByLayer
370
18
48
1
60
0
100
AcDbSpline
70
4
71
3
72
12
73
8
40
0
40
0
40
0
40
0
40
0.25
40
0.25
40
0.5
40
0.5
40
1
40
1
40
1
40
1
41
1
10
46.4777354242396
20
-3.77384494518742
30
0
41
1
10
46.5207565447058
20
-3.76140275600156
30
0
41
1
10
46.5639547239917
20
-3.74683397143548
30
0
41
1
10
46.6507786085563
20
-3.71342667614113
30
0
41
1
10
46.6944255662203
20
-3.69457793723777
30
0
41
1
10
46.8259334949469
20
-3.6316733592727
30
0
41
1
10
46.9143921060665
20
-3.58125163925115
30
0
41
1
10
47.0036750306503
20
-3.52234725866788
30
0
0
SPLINE
5
18B
100
AcDbEntity
8
1
62
256
6
ByLayer
370
18
48
1
60
0
100
AcDbSpline
70
4
71
3
72
30
73
26
40
0
40
0
40
0
40
0
40
0.124999999999943
40
0.124999999999943
40
0.187499999999935
40
0.187499999999935
40
0.249999999999927
40
0.249999999999927
40
0.374999999999913
40
0.374999999999913
40
0.499999999999898
40
0.499999999999898
40
0.624999999999884
40
0.624999999999884
40
0.687499999999903
40
0.687499999999903
40
0.749999999999923
40
0.749999999999923
40
0.812499999999942
40
0.812499999999942
40
0.874999999999961
40
0.874999999999961
40
0.937499999999981
40
0.937499999999981
40
1
40
1
40
1
40
1
41
1
10
47.0036750306503
20
-3.52234725866788
30
0
41
1
10
47.0148610107477
20
-3.51496731192077
30
0
41
1
10
47.0278460856202
20
-3.51043703594061
30
0
41
1
10
47.0492865750206
20
-3.50669919597442
30
0
41
1
10
47.0567818290112
20
-3.50597843001091
30
0
41
1
10
47.0723472198954
20
-3.50551802620001
30
0
41
1
10
47.0803235927781
20
-3.50577927568744
30
0
41
1
10
47.1047684453366
20
-3.50788898087555
30
0
41
1
10
47.1217470259225
20
-3.5110461507428
30
0
41
1
10
47.1569176449881
20
-3.52064194382689
30
0
41
1
10
47.1752267969023
20
-3.5271536602032
30
0
41
1
10
47.2118339029552
20
-3.54318437209693
30
0
41
1
10
47.2302564528553
20
-3.55271656212906
30
0
41
1
10
47.2580311337539
20
-3.56958743579273
30
0
41
1
10
47.2673128558502
20
-3.57564402012477
30
0
41
1
10
47.2859190577477
20
-3.58874633639991
30
0
41
1
10
47.295111661369
20
-3.59570041895969
30
0
41
1
10
47.3131985007513
20
-3.61045873576356
30
0
41
1
10
47.3221005401235
20
-3.61826722177005
30
0
41
1
10
47.3395699968907
20
-3.63488107586184
30
0
41
1
10
47.3481986679013
20
-3.64375755189795
30
0
41
1
10
47.3646343184219
20
-3.662278429803
30
0
41
1
10
47.3724590293893
20
-3.67192611513454
30
0
41
1
10
47.3871812996697
20
-3.6921346327164
30
0
41
1
10
47.3941224553199
20
-3.70277464293122
30
0
41
1
10
47.4003203354795
20
-3.7137210190092
30
0
0
SPLINE
5
18C
100
AcDbEntity
8
1
62
256
6
ByLayer
370
18
48
1
60
0
100
AcDbSpline
70
4
71
3
72
12
73
8
40
0
40
0
40
0
40
0
40
0.499999999999989
40
0.499999999999989
40
0.749999999999995
40
0.749999999999995
40
1
40
1
40
1
40
1
41
1
10
47.4003203354795
20
-3.71372101900903
30
0
41
1
10
47.4756849765724
20
-3.84682615869235
30
0
41
1
10
47.5503607498813
20
-3.98083515818254
30
0
41
1
10
47.6616207385882
20
-4.18302352240647
30
0
41
1
10
47.6985859435308
20
-4.25062470614984
30
0
41
1
10
47.7721348219795
20
-4.38587753701589
30
0
41
1
10
47.8087401500607
20
-4.45356852850367
30
0
41
1
10
47.8451992432448
20
-4.52131217817436
30
0
0
SPLINE
5
18D
100
AcDbEntity
8
1
62
256
6
ByLayer
370
18
48
1
60
0
100
AcDbSpline
70
4
71
3
72
12
73
8
40
0
40
0
40
0
40
0
40
0.249999999999999
40
0.249999999999999
40
0.499999999999999
40
0.499999999999999
40
1
40
1
40
1
40
1
41
1
10
47.8451992432448
20
-4.52131217817436
30
0
41
1
10
47.872589603574
20
-4.52830882222386
30
0
41
1
10
47.9000431595594
20
-4.53500606800503
30
0
41
1
10
47.9550809022608
20
-4.54779670371167
30
0
41
1
10
47.9826629278591
20
-4.5538888828861
30
0
41
1
10
48.0653271913911
20
-4.57119727491602
30
0
41
1
10
48.1204217736771
20
-4.58146782732581
30
0
41
1
10
48.1755119774952
20
-4.59048869706552
30
0
0
SPLINE
5
18E
100
AcDbEntity
8
1
62
256
6
ByLayer
370
18
48
1
60
0
100
AcDbSpline
70
4
71
3
72
10
73
6
40
0
40
0
40
0
40
0
40
0.5
40
0.5
40
1
40
1
40
1
40
1
41
1
10
48.1755119774948
20
-4.5904886970651
30
0
41
1
10
48.2430717061339
20
-4.51891343346819
30
0
41
1
10
48.3111807690424
20
-4.44283649377562
30
0
41
1
10
48.4483445465799
20
-4.28213265301446
30
0
41
1
10
48.5174089390312
20
-4.19750010527218
30
0
41
1
10
48.5869653022309
20
-4.1087237626792
30
0
0
SPLINE
5
18F
100
AcDbEntity
8
1
62
256
6
ByLayer
370
18
48
1
60
0
100
AcDbSpline
70
4
71
3
72
30
73
26
40
0
40
0
40
0
40
0
40
0.124999999999966
40
0.124999999999966
40
0.187499999999969
40
0.187499999999969
40
0.249999999999971
40
0.249999999999971
40
0.374999999999976
40
0.374999999999976
40
0.499999999999981
40
0.499999999999981
40
0.624999999999986
40
0.624999999999986
40
0.687499999999988
40
0.687499999999988
40
0.74999999999999
40
0.74999999999999
40
0.812499999999993
40
0.812499999999993
40
0.874999999999995
40
0.874999999999995
40
0.937499999999998
40
0.937499999999998
40
1
40
1
40
1
40
1
41
1
10
48.5869653022309
20
-4.1087237626792
30
0
41
1
10
48.5981638345067
20
-4.09443082538303
30
0
41
1
10
48.6111652557238
20
-4.08305349815097
30
0
41
1
10
48.6326325448844
20
-4.06911990613386
30
0
41
1
10
48.6401371612662
20
-4.06500803247366
30
0
41
1
10
48.6557219907201
20
-4.05781024763382
30
0
41
1
10
48.6637078387101
20
-4.05476544071473
30
0
41
1
10
48.6881802879423
20
-4.04712302214165
30
0
41
1
10
48.7051762027696
20
-4.04399830316706
30
0
41
1
10
48.7403788356359
20
-4.04141871313843
30
0
41
1
10
48.7587011497582
20
-4.04200679632015
30
0
41
1
10
48.7953228160201
20
-4.04695671201432
30
0
41
1
10
48.8137480309042
20
-4.05128448250008
30
0
41
1
10
48.8415147054182
20
-4.06088529435959
30
0
41
1
10
48.8507918603826
20
-4.06460866651398
30
0
41
1
10
48.8693848850204
20
-4.07324411034881
30
0
41
1
10
48.8785611026595
20
-4.07809221985821
30
0
41
1
10
48.8966222779744
20
-4.08893646758443
30
0
41
1
10
48.9055107536569
20
-4.09493276200314
30
0
41
1
10
48.9229522277055
20
-4.10825312681996
30
0
41
1
10
48.9315660870952
20
-4.11563901512523
30
0
41
1
10
48.9479748913116
20
-4.13164559557669
30
0
41
1
10
48.9557876458476
20
-4.14026359360179
30
0
41
1
10
48.9704898828373
20
-4.15894965713406
30
0
41
1
10
48.9774231489196
20
-4.16909620727262
30
0
41
1
10
48.983617002447
20
-4.1799001708489
30
0
0
SPLINE
5
190
100
AcDbEntity
8
1
62
256
6
ByLayer
370
18
48
1
60
0
100
AcDbSpline
70
4
71
3
72
8
73
4
40
0
40
0
40
0
40
0
40
1
40
1
40
1
40
1
41
1
10
48.983617002447
20
-4.17990017084887
30
0
41
1
10
49.0674933574825
20
-4.32620603370316
30
0
41
1
10
49.150537970517
20
-4.47100847276542
30
0
41
1
10
49.2329699148118
20
-4.61419826999898
30
0
0
SPLINE
5
191
100
AcDbEntity
8
1
62
256
6
ByLayer
370
18
48
1
60
0
100
AcDbSpline
70
4
71
3
72
14
73
10
40
0
40
0
40
0
40
0
40
0.499999999999988
40
0.499999999999988
40
0.749999999999982
40
0.749999999999982
40
0.874999999999991
40
0.874999999999991
40
1
40
1
40
1
40
1
41
1
10
49.2329699148118
20
-4.61419826999898
30
0
41
1
10
49.3630585982773
20
-4.59911473268824
30
0
41
1
10
49.4942283208438
20
-4.57750794999635
30
0
41
1
10
49.6929145681936
20
-4.53520276428307
30
0
41
1
10
49.7594673274908
20
-4.51945071264529
30
0
41
1
10
49.8598217252912
20
-4.49332775656146
30
0
41
1
10
49.8933917140323
20
-4.48419527288885
30
0
41
1
10
49.9605394279593
20
-4.4651446700741
30
0
41
1
10
49.994107728496
20
-4.45523014475407
30
0
41
1
10
50.0276718744591
20
-4.44493119106897
30
0
0
SPLINE
5
192
100
AcDbEntity
8
1
62
256
6
ByLayer
370
18
48
1
60
0
100
AcDbSpline
70
4
71
3
72
8
73
4
40
0
40
0
40
0
40
0
40
1
40
1
40
1
40
1
41
1
10
50.0276718744591
20
-4.444931191069
30
0
41
1
10
50.0749906680451
20
-4.36455046188848
30
0
41
1
10
50.1225123158017
20
-4.28288557664041
30
0
41
1
10
50.1702846674989
20
-4.19994154631402
30
0
0
SPLINE
5
193
100
AcDbEntity
8
1
62
256
6
ByLayer
370
18
48
1
60
0
100
AcDbSpline
70
4
71
3
72
28
73
24
40
0
40
0
40
0
40
0
40
0.124999999999999
40
0.124999999999999
40
0.187499999999979
40
0.187499999999979
40
0.249999999999958
40
0.249999999999958
40
0.374999999999965
40
0.374999999999965
40
0.499999999999972
40
0.499999999999972
40
0.624999999999979
40
0.624999999999979
40
0.749999999999986
40
0.749999999999986
40
0.812499999999989
40
0.812499999999989
40
0.874999999999993
40
0.874999999999993
40
0.937499999999996
40
0.937499999999996
40
1
40
1
40
1
40
1
41
1
10
50.1702846674989
20
-4.19994154631402
30
0
41
1
10
50.1814864055049
20
-4.18049269642762
30
0
41
1
10
50.1944933536651
20
-4.16366416981626
30
0
41
1
10
50.2159713804729
20
-4.14124351415413
30
0
41
1
10
50.2234794298987
20
-4.13424504419663
30
0
41
1
10
50.2390745468945
20
-4.12119095166179
30
0
41
1
10
50.2470654399592
20
-4.11521317562588
30
0
41
1
10
50.2715526692576
20
-4.09875664331653
30
0
41
1
10
50.2885579874782
20
-4.08973607480183
30
0
41
1
10
50.3237782211437
20
-4.07530868187351
30
0
41
1
10
50.342107313321
20
-4.06991120980902
30
0
41
1
10
50.378735694699
20
-4.06319773798964
30
0
41
1
10
50.3971609710617
20
-4.06180265588239
30
0
41
1
10
50.4341846045511
20
-4.06336978531931
30
0
41
1
10
50.4529450265291
20
-4.06639953083376
30
0
41
1
10
50.480022465767
20
-4.07484209513822
30
0
41
1
10
50.4889049113231
20
-4.07830523194528
30
0
41
1
10
50.5063301656142
20
-4.08672558084646
30
0
41
1
10
50.5149333215471
20
-4.09172786475366
30
0
41
1
10
50.5313166427423
20
-4.10327482871475
30
0
41
1
10
50.5391153610562
20
-4.10981166458541
30
0
41
1
10
50.5537896001982
20
-4.12468594414986
30
0
41
1
10
50.5607090320256
20
-4.13309111508045
30
0
41
1
10
50.5668937557974
20
-4.14242059144959
30
0
0
SPLINE
5
194
100
AcDbEntity
8
1
62
256
6
ByLayer
370
18
48
1
60
0
100
AcDbSpline
70
4
71
3
72
8
73
4
40
0
40
0
40
0
40
0
40
1
40
1
40
1
40
1
41
1
10
50.5668937557973
20
-4.14242059144965
30
0
41
1
10
50.5849853643516
20
-4.1697112580523
30
0
41
1
10
50.6030358729695
20
-4.19681101973518
30
0
41
1
10
50.62105006036
20
-4.2237285482008
30
0
0
SPLINE
5
195
100
AcDbEntity
8
1
62
256
6
ByLayer
370
18
48
1
60
0
100
AcDbSpline
70
4
71
3
72
12
73
8
40
0
40
0
40
0
40
0
40
0.499999999999989
40
0.499999999999989
40
0.749999999999994
40
0.749999999999994
40
1
40
1
40
1
40
1
41
1
10
50.6210500603601
20
-4.22372854820065
30
0
41
1
10
50.7812433809232
20
-4.15383055103925
30
0
41
1
10
50.9427635706511
20
-4.07576490269585
30
0
41
1
10
51.1873383636913
20
-3.94707823739137
30
0
41
1
10
51.2692442609777
20
-3.90224469100502
30
0
41
1
10
51.4339201685354
20
-3.80875035339054
30
0
41
1
10
51.5166499105154
20
-3.76008160934541
30
0
41
1
10
51.5999999284123
20
-3.70953157002131
30
0
0
SPLINE
5
196
100
AcDbEntity
8
1
62
256
6
ByLayer
370
18
48
1
60
0
100
AcDbSpline
70
4
71
3
72
12
73
8
40
0
40
0
40
0
40
0
40
0.250000000000009
40
0.250000000000009
40
0.500000000000018
40
0.500000000000018
40
1
40
1
40
1
40
1
41
1
10
51.5999999284123
20
-3.70953157002131
30
0
41
1
10
51.6319555206332
20
-3.66680647380161
30
0
41
1
10
51.6642124202973
20
-3.62385304603498
30
0
41
1
10
51.7294414108618
20
-3.53752966534623
30
0
41
1
10
51.7624236465901
20
-3.49413524382209
30
0
41
1
10
51.8623979661108
20
-3.36360158753442
30
0
41
1
10
51.9304339771803
20
-3.27609137896812
30
0
41
1
10
51.9999999999999
20
-3.18874204052287
30
0
0
SPLINE
5
197
100
AcDbEntity
8
1
62
256
6
ByLayer
370
18
48
1
60
0
100
AcDbSpline
70
4
71
3
72
28
73
24
40
0
40
0
40
0
40
0
40
0.0942374245695585
40
0.0942374245695585
40
0.188474849139117
40
0.188474849139117
40
0.376949698278234
40
0.376949698278234
40
0.471187122847792
40
0.471187122847792
40
0.518305835132572
40
0.518305835132572
40
0.565424547417351
40
0.565424547417351
40
0.659661971986911
40
0.659661971986911
40
0.683221328129301
40
0.683221328129301
40
0.706780684271691
40
0.706780684271691
40
0.75389939655647
40
0.75389939655647
40
1
40
1
40
1
40
1
41
1
10
52
20
-3.18874204052284
30
0
41
1
10
52
20
-3.13948920990748
30
0
41
1
10
52
20
-3.09123254435056
30
0
41
1
10
52
20
-2.99689313412631
30
0
41
1
10
52
20
-2.95147279668257
30
0
41
1
10
52
20
-2.82036059173569
30
0
41
1
10
52
20
-2.73970555879174
30
0
41
1
10
52
20
-2.62890750484814
30
0
41
1
10
52
20
-2.5936827379777
30
0
41
1
10
52
20
-2.54346780341356
30
0
41
1
10
52
20
-2.52726090681384
30
0
41
1
10
52
20
-2.49599406807184
30
0
41
1
10
52.0000000000001
20
-2.48091670563983
30
0
41
1
10
52.0000000000001
20
-2.43734213199417
30
0
41
1
10
52
20
-2.41051709772384
30
0
41
1
10
52
20
-2.3796140734429
30
0
41
1
10
52
20
-2.37356189093461
30
0
41
1
10
52
20
-2.36150649006393
30
0
41
1
10
52
20
-2.35550023972934
30
0
41
1
10
52
20
-2.33759841639881
30
0
41
1
10
52
20
-2.32582589040575
30
0
41
1
10
52
20
-2.25351454202399
30
0
41
1
10
52
20
-2.19695416009796
30
0
41
1
10
52
20
-2.14456804052347
30
0
0
SPLINE
5
198
100
AcDbEntity
8
1
62
256
6
ByLayer
370
18
48
1
60
0
100
AcDbSpline
70
4
71
3
72
14
73
10
40
0
40
0
40
0
40
0
40
0.499999999999955
40
0.499999999999955
40
0.749999999999955
40
0.749999999999955
40
0.874999999999978
40
0.874999999999978
40
1
40
1
40
1
40
1
41
1
10
52.0000000000001
20
-2.09096908824859
30
0
41
1
10
51.9366702556234
20
-2.08664083107945
30
0
41
1
10
51.872859379758
20
-2.08224042809888
30
0
41
1
10
51.7764526460122
20
-2.07580084073595
30
0
41
1
10
51.7442051054003
20
-2.07367366593627
30
0
41
1
10
51.6956486225499
20
-2.07061583304508
30
0
41
1
10
51.6794268611252
20
-2.06963613005541
30
0
41
1
10
51.646924784598
20
-2.06772112564005
30
0
41
1
10
51.630653724452
20
-2.06675624978846
30
0
41
1
10
51.6144036196313
20
-2.06565063054342
30
0
0
SPLINE
5
199
100
AcDbEntity
8
1
62
256
6
ByLayer
370
18
48
1
60
0
100
AcDbSpline
70
4
71
3
72
18
73
14
40
0
40
0
40
0
40
0
40
0.24999999999994
40
0.24999999999994
40
0.49999999999988
40
0.49999999999988
40
0.62499999999991
40
0.62499999999991
40
0.74999999999994
40
0.74999999999994
40
0.87499999999997
40
0.87499999999997
40
1
40
1
40
1
40
1
41
1
10
51.6144036196313
20
-2.06565063054345
30
0
41
1
10
51.5987221463556
20
-2.05165807860107
30
0
41
1
10
51.5828963913473
20
-2.03864542172681
30
0
41
1
10
51.550997115394
20
-2.01460665243462
30
0
41
1
10
51.5349236507574
20
-2.00357644110036
30
0
41
1
10
51.5106346213963
20
-1.98875372019575
30
0
41
1
10
51.5024689439676
20
-1.98408219580398
30
0
41
1
10
51.4862769245678
20
-1.97550825388106
30
0
41
1
10
51.4782778472898
20
-1.97161667351298
30
0
41
1
10
51.4625012191885
20
-1.96469871064591
30
0
41
1
10
51.4547233830495
20
-1.96167146683567
30
0
41
1
10
51.4394296230399
20
-1.95661317337564
30
0
41
1
10
51.4318799534079
20
-1.95458014570227
30
0
41
1
10
51.4246856695476
20
-1.95318390477411
30
0
0
SPLINE
5
19A
100
AcDbEntity
8
1
62
256
6
ByLayer
370
18
48
1
60
0
100
AcDbSpline
70
4
71
3
72
12
73
8
40
0
40
0
40
0
40
0
40
0.50000000000001
40
0.50000000000001
40
0.750000000000005
40
0.750000000000005
40
1
40
1
40
1
40
1
41
1
10
51.4246856695476
20
-1.9531839047749
30
0
41
1
10
51.237686784598
20
-1.83134471736295
30
0
41
1
10
51.0533098014828
20
-1.70184807868139
30
0
41
1
10
50.7792549385969
20
-1.49747764379879
30
0
41
1
10
50.6883123362593
20
-1.42767684896768
30
0
41
1
10
50.5070533533557
20
-1.28488411907171
30
0
41
1
10
50.4167658655297
20
-1.21185849442693
30
0
41
1
10
50.3267850854003
20
-1.13719943471315
30
0
0
SPLINE
5
19B
100
AcDbEntity
8
1
62
256
6
ByLayer
370
18
48
1
60
0
100
AcDbSpline
70
4
71
3
72
8
73
4
40
0
40
0
40
0
40
0
40
1
40
1
40
1
40
1
41
1
10
50.3267850854003
20
-1.13719943471315
30
0
41
1
10
50.2834666570984
20
-1.06216550877832
30
0
41
1
10
50.2399928292653
20
-0.988495088693611
30
0
41
1
10
50.1963215236038
20
-0.91623227488472
30
0
0
SPLINE
5
19C
100
AcDbEntity
8
1
62
256
6
ByLayer
370
18
48
1
60
0
100
AcDbSpline
70
4
71
3
72
34
73
30
40
0
40
0
40
0
40
0
40
0.124999999999971
40
0.124999999999971
40
0.187499999999957
40
0.187499999999957
40
0.249999999999942
40
0.249999999999942
40
0.374999999999914
40
0.374999999999914
40
0.437499999999924
40
0.437499999999924
40
0.499999999999934
40
0.499999999999934
40
0.624999999999954
40
0.624999999999954
40
0.687499999999964
40
0.687499999999964
40
0.749999999999973
40
0.749999999999973
40
0.812499999999983
40
0.812499999999983
40
0.843749999999987
40
0.843749999999987
40
0.87499999999999
40
0.87499999999999
40
0.937499999999995
40
0.937499999999995
40
1
40
1
40
1
40
1
41
1
10
50.1963215236035
20
-0.916232274883868
30
0
41
1
10
50.185400817773
20
-0.898161806869666
30
0
41
1
10
50.1727483283313
20
-0.879827059964356
30
0
41
1
10
50.1518322893396
20
-0.852054296978423
30
0
41
1
10
50.1445161832553
20
-0.84273382416464
30
0
41
1
10
50.129318475219
20
-0.824072350362798
30
0
41
1
10
50.1215161853397
20
-0.814827326941412
30
0
41
1
10
50.0975590884526
20
-0.787321944791756
30
0
41
1
10
50.0808603152815
20
-0.769289039450371
30
0
41
1
10
50.0548108356827
20
-0.742640484758994
30
0
41
1
10
50.0459590545441
20
-0.733825069708615
30
0
41
1
10
50.0279144892042
20
-0.716325607152726
30
0
41
1
10
50.018794235165
20
-0.707713018621746
30
0
41
1
10
49.9913647330756
20
-0.682474807072651
30
0
41
1
10
49.9729003922266
20
-0.66635491817047
30
0
41
1
10
49.9449658129192
20
-0.643301818203327
30
0
41
1
10
49.9356142116381
20
-0.6358070614734
30
0
41
1
10
49.9168307196861
20
-0.621238875162305
30
0
41
1
10
49.9073956707848
20
-0.614166758786126
30
0
41
1
10
49.8889127624196
20
-0.600842992569739
30
0
41
1
10
49.879809681031
20
-0.594547039144544
30
0
41
1
10
49.8664027243284
20
-0.585731226319581
30
0
41
1
10
49.8619751987354
20
-0.582897804062924
30
0
41
1
10
49.85321284417
20
-0.577462869806851
30
0
41
1
10
49.8488749076806
20
-0.574860425573064
30
0
41
1
10
49.8362210899014
20
-0.567556656623566
30
0
41
1
10
49.8281947070664
20
-0.563310704181362
30
0
41
1
10
49.8131107953517
20
-0.556292753092777
30
0
41
1
10
49.8060143350682
20
-0.553513371087462
30
0
41
1
10
49.7997253472149
20
-0.551734299102691
30
0
0
SPLINE
5
19D
100
AcDbEntity
8
1
62
256
6
ByLayer
370
18
48
1
60
0
100
AcDbSpline
70
4
71
3
72
8
73
4
40
0
40
0
40
0
40
0
40
1
40
1
40
1
40
1
41
1
10
49.799725347215
20
-0.551734299104396
30
0
41
1
10
49.7218795328147
20
-0.529712741619733
30
0
41
1
10
49.6447085417304
20
-0.500988567749801
30
0
41
1
10
49.5680302261246
20
-0.465808347472176
30
0
0
SPLINE
5
19E
100
AcDbEntity
8
1
62
256
6
ByLayer
370
18
48
1
60
0
100
AcDbSpline
70
4
71
3
72
12
73
8
40
0
40
0
40
0
40
0
40
0.25
40
0.25
40
0.5
40
0.5
40
1
40
1
40
1
40
1
41
1
10
49.5680302261246
20
-0.465808347472148
30
0
41
1
10
49.5157418077559
20
-0.416866038245985
30
0
41
1
10
49.4634477832183
20
-0.367409073630455
30
0
41
1
10
49.3589399448085
20
-0.267605160916332
30
0
41
1
10
49.3069043118324
20
-0.217428716169536
30
0
41
1
10
49.1513894823474
20
-0.0661357343498139
30
0
41
1
10
49.0485132419993
20
0.0357557547538363
30
0
41
1
10
48.9462390863677
20
0.138485554044507
30
0
0
SPLINE
5
19F
100
AcDbEntity
8
1
62
256
6
ByLayer
370
18
48
1
60
0
100
AcDbSpline
70
4
71
3
72
10
73
6
40
0
40
0
40
0
40
0
40
0.5
40
0.5
40
1
40
1
40
1
40
1
41
1
10
48.9462390863679
20
0.138485554044507
30
0
41
1
10
48.8912866549151
20
0.213496289959181
30
0
41
1
10
48.8360142405183
20
0.285615919383019
30
0
41
1
10
48.7248655725205
20
0.423726232521688
30
0
41
1
10
48.6690198708453
20
0.489696827697912
30
0
41
1
10
48.6128625323748
20
0.552454648728428
30
0
0
SPLINE
5
1A0
100
AcDbEntity
8
1
62
256
6
ByLayer
370
18
48
1
60
0
100
AcDbSpline
70
4
71
3
72
34
73
30
40
0
40
0
40
0
40
0
40
0.125000000000059
40
0.125000000000059
40
0.187500000000069
40
0.187500000000069
40
0.250000000000079
40
0.250000000000079
40
0.375000000000099
40
0.375000000000099
40
0.437500000000109
40
0.437500000000109
40
0.500000000000119
40
0.500000000000119
40
0.62500000000009
40
0.62500000000009
40
0.687500000000075
40
0.687500000000075
40
0.75000000000006
40
0.75000000000006
40
0.812500000000045
40
0.812500000000045
40
0.843750000000037
40
0.843750000000037
40
0.87500000000003
40
0.87500000000003
40
0.937500000000015
40
0.937500000000015
40
1
40
1
40
1
40
1
41
1
10
48.6128625323745
20
0.552454648728798
30
0
41
1
10
48.601942196634
20
0.564658511922204
30
0
41
1
10
48.5892893757079
20
0.578011752698416
30
0
41
1
10
48.568371079017
20
0.599288863389262
30
0
41
1
10
48.5610541164753
20
0.606608107680785
30
0
41
1
10
48.5458533538319
20
0.621595077627347
30
0
41
1
10
48.5380493968144
20
0.629184550972752
30
0
41
1
10
48.5140869478743
20
0.652218451955463
30
0
41
1
10
48.4973839163762
20
0.667924100732279
30
0
41
1
10
48.4713285640256
20
0.692013080333794
30
0
41
1
10
48.4624749571816
20
0.700132265778791
30
0
41
1
10
48.4444266913135
20
0.716564668776016
30
0
41
1
10
48.4353060763184
20
0.724810280752877
30
0
41
1
10
48.4078738616453
20
0.749464491720659
30
0
41
1
10
48.3894076811411
20
0.76586808860452
30
0
41
1
10
48.3614715677737
20
0.790490695342839
30
0
41
1
10
48.3521196996201
20
0.798701151059305
30
0
41
1
10
48.3333367377063
20
0.815141948362111
30
0
41
1
10
48.3239052754491
20
0.82337231960517
30
0
41
1
10
48.3054295365467
20
0.839461310781331
30
0
41
1
10
48.2963301701101
20
0.84736827101176
30
0
41
1
10
48.2829288964774
20
0.85899790483279
30
0
41
1
10
48.2785032833636
20
0.862835792056018
30
0
41
1
10
48.2697447706902
20
0.870426989665276
30
0
41
1
10
48.2654093515941
20
0.874182470532872
30
0
41
1
10
48.2527629493708
20
0.885132024136396
30
0
41
1
10
48.244741199382
20
0.89207094388496
30
0
41
1
10
48.2296656099172
20
0.905095344290174
30
0
41
1
10
48.222572982849
20
0.91121422567025
30
0
41
1
10
48.2162869405544
20
0.916617336582476
30
0
0
SPLINE
5
1A1
100
AcDbEntity
8
1
62
256
6
ByLayer
370
18
48
1
60
0
100
AcDbSpline
70
4
71
3
72
10
73
6
40
0
40
0
40
0
40
0
40
0.5
40
0.5
40
1
40
1
40
1
40
1
41
1
10
48.2162869405517
20
0.916617336582675
30
0
41
1
10
48.1328897952282
20
0.98830060004542
30
0
41
1
10
48.050274888203
20
1.06682177644709
30
0
41
1
10
47.8861495708046
20
1.23686381528432
30
0
41
1
10
47.8049310893996
20
1.3280682532307
30
0
41
1
10
47.7243771559516
20
1.42505644171683
30
0
0
SPLINE
5
1A2
100
AcDbEntity
8
1
62
256
6
ByLayer
370
18
48
1
60
0
100
AcDbSpline
70
4
71
3
72
8
73
4
40
0
40
0
40
0
40
0
40
1
40
1
40
1
40
1
41
1
10
47.7243771559517
20
1.42505644171683
30
0
41
1
10
47.6876434633851
20
1.46507008518066
30
0
41
1
10
47.6509292534074
20
1.50513937427866
30
0
41
1
10
47.6142276535098
20
1.54525805211583
30
0
0
SPLINE
5
1A3
100
AcDbEntity
8
1
62
256
6
ByLayer
370
18
48
1
60
0
100
AcDbSpline
70
4
71
3
72
8
73
4
40
0
40
0
40
0
40
0
40
1
40
1
40
1
40
1
41
1
10
47.5576684444496
20
1.60555888604552
30
0
41
1
10
47.5765247834281
20
1.58549620124137
30
0
41
1
10
47.5953775401579
20
1.56539564488199
30
0
41
1
10
47.6142276535098
20
1.54525805211583
30
0
0
SPLINE
5
1A4
100
AcDbEntity
8
1
62
256
6
ByLayer
370
18
48
1
60
0
100
AcDbSpline
70
4
71
3
72
14
73
10
40
0
40
0
40
0
40
0
40
0.25
40
0.25
40
0.5
40
0.5
40
0.75
40
0.75
40
1
40
1
40
1
40
1
41
1
10
47.5576684444496
20
1.60555888604552
30
0
41
1
10
47.5144132287634
20
1.64338267705969
30
0
41
1
10
47.4709965535562
20
1.67910459881304
30
0
41
1
10
47.3837529382927
20
1.74625138643586
30
0
41
1
10
47.3399041170405
20
1.77768712952215
30
0
41
1
10
47.2518472711891
20
1.83605080966282
30
0
41
1
10
47.2076179650697
20
1.86299596377873
30
0
41
1
10
47.1187784230598
20
1.91227058152279
30
0
41
1
10
47.0741865428068
20
1.93459141176658
30
0
41
1
10
47.0293858160706
20
1.95457290601328
30
0
0
SPLINE
5
1A5
100
AcDbEntity
8
1
62
256
6
ByLayer
370
18
48
1
60
0
100
AcDbSpline
70
4
71
3
72
34
73
30
40
0
40
0
40
0
40
0
40
0.12500000000002
40
0.12500000000002
40
0.187500000000029
40
0.187500000000029
40
0.250000000000038
40
0.250000000000038
40
0.375000000000056
40
0.375000000000056
40
0.437500000000064
40
0.437500000000064
40
0.500000000000073
40
0.500000000000073
40
0.625000000000092
40
0.625000000000092
40
0.687500000000101
40
0.687500000000101
40
0.750000000000111
40
0.750000000000111
40
0.81250000000012
40
0.81250000000012
40
0.8437500000001
40
0.8437500000001
40
0.87500000000008
40
0.87500000000008
40
0.93750000000004
40
0.93750000000004
40
1
40
1
40
1
40
1
41
1
10
47.0293858160706
20
1.95457290601328
30
0
41
1
10
47.018462801155
20
1.9594446609064
30
0
41
1
10
47.005806665006
20
1.96621345907946
30
0
41
1
10
46.9848826191741
20
1.97844028493375
30
0
41
1
10
46.9775636469496
20
1.9828796935071
30
0
41
1
10
46.9623587813079
20
1.99239212065035
30
0
41
1
10
46.9545528425389
20
1.99741460131472
30
0
41
1
10
46.9305848514438
20
2.01321100511711
30
0
41
1
10
46.9138786671692
20
2.02470387679273
30
0
41
1
10
46.887820097845
20
2.04334005864308
30
0
41
1
10
46.8789656790971
20
2.04978762782306
30
0
41
1
10
46.8609164979389
20
2.06317878333988
30
0
41
1
10
46.8517958304487
20
2.07006809053135
30
0
41
1
10
46.8243637371491
20
2.0911787068278
30
0
41
1
10
46.8058981193091
20
2.10589687573213
30
0
41
1
10
46.7779643036548
20
2.12913212019066
30
0
41
1
10
46.7686134916802
20
2.13707210589933
30
0
41
1
10
46.7498331043083
20
2.15340942037847
30
0
41
1
10
46.7404032926358
20
2.16181019773214
30
0
41
1
10
46.721930759301
20
2.17873223206652
30
0
41
1
10
46.7128330174073
20
2.18730004661072
30
0
41
1
10
46.6994341626367
20
2.20034495575581
30
0
41
1
10
46.6950093522822
20
2.20472559518225
30
0
41
1
10
46.6862524238127
20
2.21355940207906
30
0
41
1
10
46.6819177521324
20
2.21801610584723
30
0
41
1
10
46.6692733995263
20
2.23129347538543
30
0
41
1
10
46.6612528185962
20
2.24008914660399
30
0
41
1
10
46.6461791085923
20
2.25754801988342
30
0
41
1
10
46.6390870985652
20
2.26626683212396
30
0
41
1
10
46.6328013854056
20
2.27463944942952
30
0
0
SPLINE
5
1A6
100
AcDbEntity
8
1
62
256
6
ByLayer
370
18
48
1
60
0
100
AcDbSpline
70
4
71
3
72
10
73
6
40
0
40
0
40
0
40
0
40
0.5
40
0.5
40
1
40
1
40
1
40
1
41
1
10
46.6328013854057
20
2.27463944942809
30
0
41
1
10
46.5466910461184
20
2.38933907039436
30
0
41
1
10
46.4614210312646
20
2.50948459525836
30
0
41
1
10
46.2920499784032
20
2.75997622038551
30
0
41
1
10
46.2082710863582
20
2.88983734266742
30
0
41
1
10
46.1252004384085
20
3.02391381288172
30
0
0
SPLINE
5
1A7
100
AcDbEntity
8
1
62
256
6
ByLayer
370
18
48
1
60
0
100
AcDbSpline
70
4
71
3
72
8
73
4
40
0
40
0
40
0
40
0
40
1
40
1
40
1
40
1
41
1
10
45.974185978201
20
3.1581912819033
30
0
41
1
10
46.0245431861935
20
3.11399010490507
30
0
41
1
10
46.0748761643636
20
3.06922685572948
30
0
41
1
10
46.1252004384071
20
3.02391381288899
30
0
0
SPLINE
5
1A8
100
AcDbEntity
8
1
62
256
6
ByLayer
370
18
48
1
60
0
100
AcDbSpline
70
4
71
3
72
14
73
10
40
0
40
0
40
0
40
0
40
0.25
40
0.25
40
0.5
40
0.5
40
0.75
40
0.75
40
1
40
1
40
1
40
1
41
1
10
45.974185978201
20
3.1581912819033
30
0
41
1
10
45.9309196724083
20
3.16416954674113
30
0
41
1
10
45.8874924517551
20
3.16791496453871
30
0
41
1
10
45.8002368405498
20
3.1708614853022
30
0
41
1
10
45.7563874894407
20
3.17005992316652
30
0
41
1
10
45.6683434217265
20
3.16381466319785
30
0
41
1
10
45.6241265112018
20
3.15837199533448
30
0
41
1
10
45.5353001348833
20
3.14273588962033
30
0
41
1
10
45.4907147000382
20
3.13256769778249
30
0
41
1
10
45.4459171149399
20
3.12003625671702
30
0
0
SPLINE
5
1A9
100
AcDbEntity
8
1
62
256
6
ByLayer
370
18
48
1
60
0
100
AcDbSpline
70
4
71
3
72
34
73
30
40
0
40
0
40
0
40
0
40
0.124999999999941
40
0.124999999999941
40
0.187499999999931
40
0.187499999999931
40
0.249999999999922
40
0.249999999999922
40
0.3749999999999
40
0.3749999999999
40
0.437499999999915
40
0.437499999999915
40
0.499999999999929
40
0.499999999999929
40
0.624999999999909
40
0.624999999999909
40
0.687499999999925
40
0.687499999999925
40
0.74999999999994
40
0.74999999999994
40
0.812499999999956
40
0.812499999999956
40
0.843749999999964
40
0.843749999999964
40
0.874999999999971
40
0.874999999999971
40
0.937499999999985
40
0.937499999999985
40
1
40
1
40
1
40
1
41
1
10
45.4459171149399
20
3.12003625671684
30
0
41
1
10
45.4349962160936
20
3.11698130185769
30
0
41
1
10
45.4223423095075
20
3.11633968571243
30
0
41
1
10
45.401419949602
20
3.11802489739995
30
0
41
1
10
45.3941014436742
20
3.11904306034927
30
0
41
1
10
45.3788961932601
20
3.12192133465771
30
0
41
1
10
45.3710898399138
20
3.12376480520996
30
0
41
1
10
45.3471199224962
20
3.13039971170488
30
0
41
1
10
45.3304115353948
20
3.13628108249213
30
0
41
1
10
45.3043482802915
20
3.14719894155417
30
0
41
1
10
45.2954920737728
20
3.15119146126853
30
0
41
1
10
45.2774388967968
20
3.15991500290033
30
0
41
1
10
45.2683175480803
20
3.16461097933484
30
0
41
1
10
45.2408817997389
20
3.17961465918356
30
0
41
1
10
45.2224137844817
20
3.19086159281792
30
0
41
1
10
45.1944768511258
20
3.20989161818676
30
0
41
1
10
45.1851250793874
20
3.21659837626334
30
0
41
1
10
45.1663429976543
20
3.2308517740407
30
0
41
1
10
45.1569153353926
20
3.23840270737989
30
0
41
1
10
45.1384470946047
20
3.25410234876108
30
0
41
1
10
45.1293516002787
20
3.26229023353247
30
0
41
1
10
45.1159562329492
20
3.27516562634506
30
0
41
1
10
45.1115326045037
20
3.27955680198985
30
0
41
1
10
45.102778071305
20
3.28855993117051
30
0
41
1
10
45.0984452637777
20
3.29317564467488
30
0
41
1
10
45.0858064810032
20
3.30716508832464
30
0
41
1
10
45.0777894511688
20
3.31674692263852
30
0
41
1
10
45.0627222563334
20
3.33651485029603
30
0
41
1
10
45.0556334821572
20
3.3467717855979
30
0
41
1
10
45.0493503907318
20
3.35709359536509
30
0
0
SPLINE
5
1AA
100
AcDbEntity
8
1
62
256
6
ByLayer
370
18
48
1
60
0
100
AcDbSpline
70
4
71
3
72
10
73
6
40
0
40
0
40
0
40
0
40
0.5
40
0.5
40
1
40
1
40
1
40
1
41
1
10
45.049350390732
20
3.35709359536406
30
0
41
1
10
44.9632313130508
20
3.49856929211384
30
0
41
1
10
44.8779616436478
20
3.64300340091918
30
0
41
1
10
44.7085971071303
20
3.93726583327768
30
0
41
1
10
44.624826437323
20
4.08652474872258
30
0
41
1
10
44.5417600036557
20
4.23756990690339
30
0
0
SPLINE
5
1AB
100
AcDbEntity
8
1
62
256
6
ByLayer
370
18
48
1
60
0
100
AcDbSpline
70
4
71
3
72
8
73
4
40
0
40
0
40
0
40
0
40
1
40
1
40
1
40
1
41
1
10
44.3906968651224
20
4.32843750465662
30
0
41
1
10
44.4410693537467
20
4.29893286741051
30
0
41
1
10
44.4914184359388
20
4.26864049930043
30
0
41
1
10
44.5417600036544
20
4.23756990691419
30
0
0
SPLINE
5
1AC
100
AcDbEntity
8
1
62
256
6
ByLayer
370
18
48
1
60
0
100
AcDbSpline
70
4
71
3
72
14
73
10
40
0
40
0
40
0
40
0
40
0.25
40
0.25
40
0.5
40
0.5
40
0.75
40
0.75
40
1
40
1
40
1
40
1
41
1
10
44.3906968651224
20
4.32843750465659
30
0
41
1
10
44.3474362106332
20
4.30184998474314
30
0
41
1
10
44.3040170226781
20
4.27317696173026
30
0
41
1
10
44.2167759383265
20
4.2115969353697
30
0
41
1
10
44.1729323428088
20
4.17867032493371
30
0
41
1
10
44.0848875481398
20
4.10859406622174
30
0
41
1
10
44.0406652808974
20
4.07143010788445
30
0
41
1
10
43.9518366238347
20
3.99287713827633
30
0
41
1
10
43.907249624516
20
3.95150851988777
30
0
41
1
10
43.8624444426311
20
3.90801595552651
30
0
0
SPLINE
5
1AD
100
AcDbEntity
8
1
62
256
6
ByLayer
370
18
48
1
60
0
100
AcDbSpline
70
4
71
3
72
34
73
30
40
0
40
0
40
0
40
0
40
0.12499999999989
40
0.12499999999989
40
0.187499999999835
40
0.187499999999835
40
0.24999999999978
40
0.24999999999978
40
0.374999999999714
40
0.374999999999714
40
0.437499999999705
40
0.437499999999705
40
0.499999999999697
40
0.499999999999697
40
0.624999999999732
40
0.624999999999732
40
0.687499999999775
40
0.687499999999775
40
0.749999999999819
40
0.749999999999819
40
0.812499999999862
40
0.812499999999862
40
0.843749999999885
40
0.843749999999885
40
0.874999999999908
40
0.874999999999908
40
0.937499999999954
40
0.937499999999954
40
1
40
1
40
1
40
1
41
1
10
43.862444442631
20
3.90801595552645
30
0
41
1
10
43.8515234092059
20
3.89741486589455
30
0
41
1
10
43.8388690033482
20
3.88945161363989
30
0
41
1
10
43.8179440417346
20
3.88040772522763
30
0
41
1
10
43.8106245241148
20
3.87788698308231
30
0
41
1
10
43.7954159067338
20
3.87379304748029
30
0
41
1
10
43.787607652797
20
3.87223947881034
30
0
41
1
10
43.7636315725147
20
3.86892494122716
30
0
41
1
10
43.7469184331464
20
3.86849282054391
30
0
41
1
10
43.7208483220885
20
3.87038513531434
30
0
41
1
10
43.711989882988
20
3.87144401853803
30
0
41
1
10
43.6939326639029
20
3.87445310953308
30
0
41
1
10
43.6848101412606
20
3.87639271648433
30
0
41
1
10
43.6573712745245
20
3.88348790854244
30
0
41
1
10
43.6389027585439
20
3.88991130006661
30
0
41
1
10
43.6109675501139
20
3.90244401371763
30
0
41
1
10
43.6016167635427
20
3.90710915342498
30
0
41
1
10
43.5828374691013
20
3.91755918499109
30
0
41
1
10
43.5734130488443
20
3.92335036580431
30
0
41
1
10
43.5549512025018
20
3.93593419638708
30
0
41
1
10
43.5458590162201
20
3.94275394730164
30
0
41
1
10
43.5324686581101
20
3.95390470640706
30
0
41
1
10
43.5280467070289
20
3.95777585553125
30
0
41
1
10
43.5192955200327
20
3.96586011183436
30
0
41
1
10
43.5149646590698
20
3.97007714390696
30
0
41
1
10
43.5023314919265
20
3.98308789078584
30
0
41
1
10
43.4943179032388
20
3.99229702937035
30
0
41
1
10
43.4792568858492
20
4.01198155694146
30
0
41
1
10
43.4721709563348
20
4.02253450365188
30
0
41
1
10
43.4658900064463
20
4.03355432686783
30
0
0
SPLINE
5
1AE
100
AcDbEntity
8
1
62
256
6
ByLayer
370
18
48
1
60
0
100
AcDbSpline
70
4
71
3
72
12
73
8
40
0
40
0
40
0
40
0
40
0.499999999999999
40
0.499999999999999
40
0.749999999999999
40
0.749999999999999
40
1
40
1
40
1
40
1
41
1
10
42.4101943986082
20
-2.3642926973047
30
0
41
1
10
42.3409902222198
20
-2.40012880970164
30
0
41
1
10
42.2723293118865
20
-2.43081314092049
30
0
41
1
10
42.1699604655697
20
-2.46931107748216
30
0
41
1
10
42.1359234344774
20
-2.4808869553801
30
0
41
1
10
42.0681669530065
20
-2.501501587814
30
0
41
1
10
42.0344366317277
20
-2.51054809469866
30
0
41
1
10
42.0008353910316
20
-2.51836128299914
30
0
0
SPLINE
5
1AF
100
AcDbEntity
8
1
62
256
6
ByLayer
370
13
48
1
60
0
100
AcDbSpline
70
4
71
3
72
10
73
6
40
0
40
0
40
0
40
0
40
0.362914563543129
40
0.776754897264936
40
1
40
1
40
1
40
1
41
1
10
42.253809298583
20
0.259394510554159
30
0
41
1
10
42.2727274487552
20
-0.0748990514828165
30
0
41
1
10
42.3132185275288
20
-0.795633277741729
30
0
41
1
10
42.3653467952297
20
-1.68216676288532
30
0
41
1
10
42.3985569997802
20
-2.19351150039617
30
0
41
1
10
42.4101943986082
20
-2.3642926973047
30
0
0
SPLINE
5
1B0
100
AcDbEntity
8
1
62
256
6
ByLayer
370
18
48
1
60
0
100
AcDbSpline
70
4
71
3
72
12
73
8
40
0
40
0
40
0
40
0
40
0.50000000000001
40
0.50000000000001
40
0.750000000000005
40
0.750000000000005
40
1
40
1
40
1
40
1
41
1
10
41.8425277449525
20
0.868795511420814
30
0
41
1
10
41.910084671428
20
0.759647447540601
30
0
41
1
10
41.9781768107813
20
0.653983582223958
30
0
41
1
10
42.0810035387303
20
0.501448084878547
30
0
41
1
10
42.1154109347042
20
0.451569888931942
30
0
41
1
10
42.1844311778201
20
0.353912153088572
30
0
41
1
10
42.2190492610489
20
0.306111096687971
30
0
41
1
10
42.253809298583
20
0.259394510554245
30
0
0
SPLINE
5
1B1
100
AcDbEntity
8
1
62
256
6
ByLayer
370
18
48
1
60
0
100
AcDbSpline
70
4
71
3
72
27
73
23
40
0
40
0
40
0
40
0
40
0.124999999999999
40
0.249999999999998
40
0.249999999999998
40
0.312499999999997
40
0.312499999999997
40
0.343749999999997
40
0.343749999999997
40
0.374999999999997
40
0.374999999999997
40
0.499999999999997
40
0.499999999999997
40
0.624999999999998
40
0.624999999999998
40
0.749999999999998
40
0.749999999999998
40
0.812499999999999
40
0.812499999999999
40
0.874999999999999
40
0.874999999999999
40
1
40
1
40
1
40
1
41
1
10
41.4296494904306
20
1.27674115997587
30
0
41
1
10
41.4374452162464
20
1.13744517177238
30
0
41
1
10
41.452967475269
20
0.856338144402827
30
0
41
1
10
41.4684327864642
20
0.570255884772081
30
0
41
1
10
41.4800899848932
20
0.353807891010263
30
0
41
1
10
41.4839865272037
20
0.281343798702693
30
0
41
1
10
41.4898594138296
20
0.17216868471661
30
0
41
1
10
41.4918213079196
20
0.135697085188923
30
0
41
1
10
41.4957533130627
20
0.0625923696537427
30
0
41
1
10
41.4977192246131
20
0.0260373136490273
30
0
41
1
10
41.5075237786667
20
-0.156300594935118
30
0
41
1
10
41.5153090635642
20
-0.301223878335691
30
0
41
1
10
41.5308018145967
20
-0.589227445839782
30
0
41
1
10
41.5385093213553
20
-0.732307599160833
30
0
41
1
10
41.5539503008162
20
-1.01662812500896
30
0
41
1
10
41.5616978485835
20
-1.15786809749204
30
0
41
1
10
41.5733908850872
20
-1.3683184860499
30
0
41
1
10
41.5772987007004
20
-1.43823339473536
30
0
41
1
10
41.5851376030017
20
-1.57758348945146
30
0
41
1
10
41.5890513645316
20
-1.64670976290563
30
0
41
1
10
41.6007568561769
20
-1.85194394153717
30
0
41
1
10
41.6085233523772
20
-1.98613325149464
30
0
41
1
10
41.6163039800809
20
-2.11769928989776
30
0
0
SPLINE
5
1B2
100
AcDbEntity
8
1
62
256
6
ByLayer
370
18
48
1
60
0
100
AcDbSpline
70
4
71
3
72
11
73
7
40
0
40
0
40
0
40
0
40
0.5
40
0.75
40
0.75
40
1
40
1
40
1
40
1
41
1
10
42.0008353910299
20
-2.51836128301042
30
0
41
1
10
41.9371966803343
20
-2.45289347152251
30
0
41
1
10
41.8414121592843
20
-2.35366860616838
30
0
41
1
10
41.7450631162649
20
-2.25294895540952
30
0
41
1
10
41.6806963582682
20
-2.18547442055174
30
0
41
1
10
41.6484774327704
20
-2.1516058566153
30
0
41
1
10
41.6163039800689
20
-2.11769928989767
30
0
0
SPLINE
5
1B3
100
AcDbEntity
8
1
62
256
6
ByLayer
370
18
48
1
60
0
100
AcDbSpline
70
4
71
3
72
26
73
22
40
0
40
0
40
0
40
0
40
0.125
40
0.125
40
0.25
40
0.25
40
0.3125
40
0.34375
40
0.34375
40
0.375
40
0.375
40
0.499999999999999
40
0.624999999999999
40
0.749999999999999
40
0.749999999999999
40
0.812499999999999
40
0.812499999999999
40
0.843749999999999
40
0.843749999999999
40
0.874999999999999
40
1
40
1
40
1
40
1
41
1
10
42.0008353910216
20
-2.5183612830071
30
0
41
1
10
41.9942815403277
20
-2.39247888595187
30
0
41
1
10
41.9877572232673
20
-2.26374344492257
30
0
41
1
10
41.9746563649846
20
-2.00061728234482
30
0
41
1
10
41.9680824801405
20
-1.86622671493714
30
0
41
1
10
41.9581899054288
20
-1.66033796639411
30
0
41
1
10
41.9532350150462
20
-1.55631626307982
30
0
41
1
10
41.9482615109986
20
-1.45065174901225
30
0
41
1
10
41.9449405999251
20
-1.37983955917201
30
0
41
1
10
41.9432809596957
20
-1.34432157725556
30
0
41
1
10
41.9350051723713
20
-1.16663342605048
30
0
41
1
10
41.9218680325511
20
-0.880800875183809
30
0
41
1
10
41.9021443402594
20
-0.447593875351032
30
0
41
1
10
41.8889908174813
20
-0.15582909336706
30
0
41
1
10
41.8790840438548
20
0.064125656096337
30
0
41
1
10
41.8757743942643
20
0.137632702068345
30
0
41
1
10
41.8707894885752
20
0.248181686971805
30
0
41
1
10
41.8691254806582
20
0.285055716798183
30
0
41
1
10
41.8658018361349
20
0.358609699047975
30
0
41
1
10
41.8574957935226
20
0.542179862194388
30
0
41
1
10
41.8491812518489
20
0.724186925000396
30
0
41
1
10
41.8425277449526
20
0.868795511421183
30
0
0
SPLINE
5
1B4
100
AcDbEntity
8
1
62
256
6
ByLayer
370
18
48
1
60
0
100
AcDbSpline
70
4
71
3
72
8
73
4
40
0
40
0
40
0
40
0
40
1
40
1
40
1
40
1
41
1
10
41.4296494904207
20
1.27674115997507
30
0
41
1
10
41.56803926471
20
1.14334725166589
30
0
41
1
10
41.705634777406
20
1.00734410300325
30
0
41
1
10
41.8425277449523
20
0.868795511420871
30
0
0
SPLINE
5
1B5
100
AcDbEntity
8
SK1
62
256
6
ByLayer
370
18
48
1
60
0
100
AcDbSpline
70
4
71
3
72
22
73
18
40
0
40
0
40
0
40
0
40
0.124983804300673
40
0.124983804300673
40
0.249967608601346
40
0.249967608601346
40
0.499935217202691
40
0.499935217202691
40
0.749902825804037
40
0.749902825804037
40
0.781148776879205
40
0.781148776879205
40
0.812394727954373
40
0.874886630104709
40
0.874886630104709
40
0.999870434405382
40
1
40
1
40
1
40
1
41
1
10
-21.6
20
2.74999999999997
30
0
41
1
10
-21.6425101242835
20
2.74999999999997
30
0
41
1
10
-21.6838915937517
20
2.74999999999997
30
0
41
1
10
-21.7638322771202
20
2.74999999999997
30
0
41
1
10
-21.8021926489971
20
2.74999999999997
30
0
41
1
10
-21.9116128118806
20
2.74999999999997
30
0
41
1
10
-21.9770645254945
20
2.74999999999997
30
0
41
1
10
-22.0873601599755
20
2.74999999999997
30
0
41
1
10
-22.1321961551575
20
2.74999999999997
30
0
41
1
10
-22.1669769105785
20
2.74999999999997
30
0
41
1
10
-22.1706219029563
20
2.74999999999997
30
0
41
1
10
-22.1774281181226
20
2.74999999999997
30
0
41
1
10
-22.1869271078174
20
2.74999999999997
30
0
41
1
10
-22.1942720192453
20
2.74999999999997
30
0
41
1
10
-22.2060439582791
20
2.74999999999997
30
0
41
1
10
-22.209998589124
20
2.74999999999997
30
0
41
1
10
-22.2100009994304
20
2.74999999999997
30
0
41
1
10
-22.2099994093369
20
2.74999999999997
30
0
0
SPLINE
5
1B6
100
AcDbEntity
8
SK1
62
256
6
ByLayer
370
18
48
1
60
0
100
AcDbSpline
70
4
71
3
72
22
73
18
40
0
40
0
40
0
40
0
40
0.0001296277335186
40
0.125113424266829
40
0.125113424266829
40
0.187605322533484
40
0.218851271666811
40
0.218851271666811
40
0.250097220800139
40
0.250097220800139
40
0.500064813866759
40
0.500064813866759
40
0.75003240693338
40
0.75003240693338
40
0.87501620346669
40
0.87501620346669
40
1
40
1
40
1
40
1
41
1
10
-22.209999408353
20
-2.75000000000003
30
0
41
1
10
-22.2100009994312
20
-2.75000000000003
30
0
41
1
10
-22.2099985901095
20
-2.75000000000003
30
0
41
1
10
-22.2060439582791
20
-2.75000000000003
30
0
41
1
10
-22.1942720192454
20
-2.75000000000003
30
0
41
1
10
-22.1869271078174
20
-2.75000000000003
30
0
41
1
10
-22.1774281181226
20
-2.75000000000003
30
0
41
1
10
-22.1706219029563
20
-2.75000000000003
30
0
41
1
10
-22.1669769105785
20
-2.75000000000003
30
0
41
1
10
-22.1321961551575
20
-2.75000000000003
30
0
41
1
10
-22.0873601599756
20
-2.75000000000003
30
0
41
1
10
-21.9770645254946
20
-2.75000000000003
30
0
41
1
10
-21.9116128118806
20
-2.75000000000003
30
0
41
1
10
-21.8021926489972
20
-2.75000000000003
30
0
41
1
10
-21.7638322771203
20
-2.75000000000003
30
0
41
1
10
-21.6838915937518
20
-2.75000000000003
30
0
41
1
10
-21.6425101242836
20
-2.75000000000003
30
0
41
1
10
-21.5999999999999
20
-2.75000000000003
30
0
0
SPLINE
5
1B7
100
AcDbEntity
8
SK1
62
256
6
ByLayer
370
18
48
1
60
0
100
AcDbSpline
70
4
71
3
72
34
73
30
40
0
40
0
40
0
40
0
40
0.0625000000000001
40
0.0625000000000001
40
0.125
40
0.125
40
0.25
40
0.25
40
0.375
40
0.375
40
0.406250000000001
40
0.406250000000001
40
0.437500000000001
40
0.437500000000001
40
0.500000000000001
40
0.562500000000001
40
0.562500000000001
40
0.593750000000001
40
0.609375000000001
40
0.609375000000001
40
0.625000000000001
40
0.625000000000001
40
0.75
40
0.75
40
0.875
40
0.875
40
0.9375
40
0.9375
40
1
40
1
40
1
40
1
41
1
10
-21.5999999999999
20
-1.93056986405597
30
0
41
1
10
-21.642485300004
20
-1.85662765110035
30
0
41
1
10
-21.6838381892747
20
-1.78182224260263
30
0
41
1
10
-21.7638065531683
20
-1.63012479391858
30
0
41
1
10
-21.8021885370535
20
-1.5536703492611
30
0
41
1
10
-21.9116533500689
20
-1.32226720929225
30
0
41
1
10
-21.9771267451504
20
-1.16526228136499
30
0
41
1
10
-22.0874442974362
20
-0.843729574097807
30
0
41
1
10
-22.1322804090831
20
-0.679198860789484
30
0
41
1
10
-22.1709099891249
20
-0.467184547840702
30
0
41
1
10
-22.177724945591
20
-0.424646536716779
30
0
41
1
10
-22.1894189595334
20
-0.339690306826128
30
0
41
1
10
-22.1943092422736
20
-0.297211302416997
30
0
41
1
10
-22.2060636127594
20
-0.169771577748463
30
0
41
1
10
-22.2139462093349
20
0.0001552973884884
30
0
41
1
10
-22.2060439582791
20
0.170096847653696
30
0
41
1
10
-22.1942720192454
20
0.297558444665697
30
0
41
1
10
-22.1869271078174
20
0.361290599545868
30
0
41
1
10
-22.1774281181226
20
0.425024757066524
30
0
41
1
10
-22.1706219029563
20
0.467514635676707
30
0
41
1
10
-22.1669769105785
20
0.488786496404714
30
0
41
1
10
-22.1321961551575
20
0.679534613236768
30
0
41
1
10
-22.0873601599756
20
0.844004884014822
30
0
41
1
10
-21.9770645254946
20
1.16541350550258
30
0
41
1
10
-21.9116128118806
20
1.32235475073594
30
0
41
1
10
-21.8021926489972
20
1.55366073374293
30
0
41
1
10
-21.7638322771203
20
1.63007358631228
30
0
41
1
10
-21.6838915937518
20
1.78172334370549
30
0
41
1
10
-21.6425101242836
20
1.85658444645841
30
0
41
1
10
-21.6
20
1.93056986405566
30
0
0
SPLINE
5
1B8
100
AcDbEntity
8
1
62
256
6
ByLayer
370
18
48
1
60
0
100
AcDbSpline
70
4
71
2
72
6
73
3
40
0
40
0
40
0
40
1
40
1
40
1
41
1
10
50.0239940197961
20
-4.452226561647
30
0
41
1
10
50.0685668692983
20
-4.37545634552808
30
0
41
1
10
50.1131687492667
20
-4.29870478987951
30
0
0
SPLINE
5
1B9
100
AcDbEntity
8
1
62
256
6
ByLayer
370
18
48
1
60
0
100
AcDbSpline
70
4
71
1
72
4
73
2
40
0
40
0
40
1
40
1
41
1
10
46.3131550891071
20
-4.75357993339401
30
0
41
1
10
46.4930785656455
20
-5.06405629791848
30
0
0
SPLINE
5
1BA
100
AcDbEntity
8
1
62
256
6
ByLayer
370
18
48
1
60
0
100
AcDbSpline
70
4
71
2
72
6
73
3
40
0
40
0
40
0
40
1
40
1
40
1
41
1
10
42.2415911615132
20
4.19850044739314
30
0
41
1
10
42.2068143929685
20
4.13422496691817
30
0
41
1
10
42.1351616924533
20
4.12328169344954
30
0
0
SPLINE
5
1BB
100
AcDbEntity
8
1
62
256
6
ByLayer
370
18
48
1
60
0
100
AcDbSpline
70
4
71
1
72
4
73
2
40
0
40
0
40
1
40
1
41
1
10
52
20
3.73592145939077
30
0
41
1
10
51.7268207034349
20
4.00904988849055
30
0
0
SPLINE
5
1BC
100
AcDbEntity
8
1
62
256
6
ByLayer
370
18
48
1
60
0
100
AcDbSpline
70
4
71
1
72
4
73
2
40
0
40
0
40
1
40
1
41
1
10
49.2749922377992
20
-4.6380964354781
30
0
41
1
10
49.9508742850917
20
-4.46783265459501
30
0
0
SPLINE
5
1BD
100
AcDbEntity
8
1
62
256
6
ByLayer
370
18
48
1
60
0
100
AcDbSpline
70
4
71
3
72
10
73
6
40
0
40
0
40
0
40
0
40
0.492608956828767
40
0.754329667762024
40
1
40
1
40
1
40
1
41
1
10
39.6646379490947
20
-4.20994958474788
30
0
41
1
10
39.6799874926485
20
-4.18222659408843
30
0
41
1
10
39.7130444865295
20
-4.14906141240334
30
0
41
1
10
39.779312280634
20
-4.12027920036917
30
0
41
1
10
39.8165503852866
20
-4.11571787488367
30
0
41
1
10
39.8346532518796
20
-4.115897811086
30
0
0
SPLINE
5
1BE
100
AcDbEntity
8
1
62
256
6
ByLayer
370
18
48
1
60
0
100
AcDbSpline
70
4
71
2
72
6
73
3
40
0
40
0
40
0
40
1
40
1
40
1
41
1
10
48.9958876809133
20
-4.20657502627088
30
0
41
1
10
49.1209090819856
20
-4.42194646317682
30
0
41
1
10
49.2458127261601
20
-4.63739246443353
30
0
0
SPLINE
5
1BF
100
AcDbEntity
8
1
62
256
6
ByLayer
370
18
48
1
60
0
100
AcDbSpline
70
4
71
2
72
6
73
3
40
0
40
0
40
0
40
1
40
1
40
1
41
1
10
39.4654326085538
20
-4.55307844491716
30
0
41
1
10
39.5664175970635
20
-4.37909877815636
30
0
41
1
10
39.6675644701742
20
-4.20503801813283
30
0
0
SPLINE
5
1C0
100
AcDbEntity
8
1
62
256
6
ByLayer
370
18
48
1
60
0
100
AcDbSpline
70
4
71
2
72
6
73
3
40
0
40
0
40
0
40
1
40
1
40
1
41
1
10
42.7134900418929
20
5.01266368948231
30
0
41
1
10
42.4808255273333
20
4.61121108046163
30
0
41
1
10
42.2475936585973
20
4.20939830715048
30
0
0
SPLINE
5
1C1
100
AcDbEntity
8
1
62
256
6
ByLayer
370
18
48
1
60
0
100
AcDbSpline
70
4
71
3
72
11
73
7
40
0
40
0
40
0
40
0
40
0.239747971060767
40
0.488730022193807
40
0.746023647851228
40
1
40
1
40
1
40
1
41
1
10
48.6666758564784
20
-4.20656717476209
30
0
41
1
10
48.6741752777406
20
-4.188473344247
30
0
41
1
10
48.7034634145487
20
-4.15815396311504
30
0
41
1
10
48.7973197789013
20
-4.1084676812477
30
0
41
1
10
48.9273847465455
20
-4.12878762947108
30
0
41
1
10
48.9784128238354
20
-4.17821614026576
30
0
41
1
10
48.9997103710145
20
-4.21262157432298
30
0
0
SPLINE
5
1C2
100
AcDbEntity
8
1
62
256
6
ByLayer
370
18
48
1
60
0
100
AcDbSpline
70
4
71
2
72
6
73
3
40
0
40
0
40
0
40
1
40
1
40
1
41
1
10
43.4173077585301
20
4.20550738642197
30
0
41
1
10
43.1769176740103
20
4.61909774521948
30
0
41
1
10
42.9367712788176
20
5.03330996926846
30
0
0
SPLINE
5
1C3
100
AcDbEntity
8
1
62
256
6
ByLayer
370
18
48
1
60
0
100
AcDbSpline
70
4
71
2
72
6
73
3
40
0
40
0
40
0
40
1
40
1
40
1
41
1
10
38.4973376373869
20
-4.20897291917061
30
0
41
1
10
38.5632807005211
20
-4.32255681649104
30
0
41
1
10
38.6291829333425
20
-4.43614115595509
30
0
0
SPLINE
5
1C4
100
AcDbEntity
8
1
62
256
6
ByLayer
370
18
48
1
60
0
100
AcDbSpline
70
4
71
3
72
11
73
7
40
0
40
0
40
0
40
0
40
0.221585471050451
40
0.464184856739695
40
0.72647166906894
40
1
40
1
40
1
40
1
41
1
10
43.7435370987367
20
4.20229699613273
30
0
41
1
10
43.7351303335121
20
4.18479532288973
30
0
41
1
10
43.7055154809592
20
4.15473619540506
30
0
41
1
10
43.6114227348115
20
4.10819461917347
30
0
41
1
10
43.4834413232405
20
4.13071980743325
30
0
41
1
10
43.4357439049366
20
4.17457884559204
30
0
41
1
10
43.4167633949325
20
4.20645840749413
30
0
0
SPLINE
5
1C5
100
AcDbEntity
8
1
62
256
6
ByLayer
370
18
48
1
60
0
100
AcDbSpline
70
4
71
2
72
6
73
3
40
0
40
0
40
0
40
1
40
1
40
1
41
1
10
48.2674446326313
20
-4.89414604038595
30
0
41
1
10
48.4660419677229
20
-4.55172425055329
30
0
41
1
10
48.6649574666539
20
-4.20941267286037
30
0
0
SPLINE
5
1C6
100
AcDbEntity
8
1
62
256
6
ByLayer
370
18
48
1
60
0
100
AcDbSpline
70
4
71
3
72
11
73
7
40
0
40
0
40
0
40
0
40
0.253833451973835
40
0.509547532250308
40
0.759990031762331
40
1
40
1
40
1
40
1
41
1
10
38.1663843342166
20
-4.20713722573984
30
0
41
1
10
38.1811434542306
20
-4.18011496183544
30
0
41
1
10
38.2222735924657
20
-4.13997190948749
30
0
41
1
10
38.3382534689229
20
-4.10601209772469
30
0
41
1
10
38.4464648110413
20
-4.14553917594694
30
0
41
1
10
38.4834572625941
20
-4.18275413643451
30
0
41
1
10
38.4958570351457
20
-4.20650363700895
30
0
0
SPLINE
5
1C7
100
AcDbEntity
8
1
62
256
6
ByLayer
370
18
48
1
60
0
100
AcDbSpline
70
4
71
2
72
6
73
3
40
0
40
0
40
0
40
1
40
1
40
1
41
1
10
38.0858521442577
20
-4.34574007606852
30
0
41
1
10
38.1262786864914
20
-4.27614649139815
30
0
41
1
10
38.1667205063604
20
-4.2065630188041
30
0
0
SPLINE
5
1C8
100
AcDbEntity
8
1
62
256
6
ByLayer
370
18
48
1
60
0
100
AcDbSpline
70
4
71
1
72
4
73
2
40
0
40
0
40
1
40
1
41
1
10
47.9582158836666
20
-4.97323825254327
30
0
41
1
10
48.2632927127139
20
-4.89631144806279
30
0
0
SPLINE
5
1C9
100
AcDbEntity
8
1
62
256
6
ByLayer
370
18
48
1
60
0
100
AcDbSpline
70
4
71
2
72
6
73
3
40
0
40
0
40
0
40
1
40
1
40
1
41
1
10
47.4958611073878
20
-4.20650723405117
30
0
41
1
10
47.7162239410032
20
-4.58612517425473
30
0
41
1
10
47.9362538733278
20
-4.96594498505229
30
0
0
SPLINE
5
1CA
100
AcDbEntity
8
1
62
256
6
ByLayer
370
18
48
1
60
0
100
AcDbSpline
70
4
71
3
72
11
73
7
40
0
40
0
40
0
40
0
40
0.243802678728881
40
0.500580807607648
40
0.757013156814126
40
1
40
1
40
1
40
1
41
1
10
47.1538026888019
20
-4.22258566514739
30
0
41
1
10
47.1691858667628
20
-4.19250996738503
30
0
41
1
10
47.211534730328
20
-4.14533633900189
30
0
41
1
10
47.3260250360295
20
-4.10437546299801
30
0
41
1
10
47.4406286004584
20
-4.13954104820994
30
0
41
1
10
47.4830097589943
20
-4.18266943326972
30
0
41
1
10
47.4984325070116
20
-4.21069316257777
30
0
0
SPLINE
5
1CB
100
AcDbEntity
8
1
62
256
6
ByLayer
370
18
48
1
60
0
100
AcDbSpline
70
4
71
2
72
6
73
3
40
0
40
0
40
0
40
1
40
1
40
1
41
1
10
44.2442813905723
20
5.06603300602237
30
0
41
1
10
43.9966990293228
20
4.6385360649173
30
0
41
1
10
43.7489633039235
20
4.21149240666023
30
0
0
SPLINE
5
1CC
100
AcDbEntity
8
1
62
256
6
ByLayer
370
18
48
1
60
0
100
AcDbSpline
70
4
71
2
72
6
73
3
40
0
40
0
40
0
40
1
40
1
40
1
41
1
10
44.9138375056036
20
4.21116080324526
30
0
41
1
10
44.6651725433812
20
4.63922075623393
30
0
41
1
10
44.416853423695
20
5.0676091088022
30
0
0
SPLINE
5
1CD
100
AcDbEntity
8
1
62
256
6
ByLayer
370
18
48
1
60
0
100
AcDbSpline
70
4
71
2
72
6
73
3
40
0
40
0
40
0
40
1
40
1
40
1
41
1
10
45.0445521848609
20
4.12949752765778
30
0
41
1
10
44.950775204669
20
4.12916462830873
30
0
41
1
10
44.9253110780526
20
4.18896951244443
30
0
0
LINE
5
83
100
AcDbEntity
8
80
62
256
6
ByLayer
370
18
48
1
60
0
100
AcDbLine
10
0
20
0
30
0
11
-5
21
0
31
0
39
0
210
0
220
0
230
1
0
LINE
5
84
100
AcDbEntity
8
4
62
256
6
ByLayer
370
18
48
0.05
60
0
100
AcDbLine
10
-5
20
0
30
0
11
57
21
0
31
0
39
0
210
0
220
0
230
1
0
LINE
5
86
100
AcDbEntity
8
81
62
256
6
ByLayer
370
18
48
1
60
0
100
AcDbLine
10
52
20
0
30
0
11
57
21
0
31
0
39
0
210
0
220
0
230
1
0
LINE
5
87
100
AcDbEntity
8
SK4
62
256
6
ByLayer
370
18
48
0.05
60
0
100
AcDbLine
10
-28
20
0
30
0
11
57
21
0
31
0
39
0
210
0
220
0
230
1
0
LINE
5
89
100
AcDbEntity
8
1
62
256
6
ByLayer
370
18
48
1
60
0
100
AcDbLine
10
0
20
3.5
30
0
11
0
21
-3.5
31
0
39
0
210
0
220
0
230
1
0
LINE
5
8A
100
AcDbEntity
8
1
62
256
6
ByLayer
370
18
48
1
60
0
100
AcDbLine
10
52
20
3.735921
30
0
11
52
21
3.731459
31
0
39
0
210
0
220
0
230
1
0
LINE
5
8B
100
AcDbEntity
8
1
62
256
6
ByLayer
370
18
48
1
60
0
100
AcDbLine
10
50.032408
20
-4.437737
30
0
11
50.027672
21
-4.444931
31
0
39
0
210
0
220
0
230
1
0
LINE
5
8C
100
AcDbEntity
8
1
62
256
6
ByLayer
370
18
48
1
60
0
100
AcDbLine
10
39.664027
20
-4.210895
30
0
11
39.667401
21
-4.205328
31
0
39
0
210
0
220
0
230
1
0
LINE
5
8D
100
AcDbEntity
8
1
62
256
6
ByLayer
370
18
48
1
60
0
100
AcDbLine
10
49.000619
20
-4.2139
30
0
11
48.995889
21
-4.206577
31
0
39
0
210
0
220
0
230
1
0
LINE
5
8E
100
AcDbEntity
8
1
62
256
6
ByLayer
370
18
48
1
60
0
100
AcDbLine
10
47.49587
20
-4.206523
30
0
11
47.498615
21
-4.210972
31
0
39
0
210
0
220
0
230
1
0
LINE
5
8F
100
AcDbEntity
8
1
62
256
6
ByLayer
370
18
48
1
60
0
100
AcDbLine
10
37
20
-3.232267
30
0
11
37
21
-4.196063
31
0
39
0
210
0
220
0
230
1
0
LINE
5
90
100
AcDbEntity
8
1
62
256
6
ByLayer
370
13
48
1
60
0
100
AcDbLine
10
36.792781
20
-2.878996
30
0
11
36.792781
21
-3.809603
31
0
39
0
210
0
220
0
230
1
0
LINE
5
91
100
AcDbEntity
8
1
62
256
6
ByLayer
370
13
48
1
60
0
100
AcDbLine
10
35.926755
20
-3.154989
30
0
11
35.926755
21
-2.029521
31
0
39
0
210
0
220
0
230
1
0
LINE
5
92
100
AcDbEntity
8
1
62
256
6
ByLayer
370
13
48
1
60
0
100
AcDbLine
10
35.926755
20
2.552897
30
0
11
35.926755
21
3.322933
31
0
39
0
210
0
220
0
230
1
0
LINE
5
93
100
AcDbEntity
8
1
62
256
6
ByLayer
370
13
48
1
60
0
100
AcDbLine
10
36.792781
20
3.653186
30
0
11
36.792781
21
2.386535
31
0
39
0
210
0
220
0
230
1
0
LINE
5
94
100
AcDbEntity
8
1
62
256
6
ByLayer
370
13
48
1
60
0
100
AcDbLine
10
13.554527
20
-3.35
30
0
11
13.554527
21
3.35
31
0
39
0
210
0
220
0
230
1
0
LINE
5
95
100
AcDbEntity
8
1
62
256
6
ByLayer
370
18
48
1
60
0
100
AcDbLine
10
13
20
3.5
30
0
11
13
21
-3.5
31
0
39
0
210
0
220
0
230
1
0
LINE
5
96
100
AcDbEntity
8
1
62
256
6
ByLayer
370
18
48
1
60
0
100
AcDbLine
10
37
20
3.950776
30
0
11
37
21
2.382653
31
0
39
0
210
0
220
0
230
1
0
LINE
5
97
100
AcDbEntity
8
1
62
256
6
ByLayer
370
18
48
1
60
0
100
AcDbLine
10
43.167407
20
-0.545848
30
0
11
43.167407
21
-0.697098
31
0
39
0
210
0
220
0
230
1
0
LINE
5
98
100
AcDbEntity
8
SK1
62
256
6
ByLayer
370
18
48
1
60
0
100
AcDbLine
10
-23
20
1.96
30
0
11
-23
21
-1.96
31
0
39
0
210
0
220
0
230
1
0
LINE
5
9A
100
AcDbEntity
8
SK1
62
256
6
ByLayer
370
18
48
1
60
0
100
AcDbLine
10
-15
20
2.75
30
0
11
-14.39
21
3.36
31
0
39
0
210
0
220
0
230
1
0
LINE
5
9B
100
AcDbEntity
8
SK1
62
256
6
ByLayer
370
18
48
1
60
0
100
AcDbLine
10
-21.6
20
2.75
30
0
11
-15
21
2.75
31
0
39
0
210
0
220
0
230
1
0
LINE
5
9C
100
AcDbEntity
8
SK1
62
256
6
ByLayer
370
18
48
1
60
0
100
AcDbLine
10
-21.6
20
1.93057
30
0
11
-21.6
21
2.75
31
0
39
0
210
0
220
0
230
1
0
LINE
5
9D
100
AcDbEntity
8
SK1
62
256
6
ByLayer
370
18
48
1
60
0
100
AcDbLine
10
-15
20
1.93057
30
0
11
-21.6
21
1.93057
31
0
39
0
210
0
220
0
230
1
0
LINE
5
9E
100
AcDbEntity
8
SK1
62
256
6
ByLayer
370
18
48
1
60
0
100
AcDbLine
10
-21.6
20
-1.93057
30
0
11
-15
21
-1.93057
31
0
39
0
210
0
220
0
230
1
0
LINE
5
9F
100
AcDbEntity
8
SK1
62
256
6
ByLayer
370
18
48
1
60
0
100
AcDbLine
10
-21.6
20
-2.75
30
0
11
-21.6
21
-1.93057
31
0
39
0
210
0
220
0
230
1
0
LINE
5
A0
100
AcDbEntity
8
SK1
62
256
6
ByLayer
370
18
48
1
60
0
100
AcDbLine
10
-15
20
-2.75
30
0
11
-21.6
21
-2.75
31
0
39
0
210
0
220
0
230
1
0
LINE
5
A1
100
AcDbEntity
8
SK1
62
256
6
ByLayer
370
18
48
1
60
0
100
AcDbLine
10
-15
20
-2.75
30
0
11
-14.39
21
-3.36
31
0
39
0
210
0
220
0
230
1
0
LINE
5
A2
100
AcDbEntity
8
SK1
62
256
6
ByLayer
370
18
48
1
60
0
100
AcDbLine
10
-15
20
1.93057
30
0
11
-15
21
-1.93057
31
0
39
0
210
0
220
0
230
1
0
LINE
5
A3
100
AcDbEntity
8
SK1
62
256
6
ByLayer
370
18
48
1
60
0
100
AcDbLine
10
-14.2
20
3.36
30
0
11
-14.2
21
-3.36
31
0
39
0
210
0
220
0
230
1
0
LINE
5
A4
100
AcDbEntity
8
SK1
62
256
6
ByLayer
370
18
48
1
60
0
100
AcDbLine
10
0
20
3.5
30
0
11
0
21
-3.5
31
0
39
0
210
0
220
0
230
1
0
LINE
5
A5
100
AcDbEntity
8
SK1
62
256
6
ByLayer
370
18
48
1
60
0
100
AcDbLine
10
-14.06
20
-3.5
30
0
11
-14.06
21
3.5
31
0
39
0
210
0
220
0
230
1
0
LINE
5
A6
100
AcDbEntity
8
1
62
256
6
ByLayer
370
18
48
1
60
0
100
AcDbLine
10
37.337038
20
-4.256282
30
0
11
38.065916
21
-4.358719
31
0
39
0
210
0
220
0
230
1
0
LINE
5
A7
100
AcDbEntity
8
1
62
256
6
ByLayer
370
18
48
1
60
0
100
AcDbLine
10
13
20
3.5
30
0
11
0
21
3.5
31
0
39
0
210
0
220
0
230
1
0
LINE
5
A8
100
AcDbEntity
8
1
62
256
6
ByLayer
370
18
48
1
60
0
100
AcDbLine
10
0
20
-3.5
30
0
11
13
21
-3.5
31
0
39
0
210
0
220
0
230
1
0
LINE
5
A9
100
AcDbEntity
8
1
62
256
6
ByLayer
370
18
48
1
60
0
100
AcDbLine
10
42.922456
20
5.041261
30
0
11
42.722126
21
5.013107
31
0
39
0
210
0
220
0
230
1
0
LINE
5
AA
100
AcDbEntity
8
1
62
256
6
ByLayer
370
18
48
1
60
0
100
AcDbLine
10
38.640163
20
-4.439424
30
0
11
39.452063
21
-4.553529
31
0
39
0
210
0
220
0
230
1
0
LINE
5
AB
100
AcDbEntity
8
1
62
256
6
ByLayer
370
18
48
1
60
0
100
AcDbLine
10
44.402606
20
5.075687
30
0
11
44.259507
21
5.075687
31
0
39
0
210
0
220
0
230
1
0
LINE
5
AC
100
AcDbEntity
8
1
62
256
6
ByLayer
370
18
48
1
60
0
100
AcDbLine
10
13.554527
20
-3.35
30
0
11
21.069127
21
-3.35
31
0
39
0
210
0
220
0
230
1
0
LINE
5
AD
100
AcDbEntity
8
1
62
256
6
ByLayer
370
18
48
1
60
0
100
AcDbLine
10
28.008144
20
-3.35
30
0
11
30.589635
21
-3.35
31
0
39
0
210
0
220
0
230
1
0
LINE
5
AE
100
AcDbEntity
8
1
62
256
6
ByLayer
370
18
48
1
60
0
100
AcDbLine
10
35.351736
20
3.35
30
0
11
32.742644
21
3.35
31
0
39
0
210
0
220
0
230
1
0
LINE
5
AF
100
AcDbEntity
8
1
62
256
6
ByLayer
370
18
48
1
60
0
100
AcDbLine
10
25.82872
20
3.35
30
0
11
23.242861
21
3.35
31
0
39
0
210
0
220
0
230
1
0
LINE
5
B0
100
AcDbEntity
8
1
62
256
6
ByLayer
370
18
48
1
60
0
100
AcDbLine
10
19.034547
20
3.35
30
0
11
13.554527
21
3.35
31
0
39
0
210
0
220
0
230
1
0
LINE
5
B1
100
AcDbEntity
8
SK1
62
256
6
ByLayer
370
18
48
1
60
0
100
AcDbLine
10
-23
20
-1.96
30
0
11
-22.21
21
-2.75
31
0
39
0
210
0
220
0
230
1
0
LINE
5
B2
100
AcDbEntity
8
SK1
62
256
6
ByLayer
370
18
48
1
60
0
100
AcDbLine
10
-22.21
20
2.75
30
0
11
-23
21
1.96
31
0
39
0
210
0
220
0
230
1
0
LINE
5
B3
100
AcDbEntity
8
SK1
62
256
6
ByLayer
370
18
48
1
60
0
100
AcDbLine
10
-14.2
20
3.36
30
0
11
-14.39
21
3.36
31
0
39
0
210
0
220
0
230
1
0
LINE
5
B4
100
AcDbEntity
8
SK1
62
256
6
ByLayer
370
18
48
1
60
0
100
AcDbLine
10
-14.39
20
-3.36
30
0
11
-14.2
21
-3.36
31
0
39
0
210
0
220
0
230
1
0
LINE
5
B5
100
AcDbEntity
8
SK1
62
256
6
ByLayer
370
18
48
1
60
0
100
AcDbLine
10
-14.2
20
-3.36
30
0
11
-14.06
21
-3.5
31
0
39
0
210
0
220
0
230
1
0
LINE
5
B6
100
AcDbEntity
8
SK1
62
256
6
ByLayer
370
18
48
1
60
0
100
AcDbLine
10
-14.06
20
3.5
30
0
11
-14.2
21
3.36
31
0
39
0
210
0
220
0
230
1
0
LINE
5
B7
100
AcDbEntity
8
SK1
62
256
6
ByLayer
370
18
48
1
60
0
100
AcDbLine
10
0
20
3.5
30
0
11
-14.06
21
3.5
31
0
39
0
210
0
220
0
230
1
0
LINE
5
B8
100
AcDbEntity
8
SK1
62
256
6
ByLayer
370
18
48
1
60
0
100
AcDbLine
10
-14.06
20
-3.5
30
0
11
0
21
-3.5
31
0
39
0
210
0
220
0
230
1
0
LINE
5
B9
100
AcDbEntity
8
SK2
62
256
6
ByLayer
370
13
48
1
60
0
100
AcDbLine
10
5
20
33.721845
30
0
11
5
21
-11
31
0
39
0
210
0
220
0
230
1
0
LINE
5
BB
100
AcDbEntity
8
SK2
62
256
6
ByLayer
370
13
48
1
60
0
100
AcDbLine
10
5.0875
20
3.5
30
0
11
7
21
3.5
31
0
39
0
210
0
220
0
230
1
0
LINE
5
BC
100
AcDbEntity
8
SK2
62
256
6
ByLayer
370
13
48
1
60
0
100
AcDbLine
10
5.0875
20
-3.5
30
0
11
7
21
-3.5
31
0
39
0
210
0
220
0
230
1
0
LINE
5
BD
100
AcDbEntity
8
1
62
256
6
ByLayer
370
18
48
1
60
1
100
AcDbLine
10
5
20
3.5
30
0
11
4.539216
21
6.999998
31
0
39
0
210
0
220
0
230
1
0
LINE
5
BE
100
AcDbEntity
8
1
62
256
6
ByLayer
370
18
48
1
60
1
100
AcDbLine
10
4.539216
20
6.999998
30
0
11
5.460784
21
7.000002
31
0
39
0
210
0
220
0
230
1
0
LINE
5
BF
100
AcDbEntity
8
1
62
256
6
ByLayer
370
18
48
1
60
1
100
AcDbLine
10
5.460784
20
7.000002
30
0
11
5
21
3.5
31
0
39
0
210
0
220
0
230
1
0
LINE
5
C0
100
AcDbEntity
8
1
62
256
6
ByLayer
370
18
48
1
60
1
100
AcDbLine
10
5
20
-3.5
30
0
11
5.460784
21
-6.999998
31
0
39
0
210
0
220
0
230
1
0
LINE
5
C1
100
AcDbEntity
8
1
62
256
6
ByLayer
370
18
48
1
60
1
100
AcDbLine
10
5.460784
20
-6.999998
30
0
11
4.539216
21
-7.000002
31
0
39
0
210
0
220
0
230
1
0
LINE
5
C2
100
AcDbEntity
8
1
62
256
6
ByLayer
370
18
48
1
60
1
100
AcDbLine
10
4.539216
20
-7.000002
30
0
11
5
21
-3.5
31
0
39
0
210
0
220
0
230
1
0
LINE
5
1D3
100
AcDbEntity
8
1
62
256
6
ByLayer
370
18
48
1
60
1
100
AcDbLine
10
5
20
3.5
30
0
11
4.539216
21
6.999998
31
0
39
0
210
0
220
0
230
1
0
LINE
5
1D4
100
AcDbEntity
8
1
62
256
6
ByLayer
370
18
48
1
60
1
100
AcDbLine
10
4.539216
20
6.999998
30
0
11
5.460784
21
7.000002
31
0
39
0
210
0
220
0
230
1
0
LINE
5
1D5
100
AcDbEntity
8
1
62
256
6
ByLayer
370
18
48
1
60
1
100
AcDbLine
10
5.460784
20
7.000002
30
0
11
5
21
3.5
31
0
39
0
210
0
220
0
230
1
0
LINE
5
1D7
100
AcDbEntity
8
1
62
256
6
ByLayer
370
18
48
1
60
1
100
AcDbLine
10
5
20
-3.5
30
0
11
5.460784
21
-6.999998
31
0
39
0
210
0
220
0
230
1
0
LINE
5
1D8
100
AcDbEntity
8
1
62
256
6
ByLayer
370
18
48
1
60
1
100
AcDbLine
10
5.460784
20
-6.999998
30
0
11
4.539216
21
-7.000002
31
0
39
0
210
0
220
0
230
1
0
LINE
5
1D9
100
AcDbEntity
8
1
62
256
6
ByLayer
370
18
48
1
60
1
100
AcDbLine
10
4.539216
20
-7.000002
30
0
11
5
21
-3.5
31
0
39
0
210
0
220
0
230
1
0
MTEXT
5
1CE
100
AcDbEntity
8
SK2
62
256
6
ByLayer
370
18
48
1
60
0
100
AcDbMText
10
3.658886
20
13.158437
30
0
210
0
220
0
230
1
1
%%c
40
3
41
0
44
1.084337
50
90
71
7
72
5
7
iso_b_vert
0
MTEXT
5
1D1
100
AcDbEntity
8
SK2
62
256
6
ByLayer
370
18
48
1
60
0
100
AcDbMText
10
3.810366
20
29.698413
30
0
210
0
220
0
230
1
1
\W0.7125;h9
40
3.5
41
0
44
1.084337
50
90
71
7
72
5
7
iso_b_vert
0
MTEXT
5
1D2
100
AcDbEntity
8
SK2
62
256
6
ByLayer
370
18
48
1
60
0
100
AcDbMText
10
3.658886
20
19.135
30
0
210
0
220
0
230
1
1
\W0.7346;7.00
40
3
41
0
44
1.084337
50
90
71
7
72
5
7
iso_b_vert
0
MTEXT
5
1DB
100
AcDbEntity
8
SK6
62
256
6
ByLayer
370
18
48
1
60
0
100
AcDbMText
10
-0.406382
20
-67.114886
30
0
210
0
220
0
230
1
1
\W0.7470;T300-PM101JA-M10 P1PM
40
3
41
0
44
1.084337
50
0
71
7
72
5
7
iso_b_vert
0
HATCH
5
1D6
100
AcDbEntity
8
SK2
62
256
6
ByLayer
370
13
48
1
60
0
100
AcDbHatch
10
0
20
0
30
0
210
0
220
0
230
1
2
ANSI31
70
0
71
0
91
1
92
5
93
3
72
1
10
5
20
3.5
11
4.53921625844723
21
6.99999830744682
72
1
10
4.53921625844723
20
6.99999830744682
11
5.46078374155277
21
7.00000169255318
72
1
10
5.46078374155277
20
7.00000169255318
11
5
21
3.5
97
0
75
0
76
1
52
0
41
0.0062
77
0
78
1
53
45
43
0
44
0
45
-0.0139193969876572
46
0.0139193969876572
79
0
47
0
98
1
10
0
20
0
0
HATCH
5
1DA
100
AcDbEntity
8
SK2
62
256
6
ByLayer
370
13
48
1
60
0
100
AcDbHatch
10
0
20
0
30
0
210
0
220
0
230
1
2
ANSI31
70
0
71
0
91
1
92
5
93
3
72
1
10
5
20
-3.5
11
5.46078374155277
21
-6.99999830744682
72
1
10
5.46078374155277
20
-6.99999830744682
11
4.53921625844723
21
-7.00000169255318
72
1
10
4.53921625844723
20
-7.00000169255318
11
5
21
-3.5
97
0
75
0
76
1
52
0
41
0.0062
77
0
78
1
53
45
43
0
44
0
45
-0.0139193969876572
46
0.0139193969876572
79
0
47
0
98
1
10
0
20
0
0
DIMENSION
5
1DE
100
AcDbEntity
8
SK2
62
256
6
ByLayer
370
18
48
1
60
0
100
AcDbDimension
2
_U0
10
52
20
-51.640726
30
0
11
14.5
21
-51.640726
31
0
70
32
71
1
72
1
41
1
210
0
220
0
230
1
3
Standard
100
AcDbAlignedDimension
13
-23
23
0
33
0
14
52
24
0
34
0
50
0
100
AcDbRotatedDimension
1001
ACAD
1000
DSTYLE
1002
{
1070
   371
1070
    13
1070
   372
1070
    13
1070
     3
1000

1070
   170
1070
     0
1070
   144
1040
1.0
1070
   277
1070
     2
1070
   284
1070
     8
1070
   278
1070
    46
1070
   146
1040
1.166667
1070
   345
1005
16
1070
   347
1005
16
1070
   346
1005
16
1070
   344
1005
0
1070
   343
1005
0
1070
   172
1070
     1
1070
    76
1070
     0
1070
    75
1070
     0
1070
   282
1070
     0
1070
   281
1070
     0
1070
    71
1070
     0
1070
    74
1070
     0
1070
   279
1070
     0
1070
   173
1070
     1
1070
   340
1005
1CF
1070
   271
1070
     2
1070
   272
1070
     3
1070
    77
1070
     1
1070
    73
1070
     1
1070
   171
1070
     3
1070
   274
1070
     4
1070
   177
1070
     2
1070
   176
1070
     2
1070
   178
1070
     2
1070
    78
1070
     8
1070
    48
1040
-0.1
1070
    41
1040
3.5
1070
   147
1040
1.5
1070
    42
1040
1.5875
1070
    44
1040
2.0
1070
   140
1040
3.0
1002
}
1001
ACAD_DSTYLE_DIM_LINETYPE
1070
   380
1005
16
1001
ACAD_DSTYLE_DIM_EXT1_LINETYPE
1070
   381
1005
16
1001
ACAD_DSTYLE_DIM_EXT2_LINETYPE
1070
   382
1005
16
0
DIMENSION
5
1F7
100
AcDbEntity
8
SK2
62
256
6
ByLayer
370
18
48
1
60
0
100
AcDbDimension
2
_U1
10
13
20
-43.640726
30
0
11
32.5
21
-43.640726
31
0
70
32
71
1
72
1
41
1
210
0
220
0
230
1
3
Standard
100
AcDbAlignedDimension
13
52
23
0
33
0
14
13
24
0
34
0
50
0
100
AcDbRotatedDimension
1001
ACAD
1000
DSTYLE
1002
{
1070
   371
1070
    13
1070
   372
1070
    13
1070
     3
1000

1070
   170
1070
     0
1070
   144
1040
1.0
1070
   277
1070
     2
1070
   284
1070
     8
1070
   278
1070
    46
1070
   146
1040
1.166667
1070
   345
1005
16
1070
   347
1005
16
1070
   346
1005
16
1070
   344
1005
0
1070
   343
1005
0
1070
   172
1070
     1
1070
    76
1070
     0
1070
    75
1070
     0
1070
   282
1070
     0
1070
   281
1070
     0
1070
    71
1070
     0
1070
    74
1070
     0
1070
   279
1070
     0
1070
   173
1070
     1
1070
   340
1005
1CF
1070
   271
1070
     2
1070
   272
1070
     3
1070
    77
1070
     1
1070
    73
1070
     1
1070
   171
1070
     3
1070
   274
1070
     4
1070
   177
1070
     2
1070
   176
1070
     2
1070
   178
1070
     2
1070
    78
1070
     8
1070
    48
1040
-0.1
1070
    41
1040
3.5
1070
   147
1040
1.5
1070
    42
1040
1.5875
1070
    44
1040
2.0
1070
   140
1040
3.0
1002
}
1001
ACAD_DSTYLE_DIM_LINETYPE
1070
   380
1005
16
1001
ACAD_DSTYLE_DIM_EXT1_LINETYPE
1070
   381
1005
16
1001
ACAD_DSTYLE_DIM_EXT2_LINETYPE
1070
   382
1005
16
0
DIMENSION
5
20F
100
AcDbEntity
8
2
62
256
6
ByLayer
370
18
48
1
60
0
100
AcDbDimension
2
_U2
10
18.85
20
-35.640726
30
0
11
35.425
21
-35.640726
31
0
70
32
71
1
72
1
41
1
210
0
220
0
230
1
3
Standard
100
AcDbAlignedDimension
13
52
23
0
33
0
14
18.85
24
0
34
0
50
0
100
AcDbRotatedDimension
1001
ACAD
1000
DSTYLE
1002
{
1070
   371
1070
    13
1070
   372
1070
    13
1070
     3
1000

1070
   170
1070
     0
1070
   144
1040
1.0
1070
   277
1070
     2
1070
   284
1070
     8
1070
   278
1070
    46
1070
   146
1040
1.166667
1070
   345
1005
16
1070
   347
1005
16
1070
   346
1005
16
1070
   344
1005
0
1070
   343
1005
0
1070
   172
1070
     1
1070
    76
1070
     0
1070
    75
1070
     0
1070
   282
1070
     0
1070
   281
1070
     0
1070
    71
1070
     0
1070
    74
1070
     0
1070
   279
1070
     0
1070
   173
1070
     1
1070
   340
1005
1CF
1070
   271
1070
     2
1070
   272
1070
     3
1070
    77
1070
     1
1070
    73
1070
     1
1070
   171
1070
     3
1070
   274
1070
     4
1070
   177
1070
     2
1070
   176
1070
     2
1070
   178
1070
     2
1070
    78
1070
     8
1070
    48
1040
-0.1
1070
    41
1040
3.5
1070
   147
1040
1.5
1070
    42
1040
1.5875
1070
    44
1040
2.0
1070
   140
1040
3.0
1002
}
1001
ACAD_DSTYLE_DIM_LINETYPE
1070
   380
1005
16
1001
ACAD_DSTYLE_DIM_EXT1_LINETYPE
1070
   381
1005
16
1001
ACAD_DSTYLE_DIM_EXT2_LINETYPE
1070
   382
1005
16
0
DIMENSION
5
228
100
AcDbEntity
8
SK2
62
256
6
ByLayer
370
18
48
1
60
0
100
AcDbDimension
2
_U3
10
37
20
-27.640726
30
0
11
44.5
21
-27.640726
31
0
70
32
71
1
72
1
41
1
210
0
220
0
230
1
3
Standard
100
AcDbAlignedDimension
13
52
23
0
33
0
14
37
24
-3.35
34
0
50
0
100
AcDbRotatedDimension
1001
ACAD
1000
DSTYLE
1002
{
1070
   371
1070
    13
1070
   372
1070
    13
1070
     3
1000

1070
   170
1070
     0
1070
   144
1040
1.0
1070
   277
1070
     2
1070
   284
1070
     8
1070
   278
1070
    46
1070
   146
1040
1.166667
1070
   345
1005
16
1070
   347
1005
16
1070
   346
1005
16
1070
   344
1005
0
1070
   343
1005
0
1070
   172
1070
     1
1070
    76
1070
     0
1070
    75
1070
     0
1070
   282
1070
     0
1070
   281
1070
     0
1070
    71
1070
     0
1070
    74
1070
     0
1070
   279
1070
     0
1070
   173
1070
     1
1070
   340
1005
1CF
1070
   271
1070
     2
1070
   272
1070
     3
1070
    77
1070
     1
1070
    73
1070
     1
1070
   171
1070
     3
1070
   274
1070
     4
1070
   177
1070
     2
1070
   176
1070
     2
1070
   178
1070
     2
1070
    78
1070
     8
1070
    48
1040
-0.1
1070
    41
1040
3.5
1070
   147
1040
1.5
1070
    42
1040
1.5875
1070
    44
1040
2.0
1070
   140
1040
3.0
1002
}
1001
ACAD_DSTYLE_DIM_LINETYPE
1070
   380
1005
16
1001
ACAD_DSTYLE_DIM_EXT1_LINETYPE
1070
   381
1005
16
1001
ACAD_DSTYLE_DIM_EXT2_LINETYPE
1070
   382
1005
16
0
DIMENSION
5
241
100
AcDbEntity
8
SK2
62
256
6
ByLayer
370
18
48
1
60
0
100
AcDbDimension
2
_U4
10
47.87
20
10.651374
30
0
11
49.935
21
10.651374
31
0
70
32
71
1
72
1
41
1
210
0
220
0
230
1
3
Standard
100
AcDbAlignedDimension
13
52
23
0
33
0
14
47.87
24
0
34
0
50
0
100
AcDbRotatedDimension
1001
ACAD
1000
DSTYLE
1002
{
1070
   371
1070
    13
1070
   372
1070
    13
1070
     3
1000

1070
   170
1070
     0
1070
   144
1040
1.0
1070
   277
1070
     2
1070
   284
1070
     8
1070
   278
1070
    46
1070
   146
1040
1.166667
1070
   345
1005
16
1070
   347
1005
16
1070
   346
1005
16
1070
   344
1005
0
1070
   343
1005
0
1070
   172
1070
     1
1070
    76
1070
     0
1070
    75
1070
     0
1070
   282
1070
     0
1070
   281
1070
     0
1070
    71
1070
     0
1070
    74
1070
     0
1070
   279
1070
     0
1070
   173
1070
     1
1070
   340
1005
1CF
1070
   271
1070
     2
1070
   272
1070
     3
1070
    77
1070
     1
1070
    73
1070
     1
1070
   171
1070
     3
1070
   274
1070
     4
1070
   177
1070
     2
1070
   176
1070
     2
1070
   178
1070
     2
1070
    78
1070
     8
1070
    48
1040
-0.1
1070
    41
1040
3.5
1070
   147
1040
1.5
1070
    42
1040
1.5875
1070
    44
1040
2.0
1070
   140
1040
3.0
1002
}
1001
ACAD_DSTYLE_DIM_LINETYPE
1070
   380
1005
16
1001
ACAD_DSTYLE_DIM_EXT1_LINETYPE
1070
   381
1005
16
1001
ACAD_DSTYLE_DIM_EXT2_LINETYPE
1070
   382
1005
16
0
DIMENSION
5
25B
100
AcDbEntity
8
2
62
256
6
ByLayer
370
18
48
1
60
0
100
AcDbDimension
2
_U5
10
68.5
20
5.075687
30
0
11
68.5
21
25.423783
31
0
70
32
71
1
72
1
41
1
210
0
220
0
230
1
3
Standard
100
AcDbAlignedDimension
13
52
23
-5.075687
33
0
14
52
24
5.075687
34
0
50
90
100
AcDbRotatedDimension
1001
ACAD
1000
DSTYLE
1002
{
1070
   371
1070
    13
1070
   372
1070
    13
1070
     3
1000

1070
   170
1070
     0
1070
   144
1040
1.0
1070
   277
1070
     2
1070
   284
1070
     8
1070
   278
1070
    46
1070
   146
1040
1.166667
1070
   345
1005
16
1070
   347
1005
16
1070
   346
1005
16
1070
   344
1005
0
1070
   343
1005
0
1070
   172
1070
     1
1070
    76
1070
     0
1070
    75
1070
     0
1070
   282
1070
     0
1070
   281
1070
     0
1070
    71
1070
     0
1070
    74
1070
     0
1070
   279
1070
     0
1070
   173
1070
     1
1070
   340
1005
1CF
1070
   271
1070
     2
1070
   272
1070
     3
1070
    77
1070
     1
1070
    73
1070
     0
1070
   171
1070
     3
1070
   274
1070
     4
1070
   177
1070
     2
1070
   176
1070
     2
1070
   178
1070
     2
1070
    78
1070
     8
1070
    48
1040
-0.1
1070
    41
1040
3.5
1070
   147
1040
1.5
1070
    42
1040
1.5875
1070
    44
1040
2.0
1070
   140
1040
3.0
1002
}
1001
ACAD_DSTYLE_DIM_LINETYPE
1070
   380
1005
16
1001
ACAD_DSTYLE_DIM_EXT1_LINETYPE
1070
   381
1005
16
1001
ACAD_DSTYLE_DIM_EXT2_LINETYPE
1070
   382
1005
16
0
DIMENSION
5
276
100
AcDbEntity
8
SK2
62
256
6
ByLayer
370
18
48
1
60
0
100
AcDbDimension
2
_U6
10
-28.5
20
-2.75
30
0
11
-28.5
21
21.419655
31
0
70
32
71
1
72
1
41
1
210
0
220
0
230
1
3
Standard
100
AcDbAlignedDimension
13
-23
23
2.75
33
0
14
-23
24
-2.75
34
0
50
90
100
AcDbRotatedDimension
1001
ACAD
1000
DSTYLE
1002
{
1070
   371
1070
    13
1070
   372
1070
    13
1070
     3
1000

1070
   170
1070
     0
1070
   144
1040
1.0
1070
   277
1070
     2
1070
   284
1070
     8
1070
   278
1070
    46
1070
   146
1040
1.166667
1070
   345
1005
16
1070
   347
1005
16
1070
   346
1005
16
1070
   344
1005
0
1070
   343
1005
0
1070
   172
1070
     1
1070
    76
1070
     0
1070
    75
1070
     0
1070
   282
1070
     0
1070
   281
1070
     0
1070
    71
1070
     0
1070
    74
1070
     0
1070
   279
1070
     0
1070
   173
1070
     1
1070
   340
1005
1CF
1070
   271
1070
     2
1070
   272
1070
     3
1070
    77
1070
     1
1070
    73
1070
     0
1070
   171
1070
     3
1070
   274
1070
     4
1070
   177
1070
     2
1070
   176
1070
     2
1070
   178
1070
     2
1070
    78
1070
     8
1070
    48
1040
-0.1
1070
    41
1040
3.5
1070
   147
1040
1.5
1070
    42
1040
1.5875
1070
    44
1040
2.0
1070
   140
1040
3.0
1002
}
1001
ACAD_DSTYLE_DIM_LINETYPE
1070
   380
1005
16
1001
ACAD_DSTYLE_DIM_EXT1_LINETYPE
1070
   381
1005
16
1001
ACAD_DSTYLE_DIM_EXT2_LINETYPE
1070
   382
1005
16
0
ENDSEC
0
SECTION
2
OBJECTS
0
DICTIONARY
5
300
330
0
100
AcDbDictionary
280
0
281
1
3
ACAD_GROUP
350
301
3
ACAD_MLINESTYLE
350
302
0
DICTIONARY
5
301
330
0
100
AcDbDictionary
280
0
281
1
0
DICTIONARY
5
302
330
0
100
AcDbDictionary
280
0
281
1
3
Standard
350
18
0
MLINESTYLE
5
18
330
302
100
AcDbMlineStyle
2
Standard
70
0
3

62
256
51
90
52
90
71
2
49
-0.5
62
256
6
ByLayer
49
0.5
62
256
6
ByLayer
0
RASTERVARIABLES
5
2ee
330

100
AcDbRasterVariables
90
0
70
1
71
1
72
1
0
ENDSEC
0
EOF
