0
SECTION
2
HEADER
9
$ACADVER
1
AC1015
9
$DWGCODEPAGE
3
ANSI_1252
9
$HANDSEED
5
30d
9
$ANGBASE
50
0
9
$ANGDIR
70
0
9
$ATTMODE
70
1
9
$AUNITS
70
0
9
$AUPREC
70
0
9
$CECOLOR
62
256
9
$CELTSCALE
40
1
9
$CELTYPE
6
ByLayer
9
$CELWEIGHT
370
18
9
$CLAYER
8
0
9
$CMLJUST
70
0
9
$CMLSCALE
40
1
9
$CMLSTYLE
2
Standard
9
$DIMSTYLE
2
Standard
9
$TEXTSIZE
40
0.2
9
$TEXTSTYLE
7
Standard
9
$LUNITS
70
2
9
$LUPREC
70
4
9
$EXTNAMES
290
1
9
$INSUNITS
70
4
9
$LTSCALE
40
1
9
$LWDISPLAY
290
1
9
$PDMODE
70
0
9
$PDSIZE
40
0
9
$PLINEGEN
70
0
0
ENDSEC
0
SECTION
2
CLASSES
0
CLASS
1
RASTERVARIABLES
2
AcDbRasterVariables
3
ISM
90
0
280
0
281
0
0
ENDSEC
0
SECTION
2
TABLES
0
TABLE
2
VPORT
5
303
100
AcDbSymbolTable
0
VPORT
5
1
100
AcDbSymbolTableRecord
100
AcDbViewportTableRecord
2
*Active
70
0
10
0
20
0
11
1
21
1
12
-1
22
1
13
0
23
0
14
0.5
24
0.5
15
10
25
10
16
0
26
0
36
1
17
0
27
0
37
0
0
ENDTAB
0
TABLE
2
LTYPE
5
304
100
AcDbSymbolTable
0
LTYPE
5
14
100
AcDbSymbolTableRecord
100
AcDbLinetypeTableRecord
70
0
2
ByBlock
3

72
65
73
0
40
0
0
LTYPE
5
15
100
AcDbSymbolTableRecord
100
AcDbLinetypeTableRecord
70
0
2
ByLayer
3

72
65
73
0
40
0
0
LTYPE
5
16
100
AcDbSymbolTableRecord
100
AcDbLinetypeTableRecord
70
0
2
Continuous
3
Solid line
72
65
73
0
40
0
0
LTYPE
5
6E
100
AcDbSymbolTableRecord
100
AcDbLinetypeTableRecord
70
0
2
CENTER
3
____ _ ____ _ ____ _ ____
72
65
73
4
40
47.5
49
22
74
0
49
-8.5
74
0
49
8.5
74
0
49
-8.5
74
0
0
LTYPE
5
6F
100
AcDbSymbolTableRecord
100
AcDbLinetypeTableRecord
70
0
2
DASHED
3
__ __ __ __ __ __ __ __ __
72
65
73
2
40
25.72
49
12.86
74
0
49
-12.86
74
0
0
ENDTAB
0
TABLE
2
LAYER
5
305
100
AcDbSymbolTable
0
LAYER
5
10
100
AcDbSymbolTableRecord
100
AcDbLayerTableRecord
2
0
70
0
62
7
6
Continuous
290
1
370
-3
390
0
0
LAYER
5
71
100
AcDbSymbolTableRecord
100
AcDbLayerTableRecord
2
81
70
0
62
-3
6
Continuous
290
1
370
-3
390
0
0
LAYER
5
73
100
AcDbSymbolTableRecord
100
AcDbLayerTableRecord
2
80
70
0
62
-6
6
Continuous
290
1
370
-3
390
0
0
LAYER
5
75
100
AcDbSymbolTableRecord
100
AcDbLayerTableRecord
2
1
70
0
62
4
6
Continuous
290
1
370
-3
390
0
0
LAYER
5
85
100
AcDbSymbolTableRecord
100
AcDbLayerTableRecord
2
4
70
0
62
-2
6
CENTER
290
1
370
-3
390
0
0
LAYER
5
1E0
100
AcDbSymbolTableRecord
100
AcDbLayerTableRecord
2
Defpoints
70
0
62
7
6
Continuous
290
0
370
-3
390
0
0
LAYER
5
21E
100
AcDbSymbolTableRecord
100
AcDbLayerTableRecord
2
2
70
0
62
7
6
Continuous
290
1
370
-3
390
0
0
LAYER
5
2ef
100
AcDbSymbolTableRecord
100
AcDbLayerTableRecord
2
SK4
70
0
62
2
6
CENTER
290
1
370
-3
390
0
0
LAYER
5
2f0
100
AcDbSymbolTableRecord
100
AcDbLayerTableRecord
2
SK1
70
0
62
4
6
Continuous
290
1
370
-3
390
0
0
LAYER
5
2f1
100
AcDbSymbolTableRecord
100
AcDbLayerTableRecord
2
SK2
70
0
62
7
6
Continuous
290
1
370
-3
390
0
0
LAYER
5
2f2
100
AcDbSymbolTableRecord
100
AcDbLayerTableRecord
2
SK6
70
0
62
5
6
Continuous
290
1
370
-3
390
0
0
ENDTAB
0
TABLE
2
STYLE
5
306
100
AcDbSymbolTable
0
STYLE
5
11
100
AcDbSymbolTableRecord
100
AcDbTextStyleTableRecord
2
Standard
3
txt
70
0
71
0
40
0
41
1
42
0
50
0
0
STYLE
5
1CE
100
AcDbSymbolTableRecord
100
AcDbTextStyleTableRecord
2
iso_b_vert
3
simplex.shx
70
0
71
0
40
0
41
1
42
0
50
0
0
STYLE
5
1CF
100
AcDbSymbolTableRecord
100
AcDbTextStyleTableRecord
2
DWGDirectTextStyle
3
simplex
70
0
71
0
40
0
41
1
42
0
50
0
0
ENDTAB
0
TABLE
2
DIMSTYLE
5
307
100
AcDbSymbolTable
100
AcDbDimStyleTable
0
DIMSTYLE
105
27
100
AcDbSymbolTableRecord
100
AcDbDimStyleTableRecord
2
Standard
70
0
3
<>
41
0.18
42
0.0625
44
0.18
140
0.18
147
0.09
73
0
74
0
77
1
271
2
275
0
278
52
280
0
340
11
0
ENDTAB
0
TABLE
2
VIEW
5
308
100
AcDbSymbolTable
0
ENDTAB
0
TABLE
2
UCS
5
309
100
AcDbSymbolTable
0
ENDTAB
0
TABLE
2
APPID
5
30a
100
AcDbSymbolTable
0
APPID
5
12
100
AcDbSymbolTableRecord
100
AcDbRegAppTableRecord
2
ACAD
70
0
0
APPID
5
1DC
100
AcDbSymbolTableRecord
100
AcDbRegAppTableRecord
2
ACAD_DSTYLE_DIMBREAK
70
0
0
APPID
5
2AE
100
AcDbSymbolTableRecord
100
AcDbRegAppTableRecord
2
ACAD_DSTYLE_DIM_LINETYPE
70
0
0
APPID
5
2AF
100
AcDbSymbolTableRecord
100
AcDbRegAppTableRecord
2
ACAD_DSTYLE_DIM_EXT1_LINETYPE
70
0
0
APPID
5
2B0
100
AcDbSymbolTableRecord
100
AcDbRegAppTableRecord
2
ACAD_DSTYLE_DIM_EXT2_LINETYPE
70
0
0
APPID
5
2EB
100
AcDbSymbolTableRecord
100
AcDbRegAppTableRecord
2
ACAD_MLEADERVER
70
0
0
ENDTAB
0
TABLE
2
BLOCK_RECORD
5
30b
100
AcDbSymbolTable
0
BLOCK_RECORD
5
1F
100
AcDbSymbolTableRecord
100
AcDbBlockTableRecord
2
*Model_Space
340
0
70
0
0
BLOCK_RECORD
5
1B
100
AcDbSymbolTableRecord
100
AcDbBlockTableRecord
2
*Paper_Space
340
0
70
0
0
BLOCK_RECORD
5
23
100
AcDbSymbolTableRecord
100
AcDbBlockTableRecord
2
*Paper_Space0
340
0
70
0
0
BLOCK_RECORD
5
1E1
100
AcDbSymbolTableRecord
100
AcDbBlockTableRecord
2
*D1
340
0
70
0
0
BLOCK_RECORD
5
1ED
100
AcDbSymbolTableRecord
100
AcDbBlockTableRecord
2
_U0
340
0
70
0
0
BLOCK_RECORD
5
1F9
100
AcDbSymbolTableRecord
100
AcDbBlockTableRecord
2
*D3
340
0
70
0
0
BLOCK_RECORD
5
205
100
AcDbSymbolTableRecord
100
AcDbBlockTableRecord
2
_U1
340
0
70
0
0
BLOCK_RECORD
5
211
100
AcDbSymbolTableRecord
100
AcDbBlockTableRecord
2
*D5
340
0
70
0
0
BLOCK_RECORD
5
21F
100
AcDbSymbolTableRecord
100
AcDbBlockTableRecord
2
_U2
340
0
70
0
0
BLOCK_RECORD
5
22B
100
AcDbSymbolTableRecord
100
AcDbBlockTableRecord
2
*D7
340
0
70
0
0
BLOCK_RECORD
5
238
100
AcDbSymbolTableRecord
100
AcDbBlockTableRecord
2
_U3
340
0
70
0
0
BLOCK_RECORD
5
244
100
AcDbSymbolTableRecord
100
AcDbBlockTableRecord
2
*D9
340
0
70
0
0
BLOCK_RECORD
5
251
100
AcDbSymbolTableRecord
100
AcDbBlockTableRecord
2
_U4
340
0
70
0
0
BLOCK_RECORD
5
25E
100
AcDbSymbolTableRecord
100
AcDbBlockTableRecord
2
*D11
340
0
70
0
0
BLOCK_RECORD
5
26C
100
AcDbSymbolTableRecord
100
AcDbBlockTableRecord
2
_U5
340
0
70
0
0
BLOCK_RECORD
5
279
100
AcDbSymbolTableRecord
100
AcDbBlockTableRecord
2
*D13
340
0
70
0
0
BLOCK_RECORD
5
287
100
AcDbSymbolTableRecord
100
AcDbBlockTableRecord
2
_U6
340
0
70
0
0
ENDTAB
0
ENDSEC
0
SECTION
2
BLOCKS
0
BLOCK
5
20
100
AcDbEntity
8
0
100
AcDbBlockBegin
2
*Model_Space
70
0
10
0
20
0
30
0
3
*Model_Space
0
ENDBLK
5
21
100
AcDbEntity
8
0
100
AcDbBlockEnd
0
BLOCK
5
1C
100
AcDbEntity
8
0
100
AcDbBlockBegin
2
*Paper_Space
70
0
10
0
20
0
30
0
3
*Paper_Space
0
ENDBLK
5
1D
100
AcDbEntity
8
0
100
AcDbBlockEnd
0
BLOCK
5
24
100
AcDbEntity
8
0
100
AcDbBlockBegin
2
*Paper_Space0
70
0
10
0
20
0
30
0
3
*Paper_Space0
0
ENDBLK
5
25
100
AcDbEntity
8
0
100
AcDbBlockEnd
0
BLOCK
5
1E2
100
AcDbEntity
8
0
100
AcDbBlockBegin
2
*D1
70
1
10
0
20
0
30
0
3
*D1
0
LINE
5
1E4
100
AcDbEntity
8
0
62
256
6
ByLayer
370
-2
48
1
60
0
100
AcDbLine
10
-19.83
20
-1.5875
30
0
11
-19.83
21
-53.624454
31
0
39
0
210
0
220
0
230
1
0
LINE
5
1E5
100
AcDbEntity
8
0
62
256
6
ByLayer
370
-2
48
1
60
0
100
AcDbLine
10
36.17
20
-1.5875
30
0
11
36.17
21
-53.624454
31
0
39
0
210
0
220
0
230
1
0
LINE
5
1E6
100
AcDbEntity
8
0
62
256
6
ByLayer
370
-2
48
1
60
0
100
AcDbLine
10
-16.33
20
-51.624454
30
0
11
32.67
21
-51.624454
31
0
39
0
210
0
220
0
230
1
0
SOLID
5
1E7
100
AcDbEntity
8
0
62
256
6
ByLayer
370
-1
48
1
60
0
100
AcDbTrace
10
-16.33
20
-51.041121
30
0
11
-16.33
21
-52.207788
31
0
12
-19.83
22
-51.624454
32
0
13
-19.83
23
-51.624454
33
0
39
0
210
0
220
0
230
1
0
SOLID
5
1E8
100
AcDbEntity
8
0
62
256
6
ByLayer
370
-1
48
1
60
0
100
AcDbTrace
10
32.67
20
-52.207788
30
0
11
32.67
21
-51.041121
31
0
12
36.17
22
-51.624454
32
0
13
36.17
23
-51.624454
33
0
39
0
210
0
220
0
230
1
0
MTEXT
5
1E9
100
AcDbEntity
8
0
62
256
6
ByLayer
370
18
48
1
60
0
100
AcDbMText
10
8.17
20
-45.624454
30
0
210
0
220
0
230
1
1
\A1;56
40
3
41
0
44
1
50
0
71
5
72
5
7
iso_b_vert
0
POINT
5
1EA
100
AcDbEntity
8
Defpoints
62
0
6
ByLayer
370
-1
48
1
60
0
100
AcDbPoint
10
-19.83
20
0
30
0
39
0
210
0
220
0
230
1
50
360
0
POINT
5
1EB
100
AcDbEntity
8
Defpoints
62
0
6
ByLayer
370
-1
48
1
60
0
100
AcDbPoint
10
36.17
20
0
30
0
39
0
210
0
220
0
230
1
50
360
0
POINT
5
1EC
100
AcDbEntity
8
Defpoints
62
0
6
ByLayer
370
-1
48
1
60
0
100
AcDbPoint
10
36.17
20
-51.624454
30
0
39
0
210
0
220
0
230
1
50
360
0
ENDBLK
5
1E3
100
AcDbEntity
8
0
100
AcDbBlockEnd
0
BLOCK
5
1F4
100
AcDbEntity
8
0
100
AcDbBlockBegin
2
_U0
70
0
10
0
20
0
30
0
3
_U0
0
MTEXT
5
1EE
100
AcDbEntity
8
SK2
62
256
6
ByLayer
370
18
48
1
60
0
100
AcDbMText
10
4.808544
20
-50.73934
30
0
210
0
220
0
230
1
1
\W0.7346;56.0
40
3
41
0
44
1.084337
50
0
71
7
72
5
7
iso_b_vert
0
LINE
5
1EF
100
AcDbEntity
8
SK2
62
256
6
ByLayer
370
13
48
1
60
0
100
AcDbLine
10
-19.83
20
-1.5875
30
0
11
-19.83
21
-53.624454
31
0
39
0
210
0
220
0
230
1
0
LINE
5
1F0
100
AcDbEntity
8
SK2
62
256
6
ByLayer
370
13
48
1
60
0
100
AcDbLine
10
36.17
20
-1.5875
30
0
11
36.17
21
-53.624454
31
0
39
0
210
0
220
0
230
1
0
LINE
5
1F1
100
AcDbEntity
8
SK2
62
256
6
ByLayer
370
13
48
1
60
0
100
AcDbLine
10
-19.83
20
-51.624454
30
0
11
36.17
21
-51.624454
31
0
39
0
210
0
220
0
230
1
0
SOLID
5
1F2
100
AcDbEntity
8
SK2
62
256
6
ByLayer
370
18
48
1
60
0
100
AcDbTrace
10
-19.83
20
-51.624454
30
0
11
-16.330002
21
-51.16367
31
0
12
-16.329998
22
-52.085238
32
0
13
-16.329998
23
-52.085238
33
0
39
0
210
0
220
0
230
1
0
SOLID
5
1F3
100
AcDbEntity
8
SK2
62
256
6
ByLayer
370
18
48
1
60
0
100
AcDbTrace
10
36.17
20
-51.624454
30
0
11
32.670002
21
-52.085238
31
0
12
32.669998
22
-51.16367
32
0
13
32.669998
23
-51.16367
33
0
39
0
210
0
220
0
230
1
0
ENDBLK
5
1F5
100
AcDbEntity
8
0
100
AcDbBlockEnd
0
BLOCK
5
1FA
100
AcDbEntity
8
0
100
AcDbBlockBegin
2
*D3
70
1
10
0
20
0
30
0
3
*D3
0
LINE
5
1FC
100
AcDbEntity
8
0
62
256
6
ByLayer
370
-2
48
1
60
0
100
AcDbLine
10
36.17
20
-1.5875
30
0
11
36.17
21
-45.624454
31
0
39
0
210
0
220
0
230
1
0
LINE
5
1FD
100
AcDbEntity
8
0
62
256
6
ByLayer
370
-2
48
1
60
0
100
AcDbLine
10
18.17
20
-1.5875
30
0
11
18.17
21
-45.624454
31
0
39
0
210
0
220
0
230
1
0
LINE
5
1FE
100
AcDbEntity
8
0
62
256
6
ByLayer
370
-2
48
1
60
0
100
AcDbLine
10
32.67
20
-43.624454
30
0
11
21.67
21
-43.624454
31
0
39
0
210
0
220
0
230
1
0
SOLID
5
1FF
100
AcDbEntity
8
0
62
256
6
ByLayer
370
-1
48
1
60
0
100
AcDbTrace
10
32.67
20
-44.207788
30
0
11
32.67
21
-43.041121
31
0
12
36.17
22
-43.624454
32
0
13
36.17
23
-43.624454
33
0
39
0
210
0
220
0
230
1
0
SOLID
5
200
100
AcDbEntity
8
0
62
256
6
ByLayer
370
-1
48
1
60
0
100
AcDbTrace
10
21.67
20
-43.041121
30
0
11
21.67
21
-44.207788
31
0
12
18.17
22
-43.624454
32
0
13
18.17
23
-43.624454
33
0
39
0
210
0
220
0
230
1
0
MTEXT
5
201
100
AcDbEntity
8
0
62
256
6
ByLayer
370
18
48
1
60
0
100
AcDbMText
10
27.17
20
-37.624454
30
0
210
0
220
0
230
1
1
\A1;18
40
3
41
0
44
1
50
0
71
5
72
5
7
iso_b_vert
0
POINT
5
202
100
AcDbEntity
8
Defpoints
62
0
6
ByLayer
370
-1
48
1
60
0
100
AcDbPoint
10
36.17
20
0
30
0
39
0
210
0
220
0
230
1
50
360
0
POINT
5
203
100
AcDbEntity
8
Defpoints
62
0
6
ByLayer
370
-1
48
1
60
0
100
AcDbPoint
10
18.17
20
0
30
0
39
0
210
0
220
0
230
1
50
360
0
POINT
5
204
100
AcDbEntity
8
Defpoints
62
0
6
ByLayer
370
-1
48
1
60
0
100
AcDbPoint
10
18.17
20
-43.624454
30
0
39
0
210
0
220
0
230
1
50
360
0
ENDBLK
5
1FB
100
AcDbEntity
8
0
100
AcDbBlockEnd
0
BLOCK
5
20C
100
AcDbEntity
8
0
100
AcDbBlockBegin
2
_U1
70
0
10
0
20
0
30
0
3
_U1
0
MTEXT
5
206
100
AcDbEntity
8
SK2
62
256
6
ByLayer
370
18
48
1
60
0
100
AcDbMText
10
24.183486
20
-42.73934
30
0
210
0
220
0
230
1
1
\W0.6563;18.0
40
3
41
0
44
1.084337
50
0
71
7
72
5
7
iso_b_vert
0
LINE
5
207
100
AcDbEntity
8
SK2
62
256
6
ByLayer
370
13
48
1
60
0
100
AcDbLine
10
36.17
20
-1.5875
30
0
11
36.17
21
-45.624454
31
0
39
0
210
0
220
0
230
1
0
LINE
5
208
100
AcDbEntity
8
SK2
62
256
6
ByLayer
370
13
48
1
60
0
100
AcDbLine
10
18.17
20
-1.5875
30
0
11
18.17
21
-45.624454
31
0
39
0
210
0
220
0
230
1
0
LINE
5
209
100
AcDbEntity
8
SK2
62
256
6
ByLayer
370
13
48
1
60
0
100
AcDbLine
10
36.17
20
-43.624454
30
0
11
18.17
21
-43.624454
31
0
39
0
210
0
220
0
230
1
0
SOLID
5
20A
100
AcDbEntity
8
SK2
62
256
6
ByLayer
370
18
48
1
60
0
100
AcDbTrace
10
36.17
20
-43.624454
30
0
11
32.670002
21
-44.085238
31
0
12
32.669998
22
-43.16367
32
0
13
32.669998
23
-43.16367
33
0
39
0
210
0
220
0
230
1
0
SOLID
5
20B
100
AcDbEntity
8
SK2
62
256
6
ByLayer
370
18
48
1
60
0
100
AcDbTrace
10
18.17
20
-43.624454
30
0
11
21.669998
21
-43.16367
31
0
12
21.670002
22
-44.085238
32
0
13
21.670002
23
-44.085238
33
0
39
0
210
0
220
0
230
1
0
ENDBLK
5
20D
100
AcDbEntity
8
0
100
AcDbBlockEnd
0
BLOCK
5
212
100
AcDbEntity
8
0
100
AcDbBlockBegin
2
*D5
70
1
10
0
20
0
30
0
3
*D5
0
LINE
5
214
100
AcDbEntity
8
0
62
256
6
ByLayer
370
-2
48
1
60
0
100
AcDbLine
10
36.17
20
-1.5875
30
0
11
36.17
21
-37.624454
31
0
39
0
210
0
220
0
230
1
0
LINE
5
215
100
AcDbEntity
8
0
62
256
6
ByLayer
370
-2
48
1
60
0
100
AcDbLine
10
20.87
20
-1.5875
30
0
11
20.87
21
-37.624454
31
0
39
0
210
0
220
0
230
1
0
LINE
5
216
100
AcDbEntity
8
0
62
256
6
ByLayer
370
-2
48
1
60
0
100
AcDbLine
10
39.67
20
-35.624454
30
0
11
43.17
21
-35.624454
31
0
39
0
210
0
220
0
230
1
0
LINE
5
217
100
AcDbEntity
8
0
62
256
6
ByLayer
370
-2
48
1
60
0
100
AcDbLine
10
17.37
20
-35.624454
30
0
11
13.87
21
-35.624454
31
0
39
0
210
0
220
0
230
1
0
SOLID
5
218
100
AcDbEntity
8
0
62
256
6
ByLayer
370
-1
48
1
60
0
100
AcDbTrace
10
39.67
20
-35.041121
30
0
11
39.67
21
-36.207788
31
0
12
36.17
22
-35.624454
32
0
13
36.17
23
-35.624454
33
0
39
0
210
0
220
0
230
1
0
SOLID
5
219
100
AcDbEntity
8
0
62
256
6
ByLayer
370
-1
48
1
60
0
100
AcDbTrace
10
17.37
20
-36.207788
30
0
11
17.37
21
-35.041121
31
0
12
20.87
22
-35.624454
32
0
13
20.87
23
-35.624454
33
0
39
0
210
0
220
0
230
1
0
MTEXT
5
21A
100
AcDbEntity
8
0
62
256
6
ByLayer
370
18
48
1
60
0
100
AcDbMText
10
28.52
20
-29.624454
30
0
210
0
220
0
230
1
1
\A1;15.3
40
3
41
0
44
1
50
0
71
5
72
5
7
iso_b_vert
0
POINT
5
21B
100
AcDbEntity
8
Defpoints
62
0
6
ByLayer
370
-1
48
1
60
0
100
AcDbPoint
10
36.17
20
0
30
0
39
0
210
0
220
0
230
1
50
360
0
POINT
5
21C
100
AcDbEntity
8
Defpoints
62
0
6
ByLayer
370
-1
48
1
60
0
100
AcDbPoint
10
20.87
20
0
30
0
39
0
210
0
220
0
230
1
50
360
0
POINT
5
21D
100
AcDbEntity
8
Defpoints
62
0
6
ByLayer
370
-1
48
1
60
0
100
AcDbPoint
10
20.87
20
-35.624454
30
0
39
0
210
0
220
0
230
1
50
360
0
ENDBLK
5
213
100
AcDbEntity
8
0
100
AcDbBlockEnd
0
BLOCK
5
226
100
AcDbEntity
8
0
100
AcDbBlockBegin
2
_U2
70
0
10
0
20
0
30
0
3
_U2
0
MTEXT
5
220
100
AcDbEntity
8
2
62
256
6
ByLayer
370
18
48
1
60
0
100
AcDbMText
10
25.533486
20
-34.73934
30
0
210
0
220
0
230
1
1
\W0.6563;15.3
40
3
41
0
44
1.084337
50
0
71
7
72
5
7
iso_b_vert
0
LINE
5
221
100
AcDbEntity
8
2
62
256
6
ByLayer
370
13
48
1
60
0
100
AcDbLine
10
36.17
20
-1.5875
30
0
11
36.17
21
-37.624454
31
0
39
0
210
0
220
0
230
1
0
LINE
5
222
100
AcDbEntity
8
2
62
256
6
ByLayer
370
13
48
1
60
0
100
AcDbLine
10
20.87
20
-1.5875
30
0
11
20.87
21
-37.624454
31
0
39
0
210
0
220
0
230
1
0
LINE
5
223
100
AcDbEntity
8
2
62
256
6
ByLayer
370
13
48
1
60
0
100
AcDbLine
10
36.17
20
-35.624454
30
0
11
20.87
21
-35.624454
31
0
39
0
210
0
220
0
230
1
0
SOLID
5
224
100
AcDbEntity
8
2
62
256
6
ByLayer
370
18
48
1
60
0
100
AcDbTrace
10
36.17
20
-35.624454
30
0
11
32.670002
21
-36.085238
31
0
12
32.669998
22
-35.16367
32
0
13
32.669998
23
-35.16367
33
0
39
0
210
0
220
0
230
1
0
SOLID
5
225
100
AcDbEntity
8
2
62
256
6
ByLayer
370
18
48
1
60
0
100
AcDbTrace
10
20.87
20
-35.624454
30
0
11
24.369998
21
-35.16367
31
0
12
24.370002
22
-36.085238
32
0
13
24.370002
23
-36.085238
33
0
39
0
210
0
220
0
230
1
0
ENDBLK
5
227
100
AcDbEntity
8
0
100
AcDbBlockEnd
0
BLOCK
5
22C
100
AcDbEntity
8
0
100
AcDbBlockBegin
2
*D7
70
1
10
0
20
0
30
0
3
*D7
0
LINE
5
22E
100
AcDbEntity
8
0
62
256
6
ByLayer
370
-2
48
1
60
0
100
AcDbLine
10
36.17
20
-1.5875
30
0
11
36.17
21
-29.624454
31
0
39
0
210
0
220
0
230
1
0
LINE
5
22F
100
AcDbEntity
8
0
62
256
6
ByLayer
370
-2
48
1
60
0
100
AcDbLine
10
29.67
20
-2.71595
30
0
11
29.67
21
-29.624454
31
0
39
0
210
0
220
0
230
1
0
LINE
5
230
100
AcDbEntity
8
0
62
256
6
ByLayer
370
-2
48
1
60
0
100
AcDbLine
10
39.67
20
-27.624454
30
0
11
43.17
21
-27.624454
31
0
39
0
210
0
220
0
230
1
0
LINE
5
231
100
AcDbEntity
8
0
62
256
6
ByLayer
370
-2
48
1
60
0
100
AcDbLine
10
26.17
20
-27.624454
30
0
11
22.67
21
-27.624454
31
0
39
0
210
0
220
0
230
1
0
SOLID
5
232
100
AcDbEntity
8
0
62
256
6
ByLayer
370
-1
48
1
60
0
100
AcDbTrace
10
39.67
20
-27.041121
30
0
11
39.67
21
-28.207788
31
0
12
36.17
22
-27.624454
32
0
13
36.17
23
-27.624454
33
0
39
0
210
0
220
0
230
1
0
SOLID
5
233
100
AcDbEntity
8
0
62
256
6
ByLayer
370
-1
48
1
60
0
100
AcDbTrace
10
26.17
20
-28.207788
30
0
11
26.17
21
-27.041121
31
0
12
29.67
22
-27.624454
32
0
13
29.67
23
-27.624454
33
0
39
0
210
0
220
0
230
1
0
MTEXT
5
234
100
AcDbEntity
8
0
62
256
6
ByLayer
370
18
48
1
60
0
100
AcDbMText
10
32.92
20
-21.624454
30
0
210
0
220
0
230
1
1
\A1;6.5
40
3
41
0
44
1
50
0
71
5
72
5
7
iso_b_vert
0
POINT
5
235
100
AcDbEntity
8
Defpoints
62
0
6
ByLayer
370
-1
48
1
60
0
100
AcDbPoint
10
36.17
20
0
30
0
39
0
210
0
220
0
230
1
50
360
0
POINT
5
236
100
AcDbEntity
8
Defpoints
62
0
6
ByLayer
370
-1
48
1
60
0
100
AcDbPoint
10
29.67
20
-1.12845
30
0
39
0
210
0
220
0
230
1
50
360
0
POINT
5
237
100
AcDbEntity
8
Defpoints
62
0
6
ByLayer
370
-1
48
1
60
0
100
AcDbPoint
10
29.67
20
-27.624454
30
0
39
0
210
0
220
0
230
1
50
360
0
ENDBLK
5
22D
100
AcDbEntity
8
0
100
AcDbBlockEnd
0
BLOCK
5
23F
100
AcDbEntity
8
0
100
AcDbBlockBegin
2
_U3
70
0
10
0
20
0
30
0
3
_U3
0
MTEXT
5
239
100
AcDbEntity
8
SK2
62
256
6
ByLayer
370
18
48
1
60
0
100
AcDbMText
10
30.679458
20
-26.73934
30
0
210
0
220
0
230
1
1
\W0.7121;6.5
40
3
41
0
44
1.084337
50
0
71
7
72
5
7
iso_b_vert
0
LINE
5
23A
100
AcDbEntity
8
SK2
62
256
6
ByLayer
370
13
48
1
60
0
100
AcDbLine
10
36.17
20
-1.5875
30
0
11
36.17
21
-29.624454
31
0
39
0
210
0
220
0
230
1
0
LINE
5
23B
100
AcDbEntity
8
SK2
62
256
6
ByLayer
370
13
48
1
60
0
100
AcDbLine
10
29.67
20
-2.71595
30
0
11
29.67
21
-29.624454
31
0
39
0
210
0
220
0
230
1
0
LINE
5
23C
100
AcDbEntity
8
SK2
62
256
6
ByLayer
370
13
48
1
60
0
100
AcDbLine
10
43.67
20
-27.624454
30
0
11
22.17
21
-27.624454
31
0
39
0
210
0
220
0
230
1
0
SOLID
5
23D
100
AcDbEntity
8
SK2
62
256
6
ByLayer
370
18
48
1
60
0
100
AcDbTrace
10
36.17
20
-27.624454
30
0
11
39.669998
21
-27.16367
31
0
12
39.670002
22
-28.085238
32
0
13
39.670002
23
-28.085238
33
0
39
0
210
0
220
0
230
1
0
SOLID
5
23E
100
AcDbEntity
8
SK2
62
256
6
ByLayer
370
18
48
1
60
0
100
AcDbTrace
10
29.67
20
-27.624454
30
0
11
26.170002
21
-28.085238
31
0
12
26.169998
22
-27.16367
32
0
13
26.169998
23
-27.16367
33
0
39
0
210
0
220
0
230
1
0
ENDBLK
5
240
100
AcDbEntity
8
0
100
AcDbBlockEnd
0
BLOCK
5
245
100
AcDbEntity
8
0
100
AcDbBlockBegin
2
*D9
70
1
10
0
20
0
30
0
3
*D9
0
LINE
5
247
100
AcDbEntity
8
0
62
256
6
ByLayer
370
-2
48
1
60
0
100
AcDbLine
10
36.17
20
1.5875
30
0
11
36.17
21
5.751652
31
0
39
0
210
0
220
0
230
1
0
LINE
5
248
100
AcDbEntity
8
0
62
256
6
ByLayer
370
-2
48
1
60
0
100
AcDbLine
10
34.42
20
1.5875
30
0
11
34.42
21
5.751652
31
0
39
0
210
0
220
0
230
1
0
LINE
5
249
100
AcDbEntity
8
0
62
256
6
ByLayer
370
-2
48
1
60
0
100
AcDbLine
10
39.67
20
3.751652
30
0
11
43.17
21
3.751652
31
0
39
0
210
0
220
0
230
1
0
LINE
5
24A
100
AcDbEntity
8
0
62
256
6
ByLayer
370
-2
48
1
60
0
100
AcDbLine
10
30.92
20
3.751652
30
0
11
27.42
21
3.751652
31
0
39
0
210
0
220
0
230
1
0
SOLID
5
24B
100
AcDbEntity
8
0
62
256
6
ByLayer
370
-1
48
1
60
0
100
AcDbTrace
10
39.67
20
4.334985
30
0
11
39.67
21
3.168318
31
0
12
36.17
22
3.751652
32
0
13
36.17
23
3.751652
33
0
39
0
210
0
220
0
230
1
0
SOLID
5
24C
100
AcDbEntity
8
0
62
256
6
ByLayer
370
-1
48
1
60
0
100
AcDbTrace
10
30.92
20
3.168318
30
0
11
30.92
21
4.334985
31
0
12
34.42
22
3.751652
32
0
13
34.42
23
3.751652
33
0
39
0
210
0
220
0
230
1
0
MTEXT
5
24D
100
AcDbEntity
8
0
62
256
6
ByLayer
370
18
48
1
60
0
100
AcDbMText
10
35.295
20
9.751652
30
0
210
0
220
0
230
1
1
\A1;1.75
40
3
41
0
44
1
50
0
71
5
72
5
7
iso_b_vert
0
POINT
5
24E
100
AcDbEntity
8
Defpoints
62
0
6
ByLayer
370
-1
48
1
60
0
100
AcDbPoint
10
36.17
20
0
30
0
39
0
210
0
220
0
230
1
50
360
0
POINT
5
24F
100
AcDbEntity
8
Defpoints
62
0
6
ByLayer
370
-1
48
1
60
0
100
AcDbPoint
10
34.42
20
0
30
0
39
0
210
0
220
0
230
1
50
360
0
POINT
5
250
100
AcDbEntity
8
Defpoints
62
0
6
ByLayer
370
-1
48
1
60
0
100
AcDbPoint
10
34.42
20
3.751652
30
0
39
0
210
0
220
0
230
1
50
360
0
ENDBLK
5
246
100
AcDbEntity
8
0
100
AcDbBlockEnd
0
BLOCK
5
259
100
AcDbEntity
8
0
100
AcDbBlockBegin
2
_U4
70
0
10
0
20
0
30
0
3
_U4
0
MTEXT
5
252
100
AcDbEntity
8
SK2
62
256
6
ByLayer
370
18
48
1
60
0
100
AcDbMText
10
32.308486
20
11.636766
30
0
210
0
220
0
230
1
1
\W0.6563;1.75
40
3
41
0
44
1.084337
50
0
71
7
72
5
7
iso_b_vert
0
MTEXT
5
253
100
AcDbEntity
8
SK2
62
256
6
ByLayer
370
18
48
1
60
0
100
AcDbMText
10
32.334986
20
4.534285
30
0
210
0
220
0
230
1
1
\W0.6474;'C'
40
3.5
41
0
44
1.084337
50
0
71
7
72
5
7
iso_b_vert
0
LINE
5
254
100
AcDbEntity
8
SK2
62
256
6
ByLayer
370
13
48
1
60
0
100
AcDbLine
10
36.17
20
1.5875
30
0
11
36.17
21
5.751652
31
0
39
0
210
0
220
0
230
1
0
LINE
5
255
100
AcDbEntity
8
SK2
62
256
6
ByLayer
370
13
48
1
60
0
100
AcDbLine
10
34.42
20
1.5875
30
0
11
34.42
21
5.751652
31
0
39
0
210
0
220
0
230
1
0
LINE
5
256
100
AcDbEntity
8
SK2
62
256
6
ByLayer
370
13
48
1
60
0
100
AcDbLine
10
43.67
20
3.751652
30
0
11
26.92
21
3.751652
31
0
39
0
210
0
220
0
230
1
0
SOLID
5
257
100
AcDbEntity
8
SK2
62
256
6
ByLayer
370
18
48
1
60
0
100
AcDbTrace
10
36.17
20
3.751652
30
0
11
39.669998
21
4.212435
31
0
12
39.670002
22
3.290868
32
0
13
39.670002
23
3.290868
33
0
39
0
210
0
220
0
230
1
0
SOLID
5
258
100
AcDbEntity
8
SK2
62
256
6
ByLayer
370
18
48
1
60
0
100
AcDbTrace
10
34.42
20
3.751652
30
0
11
30.920002
21
3.290868
31
0
12
30.919998
22
4.212435
32
0
13
30.919998
23
4.212435
33
0
39
0
210
0
220
0
230
1
0
ENDBLK
5
25A
100
AcDbEntity
8
0
100
AcDbBlockEnd
0
BLOCK
5
25F
100
AcDbEntity
8
0
100
AcDbBlockBegin
2
*D11
70
1
10
0
20
0
30
0
3
*D11
0
LINE
5
261
100
AcDbEntity
8
0
62
256
6
ByLayer
370
-2
48
1
60
0
100
AcDbLine
10
37.7575
20
-1.625826
30
0
11
54.67
21
-1.625826
31
0
39
0
210
0
220
0
230
1
0
LINE
5
262
100
AcDbEntity
8
0
62
256
6
ByLayer
370
-2
48
1
60
0
100
AcDbLine
10
37.7575
20
1.625826
30
0
11
54.67
21
1.625826
31
0
39
0
210
0
220
0
230
1
0
LINE
5
263
100
AcDbEntity
8
0
62
256
6
ByLayer
370
-2
48
1
60
0
100
AcDbLine
10
52.67
20
1.625826
30
0
11
52.67
21
26.768683
31
0
39
0
210
0
220
0
230
1
0
LINE
5
264
100
AcDbEntity
8
0
62
256
6
ByLayer
370
-2
48
1
60
0
100
AcDbLine
10
52.67
20
-5.125826
30
0
11
52.67
21
-8.625826
31
0
39
0
210
0
220
0
230
1
0
LINE
5
265
100
AcDbEntity
8
0
62
256
6
ByLayer
370
-2
48
1
60
0
100
AcDbLine
10
52.67
20
5.125826
30
0
11
52.67
21
8.625826
31
0
39
0
210
0
220
0
230
1
0
SOLID
5
266
100
AcDbEntity
8
0
62
256
6
ByLayer
370
-1
48
1
60
0
100
AcDbTrace
10
53.253333
20
-5.125826
30
0
11
52.086667
21
-5.125826
31
0
12
52.67
22
-1.625826
32
0
13
52.67
23
-1.625826
33
0
39
0
210
0
220
0
230
1
0
SOLID
5
267
100
AcDbEntity
8
0
62
256
6
ByLayer
370
-1
48
1
60
0
100
AcDbTrace
10
52.086667
20
5.125826
30
0
11
53.253333
21
5.125826
31
0
12
52.67
22
1.625826
32
0
13
52.67
23
1.625826
33
0
39
0
210
0
220
0
230
1
0
MTEXT
5
268
100
AcDbEntity
8
0
62
256
6
ByLayer
370
18
48
1
60
0
100
AcDbMText
10
46.67
20
17.697254
30
0
210
0
220
0
230
1
1
\A1;3.25
40
3
41
0
44
1
50
90
71
5
72
5
7
iso_b_vert
0
POINT
5
269
100
AcDbEntity
8
Defpoints
62
0
6
ByLayer
370
-1
48
1
60
0
100
AcDbPoint
10
36.17
20
-1.625826
30
0
39
0
210
0
220
0
230
1
50
360
0
POINT
5
26A
100
AcDbEntity
8
Defpoints
62
0
6
ByLayer
370
-1
48
1
60
0
100
AcDbPoint
10
36.17
20
1.625826
30
0
39
0
210
0
220
0
230
1
50
360
0
POINT
5
26B
100
AcDbEntity
8
Defpoints
62
0
6
ByLayer
370
-1
48
1
60
0
100
AcDbPoint
10
52.67
20
1.625826
30
0
39
0
210
0
220
0
230
1
50
360
0
ENDBLK
5
260
100
AcDbEntity
8
0
100
AcDbBlockEnd
0
BLOCK
5
274
100
AcDbEntity
8
0
100
AcDbBlockBegin
2
_U5
70
0
10
0
20
0
30
0
3
_U5
0
MTEXT
5
26D
100
AcDbEntity
8
2
62
256
6
ByLayer
370
18
48
1
60
0
100
AcDbMText
10
52.078886
20
0.655477
30
0
210
0
220
0
230
1
1
\W0.7261;UNC 5-40
40
3
41
0
44
1.084337
50
90
71
7
72
5
7
iso_b_vert
0
MTEXT
5
26E
100
AcDbEntity
8
2
62
256
6
ByLayer
370
18
48
1
60
0
100
AcDbMText
10
52.230366
20
21.72626
30
0
210
0
220
0
230
1
1
\W0.7601; 2BX
40
3.5
41
0
44
1.084337
50
90
71
7
72
5
7
iso_b_vert
0
LINE
5
26F
100
AcDbEntity
8
2
62
256
6
ByLayer
370
13
48
1
60
0
100
AcDbLine
10
37.7575
20
-1.625826
30
0
11
54.67
21
-1.625826
31
0
39
0
210
0
220
0
230
1
0
LINE
5
270
100
AcDbEntity
8
2
62
256
6
ByLayer
370
13
48
1
60
0
100
AcDbLine
10
37.7575
20
1.625826
30
0
11
54.67
21
1.625826
31
0
39
0
210
0
220
0
230
1
0
LINE
5
271
100
AcDbEntity
8
2
62
256
6
ByLayer
370
13
48
1
60
0
100
AcDbLine
10
52.67
20
31.625826
30
0
11
52.67
21
-9.125826
31
0
39
0
210
0
220
0
230
1
0
SOLID
5
272
100
AcDbEntity
8
2
62
256
6
ByLayer
370
18
48
1
60
0
100
AcDbTrace
10
52.67
20
-1.625826
30
0
11
53.130784
21
-5.125824
31
0
12
52.209216
22
-5.125827
32
0
13
52.209216
23
-5.125827
33
0
39
0
210
0
220
0
230
1
0
SOLID
5
273
100
AcDbEntity
8
2
62
256
6
ByLayer
370
18
48
1
60
0
100
AcDbTrace
10
52.67
20
1.625826
30
0
11
52.209216
21
5.125824
31
0
12
53.130784
22
5.125827
32
0
13
53.130784
23
5.125827
33
0
39
0
210
0
220
0
230
1
0
ENDBLK
5
275
100
AcDbEntity
8
0
100
AcDbBlockEnd
0
BLOCK
5
27A
100
AcDbEntity
8
0
100
AcDbBlockBegin
2
*D13
70
1
10
0
20
0
30
0
3
*D13
0
LINE
5
27C
100
AcDbEntity
8
0
62
256
6
ByLayer
370
-2
48
1
60
0
100
AcDbLine
10
-21.4175
20
1.395
30
0
11
-27.33
21
1.395
31
0
39
0
210
0
220
0
230
1
0
LINE
5
27D
100
AcDbEntity
8
0
62
256
6
ByLayer
370
-2
48
1
60
0
100
AcDbLine
10
-21.4175
20
-1.395
30
0
11
-27.33
21
-1.395
31
0
39
0
210
0
220
0
230
1
0
LINE
5
27E
100
AcDbEntity
8
0
62
256
6
ByLayer
370
-2
48
1
60
0
100
AcDbLine
10
-25.33
20
1.395
30
0
11
-25.33
21
26.395
31
0
39
0
210
0
220
0
230
1
0
LINE
5
27F
100
AcDbEntity
8
0
62
256
6
ByLayer
370
-2
48
1
60
0
100
AcDbLine
10
-25.33
20
4.895
30
0
11
-25.33
21
8.395
31
0
39
0
210
0
220
0
230
1
0
LINE
5
280
100
AcDbEntity
8
0
62
256
6
ByLayer
370
-2
48
1
60
0
100
AcDbLine
10
-25.33
20
-4.895
30
0
11
-25.33
21
-8.395
31
0
39
0
210
0
220
0
230
1
0
SOLID
5
281
100
AcDbEntity
8
0
62
256
6
ByLayer
370
-1
48
1
60
0
100
AcDbTrace
10
-25.913333
20
4.895
30
0
11
-24.746667
21
4.895
31
0
12
-25.33
22
1.395
32
0
13
-25.33
23
1.395
33
0
39
0
210
0
220
0
230
1
0
SOLID
5
282
100
AcDbEntity
8
0
62
256
6
ByLayer
370
-1
48
1
60
0
100
AcDbTrace
10
-24.746667
20
-4.895
30
0
11
-25.913333
21
-4.895
31
0
12
-25.33
22
-1.395
32
0
13
-25.33
23
-1.395
33
0
39
0
210
0
220
0
230
1
0
MTEXT
5
283
100
AcDbEntity
8
0
62
256
6
ByLayer
370
18
48
1
60
0
100
AcDbMText
10
-31.33
20
17.395
30
0
210
0
220
0
230
1
1
\A1;2.79
40
3
41
0
44
1
50
90
71
5
72
5
7
iso_b_vert
0
POINT
5
284
100
AcDbEntity
8
Defpoints
62
0
6
ByLayer
370
-1
48
1
60
0
100
AcDbPoint
10
-19.83
20
1.395
30
0
39
0
210
0
220
0
230
1
50
360
0
POINT
5
285
100
AcDbEntity
8
Defpoints
62
0
6
ByLayer
370
-1
48
1
60
0
100
AcDbPoint
10
-19.83
20
-1.395
30
0
39
0
210
0
220
0
230
1
50
360
0
POINT
5
286
100
AcDbEntity
8
Defpoints
62
0
6
ByLayer
370
-1
48
1
60
0
100
AcDbPoint
10
-25.33
20
-1.395
30
0
39
0
210
0
220
0
230
1
50
360
0
ENDBLK
5
27B
100
AcDbEntity
8
0
100
AcDbBlockEnd
0
BLOCK
5
28E
100
AcDbEntity
8
0
100
AcDbBlockBegin
2
_U6
70
0
10
0
20
0
30
0
3
_U6
0
MTEXT
5
288
100
AcDbEntity
8
SK2
62
256
6
ByLayer
370
18
48
1
60
0
100
AcDbMText
10
-25.921114
20
11.135
30
0
210
0
220
0
230
1
1
\W0.7373;3.581
40
3
41
0
44
1.084337
50
90
71
7
72
5
7
iso_b_vert
0
LINE
5
289
100
AcDbEntity
8
SK2
62
256
6
ByLayer
370
13
48
1
60
0
100
AcDbLine
10
-21.4175
20
1.395
30
0
11
-27.33
21
1.395
31
0
39
0
210
0
220
0
230
1
0
LINE
5
28A
100
AcDbEntity
8
SK2
62
256
6
ByLayer
370
13
48
1
60
0
100
AcDbLine
10
-21.4175
20
-1.395
30
0
11
-27.33
21
-1.395
31
0
39
0
210
0
220
0
230
1
0
LINE
5
28B
100
AcDbEntity
8
SK2
62
256
6
ByLayer
370
13
48
1
60
0
100
AcDbLine
10
-25.33
20
-8.895
30
0
11
-25.33
21
19.532855
31
0
39
0
210
0
220
0
230
1
0
SOLID
5
28C
100
AcDbEntity
8
SK2
62
256
6
ByLayer
370
18
48
1
60
0
100
AcDbTrace
10
-25.33
20
1.395
30
0
11
-25.790784
21
4.894998
31
0
12
-24.869216
22
4.895002
32
0
13
-24.869216
23
4.895002
33
0
39
0
210
0
220
0
230
1
0
SOLID
5
28D
100
AcDbEntity
8
SK2
62
256
6
ByLayer
370
18
48
1
60
0
100
AcDbTrace
10
-25.33
20
-1.395
30
0
11
-24.869216
21
-4.894998
31
0
12
-25.790784
22
-4.895002
32
0
13
-25.790784
23
-4.895002
33
0
39
0
210
0
220
0
230
1
0
ENDBLK
5
28F
100
AcDbEntity
8
0
100
AcDbBlockEnd
0
ENDSEC
0
SECTION
2
ENTITIES
0
ARC
5
C4
100
AcDbEntity
8
SK1
62
256
6
ByLayer
370
18
48
1
60
0
100
AcDbCircle
39
0
10
-16.395
20
0
30
0
40
1.71887999999986
210
0
220
0
230
1
100
AcDbArc
50
324.250098
51
35.749902
0
ARC
5
C5
100
AcDbEntity
8
1
62
256
6
ByLayer
370
18
48
1
60
0
100
AcDbCircle
39
0
10
18.239991
20
-1.92845
30
0
40
0.8
210
0
220
0
230
1
100
AcDbArc
50
90
51
100
0
ARC
5
C6
100
AcDbEntity
8
1
62
256
6
ByLayer
370
18
48
1
60
0
100
AcDbCircle
39
0
10
18.239991
20
1.92845
30
0
40
0.8
210
0
220
0
230
1
100
AcDbArc
50
260
51
270
0
POINT
5
70
100
AcDbEntity
8
81
62
256
6
ByLayer
370
18
48
1
60
0
100
AcDbPoint
10
36.17
20
0
30
0
39
0
210
0
220
0
230
1
50
360
0
POINT
5
72
100
AcDbEntity
8
80
62
256
6
ByLayer
370
18
48
1
60
0
100
AcDbPoint
10
0
20
0
30
0
39
0
210
0
220
0
230
1
50
360
0
POINT
5
74
100
AcDbEntity
8
1
62
256
6
ByLayer
370
18
48
1
60
1
100
AcDbPoint
10
-19.83
20
0
30
0
39
0
210
0
220
0
230
1
50
360
0
POINT
5
76
100
AcDbEntity
8
1
62
256
6
ByLayer
370
18
48
1
60
1
100
AcDbPoint
10
36.17
20
0
30
0
39
0
210
0
220
0
230
1
50
360
0
POINT
5
77
100
AcDbEntity
8
1
62
256
6
ByLayer
370
18
48
1
60
1
100
AcDbPoint
10
36.17
20
0
30
0
39
0
210
0
220
0
230
1
50
360
0
POINT
5
78
100
AcDbEntity
8
1
62
256
6
ByLayer
370
18
48
1
60
1
100
AcDbPoint
10
18.17
20
0
30
0
39
0
210
0
220
0
230
1
50
360
0
POINT
5
79
100
AcDbEntity
8
1
62
256
6
ByLayer
370
18
48
1
60
1
100
AcDbPoint
10
36.17
20
0
30
0
39
0
210
0
220
0
230
1
50
360
0
POINT
5
7A
100
AcDbEntity
8
1
62
256
6
ByLayer
370
18
48
1
60
1
100
AcDbPoint
10
20.87
20
0
30
0
39
0
210
0
220
0
230
1
50
360
0
POINT
5
7B
100
AcDbEntity
8
1
62
256
6
ByLayer
370
18
48
1
60
1
100
AcDbPoint
10
36.17
20
0
30
0
39
0
210
0
220
0
230
1
50
360
0
POINT
5
7C
100
AcDbEntity
8
1
62
256
6
ByLayer
370
18
48
1
60
1
100
AcDbPoint
10
29.67
20
-1.12845
30
0
39
0
210
0
220
0
230
1
50
360
0
POINT
5
7D
100
AcDbEntity
8
1
62
256
6
ByLayer
370
18
48
1
60
1
100
AcDbPoint
10
36.17
20
0
30
0
39
0
210
0
220
0
230
1
50
360
0
POINT
5
7E
100
AcDbEntity
8
1
62
256
6
ByLayer
370
18
48
1
60
1
100
AcDbPoint
10
34.42
20
0
30
0
39
0
210
0
220
0
230
1
50
360
0
POINT
5
7F
100
AcDbEntity
8
1
62
256
6
ByLayer
370
18
48
1
60
1
100
AcDbPoint
10
36.17
20
-1.625826
30
0
39
0
210
0
220
0
230
1
50
360
0
POINT
5
80
100
AcDbEntity
8
1
62
256
6
ByLayer
370
18
48
1
60
1
100
AcDbPoint
10
36.17
20
1.625826
30
0
39
0
210
0
220
0
230
1
50
360
0
POINT
5
81
100
AcDbEntity
8
1
62
256
6
ByLayer
370
18
48
1
60
1
100
AcDbPoint
10
-19.83
20
1.395
30
0
39
0
210
0
220
0
230
1
50
360
0
POINT
5
82
100
AcDbEntity
8
1
62
256
6
ByLayer
370
18
48
1
60
1
100
AcDbPoint
10
-19.83
20
-1.395
30
0
39
0
210
0
220
0
230
1
50
360
0
SPLINE
5
C7
100
AcDbEntity
8
1
62
256
6
ByLayer
370
18
48
1
60
0
100
AcDbSpline
70
4
71
3
72
8
73
4
40
0
40
0
40
0
40
0
40
1
40
1
40
1
40
1
41
1
10
32.9145943736008
20
1.60108890658685
30
0
41
1
10
32.9190706633402
20
1.61357386167813
30
0
41
1
10
32.9235567829654
20
1.62137013770325
30
0
41
1
10
32.9280562167229
20
1.62440099683388
30
0
0
SPLINE
5
C8
100
AcDbEntity
8
1
62
256
6
ByLayer
370
13
48
1
60
0
100
AcDbSpline
70
4
71
3
72
9
73
5
40
0
40
0
40
0
40
0
40
0.288383854581385
40
1
40
1
40
1
40
1
41
1
10
35.4362552733472
20
-1.2480256613091
30
0
41
1
10
35.4346844423288
20
-1.25046574242606
30
0
41
1
10
35.429237407905
20
-1.25735339105648
30
0
41
1
10
35.4237902920869
20
-1.25872133966462
30
0
41
1
10
35.4199140172488
20
-1.25692949998134
30
0
0
SPLINE
5
C9
100
AcDbEntity
8
1
62
256
6
ByLayer
370
13
48
1
60
0
100
AcDbSpline
70
4
71
3
72
9
73
5
40
0
40
0
40
0
40
0
40
0.474252955655059
40
1
40
1
40
1
40
1
41
1
10
30.1654655529409
20
1.24518512813685
30
0
41
1
10
30.1697847812333
20
1.25279817632034
30
0
41
1
10
30.178892216218
20
1.26168586659733
30
0
41
1
10
30.187999648422
20
1.25505235269134
30
0
41
1
10
30.1927878537772
20
1.24738536352495
30
0
0
SPLINE
5
CA
100
AcDbEntity
8
1
62
256
6
ByLayer
370
13
48
1
60
0
100
AcDbSpline
70
4
71
3
72
8
73
4
40
0
40
0
40
0
40
0
40
1
40
1
40
1
40
1
41
1
10
32.2380406344295
20
-1.25074662062505
30
0
41
1
10
32.2460693865818
20
-1.26117467950837
30
0
41
1
10
32.2540981515379
20
-1.25982090213463
30
0
41
1
10
32.262126905812
20
-1.2465586324995
30
0
0
SPLINE
5
CB
100
AcDbEntity
8
1
62
256
6
ByLayer
370
18
48
1
60
0
100
AcDbSpline
70
4
71
3
72
10
73
6
40
0
40
0
40
0
40
0
40
0.458258169898466
40
0.458258169898466
40
1
40
1
40
1
40
1
41
1
10
35.381929525704
20
-1.33899102651148
30
0
41
1
10
35.3807749877901
20
-1.3392518526226
30
0
41
1
10
35.3796471079911
20
-1.33839974270845
30
0
41
1
10
35.377253821577
20
-1.33404769928322
30
0
41
1
10
35.3759981103096
20
-1.33006894617694
30
0
41
1
10
35.3748046017437
20
-1.32450959387407
30
0
0
SPLINE
5
CC
100
AcDbEntity
8
1
62
256
6
ByLayer
370
18
48
1
60
0
100
AcDbSpline
70
4
71
3
72
10
73
6
40
0
40
0
40
0
40
0
40
0.802895893495637
40
0.802895893495637
40
1
40
1
40
1
40
1
41
1
10
34.9830754366717
20
-1.30475237544365
30
0
41
1
10
34.9919774570703
20
-1.33805721555464
30
0
41
1
10
35.0008323954436
20
-1.36432861610163
30
0
41
1
10
35.0116514650161
20
-1.38808422779391
30
0
41
1
10
35.0137716506044
20
-1.39232556433697
30
0
41
1
10
35.0158818466125
20
-1.39611939181231
30
0
0
SPLINE
5
CD
100
AcDbEntity
8
1
62
256
6
ByLayer
370
18
48
1
60
0
100
AcDbSpline
70
4
71
3
72
12
73
8
40
0
40
0
40
0
40
0
40
0.129279806388745
40
0.129279806388745
40
0.474070776572506
40
0.474070776572506
40
1
40
1
40
1
40
1
41
1
10
35.0264030339735
20
-1.4113732210532
30
0
41
1
10
35.02719801985
20
-1.41224153916198
30
0
41
1
10
35.0279909850416
20
-1.41304157996325
30
0
41
1
10
35.0308875186251
20
-1.41571927889331
30
0
41
1
10
35.032973578489
20
-1.41717505938399
30
0
41
1
10
35.0381935587858
20
-1.41963651820691
30
0
41
1
10
35.0413012231285
20
-1.42001255753425
30
0
41
1
10
35.0443722812459
20
-1.41928824652197
30
0
0
SPLINE
5
CE
100
AcDbEntity
8
1
62
256
6
ByLayer
370
18
48
1
60
0
100
AcDbSpline
70
4
71
3
72
14
73
10
40
0
40
0
40
0
40
0
40
0.349964806424481
40
0.349964806424481
40
0.51247360481836
40
0.51247360481836
40
0.674982403212239
40
0.674982403212239
40
1
40
1
40
1
40
1
41
1
10
32.067967872295
20
-1.56964343734643
30
0
41
1
10
32.0649535429745
20
-1.56917848169465
30
0
41
1
10
32.0619351232107
20
-1.56626507239576
30
0
41
1
10
32.0574930479174
20
-1.55833941889685
30
0
41
1
10
32.0560821935969
20
-1.55528376407423
30
0
41
1
10
32.0532701336588
20
-1.54813259034168
30
0
41
1
10
32.0518662102603
20
-1.54403260821533
30
0
41
1
10
32.0476513660393
20
-1.53016835614216
30
0
41
1
10
32.044832594241
20
-1.5188423793189
30
0
41
1
10
32.0419959077034
20
-1.50542065218354
30
0
0
SPLINE
5
CF
100
AcDbEntity
8
1
62
256
6
ByLayer
370
18
48
1
60
0
100
AcDbSpline
70
4
71
3
72
15
73
11
40
0
40
0
40
0
40
0
40
0.480571378077464
40
0.480571378077464
40
0.60071422259683
40
0.60071422259683
40
0.720857067116196
40
0.961142756154928
40
0.961142756154928
40
1
40
1
40
1
40
1
41
1
10
31.8951501261182
20
-1.4366706298095
30
0
41
1
10
31.9017776857326
20
-1.4719542931638
30
0
41
1
10
31.90840297605
20
-1.49925818151741
30
0
41
1
10
31.9167772127381
20
-1.52327869874713
30
0
41
1
10
31.918458758829
20
-1.52758100428309
30
0
41
1
10
31.9218117972875
20
-1.53510837891935
30
0
41
1
10
31.9268161670886
20
-1.54476643719897
30
0
41
1
10
31.9317571673885
20
-1.54962813055121
30
0
41
1
10
31.9355744589694
20
-1.55096554720137
30
0
41
1
10
31.9361057882509
20
-1.55109742506718
30
0
41
1
10
31.936637152339
20
-1.5511748602193
30
0
0
SPLINE
5
D0
100
AcDbEntity
8
1
62
256
6
ByLayer
370
18
48
1
60
0
100
AcDbSpline
70
4
71
3
72
10
73
6
40
0
40
0
40
0
40
0
40
0.0174350870247504
40
0.0174350870247504
40
1
40
1
40
1
40
1
41
1
10
30.208953764934
20
1.30836372457404
30
0
41
1
10
30.2090578536919
20
1.30837855671604
30
0
41
1
10
30.2091619540191
20
1.30839164870446
30
0
41
1
10
30.2151334020381
20
1.30904282321453
30
0
41
1
10
30.2210184516305
20
1.30415742493395
30
0
41
1
10
30.2269379923311
20
1.2935543286398
30
0
0
SPLINE
5
D1
100
AcDbEntity
8
1
62
256
6
ByLayer
370
18
48
1
60
0
100
AcDbSpline
70
4
71
3
72
16
73
12
40
0
40
0
40
0
40
0
40
0.359188757744197
40
0.359188757744197
40
0.538783136616294
40
0.538783136616294
40
0.628580326052342
40
0.628580326052342
40
0.718377515488391
40
0.718377515488391
40
1
40
1
40
1
40
1
41
1
10
30.6426963954125
20
1.22874111956744
30
0
41
1
10
30.6375762194048
20
1.26125164320439
30
0
41
1
10
30.6324643048148
20
1.28785428392351
30
0
41
1
10
30.6248098000497
20
1.31913255230469
30
0
41
1
10
30.6222596173227
20
1.32811353259731
30
0
41
1
10
30.6184243295989
20
1.33937905779214
30
0
41
1
10
30.617144135616
20
1.34276610182164
30
0
41
1
10
30.6145769980163
20
1.34879155924563
30
0
41
1
10
30.613288153631
20
1.35143172228112
30
0
41
1
10
30.6079830519844
20
1.36069795897231
30
0
41
1
10
30.6039841525063
20
1.36388429087785
30
0
41
1
10
30.5999747185111
20
1.36332171115771
30
0
0
SPLINE
5
D2
100
AcDbEntity
8
1
62
256
6
ByLayer
370
13
48
1
60
0
100
AcDbSpline
70
4
71
3
72
9
73
5
40
0
40
0
40
0
40
0
40
0.961667182134268
40
1
40
1
40
1
40
1
41
1
10
34.9293327295848
20
-1.24750706681917
30
0
41
1
10
34.9209181913781
20
-1.23409549065008
30
0
41
1
10
34.912168242878
20
-1.20667913949671
30
0
41
1
10
34.9034182935414
20
-1.16599235255433
30
0
41
1
10
34.903082883326
20
-1.16441332171564
30
0
0
SPLINE
5
D3
100
AcDbEntity
8
1
62
256
6
ByLayer
370
13
48
1
60
0
100
AcDbSpline
70
4
71
3
72
8
73
4
40
0
40
0
40
0
40
0
40
1
40
1
40
1
40
1
41
1
10
33.3399735511848
20
1.24436157939795
30
0
41
1
10
33.351690337514
20
1.26560523048332
30
0
41
1
10
33.3634071193766
20
1.26158580708156
30
0
41
1
10
33.3751239056166
20
1.23246032299673
30
0
0
SPLINE
5
D4
100
AcDbEntity
8
1
62
256
6
ByLayer
370
13
48
1
60
0
100
AcDbSpline
70
4
71
3
72
9
73
5
40
0
40
0
40
0
40
0
40
0.499082994497657
40
1
40
1
40
1
40
1
41
1
10
31.7211263915775
20
-1.12885759436404
30
0
41
1
10
31.7265960622834
20
-1.15889544074545
30
0
41
1
10
31.7375555037271
20
-1.20920032918573
30
0
41
1
10
31.7485149431378
20
-1.23799311343768
30
0
41
1
10
31.7540047124122
20
-1.24693010140311
30
0
0
SPLINE
5
D5
100
AcDbEntity
8
1
62
256
6
ByLayer
370
13
48
1
60
0
100
AcDbSpline
70
4
71
3
72
9
73
5
40
0
40
0
40
0
40
0
40
0.874918248235857
40
1
40
1
40
1
40
1
41
1
10
30.6742335504909
20
1.24716303778604
30
0
41
1
10
30.6845828407649
20
1.23046199485782
30
0
41
1
10
30.6964116569461
20
1.18895732668378
30
0
41
1
10
30.7082405491689
20
1.12373520982513
30
0
41
1
10
30.7097201287188
20
1.11521660759627
30
0
0
SPLINE
5
D6
100
AcDbEntity
8
1
62
256
6
ByLayer
370
18
48
1
60
0
100
AcDbSpline
70
4
71
3
72
16
73
12
40
0
40
0
40
0
40
0
40
0.124555522587045
40
0.124555522587045
40
0.233986082263664
40
0.233986082263664
40
0.343416641940285
40
0.343416641940285
40
0.562277761293523
40
0.562277761293523
40
1
40
1
40
1
40
1
41
1
10
33.5672989881593
20
1.62583526397398
30
0
41
1
10
33.5690648111451
20
1.6258172864863
30
0
41
1
10
33.5708295295911
20
1.62505459523311
30
0
41
1
10
33.5741449998359
20
1.6222235750212
30
0
41
1
10
33.5756966740964
20
1.62032048017565
30
0
41
1
10
33.5788079342169
20
1.61533801954414
30
0
41
1
10
33.5803714758874
20
1.61224873099008
30
0
41
1
10
33.585053622623
20
1.6012550827104
30
0
41
1
10
33.5881591701525
20
1.5916606948162
30
0
41
1
10
33.5975034869189
20
1.55628853411741
30
0
41
1
10
33.603728026975
20
1.5239760589557
30
0
41
1
10
33.6099715410671
20
1.48279651219914
30
0
0
SPLINE
5
D7
100
AcDbEntity
8
1
62
256
6
ByLayer
370
18
48
1
60
0
100
AcDbSpline
70
4
71
3
72
18
73
14
40
0
40
0
40
0
40
0
40
0.16400417046437
40
0.16400417046437
40
0.246006255696554
40
0.246006255696554
40
0.328008340928739
40
0.328008340928739
40
0.656016681857475
40
0.656016681857475
40
0.984025022786211
40
0.984025022786211
40
1
40
1
40
1
40
1
41
1
10
33.6698959435489
20
1.45434143843434
30
0
41
1
10
33.6673504500878
20
1.47267714427443
30
0
41
1
10
33.6648070432362
20
1.48965948090637
30
0
41
1
10
33.6609775008745
20
1.5130624718571
30
0
41
1
10
33.6596984900194
20
1.52051800706423
30
0
41
1
10
33.657131387799
20
1.53472664349465
30
0
41
1
10
33.6558462027967
20
1.54146207808142
30
0
41
1
10
33.6494389193156
20
1.57311403307187
30
0
41
1
10
33.6443143614939
20
1.59219286183523
30
0
41
1
10
33.6340791970048
20
1.61821444179628
30
0
41
1
10
33.6289761695592
20
1.62515796345011
30
0
41
1
10
33.623578901205
20
1.62581047087213
30
0
41
1
10
33.6233283901718
20
1.62582564829302
30
0
41
1
10
33.623078016932
20
1.62582574352592
30
0
0
SPLINE
5
D8
100
AcDbEntity
8
1
62
256
6
ByLayer
370
13
48
1
60
0
100
AcDbSpline
70
4
71
3
72
9
73
5
40
0
40
0
40
0
40
0
40
0.319454210020404
40
1
40
1
40
1
40
1
41
1
10
33.8500749316777
20
1.24573860423098
30
0
41
1
10
33.8545442216839
20
1.23811637795129
30
0
41
1
10
33.8685346101173
20
1.20286914745324
30
0
41
1
10
33.8825249599078
20
1.13232299366945
30
0
41
1
10
33.8920460572458
20
1.0701176467748
30
0
0
SPLINE
5
D9
100
AcDbEntity
8
1
62
256
6
ByLayer
370
13
48
1
60
0
100
AcDbSpline
70
4
71
3
72
10
73
6
40
0
40
0
40
0
40
0
40
0.25189364901998
40
0.790697754783211
40
1
40
1
40
1
40
1
41
1
10
34.8012450723698
20
-1.24788771463804
30
0
41
1
10
34.7959451902379
20
-1.25609749133687
30
0
41
1
10
34.7793087947683
20
-1.2657871156068
30
0
41
1
10
34.7582681339029
20
-1.21281537190856
30
0
41
1
10
34.742527190277
20
-1.1301156029368
30
0
41
1
10
34.7381232481864
20
-1.10384600254622
30
0
0
SPLINE
5
DA
100
AcDbEntity
8
1
62
256
6
ByLayer
370
13
48
1
60
0
100
AcDbSpline
70
4
71
3
72
10
73
6
40
0
40
0
40
0
40
0
40
0.0959969745379812
40
0.734106510460871
40
1
40
1
40
1
40
1
41
1
10
30.8120448289466
20
1.25736164044767
30
0
41
1
10
30.8140495492057
20
1.25805028190399
30
0
41
1
10
30.8293800144864
20
1.25762324081865
30
0
41
1
10
30.8502631896125
20
1.19714788646786
30
0
41
1
10
30.8691416274101
20
1.08180564745547
30
0
41
1
10
30.87469432268
20
1.04318335165249
30
0
0
SPLINE
5
DB
100
AcDbEntity
8
1
62
256
6
ByLayer
370
13
48
1
60
0
100
AcDbSpline
70
4
71
3
72
9
73
5
40
0
40
0
40
0
40
0
40
0.45533913051964
40
1
40
1
40
1
40
1
41
1
10
31.5562021645527
20
-1.05989905569075
30
0
41
1
10
31.565728355196
20
-1.12367949326389
30
0
41
1
10
31.5866493055379
20
-1.23286010181638
30
0
41
1
10
31.6075703412904
20
-1.26336958423403
30
0
41
1
10
31.6189653400416
20
-1.25597548042145
30
0
0
SPLINE
5
DC
100
AcDbEntity
8
1
62
256
6
ByLayer
370
18
48
1
60
0
100
AcDbSpline
70
4
71
3
72
22
73
18
40
0
40
0
40
0
40
0
40
0.249999999999999
40
0.249999999999999
40
0.312499999999999
40
0.312499999999999
40
0.374999999999999
40
0.374999999999999
40
0.499999999999999
40
0.499999999999999
40
0.75
40
0.75
40
0.8125
40
0.8125
40
0.875
40
0.875
40
1
40
1
40
1
40
1
41
1
10
34.6447672938532
20
-1.51432092195262
30
0
41
1
10
34.6419005350436
20
-1.51516446110926
30
0
41
1
10
34.6392691460252
20
-1.50876494384269
30
0
41
1
10
34.636257716681
20
-1.49153367348069
30
0
41
1
10
34.6356706518167
20
-1.48762270494478
30
0
41
1
10
34.634527451664
20
-1.47885525933856
30
0
41
1
10
34.6339710172585
20
-1.47398635156145
30
0
41
1
10
34.6323474067835
20
-1.45802151741196
30
0
41
1
10
34.6313255064099
20
-1.44564370374897
30
0
41
1
10
34.6282679745444
20
-1.4036570931047
30
0
41
1
10
34.6262002894904
20
-1.36926293368128
30
0
41
1
10
34.6233660024697
20
-1.31835210370517
30
0
41
1
10
34.6227899394598
20
-1.30776844590088
30
0
41
1
10
34.6216228363628
20
-1.28577830664682
30
0
41
1
10
34.6210311500343
20
-1.27435792393086
30
0
41
1
10
34.6192545258985
20
-1.23909218933449
30
0
41
1
10
34.6180692600914
20
-1.21416644109325
30
0
41
1
10
34.6168786447095
20
-1.18782754758979
30
0
0
SPLINE
5
DD
100
AcDbEntity
8
1
62
256
6
ByLayer
370
18
48
1
60
0
100
AcDbSpline
70
4
71
3
72
22
73
18
40
0
40
0
40
0
40
0
40
0.274187865561964
40
0.274187865561964
40
0.342734831952455
40
0.342734831952455
40
0.411281798342946
40
0.411281798342946
40
0.548375731123928
40
0.548375731123928
40
0.822563596685892
40
0.822563596685892
40
0.891110563076384
40
0.891110563076384
40
0.959657529466875
40
0.959657529466875
40
1
40
1
40
1
40
1
41
1
10
34.3612415191703
20
-1.05100769329144
30
0
41
1
10
34.3704445526776
20
-1.12056440442794
30
0
41
1
10
34.3794602534045
20
-1.1837095679515
30
0
41
1
10
34.3907760786899
20
-1.25471096352041
30
0
41
1
10
34.3930427949081
20
-1.26851200602548
30
0
41
1
10
34.3975921526781
20
-1.29530242778051
30
0
41
1
10
34.3998689119347
20
-1.30825646900217
30
0
41
1
10
34.4066806623815
20
-1.34554970600885
30
0
41
1
10
34.4112160307068
20
-1.36844107088706
30
0
41
1
10
34.4248453253441
20
-1.43142565998426
30
0
41
1
10
34.4339740800196
20
-1.46591669581446
30
0
41
1
10
34.4453786969942
20
-1.49910305987424
30
0
41
1
10
34.4476606913793
20
-1.50524043982958
30
0
41
1
10
34.4521775530242
20
-1.51637589195926
30
0
41
1
10
34.4544158784357
20
-1.52138657477658
30
0
41
1
10
34.4579416524828
20
-1.52846062365114
30
0
41
1
10
34.45924204568
20
-1.53088897237694
30
0
41
1
10
34.4605368655135
20
-1.53312492070364
30
0
0
SPLINE
5
DE
100
AcDbEntity
8
1
62
256
6
ByLayer
370
13
48
1
60
0
100
AcDbSpline
70
4
71
3
72
9
73
5
40
0
40
0
40
0
40
0
40
0.552452566506061
40
1
40
1
40
1
40
1
41
1
10
34.2212363670557
20
-0.828797969520508
30
0
41
1
10
34.2328579866243
20
-0.937543072822137
30
0
41
1
10
34.2538943930234
20
-1.10451091989938
30
0
41
1
10
34.2749307974129
20
-1.19909497530534
30
0
41
1
10
34.2843455880045
20
-1.22552106609456
30
0
0
SPLINE
5
DF
100
AcDbEntity
8
1
62
256
6
ByLayer
370
18
48
1
60
0
100
AcDbSpline
70
4
71
3
72
22
73
18
40
0
40
0
40
0
40
0
40
0.250000000000002
40
0.250000000000002
40
0.312500000000001
40
0.312500000000001
40
0.375
40
0.375
40
0.500000000000001
40
0.500000000000001
40
0.750000000000002
40
0.750000000000002
40
0.812500000000001
40
0.812500000000001
40
0.875000000000001
40
0.875000000000001
40
1
40
1
40
1
40
1
41
1
10
31.4808115146703
20
-1.48711161107792
30
0
41
1
10
31.4753885523493
20
-1.48637210868415
30
0
41
1
10
31.4700328161454
20
-1.47824449738667
30
0
41
1
10
31.4633100823527
20
-1.45887552935304
30
0
41
1
10
31.4619635263012
20
-1.45453797228333
30
0
41
1
10
31.459261078371
20
-1.44492255918729
30
0
41
1
10
31.4579033157183
20
-1.43963672409563
30
0
41
1
10
31.4538187780272
20
-1.42239375014472
30
0
41
1
10
31.4510995101725
20
-1.40915585105316
30
0
41
1
10
31.4429572815286
20
-1.36437829005024
30
0
41
1
10
31.4375629387988
20
-1.32781281887273
30
0
41
1
10
31.4308020804746
20
-1.27366690357789
30
0
41
1
10
31.4294483878325
20
-1.26241274937317
30
0
41
1
10
31.4267338488342
20
-1.23904091377861
30
0
41
1
10
31.4253703558853
20
-1.22689847123905
30
0
41
1
10
31.4212840621272
20
-1.18935969132877
30
0
41
1
10
31.4185658347155
20
-1.1628755116104
30
0
41
1
10
31.4158330216663
20
-1.13494607210208
30
0
0
SPLINE
5
E0
100
AcDbEntity
8
1
62
256
6
ByLayer
370
18
48
1
60
0
100
AcDbSpline
70
4
71
3
72
20
73
16
40
0
40
0
40
0
40
0
40
0.250000000000001
40
0.250000000000001
40
0.375000000000001
40
0.375000000000001
40
0.437500000000001
40
0.437500000000001
40
0.5
40
0.5
40
0.749999999999999
40
0.749999999999999
40
0.875
40
0.875
40
1
40
1
40
1
40
1
41
1
10
31.1497713861176
20
-0.927034394613486
30
0
41
1
10
31.156128711233
20
-0.991587782623668
30
0
41
1
10
31.1624058046676
20
-1.05094958816349
30
0
41
1
10
31.1719553440786
20
-1.13230477878747
30
0
41
1
10
31.1751519185193
20
-1.15813450790088
30
0
41
1
10
31.1799677361076
20
-1.19489091098291
30
0
41
1
10
31.1815757901777
20
-1.20680240256246
30
0
41
1
10
31.1847699727255
20
-1.22973295957843
30
0
41
1
10
31.1863599879066
20
-1.24078213915138
30
0
41
1
10
31.1942824963728
20
-1.29397934669845
30
0
41
1
10
31.2005226006601
20
-1.33002507577604
30
0
41
1
10
31.2100018454341
20
-1.37439322701061
30
0
41
1
10
31.213186398709
20
-1.38755776039821
30
0
41
1
10
31.2195989903026
20
-1.41053292852453
30
0
41
1
10
31.2227967083516
20
-1.42023233637869
30
0
41
1
10
31.2259799598885
20
-1.42813337250078
30
0
0
SPLINE
5
E1
100
AcDbEntity
8
1
62
256
6
ByLayer
370
13
48
1
60
0
100
AcDbSpline
70
4
71
3
72
10
73
6
40
0
40
0
40
0
40
0
40
0.296288243182373
40
0.934097037534552
40
1
40
1
40
1
40
1
41
1
10
31.0393513487687
20
-0.762436110371141
30
0
41
1
10
31.045541703169
20
-0.82372161594094
30
0
41
1
10
31.0650578046151
20
-1.00348625858763
30
0
41
1
10
31.0859508009437
20
-1.13935698644823
30
0
41
1
10
31.1006534564603
20
-1.1968398377592
30
0
41
1
10
31.1020303676595
20
-1.20188666482267
30
0
0
SPLINE
5
E2
100
AcDbEntity
8
1
62
256
6
ByLayer
370
18
48
1
60
0
100
AcDbSpline
70
4
71
3
72
48
73
44
40
0
40
0
40
0
40
0
40
0.0176772204813347
40
0.0176772204813347
40
0.144171471856629
40
0.144171471856629
40
0.20741859754427
40
0.20741859754427
40
0.239042160388097
40
0.239042160388097
40
0.270665723231924
40
0.302289286075751
40
0.302289286075751
40
0.333912848919578
40
0.333912848919578
40
0.397159974607231
40
0.397159974607231
40
0.460407100294885
40
0.460407100294885
40
0.492030663138712
40
0.492030663138712
40
0.523654225982539
40
0.523654225982539
40
0.586901351670192
40
0.586901351670192
40
0.650148477357846
40
0.650148477357846
40
0.7133956030455
40
0.7133956030455
40
0.776642728733154
40
0.776642728733154
40
0.80826629157698
40
0.80826629157698
40
0.839889854420807
40
0.871513417264634
40
0.871513417264634
40
0.903136980108461
40
0.903136980108461
40
0.966384105796126
40
0.966384105796126
40
0.998007668639963
40
0.998007668639963
40
1
40
1
40
1
40
1
41
1
10
22.3357760570714
20
-1.12836071351214
30
0
41
1
10
22.3284493853039
20
-1.12829775195974
30
0
41
1
10
22.3210886500698
20
-1.1282024307954
30
0
41
1
10
22.2607878054304
20
-1.12718088059421
30
0
41
1
10
22.20611175363
20
-1.12473618675827
30
0
41
1
10
22.1206366551373
20
-1.12011615808294
30
0
41
1
10
22.0915602617683
20
-1.11842053386974
30
0
41
1
10
22.0469589481421
20
-1.11582755563876
30
0
41
1
10
22.0318921060176
20
-1.11495315436466
30
0
41
1
10
22.0016880609343
20
-1.11323732532631
30
0
41
1
10
21.9713697827712
20
-1.11155188724581
30
0
41
1
10
21.9408102576821
20
-1.10999421881181
30
0
41
1
10
21.9101214627536
20
-1.10853437110788
30
0
41
1
10
21.8947162300234
20
-1.10784898813199
30
0
41
1
10
21.8482504800726
20
-1.10603640061564
30
0
41
1
10
21.8169555594153
20
-1.10514250620045
30
0
41
1
10
21.7540317484674
20
-1.10373675198699
30
0
41
1
10
21.7224297237561
20
-1.10318775238125
30
0
41
1
10
21.6748138539407
20
-1.10262357875649
30
0
41
1
10
21.6589049440694
20
-1.10248041765465
30
0
41
1
10
21.627007597709
20
-1.10229323886901
30
0
41
1
10
21.6110063825671
20
-1.10224944119744
30
0
41
1
10
21.5631851483488
20
-1.10228091494571
30
0
41
1
10
21.5314536690729
20
-1.10251903664269
30
0
41
1
10
21.4683304686052
20
-1.10346903203973
30
0
41
1
10
21.4369451522956
20
-1.1041902459813
30
0
41
1
10
21.3745343968273
20
-1.10607051966017
30
0
41
1
10
21.3434991477458
20
-1.10721733420451
30
0
41
1
10
21.2818352606687
20
-1.10989566694968
30
0
41
1
10
21.2512047114055
20
-1.11142804097474
30
0
41
1
10
21.2056663989162
20
-1.11397846166344
30
0
41
1
10
21.190576963674
20
-1.11486945387577
30
0
41
1
10
21.1609295543989
20
-1.11668413705033
30
0
41
1
10
21.1317245177306
20
-1.11853685124078
30
0
41
1
10
21.1034823642919
20
-1.12039140514239
30
0
41
1
10
21.0757774684529
20
-1.12219971950921
30
0
41
1
10
21.0621396743151
20
-1.12308422113557
30
0
41
1
10
21.0225738506211
20
-1.12554775212351
30
0
41
1
10
20.9980960524066
20
-1.12693994881857
30
0
41
1
10
20.9649148734272
20
-1.12814862624842
30
0
41
1
10
20.954448154949
20
-1.12840275920803
30
0
41
1
10
20.9440575272275
20
-1.12844669987652
30
0
41
1
10
20.9434441898647
20
-1.12844844430421
30
0
41
1
10
20.9428335352305
20
-1.12844931336778
30
0
0
SPLINE
5
E3
100
AcDbEntity
8
1
62
256
6
ByLayer
370
18
48
1
60
0
100
AcDbSpline
70
4
71
3
72
22
73
18
40
0
40
0
40
0
40
0
40
0.250000000000001
40
0.250000000000001
40
0.375
40
0.375
40
0.4375
40
0.4375
40
0.5
40
0.5
40
0.749999999999999
40
0.749999999999999
40
0.874999999999999
40
0.874999999999999
40
0.937499999999999
40
0.937499999999999
40
1
40
1
40
1
40
1
41
1
10
30.9013417327105
20
1.40557684562711
30
0
41
1
10
30.9076079247919
20
1.40552153791978
30
0
41
1
10
30.913858598132
20
1.39865493027193
30
0
41
1
10
30.9232160851033
20
1.37833058514269
30
0
41
1
10
30.9263333853078
20
1.36987618084339
30
0
41
1
10
30.931023741675
20
1.35461884989147
30
0
41
1
10
30.9325925455901
20
1.34909237330751
30
0
41
1
10
30.9357266653386
20
1.3372134563659
30
0
41
1
10
30.9372871443018
20
1.3308810780787
30
0
41
1
10
30.9450704519818
20
1.29729163087308
30
0
41
1
10
30.9512676459848
20
1.26429784033073
30
0
41
1
10
30.9606124104782
20
1.20579685620072
30
0
41
1
10
30.9637298916867
20
1.18478588231272
30
0
41
1
10
30.96841893442
20
1.15095056506485
30
0
41
1
10
30.969986839454
20
1.13926479674521
30
0
41
1
10
30.9731171916018
20
1.11520637972183
30
0
41
1
10
30.9746775219895
20
1.10285147458839
30
0
41
1
10
30.9762350959542
20
1.09017366145704
30
0
0
SPLINE
5
E4
100
AcDbEntity
8
1
62
256
6
ByLayer
370
18
48
1
60
0
100
AcDbSpline
70
4
71
3
72
22
73
18
40
0
40
0
40
0
40
0
40
0.249999999999999
40
0.249999999999999
40
0.374999999999998
40
0.374999999999998
40
0.437499999999998
40
0.437499999999998
40
0.499999999999998
40
0.499999999999998
40
0.749999999999999
40
0.749999999999999
40
0.875
40
0.875
40
0.9375
40
0.9375
40
1
40
1
40
1
40
1
41
1
10
31.2713374097532
20
0.905927612678994
30
0
41
1
10
31.2660057469072
20
0.970709170569791
30
0
41
1
10
31.260666549667
20
1.03043843851049
30
0
41
1
10
31.2526525132052
20
1.11253898401742
30
0
41
1
10
31.2499790520924
20
1.1386500187449
30
0
41
1
10
31.2459506804728
20
1.17587816637118
30
0
41
1
10
31.2446050548133
20
1.18795870944601
30
0
41
1
10
31.2419293359188
20
1.21124171256227
30
0
41
1
10
31.2405960006493
20
1.22247463205059
30
0
41
1
10
31.2339399619321
20
1.27662543020702
30
0
41
1
10
31.2286209764961
20
1.3135412231712
30
0
41
1
10
31.2205778336218
20
1.35935333243549
30
0
41
1
10
31.2178903835949
20
1.37302257914965
30
0
41
1
10
31.2138403330873
20
1.39104883354577
30
0
41
1
10
31.2124891893622
20
1.39663279166547
30
0
41
1
10
31.2097971422451
20
1.40688947883251
30
0
41
1
10
31.2084540070344
20
1.41157236010082
30
0
41
1
10
31.2071118279718
20
1.41581153481749
30
0
0
SPLINE
5
E5
100
AcDbEntity
8
1
62
256
6
ByLayer
370
13
48
1
60
0
100
AcDbSpline
70
4
71
3
72
10
73
6
40
0
40
0
40
0
40
0
40
0.255284117057565
40
0.892645288525347
40
1
40
1
40
1
40
1
41
1
10
31.3289048065349
20
1.19216152180235
30
0
41
1
10
31.3342421927259
20
1.17101525582106
30
0
41
1
10
31.3529053189537
20
1.07973667850314
30
0
41
1
10
31.3738130448014
20
0.912800460356777
30
0
41
1
10
31.3893833017183
20
0.759525139421953
30
0
41
1
10
31.3916278355063
20
0.736882820043064
30
0
0
SPLINE
5
E6
100
AcDbEntity
8
1
62
256
6
ByLayer
370
13
48
1
60
0
100
AcDbSpline
70
4
71
3
72
10
73
6
40
0
40
0
40
0
40
0
40
0.353660065838773
40
0.986894180901307
40
1
40
1
40
1
40
1
41
1
10
33.9939105930058
20
1.25671503584789
30
0
41
1
10
34.0013529976437
20
1.25291886188225
30
0
41
1
10
34.0221211513262
20
1.21398167356966
30
0
41
1
10
34.0431650979077
20
1.0955474139765
30
0
41
1
10
34.056766639852
20
0.991573200891708
30
0
41
1
10
34.0570424379862
20
0.989453729787584
30
0
0
SPLINE
5
E7
100
AcDbEntity
8
1
62
256
6
ByLayer
370
13
48
1
60
0
100
AcDbSpline
70
4
71
3
72
9
73
5
40
0
40
0
40
0
40
0
40
0.491473380936827
40
1
40
1
40
1
40
1
41
1
10
30.8744065181206
20
-0.645961344949711
30
0
41
1
10
30.884660215609
20
-0.755426513557779
30
0
41
1
10
30.9055232512317
20
-0.957920837496744
30
0
41
1
10
30.9263864115982
20
-1.0994950879678
30
0
41
1
10
30.9369959117645
20
-1.15242875924878
30
0
0
SPLINE
5
E8
100
AcDbEntity
8
1
62
256
6
ByLayer
370
18
48
1
60
0
100
AcDbSpline
70
4
71
3
72
20
73
16
40
0
40
0
40
0
40
0
40
0.25
40
0.25
40
0.3125
40
0.3125
40
0.375000000000001
40
0.375000000000001
40
0.5
40
0.5
40
0.75
40
0.75
40
0.875
40
0.875
40
1
40
1
40
1
40
1
41
1
10
34.154118343546
20
1.51200904089245
30
0
41
1
10
34.1632794911554
20
1.50567193393917
30
0
41
1
10
34.1724731047977
20
1.49054852370981
30
0
41
1
10
34.184038571817
20
1.46014064693515
30
0
41
1
10
34.1863580503856
20
1.45346040236481
30
0
41
1
10
34.1909756600309
20
1.43901717530639
30
0
41
1
10
34.1932705303395
20
1.43126862780485
30
0
41
1
10
34.2001239401648
20
1.40648453608225
30
0
41
1
10
34.2046515143418
20
1.38791517205416
30
0
41
1
10
34.2181831922134
20
1.32622470798964
30
0
41
1
10
34.2271510958006
20
1.27720018190837
30
0
41
1
10
34.2410443933044
20
1.19167098386004
30
0
41
1
10
34.2456790365907
20
1.16149705605477
30
0
41
1
10
34.2549135966307
20
1.09783134066336
30
0
41
1
10
34.259513652789
20
1.06433966078069
30
0
41
1
10
34.2640611757457
20
1.02911214979801
30
0
0
SPLINE
5
E9
100
AcDbEntity
8
1
62
256
6
ByLayer
370
18
48
1
60
0
100
AcDbSpline
70
4
71
3
72
20
73
16
40
0
40
0
40
0
40
0
40
0.249999999999999
40
0.249999999999999
40
0.312499999999999
40
0.312499999999999
40
0.374999999999999
40
0.374999999999999
40
0.499999999999999
40
0.499999999999999
40
0.75
40
0.75
40
0.875
40
0.875
40
1
40
1
40
1
40
1
41
1
10
34.3912312328904
20
0.912717322339347
30
0
41
1
10
34.3888100382941
20
0.979895508909038
30
0
41
1
10
34.3867783435414
20
1.041682751107
30
0
41
1
10
34.3842129757317
20
1.11250410546549
30
0
41
1
10
34.3836957231021
20
1.12634755445581
30
0
41
1
10
34.3826440320505
20
1.15339049222399
30
0
41
1
10
34.3821111455339
20
1.16655854195159
30
0
41
1
10
34.380496583365
20
1.20476917554279
30
0
41
1
10
34.3793941953621
20
1.2286256093233
30
0
41
1
10
34.3760028240804
20
1.29543570724391
30
0
41
1
10
34.3736451602509
20
1.33365581739056
30
0
41
1
10
34.3700235353493
20
1.38090379007969
30
0
41
1
10
34.368786848519
20
1.39498608744265
30
0
41
1
10
34.366338331558
20
1.41924345728486
30
0
41
1
10
34.3651305463752
20
1.42947150036056
30
0
41
1
10
34.363928291968
20
1.43781329593318
30
0
0
SPLINE
5
EA
100
AcDbEntity
8
1
62
256
6
ByLayer
370
13
48
1
60
0
100
AcDbSpline
70
4
71
3
72
10
73
6
40
0
40
0
40
0
40
0
40
0.422429101078524
40
0.960268218512889
40
1
40
1
40
1
40
1
41
1
10
34.5739850784578
20
0.660866824895464
30
0
41
1
10
34.5650810849372
20
0.75515667373341
30
0
41
1
10
34.5448404493897
20
0.952020089972677
30
0
41
1
10
34.5237613720385
20
1.09884855738272
30
0
41
1
10
34.5115868587082
20
1.15841036436896
30
0
41
1
10
34.5107493603861
20
1.16238742967337
30
0
0
SPLINE
5
EB
100
AcDbEntity
8
1
62
256
6
ByLayer
370
18
48
1
60
0
100
AcDbSpline
70
4
71
3
72
30
73
26
40
0
40
0
40
0
40
0
40
0.250000000000073
40
0.250000000000073
40
0.500000000000147
40
0.500000000000147
40
0.625000000000187
40
0.625000000000187
40
0.750000000000226
40
0.750000000000226
40
0.812500000000247
40
0.812500000000247
40
0.843750000000257
40
0.843750000000257
40
0.875000000000267
40
0.875000000000267
40
0.890625000000245
40
0.890625000000245
40
0.906250000000223
40
0.906250000000223
40
0.921875000000201
40
0.921875000000201
40
0.93750000000018
40
0.93750000000018
40
1
40
1
40
1
40
1
41
1
10
29.6392622868585
20
-0.0265543315219361
30
0
41
1
10
29.639633198007
20
-0.0090138057765614
30
0
41
1
10
29.6401176990686
20
0.0085169645020642
30
0
41
1
10
29.6414440029817
20
0.0435502626763764
30
0
41
1
10
29.6422725886647
20
0.0610536787806097
30
0
41
1
10
29.6440493999778
20
0.0872697469967534
30
0
41
1
10
29.6447318736166
20
0.0960018453496616
30
0
41
1
10
29.6464272098215
20
0.113442779431722
30
0
41
1
10
29.6474178275346
20
0.122153110368572
30
0
41
1
10
29.6495196209899
20
0.135176420861342
30
0
41
1
10
29.6503182405484
20
0.139514910459951
30
0
41
1
10
29.6519045518797
20
0.145983683899203
30
0
41
1
10
29.6524962932798
20
0.148126175820096
30
0
41
1
10
29.6539429605274
20
0.15230665334488
30
0
41
1
10
29.6547720023591
20
0.15438602328274
30
0
41
1
10
29.6566103401091
20
0.157048212654899
30
0
41
1
10
29.6573595675691
20
0.157878395883387
30
0
41
1
10
29.6591393449002
20
0.158759480822226
30
0
41
1
10
29.6601667466839
20
0.158702850296891
30
0
41
1
10
29.6618752393928
20
0.157861779296809
30
0
41
1
10
29.662598212822
20
0.157173312153418
30
0
41
1
10
29.6638943077034
20
0.155651479192784
30
0
41
1
10
29.6644595629422
20
0.154816601819363
30
0
41
1
10
29.6670769899277
20
0.150490696020995
30
0
41
1
10
29.6685989261263
20
0.146556416853059
30
0
41
1
10
29.6700000001271
20
0.142582958149291
30
0
0
SPLINE
5
EC
100
AcDbEntity
8
1
62
256
6
ByLayer
370
18
48
1
60
0
100
AcDbSpline
70
4
71
3
72
23
73
19
40
0
40
0
40
0
40
0
40
0.0735060227314585
40
0.145537116723287
40
0.216095054924868
40
0.285181551233661
40
0.352798262443
40
0.418946790303989
40
0.483628683722072
40
0.546845441112039
40
0.608598512939417
40
0.668889304480745
40
0.727719178840857
40
0.785089460272164
40
0.841001437848966
40
0.895456369559655
40
0.948455486891853
40
1
40
1
40
1
40
1
41
1
10
29.6392622868585
20
-0.274667279816128
30
0
41
1
10
29.6391761984917
20
-0.26867338240109
30
0
41
1
10
29.6390057491569
20
-0.256805857601023
30
0
41
1
10
29.6387883946411
20
-0.239117708256941
30
0
41
1
10
29.6386026968473
20
-0.22174882213082
30
0
41
1
10
29.6384510885688
20
-0.204699932759496
30
0
41
1
10
29.6383329604148
20
-0.187977632267746
30
0
41
1
10
29.6382484879263
20
-0.171586423743491
30
0
41
1
10
29.6381976376956
20
-0.155530811508214
30
0
41
1
10
29.638180426042
20
-0.139814785145546
30
0
41
1
10
29.638196849061
20
-0.124441979595019
30
0
41
1
10
29.6382469110735
20
-0.109415658674294
30
0
41
1
10
29.6383305800357
20
-0.0947387472595835
30
0
41
1
10
29.6384479328804
20
-0.080413838512186
30
0
41
1
10
29.6385986370057
20
-0.0664432499734744
30
0
41
1
10
29.6387838107149
20
-0.0528289126196171
30
0
41
1
10
29.6389993506729
20
-0.0395728547669876
30
0
41
1
10
29.639175458184
20
-0.0308533988717841
30
0
41
1
10
29.639262286773
20
-0.0265543315179002
30
0
0
SPLINE
5
ED
100
AcDbEntity
8
1
62
256
6
ByLayer
370
18
48
1
60
0
100
AcDbSpline
70
4
71
3
72
8
73
4
40
0
40
0
40
0
40
0
40
1
40
1
40
1
40
1
41
1
10
29.6400091693044
20
-0.319499908339168
30
0
41
1
10
29.6397359147144
20
-0.304656577918848
30
0
41
1
10
29.6394852402572
20
-0.28971254694622
30
0
41
1
10
29.6392622868584
20
-0.274667279816583
30
0
0
SPLINE
5
EE
100
AcDbEntity
8
1
62
256
6
ByLayer
370
18
48
1
60
0
100
AcDbSpline
70
4
71
3
72
38
73
34
40
0
40
0
40
0
40
0
40
0.0624999999999598
40
0.0624999999999598
40
0.0937499999999332
40
0.0937499999999332
40
0.124999999999907
40
0.124999999999907
40
0.140624999999894
40
0.140624999999894
40
0.148437499999887
40
0.148437499999887
40
0.156249999999881
40
0.156249999999881
40
0.164062499999874
40
0.164062499999874
40
0.171874999999868
40
0.171874999999868
40
0.187499999999879
40
0.187499999999879
40
0.218749999999884
40
0.218749999999884
40
0.249999999999889
40
0.249999999999889
40
0.312499999999901
40
0.312499999999901
40
0.374999999999912
40
0.374999999999912
40
0.499999999999929
40
0.499999999999929
40
0.749999999999965
40
0.749999999999965
40
1
40
1
40
1
40
1
41
1
10
35.9022866862703
20
-0.0297618312528414
30
0
41
1
10
35.9037767051158
20
-0.0374943000600183
30
0
41
1
10
35.9053824525697
20
-0.0451571350108111
30
0
41
1
10
35.9081987450404
20
-0.0564320905860143
30
0
41
1
10
35.9092033796753
20
-0.0601445336638164
30
0
41
1
10
35.9114726687737
20
-0.0674005479079653
30
0
41
1
10
35.9127143752513
20
-0.0709604820577852
30
0
41
1
10
35.9150835645931
20
-0.0758266095940314
30
0
41
1
10
35.9159650551481
20
-0.077389448847299
30
0
41
1
10
35.9175633150617
20
-0.0792615532238017
30
0
41
1
10
35.9181603132826
20
-0.0798202570807121
30
0
41
1
10
35.9194827896732
20
-0.0805379153312913
30
0
41
1
10
35.9202130825514
20
-0.0806768283868848
30
0
41
1
10
35.9216501561813
20
-0.0803015168034733
30
0
41
1
10
35.9223246909106
20
-0.0798028794100105
30
0
41
1
10
35.9234870379554
20
-0.0785384554195332
30
0
41
1
10
35.9239972444616
20
-0.0777649119944215
30
0
41
1
10
35.9253523706136
20
-0.0753329881832769
30
0
41
1
10
35.9260608798362
20
-0.0735286335903709
30
0
41
1
10
35.9279523450309
20
-0.0679698298434346
30
0
41
1
10
35.928870291455
20
-0.0641308876498954
30
0
41
1
10
35.9305014550375
20
-0.0563783815125305
30
0
41
1
10
35.9311917887142
20
-0.0524557233341625
30
0
41
1
10
35.9330643766178
20
-0.0406192256357087
30
0
41
1
10
35.9340442142478
20
-0.0326746051267151
30
0
41
1
10
35.9357666387435
20
-0.0167706645583507
30
0
41
1
10
35.9365001353147
20
-0.0088033340799711
30
0
41
1
10
35.9384720011351
20
0.0151175784132249
30
0
41
1
10
35.9394853967718
20
0.0310894396590129
30
0
41
1
10
35.9420695865398
20
0.0790000778894466
30
0
41
1
10
35.9431775630513
20
0.110845728537981
30
0
41
1
10
35.9448497223624
20
0.174042763339287
30
0
41
1
10
35.9453920508091
20
0.205422652679062
30
0
41
1
10
35.9457619621462
20
0.236557230219546
30
0
0
SPLINE
5
EF
100
AcDbEntity
8
1
62
256
6
ByLayer
370
13
48
1
60
0
100
AcDbSpline
70
4
71
3
72
10
73
6
40
0
40
0
40
0
40
0
40
0.332116345444738
40
0.971262708001044
40
1
40
1
40
1
40
1
41
1
10
30.3575362456091
20
-0.235081649579001
30
0
41
1
10
30.3644606352521
20
-0.319742237734261
30
0
41
1
10
30.3847107701594
20
-0.562520083732181
30
0
41
1
10
30.4055600443163
20
-0.782227620599429
30
0
41
1
10
30.4194849421041
20
-0.903202774389825
30
0
41
1
10
30.4200840941578
20
-0.908359667596613
30
0
0
SPLINE
5
F0
100
AcDbEntity
8
1
62
256
6
ByLayer
370
18
48
1
60
0
100
AcDbSpline
70
4
71
3
72
20
73
16
40
0
40
0
40
0
40
0
40
0.250000000000002
40
0.250000000000002
40
0.375000000000004
40
0.375000000000004
40
0.437500000000004
40
0.437500000000004
40
0.500000000000004
40
0.500000000000004
40
0.750000000000003
40
0.750000000000003
40
0.875000000000001
40
0.875000000000001
40
1
40
1
40
1
40
1
41
1
10
30.404616534574
20
-0.275136049509911
30
0
41
1
10
30.4106787103669
20
-0.34743483620818
30
0
41
1
10
30.4166315834707
20
-0.417705815568922
30
0
41
1
10
30.425612673911
20
-0.520153152270012
30
0
41
1
10
30.4286204763841
20
-0.553806409797289
30
0
41
1
10
30.4331542123773
20
-0.603531190531214
30
0
41
1
10
30.4346688815675
20
-0.61998011598331
30
0
41
1
10
30.4377053380171
20
-0.652622086912288
30
0
41
1
10
30.4392305232784
20
-0.668850534609021
30
0
41
1
10
30.446817286973
20
-0.748712490577589
30
0
41
1
10
30.4527755763951
20
-0.808773309399442
30
0
41
1
10
30.4616996163771
20
-0.893317706896966
30
0
41
1
10
30.464673490187
20
-0.92056996112035
30
0
41
1
10
30.4706628912716
20
-0.973193464539122
30
0
41
1
10
30.4736850124285
20
-0.998602492718419
30
0
41
1
10
30.4767180834879
20
-1.02295924838177
30
0
0
SPLINE
5
F1
100
AcDbEntity
8
1
62
256
6
ByLayer
370
18
48
1
60
0
100
AcDbSpline
70
4
71
3
72
22
73
18
40
0
40
0
40
0
40
0
40
0.249999999999995
40
0.249999999999995
40
0.374999999999994
40
0.374999999999994
40
0.437499999999993
40
0.437499999999993
40
0.499999999999993
40
0.499999999999993
40
0.749999999999996
40
0.749999999999996
40
0.874999999999998
40
0.874999999999998
40
0.937499999999999
40
0.937499999999999
40
1
40
1
40
1
40
1
41
1
10
30.8522029207435
20
-1.26412048313338
30
0
41
1
10
30.8469863805223
20
-1.23013922482667
30
0
41
1
10
30.8418426982724
20
-1.19071903660856
30
0
41
1
10
30.8341229332352
20
-1.12360536383909
30
0
41
1
10
30.8315475558635
20
-1.09989658236111
30
0
41
1
10
30.8276535422534
20
-1.06228536115006
30
0
41
1
10
30.8263500923008
20
-1.0494064847891
30
0
41
1
10
30.8237276724424
20
-1.02295256253365
30
0
41
1
10
30.8224129471257
20
-1.00941393391284
30
0
41
1
10
30.8158643296739
20
-0.940594501195022
30
0
41
1
10
30.8106745018346
20
-0.881572679533264
30
0
41
1
10
30.802909336305
20
-0.787239505780519
30
0
41
1
10
30.8003226968401
20
-0.754823245545509
30
0
41
1
10
30.796424191771
20
-0.704713394571684
30
0
41
1
10
30.7951214943718
20
-0.687762210465223
30
0
41
1
10
30.7925048391271
20
-0.653355317424172
30
0
41
1
10
30.7911914163641
20
-0.635905981891057
30
0
41
1
10
30.7898789943836
20
-0.618328055310684
30
0
0
SPLINE
5
F2
100
AcDbEntity
8
1
62
256
6
ByLayer
370
13
48
1
60
0
100
AcDbSpline
70
4
71
3
72
9
73
5
40
0
40
0
40
0
40
0
40
0.528028233814221
40
1
40
1
40
1
40
1
41
1
10
30.1925140223011
20
-0.0947762695680865
30
0
41
1
10
30.2035274945576
20
-0.231428088297605
30
0
41
1
10
30.2243852040532
20
-0.487044310625833
30
0
41
1
10
30.245243143316
20
-0.710792548166467
30
0
41
1
10
30.25508745475
20
-0.804957521988371
30
0
0
SPLINE
5
F3
100
AcDbEntity
8
1
62
256
6
ByLayer
370
18
48
1
60
0
100
AcDbSpline
70
4
71
3
72
14
73
10
40
0
40
0
40
0
40
0
40
0.249999999999997
40
0.249999999999997
40
0.374999999999996
40
0.374999999999996
40
0.499999999999995
40
0.499999999999995
40
1
40
1
40
1
40
1
41
1
10
29.67
20
0.142582958101428
30
0
41
1
10
29.6745656272074
20
0.0968814714562143
30
0
41
1
10
29.6790972970843
20
0.0510260065931618
30
0
41
1
10
29.6859157236757
20
-0.0179793258299981
30
0
41
1
10
29.688190904736
20
-0.041062941918824
30
0
41
1
10
29.6926976666815
20
-0.0869548325727294
30
0
41
1
10
29.6949320747754
20
-0.109790868617551
30
0
41
1
10
29.7060157131335
20
-0.223430743862707
30
0
41
1
10
29.7145612157447
20
-0.312635957381332
30
0
41
1
10
29.7232291080746
20
-0.400066281112544
30
0
0
SPLINE
5
F4
100
AcDbEntity
8
1
62
256
6
ByLayer
370
18
48
1
60
0
100
AcDbSpline
70
4
71
3
72
16
73
12
40
0
40
0
40
0
40
0
40
0.249999999999999
40
0.249999999999999
40
0.499999999999998
40
0.499999999999998
40
0.624999999999999
40
0.624999999999999
40
0.749999999999999
40
0.749999999999999
40
1
40
1
40
1
40
1
41
1
10
30.2234605081305
20
-0.827995688724656
30
0
41
1
10
30.2184770569198
20
-0.773570958878082
30
0
41
1
10
30.2135658042678
20
-0.716358923979726
30
0
41
1
10
30.2037621080687
20
-0.596547062615002
30
0
41
1
10
30.1988626613321
20
-0.533947418402789
30
0
41
1
10
30.1913515458165
20
-0.435838081926903
30
0
41
1
10
30.1888534802221
20
-0.40278859546143
30
0
41
1
10
30.1838863080951
20
-0.336269409241112
30
0
41
1
10
30.1814140138603
20
-0.302758123687909
30
0
41
1
10
30.1740142012286
20
-0.201479512026111
30
0
41
1
10
30.169108873943
20
-0.132971957400599
30
0
41
1
10
30.1641287612204
20
-0.0634496016049866
30
0
0
SPLINE
5
F5
100
AcDbEntity
8
1
62
256
6
ByLayer
370
18
48
1
60
0
100
AcDbSpline
70
4
71
3
72
87
73
83
40
0
40
0
40
0
40
0
40
0.0312499999999973
40
0.0312499999999973
40
0.0624999999999947
40
0.0624999999999947
40
0.124999999999995
40
0.124999999999995
40
0.156249999999992
40
0.156249999999992
40
0.171874999999988
40
0.171874999999988
40
0.187499999999983
40
0.203124999999979
40
0.203124999999979
40
0.218749999999974
40
0.218749999999974
40
0.249999999999972
40
0.249999999999972
40
0.281249999999969
40
0.281249999999969
40
0.296874999999972
40
0.296874999999972
40
0.312499999999974
40
0.312499999999974
40
0.343749999999978
40
0.343749999999978
40
0.374999999999983
40
0.374999999999983
40
0.406249999999987
40
0.406249999999987
40
0.437499999999991
40
0.437499999999991
40
0.45312499999999
40
0.45312499999999
40
0.468749999999989
40
0.484374999999988
40
0.484374999999988
40
0.499999999999987
40
0.499999999999987
40
0.531249999999991
40
0.531249999999991
40
0.546874999999993
40
0.546874999999993
40
0.554687499999993
40
0.554687499999993
40
0.562499999999994
40
0.578124999999996
40
0.578124999999996
40
0.585937499999997
40
0.585937499999997
40
0.593749999999997
40
0.593749999999997
40
0.625000000000002
40
0.625000000000002
40
0.632812500000004
40
0.632812500000004
40
0.640625000000005
40
0.640625000000005
40
0.656250000000007
40
0.656250000000007
40
0.671875000000009
40
0.671875000000009
40
0.68750000000001
40
0.68750000000001
40
0.718750000000014
40
0.718750000000014
40
0.734375000000016
40
0.734375000000016
40
0.750000000000017
40
0.750000000000017
40
0.781250000000017
40
0.781250000000017
40
0.812500000000016
40
0.812500000000016
40
0.875000000000011
40
0.875000000000011
40
0.906250000000008
40
0.906250000000008
40
0.937500000000005
40
0.937500000000005
40
1
40
1
40
1
40
1
41
1
10
22.4672207267605
20
0.489465620707279
30
0
41
1
10
22.4423864160072
20
0.507736238350191
30
0
41
1
10
22.4172970535857
20
0.525323196477302
30
0
41
1
10
22.3661810565823
20
0.558600890935168
30
0
41
1
10
22.3401486189992
20
0.574287202180074
30
0
41
1
10
22.2607878054305
20
0.61889844648104
30
0
41
1
10
22.20611175363
20
0.645245154025332
30
0
41
1
10
22.1206366551374
20
0.679232591169267
30
0
41
1
10
22.0915602617684
20
0.689629944732559
30
0
41
1
10
22.0469589481423
20
0.703767226655316
30
0
41
1
10
22.0318921060178
20
0.708244563639283
30
0
41
1
10
22.0016880609344
20
0.716613603790364
30
0
41
1
10
21.9713698000449
20
0.724413701218026
30
0
41
1
10
21.9408102576822
20
0.731054002819803
30
0
41
1
10
21.9101214627538
20
0.737092416634397
30
0
41
1
10
21.8947162300235
20
0.73982734649644
30
0
41
1
10
21.8482504800727
20
0.746903677954663
30
0
41
1
10
21.8169555594154
20
0.75019054199754
30
0
41
1
10
21.7540317484675
20
0.755294626358221
30
0
41
1
10
21.7224297237562
20
0.757225831004405
30
0
41
1
10
21.6748138539409
20
0.759196553087122
30
0
41
1
10
21.6589049440696
20
0.759692582921673
30
0
41
1
10
21.6270075977092
20
0.760340088279236
30
0
41
1
10
21.6110063825673
20
0.760490860910807
30
0
41
1
10
21.563185148349
20
0.760382297175056
30
0
41
1
10
21.531453669073
20
0.75956740510523
30
0
41
1
10
21.4683304686054
20
0.756234923875212
30
0
41
1
10
21.4369451522957
20
0.75368550899276
30
0
41
1
10
21.3745343968275
20
0.7467406091952
30
0
41
1
10
21.343499147746
20
0.742395240308355
30
0
41
1
10
21.281835260669
20
0.731545527287153
30
0
41
1
10
21.2512047114058
20
0.725053103552767
30
0
41
1
10
21.2056663989165
20
0.713061777446256
30
0
41
1
10
21.1905769636743
20
0.708685420633174
30
0
41
1
10
21.1609295543992
20
0.699195184491231
30
0
41
1
10
21.131724722268
20
0.688943736212138
30
0
41
1
10
21.1034823642922
20
0.676987754475874
30
0
41
1
10
21.0757774684532
20
0.664050824179014
30
0
41
1
10
21.0621396743154
20
0.657060919511451
30
0
41
1
10
21.0225738506214
20
0.634592483548374
30
0
41
1
10
20.9980960524068
20
0.617733890401269
30
0
41
1
10
20.9649148734274
20
0.588724341864094
30
0
41
1
10
20.9544481549492
20
0.57842899260794
30
0
41
1
10
20.9397859537857
20
0.561860608569219
30
0
41
1
10
20.9350553602657
20
0.556125709685745
30
0
41
1
10
20.9261008825979
20
0.544412021760621
30
0
41
1
10
20.9134033602731
20
0.526447065840898
30
0
41
1
10
20.9028720673458
20
0.507289192326368
30
0
41
1
10
20.8938070709424
20
0.48728964632474
30
0
41
1
10
20.8910301338669
20
0.480482663198046
30
0
41
1
10
20.8859736046193
20
0.466577607373267
30
0
41
1
10
20.8836918888234
20
0.459463934835753
30
0
41
1
10
20.873690571004
20
0.423708178420498
30
0
41
1
10
20.8700109188462
20
0.394105487341733
30
0
41
1
10
20.8699933271341
20
0.355894316995006
30
0
41
1
10
20.8702217498592
20
0.34819998247994
30
0
41
1
10
20.8711044813997
20
0.332890646020644
30
0
41
1
10
20.8717584425674
20
0.325250414265014
30
0
41
1
10
20.8743065131886
20
0.30236620111549
30
0
41
1
10
20.8767965339568
20
0.287160530978411
30
0
41
1
10
20.882805505862
20
0.256763209501628
30
0
41
1
10
20.8864499494917
20
0.241592793714204
30
0
41
1
10
20.8953718945804
20
0.21137670631424
30
0
41
1
10
20.900678076351
20
0.196273121684982
30
0
41
1
10
20.9186344468072
20
0.152230988968029
30
0
41
1
10
20.9333760754833
20
0.124222237100099
30
0
41
1
10
20.9577946045962
20
0.083291423418359
30
0
41
1
10
20.9663355993767
20
0.0698369499647242
30
0
41
1
10
20.9840547052314
20
0.0432212696468071
30
0
41
1
10
20.9932540558341
20
0.0300334704818397
30
0
41
1
10
21.0213907773637
20
-0.0088530548799213
30
0
41
1
10
21.040906606771
20
-0.033969416340824
30
0
41
1
10
21.0808923184267
20
-0.0831241556044802
30
0
41
1
10
21.1013685219479
20
-0.107156481060542
30
0
41
1
10
21.1637716218885
20
-0.178070876073463
30
0
41
1
10
21.2066454380737
20
-0.223797237095937
30
0
41
1
10
21.2719223371312
20
-0.290939935523909
30
0
41
1
10
21.2938507535559
20
-0.31307141903801
30
0
41
1
10
21.3379616779709
20
-0.356910449128918
30
0
41
1
10
21.3601542241453
20
-0.378626414615013
30
0
41
1
10
21.4266583141103
20
-0.442842222226176
30
0
41
1
10
21.471006846168
20
-0.484548341902695
30
0
41
1
10
21.5153193057292
20
-0.525183828522472
30
0
0
SPLINE
5
F6
100
AcDbEntity
8
1
62
256
6
ByLayer
370
13
48
1
60
0
100
AcDbSpline
70
4
71
3
72
10
73
6
40
0
40
0
40
0
40
0
40
0.0776679145461219
40
0.615955150568077
40
1
40
1
40
1
40
1
41
1
10
34.7389445050319
20
0.53714484660253
30
0
41
1
10
34.7373087522431
20
0.555555526890601
30
0
41
1
10
34.724336209134
20
0.69988396830226
30
0
41
1
10
34.7032753495915
20
0.91023905143274
30
0
41
1
10
34.6838502445718
20
1.0524959290284
30
0
41
1
10
34.675761930085
20
1.10116966587503
30
0
0
SPLINE
5
F7
100
AcDbEntity
8
1
62
256
6
ByLayer
370
18
48
1
60
0
100
AcDbSpline
70
4
71
3
72
11
73
7
40
0
40
0
40
0
40
0
40
0.250000000000002
40
0.250000000000002
40
0.500000000000004
40
1
40
1
40
1
40
1
41
1
10
33.8972820375439
20
-1.47866249286946
30
0
41
1
10
33.8959020047128
20
-1.4694021932111
30
0
41
1
10
33.8945221276377
20
-1.45973143034345
30
0
41
1
10
33.891768488456
20
-1.43966030504413
30
0
41
1
10
33.8876390142776
20
-1.40842240836943
30
0
41
1
10
33.8835146156243
20
-1.37384364540091
30
0
41
1
10
33.8807700282705
20
-1.34932479314821
30
0
0
SPLINE
5
F8
100
AcDbEntity
8
1
62
256
6
ByLayer
370
13
48
1
60
0
100
AcDbSpline
70
4
71
3
72
10
73
6
40
0
40
0
40
0
40
0
40
0.113186819080406
40
0.74657528609683
40
1
40
1
40
1
40
1
41
1
10
34.0562253245789
20
-0.717269664337948
30
0
41
1
10
34.0586066190291
20
-0.741624663538943
30
0
41
1
10
34.0743135301537
20
-0.898312266230164
30
0
41
1
10
34.0953521873782
20
-1.06934507339642
30
0
41
1
10
34.1140099285812
20
-1.16383861374229
30
0
41
1
10
34.1193417558666
20
-1.18592191319053
30
0
0
SPLINE
5
F9
100
AcDbEntity
8
1
62
256
6
ByLayer
370
13
48
1
60
0
100
AcDbSpline
70
4
71
3
72
10
73
6
40
0
40
0
40
0
40
0
40
0.0600745231868845
40
0.697234208644072
40
1
40
1
40
1
40
1
41
1
10
31.49390273764
20
1.13988051204669
30
0
41
1
10
31.4951591536509
20
1.13327447804593
30
0
41
1
10
31.5097413128629
20
1.05351748924937
30
0
41
1
10
31.5306556171302
20
0.888326757019058
30
0
41
1
10
31.5503134962646
20
0.686436370941095
30
0
41
1
10
31.5566456288898
20
0.617788916694309
30
0
0
SPLINE
5
FA
100
AcDbEntity
8
1
62
256
6
ByLayer
370
18
48
1
60
0
100
AcDbSpline
70
4
71
3
72
14
73
10
40
0
40
0
40
0
40
0
40
0.499999999999998
40
0.499999999999998
40
0.624999999999999
40
0.624999999999999
40
0.749999999999999
40
0.749999999999999
40
1
40
1
40
1
40
1
41
1
10
35.9022866862703
20
-0.0297618312528414
30
0
41
1
10
35.8979106527079
20
-0.0969467196377138
30
0
41
1
10
35.8941420972682
20
-0.163994478511086
30
0
41
1
10
35.890287156046
20
-0.247632250848682
30
0
41
1
10
35.8895592243869
20
-0.264351142657318
30
0
41
1
10
35.8881923248524
20
-0.297771290794685
30
0
41
1
10
35.8875533863637
20
-0.314480053020844
30
0
41
1
10
35.8857913890606
20
-0.364053469981144
30
0
41
1
10
35.8848157205232
20
-0.396542883964571
30
0
41
1
10
35.884031582619
20
-0.428487216058215
30
0
0
SPLINE
5
FB
100
AcDbEntity
8
1
62
256
6
ByLayer
370
18
48
1
60
0
100
AcDbSpline
70
4
71
3
72
12
73
8
40
0
40
0
40
0
40
0
40
0.500000000000001
40
0.500000000000001
40
0.750000000000001
40
0.750000000000001
40
1
40
1
40
1
40
1
41
1
10
35.9022866862702
20
-0.0297618312527845
30
0
41
1
10
35.8989837884722
20
0.0253057790589537
30
0
41
1
10
35.8959874913675
20
0.0800362431318149
30
0
41
1
10
35.892186441596
20
0.161636215345368
30
0
41
1
10
35.8910406927064
20
0.188678183054662
30
0
41
1
10
35.889074744236
20
0.242219107344567
30
0
41
1
10
35.8882512158508
20
0.268753147009903
30
0
41
1
10
35.8876543126365
20
0.295046741577409
30
0
0
SPLINE
5
FC
100
AcDbEntity
8
1
62
256
6
ByLayer
370
18
48
1
60
0
100
AcDbSpline
70
4
71
3
72
20
73
16
40
0
40
0
40
0
40
0
40
0.249999999999998
40
0.249999999999998
40
0.374999999999998
40
0.374999999999998
40
0.499999999999998
40
0.499999999999998
40
0.75
40
0.75
40
0.875000000000001
40
0.875000000000001
40
0.937500000000001
40
0.937500000000001
40
1
40
1
40
1
40
1
41
1
10
35.3980764489198
20
0.731556930774843
30
0
41
1
10
35.4063284900675
20
0.670696165950119
30
0
41
1
10
35.4142395989769
20
0.606537199546608
30
0
41
1
10
35.4258545047731
20
0.505550425332814
30
0
41
1
10
35.4296880401401
20
0.471091705901898
30
0
41
1
10
35.4373060975724
20
0.400558846782985
30
0
41
1
10
35.4411038126148
20
0.364334081346698
30
0
41
1
10
35.452246364744
20
0.255186685498728
30
0
41
1
10
35.4593945350928
20
0.181328373619095
30
0
41
1
10
35.4698707201936
20
0.0689402255158029
30
0
41
1
10
35.473324962489
20
0.0312091165025947
30
0
41
1
10
35.4784526785115
20
-0.0258026644338258
30
0
41
1
10
35.4801553966333
20
-0.0449094837679809
30
0
41
1
10
35.4835227840138
20
-0.0830592715787759
30
0
41
1
10
35.4851877127649
20
-0.102104369226538
30
0
41
1
10
35.4868339370122
20
-0.121119637107029
30
0
0
SPLINE
5
FD
100
AcDbEntity
8
1
62
256
6
ByLayer
370
13
48
1
60
0
100
AcDbSpline
70
4
71
3
72
10
73
6
40
0
40
0
40
0
40
0
40
0.105040536434782
40
0.642630802712569
40
1
40
1
40
1
40
1
41
1
10
35.4208900512396
20
-0.029310992790812
30
0
41
1
10
35.4186749393468
20
-0.001750988810187
30
0
41
1
10
35.4051230363284
20
0.166984796462714
30
0
41
1
10
35.3840348704403
20
0.427290940512847
30
0
41
1
10
35.3651618185295
20
0.63568937389087
30
0
41
1
10
35.3576255582349
20
0.712974889302814
30
0
0
SPLINE
5
FE
100
AcDbEntity
8
1
62
256
6
ByLayer
370
18
48
1
60
0
100
AcDbSpline
70
4
71
3
72
20
73
16
40
0
40
0
40
0
40
0
40
0.249999999999999
40
0.249999999999999
40
0.374999999999998
40
0.374999999999998
40
0.499999999999997
40
0.499999999999997
40
0.749999999999996
40
0.749999999999996
40
0.812499999999997
40
0.812499999999997
40
0.874999999999998
40
0.874999999999998
40
1
40
1
40
1
40
1
41
1
10
34.7756994377984
20
1.2129292789671
30
0
41
1
10
34.7846300781247
20
1.17176146097023
30
0
41
1
10
34.793481262777
20
1.12419287668698
30
0
41
1
10
34.8069085608933
20
1.04342083975692
30
0
41
1
10
34.8114093285016
20
1.01491069200188
30
0
41
1
10
34.8204164595472
20
0.95454542281405
30
0
41
1
10
34.8248597329173
20
0.923078381392031
30
0
41
1
10
34.8378932245998
20
0.82518063408898
30
0
41
1
10
34.8462265979656
20
0.755159955994174
30
0
41
1
10
34.8564862876939
20
0.661745913917514
30
0
41
1
10
34.8585303093963
20
0.642766680208581
30
0
41
1
10
34.8626054391717
20
0.604208573155347
30
0
41
1
10
34.8646407518598
20
0.584587902885119
30
0
41
1
10
34.8706941174981
20
0.525199051325302
30
0
41
1
10
34.8746617128278
20
0.484894181993468
30
0
41
1
10
34.8785834159663
20
0.443890978652774
30
0
0
SPLINE
5
FF
100
AcDbEntity
8
1
62
256
6
ByLayer
370
18
48
1
60
0
100
AcDbSpline
70
4
71
3
72
22
73
18
40
0
40
0
40
0
40
0
40
0.250000000000001
40
0.250000000000001
40
0.375000000000001
40
0.375000000000001
40
0.437500000000001
40
0.437500000000001
40
0.500000000000001
40
0.500000000000001
40
0.75
40
0.75
40
0.874999999999999
40
0.874999999999999
40
0.9375
40
0.9375
40
1
40
1
40
1
40
1
41
1
10
35.1554335104873
20
0.17798132081839
30
0
41
1
10
35.151880086476
20
0.25343127589781
30
0
41
1
10
35.1485685361528
20
0.327044678752316
30
0
41
1
10
35.1438390900116
20
0.434747787658694
30
0
41
1
10
35.1423021060376
20
0.470193081232452
30
0
41
1
10
35.140038334028
20
0.52265465526105
30
0
41
1
10
35.1392892036972
20
0.540061509709574
30
0
41
1
10
35.1378163348229
20
0.574447088263184
30
0
41
1
10
35.1370941114744
20
0.591390260919439
30
0
41
1
10
35.1335578934702
20
0.674874418632101
30
0
41
1
10
35.1309781439639
20
0.73774487657036
30
0
41
1
10
35.1274460472732
20
0.826181715004338
30
0
41
1
10
35.1263240832564
20
0.85467670871904
30
0
41
1
10
35.1246949334214
20
0.895905371844265
30
0
41
1
10
35.1241577842231
20
0.909422250765857
30
0
41
1
10
35.1230931214491
20
0.93581380767597
30
0
41
1
10
35.1225659793552
20
0.948682370979441
30
0
41
1
10
35.1220400255521
20
0.961231268977542
30
0
0
SPLINE
5
100
100
AcDbEntity
8
1
62
256
6
ByLayer
370
13
48
1
60
0
100
AcDbSpline
70
4
71
3
72
10
73
6
40
0
40
0
40
0
40
0
40
0.448845035544832
40
0.986471877927762
40
1
40
1
40
1
40
1
41
1
10
35.2558738325829
20
0.112070078095229
30
0
41
1
10
35.246409191912
20
0.229387314224766
30
0
41
1
10
35.2256079694622
20
0.484030689127763
30
0
41
1
10
35.2045210516502
20
0.71249179550361
30
0
41
1
10
35.1928988748937
20
0.822060872666754
30
0
41
1
10
35.1926136080635
20
0.824740319316248
30
0
0
SPLINE
5
101
100
AcDbEntity
8
1
62
256
6
ByLayer
370
18
48
1
60
0
100
AcDbSpline
70
4
71
3
72
14
73
10
40
0
40
0
40
0
40
0
40
0.25
40
0.25
40
0.5
40
0.5
40
0.75
40
0.75
40
1
40
1
40
1
40
1
41
1
10
33.8807700282705
20
-1.34932479314821
30
0
41
1
10
33.8788582908667
20
-1.30464685210623
30
0
41
1
10
33.8769605633607
20
-1.25642712377086
30
0
41
1
10
33.8732797077559
20
-1.15287478659334
30
0
41
1
10
33.8715160278717
20
-1.09751253042288
30
0
41
1
10
33.8677744430893
20
-0.979649244413054
30
0
41
1
10
33.8658102509896
20
-0.91833620718316
30
0
41
1
10
33.8615760122402
20
-0.791225874520848
30
0
41
1
10
33.8593097003855
20
-0.725427179937128
30
0
41
1
10
33.8567965986097
20
-0.657394008442395
30
0
0
SPLINE
5
102
100
AcDbEntity
8
1
62
256
6
ByLayer
370
18
48
1
60
0
100
AcDbSpline
70
4
71
3
72
8
73
4
40
0
40
0
40
0
40
0
40
1
40
1
40
1
40
1
41
1
10
33.8807700282705
20
-1.34932479314821
30
0
41
1
10
33.8570681663567
20
-1.30364453032911
30
0
41
1
10
33.8336368116567
20
-1.25317483120261
30
0
41
1
10
33.809760054728
20
-1.19812153367152
30
0
0
SPLINE
5
103
100
AcDbEntity
8
1
62
256
6
ByLayer
370
18
48
1
60
0
100
AcDbSpline
70
4
71
3
72
16
73
12
40
0
40
0
40
0
40
0
40
0.25
40
0.25
40
0.375
40
0.375
40
0.5
40
0.5
40
0.75
40
0.75
40
1
40
1
40
1
40
1
41
1
10
33.7418815890544
20
-0.548200284203233
30
0
41
1
10
33.7471968639241
20
-0.608923620215336
30
0
41
1
10
33.7526100323178
20
-0.668378523119316
30
0
41
1
10
33.7609214563846
20
-0.755652909081107
30
0
41
1
10
33.7637223296778
20
-0.784424451581799
30
0
41
1
10
33.7693895927645
20
-0.841311226212667
30
0
41
1
10
33.7722448086988
20
-0.869311266723855
30
0
41
1
10
33.7808278039704
20
-0.951449739416461
30
0
41
1
10
33.7866054108558
20
-1.00395529602875
30
0
41
1
10
33.7981834713339
20
-1.1044637704928
30
0
41
1
10
33.8039804647955
20
-1.15246767343663
30
0
41
1
10
33.809760054728
20
-1.19812153367152
30
0
0
SPLINE
5
104
100
AcDbEntity
8
1
62
256
6
ByLayer
370
13
48
1
60
0
100
AcDbSpline
70
4
71
3
72
9
73
5
40
0
40
0
40
0
40
0
40
0.588927026838502
40
1
40
1
40
1
40
1
41
1
10
33.5393619877939
20
-0.317962172333409
30
0
41
1
10
33.5517373999059
20
-0.466950132109844
30
0
41
1
10
33.5727508795487
20
-0.707710964352287
30
0
41
1
10
33.5937643727958
20
-0.900290778513181
30
0
41
1
10
33.6024024525419
20
-0.968882275477029
30
0
0
SPLINE
5
105
100
AcDbEntity
8
1
62
256
6
ByLayer
370
18
48
1
60
0
100
AcDbSpline
70
4
71
3
72
12
73
8
40
0
40
0
40
0
40
0
40
0.25
40
0.25
40
0.5
40
0.5
40
1
40
1
40
1
40
1
41
1
10
33.809760054728
20
-1.19812153367152
30
0
41
1
10
33.8120473243241
20
-1.22300904895397
30
0
41
1
10
33.8143348374969
20
-1.24703417237765
30
0
41
1
10
33.8189260207353
20
-1.29332228742456
30
0
41
1
10
33.8212355286919
20
-1.3156321785834
30
0
41
1
10
33.8281198895734
20
-1.37891063410424
30
0
41
1
10
33.83270012797
20
-1.41656706682062
30
0
41
1
10
33.8372849016554
20
-1.44981192574207
30
0
0
SPLINE
5
106
100
AcDbEntity
8
1
62
256
6
ByLayer
370
13
48
1
60
0
100
AcDbSpline
70
4
71
3
72
10
73
6
40
0
40
0
40
0
40
0
40
0.218929987751689
40
0.855932517553894
40
1
40
1
40
1
40
1
41
1
10
32.0107903666833
20
0.886907207674483
30
0
41
1
10
32.0153702611572
20
0.846513325157161
30
0
41
1
10
32.0332759559398
20
0.677968818233438
30
0
41
1
10
32.0541957972218
20
0.438842887822915
30
0
41
1
10
32.0705353046664
20
0.239601451085662
30
0
41
1
10
32.0735491005538
20
0.20257889957233
30
0
0
SPLINE
5
107
100
AcDbEntity
8
1
62
256
6
ByLayer
370
18
48
1
60
0
100
AcDbSpline
70
4
71
3
72
21
73
17
40
0
40
0
40
0
40
0
40
0.249999999999995
40
0.249999999999995
40
0.312499999999995
40
0.312499999999995
40
0.374999999999994
40
0.374999999999994
40
0.499999999999995
40
0.499999999999995
40
0.749999999999995
40
0.749999999999995
40
0.812499999999996
40
0.812499999999996
40
0.874999999999997
40
1
40
1
40
1
40
1
41
1
10
31.6466728078281
20
1.32191272863318
30
0
41
1
10
31.6532569290466
20
1.27911641469348
30
0
41
1
10
31.6598087109447
20
1.22957555638587
30
0
41
1
10
31.6680044075775
20
1.15917819351779
30
0
41
1
10
31.6696446712257
20
1.14467213201397
30
0
41
1
10
31.6729320343199
20
1.11479339662486
30
0
41
1
10
31.6745775437039
20
1.09943297516858
30
0
41
1
10
31.6794854143815
20
1.05250084221356
30
0
41
1
10
31.6827343488281
20
1.01993949724581
30
0
41
1
10
31.6925020956665
20
0.918540363151266
30
0
41
1
10
31.6990340811766
20
0.846015696342619
30
0
41
1
10
31.7072279747655
20
0.749064232319057
30
0
41
1
10
31.7088715134431
20
0.729326643008363
30
0
41
1
10
31.7121552157261
20
0.689345452497065
30
0
41
1
10
31.7170631218302
20
0.628773990086813
30
0
41
1
10
31.7219380846398
20
0.566427483658174
30
0
41
1
10
31.7251998874568
20
0.524079013620565
30
0
0
SPLINE
5
108
100
AcDbEntity
8
1
62
256
6
ByLayer
370
18
48
1
60
0
100
AcDbSpline
70
4
71
3
72
21
73
17
40
0
40
0
40
0
40
0
40
0.250000000000001
40
0.250000000000001
40
0.312500000000001
40
0.312500000000001
40
0.375000000000001
40
0.375000000000001
40
0.500000000000002
40
0.500000000000002
40
0.750000000000002
40
0.750000000000002
40
0.812500000000002
40
0.812500000000002
40
0.875000000000001
40
1
40
1
40
1
40
1
41
1
10
31.8998615470554
20
0.351493724731398
30
0
41
1
10
31.8943398981441
20
0.440383902166644
30
0
41
1
10
31.8887920929333
20
0.526806317620554
30
0
41
1
10
31.8818311061272
20
0.631723323508282
30
0
41
1
10
31.8804370114684
20
0.652549968200617
30
0
41
1
10
31.8776424742865
20
0.693884074283318
30
0
41
1
10
31.8762490148745
20
0.714287643804795
30
0
41
1
10
31.8720883289112
20
0.774518389307332
30
0
41
1
10
31.8693352802173
20
0.813455476566958
30
0
41
1
10
31.8610766401215
20
0.926689042797477
30
0
41
1
10
31.8555372542267
20
0.997431625470995
30
0
41
1
10
31.8485388066923
20
1.0797651264825
30
0
41
1
10
31.8471330201132
20
1.09595647010445
30
0
41
1
10
31.8443291742281
20
1.12753232988749
30
0
41
1
10
31.8401364187738
20
1.17367078839902
30
0
41
1
10
31.8359715957981
20
1.21617205744033
30
0
41
1
10
31.8331892530695
20
1.24288646049433
30
0
0
SPLINE
5
109
100
AcDbEntity
8
1
62
256
6
ByLayer
370
13
48
1
60
0
100
AcDbSpline
70
4
71
3
72
10
73
6
40
0
40
0
40
0
40
0
40
0.183795582763271
40
0.819164044506649
40
1
40
1
40
1
40
1
41
1
10
32.6925786426391
20
0.395303415249373
30
0
41
1
10
32.6964334461528
20
0.349772766903016
30
0
41
1
10
32.713614057087
20
0.143025162560036
30
0
41
1
10
32.7345875955396
20
-0.12310121028429
30
0
41
1
10
32.7517060171901
20
-0.329993110604846
30
0
41
1
10
32.7554987190674
20
-0.375044556290561
30
0
0
SPLINE
5
10A
100
AcDbEntity
8
1
62
256
6
ByLayer
370
13
48
1
60
0
100
AcDbSpline
70
4
71
3
72
10
73
6
40
0
40
0
40
0
40
0
40
0.148556369800794
40
0.782752112320754
40
1
40
1
40
1
40
1
41
1
10
33.3743917351452
20
-0.179831957884829
30
0
41
1
10
33.3775131833889
20
-0.218285982841195
30
0
41
1
10
33.3939602734872
20
-0.419534383923008
30
0
41
1
10
33.4149722324724
20
-0.661452204975689
30
0
41
1
10
33.4328628069546
20
-0.832096399930634
30
0
41
1
10
33.4374276319246
20
-0.872980155734638
30
0
0
SPLINE
5
10B
100
AcDbEntity
8
1
62
256
6
ByLayer
370
18
48
1
60
0
100
AcDbSpline
70
4
71
3
72
24
73
20
40
0
40
0
40
0
40
0
40
0.0624999999999998
40
0.0624999999999998
40
0.125
40
0.249999999999999
40
0.374999999999999
40
0.374999999999999
40
0.437499999999999
40
0.437499999999999
40
0.499999999999999
40
0.499999999999999
40
0.75
40
0.75
40
0.875
40
0.875
40
0.9375
40
0.9375
40
1
40
1
40
1
40
1
41
1
10
33.2153274707792
20
-1.01916633267606
30
0
41
1
10
33.2137672039298
20
-0.999555357143237
30
0
41
1
10
33.2121981330937
20
-0.979494578960299
30
0
41
1
10
33.2090699073995
20
-0.938919149814012
30
0
41
1
10
33.20438245177
20
-0.877223093555557
30
0
41
1
10
33.1966115651956
20
-0.770307852523445
30
0
41
1
10
33.1904321012427
20
-0.680472405237026
30
0
41
1
10
33.1857909657835
20
-0.611463374278117
30
0
41
1
10
33.1842426443702
20
-0.588187875633821
30
0
41
1
10
33.1811376672558
20
-0.541083588777695
30
0
41
1
10
33.1795769377108
20
-0.517191730053696
30
0
41
1
10
33.1717910897922
20
-0.397205517957247
30
0
41
1
10
33.1655868590763
20
-0.299782269429812
30
0
41
1
10
33.1562633556149
20
-0.151573039738594
30
0
41
1
10
33.1531573066436
20
-0.101821699264661
30
0
41
1
10
33.1484869602065
20
-0.02666217431522
30
0
41
1
10
33.1469281060056
20
-0.0015201183258569
30
0
41
1
10
33.1438014517151
20
0.0489450869106633
30
0
41
1
10
33.1422446407983
20
0.0740905614072176
30
0
41
1
10
33.1406931650933
20
0.0991181541060655
30
0
0
SPLINE
5
10C
100
AcDbEntity
8
1
62
256
6
ByLayer
370
18
48
1
60
0
100
AcDbSpline
70
4
71
3
72
19
73
15
40
0
40
0
40
0
40
0
40
0.0625000000000004
40
0.0625000000000004
40
0.125000000000001
40
0.250000000000001
40
0.250000000000001
40
0.5
40
0.5
40
0.625
40
0.625
40
0.749999999999999
40
0.749999999999999
40
1
40
1
40
1
40
1
41
1
10
32.5333851425697
20
-0.34357529298714
30
0
41
1
10
32.5320149233451
20
-0.322001267553162
30
0
41
1
10
32.5306344957558
20
-0.300222831673466
30
0
41
1
10
32.5278752851101
20
-0.25660517296447
30
0
41
1
10
32.5237440036823
20
-0.191159197613615
30
0
41
1
10
32.5196402438995
20
-0.125655516823912
30
0
41
1
10
32.5114636445194
20
0.0054270349341721
30
0
41
1
10
32.5060607776438
20
0.09291561635888
30
0
41
1
10
32.4978834803772
20
0.224292903521785
30
0
41
1
10
32.4951328375586
20
0.268280143185706
30
0
41
1
10
32.4896501810661
20
0.354844446281334
30
0
41
1
10
32.4869097152357
20
0.397551143213576
30
0
41
1
10
32.4787058294709
20
0.523983565404109
30
0
41
1
10
32.4732672789475
20
0.606032912922842
30
0
41
1
10
32.4678136643909
20
0.685807134341417
30
0
0
SPLINE
5
10D
100
AcDbEntity
8
1
62
256
6
ByLayer
370
13
48
1
60
0
100
AcDbSpline
70
4
71
3
72
9
73
5
40
0
40
0
40
0
40
0
40
0.624836369082505
40
1
40
1
40
1
40
1
41
1
10
32.8575392137981
20
0.259462970576209
30
0
41
1
10
32.8706512176879
20
0.0997993488147131
30
0
41
1
10
32.8916359095887
20
-0.166376773981568
30
0
41
1
10
32.9126206164827
20
-0.41766163637547
30
0
41
1
10
32.9204933149139
20
-0.507336128919889
30
0
0
SPLINE
5
10E
100
AcDbEntity
8
1
62
256
6
ByLayer
370
18
48
1
60
0
100
AcDbSpline
70
4
71
3
72
18
73
14
40
0
40
0
40
0
40
0
40
0.250000000000001
40
0.250000000000001
40
0.3125
40
0.3125
40
0.375
40
0.375
40
0.5
40
0.5
40
0.75
40
0.75
40
1
40
1
40
1
40
1
41
1
10
33.0806731982141
20
0.165567347804426
30
0
41
1
10
33.0868999722013
20
0.0663501164059994
30
0
41
1
10
33.0930650501673
20
-0.0333765437360398
30
0
41
1
10
33.1008414860775
20
-0.158678670464582
30
0
41
1
10
33.1024053980171
20
-0.183837566088101
30
0
41
1
10
33.1055254521466
20
-0.233827738058238
30
0
41
1
10
33.1070815055207
20
-0.258657853328884
30
0
41
1
10
33.1117510282091
20
-0.332661413863178
30
0
41
1
10
33.114865106597
20
-0.381349151591394
30
0
41
1
10
33.1241950487252
20
-0.525502080342818
30
0
41
1
10
33.1303874149548
20
-0.619087620738128
30
0
41
1
10
33.1429037652876
20
-0.800913767286346
30
0
41
1
10
33.1490679050023
20
-0.886322951521748
30
0
41
1
10
33.1552930465235
20
-0.96644857582055
30
0
0
SPLINE
5
10F
100
AcDbEntity
8
1
62
256
6
ByLayer
370
18
48
1
60
0
100
AcDbSpline
70
4
71
3
72
12
73
8
40
0
40
0
40
0
40
0
40
0.499999999999985
40
0.499999999999985
40
0.749999999999992
40
0.749999999999992
40
1
40
1
40
1
40
1
41
1
10
32.0735491005538
20
0.20257889957233
30
0
41
1
10
32.0441419651153
20
0.222089149255424
30
0
41
1
10
32.01499479876
20
0.244354846818908
30
0
41
1
10
31.9715444271091
20
0.281686760009023
30
0
41
1
10
31.9570928361719
20
0.29480953878587
30
0
41
1
10
31.9283653677217
20
0.322259160258085
30
0
41
1
10
31.9140808176184
20
0.336588093618019
30
0
41
1
10
31.8998615470639
20
0.351493724727391
30
0
0
SPLINE
5
110
100
AcDbEntity
8
1
62
256
6
ByLayer
370
18
48
1
60
0
100
AcDbSpline
70
4
71
3
72
8
73
4
40
0
40
0
40
0
40
0
40
1
40
1
40
1
40
1
41
1
10
31.8998615470601
20
0.351493724731625
30
0
41
1
10
31.841656463588
20
0.410999388153556
30
0
41
1
10
31.7834848840468
20
0.468549864833704
30
0
41
1
10
31.7251998874444
20
0.52407901361903
30
0
0
SPLINE
5
111
100
AcDbEntity
8
1
62
256
6
ByLayer
370
18
48
1
60
0
100
AcDbSpline
70
4
71
3
72
10
73
6
40
0
40
0
40
0
40
0
40
0.5
40
0.5
40
1
40
1
40
1
40
1
41
1
10
31.7251998874511
20
0.524079013611328
30
0
41
1
10
31.6975894861573
20
0.544999455068734
30
0
41
1
10
31.6697149139851
20
0.563377116674047
30
0
41
1
10
31.6135276038772
20
0.594705159362803
30
0
41
1
10
31.5852111817525
20
0.607664970069578
30
0
41
1
10
31.5566456288898
20
0.617788916694082
30
0
0
SPLINE
5
112
100
AcDbEntity
8
1
62
256
6
ByLayer
370
18
48
1
60
0
100
AcDbSpline
70
4
71
3
72
28
73
24
40
0
40
0
40
0
40
0
40
0.125000000000025
40
0.125000000000025
40
0.250000000000051
40
0.250000000000051
40
0.375000000000076
40
0.375000000000076
40
0.500000000000101
40
0.500000000000101
40
0.625000000000126
40
0.625000000000126
40
0.687500000000105
40
0.687500000000105
40
0.750000000000084
40
0.750000000000084
40
0.812500000000063
40
0.812500000000063
40
0.875000000000042
40
0.875000000000042
40
0.937500000000021
40
0.937500000000021
40
1
40
1
40
1
40
1
41
1
10
31.5566456288894
20
0.617788916694252
30
0
41
1
10
31.5521297053329
20
0.619389409751989
30
0
41
1
10
31.5469071972863
20
0.621695007089755
30
0
41
1
10
31.5353840136402
20
0.62734301637596
30
0
41
1
10
31.5290299959598
20
0.630722675837745
30
0
41
1
10
31.5157769093676
20
0.638190573355757
30
0
41
1
10
31.508836063187
20
0.642298864685387
30
0
41
1
10
31.4943758504674
20
0.651259539466679
30
0
41
1
10
31.4867845672
20
0.656161601157862
30
0
41
1
10
31.4714935609862
20
0.666498072596596
30
0
41
1
10
31.4637698047107
20
0.671942307628171
30
0
41
1
10
31.4520850556696
20
0.680617466786543
30
0
41
1
10
31.4481735039806
20
0.683594836045472
30
0
41
1
10
31.440318317632
20
0.689752676912377
30
0
41
1
10
31.43636166018
20
0.692945116410328
30
0
41
1
10
31.42862159498
20
0.699406273809586
30
0
41
1
10
31.424815401598
20
0.702691976528115
30
0
41
1
10
31.4173547851011
20
0.709395803349224
30
0
41
1
10
31.4136714202082
20
0.712842646284173
30
0
41
1
10
31.4066577944438
20
0.719745410637756
30
0
41
1
10
31.403333412784
20
0.723192214143864
30
0
41
1
10
31.3971107984864
20
0.730075931387489
30
0
41
1
10
31.394197187336
20
0.733535041020815
30
0
41
1
10
31.3916278355062
20
0.736882820043519
30
0
0
SPLINE
5
113
100
AcDbEntity
8
1
62
256
6
ByLayer
370
18
48
1
60
0
100
AcDbSpline
70
4
71
3
72
10
73
6
40
0
40
0
40
0
40
0
40
0.5
40
0.5
40
1
40
1
40
1
40
1
41
1
10
31.3916278355062
20
0.736882820043064
30
0
41
1
10
31.3713648960155
20
0.763284748723237
30
0
41
1
10
31.3512267707011
20
0.790602547215997
30
0
41
1
10
31.3111462966523
20
0.846975464343615
30
0
41
1
10
31.2911856900697
20
0.876063979921554
30
0
41
1
10
31.2713374097532
20
0.905927612678965
30
0
0
SPLINE
5
114
100
AcDbEntity
8
1
62
256
6
ByLayer
370
18
48
1
60
0
100
AcDbSpline
70
4
71
3
72
10
73
6
40
0
40
0
40
0
40
0
40
0.5
40
0.5
40
1
40
1
40
1
40
1
41
1
10
31.2713374097531
20
0.905927612678994
30
0
41
1
10
31.2221321739756
20
0.941093482020506
30
0
41
1
10
31.1730143920205
20
0.974044159512005
30
0
41
1
10
31.0747372418739
20
1.03549333822966
30
0
41
1
10
31.0255891473592
20
1.06399845258255
30
0
41
1
10
30.9762350959542
20
1.09017366145702
30
0
0
SPLINE
5
115
100
AcDbEntity
8
1
62
256
6
ByLayer
370
18
48
1
60
0
100
AcDbSpline
70
4
71
3
72
10
73
6
40
0
40
0
40
0
40
0
40
0.5
40
0.5
40
1
40
1
40
1
40
1
41
1
10
30.9762350959542
20
1.09017366145704
30
0
41
1
10
30.9594924457163
20
1.08432831439896
30
0
41
1
10
30.9426521688846
20
1.07749730020359
30
0
41
1
10
30.908806780932
20
1.06183427775863
30
0
41
1
10
30.8918004773378
20
1.05300208067226
30
0
41
1
10
30.8746943226799
20
1.04318335165271
30
0
0
SPLINE
5
116
100
AcDbEntity
8
1
62
256
6
ByLayer
370
18
48
1
60
0
100
AcDbSpline
70
4
71
3
72
28
73
24
40
0
40
0
40
0
40
0
40
0.125
40
0.125
40
0.25
40
0.25
40
0.375000000000001
40
0.375000000000001
40
0.500000000000001
40
0.500000000000001
40
0.625000000000001
40
0.625000000000001
40
0.687500000000001
40
0.687500000000001
40
0.750000000000001
40
0.750000000000001
40
0.8125
40
0.8125
40
0.875
40
0.875
40
0.9375
40
0.9375
40
1
40
1
40
1
40
1
41
1
10
30.87469432268
20
1.04318335165249
30
0
41
1
10
30.870180528423
20
1.04059248751346
30
0
41
1
10
30.8649593412463
20
1.03894411011987
30
0
41
1
10
30.8534359826153
20
1.03704679030383
30
0
41
1
10
30.8470797012318
20
1.03681948491325
30
0
41
1
10
30.8338207109396
20
1.0376313742095
30
0
41
1
10
30.82687563809
20
1.03865827086668
30
0
41
1
10
30.8124053702487
20
1.04192417345499
30
0
41
1
10
30.8048086025627
20
1.04419430400719
30
0
41
1
10
30.7895118826874
20
1.04992526984344
30
0
41
1
10
30.7817862971313
20
1.05337954295734
30
0
41
1
10
30.7701011790978
20
1.0595901017185
30
0
41
1
10
30.7661898941606
20
1.06183345601215
30
0
41
1
10
30.7583360587167
20
1.06672149690607
30
0
41
1
10
30.7543833476618
20
1.06937612387421
30
0
41
1
10
30.7466530140117
20
1.07501453258283
30
0
41
1
10
30.7428517305494
20
1.07801127902769
30
0
41
1
10
30.735401373145
20
1.08441836789081
30
0
41
1
10
30.7317233483742
20
1.08785893636818
30
0
41
1
10
30.7247233909947
20
1.09508131424184
30
0
41
1
10
30.7214053086698
20
1.09885247383025
30
0
41
1
10
30.7151938234525
20
1.10676827168973
30
0
41
1
10
30.7122853862537
20
1.11094218835376
30
0
41
1
10
30.7097201287188
20
1.11521660759649
30
0
0
SPLINE
5
117
100
AcDbEntity
8
1
62
256
6
ByLayer
370
18
48
1
60
0
100
AcDbSpline
70
4
71
3
72
8
73
4
40
0
40
0
40
0
40
0
40
1
40
1
40
1
40
1
41
1
10
30.7097201287186
20
1.11521660759644
30
0
41
1
10
30.6872361383352
20
1.15268107260198
30
0
41
1
10
30.664907523114
20
1.19053438799114
30
0
41
1
10
30.6426963954241
20
1.22874111954869
30
0
0
SPLINE
5
118
100
AcDbEntity
8
1
62
256
6
ByLayer
370
18
48
1
60
0
100
AcDbSpline
70
4
71
3
72
12
73
8
40
0
40
0
40
0
40
0
40
0.499999999999987
40
0.499999999999987
40
0.749999999999993
40
0.749999999999993
40
1
40
1
40
1
40
1
41
1
10
30.6426963954179
20
1.2287411195675
30
0
41
1
10
30.5734284682332
20
1.2495601237969
30
0
41
1
10
30.5044345941314
20
1.26533602034644
30
0
41
1
10
30.4007521793728
20
1.28154272917064
30
0
41
1
10
30.3661639255197
20
1.28570170749325
30
0
41
1
10
30.2967557435417
20
1.29150912126775
30
0
41
1
10
30.2619056213831
20
1.2931488334759
30
0
41
1
10
30.2269379923207
20
1.29355432863821
30
0
0
SPLINE
5
119
100
AcDbEntity
8
1
62
256
6
ByLayer
370
18
48
1
60
0
100
AcDbSpline
70
4
71
3
72
8
73
4
40
0
40
0
40
0
40
0
40
1
40
1
40
1
40
1
41
1
10
30.2269379923267
20
1.29355432863088
30
0
41
1
10
30.2155934259889
20
1.27849406291742
30
0
41
1
10
30.2042122999258
20
1.26310513237425
30
0
41
1
10
30.1927878537772
20
1.24738536352495
30
0
0
SPLINE
5
11A
100
AcDbEntity
8
1
62
256
6
ByLayer
370
18
48
1
60
0
100
AcDbSpline
70
4
71
3
72
28
73
24
40
0
40
0
40
0
40
0
40
0.125
40
0.125
40
0.25
40
0.25
40
0.375000000000001
40
0.375000000000001
40
0.500000000000001
40
0.500000000000001
40
0.625000000000001
40
0.625000000000001
40
0.687500000000001
40
0.687500000000001
40
0.750000000000001
40
0.750000000000001
40
0.812500000000001
40
0.812500000000001
40
0.875
40
0.875
40
0.9375
40
0.9375
40
1
40
1
40
1
40
1
41
1
10
30.1927878537769
20
1.24738536352484
30
0
41
1
10
30.1882692460202
20
1.24116786566705
30
0
41
1
10
30.1830422339745
20
1.23593625699024
30
0
41
1
10
30.171507836141
20
1.22694464282574
30
0
41
1
10
30.1651462848543
20
1.22318626632531
30
0
41
1
10
30.1518807017588
20
1.21722614273983
30
0
41
1
10
30.1449340883865
20
1.21498377497528
30
0
41
1
10
30.1304629615501
20
1.21192002730246
30
0
41
1
10
30.1228671794646
20
1.2111049415613
30
0
41
1
10
30.1075734304746
20
1.2110668504194
30
0
41
1
10
30.0998498687013
20
1.21182146851018
30
0
41
1
10
30.0881683713744
20
1.21427904520925
30
0
41
1
10
30.0842583911906
20
1.21532127555827
30
0
41
1
10
30.0764073193154
20
1.21791822977048
30
0
41
1
10
30.072455834352
20
1.21948109369052
30
0
41
1
10
30.0647273063182
20
1.22311867653957
30
0
41
1
10
30.0609268125001
20
1.22519896197986
30
0
41
1
10
30.0534780914319
20
1.22996407679207
30
0
41
1
10
30.0498008683979
20
1.23267404736734
30
0
41
1
10
30.0428009411854
20
1.23869800298022
30
0
41
1
10
30.0394826272152
20
1.24199965005036
30
0
41
1
10
30.0332702612522
20
1.24927919952617
30
0
41
1
10
30.0303609529454
20
1.25328784951637
30
0
41
1
10
30.0277945074407
20
1.25758769042187
30
0
0
SPLINE
5
11B
100
AcDbEntity
8
1
62
256
6
ByLayer
370
18
48
1
60
0
100
AcDbSpline
70
4
71
3
72
8
73
4
40
0
40
0
40
0
40
0
40
1
40
1
40
1
40
1
41
1
10
30.0277945074365
20
1.25758769042886
30
0
41
1
10
30.0231529438459
20
1.26536419881757
30
0
41
1
10
30.0185180151441
20
1.27312182996738
30
0
41
1
10
30.0138893853893
20
1.28086069031349
30
0
0
SPLINE
5
11C
100
AcDbEntity
8
1
62
256
6
ByLayer
370
18
48
1
60
0
100
AcDbSpline
70
4
71
3
72
12
73
8
40
0
40
0
40
0
40
0
40
0.249999999999992
40
0.249999999999992
40
0.499999999999983
40
0.499999999999983
40
1
40
1
40
1
40
1
41
1
10
30.0138893853893
20
1.28086069031346
30
0
41
1
10
29.9854450664916
20
1.27716787944016
30
0
41
1
10
29.9569036856717
20
1.27267148290628
30
0
41
1
10
29.8998508839555
20
1.2621329696463
30
0
41
1
10
29.8712959401724
20
1.25608564631426
30
0
41
1
10
29.7854363312302
20
1.23564982934454
30
0
41
1
10
29.7279623070026
20
1.21896888400386
30
0
41
1
10
29.67
20
1.19932595028263
30
0
0
SPLINE
5
11D
100
AcDbEntity
8
1
62
256
6
ByLayer
370
18
48
1
60
0
100
AcDbSpline
70
4
71
3
72
8
73
4
40
0
40
0
40
0
40
0
40
1
40
1
40
1
40
1
41
1
10
29.6700000001271
20
1.19932595038631
30
0
41
1
10
29.6597743902082
20
1.19098008601338
30
0
41
1
10
29.6495292397331
20
1.18252281385503
30
0
41
1
10
29.6392622868469
20
1.17395532121492
30
0
0
SPLINE
5
11E
100
AcDbEntity
8
1
62
256
6
ByLayer
370
18
48
1
60
0
100
AcDbSpline
70
4
71
3
72
12
73
8
40
0
40
0
40
0
40
0
40
0.25
40
0.25
40
0.5
40
0.5
40
1
40
1
40
1
40
1
41
1
10
29.6392622868585
20
1.17395532122461
30
0
41
1
10
29.6163035702517
20
1.15479689732473
30
0
41
1
10
29.5926408616327
20
1.13671460111308
30
0
41
1
10
29.5437650277378
20
1.10266481250091
30
0
41
1
10
29.518474717642
20
1.08671560469168
30
0
41
1
10
29.440554385936
20
1.04235597918463
30
0
41
1
10
29.3859942116653
20
1.01742653181677
30
0
41
1
10
29.3302394419125
20
0.997362714989094
30
0
0
SPLINE
5
11F
100
AcDbEntity
8
1
62
256
6
ByLayer
370
18
48
1
60
0
100
AcDbSpline
70
4
71
3
72
12
73
8
40
0
40
0
40
0
40
0
40
0.488638858170985
40
0.488638858170985
40
0.977277716341969
40
0.977277716341969
40
1
40
1
40
1
40
1
41
1
10
29.3302394419125
20
0.997362714989094
30
0
41
1
10
29.2581176799236
20
0.971409100110066
30
0
41
1
10
29.18646351447
20
0.942090372788954
30
0
41
1
10
29.0436417927786
20
0.877273615813522
30
0
41
1
10
28.9725461806912
20
0.841715778697704
30
0
41
1
10
28.8981947998581
20
0.801444963109105
30
0
41
1
10
28.8948910523203
20
0.799649240499377
30
0
41
1
10
28.8915873048152
20
0.797847271952378
30
0
0
SPLINE
5
120
100
AcDbEntity
8
1
62
256
6
ByLayer
370
18
48
1
60
0
100
AcDbSpline
70
4
71
3
72
46
73
42
40
0
40
0
40
0
40
0
40
0.0243198886109441
40
0.0243198886109441
40
0.0604561890327603
40
0.0604561890327603
40
0.132728789876393
40
0.132728789876393
40
0.168865090298207
40
0.168865090298207
40
0.186933240509116
40
0.186933240509116
40
0.205001390720025
40
0.205001390720025
40
0.277273991563662
40
0.277273991563662
40
0.349546592407299
40
0.349546592407299
40
0.421819193250935
40
0.421819193250935
40
0.457955493672754
40
0.457955493672754
40
0.476023643883661
40
0.476023643883661
40
0.494091794094568
40
0.494091794094568
40
0.566364394938201
40
0.566364394938201
40
0.638636995781833
40
0.638636995781833
40
0.710909596625466
40
0.710909596625466
40
0.747045897047284
40
0.747045897047284
40
0.783182197469103
40
0.783182197469103
40
0.855454798312735
40
0.855454798312735
40
0.927727399156368
40
0.927727399156368
40
1
40
1
40
1
40
1
41
1
10
25.4328751796232
20
-1.1284498243547
30
0
41
1
10
25.4088933240103
20
-1.12844537778176
30
0
41
1
10
25.3849235471251
20
-1.12798796298691
30
0
41
1
10
25.3253116919765
20
-1.12574011698541
30
0
41
1
10
25.2896891505829
20
-1.12341114677511
30
0
41
1
10
25.1829387054092
20
-1.11345798017973
30
0
41
1
10
25.1117947802275
20
-1.10288411360528
30
0
41
1
10
25.0047148109415
20
-1.08111121893413
30
0
41
1
10
24.9689597452252
20
-1.07286740020282
30
0
41
1
10
24.9151649347752
20
-1.05902482440049
30
0
41
1
10
24.8972066206023
20
-1.05416434707109
30
0
41
1
10
24.861223322398
20
-1.04395217925716
30
0
41
1
10
24.8431828505795
20
-1.03859562202553
30
0
41
1
10
24.7531852098597
20
-1.01074669955088
30
0
41
1
10
24.6814637838143
20
-0.985046182950867
30
0
41
1
10
24.5388638796605
20
-0.926819571180232
30
0
41
1
10
24.4679210312795
20
-0.89430694679578
30
0
41
1
10
24.3258190223564
20
-0.823205235985625
30
0
41
1
10
24.2545416766984
20
-0.784732420228835
30
0
41
1
10
24.1470404978763
20
-0.722861022322974
30
0
41
1
10
24.1111226302643
20
-0.701528960353528
30
0
41
1
10
24.0571124935115
20
-0.66844869381535
30
0
41
1
10
24.0390621353677
20
-0.657229544345228
30
0
41
1
10
24.0030249878347
20
-0.634523429631059
30
0
41
1
10
23.9850434937509
20
-0.623040326882375
30
0
41
1
10
23.8952913660762
20
-0.565012007807439
30
0
41
1
10
23.8240003912136
20
-0.516611455593932
30
0
41
1
10
23.6816171893411
20
-0.416886855273731
30
0
41
1
10
23.6104682954512
20
-0.365637623934731
30
0
41
1
10
23.4680742822699
20
-0.260604818933132
30
0
41
1
10
23.3968454404129
20
-0.20679595225036
30
0
41
1
10
23.2894705317889
20
-0.124710339729063
30
0
41
1
10
23.2535847173654
20
-0.0971040165474051
30
0
41
1
10
23.1814738720759
20
-0.0417323046352465
30
0
41
1
10
23.1455108197003
20
-0.0141465132179235
30
0
41
1
10
23.0378481214865
20
0.0682612703756149
30
0
41
1
10
22.9665012499875
20
0.122904169089168
30
0
41
1
10
22.8241750926894
20
0.230972353474243
30
0
41
1
10
22.753213416959
20
0.284418551219716
30
0
41
1
10
22.6109070596064
20
0.389113242807866
30
0
41
1
10
22.5393240694467
20
0.440067741277147
30
0
41
1
10
22.467431458197
20
0.489763872302689
30
0
0
SPLINE
5
121
100
AcDbEntity
8
1
62
256
6
ByLayer
370
18
48
1
60
0
100
AcDbSpline
70
4
71
3
72
32
73
28
40
0
40
0
40
0
40
0
40
0.0393348917952307
40
0.0393348917952307
40
0.132913973605726
40
0.132913973605726
40
0.226493055416221
40
0.226493055416221
40
0.273282596321468
40
0.273282596321468
40
0.320072137226716
40
0.320072137226716
40
0.413651219037207
40
0.413651219037207
40
0.507230300847697
40
0.507230300847697
40
0.694388464468679
40
0.694388464468679
40
0.78796754627917
40
0.78796754627917
40
0.834757087184414
40
0.834757087184414
40
0.881546628089658
40
0.881546628089658
40
0.975125709900148
40
0.975125709900148
40
1
40
1
40
1
40
1
41
1
10
22.4672066437755
20
0.489468288210048
30
0
41
1
10
22.4588413345725
20
0.491052285434449
30
0
41
1
10
22.4498481004687
20
0.49185977964558
30
0
41
1
10
22.4159827245991
20
0.490288705666728
30
0
41
1
10
22.3873911732595
20
0.483383138525397
30
0
41
1
10
22.3232650200992
20
0.45722107497329
30
0
41
1
10
22.2869529107404
20
0.437641723166763
30
0
41
1
10
22.2296661300728
20
0.398946590169828
30
0
41
1
10
22.2097393912473
20
0.383933200147794
30
0
41
1
10
22.1693886671635
20
0.352314627842361
30
0
41
1
10
22.149234896855
20
0.335990520122806
30
0
41
1
10
22.0888435188434
20
0.285350754540644
30
0
41
1
10
22.0486755193454
20
0.249375396430082
30
0
41
1
10
21.9685635809646
20
0.172082300572129
30
0
41
1
10
21.9287396944955
20
0.131216194657128
30
0
41
1
10
21.8157424803157
20
0.0069921452921733
30
0
41
1
10
21.74599440326
20
-0.0811616097519448
30
0
41
1
10
21.6584572271761
20
-0.208288791680189
30
0
41
1
10
21.6316077480756
20
-0.250479054934033
30
0
41
1
10
21.5955686002198
20
-0.311644502337856
30
0
41
1
10
21.5842289030754
20
-0.331716023917437
30
0
41
1
10
21.5627955257326
20
-0.371272540927549
30
0
41
1
10
21.55220323208
20
-0.390992244104297
30
0
41
1
10
21.5259192336162
20
-0.447565739348477
30
0
41
1
10
21.5172394613726
20
-0.479303506206463
30
0
41
1
10
21.5148706240564
20
-0.512585143711675
30
0
41
1
10
21.5148640891058
20
-0.519105240323938
30
0
41
1
10
21.5153193446499
20
-0.525184348254072
30
0
0
SPLINE
5
122
100
AcDbEntity
8
1
62
256
6
ByLayer
370
18
48
1
60
0
100
AcDbSpline
70
4
71
3
72
56
73
52
40
0
40
0
40
0
40
0
40
0.0882106420549621
40
0.0882106420549621
40
0.132315963082443
40
0.132315963082443
40
0.154368623596181
40
0.154368623596181
40
0.176421284109919
40
0.176421284109919
40
0.198473944623658
40
0.198473944623658
40
0.220526605137396
40
0.220526605137396
40
0.242579265651134
40
0.242579265651134
40
0.264631926164872
40
0.264631926164872
40
0.35284256821982
40
0.35284256821982
40
0.374895228733558
40
0.374895228733558
40
0.396947889247296
40
0.396947889247296
40
0.441053210274768
40
0.441053210274768
40
0.529263852329706
40
0.529263852329706
40
0.573369173357175
40
0.573369173357175
40
0.617474494384644
40
0.617474494384644
40
0.705685136439583
40
0.705685136439583
40
0.749790457467054
40
0.749790457467054
40
0.793895778494526
40
0.793895778494526
40
0.838001099521997
40
0.838001099521997
40
0.860053760035733
40
0.860053760035733
40
0.882106420549469
40
0.882106420549469
40
0.926211741576936
40
0.926211741576936
40
0.970317062604402
40
0.970317062604402
40
0.992369723118133
40
0.992369723118133
40
1
40
1
40
1
40
1
41
1
10
21.5153268887773
20
-0.525169201353066
30
0
41
1
10
21.5968459939069
20
-0.580706107626639
30
0
41
1
10
21.6780379357599
20
-0.633229224831553
30
0
41
1
10
21.7996844443775
20
-0.707280572832957
30
0
41
1
10
21.840190473184
20
-0.731193226285512
30
0
41
1
10
21.9009363194254
20
-0.765846158500835
30
0
41
1
10
21.9211887305461
20
-0.777188219258051
30
0
41
1
10
21.9617498635562
20
-0.799407771592541
30
0
41
1
10
21.9820808689946
20
-0.810265820543918
30
0
41
1
10
22.022605256273
20
-0.831693294505129
30
0
41
1
10
22.0427829062466
20
-0.842273218673995
30
0
41
1
10
22.0833814003235
20
-0.862792849494952
30
0
41
1
10
22.1037752929193
20
-0.872759199686925
30
0
41
1
10
22.1446626013112
20
-0.892188015804805
30
0
41
1
10
22.1651480188092
20
-0.901656871533476
30
0
41
1
10
22.2061706695613
20
-0.920124909054067
30
0
41
1
10
22.2267421983991
20
-0.929130079140265
30
0
41
1
10
22.3294387543633
20
-0.972750985867407
30
0
41
1
10
22.4108719288941
20
-1.003065405635
30
0
41
1
10
22.5122253560054
20
-1.03506864432441
30
0
41
1
10
22.5324626070221
20
-1.04118095785557
30
0
41
1
10
22.572840062836
20
-1.05283783528989
30
0
41
1
10
22.5929995910914
20
-1.05837094759801
30
0
41
1
10
22.6536752559742
20
-1.07396400004132
30
0
41
1
10
22.6942105061582
20
-1.08310562902128
30
0
41
1
10
22.8159637339016
20
-1.10685168794251
30
0
41
1
10
22.8974336870537
20
-1.11776477884808
30
0
41
1
10
23.0200632827485
20
-1.12649433150031
30
0
41
1
10
23.061155493037
20
-1.12811374961626
30
0
41
1
10
23.1427946197308
20
-1.12869142977669
30
0
41
1
10
23.1833401679824
20
-1.12764709567861
30
0
41
1
10
23.3054664172048
20
-1.12071375704059
30
0
41
1
10
23.3867542060125
20
-1.11103856608261
30
0
41
1
10
23.5084321237178
20
-1.08907059429814
30
0
41
1
10
23.5489459066688
20
-1.08049594350445
30
0
41
1
10
23.6299631047487
20
-1.06082635633504
30
0
41
1
10
23.6704646421963
20
-1.04972659668343
30
0
41
1
10
23.7517611291844
20
-1.02510498413901
30
0
41
1
10
23.7925986391466
20
-1.01161070366103
30
0
41
1
10
23.8541577008135
20
-0.989598366666513
30
0
41
1
10
23.8747524087429
20
-0.981953746512403
30
0
41
1
10
23.9158265861319
20
-0.966140991608881
30
0
41
1
10
23.9363198953464
20
-0.957966995157221
30
0
41
1
10
23.9976706138176
20
-0.932649180658558
30
0
41
1
10
24.0384071518345
20
-0.914715688343648
30
0
41
1
10
24.1196424424629
20
-0.876823314937781
30
0
41
1
10
24.160165048994
20
-0.85688722340393
30
0
41
1
10
24.2206737917998
20
-0.825368978101494
30
0
41
1
10
24.2407583842495
20
-0.814556408813274
30
0
41
1
10
24.2678648959208
20
-0.799758943725266
30
0
41
1
10
24.2748488554805
20
-0.795942688867399
30
0
41
1
10
24.2818435723732
20
-0.792109385219391
30
0
0
SPLINE
5
123
100
AcDbEntity
8
1
62
256
6
ByLayer
370
18
48
1
60
0
100
AcDbSpline
70
4
71
3
72
36
73
32
40
0
40
0
40
0
40
0
40
0.0777744599576966
40
0.0777744599576966
40
0.231478716631405
40
0.231478716631405
40
0.269904780799837
40
0.269904780799837
40
0.30833084496827
40
0.30833084496827
40
0.385182973305128
40
0.385182973305128
40
0.423609037473557
40
0.423609037473557
40
0.462035101641986
40
0.462035101641986
40
0.500461165810415
40
0.500461165810415
40
0.538887229978844
40
0.538887229978844
40
0.577313294147273
40
0.577313294147273
40
0.615739358315702
40
0.615739358315702
40
0.69259148665256
40
0.69259148665256
40
0.846295743326276
40
0.846295743326276
40
0.923147871663138
40
0.923147871663138
40
1
40
1
40
1
40
1
41
1
10
27.7417751121161
20
1.12845936153266
30
0
41
1
10
27.7830590203105
20
1.12845744350648
30
0
41
1
10
27.8242664980348
20
1.12714125765714
30
0
41
1
10
27.946615307571
20
1.11938620201039
30
0
41
1
10
28.0273982175628
20
1.10914806865219
30
0
41
1
10
28.1283373970269
20
1.08986617534734
30
0
41
1
10
28.1485380384621
20
1.08568934918347
30
0
41
1
10
28.1890642038222
20
1.07673299429146
30
0
41
1
10
28.2093933935894
20
1.07195602396817
30
0
41
1
10
28.2705392050447
20
1.05672276207559
30
0
41
1
10
28.3114940455189
20
1.04535809029545
30
0
41
1
10
28.3731358575273
20
1.0264343921705
30
0
41
1
10
28.3937280734442
20
1.01981031802987
30
0
41
1
10
28.434745473772
20
1.0060019925277
30
0
41
1
10
28.4551982934872
20
0.998808831141758
30
0
41
1
10
28.4959847720319
20
0.983839645427025
30
0
41
1
10
28.5163232880377
20
0.976066105423115
30
0
41
1
10
28.5569742053314
20
0.96000009209007
30
0
41
1
10
28.577309172726
20
0.951724479226613
30
0
41
1
10
28.6178985428723
20
0.934622629870717
30
0
41
1
10
28.6380890822208
20
0.92574752937503
30
0
41
1
10
28.6784640458133
20
0.907494293431427
30
0
41
1
10
28.698681609833
20
0.898143319764699
30
0
41
1
10
28.7594061960801
20
0.869418964265861
30
0
41
1
10
28.799967056202
20
0.849361427528862
30
0
41
1
10
28.9217590116241
20
0.786404155898566
30
0
41
1
10
29.003099169983
20
0.740735089323834
30
0
41
1
10
29.1253459461264
20
0.666467918382978
30
0
41
1
10
29.1661898782343
20
0.64075212480796
30
0
41
1
10
29.2481590051453
20
0.587765076524732
30
0
41
1
10
29.2891567447099
20
0.560606955602964
30
0
41
1
10
29.3302394419125
20
0.532872322346975
30
0
0
SPLINE
5
124
100
AcDbEntity
8
1
62
256
6
ByLayer
370
18
48
1
60
0
100
AcDbSpline
70
4
71
3
72
16
73
12
40
0
40
0
40
0
40
0
40
0.25
40
0.25
40
0.5
40
0.5
40
0.75
40
0.75
40
0.875
40
0.875
40
1
40
1
40
1
40
1
41
1
10
29.3302394419125
20
0.532872322346975
30
0
41
1
10
29.3567782047031
20
0.514956194556333
30
0
41
1
10
29.3832166530742
20
0.497771151359188
30
0
41
1
10
29.435674425485
20
0.464621138256518
30
0
41
1
10
29.4616915081219
20
0.448649543084287
30
0
41
1
10
29.5132183051354
20
0.417925220950309
30
0
41
1
10
29.5387298482307
20
0.403168811726118
30
0
41
1
10
29.5766688929192
20
0.382270831175077
30
0
41
1
10
29.5892642355083
20
0.375518989126277
30
0
41
1
10
29.6143620003802
20
0.362534996885245
30
0
41
1
10
29.6268707605048
20
0.356315874600313
30
0
41
1
10
29.6392622868585
20
0.350279976790091
30
0
0
SPLINE
5
125
100
AcDbEntity
8
1
62
256
6
ByLayer
370
18
48
1
60
0
100
AcDbSpline
70
4
71
3
72
8
73
4
40
0
40
0
40
0
40
0
40
1
40
1
40
1
40
1
41
1
10
29.6392622868585
20
0.350279976790148
30
0
41
1
10
29.649532175559
20
0.345277526167905
30
0
41
1
10
29.6597807241515
20
0.340163604262898
30
0
41
1
10
29.6700000001271
20
0.334919080268037
30
0
0
SPLINE
5
126
100
AcDbEntity
8
1
62
256
6
ByLayer
370
18
48
1
60
0
100
AcDbSpline
70
4
71
3
72
16
73
12
40
0
40
0
40
0
40
0
40
0.125
40
0.125
40
0.25
40
0.25
40
0.375
40
0.375
40
0.5
40
0.5
40
1
40
1
40
1
40
1
41
1
10
29.67
20
0.334919080333236
30
0
41
1
10
29.6910560924179
20
0.319386594497416
30
0
41
1
10
29.712032792496
20
0.303697054245447
30
0
41
1
10
29.7536402152993
20
0.271781807851624
30
0
41
1
10
29.7743462060531
20
0.255643889789042
30
0
41
1
10
29.8158339247389
20
0.223328990431952
30
0
41
1
10
29.8366104787161
20
0.207146612049684
30
0
41
1
10
29.8780048570311
20
0.174466807824246
30
0
41
1
10
29.8986341109448
20
0.157982648558146
30
0
41
1
10
30.0015093316852
20
0.0749191456735332
30
0
41
1
10
30.0829967511819
20
0.00647924967123
30
0
41
1
10
30.1641287612203
20
-0.0634496016050718
30
0
0
SPLINE
5
127
100
AcDbEntity
8
1
62
256
6
ByLayer
370
18
48
1
60
0
100
AcDbSpline
70
4
71
3
72
8
73
4
40
0
40
0
40
0
40
0
40
1
40
1
40
1
40
1
41
1
10
30.1641287612203
20
-0.0634496016051003
30
0
41
1
10
30.1735599106629
20
-0.0741545845198175
30
0
41
1
10
30.1830211164544
20
-0.0845944697151992
30
0
41
1
10
30.1925140223011
20
-0.0947762695680865
30
0
0
SPLINE
5
128
100
AcDbEntity
8
1
62
256
6
ByLayer
370
18
48
1
60
0
100
AcDbSpline
70
4
71
3
72
26
73
22
40
0
40
0
40
0
40
0
40
0.125
40
0.125
40
0.25
40
0.25
40
0.375000000000001
40
0.375000000000001
40
0.500000000000001
40
0.500000000000001
40
0.625000000000001
40
0.625000000000001
40
0.750000000000001
40
0.750000000000001
40
0.812500000000001
40
0.812500000000001
40
0.875
40
0.875
40
0.9375
40
0.9375
40
1
40
1
40
1
40
1
41
1
10
30.1925140223011
20
-0.0947762695680865
30
0
41
1
10
30.1971146476332
20
-0.0997107592893087
30
0
41
1
10
30.2024453014409
20
-0.105050142886739
30
0
41
1
10
30.2141987334032
20
-0.116305056919373
30
0
41
1
10
30.220681016319
20
-0.122269463080158
30
0
41
1
10
30.2341587693046
20
-0.134298318761324
30
0
41
1
10
30.2411998207722
20
-0.140408553288069
30
0
41
1
10
30.2558262338026
20
-0.152841921496474
30
0
41
1
10
30.2634732000269
20
-0.15921509397765
30
0
41
1
10
30.2787904909289
20
-0.171821988397198
30
0
41
1
10
30.2865032112652
20
-0.178093239124649
30
0
41
1
10
30.3020015794816
20
-0.19062244126232
30
0
41
1
10
30.3098765785901
20
-0.196950730038509
30
0
41
1
10
30.3212594686351
20
-0.206070281478958
30
0
41
1
10
30.3249903170832
20
-0.209054627265687
30
0
41
1
10
30.3323022627772
20
-0.214899339794073
30
0
41
1
10
30.3359104024897
20
-0.217781278351538
30
0
41
1
10
30.3427691406148
20
-0.22326176010921
30
0
41
1
10
30.3460245750046
20
-0.225864089029784
30
0
41
1
10
30.3521284558201
20
-0.230748252118559
30
0
41
1
10
30.3549937594344
20
-0.233043866690167
30
0
41
1
10
30.3575362456091
20
-0.2350816495792
30
0
0
SPLINE
5
129
100
AcDbEntity
8
1
62
256
6
ByLayer
370
18
48
1
60
0
100
AcDbSpline
70
4
71
3
72
8
73
4
40
0
40
0
40
0
40
0
40
1
40
1
40
1
40
1
41
1
10
30.3575362456091
20
-0.235081649579001
30
0
41
1
10
30.3733063975764
20
-0.24772130369189
30
0
41
1
10
30.3889949595629
20
-0.261083549955771
30
0
41
1
10
30.4046165345713
20
-0.275136049513975
30
0
0
SPLINE
5
12A
100
AcDbEntity
8
1
62
256
6
ByLayer
370
18
48
1
60
0
100
AcDbSpline
70
4
71
3
72
15
73
11
40
0
40
0
40
0
40
0
40
0.125
40
0.125
40
0.25
40
0.5
40
0.5
40
0.75
40
0.75
40
1
40
1
40
1
40
1
41
1
10
30.404616534567
20
-0.275136049510167
30
0
41
1
10
30.4209239778477
20
-0.289624433911087
30
0
41
1
10
30.4372719354426
20
-0.304150671739109
30
0
41
1
10
30.4698636763392
20
-0.333150002658101
30
0
41
1
10
30.518610519874
20
-0.376571511622899
30
0
41
1
10
30.5669684388932
20
-0.41972832130503
30
0
41
1
10
30.6311366120808
20
-0.476997175644243
30
0
41
1
10
30.663060936777
20
-0.505499873702576
30
0
41
1
10
30.7266502897106
20
-0.562176513385936
30
0
41
1
10
30.7583354645945
20
-0.590331569957101
30
0
41
1
10
30.7898789943889
20
-0.618328055305511
30
0
0
SPLINE
5
12B
100
AcDbEntity
8
1
62
256
6
ByLayer
370
18
48
1
60
0
100
AcDbSpline
70
4
71
3
72
10
73
6
40
0
40
0
40
0
40
0
40
0.5
40
0.5
40
1
40
1
40
1
40
1
41
1
10
30.7898789943859
20
-0.618328055301447
30
0
41
1
10
30.8038505699101
20
-0.624256850341538
30
0
41
1
10
30.8178874103929
20
-0.629533297958972
30
0
41
1
10
30.8460523168233
20
-0.638773455299884
30
0
41
1
10
30.8601841237559
20
-0.642748768484097
30
0
41
1
10
30.8744065181206
20
-0.645961344949711
30
0
0
SPLINE
5
12C
100
AcDbEntity
8
1
62
256
6
ByLayer
370
18
48
1
60
0
100
AcDbSpline
70
4
71
3
72
26
73
22
40
0
40
0
40
0
40
0
40
0.125
40
0.125
40
0.25
40
0.25
40
0.375
40
0.375
40
0.5
40
0.5
40
0.625
40
0.625
40
0.75
40
0.75
40
0.8125
40
0.8125
40
0.875
40
0.875
40
0.9375
40
0.9375
40
1
40
1
40
1
40
1
41
1
10
30.8744065181206
20
-0.645961344949711
30
0
41
1
10
30.8789929246002
20
-0.646997329548384
30
0
41
1
10
30.8843041961468
20
-0.648836111998662
30
0
41
1
10
30.8960261790232
20
-0.653654566050022
30
0
41
1
10
30.9024969523911
20
-0.656676166769785
30
0
41
1
10
30.9159662177935
20
-0.663532136896379
30
0
41
1
10
30.9230091355491
20
-0.667383278942452
30
0
41
1
10
30.9376417158841
20
-0.675931737660449
30
0
41
1
10
30.9452917091334
20
-0.680674661270245
30
0
41
1
10
30.9606142561021
20
-0.690783425648732
30
0
41
1
10
30.9683304201749
20
-0.696169060380868
30
0
41
1
10
30.9838442458521
20
-0.707727496172538
30
0
41
1
10
30.9917306725808
20
-0.713976453537867
30
0
41
1
10
31.0031185212537
20
-0.723745524577453
30
0
41
1
10
31.0068500378882
20
-0.727073665641171
30
0
41
1
10
31.0141605593669
20
-0.733899913771808
30
0
41
1
10
31.0177664904255
20
-0.737426332468118
30
0
41
1
10
31.0246163739776
20
-0.744513020346346
30
0
41
1
10
31.0278659513414
20
-0.748075116654235
30
0
41
1
10
31.0339566514311
20
-0.755243118847631
30
0
41
1
10
31.0368146807157
20
-0.758874021664667
30
0
41
1
10
31.0393513487687
20
-0.762436110371311
30
0
0
SPLINE
5
12D
100
AcDbEntity
8
1
62
256
6
ByLayer
370
18
48
1
60
0
100
AcDbSpline
70
4
71
3
72
8
73
4
40
0
40
0
40
0
40
0
40
1
40
1
40
1
40
1
41
1
10
31.0393513487687
20
-0.762436110371141
30
0
41
1
10
31.0765648888086
20
-0.814692821906846
30
0
41
1
10
31.1133109976707
20
-0.869625452042925
30
0
41
1
10
31.1497713861177
20
-0.927034394613457
30
0
0
SPLINE
5
12E
100
AcDbEntity
8
1
62
256
6
ByLayer
370
18
48
1
60
0
100
AcDbSpline
70
4
71
3
72
12
73
8
40
0
40
0
40
0
40
0
40
0.25
40
0.25
40
0.500000000000001
40
0.500000000000001
40
1
40
1
40
1
40
1
41
1
10
31.1497713861178
20
-0.927034394613514
30
0
41
1
10
31.1722582220075
20
-0.94541420384698
30
0
41
1
10
31.1947686524454
20
-0.963626803338286
30
0
41
1
10
31.2394896173426
20
-0.999435237488683
30
0
41
1
10
31.2617372871748
20
-1.01706628667901
30
0
41
1
10
31.3281951765967
20
-1.06910273616936
30
0
41
1
10
31.3721130355411
20
-1.10265463111071
30
0
41
1
10
31.4158330216715
20
-1.13494607209927
30
0
0
SPLINE
5
12F
100
AcDbEntity
8
1
62
256
6
ByLayer
370
18
48
1
60
0
100
AcDbSpline
70
4
71
3
72
10
73
6
40
0
40
0
40
0
40
0
40
0.5
40
0.5
40
1
40
1
40
1
40
1
41
1
10
31.4158330216687
20
-1.13494607209375
30
0
41
1
10
31.4388414359014
20
-1.12619871826268
30
0
41
1
10
31.4620352697745
20
-1.11556466035552
30
0
41
1
10
31.5088390481639
20
-1.09052394413516
30
0
41
1
10
31.5324145398807
20
-1.07612651455415
30
0
41
1
10
31.5562021645527
20
-1.05989905569075
30
0
0
SPLINE
5
130
100
AcDbEntity
8
1
62
256
6
ByLayer
370
18
48
1
60
0
100
AcDbSpline
70
4
71
3
72
26
73
22
40
0
40
0
40
0
40
0
40
0.125
40
0.125
40
0.25
40
0.25
40
0.375
40
0.375
40
0.5
40
0.5
40
0.625
40
0.625
40
0.75
40
0.75
40
0.8125
40
0.8125
40
0.875
40
0.875
40
0.9375
40
0.9375
40
1
40
1
40
1
40
1
41
1
10
31.5562021645527
20
-1.05989905569075
30
0
41
1
10
31.5608033688908
20
-1.05676020281462
30
0
41
1
10
31.5661369879616
20
-1.05467048417844
30
0
41
1
10
31.5779001630384
20
-1.05202259084379
30
0
41
1
10
31.5843909929653
20
-1.05148791189782
30
0
41
1
10
31.5978845042683
20
-1.05180669509519
30
0
41
1
10
31.6049322859775
20
-1.05264438247838
30
0
41
1
10
31.619568159924
20
-1.05562079867605
30
0
41
1
10
31.6272164677262
20
-1.05778906427827
30
0
41
1
10
31.6425304770062
20
-1.06337915952977
30
0
41
1
10
31.6502412000661
20
-1.06679970256522
30
0
41
1
10
31.6657406250465
20
-1.07507135261434
30
0
41
1
10
31.6736147954168
20
-1.07998764808258
30
0
41
1
10
31.6849767859008
20
-1.08843607084154
30
0
41
1
10
31.6886997877673
20
-1.09143520595373
30
0
41
1
10
31.695993650487
20
-1.09785762656523
30
0
41
1
10
31.6995910698089
20
-1.10130999888168
30
0
41
1
10
31.7064231157099
20
-1.10855038471581
30
0
41
1
10
31.7096646762998
20
-1.11233861023788
30
0
41
1
10
31.7157414958172
20
-1.12030640087923
30
0
41
1
10
31.7185936090678
20
-1.12451684137866
30
0
41
1
10
31.7211263915775
20
-1.12885759436412
30
0
0
SPLINE
5
131
100
AcDbEntity
8
1
62
256
6
ByLayer
370
18
48
1
60
0
100
AcDbSpline
70
4
71
3
72
12
73
8
40
0
40
0
40
0
40
0
40
0.499999999999999
40
0.499999999999999
40
0.75
40
0.75
40
1
40
1
40
1
40
1
41
1
10
31.7211263915775
20
-1.12885759436404
30
0
41
1
10
31.7506543348281
20
-1.17946340332222
30
0
41
1
10
31.7798793220847
20
-1.23050012315741
30
0
41
1
10
31.8234075207521
20
-1.30759996272872
30
0
41
1
10
31.8378782377799
20
-1.33341589532006
30
0
41
1
10
31.8666356515212
20
-1.38503616959079
30
0
41
1
10
31.8809295533646
20
-1.4108531139394
30
0
41
1
10
31.8951501261159
20
-1.43667062980691
30
0
0
SPLINE
5
132
100
AcDbEntity
8
1
62
256
6
ByLayer
370
18
48
1
60
0
100
AcDbSpline
70
4
71
3
72
10
73
6
40
0
40
0
40
0
40
0
40
0.5
40
0.5
40
1
40
1
40
1
40
1
41
1
10
31.8951501261128
20
-1.43667062980893
30
0
41
1
10
31.919838450032
20
-1.44929378211643
30
0
41
1
10
31.9443156566216
20
-1.46135223910554
30
0
41
1
10
31.9932006334263
20
-1.48427494707011
30
0
41
1
10
32.017649277125
20
-1.49513647025438
30
0
41
1
10
32.0419959077081
20
-1.50542065218306
30
0
0
SPLINE
5
133
100
AcDbEntity
8
1
62
256
6
ByLayer
370
18
48
1
60
0
100
AcDbSpline
70
4
71
3
72
10
73
6
40
0
40
0
40
0
40
0
40
0.5
40
0.5
40
1
40
1
40
1
40
1
41
1
10
32.0419959077053
20
-1.50542065217775
30
0
41
1
10
32.0739377913227
20
-1.46863050460661
30
0
41
1
10
32.1062443829726
20
-1.42889682059126
30
0
41
1
10
32.1716247482534
20
-1.34380888219835
30
0
41
1
10
32.2046117048347
20
-1.29857990057175
30
0
41
1
10
32.2380406344295
20
-1.25074662062505
30
0
0
SPLINE
5
134
100
AcDbEntity
8
1
62
256
6
ByLayer
370
18
48
1
60
0
100
AcDbSpline
70
4
71
3
72
26
73
22
40
0
40
0
40
0
40
0
40
0.124999999999983
40
0.124999999999983
40
0.249999999999967
40
0.249999999999967
40
0.37499999999995
40
0.37499999999995
40
0.499999999999933
40
0.499999999999933
40
0.624999999999917
40
0.624999999999917
40
0.7499999999999
40
0.7499999999999
40
0.812499999999925
40
0.812499999999925
40
0.87499999999995
40
0.87499999999995
40
0.937499999999975
40
0.937499999999975
40
1
40
1
40
1
40
1
41
1
10
32.2380406344295
20
-1.25074662062505
30
0
41
1
10
32.2426475176859
20
-1.24415465554705
30
0
41
1
10
32.2479883371185
20
-1.23862915526146
30
0
41
1
10
32.2597662607837
20
-1.22914154462342
30
0
41
1
10
32.2662648497517
20
-1.22518040796854
30
0
41
1
10
32.2797710058209
20
-1.21890953297213
30
0
41
1
10
32.2868239869068
20
-1.21655503954196
30
0
41
1
10
32.301466680742
20
-1.21332527640925
30
0
41
1
10
32.309115947587
20
-1.21245953657544
30
0
41
1
10
32.3244270785888
20
-1.21234714357397
30
0
41
1
10
32.3321344676225
20
-1.21307702184208
30
0
41
1
10
32.3476256314242
20
-1.21630287432228
30
0
41
1
10
32.3554937242664
20
-1.21884107869872
30
0
41
1
10
32.366847762996
20
-1.22417515533678
30
0
41
1
10
32.3705685709527
20
-1.22620799603578
30
0
41
1
10
32.3778590605548
20
-1.23086135116119
30
0
41
1
10
32.3814551760204
20
-1.23350575082571
30
0
41
1
10
32.388285045227
20
-1.23936223306114
30
0
41
1
10
32.3915261773897
20
-1.24257170023881
30
0
41
1
10
32.3976031548841
20
-1.24964603469454
30
0
41
1
10
32.4004558121331
20
-1.2535411136833
30
0
41
1
10
32.402989408155
20
-1.2577371542705
30
0
0
SPLINE
5
135
100
AcDbEntity
8
1
62
256
6
ByLayer
370
18
48
1
60
0
100
AcDbSpline
70
4
71
3
72
12
73
8
40
0
40
0
40
0
40
0
40
0.25
40
0.25
40
0.499999999999999
40
0.499999999999999
40
1
40
1
40
1
40
1
41
1
10
32.402989408155
20
-1.2577371542705
30
0
41
1
10
32.4220228060183
20
-1.28925950797492
30
0
41
1
10
32.4409320050233
20
-1.32040154221778
30
0
41
1
10
32.4785245006971
20
-1.3818279866255
30
0
41
1
10
32.497203256377
20
-1.41209272617257
30
0
41
1
10
32.5530423092578
20
-1.50179469500057
30
0
41
1
10
32.5897415654218
20
-1.55972014710548
30
0
41
1
10
32.6260659633465
20
-1.6156029142237
30
0
0
SPLINE
5
136
100
AcDbEntity
8
1
62
256
6
ByLayer
370
18
48
1
60
0
100
AcDbSpline
70
4
71
3
72
8
73
4
40
0
40
0
40
0
40
0
40
1
40
1
40
1
40
1
41
1
10
32.6860768486652
20
-1.60683873354753
30
0
41
1
10
32.6660400885669
20
-1.61021110813405
30
0
41
1
10
32.6460398043803
20
-1.61313168528764
30
0
41
1
10
32.6260659633465
20
-1.61560291422373
30
0
0
SPLINE
5
137
100
AcDbEntity
8
1
62
256
6
ByLayer
370
18
48
1
60
0
100
AcDbSpline
70
4
71
3
72
12
73
8
40
0
40
0
40
0
40
0
40
0.249999999999995
40
0.249999999999995
40
0.499999999999991
40
0.499999999999991
40
1
40
1
40
1
40
1
41
1
10
32.6860768486652
20
-1.60683873353619
30
0
41
1
10
32.7050598374349
20
-1.57320357217043
30
0
41
1
10
32.7241433126383
20
-1.53899637126827
30
0
41
1
10
32.7625701247414
20
-1.46944904383034
30
0
41
1
10
32.7819288597169
20
-1.43407870936917
30
0
41
1
10
32.8403807824617
20
-1.32650852767679
30
0
41
1
10
32.8798399311621
20
-1.25286847950949
30
0
41
1
10
32.9198447692446
20
-1.17786129859127
30
0
0
SPLINE
5
138
100
AcDbEntity
8
1
62
256
6
ByLayer
370
18
48
1
60
0
100
AcDbSpline
70
4
71
3
72
26
73
22
40
0
40
0
40
0
40
0
40
0.125000000000016
40
0.125000000000016
40
0.250000000000033
40
0.250000000000033
40
0.375000000000049
40
0.375000000000049
40
0.500000000000066
40
0.500000000000066
40
0.625000000000082
40
0.625000000000082
40
0.750000000000098
40
0.750000000000098
40
0.812500000000074
40
0.812500000000074
40
0.875000000000049
40
0.875000000000049
40
0.937500000000025
40
0.937500000000025
40
1
40
1
40
1
40
1
41
1
10
32.9198447692446
20
-1.17786129859127
30
0
41
1
10
32.9244619331351
20
-1.16920433448931
30
0
41
1
10
32.9298146567608
20
-1.16140574554538
30
0
41
1
10
32.9416153430009
20
-1.14707111866508
30
0
41
1
10
32.9481245466689
20
-1.14051400755088
30
0
41
1
10
32.9616469814587
20
-1.12896360349652
30
0
41
1
10
32.968706371723
20
-1.12390542960625
30
0
41
1
10
32.98335733089
20
-1.11512976634373
30
0
41
1
10
32.9910078163084
20
-1.11140012188392
30
0
41
1
10
33.0063182210041
20
-1.10557824551066
30
0
41
1
10
33.0140233347828
20
-1.10344508695144
30
0
41
1
10
33.0295057804739
20
-1.10090167806996
30
0
41
1
10
33.0373670557808
20
-1.10050207345461
30
0
41
1
10
33.0487136368958
20
-1.10155694104742
30
0
41
1
10
33.0524322146888
20
-1.10218070944745
30
0
41
1
10
33.0597188309887
20
-1.10405377232937
30
0
41
1
10
33.0633133364822
20
-1.10531657091269
30
0
41
1
10
33.0701433478081
20
-1.10852265453821
30
0
41
1
10
33.0733850378915
20
-1.11046016474575
30
0
41
1
10
33.0794639531884
20
-1.11511479428199
30
0
41
1
10
33.0823184100009
20
-1.11785510884138
30
0
41
1
10
33.0848552548793
20
-1.12100537121415
30
0
0
SPLINE
5
139
100
AcDbEntity
8
1
62
256
6
ByLayer
370
18
48
1
60
0
100
AcDbSpline
70
4
71
3
72
10
73
6
40
0
40
0
40
0
40
0
40
0.5
40
0.5
40
1
40
1
40
1
40
1
41
1
10
33.0848552548792
20
-1.12100537121421
30
0
41
1
10
33.12290599168
20
-1.16825690220807
30
0
41
1
10
33.1604582919088
20
-1.21207759590419
30
0
41
1
10
33.2349700502706
20
-1.29309048585529
30
0
41
1
10
33.2716538864664
20
-1.32995872298463
30
0
41
1
10
33.3079814039048
20
-1.36330407001665
30
0
0
SPLINE
5
13A
100
AcDbEntity
8
1
62
256
6
ByLayer
370
18
48
1
60
0
100
AcDbSpline
70
4
71
3
72
8
73
4
40
0
40
0
40
0
40
0
40
1
40
1
40
1
40
1
41
1
10
33.3679716015768
20
-1.32616628611566
30
0
41
1
10
33.3479466455705
20
-1.33893504803188
30
0
41
1
10
33.3279506620464
20
-1.3513134951566
30
0
41
1
10
33.3079814039048
20
-1.36330407001665
30
0
0
SPLINE
5
13B
100
AcDbEntity
8
1
62
256
6
ByLayer
370
18
48
1
60
0
100
AcDbSpline
70
4
71
3
72
12
73
8
40
0
40
0
40
0
40
0
40
0.291279833434898
40
0.291279833434898
40
0.582559666869795
40
0.582559666869795
40
1
40
1
40
1
40
1
41
1
10
33.3679716015768
20
-1.32616628611581
30
0
41
1
10
33.3869694306078
20
-1.28675880387087
30
0
41
1
10
33.4060633321508
20
-1.247355363509
30
0
41
1
10
33.444500187094
20
-1.16858355099745
30
0
41
1
10
33.4638595230036
20
-1.12918422376208
30
0
41
1
10
33.5112612924702
20
-1.03360306541626
30
0
41
1
10
33.5394320060678
20
-0.977561871063443
30
0
41
1
10
33.5678562740535
20
-0.921993645718231
30
0
0
SPLINE
5
13C
100
AcDbEntity
8
1
62
256
6
ByLayer
370
18
48
1
60
0
100
AcDbSpline
70
4
71
3
72
10
73
6
40
0
40
0
40
0
40
0
40
0.5
40
0.5
40
1
40
1
40
1
40
1
41
1
10
34.8012450723698
20
-1.24788771463804
30
0
41
1
10
34.7748006272873
20
-1.29300971754446
30
0
41
1
10
34.7485621685123
20
-1.33780961841512
30
0
41
1
10
34.6963964729258
20
-1.42671196726323
30
0
41
1
10
34.6704451298476
20
-1.47085355834477
30
0
41
1
10
34.6447672938533
20
-1.5143209219525
30
0
0
SPLINE
5
13D
100
AcDbEntity
8
1
62
256
6
ByLayer
370
18
48
1
60
0
100
AcDbSpline
70
4
71
3
72
8
73
4
40
0
40
0
40
0
40
0
40
1
40
1
40
1
40
1
41
1
10
34.6447672938533
20
-1.5143209219529
30
0
41
1
10
34.5859911618119
20
-1.52841194756127
30
0
41
1
10
34.5277171746357
20
-1.53897244041045
30
0
41
1
10
34.4697607291443
20
-1.54589380096118
30
0
0
SPLINE
5
13E
100
AcDbEntity
8
1
62
256
6
ByLayer
370
18
48
1
60
0
100
AcDbSpline
70
4
71
3
72
10
73
6
40
0
40
0
40
0
40
0
40
0.120372626433605
40
0.120372626433605
40
1
40
1
40
1
40
1
41
1
10
34.3905556851046
20
-1.41274323424841
30
0
41
1
10
34.3863365723126
20
-1.40548987251955
30
0
41
1
10
34.382112519019
20
-1.39820376000526
30
0
41
1
10
34.3469813856095
20
-1.33740842435623
30
0
41
1
10
34.3158116215346
20
-1.28221135226548
30
0
41
1
10
34.2843455880046
20
-1.22552106609493
30
0
0
SPLINE
5
13F
100
AcDbEntity
8
1
62
256
6
ByLayer
370
18
48
1
60
0
100
AcDbSpline
70
4
71
3
72
28
73
24
40
0
40
0
40
0
40
0
40
0.125
40
0.125
40
0.25
40
0.25
40
0.375
40
0.375
40
0.5
40
0.5
40
0.625
40
0.625
40
0.6875
40
0.6875
40
0.75
40
0.75
40
0.8125
40
0.8125
40
0.875
40
0.875
40
0.9375
40
0.9375
40
1
40
1
40
1
40
1
41
1
10
34.284345588004
20
-1.22552106609444
30
0
41
1
10
34.2798354506689
20
-1.21739544784802
30
0
41
1
10
34.2746207077765
20
-1.21013728829831
30
0
41
1
10
34.263113119162
20
-1.19692215797852
30
0
41
1
10
34.2567663794717
20
-1.19095122318186
30
0
41
1
10
34.2435283992723
20
-1.18055515054567
30
0
41
1
10
34.2365952517512
20
-1.17607352957879
30
0
41
1
10
34.2221479697865
20
-1.16848239303278
30
0
41
1
10
34.2145613152829
20
-1.16535786877356
30
0
41
1
10
34.1992723264058
20
-1.16078287996695
30
0
41
1
10
34.1915472554608
20
-1.15930191985234
30
0
41
1
10
34.1798571292316
20
-1.1584509242339
30
0
41
1
10
34.1759432390321
20
-1.15839781563585
30
0
41
1
10
34.1680826548298
20
-1.15881890971923
30
0
41
1
10
34.1641211792777
20
-1.15929896530989
30
0
41
1
10
34.1563712854446
20
-1.16084351741321
30
0
41
1
10
34.1525606124301
20
-1.16190652939275
30
0
41
1
10
34.1450922566417
20
-1.16470236948354
30
0
41
1
10
34.1414055189563
20
-1.16645267563393
30
0
41
1
10
34.1343838953673
20
-1.17068195987869
30
0
41
1
10
34.1310558783733
20
-1.17314846028691
30
0
41
1
10
34.1248275784417
20
-1.17889967841805
30
0
41
1
10
34.1219119455647
20
-1.18221196453456
30
0
41
1
10
34.1193417558666
20
-1.18592191319033
30
0
0
SPLINE
5
140
100
AcDbEntity
8
1
62
256
6
ByLayer
370
18
48
1
60
0
100
AcDbSpline
70
4
71
3
72
10
73
6
40
0
40
0
40
0
40
0
40
0.5
40
0.5
40
1
40
1
40
1
40
1
41
1
10
34.1193417558666
20
-1.18592191319053
30
0
41
1
10
34.0815548581821
20
-1.24046553320821
30
0
41
1
10
34.0441994010584
20
-1.29216423134233
30
0
41
1
10
33.9700106684701
20
-1.39006643144182
30
0
41
1
10
33.9334729816413
20
-1.43587428932543
30
0
41
1
10
33.8972820375439
20
-1.47866249286943
30
0
0
SPLINE
5
141
100
AcDbEntity
8
1
62
256
6
ByLayer
370
18
48
1
60
0
100
AcDbSpline
70
4
71
3
72
8
73
4
40
0
40
0
40
0
40
0
40
1
40
1
40
1
40
1
41
1
10
33.8372849016515
20
-1.44981192574241
30
0
41
1
10
33.8572744519234
20
-1.459835153906
30
0
41
1
10
33.8772707449092
20
-1.46945315869561
30
0
41
1
10
33.8972820375439
20
-1.47866249286946
30
0
0
SPLINE
5
142
100
AcDbEntity
8
1
62
256
6
ByLayer
370
18
48
1
60
0
100
AcDbSpline
70
4
71
3
72
12
73
8
40
0
40
0
40
0
40
0
40
0.25
40
0.25
40
0.5
40
0.5
40
1
40
1
40
1
40
1
41
1
10
33.8372849016521
20
-1.44981192573704
30
0
41
1
10
33.8181635074765
20
-1.41046289003708
30
0
41
1
10
33.7989544035734
20
-1.37087672306572
30
0
41
1
10
33.7603012154142
20
-1.29124732458419
30
0
41
1
10
33.7408400411526
20
-1.2511680289135
30
0
41
1
10
33.6821247207128
20
-1.13055780496083
30
0
41
1
10
33.6425159046193
20
-1.04963853422544
30
0
41
1
10
33.6024024525419
20
-0.968882275477029
30
0
0
SPLINE
5
143
100
AcDbEntity
8
1
62
256
6
ByLayer
370
18
48
1
60
0
100
AcDbSpline
70
4
71
3
72
28
73
24
40
0
40
0
40
0
40
0
40
0.125000000000026
40
0.125000000000026
40
0.250000000000051
40
0.250000000000051
40
0.375000000000077
40
0.375000000000077
40
0.500000000000103
40
0.500000000000103
40
0.625000000000128
40
0.625000000000128
40
0.687500000000107
40
0.687500000000107
40
0.750000000000085
40
0.750000000000085
40
0.812500000000064
40
0.812500000000064
40
0.875000000000043
40
0.875000000000043
40
0.937500000000021
40
0.937500000000021
40
1
40
1
40
1
40
1
41
1
10
33.6024024525419
20
-0.968882275477029
30
0
41
1
10
33.5978925930705
20
-0.959803042463506
30
0
41
1
10
33.5926762219631
20
-0.951286816374704
30
0
41
1
10
33.5811623725908
20
-0.935110832011617
30
0
41
1
10
33.5748099271763
20
-0.927419397418703
30
0
41
1
10
33.5615578338787
20
-0.913295155809664
30
0
41
1
10
33.5546166835602
20
-0.906795615962977
30
0
41
1
10
33.540153908412
20
-0.894861325163504
30
0
41
1
10
33.5325603292499
20
-0.889388644502134
30
0
41
1
10
33.517265942003
20
-0.87991506772579
30
0
41
1
10
33.5095401084051
20
-0.875877171894558
30
0
41
1
10
33.4978522541318
20
-0.870986419918836
30
0
41
1
10
33.4939396783447
20
-0.869552317443265
30
0
41
1
10
33.4860826496283
20
-0.867129126745169
30
0
41
1
10
33.4821270217654
20
-0.866140837915793
30
0
41
1
10
33.4743907122723
20
-0.864725150767185
30
0
41
1
10
33.4705866201358
20
-0.864288481690153
30
0
41
1
10
33.4631306785097
20
-0.864037831635784
30
0
41
1
10
33.4594496450945
20
-0.864228629689705
30
0
41
1
10
33.4524432369877
20
-0.865350131194674
30
0
41
1
10
33.4491219247134
20
-0.866272364823914
30
0
41
1
10
33.4429046962299
20
-0.868958264756969
30
0
41
1
10
33.4399939902453
20
-0.870739789486493
30
0
41
1
10
33.4374276319247
20
-0.872980155735149
30
0
0
SPLINE
5
144
100
AcDbEntity
8
1
62
256
6
ByLayer
370
18
48
1
60
0
100
AcDbSpline
70
4
71
3
72
10
73
6
40
0
40
0
40
0
40
0
40
0.5
40
0.5
40
1
40
1
40
1
40
1
41
1
10
33.4374276319242
20
-0.872980155734581
30
0
41
1
10
33.3996319153173
20
-0.905974865454937
30
0
41
1
10
33.3622712469669
20
-0.934538750421979
30
0
41
1
10
33.2880709734208
20
-0.98331068805436
30
0
41
1
10
33.2515252529549
20
-1.00332330624082
30
0
41
1
10
33.2153274707793
20
-1.01916633267606
30
0
0
SPLINE
5
145
100
AcDbEntity
8
1
62
256
6
ByLayer
370
18
48
1
60
0
100
AcDbSpline
70
4
71
3
72
8
73
4
40
0
40
0
40
0
40
0
40
1
40
1
40
1
40
1
41
1
10
33.1552930465131
20
-0.966448575822312
30
0
41
1
10
33.1752969626636
20
-0.984294996730597
30
0
41
1
10
33.1953035461816
20
-1.00187116455012
30
0
41
1
10
33.2153274707793
20
-1.01916633267606
30
0
0
SPLINE
5
146
100
AcDbEntity
8
1
62
256
6
ByLayer
370
18
48
1
60
0
100
AcDbSpline
70
4
71
3
72
12
73
8
40
0
40
0
40
0
40
0
40
0.250000000000004
40
0.250000000000004
40
0.500000000000008
40
0.500000000000008
40
1
40
1
40
1
40
1
41
1
10
33.1552930465147
20
-0.96644857581208
30
0
41
1
10
33.1361910790322
20
-0.92642669984852
30
0
41
1
10
33.1170002475234
20
-0.886770370592927
30
0
41
1
10
33.0783676466179
20
-0.808245439399968
30
0
41
1
10
33.0589081866534
20
-0.769343669573317
30
0
41
1
10
33.0001857638375
20
-0.65417978397943
30
0
41
1
10
32.9605795383552
20
-0.579425442424906
30
0
41
1
10
32.920493314914
20
-0.507336128920628
30
0
0
SPLINE
5
147
100
AcDbEntity
8
1
62
256
6
ByLayer
370
18
48
1
60
0
100
AcDbSpline
70
4
71
3
72
28
73
24
40
0
40
0
40
0
40
0
40
0.124999999999975
40
0.124999999999975
40
0.249999999999949
40
0.249999999999949
40
0.374999999999924
40
0.374999999999924
40
0.499999999999898
40
0.499999999999898
40
0.624999999999873
40
0.624999999999873
40
0.687499999999894
40
0.687499999999894
40
0.749999999999915
40
0.749999999999915
40
0.812499999999936
40
0.812499999999936
40
0.874999999999957
40
0.874999999999957
40
0.937499999999979
40
0.937499999999979
40
1
40
1
40
1
40
1
41
1
10
32.9204933149134
20
-0.507336128919889
30
0
41
1
10
32.9159795295414
20
-0.49921873444265
30
0
41
1
10
32.9107587780361
20
-0.491240548516799
30
0
41
1
10
32.8992372966161
20
-0.475510255481879
30
0
41
1
10
32.8928822798967
20
-0.467716062756892
30
0
41
1
10
32.8796260866514
20
-0.452828857180208
30
0
41
1
10
32.872683472962
20
-0.445672168120183
30
0
41
1
10
32.8582193642885
20
-0.4318850025019
30
0
41
1
10
32.8506261148104
20
-0.425201115257124
30
0
41
1
10
32.8353333815972
20
-0.412786190302285
30
0
41
1
10
32.827608978502
20
-0.407020438031054
30
0
41
1
10
32.8159241669104
20
-0.399086361981688
30
0
41
1
10
32.8120127534913
20
-0.396561835949143
30
0
41
1
10
32.8041583165678
20
-0.391781395007968
30
0
41
1
10
32.8002037161107
20
-0.389521071283326
30
0
41
1
10
32.7924687202849
20
-0.385421508268365
30
0
41
1
10
32.7886651249657
20
-0.383566833372498
30
0
41
1
10
32.7812096725226
20
-0.380303368684281
30
0
41
1
10
32.7775286120046
20
-0.378885534666097
30
0
41
1
10
32.7705206287984
20
-0.376649526253715
30
0
41
1
10
32.7671984283912
20
-0.375827440760872
30
0
41
1
10
32.7609789394507
20
-0.374873509268213
30
0
41
1
10
32.75806670825
20
-0.374746241280974
30
0
41
1
10
32.7554987190703
20
-0.375044556289424
30
0
0
SPLINE
5
148
100
AcDbEntity
8
1
62
256
6
ByLayer
370
18
48
1
60
0
100
AcDbSpline
70
4
71
3
72
10
73
6
40
0
40
0
40
0
40
0
40
0.5
40
0.5
40
1
40
1
40
1
40
1
41
1
10
32.7554987190674
20
-0.375044556290561
30
0
41
1
10
32.7177018169089
20
-0.379435300336382
30
0
41
1
10
32.6803385140656
20
-0.37879796702029
30
0
41
1
10
32.6061319057374
20
-0.368099393815015
30
0
41
1
10
32.5695818866678
20
-0.358076671282049
30
0
41
1
10
32.5333851425697
20
-0.34357529298714
30
0
0
SPLINE
5
149
100
AcDbEntity
8
1
62
256
6
ByLayer
370
18
48
1
60
0
100
AcDbSpline
70
4
71
3
72
8
73
4
40
0
40
0
40
0
40
0
40
1
40
1
40
1
40
1
41
1
10
32.4733587068745
20
-0.278204216518617
30
0
41
1
10
32.4933681950297
20
-0.300069613963274
30
0
41
1
10
32.5133658950734
20
-0.321869939107216
30
0
41
1
10
32.5333851425697
20
-0.34357529298714
30
0
0
SPLINE
5
14A
100
AcDbEntity
8
1
62
256
6
ByLayer
370
18
48
1
60
0
100
AcDbSpline
70
4
71
3
72
28
73
24
40
0
40
0
40
0
40
0
40
0.125000000000026
40
0.125000000000026
40
0.250000000000051
40
0.250000000000051
40
0.375000000000077
40
0.375000000000077
40
0.500000000000102
40
0.500000000000102
40
0.625000000000128
40
0.625000000000128
40
0.687500000000106
40
0.687500000000106
40
0.750000000000085
40
0.750000000000085
40
0.812500000000064
40
0.812500000000064
40
0.875000000000043
40
0.875000000000043
40
0.937500000000021
40
0.937500000000021
40
1
40
1
40
1
40
1
41
1
10
32.238559601862
20
0.0618919261788449
30
0
41
1
10
32.2340437461449
20
0.0673301172863319
30
0
41
1
10
32.2288211030998
20
0.0730848046561334
30
0
41
1
10
32.2172972903684
20
0.0850481179548979
30
0
41
1
10
32.2109425646008
20
0.091301132436115
30
0
41
1
10
32.197688000907
20
0.103811492243892
30
0
41
1
10
32.190746631799
20
0.110115988276647
30
0
41
1
10
32.1762858384139
20
0.122847420243573
30
0
41
1
10
32.1686946093264
20
0.129332104626457
30
0
41
1
10
32.1534045807593
20
0.142067018509067
30
0
41
1
10
32.1456815032077
20
0.148341949960155
30
0
41
1
10
32.1339981488308
20
0.157639065798236
30
0
41
1
10
32.1300871293995
20
0.160718763548033
30
0
41
1
10
32.1222331622052
20
0.16684130349941
30
0
41
1
10
32.1182775233749
20
0.169893522384712
30
0
41
1
10
32.1105395123201
20
0.175804708884726
30
0
41
1
10
32.1067343019213
20
0.178681795883506
30
0
41
1
10
32.0992754250662
20
0.184259995418586
30
0
41
1
10
32.0955925516475
20
0.186981974424526
30
0
41
1
10
32.0885799344175
20
0.192095527690128
30
0
41
1
10
32.0852556735865
20
0.194483939992551
30
0
41
1
10
32.0790326107226
20
0.198868344552864
30
0
41
1
10
32.0761186302631
20
0.200874137601204
30
0
41
1
10
32.0735491005537
20
0.202578899573069
30
0
0
SPLINE
5
14B
100
AcDbEntity
8
1
62
256
6
ByLayer
370
18
48
1
60
0
100
AcDbSpline
70
4
71
3
72
10
73
6
40
0
40
0
40
0
40
0
40
0.5
40
0.5
40
1
40
1
40
1
40
1
41
1
10
31.6189653400416
20
-1.25597548042145
30
0
41
1
10
31.5956544527301
20
-1.29531934240521
30
0
41
1
10
31.5725094189571
20
-1.33426063551607
30
0
41
1
10
31.5264694212925
20
-1.41133757711017
30
0
41
1
10
31.503537749808
20
-1.44953313925851
30
0
41
1
10
31.4808115146701
20
-1.48711161107829
30
0
0
SPLINE
5
14C
100
AcDbEntity
8
1
62
256
6
ByLayer
370
18
48
1
60
0
100
AcDbSpline
70
4
71
3
72
12
73
8
40
0
40
0
40
0
40
0
40
0.499999999999981
40
0.499999999999981
40
0.74999999999999
40
0.74999999999999
40
1
40
1
40
1
40
1
41
1
10
31.4808115146701
20
-1.48711161107789
30
0
41
1
10
31.4388454931532
20
-1.481225244103
30
0
41
1
10
31.3966473632125
20
-1.47335887515752
30
0
41
1
10
31.3327229210838
20
-1.45854577087926
30
0
41
1
10
31.3113146869681
20
-1.45310436699705
30
0
41
1
10
31.2686219623762
20
-1.44131054352823
30
0
41
1
10
31.2472945725535
20
-1.434949195852
30
0
41
1
10
31.2259799598795
20
-1.42813337249964
30
0
0
SPLINE
5
14D
100
AcDbEntity
8
1
62
256
6
ByLayer
370
18
48
1
60
0
100
AcDbSpline
70
4
71
3
72
8
73
4
40
0
40
0
40
0
40
0
40
1
40
1
40
1
40
1
41
1
10
31.2259799598845
20
-1.42813337249427
30
0
41
1
10
31.185152383915
20
-1.35527628627631
30
0
41
1
10
31.1438424160856
20
-1.27968087237568
30
0
41
1
10
31.1020303676594
20
-1.20188666482215
30
0
0
SPLINE
5
14E
100
AcDbEntity
8
1
62
256
6
ByLayer
370
18
48
1
60
0
100
AcDbSpline
70
4
71
3
72
28
73
24
40
0
40
0
40
0
40
0
40
0.125
40
0.125
40
0.25
40
0.25
40
0.375
40
0.375
40
0.5
40
0.5
40
0.625
40
0.625
40
0.6875
40
0.6875
40
0.75
40
0.75
40
0.8125
40
0.8125
40
0.875
40
0.875
40
0.9375
40
0.9375
40
1
40
1
40
1
40
1
41
1
10
31.1020303676594
20
-1.20188666482215
30
0
41
1
10
31.0975103353084
20
-1.19347683205632
30
0
41
1
10
31.0922826696356
20
-1.1859033021143
30
0
41
1
10
31.0807494571609
20
-1.17201058791653
30
0
41
1
10
31.0743906134691
20
-1.1656746619866
30
0
41
1
10
31.0611312762757
20
-1.15452706065975
30
0
41
1
10
31.0541882790204
20
-1.14965636285209
30
0
41
1
10
31.0397273341402
20
-1.14125707522564
30
0
41
1
10
31.032137623386
20
-1.13770979083154
30
0
41
1
10
31.0168514832821
20
-1.13227470988585
30
0
41
1
10
31.0091317513739
20
-1.1303548760487
30
0
41
1
10
30.9974540877606
20
-1.12882552409423
30
0
41
1
10
30.9935450652346
20
-1.12854294453032
30
0
41
1
10
30.9856949766188
20
-1.12849718368213
30
0
41
1
10
30.9817398896304
20
-1.12873885748465
30
0
41
1
10
30.9740012510463
20
-1.1298100574717
30
0
41
1
10
30.970195354137
20
-1.13063695969328
30
0
41
1
10
30.9627346856828
20
-1.13296263889234
30
0
41
1
10
30.9590510768757
20
-1.13447684858048
30
0
41
1
10
30.9520349514931
20
-1.13824521509875
30
0
41
1
10
30.9487089367304
20
-1.14048729604869
30
0
41
1
10
30.9424826144878
20
-1.14580663550817
30
0
41
1
10
30.939566935305
20
-1.14891021530002
30
0
41
1
10
30.9369959117645
20
-1.15242875924852
30
0
0
SPLINE
5
14F
100
AcDbEntity
8
1
62
256
6
ByLayer
370
18
48
1
60
0
100
AcDbSpline
70
4
71
3
72
8
73
4
40
0
40
0
40
0
40
0
40
1
40
1
40
1
40
1
41
1
10
30.9369959117643
20
-1.15242875924841
30
0
41
1
10
30.9085118879452
20
-1.19141023415952
30
0
41
1
10
30.8802681236042
20
-1.22865460955887
30
0
41
1
10
30.8522029207525
20
-1.26412048312017
30
0
0
SPLINE
5
150
100
AcDbEntity
8
1
62
256
6
ByLayer
370
18
48
1
60
0
100
AcDbSpline
70
4
71
3
72
10
73
6
40
0
40
0
40
0
40
0
40
0.5
40
0.5
40
1
40
1
40
1
40
1
41
1
10
30.8522029207502
20
-1.26412048313574
30
0
41
1
10
30.7904640399032
20
-1.2302179672194
30
0
41
1
10
30.7281943876162
20
-1.19294195581077
30
0
41
1
10
30.602190460406
20
-1.11178247813913
30
0
41
1
10
30.539463872356
20
-1.06854252982748
30
0
41
1
10
30.4767180834773
20
-1.02295924838117
30
0
0
SPLINE
5
151
100
AcDbEntity
8
1
62
256
6
ByLayer
370
18
48
1
60
0
100
AcDbSpline
70
4
71
3
72
8
73
4
40
0
40
0
40
0
40
0
40
1
40
1
40
1
40
1
41
1
10
30.4767180834834
20
-1.02295924837836
30
0
41
1
10
30.45793727098
20
-0.984668763815478
30
0
41
1
10
30.4390692265342
20
-0.946463666738424
30
0
41
1
10
30.4200840941578
20
-0.908359667596727
30
0
0
SPLINE
5
152
100
AcDbEntity
8
1
62
256
6
ByLayer
370
18
48
1
60
0
100
AcDbSpline
70
4
71
3
72
28
73
24
40
0
40
0
40
0
40
0
40
0.124999999999975
40
0.124999999999975
40
0.24999999999995
40
0.24999999999995
40
0.374999999999925
40
0.374999999999925
40
0.4999999999999
40
0.4999999999999
40
0.624999999999875
40
0.624999999999875
40
0.687499999999896
40
0.687499999999896
40
0.749999999999916
40
0.749999999999916
40
0.812499999999937
40
0.812499999999937
40
0.874999999999958
40
0.874999999999958
40
0.937499999999979
40
0.937499999999979
40
1
40
1
40
1
40
1
41
1
10
30.4200840941578
20
-0.908359667596841
30
0
41
1
10
30.4155695167449
20
-0.899298711346717
30
0
41
1
10
30.4103487912234
20
-0.890741115439312
30
0
41
1
10
30.3988304690123
20
-0.874391337238592
30
0
41
1
10
30.3924793237006
20
-0.866565202212712
30
0
41
1
10
30.3792336416653
20
-0.852096221828447
30
0
41
1
10
30.3722966477271
20
-0.845386575931997
30
0
41
1
10
30.3578430567385
20
-0.832958503276501
30
0
41
1
10
30.3502543566695
20
-0.827198361880278
30
0
41
1
10
30.3349653631552
20
-0.817083943523301
30
0
41
1
10
30.3272419901591
20
-0.812693913173007
30
0
41
1
10
30.3155565295715
20
-0.807220201753211
30
0
41
1
10
30.3116445466936
20
-0.805582556228529
30
0
41
1
10
30.3037881243807
20
-0.802731048739872
30
0
41
1
10
30.2998294347274
20
-0.801516156734976
30
0
41
1
10
30.2920851466534
20
-0.799635392661088
30
0
41
1
10
30.2882770471128
20
-0.798959353181914
30
0
41
1
10
30.2808141046601
20
-0.798211822687165
30
0
41
1
10
30.2771302972503
20
-0.798142796845468
30
0
41
1
10
30.2701147727638
20
-0.798731680972821
30
0
41
1
10
30.2667902708278
20
-0.799381922577908
30
0
41
1
10
30.2605688079628
20
-0.801510103751298
30
0
41
1
10
30.2576561220285
20
-0.803003968255581
30
0
41
1
10
30.2550874547499
20
-0.80495752198803
30
0
0
SPLINE
5
153
100
AcDbEntity
8
1
62
256
6
ByLayer
370
18
48
1
60
0
100
AcDbSpline
70
4
71
3
72
8
73
4
40
0
40
0
40
0
40
0
40
1
40
1
40
1
40
1
41
1
10
30.2550874547498
20
-0.804957521988001
30
0
41
1
10
30.2445117091476
20
-0.813000715229578
30
0
41
1
10
30.233970528644
20
-0.820678936566935
30
0
41
1
10
30.2234605081326
20
-0.827995688715504
30
0
0
SPLINE
5
154
100
AcDbEntity
8
1
62
256
6
ByLayer
370
18
48
1
60
0
100
AcDbSpline
70
4
71
3
72
14
73
10
40
0
40
0
40
0
40
0
40
0.25
40
0.25
40
0.5
40
0.5
40
0.75
40
0.75
40
1
40
1
40
1
40
1
41
1
10
30.2234605081389
20
-0.827995688724855
30
0
41
1
10
30.1825359134575
20
-0.794961035575312
30
0
41
1
10
30.1414674612018
20
-0.761088094894632
30
0
41
1
10
30.0588044110876
20
-0.691855014737399
30
0
41
1
10
30.0171981150582
20
-0.656443705467126
30
0
41
1
10
29.9335034501323
20
-0.584344279785967
30
0
41
1
10
29.8916435469921
20
-0.5478778193106
30
0
41
1
10
29.8076630797466
20
-0.47436811281338
30
0
41
1
10
29.7655377451128
20
-0.437330186516789
30
0
41
1
10
29.7232291080746
20
-0.400066281112544
30
0
0
SPLINE
5
155
100
AcDbEntity
8
1
62
256
6
ByLayer
370
18
48
1
60
0
100
AcDbSpline
70
4
71
3
72
14
73
10
40
0
40
0
40
0
40
0
40
0.25
40
0.25
40
0.5
40
0.5
40
0.75
40
0.75
40
1
40
1
40
1
40
1
41
1
10
29.7232291080749
20
-0.400066281112913
30
0
41
1
10
29.7176145319974
20
-0.392549437908173
30
0
41
1
10
29.7114189816449
20
-0.385039948229945
30
0
41
1
10
29.6984782856277
20
-0.370584572986246
30
0
41
1
10
29.6917012559497
20
-0.363588302227242
30
0
41
1
10
29.6775872414357
20
-0.350011708805511
30
0
41
1
10
29.6701789034348
20
-0.343374163246295
30
0
41
1
10
29.6551998251302
20
-0.330864066556529
30
0
41
1
10
29.6476351814864
20
-0.32498535343484
30
0
41
1
10
29.640009169305
20
-0.319499908338457
30
0
0
SPLINE
5
156
100
AcDbEntity
8
1
62
256
6
ByLayer
370
18
48
1
60
0
100
AcDbSpline
70
4
71
3
72
8
73
4
40
0
40
0
40
0
40
0
40
1
40
1
40
1
40
1
41
1
10
29.6400091693046
20
-0.319499908339168
30
0
41
1
10
29.6397602207485
20
-0.319221899097812
30
0
41
1
10
29.6395112599059
20
-0.318943926789217
30
0
41
1
10
29.6392622868469
20
-0.318665991324963
30
0
0
SPLINE
5
157
100
AcDbEntity
8
1
62
256
6
ByLayer
370
18
48
1
60
0
100
AcDbSpline
70
4
71
3
72
12
73
8
40
0
40
0
40
0
40
0
40
0.25
40
0.25
40
0.5
40
0.5
40
1
40
1
40
1
40
1
41
1
10
29.6392622868585
20
-0.318665991337923
30
0
41
1
10
29.6163035702517
20
-0.293036545390521
30
0
41
1
10
29.5926408616328
20
-0.268054428024811
30
0
41
1
10
29.5437650277379
20
-0.219567187495585
30
0
41
1
10
29.5184747176421
20
-0.19615310705305
30
0
41
1
10
29.440554385936
20
-0.127723795839671
30
0
41
1
10
29.3859942116653
20
-0.0843765641751304
30
0
41
1
10
29.3302394419125
20
-0.0415158918945338
30
0
0
SPLINE
5
158
100
AcDbEntity
8
1
62
256
6
ByLayer
370
18
48
1
60
0
100
AcDbSpline
70
4
71
3
72
56
73
52
40
0
40
0
40
0
40
0
40
0.0610444716717243
40
0.0610444716717243
40
0.122088943343449
40
0.122088943343449
40
0.183133415015173
40
0.183133415015173
40
0.213655650851033
40
0.213655650851033
40
0.244177886686893
40
0.244177886686893
40
0.305222358358614
40
0.305222358358614
40
0.335744594194476
40
0.335744594194476
40
0.366266830030339
40
0.366266830030339
40
0.427311301702063
40
0.427311301702063
40
0.457833537537923
40
0.457833537537923
40
0.473094655455853
40
0.473094655455853
40
0.488355773373784
40
0.488355773373784
40
0.518878009209644
40
0.518878009209644
40
0.549400245045504
40
0.549400245045504
40
0.610444716717225
40
0.610444716717225
40
0.671489188388946
40
0.671489188388946
40
0.686750306306879
40
0.686750306306879
40
0.702011424224812
40
0.702011424224812
40
0.732533660060674
40
0.732533660060674
40
0.793578131732399
40
0.793578131732399
40
0.854622603404123
40
0.854622603404123
40
0.915667075075848
40
0.915667075075848
40
0.946189310911712
40
0.946189310911712
40
0.976711546747576
40
0.976711546747576
40
1
40
1
40
1
40
1
41
1
10
29.3302394419125
20
-0.0415158918945338
30
0
41
1
10
29.2581176799238
20
0.0139266687796749
30
0
41
1
10
29.1864635144704
20
0.0689997634888755
30
0
41
1
10
29.0436417927793
20
0.177879617680134
30
0
41
1
10
28.972546180692
20
0.231780365918496
30
0
41
1
10
28.8304510120851
20
0.337807785133578
30
0
41
1
10
28.7594260843077
20
0.389898782933159
30
0
41
1
10
28.6521923291886
20
0.465727125143559
30
0
41
1
10
28.6163501298567
20
0.490641914414681
30
0
41
1
10
28.5444100879725
20
0.539670033177487
30
0
41
1
10
28.5082499674382
20
0.563865767336409
30
0
41
1
10
28.4002947278012
20
0.634608202358862
30
0
41
1
10
28.3289068829087
20
0.679460964354831
30
0
41
1
10
28.222146255501
20
0.742758364861942
30
0
41
1
10
28.1866131964138
20
0.76319273184825
30
0
41
1
10
28.1154155365454
20
0.802519074623405
30
0
41
1
10
28.0797571341526
20
0.821421388387563
30
0
41
1
10
27.9728351927367
20
0.876066878719172
30
0
41
1
10
27.9015780906825
20
0.909698294304945
30
0
41
1
10
27.7942737544416
20
0.955434539427785
30
0
41
1
10
27.7584342891171
20
0.96989288605792
30
0
41
1
10
27.704483478767
20
0.990315653240373
30
0
41
1
10
27.6864659489334
20
0.996912329896816
30
0
41
1
10
27.6505336249475
20
1.00960844611509
30
0
41
1
10
27.6325964851404
20
1.01571688350475
30
0
41
1
10
27.5788379094362
20
1.03331265599104
30
0
41
1
10
27.5430517249498
20
1.04406134986701
30
0
41
1
10
27.4715308136963
20
1.06362346433079
30
0
41
1
10
27.4358350269918
20
1.07245671965075
30
0
41
1
10
27.3289961145891
20
1.09614268046698
30
0
41
1
10
27.2580588744603
20
1.10815159185896
30
0
41
1
10
27.1159003637283
20
1.12427101556236
30
0
41
1
10
27.0445669263156
20
1.12836837454822
30
0
41
1
10
26.9547153182583
20
1.12846889804828
30
0
41
1
10
26.936713283378
20
1.12823793740458
30
0
41
1
10
26.9006524961663
20
1.12726922099438
30
0
41
1
10
26.8825725286273
20
1.12652992741297
30
0
41
1
10
26.8284842696841
20
1.12355504703837
30
0
41
1
10
26.7925846410125
20
1.12056373256172
30
0
41
1
10
26.6852103458749
20
1.10862131803367
30
0
41
1
10
26.6140758655375
20
1.09669535319179
30
0
41
1
10
26.4718868957764
20
1.06527083546806
30
0
41
1
10
26.4007536061432
20
1.04581880817236
30
0
41
1
10
26.2581577518513
20
0.999569529292756
30
0
41
1
10
26.1867472695571
20
0.972732949010094
30
0
41
1
10
26.0789890102565
20
0.926999263447641
30
0
41
1
10
26.0429340759337
20
0.910821977153972
30
0
41
1
10
25.971002852403
20
0.876974787577808
30
0
41
1
10
25.9350530919841
20
0.859287450455724
30
0
41
1
10
25.8716091542124
20
0.826855964345185
30
0
41
1
10
25.8441328344221
20
0.812406812767932
30
0
41
1
10
25.8166569431592
20
0.797526809381679
30
0
0
SPLINE
5
159
100
AcDbEntity
8
1
62
256
6
ByLayer
370
18
48
1
60
0
100
AcDbSpline
70
4
71
3
72
90
73
86
40
0
40
0
40
0
40
0
40
0.0063801492264513
40
0.0063801492264513
40
0.0325280400362824
40
0.0325280400362824
40
0.0586759308461134
40
0.0586759308461134
40
0.110971712465776
40
0.110971712465776
40
0.137119603275605
40
0.137119603275605
40
0.163267494085435
40
0.163267494085435
40
0.176341439490351
40
0.176341439490351
40
0.189415384895267
40
0.189415384895267
40
0.215563275705097
40
0.215563275705097
40
0.241711166514926
40
0.241711166514926
40
0.254785111919841
40
0.254785111919841
40
0.267859057324756
40
0.267859057324756
40
0.320154838944413
40
0.320154838944413
40
0.346302729754241
40
0.346302729754241
40
0.372450620564069
40
0.372450620564069
40
0.398598511373897
40
0.398598511373897
40
0.424746402183725
40
0.424746402183725
40
0.477042183803382
40
0.477042183803382
40
0.490116129208296
40
0.490116129208296
40
0.50319007461321
40
0.50319007461321
40
0.516264020018124
40
0.516264020018124
40
0.529337965423038
40
0.529337965423038
40
0.542411910827953
40
0.542411910827953
40
0.555485856232867
40
0.555485856232867
40
0.581633747042695
40
0.581633747042695
40
0.607781637852523
40
0.607781637852523
40
0.633929528662351
40
0.633929528662351
40
0.686225310282008
40
0.686225310282008
40
0.738521091901664
40
0.738521091901664
40
0.75159503730658
40
0.75159503730658
40
0.764668982711495
40
0.764668982711495
40
0.790816873521326
40
0.790816873521326
40
0.803890818926243
40
0.803890818926243
40
0.81696476433116
40
0.81696476433116
40
0.830038709736077
40
0.830038709736077
40
0.843112655140994
40
0.843112655140994
40
0.856186600545911
40
0.856186600545911
40
0.869260545950828
40
0.869260545950828
40
0.895408436760662
40
0.895408436760662
40
0.947704218380332
40
0.947704218380332
40
0.973852109190166
40
0.973852109190166
40
1
40
1
40
1
40
1
41
1
10
24.6584560525483
20
1.12845023933914
30
0
41
1
10
24.6684525979777
20
1.12844871599287
30
0
41
1
10
24.6784537199929
20
1.12836896029617
30
0
41
1
10
24.7294662883895
20
1.12755958571074
30
0
41
1
10
24.7701590344431
20
1.12557294294908
30
0
41
1
10
24.8515454276705
20
1.119035536631
30
0
41
1
10
24.8922651077207
20
1.11450334060817
30
0
41
1
10
25.0142010983504
20
1.09717969315389
30
0
41
1
10
25.0952430297268
20
1.08066654995744
30
0
41
1
10
25.2167866956225
20
1.04856494666328
30
0
41
1
10
25.2573357548457
20
1.03665836243602
30
0
41
1
10
25.3384578411623
20
1.01036789277723
30
0
41
1
10
25.3789856485679
20
0.995946954094507
30
0
41
1
10
25.4401856466878
20
0.97265785687344
30
0
41
1
10
25.4606495639599
20
0.964618277340378
30
0
41
1
10
25.5016882798343
20
0.947974641848873
30
0
41
1
10
25.5222811457408
20
0.939359566034085
30
0
41
1
10
25.5838770436426
20
0.912794160204015
30
0
41
1
10
25.6247986339708
20
0.894094699325933
30
0
41
1
10
25.7063497784045
20
0.854740626253459
30
0
41
1
10
25.7469609974034
20
0.834068708076643
30
0
41
1
10
25.8077255855263
20
0.80165059517725
30
0
41
1
10
25.8279626372553
20
0.790616877917245
30
0
41
1
10
25.8683552165059
20
0.768048289260719
30
0
41
1
10
25.8884614126826
20
0.756463862574662
30
0
41
1
10
25.9893759736269
20
0.697855642878267
30
0
41
1
10
26.0706664436869
20
0.648176131382058
30
0
41
1
10
26.1929966480082
20
0.569073983843225
30
0
41
1
10
26.2338552594053
20
0.541953337005538
30
0
41
1
10
26.3157479311012
20
0.486171111812411
30
0
41
1
10
26.3568389815484
20
0.457432068381962
30
0
41
1
10
26.438481637579
20
0.399242382252623
30
0
41
1
10
26.4791348541512
20
0.369727336330755
30
0
41
1
10
26.5604483494866
20
0.310302163699646
30
0
41
1
10
26.6010892703459
20
0.280368471749711
30
0
41
1
10
26.7229078693405
20
0.189843858568508
30
0
41
1
10
26.8038927095001
20
0.128415632444501
30
0
41
1
10
26.9051636644421
20
0.0506870802472292
30
0
41
1
10
26.925420617064
20
0.0350951312493351
30
0
41
1
10
26.9659086981321
20
0.0037753927870199
30
0
41
1
10
26.9861234391068
20
-0.0119743920618305
30
0
41
1
10
27.0265767929869
20
-0.0435460746497256
30
0
41
1
10
27.0469021520421
20
-0.0592516105873244
30
0
41
1
10
27.087806162478
20
-0.0904234640650543
30
0
41
1
10
27.1083009191478
20
-0.106002894762497
30
0
41
1
10
27.1493435240436
20
-0.137193981196617
30
0
41
1
10
27.1699133037161
20
-0.152792347374344
30
0
41
1
10
27.2110205346021
20
-0.183774252885144
30
0
41
1
10
27.231576039929
20
-0.199177848953155
30
0
41
1
10
27.2932135835545
20
-0.24517387551893
30
0
41
1
10
27.3342492961032
20
-0.27557424076403
30
0
41
1
10
27.4161846940418
20
-0.335872726348072
30
0
41
1
10
27.4570799049116
20
-0.365776231618725
30
0
41
1
10
27.53876285336
20
-0.425024915578973
30
0
41
1
10
27.5797438567438
20
-0.454248269796466
30
0
41
1
10
27.7025039173664
20
-0.539201854412511
30
0
41
1
10
27.7841335632591
20
-0.592769012380586
30
0
41
1
10
27.946615307571
20
-0.694422697562203
30
0
41
1
10
28.0273982175627
20
-0.742556121511882
30
0
41
1
10
28.1283373970269
20
-0.798660089079647
30
0
41
1
10
28.1485380384621
20
-0.809662994802494
30
0
41
1
10
28.1890642038222
20
-0.831142149225968
30
0
41
1
10
28.2093933935894
20
-0.841615769336499
30
0
41
1
10
28.2705392050447
20
-0.872281436139929
30
0
41
1
10
28.3114940455189
20
-0.891737681258462
30
0
41
1
10
28.3731358575273
20
-0.919490011115784
30
0
41
1
10
28.3937280734442
20
-0.928502502452801
30
0
41
1
10
28.434745473772
20
-0.945949687170696
30
0
41
1
10
28.4551982934872
20
-0.954398150182641
30
0
41
1
10
28.4959847720319
20
-0.970749931912508
30
0
41
1
10
28.5163232880377
20
-0.978649011339684
30
0
41
1
10
28.5569742053314
20
-0.99384113808398
30
0
41
1
10
28.577309172726
20
-1.00112110493544
30
0
41
1
10
28.6178985428723
20
-1.01511775307662
30
0
41
1
10
28.6380890822208
20
-1.02187002511232
30
0
41
1
10
28.6784640458133
20
-1.03475813268668
30
0
41
1
10
28.698681609833
20
-1.04087774517103
30
0
41
1
10
28.7594061960801
20
-1.05829298228278
30
0
41
1
10
28.7999670562019
20
-1.06865643126082
30
0
41
1
10
28.9217590116241
20
-1.09611823559953
30
0
41
1
10
29.003099169983
20
-1.10960758594808
30
0
41
1
10
29.1253459461264
20
-1.12231608260782
30
0
41
1
10
29.1661898782343
20
-1.12528300182348
30
0
41
1
10
29.2481590051454
20
-1.12856619469966
30
0
41
1
10
29.2891567447099
20
-1.12887987511692
30
0
41
1
10
29.3302394419125
20
-1.12787964041769
30
0
0
SPLINE
5
15A
100
AcDbEntity
8
1
62
256
6
ByLayer
370
18
48
1
60
0
100
AcDbSpline
70
4
71
3
72
16
73
12
40
0
40
0
40
0
40
0
40
0.25
40
0.25
40
0.5
40
0.5
40
0.75
40
0.75
40
0.875
40
0.875
40
1
40
1
40
1
40
1
41
1
10
29.3302394419125
20
-1.12787964041769
30
0
41
1
10
29.3567782047031
20
-1.12723350486121
30
0
41
1
10
29.3832166530742
20
-1.12780177617816
30
0
41
1
10
29.435674425485
20
-1.13136640496356
30
0
41
1
10
29.4616915081219
20
-1.13435678137037
30
0
41
1
10
29.5132183051354
20
-1.14290460835005
30
0
41
1
10
29.5387298482307
20
-1.14845383172525
30
0
41
1
10
29.5766688929191
20
-1.15908474808202
30
0
41
1
10
29.5892642355083
20
-1.16301859478097
30
0
41
1
10
29.6143620003802
20
-1.17178401504262
30
0
41
1
10
29.6268707605047
20
-1.17662427133845
30
0
41
1
10
29.6392622868585
20
-1.18191574666361
30
0
0
SPLINE
5
15B
100
AcDbEntity
8
1
62
256
6
ByLayer
370
18
48
1
60
0
100
AcDbSpline
70
4
71
3
72
8
73
4
40
0
40
0
40
0
40
0
40
1
40
1
40
1
40
1
41
1
10
29.6392622868585
20
-1.18191574666369
30
0
41
1
10
29.649532175559
20
-1.18630123244643
30
0
41
1
10
29.6597807241515
20
-1.19059249790635
30
0
41
1
10
29.6700000001271
20
-1.19477816344269
30
0
0
SPLINE
5
15C
100
AcDbEntity
8
1
62
256
6
ByLayer
370
18
48
1
60
0
100
AcDbSpline
70
4
71
3
72
8
73
4
40
0
40
0
40
0
40
0
40
1
40
1
40
1
40
1
41
1
10
29.67
20
-1.19477816339068
30
0
41
1
10
29.6965317921176
20
-1.19313324339234
30
0
41
1
10
29.7228918697151
20
-1.19088921310603
30
0
41
1
10
29.7490443118796
20
-1.18801644879116
30
0
0
SPLINE
5
15D
100
AcDbEntity
8
1
62
256
6
ByLayer
370
18
48
1
60
0
100
AcDbSpline
70
4
71
3
72
26
73
22
40
0
40
0
40
0
40
0
40
0.125000000000018
40
0.125000000000018
40
0.250000000000036
40
0.250000000000036
40
0.375000000000054
40
0.375000000000054
40
0.500000000000072
40
0.500000000000072
40
0.625000000000089
40
0.625000000000089
40
0.750000000000107
40
0.750000000000107
40
0.81250000000008
40
0.81250000000008
40
0.875000000000054
40
0.875000000000054
40
0.937500000000027
40
0.937500000000027
40
1
40
1
40
1
40
1
41
1
10
29.7490443118796
20
-1.18801644879122
30
0
41
1
10
29.7540754296841
20
-1.18141017265995
30
0
41
1
10
29.7596220088585
20
-1.17535009431839
30
0
41
1
10
29.7713949011609
20
-1.16439839888065
30
0
41
1
10
29.7775508407523
20
-1.15956192941769
30
0
41
1
10
29.7903366668932
20
-1.15102615941865
30
0
41
1
10
29.7969672571729
20
-1.14732832385309
30
0
41
1
10
29.8106990458443
20
-1.14110622907259
30
0
41
1
10
29.8176942204438
20
-1.13863645838967
30
0
41
1
10
29.8317166626228
20
-1.13508015091853
30
0
41
1
10
29.8387735682783
20
-1.13397722043177
30
0
41
1
10
29.8529493353174
20
-1.13333527100721
30
0
41
1
10
29.8600935928968
20
-1.13381563724852
30
0
41
1
10
29.8703554137971
20
-1.13597554757536
30
0
41
1
10
29.873718024084
20
-1.13693502465588
30
0
41
1
10
29.8803061828624
20
-1.13940638356465
30
0
41
1
10
29.8835449871563
20
-1.14092963745577
30
0
41
1
10
29.88967901396
20
-1.14453394519217
30
0
41
1
10
29.8925948354927
20
-1.14661926882152
30
0
41
1
10
29.8980772599237
20
-1.15144510994603
30
0
41
1
10
29.900657368898
20
-1.15420609349863
30
0
41
1
10
29.9029683510074
20
-1.15729603163709
30
0
0
SPLINE
5
15E
100
AcDbEntity
8
1
62
256
6
ByLayer
370
18
48
1
60
0
100
AcDbSpline
70
4
71
3
72
8
73
4
40
0
40
0
40
0
40
0
40
1
40
1
40
1
40
1
41
1
10
29.9029683510074
20
-1.15729603163715
30
0
41
1
10
29.9046194338833
20
-1.15950364022365
30
0
41
1
10
29.9062695563805
20
-1.16170487977828
30
0
41
1
10
29.9079187510701
20
-1.16389987143359
30
0
0
SPLINE
5
15F
100
AcDbEntity
8
1
62
256
6
ByLayer
370
18
48
1
60
0
100
AcDbSpline
70
4
71
3
72
12
73
8
40
0
40
0
40
0
40
0
40
0.5
40
0.5
40
0.75
40
0.75
40
1
40
1
40
1
40
1
41
1
10
29.9079187510702
20
-1.16389987143359
30
0
41
1
10
29.9863857143431
20
-1.14850460954773
30
0
41
1
10
30.0640796723634
20
-1.12793759414774
30
0
41
1
10
30.1801027910684
20
-1.08940257371788
30
0
41
1
10
30.218683237234
20
-1.07526980261713
30
0
41
1
10
30.2957735270034
20
-1.04443277105446
30
0
41
1
10
30.3341445118238
20
-1.02759782605639
30
0
41
1
10
30.3727106386619
20
-1.00963401800695
30
0
0
SPLINE
5
160
100
AcDbEntity
8
1
62
256
6
ByLayer
370
18
48
1
60
0
100
AcDbSpline
70
4
71
3
72
8
73
4
40
0
40
0
40
0
40
0
40
1
40
1
40
1
40
1
41
1
10
30.3727106386621
20
-1.00963401800706
30
0
41
1
10
30.3883294274635
20
-0.978615975338158
30
0
41
1
10
30.404036132998
20
-0.947698688041925
30
0
41
1
10
30.4198394856989
20
-0.916884406518648
30
0
0
SPLINE
5
161
100
AcDbEntity
8
1
62
256
6
ByLayer
370
18
48
1
60
0
100
AcDbSpline
70
4
71
3
72
18
73
14
40
0
40
0
40
0
40
0
40
0.176217833497858
40
0.176217833497858
40
0.450811888998572
40
0.450811888998572
40
0.588108916748929
40
0.588108916748929
40
0.725405944499286
40
0.725405944499286
40
0.862702972249643
40
0.862702972249643
40
1
40
1
40
1
40
1
41
1
10
33.916070424433
20
1.2135690836476
30
0
41
1
10
33.9210073287616
20
1.21377187933996
30
0
41
1
10
33.9259627304075
20
1.21431530603346
30
0
41
1
10
33.9386768044558
20
1.21664170732976
30
0
41
1
10
33.9465368075409
20
1.21898714909764
30
0
41
1
10
33.9578670139169
20
1.22404321507909
30
0
41
1
10
33.9615791537136
20
1.22598542019912
30
0
41
1
10
33.9688509303198
20
1.23046101168154
30
0
41
1
10
33.972436728371
20
1.23301747772186
30
0
41
1
10
33.9792464619316
20
1.23870606019531
30
0
41
1
10
33.9824777769
20
1.24183542706115
30
0
41
1
10
33.9885365480429
20
1.2487576580184
30
0
41
1
10
33.9913811793284
20
1.25258036902491
30
0
41
1
10
33.9939105930058
20
1.25671503584789
30
0
0
SPLINE
5
162
100
AcDbEntity
8
1
62
256
6
ByLayer
370
18
48
1
60
0
100
AcDbSpline
70
4
71
3
72
10
73
6
40
0
40
0
40
0
40
0
40
0.5
40
0.5
40
1
40
1
40
1
40
1
41
1
10
33.9939105930058
20
1.25671503584789
30
0
41
1
10
34.021070649616
20
1.30111180098652
30
0
41
1
10
34.0479601597575
20
1.34459434863001
30
0
41
1
10
34.1013641342201
20
1.42977855093449
30
0
41
1
10
34.1278911573278
20
1.47148887611209
30
0
41
1
10
34.154118343546
20
1.51200904089245
30
0
0
SPLINE
5
163
100
AcDbEntity
8
1
62
256
6
ByLayer
370
18
48
1
60
0
100
AcDbSpline
70
4
71
3
72
11
73
7
40
0
40
0
40
0
40
0
40
0.249999999999989
40
0.249999999999989
40
0.499999999999977
40
1
40
1
40
1
40
1
41
1
10
34.154118343546
20
1.51200904089248
30
0
41
1
10
34.1715236302261
20
1.5070830137762
30
0
41
1
10
34.1890186182873
20
1.50181413409277
30
0
41
1
10
34.2239816989506
20
1.49066174538822
30
0
41
1
10
34.2764285641175
20
1.47300057973229
30
0
41
1
10
34.328914022752
20
1.4525982713804
30
0
41
1
10
34.363928291968
20
1.43781329593318
30
0
0
SPLINE
5
164
100
AcDbEntity
8
1
62
256
6
ByLayer
370
18
48
1
60
0
100
AcDbSpline
70
4
71
3
72
10
73
6
40
0
40
0
40
0
40
0
40
0.5
40
0.5
40
1
40
1
40
1
40
1
41
1
10
34.363928291968
20
1.43781329593318
30
0
41
1
10
34.3880066327243
20
1.39315600075537
30
0
41
1
10
34.4122700241898
20
1.34780221725509
30
0
41
1
10
34.4612280337044
20
1.2558619563905
30
0
41
1
10
34.4858797727273
20
1.20936202498555
30
0
41
1
10
34.5107493603861
20
1.16238742967332
30
0
0
SPLINE
5
165
100
AcDbEntity
8
1
62
256
6
ByLayer
370
18
48
1
60
0
100
AcDbSpline
70
4
71
3
72
26
73
22
40
0
40
0
40
0
40
0
40
0.125000000000016
40
0.125000000000016
40
0.250000000000032
40
0.250000000000032
40
0.375000000000048
40
0.375000000000048
40
0.500000000000064
40
0.500000000000064
40
0.62500000000008
40
0.62500000000008
40
0.750000000000097
40
0.750000000000097
40
0.812500000000072
40
0.812500000000072
40
0.875000000000048
40
0.875000000000048
40
0.937500000000024
40
0.937500000000024
40
1
40
1
40
1
40
1
41
1
10
34.5107493603861
20
1.16238742967332
30
0
41
1
10
34.515377223347
20
1.15364615126015
30
0
41
1
10
34.5207442328781
20
1.14574582624803
30
0
41
1
10
34.5325753562855
20
1.13117900087187
30
0
41
1
10
34.5391017825481
20
1.12448963632684
30
0
41
1
10
34.5526542831125
20
1.11266007089068
30
0
41
1
10
34.5597269267344
20
1.10745360921888
30
0
41
1
10
34.5744005712146
20
1.09836136580429
30
0
41
1
10
34.5820590526889
20
1.09446297050036
30
0
41
1
10
34.5973785501072
20
1.08829118296416
30
0
41
1
10
34.6050867776316
20
1.08597575131699
30
0
41
1
10
34.6205672647811
20
1.08304483631497
30
0
41
1
10
34.6284193243714
20
1.08243828701654
30
0
41
1
10
34.6397376392406
20
1.08315976034797
30
0
41
1
10
34.6434456667557
20
1.08366833951641
30
0
41
1
10
34.6507090060748
20
1.0853000206389
30
0
41
1
10
34.6542905276239
20
1.08643543824252
30
0
41
1
10
34.6610966558663
20
1.08938044765961
30
0
41
1
10
34.664326695682
20
1.09118392411654
30
0
41
1
10
34.6703842031361
20
1.0955622588439
30
0
41
1
10
34.6732293486615
20
1.09815914190591
30
0
41
1
10
34.675761930085
20
1.10116966587498
30
0
0
SPLINE
5
166
100
AcDbEntity
8
1
62
256
6
ByLayer
370
18
48
1
60
0
100
AcDbSpline
70
4
71
3
72
10
73
6
40
0
40
0
40
0
40
0
40
0.5
40
0.5
40
1
40
1
40
1
40
1
41
1
10
34.675761930085
20
1.10116966587503
30
0
41
1
10
34.6925935585127
20
1.12117771787706
30
0
41
1
10
34.709311750634
20
1.14038907130683
30
0
41
1
10
34.7426072420624
20
1.17759213821643
30
0
41
1
10
34.7591867097445
20
1.19560573904525
30
0
41
1
10
34.7756994377984
20
1.2129292789671
30
0
0
SPLINE
5
167
100
AcDbEntity
8
1
62
256
6
ByLayer
370
18
48
1
60
0
100
AcDbSpline
70
4
71
3
72
12
73
8
40
0
40
0
40
0
40
0
40
0.25
40
0.25
40
0.5
40
0.5
40
1
40
1
40
1
40
1
41
1
10
34.7756994377984
20
1.21292927896715
30
0
41
1
10
34.8042617556648
20
1.19420689848786
30
0
41
1
10
34.8329503758715
20
1.17481172014146
30
0
41
1
10
34.8907033701344
20
1.1347174342697
30
0
41
1
10
34.9196659464887
20
1.1140986674786
30
0
41
1
10
35.0064084528708
20
1.05094566687873
30
0
41
1
10
35.0642165731658
20
1.00698141727366
30
0
41
1
10
35.1220400255521
20
0.961231268977542
30
0
0
SPLINE
5
168
100
AcDbEntity
8
1
62
256
6
ByLayer
370
18
48
1
60
0
100
AcDbSpline
70
4
71
3
72
8
73
4
40
0
40
0
40
0
40
0
40
1
40
1
40
1
40
1
41
1
10
35.1220400255521
20
0.961231268977542
30
0
41
1
10
35.1453852343504
20
0.915315938429615
30
0
41
1
10
35.1688954149807
20
0.86979593609297
30
0
41
1
10
35.1926136080635
20
0.824740319316248
30
0
0
SPLINE
5
169
100
AcDbEntity
8
1
62
256
6
ByLayer
370
18
48
1
60
0
100
AcDbSpline
70
4
71
3
72
26
73
22
40
0
40
0
40
0
40
0
40
0.125000000000016
40
0.125000000000016
40
0.250000000000033
40
0.250000000000033
40
0.375000000000049
40
0.375000000000049
40
0.500000000000065
40
0.500000000000065
40
0.625000000000082
40
0.625000000000082
40
0.750000000000098
40
0.750000000000098
40
0.812500000000073
40
0.812500000000073
40
0.875000000000049
40
0.875000000000049
40
0.937500000000024
40
0.937500000000024
40
1
40
1
40
1
40
1
41
1
10
35.1926136080635
20
0.824740319316248
30
0
41
1
10
35.1972471223165
20
0.815938390696147
30
0
41
1
10
35.2026223224661
20
0.807564030059694
30
0
41
1
10
35.2144669284258
20
0.79144753568886
30
0
41
1
10
35.2209988400519
20
0.783664657391228
30
0
41
1
10
35.234538935047
20
0.769185565247369
30
0
41
1
10
35.2415939892226
20
0.762417010031299
30
0
41
1
10
35.2562190823153
20
0.749743255842958
30
0
41
1
10
35.2638467274576
20
0.743806047913694
30
0
41
1
10
35.2791232836359
20
0.733210556357164
30
0
41
1
10
35.2868199523504
20
0.728505147927137
30
0
41
1
10
35.3022978988574
20
0.720386123633944
30
0
41
1
10
35.3101623873616
20
0.716947353480037
30
0
41
1
10
35.3215101092561
20
0.713197594181906
30
0
41
1
10
35.3252287232571
20
0.712175244470046
30
0
41
1
10
35.3325135123061
20
0.710648363828483
30
0
41
1
10
35.3361061372869
20
0.710143151156359
30
0
41
1
10
35.3429315191336
20
0.709766680570567
30
0
41
1
10
35.3461698993423
20
0.709888608655149
30
0
41
1
10
35.3522407411896
20
0.710851824988083
30
0
41
1
10
35.3550906986102
20
0.711702741442906
30
0
41
1
10
35.3576255582349
20
0.712974889302728
30
0
0
SPLINE
5
16A
100
AcDbEntity
8
1
62
256
6
ByLayer
370
18
48
1
60
0
100
AcDbSpline
70
4
71
3
72
8
73
4
40
0
40
0
40
0
40
0
40
1
40
1
40
1
40
1
41
1
10
35.3576255582349
20
0.712974889302814
30
0
41
1
10
35.3711724897765
20
0.719773569513904
30
0
41
1
10
35.384652050227
20
0.725955278197205
30
0
41
1
10
35.3980764489198
20
0.731556930774815
30
0
0
SPLINE
5
16B
100
AcDbEntity
8
1
62
256
6
ByLayer
370
18
48
1
60
0
100
AcDbSpline
70
4
71
3
72
15
73
11
40
0
40
0
40
0
40
0
40
0.250000000000028
40
0.250000000000028
40
0.375000000000031
40
0.375000000000031
40
0.500000000000034
40
0.750000000000017
40
0.750000000000017
40
1
40
1
40
1
40
1
41
1
10
35.3980764489201
20
0.7315569307749
30
0
41
1
10
35.4383386402125
20
0.696848770693947
30
0
41
1
10
35.4788432833226
20
0.661470069693564
30
0
41
1
10
35.5400730209436
20
0.607488291489517
30
0
41
1
10
35.5605952242329
20
0.589311407819537
30
0
41
1
10
35.601567011033
20
0.55287936884352
30
0
41
1
10
35.6629589858783
20
0.498076309773211
30
0
41
1
10
35.7242156939717
20
0.442880949001278
30
0
41
1
10
35.8058309926869
20
0.369009184138946
30
0
41
1
10
35.8465920011206
20
0.331915831001453
30
0
41
1
10
35.8876543126364
20
0.295046741577352
30
0
0
SPLINE
5
16C
100
AcDbEntity
8
1
62
256
6
ByLayer
370
18
48
1
60
0
100
AcDbSpline
70
4
71
3
72
14
73
10
40
0
40
0
40
0
40
0
40
0.25
40
0.25
40
0.5
40
0.5
40
0.75
40
0.75
40
1
40
1
40
1
40
1
41
1
10
35.8876543126365
20
0.295046741577409
30
0
41
1
10
35.8916974842437
20
0.290039386064251
30
0
41
1
10
35.8960401356495
20
0.284992194749094
30
0
41
1
10
35.9051955740366
20
0.274910384200524
30
0
41
1
10
35.9099371727251
20
0.269952783802665
30
0
41
1
10
35.9197059129052
20
0.260179968739834
30
0
41
1
10
35.9247333770365
20
0.255364879765267
30
0
41
1
10
35.9350555086565
20
0.245861423935651
30
0
41
1
10
35.940381653601
20
0.241146569700447
30
0
41
1
10
35.9457619621456
20
0.236557230219546
30
0
0
SPLINE
5
16D
100
AcDbEntity
8
1
62
256
6
ByLayer
370
18
48
1
60
0
100
AcDbSpline
70
4
71
3
72
26
73
22
40
0
40
0
40
0
40
0
40
0.0625000000000018
40
0.0625000000000018
40
0.125000000000004
40
0.125000000000004
40
0.249999999999977
40
0.249999999999977
40
0.312499999999979
40
0.312499999999979
40
0.374999999999981
40
0.374999999999981
40
0.499999999999985
40
0.499999999999985
40
0.624999999999989
40
0.624999999999989
40
0.749999999999993
40
0.749999999999993
40
0.874999999999996
40
0.874999999999996
40
1
40
1
40
1
40
1
41
1
10
36.27
20
0.0475879214932604
30
0
41
1
10
36.2627127929907
20
0.04680604873937
30
0
41
1
10
36.2554263641155
20
0.0461636007647712
30
0
41
1
10
36.2408641785491
20
0.0455954082960091
30
0
41
1
10
36.2335903459045
20
0.045776623487825
30
0
41
1
10
36.2117910513456
20
0.0476638224643864
30
0
41
1
10
36.1972864853917
20
0.0505851779316515
30
0
41
1
10
36.1755444304872
20
0.0570483433220375
30
0
41
1
10
36.1682766326639
20
0.0595663511903695
30
0
41
1
10
36.153917113937
20
0.0651919759703503
30
0
41
1
10
36.1468104879974
20
0.0683011296330278
30
0
41
1
10
36.1256793249145
20
0.0784336738462059
30
0
41
1
10
36.1118422095258
20
0.0862569269511084
30
0
41
1
10
36.0845532209046
20
0.103783347801709
30
0
41
1
10
36.071068941118
20
0.113521099020431
30
0
41
1
10
36.0445525853904
20
0.134629291835637
30
0
41
1
10
36.0316218578432
20
0.145905270776296
30
0
41
1
10
36.006283270967
20
0.169724173126866
30
0
41
1
10
35.9938772203024
20
0.182270190164303
30
0
41
1
10
35.9695219092148
20
0.208575525346248
30
0
41
1
10
35.9576088812774
20
0.222410973095805
30
0
41
1
10
35.9457619621456
20
0.236557230219603
30
0
0
SPLINE
5
16E
100
AcDbEntity
8
1
62
256
6
ByLayer
370
18
48
1
60
0
100
AcDbSpline
70
4
71
3
72
25
73
21
40
0
40
0
40
0
40
0
40
0.0312499999999999
40
0.0312499999999999
40
0.0624999999999998
40
0.0624999999999998
40
0.0937499999999997
40
0.0937499999999997
40
0.125
40
0.25
40
0.25
40
0.5
40
0.5
40
0.625
40
0.625
40
0.75
40
0.75
40
0.875
40
0.875
40
1
40
1
40
1
40
1
41
1
10
36.27
20
0.885474324383836
30
0
41
1
10
36.2700000000001
20
0.874308441071662
30
0
41
1
10
36.27
20
0.863311611819711
30
0
41
1
10
36.27
20
0.841668004002059
30
0
41
1
10
36.27
20
0.831022870400233
30
0
41
1
10
36.27
20
0.810531350891068
30
0
41
1
10
36.27
20
0.800552312614258
30
0
41
1
10
36.27
20
0.780539629869565
30
0
41
1
10
36.27
20
0.730704358561411
30
0
41
1
10
36.27
20
0.682119288569197
30
0
41
1
10
36.27
20
0.567771951268185
30
0
41
1
10
36.27
20
0.494580491711417
30
0
41
1
10
36.27
20
0.389448598191905
30
0
41
1
10
36.27
20
0.355186370643764
30
0
41
1
10
36.27
20
0.288582785363985
30
0
41
1
10
36.27
20
0.256193452892319
30
0
41
1
10
36.27
20
0.193250984551753
30
0
41
1
10
36.27
20
0.162656692036336
30
0
41
1
10
36.27
20
0.1035623172518
30
0
41
1
10
36.27
20
0.0751006056522101
30
0
41
1
10
36.27
20
0.0475879214932604
30
0
0
SPLINE
5
16F
100
AcDbEntity
8
1
62
256
6
ByLayer
370
18
48
1
60
0
100
AcDbSpline
70
4
71
3
72
18
73
14
40
0
40
0
40
0
40
0
40
0.124999999999988
40
0.124999999999988
40
0.187499999999994
40
0.187499999999994
40
0.249999999999999
40
0.249999999999999
40
0.5
40
0.5
40
0.75
40
0.75
40
1
40
1
40
1
40
1
41
1
10
35.8859530829176
20
1.25340956752149
30
0
41
1
10
35.902777090779
20
1.23864857746778
30
0
41
1
10
35.9197430393523
20
1.22354886782489
30
0
41
1
10
35.9454371201158
20
1.20036938539053
30
0
41
1
10
35.9540499161757
20
1.19254207336556
30
0
41
1
10
35.9711713747209
20
1.17696783130532
30
0
41
1
10
35.9796764772614
20
1.16922451076911
30
0
41
1
10
36.0219398535644
20
1.13067023058568
30
0
41
1
10
36.0549555896891
20
1.10028614037981
30
0
41
1
10
36.1195047638037
20
1.03946637562637
30
0
41
1
10
36.1510008333323
20
1.00908581885497
30
0
41
1
10
36.21212851087
20
0.947774370039554
30
0
41
1
10
36.2417551761253
20
0.916865359975958
30
0
41
1
10
36.27
20
0.885474324383836
30
0
0
SPLINE
5
170
100
AcDbEntity
8
1
62
256
6
ByLayer
370
18
48
1
60
0
100
AcDbSpline
70
4
71
3
72
8
73
4
40
0
40
0
40
0
40
0
40
1
40
1
40
1
40
1
41
1
10
35.8859530829125
20
1.25340956750804
30
0
41
1
10
35.8824694677459
20
1.24727865015123
30
0
41
1
10
35.8789817191708
20
1.24112681485303
30
0
41
1
10
35.87548956954
20
1.23495398589497
30
0
0
SPLINE
5
171
100
AcDbEntity
8
1
62
256
6
ByLayer
370
18
48
1
60
0
100
AcDbSpline
70
4
71
3
72
28
73
24
40
0
40
0
40
0
40
0
40
0.125000000000026
40
0.125000000000026
40
0.250000000000051
40
0.250000000000051
40
0.375000000000077
40
0.375000000000077
40
0.500000000000103
40
0.500000000000103
40
0.625000000000128
40
0.625000000000128
40
0.687500000000107
40
0.687500000000107
40
0.750000000000085
40
0.750000000000085
40
0.812500000000064
40
0.812500000000064
40
0.875000000000043
40
0.875000000000043
40
0.937500000000021
40
0.937500000000021
40
1
40
1
40
1
40
1
41
1
10
35.87548956954
20
1.23495398589497
30
0
41
1
10
35.8709865932266
20
1.22699438922126
30
0
41
1
10
35.8657797960058
20
1.21991357624844
30
0
41
1
10
35.8542832661313
20
1.20707210859229
30
0
41
1
10
35.847940667713
20
1.20129952875823
30
0
41
1
10
35.8347061751786
20
1.19130878045249
30
0
41
1
10
35.8277731298053
20
1.18703575308345
30
0
41
1
10
35.8133193870781
20
1.17987677231756
30
0
41
1
10
35.8057253942852
20
1.17697836684556
30
0
41
1
10
35.7904243621556
20
1.17286264347507
30
0
41
1
10
35.7826940617463
20
1.17161467415806
30
0
41
1
10
35.7709978769199
20
1.17111880661571
30
0
41
1
10
35.7670821512613
20
1.17118507410836
30
0
41
1
10
35.7592180114852
20
1.17184762572018
30
0
41
1
10
35.7552567519177
20
1.17245008464567
30
0
41
1
10
35.7475102661842
20
1.17423424310559
30
0
41
1
10
35.7437018688114
20
1.1754154026037
30
0
41
1
10
35.7362392529267
20
1.17844317702159
30
0
41
1
10
35.7325559227286
20
1.1803083545737
30
0
41
1
10
35.7255445532539
20
1.18475440616888
30
0
41
1
10
35.7222218980643
20
1.18732294757453
30
0
41
1
10
35.7160027729507
20
1.19326845585385
30
0
41
1
10
35.7130915515595
20
1.196672775709
30
0
41
1
10
35.710525386026
20
1.20046402112516
30
0
0
SPLINE
5
172
100
AcDbEntity
8
1
62
256
6
ByLayer
370
18
48
1
60
0
100
AcDbSpline
70
4
71
3
72
8
73
4
40
0
40
0
40
0
40
0
40
1
40
1
40
1
40
1
41
1
10
35.7105253860255
20
1.2004640211249
30
0
41
1
10
35.6975863114919
20
1.21958017180742
30
0
41
1
10
35.6846980971348
20
1.23837505739095
30
0
41
1
10
35.6718536694207
20
1.25685680395515
30
0
0
SPLINE
5
173
100
AcDbEntity
8
1
62
256
6
ByLayer
370
18
48
1
60
0
100
AcDbSpline
70
4
71
3
72
10
73
6
40
0
40
0
40
0
40
0
40
0.5
40
0.5
40
1
40
1
40
1
40
1
41
1
10
35.6718536694207
20
1.2568568039552
30
0
41
1
10
35.6067333686929
20
1.25291129626942
30
0
41
1
10
35.5418924397429
20
1.24472233592522
30
0
41
1
10
35.4121874216486
20
1.21969440502645
30
0
41
1
10
35.3482630783449
20
1.20309159115143
30
0
41
1
10
35.2849336981481
20
1.18263281006423
30
0
0
SPLINE
5
174
100
AcDbEntity
8
1
62
256
6
ByLayer
370
18
48
1
60
0
100
AcDbSpline
70
4
71
3
72
10
73
6
40
0
40
0
40
0
40
0
40
0.5
40
0.5
40
1
40
1
40
1
40
1
41
1
10
35.2849336981481
20
1.18263281006395
30
0
41
1
10
35.2698502953679
20
1.15187347771587
30
0
41
1
10
35.2546881806764
20
1.12100807959092
30
0
41
1
10
35.2242407197383
20
1.05924168698615
30
0
41
1
10
35.2089466145984
20
1.02832770437806
30
0
41
1
10
35.1935704199024
20
0.997389630437596
30
0
0
SPLINE
5
175
100
AcDbEntity
8
1
62
256
6
ByLayer
370
18
48
1
60
0
100
AcDbSpline
70
4
71
3
72
14
73
10
40
0
40
0
40
0
40
0
40
0.331469602445048
40
0.331469602445048
40
0.662939204890097
40
0.662939204890097
40
0.994408807335146
40
0.994408807335146
40
1
40
1
40
1
40
1
41
1
10
35.1935704199022
20
0.997389630437368
30
0
41
1
10
35.1890579608692
20
0.988310219440194
30
0
41
1
10
35.1838385188008
20
0.97982365258764
30
0
41
1
10
35.1723165432772
20
0.963751502188558
30
0
41
1
10
35.1659608361304
20
0.956135261283265
30
0
41
1
10
35.1527073311635
20
0.942193721443886
30
0
41
1
10
35.1457674655406
20
0.935801736784526
30
0
41
1
10
35.138416768052
20
0.929859145008976
30
0
41
1
10
35.138294731338
20
0.929760714391364
30
0
41
1
10
35.1381725933659
20
0.9296624305031
30
0
0
SPLINE
5
176
100
AcDbEntity
8
1
62
256
6
ByLayer
370
18
48
1
60
0
100
AcDbSpline
70
4
71
3
72
10
73
6
40
0
40
0
40
0
40
0
40
0.5
40
0.5
40
1
40
1
40
1
40
1
41
1
10
32.5281714623337
20
1.16995054227792
30
0
41
1
10
32.4925759733997
20
1.22002069649881
30
0
41
1
10
32.4573685975286
20
1.26740544866649
30
0
41
1
10
32.3874249040965
20
1.35714940750586
30
0
41
1
10
32.35290530204
20
1.39915070495076
30
0
41
1
10
32.3187442181068
20
1.43833443282273
30
0
0
SPLINE
5
177
100
AcDbEntity
8
1
62
256
6
ByLayer
370
18
48
1
60
0
100
AcDbSpline
70
4
71
3
72
8
73
4
40
0
40
0
40
0
40
0
40
1
40
1
40
1
40
1
41
1
10
32.3187442181031
20
1.43833443284231
30
0
41
1
10
32.2873730354182
20
1.41876492936498
30
0
41
1
10
32.2559417615487
20
1.39824362569752
30
0
41
1
10
32.224411912357
20
1.37678957180597
30
0
0
SPLINE
5
178
100
AcDbEntity
8
1
62
256
6
ByLayer
370
18
48
1
60
0
100
AcDbSpline
70
4
71
3
72
12
73
8
40
0
40
0
40
0
40
0
40
0.25
40
0.25
40
0.499999999999999
40
0.499999999999999
40
1
40
1
40
1
40
1
41
1
10
32.2244119123624
20
1.37678957180205
30
0
41
1
10
32.2070313186562
20
1.34070837113941
30
0
41
1
10
32.1895666138338
20
1.30447720636084
30
0
41
1
10
32.1544225315555
20
1.23173008121273
30
0
41
1
10
32.1367337530985
20
1.19519475350219
30
0
41
1
10
32.0834315577256
20
1.08551532311756
30
0
41
1
10
32.0475363549545
20
1.01217838730665
30
0
41
1
10
32.0112319602133
20
0.939149867955535
30
0
0
SPLINE
5
179
100
AcDbEntity
8
1
62
256
6
ByLayer
370
18
48
1
60
0
100
AcDbSpline
70
4
71
3
72
8
73
4
40
0
40
0
40
0
40
0
40
1
40
1
40
1
40
1
41
1
10
32.0112319602133
20
0.939149867955479
30
0
41
1
10
32.0070372344252
20
0.930711919448811
30
0
41
1
10
32.0022314278647
20
0.922734991656682
30
0
41
1
10
31.9969480081898
20
0.915116887948216
30
0
0
SPLINE
5
17A
100
AcDbEntity
8
1
62
256
6
ByLayer
370
18
48
1
60
0
100
AcDbSpline
70
4
71
3
72
92
73
88
40
0
40
0
40
0
40
0
40
0.0060572017878673
40
0.0060572017878673
40
0.0432181084427632
40
0.0432181084427632
40
0.0617985617702112
40
0.0617985617702112
40
0.0803790150976591
40
0.0803790150976591
40
0.117539921752555
40
0.117539921752555
40
0.136120375080004
40
0.136120375080004
40
0.145410601743728
40
0.145410601743728
40
0.154700828407451
40
0.154700828407451
40
0.173281281734898
40
0.173281281734898
40
0.191861735062345
40
0.191861735062345
40
0.229022641717238
40
0.229022641717238
40
0.266183548372132
40
0.266183548372132
40
0.275473775035856
40
0.275473775035856
40
0.284764001699579
40
0.284764001699579
40
0.303344455027028
40
0.303344455027028
40
0.340505361681927
40
0.340505361681927
40
0.377666268336825
40
0.377666268336825
40
0.414827174991723
40
0.414827174991723
40
0.433407628319172
40
0.433407628319172
40
0.451988081646621
40
0.451988081646621
40
0.47056853497407
40
0.47056853497407
40
0.48914898830152
40
0.48914898830152
40
0.507729441628969
40
0.507729441628969
40
0.526309894956418
40
0.526309894956418
40
0.544890348283867
40
0.544890348283867
40
0.563470801611316
40
0.563470801611316
40
0.600631708266215
40
0.600631708266215
40
0.619212161593664
40
0.619212161593664
40
0.628502388257388
40
0.628502388257388
40
0.637792614921113
40
0.637792614921113
40
0.674953521576016
40
0.674953521576016
40
0.712114428230919
40
0.712114428230919
40
0.749275334885822
40
0.749275334885822
40
0.767855788213275
40
0.767855788213275
40
0.777146014877002
40
0.777146014877002
40
0.786436241540729
40
0.786436241540729
40
0.823597148195644
40
0.823597148195644
40
0.860758054850558
40
0.860758054850558
40
0.897918961505472
40
0.897918961505472
40
0.916499414832928
40
0.916499414832928
40
0.935079868160383
40
0.935079868160383
40
0.972240774815295
40
0.972240774815295
40
1
40
1
40
1
40
1
41
1
10
28.5075013015395
20
-1.12844900624549
30
0
41
1
10
28.4957456614029
20
-1.1284495847097
30
0
41
1
10
28.4839959732499
20
-1.12834235976354
30
0
41
1
10
28.4002947277998
20
-1.12680528733927
30
0
41
1
10
28.3289068829072
20
-1.12143300164314
30
0
41
1
10
28.2221462554993
20
-1.10748174328899
30
0
41
1
10
28.186613196412
20
-1.10184717239403
30
0
41
1
10
28.1154155365435
20
-1.08870476045982
30
0
41
1
10
28.0797571341507
20
-1.08120097031977
30
0
41
1
10
27.9728351927346
20
-1.0558194830711
30
0
41
1
10
27.9015780906803
20
-1.03507861192728
30
0
41
1
10
27.7942737544392
20
-0.998272898349342
30
0
41
1
10
27.7584342891147
20
-0.985055178552557
30
0
41
1
10
27.7044834787645
20
-0.963826494665568
30
0
41
1
10
27.6864659489308
20
-0.956515246292923
30
0
41
1
10
27.6505336249448
20
-0.941509909163415
30
0
41
1
10
27.6325964851378
20
-0.93380673916468
30
0
41
1
10
27.5788379094334
20
-0.910128348840743
30
0
41
1
10
27.543051724947
20
-0.893598507661153
30
0
41
1
10
27.4715308136934
20
-0.859133554881623
30
0
41
1
10
27.4358350269888
20
-0.841166664020221
30
0
41
1
10
27.328996114586
20
-0.785019618254239
30
0
41
1
10
27.2580588744571
20
-0.744622050298744
30
0
41
1
10
27.1159003637249
20
-0.658669701898475
30
0
41
1
10
27.044566926312
20
-0.613237029085241
30
0
41
1
10
26.9547153182546
20
-0.553757675371656
30
0
41
1
10
26.9367132833743
20
-0.541724417160708
30
0
41
1
10
26.9006524961625
20
-0.517372033427364
30
0
41
1
10
26.8825725286235
20
-0.505037918632638
30
0
41
1
10
26.8284842696802
20
-0.467756388855008
30
0
41
1
10
26.7925846410086
20
-0.442509576667931
30
0
41
1
10
26.6852103458708
20
-0.365787691517028
30
0
41
1
10
26.6140758655334
20
-0.31331106211735
30
0
41
1
10
26.471886895772
20
-0.206757727861799
30
0
41
1
10
26.4007536061387
20
-0.152785447688331
30
0
41
1
10
26.2581577518466
20
-0.0437803295498043
30
0
41
1
10
26.1867472695522
20
0.0113232301295341
30
0
41
1
10
26.0789890102515
20
0.0942901667235958
30
0
41
1
10
26.0429340759286
20
0.122021866589734
30
0
41
1
10
25.9710028523977
20
0.176990164080564
30
0
41
1
10
25.9350530919789
20
0.204264044588996
30
0
41
1
10
25.8630803719175
20
0.258263115180625
30
0
41
1
10
25.8270618183666
20
0.284994618662921
30
0
41
1
10
25.7550466404145
20
0.338030760900125
30
0
41
1
10
25.7190264674408
20
0.364305291915144
30
0
41
1
10
25.64690568384
20
0.416292743653827
30
0
41
1
10
25.6109044781885
20
0.44193491678638
30
0
41
1
10
25.5392251677651
20
0.492196130817035
30
0
41
1
10
25.5035022018428
20
0.516849688749659
30
0
41
1
10
25.4321834578604
20
0.565091753411934
30
0
41
1
10
25.396574930395
20
0.588664973206505
30
0
41
1
10
25.3253116919801
20
0.63457020127359
30
0
41
1
10
25.2896891505866
20
0.656939851538766
30
0
41
1
10
25.182938705413
20
0.722397104681733
30
0
41
1
10
25.1117947802313
20
0.7636900204661
30
0
41
1
10
25.0047148109454
20
0.821651001023412
30
0
41
1
10
24.9689597452291
20
0.840306537585832
30
0
41
1
10
24.9151649347793
20
0.867214190662253
30
0
41
1
10
24.8972066206064
20
0.876004419097882
30
0
41
1
10
24.8612233224021
20
0.893212499471758
30
0
41
1
10
24.8431828505836
20
0.901636075434681
30
0
41
1
10
24.7531852098638
20
0.942570355772659
30
0
41
1
10
24.6814637838185
20
0.971651141252835
30
0
41
1
10
24.5388638796649
20
1.02292277636963
30
0
41
1
10
24.4679210312839
20
1.04503564536711
30
0
41
1
10
24.325819022361
20
1.08171576698976
30
0
41
1
10
24.2545416767031
20
1.09624875654899
30
0
41
1
10
24.147040497881
20
1.11224154773038
30
0
41
1
10
24.1111226302691
20
1.11660691269276
30
0
41
1
10
24.0571124935163
20
1.12167267536105
30
0
41
1
10
24.0390621353725
20
1.12311481110419
30
0
41
1
10
24.0030249878396
20
1.12548713527045
30
0
41
1
10
23.9850434937558
20
1.12641777488923
30
0
41
1
10
23.8952913660811
20
1.12980090918504
30
0
41
1
10
23.8240003912186
20
1.12843993921891
30
0
41
1
10
23.6816171893463
20
1.11781304740143
30
0
41
1
10
23.6104682954564
20
1.10857386824006
30
0
41
1
10
23.4680742822752
20
1.0823288925564
30
0
41
1
10
23.3968454404183
20
1.0653042539567
30
0
41
1
10
23.2894705317944
20
1.03392963444017
30
0
41
1
10
23.253584717371
20
1.02248974913991
30
0
41
1
10
23.1814738720815
20
0.997759404760586
30
0
41
1
10
23.145510819706
20
0.984552390978678
30
0
41
1
10
23.0378481214922
20
0.942505861984642
30
0
41
1
10
22.9665012499933
20
0.911155457822929
30
0
41
1
10
22.8421792981392
20
0.850977802076727
30
0
41
1
10
22.7891328098013
20
0.823506717487334
30
0
41
1
10
22.7360349298153
20
0.794434674181701
30
0
0
SPLINE
5
17B
100
AcDbEntity
8
1
62
256
6
ByLayer
370
18
48
1
60
0
100
AcDbSpline
70
4
71
3
72
110
73
106
40
0
40
0
40
0
40
0
40
0.0322390521673675
40
0.0322390521673675
40
0.053365516353192
40
0.053365516353192
40
0.0639287484461043
40
0.0639287484461043
40
0.0744919805390166
40
0.0744919805390166
40
0.0850552126319288
40
0.0850552126319288
40
0.0956184447248411
40
0.0956184447248411
40
0.106181676817753
40
0.106181676817753
40
0.116744908910666
40
0.116744908910666
40
0.158997837282313
40
0.158997837282313
40
0.169561069375224
40
0.169561069375224
40
0.180124301468136
40
0.180124301468136
40
0.201250765653959
40
0.201250765653959
40
0.243503694025608
40
0.243503694025608
40
0.264630158211433
40
0.264630158211433
40
0.285756622397257
40
0.285756622397257
40
0.328009550768904
40
0.328009550768904
40
0.349136014954729
40
0.349136014954729
40
0.370262479140553
40
0.370262479140553
40
0.391388943326378
40
0.391388943326378
40
0.40195217541929
40
0.40195217541929
40
0.412515407512202
40
0.412515407512202
40
0.433641871698029
40
0.433641871698029
40
0.454768335883856
40
0.454768335883856
40
0.465331567976769
40
0.465331567976769
40
0.475894800069682
40
0.475894800069682
40
0.497021264255507
40
0.497021264255507
40
0.518147728441331
40
0.518147728441331
40
0.539274192627156
40
0.539274192627156
40
0.56040065681298
40
0.56040065681298
40
0.581527120998805
40
0.581527120998805
40
0.623780049370454
40
0.623780049370454
40
0.644906513556279
40
0.644906513556279
40
0.666032977742105
40
0.666032977742105
40
0.676596209835017
40
0.676596209835017
40
0.687159441927928
40
0.687159441927928
40
0.708285906113752
40
0.708285906113752
40
0.729412370299575
40
0.729412370299575
40
0.739975602392487
40
0.739975602392487
40
0.750538834485398
40
0.750538834485398
40
0.792791762857038
40
0.792791762857038
40
0.813918227042857
40
0.813918227042857
40
0.835044691228675
40
0.835044691228675
40
0.856171155414494
40
0.856171155414494
40
0.877297619600313
40
0.877297619600313
40
0.919550547971951
40
0.919550547971951
40
0.930113780064861
40
0.930113780064861
40
0.940677012157771
40
0.940677012157771
40
0.951240244250681
40
0.951240244250681
40
0.961803476343591
40
0.961803476343591
40
0.972366708436501
40
0.972366708436501
40
0.982929940529411
40
0.982929940529411
40
1
40
1
40
1
40
1
41
1
10
21.5732345516642
20
1.1284519530324
30
0
41
1
10
21.6353254187558
20
1.12845873216568
30
0
41
1
10
21.6972579539523
20
1.12544496585002
30
0
41
1
10
21.7996844443775
20
1.11560212991179
30
0
41
1
10
21.840190473184
20
1.11043919458126
30
0
41
1
10
21.9009363194254
20
1.10079506677607
30
0
41
1
10
21.9211887305462
20
1.09726484119381
30
0
41
1
10
21.9617498635562
20
1.08958848696503
30
0
41
1
10
21.9820808689946
20
1.08545226165109
30
0
41
1
10
22.022605256273
20
1.07648811031976
30
0
41
1
10
22.0427829062466
20
1.07164821403867
30
0
41
1
10
22.0833814003235
20
1.06141614917556
30
0
41
1
10
22.1037752929193
20
1.0560168286296
30
0
41
1
10
22.1446626013112
20
1.04461900246579
30
0
41
1
10
22.1651480188092
20
1.03861603383021
30
0
41
1
10
22.2061706695613
20
1.02597826958129
30
0
41
1
10
22.2267421983992
20
1.01933715201903
30
0
41
1
10
22.3294387543634
20
0.984692015909047
30
0
41
1
10
22.4108719288941
20
0.952479358401234
30
0
41
1
10
22.5122253560054
20
0.907028877541393
30
0
41
1
10
22.5324626070222
20
0.8976704873252
30
0
41
1
10
22.572840062836
20
0.878387726519151
30
0
41
1
10
22.5929995910914
20
0.868477638868114
30
0
41
1
10
22.6536752559742
20
0.838189935847623
30
0
41
1
10
22.6942105061583
20
0.817109507647245
30
0
41
1
10
22.8159637339016
20
0.751138325700282
30
0
41
1
10
22.8974336870537
20
0.703633977527687
30
0
41
1
10
23.0200632827485
20
0.626851050854157
30
0
41
1
10
23.061155493037
20
0.600302558553523
30
0
41
1
10
23.1427946197308
20
0.546016342106043
30
0
41
1
10
23.1833401679824
20
0.518157308472894
30
0
41
1
10
23.3054664172048
20
0.434034317945105
30
0
41
1
10
23.3867542060125
20
0.376308059717758
30
0
41
1
10
23.5084321237178
20
0.28721931358632
30
0
41
1
10
23.5489459066688
20
0.257099913259452
30
0
41
1
10
23.6299631047487
20
0.196104911362653
30
0
41
1
10
23.6704646421964
20
0.165225676940338
30
0
41
1
10
23.7517611291844
20
0.103097374644307
30
0
41
1
10
23.7925986391465
20
0.0719065163684718
30
0
41
1
10
23.8541577008136
20
0.02495366751603
30
0
41
1
10
23.8747524087429
20
0.0092522781672244
30
0
41
1
10
23.9158265861319
20
-0.0220652720646797
30
0
41
1
10
23.9363198953464
20
-0.0376952500193397
30
0
41
1
10
23.9976706138176
20
-0.0844979564560049
30
0
41
1
10
24.0384071518345
20
-0.115572191564496
30
0
41
1
10
24.1196424424629
20
-0.177350532431916
30
0
41
1
10
24.160165048994
20
-0.208024348237132
30
0
41
1
10
24.2206737917998
20
-0.253879471653988
30
0
41
1
10
24.2407583842495
20
-0.26918823077267
30
0
41
1
10
24.2810354425225
20
-0.299494905312855
30
0
41
1
10
24.3013074274124
20
-0.314392327801897
30
0
41
1
10
24.3621457176506
20
-0.358806785192229
30
0
41
1
10
24.4026553715461
20
-0.388141883235846
30
0
41
1
10
24.4840127479557
20
-0.445715445331587
30
0
41
1
10
24.5248132413474
20
-0.474015094032296
30
0
41
1
10
24.6065237862994
20
-0.5297934096902
30
0
41
1
10
24.6474526738664
20
-0.557248728719259
30
0
41
1
10
24.7294662883895
20
-0.611252834164048
30
0
41
1
10
24.7701590344431
20
-0.637628994401922
30
0
41
1
10
24.8515454276706
20
-0.688385302939849
30
0
41
1
10
24.8922651077208
20
-0.712760827404225
30
0
41
1
10
25.0142010983503
20
-0.783290433542049
30
0
41
1
10
25.0952430297268
20
-0.826793398861668
30
0
41
1
10
25.2167866956225
20
-0.886436743025683
30
0
41
1
10
25.2573357548474
20
-0.905349766532424
30
0
41
1
10
25.338457841164
20
-0.94124345459511
30
0
41
1
10
25.378985648568
20
-0.958249788189363
30
0
41
1
10
25.4401856466879
20
-0.981996601918183
30
0
41
1
10
25.46064956396
20
-0.989623166134891
30
0
41
1
10
25.5016882798343
20
-1.00430976718275
30
0
41
1
10
25.5222811457408
20
-1.01137711976793
30
0
41
1
10
25.5838770436426
20
-1.03162717464625
30
0
41
1
10
25.6247986339708
20
-1.04389099345224
30
0
41
1
10
25.7063497784045
20
-1.06599397384375
30
0
41
1
10
25.7469609974035
20
-1.07583928151021
30
0
41
1
10
25.8077255855263
20
-1.08875598362923
30
0
41
1
10
25.8279626372553
20
-1.09275080576592
30
0
41
1
10
25.8683552165059
20
-1.10013063795117
30
0
41
1
10
25.8884614126826
20
-1.10352768915604
30
0
41
1
10
25.9893759736269
20
-1.11881010779618
30
0
41
1
10
26.0706664436869
20
-1.12586162954631
30
0
41
1
10
26.1929966480082
20
-1.12886410996154
30
0
41
1
10
26.2338552594053
20
-1.12859004597198
30
0
41
1
10
26.3157479311012
20
-1.12541996380494
30
0
41
1
10
26.3568389815484
20
-1.12250473087894
30
0
41
1
10
26.438481637579
20
-1.11408575980857
30
0
41
1
10
26.4791348541513
20
-1.10858119480909
30
0
41
1
10
26.5604483494866
20
-1.09513098687648
30
0
41
1
10
26.601089270346
20
-1.08718628900573
30
0
41
1
10
26.7229078693405
20
-1.05974928212422
30
0
41
1
10
26.8038927095001
20
-1.03662319824576
30
0
41
1
10
26.9051636644421
20
-1.00171669890557
30
0
41
1
10
26.925420617064
20
-0.994435368239692
30
0
41
1
10
26.9659086981321
20
-0.979242718830619
30
0
41
1
10
26.9861234391068
20
-0.971319828443768
30
0
41
1
10
27.0265767929869
20
-0.954861164499647
30
0
41
1
10
27.0469021520422
20
-0.946386224622785
30
0
41
1
10
27.0878061624781
20
-0.929006028747551
30
0
41
1
10
27.1083009191479
20
-0.920038454342375
30
0
41
1
10
27.1493435240436
20
-0.901515100483124
30
0
41
1
10
27.1699133037161
20
-0.891965585469023
30
0
41
1
10
27.2110205346021
20
-0.872428117987681
30
0
41
1
10
27.231576039929
20
-0.86242906011617
30
0
41
1
10
27.2853237375807
20
-0.835649416665177
30
0
41
1
10
27.3184890384695
20
-0.818476372535912
30
0
41
1
10
27.3516114444143
20
-0.800663258690378
30
0
0
SPLINE
5
17C
100
AcDbEntity
8
1
62
256
6
ByLayer
370
18
48
1
60
0
100
AcDbSpline
70
4
71
3
72
8
73
4
40
0
40
0
40
0
40
0
40
1
40
1
40
1
40
1
41
1
10
30.8120448289466
20
1.25736164044767
30
0
41
1
10
30.8420958903341
20
1.30765734576394
30
0
41
1
10
30.8717998401992
20
1.35698031716794
30
0
41
1
10
30.9013417327068
20
1.40557684561961
30
0
0
SPLINE
5
17D
100
AcDbEntity
8
1
62
256
6
ByLayer
370
18
48
1
60
0
100
AcDbSpline
70
4
71
3
72
14
73
10
40
0
40
0
40
0
40
0
40
0.25
40
0.25
40
0.5
40
0.5
40
0.75
40
0.75
40
1
40
1
40
1
40
1
41
1
10
30.9013417327007
20
1.40557684562572
30
0
41
1
10
30.9268020368817
20
1.40887846408725
30
0
41
1
10
30.9523144363745
20
1.41159017596914
30
0
41
1
10
31.0032407476523
20
1.41578054037385
30
0
41
1
10
31.0286933622506
20
1.41726486067347
30
0
41
1
10
31.0796364288907
20
1.41900040591778
30
0
41
1
10
31.1051229927871
20
1.41925113325036
30
0
41
1
10
31.1561323712939
20
1.41848799870397
30
0
41
1
10
31.1817043949118
20
1.4174695918197
30
0
41
1
10
31.2071118279765
20
1.41581153481911
30
0
0
SPLINE
5
17E
100
AcDbEntity
8
1
62
256
6
ByLayer
370
18
48
1
60
0
100
AcDbSpline
70
4
71
3
72
8
73
4
40
0
40
0
40
0
40
0
40
1
40
1
40
1
40
1
41
1
10
31.2071118279736
20
1.41581153481502
30
0
41
1
10
31.2471875045125
20
1.34330410544047
30
0
41
1
10
31.2877563979664
20
1.26858068743013
30
0
41
1
10
31.3289048065349
20
1.19216152180235
30
0
0
SPLINE
5
17F
100
AcDbEntity
8
1
62
256
6
ByLayer
370
18
48
1
60
0
100
AcDbSpline
70
4
71
3
72
26
73
22
40
0
40
0
40
0
40
0
40
0.125
40
0.125
40
0.25
40
0.25
40
0.375
40
0.375
40
0.5
40
0.5
40
0.624999999999999
40
0.624999999999999
40
0.749999999999999
40
0.749999999999999
40
0.812499999999999
40
0.812499999999999
40
0.875
40
0.875
40
0.9375
40
0.9375
40
1
40
1
40
1
40
1
41
1
10
31.3289048065349
20
1.19216152180235
30
0
41
1
10
31.3335083850286
20
1.18361194140249
30
0
41
1
10
31.3388419418406
20
1.17593639408187
30
0
41
1
10
31.3505987012146
20
1.1618717612856
30
0
41
1
10
31.3570819490373
20
1.15546332395391
30
0
41
1
10
31.3705576814595
20
1.14421707729034
30
0
41
1
10
31.3775956563865
20
1.13931621689352
30
0
41
1
10
31.3922127602593
20
1.13087115156714
30
0
41
1
10
31.3998536209197
20
1.12731461159731
30
0
41
1
10
31.4151628554172
20
1.12185424771991
30
0
41
1
10
31.4228736211751
20
1.11991171970229
30
0
41
1
10
31.4383787293986
20
1.1177795193029
30
0
41
1
10
31.4462627821091
20
1.11760219443795
30
0
41
1
10
31.4576527226765
20
1.11901127143122
30
0
41
1
10
31.46138498353
20
1.11975652813425
30
0
41
1
10
31.4686967051816
20
1.12187923509876
30
0
41
1
10
31.4723032261638
20
1.12327123294381
30
0
41
1
10
31.4791578005223
20
1.12673938848158
30
0
41
1
10
31.4824094196059
20
1.12880876454523
30
0
41
1
10
31.4885034821018
20
1.13372753845377
30
0
41
1
10
31.4913633081764
20
1.13660124950763
30
0
41
1
10
31.4939027376401
20
1.13988051204643
30
0
0
SPLINE
5
180
100
AcDbEntity
8
1
62
256
6
ByLayer
370
18
48
1
60
0
100
AcDbSpline
70
4
71
3
72
10
73
6
40
0
40
0
40
0
40
0
40
0.5
40
0.5
40
1
40
1
40
1
40
1
41
1
10
31.4939027376401
20
1.13988051204652
30
0
41
1
10
31.519751045936
20
1.17325942266262
30
0
41
1
10
31.5453718799434
20
1.2050989430966
30
0
41
1
10
31.5962915408529
20
1.26581461676221
30
0
41
1
10
31.6216148968841
20
1.29469801816887
30
0
41
1
10
31.6466728078239
20
1.32191272862247
30
0
0
SPLINE
5
181
100
AcDbEntity
8
1
62
256
6
ByLayer
370
18
48
1
60
0
100
AcDbSpline
70
4
71
3
72
8
73
4
40
0
40
0
40
0
40
0
40
1
40
1
40
1
40
1
41
1
10
31.6466728078183
20
1.3219127286317
30
0
41
1
10
31.708938027245
20
1.29947036726793
30
0
41
1
10
31.7710570372631
20
1.27317038890001
30
0
41
1
10
31.833189253069
20
1.24288646049393
30
0
0
SPLINE
5
182
100
AcDbEntity
8
1
62
256
6
ByLayer
370
18
48
1
60
0
100
AcDbSpline
70
4
71
3
72
12
73
8
40
0
40
0
40
0
40
0
40
0.500000000000001
40
0.500000000000001
40
0.750000000000001
40
0.750000000000001
40
1
40
1
40
1
40
1
41
1
10
31.8331892530693
20
1.24288646049428
30
0
41
1
10
31.8621967170557
20
1.18331812752396
30
0
41
1
10
31.8915203550479
20
1.12361348432944
30
0
41
1
10
31.9358832958306
20
1.03443000839536
30
0
41
1
10
31.9507455570787
20
1.00473599278513
30
0
41
1
10
31.9806294566285
20
0.945625369595831
30
0
41
1
10
31.9956645051494
20
0.916203890893684
30
0
41
1
10
32.0107903666833
20
0.886907207674483
30
0
0
SPLINE
5
183
100
AcDbEntity
8
1
62
256
6
ByLayer
370
18
48
1
60
0
100
AcDbSpline
70
4
71
3
72
26
73
22
40
0
40
0
40
0
40
0
40
0.125
40
0.125
40
0.25
40
0.25
40
0.374999999999999
40
0.374999999999999
40
0.499999999999999
40
0.499999999999999
40
0.624999999999999
40
0.624999999999999
40
0.749999999999999
40
0.749999999999999
40
0.812499999999999
40
0.812499999999999
40
0.874999999999999
40
0.874999999999999
40
0.9375
40
0.9375
40
1
40
1
40
1
40
1
41
1
10
32.0107903666833
20
0.886907207674454
30
0
41
1
10
32.0153968349198
20
0.877985121459346
30
0
41
1
10
32.0207364180564
20
0.869556464395117
30
0
41
1
10
32.0325086784329
20
0.853434874498163
30
0
41
1
10
32.0390023729677
20
0.845703255366629
30
0
41
1
10
32.0524967845159
20
0.831419821714775
30
0
41
1
10
32.0595430127325
20
0.824797693157564
30
0
41
1
10
32.0741728689796
20
0.812513115115792
30
0
41
1
10
32.0818169874131
20
0.806819370901678
30
0
41
1
10
32.0971253293519
20
0.796787310554151
30
0
41
1
10
32.1048337255908
20
0.792400544008586
30
0
41
1
10
32.1203305317176
20
0.785002729757565
30
0
41
1
10
32.128205777771
20
0.781970509389055
30
0
41
1
10
32.1395743938102
20
0.778896110156069
30
0
41
1
10
32.1432997185848
20
0.778110570349014
30
0
41
1
10
32.1505981260629
20
0.777086178418244
30
0
41
1
10
32.1541979373628
20
0.776848879281147
30
0
41
1
10
32.1610365249608
20
0.777032035730599
30
0
41
1
10
32.1642810658237
20
0.77744579742162
30
0
41
1
10
32.1703630042573
20
0.779023126479075
30
0
41
1
10
32.1732175008186
20
0.780199022860984
30
0
41
1
10
32.1757526533626
20
0.781805342532607
30
0
0
SPLINE
5
184
100
AcDbEntity
8
1
62
256
6
ByLayer
370
18
48
1
60
0
100
AcDbSpline
70
4
71
3
72
12
73
8
40
0
40
0
40
0
40
0
40
0.249999999999995
40
0.249999999999995
40
0.499999999999991
40
0.499999999999991
40
1
40
1
40
1
40
1
41
1
10
32.4594723295471
20
0.814420793970356
30
0
41
1
10
32.4783759436118
20
0.777075322028224
30
0
41
1
10
32.4973400444029
20
0.740181421298928
30
0
41
1
10
32.5355818338359
20
0.667587074858034
30
0
41
1
10
32.5548808324859
20
0.631859267962255
30
0
41
1
10
32.6132031984441
20
0.526742382260181
30
0
41
1
10
32.6526233408209
20
0.459393183459184
30
0
41
1
10
32.6925786426391
20
0.395303415249373
30
0
0
SPLINE
5
185
100
AcDbEntity
8
1
62
256
6
ByLayer
370
18
48
1
60
0
100
AcDbSpline
70
4
71
3
72
26
73
22
40
0
40
0
40
0
40
0
40
0.125
40
0.125
40
0.25
40
0.25
40
0.375
40
0.375
40
0.5
40
0.5
40
0.625
40
0.625
40
0.75
40
0.75
40
0.8125
40
0.8125
40
0.875
40
0.875
40
0.9375
40
0.9375
40
1
40
1
40
1
40
1
41
1
10
32.6925786426391
20
0.395303415249373
30
0
41
1
10
32.6971905171092
20
0.387905799605022
30
0
41
1
10
32.7025369413238
20
0.380512569819785
30
0
41
1
10
32.7143245891284
20
0.36574978180181
30
0
41
1
10
32.7208273796032
20
0.358330663260517
30
0
41
1
10
32.7343386965233
20
0.344026643444181
30
0
41
1
10
32.7413928701041
20
0.337079021737708
30
0
41
1
10
32.7560363507435
20
0.32353972076146
30
0
41
1
10
32.763685160005
20
0.316904454514031
30
0
41
1
10
32.778996732389
20
0.30440358842867
30
0
41
1
10
32.7867048568217
20
0.298489701207302
30
0
41
1
10
32.8021961790343
20
0.287366655813287
30
0
41
1
10
32.8100636733493
20
0.282107874289409
30
0
41
1
10
32.8214150260919
20
0.275183673921106
30
0
41
1
10
32.8251345473389
20
0.273027796205952
30
0
41
1
10
32.832421518678
20
0.269061302407181
30
0
41
1
10
32.8360154719446
20
0.267238921902702
30
0
41
1
10
32.8428424589634
20
0.264089287510473
30
0
41
1
10
32.8460818482433
20
0.262755363890022
30
0
41
1
10
32.8521550420176
20
0.260648387386823
30
0
41
1
10
32.8550059863131
20
0.25987316025055
30
0
41
1
10
32.8575392137981
20
0.259462970576067
30
0
0
SPLINE
5
186
100
AcDbEntity
8
1
62
256
6
ByLayer
370
18
48
1
60
0
100
AcDbSpline
70
4
71
3
72
10
73
6
40
0
40
0
40
0
40
0
40
0.5
40
0.5
40
1
40
1
40
1
40
1
41
1
10
32.8575392137981
20
0.259462970576209
30
0
41
1
10
32.895615884553
20
0.253297453552506
30
0
41
1
10
32.9331915165509
20
0.242249821268274
30
0
41
1
10
33.0077276075935
20
0.210733099897283
30
0
41
1
10
33.0443811188555
20
0.190263681069865
30
0
41
1
10
33.0806731982142
20
0.165567347804483
30
0
0
SPLINE
5
187
100
AcDbEntity
8
1
62
256
6
ByLayer
370
18
48
1
60
0
100
AcDbSpline
70
4
71
3
72
8
73
4
40
0
40
0
40
0
40
0
40
1
40
1
40
1
40
1
41
1
10
33.1406931650934
20
0.0991181541060655
30
0
41
1
10
33.1206480107966
20
0.121293900254699
30
0
41
1
10
33.1006475078905
20
0.143449231257023
30
0
41
1
10
33.0806731982142
20
0.165567347804426
30
0
0
SPLINE
5
188
100
AcDbEntity
8
1
62
256
6
ByLayer
370
18
48
1
60
0
100
AcDbSpline
70
4
71
3
72
8
73
4
40
0
40
0
40
0
40
0
40
1
40
1
40
1
40
1
41
1
10
33.1406931650934
20
0.0991181541060939
30
0
41
1
10
33.2164703165242
20
-0.0110346074363576
30
0
41
1
10
33.2943574255631
20
-0.105217618325582
30
0
41
1
10
33.3743917351452
20
-0.179831957884858
30
0
0
SPLINE
5
189
100
AcDbEntity
8
1
62
256
6
ByLayer
370
18
48
1
60
0
100
AcDbSpline
70
4
71
3
72
26
73
22
40
0
40
0
40
0
40
0
40
0.125
40
0.125
40
0.25
40
0.25
40
0.375
40
0.375
40
0.5
40
0.5
40
0.625000000000001
40
0.625000000000001
40
0.750000000000001
40
0.750000000000001
40
0.8125
40
0.8125
40
0.875
40
0.875
40
0.9375
40
0.9375
40
1
40
1
40
1
40
1
41
1
10
33.3743917351452
20
-0.179831957884858
30
0
41
1
10
33.3790092346897
20
-0.184136757672889
30
0
41
1
10
33.3843633405745
20
-0.188931502828638
30
0
41
1
10
33.3961679226235
20
-0.19922056082595
30
0
41
1
10
33.4026804437485
20
-0.204764531184338
30
0
41
1
10
33.41620895104
20
-0.216082727742872
30
0
41
1
10
33.4232708532028
20
-0.221898833213032
30
0
41
1
10
33.4379265527137
20
-0.23385897521058
30
0
41
1
10
33.4455788785166
20
-0.24004989653497
30
0
41
1
10
33.4608919583739
20
-0.252412488287916
30
0
41
1
10
33.4685990282179
20
-0.258622119891754
30
0
41
1
10
33.4840841978086
20
-0.271155904471811
30
0
41
1
10
33.4919444669098
20
-0.277547184137944
30
0
41
1
10
33.5032812381122
20
-0.286878700798354
30
0
41
1
10
33.506995894584
20
-0.289955687616214
30
0
41
1
10
33.5142731173948
20
-0.296037885068074
30
0
41
1
10
33.5178620115928
20
-0.299065658065445
30
0
41
1
10
33.5246797056822
20
-0.304892550938433
30
0
41
1
10
33.5279149622971
20
-0.307696882293897
30
0
41
1
10
33.5339812214781
20
-0.313051284296734
30
0
41
1
10
33.5368295251887
20
-0.315617659894627
30
0
41
1
10
33.539361987794
20
-0.317962172333552
30
0
0
SPLINE
5
18A
100
AcDbEntity
8
1
62
256
6
ByLayer
370
18
48
1
60
0
100
AcDbSpline
70
4
71
3
72
14
73
10
40
0
40
0
40
0
40
0
40
0.25
40
0.25
40
0.5
40
0.5
40
0.75
40
0.75
40
1
40
1
40
1
40
1
41
1
10
33.5393619877939
20
-0.317962172333438
30
0
41
1
10
33.5566038934066
20
-0.333924446404353
30
0
41
1
10
33.5737339683101
20
-0.350781625627206
30
0
41
1
10
33.6078140220262
20
-0.386203852759422
30
0
41
1
10
33.6247603094808
20
-0.404803081469368
30
0
41
1
10
33.658536894838
20
-0.443443556920727
30
0
41
1
10
33.6753561935741
20
-0.463436484556155
30
0
41
1
10
33.708763690623
20
-0.504774633983118
30
0
41
1
10
33.725364108892
20
-0.526148376782089
30
0
41
1
10
33.7418815890544
20
-0.548200284202977
30
0
0
SPLINE
5
18B
100
AcDbEntity
8
1
62
256
6
ByLayer
370
18
48
1
60
0
100
AcDbSpline
70
4
71
3
72
8
73
4
40
0
40
0
40
0
40
0
40
1
40
1
40
1
40
1
41
1
10
33.7418815890544
20
-0.548200284202977
30
0
41
1
10
33.7800571513986
20
-0.585621549766785
30
0
41
1
10
33.8183485568283
20
-0.622021561557091
30
0
41
1
10
33.8567965986097
20
-0.657394008442395
30
0
0
SPLINE
5
18C
100
AcDbEntity
8
1
62
256
6
ByLayer
370
18
48
1
60
0
100
AcDbSpline
70
4
71
3
72
8
73
4
40
0
40
0
40
0
40
0
40
1
40
1
40
1
40
1
41
1
10
33.8567965986097
20
-0.657394008442395
30
0
41
1
10
33.9217620358651
20
-0.692199684604248
30
0
41
1
10
33.9882770955703
20
-0.712531290178589
30
0
41
1
10
34.0562253245789
20
-0.717269664337948
30
0
0
SPLINE
5
18D
100
AcDbEntity
8
1
62
256
6
ByLayer
370
18
48
1
60
0
100
AcDbSpline
70
4
71
3
72
26
73
22
40
0
40
0
40
0
40
0
40
0.125
40
0.125
40
0.25
40
0.25
40
0.375
40
0.375
40
0.5
40
0.5
40
0.625
40
0.625
40
0.75
40
0.75
40
0.8125
40
0.8125
40
0.875
40
0.875
40
0.9375
40
0.9375
40
1
40
1
40
1
40
1
41
1
10
34.0562253245789
20
-0.717269664337948
30
0
41
1
10
34.0608479176456
20
-0.717592021165416
30
0
41
1
10
34.066206468793
20
-0.71880137154281
30
0
41
1
10
34.0780156446376
20
-0.722498872195075
30
0
41
1
10
34.0845278359848
20
-0.725026360592665
30
0
41
1
10
34.0980509306247
20
-0.731026542683992
30
0
41
1
10
34.1051080822664
20
-0.734511601380575
30
0
41
1
10
34.1197523059911
20
-0.742417654194242
30
0
41
1
10
34.1273985228222
20
-0.746880130469378
30
0
41
1
10
34.1427053483179
20
-0.756530146660083
30
0
41
1
10
34.150411404219
20
-0.761735876494356
30
0
41
1
10
34.1658980733854
20
-0.773044695782829
30
0
41
1
10
34.17376316788
20
-0.779221326577584
30
0
41
1
10
34.1851125393004
20
-0.788990301237988
30
0
41
1
10
34.1888312625801
20
-0.792337146993674
30
0
41
1
10
34.1961160941409
20
-0.799243822462358
30
0
41
1
10
34.1997088026037
20
-0.802832411541289
30
0
41
1
10
34.2065365590704
20
-0.810095486490695
30
0
41
1
10
34.2097761429978
20
-0.813770502031872
30
0
41
1
10
34.2158494520852
20
-0.821222143246985
30
0
41
1
10
34.2187007619727
20
-0.825025801907401
30
0
41
1
10
34.2212363670555
20
-0.828797969518661
30
0
0
SPLINE
5
18E
100
AcDbEntity
8
1
62
256
6
ByLayer
370
18
48
1
60
0
100
AcDbSpline
70
4
71
3
72
10
73
6
40
0
40
0
40
0
40
0
40
0.5
40
0.5
40
1
40
1
40
1
40
1
41
1
10
34.2212363670555
20
-0.828797969518575
30
0
41
1
10
34.244903848824
20
-0.864007596117659
30
0
41
1
10
34.2683740687351
20
-0.900183287439006
30
0
41
1
10
34.3150279456523
20
-0.974306958258694
30
0
41
1
10
34.3382431488764
20
-1.01232633587654
30
0
41
1
10
34.3612415191703
20
-1.05100769329144
30
0
0
SPLINE
5
18F
100
AcDbEntity
8
1
62
256
6
ByLayer
370
18
48
1
60
0
100
AcDbSpline
70
4
71
3
72
8
73
4
40
0
40
0
40
0
40
0
40
1
40
1
40
1
40
1
41
1
10
34.3612415191703
20
-1.05100769329144
30
0
41
1
10
34.4461995783193
20
-1.1037523049078
30
0
41
1
10
34.5312603474746
20
-1.14934709827119
30
0
41
1
10
34.6168786447092
20
-1.18782754758985
30
0
0
SPLINE
5
190
100
AcDbEntity
8
1
62
256
6
ByLayer
370
18
48
1
60
0
100
AcDbSpline
70
4
71
3
72
10
73
6
40
0
40
0
40
0
40
0
40
0.5
40
0.5
40
1
40
1
40
1
40
1
41
1
10
34.6168786447093
20
-1.18782754759016
30
0
41
1
10
34.6368357748311
20
-1.17636905007359
30
0
41
1
10
34.6569125201254
20
-1.16364071563871
30
0
41
1
10
34.6973192773371
20
-1.13569593116341
30
0
41
1
10
34.7176163290655
20
-1.12051660681726
30
0
41
1
10
34.7381232481864
20
-1.10384600254622
30
0
0
SPLINE
5
191
100
AcDbEntity
8
1
62
256
6
ByLayer
370
18
48
1
60
0
100
AcDbSpline
70
4
71
3
72
26
73
22
40
0
40
0
40
0
40
0
40
0.125000000000016
40
0.125000000000016
40
0.250000000000032
40
0.250000000000032
40
0.375000000000048
40
0.375000000000048
40
0.500000000000064
40
0.500000000000064
40
0.62500000000008
40
0.62500000000008
40
0.750000000000096
40
0.750000000000096
40
0.812500000000072
40
0.812500000000072
40
0.875000000000048
40
0.875000000000048
40
0.937500000000024
40
0.937500000000024
40
1
40
1
40
1
40
1
41
1
10
34.7381232481864
20
-1.10384600254622
30
0
41
1
10
34.7427398885424
20
-1.10009301634821
30
0
41
1
10
34.7480937829655
20
-1.09742073925986
30
0
41
1
10
34.7599052447331
20
-1.09364549478391
30
0
41
1
10
34.7664253853559
20
-1.09256375327894
30
0
41
1
10
34.7799720990377
20
-1.09186650188931
30
0
41
1
10
34.7870433960204
20
-1.09223144057808
30
0
41
1
10
34.8017129511197
20
-1.09432408942578
30
0
41
1
10
34.809369014931
20
-1.09607752421166
30
0
41
1
10
34.8246833103856
20
-1.10091503729086
30
0
41
1
10
34.832389457131
20
-1.10399551756197
30
0
41
1
10
34.8478709388789
20
-1.11165978823655
30
0
41
1
10
34.8557252708231
20
-1.11630338334373
30
0
41
1
10
34.8670478139923
20
-1.1244164439334
30
0
41
1
10
34.8707579232161
20
-1.12731693327336
30
0
41
1
10
34.8780266329139
20
-1.13357190994501
30
0
41
1
10
34.8816112076435
20
-1.13695472269251
30
0
41
1
10
34.8884184528461
20
-1.14409343606693
30
0
41
1
10
34.8916491869005
20
-1.14785030638595
30
0
41
1
10
34.8977077663961
20
-1.15580087019541
30
0
41
1
10
34.9005527346135
20
-1.16002584252229
30
0
41
1
10
34.903082883326
20
-1.1644133217157
30
0
0
SPLINE
5
192
100
AcDbEntity
8
1
62
256
6
ByLayer
370
18
48
1
60
0
100
AcDbSpline
70
4
71
3
72
8
73
4
40
0
40
0
40
0
40
0
40
1
40
1
40
1
40
1
41
1
10
34.903082883326
20
-1.16441332171567
30
0
41
1
10
34.929975813404
20
-1.21104780236223
30
0
41
1
10
34.956614757921
20
-1.25784208148028
30
0
41
1
10
34.9830754366717
20
-1.30475237544368
30
0
0
SPLINE
5
193
100
AcDbEntity
8
1
62
256
6
ByLayer
370
18
48
1
60
0
100
AcDbSpline
70
4
71
3
72
16
73
12
40
0
40
0
40
0
40
0
40
0.249999999999979
40
0.249999999999979
40
0.499999999999959
40
0.499999999999959
40
0.624999999999962
40
0.624999999999962
40
0.749999999999966
40
0.749999999999966
40
1
40
1
40
1
40
1
41
1
10
34.9830754366717
20
-1.30475237544368
30
0
41
1
10
35.0156187962872
20
-1.31085345451714
30
0
41
1
10
35.048164820345
20
-1.3158406883326
30
0
41
1
10
35.1132285915397
20
-1.32364878823955
30
0
41
1
10
35.1457463602687
20
-1.32646571777772
30
0
41
1
10
35.1946793242211
20
-1.32895959657341
30
0
41
1
10
35.2110155307022
20
-1.32950414834812
30
0
41
1
10
35.2436015733895
20
-1.33008699586137
30
0
41
1
10
35.259851764005
20
-1.330122341031
30
0
41
1
10
35.3088077108713
20
-1.32928319779765
30
0
41
1
10
35.3417280370376
20
-1.32747254207703
30
0
41
1
10
35.3748046017441
20
-1.32450959387413
30
0
0
SPLINE
5
194
100
AcDbEntity
8
1
62
256
6
ByLayer
370
18
48
1
60
0
100
AcDbSpline
70
4
71
3
72
8
73
4
40
0
40
0
40
0
40
0
40
1
40
1
40
1
40
1
41
1
10
35.3748046017437
20
-1.32450959387407
30
0
41
1
10
35.389763292843
20
-1.30246393007238
30
0
41
1
10
35.4047964909474
20
-1.27993155571065
30
0
41
1
10
35.4199140172488
20
-1.25692949998134
30
0
0
SPLINE
5
195
100
AcDbEntity
8
1
62
256
6
ByLayer
370
18
48
1
60
0
100
AcDbSpline
70
4
71
3
72
26
73
22
40
0
40
0
40
0
40
0
40
0.124999999999984
40
0.124999999999984
40
0.249999999999967
40
0.249999999999967
40
0.374999999999951
40
0.374999999999951
40
0.499999999999934
40
0.499999999999934
40
0.624999999999918
40
0.624999999999918
40
0.749999999999901
40
0.749999999999901
40
0.812499999999926
40
0.812499999999926
40
0.874999999999951
40
0.874999999999951
40
0.937499999999975
40
0.937499999999975
40
1
40
1
40
1
40
1
41
1
10
35.4199140172488
20
-1.25692949998134
30
0
41
1
10
35.4245372099464
20
-1.24989508615388
30
0
41
1
10
35.429899918849
20
-1.24392756759224
30
0
41
1
10
35.4417247878816
20
-1.23355019807187
30
0
41
1
10
35.4482505282539
20
-1.22913759420055
30
0
41
1
10
35.4618034919905
20
-1.22199028942495
30
0
41
1
10
35.4688765950832
20
-1.21920652045352
30
0
41
1
10
35.4835520270506
20
-1.21512684433435
30
0
41
1
10
35.4912109644237
20
-1.2138383614718
30
0
41
1
10
35.5065276433561
20
-1.21290791339172
30
0
41
1
10
35.5142341330928
20
-1.21323969879012
30
0
41
1
10
35.5297123175853
20
-1.21568551451202
30
0
41
1
10
35.5375606020405
20
-1.21783686146924
30
0
41
1
10
35.5488661814638
20
-1.22261083574642
30
0
41
1
10
35.552570085595
20
-1.22446068977544
30
0
41
1
10
35.5598253941611
20
-1.22875509726373
30
0
41
1
10
35.5634025621796
20
-1.23122191863362
30
0
41
1
10
35.5701943810402
20
-1.2367378956022
30
0
41
1
10
35.5734174411216
20
-1.23978492624872
30
0
41
1
10
35.5794613524036
20
-1.24655115548046
30
0
41
1
10
35.5822993989999
20
-1.25029960391709
30
0
41
1
10
35.584824770346
20
-1.25436905508499
30
0
0
SPLINE
5
196
100
AcDbEntity
8
1
62
256
6
ByLayer
370
18
48
1
60
0
100
AcDbSpline
70
4
71
3
72
8
73
4
40
0
40
0
40
0
40
0
40
1
40
1
40
1
40
1
41
1
10
35.584824770346
20
-1.25436905508499
30
0
41
1
10
35.5914088515459
20
-1.26497882024702
30
0
41
1
10
35.5979768860777
20
-1.27552850193334
30
0
41
1
10
35.6045309259526
20
-1.2860216999731
30
0
0
SPLINE
5
197
100
AcDbEntity
8
1
62
256
6
ByLayer
370
18
48
1
60
0
100
AcDbSpline
70
4
71
3
72
12
73
8
40
0
40
0
40
0
40
0
40
0.499999999999983
40
0.499999999999983
40
0.749999999999991
40
0.749999999999991
40
1
40
1
40
1
40
1
41
1
10
35.6045309259534
20
-1.28602169997231
30
0
41
1
10
35.6580091973609
20
-1.27300104681939
30
0
41
1
10
35.7113630769468
20
-1.25725612370837
30
0
41
1
10
35.7913205108879
20
-1.22970348803801
30
0
41
1
10
35.8179528003926
20
-1.21986107467353
30
0
41
1
10
35.8713677616456
20
-1.19887766570145
30
0
41
1
10
35.8981727730732
20
-1.18773832324254
30
0
41
1
10
35.9250936834153
20
-1.17597138867703
30
0
0
SPLINE
5
198
100
AcDbEntity
8
1
62
256
6
ByLayer
370
18
48
1
60
0
100
AcDbSpline
70
4
71
3
72
24
73
20
40
0
40
0
40
0
40
0
40
0.0624999999999999
40
0.0624999999999999
40
0.125
40
0.125
40
0.25
40
0.25
40
0.375
40
0.375
40
0.5
40
0.5
40
0.625
40
0.625
40
0.75
40
0.75
40
0.875
40
0.875
40
1
40
1
40
1
40
1
41
1
10
36.27
20
-0.793453978089246
30
0
41
1
10
36.262198800518
20
-0.799839997644426
30
0
41
1
10
36.2543965779988
20
-0.806293862297196
30
0
41
1
10
36.2387951649151
20
-0.819601416778227
30
0
41
1
10
36.2309967460682
20
-0.826506754863601
30
0
41
1
10
36.207608251659
20
-0.847889707143054
30
0
41
1
10
36.1920255178593
20
-0.862996175556702
30
0
41
1
10
36.1608377446868
20
-0.894618516693299
30
0
41
1
10
36.1455760444538
20
-0.910786009335169
30
0
41
1
10
36.1155987128865
20
-0.943560003801878
30
0
41
1
10
36.1008711675941
20
-0.960183218870554
30
0
41
1
10
36.071813444367
20
-0.9937891107665
30
0
41
1
10
36.0574442265801
20
-1.01082651882837
30
0
41
1
10
36.0295155639217
20
-1.04453827853169
30
0
41
1
10
36.0158885810675
20
-1.06128683420252
30
0
41
1
10
35.9891860354791
20
-1.09452688984504
30
0
41
1
10
35.9761199855162
20
-1.11101711025933
30
0
41
1
10
35.9504423293131
20
-1.14369700641782
30
0
41
1
10
35.9377728208476
20
-1.15989451133305
30
0
41
1
10
35.9250936834139
20
-1.1759713886687
30
0
0
SPLINE
5
199
100
AcDbEntity
8
1
62
256
6
ByLayer
370
18
48
1
60
0
100
AcDbSpline
70
4
71
3
72
25
73
21
40
0
40
0
40
0
40
0
40
0.0312500000000001
40
0.0312500000000001
40
0.0625000000000002
40
0.0625000000000002
40
0.0937500000000004
40
0.0937500000000004
40
0.125000000000001
40
0.25
40
0.25
40
0.5
40
0.5
40
0.625
40
0.625
40
0.75
40
0.75
40
0.875
40
0.875
40
1
40
1
40
1
40
1
41
1
10
36.27
20
-0.520367154094458
30
0
41
1
10
36.27
20
-0.51891506126529
30
0
41
1
10
36.27
20
-0.517952770464319
30
0
41
1
10
36.27
20
-0.517042264151314
30
0
41
1
10
36.27
20
-0.517101061618774
30
0
41
1
10
36.27
20
-0.518314849049887
30
0
41
1
10
36.27
20
-0.519340326277671
30
0
41
1
10
36.27
20
-0.521305583818787
30
0
41
1
10
36.27
20
-0.526526777553471
30
0
41
1
10
36.27
20
-0.533708815132627
30
0
41
1
10
36.27
20
-0.554485182202143
30
0
41
1
10
36.27
20
-0.573103978975553
30
0
41
1
10
36.27
20
-0.608332473482761
30
0
41
1
10
36.27
20
-0.621291181408992
30
0
41
1
10
36.27
20
-0.649503265671058
30
0
41
1
10
36.27
20
-0.664771451988514
30
0
41
1
10
36.27
20
-0.69764683154753
30
0
41
1
10
36.27
20
-0.715277449358183
30
0
41
1
10
36.27
20
-0.752721121428181
30
0
41
1
10
36.27
20
-0.772586464083162
30
0
41
1
10
36.27
20
-0.793453978088877
30
0
0
SPLINE
5
19A
100
AcDbEntity
8
1
62
256
6
ByLayer
370
18
48
1
60
0
100
AcDbSpline
70
4
71
3
72
18
73
14
40
0
40
0
40
0
40
0
40
0.124999999999992
40
0.124999999999992
40
0.187499999999989
40
0.187499999999989
40
0.249999999999985
40
0.249999999999985
40
0.49999999999999
40
0.49999999999999
40
0.749999999999995
40
0.749999999999995
40
1
40
1
40
1
40
1
41
1
10
35.884031582619
20
-0.428487216058187
30
0
41
1
10
35.9009388809665
20
-0.432290958160706
30
0
41
1
10
35.9179781905836
20
-0.435559924095429
30
0
41
1
10
35.943788313545
20
-0.439567053728183
30
0
41
1
10
35.9524543002036
20
-0.440699768784526
30
0
41
1
10
35.9696913948087
20
-0.443134159269476
30
0
41
1
10
35.978254026452
20
-0.444464881896494
30
0
41
1
10
36.0207936603472
20
-0.451616242359762
30
0
41
1
10
36.0540050853307
20
-0.458769660411321
30
0
41
1
10
36.1189069575225
20
-0.474353897716838
30
0
41
1
10
36.1505584352973
20
-0.482903639729756
30
0
41
1
10
36.2119477918579
20
-0.500886746024946
30
0
41
1
10
36.2416808875678
20
-0.510356296154299
30
0
41
1
10
36.27
20
-0.520367154094458
30
0
0
SPLINE
5
19B
100
AcDbEntity
8
1
62
256
6
ByLayer
370
18
48
1
60
0
100
AcDbSpline
70
4
71
3
72
10
73
6
40
0
40
0
40
0
40
0
40
0.5
40
0.5
40
1
40
1
40
1
40
1
41
1
10
35.884031582619
20
-0.428487216058215
30
0
41
1
10
35.8170776821576
20
-0.382584402147245
30
0
41
1
10
35.7505725041914
20
-0.334039175343179
30
0
41
1
10
35.6183883834524
20
-0.231420854275342
30
0
41
1
10
35.5526383742583
20
-0.177434047995035
30
0
41
1
10
35.4868339370121
20
-0.121119637107228
30
0
0
SPLINE
5
19C
100
AcDbEntity
8
1
62
256
6
ByLayer
370
18
48
1
60
0
100
AcDbSpline
70
4
71
3
72
8
73
4
40
0
40
0
40
0
40
0
40
1
40
1
40
1
40
1
41
1
10
35.4868339370121
20
-0.121119637107199
30
0
41
1
10
35.4649991489061
20
-0.0892580536904291
30
0
41
1
10
35.4430349351361
20
-0.0586362579311697
30
0
41
1
10
35.4208900512396
20
-0.029310992790812
30
0
0
SPLINE
5
19D
100
AcDbEntity
8
1
62
256
6
ByLayer
370
18
48
1
60
0
100
AcDbSpline
70
4
71
3
72
28
73
24
40
0
40
0
40
0
40
0
40
0.125000000000026
40
0.125000000000026
40
0.250000000000051
40
0.250000000000051
40
0.375000000000077
40
0.375000000000077
40
0.500000000000102
40
0.500000000000102
40
0.625000000000128
40
0.625000000000128
40
0.687500000000106
40
0.687500000000106
40
0.750000000000085
40
0.750000000000085
40
0.812500000000064
40
0.812500000000064
40
0.875000000000043
40
0.875000000000043
40
0.937500000000021
40
0.937500000000021
40
1
40
1
40
1
40
1
41
1
10
35.4208900512394
20
-0.0293109927903004
30
0
41
1
10
35.4163795720808
20
-0.0233380105948129
30
0
41
1
10
35.4111646692508
20
-0.0171208520600885
30
0
41
1
10
35.3996554260407
20
-0.004346525887911
30
0
41
1
10
35.39330861465
20
0.0022567511464047
30
0
41
1
10
35.3800714332953
20
0.0153544312258589
30
0
41
1
10
35.3731391538339
20
0.0218982167303636
30
0
41
1
10
35.3586931170211
20
0.0349989041154117
30
0
41
1
10
35.3511061998107
20
0.041613714302315
30
0
41
1
10
35.3358158158942
20
0.0544851570799096
30
0
41
1
10
35.3280906716986
20
0.0607670558877089
30
0
41
1
10
35.3164007672574
20
0.0699695705599765
30
0
41
1
10
35.3124869133725
20
0.07299996961126
30
0
41
1
10
35.3046263978683
20
0.0789839157521612
30
0
41
1
10
35.3006641690338
20
0.0819486076824774
30
0
41
1
10
35.2929122293467
20
0.0876447279145509
30
0
41
1
10
35.2891007054006
20
0.0903932956281324
30
0
41
1
10
35.2816311294641
20
0.0956672968058569
30
0
41
1
10
35.2779441234968
20
0.098212187146288
30
0
41
1
10
35.2709205628674
20
0.102923747450831
30
0
41
1
10
35.2675918356803
20
0.105086274006624
30
0
41
1
10
35.2613615532525
20
0.108959055799573
30
0
41
1
10
35.2584448201962
20
0.110678099693843
30
0
41
1
10
35.2558738325861
20
0.112070078081189
30
0
0
SPLINE
5
19E
100
AcDbEntity
8
1
62
256
6
ByLayer
370
18
48
1
60
0
100
AcDbSpline
70
4
71
3
72
8
73
4
40
0
40
0
40
0
40
0
40
1
40
1
40
1
40
1
41
1
10
35.255873832584
20
0.112070078081615
30
0
41
1
10
35.2220955682496
20
0.130358230746822
30
0
41
1
10
35.1886521369672
20
0.152354827167869
30
0
41
1
10
35.1554335104873
20
0.17798132081839
30
0
0
SPLINE
5
19F
100
AcDbEntity
8
1
62
256
6
ByLayer
370
18
48
1
60
0
100
AcDbSpline
70
4
71
3
72
8
73
4
40
0
40
0
40
0
40
0
40
1
40
1
40
1
40
1
41
1
10
35.1554335104871
20
0.177981320817821
30
0
41
1
10
35.0625147112617
20
0.265321161987856
30
0
41
1
10
34.9705749675823
20
0.354320910150193
30
0
41
1
10
34.8785834159662
20
0.443890978652746
30
0
0
SPLINE
5
1A0
100
AcDbEntity
8
1
62
256
6
ByLayer
370
18
48
1
60
0
100
AcDbSpline
70
4
71
3
72
8
73
4
40
0
40
0
40
0
40
0
40
1
40
1
40
1
40
1
41
1
10
34.8785834159663
20
0.443890978652746
30
0
41
1
10
34.8326815909554
20
0.482287570073964
30
0
41
1
10
34.7861665138272
20
0.513638910091032
30
0
41
1
10
34.7389445050317
20
0.537144846604036
30
0
0
SPLINE
5
1A1
100
AcDbEntity
8
1
62
256
6
ByLayer
370
18
48
1
60
0
100
AcDbSpline
70
4
71
3
72
28
73
24
40
0
40
0
40
0
40
0
40
0.125
40
0.125
40
0.25
40
0.25
40
0.375
40
0.375
40
0.5
40
0.5
40
0.625
40
0.625
40
0.6875
40
0.6875
40
0.75
40
0.75
40
0.8125
40
0.8125
40
0.875
40
0.875
40
0.9375
40
0.9375
40
1
40
1
40
1
40
1
41
1
10
34.7389445050315
20
0.537144846603837
30
0
41
1
10
34.7344372242711
20
0.539388458387947
30
0
41
1
10
34.7292247713073
20
0.542277289074633
30
0
41
1
10
34.7177191821146
20
0.549000280400577
30
0
41
1
10
34.7113719379617
20
0.552872934112742
30
0
41
1
10
34.6981310063213
20
0.561223498147626
30
0
41
1
10
34.6911957387341
20
0.565724609137931
30
0
41
1
10
34.6767427312987
20
0.575376025248119
30
0
41
1
10
34.6691523461854
20
0.580577974175554
30
0
41
1
10
34.6538583610908
20
0.591394310557149
30
0
41
1
10
34.6461313530885
20
0.597020906728176
30
0
41
1
10
34.6344401048425
20
0.605875126104763
30
0
41
1
10
34.6305261470769
20
0.608896320329706
30
0
41
1
10
34.6226661376474
20
0.615106281461721
30
0
41
1
10
34.6187069682629
20
0.618306848925414
30
0
41
1
10
34.6109637421927
20
0.624742466891803
30
0
41
1
10
34.6071567527727
20
0.62799495864104
30
0
41
1
10
34.599696381291
20
0.634585549727348
30
0
41
1
10
34.5960138978715
20
0.637951505499188
30
0
41
1
10
34.5890033263712
20
0.644636503773285
30
0
41
1
10
34.585680716325
20
0.647947072351116
30
0
41
1
10
34.5794621910767
20
0.654495174938148
30
0
41
1
10
34.5765512977315
20
0.657753133080718
30
0
41
1
10
34.573985078458
20
0.660866824893645
30
0
0
SPLINE
5
1A2
100
AcDbEntity
8
1
62
256
6
ByLayer
370
18
48
1
60
0
100
AcDbSpline
70
4
71
3
72
12
73
8
40
0
40
0
40
0
40
0
40
0.500000000000014
40
0.500000000000014
40
0.750000000000007
40
0.750000000000007
40
1
40
1
40
1
40
1
41
1
10
34.573985078458
20
0.660866824893276
30
0
41
1
10
34.5430128457188
20
0.698446617275522
30
0
41
1
10
34.512332285241
20
0.738385779203668
30
0
41
1
10
34.4666028467514
20
0.801554875765618
30
0
41
1
10
34.4513998538622
20
0.82316982153921
30
0
41
1
10
34.4211950262819
20
0.867268930574198
30
0
41
1
10
34.4061776550773
20
0.889773867804053
30
0
41
1
10
34.3912312328904
20
0.912717322339205
30
0
0
SPLINE
5
1A3
100
AcDbEntity
8
1
62
256
6
ByLayer
370
18
48
1
60
0
100
AcDbSpline
70
4
71
3
72
8
73
4
40
0
40
0
40
0
40
0
40
1
40
1
40
1
40
1
41
1
10
34.3912312328904
20
0.912717322339205
30
0
41
1
10
34.3487682831994
20
0.952230009769494
30
0
41
1
10
34.306415212283
20
0.991064942073649
30
0
41
1
10
34.2640611757457
20
1.02911214979801
30
0
0
SPLINE
5
1A4
100
AcDbEntity
8
1
62
256
6
ByLayer
370
18
48
1
60
0
100
AcDbSpline
70
4
71
3
72
12
73
8
40
0
40
0
40
0
40
0
40
0.25
40
0.25
40
0.500000000000001
40
0.500000000000001
40
1
40
1
40
1
40
1
41
1
10
34.2640611757457
20
1.02911214979801
30
0
41
1
10
34.2471885611418
20
1.03000376707706
30
0
41
1
10
34.2302341648016
20
1.02987861034413
30
0
41
1
10
34.1961126349916
20
1.02754371917589
30
0
41
1
10
34.1789409217084
20
1.02533187226626
30
0
41
1
10
34.1271848623971
20
1.01549187190906
30
0
41
1
10
34.0922936052379
20
1.00461491852613
30
0
41
1
10
34.0570424379862
20
0.989453729787527
30
0
0
SPLINE
5
1A5
100
AcDbEntity
8
1
62
256
6
ByLayer
370
18
48
1
60
0
100
AcDbSpline
70
4
71
3
72
28
73
24
40
0
40
0
40
0
40
0
40
0.124999999999974
40
0.124999999999974
40
0.249999999999949
40
0.249999999999949
40
0.374999999999923
40
0.374999999999923
40
0.499999999999898
40
0.499999999999898
40
0.624999999999872
40
0.624999999999872
40
0.687499999999894
40
0.687499999999894
40
0.749999999999915
40
0.749999999999915
40
0.812499999999936
40
0.812499999999936
40
0.874999999999957
40
0.874999999999957
40
0.937499999999979
40
0.937499999999979
40
1
40
1
40
1
40
1
41
1
10
34.0570424379862
20
0.989453729787471
30
0
41
1
10
34.0525294772767
20
0.987512748696048
30
0
41
1
10
34.0473096631996
20
0.986486144139377
30
0
41
1
10
34.0357895526763
20
0.985788661089373
30
0
41
1
10
34.0294344721738
20
0.986140546833354
30
0
41
1
10
34.0161798756405
20
0.988039692880704
30
0
41
1
10
34.0092385022934
20
0.989579705327401
30
0
41
1
10
33.9947773981258
20
0.993811677927056
30
0
41
1
10
33.9871856745724
20
0.996538050494735
30
0
41
1
10
33.9718941519034
20
1.00309019311874
30
0
41
1
10
33.9641701163938
20
1.00691158218876
30
0
41
1
10
33.9524852071272
20
1.01360216249492
30
0
41
1
10
33.948573658182
20
1.0159936596379
30
0
41
1
10
33.9407187854767
20
1.02115149592291
30
0
41
1
10
33.9367629031775
20
1.02392949714277
30
0
41
1
10
33.9290251288803
20
1.02977981866729
30
0
41
1
10
33.925220298951
20
1.03286551407732
30
0
41
1
10
33.9177628586482
20
1.03941135334424
30
0
41
1
10
33.9140811633234
20
1.04290183179663
30
0
41
1
10
33.9070711555064
20
1.05017688883373
30
0
41
1
10
33.9037479088497
20
1.05394987458135
30
0
41
1
10
33.8975269286722
20
1.06181328921733
30
0
41
1
10
33.8946141878878
20
1.06593208125318
30
0
41
1
10
33.8920460572459
20
1.07011764677392
30
0
0
SPLINE
5
1A6
100
AcDbEntity
8
1
62
256
6
ByLayer
370
18
48
1
60
0
100
AcDbSpline
70
4
71
3
72
10
73
6
40
0
40
0
40
0
40
0
40
0.5
40
0.5
40
1
40
1
40
1
40
1
41
1
10
33.892046057246
20
1.07011764677347
30
0
41
1
10
33.8542438377326
20
1.13172808980343
30
0
41
1
10
33.8168753151228
20
1.19479911629236
30
0
41
1
10
33.7426625789009
20
1.32349991042466
30
0
41
1
10
33.7061071344302
20
1.3886122591351
30
0
41
1
10
33.6698959435488
20
1.45434143843454
30
0
0
SPLINE
5
1A7
100
AcDbEntity
8
1
62
256
6
ByLayer
370
18
48
1
60
0
100
AcDbSpline
70
4
71
3
72
8
73
4
40
0
40
0
40
0
40
0
40
1
40
1
40
1
40
1
41
1
10
33.6099715410671
20
1.48279651219914
30
0
41
1
10
33.6299572192122
20
1.47371405756431
30
0
41
1
10
33.6499284374165
20
1.4642270907587
30
0
41
1
10
33.6698959435488
20
1.45434143843434
30
0
0
SPLINE
5
1A8
100
AcDbEntity
8
1
62
256
6
ByLayer
370
18
48
1
60
0
100
AcDbSpline
70
4
71
3
72
12
73
8
40
0
40
0
40
0
40
0
40
0.250000000000004
40
0.250000000000004
40
0.500000000000008
40
0.500000000000008
40
1
40
1
40
1
40
1
41
1
10
33.6099715410671
20
1.48279651219914
30
0
41
1
10
33.5908702950461
20
1.4665631654762
30
0
41
1
10
33.5716724248869
20
1.44916066228413
30
0
41
1
10
33.5330214865177
20
1.41200534948385
30
0
41
1
10
33.5135518960701
20
1.3922355517845
30
0
41
1
10
33.4548077996456
20
1.32951404031456
30
0
41
1
10
33.415191301377
20
1.28314430677625
30
0
41
1
10
33.3751239056166
20
1.23246032299673
30
0
0
SPLINE
5
1A9
100
AcDbEntity
8
1
62
256
6
ByLayer
370
18
48
1
60
0
100
AcDbSpline
70
4
71
3
72
28
73
24
40
0
40
0
40
0
40
0
40
0.125000000000026
40
0.125000000000026
40
0.250000000000052
40
0.250000000000052
40
0.375000000000077
40
0.375000000000077
40
0.500000000000103
40
0.500000000000103
40
0.625000000000129
40
0.625000000000129
40
0.687500000000107
40
0.687500000000107
40
0.750000000000086
40
0.750000000000086
40
0.812500000000064
40
0.812500000000064
40
0.875000000000043
40
0.875000000000043
40
0.937500000000021
40
0.937500000000021
40
1
40
1
40
1
40
1
41
1
10
33.3751239056164
20
1.23246032299676
30
0
41
1
10
33.3706087223903
20
1.22674875954095
30
0
41
1
10
33.3653867467776
20
1.22202646686225
30
0
41
1
10
33.3538644143602
20
1.21405756745676
30
0
41
1
10
33.3475096728438
20
1.21081480144957
30
0
41
1
10
33.3342565239653
20
1.20585665882376
30
0
41
1
10
33.3273162995454
20
1.20410527635372
30
0
41
1
10
33.3128582605482
20
1.20200630818999
30
0
41
1
10
33.3052684589018
20
1.20166860782928
30
0
41
1
10
33.2899793191876
20
1.20254067051988
30
0
41
1
10
33.2822563569365
20
1.20373034795134
30
0
41
1
10
33.270572722295
20
1.2068112804248
30
0
41
1
10
33.2666615399338
20
1.20805638762124
30
0
41
1
10
33.2588072126883
20
1.21104859374569
30
0
41
1
10
33.2548504414612
20
1.21280557574514
30
0
41
1
10
33.2471097543929
20
1.21681172893261
30
0
41
1
10
33.2433033109001
20
1.21906707808307
30
0
41
1
10
33.235842360134
20
1.22416189720963
30
0
41
1
10
33.2321587865526
20
1.22702755158312
30
0
41
1
10
33.2251430568349
20
1.23333526328423
30
0
41
1
10
33.2218172414055
20
1.23676343301935
30
0
41
1
10
33.2155914791935
20
1.24426006896837
30
0
41
1
10
33.2126762729218
20
1.24835965835203
30
0
41
1
10
33.2101058925519
20
1.25272449593081
30
0
0
SPLINE
5
1AA
100
AcDbEntity
8
1
62
256
6
ByLayer
370
18
48
1
60
0
100
AcDbSpline
70
4
71
3
72
10
73
6
40
0
40
0
40
0
40
0
40
0.5
40
0.5
40
1
40
1
40
1
40
1
41
1
10
33.2101058925518
20
1.25272449593075
30
0
41
1
10
33.1723035505549
20
1.31691775107808
30
0
41
1
10
33.134935360765
20
1.38024492225819
30
0
41
1
10
33.0607168991772
20
1.50512549092906
30
0
41
1
10
33.024158704438
20
1.56618199918438
30
0
41
1
10
32.9879551518439
20
1.62582479415627
30
0
0
SPLINE
5
1AB
100
AcDbEntity
8
1
62
256
6
ByLayer
370
18
48
1
60
0
100
AcDbSpline
70
4
71
3
72
8
73
4
40
0
40
0
40
0
40
0
40
1
40
1
40
1
40
1
41
1
10
32.9280562167228
20
1.62440099683388
30
0
41
1
10
32.948037480854
20
1.6253264150379
30
0
41
1
10
32.968000412492
20
1.62580061165997
30
0
41
1
10
32.987955151844
20
1.62582479415602
30
0
0
SPLINE
5
1AC
100
AcDbEntity
8
1
62
256
6
ByLayer
370
18
48
1
60
0
100
AcDbSpline
70
4
71
3
72
12
73
8
40
0
40
0
40
0
40
0
40
0.249999999999996
40
0.249999999999996
40
0.499999999999992
40
0.499999999999992
40
1
40
1
40
1
40
1
41
1
10
32.9280562167228
20
1.62440099683386
30
0
41
1
10
32.9089397380975
20
1.59309858568432
30
0
41
1
10
32.8897293491396
20
1.56104544647167
30
0
41
1
10
32.8510608873714
20
1.49544296285367
30
0
41
1
10
32.8315863347179
20
1.46186457565912
30
0
41
1
10
32.7728379804856
20
1.35912006806626
30
0
41
1
10
32.7332395392906
20
1.28793247856635
30
0
41
1
10
32.6931789791687
20
1.21450496490294
30
0
0
SPLINE
5
1AD
100
AcDbEntity
8
1
62
256
6
ByLayer
370
18
48
1
60
0
100
AcDbSpline
70
4
71
3
72
28
73
24
40
0
40
0
40
0
40
0
40
0.124999999999975
40
0.124999999999975
40
0.249999999999949
40
0.249999999999949
40
0.374999999999924
40
0.374999999999924
40
0.499999999999898
40
0.499999999999898
40
0.624999999999873
40
0.624999999999873
40
0.687499999999894
40
0.687499999999894
40
0.749999999999915
40
0.749999999999915
40
0.812499999999936
40
0.812499999999936
40
0.874999999999957
40
0.874999999999957
40
0.937499999999979
40
0.937499999999979
40
1
40
1
40
1
40
1
41
1
10
32.6931789791688
20
1.21450496490323
30
0
41
1
10
32.6886661101993
20
1.20623326957715
30
0
41
1
10
32.6834475045223
20
1.19881253636012
30
0
41
1
10
32.6719327715605
20
1.1852484639285
30
0
41
1
10
32.6655828516002
20
1.17908938527668
30
0
41
1
10
32.6523368984611
20
1.16830623355221
30
0
41
1
10
32.645399505396
20
1.16362475160767
30
0
41
1
10
32.6309447610753
20
1.15562080556236
30
0
41
1
10
32.6233551437515
20
1.15228142775405
30
0
41
1
10
32.6080638726923
20
1.1472732069567
30
0
41
1
10
32.6003389284396
20
1.14557306638159
30
0
41
1
10
32.5886513968098
20
1.14438588512576
30
0
41
1
10
32.5847387835593
20
1.14421944866069
30
0
41
1
10
32.5768814555948
20
1.14441058108565
30
0
41
1
10
32.572922680899
20
1.14477349873559
30
0
41
1
10
32.565178469352
20
1.14608550662786
30
0
41
1
10
32.5613705721774
20
1.14703253280837
30
0
41
1
10
32.553907384087
20
1.14959723610073
30
0
41
1
10
32.550222941789
20
1.15123172807478
30
0
41
1
10
32.5432058471207
20
1.15523473752853
30
0
41
1
10
32.5398801388409
20
1.15759039147767
30
0
41
1
10
32.5336555447407
20
1.16312745154431
30
0
41
1
10
32.5307411931649
20
1.16633584775198
30
0
41
1
10
32.5281714623341
20
1.16995054227823
30
0
0
SPLINE
5
1AE
100
AcDbEntity
8
1
62
256
6
ByLayer
370
18
48
1
60
0
100
AcDbSpline
70
4
71
3
72
8
73
4
40
0
40
0
40
0
40
0
40
1
40
1
40
1
40
1
41
1
10
32.4678136643908
20
0.685807134341474
30
0
41
1
10
32.4650387314557
20
0.729530950972531
30
0
41
1
10
32.4622654102154
20
0.772409513498332
30
0
41
1
10
32.4594723295446
20
0.814420793965468
30
0
0
SPLINE
5
1AF
100
AcDbEntity
8
1
62
256
6
ByLayer
370
18
48
1
60
0
100
AcDbSpline
70
4
71
3
72
8
73
4
40
0
40
0
40
0
40
0
40
1
40
1
40
1
40
1
41
1
10
32.3922893315544
20
0.871427745129438
30
0
41
1
10
32.4146932301812
20
0.852840821834434
30
0
41
1
10
32.4371172673679
20
0.83386988736342
30
0
41
1
10
32.4594723295504
20
0.81442079397101
30
0
0
SPLINE
5
1B0
100
AcDbEntity
8
1
62
256
6
ByLayer
370
18
48
1
60
0
100
AcDbSpline
70
4
71
3
72
20
73
16
40
0
40
0
40
0
40
0
40
0.25
40
0.25
40
0.3125
40
0.3125
40
0.375
40
0.375
40
0.5
40
0.5
40
0.749999999999999
40
0.749999999999999
40
0.875
40
0.875
40
1
40
1
40
1
40
1
41
1
10
32.3922893315545
20
0.871427745129296
30
0
41
1
10
32.3986364265203
20
0.793965105071322
30
0
41
1
10
32.4049427643494
20
0.712401641413322
30
0
41
1
10
32.4128612243528
20
0.605194094158037
30
0
41
1
10
32.4144442260773
20
0.583531713434269
30
0
41
1
10
32.417593031236
20
0.540059785463683
30
0
41
1
10
32.4191619419796
20
0.518208310548516
30
0
41
1
10
32.4238619356812
20
0.452313277772333
30
0
41
1
10
32.4269904897114
20
0.407930132620294
30
0
41
1
10
32.4364010885329
20
0.273442022270331
30
0
41
1
10
32.442677045852
20
0.182005548974359
30
0
41
1
10
32.4521528173039
20
0.0420780902607305
30
0
41
1
10
32.4552907878215
20
-0.0045347823426596
30
0
41
1
10
32.4615485113105
20
-0.0974746628131982
30
0
41
1
10
32.4646707869388
20
-0.143839051718459
30
0
41
1
10
32.4678136643866
20
-0.190095948003943
30
0
0
SPLINE
5
1B1
100
AcDbEntity
8
1
62
256
6
ByLayer
370
18
48
1
60
0
100
AcDbSpline
70
4
71
3
72
10
73
6
40
0
40
0
40
0
40
0
40
0.5
40
0.5
40
1
40
1
40
1
40
1
41
1
10
32.1757526533626
20
0.781805342532721
30
0
41
1
10
32.212647918542
20
0.805182866850117
30
0
41
1
10
32.2490847807069
20
0.824289498623074
30
0
41
1
10
32.3213952547346
20
0.854201945194916
30
0
41
1
10
32.357024329316
20
0.864843816791506
30
0
41
1
10
32.3922893315545
20
0.871427745129409
30
0
0
SPLINE
5
1B2
100
AcDbEntity
8
1
62
256
6
ByLayer
370
13
48
1
60
0
100
AcDbSpline
70
4
71
3
72
10
73
6
40
0
40
0
40
0
40
0
40
0.0243975357073695
40
0.660907352449644
40
1
40
1
40
1
40
1
41
1
10
32.1757526533626
20
0.781805342532721
30
0
41
1
10
32.1762634315062
20
0.776826564689486
30
0
41
1
10
32.1900999531972
20
0.641135769320556
30
0
41
1
10
32.211035600959
20
0.402743547458527
30
0
41
1
10
32.2314604763246
20
0.150142217693258
30
0
41
1
10
32.2385596018622
20
0.0618919261788449
30
0
0
SPLINE
5
1B3
100
AcDbEntity
8
1
62
256
6
ByLayer
370
18
48
1
60
0
100
AcDbSpline
70
4
71
3
72
12
73
8
40
0
40
0
40
0
40
0
40
0.249999999999996
40
0.249999999999996
40
0.499999999999992
40
0.499999999999992
40
1
40
1
40
1
40
1
41
1
10
32.4733587068745
20
-0.278204216518645
30
0
41
1
10
32.4542535937807
20
-0.245993398762892
30
0
41
1
10
32.4350470102358
20
-0.214715988900593
30
0
41
1
10
32.3963899837538
20
-0.154014823242903
30
0
41
1
10
32.3769263211458
20
-0.124555471260123
30
0
41
1
10
32.3182115392328
20
-0.0392131763280759
30
0
41
1
10
32.2786268833048
20
0.0136411521731361
30
0
41
1
10
32.2385596018623
20
0.0618919261781912
30
0
0
SPLINE
5
1B4
100
AcDbEntity
8
1
62
256
6
ByLayer
370
18
48
1
60
0
100
AcDbSpline
70
4
71
3
72
8
73
4
40
0
40
0
40
0
40
0
40
1
40
1
40
1
40
1
41
1
10
32.4678136643869
20
-0.190095948003943
30
0
41
1
10
32.469656680865
20
-0.219581732990917
30
0
41
1
10
32.4715053616627
20
-0.248951141342729
30
0
41
1
10
32.4733587068744
20
-0.278204216518645
30
0
0
SPLINE
5
1B5
100
AcDbEntity
8
SK1
62
256
6
ByLayer
370
18
48
1
60
0
100
AcDbSpline
70
4
71
3
72
22
73
18
40
0
40
0
40
0
40
0
40
0.124971832462045
40
0.124971832462045
40
0.24994366492409
40
0.24994366492409
40
0.499887329848179
40
0.499887329848179
40
0.624859162310224
40
0.624859162310224
40
0.687345078541246
40
0.687345078541246
40
0.749830994772268
40
0.749830994772268
40
0.999774659696357
40
0.999774659696357
40
1
40
1
40
1
40
1
41
1
10
-18.83
20
1.39499999999998
30
0
41
1
10
-18.8524670303359
20
1.39499999999998
30
0
41
1
10
-18.8743833412067
20
1.39499999999998
30
0
41
1
10
-18.916582707112
20
1.39499999999998
30
0
41
1
10
-18.9368599218999
20
1.39499999999998
30
0
41
1
10
-18.9947798196044
20
1.39499999999998
30
0
41
1
10
-19.0295427423595
20
1.39499999999998
30
0
41
1
10
-19.0736105824591
20
1.39499999999998
30
0
41
1
10
-19.0869459166796
20
1.39499999999998
30
0
41
1
10
-19.1045582062491
20
1.39499999999998
30
0
41
1
10
-19.1100300085944
20
1.39499999999998
30
0
41
1
10
-19.1201099517183
20
1.39499999999998
30
0
41
1
10
-19.1247275998688
20
1.39499999999998
30
0
41
1
10
-19.1453328925716
20
1.39499999999998
30
0
41
1
10
-19.1538654069527
20
1.39499999999998
30
0
41
1
10
-19.153878997623
20
1.39499999999998
30
0
41
1
10
-19.1538810006395
20
1.39499999999998
30
0
41
1
10
-19.1538790032559
20
1.39499999999998
30
0
0
SPLINE
5
1B6
100
AcDbEntity
8
SK1
62
256
6
ByLayer
370
18
48
1
60
0
100
AcDbSpline
70
4
71
3
72
22
73
18
40
0
40
0
40
0
40
0
40
0.0002249978722191
40
0.0002249978722191
40
0.250168748404164
40
0.250168748404164
40
0.31265468603715
40
0.31265468603715
40
0.375140623670137
40
0.375140623670137
40
0.500112498936109
40
0.500112498936109
40
0.750056249468055
40
0.750056249468055
40
0.875028124734027
40
0.875028124734027
40
1
40
1
40
1
40
1
41
1
10
-19.1538790032483
20
-1.3950000000471
30
0
41
1
10
-19.1538810006204
20
-1.3949999999765
30
0
41
1
10
-19.1538789975926
20
-1.39500000000004
30
0
41
1
10
-19.1538654069527
20
-1.39500000000004
30
0
41
1
10
-19.1453328925716
20
-1.39500000000004
30
0
41
1
10
-19.1247275998688
20
-1.39500000000004
30
0
41
1
10
-19.1201099517183
20
-1.39500000000004
30
0
41
1
10
-19.1100300085944
20
-1.39500000000004
30
0
41
1
10
-19.1045582062491
20
-1.39500000000004
30
0
41
1
10
-19.0869459166796
20
-1.39500000000004
30
0
41
1
10
-19.0736105824591
20
-1.39500000000004
30
0
41
1
10
-19.0295427423594
20
-1.39500000000004
30
0
41
1
10
-18.9947798196044
20
-1.39500000000004
30
0
41
1
10
-18.9368599218999
20
-1.39500000000004
30
0
41
1
10
-18.916582707112
20
-1.39500000000004
30
0
41
1
10
-18.8743833412067
20
-1.39500000000004
30
0
41
1
10
-18.8524670303359
20
-1.39500000000004
30
0
41
1
10
-18.83
20
-1.39500000000004
30
0
0
SPLINE
5
1B7
100
AcDbEntity
8
SK1
62
256
6
ByLayer
370
18
48
1
60
0
100
AcDbSpline
70
4
71
3
72
35
73
31
40
0
40
0
40
0
40
0
40
0.0624999999999999
40
0.0937499999999999
40
0.0937499999999999
40
0.125
40
0.125
40
0.25
40
0.25
40
0.375
40
0.375
40
0.40625
40
0.40625
40
0.4375
40
0.4375
40
0.5
40
0.5
40
0.625
40
0.625
40
0.65625
40
0.65625
40
0.6875
40
0.6875
40
0.75
40
0.75
40
0.875
40
0.875
40
0.9375
40
0.9375
40
1
40
1
40
1
40
1
41
1
10
-18.83
20
-1.00425268453714
30
0
41
1
10
-18.852358066104
20
-0.965984593989248
30
0
41
1
10
-18.8850157168013
20
-0.907935460363205
30
0
41
1
10
-18.9160772244566
20
-0.8487120668552
30
0
41
1
10
-18.9363919256032
20
-0.808940701581577
30
0
41
1
10
-18.9463590341076
20
-0.788897061248917
30
0
41
1
10
-18.9948848746768
20
-0.688358833376412
30
0
41
1
10
-19.0297192141233
20
-0.606591454538545
30
0
41
1
10
-19.088417977261
20
-0.439377991297533
30
0
41
1
10
-19.112275845845
20
-0.353929708672524
30
0
41
1
10
-19.1328624840159
20
-0.244022211095228
30
0
41
1
10
-19.136522429703
20
-0.221841992614316
30
0
41
1
10
-19.1428241875934
20
-0.177349685408103
30
0
41
1
10
-19.1454565540605
20
-0.155117827903752
30
0
41
1
10
-19.1517778230071
20
-0.0884657031933216
30
0
41
1
10
-19.1538872682373
20
-0.0440889837855991
30
0
41
1
10
-19.1538654069527
20
0.0888660908148324
30
0
41
1
10
-19.1453328925716
20
0.177267955944643
30
0
41
1
10
-19.1247275998688
20
0.287496237608536
30
0
41
1
10
-19.1201099517183
20
0.309530457636072
30
0
41
1
10
-19.1100300085944
20
0.353149474168163
30
0
41
1
10
-19.1045582062491
20
0.374790020455663
30
0
41
1
10
-19.0869459166796
20
0.439243356342359
30
0
41
1
10
-19.0736105824591
20
0.481588639408187
30
0
41
1
10
-19.0295427423595
20
0.607035217723677
30
0
41
1
10
-18.9947798196044
20
0.688559535981852
30
0
41
1
10
-18.9368599218999
20
0.808586234220314
30
0
41
1
10
-18.916582707112
20
0.848215374944147
30
0
41
1
10
-18.8743833412067
20
0.926830043876322
30
0
41
1
10
-18.8524670303359
20
0.965798090689844
30
0
41
1
10
-18.83
20
1.00425268453708
30
0
0
SPLINE
5
1B8
100
AcDbEntity
8
1
62
256
6
ByLayer
370
18
48
1
60
0
100
AcDbSpline
70
4
71
3
72
8
73
4
40
0
40
0
40
0
40
0
40
1
40
1
40
1
40
1
41
1
10
33.2306133271105
20
-0.0416308377562586
30
0
41
1
10
33.2397094244982
20
-0.0502384583662661
30
0
41
1
10
33.2487137974903
20
-0.0590195840435399
30
0
41
1
10
33.2576501499597
20
-0.0679187166700217
30
0
0
SPLINE
5
1B9
100
AcDbEntity
8
1
62
256
6
ByLayer
370
18
48
1
60
0
100
AcDbSpline
70
4
71
2
72
6
73
3
40
0
40
0
40
0
40
1
40
1
40
1
41
1
10
32.9160170860304
20
1.60358317552817
30
0
41
1
10
32.845693821668
20
1.48298448864836
30
0
41
1
10
32.7753091200439
20
1.36299472579603
30
0
0
SPLINE
5
1BA
100
AcDbEntity
8
1
62
256
6
ByLayer
370
18
48
1
60
0
100
AcDbSpline
70
4
71
2
72
6
73
3
40
0
40
0
40
0
40
1
40
1
40
1
41
1
10
35.3924570629464
20
-1.32299810657284
30
0
41
1
10
35.4144628533562
20
-1.28530064423558
30
0
41
1
10
35.4365058560853
20
-1.24763256512347
30
0
0
SPLINE
5
1BB
100
AcDbEntity
8
1
62
256
6
ByLayer
370
18
48
1
60
0
100
AcDbSpline
70
4
71
1
72
4
73
2
40
0
40
0
40
1
40
1
41
1
10
35.0481660935306
20
-1.41837572115639
30
0
41
1
10
35.386092049641
20
-1.33800099860943
30
0
0
SPLINE
5
1BC
100
AcDbEntity
8
1
62
256
6
ByLayer
370
18
48
1
60
0
100
AcDbSpline
70
4
71
2
72
6
73
3
40
0
40
0
40
0
40
1
40
1
40
1
41
1
10
34.9271986582525
20
-1.24382833521653
30
0
41
1
10
34.969078965403
20
-1.3156321004017
30
0
41
1
10
35.0107965594436
20
-1.38740578745745
30
0
0
SPLINE
5
1BD
100
AcDbEntity
8
1
62
256
6
ByLayer
370
18
48
1
60
0
100
AcDbSpline
70
4
71
1
72
4
73
2
40
0
40
0
40
1
40
1
41
1
10
34.3902224216916
20
-1.41218773103611
30
0
41
1
10
34.4643782268609
20
-1.5397387045675
30
0
0
SPLINE
5
1BE
100
AcDbEntity
8
1
62
256
6
ByLayer
370
18
48
1
60
0
100
AcDbSpline
70
4
71
2
72
6
73
3
40
0
40
0
40
0
40
1
40
1
40
1
41
1
10
35.4378896273687
20
-1.24532337482043
30
0
41
1
10
35.4490001232601
20
-1.21629670225568
30
0
41
1
10
35.4882386009508
20
-1.21860989290732
30
0
0
SPLINE
5
1BF
100
AcDbEntity
8
1
62
256
6
ByLayer
370
18
48
1
60
0
100
AcDbSpline
70
4
71
2
72
6
73
3
40
0
40
0
40
0
40
1
40
1
40
1
41
1
10
32.2614573145172
20
-1.24763708770271
30
0
41
1
10
32.2830988001825
20
-1.20787243782615
30
0
41
1
10
32.3341592553023
20
-1.21565691893102
30
0
0
SPLINE
5
1C0
100
AcDbEntity
8
1
62
256
6
ByLayer
370
18
48
1
60
0
100
AcDbSpline
70
4
71
3
72
9
73
5
40
0
40
0
40
0
40
0
40
0.531496571153244
40
1
40
1
40
1
40
1
41
1
10
30.1664987671967
20
1.24694140390883
30
0
41
1
10
30.160630364516
20
1.23635134464593
30
0
41
1
10
30.1455829450747
20
1.22160723216419
30
0
41
1
10
30.1190748544089
20
1.21319551700563
30
0
41
1
10
30.1062614868477
20
1.21249123281385
30
0
0
SPLINE
5
1C1
100
AcDbEntity
8
1
62
256
6
ByLayer
370
18
48
1
60
0
100
AcDbSpline
70
4
71
3
72
8
73
4
40
0
40
0
40
0
40
0
40
1
40
1
40
1
40
1
41
1
10
30.0511066014772
20
1.2306890247778
30
0
41
1
10
30.0423374105875
20
1.23762604557822
30
0
41
1
10
30.0358072660545
20
1.24599156856135
30
0
41
1
10
30.0308432288268
20
1.25638280409012
30
0
0
SPLINE
5
1C2
100
AcDbEntity
8
1
62
256
6
ByLayer
370
18
48
1
60
0
100
AcDbSpline
70
4
71
2
72
6
73
3
40
0
40
0
40
0
40
1
40
1
40
1
41
1
10
30.1967141816733
20
1.29876241678383
30
0
41
1
10
30.1810397587382
20
1.27186944288974
30
0
41
1
10
30.1653556295471
20
1.24499064419496
30
0
0
SPLINE
5
1C3
100
AcDbEntity
8
1
62
256
6
ByLayer
370
18
48
1
60
0
100
AcDbSpline
70
4
71
3
72
11
73
7
40
0
40
0
40
0
40
0
40
0.249471074881305
40
0.500741881719401
40
0.755179304811926
40
1
40
1
40
1
40
1
41
1
10
33.3408212960186
20
1.2458545401303
30
0
41
1
10
33.3385954737762
20
1.23950777491393
30
0
41
1
10
33.3278977595745
20
1.22900539149313
30
0
41
1
10
33.2911733797965
20
1.20951099761521
30
0
41
1
10
33.239210602691
20
1.21778934656089
30
0
41
1
10
33.2186538291403
20
1.23868758412834
30
0
41
1
10
33.209980473232
20
1.25286123686573
30
0
0
SPLINE
5
1C4
100
AcDbEntity
8
1
62
256
6
ByLayer
370
18
48
1
60
0
100
AcDbSpline
70
4
71
2
72
6
73
3
40
0
40
0
40
0
40
1
40
1
40
1
41
1
10
32.0750920179872
20
-1.56722744450496
30
0
41
1
10
32.1684765123557
20
-1.40665618643302
30
0
41
1
10
32.2621196460607
20
-1.24657062124879
30
0
0
SPLINE
5
1C5
100
AcDbEntity
8
1
62
256
6
ByLayer
370
18
48
1
60
0
100
AcDbSpline
70
4
71
2
72
6
73
3
40
0
40
0
40
0
40
1
40
1
40
1
41
1
10
31.7538410424213
20
-1.24666203201176
30
0
41
1
10
31.8418149269907
20
-1.39751900597841
30
0
41
1
10
31.929573940032
20
-1.54869279851346
30
0
0
SPLINE
5
1C6
100
AcDbEntity
8
1
62
256
6
ByLayer
370
18
48
1
60
0
100
AcDbSpline
70
4
71
2
72
6
73
3
40
0
40
0
40
0
40
1
40
1
40
1
41
1
10
30.6750434813798
20
1.24581600866858
30
0
41
1
10
30.6421123528017
20
1.30208908298957
30
0
41
1
10
30.6092200514682
20
1.35843956019227
30
0
0
SPLINE
5
1C7
100
AcDbEntity
8
1
62
256
6
ByLayer
370
18
48
1
60
0
100
AcDbSpline
70
4
71
3
72
11
73
7
40
0
40
0
40
0
40
0
40
0.247384322382852
40
0.50109103864344
40
0.754146326557575
40
1
40
1
40
1
40
1
41
1
10
34.7993188922463
20
-1.25064570562552
30
0
41
1
10
34.8044012097105
20
-1.24029545741183
30
0
41
1
10
34.8194391032966
20
-1.22431711695631
30
0
41
1
10
34.8637620984246
20
-1.20844179467466
30
0
41
1
10
34.9081755246958
20
-1.22195391440636
30
0
41
1
10
34.9232315037588
20
-1.23633993567262
30
0
41
1
10
34.9283427059896
20
-1.2458693779009
30
0
0
SPLINE
5
1C8
100
AcDbEntity
8
1
62
256
6
ByLayer
370
18
48
1
60
0
100
AcDbSpline
70
4
71
2
72
6
73
3
40
0
40
0
40
0
40
1
40
1
40
1
41
1
10
33.5577142276377
20
1.61879046372991
30
0
41
1
10
33.4490292995438
20
1.43136741703424
30
0
41
1
10
33.3395679179867
20
1.24361603460991
30
0
0
SPLINE
5
1C9
100
AcDbEntity
8
1
62
256
6
ByLayer
370
18
48
1
60
0
100
AcDbSpline
70
4
71
3
72
11
73
7
40
0
40
0
40
0
40
0
40
0.242696488426139
40
0.497559790935628
40
0.749517454504162
40
1
40
1
40
1
40
1
41
1
10
31.6204714999457
20
-1.25485825777804
30
0
41
1
10
31.6294422620024
20
-1.24009292860865
30
0
41
1
10
31.6505515253812
20
-1.2180460724085
30
0
41
1
10
31.7028036740413
20
-1.20920824033027
30
0
41
1
10
31.7400072810044
20
-1.22847751955558
30
0
41
1
10
31.7509688128772
20
-1.23921671389954
30
0
41
1
10
31.7533109750834
20
-1.24577154741794
30
0
0
SPLINE
5
1CA
100
AcDbEntity
8
1
62
256
6
ByLayer
370
18
48
1
60
0
100
AcDbSpline
70
4
71
3
72
12
73
8
40
0
40
0
40
0
40
0
40
0.0125725159195652
40
0.15348282616469
40
0.441145152044142
40
0.723399715485132
40
1
40
1
40
1
40
1
41
1
10
30.7972833059536
20
1.23921965981654
30
0
41
1
10
30.7968789500633
20
1.2386292479554
30
0
41
1
10
30.7918063006929
20
1.23155268063843
30
0
41
1
10
30.7691671336738
20
1.21679093941958
30
0
41
1
10
30.7272114883109
20
1.20889829570015
30
0
41
1
10
30.6888615868442
20
1.22781720219655
30
0
41
1
10
30.6776762915331
20
1.23897651934519
30
0
41
1
10
30.6750585733201
20
1.24579014966929
30
0
0
SPLINE
5
1CB
100
AcDbEntity
8
1
62
256
6
ByLayer
370
18
48
1
60
0
100
AcDbSpline
70
4
71
2
72
6
73
3
40
0
40
0
40
0
40
1
40
1
40
1
41
1
10
33.8501002819465
20
1.24569533117508
30
0
41
1
10
33.7410760682711
20
1.43204501175768
30
0
41
1
10
33.6325878634295
20
1.61874735620728
30
0
0
SPLINE
5
1CC
100
AcDbEntity
8
1
62
256
6
ByLayer
370
18
48
1
60
0
100
AcDbSpline
70
4
71
3
72
10
73
6
40
0
40
0
40
0
40
0
40
0.21522032872014
40
0.611429489730442
40
1
40
1
40
1
40
1
41
1
10
33.9163041336177
20
1.21555835394315
30
0
41
1
10
33.9095255722916
20
1.21450238407999
30
0
41
1
10
33.8914342840797
20
1.2136073925962
30
0
41
1
10
33.8642401430568
20
1.22791961755269
30
0
41
1
10
33.8530583211572
20
1.23968366903321
30
0
41
1
10
33.8493752857488
20
1.24690210694078
30
0
0
LINE
5
83
100
AcDbEntity
8
80
62
256
6
ByLayer
370
18
48
1
60
0
100
AcDbLine
10
0
20
0
30
0
11
-5
21
0
31
0
39
0
210
0
220
0
230
1
0
LINE
5
84
100
AcDbEntity
8
4
62
256
6
ByLayer
370
18
48
0.05
60
0
100
AcDbLine
10
-5
20
0
30
0
11
41.17
21
0
31
0
39
0
210
0
220
0
230
1
0
LINE
5
86
100
AcDbEntity
8
81
62
256
6
ByLayer
370
18
48
1
60
0
100
AcDbLine
10
36.17
20
0
30
0
11
41.17
21
0
31
0
39
0
210
0
220
0
230
1
0
LINE
5
87
100
AcDbEntity
8
SK4
62
256
6
ByLayer
370
18
48
0.05
60
0
100
AcDbLine
10
-24.83
20
0
30
0
11
41.17
21
0
31
0
39
0
210
0
220
0
230
1
0
LINE
5
89
100
AcDbEntity
8
1
62
256
6
ByLayer
370
18
48
1
60
0
100
AcDbLine
10
0
20
1.7905
30
0
11
0
21
-1.7905
31
0
39
0
210
0
220
0
230
1
0
LINE
5
8A
100
AcDbEntity
8
1
62
256
6
ByLayer
370
18
48
1
60
0
100
AcDbLine
10
36.27
20
0.89
30
0
11
36.27
21
0.885474
31
0
39
0
210
0
220
0
230
1
0
LINE
5
8B
100
AcDbEntity
8
1
62
256
6
ByLayer
370
18
48
1
60
0
100
AcDbLine
10
33.847385
20
1.249887
30
0
11
33.850075
21
1.245738
31
0
39
0
210
0
220
0
230
1
0
LINE
5
8C
100
AcDbEntity
8
1
62
256
6
ByLayer
370
13
48
1
60
0
100
AcDbLine
10
18.239991
20
-1.12845
30
0
11
18.239991
21
1.12845
31
0
39
0
210
0
220
0
230
1
0
LINE
5
8D
100
AcDbEntity
8
1
62
256
6
ByLayer
370
13
48
1
60
0
100
AcDbLine
10
29.330239
20
-0.041516
30
0
11
29.330239
21
0.532872
31
0
39
0
210
0
220
0
230
1
0
LINE
5
8E
100
AcDbEntity
8
1
62
256
6
ByLayer
370
13
48
1
60
0
100
AcDbLine
10
29.639262
20
-0.274667
30
0
11
29.639262
21
-0.318666
31
0
39
0
210
0
220
0
230
1
0
LINE
5
8F
100
AcDbEntity
8
1
62
256
6
ByLayer
370
13
48
1
60
0
100
AcDbLine
10
29.639262
20
0.35028
30
0
11
29.639262
21
-0.026554
31
0
39
0
210
0
220
0
230
1
0
LINE
5
90
100
AcDbEntity
8
1
62
256
6
ByLayer
370
18
48
1
60
0
100
AcDbLine
10
36.27
20
0.047588
30
0
11
36.27
21
-0.520367
31
0
39
0
210
0
220
0
230
1
0
LINE
5
91
100
AcDbEntity
8
1
62
256
6
ByLayer
370
18
48
1
60
0
100
AcDbLine
10
29.67
20
0.334919
30
0
11
29.67
21
0.142583
31
0
39
0
210
0
220
0
230
1
0
LINE
5
92
100
AcDbEntity
8
1
62
256
6
ByLayer
370
18
48
1
60
0
100
AcDbLine
10
32.467814
20
0.685807
30
0
11
32.467814
21
-0.190096
31
0
39
0
210
0
220
0
230
1
0
LINE
5
93
100
AcDbEntity
8
1
62
256
6
ByLayer
370
13
48
1
60
0
100
AcDbLine
10
18.101072
20
1.140604
30
0
11
18.101072
21
-1.140604
31
0
39
0
210
0
220
0
230
1
0
LINE
5
94
100
AcDbEntity
8
1
62
256
6
ByLayer
370
18
48
1
60
0
100
AcDbLine
10
14.415328
20
1.7905
30
0
11
14.415328
21
-1.7905
31
0
39
0
210
0
220
0
230
1
0
LINE
5
95
100
AcDbEntity
8
SK1
62
256
6
ByLayer
370
18
48
1
60
0
100
AcDbLine
10
-19.83
20
0.71888
30
0
11
-19.83
21
-0.71888
31
0
39
0
210
0
220
0
230
1
0
LINE
5
97
100
AcDbEntity
8
SK1
62
256
6
ByLayer
370
18
48
1
60
0
100
AcDbLine
10
-14.67612
20
1.71888
30
0
11
-15
21
1.395
31
0
39
0
210
0
220
0
230
1
0
LINE
5
98
100
AcDbEntity
8
SK1
62
256
6
ByLayer
370
18
48
1
60
0
100
AcDbLine
10
-18.83
20
1.395
30
0
11
-15
21
1.395
31
0
39
0
210
0
220
0
230
1
0
LINE
5
99
100
AcDbEntity
8
SK1
62
256
6
ByLayer
370
18
48
1
60
0
100
AcDbLine
10
-18.83
20
1.004253
30
0
11
-18.83
21
1.395
31
0
39
0
210
0
220
0
230
1
0
LINE
5
9A
100
AcDbEntity
8
SK1
62
256
6
ByLayer
370
18
48
1
60
0
100
AcDbLine
10
-15
20
1.004253
30
0
11
-18.83
21
1.004253
31
0
39
0
210
0
220
0
230
1
0
LINE
5
9B
100
AcDbEntity
8
SK1
62
256
6
ByLayer
370
18
48
1
60
0
100
AcDbLine
10
-18.83
20
-1.004253
30
0
11
-15
21
-1.004253
31
0
39
0
210
0
220
0
230
1
0
LINE
5
9C
100
AcDbEntity
8
SK1
62
256
6
ByLayer
370
18
48
1
60
0
100
AcDbLine
10
-18.83
20
-1.395
30
0
11
-18.83
21
-1.004253
31
0
39
0
210
0
220
0
230
1
0
LINE
5
9D
100
AcDbEntity
8
SK1
62
256
6
ByLayer
370
18
48
1
60
0
100
AcDbLine
10
-15
20
-1.395
30
0
11
-18.83
21
-1.395
31
0
39
0
210
0
220
0
230
1
0
LINE
5
9E
100
AcDbEntity
8
SK1
62
256
6
ByLayer
370
18
48
1
60
0
100
AcDbLine
10
-15
20
-1.395
30
0
11
-14.67612
21
-1.71888
31
0
39
0
210
0
220
0
230
1
0
LINE
5
9F
100
AcDbEntity
8
SK1
62
256
6
ByLayer
370
18
48
1
60
0
100
AcDbLine
10
-15
20
1.004253
30
0
11
-15
21
-1.004253
31
0
39
0
210
0
220
0
230
1
0
LINE
5
A0
100
AcDbEntity
8
SK1
62
256
6
ByLayer
370
18
48
1
60
0
100
AcDbLine
10
0
20
1.7905
30
0
11
0
21
-1.7905
31
0
39
0
210
0
220
0
230
1
0
LINE
5
A1
100
AcDbEntity
8
SK1
62
256
6
ByLayer
370
18
48
1
60
0
100
AcDbLine
10
-14.517
20
1.71888
30
0
11
-14.517
21
-1.71888
31
0
39
0
210
0
220
0
230
1
0
LINE
5
A2
100
AcDbEntity
8
SK1
62
256
6
ByLayer
370
18
48
1
60
0
100
AcDbLine
10
-14.44538
20
-1.7905
30
0
11
-14.44538
21
1.7905
31
0
39
0
210
0
220
0
230
1
0
LINE
5
A3
100
AcDbEntity
8
1
62
256
6
ByLayer
370
18
48
1
60
0
100
AcDbLine
10
36.27
20
0.89
30
0
11
36.167597
21
0.992403
31
0
39
0
210
0
220
0
230
1
0
LINE
5
A4
100
AcDbEntity
8
1
62
256
6
ByLayer
370
18
48
1
60
0
100
AcDbLine
10
30.597254
20
1.362936
30
0
11
30.206671
21
1.308043
31
0
39
0
210
0
220
0
230
1
0
LINE
5
A5
100
AcDbEntity
8
1
62
256
6
ByLayer
370
18
48
1
60
0
100
AcDbLine
10
14.415328
20
1.7905
30
0
11
0
21
1.7905
31
0
39
0
210
0
220
0
230
1
0
LINE
5
A6
100
AcDbEntity
8
1
62
256
6
ByLayer
370
18
48
1
60
0
100
AcDbLine
10
0
20
-1.7905
30
0
11
14.415328
21
-1.7905
31
0
39
0
210
0
220
0
230
1
0
LINE
5
A7
100
AcDbEntity
8
1
62
256
6
ByLayer
370
18
48
1
60
0
100
AcDbLine
10
31.933629
20
-1.550751
30
0
11
32.065323
21
-1.569259
31
0
39
0
210
0
220
0
230
1
0
LINE
5
A8
100
AcDbEntity
8
1
62
256
6
ByLayer
370
18
48
1
60
0
100
AcDbLine
10
33.623075
20
1.625826
30
0
11
33.567216
21
1.625826
31
0
39
0
210
0
220
0
230
1
0
LINE
5
A9
100
AcDbEntity
8
1
62
256
6
ByLayer
370
18
48
1
60
0
100
AcDbLine
10
18.239991
20
-1.12845
30
0
11
20.944447
21
-1.12845
31
0
39
0
210
0
220
0
230
1
0
LINE
5
AA
100
AcDbEntity
8
1
62
256
6
ByLayer
370
18
48
1
60
0
100
AcDbLine
10
22.326017
20
-1.12845
30
0
11
23.115572
21
-1.12845
31
0
39
0
210
0
220
0
230
1
0
LINE
5
AB
100
AcDbEntity
8
1
62
256
6
ByLayer
370
18
48
1
60
0
100
AcDbLine
10
25.432737
20
-1.12845
30
0
11
26.20005
21
-1.12845
31
0
39
0
210
0
220
0
230
1
0
LINE
5
AC
100
AcDbEntity
8
1
62
256
6
ByLayer
370
18
48
1
60
0
100
AcDbLine
10
28.507545
20
-1.12845
30
0
11
29.283561
21
-1.12845
31
0
39
0
210
0
220
0
230
1
0
LINE
5
AD
100
AcDbEntity
8
1
62
256
6
ByLayer
370
18
48
1
60
0
100
AcDbLine
10
27.741936
20
1.12845
30
0
11
26.969849
21
1.12845
31
0
39
0
210
0
220
0
230
1
0
LINE
5
AE
100
AcDbEntity
8
1
62
256
6
ByLayer
370
18
48
1
60
0
100
AcDbLine
10
24.658155
20
1.12845
30
0
11
23.895373
21
1.12845
31
0
39
0
210
0
220
0
230
1
0
LINE
5
AF
100
AcDbEntity
8
1
62
256
6
ByLayer
370
18
48
1
60
0
100
AcDbLine
10
21.573393
20
1.12845
30
0
11
18.239991
21
1.12845
31
0
39
0
210
0
220
0
230
1
0
LINE
5
B0
100
AcDbEntity
8
1
62
256
6
ByLayer
370
18
48
1
60
0
100
AcDbLine
10
18.101072
20
1.140604
30
0
11
14.415328
21
1.7905
31
0
39
0
210
0
220
0
230
1
0
LINE
5
B1
100
AcDbEntity
8
1
62
256
6
ByLayer
370
18
48
1
60
0
100
AcDbLine
10
14.415328
20
-1.7905
30
0
11
18.101072
21
-1.140604
31
0
39
0
210
0
220
0
230
1
0
LINE
5
B2
100
AcDbEntity
8
SK1
62
256
6
ByLayer
370
18
48
1
60
0
100
AcDbLine
10
-19.83
20
-0.71888
30
0
11
-19.15388
21
-1.395
31
0
39
0
210
0
220
0
230
1
0
LINE
5
B3
100
AcDbEntity
8
SK1
62
256
6
ByLayer
370
18
48
1
60
0
100
AcDbLine
10
-19.15388
20
1.395
30
0
11
-19.83
21
0.71888
31
0
39
0
210
0
220
0
230
1
0
LINE
5
B4
100
AcDbEntity
8
SK1
62
256
6
ByLayer
370
18
48
1
60
0
100
AcDbLine
10
-14.517
20
1.71888
30
0
11
-14.67612
21
1.71888
31
0
39
0
210
0
220
0
230
1
0
LINE
5
B5
100
AcDbEntity
8
SK1
62
256
6
ByLayer
370
18
48
1
60
0
100
AcDbLine
10
-14.67612
20
-1.71888
30
0
11
-14.517
21
-1.71888
31
0
39
0
210
0
220
0
230
1
0
LINE
5
B6
100
AcDbEntity
8
SK1
62
256
6
ByLayer
370
18
48
1
60
0
100
AcDbLine
10
0
20
1.7905
30
0
11
-14.44538
21
1.7905
31
0
39
0
210
0
220
0
230
1
0
LINE
5
B7
100
AcDbEntity
8
SK1
62
256
6
ByLayer
370
18
48
1
60
0
100
AcDbLine
10
-14.44538
20
-1.7905
30
0
11
0
21
-1.7905
31
0
39
0
210
0
220
0
230
1
0
LINE
5
B8
100
AcDbEntity
8
SK1
62
256
6
ByLayer
370
18
48
1
60
0
100
AcDbLine
10
-14.517
20
-1.71888
30
0
11
-14.44538
21
-1.7905
31
0
39
0
210
0
220
0
230
1
0
LINE
5
B9
100
AcDbEntity
8
SK1
62
256
6
ByLayer
370
18
48
1
60
0
100
AcDbLine
10
-14.44538
20
1.7905
30
0
11
-14.517
21
1.71888
31
0
39
0
210
0
220
0
230
1
0
LINE
5
BA
100
AcDbEntity
8
SK2
62
256
6
ByLayer
370
13
48
1
60
0
100
AcDbLine
10
2.47
20
59.321151
30
0
11
2.47
21
-9.2905
31
0
39
0
210
0
220
0
230
1
0
LINE
5
BC
100
AcDbEntity
8
SK2
62
256
6
ByLayer
370
13
48
1
60
0
100
AcDbLine
10
2.5575
20
1.7905
30
0
11
4.47
21
1.7905
31
0
39
0
210
0
220
0
230
1
0
LINE
5
BD
100
AcDbEntity
8
SK2
62
256
6
ByLayer
370
13
48
1
60
0
100
AcDbLine
10
2.5575
20
-1.7905
30
0
11
4.47
21
-1.7905
31
0
39
0
210
0
220
0
230
1
0
LINE
5
BE
100
AcDbEntity
8
1
62
256
6
ByLayer
370
18
48
1
60
1
100
AcDbLine
10
2.47
20
1.7905
30
0
11
2.009216
21
5.290498
31
0
39
0
210
0
220
0
230
1
0
LINE
5
BF
100
AcDbEntity
8
1
62
256
6
ByLayer
370
18
48
1
60
1
100
AcDbLine
10
2.009216
20
5.290498
30
0
11
2.930784
21
5.290502
31
0
39
0
210
0
220
0
230
1
0
LINE
5
C0
100
AcDbEntity
8
1
62
256
6
ByLayer
370
18
48
1
60
1
100
AcDbLine
10
2.930784
20
5.290502
30
0
11
2.47
21
1.7905
31
0
39
0
210
0
220
0
230
1
0
LINE
5
C1
100
AcDbEntity
8
1
62
256
6
ByLayer
370
18
48
1
60
1
100
AcDbLine
10
2.47
20
-1.7905
30
0
11
2.930784
21
-5.290498
31
0
39
0
210
0
220
0
230
1
0
LINE
5
C2
100
AcDbEntity
8
1
62
256
6
ByLayer
370
18
48
1
60
1
100
AcDbLine
10
2.930784
20
-5.290498
30
0
11
2.009216
21
-5.290502
31
0
39
0
210
0
220
0
230
1
0
LINE
5
C3
100
AcDbEntity
8
1
62
256
6
ByLayer
370
18
48
1
60
1
100
AcDbLine
10
2.009216
20
-5.290502
30
0
11
2.47
21
-1.7905
31
0
39
0
210
0
220
0
230
1
0
LINE
5
1D2
100
AcDbEntity
8
1
62
256
6
ByLayer
370
18
48
1
60
1
100
AcDbLine
10
2.47
20
1.7905
30
0
11
2.009216
21
5.290498
31
0
39
0
210
0
220
0
230
1
0
LINE
5
1D3
100
AcDbEntity
8
1
62
256
6
ByLayer
370
18
48
1
60
1
100
AcDbLine
10
2.009216
20
5.290498
30
0
11
2.930784
21
5.290502
31
0
39
0
210
0
220
0
230
1
0
LINE
5
1D4
100
AcDbEntity
8
1
62
256
6
ByLayer
370
18
48
1
60
1
100
AcDbLine
10
2.930784
20
5.290502
30
0
11
2.47
21
1.7905
31
0
39
0
210
0
220
0
230
1
0
LINE
5
1D6
100
AcDbEntity
8
1
62
256
6
ByLayer
370
18
48
1
60
1
100
AcDbLine
10
2.47
20
-1.7905
30
0
11
2.930784
21
-5.290498
31
0
39
0
210
0
220
0
230
1
0
LINE
5
1D7
100
AcDbEntity
8
1
62
256
6
ByLayer
370
18
48
1
60
1
100
AcDbLine
10
2.930784
20
-5.290498
30
0
11
2.009216
21
-5.290502
31
0
39
0
210
0
220
0
230
1
0
LINE
5
1D8
100
AcDbEntity
8
1
62
256
6
ByLayer
370
18
48
1
60
1
100
AcDbLine
10
2.009216
20
-5.290502
30
0
11
2.47
21
-1.7905
31
0
39
0
210
0
220
0
230
1
0
MTEXT
5
1CD
100
AcDbEntity
8
SK2
62
256
6
ByLayer
370
18
48
1
60
0
100
AcDbMText
10
1.128886
20
14.867937
30
0
210
0
220
0
230
1
1
%%c
40
3
41
0
44
1.084337
50
90
71
7
72
5
7
iso_b_vert
0
MTEXT
5
1D0
100
AcDbEntity
8
SK2
62
256
6
ByLayer
370
18
48
1
60
0
100
AcDbMText
10
1.280366
20
32.899855
30
0
210
0
220
0
230
1
1
\W0.8220;ASME-B94.9
40
3.5
41
0
44
1.084337
50
90
71
7
72
5
7
iso_b_vert
0
MTEXT
5
1D1
100
AcDbEntity
8
SK2
62
256
6
ByLayer
370
18
48
1
60
0
100
AcDbMText
10
1.128886
20
20.8445
30
0
210
0
220
0
230
1
1
\W0.7373;3.581
40
3
41
0
44
1.084337
50
90
71
7
72
5
7
iso_b_vert
0
MTEXT
5
1DA
100
AcDbEntity
8
SK6
62
256
6
ByLayer
370
18
48
1
60
0
100
AcDbMText
10
-10.301702
20
-67.114886
30
0
210
0
220
0
230
1
1
\W0.7635;T300-PM100AE-5-40 P1PM
40
3
41
0
44
1.084337
50
0
71
7
72
5
7
iso_b_vert
0
HATCH
5
1D5
100
AcDbEntity
8
SK2
62
256
6
ByLayer
370
13
48
1
60
0
100
AcDbHatch
10
0
20
0
30
0
210
0
220
0
230
1
2
ANSI31
70
0
71
0
91
1
92
5
93
3
72
1
10
2.47000000000003
20
1.79049999999998
11
2.00921625844725
21
5.2904983074468
72
1
10
2.00921625844725
20
5.2904983074468
11
2.9307837415528
21
5.29050169255316
72
1
10
2.9307837415528
20
5.29050169255316
11
2.47000000000003
21
1.79049999999998
97
0
75
0
76
1
52
0
41
0.0062
77
0
78
1
53
45
43
0
44
0
45
-0.0139193969876572
46
0.0139193969876572
79
0
47
0
98
1
10
0
20
0
0
HATCH
5
1D9
100
AcDbEntity
8
SK2
62
256
6
ByLayer
370
13
48
1
60
0
100
AcDbHatch
10
0
20
0
30
0
210
0
220
0
230
1
2
ANSI31
70
0
71
0
91
1
92
5
93
3
72
1
10
2.47000000000003
20
-1.79050000000001
11
2.9307837415528
21
-5.29049830744682
72
1
10
2.9307837415528
20
-5.29049830744682
11
2.00921625844725
21
-5.29050169255319
72
1
10
2.00921625844725
20
-5.29050169255319
11
2.47000000000003
21
-1.79050000000001
97
0
75
0
76
1
52
0
41
0.0062
77
0
78
1
53
45
43
0
44
0
45
-0.0139193969876572
46
0.0139193969876572
79
0
47
0
98
1
10
0
20
0
0
DIMENSION
5
1DD
100
AcDbEntity
8
SK2
62
256
6
ByLayer
370
18
48
1
60
0
100
AcDbDimension
2
_U0
10
36.17
20
-51.624454
30
0
11
8.17
21
-51.624454
31
0
70
32
71
1
72
1
41
1
210
0
220
0
230
1
3
Standard
100
AcDbAlignedDimension
13
-19.83
23
0
33
0
14
36.17
24
0
34
0
50
0
100
AcDbRotatedDimension
1001
ACAD
1000
DSTYLE
1002
{
1070
   371
1070
    13
1070
   372
1070
    13
1070
     3
1000

1070
   170
1070
     0
1070
   144
1040
1.0
1070
   277
1070
     2
1070
   284
1070
     8
1070
   278
1070
    46
1070
   146
1040
1.166667
1070
   345
1005
16
1070
   347
1005
16
1070
   346
1005
16
1070
   344
1005
0
1070
   343
1005
0
1070
   172
1070
     1
1070
    76
1070
     0
1070
    75
1070
     0
1070
   282
1070
     0
1070
   281
1070
     0
1070
    71
1070
     0
1070
    74
1070
     0
1070
   279
1070
     0
1070
   173
1070
     1
1070
   340
1005
1CE
1070
   271
1070
     2
1070
   272
1070
     3
1070
    77
1070
     1
1070
    73
1070
     1
1070
   171
1070
     3
1070
   274
1070
     4
1070
   177
1070
     2
1070
   176
1070
     2
1070
   178
1070
     2
1070
    78
1070
     8
1070
    48
1040
-0.1
1070
    41
1040
3.5
1070
   147
1040
1.5
1070
    42
1040
1.5875
1070
    44
1040
2.0
1070
   140
1040
3.0
1002
}
1001
ACAD_DSTYLE_DIM_LINETYPE
1070
   380
1005
16
1001
ACAD_DSTYLE_DIM_EXT1_LINETYPE
1070
   381
1005
16
1001
ACAD_DSTYLE_DIM_EXT2_LINETYPE
1070
   382
1005
16
0
DIMENSION
5
1F6
100
AcDbEntity
8
SK2
62
256
6
ByLayer
370
18
48
1
60
0
100
AcDbDimension
2
_U1
10
18.17
20
-43.624454
30
0
11
27.17
21
-43.624454
31
0
70
32
71
1
72
1
41
1
210
0
220
0
230
1
3
Standard
100
AcDbAlignedDimension
13
36.17
23
0
33
0
14
18.17
24
0
34
0
50
0
100
AcDbRotatedDimension
1001
ACAD
1000
DSTYLE
1002
{
1070
   371
1070
    13
1070
   372
1070
    13
1070
     3
1000

1070
   170
1070
     0
1070
   144
1040
1.0
1070
   277
1070
     2
1070
   284
1070
     8
1070
   278
1070
    46
1070
   146
1040
1.166667
1070
   345
1005
16
1070
   347
1005
16
1070
   346
1005
16
1070
   344
1005
0
1070
   343
1005
0
1070
   172
1070
     1
1070
    76
1070
     0
1070
    75
1070
     0
1070
   282
1070
     0
1070
   281
1070
     0
1070
    71
1070
     0
1070
    74
1070
     0
1070
   279
1070
     0
1070
   173
1070
     1
1070
   340
1005
1CE
1070
   271
1070
     2
1070
   272
1070
     3
1070
    77
1070
     1
1070
    73
1070
     1
1070
   171
1070
     3
1070
   274
1070
     4
1070
   177
1070
     2
1070
   176
1070
     2
1070
   178
1070
     2
1070
    78
1070
     8
1070
    48
1040
-0.1
1070
    41
1040
3.5
1070
   147
1040
1.5
1070
    42
1040
1.5875
1070
    44
1040
2.0
1070
   140
1040
3.0
1002
}
1001
ACAD_DSTYLE_DIM_LINETYPE
1070
   380
1005
16
1001
ACAD_DSTYLE_DIM_EXT1_LINETYPE
1070
   381
1005
16
1001
ACAD_DSTYLE_DIM_EXT2_LINETYPE
1070
   382
1005
16
0
DIMENSION
5
20E
100
AcDbEntity
8
2
62
256
6
ByLayer
370
18
48
1
60
0
100
AcDbDimension
2
_U2
10
20.87
20
-35.624454
30
0
11
28.52
21
-35.624454
31
0
70
32
71
1
72
1
41
1
210
0
220
0
230
1
3
Standard
100
AcDbAlignedDimension
13
36.17
23
0
33
0
14
20.87
24
0
34
0
50
0
100
AcDbRotatedDimension
1001
ACAD
1000
DSTYLE
1002
{
1070
   371
1070
    13
1070
   372
1070
    13
1070
     3
1000

1070
   170
1070
     0
1070
   144
1040
1.0
1070
   277
1070
     2
1070
   284
1070
     8
1070
   278
1070
    46
1070
   146
1040
1.166667
1070
   345
1005
16
1070
   347
1005
16
1070
   346
1005
16
1070
   344
1005
0
1070
   343
1005
0
1070
   172
1070
     1
1070
    76
1070
     0
1070
    75
1070
     0
1070
   282
1070
     0
1070
   281
1070
     0
1070
    71
1070
     0
1070
    74
1070
     0
1070
   279
1070
     0
1070
   173
1070
     1
1070
   340
1005
1CE
1070
   271
1070
     2
1070
   272
1070
     3
1070
    77
1070
     1
1070
    73
1070
     1
1070
   171
1070
     3
1070
   274
1070
     4
1070
   177
1070
     2
1070
   176
1070
     2
1070
   178
1070
     2
1070
    78
1070
     8
1070
    48
1040
-0.1
1070
    41
1040
3.5
1070
   147
1040
1.5
1070
    42
1040
1.5875
1070
    44
1040
2.0
1070
   140
1040
3.0
1002
}
1001
ACAD_DSTYLE_DIM_LINETYPE
1070
   380
1005
16
1001
ACAD_DSTYLE_DIM_EXT1_LINETYPE
1070
   381
1005
16
1001
ACAD_DSTYLE_DIM_EXT2_LINETYPE
1070
   382
1005
16
0
DIMENSION
5
228
100
AcDbEntity
8
SK2
62
256
6
ByLayer
370
18
48
1
60
0
100
AcDbDimension
2
_U3
10
29.67
20
-27.624454
30
0
11
32.92
21
-27.624454
31
0
70
32
71
1
72
1
41
1
210
0
220
0
230
1
3
Standard
100
AcDbAlignedDimension
13
36.17
23
0
33
0
14
29.67
24
-1.12845
34
0
50
0
100
AcDbRotatedDimension
1001
ACAD
1000
DSTYLE
1002
{
1070
   371
1070
    13
1070
   372
1070
    13
1070
     3
1000

1070
   170
1070
     0
1070
   144
1040
1.0
1070
   277
1070
     2
1070
   284
1070
     8
1070
   278
1070
    46
1070
   146
1040
1.166667
1070
   345
1005
16
1070
   347
1005
16
1070
   346
1005
16
1070
   344
1005
0
1070
   343
1005
0
1070
   172
1070
     1
1070
    76
1070
     0
1070
    75
1070
     0
1070
   282
1070
     0
1070
   281
1070
     0
1070
    71
1070
     0
1070
    74
1070
     0
1070
   279
1070
     0
1070
   173
1070
     1
1070
   340
1005
1CE
1070
   271
1070
     2
1070
   272
1070
     3
1070
    77
1070
     1
1070
    73
1070
     1
1070
   171
1070
     3
1070
   274
1070
     4
1070
   177
1070
     2
1070
   176
1070
     2
1070
   178
1070
     2
1070
    78
1070
     8
1070
    48
1040
-0.1
1070
    41
1040
3.5
1070
   147
1040
1.5
1070
    42
1040
1.5875
1070
    44
1040
2.0
1070
   140
1040
3.0
1002
}
1001
ACAD_DSTYLE_DIM_LINETYPE
1070
   380
1005
16
1001
ACAD_DSTYLE_DIM_EXT1_LINETYPE
1070
   381
1005
16
1001
ACAD_DSTYLE_DIM_EXT2_LINETYPE
1070
   382
1005
16
0
DIMENSION
5
241
100
AcDbEntity
8
SK2
62
256
6
ByLayer
370
18
48
1
60
0
100
AcDbDimension
2
_U4
10
34.42
20
3.751652
30
0
11
35.295
21
3.751652
31
0
70
32
71
1
72
1
41
1
210
0
220
0
230
1
3
Standard
100
AcDbAlignedDimension
13
36.17
23
0
33
0
14
34.42
24
0
34
0
50
0
100
AcDbRotatedDimension
1001
ACAD
1000
DSTYLE
1002
{
1070
   371
1070
    13
1070
   372
1070
    13
1070
     3
1000

1070
   170
1070
     0
1070
   144
1040
1.0
1070
   277
1070
     2
1070
   284
1070
     8
1070
   278
1070
    46
1070
   146
1040
1.166667
1070
   345
1005
16
1070
   347
1005
16
1070
   346
1005
16
1070
   344
1005
0
1070
   343
1005
0
1070
   172
1070
     1
1070
    76
1070
     0
1070
    75
1070
     0
1070
   282
1070
     0
1070
   281
1070
     0
1070
    71
1070
     0
1070
    74
1070
     0
1070
   279
1070
     0
1070
   173
1070
     1
1070
   340
1005
1CE
1070
   271
1070
     2
1070
   272
1070
     3
1070
    77
1070
     1
1070
    73
1070
     1
1070
   171
1070
     3
1070
   274
1070
     4
1070
   177
1070
     2
1070
   176
1070
     2
1070
   178
1070
     2
1070
    78
1070
     8
1070
    48
1040
-0.1
1070
    41
1040
3.5
1070
   147
1040
1.5
1070
    42
1040
1.5875
1070
    44
1040
2.0
1070
   140
1040
3.0
1002
}
1001
ACAD_DSTYLE_DIM_LINETYPE
1070
   380
1005
16
1001
ACAD_DSTYLE_DIM_EXT1_LINETYPE
1070
   381
1005
16
1001
ACAD_DSTYLE_DIM_EXT2_LINETYPE
1070
   382
1005
16
0
DIMENSION
5
25B
100
AcDbEntity
8
2
62
256
6
ByLayer
370
18
48
1
60
0
100
AcDbDimension
2
_U5
10
52.67
20
1.625826
30
0
11
52.67
21
17.697254
31
0
70
32
71
1
72
1
41
1
210
0
220
0
230
1
3
Standard
100
AcDbAlignedDimension
13
36.17
23
-1.625826
33
0
14
36.17
24
1.625826
34
0
50
90
100
AcDbRotatedDimension
1001
ACAD
1000
DSTYLE
1002
{
1070
   371
1070
    13
1070
   372
1070
    13
1070
     3
1000

1070
   170
1070
     0
1070
   144
1040
1.0
1070
   277
1070
     2
1070
   284
1070
     8
1070
   278
1070
    46
1070
   146
1040
1.166667
1070
   345
1005
16
1070
   347
1005
16
1070
   346
1005
16
1070
   344
1005
0
1070
   343
1005
0
1070
   172
1070
     1
1070
    76
1070
     0
1070
    75
1070
     0
1070
   282
1070
     0
1070
   281
1070
     0
1070
    71
1070
     0
1070
    74
1070
     0
1070
   279
1070
     0
1070
   173
1070
     1
1070
   340
1005
1CE
1070
   271
1070
     2
1070
   272
1070
     3
1070
    77
1070
     1
1070
    73
1070
     0
1070
   171
1070
     3
1070
   274
1070
     4
1070
   177
1070
     2
1070
   176
1070
     2
1070
   178
1070
     2
1070
    78
1070
     8
1070
    48
1040
-0.1
1070
    41
1040
3.5
1070
   147
1040
1.5
1070
    42
1040
1.5875
1070
    44
1040
2.0
1070
   140
1040
3.0
1002
}
1001
ACAD_DSTYLE_DIM_LINETYPE
1070
   380
1005
16
1001
ACAD_DSTYLE_DIM_EXT1_LINETYPE
1070
   381
1005
16
1001
ACAD_DSTYLE_DIM_EXT2_LINETYPE
1070
   382
1005
16
0
DIMENSION
5
276
100
AcDbEntity
8
SK2
62
256
6
ByLayer
370
18
48
1
60
0
100
AcDbDimension
2
_U6
10
-25.33
20
-1.395
30
0
11
-25.33
21
17.395
31
0
70
32
71
1
72
1
41
1
210
0
220
0
230
1
3
Standard
100
AcDbAlignedDimension
13
-19.83
23
1.395
33
0
14
-19.83
24
-1.395
34
0
50
90
100
AcDbRotatedDimension
1001
ACAD
1000
DSTYLE
1002
{
1070
   371
1070
    13
1070
   372
1070
    13
1070
     3
1000

1070
   170
1070
     0
1070
   144
1040
1.0
1070
   277
1070
     2
1070
   284
1070
     8
1070
   278
1070
    46
1070
   146
1040
1.166667
1070
   345
1005
16
1070
   347
1005
16
1070
   346
1005
16
1070
   344
1005
0
1070
   343
1005
0
1070
   172
1070
     1
1070
    76
1070
     0
1070
    75
1070
     0
1070
   282
1070
     0
1070
   281
1070
     0
1070
    71
1070
     0
1070
    74
1070
     0
1070
   279
1070
     0
1070
   173
1070
     1
1070
   340
1005
1CE
1070
   271
1070
     2
1070
   272
1070
     3
1070
    77
1070
     1
1070
    73
1070
     0
1070
   171
1070
     3
1070
   274
1070
     4
1070
   177
1070
     2
1070
   176
1070
     2
1070
   178
1070
     2
1070
    78
1070
     8
1070
    48
1040
-0.1
1070
    41
1040
3.5
1070
   147
1040
1.5
1070
    42
1040
1.5875
1070
    44
1040
2.0
1070
   140
1040
3.0
1002
}
1001
ACAD_DSTYLE_DIM_LINETYPE
1070
   380
1005
16
1001
ACAD_DSTYLE_DIM_EXT1_LINETYPE
1070
   381
1005
16
1001
ACAD_DSTYLE_DIM_EXT2_LINETYPE
1070
   382
1005
16
0
ENDSEC
0
SECTION
2
OBJECTS
0
DICTIONARY
5
300
330
0
100
AcDbDictionary
280
0
281
1
3
ACAD_GROUP
350
301
3
ACAD_MLINESTYLE
350
302
0
DICTIONARY
5
301
330
0
100
AcDbDictionary
280
0
281
1
0
DICTIONARY
5
302
330
0
100
AcDbDictionary
280
0
281
1
3
Standard
350
18
0
MLINESTYLE
5
18
330
302
100
AcDbMlineStyle
2
Standard
70
0
3

62
256
51
90
52
90
71
2
49
-0.5
62
256
6
ByLayer
49
0.5
62
256
6
ByLayer
0
RASTERVARIABLES
5
2ee
330

100
AcDbRasterVariables
90
0
70
1
71
1
72
1
0
ENDSEC
0
EOF
